  0
SECTION
  2
HEADER
  9
$ACADVER
  1
AC1015
  9
$ACADMAINTVER
 70
     6
  9
$DWGCODEPAGE
  3
ANSI_1252
  9
$INSBASE
 10
0.0
 20
0.0
 30
0.0
  9
$EXTMIN
 10
0.0
 20
0.0
 30
0.0
  9
$EXTMAX
 10
297.0
 20
210.0
 30
0.0
  9
$LIMMIN
 10
0.0
 20
0.0
  9
$LIMMAX
 10
297.0
 20
210.0
  9
$ORTHOMODE
 70
     0
  9
$REGENMODE
 70
     1
  9
$FILLMODE
 70
     1
  9
$QTEXTMODE
 70
     0
  9
$MIRRTEXT
 70
     1
  9
$LTSCALE
 40
1.0
  9
$ATTMODE
 70
     1
  9
$TEXTSIZE
 40
2.0
  9
$TRACEWID
 40
1.0
  9
$TEXTSTYLE
  7
Standard
  9
$CLAYER
  8
0
  9
$CELTYPE
  6
ByLayer
  9
$CECOLOR
 62
   256
  9
$CELTSCALE
 40
1.0
  9
$DISPSILH
 70
     0
  9
$DIMSCALE
 40
1.0
  9
$DIMASZ
 40
3.0
  9
$DIMEXO
 40
0.0
  9
$DIMDLI
 40
3.75
  9
$DIMRND
 40
0.0
  9
$DIMDLE
 40
0.0
  9
$DIMEXE
 40
1.0
  9
$DIMTP
 40
0.0
  9
$DIMTM
 40
0.0
  9
$DIMTXT
 40
2.0
  9
$DIMCEN
 40
2.5
  9
$DIMTSZ
 40
0.0
  9
$DIMTOL
 70
     0
  9
$DIMLIM
 70
     0
  9
$DIMTIH
 70
     1
  9
$DIMTOH
 70
     1
  9
$DIMSE1
 70
     0
  9
$DIMSE2
 70
     0
  9
$DIMTAD
 70
     1
  9
$DIMZIN
 70
     0
  9
$DIMBLK
  1

  9
$DIMASO
 70
     1
  9
$DIMSHO
 70
     1
  9
$DIMPOST
  1

  9
$DIMAPOST
  1

  9
$DIMALT
 70
     0
  9
$DIMALTD
 70
     3
  9
$DIMALTF
 40
0.0393700787
  9
$DIMLFAC
 40
1.0
  9
$DIMTOFL
 70
     1
  9
$DIMTVP
 40
0.0
  9
$DIMTIX
 70
     0
  9
$DIMSOXD
 70
     0
  9
$DIMSAH
 70
     0
  9
$DIMBLK1
  1

  9
$DIMBLK2
  1

  9
$DIMSTYLE
  2
ISO-25
  9
$DIMCLRD
 70
     0
  9
$DIMCLRE
 70
     0
  9
$DIMCLRT
 70
     0
  9
$DIMTFAC
 40
1.0
  9
$DIMGAP
 40
1.524
  9
$DIMJUST
 70
     0
  9
$DIMSD1
 70
     0
  9
$DIMSD2
 70
     0
  9
$DIMTOLJ
 70
     0
  9
$DIMTZIN
 70
     0
  9
$DIMALTZ
 70
     0
  9
$DIMALTTZ
 70
     0
  9
$DIMUPT
 70
     0
  9
$DIMDEC
 70
     2
  9
$DIMTDEC
 70
     3
  9
$DIMALTU
 70
     2
  9
$DIMALTTD
 70
     3
  9
$DIMTXSTY
  7
Standard
  9
$DIMAUNIT
 70
     0
  9
$DIMADEC
 70
     2
  9
$DIMALTRND
 40
0.0
  9
$DIMAZIN
 70
     0
  9
$DIMDSEP
 70
    44
  9
$DIMATFIT
 70
     3
  9
$DIMFRAC
 70
     0
  9
$DIMLDRBLK
  1

  9
$DIMLUNIT
 70
     2
  9
$DIMLWD
 70
    -2
  9
$DIMLWE
 70
    -2
  9
$DIMTMOVE
 70
     0
  9
$LUNITS
 70
     2
  9
$LUPREC
 70
     2
  9
$SKETCHINC
 40
1.0
  9
$FILLETRAD
 40
10.0
  9
$AUNITS
 70
     0
  9
$AUPREC
 70
     2
  9
$MENU
  1
.
  9
$ELEVATION
 40
0.0
  9
$PELEVATION
 40
0.0
  9
$THICKNESS
 40
0.0
  9
$LIMCHECK
 70
     0
  9
$CHAMFERA
 40
0.0
  9
$CHAMFERB
 40
0.0
  9
$CHAMFERC
 40
0.0
  9
$CHAMFERD
 40
0.0
  9
$SKPOLY
 70
     0
  9
$TDCREATE
 40
2457669.620849456
  9
$TDUCREATE
 40
2457669.537516123
  9
$TDUPDATE
 40
2457669.62085059
  9
$TDUUPDATE
 40
2457669.537517257
  9
$TDINDWG
 40
0.0000000116
  9
$TDUSRTIMER
 40
0.0000000116
  9
$USRTIMER
 70
     1
  9
$ANGBASE
 50
0.0
  9
$ANGDIR
 70
     0
  9
$PDMODE
 70
     0
  9
$PDSIZE
 40
-1.0
  9
$PLINEWID
 40
0.0
  9
$SPLFRAME
 70
     0
  9
$SPLINETYPE
 70
     6
  9
$SPLINESEGS
 70
     8
  9
$HANDSEED
  5
1E6
  9
$SURFTAB1
 70
     6
  9
$SURFTAB2
 70
     6
  9
$SURFTYPE
 70
     6
  9
$SURFU
 70
     6
  9
$SURFV
 70
     6
  9
$UCSBASE
  2

  9
$UCSNAME
  2

  9
$UCSORG
 10
0.0
 20
0.0
 30
0.0
  9
$UCSXDIR
 10
1.0
 20
0.0
 30
0.0
  9
$UCSYDIR
 10
0.0
 20
1.0
 30
0.0
  9
$UCSORTHOREF
  2

  9
$UCSORTHOVIEW
 70
     0
  9
$UCSORGTOP
 10
0.0
 20
0.0
 30
0.0
  9
$UCSORGBOTTOM
 10
0.0
 20
0.0
 30
0.0
  9
$UCSORGLEFT
 10
0.0
 20
0.0
 30
0.0
  9
$UCSORGRIGHT
 10
0.0
 20
0.0
 30
0.0
  9
$UCSORGFRONT
 10
0.0
 20
0.0
 30
0.0
  9
$UCSORGBACK
 10
0.0
 20
0.0
 30
0.0
  9
$PUCSBASE
  2

  9
$PUCSNAME
  2

  9
$PUCSORG
 10
0.0
 20
0.0
 30
0.0
  9
$PUCSXDIR
 10
1.0
 20
0.0
 30
0.0
  9
$PUCSYDIR
 10
0.0
 20
1.0
 30
0.0
  9
$PUCSORTHOREF
  2

  9
$PUCSORTHOVIEW
 70
     0
  9
$PUCSORGTOP
 10
0.0
 20
0.0
 30
0.0
  9
$PUCSORGBOTTOM
 10
0.0
 20
0.0
 30
0.0
  9
$PUCSORGLEFT
 10
0.0
 20
0.0
 30
0.0
  9
$PUCSORGRIGHT
 10
0.0
 20
0.0
 30
0.0
  9
$PUCSORGFRONT
 10
0.0
 20
0.0
 30
0.0
  9
$PUCSORGBACK
 10
0.0
 20
0.0
 30
0.0
  9
$USERI1
 70
     0
  9
$USERI2
 70
     0
  9
$USERI3
 70
     0
  9
$USERI4
 70
     0
  9
$USERI5
 70
     0
  9
$USERR1
 40
0.0
  9
$USERR2
 40
0.0
  9
$USERR3
 40
0.0
  9
$USERR4
 40
0.0
  9
$USERR5
 40
0.0
  9
$WORLDVIEW
 70
     1
  9
$SHADEDGE
 70
     3
  9
$SHADEDIF
 70
    70
  9
$TILEMODE
 70
     1
  9
$MAXACTVP
 70
    64
  9
$PINSBASE
 10
0.0
 20
0.0
 30
0.0
  9
$PLIMCHECK
 70
     0
  9
$PEXTMIN
 10
1.0000000000E+20
 20
1.0000000000E+20
 30
1.0000000000E+20
  9
$PEXTMAX
 10
-1.0000000000E+20
 20
-1.0000000000E+20
 30
-1.0000000000E+20
  9
$PLIMMIN
 10
0.0
 20
0.0
  9
$PLIMMAX
 10
420.0
 20
297.0
  9
$UNITMODE
 70
     0
  9
$VISRETAIN
 70
     1
  9
$PLINEGEN
 70
     0
  9
$PSLTSCALE
 70
     1
  9
$TREEDEPTH
 70
  3020
  9
$CMLSTYLE
  2
Standard
  9
$CMLJUST
 70
     0
  9
$CMLSCALE
 40
20.0
  9
$PROXYGRAPHICS
 70
     1
  9
$MEASUREMENT
 70
     1
  9
$CELWEIGHT
370
    -1
  9
$ENDCAPS
280
     0
  9
$JOINSTYLE
280
     0
  9
$LWDISPLAY
290
     1
  9
$INSUNITS
 70
     4
  9
$HYPERLINKBASE
  1

  9
$STYLESHEET
  1

  9
$XEDIT
290
     1
  9
$CEPSNTYPE
380
     0
  9
$PSTYLEMODE
290
     1
  9
$FINGERPRINTGUID
  2
{04E8E63D-4CB3-4B4A-92A0-B8D8EF6B2D0F}
  9
$VERSIONGUID
  2
{FAEB1C32-E019-11D5-929B-00C0DF256EC4}
  9
$EXTNAMES
290
     1
  9
$PSVPSCALE
 40
0.0
  9
$OLESTARTUP
290
     0
  0
ENDSEC
  0
SECTION
  2
CLASSES
  0
CLASS
  1
ACDBDICTIONARYWDFLT
  2
AcDbDictionaryWithDefault
  3
ObjectDBX Classes
 90
        0
280
     0
281
     0
  0
CLASS
  1
VISUALSTYLE
  2
AcDbVisualStyle
  3
ObjectDBX Classes
 90
     4095
280
     0
281
     0
  0
CLASS
  1
MATERIAL
  2
AcDbMaterial
  3
ObjectDBX Classes
 90
     1153
280
     0
281
     0
  0
CLASS
  1
SCALE
  2
AcDbScale
  3
ObjectDBX Classes
 90
     1153
280
     0
281
     0
  0
CLASS
  1
TABLESTYLE
  2
AcDbTableStyle
  3
ObjectDBX Classes
 90
     4095
280
     0
281
     0
  0
CLASS
  1
MLEADERSTYLE
  2
AcDbMLeaderStyle
  3
ACDB_MLEADERSTYLE_CLASS
 90
     4095
280
     0
281
     0
  0
CLASS
  1
SUN
  2
AcDbSun
  3
SCENEOE
 90
     1153
280
     0
281
     0
  0
CLASS
  1
ACDBPLACEHOLDER
  2
AcDbPlaceHolder
  3
ObjectDBX Classes
 90
        0
280
     0
281
     0
  0
CLASS
  1
LAYOUT
  2
AcDbLayout
  3
ObjectDBX Classes
 90
        0
280
     0
281
     0
  0
ENDSEC
  0
SECTION
  2
TABLES
  0
TABLE
  2
VPORT
  5
8
330
0
100
AcDbSymbolTable
 70
     1
  0
VPORT
  5
29
330
8
100
AcDbSymbolTableRecord
100
AcDbViewportTableRecord
  2
*Active
 70
     0
 10
0.0
 20
0.0
 11
1.0
 21
1.0
 12
148.5
 22
105.0
 13
0.0
 23
0.0
 14
10.0
 24
10.0
 15
10.0
 25
10.0
 16
0.0
 26
0.0
 36
1.0
 17
0.0
 27
0.0
 37
0.0
 40
210.0
 41
1.4142857143
 42
50.0
 43
0.0
 44
0.0
 50
0.0
 51
0.0
 71
     0
 72
  2000
 73
     1
 74
     3
 75
     0
 76
     0
 77
     0
 78
     0
281
     0
 65
     1
110
0.0
120
0.0
130
0.0
111
1.0
121
0.0
131
0.0
112
0.0
122
1.0
132
0.0
 79
     0
146
0.0
  0
ENDTAB
  0
TABLE
  2
LTYPE
  5
5
330
0
100
AcDbSymbolTable
 70
     6
  0
LTYPE
  5
14
330
5
100
AcDbSymbolTableRecord
100
AcDbLinetypeTableRecord
  2
ByBlock
 70
     0
  3

 72
    65
 73
     0
 40
0.0
  0
LTYPE
  5
15
330
5
100
AcDbSymbolTableRecord
100
AcDbLinetypeTableRecord
  2
ByLayer
 70
     0
  3

 72
    65
 73
     0
 40
0.0
  0
LTYPE
  5
16
330
5
100
AcDbSymbolTableRecord
100
AcDbLinetypeTableRecord
  2
Continuous
 70
     0
  3
Solid line
 72
    65
 73
     0
 40
0.0
  0
LTYPE
  5
6E
330
5
100
AcDbSymbolTableRecord
100
AcDbLinetypeTableRecord
  2
HIDDEN
 70
     0
  3
Hidden __ __ __ __ __ __ __ __ __ __ __ __ __ __
 72
    65
 73
     2
 40
1.905
 49
1.27
 74
     0
 49
-0.635
 74
     0
  0
LTYPE
  5
6F
330
5
100
AcDbSymbolTableRecord
100
AcDbLinetypeTableRecord
  2
PHANTOM
 70
     0
  3
Phantom ______  __  __  ______  __  __  ______
 72
    65
 73
     6
 40
12.7
 49
6.35
 74
     0
 49
-1.27
 74
     0
 49
1.27
 74
     0
 49
-1.27
 74
     0
 49
1.27
 74
     0
 49
-1.27
 74
     0
  0
LTYPE
  5
70
330
5
100
AcDbSymbolTableRecord
100
AcDbLinetypeTableRecord
  2
CENTER
 70
     0
  3
Center ____ _ ____ _ ____ _ ____ _ ____ _ ____
 72
    65
 73
     4
 40
10.16
 49
6.35
 74
     0
 49
-1.27
 74
     0
 49
1.27
 74
     0
 49
-1.27
 74
     0
  0
LTYPE
  5
71
330
5
100
AcDbSymbolTableRecord
100
AcDbLinetypeTableRecord
  2
CENTERX2
 70
     0
  3
Center (2x) ________  __  ________  __  _____
 72
    65
 73
     4
 40
20.32
 49
12.7
 74
     0
 49
-2.54
 74
     0
 49
2.54
 74
     0
 49
-2.54
 74
     0
  0
LTYPE
  5
72
330
5
100
AcDbSymbolTableRecord
100
AcDbLinetypeTableRecord
  2
DOT2
 70
     0
  3
Dot (.5x) ........................................
 72
    65
 73
     2
 40
0.635
 49
0.0
 74
     0
 49
-0.635
 74
     0
  0
ENDTAB
  0
TABLE
  2
LAYER
  5
2
330
0
100
AcDbSymbolTable
 70
     5
  0
LAYER
  5
10
330
2
100
AcDbSymbolTableRecord
100
AcDbLayerTableRecord
  2
0
 70
     0
 62
     7
  6
Continuous
370
    -3
390
F
  0
LAYER
  5
73
330
2
100
AcDbSymbolTableRecord
100
AcDbLayerTableRecord
  2
FORMAT
 70
     0
 62
     7
  6
Continuous
370
    -3
390
F
  0
LAYER
  5
74
330
2
100
AcDbSymbolTableRecord
100
AcDbLayerTableRecord
  2
VERMASSUNG
 70
     0
 62
     7
  6
Continuous
370
    -3
390
F
  0
LAYER
  5
75
330
2
100
AcDbSymbolTableRecord
100
AcDbLayerTableRecord
  2
KOPF_DÜNN
 70
     0
 62
     7
  6
Continuous
370
    -3
390
F
  0
LAYER
  5
76
330
2
100
AcDbSymbolTableRecord
100
AcDbLayerTableRecord
  2
KOPF_DICK
 70
     0
 62
     7
  6
Continuous
370
    15
390
F
  0
ENDTAB
  0
TABLE
  2
STYLE
  5
3
330
0
100
AcDbSymbolTable
 70
     3
  0
STYLE
  5
11
330
3
100
AcDbSymbolTableRecord
100
AcDbTextStyleTableRecord
  2
Standard
 70
     0
 40
0.0
 41
1.0
 50
0.0
 71
     0
 42
2.0
  3
txt
  4

  0
STYLE
  5
77
330
3
100
AcDbSymbolTableRecord
100
AcDbTextStyleTableRecord
  2
SLDTEXTSTYLE0
 70
     0
 40
0.0
 41
0.7
 50
0.0
 71
     0
 42
2.0
  3
TXT
  4

  0
STYLE
  5
7B
330
3
100
AcDbSymbolTableRecord
100
AcDbTextStyleTableRecord
  2
SLDTEXTSTYLE1
 70
     0
 40
0.0
 41
0.6538461538
 50
0.0
 71
     0
 42
2.0
  3
TXT
  4

  0
ENDTAB
  0
TABLE
  2
VIEW
  5
6
330
0
100
AcDbSymbolTable
 70
     0
  0
ENDTAB
  0
TABLE
  2
UCS
  5
7
330
0
100
AcDbSymbolTable
 70
     0
  0
ENDTAB
  0
TABLE
  2
APPID
  5
9
330
0
100
AcDbSymbolTable
 70
     1
  0
APPID
  5
12
330
9
100
AcDbSymbolTableRecord
100
AcDbRegAppTableRecord
  2
ACAD
 70
     0
  0
ENDTAB
  0
TABLE
  2
DIMSTYLE
  5
A
330
0
100
AcDbSymbolTable
 70
     2
100
AcDbDimStyleTable
  0
DIMSTYLE
105
27
330
A
100
AcDbSymbolTableRecord
100
AcDbDimStyleTableRecord
  2
ISO-25
 70
     0
 41
2.5
 42
0.625
 43
3.75
 44
1.25
 73
     0
 74
     0
 77
     1
 78
     8
140
2.5
141
2.5
143
0.0393700787
147
0.625
171
     3
172
     1
178
     0
271
     2
272
     2
274
     3
278
    44
283
     0
284
     8
340
11
  0
DIMSTYLE
105
11A
102
{ACAD_REACTORS
330
119
330
126
330
131
330
13D
330
147
330
153
102
}
330
A
100
AcDbSymbolTableRecord
100
AcDbDimStyleTableRecord
  2
SLDDIMSTYLE0
 70
     0
 41
3.0
 44
0.0
 45
0.000000001
 73
     0
 74
     0
 77
     1
 78
    12
 79
     3
140
2.0
147
0.5
173
     1
178
     0
271
     2
272
     3
276
     2
284
    12
340
77
  0
ENDTAB
  0
TABLE
  2
BLOCK_RECORD
  5
1
330
0
100
AcDbSymbolTable
 70
     7
  0
BLOCK_RECORD
  5
1F
330
1
100
AcDbSymbolTableRecord
100
AcDbBlockTableRecord
  2
*Model_Space
340
22
  0
BLOCK_RECORD
  5
1B
330
1
100
AcDbSymbolTableRecord
100
AcDbBlockTableRecord
  2
*Paper_Space
340
1E
  0
BLOCK_RECORD
  5
23
330
1
100
AcDbSymbolTableRecord
100
AcDbBlockTableRecord
  2
*Paper_Space0
340
26
  0
BLOCK_RECORD
  5
11B
330
1
100
AcDbSymbolTableRecord
100
AcDbBlockTableRecord
  2
_D
340
0
  0
BLOCK_RECORD
  5
127
330
1
100
AcDbSymbolTableRecord
100
AcDbBlockTableRecord
  2
_D_1
340
0
  0
BLOCK_RECORD
  5
132
330
1
100
AcDbSymbolTableRecord
100
AcDbBlockTableRecord
  2
_D_2
340
0
  0
BLOCK_RECORD
  5
13E
330
1
100
AcDbSymbolTableRecord
100
AcDbBlockTableRecord
  2
_D_3
340
0
  0
BLOCK_RECORD
  5
148
330
1
100
AcDbSymbolTableRecord
100
AcDbBlockTableRecord
  2
_D_4
340
0
  0
BLOCK_RECORD
  5
154
330
1
100
AcDbSymbolTableRecord
100
AcDbBlockTableRecord
  2
_D_5
340
0
  0
ENDTAB
  0
ENDSEC
  0
SECTION
  2
BLOCKS
  0
BLOCK
  5
20
330
1F
100
AcDbEntity
  8
0
100
AcDbBlockBegin
  2
*Model_Space
 70
     0
 10
0.0
 20
0.0
 30
0.0
  3
*Model_Space
  1

  0
ENDBLK
  5
21
330
1F
100
AcDbEntity
  8
0
100
AcDbBlockEnd
  0
BLOCK
  5
1C
330
1B
100
AcDbEntity
 67
     1
  8
0
100
AcDbBlockBegin
  2
*Paper_Space
 70
     0
 10
0.0
 20
0.0
 30
0.0
  3
*Paper_Space
  1

  0
ENDBLK
  5
1D
330
1B
100
AcDbEntity
 67
     1
  8
0
100
AcDbBlockEnd
  0
BLOCK
  5
24
330
23
100
AcDbEntity
  8
0
100
AcDbBlockBegin
  2
*Paper_Space0
 70
     0
 10
0.0
 20
0.0
 30
0.0
  3
*Paper_Space0
  1

  0
ENDBLK
  5
25
330
23
100
AcDbEntity
  8
0
100
AcDbBlockEnd
  0
BLOCK
  5
11C
330
11B
100
AcDbEntity
  8
0
100
AcDbBlockBegin
  2
_D
 70
     0
 10
0.0
 20
0.0
 30
0.0
  3
_D
  1

  0
SOLID
  5
11E
330
11B
100
AcDbEntity
  8
VERMASSUNG
100
AcDbTrace
 10
245.947982628
 20
125.7029954131
 30
0.0
 11
245.497982628
 21
122.7029954131
 31
0.0
 12
246.397982628
 22
122.7029954131
 32
0.0
 13
246.397982628
 23
122.7029954131
 33
0.0
  0
SOLID
  5
11F
330
11B
100
AcDbEntity
  8
VERMASSUNG
100
AcDbTrace
 10
245.947982628
 20
93.7029954131
 30
0.0
 11
246.397982628
 21
96.7029954131
 31
0.0
 12
245.497982628
 22
96.7029954131
 32
0.0
 13
245.497982628
 23
96.7029954131
 33
0.0
  0
LINE
  5
120
330
11B
100
AcDbEntity
  8
VERMASSUNG
100
AcDbLine
 10
232.2909283933
 20
125.7029954131
 30
0.0
 11
246.947982628
 21
125.7029954131
 31
0.0
  0
LINE
  5
121
330
11B
100
AcDbEntity
  8
VERMASSUNG
100
AcDbLine
 10
232.2909283933
 20
93.7029954131
 30
0.0
 11
246.947982628
 21
93.7029954131
 31
0.0
  0
LINE
  5
122
330
11B
100
AcDbEntity
  8
VERMASSUNG
100
AcDbLine
 10
245.947982628
 20
125.7029954131
 30
0.0
 11
245.947982628
 21
93.7029954131
 31
0.0
  0
MTEXT
  5
123
330
11B
100
AcDbEntity
  8
VERMASSUNG
100
AcDbMText
 10
243.1698473718
 20
103.5990675037
 30
0.0
 40
2.0
 41
0.0
 71
     1
 72
     1
  1
ST3
  7
SLDTEXTSTYLE0
 11
-7.044195017643634E-15
 21
1.0
 31
0.0
 73
     1
 44
1.0
  0
MTEXT
  5
124
330
11B
100
AcDbEntity
  8
VERMASSUNG
100
AcDbMText
 10
243.3698473231
 20
109.3990674299
 30
0.0
 40
2.0
 41
0.0
 71
     1
 72
     1
  1
%%c
  7
SLDTEXTSTYLE0
 11
-7.044195017643634E-15
 21
1.0
 31
0.0
 73
     1
 44
1.0
  0
MTEXT
  5
125
330
11B
100
AcDbEntity
  8
VERMASSUNG
100
AcDbMText
 10
243.3698470321
 20
113.0075433018
 30
0.0
 40
2.0
 41
0.0
 71
     1
 72
     1
  1
32
  7
SLDTEXTSTYLE0
 11
-7.044195017643634E-15
 21
1.0
 31
0.0
 73
     1
 44
1.0
  0
ENDBLK
  5
11D
330
11B
100
AcDbEntity
  8
0
100
AcDbBlockEnd
  0
BLOCK
  5
128
330
127
100
AcDbEntity
  8
0
100
AcDbBlockBegin
  2
_D_1
 70
     0
 10
0.0
 20
0.0
 30
0.0
  3
_D_1
  1

  0
SOLID
  5
12A
330
127
100
AcDbEntity
  8
VERMASSUNG
100
AcDbTrace
 10
239.847982628
 20
118.7029954131
 30
0.0
 11
239.397982628
 21
115.7029954131
 31
0.0
 12
240.297982628
 22
115.7029954131
 32
0.0
 13
240.297982628
 23
115.7029954131
 33
0.0
  0
SOLID
  5
12B
330
127
100
AcDbEntity
  8
VERMASSUNG
100
AcDbTrace
 10
239.847982628
 20
100.7029954131
 30
0.0
 11
240.297982628
 21
103.7029954131
 31
0.0
 12
239.397982628
 22
103.7029954131
 32
0.0
 13
239.397982628
 23
103.7029954131
 33
0.0
  0
LINE
  5
12C
330
127
100
AcDbEntity
  8
VERMASSUNG
100
AcDbLine
 10
223.6909283933
 20
118.7029954131
 30
0.0
 11
240.847982628
 21
118.7029954131
 31
0.0
  0
LINE
  5
12D
330
127
100
AcDbEntity
  8
VERMASSUNG
100
AcDbLine
 10
223.6909283933
 20
100.7029954131
 30
0.0
 11
240.847982628
 21
100.7029954131
 31
0.0
  0
LINE
  5
12E
330
127
100
AcDbEntity
  8
VERMASSUNG
100
AcDbLine
 10
239.847982628
 20
118.7029954131
 30
0.0
 11
239.847982628
 21
100.7029954131
 31
0.0
  0
MTEXT
  5
12F
330
127
100
AcDbEntity
  8
VERMASSUNG
100
AcDbMText
 10
237.2698470903
 20
106.6995628693
 30
0.0
 40
2.0
 41
0.0
 71
     1
 72
     1
  1
%%c
  7
SLDTEXTSTYLE0
 11
-7.044195017643634E-15
 21
1.0
 31
0.0
 73
     1
 44
1.0
  0
MTEXT
  5
130
330
127
100
AcDbEntity
  8
VERMASSUNG
100
AcDbMText
 10
237.2698470321
 20
110.3085350629
 30
0.0
 40
2.0
 41
0.0
 71
     1
 72
     1
  1
18
  7
SLDTEXTSTYLE0
 11
-7.044195017643634E-15
 21
1.0
 31
0.0
 73
     1
 44
1.0
  0
ENDBLK
  5
129
330
127
100
AcDbEntity
  8
0
100
AcDbBlockEnd
  0
BLOCK
  5
133
330
132
100
AcDbEntity
  8
0
100
AcDbBlockBegin
  2
_D_2
 70
     0
 10
0.0
 20
0.0
 30
0.0
  3
_D_2
  1

  0
ARC
  5
135
330
132
100
AcDbEntity
  8
VERMASSUNG
100
AcDbCircle
 10
219.9024242738
 20
167.6732995186
 30
0.0
 40
4.24705993853726
100
AcDbArc
 50
153.4349488229
 51
206.5650511771
  0
ARC
  5
136
330
132
100
AcDbEntity
  8
VERMASSUNG
100
AcDbCircle
 10
218.2794325128
 20
167.6732995186
 30
0.0
 40
4.247059938537208
100
AcDbArc
 50
333.4349488229
 51
26.5650511771
  0
SOLID
  5
137
330
132
100
AcDbEntity
  8
VERMASSUNG
100
AcDbTrace
 10
205.5909283933
 20
165.7739565732
 30
0.0
 11
208.5909283933
 21
165.3239565732
 31
0.0
 12
208.5909283933
 22
166.2239565732
 32
0.0
 13
208.5909283933
 23
166.2239565732
 33
0.0
  0
SOLID
  5
138
330
132
100
AcDbEntity
  8
VERMASSUNG
100
AcDbTrace
 10
232.5909283933
 20
165.7739565732
 30
0.0
 11
229.5909283933
 21
166.2239565732
 31
0.0
 12
229.5909283933
 22
165.3239565732
 32
0.0
 13
229.5909283933
 23
165.3239565732
 33
0.0
  0
LINE
  5
139
330
132
100
AcDbEntity
  8
VERMASSUNG
100
AcDbLine
 10
205.5909283933
 20
158.7029954131
 30
0.0
 11
205.5909283933
 21
166.7739565732
 31
0.0
  0
LINE
  5
13A
330
132
100
AcDbEntity
  8
VERMASSUNG
100
AcDbLine
 10
232.5909283933
 20
125.4029954131
 30
0.0
 11
232.5909283933
 21
166.7739565732
 31
0.0
  0
LINE
  5
13B
330
132
100
AcDbEntity
  8
VERMASSUNG
100
AcDbLine
 10
205.5909283933
 20
165.7739565732
 30
0.0
 11
232.5909283933
 21
165.7739565732
 31
0.0
  0
MTEXT
  5
13C
330
132
100
AcDbEntity
  8
VERMASSUNG
100
AcDbMText
 10
217.691238383
 20
168.3520921692
 30
0.0
 40
2.0
 41
0.0
 71
     1
 72
     1
  1
27
  7
SLDTEXTSTYLE0
 73
     1
 44
1.0
  0
ENDBLK
  5
134
330
132
100
AcDbEntity
  8
0
100
AcDbBlockEnd
  0
BLOCK
  5
13F
330
13E
100
AcDbEntity
  8
0
100
AcDbBlockBegin
  2
_D_3
 70
     0
 10
0.0
 20
0.0
 30
0.0
  3
_D_3
  1

  0
SOLID
  5
141
330
13E
100
AcDbEntity
  8
VERMASSUNG
100
AcDbTrace
 10
167.5909283933
 20
171.7739565732
 30
0.0
 11
170.5909283933
 21
171.3239565732
 31
0.0
 12
170.5909283933
 22
172.2239565732
 32
0.0
 13
170.5909283933
 23
172.2239565732
 33
0.0
  0
SOLID
  5
142
330
13E
100
AcDbEntity
  8
VERMASSUNG
100
AcDbTrace
 10
232.5909283933
 20
171.7739565732
 30
0.0
 11
229.5909283933
 21
172.2239565732
 31
0.0
 12
229.5909283933
 22
171.3239565732
 32
0.0
 13
229.5909283933
 23
171.3239565732
 33
0.0
  0
LINE
  5
143
330
13E
100
AcDbEntity
  8
VERMASSUNG
100
AcDbLine
 10
167.5909283933
 20
144.6279954131
 30
0.0
 11
167.5909283933
 21
172.7739565732
 31
0.0
  0
LINE
  5
144
330
13E
100
AcDbEntity
  8
VERMASSUNG
100
AcDbLine
 10
232.5909283933
 20
125.4029954131
 30
0.0
 11
232.5909283933
 21
172.7739565732
 31
0.0
  0
LINE
  5
145
330
13E
100
AcDbEntity
  8
VERMASSUNG
100
AcDbLine
 10
167.5909283933
 20
171.7739565732
 30
0.0
 11
232.5909283933
 21
171.7739565732
 31
0.0
  0
MTEXT
  5
146
330
13E
100
AcDbEntity
  8
VERMASSUNG
100
AcDbMText
 10
198.691238383
 20
174.3520921692
 30
0.0
 40
2.0
 41
0.0
 71
     1
 72
     1
  1
65
  7
SLDTEXTSTYLE0
 73
     1
 44
1.0
  0
ENDBLK
  5
140
330
13E
100
AcDbEntity
  8
0
100
AcDbBlockEnd
  0
BLOCK
  5
149
330
148
100
AcDbEntity
  8
0
100
AcDbBlockBegin
  2
_D_4
 70
     0
 10
0.0
 20
0.0
 30
0.0
  3
_D_4
  1

  0
ARC
  5
14B
330
148
100
AcDbEntity
  8
VERMASSUNG
100
AcDbCircle
 10
148.5023624819
 20
179.6732995186
 30
0.0
 40
4.247059938537284
100
AcDbArc
 50
153.4349488229
 51
206.5650511771
  0
ARC
  5
14C
330
148
100
AcDbEntity
  8
VERMASSUNG
100
AcDbCircle
 10
149.8794943047
 20
179.6732995186
 30
0.0
 40
4.24705993853726
100
AcDbArc
 50
333.4349488229
 51
26.5650511771
  0
SOLID
  5
14D
330
148
100
AcDbEntity
  8
VERMASSUNG
100
AcDbTrace
 10
65.7909283933
 20
177.7739565732
 30
0.0
 11
68.7909283933
 21
177.3239565732
 31
0.0
 12
68.7909283933
 22
178.2239565732
 32
0.0
 13
68.7909283933
 23
178.2239565732
 33
0.0
  0
SOLID
  5
14E
330
148
100
AcDbEntity
  8
VERMASSUNG
100
AcDbTrace
 10
232.5909283933
 20
177.7739565732
 30
0.0
 11
229.5909283933
 21
178.2239565732
 31
0.0
 12
229.5909283933
 22
177.3239565732
 32
0.0
 13
229.5909283933
 23
177.3239565732
 33
0.0
  0
LINE
  5
14F
330
148
100
AcDbEntity
  8
VERMASSUNG
100
AcDbLine
 10
65.7909283933
 20
128.0526732738
 30
0.0
 11
65.7909283933
 21
178.7739565732
 31
0.0
  0
LINE
  5
150
330
148
100
AcDbEntity
  8
VERMASSUNG
100
AcDbLine
 10
232.5909283933
 20
125.4029954131
 30
0.0
 11
232.5909283933
 21
178.7739565732
 31
0.0
  0
LINE
  5
151
330
148
100
AcDbEntity
  8
VERMASSUNG
100
AcDbLine
 10
65.7909283933
 20
177.7739565732
 30
0.0
 11
232.5909283933
 21
177.7739565732
 31
0.0
  0
MTEXT
  5
152
330
148
100
AcDbEntity
  8
VERMASSUNG
100
AcDbMText
 10
146.291176591
 20
180.3520921692
 30
0.0
 40
2.0
 41
0.0
 71
     1
 72
     1
  1
166.8
  7
SLDTEXTSTYLE0
 73
     1
 44
1.0
  0
ENDBLK
  5
14A
330
148
100
AcDbEntity
  8
0
100
AcDbBlockEnd
  0
BLOCK
  5
155
330
154
100
AcDbEntity
  8
0
100
AcDbBlockBegin
  2
_D_5
 70
     0
 10
0.0
 20
0.0
 30
0.0
  3
_D_5
  1

  0
SOLID
  5
157
330
154
100
AcDbEntity
  8
VERMASSUNG
100
AcDbTrace
 10
62.4317666709
 20
159.7029954131
 30
0.0
 11
61.9817666709
 21
156.7029954131
 31
0.0
 12
62.8817666709
 22
156.7029954131
 32
0.0
 13
62.8817666709
 23
156.7029954131
 33
0.0
  0
SOLID
  5
158
330
154
100
AcDbEntity
  8
VERMASSUNG
100
AcDbTrace
 10
62.4317666709
 20
59.7029954131
 30
0.0
 11
62.8817666709
 21
62.7029954131
 31
0.0
 12
61.9817666709
 22
62.7029954131
 32
0.0
 13
61.9817666709
 23
62.7029954131
 33
0.0
  0
LINE
  5
159
330
154
100
AcDbEntity
  8
VERMASSUNG
100
AcDbLine
 10
201.5909303018
 20
159.7029954131
 30
0.0
 11
61.4317666709
 21
159.7029954131
 31
0.0
  0
LINE
  5
15A
330
154
100
AcDbEntity
  8
VERMASSUNG
100
AcDbLine
 10
201.5909304554
 20
59.7029954131
 30
0.0
 11
61.4317666709
 21
59.7029954131
 31
0.0
  0
LINE
  5
15B
330
154
100
AcDbEntity
  8
VERMASSUNG
100
AcDbLine
 10
62.4317666709
 20
159.7029954131
 30
0.0
 11
62.4317666709
 21
59.7029954131
 31
0.0
  0
MTEXT
  5
15C
330
154
100
AcDbEntity
  8
VERMASSUNG
100
AcDbMText
 10
59.6536314147
 20
98.5992291927
 30
0.0
 40
2.0
 41
0.0
 71
     1
 72
     1
  1
MAS BT 50
  7
SLDTEXTSTYLE0
 11
-7.044195017643634E-15
 21
1.0
 31
0.0
 73
     1
 44
1.0
  0
MTEXT
  5
15D
330
154
100
AcDbEntity
  8
VERMASSUNG
100
AcDbMText
 10
59.853631366
 20
113.3992291971
 30
0.0
 40
2.0
 41
0.0
 71
     1
 72
     1
  1
%%c
  7
SLDTEXTSTYLE0
 11
-7.044195017643634E-15
 21
1.0
 31
0.0
 73
     1
 44
1.0
  0
MTEXT
  5
15E
330
154
100
AcDbEntity
  8
VERMASSUNG
100
AcDbMText
 10
59.853631075
 20
117.0080757426
 30
0.0
 40
2.0
 41
0.0
 71
     1
 72
     1
  1
100
  7
SLDTEXTSTYLE0
 11
-7.044195017643634E-15
 21
1.0
 31
0.0
 73
     1
 44
1.0
  0
ENDBLK
  5
156
330
154
100
AcDbEntity
  8
0
100
AcDbBlockEnd
  0
ENDSEC
  0
SECTION
  2
ENTITIES
  0
MTEXT
  5
78
330
1F
100
AcDbEntity
  8
KOPF_DÜNN
100
AcDbMText
 10
13.8892156294
 20
23.8442973028
 30
0.0
 40
3.0
 41
0.0
 71
     1
 72
     1
  1
134.550.032.065
  7
SLDTEXTSTYLE0
 73
     1
 44
1.0
  0
MTEXT
  5
79
330
1F
100
AcDbEntity
  8
VERMASSUNG
100
AcDbMText
 10
13.9329988022
 20
28.8834360957
 30
0.0
 40
3.0
 41
0.0
 71
     1
 72
     1
  1
Aufnahme_Master shank ST3
  7
SLDTEXTSTYLE0
 73
     1
 44
1.0
  0
MTEXT
  5
7A
330
1F
100
AcDbEntity
  8
VERMASSUNG
100
AcDbMText
 10
98.8601118557
 20
13.8365368761
 30
0.0
 40
2.0
 41
0.0
 71
     1
 72
     1
  1
Datum: 06.06.2008
  7
SLDTEXTSTYLE0
 73
     1
 44
1.0
  0
MTEXT
  5
7C
330
1F
100
AcDbEntity
  8
VERMASSUNG
100
AcDbMText
 10
13.933048693
 20
18.0482802738
 30
0.0
 40
2.0
 41
0.0
 71
     1
 72
     1
  1
MAS BT 50 A/D
  7
SLDTEXTSTYLE1
 73
     1
 44
1.0
  0
MTEXT
  5
7D
330
1F
100
AcDbEntity
  8
VERMASSUNG
100
AcDbMText
 10
13.9808475933
 20
13.9090974274
 30
0.0
 40
2.0
 41
0.0
 71
     1
 72
     1
  1
Gewicht: 3796g
  7
SLDTEXTSTYLE0
 73
     1
 44
1.0
  0
LINE
  5
7E
330
1F
100
AcDbEntity
  8
0
  6
Continuous
 62
     7
370
    15
100
AcDbLine
 10
201.5906411666
 20
59.7029954131
 30
0.0
 11
204.5909283933
 21
59.7029954131
 31
0.0
  0
LINE
  5
7F
330
1F
100
AcDbEntity
  8
0
  6
Continuous
 62
     7
370
    15
100
AcDbLine
 10
204.5909283933
 20
159.7029954131
 30
0.0
 11
201.5904942124
 21
159.7029954131
 31
0.0
  0
ARC
  5
80
330
1F
100
AcDbEntity
  8
0
  6
Continuous
 62
     7
370
    15
100
AcDbCircle
 10
204.5909283933
 20
60.7029954131
 30
0.0
 40
1.0
100
AcDbArc
 50
270.0
 51
0.0
  0
ARC
  5
81
330
1F
100
AcDbEntity
  8
0
  6
Continuous
 62
     7
370
    15
100
AcDbCircle
 10
204.5909283933
 20
158.7029954131
 30
0.0
 40
1.0
100
AcDbArc
 50
0.0
 51
90.0
  0
ARC
  5
82
330
1F
100
AcDbEntity
  8
0
  6
Continuous
 62
     7
370
    15
100
AcDbCircle
 10
169.5909283933
 20
73.7779954131
 30
0.0
 40
1.0
100
AcDbArc
 50
38.7224075187
 51
90.0
  0
ARC
  5
83
330
1F
100
AcDbEntity
  8
0
  6
Continuous
 62
     7
370
    15
100
AcDbCircle
 10
169.5909283933
 20
145.6279954131
 30
0.0
 40
1.0
100
AcDbArc
 50
270.0
 51
321.2903429194
  0
LINE
  5
84
330
1F
100
AcDbEntity
  8
0
  6
Continuous
 62
     7
370
    15
100
AcDbLine
 10
167.5909283933
 20
74.7779954131
 30
0.0
 11
169.5909283933
 21
74.7779954131
 31
0.0
  0
LINE
  5
85
330
1F
100
AcDbEntity
  8
0
  6
Continuous
 62
     7
370
    15
100
AcDbLine
 10
169.5909283933
 20
144.6279954131
 30
0.0
 11
167.5909283933
 21
144.6279954131
 31
0.0
  0
LINE
  5
86
330
1F
100
AcDbEntity
  8
0
  6
Continuous
 62
     7
370
    15
100
AcDbLine
 10
167.5909283933
 20
144.6279954131
 30
0.0
 11
67.5023146071
 21
130.0317392359
 31
0.0
  0
LINE
  5
87
330
1F
100
AcDbEntity
  8
0
  6
Continuous
 62
     7
370
    15
100
AcDbLine
 10
67.5023146071
 20
89.3742515902
 30
0.0
 11
167.5909283933
 21
74.7779954131
 31
0.0
  0
ARC
  5
88
330
1F
100
AcDbEntity
  8
0
  6
Continuous
 62
     7
370
    15
100
AcDbCircle
 10
67.7909283933
 20
91.3533175523
 30
0.0
 40
2.000000000000008
100
AcDbArc
 50
180.0
 51
261.7028550302
  0
ARC
  5
89
330
1F
100
AcDbEntity
  8
0
  6
Continuous
 62
     7
370
    15
100
AcDbCircle
 10
67.7909283933
 20
128.0526732738
 30
0.0
 40
2.0
100
AcDbArc
 50
98.2971449698
 51
180.0
  0
ARC
  5
8A
330
1F
100
AcDbEntity
  8
0
  6
Continuous
 62
     7
370
    15
100
AcDbCircle
 10
209.5909283933
 20
89.7029954131
 30
0.0
 40
4.0
100
AcDbArc
 50
90.0
 51
180.0
  0
ARC
  5
8B
330
1F
100
AcDbEntity
  8
0
  6
Continuous
 62
     7
370
    15
100
AcDbCircle
 10
209.5909283933
 20
129.7029954131
 30
0.0
 40
4.0
100
AcDbArc
 50
180.0
 51
270.0
  0
LINE
  5
8C
330
1F
100
AcDbEntity
  8
0
  6
Continuous
 62
     7
370
    15
100
AcDbLine
 10
232.2909283933
 20
93.7029954131
 30
0.0
 11
232.5909283933
 21
94.0029954131
 31
0.0
  0
LINE
  5
8D
330
1F
100
AcDbEntity
  8
0
  6
Continuous
 62
     7
370
    15
100
AcDbLine
 10
232.5909283933
 20
125.4029954131
 30
0.0
 11
232.2909283933
 21
125.7029954131
 31
0.0
  0
LINE
  5
8E
330
1F
100
AcDbEntity
  8
0
  6
Continuous
 62
     7
370
    15
100
AcDbLine
 10
232.2909283933
 20
125.7029954131
 30
0.0
 11
209.5909283933
 21
125.7029954131
 31
0.0
  0
LINE
  5
8F
330
1F
100
AcDbEntity
  8
0
  6
Continuous
 62
     7
370
    15
100
AcDbLine
 10
209.5909283933
 20
93.7029954131
 30
0.0
 11
232.2909283933
 21
93.7029954131
 31
0.0
  0
SPLINE
  5
90
330
1F
100
AcDbEntity
  8
0
  6
Continuous
 62
     7
370
    15
100
AcDbSpline
210
0.0
220
0.0
230
1.0
 70
    24
 71
     3
 72
    11
 73
     7
 74
     0
 42
0.000000001
 43
0.00000001
 40
0.0
 40
0.0
 40
0.0
 40
0.0
 40
0.1183358584681207
 40
0.475539685085785
 40
0.8141708872487052
 40
1.0
 40
1.0
 40
1.0
 40
1.0
 10
225.4069537970767
 20
108.2029954130691
 30
0.0
 10
225.3428044929156
 20
108.2029954130691
 30
0.0
 10
225.0850166989692
 20
108.2029954130691
 30
0.0
 10
224.5979317718313
 20
108.2029954130691
 30
0.0
 10
224.0620755101426
 20
108.2029954130691
 30
0.0
 10
223.7761968046611
 20
108.2029954130691
 30
0.0
 10
223.6749029895079
 20
108.2029954130691
 30
0.0
  0
SPLINE
  5
91
330
1F
100
AcDbEntity
  8
0
  6
Continuous
 62
     7
370
    15
100
AcDbSpline
210
0.0
220
0.0
230
1.0
 70
    24
 71
     3
 72
    10
 73
     6
 74
     0
 42
0.000000001
 43
0.00000001
 40
0.0
 40
0.0
 40
0.0
 40
0.0
 40
0.4391165375904117
 40
0.7513669429073433
 40
1.0
 40
1.0
 40
1.0
 40
1.0
 10
226.2729792008612
 20
109.7029954130691
 30
0.0
 10
226.1490009879324
 20
109.4882588492448
 30
0.0
 10
225.9368633823969
 20
109.1208257382613
 30
0.0
 10
225.6284839049726
 20
108.5866968153509
 30
0.0
 10
225.4749940490509
 20
108.3208445864482
 30
0.0
 10
225.4069537970768
 20
108.2029954130691
 30
0.0
  0
SPLINE
  5
92
330
1F
100
AcDbEntity
  8
0
  6
Continuous
 62
     7
370
    15
100
AcDbSpline
210
0.0
220
0.0
230
1.0
 70
    24
 71
     3
 72
    10
 73
     6
 74
     0
 42
0.000000001
 43
0.00000001
 40
0.0
 40
0.0
 40
0.0
 40
0.0
 40
0.4391165375904117
 40
0.7513669429073434
 40
1.0
 40
1.0
 40
1.0
 40
1.0
 10
225.4069537970768
 20
111.2029954130691
 30
0.0
 10
225.5309320100056
 20
110.9882588492448
 30
0.0
 10
225.7430696155411
 20
110.6208257382613
 30
0.0
 10
226.0514490929653
 20
110.0866968153509
 30
0.0
 10
226.204938948887
 20
109.8208445864482
 30
0.0
 10
226.2729792008612
 20
109.7029954130691
 30
0.0
  0
SPLINE
  5
93
330
1F
100
AcDbEntity
  8
0
  6
Continuous
 62
     7
370
    15
100
AcDbSpline
210
0.0
220
0.0
230
1.0
 70
    24
 71
     3
 72
    11
 73
     7
 74
     0
 42
0.000000001
 43
0.00000001
 40
0.0
 40
0.0
 40
0.0
 40
0.0
 40
0.1858291127512953
 40
0.5244603149142152
 40
0.8816641415318794
 40
1.0
 40
1.0
 40
1.0
 40
1.0
 10
223.6749029895079
 20
111.2029954130691
 30
0.0
 10
223.7761968046611
 20
111.2029954130691
 30
0.0
 10
224.0620755101426
 20
111.2029954130691
 30
0.0
 10
224.5979317718314
 20
111.2029954130691
 30
0.0
 10
225.0850166989692
 20
111.2029954130691
 30
0.0
 10
225.3428044929156
 20
111.2029954130691
 30
0.0
 10
225.4069537970768
 20
111.2029954130691
 30
0.0
  0
SPLINE
  5
94
330
1F
100
AcDbEntity
  8
0
  6
Continuous
 62
     7
370
    15
100
AcDbSpline
210
0.0
220
0.0
230
1.0
 70
    24
 71
     3
 72
    10
 73
     6
 74
     0
 42
0.000000001
 43
0.00000001
 40
0.0
 40
0.0
 40
0.0
 40
0.0
 40
0.4391165375904115
 40
0.7513669429073456
 40
1.0
 40
1.0
 40
1.0
 40
1.0
 10
222.8088775857234
 20
109.7029954130691
 30
0.0
 10
222.9328557986522
 20
109.9177319768934
 30
0.0
 10
223.1449934041877
 20
110.2851650878769
 30
0.0
 10
223.453372881612
 20
110.8192940107873
 30
0.0
 10
223.6068627375337
 20
111.08514623969
 30
0.0
 10
223.6749029895079
 20
111.2029954130691
 30
0.0
  0
SPLINE
  5
95
330
1F
100
AcDbEntity
  8
0
  6
Continuous
 62
     7
370
    15
100
AcDbSpline
210
0.0
220
0.0
230
1.0
 70
    24
 71
     3
 72
    10
 73
     6
 74
     0
 42
0.000000001
 43
0.00000001
 40
0.0
 40
0.0
 40
0.0
 40
0.0
 40
0.43911653759041
 40
0.7513669429073428
 40
1.0
 40
1.0
 40
1.0
 40
1.0
 10
223.6749029895079
 20
108.2029954130691
 30
0.0
 10
223.550924776579
 20
108.4177319768934
 30
0.0
 10
223.3387871710435
 20
108.7851650878769
 30
0.0
 10
223.0304076936193
 20
109.3192940107873
 30
0.0
 10
222.8769178376976
 20
109.58514623969
 30
0.0
 10
222.8088775857234
 20
109.7029954130691
 30
0.0
  0
CIRCLE
  5
96
330
1F
100
AcDbEntity
  8
0
  6
Continuous
 62
     7
370
    15
100
AcDbCircle
 10
224.5409283933
 20
109.7029954131
 30
0.0
 40
1.899999999999991
  0
CIRCLE
  5
97
330
1F
100
AcDbEntity
  8
0
  6
Continuous
 62
     7
370
    15
100
AcDbCircle
 10
224.5409283933
 20
109.7029954131
 30
0.0
 40
2.600000000000009
  0
CIRCLE
  5
98
330
1F
100
AcDbEntity
  8
0
  6
Continuous
 62
     7
370
    15
100
AcDbCircle
 10
224.5409283933
 20
109.7029954131
 30
0.0
 40
3.0
  0
ARC
  5
99
330
1F
100
AcDbEntity
  8
0
  6
Continuous
 62
     7
370
    15
100
AcDbCircle
 10
224.5409283933
 20
109.7029954131
 30
0.0
 40
1.5
100
AcDbArc
 50
210.0
 51
270.0
  0
ARC
  5
9A
330
1F
100
AcDbEntity
  8
0
  6
Continuous
 62
     7
370
    15
100
AcDbCircle
 10
224.5409283933
 20
109.7029954131
 30
0.0
 40
1.5
100
AcDbArc
 50
150.0
 51
210.0
  0
ARC
  5
9B
330
1F
100
AcDbEntity
  8
0
  6
Continuous
 62
     7
370
    15
100
AcDbCircle
 10
224.5409283933
 20
109.7029954131
 30
0.0
 40
1.5
100
AcDbArc
 50
30.0
 51
90.0
  0
ARC
  5
9C
330
1F
100
AcDbEntity
  8
0
  6
Continuous
 62
     7
370
    15
100
AcDbCircle
 10
224.5409283933
 20
109.7029954131
 30
0.0
 40
1.5
100
AcDbArc
 50
90.0
 51
150.0
  0
ARC
  5
9D
330
1F
100
AcDbEntity
  8
0
  6
Continuous
 62
     7
370
    15
100
AcDbCircle
 10
224.5409283933
 20
109.7029954131
 30
0.0
 40
1.5
100
AcDbArc
 50
270.0
 51
330.0
  0
ARC
  5
9E
330
1F
100
AcDbEntity
  8
0
  6
Continuous
 62
     7
370
    15
100
AcDbCircle
 10
224.5409283933
 20
109.7029954131
 30
0.0
 40
1.499999999999975
100
AcDbArc
 50
330.0
 51
30.0
  0
SPLINE
  5
9F
330
1F
100
AcDbEntity
  8
0
  6
Continuous
 62
     7
370
    15
100
AcDbSpline
210
0.0
220
0.0
230
1.0
 70
     8
 71
     3
 72
    12
 73
     8
 74
     0
 42
0.000000001
 43
0.00000001
 40
0.0
 40
0.0
 40
0.0
 40
0.0
 40
0.5000000000000001
 40
0.5000000000000001
 40
0.75
 40
0.75
 40
1.0
 40
1.0
 40
1.0
 40
1.0
 10
197.6752080581357
 20
157.9090423647701
 30
0.0
 10
197.1363113630382
 20
156.851342547269
 30
0.0
 10
196.5739805523185
 20
155.7489741123104
 30
0.0
 10
195.7053143097281
 20
154.0490095059476
 30
0.0
 10
195.4109855873856
 20
153.473491090509
 30
0.0
 10
194.8174545884178
 20
152.3140624220505
 30
0.0
 10
194.5182283302993
 20
151.7301027529692
 30
0.0
 10
194.216741482046
 20
151.1423927923804
 30
0.0
  0
SPLINE
  5
A0
330
1F
100
AcDbEntity
  8
0
  6
Continuous
 62
     7
370
    15
100
AcDbSpline
210
0.0
220
0.0
230
1.0
 70
     8
 71
     3
 72
     9
 73
     5
 74
     0
 42
0.000000001
 43
0.00000001
 40
0.0
 40
0.0
 40
0.0
 40
0.0
 40
0.504794330390352
 40
1.0
 40
1.0
 40
1.0
 40
1.0
 10
198.3159047987044
 20
158.8631006631565
 30
0.0
 10
198.2075223642037
 20
158.7022591018672
 30
0.0
 10
197.9928162394006
 20
158.3836311942105
 30
0.0
 10
197.780388810589
 20
158.0662569676227
 30
0.0
 10
197.675193543461
 20
157.9090914512284
 30
0.0
  0
LINE
  5
A1
330
1F
100
AcDbEntity
  8
0
  6
Continuous
 62
     7
370
    15
100
AcDbLine
 10
198.3159283933
 20
60.5428341278
 30
0.0
 11
198.3159283933
 21
158.8631566984
 31
0.0
  0
SPLINE
  5
A2
330
1F
100
AcDbEntity
  8
0
  6
Continuous
 62
     7
370
    15
100
AcDbSpline
210
0.0
220
0.0
230
1.0
 70
     8
 71
     3
 72
     9
 73
     5
 74
     0
 42
0.000000001
 43
0.00000001
 40
0.0
 40
0.0
 40
0.0
 40
0.0
 40
0.4952056715554214
 40
1.0
 40
1.0
 40
1.0
 40
1.0
 10
197.675193543461
 20
61.4968993749097
 30
0.0
 10
197.7803888110059
 20
61.33973385789137
 30
0.0
 10
197.9928162398244
 20
61.02235963129037
 30
0.0
 10
198.2075223646235
 20
60.70373172364514
 30
0.0
 10
198.3159047987044
 20
60.54289016298167
 30
0.0
  0
SPLINE
  5
A3
330
1F
100
AcDbEntity
  8
0
  6
Continuous
 62
     7
370
    15
100
AcDbSpline
210
0.0
220
0.0
230
1.0
 70
     8
 71
     3
 72
    12
 73
     8
 74
     0
 42
0.000000001
 43
0.00000001
 40
0.0
 40
0.0
 40
0.0
 40
0.0
 40
0.2499999999999993
 40
0.2499999999999993
 40
0.4999999999999986
 40
0.4999999999999986
 40
1.0
 40
1.0
 40
1.0
 40
1.0
 10
197.6752080258968
 20
61.49694852464387
 30
0.0
 10
197.405870504528
 20
62.02558091332851
 30
0.0
 10
197.1301003871339
 20
62.56650556727522
 30
0.0
 10
196.5678401005282
 20
63.66856232163828
 30
0.0
 10
196.2807547271235
 20
64.2308591608751
 30
0.0
 10
195.4103282864041
 20
65.93425439619509
 30
0.0
 10
194.8183182902349
 20
67.09090116727717
 30
0.0
 10
194.216741482046
 20
68.26359803375783
 30
0.0
  0
SPLINE
  5
A4
330
1F
100
AcDbEntity
  8
0
  6
Continuous
 62
     7
370
    15
100
AcDbSpline
210
0.0
220
0.0
230
1.0
 70
     8
 71
     3
 72
    12
 73
     8
 74
     0
 42
0.000000001
 43
0.00000001
 40
0.0
 40
0.0
 40
0.0
 40
0.0
 40
0.000512515335492
 40
0.2509311781568301
 40
0.5009716914398246
 40
0.7506335204405247
 40
1.0
 40
1.0
 40
1.0
 40
1.0
 10
201.5904942123621
 20
159.7028703708855
 30
0.0
 10
201.590638669049
 20
159.7029120442028
 30
0.0
 10
201.6613656973431
 20
159.7233155987918
 30
0.0
 10
201.4181021370866
 20
159.651703967403
 30
0.0
 10
200.8125775228547
 20
159.4833507589322
 30
0.0
 10
199.7874138384315
 20
159.2060171684754
 30
0.0
 10
198.8062299712097
 20
158.9773984191515
 30
0.0
 10
198.3159283939793
 20
158.8631566983869
 30
0.0
  0
SPLINE
  5
A5
330
1F
100
AcDbEntity
  8
0
  6
Continuous
 62
     7
370
    15
100
AcDbSpline
210
0.0
220
0.0
230
1.0
 70
     8
 71
     3
 72
    13
 73
     9
 74
     0
 42
0.000000001
 43
0.00000001
 40
0.0
 40
0.0
 40
0.0
 40
0.0
 40
0.249249238042121
 40
0.4988437701386194
 40
0.6658825660857411
 40
0.8320256711231946
 40
0.9994886337290221
 40
0.9999999999999999
 40
0.9999999999999999
 40
0.9999999999999999
 40
0.9999999999999999
 10
198.3159283939793
 20
60.54283412775128
 30
0.0
 10
198.807113117399
 20
60.42834660406132
 30
0.0
 10
199.790163020339
 20
60.19921295294183
 30
0.0
 10
200.6892064451491
 20
59.95600320179162
 30
0.0
 10
201.2475313458346
 20
59.80206599440625
 30
0.0
 10
201.5132025705438
 20
59.72581243555597
 30
0.0
 10
201.6220968165596
 20
59.69389825123346
 30
0.0
 10
201.5907366367413
 20
59.70305116517637
 30
0.0
 10
201.5906411665684
 20
59.70307902950244
 30
0.0
  0
LINE
  5
A6
330
1F
100
AcDbEntity
  8
0
  6
Continuous
 62
     7
370
    15
100
AcDbLine
 10
170.5909283933
 20
62.7011071531
 30
0.0
 11
170.5909283933
 21
156.704883673
 31
0.0
  0
SPLINE
  5
A7
330
1F
100
AcDbEntity
  8
0
  6
Continuous
 62
     7
370
    15
100
AcDbSpline
210
0.0
220
0.0
230
1.0
 70
     8
 71
     3
 72
    12
 73
     8
 74
     0
 42
0.000000001
 43
0.00000001
 40
0.0
 40
0.0
 40
0.0
 40
0.0
 40
0.2500000000000004
 40
0.2500000000000004
 40
0.5000000000000009
 40
0.5000000000000009
 40
1.0
 40
1.0
 40
1.0
 40
1.0
 10
170.9770648133421
 20
157.6374291469404
 30
0.0
 10
170.9254346912323
 20
157.5812248762257
 30
0.0
 10
170.8769024582418
 20
157.5199354657053
 30
0.0
 10
170.787077321284
 20
157.3854733916606
 30
0.0
 10
170.7453670480715
 20
157.3113543214178
 30
0.0
 10
170.6392356679094
 20
157.0750466762493
 30
0.0
 10
170.5909283932923
 20
156.8932231335994
 30
0.0
 10
170.5909283932923
 20
156.7048836730103
 30
0.0
  0
SPLINE
  5
A8
330
1F
100
AcDbEntity
  8
0
  6
Continuous
 62
     7
370
    15
100
AcDbSpline
210
0.0
220
0.0
230
1.0
 70
     8
 71
     3
 72
     8
 73
     4
 74
     0
 42
0.000000001
 43
0.00000001
 40
0.0
 40
0.0
 40
0.0
 40
0.0
 40
1.0
 40
1.0
 40
1.0
 40
1.0
 10
171.5909283932923
 20
157.8080869085335
 30
0.0
 10
171.3640341495925
 20
157.8080869085335
 30
0.0
 10
171.1461845036661
 20
157.7440747415646
 30
0.0
 10
170.9770648133421
 20
157.6374291469404
 30
0.0
  0
SPLINE
  5
A9
330
1F
100
AcDbEntity
  8
0
  6
Continuous
 62
     7
370
    15
100
AcDbSpline
210
0.0
220
0.0
230
1.0
 70
     8
 71
     3
 72
    10
 73
     6
 74
     0
 42
0.000000001
 43
0.00000001
 40
0.0
 40
0.0
 40
0.0
 40
0.0
 40
0.5
 40
0.5
 40
1.0
 40
1.0
 40
1.0
 40
1.0
 10
170.977064813342
 20
61.76856167919785
 30
0.0
 10
171.0616754540728
 20
61.71520685058516
 30
0.0
 10
171.1569100761793
 20
61.67263738863496
 30
0.0
 10
171.3669474353592
 20
61.613355053954
 30
0.0
 10
171.4773793401433
 20
61.59790391760475
 30
0.0
 10
171.5909283932923
 20
61.59790391760475
 30
0.0
  0
SPLINE
  5
AA
330
1F
100
AcDbEntity
  8
0
  6
Continuous
 62
     7
370
    15
100
AcDbSpline
210
0.0
220
0.0
230
1.0
 70
     8
 71
     3
 72
    12
 73
     8
 74
     0
 42
0.000000001
 43
0.00000001
 40
0.0
 40
0.0
 40
0.0
 40
0.0
 40
0.2500000000000039
 40
0.2500000000000039
 40
0.5000000000000079
 40
0.5000000000000079
 40
1.0
 40
1.0
 40
1.0
 40
1.0
 10
170.977064813342
 20
61.76856167919785
 30
0.0
 10
170.9254346912323
 20
61.82476594991249
 30
0.0
 10
170.8769024582418
 20
61.88605536043289
 30
0.0
 10
170.7870773212839
 20
62.0205174344776
 30
0.0
 10
170.7453670480715
 20
62.09463650472042
 30
0.0
 10
170.6392356679094
 20
62.33094414988888
 30
0.0
 10
170.5909283932923
 20
62.51276769253877
 30
0.0
 10
170.5909283932923
 20
62.70110715312788
 30
0.0
  0
LINE
  5
AB
330
1F
100
AcDbEntity
  8
0
  6
Continuous
 62
     7
370
    15
100
AcDbLine
 10
205.5909283933
 20
60.7029954131
 30
0.0
 11
205.5909283933
 21
158.7029954131
 31
0.0
  0
LINE
  5
AC
330
1F
100
AcDbEntity
  8
0
  6
Continuous
 62
     7
370
    15
100
AcDbLine
 10
183.2659283933
 20
157.8080869085
 30
0.0
 11
171.5909283933
 21
157.8080869085
 31
0.0
  0
LINE
  5
AD
330
1F
100
AcDbEntity
  8
0
  6
Continuous
 62
     7
370
    15
100
AcDbLine
 10
183.2659283933
 20
61.5979039176
 30
0.0
 11
183.2659283933
 21
157.8080869085
 31
0.0
  0
LINE
  5
AE
330
1F
100
AcDbEntity
  8
0
  6
Continuous
 62
     7
370
    15
100
AcDbLine
 10
171.5909283933
 20
61.5979039176
 30
0.0
 11
183.2659283933
 21
61.5979039176
 31
0.0
  0
SPLINE
  5
AF
330
1F
100
AcDbEntity
  8
0
  6
Continuous
 62
     7
370
    15
100
AcDbSpline
210
0.0
220
0.0
230
1.0
 70
     8
 71
     3
 72
     8
 73
     4
 74
     0
 42
0.000000001
 43
0.00000001
 40
0.0
 40
0.0
 40
0.0
 40
0.0
 40
0.0012417047560384
 40
0.0012417047560384
 40
0.0012417047560384
 40
0.0012417047560384
 10
183.82349742982
 20
157.0235655669901
 30
0.0
 10
183.6381088785255
 20
157.2852386525387
 30
0.0
 10
183.4522426329177
 20
157.5467427614163
 30
0.0
 10
183.2659283932923
 20
157.8080869085335
 30
0.0
  0
SPLINE
  5
B0
330
1F
100
AcDbEntity
  8
0
  6
Continuous
 62
     7
370
    15
100
AcDbSpline
210
0.0
220
0.0
230
1.0
 70
     8
 71
     3
 72
     8
 73
     4
 74
     0
 42
0.000000001
 43
0.00000001
 40
0.0
 40
0.0
 40
0.0
 40
0.0
 40
1.0
 40
1.0
 40
1.0
 40
1.0
 10
187.3651153045386
 20
150.6332714932521
 30
0.0
 10
186.1901278286357
 20
152.766348248188
 30
0.0
 10
185.0088812945393
 20
154.8960668140642
 30
0.0
 10
183.82349742982
 20
157.0235655669901
 30
0.0
  0
SPLINE
  5
B1
330
1F
100
AcDbEntity
  8
0
  6
Continuous
 62
     7
370
    15
100
AcDbSpline
210
0.0
220
0.0
230
1.0
 70
     8
 71
     3
 72
     8
 73
     4
 74
     0
 42
0.000000001
 43
0.00000001
 40
0.0
 40
0.0
 40
0.0
 40
0.0
 40
1.0
 40
1.0
 40
1.0
 40
1.0
 10
187.3651153045386
 20
68.77271933288611
 30
0.0
 10
186.1900785067117
 20
66.63955303874077
 30
0.0
 10
185.0088312992727
 20
64.50983428175908
 30
0.0
 10
183.82349742982
 20
62.38242525914813
 30
0.0
  0
SPLINE
  5
B2
330
1F
100
AcDbEntity
  8
0
  6
Continuous
 62
     7
370
    15
100
AcDbSpline
210
0.0
220
0.0
230
1.0
 70
     8
 71
     3
 72
     8
 73
     4
 74
     0
 42
0.000000001
 43
0.00000001
 40
0.0
 40
0.0
 40
0.0
 40
0.0
 40
0.0012417047560385
 40
0.0012417047560385
 40
0.0012417047560385
 40
0.0012417047560385
 10
183.2659283932923
 20
61.59790391760474
 30
0.0
 10
183.4522426329177
 20
61.85924806472197
 30
0.0
 10
183.6381088785256
 20
62.12075217359957
 30
0.0
 10
183.82349742982
 20
62.38242525914813
 30
0.0
  0
SPLINE
  5
B3
330
1F
100
AcDbEntity
  8
0
  6
Continuous
 62
     7
370
    15
100
AcDbSpline
210
0.0
220
0.0
230
1.0
 70
     8
 71
     3
 72
    12
 73
     8
 74
     0
 42
0.000000001
 43
0.00000001
 40
0.0
 40
0.0
 40
0.0
 40
0.0
 40
0.2499999999999951
 40
0.2499999999999951
 40
0.4999999999999902
 40
0.4999999999999902
 40
1.0
 40
1.0
 40
1.0
 40
1.0
 10
194.216741482046
 20
151.1423927923804
 30
0.0
 10
194.180521060659
 20
151.0717857242806
 30
0.0
 10
194.1375953860112
 20
151.0080511329549
 30
0.0
 10
194.0400688027522
 20
150.8922769567064
 30
0.0
 10
193.9846372831355
 20
150.839729112695
 30
0.0
 10
193.8061493802313
 20
150.7055805094806
 30
0.0
 10
193.6693125515835
 20
150.6450584074167
 30
0.0
 10
193.5239211590191
 20
150.6245118234883
 30
0.0
  0
SPLINE
  5
B4
330
1F
100
AcDbEntity
  8
0
  6
Continuous
 62
     7
370
    15
100
AcDbSpline
210
0.0
220
0.0
230
1.0
 70
     8
 71
     3
 72
    12
 73
     8
 74
     0
 42
0.000000001
 43
0.00000001
 40
0.0
 40
0.0
 40
0.0
 40
0.0
 40
0.2499999999999957
 40
0.2499999999999957
 40
0.4999999999999913
 40
0.4999999999999913
 40
1.0
 40
1.0
 40
1.0
 40
1.0
 10
194.216741482046
 20
68.26359803375782
 30
0.0
 10
194.180521060659
 20
68.33420510185772
 30
0.0
 10
194.1375953860111
 20
68.39793969318345
 30
0.0
 10
194.0400688027521
 20
68.51371386943187
 30
0.0
 10
193.9846372831354
 20
68.5662617134433
 30
0.0
 10
193.8061493802312
 20
68.70041031665768
 30
0.0
 10
193.6693125515835
 20
68.76093241872147
 30
0.0
 10
193.5239211590191
 20
68.78147900264989
 30
0.0
  0
SPLINE
  5
B5
330
1F
100
AcDbEntity
  8
0
  6
Continuous
 62
     7
370
    15
100
AcDbSpline
210
0.0
220
0.0
230
1.0
 70
     8
 71
     3
 72
    10
 73
     6
 74
     0
 42
0.000000001
 43
0.00000001
 40
0.0
 40
0.0
 40
0.0
 40
0.0
 40
0.5
 40
0.5
 40
1.0
 40
1.0
 40
1.0
 40
1.0
 10
187.7409283932923
 20
69.12346419891993
 30
0.0
 10
187.661928325041
 20
69.08769996431202
 30
0.0
 10
187.5881710747644
 20
69.03821036075259
 30
0.0
 10
187.4601159516312
 20
68.91792186924964
 30
0.0
 10
187.4072659172195
 20
68.84923971626031
 30
0.0
 10
187.3651153045386
 20
68.7727193328861
 30
0.0
  0
SPLINE
  5
B6
330
1F
100
AcDbEntity
  8
0
  6
Continuous
 62
     7
370
    15
100
AcDbSpline
210
0.0
220
0.0
230
1.0
 70
     8
 71
     3
 72
    10
 73
     6
 74
     0
 42
0.000000001
 43
0.00000001
 40
0.0
 40
0.0
 40
0.0
 40
0.0
 40
0.5
 40
0.5
 40
1.0
 40
1.0
 40
1.0
 40
1.0
 10
187.7409283932923
 20
150.2825266272183
 30
0.0
 10
187.6616419456095
 20
150.3184205090708
 30
0.0
 10
187.5881297264889
 20
150.3679222189217
 30
0.0
 10
187.4611772736183
 20
150.4869699155903
 30
0.0
 10
187.4071114248816
 20
150.5570315758586
 30
0.0
 10
187.3651153045386
 20
150.6332714932521
 30
0.0
  0
SPLINE
  5
B7
330
1F
100
AcDbEntity
  8
0
  6
Continuous
 62
     7
370
    15
100
AcDbSpline
210
0.0
220
0.0
230
1.0
 70
     8
 71
     3
 72
     8
 73
     4
 74
     0
 42
0.000000001
 43
0.00000001
 40
0.0
 40
0.0
 40
0.0
 40
0.0
 40
1.0
 40
1.0
 40
1.0
 40
1.0
 10
188.0579356275662
 20
150.2150676087318
 30
0.0
 10
187.9482338422645
 20
150.2142091915324
 30
0.0
 10
187.84088682128
 20
150.2372743034072
 30
0.0
 10
187.7409283932923
 20
150.2825266272181
 30
0.0
  0
SPLINE
  5
B8
330
1F
100
AcDbEntity
  8
0
  6
Continuous
 62
     7
370
    15
100
AcDbSpline
210
0.0
220
0.0
230
1.0
 70
     8
 71
     3
 72
     8
 73
     4
 74
     0
 42
0.000000001
 43
0.00000001
 40
0.0
 40
0.0
 40
0.0
 40
0.0
 40
1.0
 40
1.0
 40
1.0
 40
1.0
 10
188.0579356275662
 20
69.19092321740645
 30
0.0
 10
187.9482338422645
 20
69.19178163460579
 30
0.0
 10
187.84088682128
 20
69.16871652273099
 30
0.0
 10
187.7409283932922
 20
69.12346419892008
 30
0.0
  0
SPLINE
  5
B9
330
1F
100
AcDbEntity
  8
0
  6
Continuous
 62
     7
370
    15
100
AcDbSpline
210
0.0
220
0.0
230
1.0
 70
     8
 71
     3
 72
    10
 73
     6
 74
     0
 42
0.000000001
 43
0.00000001
 40
0.0
 40
0.0
 40
0.0
 40
0.0
 40
0.5
 40
0.5
 40
1.0
 40
1.0
 40
1.0
 40
1.0
 10
193.5239211590184
 20
150.6245118234912
 30
0.0
 10
192.6763567922502
 20
150.5047347714301
 30
0.0
 10
191.7956433565283
 20
150.4060445917663
 30
0.0
 10
189.9680871053127
 20
150.2647721855292
 30
0.0
 10
189.0146547022114
 20
150.2225539418515
 30
0.0
 10
188.0579356275662
 20
150.2150676087317
 30
0.0
  0
SPLINE
  5
BA
330
1F
100
AcDbEntity
  8
0
  6
Continuous
 62
     7
370
    15
100
AcDbSpline
210
0.0
220
0.0
230
1.0
 70
     8
 71
     3
 72
    10
 73
     6
 74
     0
 42
0.000000001
 43
0.00000001
 40
0.0
 40
0.0
 40
0.0
 40
0.0
 40
0.5
 40
0.5
 40
1.0
 40
1.0
 40
1.0
 40
1.0
 10
193.5239211590184
 20
68.78147900264706
 30
0.0
 10
192.6763567922502
 20
68.9012560547081
 30
0.0
 10
191.7956433565283
 20
68.99994623437192
 30
0.0
 10
189.9680871053127
 20
69.14121864060904
 30
0.0
 10
189.0146547022114
 20
69.18343688428666
 30
0.0
 10
188.0579356275662
 20
69.19092321740646
 30
0.0
  0
SPLINE
  5
BB
330
1F
100
AcDbEntity
  8
0
  6
Continuous
 62
     7
370
    15
100
AcDbSpline
210
0.0
220
0.0
230
1.0
 70
    24
 71
     3
 72
    20
 73
    16
 74
     0
 42
0.000000001
 43
0.00000001
 40
0.0
 40
0.0
 40
0.0
 40
0.0
 40
0.5
 40
0.5
 40
0.75
 40
0.75
 40
0.875
 40
0.875
 40
0.9375
 40
0.9375
 40
0.96875
 40
0.984375
 40
0.9921875
 40
0.9921875
 40
1.0
 40
1.0
 40
1.0
 40
1.0
 10
170.5909283932923
 20
145.0029954130691
 30
0.0
 10
170.5909283932923
 20
145.0029954130691
 30
0.0
 10
170.5301643940186
 20
145.0029954130691
 30
0.0
 10
170.4471611520814
 20
145.0029954130691
 30
0.0
 10
170.4205198944465
 20
145.0029954130691
 30
0.0
 10
170.3920668836222
 20
145.0029954130691
 30
0.0
 10
170.3844822595833
 20
145.0029954130691
 30
0.0
 10
170.3767867643961
 20
145.0029954130691
 30
0.0
 10
170.3748308341085
 20
145.0029954130691
 30
0.0
 10
170.3728681039213
 20
145.0029954130691
 30
0.0
 10
170.3721289823206
 20
145.0029954130691
 30
0.0
 10
170.3716970923382
 20
145.0029954130691
 30
0.0
 10
170.3716045226065
 20
145.0029954130691
 30
0.0
 10
170.3715633920972
 20
145.0029954130691
 30
0.0
 10
170.37155312293
 20
145.0029954130691
 30
0.0
 10
170.3715531431273
 20
145.0029954130691
 30
0.0
  0
LINE
  5
BC
330
1F
100
AcDbEntity
  8
0
  6
Continuous
 62
     7
370
    15
100
AcDbLine
 10
167.5909283933
 20
74.7779954131
 30
0.0
 11
167.5909283933
 21
144.6279954131
 31
0.0
  0
LINE
  5
BD
330
1F
100
AcDbEntity
  8
0
  6
Continuous
 62
     7
370
    15
100
AcDbLine
 10
65.7909283933
 20
91.3533175523
 30
0.0
 11
65.7909283933
 21
128.0526732512
 31
0.0
  0
SPLINE
  5
BE
330
1F
100
AcDbEntity
  8
0
  6
Continuous
 62
     7
370
    15
100
AcDbSpline
210
0.0
220
0.0
230
1.0
 70
    11
 71
     3
 72
    66
 73
    62
 74
     0
 42
0.000000001
 43
0.00000001
 40
0.0
 40
0.0
 40
0.0
 40
0.0
 40
0.0312500000000002
 40
0.0312500000000002
 40
0.0625000000000004
 40
0.0625000000000004
 40
0.0937500000000006
 40
0.0937500000000006
 40
0.1250000000000008
 40
0.1250000000000008
 40
0.156250000000001
 40
0.156250000000001
 40
0.1875000000000012
 40
0.1875000000000012
 40
0.2187500000000014
 40
0.2187500000000014
 40
0.2500000000000016
 40
0.2500000000000016
 40
0.2812500000000018
 40
0.2812500000000018
 40
0.3125000000000019
 40
0.3125000000000019
 40
0.3437500000000021
 40
0.3437500000000021
 40
0.3750000000000023
 40
0.3750000000000023
 40
0.4062500000000026
 40
0.4062500000000026
 40
0.4375000000000027
 40
0.4375000000000027
 40
0.4687500000000029
 40
0.4687500000000029
 40
0.5000000000000031
 40
0.5000000000000031
 40
0.5312500000000033
 40
0.5312500000000033
 40
0.5625000000000036
 40
0.5625000000000036
 40
0.625000000000003
 40
0.625000000000003
 40
0.6562500000000028
 40
0.6562500000000028
 40
0.6875000000000024
 40
0.6875000000000024
 40
0.7187500000000022
 40
0.7187500000000022
 40
0.750000000000002
 40
0.750000000000002
 40
0.7812500000000018
 40
0.7812500000000018
 40
0.8125000000000014
 40
0.8125000000000014
 40
0.8437500000000012
 40
0.8437500000000012
 40
0.875000000000001
 40
0.875000000000001
 40
0.9062500000000008
 40
0.9062500000000008
 40
0.9375000000000004
 40
0.9375000000000004
 40
1.0
 40
1.0
 40
1.0
 40
1.0
 10
222.024268801677
 20
112.210112571396
 30
0.0
 10
222.2060537066216
 20
112.3590976745047
 30
0.0
 10
222.3991080088628
 20
112.4884254998017
 30
0.0
 10
222.8059727234269
 20
112.711302520305
 30
0.0
 10
223.0214135864396
 20
112.8053328813867
 30
0.0
 10
223.466292462883
 20
112.9543615493628
 30
0.0
 10
223.6927850789186
 20
113.0087087958603
 30
0.0
 10
224.1535953440561
 20
113.0787177242874
 30
0.0
 10
224.3902128396346
 20
113.0942209381191
 30
0.0
 10
224.8585482226334
 20
113.0847348299311
 30
0.0
 10
225.0899931944861
 20
113.0602441213302
 30
0.0
 10
225.5474886456087
 20
112.9720206095859
 30
0.0
 10
225.7756991544684
 20
112.9072935300269
 30
0.0
 10
226.2114891109397
 20
112.7409550916222
 30
0.0
 10
226.4199333192507
 20
112.6396468551918
 30
0.0
 10
226.8175531049337
 20
112.3996594913269
 30
0.0
 10
227.0083580140183
 20
112.2591801331124
 30
0.0
 10
227.3540132735528
 20
111.9490644706271
 30
0.0
 10
227.5104893915231
 20
111.7789741530906
 30
0.0
 10
227.7887394258572
 20
111.4065292042384
 30
0.0
 10
227.9106845251541
 20
111.202376104971
 30
0.0
 10
228.1040242936601
 20
110.7800533763238
 30
0.0
 10
228.177486350308
 20
110.5597346522424
 30
0.0
 10
228.2740966017157
 20
110.0991324515853
 30
0.0
 10
228.2956120730829
 20
109.863869773503
 30
0.0
 10
228.2845278350288
 20
109.3976876380325
 30
0.0
 10
228.2513799638059
 20
109.1615273264354
 30
0.0
 10
228.1337275293674
 20
108.7081165693334
 30
0.0
 10
228.0500870848408
 20
108.4903492351421
 30
0.0
 10
227.8347687926603
 20
108.0720070302553
 30
0.0
 10
227.7053766559381
 20
107.8764037924933
 30
0.0
 10
227.4107469145081
 20
107.515785503593
 30
0.0
 10
227.2430665715216
 20
107.3484822999324
 30
0.0
 10
226.8830717084053
 20
107.0522761043829
 30
0.0
 10
226.6902978987375
 20
106.9221652995998
 30
0.0
 10
226.2799476206144
 20
106.6964626171503
 30
0.0
 10
226.0637168685982
 20
106.6020820217788
 30
0.0
 10
225.4016036896645
 20
106.3793113702245
 30
0.0
 10
224.9282001367171
 20
106.3075236510166
 30
0.0
 10
224.2293056388422
 20
106.3208661136725
 30
0.0
 10
223.9958149355575
 20
106.3450645772009
 30
0.0
 10
223.5330762551289
 20
106.4341399514548
 30
0.0
 10
223.3089264839952
 20
106.4978807051878
 30
0.0
 10
222.8747253780665
 20
106.6631360741615
 30
0.0
 10
222.6632740745502
 20
106.7654869313028
 30
0.0
 10
222.2619517086667
 20
107.0077928632829
 30
0.0
 10
222.0753127428594
 20
107.1454347644123
 30
0.0
 10
221.7303598644337
 20
107.4544203367684
 30
0.0
 10
221.5704381476229
 20
107.6279608344498
 30
0.0
 10
221.2909048030417
 20
108.0027262339998
 30
0.0
 10
221.1721553772417
 20
108.2017879108966
 30
0.0
 10
220.9783789203149
 20
108.6244257172229
 30
0.0
 10
220.903070909491
 20
108.8512024864092
 30
0.0
 10
220.8076654895517
 20
109.3085775436333
 30
0.0
 10
220.7861130539447
 20
109.5407245870165
 30
0.0
 10
220.797521596372
 20
110.0122421897165
 30
0.0
 10
220.8308617110127
 20
110.2463420881548
 30
0.0
 10
220.9484085348237
 20
110.6985529991292
 30
0.0
 10
221.0341753346903
 20
110.9209967364925
 30
0.0
 10
221.3559468840946
 20
111.5441041110397
 30
0.0
 10
221.6606989917877
 20
111.9121423651788
 30
0.0
 10
222.024268801677
 20
112.210112571396
 30
0.0
  0
LINE
  5
BF
330
1F
100
AcDbEntity
  8
0
  6
Continuous
 62
     7
370
    15
100
AcDbLine
 10
232.5909283933
 20
109.7029954131
 30
0.0
 11
232.5909283933
 21
94.0029954131
 31
0.0
  0
LINE
  5
C0
330
1F
100
AcDbEntity
  8
0
  6
Continuous
 62
     7
370
    15
100
AcDbLine
 10
232.5909283933
 20
125.4029954131
 30
0.0
 11
232.5909283933
 21
109.7029954131
 31
0.0
  0
LINE
  5
C1
330
1F
100
AcDbEntity
  8
0
  6
Continuous
 62
     7
370
    15
100
AcDbLine
 10
232.2909283933
 20
109.7029954131
 30
0.0
 11
232.2909283933
 21
93.7029954131
 31
0.0
  0
LINE
  5
C2
330
1F
100
AcDbEntity
  8
0
  6
Continuous
 62
     7
370
    15
100
AcDbLine
 10
232.2909283933
 20
125.7029954131
 30
0.0
 11
232.2909283933
 21
109.7029954131
 31
0.0
  0
CIRCLE
  5
C3
330
1F
100
AcDbEntity
  8
0
  6
HIDDEN
 62
     7
370
     0
100
AcDbCircle
 10
224.5409283933
 20
109.7029954131
 30
0.0
 40
2.153589838486226
  0
CIRCLE
  5
C4
330
1F
100
AcDbEntity
  8
0
  6
HIDDEN
 62
     7
370
     0
100
AcDbCircle
 10
224.5409283933
 20
109.7029954131
 30
0.0
 40
1.953589838486224
  0
SPLINE
  5
C5
330
1F
100
AcDbEntity
  8
0
  6
HIDDEN
 62
     7
370
     0
100
AcDbSpline
210
0.0
220
0.0
230
1.0
 70
     8
 71
     3
 72
     9
 73
     5
 74
     0
 42
0.000000001
 43
0.00000001
 40
0.0
 40
0.0
 40
0.0
 40
0.0
 40
0.326715502844845
 40
1.0
 40
1.0
 40
1.0
 40
1.0
 10
200.214895867024
 20
60.07923497266624
 30
0.0
 10
200.0581029889065
 20
60.12131720168612
 30
0.0
 10
199.5781965358849
 20
60.25012109575742
 30
0.0
 10
198.8239849949594
 20
60.42514774387693
 30
0.0
 10
198.3161860568787
 20
60.54299047264485
 30
0.0
  0
CIRCLE
  5
C6
330
1F
100
AcDbEntity
  8
0
  6
HIDDEN
 62
     7
370
     0
100
AcDbCircle
 10
224.5409283933
 20
109.7029954131
 30
0.0
 40
2.624999999999986
  0
LINE
  5
C7
330
1F
100
AcDbEntity
  8
0
  6
HIDDEN
 62
     7
370
     0
100
AcDbLine
 10
170.5909283933
 20
145.0029954131
 30
0.0
 11
170.7625012685
 21
145.0029954131
 31
0.0
  0
ELLIPSE
  5
C8
330
1F
100
AcDbEntity
  8
0
  6
HIDDEN
 62
     7
370
     0
100
AcDbEllipse
 10
170.7625012685
 20
147.0029954131
 30
0.0
 11
0.0
 21
2.0
 31
0.0
210
0.0
220
0.0
230
1.0
 40
0.4142135624
 41
3.141592653589793
 42
4.712388980384695
  0
ELLIPSE
  5
C9
330
1F
100
AcDbEntity
  8
0
  6
HIDDEN
 62
     7
370
     0
100
AcDbEllipse
 10
170.7625012685
 20
72.4029954131
 30
0.0
 11
0.0
 21
2.0
 31
0.0
210
0.0
220
0.0
230
1.0
 40
0.4142135624
 41
4.712388980384695
 42
6.283185307179586
  0
LINE
  5
CA
330
1F
100
AcDbEntity
  8
0
  6
HIDDEN
 62
     7
370
     0
100
AcDbLine
 10
170.7625012685
 20
74.4029954131
 30
0.0
 11
170.5909283933
 21
74.4029954131
 31
0.0
  0
LINE
  5
CB
330
1F
100
AcDbEntity
  8
0
  6
HIDDEN
 62
     7
370
     0
100
AcDbLine
 10
171.5909283933
 20
62.3824252591
 30
0.0
 11
170.9770648133
 21
61.7685616792
 31
0.0
  0
LINE
  5
CC
330
1F
100
AcDbEntity
  8
0
  6
HIDDEN
 62
     7
370
     0
100
AcDbLine
 10
170.9770648133
 20
157.6374291469
 30
0.0
 11
171.5909283933
 21
157.023565567
 31
0.0
  0
LINE
  5
CD
330
1F
100
AcDbEntity
  8
0
  6
HIDDEN
 62
     7
370
     0
100
AcDbLine
 10
187.7409283933
 20
74.4029954131
 30
0.0
 11
170.7625012685
 21
74.4029954131
 31
0.0
  0
LINE
  5
CE
330
1F
100
AcDbEntity
  8
0
  6
HIDDEN
 62
     7
370
     0
100
AcDbLine
 10
171.5909283933
 20
157.023565567
 30
0.0
 11
183.8234974298
 21
157.023565567
 31
0.0
  0
LINE
  5
CF
330
1F
100
AcDbEntity
  8
0
  6
HIDDEN
 62
     7
370
     0
100
AcDbLine
 10
171.5909283933
 20
157.023565567
 30
0.0
 11
171.5909283933
 21
147.0029954131
 31
0.0
  0
LINE
  5
D0
330
1F
100
AcDbEntity
  8
0
  6
HIDDEN
 62
     7
370
     0
100
AcDbLine
 10
187.7409283933
 20
145.0029954131
 30
0.0
 11
198.5909283933
 21
145.0029954131
 31
0.0
  0
LINE
  5
D1
330
1F
100
AcDbEntity
  8
0
  6
HIDDEN
 62
     7
370
     0
100
AcDbLine
 10
170.7625012685
 20
145.0029954131
 30
0.0
 11
187.7409283933
 21
145.0029954131
 31
0.0
  0
LINE
  5
D2
330
1F
100
AcDbEntity
  8
0
  6
HIDDEN
 62
     7
370
     0
100
AcDbLine
 10
198.5909283933
 20
74.4029954131
 30
0.0
 11
187.7409283933
 21
74.4029954131
 31
0.0
  0
SPLINE
  5
D3
330
1F
100
AcDbEntity
  8
0
  6
HIDDEN
 62
     7
370
     0
100
AcDbSpline
210
0.0
220
0.0
230
1.0
 70
     8
 71
     3
 72
    14
 73
    10
 74
     0
 42
0.000000001
 43
0.00000001
 40
0.0
 40
0.0
 40
0.0
 40
0.0
 40
0.1878282877623173
 40
0.3545816313016879
 40
0.5003024319338173
 40
0.6713282049188825
 40
0.8376422060211013
 40
0.9994166164999629
 40
1.0
 40
1.0
 40
1.0
 40
1.0
 10
197.675228130179
 20
157.9090170150111
 30
0.0
 10
198.0082310525684
 20
157.9905649524647
 30
0.0
 10
198.6368728873832
 20
158.1445108838047
 30
0.0
 10
199.3363094592881
 20
158.3354896019228
 30
0.0
 10
199.8841865587176
 20
158.4928618889986
 30
0.0
 10
200.2903021528348
 20
158.6111873250222
 30
0.0
 10
200.5234300455339
 20
158.6815643396372
 30
0.0
 10
200.617419432131
 20
158.7111986909116
 30
0.0
 10
200.5907365389871
 20
158.7029361653081
 30
0.0
 10
200.5906406621018
 20
158.7029064764278
 30
0.0
  0
LINE
  5
D4
330
1F
100
AcDbEntity
  8
0
  6
HIDDEN
 62
     7
370
     0
100
AcDbLine
 10
198.1745624951
 20
158.0333310529
 30
0.0
 11
197.6752238418
 21
157.9090616694
 31
0.0
  0
LINE
  5
D5
330
1F
100
AcDbEntity
  8
0
  6
HIDDEN
 62
     7
370
     0
100
AcDbLine
 10
183.8234974298
 20
62.3824252591
 30
0.0
 11
171.5909283933
 21
62.3824252591
 31
0.0
  0
LINE
  5
D6
330
1F
100
AcDbEntity
  8
0
  6
HIDDEN
 62
     7
370
     0
100
AcDbLine
 10
171.5909283933
 20
62.3824252591
 30
0.0
 11
171.5909283933
 21
72.4029954131
 31
0.0
  0
SPLINE
  5
D7
330
1F
100
AcDbEntity
  8
0
  6
HIDDEN
 62
     7
370
     0
100
AcDbSpline
210
0.0
220
0.0
230
1.0
 70
     8
 71
     3
 72
    13
 73
     9
 74
     0
 42
0.000000001
 43
0.00000001
 40
0.0
 40
0.0
 40
0.0
 40
0.0
 40
0.0005825290635647
 40
0.1623661983773396
 40
0.3287385494553315
 40
0.4998718252132767
 40
0.7262528256169377
 40
1.0
 40
1.0
 40
1.0
 40
1.0
 10
200.5904942358986
 20
60.7031282197283
 30
0.0
 10
200.5906390219335
 20
60.70308387753501
 30
0.0
 10
200.6309947046509
 20
60.690724539943
 30
0.0
 10
200.5168400977599
 20
60.72635362595047
 30
0.0
 10
200.2927229900594
 20
60.7942015888589
 30
0.0
 10
199.8134140990905
 20
60.93329476300235
 30
0.0
 10
199.019906441462
 20
61.16354134377479
 30
0.0
 10
198.1508885689859
 20
61.37902691453299
 30
0.0
 10
197.6752281301791
 20
61.4969738111271
 30
0.0
  0
LINE
  5
D8
330
1F
100
AcDbEntity
  8
0
  6
HIDDEN
 62
     7
370
     0
100
AcDbLine
 10
75.7909283933
 20
97.2029954131
 30
0.0
 11
75.7909283933
 21
122.2029954131
 31
0.0
  0
LINE
  5
D9
330
1F
100
AcDbEntity
  8
0
  6
HIDDEN
 62
     7
370
     0
100
AcDbLine
 10
79.0755327422
 20
99.2029954131
 30
0.0
 11
79.0755327422
 21
120.2029954131
 31
0.0
  0
LINE
  5
DA
330
1F
100
AcDbEntity
  8
0
  6
HIDDEN
 62
     7
370
     0
100
AcDbLine
 10
128.7909283933
 20
99.2029954131
 30
0.0
 11
128.7909283933
 21
120.2029954131
 31
0.0
  0
LINE
  5
DB
330
1F
100
AcDbEntity
  8
0
  6
HIDDEN
 62
     7
370
     0
100
AcDbLine
 10
133.0570387884
 20
106.3029954131
 30
0.0
 11
133.0570387884
 21
113.1029954131
 31
0.0
  0
SPLINE
  5
DC
330
1F
100
AcDbEntity
  8
0
  6
HIDDEN
 62
     7
370
     0
100
AcDbSpline
210
0.0
220
0.0
230
1.0
 70
     8
 71
     3
 72
    16
 73
    12
 74
     0
 42
0.000000001
 43
0.00000001
 40
0.0
 40
0.0
 40
0.0
 40
0.0
 40
0.2499999999999872
 40
0.2499999999999872
 40
0.4999999999999745
 40
0.4999999999999745
 40
0.6249999999999738
 40
0.6249999999999738
 40
0.7499999999999732
 40
0.7499999999999732
 40
1.0
 40
1.0
 40
1.0
 40
1.0
 10
232.5909283932923
 20
118.3117586698689
 30
0.0
 10
232.5909283932923
 20
118.2382328593474
 30
0.0
 10
232.5867152433106
 20
118.1632853474665
 30
0.0
 10
232.5641670510722
 20
118.0086275928732
 30
0.0
 10
232.5460186760201
 20
117.9276833387564
 30
0.0
 10
232.4962062964114
 20
117.8112103402378
 30
0.0
 10
232.4752397499893
 20
117.7727855602022
 30
0.0
 10
232.4240564198277
 20
117.7065645662268
 30
0.0
 10
232.3944865783149
 20
117.6801249278935
 30
0.0
 10
232.303947496973
 20
117.6266681848066
 30
0.0
 10
232.2444880095678
 20
117.6234456599156
 30
0.0
 10
232.1909283932521
 20
117.6312012002606
 30
0.0
  0
SPLINE
  5
DD
330
1F
100
AcDbEntity
  8
0
  6
HIDDEN
 62
     7
370
     0
100
AcDbSpline
210
0.0
220
0.0
230
1.0
 70
     8
 71
     3
 72
    10
 73
     6
 74
     0
 42
0.000000001
 43
0.00000001
 40
0.0
 40
0.0
 40
0.0
 40
0.0
 40
0.5
 40
0.5
 40
1.0
 40
1.0
 40
1.0
 40
1.0
 10
232.190928393261
 20
117.6312012002687
 30
0.0
 10
232.1497323313503
 20
117.5983129560323
 30
0.0
 10
232.1042948670031
 20
117.5698374291966
 30
0.0
 10
232.0026219357355
 20
117.5283651092828
 30
0.0
 10
231.9474606477372
 20
117.5163114110484
 30
0.0
 10
231.8909283932924
 20
117.5163114110484
 30
0.0
  0
SPLINE
  5
DE
330
1F
100
AcDbEntity
  8
0
  6
HIDDEN
 62
     7
370
     0
100
AcDbSpline
210
0.0
220
0.0
230
1.0
 70
     8
 71
     3
 72
    10
 73
     6
 74
     0
 42
0.000000001
 43
0.00000001
 40
0.0
 40
0.0
 40
0.0
 40
0.0
 40
0.5
 40
0.5
 40
1.0
 40
1.0
 40
1.0
 40
1.0
 10
232.190928393325
 20
101.7747896258185
 30
0.0
 10
232.1497323314078
 20
101.8076778700683
 30
0.0
 10
232.104294867054
 20
101.8361533969156
 30
0.0
 10
232.0026219357635
 20
101.8776257168493
 30
0.0
 10
231.9474606477519
 20
101.8896794150898
 30
0.0
 10
231.8909283932924
 20
101.8896794150898
 30
0.0
  0
SPLINE
  5
DF
330
1F
100
AcDbEntity
  8
0
  6
HIDDEN
 62
     7
370
     0
100
AcDbSpline
210
0.0
220
0.0
230
1.0
 70
     8
 71
     3
 72
    16
 73
    12
 74
     0
 42
0.000000001
 43
0.00000001
 40
0.0
 40
0.0
 40
0.0
 40
0.0
 40
0.2499999999999758
 40
0.2499999999999758
 40
0.3749999999999798
 40
0.3749999999999798
 40
0.4999999999999839
 40
0.4999999999999839
 40
0.749999999999992
 40
0.749999999999992
 40
1.0
 40
1.0
 40
1.0
 40
1.0
 10
232.1909283933066
 20
101.7747896258264
 30
0.0
 10
232.2441830199486
 20
101.7825011580967
 30
0.0
 10
232.3037198244867
 20
101.7792657168464
 30
0.0
 10
232.3938146384543
 20
101.7263651568796
 30
0.0
 10
232.4234638950569
 20
101.6999713220087
 30
0.0
 10
232.4742477162695
 20
101.6347210540109
 30
0.0
 10
232.4952440505549
 20
101.5967692425258
 30
0.0
 10
232.5460499285033
 20
101.4787698823503
 30
0.0
 10
232.5640406655785
 20
101.398042183485
 30
0.0
 10
232.5867058121511
 20
101.2429703676816
 30
0.0
 10
232.5909283932923
 20
101.1678778452083
 30
0.0
 10
232.5909283932923
 20
101.0942371990203
 30
0.0
  0
LINE
  5
E0
330
1F
100
AcDbEntity
  8
0
  6
HIDDEN
 62
     7
370
     0
100
AcDbLine
 10
212.0909283933
 20
109.7029954131
 30
0.0
 11
212.0909283933
 21
101.0029954131
 31
0.0
  0
LINE
  5
E1
330
1F
100
AcDbEntity
  8
0
  6
HIDDEN
 62
     7
370
     0
100
AcDbLine
 10
212.0909283933
 20
118.4029954131
 30
0.0
 11
212.0909283933
 21
109.7029954131
 31
0.0
  0
LINE
  5
E2
330
1F
100
AcDbEntity
  8
0
  6
HIDDEN
 62
     7
370
     0
100
AcDbLine
 10
215.4569537971
 20
109.7029954131
 30
0.0
 11
215.4569537971
 21
100.7029954131
 31
0.0
  0
LINE
  5
E3
330
1F
100
AcDbEntity
  8
0
  6
HIDDEN
 62
     7
370
     0
100
AcDbLine
 10
215.4569537971
 20
118.7029954131
 30
0.0
 11
215.4569537971
 21
109.7029954131
 31
0.0
  0
SPLINE
  5
E4
330
1F
100
AcDbEntity
  8
0
  6
HIDDEN
 62
     7
370
     0
100
AcDbSpline
210
0.0
220
0.0
230
1.0
 70
     8
 71
     3
 72
     9
 73
     5
 74
     0
 42
0.000000001
 43
0.00000001
 40
0.0
 40
0.0
 40
0.0
 40
0.0
 40
0.4951995003022724
 40
1.0
 40
1.0
 40
1.0
 40
1.0
 10
197.6752126077293
 20
157.9090075774818
 30
0.0
 10
197.7804088293651
 20
158.0661633376018
 30
0.0
 10
197.9928408321669
 20
158.383521816405
 30
0.0
 10
198.2075592156808
 20
158.7021483645077
 30
0.0
 10
198.3159491629729
 20
158.8629912052069
 30
0.0
  0
SPLINE
  5
E5
330
1F
100
AcDbEntity
  8
0
  6
HIDDEN
 62
     7
370
     0
100
AcDbSpline
210
0.0
220
0.0
230
1.0
 70
     8
 71
     3
 72
     9
 73
     5
 74
     0
 42
0.000000001
 43
0.00000001
 40
0.0
 40
0.0
 40
0.0
 40
0.0
 40
0.5048005003628353
 40
1.0
 40
1.0
 40
1.0
 40
1.0
 10
198.3159491629729
 20
60.54299962093127
 30
0.0
 10
198.207559215541
 20
60.70384246183588
 30
0.0
 10
197.9928408320332
 20
61.02246900992566
 30
0.0
 10
197.7804088292263
 20
61.33982748874124
 30
0.0
 10
197.6752126077294
 20
61.49698324865633
 30
0.0
  0
LINE
  5
E6
330
1F
100
AcDbEntity
  8
0
  6
HIDDEN
 62
     7
370
     0
100
AcDbLine
 10
223.6909283933
 20
117.516311411
 30
0.0
 11
231.8909283933
 21
117.516311411
 31
0.0
  0
LINE
  5
E7
330
1F
100
AcDbEntity
  8
0
  6
HIDDEN
 62
     7
370
     0
100
AcDbLine
 10
223.6909283933
 20
101.8896794151
 30
0.0
 11
231.8909283933
 21
101.8896794151
 31
0.0
  0
SPLINE
  5
E8
330
1F
100
AcDbEntity
  8
0
  6
HIDDEN
 62
     7
370
     0
100
AcDbSpline
210
0.0
220
0.0
230
1.0
 70
     8
 71
     3
 72
    14
 73
    10
 74
     0
 42
0.000000001
 43
0.00000001
 40
0.0
 40
0.0
 40
0.0
 40
0.0
 40
0.25
 40
0.25
 40
0.5
 40
0.5
 40
0.75
 40
0.75
 40
1.0
 40
1.0
 40
1.0
 40
1.0
 10
232.1909283932923
 20
121.5029954130691
 30
0.0
 10
232.1909283932923
 20
121.6872597138066
 30
0.0
 10
232.1910804628087
 20
121.8542205630894
 30
0.0
 10
232.1878520135374
 20
122.1546236927727
 30
0.0
 10
232.1850048130254
 20
122.2873601498034
 30
0.0
 10
232.1773548926674
 20
122.5035190817771
 30
0.0
 10
232.1722273579463
 20
122.5900031145316
 30
0.0
 10
232.1621893372297
 20
122.7096594635398
 30
0.0
 10
232.1572527423147
 20
122.7437986346088
 30
0.0
 10
232.1536498380495
 20
122.7513993665304
 30
0.0
  0
SPLINE
  5
E9
330
1F
100
AcDbEntity
  8
0
  6
HIDDEN
 62
     7
370
     0
100
AcDbSpline
210
0.0
220
0.0
230
1.0
 70
     8
 71
     3
 72
    11
 73
     7
 74
     0
 42
0.000000001
 43
0.00000001
 40
0.0
 40
0.0
 40
0.0
 40
0.0
 40
0.279277103942375
 40
0.6041923685184041
 40
0.9296541432296939
 40
1.0
 40
1.0
 40
1.0
 40
1.0
 10
232.1531250077375
 20
122.7354285892859
 30
0.0
 10
232.1506606617426
 20
122.7191817009402
 30
0.0
 10
232.1453292578341
 20
122.6840329335974
 30
0.0
 10
232.167795142569
 20
122.2940796806435
 30
0.0
 10
232.1893026640037
 20
121.8451462419789
 30
0.0
 10
232.1906830493212
 20
121.554628391929
 30
0.0
 10
232.1909283815991
 20
121.5029954130692
 30
0.0
  0
LINE
  5
EA
330
1F
100
AcDbEntity
  8
0
  6
HIDDEN
 62
     7
370
     0
100
AcDbLine
 10
232.1909283816
 20
121.5029954131
 30
0.0
 11
232.1909283933
 21
117.6312012003
 31
0.0
  0
LINE
  5
EB
330
1F
100
AcDbEntity
  8
0
  6
HIDDEN
 62
     7
370
     0
100
AcDbLine
 10
232.190928398
 20
97.9029954131
 30
0.0
 11
232.1909283933
 21
101.7747896258
 31
0.0
  0
SPLINE
  5
EC
330
1F
100
AcDbEntity
  8
0
  6
HIDDEN
 62
     7
370
     0
100
AcDbSpline
210
0.0
220
0.0
230
1.0
 70
     8
 71
     3
 72
    11
 73
     7
 74
     0
 42
0.000000001
 43
0.00000001
 40
0.0
 40
0.0
 40
0.0
 40
0.0
 40
0.2791293617742112
 40
0.6040879460056172
 40
0.929592946526498
 40
1.0
 40
1.0
 40
1.0
 40
1.0
 10
232.1531230156036
 20
96.67062324464435
 30
0.0
 10
232.1506609107759
 20
96.6868506804912
 30
0.0
 10
232.1453324571917
 20
96.7219698751448
 30
0.0
 10
232.1677684540162
 20
97.11183315057647
 30
0.0
 10
232.1893549164803
 20
97.56076929545144
 30
0.0
 10
232.1906908263484
 20
97.85132450321937
 30
0.0
 10
232.1909283979923
 20
97.90299541306901
 30
0.0
  0
LINE
  5
ED
330
1F
100
AcDbEntity
  8
0
  6
HIDDEN
 62
     7
370
     0
100
AcDbLine
 10
223.6909283933
 20
97.9029954131
 30
0.0
 11
223.6909283933
 21
101.8896794151
 31
0.0
  0
LINE
  5
EE
330
1F
100
AcDbEntity
  8
0
  6
HIDDEN
 62
     7
370
     0
100
AcDbLine
 10
223.6909283933
 20
121.5029954131
 30
0.0
 11
223.6909283933
 21
117.516311411
 31
0.0
  0
LINE
  5
EF
330
1F
100
AcDbEntity
  8
0
  6
HIDDEN
 62
     7
370
     0
100
AcDbLine
 10
223.6909283933
 20
122.7529954131
 30
0.0
 11
223.6909283933
 21
121.5029954131
 31
0.0
  0
LINE
  5
F0
330
1F
100
AcDbEntity
  8
0
  6
HIDDEN
 62
     7
370
     0
100
AcDbLine
 10
223.6909283933
 20
96.6529954131
 30
0.0
 11
223.6909283933
 21
97.9029954131
 31
0.0
  0
ARC
  5
F1
330
1F
100
AcDbEntity
  8
0
  6
HIDDEN
 62
     7
370
     0
100
AcDbCircle
 10
66.9909283933
 20
96.0029954131
 30
0.0
 40
1.200000000000003
100
AcDbArc
 50
90.0
 51
180.0
  0
ARC
  5
F2
330
1F
100
AcDbEntity
  8
0
  6
HIDDEN
 62
     7
370
     0
100
AcDbCircle
 10
66.9909283933
 20
123.4029954131
 30
0.0
 40
1.200000000000003
100
AcDbArc
 50
180.0
 51
270.0
  0
ARC
  5
F3
330
1F
100
AcDbEntity
  8
0
  6
HIDDEN
 62
     7
370
     0
100
AcDbCircle
 10
198.5909283933
 20
147.0029954131
 30
0.0
 40
2.0
100
AcDbArc
 50
270.0
 51
0.0
  0
ARC
  5
F4
330
1F
100
AcDbEntity
  8
0
  6
HIDDEN
 62
     7
370
     0
100
AcDbCircle
 10
198.5909283933
 20
72.4029954131
 30
0.0
 40
2.0
100
AcDbArc
 50
0.0
 51
90.0
  0
LINE
  5
F5
330
1F
100
AcDbEntity
  8
0
  6
HIDDEN
 62
     7
370
     0
100
AcDbLine
 10
200.5909283933
 20
147.0029954131
 30
0.0
 11
200.5909283933
 21
158.8030987636
 31
0.0
  0
LINE
  5
F6
330
1F
100
AcDbEntity
  8
0
  6
HIDDEN
 62
     7
370
     0
100
AcDbLine
 10
200.5909283933
 20
60.602780026
 30
0.0
 11
200.5909283933
 21
72.4029954131
 31
0.0
  0
ARC
  5
F7
330
1F
100
AcDbEntity
  8
0
  6
HIDDEN
 62
     7
370
     0
100
AcDbCircle
 10
77.5599882856
 20
97.3779954131
 30
0.0
 40
0.400000000000005
100
AcDbArc
 50
270.0
 51
330.0
  0
ARC
  5
F8
330
1F
100
AcDbEntity
  8
0
  6
HIDDEN
 62
     7
370
     0
100
AcDbCircle
 10
77.5599882856
 20
122.0279954131
 30
0.0
 40
0.400000000000005
100
AcDbArc
 50
30.0
 51
90.0
  0
LINE
  5
F9
330
1F
100
AcDbEntity
  8
0
  6
HIDDEN
 62
     7
370
     0
100
AcDbLine
 10
76.683300824
 20
96.9779954131
 30
0.0
 11
77.5599882856
 21
96.9779954131
 31
0.0
  0
LINE
  5
FA
330
1F
100
AcDbEntity
  8
0
  6
HIDDEN
 62
     7
370
     0
100
AcDbLine
 10
77.5599882856
 20
122.4279954131
 30
0.0
 11
76.683300824
 21
122.4279954131
 31
0.0
  0
ARC
  5
FB
330
1F
100
AcDbEntity
  8
0
  6
HIDDEN
 62
     7
370
     0
100
AcDbCircle
 10
76.683300824
 20
97.3779954131
 30
0.0
 40
0.4000000000000023
100
AcDbArc
 50
255.0
 51
270.0
  0
ARC
  5
FC
330
1F
100
AcDbEntity
  8
0
  6
HIDDEN
 62
     7
370
     0
100
AcDbCircle
 10
76.683300824
 20
122.0279954131
 30
0.0
 40
0.4000000000000023
100
AcDbArc
 50
90.0
 51
105.0
  0
LINE
  5
FD
330
1F
100
AcDbEntity
  8
0
  6
HIDDEN
 62
     7
370
     0
100
AcDbLine
 10
76.579773206
 20
122.4143657436
 30
0.0
 11
75.7909283933
 21
122.2029954131
 31
0.0
  0
LINE
  5
FE
330
1F
100
AcDbEntity
  8
0
  6
HIDDEN
 62
     7
370
     0
100
AcDbLine
 10
75.7909283933
 20
97.2029954131
 30
0.0
 11
76.579773206
 21
96.9916250826
 31
0.0
  0
LINE
  5
FF
330
1F
100
AcDbEntity
  8
0
  6
HIDDEN
 62
     7
370
     0
100
AcDbLine
 10
77.9063984471
 20
97.1779954131
 30
0.0
 11
79.0755327422
 21
99.2029954131
 31
0.0
  0
LINE
  5
100
330
1F
100
AcDbEntity
  8
0
  6
HIDDEN
 62
     7
370
     0
100
AcDbLine
 10
79.0755327422
 20
120.2029954131
 30
0.0
 11
77.9063984471
 21
122.2279954131
 31
0.0
  0
LINE
  5
101
330
1F
100
AcDbEntity
  8
0
  6
HIDDEN
 62
     7
370
     0
100
AcDbLine
 10
66.9909283933
 20
97.2029954131
 30
0.0
 11
75.7909283933
 21
97.2029954131
 31
0.0
  0
LINE
  5
102
330
1F
100
AcDbEntity
  8
0
  6
HIDDEN
 62
     7
370
     0
100
AcDbLine
 10
75.7909283933
 20
122.2029954131
 30
0.0
 11
66.9909283933
 21
122.2029954131
 31
0.0
  0
LINE
  5
103
330
1F
100
AcDbEntity
  8
0
  6
HIDDEN
 62
     7
370
     0
100
AcDbLine
 10
79.0755327422
 20
99.2029954131
 30
0.0
 11
128.7909283933
 21
99.2029954131
 31
0.0
  0
LINE
  5
104
330
1F
100
AcDbEntity
  8
0
  6
HIDDEN
 62
     7
370
     0
100
AcDbLine
 10
128.7909283933
 20
120.2029954131
 30
0.0
 11
79.0755327422
 21
120.2029954131
 31
0.0
  0
LINE
  5
105
330
1F
100
AcDbEntity
  8
0
  6
HIDDEN
 62
     7
370
     0
100
AcDbLine
 10
128.7909283933
 20
99.2029954131
 30
0.0
 11
133.0570387884
 21
106.3029954131
 31
0.0
  0
LINE
  5
106
330
1F
100
AcDbEntity
  8
0
  6
HIDDEN
 62
     7
370
     0
100
AcDbLine
 10
133.0570387884
 20
113.1029954131
 30
0.0
 11
128.7909283933
 21
120.2029954131
 31
0.0
  0
LINE
  5
107
330
1F
100
AcDbEntity
  8
0
  6
HIDDEN
 62
     7
370
     0
100
AcDbLine
 10
213.4856063952
 20
119.2029954131
 30
0.0
 11
212.8909283933
 21
119.2029954131
 31
0.0
  0
LINE
  5
108
330
1F
100
AcDbEntity
  8
0
  6
HIDDEN
 62
     7
370
     0
100
AcDbLine
 10
212.8909283933
 20
100.2029954131
 30
0.0
 11
213.4856063952
 21
100.2029954131
 31
0.0
  0
ARC
  5
109
330
1F
100
AcDbEntity
  8
0
  6
HIDDEN
 62
     7
370
     0
100
AcDbCircle
 10
213.4856063952
 20
118.4029954131
 30
0.0
 40
0.8000000000000114
100
AcDbArc
 50
75.0
 51
90.0
  0
ARC
  5
10A
330
1F
100
AcDbEntity
  8
0
  6
HIDDEN
 62
     7
370
     0
100
AcDbCircle
 10
213.4856063952
 20
101.0029954131
 30
0.0
 40
0.8000000000000114
100
AcDbArc
 50
270.0
 51
285.0
  0
ARC
  5
10B
330
1F
100
AcDbEntity
  8
0
  6
HIDDEN
 62
     7
370
     0
100
AcDbCircle
 10
212.8909283933
 20
118.4029954131
 30
0.0
 40
0.7999999999999972
100
AcDbArc
 50
90.0
 51
180.0
  0
ARC
  5
10C
330
1F
100
AcDbEntity
  8
0
  6
HIDDEN
 62
     7
370
     0
100
AcDbCircle
 10
212.8909283933
 20
101.0029954131
 30
0.0
 40
0.7999999999999972
100
AcDbArc
 50
180.0
 51
270.0
  0
LINE
  5
10D
330
1F
100
AcDbEntity
  8
0
  6
HIDDEN
 62
     7
370
     0
100
AcDbLine
 10
213.6926616313
 20
100.230254752
 30
0.0
 11
215.4569537971
 21
100.7029954131
 31
0.0
  0
LINE
  5
10E
330
1F
100
AcDbEntity
  8
0
  6
HIDDEN
 62
     7
370
     0
100
AcDbLine
 10
215.4569537971
 20
118.7029954131
 30
0.0
 11
213.6926616313
 21
119.1757360741
 31
0.0
  0
LINE
  5
10F
330
1F
100
AcDbEntity
  8
0
  6
HIDDEN
 62
     7
370
     0
100
AcDbLine
 10
200.5909327137
 20
158.7029959368
 30
0.0
 11
201.590932563
 21
159.7029957156
 31
0.0
  0
LINE
  5
110
330
1F
100
AcDbEntity
  8
0
  6
HIDDEN
 62
     7
370
     0
100
AcDbLine
 10
201.5909325637
 20
59.7029951098
 30
0.0
 11
200.5909327144
 21
60.7029948887
 31
0.0
  0
LINE
  5
111
330
1F
100
AcDbEntity
  8
0
  6
HIDDEN
 62
     7
370
     0
100
AcDbLine
 10
223.6909283933
 20
118.7029954131
 30
0.0
 11
215.4569537971
 21
118.7029954131
 31
0.0
  0
LINE
  5
112
330
1F
100
AcDbEntity
  8
0
  6
HIDDEN
 62
     7
370
     0
100
AcDbLine
 10
215.4569537971
 20
100.7029954131
 30
0.0
 11
223.6909283933
 21
100.7029954131
 31
0.0
  0
LINE
  5
113
330
1F
100
AcDbEntity
  8
0
  6
HIDDEN
 62
     7
370
     0
100
AcDbLine
 10
232.5909283933
 20
123.1919444598
 30
0.0
 11
232.144505615
 21
122.7455219278
 31
0.0
  0
LINE
  5
114
330
1F
100
AcDbEntity
  8
0
  6
HIDDEN
 62
     7
370
     0
100
AcDbLine
 10
232.1445053417
 20
96.6604696382
 30
0.0
 11
232.5909283933
 21
96.2140468691
 31
0.0
  0
LINE
  5
115
330
1F
100
AcDbEntity
  8
0
  6
HIDDEN
 62
     7
370
     0
100
AcDbLine
 10
133.0570387884
 20
106.3029954131
 30
0.0
 11
212.0909283933
 21
106.3029954131
 31
0.0
  0
LINE
  5
116
330
1F
100
AcDbEntity
  8
0
  6
HIDDEN
 62
     7
370
     0
100
AcDbLine
 10
212.0909283933
 20
113.1029954131
 30
0.0
 11
133.0570387884
 21
113.1029954131
 31
0.0
  0
LINE
  5
117
330
1F
100
AcDbEntity
  8
0
  6
HIDDEN
 62
     7
370
     0
100
AcDbLine
 10
232.1532649677
 20
122.7529954131
 30
0.0
 11
223.6909283933
 21
122.7529954131
 31
0.0
  0
LINE
  5
118
330
1F
100
AcDbEntity
  8
0
  6
HIDDEN
 62
     7
370
     0
100
AcDbLine
 10
223.6909283933
 20
96.6529954131
 30
0.0
 11
232.1532645726
 21
96.6529954131
 31
0.0
  0
DIMENSION
  5
119
330
1F
100
AcDbEntity
  8
VERMASSUNG
100
AcDbDimension
  2
_D
 10
245.947982628
 20
93.7029954131
 30
0.0
 11
245.947982628
 21
109.7029954131
 31
0.0
 70
   160
  1
ST3 %%c<>
 71
     2
 42
-1.0
  3
SLDDIMSTYLE0
100
AcDbAlignedDimension
 13
232.2909283933
 23
125.7029954131
 33
0.0
 14
232.2909283933
 24
93.7029954131
 34
0.0
 50
90.0
100
AcDbRotatedDimension
  0
DIMENSION
  5
126
330
1F
100
AcDbEntity
  8
VERMASSUNG
100
AcDbDimension
  2
_D_1
 10
239.847982628
 20
100.7029954131
 30
0.0
 11
239.847982628
 21
109.7029954131
 31
0.0
 70
   160
  1
%%c<>
 71
     2
 42
-1.0
  3
SLDDIMSTYLE0
100
AcDbAlignedDimension
 13
223.6909283933
 23
118.7029954131
 33
0.0
 14
223.6909283933
 24
100.7029954131
 34
0.0
 50
90.0
100
AcDbRotatedDimension
  0
DIMENSION
  5
131
330
1F
100
AcDbEntity
  8
VERMASSUNG
100
AcDbDimension
  2
_D_2
 10
232.5909283933
 20
165.7739565732
 30
0.0
 11
219.0909283933
 21
165.7739565732
 31
0.0
 70
   160
  1
(<>)
 71
     2
 42
-1.0
  3
SLDDIMSTYLE0
100
AcDbAlignedDimension
 13
205.5909283933
 23
158.7029954131
 33
0.0
 14
232.5909283933
 24
125.4029954131
 34
0.0
100
AcDbRotatedDimension
  0
DIMENSION
  5
13D
330
1F
100
AcDbEntity
  8
VERMASSUNG
100
AcDbDimension
  2
_D_3
 10
232.5909283933
 20
171.7739565732
 30
0.0
 11
200.0909283933
 21
171.7739565732
 31
0.0
 70
   160
  1
<>
 71
     2
 42
-1.0
  3
SLDDIMSTYLE0
100
AcDbAlignedDimension
 13
167.5909283933
 23
144.6279954131
 33
0.0
 14
232.5909283933
 24
125.4029954131
 34
0.0
100
AcDbRotatedDimension
  0
DIMENSION
  5
147
330
1F
100
AcDbEntity
  8
VERMASSUNG
100
AcDbDimension
  2
_D_4
 10
232.5909283933
 20
177.7739565732
 30
0.0
 11
149.1909283933
 21
177.7739565732
 31
0.0
 70
   160
  1
(<>)
 71
     2
 42
-1.0
  3
SLDDIMSTYLE0
100
AcDbAlignedDimension
 13
65.7909283933
 23
128.0526732738
 33
0.0
 14
232.5909283933
 24
125.4029954131
 34
0.0
100
AcDbRotatedDimension
  0
DIMENSION
  5
153
330
1F
100
AcDbEntity
  8
VERMASSUNG
100
AcDbDimension
  2
_D_5
 10
62.4317666709
 20
59.7029954131
 30
0.0
 11
62.4317666709
 21
109.7029954131
 31
0.0
 70
   160
  1
MAS BT 50 %%c<>
 71
     2
 42
-1.0
  3
SLDDIMSTYLE0
100
AcDbAlignedDimension
 13
201.5909303018
 23
159.7029954131
 33
0.0
 14
201.5909304554
 24
59.7029954131
 34
0.0
 50
90.0
100
AcDbRotatedDimension
  0
LINE
  5
15F
330
1F
100
AcDbEntity
  8
VERMASSUNG
  6
CENTERX2
370
     0
100
AcDbLine
 10
63.5023146071
 20
109.7029954131
 30
0.0
 11
233.8323499533
 21
109.7029954131
 31
0.0
  0
LINE
  5
160
330
1F
100
AcDbEntity
  8
0
  6
Continuous
 62
     7
370
    15
100
AcDbLine
 10
278.5582380676
 20
42.8866891095
 30
0.0
 11
278.416793732
 21
42.9683697285
 31
0.0
  0
LINE
  5
161
330
1F
100
AcDbEntity
  8
0
  6
Continuous
 62
     7
370
    15
100
AcDbLine
 10
276.5780173694
 20
42.9683697285
 30
0.0
 11
276.4365730338
 21
42.8866891095
 31
0.0
  0
LINE
  5
162
330
1F
100
AcDbEntity
  8
0
  6
Continuous
 62
     7
370
    15
100
AcDbLine
 10
278.9974055507
 20
42.1315878924
 30
0.0
 11
278.9974055507
 21
42.2744825345
 31
0.0
  0
LINE
  5
163
330
1F
100
AcDbEntity
  8
0
  6
Continuous
 62
     7
370
    15
100
AcDbLine
 10
275.9974055507
 20
42.2744825345
 30
0.0
 11
275.9974055507
 21
42.1315878924
 31
0.0
  0
SPLINE
  5
164
330
1F
100
AcDbEntity
  8
0
  6
Continuous
 62
     7
370
    15
100
AcDbSpline
210
0.0
220
0.0
230
1.0
 70
     8
 71
     3
 72
    22
 73
    18
 74
     0
 42
0.000000001
 43
0.00000001
 40
0.0
 40
0.0
 40
0.0
 40
0.0
 40
0.0150338630113119
 40
0.0883420989905921
 40
0.161951267139597
 40
0.2358323204589536
 40
0.309924909214213
 40
0.3841609995684025
 40
0.4584804214190298
 40
0.5328373988353726
 40
0.6071966170942935
 40
0.6815394104983904
 40
0.7558581880209853
 40
0.8301506008112859
 40
0.9044176068729073
 40
0.9786621593463645
 40
1.0
 40
1.0
 40
1.0
 40
1.0
 10
261.6470111175952
 20
17.17415591264111
 30
0.0
 10
261.729134210269
 20
17.16234316472182
 30
0.0
 10
262.2117065455986
 20
17.09292900648102
 30
0.0
 10
263.1456238236464
 20
17.10452882381973
 30
0.0
 10
264.4428879433009
 20
17.2162110086747
 30
0.0
 10
265.7824388391938
 20
17.48174774450077
 30
0.0
 10
267.150063964697
 20
17.88412267902006
 30
0.0
 10
268.5384378803528
 20
18.42508077680878
 30
0.0
 10
269.9381546273304
 20
19.09993061746886
 30
0.0
 10
271.3403719837058
 20
19.90444076235881
 30
0.0
 10
272.7362167487288
 20
20.83320341280664
 30
0.0
 10
274.1171843135107
 20
21.88001174910885
 30
0.0
 10
275.4744879998746
 20
23.03865902797265
 30
0.0
 10
276.8014188331301
 20
24.29989540330874
 30
0.0
 10
278.0845020948751
 20
25.66304302798594
 30
0.0
 10
279.0392234915215
 20
26.75327814172289
 30
0.0
 10
279.5447817738121
 20
27.410574050866
 30
0.0
 10
279.6576427486812
 20
27.55730897675274
 30
0.0
  0
SPLINE
  5
165
330
1F
100
AcDbEntity
  8
0
  6
Continuous
 62
     7
370
    15
100
AcDbSpline
210
0.0
220
0.0
230
1.0
 70
     8
 71
     3
 72
    22
 73
    18
 74
     0
 42
0.000000001
 43
0.00000001
 40
0.0
 40
0.0
 40
0.0
 40
0.0
 40
0.0284625095022978
 40
0.1028581560713577
 40
0.1772758613926843
 40
0.2517207162319712
 40
0.3261972077890924
 40
0.4007086543062312
 40
0.4752562789352207
 40
0.5498377631292796
 40
0.6244451059455439
 40
0.6990575388684865
 40
0.7736377906162392
 40
0.8481360345897261
 40
0.9224863423702073
 40
0.9966137749531059
 40
1.0
 40
1.0
 40
1.0
 40
1.0
 10
285.8042048437891
 20
38.20629386900329
 30
0.0
 10
285.8973789524311
 20
38.43419128519088
 30
0.0
 10
286.2340926567423
 20
39.25776968401723
 30
0.0
 10
286.7153014390996
 20
40.68636501862443
 30
0.0
 10
287.2437605834284
 20
42.47823513043894
 30
0.0
 10
287.6628291193935
 20
44.25597461844404
 30
0.0
 10
287.9774023855326
 20
46.00790453383122
 30
0.0
 10
288.183224421388
 20
47.72368238542811
 30
0.0
 10
288.2792311270936
 20
49.39284261497623
 30
0.0
 10
288.2642762319872
 20
51.00526908955231
 30
0.0
 10
288.137913778269
 20
52.5509341953079
 30
0.0
 10
287.9006490784708
 20
54.02044740492126
 30
0.0
 10
287.5524203462481
 20
55.40308387832108
 30
0.0
 10
287.0988670247138
 20
56.69429536380056
 30
0.0
 10
286.5284208415824
 20
57.86804908537261
 30
0.0
 10
286.0978411441519
 20
58.62779685465902
 30
0.0
 10
285.8313457719468
 20
58.96006490543941
 30
0.0
 10
285.8197037809502
 20
58.97458021061581
 30
0.0
  0
LINE
  5
166
330
1F
100
AcDbEntity
  8
0
  6
Continuous
 62
     7
370
    15
100
AcDbLine
 10
255.7264837245
 20
19.6068183254
 30
0.0
 11
257.9450312504
 21
18.3260781
 31
0.0
  0
LINE
  5
167
330
1F
100
AcDbEntity
  8
0
  6
Continuous
 62
     7
370
    15
100
AcDbLine
 10
282.9429995663
 20
61.628521219
 30
0.0
 11
280.7244520404
 21
62.9092614444
 31
0.0
  0
LINE
  5
168
330
1F
100
AcDbEntity
  8
0
  6
Continuous
 62
     7
370
    15
100
AcDbLine
 10
275.4034735119
 20
65.9809969652
 30
0.0
 11
271.2757376768
 21
68.3638881415
 31
0.0
  0
SPLINE
  5
169
330
1F
100
AcDbEntity
  8
0
  6
Continuous
 62
     7
370
    15
100
AcDbSpline
210
0.0
220
0.0
230
1.0
 70
     8
 71
     3
 72
    31
 73
    27
 74
     0
 42
0.000000001
 43
0.00000001
 40
0.0
 40
0.0
 40
0.0
 40
0.0
 40
0.0207008106775834
 40
0.0635891777828268
 40
0.1066515747065328
 40
0.1498647531997835
 40
0.1931910749483531
 40
0.236591338826235
 40
0.2800324052110471
 40
0.3234898646865875
 40
0.3669443352251583
 40
0.4103876652781596
 40
0.453816356254074
 40
0.4972296363177344
 40
0.5406284330468544
 40
0.5840146878734269
 40
0.6273909219141333
 40
0.6707599741134546
 40
0.7141248518614436
 40
0.7574886515995638
 40
0.8008541944386715
 40
0.8442239317092586
 40
0.8876010558946796
 40
0.9309887450456495
 40
0.9743900993227719
 40
1.0
 40
1.0
 40
1.0
 40
1.0
 10
267.59099933012
 20
69.50777620374303
 30
0.0
 10
267.3958097669933
 20
69.53111729824464
 30
0.0
 10
266.7962224356402
 20
69.60281695440912
 30
0.0
 10
265.7386472221494
 20
69.5701595195166
 30
0.0
 10
264.4292798211725
 20
69.41758370608665
 30
0.0
 10
263.081567344071
 20
69.11603757325696
 30
0.0
 10
261.7076090443919
 20
68.67694277300386
 30
0.0
 10
260.3153888881836
 20
68.10043584510092
 30
0.0
 10
258.9141471005373
 20
67.39104697250737
 30
0.0
 10
257.512753449653
 20
66.55334663312338
 30
0.0
 10
256.119991127817
 20
65.59294869726223
 30
0.0
 10
254.7444206901241
 20
64.51610715501918
 30
0.0
 10
253.3943707887212
 20
63.32969962544303
 30
0.0
 10
252.0779726340291
 20
62.04119687388076
 30
0.0
 10
250.8031436128461
 20
60.65863610487598
 30
0.0
 10
249.5775551526685
 20
59.19058144701872
 30
0.0
 10
248.4085948844233
 20
57.64608188509278
 30
0.0
 10
247.3033290908402
 20
56.03462427384721
 30
0.0
 10
246.2684519590251
 20
54.36607853605482
 30
0.0
 10
245.310285052904
 20
52.650653579551
 30
0.0
 10
244.4346034072516
 20
50.8988104717083
 30
0.0
 10
243.6471084460532
 20
49.12130942455007
 30
0.0
 10
242.9514749123734
 20
47.32869149798508
 30
0.0
 10
242.3564952513909
 20
45.53287650826078
 30
0.0
 10
241.9186613540649
 20
43.9859589316554
 30
0.0
 10
241.7144272518001
 20
43.04872627093181
 30
0.0
 10
241.6386364974172
 20
42.70092162126326
 30
0.0
  0
LINE
  5
16A
330
1F
100
AcDbEntity
  8
0
  6
Continuous
 62
     7
370
    15
100
AcDbLine
 10
280.2383637257
 20
27.7918778334
 30
0.0
 11
280.3444125042
 21
27.8531183935
 31
0.0
  0
LINE
  5
16B
330
1F
100
AcDbEntity
  8
0
  6
Continuous
 62
     7
370
    15
100
AcDbLine
 10
285.8942985773
 20
37.4668447156
 30
0.0
 11
285.8942985773
 21
37.5893059324
 31
0.0
  0
LINE
  5
16C
330
1F
100
AcDbEntity
  8
0
  6
Continuous
 62
     7
370
    15
100
AcDbLine
 10
284.2371192584
 20
41.2520643842
 30
0.0
 11
276.2114572919
 21
45.8851804188
 31
0.0
  0
LINE
  5
16D
330
1F
100
AcDbEntity
  8
0
  6
Continuous
 62
     7
370
    15
100
AcDbLine
 10
268.2121074308
 20
32.0283986207
 30
0.0
 11
276.2377693973
 21
27.3952825861
 31
0.0
  0
SPLINE
  5
16E
330
1F
100
AcDbEntity
  8
0
  6
Continuous
 62
     7
370
    15
100
AcDbSpline
210
0.0
220
0.0
230
1.0
 70
     8
 71
     3
 72
    16
 73
    12
 74
     0
 42
0.000000001
 43
0.00000001
 40
0.0
 40
0.0
 40
0.0
 40
0.0
 40
0.0061604258716973
 40
0.1458184461277088
 40
0.284968473075792
 40
0.4234659737758462
 40
0.5613661241413281
 40
0.6991492006152213
 40
0.8381126310072047
 40
0.9814043490750785
 40
1.0
 40
1.0
 40
1.0
 40
1.0
 10
278.7793566896857
 20
36.77457764716753
 30
0.0
 10
278.7866507823127
 20
36.78413770395873
 30
0.0
 10
278.9593033350643
 20
37.01042605726744
 30
0.0
 10
279.3428432539917
 20
37.3800018132929
 30
0.0
 10
279.9084164359019
 20
37.85134668497155
 30
0.0
 10
280.4821775569455
 20
38.19532834257609
 30
0.0
 10
281.0331627266297
 20
38.41285624712372
 30
0.0
 10
281.5441373977171
 20
38.50298946962065
 30
0.0
 10
281.9905984104884
 20
38.45609786599303
 30
0.0
 10
282.2765730635951
 20
38.37270302805385
 30
0.0
 10
282.3956600943703
 20
38.26579222299419
 30
0.0
 10
282.4093393632828
 20
38.25351161071814
 30
0.0
  0
SPLINE
  5
16F
330
1F
100
AcDbEntity
  8
0
  6
Continuous
 62
     7
370
    15
100
AcDbSpline
210
0.0
220
0.0
230
1.0
 70
     8
 71
     3
 72
    11
 73
     7
 74
     0
 42
0.000000001
 43
0.00000001
 40
0.0
 40
0.0
 40
0.0
 40
0.0
 40
0.0637028860267792
 40
0.3801357428472003
 40
0.6971062772653561
 40
1.0
 40
1.0
 40
1.0
 40
1.0
 10
277.4545363990417
 20
34.54216384360566
 30
0.0
 10
277.4735505458686
 20
34.59304248956055
 30
0.0
 10
277.5870141152525
 20
34.89665184043031
 30
0.0
 10
277.8583736965464
 20
35.44703974304017
 30
0.0
 10
278.2831223904852
 20
36.1567241733064
 30
0.0
 10
278.6164686328934
 20
36.57176830508504
 30
0.0
 10
278.7793566896857
 20
36.77457764716753
 30
0.0
  0
LINE
  5
170
330
1F
100
AcDbEntity
  8
0
  6
Continuous
 62
     7
370
    15
100
AcDbLine
 10
256.8560090034
 20
66.0790611083
 30
0.0
 11
226.5063896646
 21
77.0158609006
 31
0.0
  0
LINE
  5
171
330
1F
100
AcDbEntity
  8
0
  6
Continuous
 62
     7
370
    15
100
AcDbLine
 10
216.3970349892
 20
59.5040475297
 30
0.0
 11
245.8607723158
 21
34.6251113043
 31
0.0
  0
LINE
  5
172
330
1F
100
AcDbEntity
  8
0
  6
Continuous
 62
     7
370
    15
100
AcDbLine
 10
277.3974131285
 20
30.9432337742
 30
0.0
 11
277.3344053288
 21
31.0338398564
 31
0.0
  0
LINE
  5
173
330
1F
100
AcDbEntity
  8
0
  6
Continuous
 62
     7
370
    15
100
AcDbLine
 10
277.7828949043
 20
30.5569809235
 30
0.0
 11
277.4881006104
 21
30.8128239282
 31
0.0
  0
LINE
  5
174
330
1F
100
AcDbEntity
  8
0
  6
Continuous
 62
     7
370
    15
100
AcDbLine
 10
246.2777693609
 20
25.0614450225
 30
0.0
 11
250.405505196
 21
22.6785538461
 31
0.0
  0
SPLINE
  5
175
330
1F
100
AcDbEntity
  8
0
  6
Continuous
 62
     7
370
    15
100
AcDbSpline
210
0.0
220
0.0
230
1.0
 70
     8
 71
     3
 72
    11
 73
     7
 74
     0
 42
0.000000001
 43
0.00000001
 40
0.0
 40
0.0
 40
0.0
 40
0.0
 40
0.1029993773410297
 40
0.4174359212798447
 40
0.731397278359151
 40
0.9999999999999999
 40
0.9999999999999999
 40
0.9999999999999999
 40
0.9999999999999999
 10
241.6221463637936
 20
31.5357858326006
 30
0.0
 10
241.6637415076644
 20
31.38822768618723
 30
0.0
 10
241.8323183248329
 20
30.79020396623344
 30
0.0
 10
242.2073618903902
 20
29.81154170008077
 30
0.0
 10
242.7476736223907
 20
28.68844696756605
 30
0.0
 10
243.1812103247379
 20
28.04858431672772
 30
0.0
 10
243.3811010190585
 20
27.75356295209245
 30
0.0
  0
SPLINE
  5
176
330
1F
100
AcDbEntity
  8
0
  6
Continuous
 62
     7
370
    15
100
AcDbSpline
210
0.0
220
0.0
230
1.0
 70
     8
 71
     3
 72
    25
 73
    21
 74
     0
 42
0.000000001
 43
0.00000001
 40
0.0
 40
0.0
 40
0.0
 40
0.0
 40
0.0438039404148049
 40
0.0964050175538123
 40
0.1500478736448497
 40
0.2049697020879973
 40
0.2609946613138659
 40
0.3177109939759197
 40
0.3747138095048919
 40
0.4316951416719395
 40
0.4885623396875041
 40
0.5453066949784618
 40
0.6019564127478888
 40
0.6585557974315355
 40
0.715155820647958
 40
0.7717994468694181
 40
0.8285351789608262
 40
0.8854183782141476
 40
0.9424996820197
 40
1.0
 40
1.0
 40
1.0
 40
1.0
 10
226.4136949166387
 20
77.03739000058404
 30
0.0
 10
226.2005119707026
 20
77.10226145816637
 30
0.0
 10
225.7313325897946
 20
77.24503249537769
 30
0.0
 10
224.9476539123806
 20
77.29481720688366
 30
0.0
 10
224.0869090860892
 20
77.22159915064958
 30
0.0
 10
223.1928377676571
 20
77.00280576639523
 30
0.0
 10
222.2786297215379
 20
76.64404191121527
 30
0.0
 10
221.3585252060006
 20
76.14809036444606
 30
0.0
 10
220.4490704574538
 20
75.52409560664138
 30
0.0
 10
219.5656163435825
 20
74.78377772300244
 30
0.0
 10
218.721745124404
 20
73.94048101268817
 30
0.0
 10
217.9292571594519
 20
73.00792040339482
 30
0.0
 10
217.1989878139755
 20
72.00040155662002
 30
0.0
 10
216.5410119321596
 20
70.93282657078295
 30
0.0
 10
215.9645902254052
 20
69.82064505577864
 30
0.0
 10
215.4783945140374
 20
68.6798258734766
 30
0.0
 10
215.0891815400673
 20
67.52604433313155
 30
0.0
 10
214.8063842685816
 20
66.37643083824105
 30
0.0
 10
214.6247655222181
 20
65.24052239875552
 30
0.0
 10
214.6018302989008
 20
64.5165570373296
 30
0.0
 10
214.5903207512689
 20
64.15325062012325
 30
0.0
  0
SPLINE
  5
177
330
1F
100
AcDbEntity
  8
0
  6
Continuous
 62
     7
370
    15
100
AcDbSpline
210
0.0
220
0.0
230
1.0
 70
     8
 71
     3
 72
    14
 73
    10
 74
     0
 42
0.000000001
 43
0.00000001
 40
0.0
 40
0.0
 40
0.0
 40
0.0
 40
0.0961640073803374
 40
0.277500407491006
 40
0.4588312392024052
 40
0.6384530080024327
 40
0.8146068446526872
 40
0.9861326826283854
 40
1.0
 40
1.0
 40
1.0
 40
1.0
 10
214.5903207512689
 20
64.15325062012325
 30
0.0
 10
214.5937070010426
 20
63.9648139198074
 30
0.0
 10
214.6034786995988
 20
63.42104226814268
 30
0.0
 10
214.7124135101907
 20
62.56670842894538
 30
0.0
 10
214.9595355180614
 20
61.62949139272158
 30
0.0
 10
215.3277284704874
 20
60.78444542528548
 30
0.0
 10
215.8207527597702
 20
60.06968882536034
 30
0.0
 10
216.2125380631706
 20
59.6222274149611
 30
0.0
 10
216.4594074817739
 20
59.45752333178593
 30
0.0
 10
216.4778731935781
 20
59.44520354689682
 30
0.0
  0
LWPOLYLINE
  5
178
330
1F
100
AcDbEntity
  8
0
  6
Continuous
 62
     7
370
    15
100
AcDbPolyline
 90
       18
 70
   128
 43
0.0
 10
276.5781667352
 20
41.9071254242
 10
276.3081735217
 20
42.1346584743
 10
276.1987926835
 20
42.4031312107
 10
276.2647967089
 20
42.6762849029
 10
276.4972713884
 20
42.9172286309
 10
276.8648197286
 20
43.0934216093
 10
277.3178022893
 20
43.181068
 10
277.7950412657
 20
43.1683306723
 10
278.2320828895
 20
43.0569298728
 10
278.5699022677
 20
42.8619108969
 10
278.7628750214
 20
42.6096121378
 10
278.7849391109
 20
42.334107941
 10
278.6331146586
 20
42.0726066749
 10
278.3279063981
 20
41.8604255345
 10
277.9105343962
 20
41.7262207586
 10
277.4373670545
 20
41.6881174458
 10
276.9723082444
 20
41.7512616597
 10
276.5781667352
 20
41.9071254242
  0
LWPOLYLINE
  5
179
330
1F
100
AcDbEntity
  8
0
  6
Continuous
 62
     7
370
    15
100
AcDbPolyline
 90
        6
 70
   128
 43
0.0
 10
276.4367453789
 20
41.6621764506
 10
276.1379438702
 20
41.9085240404
 10
276.0031135036
 20
42.1990116255
 10
276.0485168113
 20
42.4986021161
 10
276.2686774843
 20
42.7711604775
 10
276.4365730338
 20
42.8866891095
  0
LWPOLYLINE
  5
17A
330
1F
100
AcDbEntity
  8
0
  6
Continuous
 62
     7
370
    15
100
AcDbPolyline
 90
       10
 70
   128
 43
0.0
 10
278.5582380676
 20
42.8866891095
 10
278.8568672313
 20
42.6404410286
 10
278.9916975979
 20
42.3499534435
 10
278.9462942902
 20
42.0503629529
 10
278.7261336172
 20
41.7778045915
 10
278.3577702052
 20
41.5651529202
 10
277.8856341184
 20
41.438056869
 10
277.3666719366
 20
41.4118460974
 10
276.8634781581
 20
41.4896820113
 10
276.4367453789
 20
41.6621764506
  0
LWPOLYLINE
  5
17B
330
1F
100
AcDbEntity
  8
0
  6
Continuous
 62
     7
370
    15
100
AcDbPolyline
 90
       17
 70
   128
 43
0.0
 10
276.8256541086
 20
42.0499968437
 10
276.6197199948
 20
42.2279181759
 10
276.5474055507
 20
42.4377906969
 10
276.6197199948
 20
42.6476632178
 10
276.8256541086
 20
42.82558455
 10
277.13385629
 20
42.9444677834
 10
277.4974055507
 20
42.9862140233
 10
277.8609548115
 20
42.9444677834
 10
278.1691569928
 20
42.82558455
 10
278.3750911066
 20
42.6476632178
 10
278.4474055507
 20
42.4377906969
 10
278.3750911066
 20
42.2279181759
 10
278.1691569928
 20
42.0499968437
 10
277.8609548115
 20
41.9311136104
 10
277.4974055507
 20
41.8893673704
 10
277.13385629
 20
41.9311136104
 10
276.8256541086
 20
42.0499968437
  0
SPLINE
  5
17C
330
1F
100
AcDbEntity
  8
0
  6
Continuous
 62
     7
370
    15
100
AcDbSpline
210
0.0
220
0.0
230
1.0
 70
     8
 71
     3
 72
     9
 73
     5
 74
     0
 42
0.000000001
 43
0.00000001
 40
0.0
 40
0.0
 40
0.0
 40
0.0
 40
0.6282411327559124
 40
1.0
 40
1.0
 40
1.0
 40
1.0
 10
276.9672203871577
 20
41.97146992512547
 30
0.0
 10
276.9000055454093
 20
42.01731269728926
 30
0.0
 10
276.7930166230927
 20
42.09028272388191
 30
0.0
 10
276.6966969423773
 20
42.19929881324138
 30
0.0
 10
276.6608892469812
 20
42.23982651113303
 30
0.0
  0
SPLINE
  5
17D
330
1F
100
AcDbEntity
  8
0
  6
Continuous
 62
     7
370
    15
100
AcDbSpline
210
0.0
220
0.0
230
1.0
 70
     8
 71
     3
 72
    10
 73
     6
 74
     0
 42
0.000000001
 43
0.00000001
 40
0.0
 40
0.0
 40
0.0
 40
0.0
 40
0.4391165375904117
 40
0.7513669429073434
 40
1.0
 40
1.0
 40
1.0
 40
1.0
 10
278.3339218544568
 20
42.49861751265299
 30
0.0
 10
278.301833931773
 20
42.38754166760726
 30
0.0
 10
278.246928679278
 20
42.19748114613197
 30
0.0
 10
278.1671141974019
 20
42.05742426453933
 30
0.0
 10
278.1273880994593
 20
42.02851989664826
 30
0.0
 10
278.1097779864148
 20
42.01570692954594
 30
0.0
  0
SPLINE
  5
17E
330
1F
100
AcDbEntity
  8
0
  6
Continuous
 62
     7
370
    15
100
AcDbSpline
210
0.0
220
0.0
230
1.0
 70
     8
 71
     3
 72
    11
 73
     7
 74
     0
 42
0.000000001
 43
0.00000001
 40
0.0
 40
0.0
 40
0.0
 40
0.0
 40
0.1858291127512953
 40
0.5244603149142152
 40
0.8816641415318794
 40
1.0
 40
1.0
 40
1.0
 40
1.0
 10
277.721549418761
 20
42.85213259500006
 30
0.0
 10
277.7573621905546
 20
42.81226270248256
 30
0.0
 10
277.858435576176
 20
42.69973901835289
 30
0.0
 10
278.0478893743667
 20
42.55085884909391
 30
0.0
 10
278.2200999018631
 20
42.50178673777483
 30
0.0
 10
278.3112416504665
 20
42.49924901361231
 30
0.0
 10
278.3339218544568
 20
42.49861751265299
 30
0.0
  0
SPLINE
  5
17F
330
1F
100
AcDbEntity
  8
0
  6
Continuous
 62
     7
370
    15
100
AcDbSpline
210
0.0
220
0.0
230
1.0
 70
     8
 71
     3
 72
    10
 73
     6
 74
     0
 42
0.000000001
 43
0.00000001
 40
0.0
 40
0.0
 40
0.0
 40
0.0
 40
0.4391165375904115
 40
0.7513669429073456
 40
1.0
 40
1.0
 40
1.0
 40
1.0
 10
276.8850331150232
 20
42.72273709424009
 30
0.0
 10
277.0047868727884
 20
42.69931758549993
 30
0.0
 10
277.2096960647021
 20
42.6592447502042
 30
0.0
 10
277.5075677662438
 20
42.73722146132314
 30
0.0
 10
277.6558275821519
 20
42.81683905154324
 30
0.0
 10
277.721549418761
 20
42.85213259500006
 30
0.0
  0
SPLINE
  5
180
330
1F
100
AcDbEntity
  8
0
  6
Continuous
 62
     7
370
    15
100
AcDbSpline
210
0.0
220
0.0
230
1.0
 70
     8
 71
     3
 72
    10
 73
     6
 74
     0
 42
0.000000001
 43
0.00000001
 40
0.0
 40
0.0
 40
0.0
 40
0.0
 40
0.43911653759041
 40
0.7513669429073428
 40
1.0
 40
1.0
 40
1.0
 40
1.0
 10
276.6608892469812
 20
42.23982651113303
 30
0.0
 10
276.692977169665
 20
42.26701541175507
 30
0.0
 10
276.74788242216
 20
42.31353800745023
 30
0.0
 10
276.8276969040361
 20
42.51739647201361
 30
0.0
 10
276.8674230019787
 20
42.65966924396216
 30
0.0
 10
276.8850331150232
 20
42.72273709424009
 30
0.0
  0
LINE
  5
181
330
1F
100
AcDbEntity
  8
0
  6
Continuous
 62
     7
370
    15
100
AcDbLine
 10
276.885033115
 20
42.0185112774
 30
0.0
 11
276.885033115
 21
42.7227370942
 31
0.0
  0
LINE
  5
182
330
1F
100
AcDbEntity
  8
0
  6
Continuous
 62
     7
370
    15
100
AcDbLine
 10
277.7215494188
 20
41.9048507852
 30
0.0
 11
277.7215494188
 21
42.852132595
 31
0.0
  0
ARC
  5
183
330
1F
100
AcDbEntity
  8
0
  6
Continuous
 62
     7
370
    15
100
AcDbCircle
 10
278.5887166326
 20
54.085577957
 30
0.0
 40
8.70001603358426
100
AcDbArc
 50
34.9500308657
 51
84.9613057264
  0
ARC
  5
184
330
1F
100
AcDbEntity
  8
0
  6
Continuous
 62
     7
370
    15
100
AcDbCircle
 10
262.2899685391
 20
25.853812894
 30
0.0
 40
8.683854637568691
100
AcDbArc
 50
214.7572456476
 51
264.8712342661
  0
LWPOLYLINE
  5
185
330
1F
100
AcDbEntity
  8
0
  6
Continuous
 62
     7
370
    15
100
AcDbPolyline
 90
        9
 70
   128
 43
0.0
 10
255.7264837245
 20
19.6068183254
 10
255.5601604613
 20
19.7054243362
 10
254.5692660734
 20
20.4118795279
 10
253.6748449677
 20
21.2656009608
 10
252.8832157194
 20
22.2605575795
 10
252.199970738
 20
23.3897205827
 10
251.6299367597
 20
24.6451130773
 10
251.1771407499
 20
26.0178664308
 10
250.8447814541
 20
27.4982829233
  0
SPLINE
  5
186
330
1F
100
AcDbEntity
  8
0
  6
Continuous
 62
     7
370
    15
100
AcDbSpline
210
0.0
220
0.0
230
1.0
 70
     8
 71
     3
 72
    32
 73
    28
 74
     0
 42
0.000000001
 43
0.00000001
 40
0.0
 40
0.0
 40
0.0
 40
0.0
 40
0.0193254758647258
 40
0.0385826927399014
 40
0.0577846348003733
 40
0.0769443985950771
 40
0.0960751672943215
 40
0.1151901840580798
 40
0.1343027247879751
 40
0.1534260705402312
 40
0.172573479885108
 40
0.1917581614995186
 40
0.2109932472740069
 40
0.2302917662029109
 40
0.2496666193081449
 40
0.3745846283005043
 40
0.4997410234224777
 40
0.4999962720873377
 40
0.6248627021449072
 40
0.7503411293897363
 40
0.7861451323127985
 40
0.8217618640028611
 40
0.8572756267732794
 40
0.8927714566788081
 40
0.9283345184945242
 40
0.9640494961196089
 40
1.0
 40
1.0
 40
1.0
 40
1.0
 10
250.844726178117
 20
34.95010768978295
 30
0.0
 10
250.8666693954046
 20
34.89001664606897
 30
0.0
 10
250.9104783249369
 20
34.77004680458796
 30
0.0
 10
250.9729175761589
 20
34.58929925048084
 30
0.0
 10
251.0328262036855
 20
34.40845585406542
 30
0.0
 10
251.0900127893191
 20
34.2274487385254
 30
0.0
 10
251.1445708605271
 20
34.04631933620435
 30
0.0
 10
251.1965186071178
 20
33.86508081887347
 30
0.0
 10
251.2458950865807
 20
33.68375486466357
 30
0.0
 10
251.2927344680283
 20
33.50236178792775
 30
0.0
 10
251.337073074374
 20
33.32092343252457
 30
0.0
 10
251.3789469175973
 20
33.13946154355068
 30
0.0
 10
251.4183945087858
 20
32.95800149109728
 30
0.0
 10
251.4554480281461
 20
32.77655904540398
 30
0.0
 10
251.5531401277803
 20
32.26620809366189
 30
0.0
 10
251.6706363266136
 20
31.43960656497365
 30
0.0
 10
251.7054877627342
 20
30.72428706968028
 30
0.0
 10
251.7058835869082
 20
30.04757510477932
 30
0.0
 10
251.6708322358619
 20
29.40588398068168
 30
0.0
 10
251.5458981556908
 20
28.78458304190135
 30
0.0
 10
251.4251719748179
 20
28.41195893991083
 30
0.0
 10
251.3508645622952
 20
28.22316223876831
 30
0.0
 10
251.2679510910632
 20
28.04897095580117
 30
0.0
 10
251.1762522900539
 20
27.8891547857358
 30
0.0
 10
251.0753502224319
 20
27.74395091312598
 30
0.0
 10
250.9657973256328
 20
27.61190395300881
 30
0.0
 10
250.8852690277318
 20
27.53620446807724
 30
0.0
 10
250.8448725519759
 20
27.4982303336738
 30
0.0
  0
LWPOLYLINE
  5
187
330
1F
100
AcDbEntity
  8
0
  6
Continuous
 62
     7
370
    15
100
AcDbPolyline
 90
       27
 70
   128
 43
0.0
 10
250.8447261779
 20
34.9501076899
 10
251.1770655178
 20
36.8142735523
 10
251.6298450763
 20
38.7098328658
 10
252.1998661448
 20
40.6233942539
 10
252.8831017499
 20
42.5414391624
 10
253.6747251025
 20
44.4504173626
 10
254.5691436967
 20
46.3368426789
 10
255.5600388189
 20
48.1873882625
 10
256.6404101871
 20
49.988980741
 10
257.802625405
 20
51.7288925763
 10
259.0384738818
 20
53.3948319795
 10
260.3392248369
 20
54.9750297477
 10
261.6956889795
 20
56.4583224089
 10
263.0982834268
 20
57.8342310872
 10
264.537099404
 20
59.093035532
 10
266.0019722455
 20
60.225842788
 10
267.482553204
 20
61.2246500199
 10
268.9683825608
 20
62.0824010499
 10
270.4489635194
 20
62.7930362061
 10
271.9138363608
 20
63.3515351325
 10
273.352652338
 20
63.7539522548
 10
274.7552467854
 20
63.9974446555
 10
276.1117109279
 20
64.0802921571
 10
277.412461883
 20
64.0019094746
 10
278.6483103598
 20
63.7628503507
 10
279.8105255777
 20
63.3648036436
 10
280.7244520404
 20
62.9092614444
  0
SPLINE
  5
188
330
1F
100
AcDbEntity
  8
0
  6
Continuous
 62
     7
370
    15
100
AcDbSpline
210
0.0
220
0.0
230
1.0
 70
     8
 71
     3
 72
     8
 73
     4
 74
     0
 42
0.000000001
 43
0.00000001
 40
0.0
 40
0.0
 40
0.0
 40
0.0
 40
1.0
 40
1.0
 40
1.0
 40
1.0
 10
249.8827328990608
 20
40.38544540770935
 30
0.0
 10
248.7131064791229
 20
40.18988923446662
 30
0.0
 10
247.542503236263
 20
39.9963042677467
 30
0.0
 10
246.3712717546102
 20
39.80402481850044
 30
0.0
  0
SPLINE
  5
189
330
1F
100
AcDbEntity
  8
0
  6
Continuous
 62
     7
370
    15
100
AcDbSpline
210
0.0
220
0.0
230
1.0
 70
     8
 71
     3
 72
     8
 73
     4
 74
     0
 42
0.000000001
 43
0.00000001
 40
0.0
 40
0.0
 40
0.0
 40
0.0
 40
0.0012417047560385
 40
0.0012417047560385
 40
0.0012417047560385
 40
0.0012417047560385
 10
245.8967711509605
 20
40.07800023938029
 30
0.0
 10
246.0550422914209
 20
39.98661491462235
 30
0.0
 10
246.2132115971002
 20
39.89528836721875
 30
0.0
 10
246.3712717546102
 20
39.80402481850044
 30
0.0
  0
LWPOLYLINE
  5
18A
330
1F
100
AcDbEntity
  8
0
  6
Continuous
 62
     7
370
    15
100
AcDbPolyline
 90
       29
 70
   128
 43
0.0
 10
245.896771151
 20
40.0780002394
 10
246.3582182404
 20
41.9634602004
 10
246.9350268101
 20
43.8654182366
 10
247.62317532
 20
45.7706137956
 10
248.4178659621
 20
47.6657637529
 10
249.3135581113
 20
49.5376550224
 10
250.3040069542
 20
51.3732366789
 10
251.382307029
 20
53.1597109497
 10
252.5409403704
 20
54.8846224413
 10
253.7718289252
 20
56.5359449793
 10
255.066390873
 20
58.1021654554
 10
256.4156004594
 20
59.5723640973
 10
257.8100509235
 20
60.936290602
 10
259.2400200827
 20
62.1844356017
 10
260.695538116
 20
63.308096963
 10
262.1664570746
 20
64.2994404594
 10
263.6425216334
 20
65.1515543914
 10
265.113440592
 20
65.8584977755
 10
266.5689586253
 20
66.4153417649
 10
267.9989277844
 20
66.8182040138
 10
269.3933782485
 20
67.0642757451
 10
270.7425878349
 20
67.1518413338
 10
272.0371497828
 20
67.0802902678
 10
273.2680383376
 20
66.850121405
 10
274.426671679
 20
66.4629394949
 10
275.5049717538
 20
65.9214439904
 10
276.4954205967
 20
65.2294102268
 10
277.3911127458
 20
64.3916631003
 10
277.7776237983
 20
63.9491218036
  0
LINE
  5
18B
330
1F
100
AcDbEntity
  8
0
  6
Continuous
 62
     7
370
    15
100
AcDbLine
 10
241.7690353158
 20
42.4608914158
 30
0.0
 11
245.896771151
 21
40.0780002394
 31
0.0
  0
ARC
  5
18C
330
1F
100
AcDbEntity
  8
0
  6
Continuous
 62
     7
370
    15
100
AcDbCircle
 10
266.8863126039
 20
60.6329823135
 30
0.0
 40
8.890104464644299
100
AcDbArc
 50
60.4131167179
 51
84.5649193581
  0
SPLINE
  5
18D
330
1F
100
AcDbEntity
  8
0
  6
Continuous
 62
     7
370
    15
100
AcDbSpline
210
0.0
220
0.0
230
1.0
 70
     8
 71
     3
 72
    12
 73
     8
 74
     0
 42
0.000000001
 43
0.00000001
 40
0.0
 40
0.0
 40
0.0
 40
0.0
 40
0.1973931352867799
 40
0.4331585065420842
 40
0.6706691114439182
 40
0.8350329453436219
 40
1.0
 40
1.0
 40
1.0
 40
1.0
 10
251.7310178036387
 20
39.01105503264608
 30
0.0
 10
251.6442565961478
 20
39.11648944084838
 30
0.0
 10
251.4538682373634
 20
39.34785417766513
 30
0.0
 10
251.1374913737522
 20
39.66815097501916
 30
0.0
 10
250.8235015026875
 20
39.94266897337022
 30
0.0
 10
250.5347753237412
 20
40.16155557382083
 30
0.0
 10
250.3620567446767
 20
40.27231686629793
 30
0.0
 10
250.2755392746706
 20
40.32779895080568
 30
0.0
  0
SPLINE
  5
18E
330
1F
100
AcDbEntity
  8
0
  6
Continuous
 62
     7
370
    15
100
AcDbSpline
210
0.0
220
0.0
230
1.0
 70
     8
 71
     3
 72
    10
 73
     6
 74
     0
 42
0.000000001
 43
0.00000001
 40
0.0
 40
0.0
 40
0.0
 40
0.0
 40
0.5
 40
0.5
 40
1.0
 40
1.0
 40
1.0
 40
1.0
 10
250.1396099274385
 20
40.380328932615
 30
0.0
 10
250.0990346190436
 20
40.38915345394196
 30
0.0
 10
250.0554602759898
 20
40.39410652985064
 30
0.0
 10
249.9676575490031
 20
40.39569171511676
 30
0.0
 10
249.9246894320812
 20
40.39246034760823
 30
0.0
 10
249.8827328990608
 20
40.38544540770935
 30
0.0
  0
SPLINE
  5
18F
330
1F
100
AcDbEntity
  8
0
  6
Continuous
 62
     7
370
    15
100
AcDbSpline
210
0.0
220
0.0
230
1.0
 70
     8
 71
     3
 72
     8
 73
     4
 74
     0
 42
0.000000001
 43
0.00000001
 40
0.0
 40
0.0
 40
0.0
 40
0.0
 40
1.0
 40
1.0
 40
1.0
 40
1.0
 10
250.2755392746706
 20
40.32779895080567
 30
0.0
 10
250.2370573328345
 20
40.35146976060154
 30
0.0
 10
250.1909496810875
 20
40.36916330581099
 30
0.0
 10
250.1396099274385
 20
40.38032893261505
 30
0.0
  0
SPLINE
  5
190
330
1F
100
AcDbEntity
  8
0
  6
Continuous
 62
     7
370
    15
100
AcDbSpline
210
0.0
220
0.0
230
1.0
 70
     8
 71
     3
 72
    10
 73
     6
 74
     0
 42
0.000000001
 43
0.00000001
 40
0.0
 40
0.0
 40
0.0
 40
0.0
 40
0.5
 40
0.5
 40
1.0
 40
1.0
 40
1.0
 40
1.0
 10
241.6123383959732
 20
42.55133929894342
 30
0.0
 10
241.6233889943233
 20
42.54496346439928
 30
0.0
 10
241.6420089402627
 20
42.53421722289389
 30
0.0
 10
241.6953088903233
 20
42.50345175005393
 30
0.0
 10
241.7288896630446
 20
42.48406700778298
 30
0.0
 10
241.7690353157841
 20
42.46089141576283
 30
0.0
  0
LINE
  5
191
330
1F
100
AcDbEntity
  8
0
  6
Continuous
 62
     7
370
    15
100
AcDbLine
 10
241.612338396
 20
42.5513392989
 30
0.0
 11
241.636387004
 21
42.7013585537
 31
0.0
  0
LWPOLYLINE
  5
192
330
1F
100
AcDbEntity
  8
0
  6
Continuous
 62
     7
370
    15
100
AcDbPolyline
 90
       43
 70
   128
 43
0.0
 10
280.343510345
 20
40.67228825
 10
279.5162082878
 20
40.1231042614
 10
278.7073867915
 20
39.4430027818
 10
277.9351135917
 20
38.6471761547
 10
277.2166399957
 20
37.7534018316
 10
276.5680155162
 20
36.7816452541
 10
276.0037293525
 20
35.7536138583
 10
275.5363867248
 20
34.692272167
 10
275.1764272953
 20
33.6213287995
 10
274.9318919627
 20
32.5647068611
 10
274.8082432424
 20
31.5460095399
 10
274.8082432424
 20
30.5879928507
 10
274.9318919627
 20
29.7120573032
 10
275.1764272953
 20
28.9377698501
 10
275.5363867248
 20
28.2824267937
 10
276.0037293525
 20
27.7606674149
 10
276.5680155162
 20
27.384146956
 10
277.2166399957
 20
27.161276262
 10
277.9351135917
 20
27.0970338958
 10
278.7073867915
 20
27.1928549258
 10
279.5162082878
 20
27.4465988685
 10
280.343510345
 20
27.8525975034
 10
281.1708124022
 20
28.4017814921
 10
281.9796338985
 20
29.0818829716
 10
282.7519070983
 20
29.8777095988
 10
283.4703806943
 20
30.7714839219
 10
284.1190051738
 20
31.7432404994
 10
284.6832913375
 20
32.7712718951
 10
285.1506339652
 20
33.8326135865
 10
285.5105933947
 20
34.903556954
 10
285.7551287273
 20
35.9601788923
 10
285.8787774476
 20
36.9788762136
 10
285.8787774476
 20
37.9368929028
 10
285.7551287273
 20
38.8128284503
 10
285.5105933947
 20
39.5871159034
 10
285.1506339652
 20
40.2424589598
 10
284.6832913375
 20
40.7642183386
 10
284.1190051738
 20
41.1407387975
 10
283.4703806943
 20
41.3636094915
 10
282.7519070983
 20
41.4278518576
 10
281.9796338985
 20
41.3320308277
 10
281.1708124022
 20
41.078286885
 10
280.343510345
 20
40.67228825
  0
LWPOLYLINE
  5
193
330
1F
100
AcDbEntity
  8
0
  6
Continuous
 62
     7
370
    15
100
AcDbPolyline
 90
       23
 70
   128
 43
0.0
 10
280.2374443278
 20
40.8559999802
 10
279.394333951
 20
40.29632203
 10
278.5700572669
 20
39.6032249808
 10
277.7830272544
 20
38.7921914754
 10
277.0508248635
 20
37.881338662
 10
276.3898062858
 20
36.8910134875
 10
275.8147375838
 20
35.8433381798
 10
275.3384648423
 20
34.7617160739
 10
274.9716272071
 20
33.6703088204
 10
274.7224192248
 20
32.5934966539
 10
274.5964077901
 20
31.5553337788
 10
274.5964077901
 20
30.5790110382
 10
274.7224192248
 20
29.6863378687
 10
274.9716272071
 20
28.897255114
 10
275.3384648423
 20
28.2293895788
 10
275.8147375838
 20
27.6976602756
 10
276.3898062858
 20
27.3139451583
 10
277.0508248635
 20
27.0868157886
 10
277.7830272544
 20
27.0213458613
 10
278.5700572669
 20
27.1189978663
 10
279.394333951
 20
27.3775904194
 10
280.2374443278
 20
27.79134699
 10
280.2383637257
 20
27.7918778334
  0
LWPOLYLINE
  5
194
330
1F
100
AcDbEntity
  8
0
  6
Continuous
 62
     7
370
    15
100
AcDbPolyline
 90
       12
 70
   128
 43
0.0
 10
285.8942985773
 20
37.5893059324
 10
285.8784808655
 20
38.0683359321
 10
285.7524694308
 20
38.9610091015
 10
285.5032614486
 20
39.7500918562
 10
285.1364238134
 20
40.4179573914
 10
284.6601510718
 20
40.9496866947
 10
284.0850823699
 20
41.333401812
 10
283.4240637921
 20
41.5605311817
 10
282.6918614012
 20
41.626001109
 10
281.9048313887
 20
41.5283491039
 10
281.0805547046
 20
41.2697565509
 10
280.2374443278
 20
40.8559999802
  0
SPLINE
  5
195
330
1F
100
AcDbEntity
  8
0
  6
Continuous
 62
     7
370
    15
100
AcDbSpline
210
0.0
220
0.0
230
1.0
 70
    11
 71
     3
 72
    66
 73
    62
 74
     0
 42
0.000000001
 43
0.00000001
 40
0.0
 40
0.0
 40
0.0
 40
0.0
 40
0.0312500000000002
 40
0.0312500000000002
 40
0.0625000000000004
 40
0.0625000000000004
 40
0.0937500000000006
 40
0.0937500000000006
 40
0.1250000000000008
 40
0.1250000000000008
 40
0.156250000000001
 40
0.156250000000001
 40
0.1875000000000012
 40
0.1875000000000012
 40
0.2187500000000014
 40
0.2187500000000014
 40
0.2500000000000016
 40
0.2500000000000016
 40
0.2812500000000018
 40
0.2812500000000018
 40
0.3125000000000019
 40
0.3125000000000019
 40
0.3437500000000021
 40
0.3437500000000021
 40
0.3750000000000023
 40
0.3750000000000023
 40
0.4062500000000026
 40
0.4062500000000026
 40
0.4375000000000027
 40
0.4375000000000027
 40
0.4687500000000029
 40
0.4687500000000029
 40
0.5000000000000031
 40
0.5000000000000031
 40
0.5312500000000033
 40
0.5312500000000033
 40
0.5625000000000036
 40
0.5625000000000036
 40
0.625000000000003
 40
0.625000000000003
 40
0.6562500000000028
 40
0.6562500000000028
 40
0.6875000000000024
 40
0.6875000000000024
 40
0.7187500000000022
 40
0.7187500000000022
 40
0.750000000000002
 40
0.750000000000002
 40
0.7812500000000018
 40
0.7812500000000018
 40
0.8125000000000014
 40
0.8125000000000014
 40
0.8437500000000012
 40
0.8437500000000012
 40
0.875000000000001
 40
0.875000000000001
 40
0.9062500000000008
 40
0.9062500000000008
 40
0.9375000000000004
 40
0.9375000000000004
 40
1.0
 40
1.0
 40
1.0
 40
1.0
 10
277.4940317910753
 20
43.3824604291481
 30
0.0
 10
277.6109766489292
 20
43.36611556100829
 30
0.0
 10
277.724955943187
 20
43.34386928773085
 30
0.0
 10
277.9476032688182
 20
43.28956530182534
 30
0.0
 10
278.0570178693878
 20
43.25722527013433
 30
0.0
 10
278.2669958954162
 20
43.18451545739524
 30
0.0
 10
278.3662877810286
 20
43.14467646240146
 30
0.0
 10
278.5539607067053
 20
43.05881072235825
 30
0.0
 10
278.643098838356
 20
43.01229498240054
 30
0.0
 10
278.8053265552367
 20
42.91560936741697
 30
0.0
 10
278.8784959367071
 20
42.86555259170411
 30
0.0
 10
279.0090532829253
 20
42.76179398499087
 30
0.0
 10
279.0668534036603
 20
42.70753062041012
 30
0.0
 10
279.1621189014733
 20
42.5981419212306
 30
0.0
 10
279.1999971875861
 20
42.54288089407633
 30
0.0
 10
279.2557286647875
 20
42.43026608972369
 30
0.0
 10
279.273521433931
 20
42.37232010370118
 30
0.0
 10
279.286086578968
 20
42.25769414339102
 30
0.0
 10
279.2812732325513
 20
42.20064294379737
 30
0.0
 10
279.2479703011467
 20
42.08592093586075
 30
0.0
 10
279.2189053840232
 20
42.02787231862268
 30
0.0
 10
279.1379476820772
 20
41.91614189439407
 30
0.0
 10
279.0860260093749
 20
41.8617312749734
 30
0.0
 10
278.9573354215691
 20
41.75537134854969
 30
0.0
 10
278.8817643719051
 20
41.70464991994622
 30
0.0
 10
278.7130252273294
 20
41.61090445190436
 30
0.0
 10
278.6178104061788
 20
41.56688116326753
 30
0.0
 10
278.4159090785666
 20
41.48945445972036
 30
0.0
 10
278.3093453364497
 20
41.45583654571627
 30
0.0
 10
278.0853125192266
 20
41.39916105941609
 30
0.0
 10
277.9704093026505
 20
41.37682614797878
 30
0.0
 10
277.7387441398477
 20
41.34474352037276
 30
0.0
 10
277.6203095711377
 20
41.33489138684811
 30
0.0
 10
277.3883074619355
 20
41.32875963036943
 30
0.0
 10
277.274150511726
 20
41.33227968984977
 30
0.0
 10
277.0492718309187
 20
41.35302182918244
 30
0.0
 10
276.939454135893
 20
41.37030328334664
 30
0.0
 10
276.6266004573428
 20
41.44155874015751
 30
0.0
 10
276.4338462345504
 20
41.51693654779958
 30
0.0
 10
276.1914669880706
 20
41.66348527265866
 30
0.0
 10
276.1174710070799
 20
41.71823557308959
 30
0.0
 10
275.9853610782416
 20
41.83855991567814
 30
0.0
 10
275.9286479262578
 20
41.90276040093759
 30
0.0
 10
275.8335612490717
 20
42.03853573386497
 30
0.0
 10
275.7949884163406
 20
42.11063311486715
 30
0.0
 10
275.738767616974
 20
42.25968838927215
 30
0.0
 10
275.7214445386281
 20
42.33534561192511
 30
0.0
 10
275.7087281756167
 20
42.48797979337034
 30
0.0
 10
275.7135431417692
 20
42.56584527979697
 30
0.0
 10
275.7472127576966
 20
42.71756726859308
 30
0.0
 10
275.775607426378
 20
42.7907242770432
 30
0.0
 10
275.856522132434
 20
42.93049178778617
 30
0.0
 10
275.9100744255219
 20
42.99783781544342
 30
0.0
 10
276.0380500180758
 20
43.11793908733571
 30
0.0
 10
276.1125064556957
 20
43.17140951151089
 30
0.0
 10
276.2832466317117
 20
43.2644345115689
 30
0.0
 10
276.3778009551161
 20
43.30280739644539
 30
0.0
 10
276.5792407340662
 20
43.36222400636029
 30
0.0
 10
276.6882096145204
 20
43.38372403803434
 30
0.0
 10
277.0222747617835
 20
43.42246839805958
 30
0.0
 10
277.2601420753678
 20
43.41515016542773
 30
0.0
 10
277.4940317910754
 20
43.3824604291481
 30
0.0
  0
LINE
  5
196
330
1F
100
AcDbEntity
  8
0
  6
Continuous
 62
     7
370
    15
100
AcDbLine
 10
283.3872737306
 20
34.1949148715
 30
0.0
 11
284.5861510321
 21
35.686306837
 31
0.0
  0
SPLINE
  5
197
330
1F
100
AcDbEntity
  8
0
  6
Continuous
 62
     7
370
    15
100
AcDbSpline
210
0.0
220
0.0
230
1.0
 70
     8
 71
     3
 72
    22
 73
    18
 74
     0
 42
0.000000001
 43
0.00000001
 40
0.0
 40
0.0
 40
0.0
 40
0.0
 40
0.0416666666666668
 40
0.0833333333333334
 40
0.1250000000000031
 40
0.166666666666668
 40
0.2083333333333337
 40
0.2499999999998967
 40
0.2968749999997768
 40
0.34375
 40
0.390625
 40
0.4374999999999996
 40
0.4847037825276517
 40
0.4847037825276517
 40
0.53125
 40
0.6249999999999851
 40
0.8414337678076685
 40
0.8414337678076685
 40
0.8414337678076685
 40
0.8414337678076685
 10
284.5861510321141
 20
35.68630683703987
 30
0.0
 10
284.6316303599273
 20
35.74288268847569
 30
0.0
 10
284.7209007698692
 20
35.86480329706902
 30
0.0
 10
284.8453934793862
 20
36.07171096941062
 30
0.0
 10
284.9550351274417
 20
36.30068334159579
 30
0.0
 10
285.042040723217
 20
36.5440877107303
 30
0.0
 10
285.0987163298706
 20
36.79105657580457
 30
0.0
 10
285.1199857738484
 20
37.0391029113238
 30
0.0
 10
285.0967522412506
 20
37.27146576435328
 30
0.0
 10
285.0236671174989
 20
37.46959641166877
 30
0.0
 10
284.9088005551092
 20
37.61493429821323
 30
0.0
 10
284.7594969548711
 20
37.70557392890569
 30
0.0
 10
284.6485735752643
 20
37.7313775290876
 30
0.0
 10
284.5380917917317
 20
37.74178701053228
 30
0.0
 10
284.3898581222931
 20
37.75414674455653
 30
0.0
 10
284.1087627272345
 20
37.78004150162801
 30
0.0
 10
283.6917645572267
 20
37.81725938492587
 30
0.0
 10
283.38716778325
 20
37.84439977349397
 30
0.0
  0
SPLINE
  5
198
330
1F
100
AcDbEntity
  8
0
  6
Continuous
 62
     7
370
    15
100
AcDbSpline
210
0.0
220
0.0
230
1.0
 70
     8
 71
     3
 72
    22
 73
    18
 74
     0
 42
0.000000001
 43
0.00000001
 40
0.0
 40
0.0
 40
0.0
 40
0.0
 40
0.0416666666666668
 40
0.0833333333333334
 40
0.1250000000000031
 40
0.166666666666668
 40
0.2083333333333337
 40
0.2499999999998967
 40
0.2968749999997768
 40
0.34375
 40
0.390625
 40
0.4374999999999996
 40
0.4847037825276517
 40
0.4847037825276517
 40
0.53125
 40
0.6249999999999851
 40
0.83931730958649
 40
0.83931730958649
 40
0.83931730958649
 40
0.83931730958649
 10
276.1008696578756
 20
30.78785816610367
 30
0.0
 10
276.0561970010349
 20
30.79185257479781
 30
0.0
 10
275.9657455430096
 20
30.81080936565628
 30
0.0
 10
275.8417275240328
 20
30.87393836974161
 30
0.0
 10
275.731958685942
 20
30.97633256551976
 30
0.0
 10
275.6449871597673
 20
31.11927935375223
 30
0.0
 10
275.5883024647466
 20
31.30081281334875
 30
0.0
 10
275.5670353997976
 20
31.52430158593696
 30
0.0
 10
275.5902687235407
 20
31.78349004769002
 30
0.0
 10
275.6633519815956
 20
32.06600038294351
 30
0.0
 10
275.7782262236598
 20
32.34397000720933
 30
0.0
 10
275.9275009034382
 20
32.60695591042617
 30
0.0
 10
276.0384966769353
 20
32.76091897510886
 30
0.0
 10
276.1490071976687
 20
32.89892375865164
 30
0.0
 10
276.2972198236305
 20
33.08240427143067
 30
0.0
 10
276.5751169416953
 20
33.42886172063901
 30
0.0
 10
276.9970603654887
 20
33.95369269904803
 30
0.0
 10
277.2998546896203
 20
34.33027269013709
 30
0.0
  0
LINE
  5
199
330
1F
100
AcDbEntity
  8
0
  6
Continuous
 62
     7
370
    15
100
AcDbLine
 10
277.2997469594
 20
30.6806604695
 30
0.0
 11
276.1008696579
 21
30.7878581661
 31
0.0
  0
SPLINE
  5
19A
330
1F
100
AcDbEntity
  8
0
  6
Continuous
 62
     7
370
    15
100
AcDbSpline
210
0.0
220
0.0
230
1.0
 70
     8
 71
     3
 72
     9
 73
     5
 74
     0
 42
0.000000001
 43
0.00000001
 40
0.0
 40
0.0
 40
0.0
 40
0.0
 40
0.5377956222894344
 40
1.0
 40
1.0
 40
1.0
 40
1.0
 10
250.2755392746706
 20
29.83844288786257
 30
0.0
 10
250.5156054481181
 20
29.71167684032108
 30
0.0
 10
250.9619946775905
 20
29.47596267254516
 30
0.0
 10
251.3536008350335
 20
29.36031803353091
 30
0.0
 10
251.5346029153421
 20
29.30686657511977
 30
0.0
  0
SPLINE
  5
19B
330
1F
100
AcDbEntity
  8
0
  6
Continuous
 62
     7
370
    15
100
AcDbSpline
210
0.0
220
0.0
230
1.0
 70
     8
 71
     3
 72
     8
 73
     4
 74
     0
 42
0.000000001
 43
0.00000001
 40
0.0
 40
0.0
 40
0.0
 40
0.0
 40
1.0
 40
1.0
 40
1.0
 40
1.0
 10
250.1396099274391
 20
29.88777949988299
 30
0.0
 10
250.1909383094362
 20
29.8766163462427
 30
0.0
 10
250.2370588735404
 20
29.859902341941
 30
0.0
 10
250.2755392746707
 20
29.8384428878626
 30
0.0
  0
SPLINE
  5
19C
330
1F
100
AcDbEntity
  8
0
  6
Continuous
 62
     7
370
    15
100
AcDbSpline
210
0.0
220
0.0
230
1.0
 70
     8
 71
     3
 72
    12
 73
     8
 74
     0
 42
0.000000001
 43
0.00000001
 40
0.0
 40
0.0
 40
0.0
 40
0.0
 40
0.1882382096048472
 40
0.3552093049360487
 40
0.5009554525919104
 40
0.7563158857666276
 40
0.9999999999999999
 40
0.9999999999999999
 40
0.9999999999999999
 40
0.9999999999999999
 10
250.9555264437709
 20
28.22220449058126
 30
0.0
 10
251.0445699742408
 20
28.31648614225814
 30
0.0
 10
251.21259691539
 20
28.49439752396257
 30
0.0
 10
251.3925063028781
 20
28.84171457982393
 30
0.0
 10
251.5540301545765
 20
29.30236837110709
 30
0.0
 10
251.679784684216
 20
29.92390110089739
 30
0.0
 10
251.6970873081879
 20
30.50720720682096
 30
0.0
 10
251.7055362024166
 20
30.79203635180844
 30
0.0
  0
SPLINE
  5
19D
330
1F
100
AcDbEntity
  8
0
  6
Continuous
 62
     7
370
    15
100
AcDbSpline
210
0.0
220
0.0
230
1.0
 70
     8
 71
     3
 72
     9
 73
     5
 74
     0
 42
0.000000001
 43
0.00000001
 40
0.0
 40
0.0
 40
0.0
 40
0.0
 40
0.5048005003628353
 40
1.0
 40
1.0
 40
1.0
 40
1.0
 10
250.84479203174
 20
27.49817997032016
 30
0.0
 10
250.8633369300737
 20
27.61989384636476
 30
0.0
 10
250.900074013972
 20
27.86100667402065
 30
0.0
 10
250.9371711253278
 20
28.10251290726781
 30
0.0
 10
250.9555415963092
 20
28.22210667313107
 30
0.0
  0
SPLINE
  5
19E
330
1F
100
AcDbEntity
  8
0
  6
Continuous
 62
     7
370
    15
100
AcDbSpline
210
0.0
220
0.0
230
1.0
 70
     8
 71
     3
 72
    11
 73
     7
 74
     0
 42
0.000000001
 43
0.00000001
 40
0.0
 40
0.0
 40
0.0
 40
0.0
 40
0.3180903421596452
 40
0.6361848529845475
 40
0.9543275201546685
 40
1.0
 40
1.0
 40
1.0
 40
1.0
 10
276.0301589797569
 20
31.05174840014094
 30
0.0
 10
275.9483892336514
 20
31.07185071124447
 30
0.0
 10
275.7848486698245
 20
31.1120555968981
 30
0.0
 10
275.6339436620456
 20
31.33544726532345
 30
0.0
 10
275.5621522056097
 20
31.54708749645513
 30
0.0
 10
275.578953619411
 20
31.68656325002615
 30
0.0
 10
275.5810628285507
 20
31.70407270117502
 30
0.0
  0
SPLINE
  5
19F
330
1F
100
AcDbEntity
  8
0
  6
Continuous
 62
     7
370
    15
100
AcDbSpline
210
0.0
220
0.0
230
1.0
 70
     8
 71
     3
 72
    16
 73
    12
 74
     0
 42
0.000000001
 43
0.00000001
 40
0.0
 40
0.0
 40
0.0
 40
0.0
 40
0.0271330291021182
 40
0.108950203659971
 40
0.193118451963328
 40
0.3231286384850161
 40
0.4564811489559379
 40
0.5902142042324191
 40
0.7250434286495977
 40
0.8622643519159339
 40
0.9999999999999999
 40
0.9999999999999999
 40
0.9999999999999999
 40
0.9999999999999999
 10
277.4517070097541
 20
34.5432462055665
 30
0.0
 10
277.4514182049177
 20
34.5422893083373
 30
0.0
 10
277.4502585354382
 20
34.53844697478846
 30
0.0
 10
277.4450636459239
 20
34.52841680130334
 30
0.0
 10
277.4349545256122
 20
34.5111163774973
 30
0.0
 10
277.4193992607146
 20
34.48752917119494
 30
0.0
 10
277.3988382384111
 20
34.45847234997019
 30
0.0
 10
277.3760865071795
 20
34.42773530412803
 30
0.0
 10
277.351798631511
 20
34.39594294448517
 30
0.0
 10
277.3263499878384
 20
34.36337947545569
 30
0.0
 10
277.3086974709943
 20
34.34132204924076
 30
0.0
 10
277.2998546896202
 20
34.33027269013704
 30
0.0
  0
SPLINE
  5
1A0
330
1F
100
AcDbEntity
  8
0
  6
Continuous
 62
     7
370
    15
100
AcDbSpline
210
0.0
220
0.0
230
1.0
 70
     8
 71
     3
 72
    16
 73
    12
 74
     0
 42
0.000000001
 43
0.00000001
 40
0.0
 40
0.0
 40
0.0
 40
0.0
 40
0.2499999999999872
 40
0.2499999999999872
 40
0.4999999999999745
 40
0.4999999999999745
 40
0.6249999999999738
 40
0.6249999999999738
 40
0.7499999999999732
 40
0.7499999999999732
 40
1.0
 40
1.0
 40
1.0
 40
1.0
 10
283.3871677832512
 20
37.84439977349387
 30
0.0
 10
283.3611724836452
 20
37.84671602432949
 30
0.0
 10
283.3331849632421
 20
37.84794767310935
 30
0.0
 10
283.2705331999065
 20
37.84677839963191
 30
0.0
 10
283.235498664881
 20
37.84446583536434
 30
0.0
 10
283.176707905638
 20
37.83479846910443
 30
0.0
 10
283.155709900797
 20
37.83039654189976
 30
0.0
 10
283.1142012039281
 20
37.81878634560263
 30
0.0
 10
283.0943988624231
 20
37.81170862759263
 30
0.0
 10
283.0434886504651
 20
37.78917675783511
 30
0.0
 10
283.0213272124885
 20
37.77338144176715
 30
0.0
 10
283.0051330261261
 20
37.75881800931836
 30
0.0
  0
SPLINE
  5
1A1
330
1F
100
AcDbEntity
  8
0
  6
Continuous
 62
     7
370
    15
100
AcDbSpline
210
0.0
220
0.0
230
1.0
 70
     8
 71
     3
 72
    10
 73
     6
 74
     0
 42
0.000000001
 43
0.00000001
 40
0.0
 40
0.0
 40
0.0
 40
0.0
 40
0.5
 40
0.5
 40
1.0
 40
1.0
 40
1.0
 40
1.0
 10
283.0051330261321
 20
37.75881800931571
 30
0.0
 10
282.9789402685041
 20
37.7682659051874
 30
0.0
 10
282.9528080798625
 20
37.77843998065897
 30
0.0
 10
282.9021985909599
 20
37.80050269660224
 30
0.0
 10
282.8784345046787
 20
37.81214228091947
 30
0.0
 10
282.8584473344418
 20
37.82368062869656
 30
0.0
  0
LINE
  5
1A2
330
1F
100
AcDbEntity
  8
0
  6
Continuous
 62
     7
370
    15
100
AcDbLine
 10
282.4252445382
 20
38.2533392726
 30
0.0
 11
282.34584012
 21
38.302534177
 31
0.0
  0
LINE
  5
1A3
330
1F
100
AcDbEntity
  8
0
  6
Continuous
 62
     7
370
    15
100
AcDbLine
 10
281.7509996331
 20
38.4629965784
 30
0.0
 11
282.8584473344
 21
37.8236806287
 31
0.0
  0
ARC
  5
1A4
330
1F
100
AcDbEntity
  8
0
  6
Continuous
 62
     7
370
    15
100
AcDbCircle
 10
274.7461758425
 20
37.9754262919
 30
0.0
 40
5.62975570605005
100
AcDbArc
 50
337.8190910543
 51
1.3599475576
  0
LINE
  5
1A5
330
1F
100
AcDbEntity
  8
0
  6
Continuous
 62
     7
370
    15
100
AcDbLine
 10
279.9593095316
 20
35.8500118736
 30
0.0
 11
282.8584473344
 21
34.1763752444
 31
0.0
  0
LINE
  5
1A6
330
1F
100
AcDbEntity
  8
0
  6
Continuous
 62
     7
370
    15
100
AcDbLine
 10
277.7670304196
 20
30.5571374186
 30
0.0
 11
277.8462058231
 21
30.5080944156
 31
0.0
  0
LINE
  5
1A7
330
1F
100
AcDbEntity
  8
0
  6
Continuous
 62
     7
370
    15
100
AcDbLine
 10
275.6514895525
 20
31.9580088524
 30
0.0
 11
277.3335986087
 21
30.9869479639
 31
0.0
  0
LINE
  5
1A8
330
1F
100
AcDbEntity
  8
0
  6
Continuous
 62
     7
370
    15
100
AcDbLine
 10
242.0464054961
 20
42.300716966
 30
0.0
 11
241.612338396
 21
42.5513392989
 31
0.0
  0
LINE
  5
1A9
330
1F
100
AcDbEntity
  8
0
  6
Continuous
 62
     7
370
    15
100
AcDbLine
 10
246.3712717546
 20
39.8040248185
 30
0.0
 11
242.0464054961
 21
42.300716966
 31
0.0
  0
SPLINE
  5
1AA
330
1F
100
AcDbEntity
  8
0
  6
Continuous
 62
     7
370
    15
100
AcDbSpline
210
0.0
220
0.0
230
1.0
 70
     8
 71
     3
 72
    11
 73
     7
 74
     0
 42
0.000000001
 43
0.00000001
 40
0.0
 40
0.0
 40
0.0
 40
0.0
 40
0.0763291486414734
 40
0.4828240100966647
 40
0.8892344489868842
 40
0.9999999999999999
 40
0.9999999999999999
 40
0.9999999999999999
 40
0.9999999999999999
 10
245.9427654402693
 20
36.98798562027353
 30
0.0
 10
245.9423300609393
 20
37.06622475929353
 30
0.0
 10
245.9395760462834
 20
37.56113051313062
 30
0.0
 10
245.8948803890695
 20
38.49411655562795
 30
0.0
 10
245.8568052745078
 20
39.45960036390716
 30
0.0
 10
245.8688232936439
 20
39.98093912634212
 30
0.0
 10
245.8713972385634
 20
40.09259623419897
 30
0.0
  0
LINE
  5
1AB
330
1F
100
AcDbEntity
  8
0
  6
Continuous
 62
     7
370
    15
100
AcDbLine
 10
245.9427654403
 20
35.2121849912
 30
0.0
 11
245.9427654403
 21
36.9879856203
 31
0.0
  0
LINE
  5
1AC
330
1F
100
AcDbEntity
  8
0
  6
Continuous
 62
     7
370
    15
100
AcDbLine
 10
277.3990449514
 20
30.9293493665
 30
0.0
 11
276.0301589798
 21
31.0517484001
 31
0.0
  0
SPLINE
  5
1AD
330
1F
100
AcDbEntity
  8
0
  6
Continuous
 62
     7
370
    15
100
AcDbSpline
210
0.0
220
0.0
230
1.0
 70
     8
 71
     3
 72
    16
 73
    12
 74
     0
 42
0.000000001
 43
0.00000001
 40
0.0
 40
0.0
 40
0.0
 40
0.0
 40
0.2499999999999998
 40
0.2499999999999998
 40
0.4999999999999997
 40
0.4999999999999997
 40
0.6249999999999996
 40
0.6249999999999996
 40
0.7499999999999996
 40
0.7499999999999996
 40
1.0
 40
1.0
 40
1.0
 40
1.0
 10
277.2997469593882
 20
30.68066046945785
 30
0.0
 10
277.3253044447508
 20
30.6783752451405
 30
0.0
 10
277.3503039819369
 20
30.67872982707117
 30
0.0
 10
277.3977024005147
 20
30.68918413975626
 30
0.0
 10
277.4199544155937
 20
30.6989579944973
 30
0.0
 10
277.4435538594417
 20
30.72927038978602
 30
0.0
 10
277.4496265110942
 20
30.74227580442165
 30
0.0
 10
277.4547933612843
 20
30.77466309714223
 30
0.0
 10
277.4536390728374
 20
30.79387293289092
 30
0.0
 10
277.4404194771984
 20
30.85328286322876
 30
0.0
 10
277.4207092918871
 20
30.8929459052579
 30
0.0
 10
277.3990449513628
 20
30.9293493665273
 30
0.0
  0
SPLINE
  5
1AE
330
1F
100
AcDbEntity
  8
0
  6
Continuous
 62
     7
370
    15
100
AcDbSpline
210
0.0
220
0.0
230
1.0
 70
     8
 71
     3
 72
     8
 73
     4
 74
     0
 42
0.000000001
 43
0.00000001
 40
0.0
 40
0.0
 40
0.0
 40
0.0
 40
1.0
 40
1.0
 40
1.0
 40
1.0
 10
277.3335986087169
 20
30.98694796391229
 30
0.0
 10
277.3736329084259
 20
30.9638366546283
 30
0.0
 10
277.393196349117
 20
30.94402137025711
 30
0.0
 10
277.3990449513624
 20
30.92934936652853
 30
0.0
  0
LINE
  5
1AF
330
1F
100
AcDbEntity
  8
0
  6
Continuous
 62
     7
370
    15
100
AcDbLine
 10
245.01468779
 20
40.4008113675
 30
0.0
 11
245.0157288172
 21
40.5865630995
 31
0.0
  0
ARC
  5
1B0
330
1F
100
AcDbEntity
  8
0
  6
Continuous
 62
     7
370
    15
100
AcDbCircle
 10
256.9717675092
 20
40.1392521901
 30
0.0
 40
11.95994015934444
100
AcDbArc
 50
178.7468639795
 51
202.7557767409
  0
LINE
  5
1B1
330
1F
100
AcDbEntity
  8
0
  6
Continuous
 62
     7
370
    15
100
AcDbLine
 10
226.4317163315
 20
77.0418229704
 30
0.0
 11
226.5063896646
 21
77.0158609006
 31
0.0
  0
SPLINE
  5
1B2
330
1F
100
AcDbEntity
  8
0
  6
Continuous
 62
     7
370
    15
100
AcDbSpline
210
0.0
220
0.0
230
1.0
 70
     8
 71
     3
 72
     8
 73
     4
 74
     0
 42
0.000000001
 43
0.00000001
 40
0.0
 40
0.0
 40
0.0
 40
0.0
 40
1.0
 40
1.0
 40
1.0
 40
1.0
 10
282.8584473344422
 20
34.17637524440502
 30
0.0
 10
282.8984816341521
 20
34.1532639351206
 30
0.0
 10
282.9529785788029
 20
34.15361533332519
 30
0.0
 10
283.0051330261491
 20
34.16567512497114
 30
0.0
  0
SPLINE
  5
1B3
330
1F
100
AcDbEntity
  8
0
  6
Continuous
 62
     7
370
    15
100
AcDbSpline
210
0.0
220
0.0
230
1.0
 70
     8
 71
     3
 72
    16
 73
    12
 74
     0
 42
0.000000001
 43
0.00000001
 40
0.0
 40
0.0
 40
0.0
 40
0.0
 40
0.2499999999999882
 40
0.2499999999999882
 40
0.3749999999999832
 40
0.3749999999999832
 40
0.4999999999999784
 40
0.4999999999999784
 40
0.7499999999999891
 40
0.7499999999999891
 40
1.0
 40
1.0
 40
1.0
 40
1.0
 10
283.0051330261524
 20
34.16567512496968
 30
0.0
 10
283.0212010927826
 20
34.12639190838965
 30
0.0
 10
283.043456659974
 20
34.08750107239422
 30
0.0
 10
283.093973072489
 20
34.04995808146
 30
0.0
 10
283.1135862818961
 20
34.04157569527777
 30
0.0
 10
283.1549127798706
 20
34.03591573861407
 30
0.0
 10
283.1759066498749
 20
34.03851622623667
 30
0.0
 10
283.2349831648671
 20
34.05593116566413
 30
0.0
 10
283.2701445810417
 20
34.07929723555317
 30
0.0
 10
283.3330353983283
 20
34.13218918764488
 30
0.0
 10
283.3614913901611
 20
34.16284188506564
 30
0.0
 10
283.3872737306043
 20
34.19491487146907
 30
0.0
  0
SPLINE
  5
1B4
330
1F
100
AcDbEntity
  8
0
  6
Continuous
 62
     7
370
    15
100
AcDbSpline
210
0.0
220
0.0
230
1.0
 70
     8
 71
     3
 72
    22
 73
    18
 74
     0
 42
0.000000001
 43
0.00000001
 40
0.0
 40
0.0
 40
0.0
 40
0.0
 40
0.125
 40
0.125
 40
0.25
 40
0.25
 40
0.375
 40
0.375
 40
0.5
 40
0.5
 40
0.625
 40
0.625
 40
0.75
 40
0.75
 40
0.875
 40
0.875
 40
1.0
 40
1.0
 40
1.0
 40
1.0
 10
284.3740189977582
 20
35.86855625989492
 30
0.0
 10
284.4414483556864
 20
35.95243774011866
 30
0.0
 10
284.5023811099111
 20
36.0416304088908
 30
0.0
 10
284.6101783794766
 20
36.23115663702965
 30
0.0
 10
284.6567864092091
 20
36.33110493076202
 30
0.0
 10
284.7306593134523
 20
36.53060981165618
 30
0.0
 10
284.7588440261578
 20
36.63298219924778
 30
0.0
 10
284.7949663767302
 20
36.82953078422146
 30
0.0
 10
284.8034163659476
 20
36.92537157322636
 30
0.0
 10
284.801143857313
 20
37.10552320385018
 30
0.0
 10
284.7906907047575
 20
37.18788756073412
 30
0.0
 10
284.7517361199314
 20
37.33690083926528
 30
0.0
 10
284.7233979599379
 20
37.40185021590142
 30
0.0
 10
284.6507207844503
 20
37.50894027292119
 30
0.0
 10
284.6055091815081
 20
37.55186153648807
 30
0.0
 10
284.5014365340966
 20
37.61208323328818
 30
0.0
 10
284.4414554136021
 20
37.63038914646459
 30
0.0
 10
284.374018993624
 20
37.63641897808113
 30
0.0
  0
LINE
  5
1B5
330
1F
100
AcDbEntity
  8
0
  6
Continuous
 62
     7
370
    15
100
AcDbLine
 10
284.3740189936
 20
37.6364189781
 30
0.0
 11
283.0051330261
 21
37.7588180093
 31
0.0
  0
ARC
  5
1B6
330
1F
100
AcDbEntity
  8
0
  6
Continuous
 62
     7
370
    15
100
AcDbCircle
 10
279.7569156576
 20
38.9056490269
 30
0.0
 40
2.072199650651859
100
AcDbArc
 50
321.0658596266
 51
347.226892773
  0
LWPOLYLINE
  5
1B7
330
1F
100
AcDbEntity
  8
0
  6
Continuous
 62
     7
370
    15
100
AcDbPolyline
 90
       10
 70
   128
 43
0.0
 10
253.3523334381
 20
21.638693487
 10
252.5409403704
 20
21.8094294063
 10
251.382307029
 20
22.1966113164
 10
250.3040069542
 20
22.7381068209
 10
249.3135581113
 20
23.4301405845
 10
248.4178659621
 20
24.267887711
 10
247.62317532
 20
25.245507383
 10
246.9350268101
 20
26.3561835843
 10
246.3582182404
 20
27.5921726215
 10
245.896771151
 20
28.9448571135
  0
SPLINE
  5
1B8
330
1F
100
AcDbEntity
  8
0
  6
Continuous
 62
     7
370
    15
100
AcDbSpline
210
0.0
220
0.0
230
1.0
 70
     8
 71
     3
 72
     8
 73
     4
 74
     0
 42
0.000000001
 43
0.00000001
 40
0.0000000000000006
 40
0.0000000000000006
 40
0.0000000000000006
 40
0.0000000000000006
 40
0.001241704756042
 40
0.001241704756042
 40
0.001241704756042
 40
0.001241704756042
 10
246.371271754613
 20
29.31147538576694
 30
0.0
 10
246.2132115971025
 20
29.18907218076243
 30
0.0
 10
246.0550422914214
 20
29.06686995079398
 30
0.0
 10
245.8967711509605
 20
28.94485711348286
 30
0.0
  0
SPLINE
  5
1B9
330
1F
100
AcDbEntity
  8
0
  6
Continuous
 62
     7
370
    15
100
AcDbSpline
210
0.0
220
0.0
230
1.0
 70
     8
 71
     3
 72
     8
 73
     4
 74
     0
 42
0.000000001
 43
0.00000001
 40
0.0
 40
0.0
 40
0.0
 40
0.0
 40
1.0
 40
1.0
 40
1.0
 40
1.0
 10
246.3712717546121
 20
29.31147538576885
 30
0.0
 10
247.5425043392871
 20
29.50375501609675
 30
0.0
 10
248.7131237138789
 20
29.6973426833069
 30
0.0
 10
249.8827328990608
 20
29.89289597497747
 30
0.0
  0
LINE
  5
1BA
330
1F
100
AcDbEntity
  8
0
  6
Continuous
 62
     7
370
    15
100
AcDbLine
 10
283.0051330261
 20
34.165675125
 30
0.0
 11
284.3740189978
 21
35.8685562599
 31
0.0
  0
SPLINE
  5
1BB
330
1F
100
AcDbEntity
  8
0
  6
Continuous
 62
     7
370
    15
100
AcDbSpline
210
0.0
220
0.0
230
1.0
 70
     8
 71
     3
 72
    10
 73
     6
 74
     0
 42
0.000000001
 43
0.00000001
 40
0.0
 40
0.0
 40
0.0
 40
0.0
 40
0.5
 40
0.5
 40
1.0
 40
1.0
 40
1.0
 40
1.0
 10
249.8827328990608
 20
29.89289597497748
 30
0.0
 10
249.9244987600753
 20
29.89987903539141
 30
0.0
 10
249.9683960458893
 20
29.90316912639979
 30
0.0
 10
250.0560234286793
 20
29.90150615197075
 30
0.0
 10
250.09852872574
 20
29.89671404542
 30
0.0
 10
250.1396099274391
 20
29.88777949988299
 30
0.0
  0
LINE
  5
1BC
330
1F
100
AcDbEntity
  8
0
  6
Continuous
 62
     7
370
    15
100
AcDbLine
 10
242.0464054961
 20
31.8081675332
 30
0.0
 11
246.3712717546
 21
29.3114753858
 31
0.0
  0
LINE
  5
1BD
330
1F
100
AcDbEntity
  8
0
  6
Continuous
 62
     7
370
    15
100
AcDbLine
 10
242.0464054961
 20
31.8081675332
 30
0.0
 11
245.5892120497
 21
33.8533862229
 31
0.0
  0
LINE
  5
1BE
330
1F
100
AcDbEntity
  8
0
  6
Continuous
 62
     7
370
    15
100
AcDbLine
 10
279.9593095316
 20
35.8500118736
 30
0.0
 11
281.3688151777
 21
37.6034234975
 31
0.0
  0
LINE
  5
1BF
330
1F
100
AcDbEntity
  8
0
  6
Continuous
 62
     7
370
    15
100
AcDbLine
 10
241.612338396
 20
31.5575452003
 30
0.0
 11
242.0464054961
 21
31.8081675332
 31
0.0
  0
LINE
  5
1C0
330
1F
100
AcDbEntity
  8
0
  6
Continuous
 62
     7
370
    15
100
AcDbLine
 10
245.896771151
 20
28.9448571135
 30
0.0
 11
241.7690353158
 21
31.3277482899
 31
0.0
  0
SPLINE
  5
1C1
330
1F
100
AcDbEntity
  8
0
  6
Continuous
 62
     7
370
    15
100
AcDbSpline
210
0.0
220
0.0
230
1.0
 70
     8
 71
     3
 72
     8
 73
     4
 74
     0
 42
0.000000001
 43
0.00000001
 40
0.0
 40
0.0
 40
0.0
 40
0.0
 40
1.0
 40
1.0
 40
1.0
 40
1.0
 10
241.7690353157841
 20
31.3277482898654
 30
0.0
 10
241.6888160866179
 20
31.374057865136
 30
0.0
 10
241.6344263243322
 20
31.4577207061448
 30
0.0
 10
241.6123383959732
 20
31.55754520025183
 30
0.0
  0
ARC
  5
1C2
330
1F
100
AcDbEntity
  8
0
  6
Continuous
 62
     7
370
    15
100
AcDbCircle
 10
250.7872543035
 20
32.7413306937
 30
0.0
 40
8.905958587952151
100
AcDbArc
 50
214.8338129215
 51
239.5793426072
  0
ELLIPSE
  5
1C3
330
1F
100
AcDbEntity
  8
0
  6
Continuous
 62
     7
370
    15
100
AcDbEllipse
 10
245.2963188309
 20
34.839010691
 30
0.0
 11
-7.507462979106094E-5
 21
1.066811201853398
 31
0.0
210
0.0
220
0.0
230
1.0
 40
0.7174342186
 41
3.534193645557512
 42
5.104989972352358
  0
ELLIPSE
  5
1C4
330
1F
100
AcDbEntity
  8
0
  6
Continuous
 62
     7
370
    15
100
AcDbEllipse
 10
245.2356586591
 20
34.8039809353
 30
0.0
 11
0.3250094736511642
 21
1.213179526238669
 31
0.0
210
0.0
220
0.0
230
1.0
 40
0.5176380889
 41
3.619174351347721
 42
5.189970678142622
  0
LWPOLYLINE
  5
1C5
330
1F
100
AcDbEntity
  8
0
  6
Continuous
 62
     7
370
     0
100
AcDbPolyline
 90
       45
 70
   128
 43
0.0
 10
253.4734526599
 20
29.7721982617
 10
253.5342107736
 20
31.4812693404
 10
253.7160589401
 20
33.2485023382
 10
254.0177216252
 20
35.0615013856
 10
254.437082882
 20
36.9075495968
 10
254.9712011925
 20
38.77369827
 10
255.6163301005
 20
40.6468577131
 10
256.3679444902
 20
42.5138890584
 10
257.2207723268
 20
44.3616964225
 10
258.1688316358
 20
46.1773187645
 10
259.2054724622
 20
47.948020798
 10
260.3234235155
 20
49.6613823207
 10
261.5148431723
 20
51.3053853324
 10
262.7713744798
 20
52.8684983333
 10
264.0842037736
 20
54.3397572087
 10
265.4441224995
 20
55.7088421347
 10
266.8415918047
 20
56.9661499642
 10
268.2668094462
 20
58.1028615863
 10
269.7097785462
 20
59.1110037856
 10
271.1603777133
 20
59.9835051689
 10
272.6084320365
 20
60.7142457659
 10
274.0437844552
 20
61.2980999564
 10
275.4563670034
 20
61.7309724227
 10
276.8362714296
 20
62.0098268755
 10
278.1738186957
 20
62.1327073511
 10
279.4596268685
 20
62.0987519313
 10
280.6846769277
 20
61.908198789
 10
281.8403760272
 20
61.5623845175
 10
282.9186177683
 20
61.0637347556
 10
283.9118390598
 20
60.415747173
 10
284.813073168
 20
59.6229669369
 10
285.6159985832
 20
58.6909548313
 10
286.3149833605
 20
57.6262482513
 10
286.9051246239
 20
56.4363153485
 10
287.3822829564
 20
55.1295026475
 10
287.7431114352
 20
53.7149765002
 10
287.9850791078
 20
52.2026587913
 10
288.1064887448
 20
50.6031573429
 10
288.1064887448
 20
48.9276915085
 10
287.9850791078
 20
47.1880134771
 10
287.7431114352
 20
45.39632584
 10
287.3822829564
 20
43.5651959987
 10
286.9051246239
 20
41.7074680134
 10
286.3149833605
 20
39.8361725112
 10
285.8327680474
 20
38.5146371567
  0
LWPOLYLINE
  5
1C6
330
1F
100
AcDbEntity
  8
0
  6
Continuous
 62
     7
370
     0
100
AcDbPolyline
 90
       26
 70
   128
 43
0.0
 10
279.4062765326
 20
27.3824211399
 10
278.1738186957
 20
25.9301247653
 10
276.8362714296
 20
24.5087060388
 10
275.4563670034
 20
23.1943567534
 10
274.0437844552
 20
21.9962961249
 10
272.6084320365
 20
20.9229276877
 10
271.1603777133
 20
19.9817803503
 10
269.7097785462
 20
19.179455585
 10
268.2668094462
 20
18.5215811236
 10
266.8415918047
 20
18.0127714827
 10
265.4441224995
 20
17.6565955964
 10
264.0842037736
 20
17.4555517826
 10
262.7713744798
 20
17.4110502193
 10
261.5148431723
 20
17.5234030528
 10
260.3234235155
 20
17.7918222089
 10
259.2054724622
 20
18.21442492
 10
258.1688316358
 20
18.7882469317
 10
257.2207723268
 20
19.5092632949
 10
256.3679444902
 20
20.3724165978
 10
255.6163301005
 20
21.3716524402
 10
254.9712011925
 20
22.4999619007
 10
254.437082882
 20
23.749430699
 10
254.0177216252
 20
25.1112947093
 10
253.7160589401
 20
26.576001434
 10
253.5342107736
 20
28.1332770079
 10
253.4734526599
 20
29.7721982617
  0
LWPOLYLINE
  5
1C7
330
1F
100
AcDbEntity
  8
0
  6
Continuous
 62
     7
370
     0
100
AcDbPolyline
 90
       27
 70
   128
 43
0.0
 10
252.7663458787
 20
29.7721982617
 10
252.8283439539
 20
31.516148342
 10
253.0139033075
 20
33.3194473194
 10
253.321722374
 20
35.1694463473
 10
253.7496420237
 20
37.0531690118
 10
254.2946607079
 20
38.9574023518
 10
254.9529555119
 20
40.8687895386
 10
255.7199089709
 20
42.7739235644
 10
256.5901414572
 20
44.6594412829
 10
257.5575489153
 20
46.5121171421
 10
258.615345677
 20
48.3189559518
 10
259.7561120579
 20
50.0672840362
 10
260.9718464016
 20
51.7448381298
 10
262.2540212051
 20
53.3398513959
 10
263.5936429335
 20
54.8411359627
 10
264.9813151028
 20
56.2381613974
 10
266.4073041898
 20
57.5211285704
 10
267.8616079056
 20
58.6810383889
 10
269.3340253545
 20
59.7097549187
 10
270.8142285862
 20
60.6000624527
 10
272.2918350385
 20
61.3457161231
 10
273.7564803637
 20
61.9414857053
 10
275.1978911272
 20
62.3831923035
 10
276.6059568682
 20
62.6677376635
 10
277.9708010172
 20
62.7931259039
 10
279.2828501732
 20
62.7584775164
 10
279.3528259509
 20
62.7519737439
  0
ARC
  5
1C8
330
1F
100
AcDbEntity
  8
0
  6
Continuous
 62
     7
370
     0
100
AcDbCircle
 10
268.1832675701
 20
29.1689443415
 30
0.0
 40
15.42871963998525
100
AcDbArc
 50
177.7591973184
 51
212.3942003931
  0
LWPOLYLINE
  5
1C9
330
1F
100
AcDbEntity
  8
0
  6
Continuous
 62
     7
370
     0
100
AcDbPolyline
 90
       24
 70
   128
 43
0.0
 10
263.7265009871
 20
35.6911570724
 10
263.7869949525
 20
36.791879125
 10
263.9674417801
 20
37.9436123637
 10
264.2647539746
 20
39.1266503137
 10
264.673844442
 20
40.3207508675
 10
265.187713531
 20
41.5054826336
 10
265.797568799
 20
42.6605745231
 10
266.4929754532
 20
43.7662625934
 10
267.262034893
 20
44.8036282152
 10
268.0915882982
 20
45.7549217749
 10
268.9674417801
 20
46.6038663762
 10
269.8746092426
 20
47.3359363413
 10
270.797568799
 20
47.9386057504
 10
271.7205283554
 20
48.4015627627
 10
272.6276958179
 20
48.7168860553
 10
273.5035492997
 20
48.8791803594
 10
274.3331027049
 20
48.8856687743
 10
275.1021621447
 20
48.7362402815
 10
275.797568799
 20
48.433451644
 10
276.4074240669
 20
47.9824836592
 10
276.9212931559
 20
47.3910525144
 10
277.3303836234
 20
46.6692777606
 10
277.6276958179
 20
45.8295091637
 10
277.7974875118
 20
44.9695846618
  0
LWPOLYLINE
  5
1CA
330
1F
100
AcDbEntity
  8
0
  6
Continuous
 62
     7
370
     0
100
AcDbPolyline
 90
       12
 70
   128
 43
0.0
 10
269.7981376507
 20
31.1128028637
 10
268.9674417801
 20
30.8295092078
 10
268.0915882982
 20
30.6672149037
 10
267.262034893
 20
30.6607264888
 10
266.4929754532
 20
30.8101549816
 10
265.797568799
 20
31.1129436191
 10
265.187713531
 20
31.5639116039
 10
264.673844442
 20
32.1553427486
 10
264.2647539746
 20
32.8771175025
 10
263.9674417801
 20
33.7168860993
 10
263.7869949525
 20
34.6602798656
 10
263.7265009871
 20
35.6911570724
  0
LWPOLYLINE
  5
1CB
330
1F
100
AcDbEntity
  8
0
  6
Continuous
 62
     7
370
     0
100
AcDbPolyline
 90
       21
 70
   128
 43
0.0
 10
249.8827328991
 20
40.3854454077
 10
250.3523784108
 20
42.1448733382
 10
250.9365468997
 20
43.9153291412
 10
251.6304602184
 20
45.682331552
 10
252.4284425728
 20
47.4314275525
 10
253.3239669469
 20
49.1483105885
 10
254.3097084893
 20
50.8189375881
 10
255.3776044264
 20
52.4296438265
 10
256.5189200111
 20
53.9672546942
 10
257.7243199676
 20
55.4191934583
 10
258.9839448487
 20
56.773584132
 10
260.2874916795
 20
58.0193486134
 10
261.6242982302
 20
59.1462972975
 10
262.9834302265
 20
60.1452124212
 10
264.3537707851
 20
61.007923459
 10
265.7241113438
 20
61.727373953
 10
267.0832433401
 20
62.2976792303
 10
268.4200498908
 20
62.7141745366
 10
269.7235967216
 20
62.9734531903
 10
270.9832216026
 20
63.0733944479
 10
271.1397394662
 20
63.0746280233
  0
LWPOLYLINE
  5
1CC
330
1F
100
AcDbEntity
  8
0
  6
Continuous
 62
     7
370
     0
100
AcDbPolyline
 90
       23
 70
   128
 43
0.0
 10
241.7690353158
 20
42.4608914158
 10
242.2304824053
 20
44.3463513768
 10
242.8072909749
 20
46.248309413
 10
243.4954394848
 20
48.153504972
 10
244.290130127
 20
50.0486549293
 10
245.1858222761
 20
51.9205461988
 10
246.176271119
 20
53.7561278553
 10
247.2545711938
 20
55.5426021261
 10
248.4132045352
 20
57.2675136177
 10
249.64409309
 20
58.9188361557
 10
250.9386550379
 20
60.4850566318
 10
252.2878646243
 20
61.9552552737
 10
253.6823150884
 20
63.3191817784
 10
255.1122842475
 20
64.567326778
 10
256.5678022808
 20
65.6909881394
 10
258.0387212394
 20
66.6823316358
 10
259.5147857982
 20
67.5344455678
 10
260.9857047568
 20
68.2413889519
 10
262.4412227901
 20
68.7982329413
 10
263.8711919493
 20
69.2010951902
 10
265.2656424133
 20
69.4471669215
 10
266.6148519997
 20
69.5347325101
 10
267.7283641945
 20
69.4831182735
  0
LWPOLYLINE
  5
1CD
330
1F
100
AcDbEntity
  8
0
  6
Continuous
 62
     7
370
     0
100
AcDbPolyline
 90
       20
 70
   128
 43
0.0
 10
250.2755392747
 20
40.3277989508
 10
250.7432672213
 20
42.0674324832
 10
251.3238136313
 20
43.8175233433
 10
252.0124513871
 20
45.5638213605
 10
252.8035732337
 20
47.2921072476
 10
253.6907374364
 20
48.9883083818
 10
254.6667202324
 20
50.6386133913
 10
255.7235746508
 20
52.2295846151
 10
256.8526952207
 20
53.7482675193
 10
258.044888042
 20
55.18229618
 10
259.2904456467
 20
56.5199939732
 10
260.5792260424
 20
57.750468652
 10
261.9007352936
 20
58.8637010373
 10
263.2442129692
 20
59.8506265988
 10
264.5987197594
 20
60.7032092637
 10
265.9532265497
 20
61.4145068507
 10
267.2967042253
 20
61.9787275963
 10
268.6182134765
 20
62.3912773153
 10
269.9069938721
 20
62.6487968084
 10
270.2072462086
 20
62.686934089
  0
LWPOLYLINE
  5
1CE
330
1F
100
AcDbEntity
  8
0
  6
Continuous
 62
     7
370
     0
100
AcDbPolyline
 90
        7
 70
   128
 43
0.0
 10
266.5549281119
 20
35.6911570724
 10
266.6181105
 20
34.7540387445
 10
266.8062462742
 20
33.910802924
 10
267.1151327923
 20
33.1802861059
 10
267.5378700398
 20
32.5788068286
 10
268.0650147651
 20
32.1198011453
 10
268.2121074308
 20
32.0283986207
  0
LWPOLYLINE
  5
1CF
330
1F
100
AcDbEntity
  8
0
  6
Continuous
 62
     7
370
     0
100
AcDbPolyline
 90
       17
 70
   128
 43
0.0
 10
276.2114572919
 20
45.8851804188
 10
275.7387732965
 20
46.1000565548
 10
275.0402094861
 20
46.2467664339
 10
274.2784632876
 20
46.2306302751
 10
273.4705508522
 20
46.0520085334
 10
272.6345196088
 20
45.7148913234
 10
271.7890451139
 20
45.2268092866
 10
270.9530138705
 20
44.5986653691
 10
270.1451014351
 20
43.8444912681
 10
269.3833552366
 20
42.9811339866
 10
268.6847914262
 20
42.0278794998
 10
268.0650147651
 20
41.0060219377
 10
267.5378700398
 20
39.9383879096
 10
267.1151327923
 20
38.8488265955
 10
266.8062462742
 20
37.7616769948
 10
266.6181105
 20
36.7012242329
 10
266.5549281119
 20
35.6911570724
  0
LWPOLYLINE
  5
1D0
330
1F
100
AcDbEntity
  8
0
  6
Continuous
 62
     7
370
     0
100
AcDbPolyline
 90
       12
 70
   128
 43
0.0
 10
277.2997469594
 20
30.6806604695
 10
277.6711949905
 20
30.237684079
 10
278.1476334601
 20
29.9528331845
 10
278.7103439621
 20
29.8372990626
 10
279.3372186184
 20
29.89562084
 10
280.0036286571
 20
30.1255071596
 10
280.6833920328
 20
30.5179262035
 10
281.3498020716
 20
31.0574605371
 10
281.9766767279
 20
31.7229128318
 10
282.5393872299
 20
32.4881386703
 10
283.0158256995
 20
33.3230737129
 10
283.3872737306
 20
34.1949148715
  0
LWPOLYLINE
  5
1D1
330
1F
100
AcDbEntity
  8
0
  6
Continuous
 62
     7
370
     0
100
AcDbPolyline
 90
       12
 70
   128
 43
0.0
 10
283.3871677833
 20
37.8443997735
 10
283.0157080077
 20
38.2873026919
 10
282.5392753752
 20
38.5720956621
 10
281.9765857521
 20
38.6875910643
 10
281.3497434678
 20
38.629251853
 10
280.6833729828
 20
38.3993697874
 10
280.0036515572
 20
38.0069754036
 10
279.337280921
 20
37.4674832646
 10
278.7104383402
 20
36.8020864251
 10
278.1477482869
 20
36.0369238973
 10
277.6713151074
 20
35.2020538232
 10
277.2998546896
 20
34.3302726901
  0
LINE
  5
1D2
330
1F
100
AcDbEntity
  8
0
  6
Continuous
 62
     7
370
     0
100
AcDbLine
 10
250.1396099274
 20
29.8877794999
 30
0.0
 11
251.2990993078
 21
30.5571384714
 31
0.0
  0
LINE
  5
1D3
330
1F
100
AcDbEntity
  8
0
  6
Continuous
 62
     7
370
     0
100
AcDbLine
 10
251.6856646036
 20
30.3530046906
 30
0.0
 11
251.2990993078
 21
30.5571384714
 31
0.0
  0
LINE
  5
1D4
330
1F
100
AcDbEntity
  8
0
  6
Continuous
 62
     7
370
     0
100
AcDbLine
 10
276.0301589798
 20
31.0517484001
 30
0.0
 11
276.1008696579
 21
30.7878581661
 31
0.0
  0
LWPOLYLINE
  5
1D5
330
1F
100
AcDbEntity
  8
0
  6
Continuous
 62
     7
370
     0
100
AcDbPolyline
 90
        3
 70
   128
 43
0.0
 10
282.8584473344
 20
37.8236806287
 10
282.4679332557
 20
38.2239505228
 10
282.4252445382
 20
38.2533392726
  0
ARC
  5
1D6
330
1F
100
AcDbEntity
  8
0
  6
Continuous
 62
     7
370
     0
100
AcDbCircle
 10
250.5739528468
 20
31.7330590247
 30
0.0
 40
1.381530505417808
100
AcDbArc
 50
301.6605905893
 51
324.2377952693
  0
LWPOLYLINE
  5
1D7
330
1F
100
AcDbEntity
  8
0
  6
Continuous
 62
     7
370
     0
100
AcDbPolyline
 90
       10
 70
   128
 43
0.0
 10
277.8462058231
 20
30.5080944156
 10
278.2191321097
 20
30.3546556399
 10
278.7968465334
 20
30.3011034823
 10
279.4318021102
 20
30.428381082
 10
280.0960229716
 20
30.7308806428
 10
280.7602438329
 20
31.1952741647
 10
281.3951994098
 20
31.8011006695
 10
281.9729138334
 20
32.5216677028
 10
282.4679332557
 20
33.3252273922
 10
282.8584473344
 20
34.1763752444
  0
LINE
  5
1D8
330
1F
100
AcDbEntity
  8
0
  6
Continuous
 62
     7
370
     0
100
AcDbLine
 10
275.739661822
 20
31.2194488397
 30
0.0
 11
276.0301589798
 21
31.0517484001
 31
0.0
  0
LINE
  5
1D9
330
1F
100
AcDbEntity
  8
0
  6
Continuous
 62
     7
370
     0
100
AcDbLine
 10
246.003425612
 20
35.2472147469
 30
0.0
 11
251.5784286792
 21
32.0288339814
 31
0.0
  0
LINE
  5
1DA
330
1F
100
AcDbEntity
  8
0
  6
Continuous
 62
     7
370
     0
100
AcDbLine
 10
245.9427654403
 20
35.2121849912
 30
0.0
 11
246.003425612
 21
35.2472147469
 31
0.0
  0
LINE
  5
1DB
330
1F
100
AcDbEntity
  8
0
  6
Continuous
 62
     7
370
     0
100
AcDbLine
 10
245.7217945711
 20
39.9926073116
 30
0.0
 11
245.7228355984
 21
40.1783590436
 31
0.0
  0
LWPOLYLINE
  5
1DC
330
1F
100
AcDbEntity
  8
0
  6
Continuous
 62
     7
370
     0
100
AcDbPolyline
 90
        3
 70
   128
 43
0.0
 10
245.8994789545
 20
37.6849427048
 10
245.7831538223
 20
38.6083068685
 10
245.7217945711
 20
39.9926073116
  0
LWPOLYLINE
  5
1DD
330
1F
100
AcDbEntity
  8
0
  6
Continuous
 62
     7
370
     0
100
AcDbPolyline
 90
       19
 70
   128
 43
0.0
 10
214.7885748875
 20
63.8082259028
 10
214.8500632037
 20
64.9270407342
 10
215.0334760703
 20
66.0977052323
 10
215.3356752422
 20
67.3001890032
 10
215.7514900078
 20
68.513917216
 10
216.2738056613
 20
69.7181226447
 10
216.8936852368
 20
70.8922010003
 10
217.6005224232
 20
72.0160634768
 10
218.38222304
 20
73.0704804756
 10
219.2254119731
 20
74.0374106294
 10
220.115662026
 20
74.9003094953
 10
221.0377407735
 20
75.6444126344
 10
221.9758711926
 20
76.2569882357
 10
222.9140016116
 20
76.7275549609
 10
223.8360803591
 20
77.0480612828
 10
224.726330412
 20
77.2130232493
 10
225.5695193451
 20
77.2196183156
 10
226.3512199619
 20
77.0677336381
 10
226.4317163315
 20
77.0418229704
  0
ARC
  5
1DE
330
1F
100
AcDbEntity
  8
0
  6
Continuous
 62
     7
370
     0
100
AcDbCircle
 10
220.1632336723
 20
63.3640938754
 30
0.0
 40
5.392977870397235
100
AcDbArc
 50
175.2761269287
 51
225.7050394481
  0
LINE
  5
1DF
330
1F
100
AcDbEntity
  8
0
  6
Continuous
 62
     7
370
     0
100
AcDbLine
 10
284.5861510321
 20
35.686306837
 30
0.0
 11
284.3740189978
 21
35.8685562599
 31
0.0
  0
LWPOLYLINE
  5
1E0
330
1F
100
AcDbEntity
  8
0
  6
Continuous
 62
     7
370
     0
100
AcDbPolyline
 90
        3
 70
   128
 43
0.0
 10
250.9482077894
 20
28.2189460753
 10
250.7432672213
 20
28.6388365478
 10
250.2755392747
 20
29.8384428879
  0
LINE
  5
1E1
330
1F
100
AcDbEntity
  8
0
  6
Continuous
 62
     7
370
     0
100
AcDbLine
 10
281.3688151777
 20
37.6034234975
 30
0.0
 11
284.3740189978
 21
35.8685562599
 31
0.0
  0
LWPOLYLINE
  5
1E2
330
1F
100
AcDbEntity
  8
0
  6
Continuous
 62
     7
370
     0
100
AcDbPolyline
 90
        3
 70
   128
 43
0.0
 10
250.8466904829
 20
27.7277835823
 10
250.3523784108
 20
28.6757092105
 10
249.8827328991
 20
29.892895975
  0
LINE
  5
1E3
330
1F
100
AcDbEntity
  8
0
  6
Continuous
 62
     7
370
     0
100
AcDbLine
 10
251.2990993078
 20
30.5571384714
 30
0.0
 11
245.5892120497
 21
33.8533862229
 31
0.0
  0
ARC
  5
1E4
330
1F
100
AcDbEntity
  8
0
  6
Continuous
 62
     7
370
     0
100
AcDbCircle
 10
253.4612969342
 20
34.5305653546
 30
0.0
 40
12.12299545916038
100
AcDbArc
 50
195.3190382257
 51
214.5559948624
  0
OLE2FRAME
  5
1E5
330
1F
100
AcDbEntity
  8
0
100
AcDbOle2Frame
 70
     2
  3
Paintbrush-Bild
 10
13.8511154363
 20
38.264191557
 30
0.0
 11
51.6290888628
 21
31.9806341108
 31
0.0
 71
     2
 72
     0
 73
     1
 90
    12928
310
80552BED0767C5B32B40DDAF6807D121434000000000000000006FFBDDFB85D0
310
4940DDAF6807D121434000000000000000006FFBDDFB85D04940416F4BD60AFB
310
3F4000000000000000002BED0767C5B32B40416F4BD60AFB3F40000000000000
310
0000000000000100000000010000010000000100000000000100000000320000
310
D0CF11E0A1B11AE1000000000000000000000000000000003E000300FEFF0900
310
0600000000000000000000000100000001000000000000000010000002000000
310
01000000FEFFFFFF0000000000000000FFFFFFFFFFFFFFFFFFFFFFFFFFFFFFFF
310
FFFFFFFFFFFFFFFFFFFFFFFFFFFFFFFFFFFFFFFFFFFFFFFFFFFFFFFFFFFFFFFF
310
FFFFFFFFFFFFFFFFFFFFFFFFFFFFFFFFFFFFFFFFFFFFFFFFFFFFFFFFFFFFFFFF
310
FFFFFFFFFFFFFFFFFFFFFFFFFFFFFFFFFFFFFFFFFFFFFFFFFFFFFFFFFFFFFFFF
310
FFFFFFFFFFFFFFFFFFFFFFFFFFFFFFFFFFFFFFFFFFFFFFFFFFFFFFFFFFFFFFFF
310
FFFFFFFFFFFFFFFFFFFFFFFFFFFFFFFFFFFFFFFFFFFFFFFFFFFFFFFFFFFFFFFF
310
FFFFFFFFFFFFFFFFFFFFFFFFFFFFFFFFFFFFFFFFFFFFFFFFFFFFFFFFFFFFFFFF
310
FFFFFFFFFFFFFFFFFFFFFFFFFFFFFFFFFFFFFFFFFFFFFFFFFFFFFFFFFFFFFFFF
310
FFFFFFFFFFFFFFFFFFFFFFFFFFFFFFFFFFFFFFFFFFFFFFFFFFFFFFFFFFFFFFFF
310
FFFFFFFFFFFFFFFFFFFFFFFFFFFFFFFFFFFFFFFFFFFFFFFFFFFFFFFFFFFFFFFF
310
FFFFFFFFFFFFFFFFFFFFFFFFFFFFFFFFFFFFFFFFFFFFFFFFFFFFFFFFFFFFFFFF
310
FFFFFFFFFFFFFFFFFFFFFFFFFFFFFFFFFFFFFFFFFFFFFFFFFFFFFFFFFFFFFFFF
310
FFFFFFFFFFFFFFFFFFFFFFFFFFFFFFFFFFFFFFFFFFFFFFFFFFFFFFFFFFFFFFFF
310
FFFFFFFFFFFFFFFFFFFFFFFFFFFFFFFFFFFFFFFFFFFFFFFFFFFFFFFFFFFFFFFF
310
FDFFFFFFFEFFFFFFFEFFFFFFFEFFFFFF05000000060000000700000008000000
310
090000000A0000000B0000000C0000000D0000000E0000000F00000010000000
310
11000000120000001300000014000000150000001600000017000000FEFFFFFF
310
FFFFFFFFFFFFFFFFFFFFFFFFFFFFFFFFFFFFFFFFFFFFFFFFFFFFFFFFFFFFFFFF
310
FFFFFFFFFFFFFFFFFFFFFFFFFFFFFFFFFFFFFFFFFFFFFFFFFFFFFFFFFFFFFFFF
310
FFFFFFFFFFFFFFFFFFFFFFFFFFFFFFFFFFFFFFFFFFFFFFFFFFFFFFFFFFFFFFFF
310
FFFFFFFFFFFFFFFFFFFFFFFFFFFFFFFFFFFFFFFFFFFFFFFFFFFFFFFFFFFFFFFF
310
FFFFFFFFFFFFFFFFFFFFFFFFFFFFFFFFFFFFFFFFFFFFFFFFFFFFFFFFFFFFFFFF
310
FFFFFFFFFFFFFFFFFFFFFFFFFFFFFFFFFFFFFFFFFFFFFFFFFFFFFFFFFFFFFFFF
310
FFFFFFFFFFFFFFFFFFFFFFFFFFFFFFFFFFFFFFFFFFFFFFFFFFFFFFFFFFFFFFFF
310
FFFFFFFFFFFFFFFFFFFFFFFFFFFFFFFFFFFFFFFFFFFFFFFFFFFFFFFFFFFFFFFF
310
FFFFFFFFFFFFFFFFFFFFFFFFFFFFFFFFFFFFFFFFFFFFFFFFFFFFFFFFFFFFFFFF
310
FFFFFFFFFFFFFFFFFFFFFFFFFFFFFFFFFFFFFFFFFFFFFFFFFFFFFFFFFFFFFFFF
310
FFFFFFFFFFFFFFFFFFFFFFFFFFFFFFFFFFFFFFFFFFFFFFFFFFFFFFFFFFFFFFFF
310
FFFFFFFFFFFFFFFFFFFFFFFFFFFFFFFFFFFFFFFFFFFFFFFFFFFFFFFFFFFFFFFF
310
FFFFFFFFFFFFFFFFFFFFFFFFFFFFFFFFFFFFFFFFFFFFFFFFFFFFFFFFFFFFFFFF
310
52006F006F007400200045006E00740072007900000000000000000000000000
310
0000000000000000000000000000000000000000000000000000000000000000
310
16000500FFFFFFFFFFFFFFFF020000000A00030000000000C000000000000046
310
000000000000000000000000101873E09920D20103000000C000000000000000
310
01004F006C006500000000000000000000000000000000000000000000000000
310
0000000000000000000000000000000000000000000000000000000000000000
310
0A000200FFFFFFFFFFFFFFFFFFFFFFFF00000000000000000000000000000000
310
0000000000000000000000000000000000000000000000001400000000000000
310
010043006F006D0070004F0062006A0000000000000000000000000000000000
310
0000000000000000000000000000000000000000000000000000000000000000
310
120002010100000003000000FFFFFFFF00000000000000000000000000000000
310
0000000000000000000000000000000000000000010000004D00000000000000
310
01004F006C006500310030004E00610074006900760065000000000000000000
310
0000000000000000000000000000000000000000000000000000000000000000
310
1A000200FFFFFFFFFFFFFFFFFFFFFFFF00000000000000000000000000000000
310
0000000000000000000000000000000000000000040000002426000000000000
310
FEFFFFFF02000000FEFFFFFFFFFFFFFFFFFFFFFFFFFFFFFFFFFFFFFFFFFFFFFF
310
FFFFFFFFFFFFFFFFFFFFFFFFFFFFFFFFFFFFFFFFFFFFFFFFFFFFFFFFFFFFFFFF
310
FFFFFFFFFFFFFFFFFFFFFFFFFFFFFFFFFFFFFFFFFFFFFFFFFFFFFFFFFFFFFFFF
310
FFFFFFFFFFFFFFFFFFFFFFFFFFFFFFFFFFFFFFFFFFFFFFFFFFFFFFFFFFFFFFFF
310
FFFFFFFFFFFFFFFFFFFFFFFFFFFFFFFFFFFFFFFFFFFFFFFFFFFFFFFFFFFFFFFF
310
FFFFFFFFFFFFFFFFFFFFFFFFFFFFFFFFFFFFFFFFFFFFFFFFFFFFFFFFFFFFFFFF
310
FFFFFFFFFFFFFFFFFFFFFFFFFFFFFFFFFFFFFFFFFFFFFFFFFFFFFFFFFFFFFFFF
310
FFFFFFFFFFFFFFFFFFFFFFFFFFFFFFFFFFFFFFFFFFFFFFFFFFFFFFFFFFFFFFFF
310
FFFFFFFFFFFFFFFFFFFFFFFFFFFFFFFFFFFFFFFFFFFFFFFFFFFFFFFFFFFFFFFF
310
FFFFFFFFFFFFFFFFFFFFFFFFFFFFFFFFFFFFFFFFFFFFFFFFFFFFFFFFFFFFFFFF
310
FFFFFFFFFFFFFFFFFFFFFFFFFFFFFFFFFFFFFFFFFFFFFFFFFFFFFFFFFFFFFFFF
310
FFFFFFFFFFFFFFFFFFFFFFFFFFFFFFFFFFFFFFFFFFFFFFFFFFFFFFFFFFFFFFFF
310
FFFFFFFFFFFFFFFFFFFFFFFFFFFFFFFFFFFFFFFFFFFFFFFFFFFFFFFFFFFFFFFF
310
FFFFFFFFFFFFFFFFFFFFFFFFFFFFFFFFFFFFFFFFFFFFFFFFFFFFFFFFFFFFFFFF
310
FFFFFFFFFFFFFFFFFFFFFFFFFFFFFFFFFFFFFFFFFFFFFFFFFFFFFFFFFFFFFFFF
310
FFFFFFFFFFFFFFFFFFFFFFFFFFFFFFFFFFFFFFFFFFFFFFFFFFFFFFFFFFFFFFFF
310
0100000200000000000000000000000000000000000000000000000000000000
310
0000000000000000000000000000000000000000000000000000000000000000
310
0100FEFF030A0000FFFFFFFF0A00030000000000C00000000000004607000000
310
5042727573680007000000504272757368000700000050427275736800F439B2
310
7100000000000000000000000000000000000000000000000000000000000000
310
0000000000000000000000000000000000000000000000000000000000000000
310
0000000000000000000000000000000000000000000000000000000000000000
310
0000000000000000000000000000000000000000000000000000000000000000
310
0000000000000000000000000000000000000000000000000000000000000000
310
0000000000000000000000000000000000000000000000000000000000000000
310
0000000000000000000000000000000000000000000000000000000000000000
310
0000000000000000000000000000000000000000000000000000000000000000
310
0000000000000000000000000000000000000000000000000000000000000000
310
0000000000000000000000000000000000000000000000000000000000000000
310
0000000000000000000000000000000000000000000000000000000000000000
310
0000000000000000000000000000000000000000000000000000000000000000
310
20260000424D0E260000000000003E00000028000000B40200006E0000000100
310
01000000000000000000130B0000130B00000200000002000000000000FFFFFF
310
FFFFFFFFFFFFFFFFFFFFFFFFFFFFFFFFFFFFFFFFFFFFFFFFFFFFFFFFFFFFFFFF
310
FFFFFFFFFFFFFFFFFFFFFFFFFFFFFFFFFFFFFFFFFFFFFFFFFFFFFFFFFFFFFFFF
310
FFFFFFFFFFFFFFFFFFFFFFFFFFFFFFFFFFFFFFFFFFFFFFFFF000FFFFFFFFFFFF
310
FFFFFFFFFFFFFFFFFFFFFFFFFFFFFFFFFFFFFFFFFFFFFFFFFFFFFFFFFFFFFFFF
310
FFFFFFFFFFFFFFFFFFFFFFFFFFFFFFFFFFFFFFFFFFFFFFFFFFFFFFFFFFFFFFFF
310
FFFFFFFFFFFFFFFFFFFFFFFFFFFFFFFFF000FFFFFFFFFFFFFFFFFFFFFFFFFFFF
310
FFFFFFFFFFFFFFFFFFFFFFFFFFFFFFFFFFFFFFFFFFFFFFFFFFFFFFFFFFFFFFFF
310
FFFFFFFFFFFFFFFFFFFFFFFFFFFFFFFFFFFFFFFFFFFFFFFFFFFFFFFFFFFFFFFF
310
FFFFFFFFFFFFFFFFF000FFFFFFFFFFFFFFFFFFFFFFFFFFFFFFFFFFFFFFFFFFFF
310
FFFFFFFFFFFFFFFFFFFFFFFFFFFFFFFFFFFFFFFFFFFFFFFFFFFFFFFFFFFFFFFF
310
FFFFFFFFFFFFFFFFFFFFFFFFFFFFFFFFFFFFFFFFFFFFFFFFFFFFFFFFFFFFFFFF
310
F000FFFFFFFFFFFFFFFFFFFFFFFFFFFFFFFFFFFFFFFFFFFFFFFFFFFFFFFFFFFF
310
FFFFFFFFFFFFFFFFFFFFFFFFFFFFFFFFFFFFFFFFFFFFFFFFFFFFFFFFFFFFFFFF
310
FFFFFFFFFFFFFFFFFFFFFFFFFFFFFFFFFFFFFFFFFFFFFFFFF000FFFFFFFFFFFF
310
FFFFFFFFFFFFFFFFFFFFFFFFFFFFFFFFFFFFFFFFFFFFFFFFFFFFFFFFFFFFFFFF
310
FFFFFFFFFFFFFFFFFFFFFFFFFFFFFFFFFFFFFFFFFFFFFFFFFFFFFFFFFFFFFFFF
310
FFFFFFFFFFFFFFFFFFFFFFFFFFFFFFFFF000FFFFFFFFFFFFFFFFFFFFFFFFFFFF
310
FFFFFFFFFFFFFFFFFFFFFFFFFFFFFFFFFFFFFFFFFFFFFFFFFFFFFFFFFFFFFFFF
310
FFFFFFFFFFFFFFFFFFFFFFFFFFFFFFFFFFFFFFFFFFFFFFFFFFFFFFFFFFFFFFFF
310
FFFFFFFFFFFFFFFFF000FFFFFFFFFFFFFFFFFFFFFFFFFFFFFFFFFFFFFFFFFFFF
310
FFFFFFFFFFFFFFFFFFFFFFFFFFFFFFFFFFFFFFFFFFFFFFFFFFFFFFFFFFFFFFFF
310
FFFFFFFFFFFFFFFFFFFFFFFFFFFFFFFFFFFFFFFFFFFFFFFFFFFFFFFFFFFFFFFF
310
F000FFFFFFFFFFFFFFFFFFFFFFFFFFFFFFFFFFFFFFFFFFFFFFFFFFFFFFFFFFFF
310
FFFFFFFFFFFFFFFFFFFFFFFFFFFFFFFFFFFFFFFFFFFFFFFFFFFFFFFFFFFFFFFF
310
FFFFFFFFFFFFFFFFFFFFFFFFFFFFFFFFFFFFFFFFFFFFFFFFF000FFFFFFFFFFFF
310
FFFFFFFFFFFFFFFFFFFFFFFFFFFFFFFFFFFFFFFFFFFFFFFFFFFFFFFFFFFFFFFF
310
FFFFFFFFFFFFFFFFFFFFFFFFFFFFFFFFFFFFFFFFFFFFFFFFFFFFFFFFFFFFFFFF
310
FFFFFFFFFFFFFFFFFFFFFFFFFFFFFFFFF000FFFFFFFFFFFFFFFFFFFFFFFFFFFF
310
FFFFFFFFFFFFFFFFFFFFFFFFFFFFFFFFFFFFFFFFFFFFFFFFFFFFFFFFFFFFFFFF
310
FFFFFFFFFFFFFFFFFFFFFFFFFFFFFFFFFFFFFFFFFFFFFFFFFFFFFFFFFFFFFFFF
310
FFFFFFFFFFFFFFFFF000FFFFFFFFFFFFFFFFFFFFFFFFFFFFFFFFFFFFFFFFFFFF
310
FFFFFFFFFFFFFFFFFFFFFFFFFFFFFFFFFFFFFFFFFFFFFFFFFFFFFFFFFFFFFFFF
310
FFFFFFFFFFFFFFFFFFFFFFFFFFFFFFFFFFFFFFFFFFFFFFFFFFFFFFFFFFFFFFFF
310
F000FFFFFFFFFFFFFFFFFFFFFFFFFFFFFFFFFFFFFFFFFFFFFFFFFFFFFFFFFFFF
310
FFFFFFFFFFFFFFFFFFFFFFFFFFFFFFFFFFFFFFFFFFFFFFFFFFFFFFFFFFFFFFFF
310
FFFFFFFFFFFFFFFFFFFFFFFFFFFFFFFFFFFFFFFFFFFFFFFFF000FFFFFFFFFFFF
310
FFFFFFFFFFFFFFFFFFFFFFFFFFFFFFFFFFFFFFFFFFFFFFFFFFFFFFFFFFFFFFFF
310
FFFFFFFFFFFFFFFFFFFFFFFFFFFFFFFFFFFFFFFFFFFFFFFFFFFFFFFFFFFFFFFF
310
FFFFFFFFFFFFFFFFFFFFFFFFFFFFFFFFF000FFFFFFFFFFFFFFFFFFFFFFFFFFFF
310
FFFFFFFFFFFFFFFFFFFFFFFFFFFFFFFFFFFFFFFFFFFFFFFFFFFFFFFFFFFFFFFF
310
FFFFFFFFFFFFFFFFFFFFFFFFFFFFFFFFFFFFFFFFFFFFFFFFFFFFFFFFFFFFFFFF
310
FFFFFFFFFFFFFFFFF000FFFFFFFFFFFFFFFFFFFFFFFFFFFFFFFFFFFFFFFFFFFF
310
FFFFFFFFFFFFFFFFFFFFFFFFFFFFFFFFFFFFFFFFFFFFFFFFFFFFFFFFFFFFFFFF
310
FFFFFFFFFFFFFFFFFFFFFFFFFFFFFFFFFFFFFFFFFFFFFFFFFFFFFFFFFFFFFFFF
310
F000FFFFFFFFFFFFFFFFFFFFFFFFFFFFFFFFFFFFFFFFFFFFFFFFFFFFFFFFFFFF
310
FFFFFFFFFFFFFFFFFFFFFFFFFFFFFFFFFFFFFFFFFFFFFFFFFFFFFFFFFFFFFFFF
310
FFFFFFFFFFFFFFFFFFFFFFFFFFFFFFFFFFFFFFFFFFFFFFFFF000FFFFFFFFFFFF
310
FFFFFFFFFFFFFFFFFFFFFFFFFFFFFFFFFFFFFFFFFFFFFFFFFFFFFFFFFFFFFFFF
310
FFFFFFFFFFFFFFFFFFFFFFFFFFFFFFFFFFFFFFFFFFFFFFFFFFFFFFFFFFFFFFFF
310
FFFFFFFFFFFFFFFFFFFFFFFFFFFFFFFFF000FFFFFFFFFFFFFFFFFFFFFFFFFFFF
310
FFFFFFFFFFFFFFFFFFFFFFFFFFFFFFFFFFFFFFFFFFFFFFFFFFFFFFFFFFFFFFFF
310
FFFFFFFFFFFFFFFFFFFFFFFFFFFFFFFFFFFFFFFFFFFFFFFFFFFFFFFFFFFFFFFF
310
FFFFFFFFFFFFFFFFF000FFFFF80003FFFFFFFFFFFFFFFFFFFFFFFFFFFFFFFFFF
310
FFFFF00007FFFFFFFFFF00007FFFFFF800000000000000007FFFFFFFFFFFFFFF
310
FFFFFFFC001FFFFFFFFFFFFFFC001FFFFFFFFFFFFFFFFFFFFFFFFFFE0007FFFF
310
F000FFFF8000007FFFFFFFF8000FFFFFC0007FFFFF80007FFFFF0000007FFFFF
310
FFF8000007FFFFF800000000000000007FFFFFF0001FFFFFFFFFFFC00001FFFF
310
FFFFFFFFC00001FFFFFFFF000000000003FFFFE000007FFFF000FFFE0000000F
310
FFFFFFF0000FFFFF80007FFFFF80007FFFFC0000001FFFFFFFC0000001FFFFF8
310
00000000000000007FFFFFF0001FFFFFFFFFFE0000003FFFFFFFFFFE0000003F
310
FFFFFF000000000003FFFF0000000FFFF000FFF800000003FFFFFFF00007FFFF
310
80007FFFFF80007FFFF000000007FFFFFF000000003FFFF80000000000000000
310
7FFFFFF0001FFFFFFFFFF80000000FFFFFFFFFF80000000FFFFFFF0000000000
310
03FFFC00000003FFF000FFE000000000FFFFFFF00007FFFF80003FFFFF80007F
310
FFC000000001FFFFFC000000001FFFF800000000000000007FFFFFF0001FFFFF
310
FFFFE000000003FFFFFFFFE000000003FFFFFF000000000003FFF000000000FF
310
F000FF80000000007FFFFFF00007FFFF80003FFFFF80007FFF8000000000FFFF
310
F80000000007FFF800000000000000007FFFFFF0001FFFFFFFFFC000000001FF
310
FFFFFFC000000001FFFFFF000000000003FFC0000000007FF000FF0000000000
310
3FFFFFE00007FFFF00003FFFFF80007FFE00000000003FFFF00000000003FFF8
310
00000000000000007FFFFFF0001FFFFFFFFF8000000000FFFFFFFF8000000000
310
FFFFFF000000000003FF80000000003FF000FE00000000001FFFFFE00003FFFF
310
00003FFFFF80007FFC00000000001FFFE00000000001FFF8000001FFFE000000
310
7FFFFFF0001FFFFFFFFE00000000003FFFFFFE00000000003FFFFF0000000000
310
03FF00000000001FF000FC00000000000FFFFFE00003FFFF00001FFFFF80007F
310
F800000000001FFFC00000000000FFF8000001FFFE0000007FFFFFF0001FFFFF
310
FFFC00000000001FFFFFFC00000000001FFFFF000000000003FE00000000000F
310
F000F8000000000007FFFFE00003FFFF00001FFFFF80007FF800000000000FFF
310
800000000000FFF8000001FFFE0000007FFFFFF0001FFFFFFFF800000000000F
310
FFFFF800000000000FFFFF000000000003FC000000000007F000F80000000000
310
03FFFFC00003FFFE00001FFFFF80007FF0000000000007FF0000000000007FF8
310
000001FFFE0000007FFFFFF0001FFFFFFFF0000000000007FFFFF00000000000
310
07FFFF000000000003F8000000000003F000F0000000000003FFFFC00001FFFE
310
00001FFFFF80007FE0000000000007FE0000000000003FF8000001FFFE000000
310
7FFFFFF0001FFFFFFFF0000000000007FFFFF0000000000007FFFF0000000000
310
03F800001F800003F000E00001FFF00001FFFFC00001FFFE00000FFFFF80007F
310
E00001FFE00003FE00001FFF00003FF8000001FFFE0000007FFFFFF0001FFFFF
310
FFE000003E000003FFFFE000003E000003FFFF000000000003F00001FFF80001
310
F000E00007FFFC0001FFFFC00001FFFE00000FFFFF80007FC0000FFFFC0003FC
310
0000FFFFC0001FF8000001FFFE0000007FFFFFF0001FFFFFFFC00003FFE00001
310
FFFFC00003FFE00001FFFF0001FFFFFFFFF00007FFFE0001F000E0000FFFFF00
310
00FFFF800001FFFC00000FFFFF80007FC0001FFFFE0001FC0001FFFFE0001FF8
310
000001FFFE0000007FFFFFF0001FFFFFFF80000FFFF80000FFFF80000FFFF800
310
00FFFF0003FFFFFFFFE0000FFFFF8000F000C0003FFFFF8000FFFF800000FFFC
310
000007FFFF80007F80003FFFFF0001FC0003FFFFF0001FF8000001FFFE000000
310
7FFFFFF0001FFFFFFF80003FFFFE0000FFFF80003FFFFE0000FFFF0003FFFFFF
310
FFE0003FFFFF8000F000C0003FFFFF8000FFFF800000FFFC000007FFFF80007F
310
80007FFFFF8001F80007FFFFF8000FF8000001FFFE0000007FFFFFF0001FFFFF
310
FF00007FFFFF00007FFF00007FFFFF00007FFF0003FFFFFFFFE0003FFFFFC000
310
F000C0007FFFFFC000FFFF000000FFFC000007FFFF80007F8000FFFFFF8000F8
310
000FFFFFF8000FF8000001FFFE0000007FFFFFF0001FFFFFFF0000FFFFFF8000
310
7FFF0000FFFFFF80007FFF0003FFFFFFFFC0007FFFFFC00070008000FFFFFFC0
310
00FFFF000000FFF8000007FFFF80007F8000FFFFFF8000F8000FFFFFF8000FF8
310
000001FFFE0000007FFFFFF0001FFFFFFE0001FFFFFFC0003FFE0001FFFFFFC0
310
003FFF0003FFFFFFFFC0007FFFFFE00070008000FFFFFFC0007FFF0000007FF8
310
000003FFFF80007F0001FFFFFF8000F8000FFFFFF8000FF8000001FFFE000000
310
7FFFFFF0001FFFFFFE0001FFFFFFC0003FFE0001FFFFFFC0003FFF0003FFFFFF
310
FFC000FFFFFFE00070008000FFFFFFC0007FFF0000007FF8000003FFFF80007F
310
0001FFFFFF8000F8001FFFFFF8000FF8000001FFFE0000007FFFFFF0001FFFFF
310
FE0003FFFFFFE0003FFE0003FFFFFFE0003FFF0003FFFFFFFFC000FFFFFFE000
310
70008000FFFFFFC0007FFE0000007FF8000003FFFF80007F0001FFFFFF8000F0
310
001FFFFFF8000FF8000001FFFE0000007FFFFFF0001FFFFFFC0003FFFFFFE000
310
1FFC0003FFFFFFE0001FFF0003FFFFFFFFC000FFFFFFC00070008000FFFFFF80
310
007FFE0000007FF0000003FFFF80007F0001FFFFFF0000F0001FFFFFF8000FF8
310
000001FFFE0000007FFFFFF0001FFFFFFC0007FFFFFFF0001FFC0007FFFFFFF0
310
001FFF0003FFFFFFFFC000FFFFFFC00070008001FFFFFF0000FFFE0000003FF0
310
000001FFFF80007F0001FFFFFF0000F8001FFFFFF0000FF8000001FFFE000000
310
7FFFFFF0001FFFFFFC0007FFFFFFF0001FFC0007FFFFFFF0001FFF0003FFFFFF
310
FFC001FFFFFF80007000FFFFFFFFFE0000FFFE0008003FF0008001FFFF80007F
310
FFFFFFFFFC0000FFFFFFFFFFE0000FF8000001FFFE0000007FFFFFF0001FFFFF
310
F8000FFFFFFFF8000FF8000FFFFFFFF8000FFF0003FFFFFFFFFFFFFFFFFF0000
310
7000FFFFFFFFFC0000FFFC0008003FF0008001FFFF80007FFFFFFFFFF80001FF
310
FFFFFFFF80000FF8000001FFFE0000007FFFFFF0001FFFFFF8000FFFFFFFF800
310
0FF8000FFFFFFFF8000FFF0003FFFFFFFFFFFFFFFFFE0000F000FFFFFFFFE000
310
00FFFC000C003FE000C001FFFF80007FFFFFFFFFC00001FFFFFFFFFE00001FF8
310
000001FFFE0000007FFFFFF0001FFFFFF8000FFFFFFFF8000FF8000FFFFFFFF8
310
000FFF0003FFFFFFFFFFFFFFFFF00000F000FFFFFFFE000001FFFC000C001FE0
310
00C000FFFF80007FFFFFFFFE000001FFFFFFFFE000001FF80FFFFFFFFFFFFFC0
310
7FFFFFF0001FFFFFF8000FFFFFFFF8000FF8000FFFFFFFF8000FFF0003FFFFFF
310
FFFFFFFFFF800000F000FFFFFFC0000001FFFC001C001FE001C000FFFF80007F
310
FFFFFF80000003FFFFFFF80000001FF80FFFFFFFFFFFFFC07FFFFFF0001FFFFF
310
F8001FFFFFFFFC000FF8001FFFFFFFFC000FFF0003FFFFFFFFFFFFFFF0000001
310
F000FFFFF800000001FFF8001C001FE001C000FFFF80007FFFFFF800000003FF
310
FFFF800000003FF80FFFFFFFFFFFFFC07FFFFFF0001FFFFFF8001FFFFFFFFC00
310
0FF8001FFFFFFFFC000FFF0003FFFFFFFFFFFFFE00000001F000FFFFC0000000
310
03FFF8001E001FC001E000FFFF80007FFFFF8000000007FFFFFC000000003FF8
310
0FFFFFFFFFFFFFC07FFFFFF0001FFFFFF8001FFFFFFFFC000FF8001FFFFFFFFC
310
000FFF0003FFFFFFFFFFFFE000000003F000FFFE0000000007FFF8001E000FC0
310
01E0007FFF80007FFFFE0000000007FFFFE0000000007FF80FFFFFFFFFFFFFC0
310
7FFFFFF0001FFFFFF0001FFFFFFFFC0007F0001FFFFFFFFC0007FF0003FFFFFF
310
FFFFFF0000000003F000FFF80000000007FFF8001E000FC003E0007FFF80007F
310
FFF0000000000FFFFF8000000000FFF80FFFFFFFFFFFFFC07FFFFFF0001FFFFF
310
F0001FFFFFFFFC0007F0001FFFFFFFFC0007FF0003FFFFFFFFFFFC0000000007
310
F000FFE0000000000FFFF0003E000FC003E0007FFF80007FFFC0000000001FFF
310
FE0000000001FFF80FFFFFFFFFFFFFC07FFFFFF0001FFFFFF0001FFFFFFFFC00
310
07F0001FFFFFFFFC0007FF0003FFFFFFFFFFF0000000000FF000FFC000000000
310
1FFFF0003F000F8003F0003FFF80007FFF80000000003FFFF80000000003FFF8
310
0FFFFFFFFFFFFFC07FFFFFF0001FFFFFF0001FFFFFFFFC0007F0001FFFFFFFFC
310
0007FF0003FFFFFFFFFFE0000000001FF000FF00000000007FFFF0003F000780
310
03F0003FFF80007FFF00000000007FFFF00000000007FFF80FFFFFFFFFFFFFC0
310
7FFFFFF0001FFFFFF0001FFFFFFFFC0007F0001FFFFFFFFC0007FF0003FFFFFF
310
FFFF80000000007FF000FE0000000000FFFFE0003F00078007F0003FFF80007F
310
FE0000000001FFFFE0000000001FFFF80FFFFFFFFFFFFFC07FFFFFF0001FFFFF
310
F0001FFFFFFFFC0007F0001FFFFFFFFC0007FF0003FFFFFFFFFF0000000000FF
310
F000FC0000000003FFFFE0007F00078007F0003FFF80007FFC0000000007FFFF
310
C0000000007FFFF80FFFFFFFFFFFFFC07FFFFFF0001FFFFFF8001FFFFFFFFC00
310
0FF8001FFFFFFFFC000FFF0003FFFFFFFFFE0000000003FFF000FC000000000F
310
FFFFE0007F80070007F8001FFF80007FF8000000001FFFFF8000000001FFFFF8
310
0FFFFFFFFFFFFFC07FFFFFF0001FFFFFF8001FFFFFFFFC000FF8001FFFFFFFFC
310
000FFF0003FFFFFFFFFC000000000FFFF000F8000000007FFFFFE0007F800700
310
07F8001FFF80007FF000000000FFFFFF800000000FFFFFF80FFFFFFFFFFFFFC0
310
7FFFFFF0001FFFFFF8000FFFFFFFF8000FF8000FFFFFFFF8000FFF0003FFFFFF
310
FFFC000000007FFFF000F800000007FFFFFFC0007F8003000FF8001FFF80007F
310
F000000007FFFFFF000000007FFFFFF80FFFFFFFFFFFFFC07FFFFFF0001FFFFF
310
F8000FFFFFFFF8000FF8000FFFFFFFF8000FFF0003FFFFFFFFF80000000FFFFF
310
F000F0000000FFFFFFFFC000FF8003000FF8001FFF80007FE0000000FFFFFFFF
310
0000000FFFFFFFF8000001FFFE0000007FFFFFF0001FFFFFF8000FFFFFFFF800
310
0FF8000FFFFFFFF8000FFF0003FFFFFFFFF8000000FFFFFFF000F000000FFFFF
310
FFFFC000FFC002000FF8000FFF80007FE000001FFFFFFFFE000001FFFFFFFFF8
310
000001FFFE0000007FFFFFF0001FFFFFF8000FFFFFFFF8000FF8000FFFFFFFF8
310
000FFF0003FFFFFFFFF000001FFFFFFFF000E00000FFFFFFFFFFC000FFC00200
310
0FFC000FFF80007FE00001FFFFFFFFFE00001FFFFFFFFFF8000001FFFE000000
310
7FFFFFF0001FFFFFFC000FFFFFFFF8001FFC000FFFFFFFF8001FFF0003FFFFFF
310
FFF00001FFFFFFFFF000E00007FFFFFFFFFF8000FFC000001FFC000FFF80007F
310
C0000FFFFFFFFFFE0000FFFFFFFFFFF8000001FFFE0000007FFFFFF0001FFFFF
310
FC0007FFFFFFF0001FFC0007FFFFFFF0001FFF0003FFFFFFFFF00007FFFFFFFF
310
F000E0001FFFFFFFFFFF8000FFC000001FFC000FFF80007FC0003FFFFFFFFFFE
310
0001FFFFFFFFFFF8000001FFFE0000007FFFFFF0001FFFFFFC0007FFFFFFF000
310
1FFC0007FFFFFFF0001FFF0003FFFFFFFFF0001FFFFFFFFFF000E0003FFFFF00
310
03FF8001FFE000001FFC0007FF80007FC0007FFFFF0007FC0003FFFFF0003FF8
310
000001FFFE0000007FFFFFF0001FFFFFFC0003FFFFFFE0001FFC0003FFFFFFE0
310
001FFF0003FFFFFFFFF0003FFFFFFFFFF000E0003FFFFF0001FF8001FFE00000
310
1FFE0007FF80007FC0007FFFFE0003FC0007FFFFE0003FF8000001FFFE000000
310
7FFFFFF0001FFFFFFE0003FFFFFFE0003FFE0003FFFFFFE0003FFF0003FFFFFF
310
FFF0003FFFFF8001F000E0003FFFFF0001FF0001FFE000001FFE0007FF80007F
310
C0007FFFFE0003FC0007FFFFE0003FF8000001FFFE0000007FFFFFF0001FFFFF
310
FE0001FFFFFFC0003FFE0001FFFFFFC0003FFF0003FFFFFFFFF0003FFFFF0001
310
F000E0003FFFFF0003FF0001FFE000003FFE0007FF80007FC0007FFFFE0003FC
310
0007FFFFE0003FF8000001FFFE0000007FFFFFF0001FFFFFFF0001FFFFFFC000
310
7FFF0001FFFFFFC0007FFF0003FFFFFFFFF0003FFFFF0001F000E0003FFFFE00
310
03FF0003FFF000003FFE0003FF80007FC0007FFFFC0003FE0007FFFFE0003FF8
310
000001FFFE0000007FFFFFF0001FFFFFFF0000FFFFFF80007FFF0000FFFFFF80
310
007FFF0003FFFFFFFFF0003FFFFF0001F000E0003FFFFE0003FF0003FFF00000
310
3FFF0003FF80007FC0007FFFFC0007FE0007FFFFC0003FF8000001FFFE000000
310
7FFFFFF0001FFFFFFF80007FFFFF0000FFFF80007FFFFF0000FFFF0003FFFFFF
310
FFF0003FFFFF0003F000E0003FFFFC0003FE0003FFF000003FFF0003FF80007F
310
E0003FFFF80007FE0003FFFFC0007FF8000001FFFE0000007FFFFFF0001FFFFF
310
FF80003FFFFE0000FFFF80003FFFFE0000FFFF0003FFFFFFFFF0001FFFFE0003
310
F000F0001FFFF80003FE0003FFF000007FFF0001FF80007FE0003FFFF00007FE
310
0001FFFF80007FF8000001FFFE0000007FFFFFF0001FFFFFFFC0000FFFF80001
310
FFFFC0000FFFF80001FFFF0003FFFFFFFFF0001FFFFC0003F000F0000FFFF000
310
07FE0007FFF800007FFF0001FF80007FE0001FFFE00007FF0000FFFE00007FF8
310
000001FFFE0000007FFFFFF0001FFFFFFFC00003FFE00001FFFFC00003FFE000
310
01FFFF0003FFFFFFFFF8000FFFF80003F000F00003FFC00007FC0007FFF80000
310
7FFF8001FF80007FF00007FF80000FFF00007FF80000FFF8000001FFFE000000
310
7F80000000000001FFE000003E000003FFFFE000003E000003FFFF0003FFFFFF
310
FFF80003FFE00007F000F800000000000FFC0007FFF800007FFF8001FF80007F
310
F000000000000FFF000000000000FFF8000001FFFE0000007F80000000000001
310
FFF0000000000007FFFFF0000000000007FFFF0003FFFFFFFFFC00007E000007
310
F000F800000000000FFC0007FFF80000FFFF8000FF80007FF800000000001FFF
310
800000000001FFF8000001FFFE0000007F80000000000001FFF800000000000F
310
FFFFF800000000000FFFFF0003FFFFFFFFFC00000000000FF000FC0000000000
310
1FFC0007FFFC0000FFFF8000FF80007FF800000000003FFFC00000000001FFF8
310
000001FFFE0000007F80000000000001FFF800000000000FFFFFF80000000000
310
0FFFFF0003FFFFFFFFFE00000000001FF000FE00000000003FF8000FFFFC0000
310
FFFF8000FF80007FFC00000000003FFFC00000000003FFF8000001FFFE000000
310
7F80000000000001FFFC00000000001FFFFFFC00000000001FFFFF0003FFFFFF
310
FFFF00000000001FF000FF00000000003FF8000FFFFC0000FFFFC000FF80007F
310
FE00000000007FFFE00000000007FFF8000001FFFE0000007F80000000000001
310
FFFE00000000003FFFFFFE00000000003FFFFF0003FFFFFFFFFF80000000003F
310
F000FF80000000007FF8000FFFFC0001FFFFC0007F80007FFF0000000000FFFF
310
F0000000000FFFF800000000000000007F80000000000001FFFF8000000000FF
310
FFFFFF8000000000FFFFFF0003FFFFFFFFFFC0000000007FF000FFC000000000
310
FFF8000FFFFE0001FFFFC0007F80007FFF8000000001FFFFF8000000001FFFF8
310
00000000000000007F80000000000001FFFFC000000001FFFFFFFFC000000001
310
FFFFFF0003FFFFFFFFFFE000000000FFF000FFE000000003FFF0001FFFFE0001
310
FFFFC0007F80007FFFC000000007FFFFFE000000003FFFF80000000000000000
310
7F80000000000001FFFFE000000003FFFFFFFFE000000003FFFFFF0003FFFFFF
310
FFFFF000000003FFF000FFF80000000FFFF0001FFFFE0001FFFFE0007F80007F
310
FFF00000000FFFFFFF00000000FFFFF800000000000000007F80000000000001
310
FFFFF80000000FFFFFFFFFF80000000FFFFFFF0003FFFFFFFFFFFC0000000FFF
310
F000FFFE0000003FFFF0001FFFFE0003FFFFE0003F80007FFFFC0000003FFFFF
310
FFC0000003FFFFF800000000000000007F80000000000001FFFFFE0000003FFF
310
FFFFFFFE0000003FFFFFFF0003FFFFFFFFFFFF0000003FFFF000FFFF800000FF
310
FFF0001FFFFF0003FFFFE0003F80007FFFFF000001FFFFFFFFF800001FFFFFF8
310
00000000000000007F80000000000001FFFFFFC00001FFFFFFFFFFFFC00001FF
310
FFFFFF0003FFFFFFFFFFFFC00000FFFFF000FFFFF8000FFFFFFFFFFFFFFFFFFF
310
FFFFFFFFFFFFFFFFFFFFF0001FFFFFFFFFFF0000FFFFFFF80000000000000000
310
7FFFFFFFFFFFFFFFFFFFFFFC001FFFFFFFFFFFFFFC001FFFFFFFFFFFFFFFFFFF
310
FFFFFFFC001FFFFFF000FFFFFFFFFFFFFFFFFFFFFFFFFFFFFFFFFFFFFFFFFFFF
310
FFFFFFFFFFFFFFFFFFFFFFFFFFFFFFFFFFFFFFFFFFFFFFFFFFFFFFFFFFFFFFFF
310
FFFFFFFFFFFFFFFFFFFFFFFFFFFFFFFFFFFFFFFFFFFFFFFFFFFFFFFFFFFFFFFF
310
F000FFFFFFFFFFFFFFFFFFFFFFFFFFFFFFFFFFFFFFFFFFFFFFFFFFFFFFFFFFFF
310
FFFFFFFFFFFFFFFFFFFFFFFFFFFFFFFFFFFFFFFFFFFFFFFFFFFFFFFFFFFFFFFF
310
FFFFFFFFFFFFFFFFFFFFFFFFFFFFFFFFFFFFFFFFFFFFFFFFF000FFFFFFFFFFFF
310
FFFFFFFFFFFFFFFFFFFFFFFFFFFFFFFFFFFFFFFFFFFFFFFFFFFFFFFFFFFFFFFF
310
FFFFFFFFFFFFFFFFFFFFFFFFFFFFFFFFFFFFFFFFFFFFFFFFFFFFFFFFFFFFFFFF
310
FFFFFFFFFFFFFFFFFFFFFFFFFFFFFFFFF000FFFFFFFFFFFFFFFFFFFFFFFFFFFF
310
FFFFFFFFFFFFFFFFFFFFFFFFFFFFFFFFFFFFFFFFFFFFFFFFFFFFFFFFFFFFFFFF
310
FFFFFFFFFFFFFFFFFFFFFFFFFFFFFFFFFFFFFFFFFFFFFFFFFFFFFFFFFFFFFFFF
310
FFFFFFFFFFFFFFFFF000FFFFFFFFFFFFFFFFFFFFFFFFFFFFFFFFFFFFFFFFFFFF
310
FFFFFFFFFFFFFFFFFFFFFFFFFFFFFFFFFFFFFFFFFFFFFFFFFFFFFFFFFFFFFFFF
310
FFFFFFFFFFFFFFFFFFFFFFFFFFFFFFFFFFFFFFFFFFFFFFFFFFFFFFFFFFFFFFFF
310
F000FFFFFFFFFFFFFFFFFFFFFFFFFFFFFFFFFFFFFFFFFFFFFFFFFFFFFFFFFFFF
310
FFFFFFFFFFFFFFFFFFFFFFFFFFFFFFFFFFFFFFFFFFFFFFFFFFFFFFFFFFFFFFFF
310
FFFFFFFFFFFFFFFFFFFFFFFFFFFFFFFFFFFFFFFFFFFFFFFFF000FFFFFFFFFFFF
310
FFFFFFFFFFFFFFFFFFFFFFFFFFFFFFFFFFFFFFFFFFFFFFFFFFFFFFFFFFFFFFFF
310
FFFFFFFFFFFFFFFFFFFFFFFFFFFFFFFFFFFFFFFFFFFFFFFFFFFFFFFFFFFFFFFF
310
FFFFFFFFFFFFFFFFFFFFFFFFFFFFFFFFF000FFFFFFFFFFFFFFFFFFFFFFFFFFFF
310
FFFFFFFFFFFFFFFFFFFFFFFFFFFFFFFFFFFFFFFFFFFFFFFFFFFFFFFFFFFFFFFF
310
FFFFFFFFFFFFFFFFFFFFFFFFFFFFFFFFFFFFFFFFFFFFFFFFFFFFFFFFFFFFFFFF
310
FFFFFFFFFFFFFFFFF000FFFFFFFFFFFFFFFFFFFFFFFFFFFFFFFFFFFFFFFFFFFF
310
FFFFFFFFFFFFFFFFFFFFFFFFFFFFFFFFFFFFFFFFFFFFFFFFFFFFFFFFFFFFFFFF
310
FFFFFFFFFFFFFFFFFFFFFFFFFFFFFFFFFFFFFFFFFFFFFFFFFFFFFFFFFFFFFFFF
310
F000FFFFFFFFFFFFFFFFFFFFFFFFFFFFFFFFFFFFFFFFFFFFFFFFFFFFFFFFFFFF
310
FFFFFFFFFFFFFFFFFFFFFFFFFFFFFFFFFFFFFFFFFFFFFFFFFFFFFFFFFFFFFFFF
310
FFFFFFFFFFFFFFFFFFFFFFFFFFFFFFFFFFFFFFFFFFFFFFFFF000FFFFFFFFFFFF
310
FFFFFFFFFFFFFFFFFFFFFFFFFFFFFFFFFFFFFFFFFFFFFFFFFFFFFFFFFFFFFFFF
310
FFFFFFFFFFFFFFFFFFFFFFFFFFFFFFFFFFFFFFFFFFFFFFFFFFFFFFFFFFFFFFFF
310
FFFFFFFFFFFFFFFFFFFFFFFFFFFFFFFFF000FFFFFFFFFFFFFFFFFFFFFFFFFFFF
310
FFFFFFFFFFFFFFFFFFFFFFFFFFFFFFFFFFFFFFFFFFFFFFFFFFFFFFFFFFFFFFFF
310
FFFFFFFFFFFFFFFFFFFFFFFFFFFFFFFFFFFFFFFFFFFFFFFFFFFFFFFFFFFFFFFF
310
FFFFFFFFFFFFFFFFF000FFFFFFFFFFFFFFFFFFFFFFFFFFFFFFFFFFFFFFFFFFFF
310
FFFFFFFFFFFFFFFFFFFFFFFFFFFFFFFFFFFFFFFFFFFFFFFFFFFFFFFFFFFFFFFF
310
FFFFFFFFFFFFFFFFFFFFFFFFFFFFFFFFFFFFFFFFFFFFFFFFFFFFFFFFFFFFFFFF
310
F000FFFFFFFFFFFFFFFFFFFFFFFFFFFFFFFFFFFFFFFFFFFFFFFFFFFFFFFFFFFF
310
FFFFFFFFFFFFFFFFFFFFFFFFFFFFFFFFFFFFFFFFFFFFFFFFFFFFFFFFFFFFFFFF
310
FFFFFFFFFFFFFFFFFFFFFFFFFFFFFFFFFFFFFFFFFFFFFFFFF000FFFFFFFFFFFF
310
FFFFFFFFFFFFFFFFFFFFFFFFFFFFFFFFFFFFFFFFFFFFFFFFFFFFFFFFFFFFFFFF
310
FFFFFFFFFFFFFFFFFFFFFFFFFFFFFFFFFFFFFFFFFFFFFFFFFFFFFFFFFFFFFFFF
310
FFFFFFFFFFFFFFFFFFFFFFFFFFFFFFFFF000FFFFFFFFFFFFFFFFFFFFFFFFFFFF
310
FFFFFFFFFFFFFFFFFFFFFFFFFFFFFFFFFFFFFFFFFFFFFFFFFFFFFFFFFFFFFFFF
310
FFFFFFFFFFFFFFFFFFFFFFFFFFFFFFFFFFFFFFFFFFFFFFFFFFFFFFFFFFFFFFFF
310
FFFFFFFFFFFFFFFFF000FFFFFFFFFFFFFFFFFFFFFFFFFFFFFFFFFFFFFFFFFFFF
310
FFFFFFFFFFFFFFFFFFFFFFFFFFFFFFFFFFFFFFFFFFFFFFFFFFFFFFFFFFFFFFFF
310
FFFFFFFFFFFFFFFFFFFFFFFFFFFFFFFFFFFFFFFFFFFFFFFFFFFFFFFFFFFFFFFF
310
F000FFFFFFFFFFFFFFFFFFFFFFFFFFFFFFFFFFFFFFFFFFFFFFFFFFFFFFFFFFFF
310
FFFFFFFFFFFFFFFFFFFFFFFFFFFFFFFFFFFFFFFFFFFFFFFFFFFFFFFFFFFFFFFF
310
FFFFFFFFFFFFFFFFFFFFFFFFFFFFFFFFFFFFFFFFFFFFFFFFF000FFFFFFFFFFFF
310
FFFFFFFFFFFFFFFFFFFFFFFFFFFFFFFFFFFFFFFFFFFFFFFFFFFFFFFFFFFFFFFF
310
FFFFFFFFFFFFFFFFFFFFFFFFFFFFFFFFFFFFFFFFFFFFFFFFFFFFFFFFFFFFFFFF
310
FFFFFFFFFFFFFFFFFFFFFFFFFFFFFFFFF000FFFFFFFFFFFFFFFFFFFFFFFFFFFF
310
FFFFFFFFFFFFFFFFFFFFFFFFFFFFFFFFFFFFFFFFFFFFFFFFFFFFFFFFFFFFFFFF
310
FFFFFFFFFFFFFFFFFFFFFFFFFFFFFFFFFFFFFFFFFFFFFFFFFFFFFFFFFFFFFFFF
310
FFFFFFFFFFFFFFFFF000FFFFFFFFFFFFFFFFFFFFFFFFFFFFFFFFFFFFFFFFFFFF
310
FFFFFFFFFFFFFFFFFFFFFFFFFFFFFFFFFFFFFFFFFFFFFFFFFFFFFFFFFFFFFFFF
310
FFFFFFFFFFFFFFFFFFFFFFFFFFFFFFFFFFFFFFFFFFFFFFFFFFFFFFFFFFFFFFFF
310
F000FFFFFFFFFFFFFFFFFFFFFFFFFFFFFFFFFFFFFFFFFFFFFFFFFFFFFFFFFFFF
310
FFFFFFFFFFFFFFFFFFFFFFFFFFFFFFFFFFFFFFFFFFFFFFFFFFFFFFFFFFFFFFFF
310
FFFFFFFFFFFFFFFFFFFFFFFFFFFFFFFFFFFFFFFFFFFFFFFFF000FFFFFFFFFFFF
310
FFFFFFFFFFFFFFFFFFFFFFFFFFFFFFFFFFFFFFFFFFFFFFFFFFFFFFFFFFFFFFFF
310
FFFFFFFFFFFFFFFFFFFFFFFFFFFFFFFFFFFFFFFFFFFFFFFFFFFFFFFFFFFFFFFF
310
FFFFFFFFFFFFFFFFFFFFFFFFFFFFFFFFF0000000000000000000000000000000
310
0000000000000000000000000000000000000000000000000000000000000000
310
0000000000000000000000000000000000000000000000000000000000000000
310
0000000000000000000000000000000000000000000000000000000000000000
310
0000000000000000000000000000000000000000000000000000000000000000
310
0000000000000000000000000000000000000000000000000000000000000000
310
0000000000000000000000000000000000000000000000000000000000000000
310
0000000000000000000000000000000000000000000000000000000000000000
310
0000000000000000000000000000000000000000000000000000000000000000
310
0000000000000000000000000000000000000000000000000000000000000000
310
0000000000000000000000000000000000000000000000000000000000000000
310
0000000000000000000000000000000000000000000000000000000000000000
310
0000000000000000000000000000000000000000000000000000000000000000
310
0000000000000000000000000000000000000000000000000000000000000000
310
0000000000000000000000000000000000000000000000000000000000000000
310
0000000000000000000000000000000000000000000000000000000000000000
  1
OLE
  0
ENDSEC
  0
SECTION
  2
OBJECTS
  0
DICTIONARY
  5
C
330
0
100
AcDbDictionary
281
     1
  3
ACAD_GROUP
350
D
  3
ACAD_LAYOUT
350
1A
  3
ACAD_MLINESTYLE
350
17
  3
ACAD_PLOTSETTINGS
350
19
  3
ACAD_PLOTSTYLENAME
350
E
  3
ACAD_SCALELIST
350
47
  0
DICTIONARY
  5
D
102
{ACAD_REACTORS
330
C
102
}
330
C
100
AcDbDictionary
281
     1
  0
DICTIONARY
  5
1A
102
{ACAD_REACTORS
330
C
102
}
330
C
100
AcDbDictionary
281
     1
  3
Layout1
350
1E
  3
Layout2
350
26
  3
Model
350
22
  0
DICTIONARY
  5
17
102
{ACAD_REACTORS
330
C
102
}
330
C
100
AcDbDictionary
281
     1
  3
Standard
350
18
  0
DICTIONARY
  5
19
102
{ACAD_REACTORS
330
C
102
}
330
C
100
AcDbDictionary
281
     1
  0
ACDBDICTIONARYWDFLT
  5
E
102
{ACAD_REACTORS
330
C
102
}
330
C
100
AcDbDictionary
281
     1
  3
Normal
350
F
100
AcDbDictionaryWithDefault
340
F
  0
DICTIONARY
  5
47
102
{ACAD_REACTORS
330
C
102
}
330
C
100
AcDbDictionary
281
     1
  3
A0
350
48
  3
A1
350
49
  3
A2
350
4A
  3
A3
350
4B
  3
A4
350
4C
  3
A5
350
4D
  3
A6
350
4E
  3
A7
350
4F
  3
A8
350
50
  3
A9
350
51
  3
B0
350
52
  3
B1
350
53
  3
B2
350
54
  3
B3
350
55
  3
B4
350
56
  3
B5
350
57
  3
B6
350
58
  3
B7
350
59
  3
B8
350
5A
  3
B9
350
5B
  3
C0
350
5C
  3
C1
350
5D
  3
C2
350
5E
  3
C3
350
5F
  3
C4
350
60
  3
C5
350
61
  3
C6
350
62
  3
C7
350
63
  3
C8
350
64
  3
C9
350
65
  3
D0
350
66
  3
D1
350
67
  3
D2
350
68
  0
LAYOUT
  5
1E
102
{ACAD_REACTORS
330
1A
102
}
330
1A
100
AcDbPlotSettings
  1

  2
none_device
  4

  6

 40
0.0
 41
0.0
 42
0.0
 43
0.0
 44
0.0
 45
0.0
 46
0.0
 47
0.0
 48
0.0
 49
0.0
140
0.0
141
0.0
142
1.0
143
1.0
 70
   688
 72
     1
 73
     0
 74
     5
  7

 75
    16
147
1.0
148
0.0
149
0.0
100
AcDbLayout
  1
Layout1
 70
     1
 71
     1
 10
0.0
 20
0.0
 11
420.0
 21
297.0
 12
0.0
 22
0.0
 32
0.0
 14
1.0000000000E+20
 24
1.0000000000E+20
 34
1.0000000000E+20
 15
-1.0000000000E+20
 25
-1.0000000000E+20
 35
-1.0000000000E+20
146
0.0
 13
0.0
 23
0.0
 33
0.0
 16
1.0
 26
0.0
 36
0.0
 17
0.0
 27
1.0
 37
0.0
 76
     0
330
1B
  0
LAYOUT
  5
26
102
{ACAD_REACTORS
330
1A
102
}
330
1A
100
AcDbPlotSettings
  1

  2
none_device
  4

  6

 40
0.0
 41
0.0
 42
0.0
 43
0.0
 44
0.0
 45
0.0
 46
0.0
 47
0.0
 48
0.0
 49
0.0
140
0.0
141
0.0
142
1.0
143
1.0
 70
   688
 72
     1
 73
     0
 74
     5
  7

 75
    16
147
1.0
148
0.0
149
0.0
100
AcDbLayout
  1
Layout2
 70
     1
 71
     2
 10
0.0
 20
0.0
 11
0.0
 21
0.0
 12
0.0
 22
0.0
 32
0.0
 14
0.0
 24
0.0
 34
0.0
 15
0.0
 25
0.0
 35
0.0
146
0.0
 13
0.0
 23
0.0
 33
0.0
 16
1.0
 26
0.0
 36
0.0
 17
0.0
 27
1.0
 37
0.0
 76
     0
330
23
  0
LAYOUT
  5
22
102
{ACAD_REACTORS
330
1A
102
}
330
1A
100
AcDbPlotSettings
  1

  2
none_device
  4
Letter_(8.50_x_11.00_Inches)
  6

 40
6.35
 41
6.35
 42
6.35000508
 43
6.35000508
 44
215.9
 45
279.4
 46
0.0
 47
0.0
 48
0.0
 49
0.0
140
0.0
141
0.0
142
1.0
143
1.0
 70
  1712
 72
     1
 73
     0
 74
     0
  7

 75
     0
147
1.0
148
0.0
149
0.0
100
AcDbLayout
  1
Model
 70
     1
 71
     0
 10
0.0
 20
0.0
 11
297.0
 21
210.0
 12
0.0
 22
0.0
 32
0.0
 14
0.0
 24
0.0
 34
0.0
 15
297.0
 25
210.0
 35
0.0
146
0.0
 13
0.0
 23
0.0
 33
0.0
 16
1.0
 26
0.0
 36
0.0
 17
0.0
 27
1.0
 37
0.0
 76
     0
330
1F
331
29
  0
MLINESTYLE
  5
18
102
{ACAD_REACTORS
330
17
102
}
330
17
100
AcDbMlineStyle
  2
Standard
 70
     0
  3

 62
   256
 51
90.0
 52
90.0
 71
     2
 49
0.5
 62
   256
  6
BYLAYER
 49
-0.5
 62
   256
  6
BYLAYER
  0
ACDBPLACEHOLDER
  5
F
102
{ACAD_REACTORS
330
E
102
}
330
E
  0
SCALE
  5
48
102
{ACAD_REACTORS
330
47
102
}
330
47
100
AcDbScale
 70
     0
300
1:1
140
1.0
141
1.0
290
     1
  0
SCALE
  5
49
102
{ACAD_REACTORS
330
47
102
}
330
47
100
AcDbScale
 70
     0
300
1:2
140
1.0
141
2.0
290
     0
  0
SCALE
  5
4A
102
{ACAD_REACTORS
330
47
102
}
330
47
100
AcDbScale
 70
     0
300
1:4
140
1.0
141
4.0
290
     0
  0
SCALE
  5
4B
102
{ACAD_REACTORS
330
47
102
}
330
47
100
AcDbScale
 70
     0
300
1:5
140
1.0
141
5.0
290
     0
  0
SCALE
  5
4C
102
{ACAD_REACTORS
330
47
102
}
330
47
100
AcDbScale
 70
     0
300
1:8
140
1.0
141
8.0
290
     0
  0
SCALE
  5
4D
102
{ACAD_REACTORS
330
47
102
}
330
47
100
AcDbScale
 70
     0
300
1:10
140
1.0
141
10.0
290
     0
  0
SCALE
  5
4E
102
{ACAD_REACTORS
330
47
102
}
330
47
100
AcDbScale
 70
     0
300
1:16
140
1.0
141
16.0
290
     0
  0
SCALE
  5
4F
102
{ACAD_REACTORS
330
47
102
}
330
47
100
AcDbScale
 70
     0
300
1:20
140
1.0
141
20.0
290
     0
  0
SCALE
  5
50
102
{ACAD_REACTORS
330
47
102
}
330
47
100
AcDbScale
 70
     0
300
1:30
140
1.0
141
30.0
290
     0
  0
SCALE
  5
51
102
{ACAD_REACTORS
330
47
102
}
330
47
100
AcDbScale
 70
     0
300
1:40
140
1.0
141
40.0
290
     0
  0
SCALE
  5
52
102
{ACAD_REACTORS
330
47
102
}
330
47
100
AcDbScale
 70
     0
300
1:50
140
1.0
141
50.0
290
     0
  0
SCALE
  5
53
102
{ACAD_REACTORS
330
47
102
}
330
47
100
AcDbScale
 70
     0
300
1:100
140
1.0
141
100.0
290
     0
  0
SCALE
  5
54
102
{ACAD_REACTORS
330
47
102
}
330
47
100
AcDbScale
 70
     0
300
2:1
140
2.0
141
1.0
290
     0
  0
SCALE
  5
55
102
{ACAD_REACTORS
330
47
102
}
330
47
100
AcDbScale
 70
     0
300
4:1
140
4.0
141
1.0
290
     0
  0
SCALE
  5
56
102
{ACAD_REACTORS
330
47
102
}
330
47
100
AcDbScale
 70
     0
300
8:1
140
8.0
141
1.0
290
     0
  0
SCALE
  5
57
102
{ACAD_REACTORS
330
47
102
}
330
47
100
AcDbScale
 70
     0
300
10:1
140
10.0
141
1.0
290
     0
  0
SCALE
  5
58
102
{ACAD_REACTORS
330
47
102
}
330
47
100
AcDbScale
 70
     0
300
100:1
140
100.0
141
1.0
290
     0
  0
SCALE
  5
59
102
{ACAD_REACTORS
330
47
102
}
330
47
100
AcDbScale
 70
     0
300
1/128" = 1'-0"
140
0.0078125
141
12.0
290
     0
  0
SCALE
  5
5A
102
{ACAD_REACTORS
330
47
102
}
330
47
100
AcDbScale
 70
     0
300
1/64" = 1'-0"
140
0.015625
141
12.0
290
     0
  0
SCALE
  5
5B
102
{ACAD_REACTORS
330
47
102
}
330
47
100
AcDbScale
 70
     0
300
1/32" = 1'-0"
140
0.03125
141
12.0
290
     0
  0
SCALE
  5
5C
102
{ACAD_REACTORS
330
47
102
}
330
47
100
AcDbScale
 70
     0
300
1/16" = 1'-0"
140
0.0625
141
12.0
290
     0
  0
SCALE
  5
5D
102
{ACAD_REACTORS
330
47
102
}
330
47
100
AcDbScale
 70
     0
300
3/32" = 1'-0"
140
0.09375
141
12.0
290
     0
  0
SCALE
  5
5E
102
{ACAD_REACTORS
330
47
102
}
330
47
100
AcDbScale
 70
     0
300
1/8" = 1'-0"
140
0.125
141
12.0
290
     0
  0
SCALE
  5
5F
102
{ACAD_REACTORS
330
47
102
}
330
47
100
AcDbScale
 70
     0
300
3/16" = 1'-0"
140
0.1875
141
12.0
290
     0
  0
SCALE
  5
60
102
{ACAD_REACTORS
330
47
102
}
330
47
100
AcDbScale
 70
     0
300
1/4" = 1'-0"
140
0.25
141
12.0
290
     0
  0
SCALE
  5
61
102
{ACAD_REACTORS
330
47
102
}
330
47
100
AcDbScale
 70
     0
300
3/8" = 1'-0"
140
0.375
141
12.0
290
     0
  0
SCALE
  5
62
102
{ACAD_REACTORS
330
47
102
}
330
47
100
AcDbScale
 70
     0
300
1/2" = 1'-0"
140
0.5
141
12.0
290
     0
  0
SCALE
  5
63
102
{ACAD_REACTORS
330
47
102
}
330
47
100
AcDbScale
 70
     0
300
3/4" = 1'-0"
140
0.75
141
12.0
290
     0
  0
SCALE
  5
64
102
{ACAD_REACTORS
330
47
102
}
330
47
100
AcDbScale
 70
     0
300
1" = 1'-0"
140
1.0
141
12.0
290
     0
  0
SCALE
  5
65
102
{ACAD_REACTORS
330
47
102
}
330
47
100
AcDbScale
 70
     0
300
1-1/2" = 1'-0"
140
1.5
141
12.0
290
     0
  0
SCALE
  5
66
102
{ACAD_REACTORS
330
47
102
}
330
47
100
AcDbScale
 70
     0
300
3" = 1'-0"
140
3.0
141
12.0
290
     0
  0
SCALE
  5
67
102
{ACAD_REACTORS
330
47
102
}
330
47
100
AcDbScale
 70
     0
300
6" = 1'-0"
140
6.0
141
12.0
290
     0
  0
SCALE
  5
68
102
{ACAD_REACTORS
330
47
102
}
330
47
100
AcDbScale
 70
     0
300
1'-0" = 1'-0"
140
12.0
141
12.0
290
     0
  0
ENDSEC
  0
EOF
