  0
SECTION
  2
HEADER
  9
$ACADVER
  1
AC1015
  9
$ACADMAINTVER
 70
     6
  9
$DWGCODEPAGE
  3
ANSI_1252
  9
$INSBASE
 10
0.0
 20
0.0
 30
0.0
  9
$EXTMIN
 10
0.0
 20
0.0
 30
0.0
  9
$EXTMAX
 10
297.0
 20
210.0
 30
0.0
  9
$LIMMIN
 10
0.0
 20
0.0
  9
$LIMMAX
 10
297.0
 20
210.0
  9
$ORTHOMODE
 70
     0
  9
$REGENMODE
 70
     1
  9
$FILLMODE
 70
     1
  9
$QTEXTMODE
 70
     0
  9
$MIRRTEXT
 70
     1
  9
$LTSCALE
 40
1.0
  9
$ATTMODE
 70
     1
  9
$TEXTSIZE
 40
2.0
  9
$TRACEWID
 40
1.0
  9
$TEXTSTYLE
  7
Standard
  9
$CLAYER
  8
0
  9
$CELTYPE
  6
ByLayer
  9
$CECOLOR
 62
   256
  9
$CELTSCALE
 40
1.0
  9
$DISPSILH
 70
     0
  9
$DIMSCALE
 40
1.0
  9
$DIMASZ
 40
3.0
  9
$DIMEXO
 40
0.0
  9
$DIMDLI
 40
3.75
  9
$DIMRND
 40
0.0
  9
$DIMDLE
 40
0.0
  9
$DIMEXE
 40
1.0
  9
$DIMTP
 40
0.0
  9
$DIMTM
 40
0.0
  9
$DIMTXT
 40
2.0
  9
$DIMCEN
 40
2.5
  9
$DIMTSZ
 40
0.0
  9
$DIMTOL
 70
     0
  9
$DIMLIM
 70
     0
  9
$DIMTIH
 70
     1
  9
$DIMTOH
 70
     1
  9
$DIMSE1
 70
     0
  9
$DIMSE2
 70
     0
  9
$DIMTAD
 70
     1
  9
$DIMZIN
 70
     0
  9
$DIMBLK
  1

  9
$DIMASO
 70
     1
  9
$DIMSHO
 70
     1
  9
$DIMPOST
  1

  9
$DIMAPOST
  1

  9
$DIMALT
 70
     0
  9
$DIMALTD
 70
     3
  9
$DIMALTF
 40
0.0393700787
  9
$DIMLFAC
 40
1.0
  9
$DIMTOFL
 70
     1
  9
$DIMTVP
 40
0.0
  9
$DIMTIX
 70
     0
  9
$DIMSOXD
 70
     0
  9
$DIMSAH
 70
     0
  9
$DIMBLK1
  1

  9
$DIMBLK2
  1

  9
$DIMSTYLE
  2
ISO-25
  9
$DIMCLRD
 70
     0
  9
$DIMCLRE
 70
     0
  9
$DIMCLRT
 70
     0
  9
$DIMTFAC
 40
1.0
  9
$DIMGAP
 40
1.524
  9
$DIMJUST
 70
     0
  9
$DIMSD1
 70
     0
  9
$DIMSD2
 70
     0
  9
$DIMTOLJ
 70
     0
  9
$DIMTZIN
 70
     0
  9
$DIMALTZ
 70
     0
  9
$DIMALTTZ
 70
     0
  9
$DIMUPT
 70
     0
  9
$DIMDEC
 70
     2
  9
$DIMTDEC
 70
     3
  9
$DIMALTU
 70
     2
  9
$DIMALTTD
 70
     3
  9
$DIMTXSTY
  7
Standard
  9
$DIMAUNIT
 70
     0
  9
$DIMADEC
 70
     2
  9
$DIMALTRND
 40
0.0
  9
$DIMAZIN
 70
     0
  9
$DIMDSEP
 70
    44
  9
$DIMATFIT
 70
     3
  9
$DIMFRAC
 70
     0
  9
$DIMLDRBLK
  1

  9
$DIMLUNIT
 70
     2
  9
$DIMLWD
 70
    -2
  9
$DIMLWE
 70
    -2
  9
$DIMTMOVE
 70
     0
  9
$LUNITS
 70
     2
  9
$LUPREC
 70
     2
  9
$SKETCHINC
 40
1.0
  9
$FILLETRAD
 40
10.0
  9
$AUNITS
 70
     0
  9
$AUPREC
 70
     2
  9
$MENU
  1
.
  9
$ELEVATION
 40
0.0
  9
$PELEVATION
 40
0.0
  9
$THICKNESS
 40
0.0
  9
$LIMCHECK
 70
     0
  9
$CHAMFERA
 40
0.0
  9
$CHAMFERB
 40
0.0
  9
$CHAMFERC
 40
0.0
  9
$CHAMFERD
 40
0.0
  9
$SKPOLY
 70
     0
  9
$TDCREATE
 40
2457669.622580243
  9
$TDUCREATE
 40
2457669.53924691
  9
$TDUPDATE
 40
2457669.622581366
  9
$TDUUPDATE
 40
2457669.539248032
  9
$TDINDWG
 40
0.0000000116
  9
$TDUSRTIMER
 40
0.0000000116
  9
$USRTIMER
 70
     1
  9
$ANGBASE
 50
0.0
  9
$ANGDIR
 70
     0
  9
$PDMODE
 70
     0
  9
$PDSIZE
 40
-1.0
  9
$PLINEWID
 40
0.0
  9
$SPLFRAME
 70
     0
  9
$SPLINETYPE
 70
     6
  9
$SPLINESEGS
 70
     8
  9
$HANDSEED
  5
1E0
  9
$SURFTAB1
 70
     6
  9
$SURFTAB2
 70
     6
  9
$SURFTYPE
 70
     6
  9
$SURFU
 70
     6
  9
$SURFV
 70
     6
  9
$UCSBASE
  2

  9
$UCSNAME
  2

  9
$UCSORG
 10
0.0
 20
0.0
 30
0.0
  9
$UCSXDIR
 10
1.0
 20
0.0
 30
0.0
  9
$UCSYDIR
 10
0.0
 20
1.0
 30
0.0
  9
$UCSORTHOREF
  2

  9
$UCSORTHOVIEW
 70
     0
  9
$UCSORGTOP
 10
0.0
 20
0.0
 30
0.0
  9
$UCSORGBOTTOM
 10
0.0
 20
0.0
 30
0.0
  9
$UCSORGLEFT
 10
0.0
 20
0.0
 30
0.0
  9
$UCSORGRIGHT
 10
0.0
 20
0.0
 30
0.0
  9
$UCSORGFRONT
 10
0.0
 20
0.0
 30
0.0
  9
$UCSORGBACK
 10
0.0
 20
0.0
 30
0.0
  9
$PUCSBASE
  2

  9
$PUCSNAME
  2

  9
$PUCSORG
 10
0.0
 20
0.0
 30
0.0
  9
$PUCSXDIR
 10
1.0
 20
0.0
 30
0.0
  9
$PUCSYDIR
 10
0.0
 20
1.0
 30
0.0
  9
$PUCSORTHOREF
  2

  9
$PUCSORTHOVIEW
 70
     0
  9
$PUCSORGTOP
 10
0.0
 20
0.0
 30
0.0
  9
$PUCSORGBOTTOM
 10
0.0
 20
0.0
 30
0.0
  9
$PUCSORGLEFT
 10
0.0
 20
0.0
 30
0.0
  9
$PUCSORGRIGHT
 10
0.0
 20
0.0
 30
0.0
  9
$PUCSORGFRONT
 10
0.0
 20
0.0
 30
0.0
  9
$PUCSORGBACK
 10
0.0
 20
0.0
 30
0.0
  9
$USERI1
 70
     0
  9
$USERI2
 70
     0
  9
$USERI3
 70
     0
  9
$USERI4
 70
     0
  9
$USERI5
 70
     0
  9
$USERR1
 40
0.0
  9
$USERR2
 40
0.0
  9
$USERR3
 40
0.0
  9
$USERR4
 40
0.0
  9
$USERR5
 40
0.0
  9
$WORLDVIEW
 70
     1
  9
$SHADEDGE
 70
     3
  9
$SHADEDIF
 70
    70
  9
$TILEMODE
 70
     1
  9
$MAXACTVP
 70
    64
  9
$PINSBASE
 10
0.0
 20
0.0
 30
0.0
  9
$PLIMCHECK
 70
     0
  9
$PEXTMIN
 10
1.0000000000E+20
 20
1.0000000000E+20
 30
1.0000000000E+20
  9
$PEXTMAX
 10
-1.0000000000E+20
 20
-1.0000000000E+20
 30
-1.0000000000E+20
  9
$PLIMMIN
 10
0.0
 20
0.0
  9
$PLIMMAX
 10
420.0
 20
297.0
  9
$UNITMODE
 70
     0
  9
$VISRETAIN
 70
     1
  9
$PLINEGEN
 70
     0
  9
$PSLTSCALE
 70
     1
  9
$TREEDEPTH
 70
  3020
  9
$CMLSTYLE
  2
Standard
  9
$CMLJUST
 70
     0
  9
$CMLSCALE
 40
20.0
  9
$PROXYGRAPHICS
 70
     1
  9
$MEASUREMENT
 70
     1
  9
$CELWEIGHT
370
    -1
  9
$ENDCAPS
280
     0
  9
$JOINSTYLE
280
     0
  9
$LWDISPLAY
290
     1
  9
$INSUNITS
 70
     4
  9
$HYPERLINKBASE
  1

  9
$STYLESHEET
  1

  9
$XEDIT
290
     1
  9
$CEPSNTYPE
380
     0
  9
$PSTYLEMODE
290
     1
  9
$FINGERPRINTGUID
  2
{7005E120-B387-4179-B6F8-CFB9D853BE27}
  9
$VERSIONGUID
  2
{FAEB1C32-E019-11D5-929B-00C0DF256EC4}
  9
$EXTNAMES
290
     1
  9
$PSVPSCALE
 40
0.0
  9
$OLESTARTUP
290
     0
  0
ENDSEC
  0
SECTION
  2
CLASSES
  0
CLASS
  1
ACDBDICTIONARYWDFLT
  2
AcDbDictionaryWithDefault
  3
ObjectDBX Classes
 90
        0
280
     0
281
     0
  0
CLASS
  1
VISUALSTYLE
  2
AcDbVisualStyle
  3
ObjectDBX Classes
 90
     4095
280
     0
281
     0
  0
CLASS
  1
MATERIAL
  2
AcDbMaterial
  3
ObjectDBX Classes
 90
     1153
280
     0
281
     0
  0
CLASS
  1
SCALE
  2
AcDbScale
  3
ObjectDBX Classes
 90
     1153
280
     0
281
     0
  0
CLASS
  1
TABLESTYLE
  2
AcDbTableStyle
  3
ObjectDBX Classes
 90
     4095
280
     0
281
     0
  0
CLASS
  1
MLEADERSTYLE
  2
AcDbMLeaderStyle
  3
ACDB_MLEADERSTYLE_CLASS
 90
     4095
280
     0
281
     0
  0
CLASS
  1
SUN
  2
AcDbSun
  3
SCENEOE
 90
     1153
280
     0
281
     0
  0
CLASS
  1
ACDBPLACEHOLDER
  2
AcDbPlaceHolder
  3
ObjectDBX Classes
 90
        0
280
     0
281
     0
  0
CLASS
  1
LAYOUT
  2
AcDbLayout
  3
ObjectDBX Classes
 90
        0
280
     0
281
     0
  0
ENDSEC
  0
SECTION
  2
TABLES
  0
TABLE
  2
VPORT
  5
8
330
0
100
AcDbSymbolTable
 70
     1
  0
VPORT
  5
29
330
8
100
AcDbSymbolTableRecord
100
AcDbViewportTableRecord
  2
*Active
 70
     0
 10
0.0
 20
0.0
 11
1.0
 21
1.0
 12
148.5
 22
105.0
 13
0.0
 23
0.0
 14
10.0
 24
10.0
 15
10.0
 25
10.0
 16
0.0
 26
0.0
 36
1.0
 17
0.0
 27
0.0
 37
0.0
 40
210.0
 41
1.4142857143
 42
50.0
 43
0.0
 44
0.0
 50
0.0
 51
0.0
 71
     0
 72
  2000
 73
     1
 74
     3
 75
     0
 76
     0
 77
     0
 78
     0
281
     0
 65
     1
110
0.0
120
0.0
130
0.0
111
1.0
121
0.0
131
0.0
112
0.0
122
1.0
132
0.0
 79
     0
146
0.0
  0
ENDTAB
  0
TABLE
  2
LTYPE
  5
5
330
0
100
AcDbSymbolTable
 70
     6
  0
LTYPE
  5
14
330
5
100
AcDbSymbolTableRecord
100
AcDbLinetypeTableRecord
  2
ByBlock
 70
     0
  3

 72
    65
 73
     0
 40
0.0
  0
LTYPE
  5
15
330
5
100
AcDbSymbolTableRecord
100
AcDbLinetypeTableRecord
  2
ByLayer
 70
     0
  3

 72
    65
 73
     0
 40
0.0
  0
LTYPE
  5
16
330
5
100
AcDbSymbolTableRecord
100
AcDbLinetypeTableRecord
  2
Continuous
 70
     0
  3
Solid line
 72
    65
 73
     0
 40
0.0
  0
LTYPE
  5
6E
330
5
100
AcDbSymbolTableRecord
100
AcDbLinetypeTableRecord
  2
HIDDEN
 70
     0
  3
Hidden __ __ __ __ __ __ __ __ __ __ __ __ __ __
 72
    65
 73
     2
 40
1.905
 49
1.27
 74
     0
 49
-0.635
 74
     0
  0
LTYPE
  5
6F
330
5
100
AcDbSymbolTableRecord
100
AcDbLinetypeTableRecord
  2
PHANTOM
 70
     0
  3
Phantom ______  __  __  ______  __  __  ______
 72
    65
 73
     6
 40
12.7
 49
6.35
 74
     0
 49
-1.27
 74
     0
 49
1.27
 74
     0
 49
-1.27
 74
     0
 49
1.27
 74
     0
 49
-1.27
 74
     0
  0
LTYPE
  5
70
330
5
100
AcDbSymbolTableRecord
100
AcDbLinetypeTableRecord
  2
CENTER
 70
     0
  3
Center ____ _ ____ _ ____ _ ____ _ ____ _ ____
 72
    65
 73
     4
 40
10.16
 49
6.35
 74
     0
 49
-1.27
 74
     0
 49
1.27
 74
     0
 49
-1.27
 74
     0
  0
LTYPE
  5
71
330
5
100
AcDbSymbolTableRecord
100
AcDbLinetypeTableRecord
  2
CENTERX2
 70
     0
  3
Center (2x) ________  __  ________  __  _____
 72
    65
 73
     4
 40
20.32
 49
12.7
 74
     0
 49
-2.54
 74
     0
 49
2.54
 74
     0
 49
-2.54
 74
     0
  0
LTYPE
  5
72
330
5
100
AcDbSymbolTableRecord
100
AcDbLinetypeTableRecord
  2
DOT2
 70
     0
  3
Dot (.5x) ........................................
 72
    65
 73
     2
 40
0.635
 49
0.0
 74
     0
 49
-0.635
 74
     0
  0
ENDTAB
  0
TABLE
  2
LAYER
  5
2
330
0
100
AcDbSymbolTable
 70
     5
  0
LAYER
  5
10
330
2
100
AcDbSymbolTableRecord
100
AcDbLayerTableRecord
  2
0
 70
     0
 62
     7
  6
Continuous
370
    -3
390
F
  0
LAYER
  5
73
330
2
100
AcDbSymbolTableRecord
100
AcDbLayerTableRecord
  2
FORMAT
 70
     0
 62
     7
  6
Continuous
370
    -3
390
F
  0
LAYER
  5
74
330
2
100
AcDbSymbolTableRecord
100
AcDbLayerTableRecord
  2
VERMASSUNG
 70
     0
 62
     7
  6
Continuous
370
    -3
390
F
  0
LAYER
  5
75
330
2
100
AcDbSymbolTableRecord
100
AcDbLayerTableRecord
  2
KOPF_DÜNN
 70
     0
 62
     7
  6
Continuous
370
    -3
390
F
  0
LAYER
  5
76
330
2
100
AcDbSymbolTableRecord
100
AcDbLayerTableRecord
  2
KOPF_DICK
 70
     0
 62
     7
  6
Continuous
370
    15
390
F
  0
ENDTAB
  0
TABLE
  2
STYLE
  5
3
330
0
100
AcDbSymbolTable
 70
     3
  0
STYLE
  5
11
330
3
100
AcDbSymbolTableRecord
100
AcDbTextStyleTableRecord
  2
Standard
 70
     0
 40
0.0
 41
1.0
 50
0.0
 71
     0
 42
2.0
  3
txt
  4

  0
STYLE
  5
77
330
3
100
AcDbSymbolTableRecord
100
AcDbTextStyleTableRecord
  2
SLDTEXTSTYLE0
 70
     0
 40
0.0
 41
0.7
 50
0.0
 71
     0
 42
2.0
  3
TXT
  4

  0
STYLE
  5
7B
330
3
100
AcDbSymbolTableRecord
100
AcDbTextStyleTableRecord
  2
SLDTEXTSTYLE1
 70
     0
 40
0.0
 41
0.6538461538
 50
0.0
 71
     0
 42
2.0
  3
TXT
  4

  0
ENDTAB
  0
TABLE
  2
VIEW
  5
6
330
0
100
AcDbSymbolTable
 70
     0
  0
ENDTAB
  0
TABLE
  2
UCS
  5
7
330
0
100
AcDbSymbolTable
 70
     0
  0
ENDTAB
  0
TABLE
  2
APPID
  5
9
330
0
100
AcDbSymbolTable
 70
     1
  0
APPID
  5
12
330
9
100
AcDbSymbolTableRecord
100
AcDbRegAppTableRecord
  2
ACAD
 70
     0
  0
ENDTAB
  0
TABLE
  2
DIMSTYLE
  5
A
330
0
100
AcDbSymbolTable
 70
     2
100
AcDbDimStyleTable
  0
DIMSTYLE
105
27
330
A
100
AcDbSymbolTableRecord
100
AcDbDimStyleTableRecord
  2
ISO-25
 70
     0
 41
2.5
 42
0.625
 43
3.75
 44
1.25
 73
     0
 74
     0
 77
     1
 78
     8
140
2.5
141
2.5
143
0.0393700787
147
0.625
171
     3
172
     1
178
     0
271
     2
272
     2
274
     3
278
    44
283
     0
284
     8
340
11
  0
DIMSTYLE
105
118
102
{ACAD_REACTORS
330
117
330
123
330
12F
330
13B
330
145
330
151
102
}
330
A
100
AcDbSymbolTableRecord
100
AcDbDimStyleTableRecord
  2
SLDDIMSTYLE0
 70
     0
 41
3.0
 44
0.0
 45
0.000000001
 73
     0
 74
     0
 77
     1
 78
    12
 79
     3
140
2.0
147
0.5
173
     1
178
     0
271
     2
272
     3
276
     2
284
    12
340
77
  0
ENDTAB
  0
TABLE
  2
BLOCK_RECORD
  5
1
330
0
100
AcDbSymbolTable
 70
     7
  0
BLOCK_RECORD
  5
1F
330
1
100
AcDbSymbolTableRecord
100
AcDbBlockTableRecord
  2
*Model_Space
340
22
  0
BLOCK_RECORD
  5
1B
330
1
100
AcDbSymbolTableRecord
100
AcDbBlockTableRecord
  2
*Paper_Space
340
1E
  0
BLOCK_RECORD
  5
23
330
1
100
AcDbSymbolTableRecord
100
AcDbBlockTableRecord
  2
*Paper_Space0
340
26
  0
BLOCK_RECORD
  5
119
330
1
100
AcDbSymbolTableRecord
100
AcDbBlockTableRecord
  2
_D
340
0
  0
BLOCK_RECORD
  5
124
330
1
100
AcDbSymbolTableRecord
100
AcDbBlockTableRecord
  2
_D_1
340
0
  0
BLOCK_RECORD
  5
130
330
1
100
AcDbSymbolTableRecord
100
AcDbBlockTableRecord
  2
_D_2
340
0
  0
BLOCK_RECORD
  5
13C
330
1
100
AcDbSymbolTableRecord
100
AcDbBlockTableRecord
  2
_D_3
340
0
  0
BLOCK_RECORD
  5
146
330
1
100
AcDbSymbolTableRecord
100
AcDbBlockTableRecord
  2
_D_4
340
0
  0
BLOCK_RECORD
  5
152
330
1
100
AcDbSymbolTableRecord
100
AcDbBlockTableRecord
  2
_D_5
340
0
  0
ENDTAB
  0
ENDSEC
  0
SECTION
  2
BLOCKS
  0
BLOCK
  5
20
330
1F
100
AcDbEntity
  8
0
100
AcDbBlockBegin
  2
*Model_Space
 70
     0
 10
0.0
 20
0.0
 30
0.0
  3
*Model_Space
  1

  0
ENDBLK
  5
21
330
1F
100
AcDbEntity
  8
0
100
AcDbBlockEnd
  0
BLOCK
  5
1C
330
1B
100
AcDbEntity
 67
     1
  8
0
100
AcDbBlockBegin
  2
*Paper_Space
 70
     0
 10
0.0
 20
0.0
 30
0.0
  3
*Paper_Space
  1

  0
ENDBLK
  5
1D
330
1B
100
AcDbEntity
 67
     1
  8
0
100
AcDbBlockEnd
  0
BLOCK
  5
24
330
23
100
AcDbEntity
  8
0
100
AcDbBlockBegin
  2
*Paper_Space0
 70
     0
 10
0.0
 20
0.0
 30
0.0
  3
*Paper_Space0
  1

  0
ENDBLK
  5
25
330
23
100
AcDbEntity
  8
0
100
AcDbBlockEnd
  0
BLOCK
  5
11A
330
119
100
AcDbEntity
  8
0
100
AcDbBlockBegin
  2
_D
 70
     0
 10
0.0
 20
0.0
 30
0.0
  3
_D
  1

  0
SOLID
  5
11C
330
119
100
AcDbEntity
  8
VERMASSUNG
100
AcDbTrace
 10
235.452256617
 20
115.8843882846
 30
0.0
 11
235.002256617
 21
112.8843882846
 31
0.0
 12
235.902256617
 22
112.8843882846
 32
0.0
 13
235.902256617
 23
112.8843882846
 33
0.0
  0
SOLID
  5
11D
330
119
100
AcDbEntity
  8
VERMASSUNG
100
AcDbTrace
 10
235.452256617
 20
104.8843882846
 30
0.0
 11
235.902256617
 21
107.8843882846
 31
0.0
 12
235.002256617
 22
107.8843882846
 32
0.0
 13
235.002256617
 23
107.8843882846
 33
0.0
  0
LINE
  5
11E
330
119
100
AcDbEntity
  8
VERMASSUNG
100
AcDbLine
 10
222.5199472537
 20
115.8843882846
 30
0.0
 11
236.452256617
 21
115.8843882846
 31
0.0
  0
LINE
  5
11F
330
119
100
AcDbEntity
  8
VERMASSUNG
100
AcDbLine
 10
222.5199472537
 20
104.8843882846
 30
0.0
 11
236.452256617
 21
104.8843882846
 31
0.0
  0
LINE
  5
120
330
119
100
AcDbEntity
  8
VERMASSUNG
100
AcDbLine
 10
235.452256617
 20
115.8843882846
 30
0.0
 11
235.452256617
 21
104.8843882846
 31
0.0
  0
MTEXT
  5
121
330
119
100
AcDbEntity
  8
VERMASSUNG
100
AcDbMText
 10
232.8741210793
 20
107.5805963175
 30
0.0
 40
2.0
 41
0.0
 71
     1
 72
     1
  1
%%c
  7
SLDTEXTSTYLE0
 11
-7.044195017643634E-15
 21
1.0
 31
0.0
 73
     1
 44
1.0
  0
MTEXT
  5
122
330
119
100
AcDbEntity
  8
VERMASSUNG
100
AcDbMText
 10
232.874121021
 20
111.1895685111
 30
0.0
 40
2.0
 41
0.0
 71
     1
 72
     1
  1
11
  7
SLDTEXTSTYLE0
 11
-7.044195017643634E-15
 21
1.0
 31
0.0
 73
     1
 44
1.0
  0
ENDBLK
  5
11B
330
119
100
AcDbEntity
  8
0
100
AcDbBlockEnd
  0
BLOCK
  5
125
330
124
100
AcDbEntity
  8
0
100
AcDbBlockBegin
  2
_D_1
 70
     0
 10
0.0
 20
0.0
 30
0.0
  3
_D_1
  1

  0
SOLID
  5
127
330
124
100
AcDbEntity
  8
VERMASSUNG
100
AcDbTrace
 10
241.552256617
 20
120.3843882846
 30
0.0
 11
241.102256617
 21
117.3843882846
 31
0.0
 12
242.002256617
 22
117.3843882846
 32
0.0
 13
242.002256617
 23
117.3843882846
 33
0.0
  0
SOLID
  5
128
330
124
100
AcDbEntity
  8
VERMASSUNG
100
AcDbTrace
 10
241.552256617
 20
100.3843882846
 30
0.0
 11
242.002256617
 21
103.3843882846
 31
0.0
 12
241.102256617
 22
103.3843882846
 32
0.0
 13
241.102256617
 23
103.3843882846
 33
0.0
  0
LINE
  5
129
330
124
100
AcDbEntity
  8
VERMASSUNG
100
AcDbLine
 10
228.2199472537
 20
120.3843882846
 30
0.0
 11
242.552256617
 21
120.3843882846
 31
0.0
  0
LINE
  5
12A
330
124
100
AcDbEntity
  8
VERMASSUNG
100
AcDbLine
 10
228.2199472537
 20
100.3843882846
 30
0.0
 11
242.552256617
 21
100.3843882846
 31
0.0
  0
LINE
  5
12B
330
124
100
AcDbEntity
  8
VERMASSUNG
100
AcDbLine
 10
241.552256617
 20
120.3843882846
 30
0.0
 11
241.552256617
 21
100.3843882846
 31
0.0
  0
MTEXT
  5
12C
330
124
100
AcDbEntity
  8
VERMASSUNG
100
AcDbMText
 10
238.7741213608
 20
104.4801009519
 30
0.0
 40
2.0
 41
0.0
 71
     1
 72
     1
  1
ST1
  7
SLDTEXTSTYLE0
 11
-7.044195017643634E-15
 21
1.0
 31
0.0
 73
     1
 44
1.0
  0
MTEXT
  5
12D
330
124
100
AcDbEntity
  8
VERMASSUNG
100
AcDbMText
 10
238.9741213121
 20
109.880101092
 30
0.0
 40
2.0
 41
0.0
 71
     1
 72
     1
  1
%%c
  7
SLDTEXTSTYLE0
 11
-7.044195017643634E-15
 21
1.0
 31
0.0
 73
     1
 44
1.0
  0
MTEXT
  5
12E
330
124
100
AcDbEntity
  8
VERMASSUNG
100
AcDbMText
 10
238.974121021
 20
113.4892955966
 30
0.0
 40
2.0
 41
0.0
 71
     1
 72
     1
  1
20
  7
SLDTEXTSTYLE0
 11
-7.044195017643634E-15
 21
1.0
 31
0.0
 73
     1
 44
1.0
  0
ENDBLK
  5
126
330
124
100
AcDbEntity
  8
0
100
AcDbBlockEnd
  0
BLOCK
  5
131
330
130
100
AcDbEntity
  8
0
100
AcDbBlockBegin
  2
_D_2
 70
     0
 10
0.0
 20
0.0
 30
0.0
  3
_D_2
  1

  0
ARC
  5
133
330
130
100
AcDbEntity
  8
VERMASSUNG
100
AcDbCircle
 10
216.7314431343
 20
164.9981497401
 30
0.0
 40
4.247059938537386
100
AcDbArc
 50
153.4349488229
 51
206.5650511771
  0
ARC
  5
134
330
130
100
AcDbEntity
  8
VERMASSUNG
100
AcDbCircle
 10
215.1084513732
 20
164.9981497401
 30
0.0
 40
4.247059938537386
100
AcDbArc
 50
333.4349488229
 51
26.5650511771
  0
SOLID
  5
135
330
130
100
AcDbEntity
  8
VERMASSUNG
100
AcDbTrace
 10
203.4199472537
 20
163.0988067947
 30
0.0
 11
206.4199472537
 21
162.6488067947
 31
0.0
 12
206.4199472537
 22
163.5488067947
 32
0.0
 13
206.4199472537
 23
163.5488067947
 33
0.0
  0
SOLID
  5
136
330
130
100
AcDbEntity
  8
VERMASSUNG
100
AcDbTrace
 10
228.4199472537
 20
163.0988067947
 30
0.0
 11
225.4199472537
 21
163.5488067947
 31
0.0
 12
225.4199472537
 22
162.6488067947
 32
0.0
 13
225.4199472537
 23
162.6488067947
 33
0.0
  0
LINE
  5
137
330
130
100
AcDbEntity
  8
VERMASSUNG
100
AcDbLine
 10
203.4199472537
 20
159.3843882846
 30
0.0
 11
203.4199472537
 21
164.0988067947
 31
0.0
  0
LINE
  5
138
330
130
100
AcDbEntity
  8
VERMASSUNG
100
AcDbLine
 10
228.4199472537
 20
120.1843882846
 30
0.0
 11
228.4199472537
 21
164.0988067947
 31
0.0
  0
LINE
  5
139
330
130
100
AcDbEntity
  8
VERMASSUNG
100
AcDbLine
 10
203.4199472537
 20
163.0988067947
 30
0.0
 11
228.4199472537
 21
163.0988067947
 31
0.0
  0
MTEXT
  5
13A
330
130
100
AcDbEntity
  8
VERMASSUNG
100
AcDbMText
 10
214.5202572434
 20
165.6769423906
 30
0.0
 40
2.0
 41
0.0
 71
     1
 72
     1
  1
25
  7
SLDTEXTSTYLE0
 73
     1
 44
1.0
  0
ENDBLK
  5
132
330
130
100
AcDbEntity
  8
0
100
AcDbBlockEnd
  0
BLOCK
  5
13D
330
13C
100
AcDbEntity
  8
0
100
AcDbBlockBegin
  2
_D_3
 70
     0
 10
0.0
 20
0.0
 30
0.0
  3
_D_3
  1

  0
SOLID
  5
13F
330
13C
100
AcDbEntity
  8
VERMASSUNG
100
AcDbTrace
 10
165.4199472537
 20
169.0988067947
 30
0.0
 11
168.4199472537
 21
168.6488067947
 31
0.0
 12
168.4199472537
 22
169.5488067947
 32
0.0
 13
168.4199472537
 23
169.5488067947
 33
0.0
  0
SOLID
  5
140
330
13C
100
AcDbEntity
  8
VERMASSUNG
100
AcDbTrace
 10
228.4199472537
 20
169.0988067947
 30
0.0
 11
225.4199472537
 21
169.5488067947
 31
0.0
 12
225.4199472537
 22
168.6488067947
 32
0.0
 13
225.4199472537
 23
168.6488067947
 33
0.0
  0
LINE
  5
141
330
13C
100
AcDbEntity
  8
VERMASSUNG
100
AcDbLine
 10
165.4199472537
 20
145.3093882846
 30
0.0
 11
165.4199472537
 21
170.0988067947
 31
0.0
  0
LINE
  5
142
330
13C
100
AcDbEntity
  8
VERMASSUNG
100
AcDbLine
 10
228.4199472537
 20
120.1843882846
 30
0.0
 11
228.4199472537
 21
170.0988067947
 31
0.0
  0
LINE
  5
143
330
13C
100
AcDbEntity
  8
VERMASSUNG
100
AcDbLine
 10
165.4199472537
 20
169.0988067947
 30
0.0
 11
228.4199472537
 21
169.0988067947
 31
0.0
  0
MTEXT
  5
144
330
13C
100
AcDbEntity
  8
VERMASSUNG
100
AcDbMText
 10
195.5202572434
 20
171.6769423906
 30
0.0
 40
2.0
 41
0.0
 71
     1
 72
     1
  1
63
  7
SLDTEXTSTYLE0
 73
     1
 44
1.0
  0
ENDBLK
  5
13E
330
13C
100
AcDbEntity
  8
0
100
AcDbBlockEnd
  0
BLOCK
  5
147
330
146
100
AcDbEntity
  8
0
100
AcDbBlockBegin
  2
_D_4
 70
     0
 10
0.0
 20
0.0
 30
0.0
  3
_D_4
  1

  0
ARC
  5
149
330
146
100
AcDbEntity
  8
VERMASSUNG
100
AcDbCircle
 10
145.2321125472
 20
176.9981497401
 30
0.0
 40
4.247059938537323
100
AcDbArc
 50
153.4349488229
 51
206.5650511771
  0
ARC
  5
14A
330
146
100
AcDbEntity
  8
VERMASSUNG
100
AcDbCircle
 10
146.8077819602
 20
176.9981497401
 30
0.0
 40
4.247059938537348
100
AcDbArc
 50
333.4349488229
 51
26.5650511771
  0
SOLID
  5
14B
330
146
100
AcDbEntity
  8
VERMASSUNG
100
AcDbTrace
 10
63.6199472537
 20
175.0988067947
 30
0.0
 11
66.6199472537
 21
174.6488067947
 31
0.0
 12
66.6199472537
 22
175.5488067947
 32
0.0
 13
66.6199472537
 23
175.5488067947
 33
0.0
  0
SOLID
  5
14C
330
146
100
AcDbEntity
  8
VERMASSUNG
100
AcDbTrace
 10
228.4199472537
 20
175.0988067947
 30
0.0
 11
225.4199472537
 21
175.5488067947
 31
0.0
 12
225.4199472537
 22
174.6488067947
 32
0.0
 13
225.4199472537
 23
174.6488067947
 33
0.0
  0
LINE
  5
14D
330
146
100
AcDbEntity
  8
VERMASSUNG
100
AcDbLine
 10
63.6199472537
 20
128.7340661453
 30
0.0
 11
63.6199472537
 21
176.0988067947
 31
0.0
  0
LINE
  5
14E
330
146
100
AcDbEntity
  8
VERMASSUNG
100
AcDbLine
 10
228.4199472537
 20
120.1843882846
 30
0.0
 11
228.4199472537
 21
176.0988067947
 31
0.0
  0
LINE
  5
14F
330
146
100
AcDbEntity
  8
VERMASSUNG
100
AcDbLine
 10
63.6199472537
 20
175.0988067947
 30
0.0
 11
228.4199472537
 21
175.0988067947
 31
0.0
  0
MTEXT
  5
150
330
146
100
AcDbEntity
  8
VERMASSUNG
100
AcDbMText
 10
143.0209266564
 20
177.6769423906
 30
0.0
 40
2.0
 41
0.0
 71
     1
 72
     1
  1
164.8
  7
SLDTEXTSTYLE0
 73
     1
 44
1.0
  0
ENDBLK
  5
148
330
146
100
AcDbEntity
  8
0
100
AcDbBlockEnd
  0
BLOCK
  5
153
330
152
100
AcDbEntity
  8
0
100
AcDbBlockBegin
  2
_D_5
 70
     0
 10
0.0
 20
0.0
 30
0.0
  3
_D_5
  1

  0
SOLID
  5
155
330
152
100
AcDbEntity
  8
VERMASSUNG
100
AcDbTrace
 10
53.6199472537
 20
160.3843882846
 30
0.0
 11
53.1699472537
 21
157.3843882846
 31
0.0
 12
54.0699472537
 22
157.3843882846
 32
0.0
 13
54.0699472537
 23
157.3843882846
 33
0.0
  0
SOLID
  5
156
330
152
100
AcDbEntity
  8
VERMASSUNG
100
AcDbTrace
 10
53.6199472537
 20
60.3843882846
 30
0.0
 11
54.0699472537
 21
63.3843882846
 31
0.0
 12
53.1699472537
 22
63.3843882846
 32
0.0
 13
53.1699472537
 23
63.3843882846
 33
0.0
  0
LINE
  5
157
330
152
100
AcDbEntity
  8
VERMASSUNG
100
AcDbLine
 10
199.4199491623
 20
160.3843882846
 30
0.0
 11
52.6199472537
 21
160.3843882846
 31
0.0
  0
LINE
  5
158
330
152
100
AcDbEntity
  8
VERMASSUNG
100
AcDbLine
 10
199.4199493158
 20
60.3843882846
 30
0.0
 11
52.6199472537
 21
60.3843882846
 31
0.0
  0
LINE
  5
159
330
152
100
AcDbEntity
  8
VERMASSUNG
100
AcDbLine
 10
53.6199472537
 20
160.3843882846
 30
0.0
 11
53.6199472537
 21
60.3843882846
 31
0.0
  0
MTEXT
  5
15A
330
152
100
AcDbEntity
  8
VERMASSUNG
100
AcDbMText
 10
50.8418119975
 20
99.2806220642
 30
0.0
 40
2.0
 41
0.0
 71
     1
 72
     1
  1
MAS BT 50
  7
SLDTEXTSTYLE0
 11
-7.044195017643634E-15
 21
1.0
 31
0.0
 73
     1
 44
1.0
  0
MTEXT
  5
15B
330
152
100
AcDbEntity
  8
VERMASSUNG
100
AcDbMText
 10
51.0418119488
 20
114.0806220686
 30
0.0
 40
2.0
 41
0.0
 71
     1
 72
     1
  1
%%c
  7
SLDTEXTSTYLE0
 11
-7.044195017643634E-15
 21
1.0
 31
0.0
 73
     1
 44
1.0
  0
MTEXT
  5
15C
330
152
100
AcDbEntity
  8
VERMASSUNG
100
AcDbMText
 10
51.0418116577
 20
117.6894686141
 30
0.0
 40
2.0
 41
0.0
 71
     1
 72
     1
  1
100
  7
SLDTEXTSTYLE0
 11
-7.044195017643634E-15
 21
1.0
 31
0.0
 73
     1
 44
1.0
  0
ENDBLK
  5
154
330
152
100
AcDbEntity
  8
0
100
AcDbBlockEnd
  0
ENDSEC
  0
SECTION
  2
ENTITIES
  0
MTEXT
  5
78
330
1F
100
AcDbEntity
  8
KOPF_DÜNN
100
AcDbMText
 10
13.8892156294
 20
23.8442973028
 30
0.0
 40
3.0
 41
0.0
 71
     1
 72
     1
  1
134.550.020.063
  7
SLDTEXTSTYLE0
 73
     1
 44
1.0
  0
MTEXT
  5
79
330
1F
100
AcDbEntity
  8
VERMASSUNG
100
AcDbMText
 10
13.9329988022
 20
28.8834360957
 30
0.0
 40
3.0
 41
0.0
 71
     1
 72
     1
  1
Aufnahme_Master shank ST1
  7
SLDTEXTSTYLE0
 73
     1
 44
1.0
  0
MTEXT
  5
7A
330
1F
100
AcDbEntity
  8
VERMASSUNG
100
AcDbMText
 10
98.8601118557
 20
13.8365368761
 30
0.0
 40
2.0
 41
0.0
 71
     1
 72
     1
  1
Datum: 06.06.2008
  7
SLDTEXTSTYLE0
 73
     1
 44
1.0
  0
MTEXT
  5
7C
330
1F
100
AcDbEntity
  8
VERMASSUNG
100
AcDbMText
 10
13.933048693
 20
18.0482802738
 30
0.0
 40
2.0
 41
0.0
 71
     1
 72
     1
  1
MAS BT 50 A/D
  7
SLDTEXTSTYLE1
 73
     1
 44
1.0
  0
MTEXT
  5
7D
330
1F
100
AcDbEntity
  8
VERMASSUNG
100
AcDbMText
 10
13.9808475933
 20
13.9090974274
 30
0.0
 40
2.0
 41
0.0
 71
     1
 72
     1
  1
Gewicht: 3733g
  7
SLDTEXTSTYLE0
 73
     1
 44
1.0
  0
LINE
  5
7E
330
1F
100
AcDbEntity
  8
0
  6
Continuous
 62
     7
370
    15
100
AcDbLine
 10
199.419660027
 20
60.3843882846
 30
0.0
 11
202.4199472537
 21
60.3843882846
 31
0.0
  0
LINE
  5
7F
330
1F
100
AcDbEntity
  8
0
  6
Continuous
 62
     7
370
    15
100
AcDbLine
 10
202.4199472537
 20
160.3843882846
 30
0.0
 11
199.4195130728
 21
160.3843882846
 31
0.0
  0
ARC
  5
80
330
1F
100
AcDbEntity
  8
0
  6
Continuous
 62
     7
370
    15
100
AcDbCircle
 10
202.4199472537
 20
61.3843882846
 30
0.0
 40
1.0
100
AcDbArc
 50
270.0
 51
0.0
  0
ARC
  5
81
330
1F
100
AcDbEntity
  8
0
  6
Continuous
 62
     7
370
    15
100
AcDbCircle
 10
202.4199472537
 20
159.3843882846
 30
0.0
 40
1.0
100
AcDbArc
 50
0.0
 51
90.0
  0
ARC
  5
82
330
1F
100
AcDbEntity
  8
0
  6
Continuous
 62
     7
370
    15
100
AcDbCircle
 10
167.4199472537
 20
74.4593882846
 30
0.0
 40
1.000000000000014
100
AcDbArc
 50
38.722340444
 51
90.0
  0
ARC
  5
83
330
1F
100
AcDbEntity
  8
0
  6
Continuous
 62
     7
370
    15
100
AcDbCircle
 10
167.4199472537
 20
146.3093882846
 30
0.0
 40
1.0
100
AcDbArc
 50
270.0
 51
321.290895072
  0
LINE
  5
84
330
1F
100
AcDbEntity
  8
0
  6
Continuous
 62
     7
370
    15
100
AcDbLine
 10
165.4199472537
 20
75.4593882846
 30
0.0
 11
167.4199472537
 21
75.4593882846
 31
0.0
  0
LINE
  5
85
330
1F
100
AcDbEntity
  8
0
  6
Continuous
 62
     7
370
    15
100
AcDbLine
 10
167.4199472537
 20
145.3093882846
 30
0.0
 11
165.4199472537
 21
145.3093882846
 31
0.0
  0
LINE
  5
86
330
1F
100
AcDbEntity
  8
0
  6
Continuous
 62
     7
370
    15
100
AcDbLine
 10
165.4199472537
 20
145.3093882846
 30
0.0
 11
65.3313334676
 21
130.7131321074
 31
0.0
  0
LINE
  5
87
330
1F
100
AcDbEntity
  8
0
  6
Continuous
 62
     7
370
    15
100
AcDbLine
 10
65.3313334676
 20
90.0556444617
 30
0.0
 11
165.4199472537
 21
75.4593882846
 31
0.0
  0
ARC
  5
88
330
1F
100
AcDbEntity
  8
0
  6
Continuous
 62
     7
370
    15
100
AcDbCircle
 10
65.6199472537
 20
92.0347104238
 30
0.0
 40
2.000000000000007
100
AcDbArc
 50
180.0
 51
261.7028550302
  0
ARC
  5
89
330
1F
100
AcDbEntity
  8
0
  6
Continuous
 62
     7
370
    15
100
AcDbCircle
 10
65.6199472537
 20
128.7340661453
 30
0.0
 40
2.000000000000007
100
AcDbArc
 50
98.2971449698
 51
180.0
  0
ARC
  5
8A
330
1F
100
AcDbEntity
  8
0
  6
Continuous
 62
     7
370
    15
100
AcDbCircle
 10
207.4199472537
 20
96.3843882846
 30
0.0
 40
4.0
100
AcDbArc
 50
90.0
 51
180.0
  0
ARC
  5
8B
330
1F
100
AcDbEntity
  8
0
  6
Continuous
 62
     7
370
    15
100
AcDbCircle
 10
207.4199472537
 20
124.3843882846
 30
0.0
 40
4.0
100
AcDbArc
 50
180.0
 51
270.0
  0
LINE
  5
8C
330
1F
100
AcDbEntity
  8
0
  6
Continuous
 62
     7
370
    15
100
AcDbLine
 10
228.2199472537
 20
120.3843882846
 30
0.0
 11
207.4199472537
 21
120.3843882846
 31
0.0
  0
LINE
  5
8D
330
1F
100
AcDbEntity
  8
0
  6
Continuous
 62
     7
370
    15
100
AcDbLine
 10
207.4199472537
 20
100.3843882846
 30
0.0
 11
228.2199472537
 21
100.3843882846
 31
0.0
  0
LINE
  5
8E
330
1F
100
AcDbEntity
  8
0
  6
Continuous
 62
     7
370
    15
100
AcDbLine
 10
228.2199472537
 20
100.3843882846
 30
0.0
 11
228.4199472537
 21
100.5843882846
 31
0.0
  0
LINE
  5
8F
330
1F
100
AcDbEntity
  8
0
  6
Continuous
 62
     7
370
    15
100
AcDbLine
 10
228.4199472537
 20
120.1843882846
 30
0.0
 11
228.2199472537
 21
120.3843882846
 31
0.0
  0
SPLINE
  5
90
330
1F
100
AcDbEntity
  8
0
  6
Continuous
 62
     7
370
    15
100
AcDbSpline
210
0.0
220
0.0
230
1.0
 70
    24
 71
     3
 72
    11
 73
     7
 74
     0
 42
0.000000001
 43
0.00000001
 40
0.0
 40
0.0
 40
0.0
 40
0.0
 40
0.120891387534044
 40
0.4766714197330098
 40
0.8143663490172401
 40
1.0
 40
1.0
 40
1.0
 40
1.0
 10
223.9472975229205
 20
109.3843882845548
 30
0.0
 10
223.9035975935819
 20
109.3843882845548
 30
0.0
 10
223.7312899727914
 20
109.3843882845548
 30
0.0
 10
223.4063331728602
 20
109.3843882845548
 30
0.0
 10
223.0502367003911
 20
109.3843882845548
 30
0.0
 10
222.8600569971954
 20
109.3843882845548
 30
0.0
 10
222.7925969845413
 20
109.3843882845548
 30
0.0
  0
SPLINE
  5
91
330
1F
100
AcDbEntity
  8
0
  6
Continuous
 62
     7
370
    15
100
AcDbSpline
210
0.0
220
0.0
230
1.0
 70
    24
 71
     3
 72
    10
 73
     6
 74
     0
 42
0.000000001
 43
0.00000001
 40
0.0
 40
0.0
 40
0.0
 40
0.0
 40
0.4391051671061706
 40
0.7513578980692741
 40
1.0
 40
1.0
 40
1.0
 40
1.0
 10
224.5246477921102
 20
110.3843882845548
 30
0.0
 10
224.4419979758274
 20
110.2412346035168
 30
0.0
 10
224.300574925292
 20
109.9962826946281
 30
0.0
 10
224.0949881590481
 20
109.6401959701299
 30
0.0
 10
223.9926593941614
 20
109.4629573502704
 30
0.0
 10
223.9472975229205
 20
109.3843882845548
 30
0.0
  0
SPLINE
  5
92
330
1F
100
AcDbEntity
  8
0
  6
Continuous
 62
     7
370
    15
100
AcDbSpline
210
0.0
220
0.0
230
1.0
 70
    24
 71
     3
 72
    10
 73
     6
 74
     0
 42
0.000000001
 43
0.00000001
 40
0.0
 40
0.0
 40
0.0
 40
0.0
 40
0.4391051671061744
 40
0.7513578980692761
 40
1.0
 40
1.0
 40
1.0
 40
1.0
 10
223.9472975229206
 20
111.3843882845548
 30
0.0
 10
224.0299473392033
 20
111.2412346035168
 30
0.0
 10
224.1713703897388
 20
110.9962826946281
 30
0.0
 10
224.3769571559826
 20
110.6401959701299
 30
0.0
 10
224.4792859208693
 20
110.4629573502704
 30
0.0
 10
224.5246477921102
 20
110.3843882845548
 30
0.0
  0
SPLINE
  5
93
330
1F
100
AcDbEntity
  8
0
  6
Continuous
 62
     7
370
    15
100
AcDbSpline
210
0.0
220
0.0
230
1.0
 70
    24
 71
     3
 72
    11
 73
     7
 74
     0
 42
0.000000001
 43
0.00000001
 40
0.0
 40
0.0
 40
0.0
 40
0.0
 40
0.1856336509827594
 40
0.5233285802669877
 40
0.8791086124659514
 40
1.0
 40
1.0
 40
1.0
 40
1.0
 10
222.7925969845413
 20
111.3843882845548
 30
0.0
 10
222.8600569971954
 20
111.3843882845548
 30
0.0
 10
223.0502367003911
 20
111.3843882845548
 30
0.0
 10
223.4063331728602
 20
111.3843882845548
 30
0.0
 10
223.7312899727914
 20
111.3843882845548
 30
0.0
 10
223.903597593582
 20
111.3843882845548
 30
0.0
 10
223.9472975229206
 20
111.3843882845548
 30
0.0
  0
SPLINE
  5
94
330
1F
100
AcDbEntity
  8
0
  6
Continuous
 62
     7
370
    15
100
AcDbSpline
210
0.0
220
0.0
230
1.0
 70
    24
 71
     3
 72
    10
 73
     6
 74
     0
 42
0.000000001
 43
0.00000001
 40
0.0
 40
0.0
 40
0.0
 40
0.0
 40
0.439105167106175
 40
0.7513578980692799
 40
0.9999999999999999
 40
0.9999999999999999
 40
0.9999999999999999
 40
0.9999999999999999
 10
222.2152467153517
 20
110.3843882845548
 30
0.0
 10
222.2978965316344
 20
110.5275419655928
 30
0.0
 10
222.4393195821699
 20
110.7724938744816
 30
0.0
 10
222.6449063484137
 20
111.1285805989797
 30
0.0
 10
222.7472351133004
 20
111.3058192188392
 30
0.0
 10
222.7925969845413
 20
111.3843882845548
 30
0.0
  0
SPLINE
  5
95
330
1F
100
AcDbEntity
  8
0
  6
Continuous
 62
     7
370
    15
100
AcDbSpline
210
0.0
220
0.0
230
1.0
 70
    24
 71
     3
 72
    10
 73
     6
 74
     0
 42
0.000000001
 43
0.00000001
 40
0.0
 40
0.0
 40
0.0
 40
0.0
 40
0.439105167106174
 40
0.7513578980692754
 40
0.9999999999999999
 40
0.9999999999999999
 40
0.9999999999999999
 40
0.9999999999999999
 10
222.7925969845413
 20
109.3843882845548
 30
0.0
 10
222.7099471682585
 20
109.5275419655928
 30
0.0
 10
222.5685241177231
 20
109.7724938744816
 30
0.0
 10
222.3629373514792
 20
110.1285805989797
 30
0.0
 10
222.2606085865926
 20
110.3058192188392
 30
0.0
 10
222.2152467153517
 20
110.3843882845548
 30
0.0
  0
CIRCLE
  5
96
330
1F
100
AcDbEntity
  8
0
  6
Continuous
 62
     7
370
    15
100
AcDbCircle
 10
223.3699472537
 20
110.3843882846
 30
0.0
 40
1.250000000000014
  0
CIRCLE
  5
97
330
1F
100
AcDbEntity
  8
0
  6
Continuous
 62
     7
370
    15
100
AcDbCircle
 10
223.3699472537
 20
110.3843882846
 30
0.0
 40
1.750000000000014
  0
CIRCLE
  5
98
330
1F
100
AcDbEntity
  8
0
  6
Continuous
 62
     7
370
    15
100
AcDbCircle
 10
223.3699472537
 20
110.3843882846
 30
0.0
 40
2.000000000000014
  0
ARC
  5
99
330
1F
100
AcDbEntity
  8
0
  6
Continuous
 62
     7
370
    15
100
AcDbCircle
 10
223.3699472537
 20
110.3843882846
 30
0.0
 40
1.000000000000008
100
AcDbArc
 50
150.0
 51
210.0
  0
ARC
  5
9A
330
1F
100
AcDbEntity
  8
0
  6
Continuous
 62
     7
370
    15
100
AcDbCircle
 10
223.3699472537
 20
110.3843882846
 30
0.0
 40
1.000000000000008
100
AcDbArc
 50
90.0
 51
150.0
  0
ARC
  5
9B
330
1F
100
AcDbEntity
  8
0
  6
Continuous
 62
     7
370
    15
100
AcDbCircle
 10
223.3699472537
 20
110.3843882846
 30
0.0
 40
1.000000000000008
100
AcDbArc
 50
330.0
 51
30.0
  0
ARC
  5
9C
330
1F
100
AcDbEntity
  8
0
  6
Continuous
 62
     7
370
    15
100
AcDbCircle
 10
223.3699472537
 20
110.3843882846
 30
0.0
 40
1.000000000000008
100
AcDbArc
 50
30.0
 51
90.0
  0
ARC
  5
9D
330
1F
100
AcDbEntity
  8
0
  6
Continuous
 62
     7
370
    15
100
AcDbCircle
 10
223.3699472537
 20
110.3843882846
 30
0.0
 40
1.000000000000014
100
AcDbArc
 50
210.0
 51
270.0
  0
ARC
  5
9E
330
1F
100
AcDbEntity
  8
0
  6
Continuous
 62
     7
370
    15
100
AcDbCircle
 10
223.3699472537
 20
110.3843882846
 30
0.0
 40
1.000000000000014
100
AcDbArc
 50
270.0
 51
330.0
  0
SPLINE
  5
9F
330
1F
100
AcDbEntity
  8
0
  6
Continuous
 62
     7
370
    15
100
AcDbSpline
210
0.0
220
0.0
230
1.0
 70
     8
 71
     3
 72
    12
 73
     8
 74
     0
 42
0.000000001
 43
0.00000001
 40
0.0
 40
0.0
 40
0.0
 40
0.0
 40
0.5000000000000001
 40
0.5000000000000001
 40
0.75
 40
0.75
 40
1.0
 40
1.0
 40
1.0
 40
1.0
 10
195.5042269185743
 20
158.5904352362558
 30
0.0
 10
194.9653302234768
 20
157.5327354187547
 30
0.0
 10
194.4029994127572
 20
156.4303669837961
 30
0.0
 10
193.5343331701667
 20
154.7304023774334
 30
0.0
 10
193.2400044478242
 20
154.1548839619947
 30
0.0
 10
192.6464734488564
 20
152.9954552935362
 30
0.0
 10
192.347247190738
 20
152.4114956244549
 30
0.0
 10
192.0457603424846
 20
151.8237856638661
 30
0.0
  0
SPLINE
  5
A0
330
1F
100
AcDbEntity
  8
0
  6
Continuous
 62
     7
370
    15
100
AcDbSpline
210
0.0
220
0.0
230
1.0
 70
     8
 71
     3
 72
     9
 73
     5
 74
     0
 42
0.000000001
 43
0.00000001
 40
0.0
 40
0.0
 40
0.0
 40
0.0
 40
0.504794330390352
 40
1.0
 40
1.0
 40
1.0
 40
1.0
 10
196.144923659143
 20
159.5444935346422
 30
0.0
 10
196.0365412246423
 20
159.383651973353
 30
0.0
 10
195.8218350998392
 20
159.0650240656962
 30
0.0
 10
195.6094076710277
 20
158.7476498391084
 30
0.0
 10
195.5042124038996
 20
158.5904843227142
 30
0.0
  0
LINE
  5
A1
330
1F
100
AcDbEntity
  8
0
  6
Continuous
 62
     7
370
    15
100
AcDbLine
 10
196.1449472537
 20
61.2242269992
 30
0.0
 11
196.1449472537
 21
159.5445495699
 31
0.0
  0
SPLINE
  5
A2
330
1F
100
AcDbEntity
  8
0
  6
Continuous
 62
     7
370
    15
100
AcDbSpline
210
0.0
220
0.0
230
1.0
 70
     8
 71
     3
 72
     9
 73
     5
 74
     0
 42
0.000000001
 43
0.00000001
 40
0.0
 40
0.0
 40
0.0
 40
0.0
 40
0.4952056715554214
 40
1.0
 40
1.0
 40
1.0
 40
1.0
 10
195.5042124038996
 20
62.1782922463954
 30
0.0
 10
195.6094076714445
 20
62.02112672937707
 30
0.0
 10
195.821835100263
 20
61.70375250277608
 30
0.0
 10
196.0365412250621
 20
61.38512459513085
 30
0.0
 10
196.144923659143
 20
61.22428303446738
 30
0.0
  0
SPLINE
  5
A3
330
1F
100
AcDbEntity
  8
0
  6
Continuous
 62
     7
370
    15
100
AcDbSpline
210
0.0
220
0.0
230
1.0
 70
     8
 71
     3
 72
    12
 73
     8
 74
     0
 42
0.000000001
 43
0.00000001
 40
0.0
 40
0.0
 40
0.0
 40
0.0
 40
0.2499999999999993
 40
0.2499999999999993
 40
0.4999999999999986
 40
0.4999999999999986
 40
1.0
 40
1.0
 40
1.0
 40
1.0
 10
195.5042268863355
 20
62.17834139612958
 30
0.0
 10
195.2348893649666
 20
62.70697378481421
 30
0.0
 10
194.9591192475725
 20
63.24789843876091
 30
0.0
 10
194.3968589609668
 20
64.34995519312398
 30
0.0
 10
194.1097735875621
 20
64.9122520323608
 30
0.0
 10
193.2393471468428
 20
66.6156472676808
 30
0.0
 10
192.6473371506735
 20
67.7722940387629
 30
0.0
 10
192.0457603424846
 20
68.94499090524353
 30
0.0
  0
SPLINE
  5
A4
330
1F
100
AcDbEntity
  8
0
  6
Continuous
 62
     7
370
    15
100
AcDbSpline
210
0.0
220
0.0
230
1.0
 70
     8
 71
     3
 72
    12
 73
     8
 74
     0
 42
0.000000001
 43
0.00000001
 40
0.0
 40
0.0
 40
0.0
 40
0.0
 40
0.000512515335492
 40
0.2509311781568301
 40
0.5009716914398246
 40
0.7506335204405247
 40
1.0
 40
1.0
 40
1.0
 40
1.0
 10
199.4195130728008
 20
160.3842632423712
 30
0.0
 10
199.4196575294876
 20
160.3843049156885
 30
0.0
 10
199.4903845577817
 20
160.4047084702775
 30
0.0
 10
199.2471209975252
 20
160.3330968388887
 30
0.0
 10
198.6415963832933
 20
160.1647436304179
 30
0.0
 10
197.6164326988701
 20
159.8874100399611
 30
0.0
 10
196.6352488316483
 20
159.6587912906373
 30
0.0
 10
196.144947254418
 20
159.5445495698726
 30
0.0
  0
SPLINE
  5
A5
330
1F
100
AcDbEntity
  8
0
  6
Continuous
 62
     7
370
    15
100
AcDbSpline
210
0.0
220
0.0
230
1.0
 70
     8
 71
     3
 72
    13
 73
     9
 74
     0
 42
0.000000001
 43
0.00000001
 40
0.0
 40
0.0
 40
0.0
 40
0.0
 40
0.249249238042121
 40
0.4988437701386194
 40
0.6658825660857411
 40
0.8320256711231946
 40
0.9994886337290221
 40
0.9999999999999999
 40
0.9999999999999999
 40
0.9999999999999999
 40
0.9999999999999999
 10
196.144947254418
 20
61.22422699923699
 30
0.0
 10
196.6361319778376
 20
61.10973947554702
 30
0.0
 10
197.6191818807776
 20
60.88060582442754
 30
0.0
 10
198.5182253055877
 20
60.63739607327733
 30
0.0
 10
199.0765502062732
 20
60.48345886589195
 30
0.0
 10
199.3422214309824
 20
60.40720530704169
 30
0.0
 10
199.4511156769983
 20
60.37529112271918
 30
0.0
 10
199.4197554971799
 20
60.38444403666207
 30
0.0
 10
199.419660027007
 20
60.38447190098815
 30
0.0
  0
LINE
  5
A6
330
1F
100
AcDbEntity
  8
0
  6
Continuous
 62
     7
370
    15
100
AcDbLine
 10
168.4199472537
 20
63.3825000246
 30
0.0
 11
168.4199472537
 21
157.3862765445
 31
0.0
  0
SPLINE
  5
A7
330
1F
100
AcDbEntity
  8
0
  6
Continuous
 62
     7
370
    15
100
AcDbSpline
210
0.0
220
0.0
230
1.0
 70
     8
 71
     3
 72
    12
 73
     8
 74
     0
 42
0.000000001
 43
0.00000001
 40
0.0
 40
0.0
 40
0.0
 40
0.0
 40
0.2500000000000004
 40
0.2500000000000004
 40
0.5000000000000009
 40
0.5000000000000009
 40
1.0
 40
1.0
 40
1.0
 40
1.0
 10
168.8060836737807
 20
158.3188220184261
 30
0.0
 10
168.7544535516709
 20
158.2626177477114
 30
0.0
 10
168.7059213186804
 20
158.201328337191
 30
0.0
 10
168.6160961817226
 20
158.0668662631464
 30
0.0
 10
168.5743859085101
 20
157.9927471929035
 30
0.0
 10
168.468254528348
 20
157.7564395477351
 30
0.0
 10
168.419947253731
 20
157.5746160050851
 30
0.0
 10
168.419947253731
 20
157.386276544496
 30
0.0
  0
SPLINE
  5
A8
330
1F
100
AcDbEntity
  8
0
  6
Continuous
 62
     7
370
    15
100
AcDbSpline
210
0.0
220
0.0
230
1.0
 70
     8
 71
     3
 72
     8
 73
     4
 74
     0
 42
0.000000001
 43
0.00000001
 40
0.0
 40
0.0
 40
0.0
 40
0.0
 40
1.0
 40
1.0
 40
1.0
 40
1.0
 10
169.419947253731
 20
158.4894797800192
 30
0.0
 10
169.1930530100311
 20
158.4894797800192
 30
0.0
 10
168.9752033641048
 20
158.4254676130504
 30
0.0
 10
168.8060836737807
 20
158.3188220184261
 30
0.0
  0
SPLINE
  5
A9
330
1F
100
AcDbEntity
  8
0
  6
Continuous
 62
     7
370
    15
100
AcDbSpline
210
0.0
220
0.0
230
1.0
 70
     8
 71
     3
 72
    10
 73
     6
 74
     0
 42
0.000000001
 43
0.00000001
 40
0.0
 40
0.0
 40
0.0
 40
0.0
 40
0.5
 40
0.5
 40
1.0
 40
1.0
 40
1.0
 40
1.0
 10
168.8060836737806
 20
62.44995455068356
 30
0.0
 10
168.8906943145114
 20
62.39659972207087
 30
0.0
 10
168.985928936618
 20
62.35403026012067
 30
0.0
 10
169.1959662957978
 20
62.2947479254397
 30
0.0
 10
169.306398200582
 20
62.27929678909045
 30
0.0
 10
169.419947253731
 20
62.27929678909045
 30
0.0
  0
SPLINE
  5
AA
330
1F
100
AcDbEntity
  8
0
  6
Continuous
 62
     7
370
    15
100
AcDbSpline
210
0.0
220
0.0
230
1.0
 70
     8
 71
     3
 72
    12
 73
     8
 74
     0
 42
0.000000001
 43
0.00000001
 40
0.0
 40
0.0
 40
0.0
 40
0.0
 40
0.2500000000000039
 40
0.2500000000000039
 40
0.5000000000000079
 40
0.5000000000000079
 40
1.0
 40
1.0
 40
1.0
 40
1.0
 10
168.8060836737806
 20
62.44995455068356
 30
0.0
 10
168.7544535516709
 20
62.50615882139819
 30
0.0
 10
168.7059213186804
 20
62.56744823191859
 30
0.0
 10
168.6160961817226
 20
62.70191030596331
 30
0.0
 10
168.5743859085101
 20
62.77602937620613
 30
0.0
 10
168.468254528348
 20
63.01233702137458
 30
0.0
 10
168.419947253731
 20
63.19416056402448
 30
0.0
 10
168.419947253731
 20
63.3825000246136
 30
0.0
  0
LINE
  5
AB
330
1F
100
AcDbEntity
  8
0
  6
Continuous
 62
     7
370
    15
100
AcDbLine
 10
203.4199472537
 20
61.3843882846
 30
0.0
 11
203.4199472537
 21
159.3843882846
 31
0.0
  0
LINE
  5
AC
330
1F
100
AcDbEntity
  8
0
  6
Continuous
 62
     7
370
    15
100
AcDbLine
 10
181.0949472537
 20
158.48947978
 30
0.0
 11
169.4199472537
 21
158.48947978
 31
0.0
  0
LINE
  5
AD
330
1F
100
AcDbEntity
  8
0
  6
Continuous
 62
     7
370
    15
100
AcDbLine
 10
181.0949472537
 20
62.2792967891
 30
0.0
 11
181.0949472537
 21
158.48947978
 31
0.0
  0
LINE
  5
AE
330
1F
100
AcDbEntity
  8
0
  6
Continuous
 62
     7
370
    15
100
AcDbLine
 10
169.4199472537
 20
62.2792967891
 30
0.0
 11
181.0949472537
 21
62.2792967891
 31
0.0
  0
SPLINE
  5
AF
330
1F
100
AcDbEntity
  8
0
  6
Continuous
 62
     7
370
    15
100
AcDbSpline
210
0.0
220
0.0
230
1.0
 70
     8
 71
     3
 72
     8
 73
     4
 74
     0
 42
0.000000001
 43
0.00000001
 40
0.0
 40
0.0
 40
0.0
 40
0.0
 40
0.0012417047560384
 40
0.0012417047560384
 40
0.0012417047560384
 40
0.0012417047560384
 10
181.6525162902586
 20
157.7049584384758
 30
0.0
 10
181.4671277389642
 20
157.9666315240243
 30
0.0
 10
181.2812614933563
 20
158.2281356329019
 30
0.0
 10
181.0949472537309
 20
158.4894797800192
 30
0.0
  0
SPLINE
  5
B0
330
1F
100
AcDbEntity
  8
0
  6
Continuous
 62
     7
370
    15
100
AcDbSpline
210
0.0
220
0.0
230
1.0
 70
     8
 71
     3
 72
     8
 73
     4
 74
     0
 42
0.000000001
 43
0.00000001
 40
0.0
 40
0.0
 40
0.0
 40
0.0
 40
1.0
 40
1.0
 40
1.0
 40
1.0
 10
185.1941341649772
 20
151.3146643647378
 30
0.0
 10
184.0191466890743
 20
153.4477411196737
 30
0.0
 10
182.837900154978
 20
155.5774596855499
 30
0.0
 10
181.6525162902586
 20
157.7049584384758
 30
0.0
  0
SPLINE
  5
B1
330
1F
100
AcDbEntity
  8
0
  6
Continuous
 62
     7
370
    15
100
AcDbSpline
210
0.0
220
0.0
230
1.0
 70
     8
 71
     3
 72
     8
 73
     4
 74
     0
 42
0.000000001
 43
0.00000001
 40
0.0
 40
0.0
 40
0.0
 40
0.0
 40
1.0
 40
1.0
 40
1.0
 40
1.0
 10
185.1941341649772
 20
69.45411220437181
 30
0.0
 10
184.0190973671503
 20
67.32094591022647
 30
0.0
 10
182.8378501597113
 20
65.1912271532448
 30
0.0
 10
181.6525162902586
 20
63.06381813063383
 30
0.0
  0
SPLINE
  5
B2
330
1F
100
AcDbEntity
  8
0
  6
Continuous
 62
     7
370
    15
100
AcDbSpline
210
0.0
220
0.0
230
1.0
 70
     8
 71
     3
 72
     8
 73
     4
 74
     0
 42
0.000000001
 43
0.00000001
 40
0.0
 40
0.0
 40
0.0
 40
0.0
 40
0.0012417047560385
 40
0.0012417047560385
 40
0.0012417047560385
 40
0.0012417047560385
 10
181.0949472537309
 20
62.27929678909044
 30
0.0
 10
181.2812614933563
 20
62.54064093620767
 30
0.0
 10
181.4671277389642
 20
62.80214504508528
 30
0.0
 10
181.6525162902586
 20
63.06381813063383
 30
0.0
  0
SPLINE
  5
B3
330
1F
100
AcDbEntity
  8
0
  6
Continuous
 62
     7
370
    15
100
AcDbSpline
210
0.0
220
0.0
230
1.0
 70
     8
 71
     3
 72
    12
 73
     8
 74
     0
 42
0.000000001
 43
0.00000001
 40
0.0
 40
0.0
 40
0.0
 40
0.0
 40
0.2499999999999951
 40
0.2499999999999951
 40
0.4999999999999902
 40
0.4999999999999902
 40
1.0
 40
1.0
 40
1.0
 40
1.0
 10
192.0457603424846
 20
151.8237856638661
 30
0.0
 10
192.0095399210977
 20
151.7531785957663
 30
0.0
 10
191.9666142464498
 20
151.6894440044406
 30
0.0
 10
191.8690876631908
 20
151.5736698281921
 30
0.0
 10
191.8136561435741
 20
151.5211219841806
 30
0.0
 10
191.6351682406699
 20
151.3869733809663
 30
0.0
 10
191.4983314120221
 20
151.3264512789024
 30
0.0
 10
191.3529400194577
 20
151.305904694974
 30
0.0
  0
SPLINE
  5
B4
330
1F
100
AcDbEntity
  8
0
  6
Continuous
 62
     7
370
    15
100
AcDbSpline
210
0.0
220
0.0
230
1.0
 70
     8
 71
     3
 72
    12
 73
     8
 74
     0
 42
0.000000001
 43
0.00000001
 40
0.0
 40
0.0
 40
0.0
 40
0.0
 40
0.2499999999999957
 40
0.2499999999999957
 40
0.4999999999999913
 40
0.4999999999999913
 40
1.0
 40
1.0
 40
1.0
 40
1.0
 10
192.0457603424846
 20
68.9449909052435
 30
0.0
 10
192.0095399210976
 20
69.01559797334343
 30
0.0
 10
191.9666142464497
 20
69.07933256466917
 30
0.0
 10
191.8690876631907
 20
69.19510674091757
 30
0.0
 10
191.8136561435741
 20
69.247654584929
 30
0.0
 10
191.6351682406698
 20
69.38180318814338
 30
0.0
 10
191.4983314120221
 20
69.44232529020717
 30
0.0
 10
191.3529400194577
 20
69.46287187413557
 30
0.0
  0
SPLINE
  5
B5
330
1F
100
AcDbEntity
  8
0
  6
Continuous
 62
     7
370
    15
100
AcDbSpline
210
0.0
220
0.0
230
1.0
 70
     8
 71
     3
 72
    10
 73
     6
 74
     0
 42
0.000000001
 43
0.00000001
 40
0.0
 40
0.0
 40
0.0
 40
0.0
 40
0.5
 40
0.5
 40
1.0
 40
1.0
 40
1.0
 40
1.0
 10
185.5699472537309
 20
69.80485707040562
 30
0.0
 10
185.4909471854797
 20
69.76909283579774
 30
0.0
 10
185.417189935203
 20
69.7196032322383
 30
0.0
 10
185.2891348120698
 20
69.59931474073532
 30
0.0
 10
185.2362847776582
 20
69.530632587746
 30
0.0
 10
185.1941341649772
 20
69.45411220437181
 30
0.0
  0
SPLINE
  5
B6
330
1F
100
AcDbEntity
  8
0
  6
Continuous
 62
     7
370
    15
100
AcDbSpline
210
0.0
220
0.0
230
1.0
 70
     8
 71
     3
 72
    10
 73
     6
 74
     0
 42
0.000000001
 43
0.00000001
 40
0.0
 40
0.0
 40
0.0
 40
0.0
 40
0.5
 40
0.5
 40
1.0
 40
1.0
 40
1.0
 40
1.0
 10
185.5699472537309
 20
150.9639194987039
 30
0.0
 10
185.4906608060481
 20
150.9998133805564
 30
0.0
 10
185.4171485869275
 20
151.0493150904074
 30
0.0
 10
185.2901961340569
 20
151.168362787076
 30
0.0
 10
185.2361302853203
 20
151.2384244473443
 30
0.0
 10
185.1941341649772
 20
151.3146643647378
 30
0.0
  0
SPLINE
  5
B7
330
1F
100
AcDbEntity
  8
0
  6
Continuous
 62
     7
370
    15
100
AcDbSpline
210
0.0
220
0.0
230
1.0
 70
     8
 71
     3
 72
     8
 73
     4
 74
     0
 42
0.000000001
 43
0.00000001
 40
0.0
 40
0.0
 40
0.0
 40
0.0
 40
1.0
 40
1.0
 40
1.0
 40
1.0
 10
185.8869544880048
 20
150.8964604802175
 30
0.0
 10
185.7772527027031
 20
150.8956020630181
 30
0.0
 10
185.6699056817186
 20
150.9186671748929
 30
0.0
 10
185.5699472537309
 20
150.9639194987038
 30
0.0
  0
SPLINE
  5
B8
330
1F
100
AcDbEntity
  8
0
  6
Continuous
 62
     7
370
    15
100
AcDbSpline
210
0.0
220
0.0
230
1.0
 70
     8
 71
     3
 72
     8
 73
     4
 74
     0
 42
0.000000001
 43
0.00000001
 40
0.0
 40
0.0
 40
0.0
 40
0.0
 40
1.0
 40
1.0
 40
1.0
 40
1.0
 10
185.8869544880048
 20
69.87231608889216
 30
0.0
 10
185.7772527027031
 20
69.87317450609149
 30
0.0
 10
185.6699056817186
 20
69.8501093942167
 30
0.0
 10
185.5699472537308
 20
69.80485707040579
 30
0.0
  0
SPLINE
  5
B9
330
1F
100
AcDbEntity
  8
0
  6
Continuous
 62
     7
370
    15
100
AcDbSpline
210
0.0
220
0.0
230
1.0
 70
     8
 71
     3
 72
    10
 73
     6
 74
     0
 42
0.000000001
 43
0.00000001
 40
0.0
 40
0.0
 40
0.0
 40
0.0
 40
0.5
 40
0.5
 40
1.0
 40
1.0
 40
1.0
 40
1.0
 10
191.352940019457
 20
151.3059046949768
 30
0.0
 10
190.5053756526888
 20
151.1861276429158
 30
0.0
 10
189.6246622169669
 20
151.087437463252
 30
0.0
 10
187.7971059657513
 20
150.9461650570149
 30
0.0
 10
186.84367356265
 20
150.9039468133372
 30
0.0
 10
185.8869544880048
 20
150.8964604802175
 30
0.0
  0
SPLINE
  5
BA
330
1F
100
AcDbEntity
  8
0
  6
Continuous
 62
     7
370
    15
100
AcDbSpline
210
0.0
220
0.0
230
1.0
 70
     8
 71
     3
 72
    10
 73
     6
 74
     0
 42
0.000000001
 43
0.00000001
 40
0.0
 40
0.0
 40
0.0
 40
0.0
 40
0.5
 40
0.5
 40
1.0
 40
1.0
 40
1.0
 40
1.0
 10
191.352940019457
 20
69.46287187413276
 30
0.0
 10
190.5053756526888
 20
69.58264892619381
 30
0.0
 10
189.6246622169669
 20
69.68133910585763
 30
0.0
 10
187.7971059657513
 20
69.82261151209477
 30
0.0
 10
186.84367356265
 20
69.86482975577236
 30
0.0
 10
185.8869544880048
 20
69.87231608889216
 30
0.0
  0
SPLINE
  5
BB
330
1F
100
AcDbEntity
  8
0
  6
Continuous
 62
     7
370
    15
100
AcDbSpline
210
0.0
220
0.0
230
1.0
 70
    24
 71
     3
 72
    20
 73
    16
 74
     0
 42
0.000000001
 43
0.00000001
 40
0.0
 40
0.0
 40
0.0
 40
0.0
 40
0.5
 40
0.5
 40
0.75
 40
0.75
 40
0.875
 40
0.875
 40
0.9375
 40
0.9375
 40
0.96875
 40
0.984375
 40
0.9921875
 40
0.9921875
 40
1.0
 40
1.0
 40
1.0
 40
1.0
 10
168.419947253731
 20
145.6843882845548
 30
0.0
 10
168.419947253731
 20
145.6843882845548
 30
0.0
 10
168.3591832624263
 20
145.6843882845548
 30
0.0
 10
168.276180025359
 20
145.6843882845548
 30
0.0
 10
168.2495387681808
 20
145.6843882845548
 30
0.0
 10
168.2210857547139
 20
145.6843882845548
 30
0.0
 10
168.2135011292519
 20
145.6843882845548
 30
0.0
 10
168.205805631138
 20
145.6843882845548
 30
0.0
 10
168.2038496997451
 20
145.6843882845548
 30
0.0
 10
168.2018869677281
 20
145.6843882845548
 30
0.0
 10
168.2011478451699
 20
145.6843882845548
 30
0.0
 10
168.2007159540027
 20
145.6843882845548
 30
0.0
 10
168.2006233837497
 20
145.6843882845548
 30
0.0
 10
168.2005822528899
 20
145.6843882845548
 30
0.0
 10
168.2005719835185
 20
145.6843882845548
 30
0.0
 10
168.2005720035654
 20
145.6843882845548
 30
0.0
  0
LINE
  5
BC
330
1F
100
AcDbEntity
  8
0
  6
Continuous
 62
     7
370
    15
100
AcDbLine
 10
165.4199472537
 20
75.4593882846
 30
0.0
 11
165.4199472537
 21
145.3093882846
 31
0.0
  0
LINE
  5
BD
330
1F
100
AcDbEntity
  8
0
  6
Continuous
 62
     7
370
    15
100
AcDbLine
 10
63.6199472537
 20
92.0347104238
 30
0.0
 11
63.6199472537
 21
128.734066137
 31
0.0
  0
SPLINE
  5
BE
330
1F
100
AcDbEntity
  8
0
  6
Continuous
 62
     7
370
    15
100
AcDbSpline
210
0.0
220
0.0
230
1.0
 70
    11
 71
     3
 72
    60
 73
    56
 74
     0
 42
0.000000001
 43
0.00000001
 40
0.0
 40
0.0
 40
0.0
 40
0.0
 40
0.0625000000000018
 40
0.0625000000000018
 40
0.0937500000000021
 40
0.0937500000000021
 40
0.1250000000000023
 40
0.1250000000000023
 40
0.1562500000000026
 40
0.1562500000000026
 40
0.1875000000000028
 40
0.1875000000000028
 40
0.2187500000000031
 40
0.2187500000000031
 40
0.2500000000000033
 40
0.2500000000000033
 40
0.2812500000000036
 40
0.2812500000000036
 40
0.3125000000000038
 40
0.3125000000000038
 40
0.3437500000000041
 40
0.3437500000000041
 40
0.3750000000000043
 40
0.3750000000000043
 40
0.4062500000000046
 40
0.4062500000000046
 40
0.4375000000000048
 40
0.4375000000000048
 40
0.4687500000000051
 40
0.4687500000000051
 40
0.5000000000000053
 40
0.5000000000000053
 40
0.5312500000000056
 40
0.5312500000000056
 40
0.5625000000000058
 40
0.5625000000000058
 40
0.625000000000005
 40
0.625000000000005
 40
0.6875000000000041
 40
0.6875000000000041
 40
0.7500000000000033
 40
0.7500000000000033
 40
0.7812500000000029
 40
0.7812500000000029
 40
0.8125000000000024
 40
0.8125000000000024
 40
0.8437500000000021
 40
0.8437500000000021
 40
0.8750000000000017
 40
0.8750000000000017
 40
0.9062500000000012
 40
0.9062500000000012
 40
0.9375000000000008
 40
0.9375000000000008
 40
1.0
 40
1.0
 40
1.0
 40
1.0
 10
221.6961263223054
 20
112.0488200045658
 30
0.0
 10
221.9387047822729
 20
112.2456481310792
 30
0.0
 10
222.2124366790605
 20
112.3924789016892
 30
0.0
 10
222.6565951679397
 20
112.5398229484409
 30
0.0
 10
222.8072771251056
 20
112.575608138236
 30
0.0
 10
223.1137139780116
 20
112.6216436910105
 30
0.0
 10
223.2709741891348
 20
112.6317976468113
 30
0.0
 10
223.5825104909427
 20
112.6253896600155
 30
0.0
 10
223.7364213743421
 20
112.6091480211177
 30
0.0
 10
224.0405717432018
 20
112.5508056437571
 30
0.0
 10
224.192275410112
 20
112.5080572385347
 30
0.0
 10
224.4823783984167
 20
112.3980689027061
 30
0.0
 10
224.6211187661542
 20
112.3311028091753
 30
0.0
 10
224.8857695043031
 20
112.1725452982316
 30
0.0
 10
225.0128792927664
 20
112.0797092232954
 30
0.0
 10
225.243553020984
 20
111.8743886913032
 30
0.0
 10
225.3479772404268
 20
111.7617872113641
 30
0.0
 10
225.5337083691619
 20
111.5152585367679
 30
0.0
 10
225.6153622547023
 20
111.379800231395
 30
0.0
 10
225.7448608849507
 20
111.0993188200799
 30
0.0
 10
225.794027812349
 20
110.9530460434289
 30
0.0
 10
225.858674084594
 20
110.6473785189548
 30
0.0
 10
225.8731419087579
 20
110.4904377104825
 30
0.0
 10
225.8655548770468
 20
110.1804580124472
 30
0.0
 10
225.8432460389595
 20
110.0235737807759
 30
0.0
 10
225.7641061188652
 20
109.7221210732198
 30
0.0
 10
225.7079245397816
 20
109.5775509523305
 30
0.0
 10
225.5636225839917
 20
109.3001632328654
 30
0.0
 10
225.4769205939111
 20
109.1704663476827
 30
0.0
 10
225.2798862799154
 20
108.9317275713173
 30
0.0
 10
225.1678943885553
 20
108.8211026517079
 30
0.0
 10
224.927685357967
 20
108.6253508822747
 30
0.0
 10
224.7991604806377
 20
108.5394307886702
 30
0.0
 10
224.5257844060856
 20
108.3904671125584
 30
0.0
 10
224.3818336873567
 20
108.3282221007179
 30
0.0
 10
223.9411865611152
 20
108.1813510932861
 30
0.0
 10
223.6263338662288
 20
108.1341179271057
 30
0.0
 10
223.0066479491527
 20
108.1461145942575
 30
0.0
 10
222.6938531978966
 20
108.2055951868988
 30
0.0
 10
222.116062526675
 20
108.42402197004
 30
0.0
 10
221.8430662781685
 20
108.5860894013359
 30
0.0
 10
221.4980634303652
 20
108.8926976133533
 30
0.0
 10
221.3914758623459
 20
109.0073724392323
 30
0.0
 10
221.2044839646784
 20
109.2559825487803
 30
0.0
 10
221.125055675375
 20
109.3880346205306
 30
0.0
 10
220.9954343108444
 20
109.6683992964806
 30
0.0
 10
220.9449687065546
 20
109.819007077107
 30
0.0
 10
220.8810292189781
 20
110.1232881400025
 30
0.0
 10
220.8666605873359
 20
110.2776381680245
 30
0.0
 10
220.8744789986752
 20
110.5909353219482
 30
0.0
 10
220.8969946382611
 20
110.7468955173247
 30
0.0
 10
220.9760802513521
 20
111.0473900691344
 30
0.0
 10
221.0336974203163
 20
111.1950593563484
 30
0.0
 10
221.2495559338054
 20
111.6084424243975
 30
0.0
 10
221.4535478623379
 20
111.8519918780524
 30
0.0
 10
221.6961263223054
 20
112.0488200045658
 30
0.0
  0
LINE
  5
BF
330
1F
100
AcDbEntity
  8
0
  6
Continuous
 62
     7
370
    15
100
AcDbLine
 10
228.2199472537
 20
110.3843882846
 30
0.0
 11
228.2199472537
 21
100.3843882846
 31
0.0
  0
LINE
  5
C0
330
1F
100
AcDbEntity
  8
0
  6
Continuous
 62
     7
370
    15
100
AcDbLine
 10
228.2199472537
 20
120.3843882846
 30
0.0
 11
228.2199472537
 21
110.3843882846
 31
0.0
  0
LINE
  5
C1
330
1F
100
AcDbEntity
  8
0
  6
Continuous
 62
     7
370
    15
100
AcDbLine
 10
228.4199472537
 20
110.3843882846
 30
0.0
 11
228.4199472537
 21
100.5843882846
 31
0.0
  0
LINE
  5
C2
330
1F
100
AcDbEntity
  8
0
  6
Continuous
 62
     7
370
    15
100
AcDbLine
 10
228.4199472537
 20
120.1843882846
 30
0.0
 11
228.4199472537
 21
110.3843882846
 31
0.0
  0
CIRCLE
  5
C3
330
1F
100
AcDbEntity
  8
0
  6
HIDDEN
 62
     7
370
     0
100
AcDbCircle
 10
223.3699472537
 20
110.3843882846
 30
0.0
 40
1.426794919243108
  0
CIRCLE
  5
C4
330
1F
100
AcDbEntity
  8
0
  6
HIDDEN
 62
     7
370
     0
100
AcDbCircle
 10
223.3699472537
 20
110.3843882846
 30
0.0
 40
1.326794919243127
  0
SPLINE
  5
C5
330
1F
100
AcDbEntity
  8
0
  6
HIDDEN
 62
     7
370
     0
100
AcDbSpline
210
0.0
220
0.0
230
1.0
 70
     8
 71
     3
 72
     9
 73
     5
 74
     0
 42
0.000000001
 43
0.00000001
 40
0.0
 40
0.0
 40
0.0
 40
0.0
 40
0.326715502844845
 40
1.0
 40
1.0
 40
1.0
 40
1.0
 10
198.0439147274626
 20
60.76062784415194
 30
0.0
 10
197.8871218493451
 20
60.80271007317182
 30
0.0
 10
197.4072153963236
 20
60.93151396724313
 30
0.0
 10
196.653003855398
 20
61.10654061536265
 30
0.0
 10
196.1452049173173
 20
61.22438334413056
 30
0.0
  0
LINE
  5
C6
330
1F
100
AcDbEntity
  8
0
  6
HIDDEN
 62
     7
370
     0
100
AcDbLine
 10
168.4199472537
 20
145.6843882846
 30
0.0
 11
168.591520129
 21
145.6843882846
 31
0.0
  0
ELLIPSE
  5
C7
330
1F
100
AcDbEntity
  8
0
  6
HIDDEN
 62
     7
370
     0
100
AcDbEllipse
 10
168.591520129
 20
147.6843882846
 30
0.0
 11
0.0
 21
2.0
 31
0.0
210
0.0
220
0.0
230
1.0
 40
0.4142135624
 41
3.141592653589793
 42
4.712388980384681
  0
ELLIPSE
  5
C8
330
1F
100
AcDbEntity
  8
0
  6
HIDDEN
 62
     7
370
     0
100
AcDbEllipse
 10
168.591520129
 20
73.0843882846
 30
0.0
 11
0.0
 21
2.0
 31
0.0
210
0.0
220
0.0
230
1.0
 40
0.4142135624
 41
4.712388980384702
 42
6.283185307179586
  0
LINE
  5
C9
330
1F
100
AcDbEntity
  8
0
  6
HIDDEN
 62
     7
370
     0
100
AcDbLine
 10
168.591520129
 20
75.0843882846
 30
0.0
 11
168.4199472537
 21
75.0843882846
 31
0.0
  0
LINE
  5
CA
330
1F
100
AcDbEntity
  8
0
  6
HIDDEN
 62
     7
370
     0
100
AcDbLine
 10
169.4199472537
 20
63.0638181306
 30
0.0
 11
168.8060836738
 21
62.4499545507
 31
0.0
  0
LINE
  5
CB
330
1F
100
AcDbEntity
  8
0
  6
HIDDEN
 62
     7
370
     0
100
AcDbLine
 10
168.8060836738
 20
158.3188220184
 30
0.0
 11
169.4199472537
 21
157.7049584385
 31
0.0
  0
LINE
  5
CC
330
1F
100
AcDbEntity
  8
0
  6
HIDDEN
 62
     7
370
     0
100
AcDbLine
 10
185.5699472537
 20
145.6843882846
 30
0.0
 11
196.4199472537
 21
145.6843882846
 31
0.0
  0
LINE
  5
CD
330
1F
100
AcDbEntity
  8
0
  6
HIDDEN
 62
     7
370
     0
100
AcDbLine
 10
181.6525162903
 20
63.0638181306
 30
0.0
 11
169.4199472537
 21
63.0638181306
 31
0.0
  0
LINE
  5
CE
330
1F
100
AcDbEntity
  8
0
  6
HIDDEN
 62
     7
370
     0
100
AcDbLine
 10
169.4199472537
 20
63.0638181306
 30
0.0
 11
169.4199472537
 21
73.0843882846
 31
0.0
  0
SPLINE
  5
CF
330
1F
100
AcDbEntity
  8
0
  6
HIDDEN
 62
     7
370
     0
100
AcDbSpline
210
0.0
220
0.0
230
1.0
 70
     8
 71
     3
 72
    13
 73
     9
 74
     0
 42
0.000000001
 43
0.00000001
 40
0.0
 40
0.0
 40
0.0
 40
0.0
 40
0.0005825290635647
 40
0.1623661983773396
 40
0.3287385494553315
 40
0.4998718252132767
 40
0.7262528256169377
 40
1.0
 40
1.0
 40
1.0
 40
1.0
 10
198.4195130963373
 20
61.384521091214
 30
0.0
 10
198.4196578823721
 20
61.38447674902071
 30
0.0
 10
198.4600135650895
 20
61.37211741142871
 30
0.0
 10
198.3458589581986
 20
61.40774649743618
 30
0.0
 10
198.121741850498
 20
61.47559446034461
 30
0.0
 10
197.6424329595291
 20
61.61468763448806
 30
0.0
 10
196.8489253019006
 20
61.84493421526049
 30
0.0
 10
195.9799074294245
 20
62.06041978601869
 30
0.0
 10
195.5042469906177
 20
62.1783666826128
 30
0.0
  0
LINE
  5
D0
330
1F
100
AcDbEntity
  8
0
  6
HIDDEN
 62
     7
370
     0
100
AcDbLine
 10
196.4199472537
 20
75.0843882846
 30
0.0
 11
185.5699472537
 21
75.0843882846
 31
0.0
  0
LINE
  5
D1
330
1F
100
AcDbEntity
  8
0
  6
HIDDEN
 62
     7
370
     0
100
AcDbLine
 10
185.5699472537
 20
75.0843882846
 30
0.0
 11
168.591520129
 21
75.0843882846
 31
0.0
  0
LINE
  5
D2
330
1F
100
AcDbEntity
  8
0
  6
HIDDEN
 62
     7
370
     0
100
AcDbLine
 10
169.4199472537
 20
157.7049584385
 30
0.0
 11
181.6525162903
 21
157.7049584385
 31
0.0
  0
LINE
  5
D3
330
1F
100
AcDbEntity
  8
0
  6
HIDDEN
 62
     7
370
     0
100
AcDbLine
 10
169.4199472537
 20
157.7049584385
 30
0.0
 11
169.4199472537
 21
147.6843882846
 31
0.0
  0
LINE
  5
D4
330
1F
100
AcDbEntity
  8
0
  6
HIDDEN
 62
     7
370
     0
100
AcDbLine
 10
168.591520129
 20
145.6843882846
 30
0.0
 11
185.5699472537
 21
145.6843882846
 31
0.0
  0
SPLINE
  5
D5
330
1F
100
AcDbEntity
  8
0
  6
HIDDEN
 62
     7
370
     0
100
AcDbSpline
210
0.0
220
0.0
230
1.0
 70
     8
 71
     3
 72
    14
 73
    10
 74
     0
 42
0.000000001
 43
0.00000001
 40
0.0
 40
0.0
 40
0.0
 40
0.0
 40
0.1878282877623173
 40
0.3545816313016879
 40
0.5003024319338173
 40
0.6713282049188825
 40
0.8376422060211013
 40
0.9994166164999629
 40
1.0
 40
1.0
 40
1.0
 40
1.0
 10
195.5042469906176
 20
158.5904098864968
 30
0.0
 10
195.837249913007
 20
158.6719578239504
 30
0.0
 10
196.4658917478219
 20
158.8259037552904
 30
0.0
 10
197.1653283197267
 20
159.0168824734085
 30
0.0
 10
197.7132054191563
 20
159.1742547604843
 30
0.0
 10
198.1193210132735
 20
159.2925801965079
 30
0.0
 10
198.3524489059725
 20
159.362957211123
 30
0.0
 10
198.4464382925696
 20
159.3925915623973
 30
0.0
 10
198.4197553994258
 20
159.3843290367938
 30
0.0
 10
198.4196595225404
 20
159.3842993479135
 30
0.0
  0
LINE
  5
D6
330
1F
100
AcDbEntity
  8
0
  6
HIDDEN
 62
     7
370
     0
100
AcDbLine
 10
196.0035813555
 20
158.7147239244
 30
0.0
 11
195.5042427022
 21
158.5904545409
 31
0.0
  0
LINE
  5
D7
330
1F
100
AcDbEntity
  8
0
  6
HIDDEN
 62
     7
370
     0
100
AcDbLine
 10
73.6199472537
 20
97.8843882846
 30
0.0
 11
73.6199472537
 21
122.8843882846
 31
0.0
  0
LINE
  5
D8
330
1F
100
AcDbEntity
  8
0
  6
HIDDEN
 62
     7
370
     0
100
AcDbLine
 10
76.9045516027
 20
99.8843882846
 30
0.0
 11
76.9045516027
 21
120.8843882846
 31
0.0
  0
LINE
  5
D9
330
1F
100
AcDbEntity
  8
0
  6
HIDDEN
 62
     7
370
     0
100
AcDbLine
 10
126.6199472537
 20
99.8843882846
 30
0.0
 11
126.6199472537
 21
120.8843882846
 31
0.0
  0
LINE
  5
DA
330
1F
100
AcDbEntity
  8
0
  6
HIDDEN
 62
     7
370
     0
100
AcDbLine
 10
131.6671764536
 20
108.2843882846
 30
0.0
 11
131.6671764536
 21
112.4843882846
 31
0.0
  0
SPLINE
  5
DB
330
1F
100
AcDbEntity
  8
0
  6
HIDDEN
 62
     7
370
     0
100
AcDbSpline
210
0.0
220
0.0
230
1.0
 70
     8
 71
     3
 72
     9
 73
     5
 74
     0
 42
0.000000001
 43
0.00000001
 40
0.0
 40
0.0
 40
0.0
 40
0.0
 40
0.4951995003022724
 40
1.0
 40
1.0
 40
1.0
 40
1.0
 10
195.504231468168
 20
158.5904004489675
 30
0.0
 10
195.6094276898037
 20
158.7475562090876
 30
0.0
 10
195.8218596926055
 20
159.0649146878907
 30
0.0
 10
196.0365780761194
 20
159.3835412359934
 30
0.0
 10
196.1449680234115
 20
159.5443840766926
 30
0.0
  0
SPLINE
  5
DC
330
1F
100
AcDbEntity
  8
0
  6
HIDDEN
 62
     7
370
     0
100
AcDbSpline
210
0.0
220
0.0
230
1.0
 70
     8
 71
     3
 72
     9
 73
     5
 74
     0
 42
0.000000001
 43
0.00000001
 40
0.0
 40
0.0
 40
0.0
 40
0.0
 40
0.5048005003628353
 40
1.0
 40
1.0
 40
1.0
 40
1.0
 10
196.1449680234115
 20
61.22439249241697
 30
0.0
 10
196.0365780759796
 20
61.38523533332159
 30
0.0
 10
195.8218596924718
 20
61.70386188141137
 30
0.0
 10
195.6094276896649
 20
62.02122036022695
 30
0.0
 10
195.504231468168
 20
62.17837612014203
 30
0.0
  0
SPLINE
  5
DD
330
1F
100
AcDbEntity
  8
0
  6
HIDDEN
 62
     7
370
     0
100
AcDbSpline
210
0.0
220
0.0
230
1.0
 70
     8
 71
     3
 72
    16
 73
    12
 74
     0
 42
0.000000001
 43
0.00000001
 40
0.0
 40
0.0
 40
0.0
 40
0.0
 40
0.2500000000000002
 40
0.2500000000000002
 40
0.5000000000000004
 40
0.5000000000000004
 40
0.6250000000000006
 40
0.6250000000000006
 40
0.7500000000000007
 40
0.7500000000000007
 40
1.0
 40
1.0
 40
1.0
 40
1.0
 10
228.4199472537309
 20
115.8530243659886
 30
0.0
 10
228.4199472537309
 20
115.7838904646495
 30
0.0
 10
228.415413444511
 20
115.7132693172148
 30
0.0
 10
228.3902495975302
 20
115.5667458308585
 30
0.0
 10
228.3699624549931
 20
115.4893039557079
 30
0.0
 10
228.3113530782228
 20
115.3836554917538
 30
0.0
 10
228.2868247816367
 20
115.3515752116837
 30
0.0
 10
228.232478875795
 20
115.3044494883275
 30
0.0
 10
228.2028790510271
 20
115.28939613987
 30
0.0
 10
228.1189294928352
 20
115.2653907054989
 30
0.0
 10
228.067571094104
 20
115.2729531402421
 30
0.0
 10
228.019947253844
 20
115.286992495312
 30
0.0
  0
SPLINE
  5
DE
330
1F
100
AcDbEntity
  8
0
  6
HIDDEN
 62
     7
370
     0
100
AcDbSpline
210
0.0
220
0.0
230
1.0
 70
     8
 71
     3
 72
     8
 73
     4
 74
     0
 42
0.000000001
 43
0.00000001
 40
0.0
 40
0.0
 40
0.0
 40
0.0
 40
1.0
 40
1.0
 40
1.0
 40
1.0
 10
228.0199472538436
 20
115.2869924953122
 30
0.0
 10
227.9607809449514
 20
115.2531432044837
 30
0.0
 10
227.8919979594271
 20
115.2310278283028
 30
0.0
 10
227.819947253731
 20
115.2310278283028
 30
0.0
  0
SPLINE
  5
DF
330
1F
100
AcDbEntity
  8
0
  6
HIDDEN
 62
     7
370
     0
100
AcDbSpline
210
0.0
220
0.0
230
1.0
 70
     8
 71
     3
 72
     8
 73
     4
 74
     0
 42
0.000000001
 43
0.00000001
 40
0.0
 40
0.0
 40
0.0
 40
0.0
 40
1.0
 40
1.0
 40
1.0
 40
1.0
 10
228.0199472536661
 20
105.481784073899
 30
0.0
 10
227.9607809448163
 20
105.5156333646704
 30
0.0
 10
227.8919979593551
 20
105.5377487408068
 30
0.0
 10
227.819947253731
 20
105.5377487408068
 30
0.0
  0
SPLINE
  5
E0
330
1F
100
AcDbEntity
  8
0
  6
HIDDEN
 62
     7
370
     0
100
AcDbSpline
210
0.0
220
0.0
230
1.0
 70
     8
 71
     3
 72
    16
 73
    12
 74
     0
 42
0.000000001
 43
0.00000001
 40
0.0
 40
0.0
 40
0.0
 40
0.0
 40
0.2500000000000324
 40
0.2500000000000324
 40
0.3750000000000332
 40
0.3750000000000332
 40
0.5000000000000341
 40
0.5000000000000341
 40
0.750000000000017
 40
0.750000000000017
 40
1.0
 40
1.0
 40
1.0
 40
1.0
 10
228.0199472536537
 20
105.4817840738988
 30
0.0
 10
228.0672518415169
 20
105.4957292426896
 30
0.0
 10
228.1182499806706
 20
105.5033102300893
 30
0.0
 10
228.2018489869393
 20
105.4798013971283
 30
0.0
 10
228.2309863287743
 20
105.4652371295377
 30
0.0
 10
228.2853100007142
 20
105.4188674429097
 30
0.0
 10
228.3097931476301
 20
105.3873429795208
 30
0.0
 10
228.3686337039228
 20
105.2829678802989
 30
0.0
 10
228.3895150815781
 20
105.2052020550963
 30
0.0
 10
228.4152857921345
 20
105.0573145206264
 30
0.0
 10
228.419946946358
 20
104.9852038687039
 30
0.0
 10
228.4199472537167
 20
104.9157575185658
 30
0.0
  0
LINE
  5
E1
330
1F
100
AcDbEntity
  8
0
  6
HIDDEN
 62
     7
370
     0
100
AcDbLine
 10
214.9199472537
 20
110.3843882846
 30
0.0
 11
214.9199472537
 21
105.1843882846
 31
0.0
  0
LINE
  5
E2
330
1F
100
AcDbEntity
  8
0
  6
HIDDEN
 62
     7
370
     0
100
AcDbLine
 10
214.9199472537
 20
115.5843882846
 30
0.0
 11
214.9199472537
 21
110.3843882846
 31
0.0
  0
LINE
  5
E3
330
1F
100
AcDbEntity
  8
0
  6
HIDDEN
 62
     7
370
     0
100
AcDbLine
 10
218.2859726575
 20
110.3843882846
 30
0.0
 11
218.2859726575
 21
104.8843882846
 31
0.0
  0
LINE
  5
E4
330
1F
100
AcDbEntity
  8
0
  6
HIDDEN
 62
     7
370
     0
100
AcDbLine
 10
218.2859726575
 20
115.8843882846
 30
0.0
 11
218.2859726575
 21
110.3843882846
 31
0.0
  0
LINE
  5
E5
330
1F
100
AcDbEntity
  8
0
  6
HIDDEN
 62
     7
370
     0
100
AcDbLine
 10
222.5199472537
 20
115.2310278283
 30
0.0
 11
227.8199472537
 21
115.2310278283
 31
0.0
  0
LINE
  5
E6
330
1F
100
AcDbEntity
  8
0
  6
HIDDEN
 62
     7
370
     0
100
AcDbLine
 10
222.5199472537
 20
105.5377487408
 30
0.0
 11
227.8199472537
 21
105.5377487408
 31
0.0
  0
SPLINE
  5
E7
330
1F
100
AcDbEntity
  8
0
  6
HIDDEN
 62
     7
370
     0
100
AcDbSpline
210
0.0
220
0.0
230
1.0
 70
    11
 71
     3
 72
    20
 73
    16
 74
     0
 42
0.000000001
 43
0.00000001
 40
0.0
 40
0.0
 40
0.0
 40
0.0
 40
0.1249999999999998
 40
0.1249999999999998
 40
0.2499999999999997
 40
0.2499999999999997
 40
0.4999999999999996
 40
0.4999999999999996
 40
0.6249999999999997
 40
0.6249999999999997
 40
0.7499999999999998
 40
0.7499999999999998
 40
0.8749999999999999
 40
0.8749999999999999
 40
1.0
 40
1.0
 40
1.0
 40
1.0
 10
228.0199472537309
 20
117.7843882845548
 30
0.0
 10
228.0199472537309
 20
117.8835629658653
 30
0.0
 10
228.0201136963879
 20
117.9731095835444
 30
0.0
 10
228.0181533570848
 20
118.1335062602027
 30
0.0
 10
228.0161649901832
 20
118.2036361277932
 30
0.0
 10
228.0091613393705
 20
118.373026403143
 30
0.0
 10
228.0014325164205
 20
118.4343718254151
 30
0.0
 10
227.995750924904
 20
118.4343965090354
 30
0.0
 10
227.9947574821192
 20
118.4196941209429
 30
0.0
 10
227.9963409819759
 20
118.3609102850778
 30
0.0
 10
227.9986703969791
 20
118.3170948734345
 30
0.0
 10
228.0053401964869
 20
118.2042057979692
 30
0.0
 10
228.0099339910276
 20
118.1338586062471
 30
0.0
 10
228.0172114115088
 20
117.9743138839822
 30
0.0
 10
228.0199472229586
 20
117.8835798506569
 30
0.0
 10
228.0199471287808
 20
117.7843882845569
 30
0.0
  0
LWPOLYLINE
  5
E8
330
1F
100
AcDbEntity
  8
0
  6
HIDDEN
 62
     7
370
     0
100
AcDbPolyline
 90
        4
 70
   128
 43
0.0
 10
228.0199471288
 20
117.7843882846
 10
228.0199472525
 20
117.042277584
 10
228.0199472704
 20
116.3001668834
 10
228.0199472538
 20
115.2869924953
  0
LWPOLYLINE
  5
E9
330
1F
100
AcDbEntity
  8
0
  6
HIDDEN
 62
     7
370
     0
100
AcDbPolyline
 90
        3
 70
   128
 43
0.0
 10
228.0199473039
 20
102.9843882846
 10
228.0199472493
 20
104.2610685127
 10
228.0199472537
 20
105.4817840739
  0
SPLINE
  5
EA
330
1F
100
AcDbEntity
  8
0
  6
HIDDEN
 62
     7
370
     0
100
AcDbSpline
210
0.0
220
0.0
230
1.0
 70
     8
 71
     3
 72
    11
 73
     7
 74
     0
 42
0.000000001
 43
0.00000001
 40
0.0
 40
0.0
 40
0.0
 40
0.0
 40
0.2832653816797496
 40
0.6060535643999898
 40
0.929381240211602
 40
1.0
 40
1.0
 40
1.0
 40
1.0
 10
227.998156284942
 20
102.3425171222728
 30
0.0
 10
227.9965736024941
 20
102.3510246139138
 30
0.0
 10
227.9931874127198
 20
102.3692266109335
 30
0.0
 10
228.0063254269791
 20
102.5726046350647
 30
0.0
 10
228.0190839371545
 20
102.8060470772895
 30
0.0
 10
228.0198160631767
 20
102.9572785591555
 30
0.0
 10
228.019947303942
 20
102.9843882845528
 30
0.0
  0
LINE
  5
EB
330
1F
100
AcDbEntity
  8
0
  6
HIDDEN
 62
     7
370
     0
100
AcDbLine
 10
222.5199472537
 20
102.9843882846
 30
0.0
 11
222.5199472537
 21
105.5377487408
 31
0.0
  0
LINE
  5
EC
330
1F
100
AcDbEntity
  8
0
  6
HIDDEN
 62
     7
370
     0
100
AcDbLine
 10
222.5199472537
 20
117.7843882846
 30
0.0
 11
222.5199472537
 21
115.2310278283
 31
0.0
  0
LINE
  5
ED
330
1F
100
AcDbEntity
  8
0
  6
HIDDEN
 62
     7
370
     0
100
AcDbLine
 10
222.5199472537
 20
118.4343882846
 30
0.0
 11
222.5199472537
 21
117.7843882846
 31
0.0
  0
LINE
  5
EE
330
1F
100
AcDbEntity
  8
0
  6
HIDDEN
 62
     7
370
     0
100
AcDbLine
 10
222.5199472537
 20
102.3343882846
 30
0.0
 11
222.5199472537
 21
102.9843882846
 31
0.0
  0
ARC
  5
EF
330
1F
100
AcDbEntity
  8
0
  6
HIDDEN
 62
     7
370
     0
100
AcDbCircle
 10
64.8199472537
 20
96.6843882846
 30
0.0
 40
1.20000000000001
100
AcDbArc
 50
90.0
 51
180.0
  0
ARC
  5
F0
330
1F
100
AcDbEntity
  8
0
  6
HIDDEN
 62
     7
370
     0
100
AcDbCircle
 10
64.8199472537
 20
124.0843882846
 30
0.0
 40
1.20000000000001
100
AcDbArc
 50
180.0
 51
270.0
  0
ARC
  5
F1
330
1F
100
AcDbEntity
  8
0
  6
HIDDEN
 62
     7
370
     0
100
AcDbCircle
 10
196.4199472537
 20
147.6843882846
 30
0.0
 40
2.000000000000028
100
AcDbArc
 50
270.0
 51
0.0
  0
LINE
  5
F2
330
1F
100
AcDbEntity
  8
0
  6
HIDDEN
 62
     7
370
     0
100
AcDbLine
 10
198.4199472537
 20
61.2841728975
 30
0.0
 11
198.4199472537
 21
73.0843882846
 31
0.0
  0
ARC
  5
F3
330
1F
100
AcDbEntity
  8
0
  6
HIDDEN
 62
     7
370
     0
100
AcDbCircle
 10
196.4199472537
 20
73.0843882846
 30
0.0
 40
2.000000000000028
100
AcDbArc
 50
0.0
 51
90.0
  0
LINE
  5
F4
330
1F
100
AcDbEntity
  8
0
  6
HIDDEN
 62
     7
370
     0
100
AcDbLine
 10
198.4199472537
 20
147.6843882846
 30
0.0
 11
198.4199472537
 21
159.4844916351
 31
0.0
  0
LINE
  5
F5
330
1F
100
AcDbEntity
  8
0
  6
HIDDEN
 62
     7
370
     0
100
AcDbLine
 10
74.5123196845
 20
97.6593882846
 30
0.0
 11
75.3890071461
 21
97.6593882846
 31
0.0
  0
LINE
  5
F6
330
1F
100
AcDbEntity
  8
0
  6
HIDDEN
 62
     7
370
     0
100
AcDbLine
 10
75.3890071461
 20
123.1093882846
 30
0.0
 11
74.5123196845
 21
123.1093882846
 31
0.0
  0
ARC
  5
F7
330
1F
100
AcDbEntity
  8
0
  6
HIDDEN
 62
     7
370
     0
100
AcDbCircle
 10
74.5123196845
 20
98.0593882846
 30
0.0
 40
0.4000000000000199
100
AcDbArc
 50
255.0
 51
270.0
  0
ARC
  5
F8
330
1F
100
AcDbEntity
  8
0
  6
HIDDEN
 62
     7
370
     0
100
AcDbCircle
 10
74.5123196845
 20
122.7093882846
 30
0.0
 40
0.4000000000000057
100
AcDbArc
 50
90.0
 51
105.0
  0
ARC
  5
F9
330
1F
100
AcDbEntity
  8
0
  6
HIDDEN
 62
     7
370
     0
100
AcDbCircle
 10
75.3890071461
 20
98.0593882846
 30
0.0
 40
0.4000000000000199
100
AcDbArc
 50
270.0
 51
330.0
  0
ARC
  5
FA
330
1F
100
AcDbEntity
  8
0
  6
HIDDEN
 62
     7
370
     0
100
AcDbCircle
 10
75.3890071461
 20
122.7093882846
 30
0.0
 40
0.4000000000000121
100
AcDbArc
 50
30.0
 51
90.0
  0
LINE
  5
FB
330
1F
100
AcDbEntity
  8
0
  6
HIDDEN
 62
     7
370
     0
100
AcDbLine
 10
74.4087920664
 20
123.0957586151
 30
0.0
 11
73.6199472537
 21
122.8843882846
 31
0.0
  0
LINE
  5
FC
330
1F
100
AcDbEntity
  8
0
  6
HIDDEN
 62
     7
370
     0
100
AcDbLine
 10
73.6199472537
 20
97.8843882846
 30
0.0
 11
74.4087920664
 21
97.673017954
 31
0.0
  0
LINE
  5
FD
330
1F
100
AcDbEntity
  8
0
  6
HIDDEN
 62
     7
370
     0
100
AcDbLine
 10
75.7354173076
 20
97.8593882846
 30
0.0
 11
76.9045516027
 21
99.8843882846
 31
0.0
  0
LINE
  5
FE
330
1F
100
AcDbEntity
  8
0
  6
HIDDEN
 62
     7
370
     0
100
AcDbLine
 10
76.9045516027
 20
120.8843882846
 30
0.0
 11
75.7354173076
 21
122.9093882846
 31
0.0
  0
LINE
  5
FF
330
1F
100
AcDbEntity
  8
0
  6
HIDDEN
 62
     7
370
     0
100
AcDbLine
 10
64.8199472537
 20
97.8843882846
 30
0.0
 11
73.6199472537
 21
97.8843882846
 31
0.0
  0
LINE
  5
100
330
1F
100
AcDbEntity
  8
0
  6
HIDDEN
 62
     7
370
     0
100
AcDbLine
 10
73.6199472537
 20
122.8843882846
 30
0.0
 11
64.8199472537
 21
122.8843882846
 31
0.0
  0
LINE
  5
101
330
1F
100
AcDbEntity
  8
0
  6
HIDDEN
 62
     7
370
     0
100
AcDbLine
 10
126.6199472537
 20
99.8843882846
 30
0.0
 11
131.6671764536
 21
108.2843882846
 31
0.0
  0
LINE
  5
102
330
1F
100
AcDbEntity
  8
0
  6
HIDDEN
 62
     7
370
     0
100
AcDbLine
 10
131.6671764536
 20
112.4843882846
 30
0.0
 11
126.6199472537
 21
120.8843882846
 31
0.0
  0
LINE
  5
103
330
1F
100
AcDbEntity
  8
0
  6
HIDDEN
 62
     7
370
     0
100
AcDbLine
 10
76.9045516027
 20
99.8843882846
 30
0.0
 11
126.6199472537
 21
99.8843882846
 31
0.0
  0
LINE
  5
104
330
1F
100
AcDbEntity
  8
0
  6
HIDDEN
 62
     7
370
     0
100
AcDbLine
 10
126.6199472537
 20
120.8843882846
 30
0.0
 11
76.9045516027
 21
120.8843882846
 31
0.0
  0
LINE
  5
105
330
1F
100
AcDbEntity
  8
0
  6
HIDDEN
 62
     7
370
     0
100
AcDbLine
 10
198.4199515741
 20
159.3843888082
 30
0.0
 11
199.4199514235
 21
160.3843885871
 31
0.0
  0
LINE
  5
106
330
1F
100
AcDbEntity
  8
0
  6
HIDDEN
 62
     7
370
     0
100
AcDbLine
 10
199.4199514241
 20
60.3843879813
 30
0.0
 11
198.4199515748
 21
61.3843877601
 31
0.0
  0
LINE
  5
107
330
1F
100
AcDbEntity
  8
0
  6
HIDDEN
 62
     7
370
     0
100
AcDbLine
 10
216.3146252557
 20
116.3843882846
 30
0.0
 11
215.7199472537
 21
116.3843882846
 31
0.0
  0
LINE
  5
108
330
1F
100
AcDbEntity
  8
0
  6
HIDDEN
 62
     7
370
     0
100
AcDbLine
 10
215.7199472537
 20
104.3843882846
 30
0.0
 11
216.3146252557
 21
104.3843882846
 31
0.0
  0
ARC
  5
109
330
1F
100
AcDbEntity
  8
0
  6
HIDDEN
 62
     7
370
     0
100
AcDbCircle
 10
216.3146252557
 20
115.5843882846
 30
0.0
 40
0.8000000000000114
100
AcDbArc
 50
75.0
 51
90.0
  0
ARC
  5
10A
330
1F
100
AcDbEntity
  8
0
  6
HIDDEN
 62
     7
370
     0
100
AcDbCircle
 10
216.3146252557
 20
105.1843882846
 30
0.0
 40
0.8000000000000114
100
AcDbArc
 50
270.0
 51
285.0
  0
ARC
  5
10B
330
1F
100
AcDbEntity
  8
0
  6
HIDDEN
 62
     7
370
     0
100
AcDbCircle
 10
215.7199472537
 20
115.5843882846
 30
0.0
 40
0.8000000000000114
100
AcDbArc
 50
90.0
 51
180.0
  0
ARC
  5
10C
330
1F
100
AcDbEntity
  8
0
  6
HIDDEN
 62
     7
370
     0
100
AcDbCircle
 10
215.7199472537
 20
105.1843882846
 30
0.0
 40
0.8000000000000114
100
AcDbArc
 50
180.0
 51
270.0
  0
LINE
  5
10D
330
1F
100
AcDbEntity
  8
0
  6
HIDDEN
 62
     7
370
     0
100
AcDbLine
 10
216.5216804917
 20
104.4116476235
 30
0.0
 11
218.2859726575
 21
104.8843882846
 31
0.0
  0
LINE
  5
10E
330
1F
100
AcDbEntity
  8
0
  6
HIDDEN
 62
     7
370
     0
100
AcDbLine
 10
218.2859726575
 20
115.8843882846
 30
0.0
 11
216.5216804917
 21
116.3571289456
 31
0.0
  0
LINE
  5
10F
330
1F
100
AcDbEntity
  8
0
  6
HIDDEN
 62
     7
370
     0
100
AcDbLine
 10
222.5199472537
 20
115.8843882846
 30
0.0
 11
218.2859726575
 21
115.8843882846
 31
0.0
  0
LINE
  5
110
330
1F
100
AcDbEntity
  8
0
  6
HIDDEN
 62
     7
370
     0
100
AcDbLine
 10
218.2859726575
 20
104.8843882846
 30
0.0
 11
222.5199472537
 21
104.8843882846
 31
0.0
  0
LINE
  5
111
330
1F
100
AcDbEntity
  8
0
  6
HIDDEN
 62
     7
370
     0
100
AcDbLine
 10
228.4199472537
 20
118.8566910167
 30
0.0
 11
227.9918663329
 21
118.4287180971
 31
0.0
  0
LINE
  5
112
330
1F
100
AcDbEntity
  8
0
  6
HIDDEN
 62
     7
370
     0
100
AcDbLine
 10
227.9918675331
 20
102.3400481282
 30
0.0
 11
228.4199472537
 21
101.9120801294
 31
0.0
  0
LINE
  5
113
330
1F
100
AcDbEntity
  8
0
  6
HIDDEN
 62
     7
370
     0
100
AcDbLine
 10
131.6671764536
 20
108.2843882846
 30
0.0
 11
214.9199472537
 21
108.2843882846
 31
0.0
  0
LINE
  5
114
330
1F
100
AcDbEntity
  8
0
  6
HIDDEN
 62
     7
370
     0
100
AcDbLine
 10
214.9199472537
 20
112.4843882846
 30
0.0
 11
131.6671764536
 21
112.4843882846
 31
0.0
  0
LINE
  5
115
330
1F
100
AcDbEntity
  8
0
  6
HIDDEN
 62
     7
370
     0
100
AcDbLine
 10
227.998206019
 20
118.4343882846
 30
0.0
 11
222.5199472537
 21
118.4343882846
 31
0.0
  0
LINE
  5
116
330
1F
100
AcDbEntity
  8
0
  6
HIDDEN
 62
     7
370
     0
100
AcDbLine
 10
222.5199472537
 20
102.3343882846
 30
0.0
 11
227.9982057103
 21
102.3343882846
 31
0.0
  0
DIMENSION
  5
117
330
1F
100
AcDbEntity
  8
VERMASSUNG
100
AcDbDimension
  2
_D
 10
235.452256617
 20
104.8843882846
 30
0.0
 11
235.452256617
 21
110.3843882846
 31
0.0
 70
   160
  1
%%c<>
 71
     2
 42
-1.0
  3
SLDDIMSTYLE0
100
AcDbAlignedDimension
 13
222.5199472537
 23
115.8843882846
 33
0.0
 14
222.5199472537
 24
104.8843882846
 34
0.0
 50
90.0
100
AcDbRotatedDimension
  0
DIMENSION
  5
123
330
1F
100
AcDbEntity
  8
VERMASSUNG
100
AcDbDimension
  2
_D_1
 10
241.552256617
 20
100.3843882846
 30
0.0
 11
241.552256617
 21
110.3843882846
 31
0.0
 70
   160
  1
ST1 %%c<>
 71
     2
 42
-1.0
  3
SLDDIMSTYLE0
100
AcDbAlignedDimension
 13
228.2199472537
 23
120.3843882846
 33
0.0
 14
228.2199472537
 24
100.3843882846
 34
0.0
 50
90.0
100
AcDbRotatedDimension
  0
DIMENSION
  5
12F
330
1F
100
AcDbEntity
  8
VERMASSUNG
100
AcDbDimension
  2
_D_2
 10
228.4199472537
 20
163.0988067947
 30
0.0
 11
215.9199472537
 21
163.0988067947
 31
0.0
 70
   160
  1
(<>)
 71
     2
 42
-1.0
  3
SLDDIMSTYLE0
100
AcDbAlignedDimension
 13
203.4199472537
 23
159.3843882846
 33
0.0
 14
228.4199472537
 24
120.1843882846
 34
0.0
100
AcDbRotatedDimension
  0
DIMENSION
  5
13B
330
1F
100
AcDbEntity
  8
VERMASSUNG
100
AcDbDimension
  2
_D_3
 10
228.4199472537
 20
169.0988067947
 30
0.0
 11
196.9199472537
 21
169.0988067947
 31
0.0
 70
   160
  1
<>
 71
     2
 42
-1.0
  3
SLDDIMSTYLE0
100
AcDbAlignedDimension
 13
165.4199472537
 23
145.3093882846
 33
0.0
 14
228.4199472537
 24
120.1843882846
 34
0.0
100
AcDbRotatedDimension
  0
DIMENSION
  5
145
330
1F
100
AcDbEntity
  8
VERMASSUNG
100
AcDbDimension
  2
_D_4
 10
228.4199472537
 20
175.0988067947
 30
0.0
 11
146.0199472537
 21
175.0988067947
 31
0.0
 70
   160
  1
(<>)
 71
     2
 42
-1.0
  3
SLDDIMSTYLE0
100
AcDbAlignedDimension
 13
63.6199472537
 23
128.7340661453
 33
0.0
 14
228.4199472537
 24
120.1843882846
 34
0.0
100
AcDbRotatedDimension
  0
DIMENSION
  5
151
330
1F
100
AcDbEntity
  8
VERMASSUNG
100
AcDbDimension
  2
_D_5
 10
53.6199472537
 20
60.3843882846
 30
0.0
 11
53.6199472537
 21
110.3843882846
 31
0.0
 70
   160
  1
MAS BT 50 %%c<>
 71
     2
 42
-1.0
  3
SLDDIMSTYLE0
100
AcDbAlignedDimension
 13
199.4199491623
 23
160.3843882846
 33
0.0
 14
199.4199493158
 24
60.3843882846
 34
0.0
 50
90.0
100
AcDbRotatedDimension
  0
LINE
  5
15D
330
1F
100
AcDbEntity
  8
VERMASSUNG
  6
CENTERX2
370
     0
100
AcDbLine
 10
61.6199472537
 20
110.3843882846
 30
0.0
 11
231.2558905024
 21
110.3843882846
 31
0.0
  0
LINE
  5
15E
330
1F
100
AcDbEntity
  8
0
  6
Continuous
 62
     7
370
    15
100
AcDbLine
 10
279.3529286545
 20
41.2096182546
 30
0.0
 11
279.2645259448
 21
41.2606686415
 31
0.0
  0
LINE
  5
15F
330
1F
100
AcDbEntity
  8
0
  6
Continuous
 62
     7
370
    15
100
AcDbLine
 10
278.0268880084
 20
41.2606686415
 30
0.0
 11
277.9384852987
 21
41.2096182546
 31
0.0
  0
LINE
  5
160
330
1F
100
AcDbEntity
  8
0
  6
Continuous
 62
     7
370
    15
100
AcDbLine
 10
279.6457069766
 20
40.6994129364
 30
0.0
 11
279.6457069766
 21
40.8014805379
 31
0.0
  0
LINE
  5
161
330
1F
100
AcDbEntity
  8
0
  6
Continuous
 62
     7
370
    15
100
AcDbLine
 10
277.6457069766
 20
40.8014805379
 30
0.0
 11
277.6457069766
 21
40.6994129364
 31
0.0
  0
SPLINE
  5
162
330
1F
100
AcDbEntity
  8
0
  6
Continuous
 62
     7
370
    15
100
AcDbSpline
210
0.0
220
0.0
230
1.0
 70
     8
 71
     3
 72
    42
 73
    38
 74
     0
 42
0.000000001
 43
0.00000001
 40
0.0
 40
0.0
 40
0.0
 40
0.0
 40
0.0045125025583418
 40
0.0341557782870357
 40
0.0639204828194334
 40
0.093795638777502
 40
0.1237572948031462
 40
0.1537780621136242
 40
0.1838335036121604
 40
0.2139048971977777
 40
0.2439778698920886
 40
0.2740444805964031
 40
0.3041015187222614
 40
0.3341479328870743
 40
0.3641840395561032
 40
0.3942109839503881
 40
0.4242303925832424
 40
0.454244159916901
 40
0.4842543240028211
 40
0.5142629985413053
 40
0.5442723385368105
 40
0.5742838289145521
 40
0.6042996356438947
 40
0.6343219523542409
 40
0.6643529381917849
 40
0.6943946509357548
 40
0.7244489233495549
 40
0.7545171490859045
 40
0.7845999307716738
 40
0.8146965282208847
 40
0.8448040374990257
 40
0.8749150476621973
 40
0.9050150415917362
 40
0.9350848505641729
 40
0.9650987378823523
 40
0.9950268001511433
 40
1.0
 40
1.0
 40
1.0
 40
1.0
 10
262.4587778505199
 20
18.28943364689274
 30
0.0
 10
262.5194957951801
 20
18.28054434019258
 30
0.0
 10
262.9790786162521
 20
18.21325990437221
 30
0.0
 10
263.8875230293547
 20
18.22284647539002
 30
0.0
 10
265.1789533554461
 20
18.32724156685284
 30
0.0
 10
266.5132331531412
 20
18.58581354503714
 30
0.0
 10
267.8757146868362
 20
18.9802193188439
 30
0.0
 10
269.2593008059969
 20
19.51265277059826
 30
0.0
 10
270.6546270643874
 20
20.17840065455709
 30
0.0
 10
272.0529272176263
 20
20.97335573180982
 30
0.0
 10
273.4454193500193
 20
21.89215529811267
 30
0.0
 10
274.823556197884
 20
22.9288265402611
 30
0.0
 10
276.1790038178506
 20
24.07673859827569
 30
0.0
 10
277.5036369739108
 20
25.32867735373662
 30
0.0
 10
278.7895326120027
 20
26.67685594486851
 30
0.0
 10
280.0289998086441
 20
28.11295396772141
 30
0.0
 10
281.2146147583379
 20
29.62815686978527
 30
0.0
 10
282.339259765506
 20
31.21320122738341
 30
0.0
 10
283.3961634951511
 20
32.85842483907624
 30
0.0
 10
284.3789407770618
 20
34.55382147756556
 30
0.0
 10
285.2816236063763
 20
36.28908611526035
 30
0.0
 10
286.0987059018618
 20
38.05368832920178
 30
0.0
 10
286.8251758907077
 20
39.83693780568461
 30
0.0
 10
287.4565472896932
 20
41.62806399847658
 30
0.0
 10
287.9888746279831
 20
43.41626807156392
 30
0.0
 10
288.4187701704735
 20
45.19078572492847
 30
0.0
 10
288.7434153231261
 20
46.94094650596111
 30
0.0
 10
288.9605697512186
 20
48.65623028751331
 30
0.0
 10
289.0685686305232
 20
50.32630486546719
 30
0.0
 10
289.0663527163906
 20
51.94109099491092
 30
0.0
 10
288.9533837755582
 20
53.49064694011962
 30
0.0
 10
288.7300439045782
 20
54.9655694073027
 30
0.0
 10
288.3963657712009
 20
56.35543290483869
 30
0.0
 10
287.9571348142628
 20
57.65479958017554
 30
0.0
 10
287.4033626778026
 20
58.84109729163927
 30
0.0
 10
286.9537896104233
 20
59.64847732502243
 30
0.0
 10
286.6607173521525
 20
60.02237778211241
 30
0.0
 10
286.6189564867253
 20
60.07565613320524
 30
0.0
  0
LINE
  5
163
330
1F
100
AcDbEntity
  8
0
  6
Continuous
 62
     7
370
    15
100
AcDbLine
 10
256.5212317597
 20
20.7263002315
 30
0.0
 11
258.7397792857
 21
19.4455600061
 31
0.0
  0
LINE
  5
164
330
1F
100
AcDbEntity
  8
0
  6
Continuous
 62
     7
370
    15
100
AcDbLine
 10
283.7377476016
 20
62.7480031251
 30
0.0
 11
281.5192000757
 21
64.0287433506
 31
0.0
  0
LINE
  5
165
330
1F
100
AcDbEntity
  8
0
  6
Continuous
 62
     7
370
    15
100
AcDbLine
 10
276.1982215472
 20
67.1004788713
 30
0.0
 11
272.070485712
 21
69.4833700477
 31
0.0
  0
SPLINE
  5
166
330
1F
100
AcDbEntity
  8
0
  6
Continuous
 62
     7
370
    15
100
AcDbSpline
210
0.0
220
0.0
230
1.0
 70
     8
 71
     3
 72
    31
 73
    27
 74
     0
 42
0.000000001
 43
0.00000001
 40
0.0
 40
0.0
 40
0.0
 40
0.0
 40
0.0188957672977165
 40
0.0616803156432558
 40
0.1046383261413208
 40
0.1477474040253081
 40
0.1909704505608899
 40
0.234268458916481
 40
0.2776082353498653
 40
0.3209651911498996
 40
0.3643198848087177
 40
0.4076637576007974
 40
0.4509931641633053
 40
0.4943072214539977
 40
0.5376067745020237
 40
0.580893703268152
 40
0.6241704818586946
 40
0.6674399114777462
 40
0.7107049672376519
 40
0.7539687161697246
 40
0.7972340337707005
 40
0.8405032699298886
 40
0.8837795909505106
 40
0.9270661522012319
 40
0.9703660390557107
 40
0.9999999999999999
 40
0.9999999999999999
 40
0.9999999999999999
 40
0.9999999999999999
 10
268.3708683395316
 20
70.62906529612111
 30
0.0
 10
268.1929563387435
 20
70.65078347391355
 30
0.0
 10
267.6122089050757
 20
70.72167681422233
 30
0.0
 10
266.5758032006041
 20
70.69200514733105
 30
0.0
 10
265.27168765343
 20
70.54514955291663
 30
0.0
 10
263.9289453016466
 20
70.24957399423324
 30
0.0
 10
262.5598263358008
 20
69.81729983386279
 30
0.0
 10
261.1721680666151
 20
69.2482210112627
 30
0.0
 10
259.775152008385
 20
68.5468415214999
 30
0.0
 10
258.3775707184353
 20
67.71763917829114
 30
0.0
 10
256.988142087123
 20
66.76614775798076
 30
0.0
 10
255.6153626382755
 20
65.69853245891963
 30
0.0
 10
254.2675016589137
 20
64.52158040301896
 30
0.0
 10
252.952631828793
 20
63.24266510171238
 30
0.0
 10
251.6786161885361
 20
61.86972226648293
 30
0.0
 10
250.4530768038546
 20
60.41121093966068
 30
0.0
 10
249.2833577069144
 20
58.87607236917606
 30
0.0
 10
248.1764880131025
 20
57.27368401547642
 30
0.0
 10
247.1391317223541
 20
55.61380586266106
 30
0.0
 10
246.1775870698198
 20
53.90653617881366
 30
0.0
 10
245.297614202096
 20
52.16222834453895
 30
0.0
 10
244.5049080573893
 20
50.39153593651695
 30
0.0
 10
243.8031440771179
 20
48.60490480777946
 30
0.0
 10
243.2011276237471
 20
46.81413910644483
 30
0.0
 10
242.7402434095226
 20
45.21454054628435
 30
0.0
 10
242.5231049176244
 20
44.22417611085832
 30
0.0
 10
242.4348787540169
 20
43.82177829577247
 30
0.0
  0
LINE
  5
167
330
1F
100
AcDbEntity
  8
0
  6
Continuous
 62
     7
370
    15
100
AcDbLine
 10
280.3610155447
 20
31.7485769621
 30
0.0
 11
280.4317147303
 21
31.7894040021
 31
0.0
  0
LINE
  5
168
330
1F
100
AcDbEntity
  8
0
  6
Continuous
 62
     7
370
    15
100
AcDbLine
 10
283.8959748269
 20
37.7903287127
 30
0.0
 11
283.8959748269
 21
37.8719695239
 31
0.0
  0
LINE
  5
169
330
1F
100
AcDbEntity
  8
0
  6
Continuous
 62
     7
370
    15
100
AcDbLine
 10
282.8602377526
 20
40.1611935563
 30
0.0
 11
275.5063272282
 21
44.4065157378
 31
0.0
  0
LINE
  5
16A
330
1F
100
AcDbEntity
  8
0
  6
Continuous
 62
     7
370
    15
100
AcDbLine
 10
270.506733565
 20
35.7460271139
 30
0.0
 11
277.8606440894
 21
31.5007049325
 31
0.0
  0
SPLINE
  5
16B
330
1F
100
AcDbEntity
  8
0
  6
Continuous
 62
     7
370
    15
100
AcDbSpline
210
0.0
220
0.0
230
1.0
 70
     8
 71
     3
 72
    14
 73
    10
 74
     0
 42
0.000000001
 43
0.00000001
 40
0.0
 40
0.0
 40
0.0
 40
0.0
 40
0.0020773725777957
 40
0.1792464312873903
 40
0.3553963877175705
 40
0.5300802692936539
 40
0.7035114049120671
 40
0.87735808773904
 40
1.0
 40
1.0
 40
1.0
 40
1.0
 10
279.3158429592652
 20
37.18358323124802
 30
0.0
 10
279.3172494845778
 20
37.18568081242782
 30
0.0
 10
279.4386117503003
 20
37.36667094623082
 30
0.0
 10
279.7319150227107
 20
37.66458711465793
 30
0.0
 10
280.1687590785422
 20
38.03723281554303
 30
0.0
 10
280.610452693964
 20
38.28383913940432
 30
0.0
 10
281.0145190210598
 20
38.40082239848892
 30
0.0
 10
281.3297822508635
 20
38.40791476795889
 30
0.0
 10
281.4764167832686
 20
38.33794722687735
 30
0.0
 10
281.5370718632803
 20
38.30900529394432
 30
0.0
  0
SPLINE
  5
16C
330
1F
100
AcDbEntity
  8
0
  6
Continuous
 62
     7
370
    15
100
AcDbSpline
210
0.0
220
0.0
230
1.0
 70
     8
 71
     3
 72
    10
 73
     6
 74
     0
 42
0.000000001
 43
0.00000001
 40
0.0
 40
0.0
 40
0.0
 40
0.0
 40
0.0909246612471153
 40
0.5475795304654812
 40
1.0
 40
1.0
 40
1.0
 40
1.0
 10
278.6280952362924
 20
35.95600194262641
 30
0.0
 10
278.6424705110076
 20
35.99516441981006
 30
0.0
 10
278.7290433513224
 20
36.23101430447226
 30
0.0
 10
278.9454886137419
 20
36.66134584686557
 30
0.0
 10
279.1927754581566
 20
37.01004550809631
 30
0.0
 10
279.3158429592652
 20
37.18358323124802
 30
0.0
  0
LINE
  5
16D
330
1F
100
AcDbEntity
  8
0
  6
Continuous
 62
     7
370
    15
100
AcDbLine
 10
257.650678914
 20
67.1985711674
 30
0.0
 11
227.3011376999
 21
78.1353428068
 31
0.0
  0
LINE
  5
16E
330
1F
100
AcDbEntity
  8
0
  6
Continuous
 62
     7
370
    15
100
AcDbLine
 10
217.1917830245
 20
60.6235294359
 30
0.0
 11
246.6555203511
 21
35.7445932105
 31
0.0
  0
SPLINE
  5
16F
330
1F
100
AcDbEntity
  8
0
  6
Continuous
 62
     7
370
    15
100
AcDbSpline
210
0.0
220
0.0
230
1.0
 70
     8
 71
     3
 72
    10
 73
     6
 74
     0
 42
0.000000001
 43
0.00000001
 40
0.0
 40
0.0
 40
0.0
 40
0.0
 40
0.1961441333089119
 40
0.8062426898968156
 40
1.0
 40
1.0
 40
1.0
 40
1.0
 10
278.9009554561902
 20
33.51618496927827
 30
0.0
 10
278.8705296122286
 20
33.52654449337034
 30
0.0
 10
278.7454653859164
 20
33.56912690676776
 30
0.0
 10
278.6335406400514
 20
33.69641859771478
 30
0.0
 10
278.5554384853943
 20
33.8273044396203
 30
0.0
 10
278.5366131411669
 20
33.85885249407762
 30
0.0
  0
LINE
  5
170
330
1F
100
AcDbEntity
  8
0
  6
Continuous
 62
     7
370
    15
100
AcDbLine
 10
247.0725173961
 20
26.1809269286
 30
0.0
 11
251.2002532313
 21
23.7980357523
 31
0.0
  0
SPLINE
  5
171
330
1F
100
AcDbEntity
  8
0
  6
Continuous
 62
     7
370
    15
100
AcDbSpline
210
0.0
220
0.0
230
1.0
 70
     8
 71
     3
 72
    11
 73
     7
 74
     0
 42
0.000000001
 43
0.00000001
 40
0.0
 40
0.0
 40
0.0
 40
0.0
 40
0.1014726037306065
 40
0.4117955914088775
 40
0.7216513978100001
 40
1.0
 40
1.0
 40
1.0
 40
1.0
 10
242.4168788226617
 20
32.65525040185213
 30
0.0
 10
242.4582789789144
 20
32.50837152522411
 30
0.0
 10
242.6262888771698
 20
31.91230843387892
 30
0.0
 10
242.9997398069168
 20
30.93626549384809
 30
0.0
 10
243.5467266816854
 20
29.79982330889506
 30
0.0
 10
243.9887247663148
 20
29.14674565983632
 30
0.0
 10
244.1978859817534
 20
28.83769790690899
 30
0.0
  0
SPLINE
  5
172
330
1F
100
AcDbEntity
  8
0
  6
Continuous
 62
     7
370
    15
100
AcDbSpline
210
0.0
220
0.0
230
1.0
 70
     8
 71
     3
 72
    26
 73
    22
 74
     0
 42
0.000000001
 43
0.00000001
 40
0.0
 40
0.0
 40
0.0
 40
0.0
 40
0.0421920351105311
 40
0.0943866687806325
 40
0.1475688754593389
 40
0.2020148164085846
 40
0.2575861961548137
 40
0.3138882453083718
 40
0.3705111500257444
 40
0.4271372314316711
 40
0.483654841022328
 40
0.5400491660923309
 40
0.5963451602113885
 40
0.6525853448007237
 40
0.7088195399200122
 40
0.765092176039975
 40
0.8214487758007444
 40
0.8779441984350076
 40
0.9346295486659488
 40
0.9884815046005885
 40
0.9999999999999999
 40
0.9999999999999999
 40
0.9999999999999999
 40
0.9999999999999999
 10
227.2591677000977
 20
78.13821635964351
 30
0.0
 10
227.0544333801383
 20
78.20439955259629
 30
0.0
 10
226.5964277306027
 20
78.35245619636123
 30
0.0
 10
225.8255628658642
 20
78.41396679030768
 30
0.0
 10
224.9709435364885
 20
78.35520577430557
 30
0.0
 10
224.0821520553179
 20
78.15155565800718
 30
0.0
 10
223.1720184221066
 20
77.80858059241388
 30
0.0
 10
222.2543437728051
 20
77.32850706174143
 30
0.0
 10
221.345509945539
 20
76.71999372239831
 30
0.0
 10
220.4609063024891
 20
75.99440860501119
 30
0.0
 10
219.6141964934237
 20
75.16487013097955
 30
0.0
 10
218.8172442850961
 20
74.24493419090913
 30
0.0
 10
218.0808923647428
 20
73.24871173816922
 30
0.0
 10
217.4152051413277
 20
72.19089983688298
 30
0.0
 10
216.8295164492124
 20
71.0867713249007
 30
0.0
 10
216.3323177988066
 20
69.95202188129633
 30
0.0
 10
215.9312655240147
 20
68.80256596040955
 30
0.0
 10
215.6327199957854
 20
67.65401045021393
 30
0.0
 10
215.4468836534888
 20
66.54274235727222
 30
0.0
 10
215.3884715574764
 20
65.75459716579019
 30
0.0
 10
215.3855785451495
 20
65.34491917816662
 30
0.0
 10
215.3850687865583
 20
65.27273252625614
 30
0.0
  0
SPLINE
  5
173
330
1F
100
AcDbEntity
  8
0
  6
Continuous
 62
     7
370
    15
100
AcDbSpline
210
0.0
220
0.0
230
1.0
 70
     8
 71
     3
 72
    14
 73
    10
 74
     0
 42
0.000000001
 43
0.00000001
 40
0.0
 40
0.0
 40
0.0
 40
0.0
 40
0.0970300021355376
 40
0.2799955097663701
 40
0.4629570220838163
 40
0.6442072974506324
 40
0.8219817389873184
 40
0.9951059531953558
 40
1.0
 40
1.0
 40
1.0
 40
1.0
 10
215.3850687865583
 20
65.27273252625614
 30
0.0
 10
215.3884361888097
 20
65.0848288840676
 30
0.0
 10
215.3981533637988
 20
64.54260302687302
 30
0.0
 10
215.5064474520169
 20
63.69053431526999
 30
0.0
 10
215.7522086780837
 20
62.7556079571637
 30
0.0
 10
216.1180684081531
 20
61.91180197985208
 30
0.0
 10
216.6091989374654
 20
61.19879305348208
 30
0.0
 10
216.9871327637373
 20
60.75974743203287
 30
0.0
 10
217.2201816617592
 20
60.60166900133331
 30
0.0
 10
217.2265886011833
 20
60.59732313684588
 30
0.0
  0
LWPOLYLINE
  5
174
330
1F
100
AcDbEntity
  8
0
  6
Continuous
 62
     7
370
    15
100
AcDbPolyline
 90
       17
 70
   128
 43
0.0
 10
278.0269885431
 20
40.5463695905
 10
277.8373123857
 20
40.7102445017
 10
277.7707069766
 20
40.9035481394
 10
277.8373123857
 20
41.0968517771
 10
278.0269885431
 20
41.2607266883
 10
278.3108589733
 20
41.3702244033
 10
278.6457069766
 20
41.4086748875
 10
278.9805549799
 20
41.3702244033
 10
279.2644254101
 20
41.2607266883
 10
279.4541015675
 20
41.0968517771
 10
279.5207069766
 20
40.9035481394
 10
279.4541015675
 20
40.7102445017
 10
279.2644254101
 20
40.5463695905
 10
278.9805549799
 20
40.4368718755
 10
278.6457069766
 20
40.3984213913
 10
278.3108589733
 20
40.4368718755
 10
278.0269885431
 20
40.5463695905
  0
LWPOLYLINE
  5
175
330
1F
100
AcDbEntity
  8
0
  6
Continuous
 62
     7
370
    15
100
AcDbPolyline
 90
        5
 70
   128
 43
0.0
 10
277.9386001954
 20
40.393276482
 10
277.7218274441
 20
40.5805620948
 10
277.6457069766
 20
40.8014805379
 10
277.7218274441
 20
41.022398981
 10
277.9384852987
 20
41.2096182546
  0
LWPOLYLINE
  5
176
330
1F
100
AcDbEntity
  8
0
  6
Continuous
 62
     7
370
    15
100
AcDbPolyline
 90
        9
 70
   128
 43
0.0
 10
279.3529286545
 20
41.2096182546
 10
279.5695865091
 20
41.022398981
 10
279.6457069766
 20
40.8014805379
 10
279.5695865091
 20
40.5805620948
 10
279.3528137578
 20
40.393276482
 10
279.028390409
 20
40.2681362363
 10
278.6457069766
 20
40.2241928258
 10
278.2630235442
 20
40.2681362363
 10
277.9386001954
 20
40.393276482
  0
LWPOLYLINE
  5
177
330
1F
100
AcDbEntity
  8
0
  6
Continuous
 62
     7
370
    15
100
AcDbPolyline
 90
       17
 70
   128
 43
0.0
 10
278.2037652384
 20
40.6484206044
 10
278.0682822688
 20
40.7654741124
 10
278.0207069766
 20
40.9035481394
 10
278.0682822688
 20
41.0416221663
 10
278.2037652384
 20
41.1586756743
 10
278.4065298314
 20
41.2368883279
 10
278.6457069766
 20
41.2643529594
 10
278.8848841218
 20
41.2368883279
 10
279.0876487148
 20
41.1586756743
 10
279.2231316844
 20
41.0416221663
 10
279.2707069766
 20
40.9035481394
 10
279.2231316844
 20
40.7654741124
 10
279.0876487148
 20
40.6484206044
 10
278.8848841218
 20
40.5702079509
 10
278.6457069766
 20
40.5427433193
 10
278.4065298314
 20
40.5702079509
 10
278.2037652384
 20
40.6484206044
  0
SPLINE
  5
178
330
1F
100
AcDbEntity
  8
0
  6
Continuous
 62
     7
370
    15
100
AcDbSpline
210
0.0
220
0.0
230
1.0
 70
     8
 71
     3
 72
     9
 73
     5
 74
     0
 42
0.000000001
 43
0.00000001
 40
0.0
 40
0.0
 40
0.0
 40
0.0
 40
0.6286327601797476
 40
1.0
 40
1.0
 40
1.0
 40
1.0
 10
278.2922438262443
 20
40.59937745116979
 30
0.0
 10
278.2474107172095
 20
40.63000176688652
 30
0.0
 10
278.1760922752277
 20
40.67871751582071
 30
0.0
 10
278.1118769200011
 20
40.75138879132938
 30
0.0
 10
278.0880294407765
 20
40.77837652232926
 30
0.0
  0
SPLINE
  5
179
330
1F
100
AcDbEntity
  8
0
  6
Continuous
 62
     7
370
    15
100
AcDbSpline
210
0.0
220
0.0
230
1.0
 70
     8
 71
     3
 72
    10
 73
     6
 74
     0
 42
0.000000001
 43
0.00000001
 40
0.0
 40
0.0
 40
0.0
 40
0.0
 40
0.4391051671061744
 40
0.7513578980692761
 40
1.0
 40
1.0
 40
1.0
 40
1.0
 10
279.2033845124269
 20
40.95090385667589
 30
0.0
 10
279.1819931658987
 20
40.87685517661634
 30
0.0
 10
279.1453901870036
 20
40.75014962912524
 30
0.0
 10
279.0921804164787
 20
40.65677592760947
 30
0.0
 10
279.0656957832642
 20
40.63750581867583
 30
0.0
 10
279.0539552670655
 20
40.62896346793786
 30
0.0
  0
SPLINE
  5
17A
330
1F
100
AcDbEntity
  8
0
  6
Continuous
 62
     7
370
    15
100
AcDbSpline
210
0.0
220
0.0
230
1.0
 70
     8
 71
     3
 72
    11
 73
     7
 74
     0
 42
0.000000001
 43
0.00000001
 40
0.0
 40
0.0
 40
0.0
 40
0.0
 40
0.1856336509827594
 40
0.5233285802669877
 40
0.8791086124659514
 40
1.0
 40
1.0
 40
1.0
 40
1.0
 10
278.795136221963
 20
41.18658057824062
 30
0.0
 10
278.8189869381663
 20
41.16002743058384
 30
0.0
 10
278.8862256170532
 20
41.08517019973549
 30
0.0
 10
279.012124732273
 20
40.98612393451049
 30
0.0
 10
279.127014310685
 20
40.95307148500126
 30
0.0
 10
279.1879342542405
 20
40.9513423839616
 30
0.0
 10
279.2033845124269
 20
40.95090385667589
 30
0.0
  0
SPLINE
  5
17B
330
1F
100
AcDbEntity
  8
0
  6
Continuous
 62
     7
370
    15
100
AcDbSpline
210
0.0
220
0.0
230
1.0
 70
     8
 71
     3
 72
    10
 73
     6
 74
     0
 42
0.000000001
 43
0.00000001
 40
0.0
 40
0.0
 40
0.0
 40
0.0
 40
0.439105167106175
 40
0.7513578980692799
 40
0.9999999999999999
 40
0.9999999999999999
 40
0.9999999999999999
 40
0.9999999999999999
 10
278.2374586861379
 20
41.1003169110673
 30
0.0
 10
278.3172922782234
 20
41.08470414422607
 30
0.0
 10
278.4538964551682
 20
41.05798895944661
 30
0.0
 10
278.6524780222264
 20
41.10997130312718
 30
0.0
 10
278.7513200190027
 20
41.16305071768432
 30
0.0
 10
278.795136221963
 20
41.18658057824062
 30
0.0
  0
SPLINE
  5
17C
330
1F
100
AcDbEntity
  8
0
  6
Continuous
 62
     7
370
    15
100
AcDbSpline
210
0.0
220
0.0
230
1.0
 70
     8
 71
     3
 72
    10
 73
     6
 74
     0
 42
0.000000001
 43
0.00000001
 40
0.0
 40
0.0
 40
0.0
 40
0.0
 40
0.439105167106174
 40
0.7513578980692754
 40
0.9999999999999999
 40
0.9999999999999999
 40
0.9999999999999999
 40
0.9999999999999999
 10
278.0880294407765
 20
40.77837652232926
 30
0.0
 10
278.1094207873047
 20
40.79650174571501
 30
0.0
 10
278.1460237661998
 20
40.82751602376346
 30
0.0
 10
278.1992335367247
 20
40.96341971926646
 30
0.0
 10
278.2257181699392
 20
41.05827015068675
 30
0.0
 10
278.2374586861379
 20
41.1003169110673
 30
0.0
  0
LINE
  5
17D
330
1F
100
AcDbEntity
  8
0
  6
Continuous
 62
     7
370
    15
100
AcDbLine
 10
278.2374586861
 20
40.6303511389
 30
0.0
 11
278.2374586861
 21
41.1003169111
 31
0.0
  0
LINE
  5
17E
330
1F
100
AcDbEntity
  8
0
  6
Continuous
 62
     7
370
    15
100
AcDbLine
 10
278.795136222
 20
40.5532073083
 30
0.0
 11
278.795136222
 21
41.1865805782
 31
0.0
  0
ARC
  5
17F
330
1F
100
AcDbEntity
  8
0
  6
Continuous
 62
     7
370
    15
100
AcDbCircle
 10
279.3926350968
 20
55.2200413457
 30
0.0
 40
8.684059238293647
100
AcDbArc
 50
34.8054510415
 51
84.8423200841
  0
ARC
  5
180
330
1F
100
AcDbEntity
  8
0
  6
Continuous
 62
     7
370
    15
100
AcDbCircle
 10
263.0855149322
 20
26.9739939879
 30
0.0
 40
8.684779380439656
100
AcDbArc
 50
214.8484415773
 51
264.9829834624
  0
LWPOLYLINE
  5
181
330
1F
100
AcDbEntity
  8
0
  6
Continuous
 62
     7
370
    15
100
AcDbPolyline
 90
        9
 70
   128
 43
0.0
 10
256.5212317597
 20
20.7263002315
 10
256.3549084966
 20
20.8249062423
 10
255.3640141087
 20
21.531361434
 10
254.469593003
 20
22.3850828669
 10
253.6779637547
 20
23.3800394857
 10
252.9947187732
 20
24.5092024888
 10
252.424684795
 20
25.7645949834
 10
251.9718887852
 20
27.137348337
 10
251.6395294894
 20
28.6177648295
  0
SPLINE
  5
182
330
1F
100
AcDbEntity
  8
0
  6
Continuous
 62
     7
370
    15
100
AcDbSpline
210
0.0
220
0.0
230
1.0
 70
     8
 71
     3
 72
    32
 73
    28
 74
     0
 42
0.000000001
 43
0.00000001
 40
0.0
 40
0.0
 40
0.0
 40
0.0
 40
0.0193254758647258
 40
0.0385826927399014
 40
0.0577846348003733
 40
0.0769443985950771
 40
0.0960751672943215
 40
0.1151901840580798
 40
0.1343027247879751
 40
0.1534260705402312
 40
0.172573479885108
 40
0.1917581614995186
 40
0.2109932472740069
 40
0.2302917662029109
 40
0.2496666193081449
 40
0.3745846283005043
 40
0.4997410234224777
 40
0.4999962720873377
 40
0.6248627021449072
 40
0.7503411293897363
 40
0.7861451323127985
 40
0.8217618640028611
 40
0.8572756267732794
 40
0.8927714566788081
 40
0.9283345184945242
 40
0.9640494961196089
 40
1.0
 40
1.0
 40
1.0
 40
1.0
 10
251.6394742134064
 20
36.06958959591584
 30
0.0
 10
251.6614174306941
 20
36.00949855220188
 30
0.0
 10
251.7052263602264
 20
35.88952871072087
 30
0.0
 10
251.7676656114483
 20
35.70878115661375
 30
0.0
 10
251.827574238975
 20
35.52793776019832
 30
0.0
 10
251.8847608246085
 20
35.3469306446583
 30
0.0
 10
251.9393188958165
 20
35.16580124233725
 30
0.0
 10
251.9912666424073
 20
34.98456272500637
 30
0.0
 10
252.0406431218702
 20
34.80323677079647
 30
0.0
 10
252.0874825033177
 20
34.62184369406064
 30
0.0
 10
252.1318211096634
 20
34.44040533865747
 30
0.0
 10
252.1736949528867
 20
34.25894344968358
 30
0.0
 10
252.2131425440752
 20
34.07748339723017
 30
0.0
 10
252.2501960634355
 20
33.89604095153688
 30
0.0
 10
252.3478881630697
 20
33.38568999979479
 30
0.0
 10
252.465384361903
 20
32.55908847110654
 30
0.0
 10
252.5002357980236
 20
31.84376897581318
 30
0.0
 10
252.5006316221976
 20
31.16705701091223
 30
0.0
 10
252.4655802711513
 20
30.52536588681458
 30
0.0
 10
252.3406461909803
 20
29.90406494803425
 30
0.0
 10
252.2199200101073
 20
29.53144084604373
 30
0.0
 10
252.1456125975847
 20
29.34264414490121
 30
0.0
 10
252.0626991263526
 20
29.16845286193407
 30
0.0
 10
251.9710003253433
 20
29.00863669186871
 30
0.0
 10
251.8700982577213
 20
28.86343281925889
 30
0.0
 10
251.7605453609222
 20
28.73138585914171
 30
0.0
 10
251.6800170630212
 20
28.65568637421014
 30
0.0
 10
251.6396205872653
 20
28.6177122398067
 30
0.0
  0
LWPOLYLINE
  5
183
330
1F
100
AcDbEntity
  8
0
  6
Continuous
 62
     7
370
    15
100
AcDbPolyline
 90
       27
 70
   128
 43
0.0
 10
251.6394742132
 20
36.0695895961
 10
251.9718135531
 20
37.9337554584
 10
252.4245931116
 20
39.829314772
 10
252.99461418
 20
41.7428761601
 10
253.6778497852
 20
43.6609210685
 10
254.4694731378
 20
45.5698992688
 10
255.363891732
 20
47.456324585
 10
256.3547868542
 20
49.3068701686
 10
257.4351582224
 20
51.1084626471
 10
258.5973734403
 20
52.8483744824
 10
259.8332219171
 20
54.5143138856
 10
261.1339728722
 20
56.0945116539
 10
262.4904370147
 20
57.5778043151
 10
263.8930314621
 20
58.9537129933
 10
265.3318474393
 20
60.2125174381
 10
266.7967202808
 20
61.3453246941
 10
268.2773012393
 20
62.344131926
 10
269.7631305961
 20
63.201882956
 10
271.2437115546
 20
63.9125181123
 10
272.7085843961
 20
64.4710170386
 10
274.1474003733
 20
64.873434161
 10
275.5499948207
 20
65.1169265617
 10
276.9064589632
 20
65.1997740632
 10
278.2072099183
 20
65.1213913807
 10
279.4430583951
 20
64.8823322568
 10
280.605273613
 20
64.4842855497
 10
281.5192000757
 20
64.0287433506
  0
SPLINE
  5
184
330
1F
100
AcDbEntity
  8
0
  6
Continuous
 62
     7
370
    15
100
AcDbSpline
210
0.0
220
0.0
230
1.0
 70
     8
 71
     3
 72
     8
 73
     4
 74
     0
 42
0.000000001
 43
0.00000001
 40
0.0
 40
0.0
 40
0.0
 40
0.0
 40
1.0
 40
1.0
 40
1.0
 40
1.0
 10
250.6774809343503
 20
41.50492731384225
 30
0.0
 10
249.5078545144123
 20
41.30937114059952
 30
0.0
 10
248.3372512715524
 20
41.11578617387961
 30
0.0
 10
247.1660197898996
 20
40.92350672463333
 30
0.0
  0
SPLINE
  5
185
330
1F
100
AcDbEntity
  8
0
  6
Continuous
 62
     7
370
    15
100
AcDbSpline
210
0.0
220
0.0
230
1.0
 70
     8
 71
     3
 72
     8
 73
     4
 74
     0
 42
0.000000001
 43
0.00000001
 40
0.0
 40
0.0
 40
0.0
 40
0.0
 40
0.0012417047560385
 40
0.0012417047560385
 40
0.0012417047560385
 40
0.0012417047560385
 10
246.69151918625
 20
41.1974821455132
 30
0.0
 10
246.8497903267103
 20
41.10609682075525
 30
0.0
 10
247.0079596323896
 20
41.01477027335165
 30
0.0
 10
247.1660197898996
 20
40.92350672463333
 30
0.0
  0
LWPOLYLINE
  5
186
330
1F
100
AcDbEntity
  8
0
  6
Continuous
 62
     7
370
    15
100
AcDbPolyline
 90
       29
 70
   128
 43
0.0
 10
246.6915191862
 20
41.1974821455
 10
247.1529662757
 20
43.0829421065
 10
247.7297748454
 20
44.9849001427
 10
248.4179233553
 20
46.8900957017
 10
249.2126139974
 20
48.785245659
 10
250.1083061466
 20
50.6571369285
 10
251.0987549895
 20
52.492718585
 10
252.1770550643
 20
54.2791928558
 10
253.3356884057
 20
56.0041043474
 10
254.5665769604
 20
57.6554268855
 10
255.8611389083
 20
59.2216473616
 10
257.2103484947
 20
60.6918460035
 10
258.6047989588
 20
62.0557725082
 10
260.034768118
 20
63.3039175078
 10
261.4902861513
 20
64.4275788691
 10
262.9612051099
 20
65.4189223655
 10
264.4372696687
 20
66.2710362976
 10
265.9081886272
 20
66.9779796817
 10
267.3637066606
 20
67.5348236711
 10
268.7936758197
 20
67.9376859199
 10
270.1881262838
 20
68.1837576513
 10
271.5373358702
 20
68.2713232399
 10
272.8318978181
 20
68.1997721739
 10
274.0627863729
 20
67.9696033111
 10
275.2214197142
 20
67.582421401
 10
276.2997197891
 20
67.0409258965
 10
277.290168632
 20
66.348892133
 10
278.1858607811
 20
65.5111450065
 10
278.5723718336
 20
65.0686037097
  0
LINE
  5
187
330
1F
100
AcDbEntity
  8
0
  6
Continuous
 62
     7
370
    15
100
AcDbLine
 10
242.5637833511
 20
43.5803733219
 30
0.0
 11
246.6915191862
 21
41.1974821455
 31
0.0
  0
ARC
  5
188
330
1F
100
AcDbEntity
  8
0
  6
Continuous
 62
     7
370
    15
100
AcDbCircle
 10
267.680068523
 20
61.7499860455
 30
0.0
 40
8.892749362158126
100
AcDbArc
 50
60.4154415272
 51
84.6559311563
  0
SPLINE
  5
189
330
1F
100
AcDbEntity
  8
0
  6
Continuous
 62
     7
370
    15
100
AcDbSpline
210
0.0
220
0.0
230
1.0
 70
     8
 71
     3
 72
    10
 73
     6
 74
     0
 42
0.000000001
 43
0.00000001
 40
0.0
 40
0.0
 40
0.0
 40
0.0
 40
0.199265986756844
 40
0.6713473065754069
 40
1.0
 40
1.0
 40
1.0
 40
1.0
 10
252.5210785206748
 20
40.1147118266416
 30
0.0
 10
252.4362148920288
 20
40.22584956557743
 30
0.0
 10
252.1503007255173
 20
40.60028387274546
 30
0.0
 10
251.6584506153289
 20
41.05027957206413
 30
0.0
 10
251.2414434368577
 20
41.33175307465046
 30
0.0
 10
251.0702873099601
 20
41.44728085693858
 30
0.0
  0
SPLINE
  5
18A
330
1F
100
AcDbEntity
  8
0
  6
Continuous
 62
     7
370
    15
100
AcDbSpline
210
0.0
220
0.0
230
1.0
 70
     8
 71
     3
 72
    10
 73
     6
 74
     0
 42
0.000000001
 43
0.00000001
 40
0.0
 40
0.0
 40
0.0
 40
0.0
 40
0.5
 40
0.5
 40
1.0
 40
1.0
 40
1.0
 40
1.0
 10
250.9343579627279
 20
41.4998108387479
 30
0.0
 10
250.893782654333
 20
41.50863536007486
 30
0.0
 10
250.8502083112793
 20
41.51358843598354
 30
0.0
 10
250.7624055842925
 20
41.51517362124967
 30
0.0
 10
250.7194374673706
 20
41.51194225374112
 30
0.0
 10
250.6774809343503
 20
41.50492731384225
 30
0.0
  0
SPLINE
  5
18B
330
1F
100
AcDbEntity
  8
0
  6
Continuous
 62
     7
370
    15
100
AcDbSpline
210
0.0
220
0.0
230
1.0
 70
     8
 71
     3
 72
     8
 73
     4
 74
     0
 42
0.000000001
 43
0.00000001
 40
0.0
 40
0.0
 40
0.0
 40
0.0
 40
1.0
 40
1.0
 40
1.0
 40
1.0
 10
251.0702873099601
 20
41.44728085693858
 30
0.0
 10
251.0318053681239
 20
41.47095166673445
 30
0.0
 10
250.985697716377
 20
41.4886452119439
 30
0.0
 10
250.9343579627279
 20
41.49981083874795
 30
0.0
  0
SPLINE
  5
18C
330
1F
100
AcDbEntity
  8
0
  6
Continuous
 62
     7
370
    15
100
AcDbSpline
210
0.0
220
0.0
230
1.0
 70
     8
 71
     3
 72
    10
 73
     6
 74
     0
 42
0.000000001
 43
0.00000001
 40
0.0
 40
0.0
 40
0.0
 40
0.0
 40
0.5
 40
0.5
 40
1.0
 40
1.0
 40
1.0
 40
1.0
 10
242.4070864312627
 20
43.67082120507632
 30
0.0
 10
242.4181370296127
 20
43.66444537053219
 30
0.0
 10
242.4367569755522
 20
43.65369912902679
 30
0.0
 10
242.4900569256127
 20
43.62293365618683
 30
0.0
 10
242.523637698334
 20
43.60354891391588
 30
0.0
 10
242.5637833510735
 20
43.58037332189572
 30
0.0
  0
LINE
  5
18D
330
1F
100
AcDbEntity
  8
0
  6
Continuous
 62
     7
370
    15
100
AcDbLine
 10
242.4070864313
 20
43.6708212051
 30
0.0
 11
242.431394688
 21
43.8224601923
 31
0.0
  0
SPLINE
  5
18E
330
1F
100
AcDbEntity
  8
0
  6
Continuous
 62
     7
370
    15
100
AcDbSpline
210
0.0
220
0.0
230
1.0
 70
     8
 71
     3
 72
    11
 73
     7
 74
     0
 42
0.000000001
 43
0.00000001
 40
0.0
 40
0.0
 40
0.0
 40
0.0
 40
0.268794610265983
 40
0.5395171108869897
 40
0.8162531976077926
 40
1.0
 40
1.0
 40
1.0
 40
1.0
 10
251.0702873099601
 20
30.95792479399547
 30
0.0
 10
251.1902313091629
 20
30.89323914124334
 30
0.0
 10
251.4309795885057
 20
30.76340388727699
 30
0.0
 10
251.7791108801225
 20
30.60703996509915
 30
0.0
 10
252.0805653139842
 20
30.48969881135765
 30
0.0
 10
252.2577498975168
 20
30.44108991373449
 30
0.0
 10
252.328451983147
 20
30.42169347204852
 30
0.0
  0
SPLINE
  5
18F
330
1F
100
AcDbEntity
  8
0
  6
Continuous
 62
     7
370
    15
100
AcDbSpline
210
0.0
220
0.0
230
1.0
 70
     8
 71
     3
 72
     8
 73
     4
 74
     0
 42
0.000000001
 43
0.00000001
 40
0.0
 40
0.0
 40
0.0
 40
0.0
 40
1.0
 40
1.0
 40
1.0
 40
1.0
 10
250.9343579627285
 20
31.00726140601589
 30
0.0
 10
250.9856863447256
 20
30.9960982523756
 30
0.0
 10
251.0318069088299
 20
30.9793842480739
 30
0.0
 10
251.0702873099601
 20
30.9579247939955
 30
0.0
  0
SPLINE
  5
190
330
1F
100
AcDbEntity
  8
0
  6
Continuous
 62
     7
370
    15
100
AcDbSpline
210
0.0
220
0.0
230
1.0
 70
     8
 71
     3
 72
    12
 73
     8
 74
     0
 42
0.000000001
 43
0.00000001
 40
0.0
 40
0.0
 40
0.0
 40
0.0
 40
0.1882390091646456
 40
0.3552108137215437
 40
0.5009575804481068
 40
0.7563190982906866
 40
1.0
 40
1.0
 40
1.0
 40
1.0
 10
251.7502744790602
 20
29.34168639671416
 30
0.0
 10
251.8393180088422
 20
29.43596804927022
 30
0.0
 10
252.007344948693
 20
29.61387943263369
 30
0.0
 10
252.1872543447156
 20
29.96119647758929
 30
0.0
 10
252.3487781620631
 20
30.42185031276784
 30
0.0
 10
252.4745320821094
 20
31.04337866857572
 30
0.0
 10
252.4918346646529
 20
31.6266796744863
 30
0.0
 10
252.500283463294
 20
31.91150378866858
 30
0.0
  0
SPLINE
  5
191
330
1F
100
AcDbEntity
  8
0
  6
Continuous
 62
     7
370
    15
100
AcDbSpline
210
0.0
220
0.0
230
1.0
 70
     8
 71
     3
 72
     9
 73
     5
 74
     0
 42
0.000000001
 43
0.00000001
 40
0.0
 40
0.0
 40
0.0
 40
0.0
 40
0.5048005003628353
 40
1.0
 40
1.0
 40
1.0
 40
1.0
 10
251.6395400670294
 20
28.61766187645306
 30
0.0
 10
251.6580849653631
 20
28.73937575249765
 30
0.0
 10
251.6948220492614
 20
28.98048858015354
 30
0.0
 10
251.7319191606173
 20
29.22199481340071
 30
0.0
 10
251.7502896315987
 20
29.34158857926397
 30
0.0
  0
LWPOLYLINE
  5
192
330
1F
100
AcDbEntity
  8
0
  6
Continuous
 62
     7
370
    15
100
AcDbPolyline
 90
       34
 70
   128
 43
0.0
 10
280.4311515991
 20
39.791178817
 10
279.7754294917
 20
39.3403343165
 10
279.1434068898
 20
38.76117614
 10
278.5579267369
 20
38.0746365731
 10
278.0401498111
 20
37.3055289444
 10
277.6087899196
 20
36.4816508076
 10
277.2794375328
 20
35.632779265
 10
277.0639963041
 20
34.7895947461
 10
276.9702528408
 20
33.9825721361
 10
277.0015952759
 20
33.2408793349
 10
277.1568908121
 20
32.5913230528
 10
277.4305266642
 20
32.0573799462
 10
277.8126129195
 20
31.6583481101
 10
278.2893399852
 20
31.4086495948
 10
278.843477703
 20
31.3173091553
 10
279.4549980921
 20
31.3876280729
 10
280.1017992123
 20
31.6170648388
 10
280.7605039859
 20
31.9973270105
 10
281.4073051061
 20
32.5146709223
 10
282.0188254952
 20
33.1503984173
 10
282.572963213
 20
33.8815326475
 10
283.0496902787
 20
34.6816485169
 10
283.431776534
 20
35.5218277532
 10
283.7054123861
 20
36.3717040898
 10
283.8607079223
 20
37.2005607815
 10
283.8920503574
 20
37.978440788
 10
283.7983068941
 20
38.677229499
 10
283.5828656654
 20
39.27167087
 10
283.2535132786
 20
39.7402802408
 10
282.8221533871
 20
40.066120848
 10
282.3043764613
 20
40.2374159629
 10
281.7188963084
 20
40.2479745339
 10
281.0868737065
 20
40.0974149467
 10
280.4311515991
 20
39.791178817
  0
LWPOLYLINE
  5
193
330
1F
100
AcDbEntity
  8
0
  6
Continuous
 62
     7
370
    15
100
AcDbPolyline
 90
       19
 70
   128
 43
0.0
 10
280.360440921
 20
39.9136533038
 10
279.7107882705
 20
39.4691010165
 10
279.0832587619
 20
38.9006558342
 10
278.49922216
 20
38.2276754756
 10
277.9785671306
 20
37.4730774797
 10
277.5390239564
 20
36.6625587764
 10
277.195560753
 20
35.8237206078
 10
276.9598737479
 20
34.9851286017
 10
276.8399889794
 20
34.1753400032
 10
276.8399889794
 20
33.4219311918
 10
276.9598737479
 20
32.7505586008
 10
277.195560753
 20
32.1840850186
 10
277.5390239564
 20
31.7418010238
 10
277.9785671306
 20
31.4387680671
 10
278.49922216
 20
31.2853055727
 10
279.0832587619
 20
31.2866395216
 10
279.7107882705
 20
31.4427244878
 10
280.360440921
 20
31.7482451849
 10
280.3610155447
 20
31.7485769621
  0
LWPOLYLINE
  5
194
330
1F
100
AcDbEntity
  8
0
  6
Continuous
 62
     7
370
    15
100
AcDbPolyline
 90
       10
 70
   128
 43
0.0
 10
283.8959748269
 20
37.8719695239
 10
283.8808928626
 20
38.239967297
 10
283.761008094
 20
38.911339888
 10
283.5253210889
 20
39.4778134701
 10
283.1818578855
 20
39.920097465
 10
282.7423147114
 20
40.2231304216
 10
282.221659682
 20
40.3765929161
 10
281.63762308
 20
40.3752589672
 10
281.0100935714
 20
40.219174001
 10
280.360440921
 20
39.9136533038
  0
SPLINE
  5
195
330
1F
100
AcDbEntity
  8
0
  6
Continuous
 62
     7
370
    15
100
AcDbSpline
210
0.0
220
0.0
230
1.0
 70
    11
 71
     3
 72
    60
 73
    56
 74
     0
 42
0.000000001
 43
0.00000001
 40
0.0
 40
0.0
 40
0.0
 40
0.0
 40
0.0625000000000018
 40
0.0625000000000018
 40
0.0937500000000021
 40
0.0937500000000021
 40
0.1250000000000023
 40
0.1250000000000023
 40
0.1562500000000026
 40
0.1562500000000026
 40
0.1875000000000028
 40
0.1875000000000028
 40
0.2187500000000031
 40
0.2187500000000031
 40
0.2500000000000033
 40
0.2500000000000033
 40
0.2812500000000036
 40
0.2812500000000036
 40
0.3125000000000038
 40
0.3125000000000038
 40
0.3437500000000041
 40
0.3437500000000041
 40
0.3750000000000043
 40
0.3750000000000043
 40
0.4062500000000046
 40
0.4062500000000046
 40
0.4375000000000048
 40
0.4375000000000048
 40
0.4687500000000051
 40
0.4687500000000051
 40
0.5000000000000053
 40
0.5000000000000053
 40
0.5312500000000056
 40
0.5312500000000056
 40
0.5625000000000058
 40
0.5625000000000058
 40
0.625000000000005
 40
0.625000000000005
 40
0.6875000000000041
 40
0.6875000000000041
 40
0.7500000000000033
 40
0.7500000000000033
 40
0.7812500000000029
 40
0.7812500000000029
 40
0.8125000000000024
 40
0.8125000000000024
 40
0.8437500000000021
 40
0.8437500000000021
 40
0.8750000000000017
 40
0.8750000000000017
 40
0.9062500000000012
 40
0.9062500000000012
 40
0.9375000000000008
 40
0.9375000000000008
 40
1.0
 40
1.0
 40
1.0
 40
1.0
 10
278.6423873890711
 20
41.52794289955668
 30
0.0
 10
278.7977410775704
 20
41.50504073096527
 30
0.0
 10
278.9464324345859
 20
41.466701108903
 30
0.0
 10
279.1555601616026
 20
41.39315906758458
 30
0.0
 10
279.221486253645
 20
41.36641429333511
 30
0.0
 10
279.3461040677639
 20
41.30899827926478
 30
0.0
 10
279.4052939141131
 20
41.27800828986307
 30
0.0
 10
279.5131730644517
 20
41.21371771106745
 30
0.0
 10
279.5618464926256
 20
41.18052669920494
 30
0.0
 10
279.6487527414551
 20
41.11190177133667
 30
0.0
 10
279.6872742436478
 20
41.07609397035192
 30
0.0
 10
279.7509543897262
 20
41.00392928169667
 30
0.0
 10
279.7763304277294
 20
40.96753717751482
 30
0.0
 10
279.8138400479268
 20
40.89346470204289
 30
0.0
 10
279.8259576355525
 20
40.85536629496091
 30
0.0
 10
279.8349213440404
 20
40.77990228243554
 30
0.0
 10
279.8320302458662
 20
40.74236170682376
 30
0.0
 10
279.8105350673871
 20
40.66685997094682
 30
0.0
 10
279.7915123323266
 20
40.62854943240593
 30
0.0
 10
279.7381318581592
 20
40.55470043932937
 30
0.0
 10
279.7037997559094
 20
40.5187244786007
 30
0.0
 10
279.6185858749789
 20
40.44833644965949
 30
0.0
 10
279.5682140683087
 20
40.41454673056424
 30
0.0
 10
279.4559372742672
 20
40.3522083985577
 30
0.0
 10
279.3925829568832
 20
40.32290668336984
 30
0.0
 10
279.2580231429426
 20
40.27122819006859
 30
0.0
 10
279.1870466987498
 20
40.24877196762554
 30
0.0
 10
279.0379568842853
 20
40.21085263857963
 30
0.0
 10
278.9614483282153
 20
40.19585187131417
 30
0.0
 10
278.8073792745889
 20
40.17422724621968
 30
0.0
 10
278.7286723462675
 20
40.16752091221716
 30
0.0
 10
278.5745369272541
 20
40.16313173165225
 30
0.0
 10
278.4987191806849
 20
40.16531637515567
 30
0.0
 10
278.3493995298553
 20
40.17881448379897
 30
0.0
 10
278.2764983301867
 20
40.19016800506441
 30
0.0
 10
278.0687793019914
 20
40.23721598896584
 30
0.0
 10
277.9407626181254
 20
40.28722409141498
 30
0.0
 10
277.7259120233875
 20
40.41727978044501
 30
0.0
 10
277.636351943724
 20
40.4990208250186
 30
0.0
 10
277.5092976226364
 20
40.68039476894167
 30
0.0
 10
277.4700783631971
 20
40.78248337085924
 30
0.0
 10
277.4565038095344
 20
40.93568909346241
 30
0.0
 10
277.4593630869713
 20
40.98773714884821
 30
0.0
 10
277.481148414704
 20
41.08946039256995
 30
0.0
 10
277.4997537314139
 20
41.13846790309156
 30
0.0
 10
277.5530495402755
 20
41.23198313383264
 30
0.0
 10
277.5884551462606
 20
41.27703924770864
 30
0.0
 10
277.6734287251152
 20
41.35733184337973
 30
0.0
 10
277.7229196224253
 20
41.39295441169973
 30
0.0
 10
277.8364511192963
 20
41.45466498362376
 30
0.0
 10
277.8995518558862
 20
41.48005010376465
 30
0.0
 10
278.0337537101888
 20
41.51894120343847
 30
0.0
 10
278.1063334328135
 20
41.53279584019619
 30
0.0
 10
278.3288039274686
 20
41.55703106482796
 30
0.0
 10
278.4870337005718
 20
41.55084506814808
 30
0.0
 10
278.6423873890711
 20
41.52794289955668
 30
0.0
  0
LINE
  5
196
330
1F
100
AcDbEntity
  8
0
  6
Continuous
 62
     7
370
    15
100
AcDbLine
 10
282.3645595369
 20
35.8027623908
 30
0.0
 11
283.1181573676
 21
36.7402309279
 31
0.0
  0
SPLINE
  5
197
330
1F
100
AcDbEntity
  8
0
  6
Continuous
 62
     7
370
    15
100
AcDbSpline
210
0.0
220
0.0
230
1.0
 70
     8
 71
     3
 72
    21
 73
    17
 74
     0
 42
0.000000001
 43
0.00000001
 40
0.0
 40
0.0
 40
0.0
 40
0.0
 40
0.0416666666666671
 40
0.0833333333333334
 40
0.1250000000000026
 40
0.1666666666666667
 40
0.2083333333333333
 40
0.2499999999976954
 40
0.3339999999999609
 40
0.4179999999999997
 40
0.4330099753158393
 40
0.4330099753158393
 40
0.5019999999997413
 40
0.5859999999988204
 40
0.6699999999999804
 40
0.8156536847925618
 40
0.8156536847925618
 40
0.8156536847925618
 40
0.8156536847925618
 10
283.118157367606
 20
36.74023092787181
 30
0.0
 10
283.1481338347011
 20
36.77752136795707
 30
0.0
 10
283.2062807830616
 20
36.8578343750165
 30
0.0
 10
283.2863469854811
 20
36.99578382446028
 30
0.0
 10
283.3541804532642
 20
37.14839077233588
 30
0.0
 10
283.4037144395384
 20
37.30929174792022
 30
0.0
 10
283.4291354094939
 20
37.46923786630324
 30
0.0
 10
283.4250111822031
 20
37.66881886686674
 30
0.0
 10
283.3491476931307
 20
37.85904038294765
 30
0.0
 10
283.2065902242117
 20
37.92991554494755
 30
0.0
 10
283.1327221158871
 20
37.94132440477807
 30
0.0
 10
283.0735946840072
 20
37.94758445770159
 30
0.0
 10
282.9853616135601
 20
37.95355709299825
 30
0.0
 10
282.8521351380043
 20
37.96635777939166
 30
0.0
 10
282.7198913213944
 20
37.97791058134563
 30
0.0
 10
282.5122562904179
 20
37.99646082044575
 30
0.0
 10
282.3646064276094
 20
38.00967808633893
 30
0.0
  0
SPLINE
  5
198
330
1F
100
AcDbEntity
  8
0
  6
Continuous
 62
     7
370
    15
100
AcDbSpline
210
0.0
220
0.0
230
1.0
 70
     8
 71
     3
 72
    21
 73
    17
 74
     0
 42
0.000000001
 43
0.00000001
 40
0.0
 40
0.0
 40
0.0
 40
0.0
 40
0.0416666666666671
 40
0.0833333333333334
 40
0.1250000000000026
 40
0.1666666666666667
 40
0.2083333333333333
 40
0.2499999999976954
 40
0.3339999999999609
 40
0.4179999999999997
 40
0.4330099753158393
 40
0.4330099753158393
 40
0.5019999999997413
 40
0.5859999999988204
 40
0.6699999999999804
 40
0.813397193953127
 40
0.813397193953127
 40
0.813397193953127
 40
0.813397193953127
 10
277.7441458305894
 20
33.63788010294617
 30
0.0
 10
277.7150725840592
 20
33.64047968929093
 30
0.0
 10
277.6556032286721
 20
33.65377590106151
 30
0.0
 10
277.5760685344831
 20
33.69923535980522
 30
0.0
 10
277.5080926443175
 20
33.7735361737431
 30
0.0
 10
277.458596839343
 20
33.87724306359011
 30
0.0
 10
277.4331655665717
 20
34.00783948399911
 30
0.0
 10
277.4372938499735
 20
34.21218281273751
 30
0.0
 10
277.5131501612086
 20
34.48998771475939
 30
0.0
 10
277.6557246500833
 20
34.72547688621546
 30
0.0
 10
277.729576830691
 20
34.82215216439535
 30
0.0
 10
277.7886902344137
 20
34.8966618072349
 30
0.0
 10
277.8768934432752
 20
35.00446913165839
 30
0.0
 10
278.010418067501
 20
35.1714606794587
 30
0.0
 10
278.1402486429139
 20
35.33269886261054
 30
0.0
 10
278.3505354278497
 20
35.59427652955483
 30
0.0
 10
278.4976963625111
 20
35.77735746849492
 30
0.0
  0
LINE
  5
199
330
1F
100
AcDbEntity
  8
0
  6
Continuous
 62
     7
370
    15
100
AcDbLine
 10
278.4977436613
 20
33.5704971009
 30
0.0
 11
277.7441458306
 21
33.6378801029
 31
0.0
  0
LINE
  5
19A
330
1F
100
AcDbEntity
  8
0
  6
Continuous
 62
     7
370
    15
100
AcDbLine
 10
242.8411535314
 20
43.4201988721
 30
0.0
 11
242.4070864313
 21
43.6708212051
 31
0.0
  0
LINE
  5
19B
330
1F
100
AcDbEntity
  8
0
  6
Continuous
 62
     7
370
    15
100
AcDbLine
 10
247.1660197899
 20
40.9235067246
 30
0.0
 11
242.8411535314
 21
43.4201988721
 31
0.0
  0
SPLINE
  5
19C
330
1F
100
AcDbEntity
  8
0
  6
Continuous
 62
     7
370
    15
100
AcDbSpline
210
0.0
220
0.0
230
1.0
 70
     8
 71
     3
 72
    11
 73
     7
 74
     0
 42
0.000000001
 43
0.00000001
 40
0.0
 40
0.0
 40
0.0
 40
0.0
 40
0.0763291486414734
 40
0.4828240100966647
 40
0.8892344489868842
 40
0.9999999999999999
 40
0.9999999999999999
 40
0.9999999999999999
 40
0.9999999999999999
 10
246.7375134755588
 20
38.10746752640642
 30
0.0
 10
246.7370780962287
 20
38.18570666542644
 30
0.0
 10
246.7343240815729
 20
38.68061241926352
 30
0.0
 10
246.6896284243589
 20
39.61359846176086
 30
0.0
 10
246.6515533097973
 20
40.57908227004006
 30
0.0
 10
246.6635713289333
 20
41.10042103247503
 30
0.0
 10
246.6661452738528
 20
41.21207814033187
 30
0.0
  0
LINE
  5
19D
330
1F
100
AcDbEntity
  8
0
  6
Continuous
 62
     7
370
    15
100
AcDbLine
 10
246.7375134756
 20
36.3316668974
 30
0.0
 11
246.7375134756
 21
38.1074675264
 31
0.0
  0
SPLINE
  5
19E
330
1F
100
AcDbEntity
  8
0
  6
Continuous
 62
     7
370
    15
100
AcDbSpline
210
0.0
220
0.0
230
1.0
 70
     8
 71
     3
 72
    14
 73
    10
 74
     0
 42
0.000000001
 43
0.00000001
 40
0.0
 40
0.0
 40
0.0
 40
0.0
 40
0.1565661336280254
 40
0.3176712552776488
 40
0.4742387954744585
 40
0.6353472579226407
 40
0.7919406654295008
 40
0.9530649038105872
 40
1.0
 40
1.0
 40
1.0
 40
1.0
 10
277.6734351524702
 20
33.90177033698208
 30
0.0
 10
277.6520245014843
 20
33.90531039886599
 30
0.0
 10
277.6085824861685
 20
33.9124931520985
 30
0.0
 10
277.5529783732678
 20
33.9444712480071
 30
0.0
 10
277.5058956146382
 20
33.99152603097714
 30
0.0
 10
277.4695521155729
 20
34.05294839409586
 30
0.0
 10
277.4459019600804
 20
34.12803759740371
 30
0.0
 10
277.4349683575823
 20
34.19180657292178
 30
0.0
 10
277.4367051760704
 20
34.23226558507813
 30
0.0
 10
277.4370969765295
 20
34.2413925374026
 30
0.0
  0
ARC
  5
19F
330
1F
100
AcDbEntity
  8
0
  6
Continuous
 62
     7
370
    15
100
AcDbCircle
 10
277.1250257437
 20
36.8874766268
 30
0.0
 40
1.765386398162442
100
AcDbArc
 50
321.0366301496
 51
328.1932762912
  0
SPLINE
  5
1A0
330
1F
100
AcDbEntity
  8
0
  6
Continuous
 62
     7
370
    15
100
AcDbSpline
210
0.0
220
0.0
230
1.0
 70
     8
 71
     3
 72
    16
 73
    12
 74
     0
 42
0.000000001
 43
0.00000001
 40
0.0
 40
0.0
 40
0.0
 40
0.0
 40
0.2500000000000002
 40
0.2500000000000002
 40
0.5000000000000004
 40
0.5000000000000004
 40
0.6250000000000006
 40
0.6250000000000006
 40
0.7500000000000007
 40
0.7500000000000007
 40
1.0
 40
1.0
 40
1.0
 40
1.0
 10
282.3646064276094
 20
38.00967808633894
 30
0.0
 10
282.340163902386
 20
38.01186612328549
 30
0.0
 10
282.3135926126409
 20
38.01289096412533
 30
0.0
 10
282.2528919738176
 20
38.01080980385922
 30
0.0
 10
282.2183395482547
 20
38.0078445516207
 30
0.0
 10
282.1602656317351
 20
37.99553451505749
 30
0.0
 10
282.1402514775216
 20
37.98999787796771
 30
0.0
 10
282.1043758389698
 20
37.97696988509986
 30
0.0
 10
282.0885885581752
 20
37.96953693980199
 30
0.0
 10
282.050420704523
 20
37.94786185424089
 30
0.0
 10
282.0349364929608
 20
37.93389408439316
 30
0.0
 10
282.0230625843504
 20
37.92071913804611
 30
0.0
  0
SPLINE
  5
1A1
330
1F
100
AcDbEntity
  8
0
  6
Continuous
 62
     7
370
    15
100
AcDbSpline
210
0.0
220
0.0
230
1.0
 70
     8
 71
     3
 72
     8
 73
     4
 74
     0
 42
0.000000001
 43
0.00000001
 40
0.0
 40
0.0
 40
0.0
 40
0.0
 40
1.0
 40
1.0
 40
1.0
 40
1.0
 10
282.0230625843504
 20
37.92071913804607
 30
0.0
 10
281.9901766036911
 20
37.93386517933625
 30
0.0
 10
281.9580391797109
 20
37.94860305957589
 30
0.0
 10
281.9325654084173
 20
37.96330875472412
 30
0.0
  0
LINE
  5
1A2
330
1F
100
AcDbEntity
  8
0
  6
Continuous
 62
     7
370
    15
100
AcDbLine
 10
281.5939078221
 20
38.2942244271
 30
0.0
 11
281.5308363327
 21
38.3274381696
 31
0.0
  0
LINE
  5
1A3
330
1F
100
AcDbEntity
  8
0
  6
Continuous
 62
     7
370
    15
100
AcDbLine
 10
281.205732371
 20
38.382900536
 30
0.0
 11
281.9325654084
 21
37.9633087547
 31
0.0
  0
ARC
  5
1A4
330
1F
100
AcDbEntity
  8
0
  6
Continuous
 62
     7
370
    15
100
AcDbCircle
 10
276.7424802313
 20
38.1847112045
 30
0.0
 40
3.548505666338377
100
AcDbArc
 50
339.1553947574
 51
358.3394642278
  0
LINE
  5
1A5
330
1F
100
AcDbEntity
  8
0
  6
Continuous
 62
     7
370
    15
100
AcDbLine
 10
280.0587324383
 20
36.9220300238
 30
0.0
 11
281.9325654084
 21
35.8402892757
 31
0.0
  0
LINE
  5
1A6
330
1F
100
AcDbEntity
  8
0
  6
Continuous
 62
     7
370
    15
100
AcDbLine
 10
278.8441313074
 20
33.530955684
 30
0.0
 11
278.9071851446
 21
33.4977503804
 31
0.0
  0
LINE
  5
1A7
330
1F
100
AcDbEntity
  8
0
  6
Continuous
 62
     7
370
    15
100
AcDbLine
 10
277.5248746259
 20
34.4279591645
 30
0.0
 11
278.5054737211
 21
33.8618713564
 31
0.0
  0
LINE
  5
1A8
330
1F
100
AcDbEntity
  8
0
  6
Continuous
 62
     7
370
    15
100
AcDbLine
 10
245.8094358253
 20
41.5202932736
 30
0.0
 11
245.8104768525
 21
41.7060450056
 31
0.0
  0
ARC
  5
1A9
330
1F
100
AcDbEntity
  8
0
  6
Continuous
 62
     7
370
    15
100
AcDbCircle
 10
257.7665155445
 20
41.2587340962
 30
0.0
 40
11.9599401593441
100
AcDbArc
 50
178.7468639795
 51
202.7557767409
  0
LINE
  5
1AA
330
1F
100
AcDbEntity
  8
0
  6
Continuous
 62
     7
370
    15
100
AcDbLine
 10
278.5563979014
 20
33.8228201619
 30
0.0
 11
277.6734351525
 21
33.901770337
 31
0.0
  0
SPLINE
  5
1AB
330
1F
100
AcDbEntity
  8
0
  6
Continuous
 62
     7
370
    15
100
AcDbSpline
210
0.0
220
0.0
230
1.0
 70
     8
 71
     3
 72
    16
 73
    12
 74
     0
 42
0.000000001
 43
0.00000001
 40
0.0
 40
0.0
 40
0.0
 40
0.0
 40
0.2499999999999998
 40
0.2499999999999998
 40
0.4999999999999997
 40
0.4999999999999997
 40
0.6249999999999996
 40
0.6249999999999996
 40
0.7499999999999996
 40
0.7499999999999996
 40
1.0
 40
1.0
 40
1.0
 40
1.0
 10
278.4977436613049
 20
33.57049710090909
 30
0.0
 10
278.5220696730856
 20
33.56832198888706
 30
0.0
 10
278.5458812622933
 20
33.56916892442927
 30
0.0
 10
278.5888192724085
 20
33.5816844418752
 30
0.0
 10
278.6092833989604
 20
33.59352491665257
 30
0.0
 10
278.6253896598177
 20
33.6295974415291
 30
0.0
 10
278.6279960103652
 20
33.64518452010773
 30
0.0
 10
278.6251992803622
 20
33.68075977422392
 30
0.0
 10
278.619982023097
 20
33.70010868473436
 30
0.0
 10
278.5987433143536
 20
33.75575843677279
 30
0.0
 10
278.577938043297
 20
33.7905955621748
 30
0.0
 10
278.5563979014332
 20
33.82282016185272
 30
0.0
  0
SPLINE
  5
1AC
330
1F
100
AcDbEntity
  8
0
  6
Continuous
 62
     7
370
    15
100
AcDbSpline
210
0.0
220
0.0
230
1.0
 70
     8
 71
     3
 72
     8
 73
     4
 74
     0
 42
0.000000001
 43
0.00000001
 40
0.0
 40
0.0
 40
0.0
 40
0.0
 40
1.0
 40
1.0
 40
1.0
 40
1.0
 10
278.5054737210662
 20
33.86187135638209
 30
0.0
 10
278.5308997794511
 20
33.84719320530971
 30
0.0
 10
278.5474478758828
 20
33.83382495099883
 30
0.0
 10
278.5563979014335
 20
33.82282016185258
 30
0.0
  0
SPLINE
  5
1AD
330
1F
100
AcDbEntity
  8
0
  6
Continuous
 62
     7
370
    15
100
AcDbSpline
210
0.0
220
0.0
230
1.0
 70
     8
 71
     3
 72
     8
 73
     4
 74
     0
 42
0.000000001
 43
0.00000001
 40
0.0
 40
0.0
 40
0.0
 40
0.0
 40
1.0
 40
1.0
 40
1.0
 40
1.0
 10
281.9325654084173
 20
35.84028927568038
 30
0.0
 10
281.9579914668021
 20
35.82561112460807
 30
0.0
 10
281.9901798809952
 20
35.82127183355406
 30
0.0
 10
282.0230625842879
 20
35.82408308518561
 30
0.0
  0
SPLINE
  5
1AE
330
1F
100
AcDbEntity
  8
0
  6
Continuous
 62
     7
370
    15
100
AcDbSpline
210
0.0
220
0.0
230
1.0
 70
     8
 71
     3
 72
    16
 73
    12
 74
     0
 42
0.000000001
 43
0.00000001
 40
0.0
 40
0.0
 40
0.0
 40
0.0
 40
0.2499999999999767
 40
0.2499999999999767
 40
0.3749999999999798
 40
0.3749999999999798
 40
0.499999999999983
 40
0.499999999999983
 40
0.7499999999999915
 40
0.7499999999999915
 40
1.0
 40
1.0
 40
1.0
 40
1.0
 10
282.0230625842877
 20
35.82408308518598
 30
0.0
 10
282.0347747408687
 20
35.78625908239175
 30
0.0
 10
282.0502330060473
 20
35.74832527143702
 30
0.0
 10
282.0876478827538
 20
35.70250201098295
 30
0.0
 10
282.1030606917063
 20
35.68904425974452
 30
0.0
 10
282.139098214034
 20
35.67242208875381
 30
0.0
 10
282.1591158246151
 20
35.66977837786484
 30
0.0
 10
282.2168499736978
 20
35.67602881594051
 30
0.0
 10
282.2520598113834
 20
35.6963911147754
 30
0.0
 10
282.3133211489007
 20
35.74409691027596
 30
0.0
 10
282.3400258394841
 20
35.77224270444583
 30
0.0
 10
282.3645595368906
 20
35.80276239078207
 30
0.0
  0
SPLINE
  5
1AF
330
1F
100
AcDbEntity
  8
0
  6
Continuous
 62
     7
370
    15
100
AcDbSpline
210
0.0
220
0.0
230
1.0
 70
     8
 71
     3
 72
    20
 73
    16
 74
     0
 42
0.000000001
 43
0.00000001
 40
0.0
 40
0.0
 40
0.0
 40
0.0
 40
0.1249999999999998
 40
0.1249999999999998
 40
0.2499999999999997
 40
0.2499999999999997
 40
0.4999999999999996
 40
0.4999999999999996
 40
0.6249999999999997
 40
0.6249999999999997
 40
0.7499999999999998
 40
0.7499999999999998
 40
0.8749999999999999
 40
0.8749999999999999
 40
1.0
 40
1.0
 40
1.0
 40
1.0
 10
282.9060253332507
 20
36.92248035072609
 30
0.0
 10
282.941088878089
 20
36.96609906716211
 30
0.0
 10
282.9728072347513
 20
37.01246093302579
 30
0.0
 10
283.0288229390164
 20
37.11103809362508
 30
0.0
 10
283.0529145976251
 20
37.16309354514169
 30
0.0
 10
283.1103269393171
 20
37.31882761190414
 30
0.0
 10
283.1292832697996
 20
37.42553750770502
 30
0.0
 10
283.1272832508326
 20
37.56618815646449
 30
0.0
 10
283.1217339366078
 20
37.60908442007153
 30
0.0
 10
283.1015105638689
 20
37.68655619068326
 30
0.0
 10
283.0868430490947
 20
37.72029052652015
 30
0.0
 10
283.0492888639336
 20
37.77583916489205
 30
0.0
 10
283.026041527417
 20
37.79800518706361
 30
0.0
 10
282.9722069065949
 20
37.82915895690511
 30
0.0
 10
282.9410948368847
 20
37.83863322616343
 30
0.0
 10
282.9060252890748
 20
37.84176898844557
 30
0.0
  0
LWPOLYLINE
  5
1B0
330
1F
100
AcDbEntity
  8
0
  6
Continuous
 62
     7
370
    15
100
AcDbPolyline
 90
        4
 70
   128
 43
0.0
 10
282.9060252891
 20
37.8417689884
 10
282.6436495784
 20
37.8652293094
 10
282.3812738304
 20
37.8886896519
 10
282.0230625844
 20
37.920719138
  0
LINE
  5
1B1
330
1F
100
AcDbEntity
  8
0
  6
Continuous
 62
     7
370
    15
100
AcDbLine
 10
282.0230625843
 20
35.8240830852
 30
0.0
 11
282.9060253333
 21
36.9224803507
 31
0.0
  0
LINE
  5
1B2
330
1F
100
AcDbEntity
  8
0
  6
Continuous
 62
     7
370
    15
100
AcDbLine
 10
280.0587324383
 20
36.9220300238
 30
0.0
 11
280.961481685
 21
38.0450415045
 31
0.0
  0
ARC
  5
1B3
330
1F
100
AcDbEntity
  8
0
  6
Continuous
 62
     7
370
    15
100
AcDbCircle
 10
280.1041565588
 20
38.7340594715
 30
0.0
 40
1.099887326424295
100
AcDbArc
 50
321.211738057
 51
341.3878214977
  0
LWPOLYLINE
  5
1B4
330
1F
100
AcDbEntity
  8
0
  6
Continuous
 62
     7
370
    15
100
AcDbPolyline
 90
       10
 70
   128
 43
0.0
 10
254.1470814733
 20
22.7581753931
 10
253.3356884057
 20
22.9289113125
 10
252.1770550643
 20
23.3160932225
 10
251.0987549895
 20
23.857588727
 10
250.1083061466
 20
24.5496224906
 10
249.2126139974
 20
25.3873696171
 10
248.4179233553
 20
26.3649892891
 10
247.7297748454
 20
27.4756654905
 10
247.1529662757
 20
28.7116545277
 10
246.6915191862
 20
30.0643390196
  0
SPLINE
  5
1B5
330
1F
100
AcDbEntity
  8
0
  6
Continuous
 62
     7
370
    15
100
AcDbSpline
210
0.0
220
0.0
230
1.0
 70
     8
 71
     3
 72
     8
 73
     4
 74
     0
 42
0.000000001
 43
0.00000001
 40
0.0000000000000006
 40
0.0000000000000006
 40
0.0000000000000006
 40
0.0000000000000006
 40
0.001241704756042
 40
0.001241704756042
 40
0.001241704756042
 40
0.001241704756042
 10
247.1660197899024
 20
30.43095729189984
 30
0.0
 10
247.0079596323919
 20
30.30855408689533
 30
0.0
 10
246.8497903267108
 20
30.18635185692688
 30
0.0
 10
246.69151918625
 20
30.06433901961577
 30
0.0
  0
SPLINE
  5
1B6
330
1F
100
AcDbEntity
  8
0
  6
Continuous
 62
     7
370
    15
100
AcDbSpline
210
0.0
220
0.0
230
1.0
 70
     8
 71
     3
 72
     8
 73
     4
 74
     0
 42
0.000000001
 43
0.00000001
 40
0.0
 40
0.0
 40
0.0
 40
0.0
 40
1.0
 40
1.0
 40
1.0
 40
1.0
 10
247.1660197899015
 20
30.43095729190175
 30
0.0
 10
248.3372523745765
 20
30.62323692222965
 30
0.0
 10
249.5078717491683
 20
30.8168245894398
 30
0.0
 10
250.6774809343503
 20
31.01237788111037
 30
0.0
  0
SPLINE
  5
1B7
330
1F
100
AcDbEntity
  8
0
  6
Continuous
 62
     7
370
    15
100
AcDbSpline
210
0.0
220
0.0
230
1.0
 70
     8
 71
     3
 72
    10
 73
     6
 74
     0
 42
0.000000001
 43
0.00000001
 40
0.0
 40
0.0
 40
0.0
 40
0.0
 40
0.5
 40
0.5
 40
1.0
 40
1.0
 40
1.0
 40
1.0
 10
250.6774809343503
 20
31.01237788111037
 30
0.0
 10
250.7192467953647
 20
31.01936094152432
 30
0.0
 10
250.7631440811788
 20
31.02265103253269
 30
0.0
 10
250.8507714639687
 20
31.02098805810365
 30
0.0
 10
250.8932767610293
 20
31.01619595155291
 30
0.0
 10
250.9343579627285
 20
31.00726140601589
 30
0.0
  0
LINE
  5
1B8
330
1F
100
AcDbEntity
  8
0
  6
Continuous
 62
     7
370
    15
100
AcDbLine
 10
242.8411535314
 20
32.9276494394
 30
0.0
 11
247.1660197899
 21
30.4309572919
 31
0.0
  0
LINE
  5
1B9
330
1F
100
AcDbEntity
  8
0
  6
Continuous
 62
     7
370
    15
100
AcDbLine
 10
242.8411535314
 20
32.9276494394
 30
0.0
 11
246.383960085
 21
34.9728681291
 31
0.0
  0
LINE
  5
1BA
330
1F
100
AcDbEntity
  8
0
  6
Continuous
 62
     7
370
    15
100
AcDbLine
 10
242.4070864313
 20
32.6770271064
 30
0.0
 11
242.8411535314
 21
32.9276494394
 31
0.0
  0
LINE
  5
1BB
330
1F
100
AcDbEntity
  8
0
  6
Continuous
 62
     7
370
    15
100
AcDbLine
 10
246.6915191862
 20
30.0643390196
 30
0.0
 11
242.5637833511
 21
32.447230196
 31
0.0
  0
SPLINE
  5
1BC
330
1F
100
AcDbEntity
  8
0
  6
Continuous
 62
     7
370
    15
100
AcDbSpline
210
0.0
220
0.0
230
1.0
 70
     8
 71
     3
 72
     8
 73
     4
 74
     0
 42
0.000000001
 43
0.00000001
 40
0.0
 40
0.0
 40
0.0
 40
0.0
 40
1.0
 40
1.0
 40
1.0
 40
1.0
 10
242.5637833510735
 20
32.44723019599829
 30
0.0
 10
242.4835641219073
 20
32.4935397712689
 30
0.0
 10
242.4291743596216
 20
32.5772026122777
 30
0.0
 10
242.4070864312627
 20
32.67702710638473
 30
0.0
  0
ARC
  5
1BD
330
1F
100
AcDbEntity
  8
0
  6
Continuous
 62
     7
370
    15
100
AcDbCircle
 10
251.4819499731
 20
33.7514205541
 30
0.0
 40
8.761019882582483
100
AcDbArc
 50
214.8820148619
 51
239.7813472427
  0
ELLIPSE
  5
1BE
330
1F
100
AcDbEntity
  8
0
  6
Continuous
 62
     7
370
    15
100
AcDbEllipse
 10
246.0910668662
 20
35.9584925971
 30
0.0
 11
-7.507462981948264E-5
 21
1.066811201853398
 31
0.0
210
0.0
220
0.0
230
1.0
 40
0.7174342186
 41
3.534193645557453
 42
5.104989972352337
  0
ELLIPSE
  5
1BF
330
1F
100
AcDbEntity
  8
0
  6
Continuous
 62
     7
370
    15
100
AcDbEllipse
 10
246.0304066944
 20
35.9234628415
 30
0.0
 11
0.3250094736511642
 21
1.213179526238669
 31
0.0
210
0.0
220
0.0
230
1.0
 40
0.5176380889
 41
3.619174351347739
 42
5.189970678142603
  0
LWPOLYLINE
  5
1C0
330
1F
100
AcDbEntity
  8
0
  6
Continuous
 62
     7
370
     0
100
AcDbPolyline
 90
       76
 70
   128
 43
0.0
 10
254.2682006952
 20
30.8916801678
 10
254.3289588089
 20
32.6007512465
 10
254.5108069754
 20
34.3679842444
 10
254.8124696605
 20
36.1809832917
 10
255.2318309173
 20
38.0270315029
 10
255.7659492277
 20
39.8931801761
 10
256.4110781357
 20
41.7663396192
 10
257.1626925255
 20
43.6333709645
 10
258.0155203621
 20
45.4811783286
 10
258.9635796711
 20
47.2968006706
 10
260.0002204975
 20
49.0675027042
 10
261.1181715508
 20
50.7808642268
 10
262.3095912076
 20
52.4248672385
 10
263.5661225151
 20
53.9879802394
 10
264.8789518089
 20
55.4592391148
 10
266.2388705348
 20
56.8283240408
 10
267.63633984
 20
58.0856318704
 10
269.0615574815
 20
59.2223434925
 10
270.5045265815
 20
60.2304856917
 10
271.9551257486
 20
61.102987075
 10
273.4031800718
 20
61.8337276721
 10
274.8385324904
 20
62.4175818625
 10
276.2511150387
 20
62.8504543288
 10
277.6310194649
 20
63.1293087816
 10
278.968566731
 20
63.2521892572
 10
280.2543749038
 20
63.2182338374
 10
281.479424963
 20
63.0276806951
 10
282.6351240625
 20
62.6818664237
 10
283.7133658036
 20
62.1832166617
 10
284.7065870951
 20
61.5352290791
 10
285.6078212033
 20
60.7424488431
 10
286.4107466185
 20
59.8104367374
 10
287.1097313958
 20
58.7457301574
 10
287.6998726592
 20
57.5557972547
 10
288.1770309917
 20
56.2489845536
 10
288.5378594705
 20
54.8344584063
 10
288.7798271431
 20
53.3221406974
 10
288.9012367801
 20
51.7226392491
 10
288.9012367801
 20
50.0471734147
 10
288.7798271431
 20
48.3074953832
 10
288.5378594705
 20
46.5158077461
 10
288.1770309917
 20
44.6846779048
 10
287.6998726592
 20
42.8269499196
 10
287.1097313958
 20
40.9556544174
 10
286.4107466185
 20
39.0839171916
 10
285.6078212033
 20
37.2248671341
 10
284.7065870951
 20
35.3915441453
 10
283.7133658036
 20
33.5968076687
 10
282.6351240625
 20
31.8532464913
 10
281.479424963
 20
30.1730904418
 10
280.2543749038
 20
28.5681246077
 10
278.968566731
 20
27.0496066714
 10
277.6310194649
 20
25.628187945
 10
276.2511150387
 20
24.3138386595
 10
274.8385324904
 20
23.115778031
 10
273.4031800718
 20
22.0424095938
 10
271.9551257486
 20
21.1012622564
 10
270.5045265815
 20
20.2989374911
 10
269.0615574815
 20
19.6410630297
 10
267.63633984
 20
19.1322533888
 10
266.2388705348
 20
18.7760775025
 10
264.8789518089
 20
18.5750336887
 10
263.5661225151
 20
18.5305321254
 10
262.3095912076
 20
18.642884959
 10
261.1181715508
 20
18.911304115
 10
260.0002204975
 20
19.3339068261
 10
258.9635796711
 20
19.9077288378
 10
258.0155203621
 20
20.628745201
 10
257.1626925255
 20
21.4918985039
 10
256.4110781357
 20
22.4911343464
 10
255.7659492277
 20
23.6194438068
 10
255.2318309173
 20
24.8689126052
 10
254.8124696605
 20
26.2307766155
 10
254.5108069754
 20
27.6954833402
 10
254.3289588089
 20
29.2527589141
 10
254.2682006952
 20
30.8916801678
  0
LWPOLYLINE
  5
1C1
330
1F
100
AcDbEntity
  8
0
  6
Continuous
 62
     7
370
     0
100
AcDbPolyline
 90
       27
 70
   128
 43
0.0
 10
253.561093914
 20
30.8916801678
 10
253.6214721179
 20
32.612270908
 10
253.8021942853
 20
34.390819459
 10
254.1020259004
 20
36.2151765311
 10
254.5189188094
 20
38.0728799154
 10
255.050025211
 20
39.9512396141
 10
255.6917171098
 20
41.837424526
 10
256.4396110996
 20
43.7185500955
 10
257.2885983061
 20
45.5817663274
 10
258.2328792857
 20
47.4143455657
 10
259.2660036419
 20
49.203769436
 10
260.3809140878
 20
50.9378143587
 10
261.5699946545
 20
52.6046350488
 10
262.8251227161
 20
54.1928454307
 10
264.1377244751
 20
55.6915964173
 10
265.4988335306
 20
57.0906500194
 10
266.8991521277
 20
58.3804492825
 10
268.3291146703
 20
59.5521835696
 10
269.7789530644
 20
60.5978487475
 10
271.2387634437
 20
61.5103018628
 10
272.6985738229
 20
62.2833099353
 10
274.148412217
 20
62.9115925363
 10
275.5783747597
 20
63.3908578584
 10
276.9786933567
 20
63.7178320335
 10
278.3398024123
 20
63.8902814965
 10
279.6524041713
 20
63.9070282426
 10
280.173305715
 20
63.8689394397
  0
ARC
  5
1C2
330
1F
100
AcDbEntity
  8
0
  6
Continuous
 62
     7
370
     0
100
AcDbCircle
 10
268.9971872519
 20
30.294816912
 30
0.0
 40
15.44762840315845
100
AcDbArc
 50
177.7856626784
 51
212.4268831467
  0
LWPOLYLINE
  5
1C3
330
1F
100
AcDbEntity
  8
0
  6
Continuous
 62
     7
370
     0
100
AcDbPolyline
 90
       21
 70
   128
 43
0.0
 10
266.642569366
 20
38.0352511463
 10
266.7035089709
 20
38.9645767071
 10
266.8848272505
 20
39.9413785585
 10
267.1820595469
 20
40.9416045973
 10
267.5878870145
 20
41.9406259387
 10
268.0923168343
 20
42.9138433618
 10
268.6829282698
 20
43.8372930237
 10
269.3451785075
 20
44.6882365289
 10
270.0627607487
 20
45.4457208243
 10
270.818005737
 20
46.0910941325
 10
271.5923168343
 20
46.6084652209
 10
272.3666279316
 20
46.9850946961
 10
273.1218729198
 20
47.2117086906
 10
273.839455161
 20
47.2827272156
 10
274.5017053987
 20
47.1964015595
 10
275.0923168343
 20
46.9548573464
 10
275.596746654
 20
46.5640421964
 10
276.0025741216
 20
46.0335792755
 10
276.299806418
 20
45.3765303415
 10
276.4811246976
 20
44.6090741196
 10
276.541802456
 20
43.8087486126
  0
LWPOLYLINE
  5
1C4
330
1F
100
AcDbEntity
  8
0
  6
Continuous
 62
     7
370
     0
100
AcDbPolyline
 90
       11
 70
   128
 43
0.0
 10
271.5422087929
 20
35.1482599888
 10
270.818005737
 20
34.8002643792
 10
270.0627607487
 20
34.5736503848
 10
269.3451785075
 20
34.5026318597
 10
268.6829282698
 20
34.5889575158
 10
268.0923168343
 20
34.830501729
 10
267.5878870145
 20
35.221316879
 10
267.1820595469
 20
35.7517797998
 10
266.8848272505
 20
36.4088287339
 10
266.7035089709
 20
37.1762849558
 10
266.642569366
 20
38.0352511463
  0
LWPOLYLINE
  5
1C5
330
1F
100
AcDbEntity
  8
0
  6
Continuous
 62
     7
370
     0
100
AcDbPolyline
 90
       21
 70
   128
 43
0.0
 10
250.6774809344
 20
41.5049273138
 10
251.1471264461
 20
43.2643552443
 10
251.731294935
 20
45.0348110473
 10
252.4252082537
 20
46.8018134581
 10
253.2231906081
 20
48.5509094586
 10
254.1187149822
 20
50.2677924946
 10
255.1044565246
 20
51.9384194943
 10
256.1723524617
 20
53.5491257326
 10
257.3136680464
 20
55.0867366003
 10
258.5190680029
 20
56.5386753644
 10
259.778692884
 20
57.8930660381
 10
261.0822397148
 20
59.1388305195
 10
262.4190462655
 20
60.2657792036
 10
263.7781782617
 20
61.2646943274
 10
265.1485188204
 20
62.1274053652
 10
266.5188593791
 20
62.8468558591
 10
267.8779913753
 20
63.4171611365
 10
269.2147979261
 20
63.8336564427
 10
270.5183447569
 20
64.0929350964
 10
271.7779696379
 20
64.192876354
 10
271.9344875015
 20
64.1941099295
  0
LWPOLYLINE
  5
1C6
330
1F
100
AcDbEntity
  8
0
  6
Continuous
 62
     7
370
     0
100
AcDbPolyline
 90
       23
 70
   128
 43
0.0
 10
242.5637833511
 20
43.5803733219
 10
243.0252304406
 20
45.4658332829
 10
243.6020390102
 20
47.3677913191
 10
244.2901875201
 20
49.2729868781
 10
245.0848781623
 20
51.1681368354
 10
245.9805703114
 20
53.0400281049
 10
246.9710191543
 20
54.8756097614
 10
248.0493192291
 20
56.6620840322
 10
249.2079525705
 20
58.3869955238
 10
250.4388411253
 20
60.0383180619
 10
251.7334030732
 20
61.604538538
 10
253.0826126596
 20
63.0747371798
 10
254.4770631236
 20
64.4386636846
 10
255.9070322828
 20
65.6868086842
 10
257.3625503161
 20
66.8104700455
 10
258.8334692747
 20
67.8018135419
 10
260.3095338335
 20
68.653927474
 10
261.7804527921
 20
69.3608708581
 10
263.2359708254
 20
69.9177148475
 10
264.6659399845
 20
70.3205770963
 10
266.0603904486
 20
70.5666488276
 10
267.409600035
 20
70.6542144163
 10
268.508307346
 20
70.6040818023
  0
LWPOLYLINE
  5
1C7
330
1F
100
AcDbEntity
  8
0
  6
Continuous
 62
     7
370
     0
100
AcDbPolyline
 90
       20
 70
   128
 43
0.0
 10
251.07028731
 20
41.4472808569
 10
251.5380152566
 20
43.1869143894
 10
252.1185616666
 20
44.9370052495
 10
252.8071994224
 20
46.6833032667
 10
253.598321269
 20
48.4115891538
 10
254.4854854717
 20
50.1077902879
 10
255.4614682677
 20
51.7580952974
 10
256.5183226861
 20
53.3490665212
 10
257.647443256
 20
54.8677494254
 10
258.8396360773
 20
56.3017780861
 10
260.085193682
 20
57.6394758793
 10
261.3739740777
 20
58.8699505581
 10
262.6954833288
 20
59.9831829434
 10
264.0389610044
 20
60.9701085049
 10
265.3934677947
 20
61.8226911699
 10
266.7479745849
 20
62.5339887568
 10
268.0914522605
 20
63.0982095025
 10
269.4129615117
 20
63.5107592215
 10
270.7017419074
 20
63.7682787146
 10
271.0019942439
 20
63.8064159951
  0
LINE
  5
1C8
330
1F
100
AcDbEntity
  8
0
  6
Continuous
 62
     7
370
     0
100
AcDbLine
 10
250.9343579627
 20
31.007261406
 30
0.0
 11
252.093847343
 21
31.6766203776
 31
0.0
  0
LINE
  5
1C9
330
1F
100
AcDbEntity
  8
0
  6
Continuous
 62
     7
370
     0
100
AcDbLine
 10
252.4807358958
 20
31.4723318753
 30
0.0
 11
252.093847343
 21
31.6766203776
 31
0.0
  0
ARC
  5
1CA
330
1F
100
AcDbEntity
  8
0
  6
Continuous
 62
     7
370
     0
100
AcDbCircle
 10
251.3687008821
 20
32.8525409308
 30
0.0
 40
1.381530505393969
100
AcDbArc
 50
301.6605905891
 51
324.2377952695
  0
ARC
  5
1CB
330
1F
100
AcDbEntity
  8
0
  6
Continuous
 62
     7
370
     0
100
AcDbCircle
 10
271.8770799433
 20
37.7449435427
 30
0.0
 40
2.423533801190374
100
AcDbArc
 50
173.1201958033
 51
235.5676238034
  0
LWPOLYLINE
  5
1CC
330
1F
100
AcDbEntity
  8
0
  6
Continuous
 62
     7
370
     0
100
AcDbPolyline
 90
       14
 70
   128
 43
0.0
 10
275.5063272282
 20
44.4065157378
 10
275.1371655864
 20
44.5643291132
 10
274.5824534667
 20
44.6407192528
 10
273.9740751768
 20
44.5616725962
 10
273.33274831
 20
44.3298809823
 10
272.6803124833
 20
43.9532377967
 10
272.0389856164
 20
43.4445691712
 10
271.4306073266
 20
42.8211972058
 10
270.8758952068
 20
42.1043500851
 10
270.393739313
 20
41.3184391782
 10
270.0005588859
 20
40.4902277382
 10
269.7097432132
 20
39.6479195125
 10
269.5311956741
 20
38.8201982974
 10
269.4709964907
 20
38.0352511463
  0
LWPOLYLINE
  5
1CD
330
1F
100
AcDbEntity
  8
0
  6
Continuous
 62
     7
370
     0
100
AcDbPolyline
 90
       10
 70
   128
 43
0.0
 10
278.4977436613
 20
33.5704971009
 10
278.7901422322
 20
33.2268114427
 10
279.1821939659
 20
33.0387877147
 10
279.6500908355
 20
33.0178439867
 10
280.1654189854
 20
33.1652521031
 10
280.6968842128
 20
33.4720604483
 10
281.2122123627
 20
33.9196375492
 10
281.6801092323
 20
34.4808035038
 10
282.072160966
 20
35.1214805285
 10
282.3645595369
 20
35.8027623908
  0
LWPOLYLINE
  5
1CE
330
1F
100
AcDbEntity
  8
0
  6
Continuous
 62
     7
370
     0
100
AcDbPolyline
 90
       10
 70
   128
 43
0.0
 10
282.3646064276
 20
38.0096780863
 10
282.0722143091
 20
38.3534047929
 10
281.6801569976
 20
38.5414583547
 10
281.2122449588
 20
38.5624178831
 10
280.696895476
 20
38.4150104617
 10
280.1654068081
 20
38.1081884535
 10
279.6500573808
 20
37.6605858051
 10
279.1821454497
 20
37.0993863676
 10
278.7900882915
 20
36.4586729641
 10
278.4976963625
 20
35.7773574685
  0
LINE
  5
1CF
330
1F
100
AcDbEntity
  8
0
  6
Continuous
 62
     7
370
     0
100
AcDbLine
 10
246.7981736473
 20
36.366696653
 30
0.0
 11
252.3731767145
 21
33.1483158875
 31
0.0
  0
LINE
  5
1D0
330
1F
100
AcDbEntity
  8
0
  6
Continuous
 62
     7
370
     0
100
AcDbLine
 10
246.7375134756
 20
36.3316668974
 30
0.0
 11
246.7981736473
 21
36.366696653
 31
0.0
  0
LINE
  5
1D1
330
1F
100
AcDbEntity
  8
0
  6
Continuous
 62
     7
370
     0
100
AcDbLine
 10
277.6734351525
 20
33.901770337
 30
0.0
 11
277.7441458306
 21
33.6378801029
 31
0.0
  0
LWPOLYLINE
  5
1D2
330
1F
100
AcDbEntity
  8
0
  6
Continuous
 62
     7
370
     0
100
AcDbPolyline
 90
        3
 70
   128
 43
0.0
 10
281.9325654084
 20
37.9633087547
 10
281.6258275394
 20
38.2749215279
 10
281.5939078221
 20
38.2942244271
  0
LINE
  5
1D3
330
1F
100
AcDbEntity
  8
0
  6
Continuous
 62
     7
370
     0
100
AcDbLine
 10
246.5165426064
 20
41.1120892177
 30
0.0
 11
246.5175836337
 21
41.2978409497
 31
0.0
  0
LWPOLYLINE
  5
1D4
330
1F
100
AcDbEntity
  8
0
  6
Continuous
 62
     7
370
     0
100
AcDbPolyline
 90
        3
 70
   128
 43
0.0
 10
246.7082486067
 20
38.7199409977
 10
246.5779018576
 20
39.7277887746
 10
246.5165426064
 20
41.1120892177
  0
LWPOLYLINE
  5
1D5
330
1F
100
AcDbEntity
  8
0
  6
Continuous
 62
     7
370
     0
100
AcDbPolyline
 90
        8
 70
   128
 43
0.0
 10
278.9071851446
 20
33.4977503804
 10
279.2205861056
 20
33.4093154771
 10
279.701093727
 20
33.4492246535
 10
280.2190195647
 20
33.6671028229
 10
280.7369454025
 20
34.0472090973
 10
281.2174530238
 20
34.5620822116
 10
281.6258275394
 20
35.1745244972
 10
281.9325654084
 20
35.8402892757
  0
LINE
  5
1D6
330
1F
100
AcDbEntity
  8
0
  6
Continuous
 62
     7
370
     0
100
AcDbLine
 10
277.5046617717
 20
33.9992011358
 30
0.0
 11
277.6734351525
 21
33.901770337
 31
0.0
  0
LWPOLYLINE
  5
1D7
330
1F
100
AcDbEntity
  8
0
  6
Continuous
 62
     7
370
     0
100
AcDbPolyline
 90
       19
 70
   128
 43
0.0
 10
215.5833229228
 20
64.927707809
 10
215.644811239
 20
66.0465226403
 10
215.8282241056
 20
67.2171871384
 10
216.1304232775
 20
68.4196709093
 10
216.5462380431
 20
69.6333991222
 10
217.0685536966
 20
70.8376045508
 10
217.6884332721
 20
72.0116829065
 10
218.3952704585
 20
73.1355453829
 10
219.1769710753
 20
74.1899623817
 10
220.0201600084
 20
75.1568925355
 10
220.9104100613
 20
76.0197914014
 10
221.8324888088
 20
76.7638945405
 10
222.7706192278
 20
77.3764701419
 10
223.7087496469
 20
77.8470368671
 10
224.6308283944
 20
78.1675431889
 10
225.5210784473
 20
78.3325051555
 10
226.3642673804
 20
78.3391002217
 10
227.1459679972
 20
78.1872155442
 10
227.3011376999
 20
78.1353428068
  0
ARC
  5
1D8
330
1F
100
AcDbEntity
  8
0
  6
Continuous
 62
     7
370
     0
100
AcDbCircle
 10
220.9579817076
 20
64.4835757815
 30
0.0
 40
5.392977870397893
100
AcDbArc
 50
175.2761269287
 51
225.7050394481
  0
LINE
  5
1D9
330
1F
100
AcDbEntity
  8
0
  6
Continuous
 62
     7
370
     0
100
AcDbLine
 10
283.1181573676
 20
36.7402309279
 30
0.0
 11
282.9060253333
 21
36.9224803507
 31
0.0
  0
LWPOLYLINE
  5
1DA
330
1F
100
AcDbEntity
  8
0
  6
Continuous
 62
     7
370
     0
100
AcDbPolyline
 90
        3
 70
   128
 43
0.0
 10
251.7682216624
 20
29.2899332875
 10
251.5380152566
 20
29.758318454
 10
251.07028731
 20
30.957924794
  0
LINE
  5
1DB
330
1F
100
AcDbEntity
  8
0
  6
Continuous
 62
     7
370
     0
100
AcDbLine
 10
280.961481685
 20
38.0450415045
 30
0.0
 11
282.9060253333
 21
36.9224803507
 31
0.0
  0
LWPOLYLINE
  5
1DC
330
1F
100
AcDbEntity
  8
0
  6
Continuous
 62
     7
370
     0
100
AcDbPolyline
 90
        3
 70
   128
 43
0.0
 10
251.6389632615
 20
28.8514343582
 10
251.1471264461
 20
29.7951911166
 10
250.6774809344
 20
31.0123778811
  0
LINE
  5
1DD
330
1F
100
AcDbEntity
  8
0
  6
Continuous
 62
     7
370
     0
100
AcDbLine
 10
252.093847343
 20
31.6766203776
 30
0.0
 11
246.383960085
 21
34.9728681291
 31
0.0
  0
ARC
  5
1DE
330
1F
100
AcDbEntity
  8
0
  6
Continuous
 62
     7
370
     0
100
AcDbCircle
 10
254.0077127212
 20
35.5355532813
 30
0.0
 40
11.85332269478922
100
AcDbArc
 50
195.1023985781
 51
214.9744635893
  0
OLE2FRAME
  5
1DF
330
1F
100
AcDbEntity
  8
0
100
AcDbOle2Frame
 70
     2
  3
Paintbrush-Bild
 10
13.8511154363
 20
38.264191557
 30
0.0
 11
51.6290888628
 21
31.9806341108
 31
0.0
 71
     2
 72
     0
 73
     1
 90
    12928
310
80552BED0767C5B32B40DDAF6807D121434000000000000000006FFBDDFB85D0
310
4940DDAF6807D121434000000000000000006FFBDDFB85D04940416F4BD60AFB
310
3F4000000000000000002BED0767C5B32B40416F4BD60AFB3F40000000000000
310
0000000000000100000000010000010000000100000000000100000000320000
310
D0CF11E0A1B11AE1000000000000000000000000000000003E000300FEFF0900
310
0600000000000000000000000100000001000000000000000010000002000000
310
01000000FEFFFFFF0000000000000000FFFFFFFFFFFFFFFFFFFFFFFFFFFFFFFF
310
FFFFFFFFFFFFFFFFFFFFFFFFFFFFFFFFFFFFFFFFFFFFFFFFFFFFFFFFFFFFFFFF
310
FFFFFFFFFFFFFFFFFFFFFFFFFFFFFFFFFFFFFFFFFFFFFFFFFFFFFFFFFFFFFFFF
310
FFFFFFFFFFFFFFFFFFFFFFFFFFFFFFFFFFFFFFFFFFFFFFFFFFFFFFFFFFFFFFFF
310
FFFFFFFFFFFFFFFFFFFFFFFFFFFFFFFFFFFFFFFFFFFFFFFFFFFFFFFFFFFFFFFF
310
FFFFFFFFFFFFFFFFFFFFFFFFFFFFFFFFFFFFFFFFFFFFFFFFFFFFFFFFFFFFFFFF
310
FFFFFFFFFFFFFFFFFFFFFFFFFFFFFFFFFFFFFFFFFFFFFFFFFFFFFFFFFFFFFFFF
310
FFFFFFFFFFFFFFFFFFFFFFFFFFFFFFFFFFFFFFFFFFFFFFFFFFFFFFFFFFFFFFFF
310
FFFFFFFFFFFFFFFFFFFFFFFFFFFFFFFFFFFFFFFFFFFFFFFFFFFFFFFFFFFFFFFF
310
FFFFFFFFFFFFFFFFFFFFFFFFFFFFFFFFFFFFFFFFFFFFFFFFFFFFFFFFFFFFFFFF
310
FFFFFFFFFFFFFFFFFFFFFFFFFFFFFFFFFFFFFFFFFFFFFFFFFFFFFFFFFFFFFFFF
310
FFFFFFFFFFFFFFFFFFFFFFFFFFFFFFFFFFFFFFFFFFFFFFFFFFFFFFFFFFFFFFFF
310
FFFFFFFFFFFFFFFFFFFFFFFFFFFFFFFFFFFFFFFFFFFFFFFFFFFFFFFFFFFFFFFF
310
FFFFFFFFFFFFFFFFFFFFFFFFFFFFFFFFFFFFFFFFFFFFFFFFFFFFFFFFFFFFFFFF
310
FDFFFFFFFEFFFFFFFEFFFFFFFEFFFFFF05000000060000000700000008000000
310
090000000A0000000B0000000C0000000D0000000E0000000F00000010000000
310
11000000120000001300000014000000150000001600000017000000FEFFFFFF
310
FFFFFFFFFFFFFFFFFFFFFFFFFFFFFFFFFFFFFFFFFFFFFFFFFFFFFFFFFFFFFFFF
310
FFFFFFFFFFFFFFFFFFFFFFFFFFFFFFFFFFFFFFFFFFFFFFFFFFFFFFFFFFFFFFFF
310
FFFFFFFFFFFFFFFFFFFFFFFFFFFFFFFFFFFFFFFFFFFFFFFFFFFFFFFFFFFFFFFF
310
FFFFFFFFFFFFFFFFFFFFFFFFFFFFFFFFFFFFFFFFFFFFFFFFFFFFFFFFFFFFFFFF
310
FFFFFFFFFFFFFFFFFFFFFFFFFFFFFFFFFFFFFFFFFFFFFFFFFFFFFFFFFFFFFFFF
310
FFFFFFFFFFFFFFFFFFFFFFFFFFFFFFFFFFFFFFFFFFFFFFFFFFFFFFFFFFFFFFFF
310
FFFFFFFFFFFFFFFFFFFFFFFFFFFFFFFFFFFFFFFFFFFFFFFFFFFFFFFFFFFFFFFF
310
FFFFFFFFFFFFFFFFFFFFFFFFFFFFFFFFFFFFFFFFFFFFFFFFFFFFFFFFFFFFFFFF
310
FFFFFFFFFFFFFFFFFFFFFFFFFFFFFFFFFFFFFFFFFFFFFFFFFFFFFFFFFFFFFFFF
310
FFFFFFFFFFFFFFFFFFFFFFFFFFFFFFFFFFFFFFFFFFFFFFFFFFFFFFFFFFFFFFFF
310
FFFFFFFFFFFFFFFFFFFFFFFFFFFFFFFFFFFFFFFFFFFFFFFFFFFFFFFFFFFFFFFF
310
FFFFFFFFFFFFFFFFFFFFFFFFFFFFFFFFFFFFFFFFFFFFFFFFFFFFFFFFFFFFFFFF
310
FFFFFFFFFFFFFFFFFFFFFFFFFFFFFFFFFFFFFFFFFFFFFFFFFFFFFFFFFFFFFFFF
310
52006F006F007400200045006E00740072007900000000000000000000000000
310
0000000000000000000000000000000000000000000000000000000000000000
310
16000500FFFFFFFFFFFFFFFF020000000A00030000000000C000000000000046
310
00000000000000000000000040EF94399A20D20103000000C000000000000000
310
01004F006C006500000000000000000000000000000000000000000000000000
310
0000000000000000000000000000000000000000000000000000000000000000
310
0A000200FFFFFFFFFFFFFFFFFFFFFFFF00000000000000000000000000000000
310
0000000000000000000000000000000000000000000000001400000000000000
310
010043006F006D0070004F0062006A0000000000000000000000000000000000
310
0000000000000000000000000000000000000000000000000000000000000000
310
120002010100000003000000FFFFFFFF00000000000000000000000000000000
310
0000000000000000000000000000000000000000010000004D00000000000000
310
01004F006C006500310030004E00610074006900760065000000000000000000
310
0000000000000000000000000000000000000000000000000000000000000000
310
1A000200FFFFFFFFFFFFFFFFFFFFFFFF00000000000000000000000000000000
310
0000000000000000000000000000000000000000040000002426000000000000
310
FEFFFFFF02000000FEFFFFFFFFFFFFFFFFFFFFFFFFFFFFFFFFFFFFFFFFFFFFFF
310
FFFFFFFFFFFFFFFFFFFFFFFFFFFFFFFFFFFFFFFFFFFFFFFFFFFFFFFFFFFFFFFF
310
FFFFFFFFFFFFFFFFFFFFFFFFFFFFFFFFFFFFFFFFFFFFFFFFFFFFFFFFFFFFFFFF
310
FFFFFFFFFFFFFFFFFFFFFFFFFFFFFFFFFFFFFFFFFFFFFFFFFFFFFFFFFFFFFFFF
310
FFFFFFFFFFFFFFFFFFFFFFFFFFFFFFFFFFFFFFFFFFFFFFFFFFFFFFFFFFFFFFFF
310
FFFFFFFFFFFFFFFFFFFFFFFFFFFFFFFFFFFFFFFFFFFFFFFFFFFFFFFFFFFFFFFF
310
FFFFFFFFFFFFFFFFFFFFFFFFFFFFFFFFFFFFFFFFFFFFFFFFFFFFFFFFFFFFFFFF
310
FFFFFFFFFFFFFFFFFFFFFFFFFFFFFFFFFFFFFFFFFFFFFFFFFFFFFFFFFFFFFFFF
310
FFFFFFFFFFFFFFFFFFFFFFFFFFFFFFFFFFFFFFFFFFFFFFFFFFFFFFFFFFFFFFFF
310
FFFFFFFFFFFFFFFFFFFFFFFFFFFFFFFFFFFFFFFFFFFFFFFFFFFFFFFFFFFFFFFF
310
FFFFFFFFFFFFFFFFFFFFFFFFFFFFFFFFFFFFFFFFFFFFFFFFFFFFFFFFFFFFFFFF
310
FFFFFFFFFFFFFFFFFFFFFFFFFFFFFFFFFFFFFFFFFFFFFFFFFFFFFFFFFFFFFFFF
310
FFFFFFFFFFFFFFFFFFFFFFFFFFFFFFFFFFFFFFFFFFFFFFFFFFFFFFFFFFFFFFFF
310
FFFFFFFFFFFFFFFFFFFFFFFFFFFFFFFFFFFFFFFFFFFFFFFFFFFFFFFFFFFFFFFF
310
FFFFFFFFFFFFFFFFFFFFFFFFFFFFFFFFFFFFFFFFFFFFFFFFFFFFFFFFFFFFFFFF
310
FFFFFFFFFFFFFFFFFFFFFFFFFFFFFFFFFFFFFFFFFFFFFFFFFFFFFFFFFFFFFFFF
310
0100000200000000000000000000000000000000000000000000000000000000
310
0000000000000000000000000000000000000000000000000000000000000000
310
0100FEFF030A0000FFFFFFFF0A00030000000000C00000000000004607000000
310
5042727573680007000000504272757368000700000050427275736800F439B2
310
7100000000000000000000000000000000000000000000000000000000000000
310
0000000000000000000000000000000000000000000000000000000000000000
310
0000000000000000000000000000000000000000000000000000000000000000
310
0000000000000000000000000000000000000000000000000000000000000000
310
0000000000000000000000000000000000000000000000000000000000000000
310
0000000000000000000000000000000000000000000000000000000000000000
310
0000000000000000000000000000000000000000000000000000000000000000
310
0000000000000000000000000000000000000000000000000000000000000000
310
0000000000000000000000000000000000000000000000000000000000000000
310
0000000000000000000000000000000000000000000000000000000000000000
310
0000000000000000000000000000000000000000000000000000000000000000
310
0000000000000000000000000000000000000000000000000000000000000000
310
20260000424D0E260000000000003E00000028000000B40200006E0000000100
310
01000000000000000000130B0000130B00000200000002000000000000FFFFFF
310
FFFFFFFFFFFFFFFFFFFFFFFFFFFFFFFFFFFFFFFFFFFFFFFFFFFFFFFFFFFFFFFF
310
FFFFFFFFFFFFFFFFFFFFFFFFFFFFFFFFFFFFFFFFFFFFFFFFFFFFFFFFFFFFFFFF
310
FFFFFFFFFFFFFFFFFFFFFFFFFFFFFFFFFFFFFFFFFFFFFFFFF000FFFFFFFFFFFF
310
FFFFFFFFFFFFFFFFFFFFFFFFFFFFFFFFFFFFFFFFFFFFFFFFFFFFFFFFFFFFFFFF
310
FFFFFFFFFFFFFFFFFFFFFFFFFFFFFFFFFFFFFFFFFFFFFFFFFFFFFFFFFFFFFFFF
310
FFFFFFFFFFFFFFFFFFFFFFFFFFFFFFFFF000FFFFFFFFFFFFFFFFFFFFFFFFFFFF
310
FFFFFFFFFFFFFFFFFFFFFFFFFFFFFFFFFFFFFFFFFFFFFFFFFFFFFFFFFFFFFFFF
310
FFFFFFFFFFFFFFFFFFFFFFFFFFFFFFFFFFFFFFFFFFFFFFFFFFFFFFFFFFFFFFFF
310
FFFFFFFFFFFFFFFFF000FFFFFFFFFFFFFFFFFFFFFFFFFFFFFFFFFFFFFFFFFFFF
310
FFFFFFFFFFFFFFFFFFFFFFFFFFFFFFFFFFFFFFFFFFFFFFFFFFFFFFFFFFFFFFFF
310
FFFFFFFFFFFFFFFFFFFFFFFFFFFFFFFFFFFFFFFFFFFFFFFFFFFFFFFFFFFFFFFF
310
F000FFFFFFFFFFFFFFFFFFFFFFFFFFFFFFFFFFFFFFFFFFFFFFFFFFFFFFFFFFFF
310
FFFFFFFFFFFFFFFFFFFFFFFFFFFFFFFFFFFFFFFFFFFFFFFFFFFFFFFFFFFFFFFF
310
FFFFFFFFFFFFFFFFFFFFFFFFFFFFFFFFFFFFFFFFFFFFFFFFF000FFFFFFFFFFFF
310
FFFFFFFFFFFFFFFFFFFFFFFFFFFFFFFFFFFFFFFFFFFFFFFFFFFFFFFFFFFFFFFF
310
FFFFFFFFFFFFFFFFFFFFFFFFFFFFFFFFFFFFFFFFFFFFFFFFFFFFFFFFFFFFFFFF
310
FFFFFFFFFFFFFFFFFFFFFFFFFFFFFFFFF000FFFFFFFFFFFFFFFFFFFFFFFFFFFF
310
FFFFFFFFFFFFFFFFFFFFFFFFFFFFFFFFFFFFFFFFFFFFFFFFFFFFFFFFFFFFFFFF
310
FFFFFFFFFFFFFFFFFFFFFFFFFFFFFFFFFFFFFFFFFFFFFFFFFFFFFFFFFFFFFFFF
310
FFFFFFFFFFFFFFFFF000FFFFFFFFFFFFFFFFFFFFFFFFFFFFFFFFFFFFFFFFFFFF
310
FFFFFFFFFFFFFFFFFFFFFFFFFFFFFFFFFFFFFFFFFFFFFFFFFFFFFFFFFFFFFFFF
310
FFFFFFFFFFFFFFFFFFFFFFFFFFFFFFFFFFFFFFFFFFFFFFFFFFFFFFFFFFFFFFFF
310
F000FFFFFFFFFFFFFFFFFFFFFFFFFFFFFFFFFFFFFFFFFFFFFFFFFFFFFFFFFFFF
310
FFFFFFFFFFFFFFFFFFFFFFFFFFFFFFFFFFFFFFFFFFFFFFFFFFFFFFFFFFFFFFFF
310
FFFFFFFFFFFFFFFFFFFFFFFFFFFFFFFFFFFFFFFFFFFFFFFFF000FFFFFFFFFFFF
310
FFFFFFFFFFFFFFFFFFFFFFFFFFFFFFFFFFFFFFFFFFFFFFFFFFFFFFFFFFFFFFFF
310
FFFFFFFFFFFFFFFFFFFFFFFFFFFFFFFFFFFFFFFFFFFFFFFFFFFFFFFFFFFFFFFF
310
FFFFFFFFFFFFFFFFFFFFFFFFFFFFFFFFF000FFFFFFFFFFFFFFFFFFFFFFFFFFFF
310
FFFFFFFFFFFFFFFFFFFFFFFFFFFFFFFFFFFFFFFFFFFFFFFFFFFFFFFFFFFFFFFF
310
FFFFFFFFFFFFFFFFFFFFFFFFFFFFFFFFFFFFFFFFFFFFFFFFFFFFFFFFFFFFFFFF
310
FFFFFFFFFFFFFFFFF000FFFFFFFFFFFFFFFFFFFFFFFFFFFFFFFFFFFFFFFFFFFF
310
FFFFFFFFFFFFFFFFFFFFFFFFFFFFFFFFFFFFFFFFFFFFFFFFFFFFFFFFFFFFFFFF
310
FFFFFFFFFFFFFFFFFFFFFFFFFFFFFFFFFFFFFFFFFFFFFFFFFFFFFFFFFFFFFFFF
310
F000FFFFFFFFFFFFFFFFFFFFFFFFFFFFFFFFFFFFFFFFFFFFFFFFFFFFFFFFFFFF
310
FFFFFFFFFFFFFFFFFFFFFFFFFFFFFFFFFFFFFFFFFFFFFFFFFFFFFFFFFFFFFFFF
310
FFFFFFFFFFFFFFFFFFFFFFFFFFFFFFFFFFFFFFFFFFFFFFFFF000FFFFFFFFFFFF
310
FFFFFFFFFFFFFFFFFFFFFFFFFFFFFFFFFFFFFFFFFFFFFFFFFFFFFFFFFFFFFFFF
310
FFFFFFFFFFFFFFFFFFFFFFFFFFFFFFFFFFFFFFFFFFFFFFFFFFFFFFFFFFFFFFFF
310
FFFFFFFFFFFFFFFFFFFFFFFFFFFFFFFFF000FFFFFFFFFFFFFFFFFFFFFFFFFFFF
310
FFFFFFFFFFFFFFFFFFFFFFFFFFFFFFFFFFFFFFFFFFFFFFFFFFFFFFFFFFFFFFFF
310
FFFFFFFFFFFFFFFFFFFFFFFFFFFFFFFFFFFFFFFFFFFFFFFFFFFFFFFFFFFFFFFF
310
FFFFFFFFFFFFFFFFF000FFFFFFFFFFFFFFFFFFFFFFFFFFFFFFFFFFFFFFFFFFFF
310
FFFFFFFFFFFFFFFFFFFFFFFFFFFFFFFFFFFFFFFFFFFFFFFFFFFFFFFFFFFFFFFF
310
FFFFFFFFFFFFFFFFFFFFFFFFFFFFFFFFFFFFFFFFFFFFFFFFFFFFFFFFFFFFFFFF
310
F000FFFFFFFFFFFFFFFFFFFFFFFFFFFFFFFFFFFFFFFFFFFFFFFFFFFFFFFFFFFF
310
FFFFFFFFFFFFFFFFFFFFFFFFFFFFFFFFFFFFFFFFFFFFFFFFFFFFFFFFFFFFFFFF
310
FFFFFFFFFFFFFFFFFFFFFFFFFFFFFFFFFFFFFFFFFFFFFFFFF000FFFFFFFFFFFF
310
FFFFFFFFFFFFFFFFFFFFFFFFFFFFFFFFFFFFFFFFFFFFFFFFFFFFFFFFFFFFFFFF
310
FFFFFFFFFFFFFFFFFFFFFFFFFFFFFFFFFFFFFFFFFFFFFFFFFFFFFFFFFFFFFFFF
310
FFFFFFFFFFFFFFFFFFFFFFFFFFFFFFFFF000FFFFFFFFFFFFFFFFFFFFFFFFFFFF
310
FFFFFFFFFFFFFFFFFFFFFFFFFFFFFFFFFFFFFFFFFFFFFFFFFFFFFFFFFFFFFFFF
310
FFFFFFFFFFFFFFFFFFFFFFFFFFFFFFFFFFFFFFFFFFFFFFFFFFFFFFFFFFFFFFFF
310
FFFFFFFFFFFFFFFFF000FFFFF80003FFFFFFFFFFFFFFFFFFFFFFFFFFFFFFFFFF
310
FFFFF00007FFFFFFFFFF00007FFFFFF800000000000000007FFFFFFFFFFFFFFF
310
FFFFFFFC001FFFFFFFFFFFFFFC001FFFFFFFFFFFFFFFFFFFFFFFFFFE0007FFFF
310
F000FFFF8000007FFFFFFFF8000FFFFFC0007FFFFF80007FFFFF0000007FFFFF
310
FFF8000007FFFFF800000000000000007FFFFFF0001FFFFFFFFFFFC00001FFFF
310
FFFFFFFFC00001FFFFFFFF000000000003FFFFE000007FFFF000FFFE0000000F
310
FFFFFFF0000FFFFF80007FFFFF80007FFFFC0000001FFFFFFFC0000001FFFFF8
310
00000000000000007FFFFFF0001FFFFFFFFFFE0000003FFFFFFFFFFE0000003F
310
FFFFFF000000000003FFFF0000000FFFF000FFF800000003FFFFFFF00007FFFF
310
80007FFFFF80007FFFF000000007FFFFFF000000003FFFF80000000000000000
310
7FFFFFF0001FFFFFFFFFF80000000FFFFFFFFFF80000000FFFFFFF0000000000
310
03FFFC00000003FFF000FFE000000000FFFFFFF00007FFFF80003FFFFF80007F
310
FFC000000001FFFFFC000000001FFFF800000000000000007FFFFFF0001FFFFF
310
FFFFE000000003FFFFFFFFE000000003FFFFFF000000000003FFF000000000FF
310
F000FF80000000007FFFFFF00007FFFF80003FFFFF80007FFF8000000000FFFF
310
F80000000007FFF800000000000000007FFFFFF0001FFFFFFFFFC000000001FF
310
FFFFFFC000000001FFFFFF000000000003FFC0000000007FF000FF0000000000
310
3FFFFFE00007FFFF00003FFFFF80007FFE00000000003FFFF00000000003FFF8
310
00000000000000007FFFFFF0001FFFFFFFFF8000000000FFFFFFFF8000000000
310
FFFFFF000000000003FF80000000003FF000FE00000000001FFFFFE00003FFFF
310
00003FFFFF80007FFC00000000001FFFE00000000001FFF8000001FFFE000000
310
7FFFFFF0001FFFFFFFFE00000000003FFFFFFE00000000003FFFFF0000000000
310
03FF00000000001FF000FC00000000000FFFFFE00003FFFF00001FFFFF80007F
310
F800000000001FFFC00000000000FFF8000001FFFE0000007FFFFFF0001FFFFF
310
FFFC00000000001FFFFFFC00000000001FFFFF000000000003FE00000000000F
310
F000F8000000000007FFFFE00003FFFF00001FFFFF80007FF800000000000FFF
310
800000000000FFF8000001FFFE0000007FFFFFF0001FFFFFFFF800000000000F
310
FFFFF800000000000FFFFF000000000003FC000000000007F000F80000000000
310
03FFFFC00003FFFE00001FFFFF80007FF0000000000007FF0000000000007FF8
310
000001FFFE0000007FFFFFF0001FFFFFFFF0000000000007FFFFF00000000000
310
07FFFF000000000003F8000000000003F000F0000000000003FFFFC00001FFFE
310
00001FFFFF80007FE0000000000007FE0000000000003FF8000001FFFE000000
310
7FFFFFF0001FFFFFFFF0000000000007FFFFF0000000000007FFFF0000000000
310
03F800001F800003F000E00001FFF00001FFFFC00001FFFE00000FFFFF80007F
310
E00001FFE00003FE00001FFF00003FF8000001FFFE0000007FFFFFF0001FFFFF
310
FFE000003E000003FFFFE000003E000003FFFF000000000003F00001FFF80001
310
F000E00007FFFC0001FFFFC00001FFFE00000FFFFF80007FC0000FFFFC0003FC
310
0000FFFFC0001FF8000001FFFE0000007FFFFFF0001FFFFFFFC00003FFE00001
310
FFFFC00003FFE00001FFFF0001FFFFFFFFF00007FFFE0001F000E0000FFFFF00
310
00FFFF800001FFFC00000FFFFF80007FC0001FFFFE0001FC0001FFFFE0001FF8
310
000001FFFE0000007FFFFFF0001FFFFFFF80000FFFF80000FFFF80000FFFF800
310
00FFFF0003FFFFFFFFE0000FFFFF8000F000C0003FFFFF8000FFFF800000FFFC
310
000007FFFF80007F80003FFFFF0001FC0003FFFFF0001FF8000001FFFE000000
310
7FFFFFF0001FFFFFFF80003FFFFE0000FFFF80003FFFFE0000FFFF0003FFFFFF
310
FFE0003FFFFF8000F000C0003FFFFF8000FFFF800000FFFC000007FFFF80007F
310
80007FFFFF8001F80007FFFFF8000FF8000001FFFE0000007FFFFFF0001FFFFF
310
FF00007FFFFF00007FFF00007FFFFF00007FFF0003FFFFFFFFE0003FFFFFC000
310
F000C0007FFFFFC000FFFF000000FFFC000007FFFF80007F8000FFFFFF8000F8
310
000FFFFFF8000FF8000001FFFE0000007FFFFFF0001FFFFFFF0000FFFFFF8000
310
7FFF0000FFFFFF80007FFF0003FFFFFFFFC0007FFFFFC00070008000FFFFFFC0
310
00FFFF000000FFF8000007FFFF80007F8000FFFFFF8000F8000FFFFFF8000FF8
310
000001FFFE0000007FFFFFF0001FFFFFFE0001FFFFFFC0003FFE0001FFFFFFC0
310
003FFF0003FFFFFFFFC0007FFFFFE00070008000FFFFFFC0007FFF0000007FF8
310
000003FFFF80007F0001FFFFFF8000F8000FFFFFF8000FF8000001FFFE000000
310
7FFFFFF0001FFFFFFE0001FFFFFFC0003FFE0001FFFFFFC0003FFF0003FFFFFF
310
FFC000FFFFFFE00070008000FFFFFFC0007FFF0000007FF8000003FFFF80007F
310
0001FFFFFF8000F8001FFFFFF8000FF8000001FFFE0000007FFFFFF0001FFFFF
310
FE0003FFFFFFE0003FFE0003FFFFFFE0003FFF0003FFFFFFFFC000FFFFFFE000
310
70008000FFFFFFC0007FFE0000007FF8000003FFFF80007F0001FFFFFF8000F0
310
001FFFFFF8000FF8000001FFFE0000007FFFFFF0001FFFFFFC0003FFFFFFE000
310
1FFC0003FFFFFFE0001FFF0003FFFFFFFFC000FFFFFFC00070008000FFFFFF80
310
007FFE0000007FF0000003FFFF80007F0001FFFFFF0000F0001FFFFFF8000FF8
310
000001FFFE0000007FFFFFF0001FFFFFFC0007FFFFFFF0001FFC0007FFFFFFF0
310
001FFF0003FFFFFFFFC000FFFFFFC00070008001FFFFFF0000FFFE0000003FF0
310
000001FFFF80007F0001FFFFFF0000F8001FFFFFF0000FF8000001FFFE000000
310
7FFFFFF0001FFFFFFC0007FFFFFFF0001FFC0007FFFFFFF0001FFF0003FFFFFF
310
FFC001FFFFFF80007000FFFFFFFFFE0000FFFE0008003FF0008001FFFF80007F
310
FFFFFFFFFC0000FFFFFFFFFFE0000FF8000001FFFE0000007FFFFFF0001FFFFF
310
F8000FFFFFFFF8000FF8000FFFFFFFF8000FFF0003FFFFFFFFFFFFFFFFFF0000
310
7000FFFFFFFFFC0000FFFC0008003FF0008001FFFF80007FFFFFFFFFF80001FF
310
FFFFFFFF80000FF8000001FFFE0000007FFFFFF0001FFFFFF8000FFFFFFFF800
310
0FF8000FFFFFFFF8000FFF0003FFFFFFFFFFFFFFFFFE0000F000FFFFFFFFE000
310
00FFFC000C003FE000C001FFFF80007FFFFFFFFFC00001FFFFFFFFFE00001FF8
310
000001FFFE0000007FFFFFF0001FFFFFF8000FFFFFFFF8000FF8000FFFFFFFF8
310
000FFF0003FFFFFFFFFFFFFFFFF00000F000FFFFFFFE000001FFFC000C001FE0
310
00C000FFFF80007FFFFFFFFE000001FFFFFFFFE000001FF80FFFFFFFFFFFFFC0
310
7FFFFFF0001FFFFFF8000FFFFFFFF8000FF8000FFFFFFFF8000FFF0003FFFFFF
310
FFFFFFFFFF800000F000FFFFFFC0000001FFFC001C001FE001C000FFFF80007F
310
FFFFFF80000003FFFFFFF80000001FF80FFFFFFFFFFFFFC07FFFFFF0001FFFFF
310
F8001FFFFFFFFC000FF8001FFFFFFFFC000FFF0003FFFFFFFFFFFFFFF0000001
310
F000FFFFF800000001FFF8001C001FE001C000FFFF80007FFFFFF800000003FF
310
FFFF800000003FF80FFFFFFFFFFFFFC07FFFFFF0001FFFFFF8001FFFFFFFFC00
310
0FF8001FFFFFFFFC000FFF0003FFFFFFFFFFFFFE00000001F000FFFFC0000000
310
03FFF8001E001FC001E000FFFF80007FFFFF8000000007FFFFFC000000003FF8
310
0FFFFFFFFFFFFFC07FFFFFF0001FFFFFF8001FFFFFFFFC000FF8001FFFFFFFFC
310
000FFF0003FFFFFFFFFFFFE000000003F000FFFE0000000007FFF8001E000FC0
310
01E0007FFF80007FFFFE0000000007FFFFE0000000007FF80FFFFFFFFFFFFFC0
310
7FFFFFF0001FFFFFF0001FFFFFFFFC0007F0001FFFFFFFFC0007FF0003FFFFFF
310
FFFFFF0000000003F000FFF80000000007FFF8001E000FC003E0007FFF80007F
310
FFF0000000000FFFFF8000000000FFF80FFFFFFFFFFFFFC07FFFFFF0001FFFFF
310
F0001FFFFFFFFC0007F0001FFFFFFFFC0007FF0003FFFFFFFFFFFC0000000007
310
F000FFE0000000000FFFF0003E000FC003E0007FFF80007FFFC0000000001FFF
310
FE0000000001FFF80FFFFFFFFFFFFFC07FFFFFF0001FFFFFF0001FFFFFFFFC00
310
07F0001FFFFFFFFC0007FF0003FFFFFFFFFFF0000000000FF000FFC000000000
310
1FFFF0003F000F8003F0003FFF80007FFF80000000003FFFF80000000003FFF8
310
0FFFFFFFFFFFFFC07FFFFFF0001FFFFFF0001FFFFFFFFC0007F0001FFFFFFFFC
310
0007FF0003FFFFFFFFFFE0000000001FF000FF00000000007FFFF0003F000780
310
03F0003FFF80007FFF00000000007FFFF00000000007FFF80FFFFFFFFFFFFFC0
310
7FFFFFF0001FFFFFF0001FFFFFFFFC0007F0001FFFFFFFFC0007FF0003FFFFFF
310
FFFF80000000007FF000FE0000000000FFFFE0003F00078007F0003FFF80007F
310
FE0000000001FFFFE0000000001FFFF80FFFFFFFFFFFFFC07FFFFFF0001FFFFF
310
F0001FFFFFFFFC0007F0001FFFFFFFFC0007FF0003FFFFFFFFFF0000000000FF
310
F000FC0000000003FFFFE0007F00078007F0003FFF80007FFC0000000007FFFF
310
C0000000007FFFF80FFFFFFFFFFFFFC07FFFFFF0001FFFFFF8001FFFFFFFFC00
310
0FF8001FFFFFFFFC000FFF0003FFFFFFFFFE0000000003FFF000FC000000000F
310
FFFFE0007F80070007F8001FFF80007FF8000000001FFFFF8000000001FFFFF8
310
0FFFFFFFFFFFFFC07FFFFFF0001FFFFFF8001FFFFFFFFC000FF8001FFFFFFFFC
310
000FFF0003FFFFFFFFFC000000000FFFF000F8000000007FFFFFE0007F800700
310
07F8001FFF80007FF000000000FFFFFF800000000FFFFFF80FFFFFFFFFFFFFC0
310
7FFFFFF0001FFFFFF8000FFFFFFFF8000FF8000FFFFFFFF8000FFF0003FFFFFF
310
FFFC000000007FFFF000F800000007FFFFFFC0007F8003000FF8001FFF80007F
310
F000000007FFFFFF000000007FFFFFF80FFFFFFFFFFFFFC07FFFFFF0001FFFFF
310
F8000FFFFFFFF8000FF8000FFFFFFFF8000FFF0003FFFFFFFFF80000000FFFFF
310
F000F0000000FFFFFFFFC000FF8003000FF8001FFF80007FE0000000FFFFFFFF
310
0000000FFFFFFFF8000001FFFE0000007FFFFFF0001FFFFFF8000FFFFFFFF800
310
0FF8000FFFFFFFF8000FFF0003FFFFFFFFF8000000FFFFFFF000F000000FFFFF
310
FFFFC000FFC002000FF8000FFF80007FE000001FFFFFFFFE000001FFFFFFFFF8
310
000001FFFE0000007FFFFFF0001FFFFFF8000FFFFFFFF8000FF8000FFFFFFFF8
310
000FFF0003FFFFFFFFF000001FFFFFFFF000E00000FFFFFFFFFFC000FFC00200
310
0FFC000FFF80007FE00001FFFFFFFFFE00001FFFFFFFFFF8000001FFFE000000
310
7FFFFFF0001FFFFFFC000FFFFFFFF8001FFC000FFFFFFFF8001FFF0003FFFFFF
310
FFF00001FFFFFFFFF000E00007FFFFFFFFFF8000FFC000001FFC000FFF80007F
310
C0000FFFFFFFFFFE0000FFFFFFFFFFF8000001FFFE0000007FFFFFF0001FFFFF
310
FC0007FFFFFFF0001FFC0007FFFFFFF0001FFF0003FFFFFFFFF00007FFFFFFFF
310
F000E0001FFFFFFFFFFF8000FFC000001FFC000FFF80007FC0003FFFFFFFFFFE
310
0001FFFFFFFFFFF8000001FFFE0000007FFFFFF0001FFFFFFC0007FFFFFFF000
310
1FFC0007FFFFFFF0001FFF0003FFFFFFFFF0001FFFFFFFFFF000E0003FFFFF00
310
03FF8001FFE000001FFC0007FF80007FC0007FFFFF0007FC0003FFFFF0003FF8
310
000001FFFE0000007FFFFFF0001FFFFFFC0003FFFFFFE0001FFC0003FFFFFFE0
310
001FFF0003FFFFFFFFF0003FFFFFFFFFF000E0003FFFFF0001FF8001FFE00000
310
1FFE0007FF80007FC0007FFFFE0003FC0007FFFFE0003FF8000001FFFE000000
310
7FFFFFF0001FFFFFFE0003FFFFFFE0003FFE0003FFFFFFE0003FFF0003FFFFFF
310
FFF0003FFFFF8001F000E0003FFFFF0001FF0001FFE000001FFE0007FF80007F
310
C0007FFFFE0003FC0007FFFFE0003FF8000001FFFE0000007FFFFFF0001FFFFF
310
FE0001FFFFFFC0003FFE0001FFFFFFC0003FFF0003FFFFFFFFF0003FFFFF0001
310
F000E0003FFFFF0003FF0001FFE000003FFE0007FF80007FC0007FFFFE0003FC
310
0007FFFFE0003FF8000001FFFE0000007FFFFFF0001FFFFFFF0001FFFFFFC000
310
7FFF0001FFFFFFC0007FFF0003FFFFFFFFF0003FFFFF0001F000E0003FFFFE00
310
03FF0003FFF000003FFE0003FF80007FC0007FFFFC0003FE0007FFFFE0003FF8
310
000001FFFE0000007FFFFFF0001FFFFFFF0000FFFFFF80007FFF0000FFFFFF80
310
007FFF0003FFFFFFFFF0003FFFFF0001F000E0003FFFFE0003FF0003FFF00000
310
3FFF0003FF80007FC0007FFFFC0007FE0007FFFFC0003FF8000001FFFE000000
310
7FFFFFF0001FFFFFFF80007FFFFF0000FFFF80007FFFFF0000FFFF0003FFFFFF
310
FFF0003FFFFF0003F000E0003FFFFC0003FE0003FFF000003FFF0003FF80007F
310
E0003FFFF80007FE0003FFFFC0007FF8000001FFFE0000007FFFFFF0001FFFFF
310
FF80003FFFFE0000FFFF80003FFFFE0000FFFF0003FFFFFFFFF0001FFFFE0003
310
F000F0001FFFF80003FE0003FFF000007FFF0001FF80007FE0003FFFF00007FE
310
0001FFFF80007FF8000001FFFE0000007FFFFFF0001FFFFFFFC0000FFFF80001
310
FFFFC0000FFFF80001FFFF0003FFFFFFFFF0001FFFFC0003F000F0000FFFF000
310
07FE0007FFF800007FFF0001FF80007FE0001FFFE00007FF0000FFFE00007FF8
310
000001FFFE0000007FFFFFF0001FFFFFFFC00003FFE00001FFFFC00003FFE000
310
01FFFF0003FFFFFFFFF8000FFFF80003F000F00003FFC00007FC0007FFF80000
310
7FFF8001FF80007FF00007FF80000FFF00007FF80000FFF8000001FFFE000000
310
7F80000000000001FFE000003E000003FFFFE000003E000003FFFF0003FFFFFF
310
FFF80003FFE00007F000F800000000000FFC0007FFF800007FFF8001FF80007F
310
F000000000000FFF000000000000FFF8000001FFFE0000007F80000000000001
310
FFF0000000000007FFFFF0000000000007FFFF0003FFFFFFFFFC00007E000007
310
F000F800000000000FFC0007FFF80000FFFF8000FF80007FF800000000001FFF
310
800000000001FFF8000001FFFE0000007F80000000000001FFF800000000000F
310
FFFFF800000000000FFFFF0003FFFFFFFFFC00000000000FF000FC0000000000
310
1FFC0007FFFC0000FFFF8000FF80007FF800000000003FFFC00000000001FFF8
310
000001FFFE0000007F80000000000001FFF800000000000FFFFFF80000000000
310
0FFFFF0003FFFFFFFFFE00000000001FF000FE00000000003FF8000FFFFC0000
310
FFFF8000FF80007FFC00000000003FFFC00000000003FFF8000001FFFE000000
310
7F80000000000001FFFC00000000001FFFFFFC00000000001FFFFF0003FFFFFF
310
FFFF00000000001FF000FF00000000003FF8000FFFFC0000FFFFC000FF80007F
310
FE00000000007FFFE00000000007FFF8000001FFFE0000007F80000000000001
310
FFFE00000000003FFFFFFE00000000003FFFFF0003FFFFFFFFFF80000000003F
310
F000FF80000000007FF8000FFFFC0001FFFFC0007F80007FFF0000000000FFFF
310
F0000000000FFFF800000000000000007F80000000000001FFFF8000000000FF
310
FFFFFF8000000000FFFFFF0003FFFFFFFFFFC0000000007FF000FFC000000000
310
FFF8000FFFFE0001FFFFC0007F80007FFF8000000001FFFFF8000000001FFFF8
310
00000000000000007F80000000000001FFFFC000000001FFFFFFFFC000000001
310
FFFFFF0003FFFFFFFFFFE000000000FFF000FFE000000003FFF0001FFFFE0001
310
FFFFC0007F80007FFFC000000007FFFFFE000000003FFFF80000000000000000
310
7F80000000000001FFFFE000000003FFFFFFFFE000000003FFFFFF0003FFFFFF
310
FFFFF000000003FFF000FFF80000000FFFF0001FFFFE0001FFFFE0007F80007F
310
FFF00000000FFFFFFF00000000FFFFF800000000000000007F80000000000001
310
FFFFF80000000FFFFFFFFFF80000000FFFFFFF0003FFFFFFFFFFFC0000000FFF
310
F000FFFE0000003FFFF0001FFFFE0003FFFFE0003F80007FFFFC0000003FFFFF
310
FFC0000003FFFFF800000000000000007F80000000000001FFFFFE0000003FFF
310
FFFFFFFE0000003FFFFFFF0003FFFFFFFFFFFF0000003FFFF000FFFF800000FF
310
FFF0001FFFFF0003FFFFE0003F80007FFFFF000001FFFFFFFFF800001FFFFFF8
310
00000000000000007F80000000000001FFFFFFC00001FFFFFFFFFFFFC00001FF
310
FFFFFF0003FFFFFFFFFFFFC00000FFFFF000FFFFF8000FFFFFFFFFFFFFFFFFFF
310
FFFFFFFFFFFFFFFFFFFFF0001FFFFFFFFFFF0000FFFFFFF80000000000000000
310
7FFFFFFFFFFFFFFFFFFFFFFC001FFFFFFFFFFFFFFC001FFFFFFFFFFFFFFFFFFF
310
FFFFFFFC001FFFFFF000FFFFFFFFFFFFFFFFFFFFFFFFFFFFFFFFFFFFFFFFFFFF
310
FFFFFFFFFFFFFFFFFFFFFFFFFFFFFFFFFFFFFFFFFFFFFFFFFFFFFFFFFFFFFFFF
310
FFFFFFFFFFFFFFFFFFFFFFFFFFFFFFFFFFFFFFFFFFFFFFFFFFFFFFFFFFFFFFFF
310
F000FFFFFFFFFFFFFFFFFFFFFFFFFFFFFFFFFFFFFFFFFFFFFFFFFFFFFFFFFFFF
310
FFFFFFFFFFFFFFFFFFFFFFFFFFFFFFFFFFFFFFFFFFFFFFFFFFFFFFFFFFFFFFFF
310
FFFFFFFFFFFFFFFFFFFFFFFFFFFFFFFFFFFFFFFFFFFFFFFFF000FFFFFFFFFFFF
310
FFFFFFFFFFFFFFFFFFFFFFFFFFFFFFFFFFFFFFFFFFFFFFFFFFFFFFFFFFFFFFFF
310
FFFFFFFFFFFFFFFFFFFFFFFFFFFFFFFFFFFFFFFFFFFFFFFFFFFFFFFFFFFFFFFF
310
FFFFFFFFFFFFFFFFFFFFFFFFFFFFFFFFF000FFFFFFFFFFFFFFFFFFFFFFFFFFFF
310
FFFFFFFFFFFFFFFFFFFFFFFFFFFFFFFFFFFFFFFFFFFFFFFFFFFFFFFFFFFFFFFF
310
FFFFFFFFFFFFFFFFFFFFFFFFFFFFFFFFFFFFFFFFFFFFFFFFFFFFFFFFFFFFFFFF
310
FFFFFFFFFFFFFFFFF000FFFFFFFFFFFFFFFFFFFFFFFFFFFFFFFFFFFFFFFFFFFF
310
FFFFFFFFFFFFFFFFFFFFFFFFFFFFFFFFFFFFFFFFFFFFFFFFFFFFFFFFFFFFFFFF
310
FFFFFFFFFFFFFFFFFFFFFFFFFFFFFFFFFFFFFFFFFFFFFFFFFFFFFFFFFFFFFFFF
310
F000FFFFFFFFFFFFFFFFFFFFFFFFFFFFFFFFFFFFFFFFFFFFFFFFFFFFFFFFFFFF
310
FFFFFFFFFFFFFFFFFFFFFFFFFFFFFFFFFFFFFFFFFFFFFFFFFFFFFFFFFFFFFFFF
310
FFFFFFFFFFFFFFFFFFFFFFFFFFFFFFFFFFFFFFFFFFFFFFFFF000FFFFFFFFFFFF
310
FFFFFFFFFFFFFFFFFFFFFFFFFFFFFFFFFFFFFFFFFFFFFFFFFFFFFFFFFFFFFFFF
310
FFFFFFFFFFFFFFFFFFFFFFFFFFFFFFFFFFFFFFFFFFFFFFFFFFFFFFFFFFFFFFFF
310
FFFFFFFFFFFFFFFFFFFFFFFFFFFFFFFFF000FFFFFFFFFFFFFFFFFFFFFFFFFFFF
310
FFFFFFFFFFFFFFFFFFFFFFFFFFFFFFFFFFFFFFFFFFFFFFFFFFFFFFFFFFFFFFFF
310
FFFFFFFFFFFFFFFFFFFFFFFFFFFFFFFFFFFFFFFFFFFFFFFFFFFFFFFFFFFFFFFF
310
FFFFFFFFFFFFFFFFF000FFFFFFFFFFFFFFFFFFFFFFFFFFFFFFFFFFFFFFFFFFFF
310
FFFFFFFFFFFFFFFFFFFFFFFFFFFFFFFFFFFFFFFFFFFFFFFFFFFFFFFFFFFFFFFF
310
FFFFFFFFFFFFFFFFFFFFFFFFFFFFFFFFFFFFFFFFFFFFFFFFFFFFFFFFFFFFFFFF
310
F000FFFFFFFFFFFFFFFFFFFFFFFFFFFFFFFFFFFFFFFFFFFFFFFFFFFFFFFFFFFF
310
FFFFFFFFFFFFFFFFFFFFFFFFFFFFFFFFFFFFFFFFFFFFFFFFFFFFFFFFFFFFFFFF
310
FFFFFFFFFFFFFFFFFFFFFFFFFFFFFFFFFFFFFFFFFFFFFFFFF000FFFFFFFFFFFF
310
FFFFFFFFFFFFFFFFFFFFFFFFFFFFFFFFFFFFFFFFFFFFFFFFFFFFFFFFFFFFFFFF
310
FFFFFFFFFFFFFFFFFFFFFFFFFFFFFFFFFFFFFFFFFFFFFFFFFFFFFFFFFFFFFFFF
310
FFFFFFFFFFFFFFFFFFFFFFFFFFFFFFFFF000FFFFFFFFFFFFFFFFFFFFFFFFFFFF
310
FFFFFFFFFFFFFFFFFFFFFFFFFFFFFFFFFFFFFFFFFFFFFFFFFFFFFFFFFFFFFFFF
310
FFFFFFFFFFFFFFFFFFFFFFFFFFFFFFFFFFFFFFFFFFFFFFFFFFFFFFFFFFFFFFFF
310
FFFFFFFFFFFFFFFFF000FFFFFFFFFFFFFFFFFFFFFFFFFFFFFFFFFFFFFFFFFFFF
310
FFFFFFFFFFFFFFFFFFFFFFFFFFFFFFFFFFFFFFFFFFFFFFFFFFFFFFFFFFFFFFFF
310
FFFFFFFFFFFFFFFFFFFFFFFFFFFFFFFFFFFFFFFFFFFFFFFFFFFFFFFFFFFFFFFF
310
F000FFFFFFFFFFFFFFFFFFFFFFFFFFFFFFFFFFFFFFFFFFFFFFFFFFFFFFFFFFFF
310
FFFFFFFFFFFFFFFFFFFFFFFFFFFFFFFFFFFFFFFFFFFFFFFFFFFFFFFFFFFFFFFF
310
FFFFFFFFFFFFFFFFFFFFFFFFFFFFFFFFFFFFFFFFFFFFFFFFF000FFFFFFFFFFFF
310
FFFFFFFFFFFFFFFFFFFFFFFFFFFFFFFFFFFFFFFFFFFFFFFFFFFFFFFFFFFFFFFF
310
FFFFFFFFFFFFFFFFFFFFFFFFFFFFFFFFFFFFFFFFFFFFFFFFFFFFFFFFFFFFFFFF
310
FFFFFFFFFFFFFFFFFFFFFFFFFFFFFFFFF000FFFFFFFFFFFFFFFFFFFFFFFFFFFF
310
FFFFFFFFFFFFFFFFFFFFFFFFFFFFFFFFFFFFFFFFFFFFFFFFFFFFFFFFFFFFFFFF
310
FFFFFFFFFFFFFFFFFFFFFFFFFFFFFFFFFFFFFFFFFFFFFFFFFFFFFFFFFFFFFFFF
310
FFFFFFFFFFFFFFFFF000FFFFFFFFFFFFFFFFFFFFFFFFFFFFFFFFFFFFFFFFFFFF
310
FFFFFFFFFFFFFFFFFFFFFFFFFFFFFFFFFFFFFFFFFFFFFFFFFFFFFFFFFFFFFFFF
310
FFFFFFFFFFFFFFFFFFFFFFFFFFFFFFFFFFFFFFFFFFFFFFFFFFFFFFFFFFFFFFFF
310
F000FFFFFFFFFFFFFFFFFFFFFFFFFFFFFFFFFFFFFFFFFFFFFFFFFFFFFFFFFFFF
310
FFFFFFFFFFFFFFFFFFFFFFFFFFFFFFFFFFFFFFFFFFFFFFFFFFFFFFFFFFFFFFFF
310
FFFFFFFFFFFFFFFFFFFFFFFFFFFFFFFFFFFFFFFFFFFFFFFFF000FFFFFFFFFFFF
310
FFFFFFFFFFFFFFFFFFFFFFFFFFFFFFFFFFFFFFFFFFFFFFFFFFFFFFFFFFFFFFFF
310
FFFFFFFFFFFFFFFFFFFFFFFFFFFFFFFFFFFFFFFFFFFFFFFFFFFFFFFFFFFFFFFF
310
FFFFFFFFFFFFFFFFFFFFFFFFFFFFFFFFF000FFFFFFFFFFFFFFFFFFFFFFFFFFFF
310
FFFFFFFFFFFFFFFFFFFFFFFFFFFFFFFFFFFFFFFFFFFFFFFFFFFFFFFFFFFFFFFF
310
FFFFFFFFFFFFFFFFFFFFFFFFFFFFFFFFFFFFFFFFFFFFFFFFFFFFFFFFFFFFFFFF
310
FFFFFFFFFFFFFFFFF000FFFFFFFFFFFFFFFFFFFFFFFFFFFFFFFFFFFFFFFFFFFF
310
FFFFFFFFFFFFFFFFFFFFFFFFFFFFFFFFFFFFFFFFFFFFFFFFFFFFFFFFFFFFFFFF
310
FFFFFFFFFFFFFFFFFFFFFFFFFFFFFFFFFFFFFFFFFFFFFFFFFFFFFFFFFFFFFFFF
310
F000FFFFFFFFFFFFFFFFFFFFFFFFFFFFFFFFFFFFFFFFFFFFFFFFFFFFFFFFFFFF
310
FFFFFFFFFFFFFFFFFFFFFFFFFFFFFFFFFFFFFFFFFFFFFFFFFFFFFFFFFFFFFFFF
310
FFFFFFFFFFFFFFFFFFFFFFFFFFFFFFFFFFFFFFFFFFFFFFFFF000FFFFFFFFFFFF
310
FFFFFFFFFFFFFFFFFFFFFFFFFFFFFFFFFFFFFFFFFFFFFFFFFFFFFFFFFFFFFFFF
310
FFFFFFFFFFFFFFFFFFFFFFFFFFFFFFFFFFFFFFFFFFFFFFFFFFFFFFFFFFFFFFFF
310
FFFFFFFFFFFFFFFFFFFFFFFFFFFFFFFFF0000000000000000000000000000000
310
0000000000000000000000000000000000000000000000000000000000000000
310
0000000000000000000000000000000000000000000000000000000000000000
310
0000000000000000000000000000000000000000000000000000000000000000
310
0000000000000000000000000000000000000000000000000000000000000000
310
0000000000000000000000000000000000000000000000000000000000000000
310
0000000000000000000000000000000000000000000000000000000000000000
310
0000000000000000000000000000000000000000000000000000000000000000
310
0000000000000000000000000000000000000000000000000000000000000000
310
0000000000000000000000000000000000000000000000000000000000000000
310
0000000000000000000000000000000000000000000000000000000000000000
310
0000000000000000000000000000000000000000000000000000000000000000
310
0000000000000000000000000000000000000000000000000000000000000000
310
0000000000000000000000000000000000000000000000000000000000000000
310
0000000000000000000000000000000000000000000000000000000000000000
310
0000000000000000000000000000000000000000000000000000000000000000
  1
OLE
  0
ENDSEC
  0
SECTION
  2
OBJECTS
  0
DICTIONARY
  5
C
330
0
100
AcDbDictionary
281
     1
  3
ACAD_GROUP
350
D
  3
ACAD_LAYOUT
350
1A
  3
ACAD_MLINESTYLE
350
17
  3
ACAD_PLOTSETTINGS
350
19
  3
ACAD_PLOTSTYLENAME
350
E
  3
ACAD_SCALELIST
350
47
  0
DICTIONARY
  5
D
102
{ACAD_REACTORS
330
C
102
}
330
C
100
AcDbDictionary
281
     1
  0
DICTIONARY
  5
1A
102
{ACAD_REACTORS
330
C
102
}
330
C
100
AcDbDictionary
281
     1
  3
Layout1
350
1E
  3
Layout2
350
26
  3
Model
350
22
  0
DICTIONARY
  5
17
102
{ACAD_REACTORS
330
C
102
}
330
C
100
AcDbDictionary
281
     1
  3
Standard
350
18
  0
DICTIONARY
  5
19
102
{ACAD_REACTORS
330
C
102
}
330
C
100
AcDbDictionary
281
     1
  0
ACDBDICTIONARYWDFLT
  5
E
102
{ACAD_REACTORS
330
C
102
}
330
C
100
AcDbDictionary
281
     1
  3
Normal
350
F
100
AcDbDictionaryWithDefault
340
F
  0
DICTIONARY
  5
47
102
{ACAD_REACTORS
330
C
102
}
330
C
100
AcDbDictionary
281
     1
  3
A0
350
48
  3
A1
350
49
  3
A2
350
4A
  3
A3
350
4B
  3
A4
350
4C
  3
A5
350
4D
  3
A6
350
4E
  3
A7
350
4F
  3
A8
350
50
  3
A9
350
51
  3
B0
350
52
  3
B1
350
53
  3
B2
350
54
  3
B3
350
55
  3
B4
350
56
  3
B5
350
57
  3
B6
350
58
  3
B7
350
59
  3
B8
350
5A
  3
B9
350
5B
  3
C0
350
5C
  3
C1
350
5D
  3
C2
350
5E
  3
C3
350
5F
  3
C4
350
60
  3
C5
350
61
  3
C6
350
62
  3
C7
350
63
  3
C8
350
64
  3
C9
350
65
  3
D0
350
66
  3
D1
350
67
  3
D2
350
68
  0
LAYOUT
  5
1E
102
{ACAD_REACTORS
330
1A
102
}
330
1A
100
AcDbPlotSettings
  1

  2
none_device
  4

  6

 40
0.0
 41
0.0
 42
0.0
 43
0.0
 44
0.0
 45
0.0
 46
0.0
 47
0.0
 48
0.0
 49
0.0
140
0.0
141
0.0
142
1.0
143
1.0
 70
   688
 72
     1
 73
     0
 74
     5
  7

 75
    16
147
1.0
148
0.0
149
0.0
100
AcDbLayout
  1
Layout1
 70
     1
 71
     1
 10
0.0
 20
0.0
 11
420.0
 21
297.0
 12
0.0
 22
0.0
 32
0.0
 14
1.0000000000E+20
 24
1.0000000000E+20
 34
1.0000000000E+20
 15
-1.0000000000E+20
 25
-1.0000000000E+20
 35
-1.0000000000E+20
146
0.0
 13
0.0
 23
0.0
 33
0.0
 16
1.0
 26
0.0
 36
0.0
 17
0.0
 27
1.0
 37
0.0
 76
     0
330
1B
  0
LAYOUT
  5
26
102
{ACAD_REACTORS
330
1A
102
}
330
1A
100
AcDbPlotSettings
  1

  2
none_device
  4

  6

 40
0.0
 41
0.0
 42
0.0
 43
0.0
 44
0.0
 45
0.0
 46
0.0
 47
0.0
 48
0.0
 49
0.0
140
0.0
141
0.0
142
1.0
143
1.0
 70
   688
 72
     1
 73
     0
 74
     5
  7

 75
    16
147
1.0
148
0.0
149
0.0
100
AcDbLayout
  1
Layout2
 70
     1
 71
     2
 10
0.0
 20
0.0
 11
0.0
 21
0.0
 12
0.0
 22
0.0
 32
0.0
 14
0.0
 24
0.0
 34
0.0
 15
0.0
 25
0.0
 35
0.0
146
0.0
 13
0.0
 23
0.0
 33
0.0
 16
1.0
 26
0.0
 36
0.0
 17
0.0
 27
1.0
 37
0.0
 76
     0
330
23
  0
LAYOUT
  5
22
102
{ACAD_REACTORS
330
1A
102
}
330
1A
100
AcDbPlotSettings
  1

  2
none_device
  4
Letter_(8.50_x_11.00_Inches)
  6

 40
6.35
 41
6.35
 42
6.35000508
 43
6.35000508
 44
215.9
 45
279.4
 46
0.0
 47
0.0
 48
0.0
 49
0.0
140
0.0
141
0.0
142
1.0
143
1.0
 70
  1712
 72
     1
 73
     0
 74
     0
  7

 75
     0
147
1.0
148
0.0
149
0.0
100
AcDbLayout
  1
Model
 70
     1
 71
     0
 10
0.0
 20
0.0
 11
297.0
 21
210.0
 12
0.0
 22
0.0
 32
0.0
 14
0.0
 24
0.0
 34
0.0
 15
297.0
 25
210.0
 35
0.0
146
0.0
 13
0.0
 23
0.0
 33
0.0
 16
1.0
 26
0.0
 36
0.0
 17
0.0
 27
1.0
 37
0.0
 76
     0
330
1F
331
29
  0
MLINESTYLE
  5
18
102
{ACAD_REACTORS
330
17
102
}
330
17
100
AcDbMlineStyle
  2
Standard
 70
     0
  3

 62
   256
 51
90.0
 52
90.0
 71
     2
 49
0.5
 62
   256
  6
BYLAYER
 49
-0.5
 62
   256
  6
BYLAYER
  0
ACDBPLACEHOLDER
  5
F
102
{ACAD_REACTORS
330
E
102
}
330
E
  0
SCALE
  5
48
102
{ACAD_REACTORS
330
47
102
}
330
47
100
AcDbScale
 70
     0
300
1:1
140
1.0
141
1.0
290
     1
  0
SCALE
  5
49
102
{ACAD_REACTORS
330
47
102
}
330
47
100
AcDbScale
 70
     0
300
1:2
140
1.0
141
2.0
290
     0
  0
SCALE
  5
4A
102
{ACAD_REACTORS
330
47
102
}
330
47
100
AcDbScale
 70
     0
300
1:4
140
1.0
141
4.0
290
     0
  0
SCALE
  5
4B
102
{ACAD_REACTORS
330
47
102
}
330
47
100
AcDbScale
 70
     0
300
1:5
140
1.0
141
5.0
290
     0
  0
SCALE
  5
4C
102
{ACAD_REACTORS
330
47
102
}
330
47
100
AcDbScale
 70
     0
300
1:8
140
1.0
141
8.0
290
     0
  0
SCALE
  5
4D
102
{ACAD_REACTORS
330
47
102
}
330
47
100
AcDbScale
 70
     0
300
1:10
140
1.0
141
10.0
290
     0
  0
SCALE
  5
4E
102
{ACAD_REACTORS
330
47
102
}
330
47
100
AcDbScale
 70
     0
300
1:16
140
1.0
141
16.0
290
     0
  0
SCALE
  5
4F
102
{ACAD_REACTORS
330
47
102
}
330
47
100
AcDbScale
 70
     0
300
1:20
140
1.0
141
20.0
290
     0
  0
SCALE
  5
50
102
{ACAD_REACTORS
330
47
102
}
330
47
100
AcDbScale
 70
     0
300
1:30
140
1.0
141
30.0
290
     0
  0
SCALE
  5
51
102
{ACAD_REACTORS
330
47
102
}
330
47
100
AcDbScale
 70
     0
300
1:40
140
1.0
141
40.0
290
     0
  0
SCALE
  5
52
102
{ACAD_REACTORS
330
47
102
}
330
47
100
AcDbScale
 70
     0
300
1:50
140
1.0
141
50.0
290
     0
  0
SCALE
  5
53
102
{ACAD_REACTORS
330
47
102
}
330
47
100
AcDbScale
 70
     0
300
1:100
140
1.0
141
100.0
290
     0
  0
SCALE
  5
54
102
{ACAD_REACTORS
330
47
102
}
330
47
100
AcDbScale
 70
     0
300
2:1
140
2.0
141
1.0
290
     0
  0
SCALE
  5
55
102
{ACAD_REACTORS
330
47
102
}
330
47
100
AcDbScale
 70
     0
300
4:1
140
4.0
141
1.0
290
     0
  0
SCALE
  5
56
102
{ACAD_REACTORS
330
47
102
}
330
47
100
AcDbScale
 70
     0
300
8:1
140
8.0
141
1.0
290
     0
  0
SCALE
  5
57
102
{ACAD_REACTORS
330
47
102
}
330
47
100
AcDbScale
 70
     0
300
10:1
140
10.0
141
1.0
290
     0
  0
SCALE
  5
58
102
{ACAD_REACTORS
330
47
102
}
330
47
100
AcDbScale
 70
     0
300
100:1
140
100.0
141
1.0
290
     0
  0
SCALE
  5
59
102
{ACAD_REACTORS
330
47
102
}
330
47
100
AcDbScale
 70
     0
300
1/128" = 1'-0"
140
0.0078125
141
12.0
290
     0
  0
SCALE
  5
5A
102
{ACAD_REACTORS
330
47
102
}
330
47
100
AcDbScale
 70
     0
300
1/64" = 1'-0"
140
0.015625
141
12.0
290
     0
  0
SCALE
  5
5B
102
{ACAD_REACTORS
330
47
102
}
330
47
100
AcDbScale
 70
     0
300
1/32" = 1'-0"
140
0.03125
141
12.0
290
     0
  0
SCALE
  5
5C
102
{ACAD_REACTORS
330
47
102
}
330
47
100
AcDbScale
 70
     0
300
1/16" = 1'-0"
140
0.0625
141
12.0
290
     0
  0
SCALE
  5
5D
102
{ACAD_REACTORS
330
47
102
}
330
47
100
AcDbScale
 70
     0
300
3/32" = 1'-0"
140
0.09375
141
12.0
290
     0
  0
SCALE
  5
5E
102
{ACAD_REACTORS
330
47
102
}
330
47
100
AcDbScale
 70
     0
300
1/8" = 1'-0"
140
0.125
141
12.0
290
     0
  0
SCALE
  5
5F
102
{ACAD_REACTORS
330
47
102
}
330
47
100
AcDbScale
 70
     0
300
3/16" = 1'-0"
140
0.1875
141
12.0
290
     0
  0
SCALE
  5
60
102
{ACAD_REACTORS
330
47
102
}
330
47
100
AcDbScale
 70
     0
300
1/4" = 1'-0"
140
0.25
141
12.0
290
     0
  0
SCALE
  5
61
102
{ACAD_REACTORS
330
47
102
}
330
47
100
AcDbScale
 70
     0
300
3/8" = 1'-0"
140
0.375
141
12.0
290
     0
  0
SCALE
  5
62
102
{ACAD_REACTORS
330
47
102
}
330
47
100
AcDbScale
 70
     0
300
1/2" = 1'-0"
140
0.5
141
12.0
290
     0
  0
SCALE
  5
63
102
{ACAD_REACTORS
330
47
102
}
330
47
100
AcDbScale
 70
     0
300
3/4" = 1'-0"
140
0.75
141
12.0
290
     0
  0
SCALE
  5
64
102
{ACAD_REACTORS
330
47
102
}
330
47
100
AcDbScale
 70
     0
300
1" = 1'-0"
140
1.0
141
12.0
290
     0
  0
SCALE
  5
65
102
{ACAD_REACTORS
330
47
102
}
330
47
100
AcDbScale
 70
     0
300
1-1/2" = 1'-0"
140
1.5
141
12.0
290
     0
  0
SCALE
  5
66
102
{ACAD_REACTORS
330
47
102
}
330
47
100
AcDbScale
 70
     0
300
3" = 1'-0"
140
3.0
141
12.0
290
     0
  0
SCALE
  5
67
102
{ACAD_REACTORS
330
47
102
}
330
47
100
AcDbScale
 70
     0
300
6" = 1'-0"
140
6.0
141
12.0
290
     0
  0
SCALE
  5
68
102
{ACAD_REACTORS
330
47
102
}
330
47
100
AcDbScale
 70
     0
300
1'-0" = 1'-0"
140
12.0
141
12.0
290
     0
  0
ENDSEC
  0
EOF
