  0
SECTION
  2
HEADER
  9
$ACADVER
  1
AC1015
  9
$ACADMAINTVER
 70
     6
  9
$DWGCODEPAGE
  3
ANSI_1252
  9
$INSBASE
 10
0.0
 20
0.0
 30
0.0
  9
$EXTMIN
 10
0.0
 20
0.0
 30
0.0
  9
$EXTMAX
 10
297.0
 20
210.0
 30
0.0
  9
$LIMMIN
 10
0.0
 20
0.0
  9
$LIMMAX
 10
297.0
 20
210.0
  9
$ORTHOMODE
 70
     0
  9
$REGENMODE
 70
     1
  9
$FILLMODE
 70
     1
  9
$QTEXTMODE
 70
     0
  9
$MIRRTEXT
 70
     1
  9
$LTSCALE
 40
1.0
  9
$ATTMODE
 70
     1
  9
$TEXTSIZE
 40
2.0
  9
$TRACEWID
 40
1.0
  9
$TEXTSTYLE
  7
Standard
  9
$CLAYER
  8
0
  9
$CELTYPE
  6
ByLayer
  9
$CECOLOR
 62
   256
  9
$CELTSCALE
 40
1.0
  9
$DISPSILH
 70
     0
  9
$DIMSCALE
 40
1.0
  9
$DIMASZ
 40
3.0
  9
$DIMEXO
 40
0.0
  9
$DIMDLI
 40
3.75
  9
$DIMRND
 40
0.0
  9
$DIMDLE
 40
0.0
  9
$DIMEXE
 40
1.0
  9
$DIMTP
 40
0.0
  9
$DIMTM
 40
0.0
  9
$DIMTXT
 40
2.0
  9
$DIMCEN
 40
2.5
  9
$DIMTSZ
 40
0.0
  9
$DIMTOL
 70
     0
  9
$DIMLIM
 70
     0
  9
$DIMTIH
 70
     1
  9
$DIMTOH
 70
     1
  9
$DIMSE1
 70
     0
  9
$DIMSE2
 70
     0
  9
$DIMTAD
 70
     1
  9
$DIMZIN
 70
     0
  9
$DIMBLK
  1

  9
$DIMASO
 70
     1
  9
$DIMSHO
 70
     1
  9
$DIMPOST
  1

  9
$DIMAPOST
  1

  9
$DIMALT
 70
     0
  9
$DIMALTD
 70
     3
  9
$DIMALTF
 40
0.0393700787
  9
$DIMLFAC
 40
1.0
  9
$DIMTOFL
 70
     1
  9
$DIMTVP
 40
0.0
  9
$DIMTIX
 70
     0
  9
$DIMSOXD
 70
     0
  9
$DIMSAH
 70
     0
  9
$DIMBLK1
  1

  9
$DIMBLK2
  1

  9
$DIMSTYLE
  2
ISO-25
  9
$DIMCLRD
 70
     0
  9
$DIMCLRE
 70
     0
  9
$DIMCLRT
 70
     0
  9
$DIMTFAC
 40
1.0
  9
$DIMGAP
 40
1.524
  9
$DIMJUST
 70
     0
  9
$DIMSD1
 70
     0
  9
$DIMSD2
 70
     0
  9
$DIMTOLJ
 70
     0
  9
$DIMTZIN
 70
     0
  9
$DIMALTZ
 70
     0
  9
$DIMALTTZ
 70
     0
  9
$DIMUPT
 70
     0
  9
$DIMDEC
 70
     2
  9
$DIMTDEC
 70
     3
  9
$DIMALTU
 70
     2
  9
$DIMALTTD
 70
     3
  9
$DIMTXSTY
  7
Standard
  9
$DIMAUNIT
 70
     0
  9
$DIMADEC
 70
     2
  9
$DIMALTRND
 40
0.0
  9
$DIMAZIN
 70
     0
  9
$DIMDSEP
 70
    44
  9
$DIMATFIT
 70
     3
  9
$DIMFRAC
 70
     0
  9
$DIMLDRBLK
  1

  9
$DIMLUNIT
 70
     2
  9
$DIMLWD
 70
    -2
  9
$DIMLWE
 70
    -2
  9
$DIMTMOVE
 70
     0
  9
$LUNITS
 70
     2
  9
$LUPREC
 70
     2
  9
$SKETCHINC
 40
1.0
  9
$FILLETRAD
 40
10.0
  9
$AUNITS
 70
     0
  9
$AUPREC
 70
     2
  9
$MENU
  1
.
  9
$ELEVATION
 40
0.0
  9
$PELEVATION
 40
0.0
  9
$THICKNESS
 40
0.0
  9
$LIMCHECK
 70
     0
  9
$CHAMFERA
 40
0.0
  9
$CHAMFERB
 40
0.0
  9
$CHAMFERC
 40
0.0
  9
$CHAMFERD
 40
0.0
  9
$SKPOLY
 70
     0
  9
$TDCREATE
 40
2458061.343168484
  9
$TDUCREATE
 40
2458061.301501817
  9
$TDUPDATE
 40
2458061.343170035
  9
$TDUUPDATE
 40
2458061.301503368
  9
$TDINDWG
 40
0.0000000116
  9
$TDUSRTIMER
 40
0.0000000116
  9
$USRTIMER
 70
     1
  9
$ANGBASE
 50
0.0
  9
$ANGDIR
 70
     0
  9
$PDMODE
 70
     0
  9
$PDSIZE
 40
-1.0
  9
$PLINEWID
 40
0.0
  9
$SPLFRAME
 70
     0
  9
$SPLINETYPE
 70
     6
  9
$SPLINESEGS
 70
     8
  9
$HANDSEED
  5
2C2
  9
$SURFTAB1
 70
     6
  9
$SURFTAB2
 70
     6
  9
$SURFTYPE
 70
     6
  9
$SURFU
 70
     6
  9
$SURFV
 70
     6
  9
$UCSBASE
  2

  9
$UCSNAME
  2

  9
$UCSORG
 10
0.0
 20
0.0
 30
0.0
  9
$UCSXDIR
 10
1.0
 20
0.0
 30
0.0
  9
$UCSYDIR
 10
0.0
 20
1.0
 30
0.0
  9
$UCSORTHOREF
  2

  9
$UCSORTHOVIEW
 70
     0
  9
$UCSORGTOP
 10
0.0
 20
0.0
 30
0.0
  9
$UCSORGBOTTOM
 10
0.0
 20
0.0
 30
0.0
  9
$UCSORGLEFT
 10
0.0
 20
0.0
 30
0.0
  9
$UCSORGRIGHT
 10
0.0
 20
0.0
 30
0.0
  9
$UCSORGFRONT
 10
0.0
 20
0.0
 30
0.0
  9
$UCSORGBACK
 10
0.0
 20
0.0
 30
0.0
  9
$PUCSBASE
  2

  9
$PUCSNAME
  2

  9
$PUCSORG
 10
0.0
 20
0.0
 30
0.0
  9
$PUCSXDIR
 10
1.0
 20
0.0
 30
0.0
  9
$PUCSYDIR
 10
0.0
 20
1.0
 30
0.0
  9
$PUCSORTHOREF
  2

  9
$PUCSORTHOVIEW
 70
     0
  9
$PUCSORGTOP
 10
0.0
 20
0.0
 30
0.0
  9
$PUCSORGBOTTOM
 10
0.0
 20
0.0
 30
0.0
  9
$PUCSORGLEFT
 10
0.0
 20
0.0
 30
0.0
  9
$PUCSORGRIGHT
 10
0.0
 20
0.0
 30
0.0
  9
$PUCSORGFRONT
 10
0.0
 20
0.0
 30
0.0
  9
$PUCSORGBACK
 10
0.0
 20
0.0
 30
0.0
  9
$USERI1
 70
     0
  9
$USERI2
 70
     0
  9
$USERI3
 70
     0
  9
$USERI4
 70
     0
  9
$USERI5
 70
     0
  9
$USERR1
 40
0.0
  9
$USERR2
 40
0.0
  9
$USERR3
 40
0.0
  9
$USERR4
 40
0.0
  9
$USERR5
 40
0.0
  9
$WORLDVIEW
 70
     1
  9
$SHADEDGE
 70
     3
  9
$SHADEDIF
 70
    70
  9
$TILEMODE
 70
     1
  9
$MAXACTVP
 70
    64
  9
$PINSBASE
 10
0.0
 20
0.0
 30
0.0
  9
$PLIMCHECK
 70
     0
  9
$PEXTMIN
 10
1.0000000000E+20
 20
1.0000000000E+20
 30
1.0000000000E+20
  9
$PEXTMAX
 10
-1.0000000000E+20
 20
-1.0000000000E+20
 30
-1.0000000000E+20
  9
$PLIMMIN
 10
0.0
 20
0.0
  9
$PLIMMAX
 10
420.0
 20
297.0
  9
$UNITMODE
 70
     0
  9
$VISRETAIN
 70
     1
  9
$PLINEGEN
 70
     0
  9
$PSLTSCALE
 70
     1
  9
$TREEDEPTH
 70
  3020
  9
$CMLSTYLE
  2
Standard
  9
$CMLJUST
 70
     0
  9
$CMLSCALE
 40
20.0
  9
$PROXYGRAPHICS
 70
     1
  9
$MEASUREMENT
 70
     1
  9
$CELWEIGHT
370
    -1
  9
$ENDCAPS
280
     0
  9
$JOINSTYLE
280
     0
  9
$LWDISPLAY
290
     1
  9
$INSUNITS
 70
     4
  9
$HYPERLINKBASE
  1

  9
$STYLESHEET
  1

  9
$XEDIT
290
     1
  9
$CEPSNTYPE
380
     0
  9
$PSTYLEMODE
290
     1
  9
$FINGERPRINTGUID
  2
{41D2062C-754D-407E-9D82-6CEF3AEAACBC}
  9
$VERSIONGUID
  2
{FAEB1C32-E019-11D5-929B-00C0DF256EC4}
  9
$EXTNAMES
290
     1
  9
$PSVPSCALE
 40
0.0
  9
$OLESTARTUP
290
     0
  0
ENDSEC
  0
SECTION
  2
CLASSES
  0
CLASS
  1
ACDBDICTIONARYWDFLT
  2
AcDbDictionaryWithDefault
  3
ObjectDBX Classes
 90
        0
280
     0
281
     0
  0
CLASS
  1
VISUALSTYLE
  2
AcDbVisualStyle
  3
ObjectDBX Classes
 90
     4095
280
     0
281
     0
  0
CLASS
  1
MATERIAL
  2
AcDbMaterial
  3
ObjectDBX Classes
 90
     1153
280
     0
281
     0
  0
CLASS
  1
SCALE
  2
AcDbScale
  3
ObjectDBX Classes
 90
     1153
280
     0
281
     0
  0
CLASS
  1
TABLESTYLE
  2
AcDbTableStyle
  3
ObjectDBX Classes
 90
     4095
280
     0
281
     0
  0
CLASS
  1
MLEADERSTYLE
  2
AcDbMLeaderStyle
  3
ACDB_MLEADERSTYLE_CLASS
 90
     4095
280
     0
281
     0
  0
CLASS
  1
SUN
  2
AcDbSun
  3
SCENEOE
 90
     1153
280
     0
281
     0
  0
CLASS
  1
ACDBPLACEHOLDER
  2
AcDbPlaceHolder
  3
ObjectDBX Classes
 90
        0
280
     0
281
     0
  0
CLASS
  1
LAYOUT
  2
AcDbLayout
  3
ObjectDBX Classes
 90
        0
280
     0
281
     0
  0
ENDSEC
  0
SECTION
  2
TABLES
  0
TABLE
  2
VPORT
  5
8
330
0
100
AcDbSymbolTable
 70
     1
  0
VPORT
  5
29
330
8
100
AcDbSymbolTableRecord
100
AcDbViewportTableRecord
  2
*Active
 70
     0
 10
0.0
 20
0.0
 11
1.0
 21
1.0
 12
148.5
 22
105.0
 13
0.0
 23
0.0
 14
10.0
 24
10.0
 15
10.0
 25
10.0
 16
0.0
 26
0.0
 36
1.0
 17
0.0
 27
0.0
 37
0.0
 40
210.0
 41
1.4142857143
 42
50.0
 43
0.0
 44
0.0
 50
0.0
 51
0.0
 71
     0
 72
  2000
 73
     1
 74
     3
 75
     0
 76
     0
 77
     0
 78
     0
281
     0
 65
     1
110
0.0
120
0.0
130
0.0
111
1.0
121
0.0
131
0.0
112
0.0
122
1.0
132
0.0
 79
     0
146
0.0
  0
ENDTAB
  0
TABLE
  2
LTYPE
  5
5
330
0
100
AcDbSymbolTable
 70
     6
  0
LTYPE
  5
14
330
5
100
AcDbSymbolTableRecord
100
AcDbLinetypeTableRecord
  2
ByBlock
 70
     0
  3

 72
    65
 73
     0
 40
0.0
  0
LTYPE
  5
15
330
5
100
AcDbSymbolTableRecord
100
AcDbLinetypeTableRecord
  2
ByLayer
 70
     0
  3

 72
    65
 73
     0
 40
0.0
  0
LTYPE
  5
16
330
5
100
AcDbSymbolTableRecord
100
AcDbLinetypeTableRecord
  2
Continuous
 70
     0
  3
Solid line
 72
    65
 73
     0
 40
0.0
  0
LTYPE
  5
6E
330
5
100
AcDbSymbolTableRecord
100
AcDbLinetypeTableRecord
  2
HIDDEN
 70
     0
  3
Hidden __ __ __ __ __ __ __ __ __ __ __ __ __ __
 72
    65
 73
     2
 40
1.905
 49
1.27
 74
     0
 49
-0.635
 74
     0
  0
LTYPE
  5
6F
330
5
100
AcDbSymbolTableRecord
100
AcDbLinetypeTableRecord
  2
PHANTOM
 70
     0
  3
Phantom ______  __  __  ______  __  __  ______
 72
    65
 73
     6
 40
12.7
 49
6.35
 74
     0
 49
-1.27
 74
     0
 49
1.27
 74
     0
 49
-1.27
 74
     0
 49
1.27
 74
     0
 49
-1.27
 74
     0
  0
LTYPE
  5
70
330
5
100
AcDbSymbolTableRecord
100
AcDbLinetypeTableRecord
  2
CENTER
 70
     0
  3
Center ____ _ ____ _ ____ _ ____ _ ____ _ ____
 72
    65
 73
     4
 40
10.16
 49
6.35
 74
     0
 49
-1.27
 74
     0
 49
1.27
 74
     0
 49
-1.27
 74
     0
  0
LTYPE
  5
71
330
5
100
AcDbSymbolTableRecord
100
AcDbLinetypeTableRecord
  2
CENTERX2
 70
     0
  3
Center (2x) ________  __  ________  __  _____
 72
    65
 73
     4
 40
20.32
 49
12.7
 74
     0
 49
-2.54
 74
     0
 49
2.54
 74
     0
 49
-2.54
 74
     0
  0
LTYPE
  5
72
330
5
100
AcDbSymbolTableRecord
100
AcDbLinetypeTableRecord
  2
DOT2
 70
     0
  3
Dot (.5x) ........................................
 72
    65
 73
     2
 40
0.635
 49
0.0
 74
     0
 49
-0.635
 74
     0
  0
ENDTAB
  0
TABLE
  2
LAYER
  5
2
330
0
100
AcDbSymbolTable
 70
     5
  0
LAYER
  5
10
330
2
100
AcDbSymbolTableRecord
100
AcDbLayerTableRecord
  2
0
 70
     0
 62
     7
  6
Continuous
370
    -3
390
F
  0
LAYER
  5
73
330
2
100
AcDbSymbolTableRecord
100
AcDbLayerTableRecord
  2
FORMAT
 70
     0
 62
     7
  6
Continuous
370
    -3
390
F
  0
LAYER
  5
74
330
2
100
AcDbSymbolTableRecord
100
AcDbLayerTableRecord
  2
VERMASSUNG
 70
     0
 62
     7
  6
Continuous
370
    -3
390
F
  0
LAYER
  5
75
330
2
100
AcDbSymbolTableRecord
100
AcDbLayerTableRecord
  2
KOPF_DÜNN
 70
     0
 62
     7
  6
Continuous
370
    -3
390
F
  0
LAYER
  5
76
330
2
100
AcDbSymbolTableRecord
100
AcDbLayerTableRecord
  2
KOPF_DICK
 70
     0
 62
     7
  6
Continuous
370
    25
390
F
  0
ENDTAB
  0
TABLE
  2
STYLE
  5
3
330
0
100
AcDbSymbolTable
 70
     2
  0
STYLE
  5
11
330
3
100
AcDbSymbolTableRecord
100
AcDbTextStyleTableRecord
  2
Standard
 70
     0
 40
0.0
 41
1.0
 50
0.0
 71
     0
 42
2.0
  3
txt
  4

  0
STYLE
  5
77
330
3
100
AcDbSymbolTableRecord
100
AcDbTextStyleTableRecord
  2
SLDTEXTSTYLE0
 70
     0
 40
0.0
 41
0.7
 50
0.0
 71
     0
 42
2.0
  3
TXT
  4

  0
ENDTAB
  0
TABLE
  2
VIEW
  5
6
330
0
100
AcDbSymbolTable
 70
     0
  0
ENDTAB
  0
TABLE
  2
UCS
  5
7
330
0
100
AcDbSymbolTable
 70
     0
  0
ENDTAB
  0
TABLE
  2
APPID
  5
9
330
0
100
AcDbSymbolTable
 70
     1
  0
APPID
  5
12
330
9
100
AcDbSymbolTableRecord
100
AcDbRegAppTableRecord
  2
ACAD
 70
     0
  0
ENDTAB
  0
TABLE
  2
DIMSTYLE
  5
A
330
0
100
AcDbSymbolTable
 70
     2
100
AcDbDimStyleTable
  0
DIMSTYLE
105
27
330
A
100
AcDbSymbolTableRecord
100
AcDbDimStyleTableRecord
  2
ISO-25
 70
     0
 41
2.5
 42
0.625
 43
3.75
 44
1.25
 73
     0
 74
     0
 77
     1
 78
     8
140
2.5
141
2.5
143
0.0393700787
147
0.625
171
     3
172
     1
178
     0
271
     2
272
     2
274
     3
278
    44
283
     0
284
     8
340
11
  0
DIMSTYLE
105
1C7
102
{ACAD_REACTORS
330
1C6
330
1D3
330
1DE
330
1EA
330
1F4
330
200
102
}
330
A
100
AcDbSymbolTableRecord
100
AcDbDimStyleTableRecord
  2
SLDDIMSTYLE0
 70
     0
 41
3.0
 44
0.0
 45
0.000000001
 73
     0
 74
     0
 77
     1
 78
    12
 79
     3
140
2.0
147
0.5
173
     1
178
     0
271
     2
272
     3
276
     2
284
    12
340
77
  0
ENDTAB
  0
TABLE
  2
BLOCK_RECORD
  5
1
330
0
100
AcDbSymbolTable
 70
     7
  0
BLOCK_RECORD
  5
1F
330
1
100
AcDbSymbolTableRecord
100
AcDbBlockTableRecord
  2
*Model_Space
340
22
  0
BLOCK_RECORD
  5
1B
330
1
100
AcDbSymbolTableRecord
100
AcDbBlockTableRecord
  2
*Paper_Space
340
1E
  0
BLOCK_RECORD
  5
23
330
1
100
AcDbSymbolTableRecord
100
AcDbBlockTableRecord
  2
*Paper_Space0
340
26
  0
BLOCK_RECORD
  5
1C8
330
1
100
AcDbSymbolTableRecord
100
AcDbBlockTableRecord
  2
_D
340
0
  0
BLOCK_RECORD
  5
1D4
330
1
100
AcDbSymbolTableRecord
100
AcDbBlockTableRecord
  2
_D_1
340
0
  0
BLOCK_RECORD
  5
1DF
330
1
100
AcDbSymbolTableRecord
100
AcDbBlockTableRecord
  2
_D_2
340
0
  0
BLOCK_RECORD
  5
1EB
330
1
100
AcDbSymbolTableRecord
100
AcDbBlockTableRecord
  2
_D_3
340
0
  0
BLOCK_RECORD
  5
1F5
330
1
100
AcDbSymbolTableRecord
100
AcDbBlockTableRecord
  2
_D_4
340
0
  0
BLOCK_RECORD
  5
201
330
1
100
AcDbSymbolTableRecord
100
AcDbBlockTableRecord
  2
_D_5
340
0
  0
ENDTAB
  0
ENDSEC
  0
SECTION
  2
BLOCKS
  0
BLOCK
  5
20
330
1F
100
AcDbEntity
  8
0
100
AcDbBlockBegin
  2
*Model_Space
 70
     0
 10
0.0
 20
0.0
 30
0.0
  3
*Model_Space
  1

  0
ENDBLK
  5
21
330
1F
100
AcDbEntity
  8
0
100
AcDbBlockEnd
  0
BLOCK
  5
1C
330
1B
100
AcDbEntity
 67
     1
  8
0
100
AcDbBlockBegin
  2
*Paper_Space
 70
     0
 10
0.0
 20
0.0
 30
0.0
  3
*Paper_Space
  1

  0
ENDBLK
  5
1D
330
1B
100
AcDbEntity
 67
     1
  8
0
100
AcDbBlockEnd
  0
BLOCK
  5
24
330
23
100
AcDbEntity
  8
0
100
AcDbBlockBegin
  2
*Paper_Space0
 70
     0
 10
0.0
 20
0.0
 30
0.0
  3
*Paper_Space0
  1

  0
ENDBLK
  5
25
330
23
100
AcDbEntity
  8
0
100
AcDbBlockEnd
  0
BLOCK
  5
1C9
330
1C8
100
AcDbEntity
  8
0
100
AcDbBlockBegin
  2
_D
 70
     0
 10
0.0
 20
0.0
 30
0.0
  3
_D
  1

  0
SOLID
  5
1CB
330
1C8
100
AcDbEntity
  8
VERMASSUNG
100
AcDbTrace
 10
60.4416344969
 20
60.924440673
 30
0.0
 11
60.8916344969
 21
63.924440673
 31
0.0
 12
59.9916344969
 22
63.924440673
 32
0.0
 13
59.9916344969
 23
63.924440673
 33
0.0
  0
SOLID
  5
1CC
330
1C8
100
AcDbEntity
  8
VERMASSUNG
100
AcDbTrace
 10
60.4416344969
 20
158.374440673
 30
0.0
 11
59.9916344969
 21
155.374440673
 31
0.0
 12
60.8916344969
 22
155.374440673
 32
0.0
 13
60.8916344969
 23
155.374440673
 33
0.0
  0
LINE
  5
1CD
330
1C8
100
AcDbEntity
  8
VERMASSUNG
100
AcDbLine
 10
189.0382093802
 20
60.924440673
 30
0.0
 11
59.4416344969
 21
60.924440673
 31
0.0
  0
LINE
  5
1CE
330
1C8
100
AcDbEntity
  8
VERMASSUNG
100
AcDbLine
 10
189.0382093802
 20
158.374440673
 30
0.0
 11
59.4416344969
 21
158.374440673
 31
0.0
  0
LINE
  5
1CF
330
1C8
100
AcDbEntity
  8
VERMASSUNG
100
AcDbLine
 10
60.4416344969
 20
60.924440673
 30
0.0
 11
60.4416344969
 21
158.374440673
 31
0.0
  0
MTEXT
  5
1D0
330
1C8
100
AcDbEntity
  8
VERMASSUNG
100
AcDbMText
 10
57.6634992407
 20
100.1452101607
 30
0.0
 40
2.0
 41
0.0
 71
     1
 72
     1
  1
ISO 50
  7
SLDTEXTSTYLE0
 11
3.391901413832837E-15
 21
1.0
 31
0.0
 73
     1
 44
1.0
  0
MTEXT
  5
1D1
330
1C8
100
AcDbEntity
  8
VERMASSUNG
100
AcDbMText
 10
57.863499192
 20
109.1452097733
 30
0.0
 40
2.0
 41
0.0
 71
     1
 72
     1
  1
%%c
  7
SLDTEXTSTYLE0
 11
3.391901413832837E-15
 21
1.0
 31
0.0
 73
     1
 44
1.0
  0
MTEXT
  5
1D2
330
1C8
100
AcDbEntity
  8
VERMASSUNG
100
AcDbMText
 10
57.863498901
 20
112.7539094926
 30
0.0
 40
2.0
 41
0.0
 71
     1
 72
     1
  1
97.45
  7
SLDTEXTSTYLE0
 11
3.391901413832837E-15
 21
1.0
 31
0.0
 73
     1
 44
1.0
  0
ENDBLK
  5
1CA
330
1C8
100
AcDbEntity
  8
0
100
AcDbBlockEnd
  0
BLOCK
  5
1D5
330
1D4
100
AcDbEntity
  8
0
100
AcDbBlockBegin
  2
_D_1
 70
     0
 10
0.0
 20
0.0
 30
0.0
  3
_D_1
  1

  0
SOLID
  5
1D7
330
1D4
100
AcDbEntity
  8
VERMASSUNG
100
AcDbTrace
 10
231.0823937326
 20
123.649440673
 30
0.0
 11
230.6323937326
 21
120.649440673
 31
0.0
 12
231.5323937326
 22
120.649440673
 32
0.0
 13
231.5323937326
 23
120.649440673
 33
0.0
  0
SOLID
  5
1D8
330
1D4
100
AcDbEntity
  8
VERMASSUNG
100
AcDbTrace
 10
231.0823937326
 20
95.649440673
 30
0.0
 11
231.5323937326
 21
98.649440673
 31
0.0
 12
230.6323937326
 22
98.649440673
 32
0.0
 13
230.6323937326
 23
98.649440673
 33
0.0
  0
LINE
  5
1D9
330
1D4
100
AcDbEntity
  8
VERMASSUNG
100
AcDbLine
 10
209.9882093802
 20
123.649440673
 30
0.0
 11
232.0823937326
 21
123.649440673
 31
0.0
  0
LINE
  5
1DA
330
1D4
100
AcDbEntity
  8
VERMASSUNG
100
AcDbLine
 10
209.9882093802
 20
95.649440673
 30
0.0
 11
232.0823937326
 21
95.649440673
 31
0.0
  0
LINE
  5
1DB
330
1D4
100
AcDbEntity
  8
VERMASSUNG
100
AcDbLine
 10
231.0823937326
 20
123.649440673
 30
0.0
 11
231.0823937326
 21
95.649440673
 31
0.0
  0
MTEXT
  5
1DC
330
1D4
100
AcDbEntity
  8
VERMASSUNG
100
AcDbMText
 10
228.5042581949
 20
106.4459818757
 30
0.0
 40
2.0
 41
0.0
 71
     1
 72
     1
  1
%%c
  7
SLDTEXTSTYLE0
 11
-7.044195017643634E-15
 21
1.0
 31
0.0
 73
     1
 44
1.0
  0
MTEXT
  5
1DD
330
1D4
100
AcDbEntity
  8
VERMASSUNG
100
AcDbMText
 10
228.5042581367
 20
110.0549417866
 30
0.0
 40
2.0
 41
0.0
 71
     1
 72
     1
  1
28
  7
SLDTEXTSTYLE0
 11
-7.044195017643634E-15
 21
1.0
 31
0.0
 73
     1
 44
1.0
  0
ENDBLK
  5
1D6
330
1D4
100
AcDbEntity
  8
0
100
AcDbBlockEnd
  0
BLOCK
  5
1E0
330
1DF
100
AcDbEntity
  8
0
100
AcDbBlockBegin
  2
_D_2
 70
     0
 10
0.0
 20
0.0
 30
0.0
  3
_D_2
  1

  0
ARC
  5
1E2
330
1DF
100
AcDbEntity
  8
VERMASSUNG
100
AcDbCircle
 10
205.7257951263
 20
165.110741252
 30
0.0
 40
4.248287622067178
100
AcDbArc
 50
153.4349488229
 51
206.5650511771
  0
ARC
  5
1E3
330
1DF
100
AcDbEntity
  8
VERMASSUNG
100
AcDbCircle
 10
207.5006236341
 20
165.110741252
 30
0.0
 40
4.248287622067178
100
AcDbArc
 50
333.4349488229
 51
26.5650511771
  0
SOLID
  5
1E4
330
1DF
100
AcDbEntity
  8
VERMASSUNG
100
AcDbTrace
 10
189.6382093802
 20
163.2108492698
 30
0.0
 11
192.6382093802
 21
162.7608492698
 31
0.0
 12
192.6382093802
 22
163.6608492698
 32
0.0
 13
192.6382093802
 23
163.6608492698
 33
0.0
  0
SOLID
  5
1E5
330
1DF
100
AcDbEntity
  8
VERMASSUNG
100
AcDbTrace
 10
223.5882093802
 20
163.2108492698
 30
0.0
 11
220.5882093802
 21
163.6608492698
 31
0.0
 12
220.5882093802
 22
162.7608492698
 32
0.0
 13
220.5882093802
 23
162.7608492698
 33
0.0
  0
LINE
  5
1E6
330
1DF
100
AcDbEntity
  8
VERMASSUNG
100
AcDbLine
 10
189.6382093802
 20
155.9444276262
 30
0.0
 11
189.6382093802
 21
164.2108492698
 31
0.0
  0
LINE
  5
1E7
330
1DF
100
AcDbEntity
  8
VERMASSUNG
100
AcDbLine
 10
223.5882093802
 20
134.149440673
 30
0.0
 11
223.5882093802
 21
164.2108492698
 31
0.0
  0
LINE
  5
1E8
330
1DF
100
AcDbEntity
  8
VERMASSUNG
100
AcDbLine
 10
189.6382093802
 20
163.2108492698
 30
0.0
 11
223.5882093802
 21
163.2108492698
 31
0.0
  0
MTEXT
  5
1E9
330
1DF
100
AcDbEntity
  8
VERMASSUNG
100
AcDbMText
 10
203.5135111619
 20
165.7889848657
 30
0.0
 40
2.0
 41
0.0
 71
     1
 72
     1
  1
33.95
  7
SLDTEXTSTYLE0
 73
     1
 44
1.0
  0
ENDBLK
  5
1E1
330
1DF
100
AcDbEntity
  8
0
100
AcDbBlockEnd
  0
BLOCK
  5
1EC
330
1EB
100
AcDbEntity
  8
0
100
AcDbBlockBegin
  2
_D_3
 70
     0
 10
0.0
 20
0.0
 30
0.0
  3
_D_3
  1

  0
SOLID
  5
1EE
330
1EB
100
AcDbEntity
  8
VERMASSUNG
100
AcDbTrace
 10
170.5882093802
 20
169.2108492698
 30
0.0
 11
173.5882093802
 21
168.7608492698
 31
0.0
 12
173.5882093802
 22
169.6608492698
 32
0.0
 13
173.5882093802
 23
169.6608492698
 33
0.0
  0
SOLID
  5
1EF
330
1EB
100
AcDbEntity
  8
VERMASSUNG
100
AcDbTrace
 10
223.5882093802
 20
169.2108492698
 30
0.0
 11
220.5882093802
 21
169.6608492698
 31
0.0
 12
220.5882093802
 22
168.7608492698
 32
0.0
 13
220.5882093802
 23
168.7608492698
 33
0.0
  0
LINE
  5
1F0
330
1EB
100
AcDbEntity
  8
VERMASSUNG
100
AcDbLine
 10
170.5882093802
 20
144.574440673
 30
0.0
 11
170.5882093802
 21
170.2108492698
 31
0.0
  0
LINE
  5
1F1
330
1EB
100
AcDbEntity
  8
VERMASSUNG
100
AcDbLine
 10
223.5882093802
 20
134.149440673
 30
0.0
 11
223.5882093802
 21
170.2108492698
 31
0.0
  0
LINE
  5
1F2
330
1EB
100
AcDbEntity
  8
VERMASSUNG
100
AcDbLine
 10
170.5882093802
 20
169.2108492698
 30
0.0
 11
223.5882093802
 21
169.2108492698
 31
0.0
  0
MTEXT
  5
1F3
330
1EB
100
AcDbEntity
  8
VERMASSUNG
100
AcDbMText
 10
195.6892305383
 20
171.7889848657
 30
0.0
 40
2.0
 41
0.0
 71
     1
 72
     1
  1
53
  7
SLDTEXTSTYLE0
 73
     1
 44
1.0
  0
ENDBLK
  5
1ED
330
1EB
100
AcDbEntity
  8
0
100
AcDbBlockEnd
  0
BLOCK
  5
1F6
330
1F5
100
AcDbEntity
  8
0
100
AcDbBlockBegin
  2
_D_4
 70
     0
 10
0.0
 20
0.0
 30
0.0
  3
_D_4
  1

  0
ARC
  5
1F8
330
1F5
100
AcDbEntity
  8
VERMASSUNG
100
AcDbCircle
 10
145.5009777543
 20
177.110741252
 30
0.0
 40
4.248287622067165
100
AcDbArc
 50
153.4349488229
 51
206.5650511771
  0
ARC
  5
1F9
330
1F5
100
AcDbEntity
  8
VERMASSUNG
100
AcDbCircle
 10
147.075441006
 20
177.110741252
 30
0.0
 40
4.248287622067165
100
AcDbArc
 50
333.4349488229
 51
26.5650511771
  0
SOLID
  5
1FA
330
1F5
100
AcDbEntity
  8
VERMASSUNG
100
AcDbTrace
 10
68.9882093802
 20
175.2108492698
 30
0.0
 11
71.9882093802
 21
174.7608492698
 31
0.0
 12
71.9882093802
 22
175.6608492698
 32
0.0
 13
71.9882093802
 23
175.6608492698
 33
0.0
  0
SOLID
  5
1FB
330
1F5
100
AcDbEntity
  8
VERMASSUNG
100
AcDbTrace
 10
223.5882093802
 20
175.2108492698
 30
0.0
 11
220.5882093802
 21
175.6608492698
 31
0.0
 12
220.5882093802
 22
174.7608492698
 32
0.0
 13
220.5882093802
 23
174.7608492698
 33
0.0
  0
LINE
  5
1FC
330
1F5
100
AcDbEntity
  8
VERMASSUNG
100
AcDbLine
 10
68.9882093802
 20
128.0282852004
 30
0.0
 11
68.9882093802
 21
176.2108492698
 31
0.0
  0
LINE
  5
1FD
330
1F5
100
AcDbEntity
  8
VERMASSUNG
100
AcDbLine
 10
223.5882093802
 20
134.149440673
 30
0.0
 11
223.5882093802
 21
176.2108492698
 31
0.0
  0
LINE
  5
1FE
330
1F5
100
AcDbEntity
  8
VERMASSUNG
100
AcDbLine
 10
68.9882093802
 20
175.2108492698
 30
0.0
 11
223.5882093802
 21
175.2108492698
 31
0.0
  0
MTEXT
  5
1FF
330
1F5
100
AcDbEntity
  8
VERMASSUNG
100
AcDbMText
 10
143.28869379
 20
177.7889848657
 30
0.0
 40
2.0
 41
0.0
 71
     1
 72
     1
  1
154.6
  7
SLDTEXTSTYLE0
 73
     1
 44
1.0
  0
ENDBLK
  5
1F7
330
1F5
100
AcDbEntity
  8
0
100
AcDbBlockEnd
  0
BLOCK
  5
202
330
201
100
AcDbEntity
  8
0
100
AcDbBlockBegin
  2
_D_5
 70
     0
 10
0.0
 20
0.0
 30
0.0
  3
_D_5
  1

  0
SOLID
  5
204
330
201
100
AcDbEntity
  8
VERMASSUNG
100
AcDbTrace
 10
237.0823937326
 20
134.649440673
 30
0.0
 11
236.6323937326
 21
131.649440673
 31
0.0
 12
237.5323937326
 22
131.649440673
 32
0.0
 13
237.5323937326
 23
131.649440673
 33
0.0
  0
SOLID
  5
205
330
201
100
AcDbEntity
  8
VERMASSUNG
100
AcDbTrace
 10
237.0823937326
 20
84.649440673
 30
0.0
 11
237.5323937326
 21
87.649440673
 31
0.0
 12
236.6323937326
 22
87.649440673
 32
0.0
 13
236.6323937326
 23
87.649440673
 33
0.0
  0
LINE
  5
206
330
201
100
AcDbEntity
  8
VERMASSUNG
100
AcDbLine
 10
223.0882093802
 20
134.649440673
 30
0.0
 11
238.0823937326
 21
134.649440673
 31
0.0
  0
LINE
  5
207
330
201
100
AcDbEntity
  8
VERMASSUNG
100
AcDbLine
 10
223.0882093802
 20
84.649440673
 30
0.0
 11
238.0823937326
 21
84.649440673
 31
0.0
  0
LINE
  5
208
330
201
100
AcDbEntity
  8
VERMASSUNG
100
AcDbLine
 10
237.0823937326
 20
134.649440673
 30
0.0
 11
237.0823937326
 21
84.649440673
 31
0.0
  0
MTEXT
  5
209
330
201
100
AcDbEntity
  8
VERMASSUNG
100
AcDbMText
 10
234.3042584764
 20
103.5444414511
 30
0.0
 40
2.0
 41
0.0
 71
     1
 72
     1
  1
ST5
  7
SLDTEXTSTYLE0
 11
-7.044195017643634E-15
 21
1.0
 31
0.0
 73
     1
 44
1.0
  0
MTEXT
  5
20A
330
201
100
AcDbEntity
  8
VERMASSUNG
100
AcDbMText
 10
234.5042584277
 20
109.3444413774
 30
0.0
 40
2.0
 41
0.0
 71
     1
 72
     1
  1
%%c
  7
SLDTEXTSTYLE0
 11
-7.044195017643634E-15
 21
1.0
 31
0.0
 73
     1
 44
1.0
  0
MTEXT
  5
20B
330
201
100
AcDbEntity
  8
VERMASSUNG
100
AcDbMText
 10
234.3042584764
 20
112.954440926
 30
0.0
 40
2.0
 41
0.0
 71
     1
 72
     1
  1
50
  7
SLDTEXTSTYLE0
 11
-7.044195017643634E-15
 21
1.0
 31
0.0
 73
     1
 44
1.0
  0
ENDBLK
  5
203
330
201
100
AcDbEntity
  8
0
100
AcDbBlockEnd
  0
ENDSEC
  0
SECTION
  2
ENTITIES
  0
MTEXT
  5
78
330
1F
100
AcDbEntity
  8
KOPF_DÜNN
100
AcDbMText
 10
13.8892156294
 20
23.8442973028
 30
0.0
 40
3.0
 41
0.0
 71
     1
 72
     1
  1
124.450.050.053
  7
SLDTEXTSTYLE0
 73
     1
 44
1.0
  0
MTEXT
  5
79
330
1F
100
AcDbEntity
  8
VERMASSUNG
100
AcDbMText
 10
13.9329988022
 20
28.8834360957
 30
0.0
 40
3.0
 41
0.0
 71
     1
 72
     1
  1
Aufnahme_Master shank ST5
  7
SLDTEXTSTYLE0
 73
     1
 44
1.0
  0
MTEXT
  5
7A
330
1F
100
AcDbEntity
  8
VERMASSUNG
100
AcDbMText
 10
98.8601118557
 20
13.8365368761
 30
0.0
 40
2.0
 41
0.0
 71
     1
 72
     1
  1
Datum: 14.05.2008
  7
SLDTEXTSTYLE0
 73
     1
 44
1.0
  0
MTEXT
  5
7B
330
1F
100
AcDbEntity
  8
VERMASSUNG
100
AcDbMText
 10
13.933048693
 20
18.0482802738
 30
0.0
 40
2.0
 41
0.0
 71
     1
 72
     1
  1
DIN 69871 B ISO 50
  7
SLDTEXTSTYLE0
 73
     1
 44
1.0
  0
MTEXT
  5
7C
330
1F
100
AcDbEntity
  8
VERMASSUNG
100
AcDbMText
 10
13.9808475933
 20
13.9090974274
 30
0.0
 40
2.0
 41
0.0
 71
     1
 72
     1
  1
Gewicht: 2990g
  7
SLDTEXTSTYLE0
 73
     1
 44
1.0
  0
ARC
  5
7D
330
1F
100
AcDbEntity
  8
0
  6
Continuous
 62
     7
370
    25
100
AcDbCircle
 10
184.7882093802
 20
95.183698711
 30
0.0
 40
2.000000000000006
100
AcDbArc
 50
192.2156859341
 51
340.4919350399
  0
ARC
  5
7E
330
1F
100
AcDbEntity
  8
0
  6
Continuous
 62
     7
370
    25
100
AcDbCircle
 10
173.1882093802
 20
74.124440673
 30
0.0
 40
0.6000000000000227
100
AcDbArc
 50
0.0
 51
90.0
  0
ARC
  5
7F
330
1F
100
AcDbEntity
  8
0
  6
Continuous
 62
     7
370
    25
100
AcDbCircle
 10
173.1882093802
 20
145.174440673
 30
0.0
 40
0.6000000000000227
100
AcDbArc
 50
270.0
 51
0.0
  0
LINE
  5
80
330
1F
100
AcDbEntity
  8
0
  6
Continuous
 62
     7
370
    25
100
AcDbLine
 10
170.5882093802
 20
144.5744395524
 30
0.0
 11
70.69959407
 21
130.0073512167
 31
0.0
  0
LINE
  5
81
330
1F
100
AcDbEntity
  8
0
  6
Continuous
 62
     7
370
    25
100
AcDbLine
 10
70.69959407
 20
89.2915301293
 30
0.0
 11
170.5882093802
 21
74.7244417936
 31
0.0
  0
LINE
  5
82
330
1F
100
AcDbEntity
  8
0
  6
Continuous
 62
     7
370
    25
100
AcDbLine
 10
170.5882093802
 20
74.7244417936
 30
0.0
 11
173.1882093872
 21
74.7244417936
 31
0.0
  0
LINE
  5
83
330
1F
100
AcDbEntity
  8
0
  6
Continuous
 62
     7
370
    25
100
AcDbLine
 10
173.1882093872
 20
144.5744395524
 30
0.0
 11
170.5882093802
 21
144.5744395524
 31
0.0
  0
ARC
  5
84
330
1F
100
AcDbEntity
  8
0
  6
Continuous
 62
     7
370
    25
100
AcDbCircle
 10
193.6382093802
 20
80.649440673
 30
0.0
 40
4.0
100
AcDbArc
 50
90.0
 51
180.0
  0
ARC
  5
85
330
1F
100
AcDbEntity
  8
0
  6
Continuous
 62
     7
370
    25
100
AcDbCircle
 10
193.6382093802
 20
138.649440673
 30
0.0
 40
4.0
100
AcDbArc
 50
180.0
 51
270.0
  0
LINE
  5
86
330
1F
100
AcDbEntity
  8
0
  6
Continuous
 62
     7
370
    25
100
AcDbLine
 10
223.088207741
 20
134.6494410455
 30
0.0
 11
193.6382102712
 21
134.6494410455
 31
0.0
  0
LINE
  5
87
330
1F
100
AcDbEntity
  8
0
  6
Continuous
 62
     7
370
    25
100
AcDbLine
 10
193.6382102712
 20
84.6494403005
 30
0.0
 11
223.088207741
 21
84.6494403005
 31
0.0
  0
LINE
  5
88
330
1F
100
AcDbEntity
  8
0
  6
Continuous
 62
     7
370
    25
100
AcDbLine
 10
223.088207741
 20
84.6494403005
 30
0.0
 11
223.5882087543
 21
85.1494413137
 31
0.0
  0
LINE
  5
89
330
1F
100
AcDbEntity
  8
0
  6
Continuous
 62
     7
370
    25
100
AcDbLine
 10
223.5882087543
 20
134.1494400322
 30
0.0
 11
223.088207741
 21
134.6494410455
 31
0.0
  0
ARC
  5
8A
330
1F
100
AcDbEntity
  8
0
  6
Continuous
 62
     7
370
    25
100
AcDbCircle
 10
70.9882093802
 20
91.2705961456
 30
0.0
 40
2.0
100
AcDbArc
 50
180.0
 51
261.7028550302
  0
ARC
  5
8B
330
1F
100
AcDbEntity
  8
0
  6
Continuous
 62
     7
370
    25
100
AcDbCircle
 10
70.9882093802
 20
128.0282852004
 30
0.0
 40
2.000000000000022
100
AcDbArc
 50
98.2971449698
 51
180.0
  0
ARC
  5
8C
330
1F
100
AcDbEntity
  8
0
  6
Continuous
 62
     7
370
    25
100
AcDbCircle
 10
184.7801864908
 20
94.5451874108
 30
0.0
 40
2.509635667236221
100
AcDbArc
 50
190.1105546363
 51
301.9078498704
  0
ARC
  5
8D
330
1F
100
AcDbEntity
  8
0
  6
Continuous
 62
     7
370
    25
100
AcDbCircle
 10
184.9330851196
 20
94.4704759348
 30
0.0
 40
2.367121105897983
100
AcDbArc
 50
299.7214667088
 51
339.9135668477
  0
ARC
  5
8E
330
1F
100
AcDbEntity
  8
0
  6
Continuous
 62
     7
370
    25
100
AcDbCircle
 10
184.7617542392
 20
94.3959912664
 30
0.0
 40
2.300397377743136
100
AcDbArc
 50
158.0082560612
 51
303.541919289
  0
ARC
  5
8F
330
1F
100
AcDbEntity
  8
0
  6
Continuous
 62
     7
370
    25
100
AcDbCircle
 10
184.9348646498
 20
94.4085392543
 30
0.0
 40
2.220359601763373
100
AcDbArc
 50
299.63676387
 51
346.8685396992
  0
LWPOLYLINE
  5
90
330
1F
100
AcDbEntity
  8
0
  6
Continuous
 62
     7
370
    25
100
AcDbPolyline
 90
       11
 70
   128
 43
0.0
 10
185.8429741978
 20
92.7660730004
 10
185.2340764298
 20
92.5307631761
 10
184.576862578
 20
92.4939871103
 10
183.9425508797
 20
92.6597345889
 10
183.39987946
 20
93.0100385368
 10
183.0076557517
 20
93.5069419712
 10
182.8083815917
 20
94.0965958208
 10
182.8236534193
 20
94.7151029751
 10
183.0518144115
 20
95.2954370797
 10
183.4681416794
 20
95.774711509
 10
183.5835707306
 20
95.8630791202
  0
ARC
  5
91
330
1F
100
AcDbEntity
  8
0
  6
Continuous
 62
     7
370
    25
100
AcDbCircle
 10
184.9417153749
 20
94.3777479445
 30
0.0
 40
1.846554518876948
100
AcDbArc
 50
299.2141966158
 51
359.5377561465
  0
SPLINE
  5
92
330
1F
100
AcDbEntity
  8
0
  6
Continuous
 62
     7
370
    25
100
AcDbSpline
210
0.0
220
0.0
230
1.0
 70
     8
 71
     3
 72
    11
 73
     7
 74
     0
 42
0.000000001
 43
0.00000001
 40
0.0
 40
0.0
 40
0.0
 40
0.0
 40
0.1285560200552933
 40
0.4801535177189796
 40
0.8150692180253306
 40
1.0
 40
1.0
 40
1.0
 40
1.0
 10
208.0450310304212
 20
111.1045668868301
 30
0.0
 10
208.1459856746121
 20
111.1622213467533
 30
0.0
 10
208.5230487442179
 20
111.3775593117306
 30
0.0
 10
209.2301277649856
 20
111.78136571538
 30
0.0
 10
209.9957454369051
 20
112.2186031146356
 30
0.0
 10
210.405891624862
 20
112.4528343047975
 30
0.0
 10
210.5517974987077
 20
112.5361599761946
 30
0.0
  0
SPLINE
  5
93
330
1F
100
AcDbEntity
  8
0
  6
Continuous
 62
     7
370
    25
100
AcDbSpline
210
0.0
220
0.0
230
1.0
 70
     8
 71
     3
 72
    10
 73
     6
 74
     0
 42
0.000000001
 43
0.00000001
 40
0.0
 40
0.0
 40
0.0
 40
0.0
 40
0.4391256108190023
 40
0.7513741443980115
 40
0.9999999999999999
 40
0.9999999999999999
 40
0.9999999999999999
 40
0.9999999999999999
 10
208.0314448967027
 20
108.2178474672092
 30
0.0
 10
208.0333890920135
 20
108.6311129193273
 30
0.0
 10
208.036715744006
 20
109.3382385522762
 30
0.0
 10
208.0415543571094
 20
110.3661570346164
 30
0.0
 10
208.0439632223725
 20
110.8777753787673
 30
0.0
 10
208.0450310304212
 20
111.1045668868301
 30
0.0
  0
SPLINE
  5
94
330
1F
100
AcDbEntity
  8
0
  6
Continuous
 62
     7
370
    25
100
AcDbSpline
210
0.0
220
0.0
230
1.0
 70
     8
 71
     3
 72
    10
 73
     6
 74
     0
 42
0.000000001
 43
0.00000001
 40
0.0
 40
0.0
 40
0.0
 40
0.0
 40
0.4391251762771847
 40
0.7513744574132716
 40
0.9999999999999999
 40
0.9999999999999999
 40
0.9999999999999999
 40
0.9999999999999999
 10
210.5246215059804
 20
106.7627213697834
 30
0.0
 10
210.1676966902117
 20
106.9710388239455
 30
0.0
 10
209.5569729051189
 20
107.3274848273785
 30
0.0
 10
208.6691876588891
 20
107.8456318740257
 30
0.0
 10
208.2273177423225
 20
108.1035271930426
 30
0.0
 10
208.0314448967027
 20
108.2178474672092
 30
0.0
  0
SPLINE
  5
95
330
1F
100
AcDbEntity
  8
0
  6
Continuous
 62
     7
370
    25
100
AcDbSpline
210
0.0
220
0.0
230
1.0
 70
     8
 71
     3
 72
    11
 73
     7
 74
     0
 42
0.000000001
 43
0.00000001
 40
0.0
 40
0.0
 40
0.0
 40
0.0
 40
0.1849308000768798
 40
0.5198465011707526
 40
0.8714439621289239
 40
1.0
 40
1.0
 40
1.0
 40
1.0
 10
213.0313879742669
 20
108.1943144591478
 30
0.0
 10
212.8854821019067
 20
108.1109887462311
 30
0.0
 10
212.4753359433695
 20
107.8767574537729
 30
0.0
 10
211.7097183148217
 20
107.439520021221
 30
0.0
 10
211.0026391316071
 20
107.0357139793414
 30
0.0
 10
210.6255761457192
 20
106.8203758767969
 30
0.0
 10
210.5246215059804
 20
106.7627213697834
 30
0.0
  0
CIRCLE
  5
96
330
1F
100
AcDbEntity
  8
0
  6
Continuous
 62
     7
370
    25
100
AcDbCircle
 10
210.5382093802
 20
109.649440673
 30
0.0
 40
2.999999999999997
  0
SPLINE
  5
97
330
1F
100
AcDbEntity
  8
0
  6
Continuous
 62
     7
370
    25
100
AcDbSpline
210
0.0
220
0.0
230
1.0
 70
     8
 71
     3
 72
    10
 73
     6
 74
     0
 42
0.000000001
 43
0.00000001
 40
0.0
 40
0.0
 40
0.0
 40
0.0
 40
0.4391251762771847
 40
0.7513744574132716
 40
0.9999999999999999
 40
0.9999999999999999
 40
0.9999999999999999
 40
0.9999999999999999
 10
210.5517974987077
 20
112.5361599761946
 30
0.0
 10
210.9087223144764
 20
112.3278425220325
 30
0.0
 10
211.5194460995692
 20
111.9713965185995
 30
0.0
 10
212.407231345799
 20
111.4532494719522
 30
0.0
 10
212.8491012623656
 20
111.1953541529354
 30
0.0
 10
213.0449741079854
 20
111.0810338787688
 30
0.0
  0
SPLINE
  5
98
330
1F
100
AcDbEntity
  8
0
  6
Continuous
 62
     7
370
    25
100
AcDbSpline
210
0.0
220
0.0
230
1.0
 70
     8
 71
     3
 72
    10
 73
     6
 74
     0
 42
0.000000001
 43
0.00000001
 40
0.0
 40
0.0
 40
0.0
 40
0.0
 40
0.4391256108190023
 40
0.7513741443980115
 40
0.9999999999999999
 40
0.9999999999999999
 40
0.9999999999999999
 40
0.9999999999999999
 10
213.0449741079854
 20
111.0810338787688
 30
0.0
 10
213.0430299126746
 20
110.6677684266507
 30
0.0
 10
213.0397032606821
 20
109.9606427937018
 30
0.0
 10
213.0348646475787
 20
108.9327243113616
 30
0.0
 10
213.0324557823156
 20
108.4211059672107
 30
0.0
 10
213.0313879742669
 20
108.1943144591478
 30
0.0
  0
CIRCLE
  5
99
330
1F
100
AcDbEntity
  8
0
  6
Continuous
 62
     7
370
    25
100
AcDbCircle
 10
210.5382093802
 20
109.649440673
 30
0.0
 40
4.499999999999988
  0
CIRCLE
  5
9A
330
1F
100
AcDbEntity
  8
0
  6
Continuous
 62
     7
370
    25
100
AcDbCircle
 10
210.5382093802
 20
109.649440673
 30
0.0
 40
4.999999999999995
  0
ARC
  5
9B
330
1F
100
AcDbEntity
  8
0
  6
Continuous
 62
     7
370
    25
100
AcDbCircle
 10
210.5382093802
 20
109.649440673
 30
0.0
 40
2.500000000000002
100
AcDbArc
 50
359.7303306116
 51
59.7303306116
  0
ARC
  5
9C
330
1F
100
AcDbEntity
  8
0
  6
Continuous
 62
     7
370
    25
100
AcDbCircle
 10
210.5382093802
 20
109.649440673
 30
0.0
 40
2.500000000000003
100
AcDbArc
 50
299.7303306116
 51
359.7303306116
  0
ARC
  5
9D
330
1F
100
AcDbEntity
  8
0
  6
Continuous
 62
     7
370
    25
100
AcDbCircle
 10
210.5382093802
 20
109.649440673
 30
0.0
 40
2.5
100
AcDbArc
 50
59.7303306116
 51
119.7303306116
  0
ARC
  5
9E
330
1F
100
AcDbEntity
  8
0
  6
Continuous
 62
     7
370
    25
100
AcDbCircle
 10
210.5382093802
 20
109.649440673
 30
0.0
 40
2.500000000000003
100
AcDbArc
 50
239.7303306116
 51
299.7303306116
  0
ARC
  5
9F
330
1F
100
AcDbEntity
  8
0
  6
Continuous
 62
     7
370
    25
100
AcDbCircle
 10
210.5382093802
 20
109.649440673
 30
0.0
 40
2.499999999999998
100
AcDbArc
 50
179.7303306116
 51
239.7303306116
  0
ARC
  5
A0
330
1F
100
AcDbEntity
  8
0
  6
Continuous
 62
     7
370
    25
100
AcDbCircle
 10
210.5382093802
 20
109.649440673
 30
0.0
 40
2.499999999999991
100
AcDbArc
 50
119.7303306116
 51
179.7303306116
  0
SPLINE
  5
A1
330
1F
100
AcDbEntity
  8
0
  6
Continuous
 62
     7
370
    25
100
AcDbSpline
210
0.0
220
0.0
230
1.0
 70
     8
 71
     3
 72
     8
 73
     4
 74
     0
 42
0.000000001
 43
0.00000001
 40
0.0
 40
0.0
 40
0.0
 40
0.0
 40
1.0
 40
1.0
 40
1.0
 40
1.0
 10
179.7782093801545
 20
65.02970126415921
 30
0.0
 10
179.48848093413
 20
64.50748125399568
 30
0.0
 10
179.1984557839122
 20
63.98542787173569
 30
0.0
 10
178.9081615496504
 20
63.46352560601258
 30
0.0
  0
SPLINE
  5
A2
330
1F
100
AcDbEntity
  8
0
  6
Continuous
 62
     7
370
    25
100
AcDbSpline
210
0.0
220
0.0
230
1.0
 70
     8
 71
     3
 72
     8
 73
     4
 74
     0
 42
0.000000001
 43
0.00000001
 40
0.0
 40
0.0
 40
0.0
 40
0.0
 40
0.0011862984959112
 40
0.0011862984959112
 40
0.0011862984959112
 40
0.0011862984959112
 10
178.4550478726926
 20
62.92018133164298
 30
0.0
 10
178.6070726345635
 20
63.10109318126096
 30
0.0
 10
178.7581300797793
 20
63.2822055117018
 30
0.0
 10
178.9081615496504
 20
63.4635256060126
 30
0.0
  0
LINE
  5
A3
330
1F
100
AcDbEntity
  8
0
  6
Continuous
 62
     7
370
    25
100
AcDbLine
 10
178.4550483271
 20
62.92018148
 30
0.0
 11
178.4550483271
 21
139.4994411886
 31
0.0
  0
SPLINE
  5
A4
330
1F
100
AcDbEntity
  8
0
  6
Continuous
 62
     7
370
    25
100
AcDbSpline
210
0.0
220
0.0
230
1.0
 70
    24
 71
     3
 72
     8
 73
     4
 74
     0
 42
0.000000001
 43
0.00000001
 40
0.0
 40
0.0
 40
0.0
 40
0.0
 40
1.0
 40
1.0
 40
1.0
 40
1.0
 10
179.7782093801545
 20
139.499440672989
 30
0.0
 10
179.3430092754509
 20
139.499440672989
 30
0.0
 10
178.901649592712
 20
139.499440672989
 30
0.0
 10
178.4550478726926
 20
139.499440672989
 30
0.0
  0
LINE
  5
A5
330
1F
100
AcDbEntity
  8
0
  6
Continuous
 62
     7
370
    25
100
AcDbLine
 10
179.7782090425
 20
65.0297016174
 30
0.0
 11
179.7782090425
 21
139.4994411886
 31
0.0
  0
SPLINE
  5
A6
330
1F
100
AcDbEntity
  8
0
  6
Continuous
 62
     7
370
    25
100
AcDbSpline
210
0.0
220
0.0
230
1.0
 70
     8
 71
     3
 72
    10
 73
     6
 74
     0
 42
0.000000001
 43
0.00000001
 40
0.0
 40
0.0
 40
0.0
 40
0.0
 40
0.5
 40
0.5
 40
1.0
 40
1.0
 40
1.0
 40
1.0
 10
174.0038694113086
 20
63.01598640579675
 30
0.0
 10
174.0525199798882
 20
62.98802941452933
 30
0.0
 10
174.1099051918476
 20
62.96408712950252
 30
0.0
 10
174.2406183000137
 20
62.92996866640682
 30
0.0
 10
174.3133578337523
 20
62.92018133164298
 30
0.0
 10
174.3882093801545
 20
62.92018133164298
 30
0.0
  0
SPLINE
  5
A7
330
1F
100
AcDbEntity
  8
0
  6
Continuous
 62
     7
370
    25
100
AcDbSpline
210
0.0
220
0.0
230
1.0
 70
     8
 71
     3
 72
    10
 73
     6
 74
     0
 42
0.000000001
 43
0.00000001
 40
0.0
 40
0.0
 40
0.0
 40
0.0
 40
0.5
 40
0.5
 40
1.0
 40
1.0
 40
1.0
 40
1.0
 10
174.0038694113086
 20
63.01598640579674
 30
0.0
 10
173.9456814047264
 20
63.08357013597557
 30
0.0
 10
173.8932389382001
 20
63.16404637061731
 30
0.0
 10
173.8148866310214
 20
63.34708199360008
 30
0.0
 10
173.7882093801545
 20
63.45295769639569
 30
0.0
 10
173.7882093801545
 20
63.56047100561632
 30
0.0
  0
LINE
  5
A8
330
1F
100
AcDbEntity
  8
0
  6
Continuous
 62
     7
370
    25
100
AcDbLine
 10
173.7882092993
 20
63.5604694754
 30
0.0
 11
173.7882092993
 21
139.4994411886
 31
0.0
  0
SPLINE
  5
A9
330
1F
100
AcDbEntity
  8
0
  6
Continuous
 62
     7
370
    25
100
AcDbSpline
210
0.0
220
0.0
230
1.0
 70
    24
 71
     3
 72
    14
 73
    10
 74
     0
 42
0.000000001
 43
0.00000001
 40
0.0
 40
0.0
 40
0.0
 40
0.0
 40
0.25
 40
0.25
 40
0.5
 40
0.5
 40
0.75
 40
0.75
 40
1.0
 40
1.0
 40
1.0
 40
1.0
 10
174.3882093801545
 20
139.499440672989
 30
0.0
 10
174.2991874278109
 20
139.499440672989
 30
0.0
 10
174.2095007285373
 20
139.499440672989
 30
0.0
 10
174.05577390298
 20
139.499440672989
 30
0.0
 10
173.9905690083532
 20
139.499440672989
 30
0.0
 10
173.8879783141828
 20
139.499440672989
 30
0.0
 10
173.8503408598669
 20
139.499440672989
 30
0.0
 10
173.8002489444818
 20
139.499440672989
 30
0.0
 10
173.7882093801545
 20
139.499440672989
 30
0.0
 10
173.7882093801545
 20
139.499440672989
 30
0.0
  0
SPLINE
  5
AA
330
1F
100
AcDbEntity
  8
0
  6
Continuous
 62
     7
370
    25
100
AcDbSpline
210
0.0
220
0.0
230
1.0
 70
     8
 71
     3
 72
    12
 73
     8
 74
     0
 42
0.000000001
 43
0.00000001
 40
0.0
 40
0.0
 40
0.0
 40
0.0
 40
0.2499999999999972
 40
0.2499999999999972
 40
0.4999999999999944
 40
0.4999999999999944
 40
1.0
 40
1.0
 40
1.0
 40
1.0
 10
189.0382093801545
 20
62.92018133164298
 30
0.0
 10
189.1341821333294
 20
62.92018133164298
 30
0.0
 10
189.2266100974839
 20
62.93645465575157
 30
0.0
 10
189.3830401975933
 20
62.98982837774798
 30
0.0
 10
189.4465186223662
 20
63.02595663528232
 30
0.0
 10
189.5947977831933
 20
63.1466578315616
 30
0.0
 10
189.6382093801545
 20
63.24050741792678
 30
0.0
 10
189.6382093801545
 20
63.33481169287398
 30
0.0
  0
SPLINE
  5
AB
330
1F
100
AcDbEntity
  8
0
  6
Continuous
 62
     7
370
    25
100
AcDbSpline
210
0.0
220
0.0
230
1.0
 70
    24
 71
     3
 72
    12
 73
     8
 74
     0
 42
0.000000001
 43
0.00000001
 40
0.0
 40
0.0
 40
0.0
 40
0.0
 40
0.4999999999999972
 40
0.4999999999999972
 40
0.7499999999999986
 40
0.7499999999999986
 40
1.0
 40
1.0
 40
1.0
 40
1.0
 10
189.6382093801545
 20
139.499440672989
 30
0.0
 10
189.6382093801545
 20
139.499440672989
 30
0.0
 10
189.5900786917692
 20
139.499440672989
 30
0.0
 10
189.4361816359661
 20
139.499440672989
 30
0.0
 10
189.3707170709593
 20
139.499440672989
 30
0.0
 10
189.2171877503492
 20
139.499440672989
 30
0.0
 10
189.1288390896134
 20
139.499440672989
 30
0.0
 10
189.0382093801544
 20
139.499440672989
 30
0.0
  0
LINE
  5
AC
330
1F
100
AcDbEntity
  8
0
  6
Continuous
 62
     7
370
    25
100
AcDbLine
 10
189.6382096156
 20
63.3348100156
 30
0.0
 11
189.6382096156
 21
139.4994411886
 31
0.0
  0
LINE
  5
AD
330
1F
100
AcDbEntity
  8
0
  6
Continuous
 62
     7
370
    25
100
AcDbLine
 10
183.5982092589
 20
95.8521789208
 30
0.0
 11
183.5982092589
 21
139.4994411886
 31
0.0
  0
SPLINE
  5
AE
330
1F
100
AcDbEntity
  8
0
  6
Continuous
 62
     7
370
    25
100
AcDbSpline
210
0.0
220
0.0
230
1.0
 70
    24
 71
     3
 72
     8
 73
     4
 74
     0
 42
0.000000001
 43
0.00000001
 40
0.0
 40
0.0
 40
0.0
 40
0.0
 40
1.0
 40
1.0
 40
1.0
 40
1.0
 10
184.9213708876164
 20
139.499440672989
 30
0.0
 10
184.4747691675971
 20
139.499440672989
 30
0.0
 10
184.0334094848582
 20
139.499440672989
 30
0.0
 10
183.5982093801545
 20
139.499440672989
 30
0.0
  0
LINE
  5
AF
330
1F
100
AcDbEntity
  8
0
  6
Continuous
 62
     7
370
    25
100
AcDbLine
 10
184.9213709056
 20
95.3522933915
 30
0.0
 11
184.9213709056
 21
139.4994411886
 31
0.0
  0
SPLINE
  5
B0
330
1F
100
AcDbEntity
  8
0
  6
Continuous
 62
     7
370
    25
100
AcDbSpline
210
0.0
220
0.0
230
1.0
 70
     8
 71
     3
 72
    10
 73
     6
 74
     0
 42
0.000000001
 43
0.00000001
 40
0.0
 40
0.0
 40
0.0
 40
0.0
 40
0.5
 40
0.5
 40
1.0
 40
1.0
 40
1.0
 40
1.0
 10
184.9213708876164
 20
95.35229360785789
 30
0.0
 10
184.698643860743
 20
95.49578210815166
 30
0.0
 10
184.4769579735179
 20
95.61050285388454
 30
0.0
 10
184.0357371356659
 20
95.78026328324242
 30
0.0
 10
183.8161784882671
 20
95.83568327762978
 30
0.0
 10
183.5982093801548
 20
95.85217860699944
 30
0.0
  0
LINE
  5
B1
330
1F
100
AcDbEntity
  8
0
  6
Continuous
 62
     7
370
    25
100
AcDbLine
 10
174.3882094442
 20
62.92018148
 30
0.0
 11
178.4550483271
 21
62.92018148
 31
0.0
  0
LINE
  5
B2
330
1F
100
AcDbEntity
  8
0
  6
Continuous
 62
     7
370
    25
100
AcDbLine
 10
178.4550483271
 20
139.4994411886
 30
0.0
 11
174.3882094442
 21
139.4994411886
 31
0.0
  0
LINE
  5
B3
330
1F
100
AcDbEntity
  8
0
  6
Continuous
 62
     7
370
    25
100
AcDbLine
 10
189.0382087722
 20
139.4994411886
 30
0.0
 11
184.9213709056
 21
139.4994411886
 31
0.0
  0
LINE
  5
B4
330
1F
100
AcDbEntity
  8
0
  6
Continuous
 62
     7
370
    25
100
AcDbLine
 10
184.9213709056
 20
62.92018148
 30
0.0
 11
189.0382087722
 21
62.92018148
 31
0.0
  0
LINE
  5
B5
330
1F
100
AcDbEntity
  8
0
  6
Continuous
 62
     7
370
    25
100
AcDbLine
 10
184.9213709056
 20
62.92018148
 30
0.0
 11
184.9213709056
 21
90.6604998082
 31
0.0
  0
SPLINE
  5
B6
330
1F
100
AcDbEntity
  8
0
  6
Continuous
 62
     7
370
    25
100
AcDbSpline
210
0.0
220
0.0
230
1.0
 70
     8
 71
     3
 72
    34
 73
    30
 74
     0
 42
0.000000001
 43
0.00000001
 40
0.0
 40
0.0
 40
0.0
 40
0.0
 40
0.0624999999999989
 40
0.0624999999999989
 40
0.1249999999999978
 40
0.1249999999999978
 40
0.1874999999999968
 40
0.1874999999999968
 40
0.2499999999999962
 40
0.2499999999999962
 40
0.3124999999999957
 40
0.3124999999999957
 40
0.3749999999999952
 40
0.3749999999999952
 40
0.499999999999995
 40
0.499999999999995
 40
0.6249999999999948
 40
0.6249999999999948
 40
0.6874999999999954
 40
0.6874999999999954
 40
0.749999999999996
 40
0.749999999999996
 40
0.8124999999999966
 40
0.8124999999999966
 40
0.8749999999999977
 40
0.8749999999999977
 40
0.9374999999999989
 40
0.9374999999999989
 40
1.0
 40
1.0
 40
1.0
 40
1.0
 10
184.9213708876164
 20
90.66050028498782
 30
0.0
 10
185.0807627154043
 20
90.66834038091059
 30
0.0
 10
185.2367651988478
 20
90.68999902900103
 30
0.0
 10
185.5422747149251
 20
90.75984725649383
 30
0.0
 10
185.6931690499373
 20
90.80867295882209
 30
0.0
 10
185.9810683946281
 20
90.93159691222941
 30
0.0
 10
186.1170147975878
 20
91.00490442036372
 30
0.0
 10
186.3731974131799
 20
91.17491504413505
 30
0.0
 10
186.494379700939
 20
91.27278883633652
 30
0.0
 10
186.7115257728117
 20
91.48537301176849
 30
0.0
 10
186.8084876457721
 20
91.60041895029808
 30
0.0
 10
186.9790500815976
 20
91.8482800704182
 30
0.0
 10
187.0522901348096
 20
91.98131356748382
 30
0.0
 10
187.2271705915584
 20
92.39082158361394
 30
0.0
 10
187.2882085525344
 20
92.688782233389
 30
0.0
 10
187.2882102077574
 20
93.28022378926346
 30
0.0
 10
187.2271755981712
 20
93.58039733924004
 30
0.0
 10
187.0522858307692
 20
93.99562861950781
 30
0.0
 10
186.9790421253448
 20
94.13098373775463
 30
0.0
 10
186.8084814096082
 20
94.38388306914128
 30
0.0
 10
186.7115176940147
 20
94.50164834674904
 30
0.0
 10
186.4943573654275
 20
94.71977864211769
 30
0.0
 10
186.3731761067407
 20
94.82048196726464
 30
0.0
 10
186.117005879802
 20
94.99572566009788
 30
0.0
 10
185.9810625301392
 20
95.07147062918848
 30
0.0
 10
185.6931598269561
 20
95.19863900449076
 30
0.0
 10
185.5422696310394
 20
95.24924027681821
 30
0.0
 10
185.2367641273337
 20
95.32166937656606
 30
0.0
 10
185.0807627290703
 20
95.34415514796305
 30
0.0
 10
184.9213708876164
 20
95.35229360785789
 30
0.0
  0
SPLINE
  5
B7
330
1F
100
AcDbEntity
  8
0
  6
Continuous
 62
     7
370
    25
100
AcDbSpline
210
0.0
220
0.0
230
1.0
 70
     8
 71
     3
 72
    14
 73
    10
 74
     0
 42
0.000000001
 43
0.00000001
 40
0.0
 40
0.0
 40
0.0
 40
0.0
 40
0.25
 40
0.25
 40
0.5
 40
0.5
 40
0.75
 40
0.75
 40
1.0
 40
1.0
 40
1.0
 40
1.0
 10
183.5982093801545
 20
95.89779282901193
 30
0.0
 10
183.5982093801545
 20
95.93976921086549
 30
0.0
 10
183.5685664261833
 20
95.96761959850637
 30
0.0
 10
183.4619115924533
 20
95.98111847379641
 30
0.0
 10
183.3856331978491
 20
95.96650297175871
 30
0.0
 10
183.2175816547826
 20
95.89441376759054
 30
0.0
 10
183.1264618481743
 20
95.83727615710777
 30
0.0
 10
182.9537847359216
 20
95.69504845651652
 30
0.0
 10
182.8728622963935
 20
95.61148463100446
 30
0.0
 10
182.7982093801545
 20
95.51811495910854
 30
0.0
  0
SPLINE
  5
B8
330
1F
100
AcDbEntity
  8
0
  6
Continuous
 62
     7
370
    25
100
AcDbSpline
210
0.0
220
0.0
230
1.0
 70
     8
 71
     3
 72
    10
 73
     6
 74
     0
 42
0.000000001
 43
0.00000001
 40
0.0
 40
0.0
 40
0.0
 40
0.0
 40
0.5
 40
0.5
 40
1.0
 40
1.0
 40
1.0
 40
1.0
 10
183.5982093801548
 20
91.7201374083679
 30
0.0
 10
183.8151002126756
 20
91.48309846891937
 30
0.0
 10
184.0342528493345
 20
91.28092823392586
 30
0.0
 10
184.4757373496033
 20
90.93017616240718
 30
0.0
 10
184.6989398148768
 20
90.78150007001032
 30
0.0
 10
184.9213708876165
 20
90.66050028498782
 30
0.0
  0
LINE
  5
B9
330
1F
100
AcDbEntity
  8
0
  6
Continuous
 62
     7
370
    25
100
AcDbLine
 10
183.5982092589
 20
91.7657524615
 30
0.0
 11
183.5982092589
 21
91.7201381445
 31
0.0
  0
SPLINE
  5
BA
330
1F
100
AcDbEntity
  8
0
  6
Continuous
 62
     7
370
    25
100
AcDbSpline
210
0.0
220
0.0
230
1.0
 70
     8
 71
     3
 72
    16
 73
    12
 74
     0
 42
0.000000001
 43
0.00000001
 40
0.0
 40
0.0
 40
0.0
 40
0.0
 40
0.2500000000000014
 40
0.2500000000000014
 40
0.5000000000000028
 40
0.5000000000000028
 40
0.6250000000000047
 40
0.6250000000000047
 40
0.7500000000000067
 40
0.7500000000000067
 40
1.0
 40
1.0
 40
1.0
 40
1.0
 10
182.7982093801545
 20
92.67415111605492
 30
0.0
 10
182.8722172703767
 20
92.58380353586927
 30
0.0
 10
182.9528352653657
 20
92.49584396306959
 30
0.0
 10
183.1266032508699
 20
92.31950903900801
 30
0.0
 10
183.2173543818114
 20
92.233901798342
 30
0.0
 10
183.3434674792729
 20
92.11270610231702
 30
0.0
 10
183.3830442401361
 20
92.07417452332616
 30
0.0
 10
183.4555268968373
 20
91.99977853719685
 30
0.0
 10
183.4884548873062
 20
91.96376174927535
 30
0.0
 10
183.5682450573011
 20
91.86500907345835
 30
0.0
 10
183.5982093801545
 20
91.80824507167625
 30
0.0
 10
183.5982093801545
 20
91.76575163038069
 30
0.0
  0
SPLINE
  5
BB
330
1F
100
AcDbEntity
  8
0
  6
Continuous
 62
     7
370
    25
100
AcDbSpline
210
0.0
220
0.0
230
1.0
 70
     8
 71
     3
 72
    16
 73
    12
 74
     0
 42
0.000000001
 43
0.00000001
 40
0.0
 40
0.0
 40
0.0
 40
0.0
 40
0.2500000000000009
 40
0.2500000000000009
 40
0.5000000000000018
 40
0.5000000000000018
 40
0.7500000000000011
 40
0.7500000000000011
 40
0.8750000000000006
 40
0.8750000000000006
 40
1.0
 40
1.0
 40
1.0
 40
1.0
 10
182.7982093801545
 20
95.51811495910856
 30
0.0
 10
182.6327952736744
 20
95.3112287230832
 30
0.0
 10
182.5065979426988
 20
95.08536002527443
 30
0.0
 10
182.3321916443679
 20
94.59649077966156
 30
0.0
 10
182.288361605271
 20
94.34472372631697
 30
0.0
 10
182.2880579323011
 20
93.83294440173464
 30
0.0
 10
182.3319147923613
 20
93.58188969265193
 30
0.0
 10
182.4618365516286
 20
93.22104112450982
 30
0.0
 10
182.5159513630365
 20
93.10376835616127
 30
0.0
 10
182.64262835318
 20
92.88127940482242
 30
0.0
 10
182.7155020735407
 20
92.77511879657916
 30
0.0
 10
182.7982093801545
 20
92.67415111605492
 30
0.0
  0
SPLINE
  5
BC
330
1F
100
AcDbEntity
  8
0
  6
Continuous
 62
     7
370
    25
100
AcDbSpline
210
0.0
220
0.0
230
1.0
 70
     8
 71
     3
 72
    14
 73
    10
 74
     0
 42
0.000000001
 43
0.00000001
 40
0.0
 40
0.0
 40
0.0
 40
0.0
 40
0.25
 40
0.25
 40
0.5
 40
0.5
 40
0.75
 40
0.75
 40
1.0
 40
1.0
 40
1.0
 40
1.0
 10
180.5782093801545
 20
66.00167440711921
 30
0.0
 10
180.4717643722452
 20
66.00167440711921
 30
0.0
 10
180.3648656209718
 20
65.9791048576861
 30
0.0
 10
180.1686473655293
 20
65.89266176644418
 30
0.0
 10
180.0789890520649
 20
65.82835784877705
 30
0.0
 10
179.9335353391837
 20
65.67338833473407
 30
0.0
 10
179.8754995564576
 20
65.58062284849034
 30
0.0
 10
179.7982144020729
 20
65.38215596684697
 30
0.0
 10
179.7782093801545
 20
65.27513154505318
 30
0.0
 10
179.7782093801545
 20
65.16834918458237
 30
0.0
  0
SPLINE
  5
BD
330
1F
100
AcDbEntity
  8
0
  6
Continuous
 62
     7
370
    25
100
AcDbSpline
210
0.0
220
0.0
230
1.0
 70
    24
 71
     3
 72
    14
 73
    10
 74
     0
 42
0.000000001
 43
0.00000001
 40
0.0
 40
0.0
 40
0.0
 40
0.0
 40
0.25
 40
0.25
 40
0.5
 40
0.5
 40
0.75
 40
0.75
 40
1.0
 40
1.0
 40
1.0
 40
1.0
 10
180.5782093801545
 20
139.499440672989
 30
0.0
 10
180.4552280806083
 20
139.499440672989
 30
0.0
 10
180.3350381922062
 20
139.499440672989
 30
0.0
 10
180.130014362527
 20
139.499440672989
 30
0.0
 10
180.0434198737249
 20
139.499440672989
 30
0.0
 10
179.9083119869625
 20
139.499440672989
 30
0.0
 10
179.8597889019344
 20
139.499440672989
 30
0.0
 10
179.7941063932076
 20
139.499440672989
 30
0.0
 10
179.7782093801545
 20
139.499440672989
 30
0.0
 10
179.7782093801545
 20
139.499440672989
 30
0.0
  0
SPLINE
  5
BE
330
1F
100
AcDbEntity
  8
0
  6
Continuous
 62
     7
370
    25
100
AcDbSpline
210
0.0
220
0.0
230
1.0
 70
    24
 71
     3
 72
    14
 73
    10
 74
     0
 42
0.000000001
 43
0.00000001
 40
0.0
 40
0.0
 40
0.0
 40
0.0
 40
0.25
 40
0.25
 40
0.5
 40
0.5
 40
0.75
 40
0.75
 40
1.0
 40
1.0
 40
1.0
 40
1.0
 10
183.5982093801545
 20
139.499440672989
 30
0.0
 10
183.5982093801545
 20
139.499440672989
 30
0.0
 10
183.5819283453787
 20
139.499440672989
 30
0.0
 10
183.5172652828541
 20
139.499440672989
 30
0.0
 10
183.4677854865654
 20
139.499440672989
 30
0.0
 10
183.3338157294267
 20
139.499440672989
 30
0.0
 10
183.2477010028272
 20
139.499440672989
 30
0.0
 10
183.0422448871142
 20
139.499440672989
 30
0.0
 10
182.9208243499214
 20
139.499440672989
 30
0.0
 10
182.7982093801545
 20
139.499440672989
 30
0.0
  0
LINE
  5
BF
330
1F
100
AcDbEntity
  8
0
  6
Continuous
 62
     7
370
    25
100
AcDbLine
 10
182.7982096865
 20
66.0016745597
 30
0.0
 11
180.5782095462
 21
66.0016745597
 31
0.0
  0
LINE
  5
C0
330
1F
100
AcDbEntity
  8
0
  6
Continuous
 62
     7
370
    25
100
AcDbLine
 10
182.7982096865
 20
139.4994411886
 30
0.0
 11
180.5782095462
 21
139.4994411886
 31
0.0
  0
SPLINE
  5
C1
330
1F
100
AcDbEntity
  8
0
  6
Continuous
 62
     7
370
    25
100
AcDbSpline
210
0.0
220
0.0
230
1.0
 70
     8
 71
     3
 72
     8
 73
     4
 74
     0
 42
0.000000001
 43
0.00000001
 40
0.0000000000000004
 40
0.0000000000000004
 40
0.0000000000000004
 40
0.0000000000000004
 40
0.0011862984959127
 40
0.0011862984959127
 40
0.0011862984959127
 40
0.0011862984959127
 10
184.4682572106547
 20
63.4635256060126
 30
0.0
 10
184.618288680526
 20
63.28220551170156
 30
0.0
 10
184.7693461257454
 20
63.1010931812612
 30
0.0
 10
184.9213708876164
 20
62.92018133164298
 30
0.0
  0
SPLINE
  5
C2
330
1F
100
AcDbEntity
  8
0
  6
Continuous
 62
     7
370
    25
100
AcDbSpline
210
0.0
220
0.0
230
1.0
 70
     8
 71
     3
 72
     8
 73
     4
 74
     0
 42
0.000000001
 43
0.00000001
 40
0.0
 40
0.0
 40
0.0
 40
0.0
 40
1.0
 40
1.0
 40
1.0
 40
1.0
 10
184.4682572106577
 20
63.46352560601426
 30
0.0
 10
184.1779629763962
 20
63.98542787173682
 30
0.0
 10
183.8879378261788
 20
64.50748125399625
 30
0.0
 10
183.5982093801545
 20
65.02970126415921
 30
0.0
  0
LINE
  5
C3
330
1F
100
AcDbEntity
  8
0
  6
Continuous
 62
     7
370
    25
100
AcDbLine
 10
183.5982092589
 20
65.0297016174
 30
0.0
 11
183.5982092589
 21
91.7201381445
 31
0.0
  0
SPLINE
  5
C4
330
1F
100
AcDbEntity
  8
0
  6
Continuous
 62
     7
370
    25
100
AcDbSpline
210
0.0
220
0.0
230
1.0
 70
     8
 71
     3
 72
    14
 73
    10
 74
     0
 42
0.000000001
 43
0.00000001
 40
0.0
 40
0.0
 40
0.0
 40
0.0
 40
0.25
 40
0.25
 40
0.5
 40
0.5
 40
0.75
 40
0.75
 40
1.0
 40
1.0
 40
1.0
 40
1.0
 10
183.5982093801545
 20
65.16834918458237
 30
0.0
 10
183.5982093801545
 20
65.27541317092317
 30
0.0
 10
183.5782255539146
 20
65.38215249729768
 30
0.0
 10
183.5007904714811
 20
65.58090239948848
 30
0.0
 10
183.4428515493216
 20
65.67345661598101
 30
0.0
 10
183.2972137435608
 20
65.82855355938658
 30
0.0
 10
183.2084247472255
 20
65.89229371629945
 30
0.0
 10
183.011876387021
 20
65.97904227338705
 30
0.0
 10
182.9057371573216
 20
66.00167440711921
 30
0.0
 10
182.7982093801545
 20
66.00167440711921
 30
0.0
  0
LINE
  5
C5
330
1F
100
AcDbEntity
  8
0
  6
Continuous
 62
     7
370
    25
100
AcDbLine
 10
170.5882093802
 20
74.7244417936
 30
0.0
 11
170.5882093802
 21
144.5744395524
 31
0.0
  0
SPLINE
  5
C6
330
1F
100
AcDbEntity
  8
0
  6
Continuous
 62
     7
370
    25
100
AcDbSpline
210
0.0
220
0.0
230
1.0
 70
     8
 71
     3
 72
    12
 73
     8
 74
     0
 42
0.000000001
 43
0.00000001
 40
0.0
 40
0.0
 40
0.0
 40
0.0
 40
0.4999999999999927
 40
0.4999999999999927
 40
0.7499999999999963
 40
0.7499999999999963
 40
1.0
 40
1.0
 40
1.0
 40
1.0
 10
189.6382093801545
 20
155.9444276262195
 30
0.0
 10
189.6382093801545
 20
156.0646202328846
 30
0.0
 10
189.5842409498855
 20
156.1825275333997
 30
0.0
 10
189.4231543089526
 20
156.321907077883
 30
0.0
 10
189.3583918894795
 20
156.3600723754469
 30
0.0
 10
189.206337887915
 20
156.4147246377804
 30
0.0
 10
189.1236081147658
 20
156.4292853277645
 30
0.0
 10
189.0382093801545
 20
156.4292853277645
 30
0.0
  0
SPLINE
  5
C7
330
1F
100
AcDbEntity
  8
0
  6
Continuous
 62
     7
370
    25
100
AcDbSpline
210
0.0
220
0.0
230
1.0
 70
     8
 71
     3
 72
    12
 73
     8
 74
     0
 42
0.000000001
 43
0.00000001
 40
0.0
 40
0.0
 40
0.0
 40
0.0
 40
0.250000000000004
 40
0.250000000000004
 40
0.500000000000008
 40
0.500000000000008
 40
1.0
 40
1.0
 40
1.0
 40
1.0
 10
189.038209380155
 20
148.1605186246642
 30
0.0
 10
189.1277464383261
 20
148.1605186246641
 30
0.0
 10
189.2176456171147
 20
148.1336913258331
 30
0.0
 10
189.371070476114
 20
148.0419843605736
 30
0.0
 10
189.4361195334918
 20
147.9777294189747
 30
0.0
 10
189.589438764756
 20
147.7583172729132
 30
0.0
 10
189.6382093801545
 20
147.5765019631163
 30
0.0
 10
189.6382093801545
 20
147.3985217876333
 30
0.0
  0
LINE
  5
C8
330
1F
100
AcDbEntity
  8
0
  6
Continuous
 62
     7
370
    25
100
AcDbLine
 10
189.6382096156
 20
147.398522523
 30
0.0
 11
189.6382096156
 21
155.9444278747
 31
0.0
  0
SPLINE
  5
C9
330
1F
100
AcDbEntity
  8
0
  6
Continuous
 62
     7
370
    25
100
AcDbSpline
210
0.0
220
0.0
230
1.0
 70
     8
 71
     3
 72
     8
 73
     4
 74
     0
 42
0.000000001
 43
0.00000001
 40
0.0
 40
0.0
 40
0.0
 40
0.0
 40
1.0
 40
1.0
 40
1.0
 40
1.0
 10
184.3648804023209
 20
155.6494739176564
 30
0.0
 10
184.1091040915656
 20
155.1894955623916
 30
0.0
 10
183.8535406934596
 20
154.7294011020838
 30
0.0
 10
183.5982093801545
 20
154.2691800818188
 30
0.0
  0
SPLINE
  5
CA
330
1F
100
AcDbEntity
  8
0
  6
Continuous
 62
     7
370
    25
100
AcDbSpline
210
0.0
220
0.0
230
1.0
 70
     8
 71
     3
 72
     8
 73
     4
 74
     0
 42
0.000000001
 43
0.00000001
 40
0.0
 40
0.0
 40
0.0
 40
0.0
 40
0.0012352705496738
 40
0.0012352705496738
 40
0.0012352705496738
 40
0.0012352705496738
 10
184.9213708876164
 20
156.4292853277645
 30
0.0
 10
184.7354224622943
 20
156.1695095720129
 30
0.0
 10
184.5499156531233
 20
155.9095754933856
 30
0.0
 10
184.3648804023211
 20
155.6494739176569
 30
0.0
  0
LINE
  5
CB
330
1F
100
AcDbEntity
  8
0
  6
Continuous
 62
     7
370
    25
100
AcDbLine
 10
184.9213709056
 20
148.1605194777
 30
0.0
 11
184.9213709056
 21
156.4292855829
 31
0.0
  0
SPLINE
  5
CC
330
1F
100
AcDbEntity
  8
0
  6
Continuous
 62
     7
370
    25
100
AcDbSpline
210
0.0
220
0.0
230
1.0
 70
     8
 71
     3
 72
     8
 73
     4
 74
     0
 42
0.000000001
 43
0.00000001
 40
0.0
 40
0.0
 40
0.0
 40
0.0
 40
1.0
 40
1.0
 40
1.0
 40
1.0
 10
183.5982093801545
 20
145.2165764152986
 30
0.0
 10
184.0331558017929
 20
146.200080733681
 30
0.0
 10
184.4745221596887
 20
147.1812827264079
 30
0.0
 10
184.9213708876164
 20
148.1605186246641
 30
0.0
  0
LINE
  5
CD
330
1F
100
AcDbEntity
  8
0
  6
Continuous
 62
     7
370
    25
100
AcDbLine
 10
183.5982092589
 20
145.2165752917
 30
0.0
 11
183.5982092589
 21
154.2691797286
 31
0.0
  0
SPLINE
  5
CE
330
1F
100
AcDbEntity
  8
0
  6
Continuous
 62
     7
370
    25
100
AcDbSpline
210
0.0
220
0.0
230
1.0
 70
     8
 71
     3
 72
     8
 73
     4
 74
     0
 42
0.000000001
 43
0.00000001
 40
0.0
 40
0.0
 40
0.0
 40
0.0
 40
0.0012352705496723
 40
0.0012352705496723
 40
0.0012352705496723
 40
0.0012352705496723
 10
179.0115383579871
 20
155.6494739176581
 30
0.0
 10
178.8265031071852
 20
155.9095754933863
 30
0.0
 10
178.6409962980144
 20
156.1695095720133
 30
0.0
 10
178.4550478726926
 20
156.4292853277645
 30
0.0
  0
SPLINE
  5
CF
330
1F
100
AcDbEntity
  8
0
  6
Continuous
 62
     7
370
    25
100
AcDbSpline
210
0.0
220
0.0
230
1.0
 70
     8
 71
     3
 72
     8
 73
     4
 74
     0
 42
0.000000001
 43
0.00000001
 40
0.0
 40
0.0
 40
0.0
 40
0.0
 40
1.0
 40
1.0
 40
1.0
 40
1.0
 10
179.7782093801545
 20
154.2691800818188
 30
0.0
 10
179.5228780668492
 20
154.7294011020844
 30
0.0
 10
179.2673146687429
 20
155.1894955623928
 30
0.0
 10
179.0115383579871
 20
155.6494739176581
 30
0.0
  0
LINE
  5
D0
330
1F
100
AcDbEntity
  8
0
  6
Continuous
 62
     7
370
    25
100
AcDbLine
 10
179.7782090425
 20
145.2165752917
 30
0.0
 11
179.7782090425
 21
154.2691797286
 31
0.0
  0
SPLINE
  5
D1
330
1F
100
AcDbEntity
  8
0
  6
Continuous
 62
     7
370
    25
100
AcDbSpline
210
0.0
220
0.0
230
1.0
 70
     8
 71
     3
 72
     8
 73
     4
 74
     0
 42
0.000000001
 43
0.00000001
 40
0.0
 40
0.0
 40
0.0
 40
0.0
 40
1.0
 40
1.0
 40
1.0
 40
1.0
 10
178.4550478726926
 20
148.1605186246641
 30
0.0
 10
178.9018966006203
 20
147.1812827264079
 30
0.0
 10
179.3432629585162
 20
146.200080733681
 30
0.0
 10
179.7782093801545
 20
145.2165764152986
 30
0.0
  0
LINE
  5
D2
330
1F
100
AcDbEntity
  8
0
  6
Continuous
 62
     7
370
    25
100
AcDbLine
 10
178.4550483271
 20
148.1605194777
 30
0.0
 11
178.4550483271
 21
156.4292855829
 31
0.0
  0
LINE
  5
D3
330
1F
100
AcDbEntity
  8
0
  6
Continuous
 62
     7
370
    25
100
AcDbLine
 10
182.7982096865
 20
153.2972067863
 30
0.0
 11
180.5782095462
 21
153.2972067863
 31
0.0
  0
LINE
  5
D4
330
1F
100
AcDbEntity
  8
0
  6
Continuous
 62
     7
370
    25
100
AcDbLine
 10
180.5782095462
 20
143.9893231064
 30
0.0
 11
182.7982096865
 21
143.9893231064
 31
0.0
  0
LINE
  5
D5
330
1F
100
AcDbEntity
  8
0
  6
Continuous
 62
     7
370
    25
100
AcDbLine
 10
189.0382087722
 20
156.4292855829
 30
0.0
 11
184.9213709056
 21
156.4292855829
 31
0.0
  0
LINE
  5
D6
330
1F
100
AcDbEntity
  8
0
  6
Continuous
 62
     7
370
    25
100
AcDbLine
 10
184.9213709056
 20
148.1605194777
 30
0.0
 11
189.0382087722
 21
148.1605194777
 31
0.0
  0
LINE
  5
D7
330
1F
100
AcDbEntity
  8
0
  6
Continuous
 62
     7
370
    25
100
AcDbLine
 10
178.4550483271
 20
156.4292855829
 30
0.0
 11
174.3882094442
 21
156.4292855829
 31
0.0
  0
LINE
  5
D8
330
1F
100
AcDbEntity
  8
0
  6
Continuous
 62
     7
370
    25
100
AcDbLine
 10
174.3882094442
 20
148.1605194777
 30
0.0
 11
178.4550483271
 21
148.1605194777
 31
0.0
  0
SPLINE
  5
D9
330
1F
100
AcDbEntity
  8
0
  6
Continuous
 62
     7
370
    25
100
AcDbSpline
210
0.0
220
0.0
230
1.0
 70
     8
 71
     3
 72
    12
 73
     8
 74
     0
 42
0.000000001
 43
0.00000001
 40
0.0
 40
0.0
 40
0.0
 40
0.0
 40
0.5000000000000003
 40
0.5000000000000003
 40
0.7500000000000001
 40
0.7500000000000001
 40
1.0
 40
1.0
 40
1.0
 40
1.0
 10
173.7882093801545
 20
147.3985217876333
 30
0.0
 10
173.7882093801545
 20
147.5768820548726
 30
0.0
 10
173.8355215015305
 20
147.7556544665766
 30
0.0
 10
173.9898815794119
 20
147.9774163319283
 30
0.0
 10
174.0547671143309
 20
148.0417083705448
 30
0.0
 10
174.2099998135591
 20
148.1343528547044
 30
0.0
 10
174.2990752262274
 20
148.1605186246642
 30
0.0
 10
174.3882093801545
 20
148.1605186246642
 30
0.0
  0
SPLINE
  5
DA
330
1F
100
AcDbEntity
  8
0
  6
Continuous
 62
     7
370
    25
100
AcDbSpline
210
0.0
220
0.0
230
1.0
 70
     8
 71
     3
 72
    12
 73
     8
 74
     0
 42
0.000000001
 43
0.00000001
 40
0.0
 40
0.0
 40
0.0
 40
0.0
 40
0.499999999999994
 40
0.499999999999994
 40
0.749999999999997
 40
0.749999999999997
 40
1.0
 40
1.0
 40
1.0
 40
1.0
 10
179.7782093801545
 20
145.042483774706
 30
0.0
 10
179.7782093801545
 20
144.8000606787253
 30
0.0
 10
179.8411305215963
 20
144.5542901581239
 30
0.0
 10
180.0431594185988
 20
144.249343978707
 30
0.0
 10
180.129453143246
 20
144.1587511121086
 30
0.0
 10
180.3349269378127
 20
144.0283175491718
 30
0.0
 10
180.4548774984124
 20
143.9893227345221
 30
0.0
 10
180.5782093801545
 20
143.9893227345221
 30
0.0
  0
SPLINE
  5
DB
330
1F
100
AcDbEntity
  8
0
  6
Continuous
 62
     7
370
    25
100
AcDbSpline
210
0.0
220
0.0
230
1.0
 70
     8
 71
     3
 72
    14
 73
    10
 74
     0
 42
0.000000001
 43
0.00000001
 40
0.0
 40
0.0
 40
0.0
 40
0.0
 40
0.25
 40
0.25
 40
0.5
 40
0.5
 40
0.75
 40
0.75
 40
1.0
 40
1.0
 40
1.0
 40
1.0
 10
182.7982093801545
 20
143.9893227345221
 30
0.0
 10
182.9195359101403
 20
143.9893227345221
 30
0.0
 10
183.0412406187025
 20
144.0281042499552
 30
0.0
 10
183.2476804975886
 20
144.1592588716491
 30
0.0
 10
183.3336310360447
 20
144.2499109562362
 30
0.0
 10
183.467542795793
 20
144.4520279911775
 30
0.0
 10
183.5171072326121
 20
144.5657629347167
 30
0.0
 10
183.5819612605801
 20
144.7987225517832
 30
0.0
 10
183.5982093801545
 20
144.9214208181124
 30
0.0
 10
183.5982093801545
 20
145.042483774706
 30
0.0
  0
LINE
  5
DC
330
1F
100
AcDbEntity
  8
0
  6
Continuous
 62
     7
370
    25
100
AcDbLine
 10
179.7782090425
 20
145.2165752917
 30
0.0
 11
179.7782090425
 21
145.0424850255
 31
0.0
  0
LINE
  5
DD
330
1F
100
AcDbEntity
  8
0
  6
Continuous
 62
     7
370
    25
100
AcDbLine
 10
183.5982092589
 20
145.0424850255
 30
0.0
 11
183.5982092589
 21
145.2165752917
 31
0.0
  0
LINE
  5
DE
330
1F
100
AcDbEntity
  8
0
  6
Continuous
 62
     7
370
    25
100
AcDbLine
 10
189.6382096156
 20
147.398522523
 30
0.0
 11
189.6382096156
 21
139.4994411886
 31
0.0
  0
LINE
  5
DF
330
1F
100
AcDbEntity
  8
0
  6
Continuous
 62
     7
370
    25
100
AcDbLine
 10
173.7882092993
 20
147.398522523
 30
0.0
 11
173.7882092993
 21
139.4994411886
 31
0.0
  0
SPLINE
  5
E0
330
1F
100
AcDbEntity
  8
0
  6
Continuous
 62
     7
370
    25
100
AcDbSpline
210
0.0
220
0.0
230
1.0
 70
     8
 71
     3
 72
    14
 73
    10
 74
     0
 42
0.000000001
 43
0.00000001
 40
0.0
 40
0.0
 40
0.0
 40
0.0
 40
0.25
 40
0.25
 40
0.5
 40
0.5
 40
0.75
 40
0.75
 40
1.0
 40
1.0
 40
1.0
 40
1.0
 10
183.5982093801545
 20
154.1305321613956
 30
0.0
 10
183.5982093801545
 20
154.0231897892481
 30
0.0
 10
183.5782131880903
 20
153.9165607824004
 30
0.0
 10
183.5005151037457
 20
153.7174090032491
 30
0.0
 10
183.4425219588521
 20
153.6249261049337
 30
0.0
 10
183.2964754660292
 20
153.4696902698245
 30
0.0
 10
183.2071377268616
 20
153.4059563282121
 30
0.0
 10
183.0123827148011
 20
153.3201260618169
 30
0.0
 10
182.9048524435923
 20
153.2972069388585
 30
0.0
 10
182.7982093801525
 20
153.2972069388587
 30
0.0
  0
SPLINE
  5
E1
330
1F
100
AcDbEntity
  8
0
  6
Continuous
 62
     7
370
    25
100
AcDbSpline
210
0.0
220
0.0
230
1.0
 70
     8
 71
     3
 72
    10
 73
     6
 74
     0
 42
0.000000001
 43
0.00000001
 40
0.0
 40
0.0
 40
0.0
 40
0.0
 40
0.5
 40
0.5
 40
1.0
 40
1.0
 40
1.0
 40
1.0
 10
174.0780782991009
 20
156.3596049987118
 30
0.0
 10
174.0016252091821
 20
156.2893422274911
 30
0.0
 10
173.932763486913
 20
156.2022473124494
 30
0.0
 10
173.82625125584
 20
155.9930781841971
 30
0.0
 10
173.7882093801545
 20
155.8677606349576
 30
0.0
 10
173.7882093801545
 20
155.7384103403617
 30
0.0
  0
SPLINE
  5
E2
330
1F
100
AcDbEntity
  8
0
  6
Continuous
 62
     7
370
    25
100
AcDbSpline
210
0.0
220
0.0
230
1.0
 70
     8
 71
     3
 72
     8
 73
     4
 74
     0
 42
0.000000001
 43
0.00000001
 40
0.0
 40
0.0
 40
0.0
 40
0.0
 40
1.0
 40
1.0
 40
1.0
 40
1.0
 10
174.3882093801545
 20
156.4292853277645
 30
0.0
 10
174.2771311948171
 20
156.4292853277645
 30
0.0
 10
174.1694671909148
 20
156.40413615221
 30
0.0
 10
174.0780782991009
 20
156.3596049987118
 30
0.0
  0
LINE
  5
E3
330
1F
100
AcDbEntity
  8
0
  6
Continuous
 62
     7
370
    25
100
AcDbLine
 10
173.7882092993
 20
147.398522523
 30
0.0
 11
173.7882092993
 21
155.7384118706
 31
0.0
  0
SPLINE
  5
E4
330
1F
100
AcDbEntity
  8
0
  6
Continuous
 62
     7
370
    25
100
AcDbSpline
210
0.0
220
0.0
230
1.0
 70
     8
 71
     3
 72
    12
 73
     8
 74
     0
 42
0.000000001
 43
0.00000001
 40
0.0
 40
0.0
 40
0.0
 40
0.0
 40
0.2500000000000007
 40
0.2500000000000007
 40
0.5000000000000014
 40
0.5000000000000014
 40
1.0
 40
1.0
 40
1.0
 40
1.0
 10
180.5782093801545
 20
153.2972069388588
 30
0.0
 10
180.4718644002786
 20
153.2972069388588
 30
0.0
 10
180.364588052876
 20
153.3199221767183
 30
0.0
 10
180.1692122634799
 20
153.4059473436006
 30
0.0
 10
180.0806585274029
 20
153.468926070529
 30
0.0
 10
179.8594006032717
 20
153.7041175809661
 30
0.0
 10
179.7782093801545
 20
153.9172937954514
 30
0.0
 10
179.7782093801545
 20
154.1305321613955
 30
0.0
  0
SPLINE
  5
E5
330
1F
100
AcDbEntity
  8
0
  6
Continuous
 62
     7
370
    25
100
AcDbSpline
210
0.0
220
0.0
230
1.0
 70
    11
 71
     3
 72
    83
 73
    79
 74
     0
 42
0.000000001
 43
0.00000001
 40
0.0
 40
0.0
 40
0.0
 40
0.0
 40
0.0312500000000008
 40
0.0312500000000008
 40
0.0625000000000016
 40
0.0625000000000016
 40
0.0937500000000024
 40
0.0937500000000024
 40
0.1093750000000028
 40
0.1093750000000028
 40
0.1250000000000032
 40
0.1250000000000032
 40
0.1562500000000034
 40
0.1562500000000034
 40
0.1875000000000037
 40
0.1875000000000037
 40
0.2187500000000039
 40
0.2187500000000039
 40
0.2500000000000042
 40
0.2500000000000042
 40
0.2812500000000044
 40
0.2812500000000044
 40
0.3125000000000047
 40
0.3125000000000047
 40
0.3437500000000049
 40
0.3437500000000049
 40
0.3593750000000049
 40
0.3593750000000049
 40
0.375000000000005
 40
0.3906250000000051
 40
0.3906250000000051
 40
0.4062500000000052
 40
0.4062500000000052
 40
0.4375000000000052
 40
0.4375000000000052
 40
0.4687500000000052
 40
0.4687500000000052
 40
0.5000000000000052
 40
0.5000000000000052
 40
0.5312500000000052
 40
0.5312500000000052
 40
0.5468750000000052
 40
0.5468750000000052
 40
0.5625000000000051
 40
0.5625000000000051
 40
0.5937500000000052
 40
0.5937500000000052
 40
0.6250000000000052
 40
0.6250000000000052
 40
0.6562500000000052
 40
0.6562500000000052
 40
0.6875000000000052
 40
0.6875000000000052
 40
0.7187500000000052
 40
0.7187500000000052
 40
0.7500000000000052
 40
0.7500000000000052
 40
0.765625000000005
 40
0.765625000000005
 40
0.7812500000000048
 40
0.7812500000000048
 40
0.8125000000000039
 40
0.8125000000000039
 40
0.8281250000000036
 40
0.8281250000000036
 40
0.8437500000000033
 40
0.8437500000000033
 40
0.8750000000000027
 40
0.8750000000000027
 40
0.8906250000000023
 40
0.8906250000000023
 40
0.9062500000000019
 40
0.9062500000000019
 40
0.9375000000000013
 40
0.9375000000000013
 40
0.9687500000000007
 40
0.9687500000000007
 40
1.0
 40
1.0
 40
1.0
 40
1.0
 10
206.3479117044639
 20
113.8058524825426
 30
0.0
 10
206.6508366035003
 20
114.0522547370229
 30
0.0
 10
206.9723236200703
 20
114.2660361909829
 30
0.0
 10
207.6494440990942
 20
114.6343837420988
 30
0.0
 10
208.0076705824588
 20
114.7897081312631
 30
0.0
 10
208.7476459013774
 20
115.0360943799713
 30
0.0
 10
209.1242486872032
 20
115.1259676085048
 30
0.0
 10
209.6987258296558
 20
115.2129066958875
 30
0.0
 10
209.8918240601017
 20
115.2338532649025
 30
0.0
 10
210.2812950125662
 20
115.2593942721541
 30
0.0
 10
210.478061731811
 20
115.2638983088227
 30
0.0
 10
211.0621949773905
 20
115.252511814591
 30
0.0
 10
211.447017252567
 20
115.212323033792
 30
0.0
 10
212.2075684267286
 20
115.0672895177154
 30
0.0
 10
212.5869565010642
 20
114.9608291601297
 30
0.0
 10
213.3125153061101
 20
114.6866665216206
 30
0.0
 10
213.6595602960657
 20
114.5196422444823
 30
0.0
 10
214.3216635499689
 20
114.1240044055259
 30
0.0
 10
214.6397161599215
 20
113.8922874867829
 30
0.0
 10
215.2170193837197
 20
113.3797008099861
 30
0.0
 10
215.4784355320336
 20
113.0985280809277
 30
0.0
 10
215.9435711119044
 20
112.4828100802836
 30
0.0
 10
216.1481565992813
 20
112.144449782246
 30
0.0
 10
216.472871769267
 20
111.4437176814305
 30
0.0
 10
216.5963118319339
 20
111.0782209331158
 30
0.0
 10
216.7183595976248
 20
110.5052849377843
 30
0.0
 10
216.7482519858033
 20
110.3098859778684
 30
0.0
 10
216.7845606512858
 20
109.9220850231151
 30
0.0
 10
216.7981241765043
 20
109.5344440055307
 30
0.0
 10
216.7667455497487
 20
109.1471191182454
 30
0.0
 10
216.7124500529914
 20
108.7599553042331
 30
0.0
 10
216.6736042525274
 20
108.5662686087105
 30
0.0
 10
216.5260357153213
 20
108.0008133853839
 30
0.0
 10
216.3860952858012
 20
107.6391868667185
 30
0.0
 10
216.0263041319491
 20
106.9452266643137
 30
0.0
 10
215.8099685213086
 20
106.6206709096258
 30
0.0
 10
215.3181527816418
 20
106.0231846754234
 30
0.0
 10
215.0385179243162
 20
105.7462717896606
 30
0.0
 10
214.4385861537647
 20
105.2561625152406
 30
0.0
 10
214.1175275331046
 20
105.0409855729804
 30
0.0
 10
213.6052706304585
 20
104.7610912694091
 30
0.0
 10
213.4288835716077
 20
104.6748671842847
 30
0.0
 10
213.0722508974184
 20
104.5197331139134
 30
0.0
 10
212.8912903824138
 20
104.4503814314527
 30
0.0
 10
212.3406896835461
 20
104.2661849825612
 30
0.0
 10
211.9633947606507
 20
104.1749922513845
 30
0.0
 10
211.1878566172016
 20
104.0568720184091
 30
0.0
 10
210.7993112779606
 20
104.0315396753508
 30
0.0
 10
210.0246840903784
 20
104.0457019032601
 30
0.0
 10
209.6368339050029
 20
104.0853046944036
 30
0.0
 10
208.8669095111729
 20
104.2317993922135
 30
0.0
 10
208.4939422753008
 20
104.3367589621816
 30
0.0
 10
207.7713866488448
 20
104.6089941433414
 30
0.0
 10
207.4198195855255
 20
104.7774219849881
 30
0.0
 10
206.7506423877979
 20
105.1773823348129
 30
0.0
 10
206.4393388281521
 20
105.4046513850483
 30
0.0
 10
206.007611523488
 20
105.7873876563969
 30
0.0
 10
205.8696151193381
 20
105.9219876361746
 30
0.0
 10
205.6060618892226
 20
106.2060565441689
 30
0.0
 10
205.4797950778967
 20
106.3565515592371
 30
0.0
 10
205.1285896267266
 20
106.8222204352505
 30
0.0
 10
204.9295761083088
 20
107.1520743551385
 30
0.0
 10
204.6858066949438
 20
107.6774114547276
 30
0.0
 10
204.6137429643221
 20
107.8576533534282
 30
0.0
 10
204.489315538985
 20
108.2291701852135
 30
0.0
 10
204.4376087083807
 20
108.4189680604036
 30
0.0
 10
204.3168902320704
 20
108.9893085892706
 30
0.0
 10
204.2803956258802
 20
109.3751215211206
 30
0.0
 10
204.2941805878342
 20
109.9625594806345
 30
0.0
 10
204.3104963811845
 20
110.1596783166023
 30
0.0
 10
204.3652337050007
 20
110.5458200005597
 30
0.0
 10
204.4036433418093
 20
110.7362579807229
 30
0.0
 10
204.5511089997805
 20
111.29989958843
 30
0.0
 10
204.6946261536825
 20
111.669281806397
 30
0.0
 10
205.0534482393834
 20
112.3587683683026
 30
0.0
 10
205.2684088551575
 20
112.6814481157821
 30
0.0
 10
205.7665698827476
 20
113.2849086136208
 30
0.0
 10
206.0449868054274
 20
113.5594502280623
 30
0.0
 10
206.3479117044639
 20
113.8058524825426
 30
0.0
  0
LINE
  5
E6
330
1F
100
AcDbEntity
  8
0
  6
Continuous
 62
     7
370
    25
100
AcDbLine
 10
223.088207741
 20
109.649440673
 30
0.0
 11
223.088207741
 21
84.6494403005
 31
0.0
  0
LINE
  5
E7
330
1F
100
AcDbEntity
  8
0
  6
Continuous
 62
     7
370
    25
100
AcDbLine
 10
223.088207741
 20
134.6494410455
 30
0.0
 11
223.088207741
 21
109.649440673
 31
0.0
  0
LINE
  5
E8
330
1F
100
AcDbEntity
  8
0
  6
Continuous
 62
     7
370
    25
100
AcDbLine
 10
223.5882087543
 20
109.649440673
 30
0.0
 11
223.5882087543
 21
85.1494413137
 31
0.0
  0
LINE
  5
E9
330
1F
100
AcDbEntity
  8
0
  6
Continuous
 62
     7
370
    25
100
AcDbLine
 10
223.5882087543
 20
134.1494400322
 30
0.0
 11
223.5882087543
 21
109.649440673
 31
0.0
  0
LINE
  5
EA
330
1F
100
AcDbEntity
  8
0
  6
Continuous
 62
     7
370
    25
100
AcDbLine
 10
68.988210608
 20
91.2705961883
 30
0.0
 11
68.988210608
 21
128.0282851577
 31
0.0
  0
LWPOLYLINE
  5
EB
330
1F
100
AcDbEntity
  8
0
  6
HIDDEN
 62
     7
370
    18
100
AcDbPolyline
 90
       20
 70
   128
 43
0.0
 10
176.112077751
 20
93.7330540538
 10
176.4498768307
 20
93.8808270067
 10
176.7073833316
 20
94.2305675045
 10
176.8566934324
 20
94.7443744436
 10
176.8816258691
 20
95.3665687039
 10
176.7794798061
 20
96.0297271877
 10
176.5613240122
 20
96.6619843885
 10
176.2507991798
 20
97.1948275611
 10
175.8815549246
 20
97.5705137744
 10
175.4936055213
 20
97.7483321249
 10
175.128990405
 20
97.7090126172
 10
174.8272218674
 20
97.4568160519
 10
174.6210009723
 20
97.0190730214
 10
174.5326752707
 20
96.4432185784
 10
174.5718154989
 20
95.7916550606
 10
174.7341808795
 20
95.1349916205
 10
175.002176401
 20
94.5443859592
 10
175.3467606313
 20
94.0838404268
 10
175.7305921919
 20
93.8032608747
 10
176.112077751
 20
93.7330540538
  0
LWPOLYLINE
  5
EC
330
1F
100
AcDbEntity
  8
0
  6
HIDDEN
 62
     7
370
    18
100
AcDbPolyline
 90
       22
 70
   128
 43
0.0
 10
176.4098327539
 20
93.3478702128
 10
176.7852158218
 20
93.4994187474
 10
177.0836669884
 20
93.8549381018
 10
177.2786677747
 20
94.3828396767
 10
177.35289139
 20
95.0362155482
 10
177.2997422076
 20
95.7570117235
 10
177.1239434301
 20
96.4811811492
 10
176.8411156654
 20
97.1443787485
 10
176.4763887904
 20
97.6876769483
 10
176.0621705025
 20
98.0628006428
 10
175.6352662041
 20
98.2364187285
 10
175.2336077324
 20
98.1931047782
 10
174.8928852312
 20
97.9367070168
 10
174.6433722719
 20
97.4900074571
 10
174.5072394542
 20
96.8926972046
 10
174.4965832613
 20
96.1978504702
 10
174.6123503826
 20
95.46720649
 10
174.8442538946
 20
94.7656877607
 10
175.1716887511
 20
94.1556258395
 10
175.5655604347
 20
93.691228357
 10
175.9908721715
 20
93.4137575597
 10
176.4098327539
 20
93.3478702128
  0
LWPOLYLINE
  5
ED
330
1F
100
AcDbEntity
  8
0
  6
HIDDEN
 62
     7
370
    18
100
AcDbPolyline
 90
       22
 70
   128
 43
0.0
 10
179.6807712808
 20
94.1312112182
 10
180.0561548143
 20
94.2827597529
 10
180.3546064466
 20
94.6382791072
 10
180.5496067672
 20
95.1661806822
 10
180.6238303825
 20
95.8195565537
 10
180.5706816658
 20
96.540352729
 10
180.3948824226
 20
97.2645221546
 10
180.1120546579
 20
97.927719754
 10
179.7473273172
 20
98.4710179537
 10
179.333109495
 20
98.8461416483
 10
178.9062051966
 20
99.019759734
 10
178.5045471906
 20
98.9764457837
 10
178.163823758
 20
98.7200480223
 10
177.9143112644
 20
98.2733484626
 10
177.7781784467
 20
97.6760382101
 10
177.7675222538
 20
96.9811914757
 10
177.8832893751
 20
96.2505484268
 10
178.1151928871
 20
95.5490287662
 10
178.4426272779
 20
94.938966845
 10
178.8364994272
 20
94.4745693624
 10
179.261811164
 20
94.1970985651
 10
179.6807712808
 20
94.1312112182
  0
LINE
  5
EE
330
1F
100
AcDbEntity
  8
0
  6
HIDDEN
 62
     7
370
    18
100
AcDbLine
 10
176.2410938672
 20
96.5236550465
 30
0.0
 11
175.4257847487
 21
97.1574209899
 31
0.0
  0
LINE
  5
EF
330
1F
100
AcDbEntity
  8
0
  6
HIDDEN
 62
     7
370
    18
100
AcDbLine
 10
174.8936298236
 20
96.3783463731
 30
0.0
 11
175.4257847487
 21
97.1574209899
 31
0.0
  0
LINE
  5
F0
330
1F
100
AcDbEntity
  8
0
  6
HIDDEN
 62
     7
370
    18
100
AcDbLine
 10
175.1767835512
 20
94.9655058131
 30
0.0
 11
174.8936298236
 21
96.3783463731
 31
0.0
  0
LINE
  5
F1
330
1F
100
AcDbEntity
  8
0
  6
HIDDEN
 62
     7
370
    18
100
AcDbLine
 10
175.1767835512
 20
94.9655058131
 30
0.0
 11
175.9920926697
 21
94.3317398697
 31
0.0
  0
LINE
  5
F2
330
1F
100
AcDbEntity
  8
0
  6
HIDDEN
 62
     7
370
    18
100
AcDbLine
 10
176.5242475949
 20
95.1108144864
 30
0.0
 11
175.9920926697
 21
94.3317398697
 31
0.0
  0
LINE
  5
F3
330
1F
100
AcDbEntity
  8
0
  6
HIDDEN
 62
     7
370
    18
100
AcDbLine
 10
176.5242475949
 20
95.1108144864
 30
0.0
 11
176.2410938672
 21
96.5236550465
 31
0.0
  0
LINE
  5
F4
330
1F
100
AcDbEntity
  8
0
  6
HIDDEN
 62
     7
370
    18
100
AcDbLine
 10
177.8793978437
 20
96.9160044834
 30
0.0
 11
176.2410938672
 21
96.5236550465
 31
0.0
  0
LINE
  5
F5
330
1F
100
AcDbEntity
  8
0
  6
HIDDEN
 62
     7
370
    18
100
AcDbLine
 10
178.1625515714
 20
95.5031639233
 30
0.0
 11
176.5242475949
 21
95.1108144864
 31
0.0
  0
LINE
  5
F6
330
1F
100
AcDbEntity
  8
0
  6
HIDDEN
 62
     7
370
    18
100
AcDbLine
 10
176.5319338001
 20
96.77069581
 30
0.0
 11
177.0640891909
 21
97.5497704267
 31
0.0
  0
LINE
  5
F7
330
1F
100
AcDbEntity
  8
0
  6
HIDDEN
 62
     7
370
    18
100
AcDbLine
 10
176.5319338001
 20
96.77069581
 30
0.0
 11
174.8936298236
 21
96.3783463731
 31
0.0
  0
LINE
  5
F8
330
1F
100
AcDbEntity
  8
0
  6
HIDDEN
 62
     7
370
    18
100
AcDbLine
 10
177.0640891909
 20
97.5497704267
 30
0.0
 11
175.4257847487
 21
97.1574209899
 31
0.0
  0
LINE
  5
F9
330
1F
100
AcDbEntity
  8
0
  6
HIDDEN
 62
     7
370
    18
100
AcDbLine
 10
176.8150875277
 20
95.3578552499
 30
0.0
 11
177.6303966462
 21
94.7240893066
 31
0.0
  0
LINE
  5
FA
330
1F
100
AcDbEntity
  8
0
  6
HIDDEN
 62
     7
370
    18
100
AcDbLine
 10
176.8150875277
 20
95.3578552499
 30
0.0
 11
176.5319338001
 21
96.77069581
 31
0.0
  0
LINE
  5
FB
330
1F
100
AcDbEntity
  8
0
  6
HIDDEN
 62
     7
370
    18
100
AcDbLine
 10
178.1625515714
 20
95.5031639233
 30
0.0
 11
177.6303966462
 21
94.7240893066
 31
0.0
  0
LINE
  5
FC
330
1F
100
AcDbEntity
  8
0
  6
HIDDEN
 62
     7
370
    18
100
AcDbLine
 10
178.1625515714
 20
95.5031639233
 30
0.0
 11
177.8793978437
 21
96.9160044834
 31
0.0
  0
LINE
  5
FD
330
1F
100
AcDbEntity
  8
0
  6
HIDDEN
 62
     7
370
    18
100
AcDbLine
 10
177.8793978437
 20
96.9160044834
 30
0.0
 11
177.0640891909
 21
97.5497704267
 31
0.0
  0
LINE
  5
FE
330
1F
100
AcDbEntity
  8
0
  6
HIDDEN
 62
     7
370
    18
100
AcDbLine
 10
176.8150875277
 20
95.3578552499
 30
0.0
 11
175.1767835512
 21
94.9655058131
 31
0.0
  0
LINE
  5
FF
330
1F
100
AcDbEntity
  8
0
  6
HIDDEN
 62
     7
370
    18
100
AcDbLine
 10
177.6303966462
 20
94.7240893066
 30
0.0
 11
175.9920926697
 21
94.3317398697
 31
0.0
  0
LWPOLYLINE
  5
100
330
1F
100
AcDbEntity
  8
0
  6
HIDDEN
 62
     7
370
    18
100
AcDbPolyline
 90
       19
 70
   128
 43
0.0
 10
180.1480046406
 20
95.0124761358
 10
180.4499021664
 20
95.1505698532
 10
180.6739793091
 20
95.4786179855
 10
180.7932081565
 20
95.9570532933
 10
180.7932081565
 20
96.528169167
 10
180.6739793091
 20
97.1230803326
 10
180.4499021664
 20
97.6700321108
 10
180.1480046406
 20
98.1030533358
 10
179.8046986505
 20
98.369916369
 10
179.4613935917
 20
98.4384328395
 10
179.1594951346
 20
98.3003381908
 10
178.9354179918
 20
97.9722900584
 10
178.8161891445
 20
97.4938547507
 10
178.8161891445
 20
96.9227388769
 10
178.9354179918
 20
96.3278277114
 10
179.1594951346
 20
95.7808759332
 10
179.4613935917
 20
95.3478547081
 10
179.8046986505
 20
95.080991675
 10
180.1480046406
 20
95.0124761358
  0
LWPOLYLINE
  5
101
330
1F
100
AcDbEntity
  8
0
  6
HIDDEN
 62
     7
370
    18
100
AcDbPolyline
 90
       22
 70
   128
 43
0.0
 10
178.5714217394
 20
124.5373873308
 10
178.9801829427
 20
124.941774112
 10
179.4076171636
 20
125.1487959444
 10
179.8157450675
 20
125.1400582761
 10
180.1683018848
 20
124.9163368985
 10
180.4339625805
 20
124.4975118235
 10
180.5891218528
 20
123.9207968384
 10
180.6199924021
 20
123.2374342427
 10
180.5238314837
 20
122.5081453368
 10
180.309183982
 20
121.7977306142
 10
179.9951215207
 20
121.1693132564
 10
179.6095502495
 20
120.6787307084
 10
179.1867298006
 20
120.3695735231
 10
178.7642297267
 20
120.26931106
 10
178.3795907095
 20
120.3868532821
 10
178.0669904246
 20
120.7117554069
 10
177.8542037054
 20
121.2151482969
 10
177.7601382628
 20
121.8523033231
 10
177.793152251
 20
122.5666072488
 10
177.9503120042
 20
123.2945895091
 10
178.2176532715
 20
123.9715669572
 10
178.5714217394
 20
124.5373873308
  0
LWPOLYLINE
  5
102
330
1F
100
AcDbEntity
  8
0
  6
HIDDEN
 62
     7
370
    18
100
AcDbPolyline
 90
       19
 70
   128
 43
0.0
 10
179.371459496
 20
123.845206973
 10
179.7072683393
 20
124.1625337198
 10
180.054828611
 20
124.2881896242
 10
180.3722196191
 20
124.2070211366
 10
180.6211593493
 20
123.9288164571
 10
180.7716219618
 20
123.4871311381
 10
180.8054587736
 20
122.9352405563
 10
180.7185896605
 20
122.3397100612
 10
180.5214920014
 20
121.7723688379
 10
180.2379387363
 20
121.3016467437
 10
179.9021298929
 20
120.9843209282
 10
179.55456869
 20
120.8586640924
 10
179.2371776819
 20
120.9398335114
 10
178.9882379516
 20
121.2180381909
 10
178.8377762705
 20
121.6597225785
 10
178.8039385274
 20
122.2116140917
 10
178.8908076405
 20
122.8071445867
 10
179.0879052996
 20
123.3744858101
 10
179.371459496
 20
123.845206973
  0
LWPOLYLINE
  5
103
330
1F
100
AcDbEntity
  8
0
  6
HIDDEN
 62
     7
370
    18
100
AcDbPolyline
 90
       22
 70
   128
 43
0.0
 10
175.3004822812
 20
125.3207274049
 10
175.7092439502
 20
125.7251151174
 10
176.1366781711
 20
125.9321369499
 10
176.544806075
 20
125.9233992815
 10
176.8973633579
 20
125.6996788353
 10
177.1630240537
 20
125.2808537602
 10
177.3181828603
 20
124.7041378438
 10
177.3490534096
 20
124.0207752481
 10
177.2528924912
 20
123.2914863422
 10
177.0382449895
 20
122.5810716197
 10
176.7241825282
 20
121.9526542619
 10
176.338611257
 20
121.4620717138
 10
175.9157908081
 20
121.1529145285
 10
175.4932907342
 20
121.0526520655
 10
175.108651717
 20
121.1701942876
 10
174.7960514321
 20
121.4950964123
 10
174.5832647129
 20
121.9984893024
 10
174.4891995031
 20
122.6356443286
 10
174.5222132585
 20
123.3499482542
 10
174.6793730117
 20
124.0779305145
 10
174.946714279
 20
124.7549079627
 10
175.3004822812
 20
125.3207274049
  0
LINE
  5
104
330
1F
100
AcDbEntity
  8
0
  6
HIDDEN
 62
     7
370
    18
100
AcDbLine
 10
176.5218294158
 20
122.8635324433
 30
0.0
 11
176.9899130731
 21
124.2108982325
 31
0.0
  0
LINE
  5
105
330
1F
100
AcDbEntity
  8
0
  6
HIDDEN
 62
     7
370
    18
100
AcDbLine
 10
174.8835254393
 20
123.2558818802
 30
0.0
 11
175.351608631
 21
124.6032476693
 31
0.0
  0
LWPOLYLINE
  5
106
330
1F
100
AcDbEntity
  8
0
  6
HIDDEN
 62
     7
370
    18
100
AcDbPolyline
 90
       20
 70
   128
 43
0.0
 10
175.2001918785
 20
125.0477344066
 10
175.5729951828
 20
125.4060793936
 10
175.9605301476
 20
125.5637578934
 10
176.3208011098
 20
125.5036782741
 10
176.6147674925
 20
125.2323551372
 10
176.8105734072
 20
124.7791875422
 10
176.8869996003
 20
124.1932850599
 10
176.8357652172
 20
123.5381387442
 10
176.662421406
 20
122.884743315
 10
176.3857529431
 20
122.3039053649
 10
176.0357409648
 20
121.8585664675
 10
175.6503154456
 20
121.5969868272
 10
175.271242012
 20
121.5475131094
 10
174.9396003715
 20
121.7155060068
 10
174.6913279339
 20
122.0827600256
 10
174.5533296771
 20
122.6094788209
 10
174.5405598476
 20
123.2385834947
 10
174.6544019252
 20
123.9019012347
 10
174.8825191453
 20
124.5275507018
 10
175.2001918785
 20
125.0477344066
  0
LINE
  5
107
330
1F
100
AcDbEntity
  8
0
  6
HIDDEN
 62
     7
370
    18
100
AcDbLine
 10
174.8835254393
 20
123.2558818802
 30
0.0
 11
175.2408552847
 21
122.2069351271
 31
0.0
  0
LINE
  5
108
330
1F
100
AcDbEntity
  8
0
  6
HIDDEN
 62
     7
370
    18
100
AcDbLine
 10
176.5218294158
 20
122.8635324433
 30
0.0
 11
174.8835254393
 21
123.2558818802
 31
0.0
  0
LINE
  5
109
330
1F
100
AcDbEntity
  8
0
  6
HIDDEN
 62
     7
370
    18
100
AcDbLine
 10
176.5218294158
 20
122.8635324433
 30
0.0
 11
176.8791592612
 21
121.8145856902
 31
0.0
  0
LINE
  5
10A
330
1F
100
AcDbEntity
  8
0
  6
HIDDEN
 62
     7
370
    18
100
AcDbLine
 10
176.1770221337
 20
124.901665774
 30
0.0
 11
175.351608631
 21
124.6032476693
 31
0.0
  0
LINE
  5
10B
330
1F
100
AcDbEntity
  8
0
  6
HIDDEN
 62
     7
370
    18
100
AcDbLine
 10
176.9899130731
 20
124.2108982325
 30
0.0
 11
175.351608631
 21
124.6032476693
 31
0.0
  0
LINE
  5
10C
330
1F
100
AcDbEntity
  8
0
  6
HIDDEN
 62
     7
370
    18
100
AcDbLine
 10
177.8153261102
 20
124.5093163371
 30
0.0
 11
176.9899130731
 21
124.2108982325
 31
0.0
  0
LINE
  5
10D
330
1F
100
AcDbEntity
  8
0
  6
HIDDEN
 62
     7
370
    18
100
AcDbLine
 10
177.704572764
 20
122.1130047262
 30
0.0
 11
176.0662687875
 21
122.505354163
 31
0.0
  0
LINE
  5
10E
330
1F
100
AcDbEntity
  8
0
  6
HIDDEN
 62
     7
370
    18
100
AcDbLine
 10
176.8791592612
 20
121.8145856902
 30
0.0
 11
175.2408552847
 21
122.2069351271
 31
0.0
  0
LINE
  5
10F
330
1F
100
AcDbEntity
  8
0
  6
HIDDEN
 62
     7
370
    18
100
AcDbLine
 10
175.2408552847
 20
122.2069351271
 30
0.0
 11
176.0662687875
 21
122.505354163
 31
0.0
  0
LINE
  5
110
330
1F
100
AcDbEntity
  8
0
  6
HIDDEN
 62
     7
370
    18
100
AcDbLine
 10
176.8791592612
 20
121.8145856902
 30
0.0
 11
177.704572764
 21
122.1130047262
 31
0.0
  0
LINE
  5
111
330
1F
100
AcDbEntity
  8
0
  6
HIDDEN
 62
     7
370
    18
100
AcDbLine
 10
178.1726559556
 20
123.460369584
 30
0.0
 11
176.5343519791
 21
123.8527190208
 31
0.0
  0
LINE
  5
112
330
1F
100
AcDbEntity
  8
0
  6
HIDDEN
 62
     7
370
    18
100
AcDbLine
 10
177.8153261102
 20
124.5093163371
 30
0.0
 11
176.1770221337
 21
124.901665774
 31
0.0
  0
LINE
  5
113
330
1F
100
AcDbEntity
  8
0
  6
HIDDEN
 62
     7
370
    18
100
AcDbLine
 10
176.1770221337
 20
124.901665774
 30
0.0
 11
176.5343519791
 21
123.8527190208
 31
0.0
  0
LINE
  5
114
330
1F
100
AcDbEntity
  8
0
  6
HIDDEN
 62
     7
370
    18
100
AcDbLine
 10
177.8153261102
 20
124.5093163371
 30
0.0
 11
178.1726559556
 21
123.460369584
 31
0.0
  0
LINE
  5
115
330
1F
100
AcDbEntity
  8
0
  6
HIDDEN
 62
     7
370
    18
100
AcDbLine
 10
176.5343519791
 20
123.8527190208
 30
0.0
 11
176.0662687875
 21
122.505354163
 31
0.0
  0
LINE
  5
116
330
1F
100
AcDbEntity
  8
0
  6
HIDDEN
 62
     7
370
    18
100
AcDbLine
 10
178.1726559556
 20
123.460369584
 30
0.0
 11
177.704572764
 21
122.1130047262
 31
0.0
  0
ARC
  5
117
330
1F
100
AcDbEntity
  8
0
  6
HIDDEN
 62
     7
370
    18
100
AcDbCircle
 10
184.775695393
 20
94.34524625
 30
0.0
 40
2.477882764334804
100
AcDbArc
 50
343.886164833
 51
185.5726215234
  0
ARC
  5
118
330
1F
100
AcDbEntity
  8
0
  6
HIDDEN
 62
     7
370
    18
100
AcDbCircle
 10
184.7705642338
 20
94.2757192827
 30
0.0
 40
2.356091714360519
100
AcDbArc
 50
350.9251225647
 51
155.375580554
  0
ARC
  5
119
330
1F
100
AcDbEntity
  8
0
  6
HIDDEN
 62
     7
370
    18
100
AcDbCircle
 10
184.7897141189
 20
94.266692742
 30
0.0
 40
2.000807672330856
100
AcDbArc
 50
2.7546716971
 51
127.0727258322
  0
LWPOLYLINE
  5
11A
330
1F
100
AcDbEntity
  8
0
  6
HIDDEN
 62
     7
370
    18
100
AcDbPolyline
 90
       22
 70
   128
 43
0.0
 10
186.1066660776
 20
92.6028717577
 10
185.4220098748
 20
92.3263620853
 10
184.6810375273
 20
92.2517724603
 10
183.9495888844
 20
92.3857301742
 10
183.2926544293
 20
92.7163329244
 10
182.7686066672
 20
93.2142049342
 10
182.424009864
 20
93.8351083815
 10
182.289483112
 20
94.5238745108
 10
182.376978074
 20
95.2193005279
 10
182.6787219315
 20
95.8595959738
 10
183.1679028391
 20
96.3878691465
 10
183.8010550409
 20
96.7571785942
 10
184.5219210654
 20
96.9347110286
 10
185.2664473399
 20
96.9046917081
 10
185.9684801593
 20
96.6697870091
 10
186.5656404688
 20
96.2508706644
 10
187.0048689588
 20
95.6851639122
 10
187.2471357628
 20
95.022933957
 10
187.2709180161
 20
94.3230208278
 10
187.0740997537
 20
93.6476163834
 10
186.6741712138
 20
93.0567313254
 10
186.1066660776
 20
92.6028717577
  0
LWPOLYLINE
  5
11B
330
1F
100
AcDbEntity
  8
0
  6
HIDDEN
 62
     7
370
    18
100
AcDbPolyline
 90
       20
 70
   128
 43
0.0
 10
185.8429741978
 20
94.1838477075
 10
185.2340764298
 20
93.9485378832
 10
184.576862578
 20
93.91176368
 10
183.9425508797
 20
94.0775092959
 10
183.39987946
 20
94.4278141752
 10
183.0076557517
 20
94.9247176096
 10
182.8083815917
 20
95.5143714592
 10
182.8236534193
 20
96.1328786135
 10
183.0518144115
 20
96.7132136494
 10
183.4681416794
 20
97.1924880788
 10
184.0275182321
 20
97.5187657669
 10
184.6693280085
 20
97.656688121
 10
185.3240198388
 20
97.5913111389
 10
185.9206483632
 20
97.3297184601
 10
186.3945602372
 20
96.90025675
 10
186.6943976774
 20
96.3494660601
 10
186.7876714959
 20
95.7370329916
 10
186.6642712548
 20
95.1293235913
 10
186.3375726088
 20
94.5921935409
 10
185.8429741978
 20
94.1838477075
  0
LWPOLYLINE
  5
11C
330
1F
100
AcDbEntity
  8
0
  6
HIDDEN
 62
     7
370
    18
100
AcDbPolyline
 90
       22
 70
   128
 43
0.0
 10
186.1066660776
 20
92.8388651729
 10
185.4220098748
 20
92.5623555005
 10
184.6810375273
 20
92.4877658755
 10
183.9495888844
 20
92.6217235893
 10
183.2926544293
 20
92.9523282021
 10
182.7686066672
 20
93.450200212
 10
182.424009864
 20
94.0711036593
 10
182.289483112
 20
94.7598679259
 10
182.376978074
 20
95.455293943
 10
182.6787219315
 20
96.0955903202
 10
183.1679028391
 20
96.6238625616
 10
183.8010550409
 20
96.9931729406
 10
184.5219210654
 20
97.1707053751
 10
185.2664473399
 20
97.1406851232
 10
185.9684801593
 20
96.9057813555
 10
186.5656404688
 20
96.4868650109
 10
187.0048689588
 20
95.9211582586
 10
187.2471357628
 20
95.2589273721
 10
187.2709180161
 20
94.5590142429
 10
187.0740997537
 20
93.8836097985
 10
186.6741712138
 20
93.2927266031
 10
186.1066660776
 20
92.8388651729
  0
LWPOLYLINE
  5
11D
330
1F
100
AcDbEntity
  8
0
  6
HIDDEN
 62
     7
370
    18
100
AcDbPolyline
 90
       21
 70
   128
 43
0.0
 10
186.0011891394
 20
92.9370694131
 10
185.3379580125
 20
92.6747177064
 10
184.6209132045
 20
92.6177952707
 10
183.9202447727
 20
92.7718770027
 10
183.3045390367
 20
93.1218773395
 10
182.8340646743
 20
93.6335366487
 10
182.5548765182
 20
94.2567693338
 10
182.4943014353
 20
94.930570972
 10
182.6582710191
 20
95.5889834359
 10
183.0307329937
 20
96.1675582722
 10
183.5752298057
 20
96.609658961
 10
184.2384609326
 20
96.8720106676
 10
184.9555057406
 20
96.9289321721
 10
185.6561741724
 20
96.7748513713
 10
186.2718789771
 20
96.4248510346
 10
186.7423533394
 20
95.9131926566
 10
187.0215433582
 20
95.2899590403
 10
187.0821165785
 20
94.6161574021
 10
186.918147926
 20
93.9577449381
 10
186.5456859514
 20
93.3791701019
 10
186.0011891394
 20
92.9370694131
  0
LWPOLYLINE
  5
11E
330
1F
100
AcDbEntity
  8
0
  6
HIDDEN
 62
     7
370
    18
100
AcDbPolyline
 90
       22
 70
   128
 43
0.0
 10
186.1066660776
 20
93.074858588
 10
185.4220098748
 20
92.7983489156
 10
184.6810375273
 20
92.7237592906
 10
183.9495888844
 20
92.8577188671
 10
183.2926544293
 20
93.1883216172
 10
182.7686066672
 20
93.6861936271
 10
182.424009864
 20
94.3070970744
 10
182.289483112
 20
94.9958622724
 10
182.376978074
 20
95.6912882894
 10
182.6787219315
 20
96.3315837353
 10
183.1679028391
 20
96.859856908
 10
183.8010550409
 20
97.2291663557
 10
184.5219210654
 20
97.4066987902
 10
185.2664473399
 20
97.3766794696
 10
185.9684801593
 20
97.1417747706
 10
186.5656404688
 20
96.722858426
 10
187.0048689588
 20
96.1571516737
 10
187.2471357628
 20
95.4949217185
 10
187.2709180161
 20
94.7950085893
 10
187.0740997537
 20
94.119604145
 10
186.6741712138
 20
93.5287200183
 10
186.1066660776
 20
93.074858588
  0
LWPOLYLINE
  5
11F
330
1F
100
AcDbEntity
  8
0
  6
HIDDEN
 62
     7
370
    18
100
AcDbPolyline
 90
       21
 70
   128
 43
0.0
 10
186.0011891394
 20
93.1730628282
 10
185.3379580125
 20
92.9107111216
 10
184.6209132045
 20
92.8537905484
 10
183.9202447727
 20
93.0078704178
 10
183.3045390367
 20
93.3578707546
 10
182.8340646743
 20
93.8695300639
 10
182.5548765182
 20
94.4927636802
 10
182.4943014353
 20
95.1665653184
 10
182.6582710191
 20
95.8249777824
 10
183.0307329937
 20
96.4035516873
 10
183.5752298057
 20
96.8456533074
 10
184.2384609326
 20
97.1080050141
 10
184.9555057406
 20
97.1649265185
 10
185.6561741724
 20
97.0108457178
 10
186.2718789771
 20
96.660845381
 10
186.7423533394
 20
96.1491860717
 10
187.0215433582
 20
95.5259524554
 10
187.0821165785
 20
94.8521508172
 10
186.918147926
 20
94.1937383532
 10
186.5456859514
 20
93.615163517
 10
186.0011891394
 20
93.1730628282
  0
LWPOLYLINE
  5
120
330
1F
100
AcDbEntity
  8
0
  6
HIDDEN
 62
     7
370
    18
100
AcDbPolyline
 90
       22
 70
   128
 43
0.0
 10
186.1066660776
 20
93.3108538657
 10
185.4220098748
 20
93.0343441933
 10
184.6810375273
 20
92.9597545683
 10
183.9495888844
 20
93.0937122822
 10
183.2926544293
 20
93.4243150324
 10
182.7686066672
 20
93.9221870422
 10
182.424009864
 20
94.5430914208
 10
182.289483112
 20
95.2318556875
 10
182.376978074
 20
95.9272817045
 10
182.6787219315
 20
96.5675780818
 10
183.1679028391
 20
97.0958503231
 10
183.8010550409
 20
97.4651607022
 10
184.5219210654
 20
97.6426931366
 10
185.2664473399
 20
97.6126728848
 10
185.9684801593
 20
97.3777691171
 10
186.5656404688
 20
96.9588527724
 10
187.0048689588
 20
96.3931460202
 10
187.2471357628
 20
95.7309151337
 10
187.2709180161
 20
95.0310020044
 10
187.0740997537
 20
94.3555975601
 10
186.6741712138
 20
93.7647134334
 10
186.1066660776
 20
93.3108538657
  0
LWPOLYLINE
  5
121
330
1F
100
AcDbEntity
  8
0
  6
HIDDEN
 62
     7
370
    18
100
AcDbPolyline
 90
       21
 70
   128
 43
0.0
 10
186.0011891394
 20
93.4090562433
 10
185.3379580125
 20
93.1467045367
 10
184.6209132045
 20
93.0897839636
 10
183.9202447727
 20
93.2438638329
 10
183.3045390367
 20
93.5938641697
 10
182.8340646743
 20
94.105523479
 10
182.5548765182
 20
94.7287570953
 10
182.4943014353
 20
95.4025587335
 10
182.6582710191
 20
96.0609721288
 10
183.0307329937
 20
96.6395460337
 10
183.5752298057
 20
97.0816467226
 10
184.2384609326
 20
97.3439984292
 10
184.9555057406
 20
97.4009199336
 10
185.6561741724
 20
97.2468391329
 10
186.2718789771
 20
96.8968397275
 10
186.7423533394
 20
96.3851804182
 10
187.0215433582
 20
95.7619468018
 10
187.0821165785
 20
95.0881451637
 10
186.918147926
 20
94.4297317684
 10
186.5456859514
 20
93.8511587948
 10
186.0011891394
 20
93.4090562433
  0
LWPOLYLINE
  5
122
330
1F
100
AcDbEntity
  8
0
  6
HIDDEN
 62
     7
370
    18
100
AcDbPolyline
 90
       22
 70
   128
 43
0.0
 10
186.1066660776
 20
93.5468472809
 10
185.4220098748
 20
93.2703376085
 10
184.6810375273
 20
93.1957479835
 10
183.9495888844
 20
93.3297056973
 10
183.2926544293
 20
93.6603084475
 10
182.7686066672
 20
94.1581813887
 10
182.424009864
 20
94.7790848359
 10
182.289483112
 20
95.4678500339
 10
182.376978074
 20
96.163276051
 10
182.6787219315
 20
96.8035714969
 10
183.1679028391
 20
97.3318446696
 10
183.8010550409
 20
97.7011541173
 10
184.5219210654
 20
97.8786865517
 10
185.2664473399
 20
97.8486672312
 10
185.9684801593
 20
97.6137625322
 10
186.5656404688
 20
97.1948461875
 10
187.0048689588
 20
96.6291394353
 10
187.2471357628
 20
95.9669094801
 10
187.2709180161
 20
95.2669963509
 10
187.0740997537
 20
94.5915919065
 10
186.6741712138
 20
94.0007068485
 10
186.1066660776
 20
93.5468472809
  0
LWPOLYLINE
  5
123
330
1F
100
AcDbEntity
  8
0
  6
HIDDEN
 62
     7
370
    18
100
AcDbPolyline
 90
       21
 70
   128
 43
0.0
 10
186.0011891394
 20
93.6450515211
 10
185.3379580125
 20
93.3826998144
 10
184.6209132045
 20
93.3257773787
 10
183.9202447727
 20
93.4798591107
 10
183.3045390367
 20
93.8298594475
 10
182.8340646743
 20
94.3415178254
 10
182.5548765182
 20
94.9647514418
 10
182.4943014353
 20
95.63855308
 10
182.6582710191
 20
96.2969655439
 10
183.0307329937
 20
96.8755403802
 10
183.5752298057
 20
97.317641069
 10
184.2384609326
 20
97.5799927756
 10
184.9555057406
 20
97.6369142801
 10
185.6561741724
 20
97.4828334793
 10
186.2718789771
 20
97.1328331426
 10
186.7423533394
 20
96.6211738333
 10
187.0215433582
 20
95.997940217
 10
187.0821165785
 20
95.3241385788
 10
186.918147926
 20
94.6657261148
 10
186.5456859514
 20
94.0871522099
 10
186.0011891394
 20
93.6450515211
  0
LWPOLYLINE
  5
124
330
1F
100
AcDbEntity
  8
0
  6
HIDDEN
 62
     7
370
    18
100
AcDbPolyline
 90
       22
 70
   128
 43
0.0
 10
186.1066660776
 20
94.1453822225
 10
185.4220098748
 20
93.8688725501
 10
184.6810375273
 20
93.7942829251
 10
183.9495888844
 20
93.928240639
 10
183.2926544293
 20
94.2588443205
 10
182.7686066672
 20
94.7567163303
 10
182.424009864
 20
95.3776197776
 10
182.289483112
 20
96.0663849756
 10
182.376978074
 20
96.7618109927
 10
182.6787219315
 20
97.4021073699
 10
183.1679028391
 20
97.9303796112
 10
183.8010550409
 20
98.2996899903
 10
184.5219210654
 20
98.4772224247
 10
185.2664473399
 20
98.4472021729
 10
185.9684801593
 20
98.2122984052
 10
186.5656404688
 20
97.7933811292
 10
187.0048689588
 20
97.2276753083
 10
187.2471357628
 20
96.5654444218
 10
187.2709180161
 20
95.8655312926
 10
187.0740997537
 20
95.1901268482
 10
186.6741712138
 20
94.5992427215
 10
186.1066660776
 20
94.1453822225
  0
LWPOLYLINE
  5
125
330
1F
100
AcDbEntity
  8
0
  6
HIDDEN
 62
     7
370
    18
100
AcDbPolyline
 90
       20
 70
   128
 43
0.0
 10
185.832629998
 20
94.6628436714
 10
185.2297038704
 20
94.4298416644
 10
184.5789357021
 20
94.3934278831
 10
183.9508452385
 20
94.5575483412
 10
183.4134963273
 20
94.9044175714
 10
183.0251180499
 20
95.3964464635
 10
182.8277996674
 20
95.9803177312
 10
182.8429206207
 20
96.5927582502
 10
183.0688445761
 20
97.1674019739
 10
183.4810879945
 20
97.6419760182
 10
184.0349790573
 20
97.9650527507
 10
184.6704940244
 20
98.1016237557
 10
185.3187643855
 20
98.0368875235
 10
185.9095414102
 20
97.7778597072
 10
186.3788059845
 20
97.352610369
 10
186.6757023081
 20
96.8072222814
 10
186.7680615678
 20
96.2007953122
 10
186.645872046
 20
95.5990463763
 10
186.3223771497
 20
95.0671838865
 10
185.832629998
 20
94.6628436714
  0
LWPOLYLINE
  5
126
330
1F
100
AcDbEntity
  8
0
  6
HIDDEN
 62
     7
370
    18
100
AcDbPolyline
 90
       20
 70
   128
 43
0.0
 10
186.7653793588
 20
122.94893938
 10
186.6948726519
 20
123.5579517007
 10
186.417746444
 20
124.1124527797
 10
185.9640368193
 20
124.5523536846
 10
185.3829073652
 20
124.8299837381
 10
184.7373331829
 20
124.9152593583
 10
184.097271499
 20
124.7989371687
 10
183.5320844247
 20
124.493624483
 10
183.1030185267
 20
124.0324056044
 10
182.8565682217
 20
123.4652608901
 10
182.8194410473
 20
122.8536492482
 10
182.9956612482
 20
122.2638491809
 10
183.3661311238
 20
121.7597736314
 10
183.8907060146
 20
121.3960465312
 10
184.5125389218
 20
121.212085177
 10
185.1642449319
 20
121.2278226659
 10
185.7752018541
 20
121.4415556088
 10
186.2792028978
 20
121.8301210821
 10
186.621631582
 20
122.3514121294
 10
186.7653793588
 20
122.94893938
  0
LWPOLYLINE
  5
127
330
1F
100
AcDbEntity
  8
0
  6
HIDDEN
 62
     7
370
    18
100
AcDbPolyline
 90
       22
 70
   128
 43
0.0
 10
187.2841521099
 20
123.0237385526
 10
187.2152305141
 20
123.7210067257
 10
186.9306555882
 20
124.3682069972
 10
186.4557164654
 20
124.9078329921
 10
185.8326123028
 20
125.2919364989
 10
185.1167074337
 20
125.4863892019
 10
184.3716139838
 20
125.473911342
 10
183.6635378122
 20
125.2556121245
 10
183.0553925529
 20
124.8508900672
 10
182.6012163355
 20
124.2957044661
 10
182.3413642987
 20
123.6393865466
 10
182.2989248603
 20
122.9402529344
 10
182.4776689454
 20
122.2604256391
 10
182.8617147102
 20
121.6603093117
 10
183.4169384956
 20
121.1932277575
 10
184.0940053507
 20
120.900682573
 10
184.8327555626
 20
120.8086679026
 10
185.5675476536
 20
120.925358896
 10
186.2330912545
 20
121.24038807
 10
186.7702520385
 20
121.7257635936
 10
187.131297861
 20
122.3383577809
 10
187.2841521099
 20
123.0237385526
  0
LWPOLYLINE
  5
128
330
1F
100
AcDbEntity
  8
0
  6
HIDDEN
 62
     7
370
    18
100
AcDbPolyline
 90
       22
 70
   128
 43
0.0
 10
187.2841521099
 20
123.6222734943
 10
187.2152305141
 20
124.3195416674
 10
186.9306555882
 20
124.9667419389
 10
186.4557164654
 20
125.5063679337
 10
185.8326123028
 20
125.8904714405
 10
185.1167074337
 20
126.0849241435
 10
184.3716139838
 20
126.0724462837
 10
183.6635378122
 20
125.8541479975
 10
183.0553925529
 20
125.4494250089
 10
182.6012163355
 20
124.8942394078
 10
182.3413642987
 20
124.2379214883
 10
182.2989248603
 20
123.5387888074
 10
182.4776689454
 20
122.8589615121
 10
182.8617147102
 20
122.2588451847
 10
183.4169384956
 20
121.7917626992
 10
184.0940053507
 20
121.4992175147
 10
184.8327555626
 20
121.4072028443
 10
185.5675476536
 20
121.5238947689
 10
186.2330912545
 20
121.838923943
 10
186.7702520385
 20
122.3242994666
 10
187.131297861
 20
122.9368927225
 10
187.2841521099
 20
123.6222734943
  0
LWPOLYLINE
  5
129
330
1F
100
AcDbEntity
  8
0
  6
HIDDEN
 62
     7
370
    18
100
AcDbPolyline
 90
       20
 70
   128
 43
0.0
 10
186.7849632099
 20
124.8290002614
 10
186.7137561485
 20
125.4440456897
 10
186.4338881269
 20
126.0040387779
 10
185.9756830081
 20
126.4482964098
 10
185.3887979805
 20
126.7286766589
 10
184.7368293374
 20
126.8147960573
 10
184.0904281407
 20
126.6973227531
 10
183.5196428865
 20
126.388986063
 10
183.0863264322
 20
125.9231981158
 10
182.837436062
 20
125.3504365951
 10
182.7999410152
 20
124.7327666998
 10
182.9779065146
 20
124.137124446
 10
183.3520458012
 20
123.6280560762
 10
183.8818165406
 20
123.2607266203
 10
184.509808284
 20
123.0749426678
 10
185.1679692909
 20
123.0908366188
 10
185.7849779471
 20
123.306686458
 10
186.2939699485
 20
123.6991001561
 10
186.6397905096
 20
124.2255544558
 10
186.7849632099
 20
124.8290002614
  0
LWPOLYLINE
  5
12A
330
1F
100
AcDbEntity
  8
0
  6
HIDDEN
 62
     7
370
    18
100
AcDbPolyline
 90
       20
 70
   128
 43
0.0
 10
186.7849632099
 20
123.411224623
 10
186.7137561485
 20
124.02626912
 10
186.4338881269
 20
124.5862622082
 10
185.9756830081
 20
125.0305198401
 10
185.3887979805
 20
125.3109000891
 10
184.7368293374
 20
125.3970194876
 10
184.0904281407
 20
125.2795461833
 10
183.5196428865
 20
124.9712094933
 10
183.0863264322
 20
124.5054224774
 10
182.837436062
 20
123.9326600254
 10
182.7999410152
 20
123.3149910614
 10
182.9779065146
 20
122.7193488076
 10
183.3520458012
 20
122.2102804378
 10
183.8818165406
 20
121.8429509819
 10
184.509808284
 20
121.6571670294
 10
185.1679692909
 20
121.6730609804
 10
185.7849779471
 20
121.8889098883
 10
186.2939699485
 20
122.2813245177
 10
186.6397905096
 20
122.8077788174
 10
186.7849632099
 20
123.411224623
  0
LWPOLYLINE
  5
12B
330
1F
100
AcDbEntity
  8
0
  6
HIDDEN
 62
     7
370
    18
100
AcDbPolyline
 90
       22
 70
   128
 43
0.0
 10
187.2841521099
 20
123.8582678407
 10
187.2152305141
 20
124.5555360138
 10
186.9306555882
 20
125.2027362853
 10
186.4557164654
 20
125.7423632115
 10
185.8326123028
 20
126.1264667183
 10
185.1167074337
 20
126.3209175587
 10
184.3716139838
 20
126.3084396988
 10
183.6635378122
 20
126.0901414126
 10
183.0553925529
 20
125.685418424
 10
182.6012163355
 20
125.1302328229
 10
182.3413642987
 20
124.4739158347
 10
182.2989248603
 20
123.7747822225
 10
182.4776689454
 20
123.0949549273
 10
182.8617147102
 20
122.4948385999
 10
183.4169384956
 20
122.0277570456
 10
184.0940053507
 20
121.7352118611
 10
184.8327555626
 20
121.6431971908
 10
185.5675476536
 20
121.7598881841
 10
186.2330912545
 20
122.0749173582
 10
186.7702520385
 20
122.5602928817
 10
187.131297861
 20
123.172887069
 10
187.2841521099
 20
123.8582678407
  0
LWPOLYLINE
  5
12C
330
1F
100
AcDbEntity
  8
0
  6
HIDDEN
 62
     7
370
    18
100
AcDbPolyline
 90
       21
 70
   128
 43
0.0
 10
187.0844765499
 20
123.6944509938
 10
187.0125654086
 20
124.3672672927
 10
186.7229185
 20
124.9862717733
 10
186.2438890084
 20
125.4908725887
 10
185.6223680943
 20
125.8316751838
 10
184.9191934734
 20
125.975320515
 10
184.2031973347
 20
125.9077474743
 10
183.544465427
 20
125.6355684519
 10
183.007480663
 20
125.1854276553
 10
182.6448059573
 20
124.6013887495
 10
182.4919423952
 20
123.9406200394
 10
182.5638535365
 20
123.2678037405
 10
182.8534995138
 20
122.64879926
 10
183.3325290054
 20
122.1441975132
 10
183.9540508508
 20
121.8033949181
 10
184.6572254717
 20
121.6597505182
 10
185.3732216104
 20
121.7273244902
 10
186.0319525867
 20
121.9995025814
 10
186.5689373508
 20
122.449643378
 10
186.9316129878
 20
123.0336822838
 10
187.0844765499
 20
123.6944509938
  0
LWPOLYLINE
  5
12D
330
1F
100
AcDbEntity
  8
0
  6
HIDDEN
 62
     7
370
    18
100
AcDbPolyline
 90
       22
 70
   128
 43
0.0
 10
187.2841521099
 20
124.0942612559
 10
187.2152305141
 20
124.791529429
 10
186.9306555882
 20
125.4387297004
 10
186.4557164654
 20
125.9783566266
 10
185.8326123028
 20
126.3624601334
 10
185.1167074337
 20
126.5569109738
 10
184.3716139838
 20
126.5444349766
 10
183.6635378122
 20
126.3261348277
 10
183.0553925529
 20
125.9214118391
 10
182.6012163355
 20
125.366226238
 10
182.3413642987
 20
124.7099092498
 10
182.2989248603
 20
124.0107765689
 10
182.4776689454
 20
123.3309492737
 10
182.8617147102
 20
122.7308329463
 10
183.4169384956
 20
122.2637504607
 10
184.0940053507
 20
121.9712052762
 10
184.8327555626
 20
121.8791906059
 10
185.5675476536
 20
121.9958825305
 10
186.2330912545
 20
122.3109117046
 10
186.7702520385
 20
122.7962872282
 10
187.131297861
 20
123.4088804841
 10
187.2841521099
 20
124.0942612559
  0
LWPOLYLINE
  5
12E
330
1F
100
AcDbEntity
  8
0
  6
HIDDEN
 62
     7
370
    18
100
AcDbPolyline
 90
       21
 70
   128
 43
0.0
 10
187.0844765499
 20
123.9304444089
 10
187.0125654086
 20
124.6032607079
 10
186.7229185
 20
125.2222661197
 10
186.2438890084
 20
125.7268660039
 10
185.6223680943
 20
126.0676704615
 10
184.9191934734
 20
126.2113139301
 10
184.2031973347
 20
126.1437408894
 10
183.544465427
 20
125.871561867
 10
183.007480663
 20
125.4214220017
 10
182.6448059573
 20
124.8373821646
 10
182.4919423952
 20
124.1766143858
 10
182.5638535365
 20
123.5037980869
 10
182.8534995138
 20
122.8847926751
 10
183.3325290054
 20
122.3801918596
 10
183.9540508508
 20
122.0393892646
 10
184.6572254717
 20
121.8957439333
 10
185.3732216104
 20
121.9633179054
 10
186.0319525867
 20
122.2354969278
 10
186.5689373508
 20
122.6856367931
 10
186.9316129878
 20
123.2696766302
 10
187.0844765499
 20
123.9304444089
  0
LWPOLYLINE
  5
12F
330
1F
100
AcDbEntity
  8
0
  6
HIDDEN
 62
     7
370
    18
100
AcDbPolyline
 90
       22
 70
   128
 43
0.0
 10
187.2841521099
 20
124.3302556023
 10
187.2152305141
 20
125.0275237754
 10
186.9306555882
 20
125.6747231156
 10
186.4557164654
 20
126.2143500417
 10
185.8326123028
 20
126.5984535485
 10
185.1167074337
 20
126.7929062515
 10
184.3716139838
 20
126.7804283917
 10
183.6635378122
 20
126.5621301055
 10
183.0553925529
 20
126.1574071169
 10
182.6012163355
 20
125.6022215158
 10
182.3413642987
 20
124.9459035963
 10
182.2989248603
 20
124.2467699841
 10
182.4776689454
 20
123.5669426888
 10
182.8617147102
 20
122.9668263614
 10
183.4169384956
 20
122.4997448072
 10
184.0940053507
 20
122.2071996227
 10
184.8327555626
 20
122.1151849523
 10
185.5675476536
 20
122.2318759456
 10
186.2330912545
 20
122.5469051197
 10
186.7702520385
 20
123.0322806433
 10
187.131297861
 20
123.6448748305
 10
187.2841521099
 20
124.3302556023
  0
LWPOLYLINE
  5
130
330
1F
100
AcDbEntity
  8
0
  6
HIDDEN
 62
     7
370
    18
100
AcDbPolyline
 90
       21
 70
   128
 43
0.0
 10
187.0844765499
 20
124.1664387554
 10
187.0125654086
 20
124.8392550543
 10
186.7229185
 20
125.4582595348
 10
186.2438890084
 20
125.9628612816
 10
185.6223680943
 20
126.3036638766
 10
184.9191934734
 20
126.4473092079
 10
184.2031973347
 20
126.3797343045
 10
183.544465427
 20
126.1075552821
 10
183.007480663
 20
125.6574154168
 10
182.6448059573
 20
125.073376511
 10
182.4919423952
 20
124.412607801
 10
182.5638535365
 20
123.7397915021
 10
182.8534995138
 20
123.1207870215
 10
183.3325290054
 20
122.616186206
 10
183.9540508508
 20
122.2753826797
 10
184.6572254717
 20
122.1317382798
 10
185.3732216104
 20
122.1993122518
 10
186.0319525867
 20
122.4714903429
 10
186.5689373508
 20
122.9216311395
 10
186.9316129878
 20
123.5056700453
 10
187.0844765499
 20
124.1664387554
  0
LWPOLYLINE
  5
131
330
1F
100
AcDbEntity
  8
0
  6
HIDDEN
 62
     7
370
    18
100
AcDbPolyline
 90
       22
 70
   128
 43
0.0
 10
187.2841521099
 20
124.5662490174
 10
187.2152305141
 20
125.2635171905
 10
186.9306555882
 20
125.9107183933
 10
186.4557164654
 20
126.4503434569
 10
185.8326123028
 20
126.8344469637
 10
185.1167074337
 20
127.0288996667
 10
184.3716139838
 20
127.0164218068
 10
183.6635378122
 20
126.7981235206
 10
183.0553925529
 20
126.393400532
 10
182.6012163355
 20
125.8382149309
 10
182.3413642987
 20
125.1818970114
 10
182.2989248603
 20
124.4827643305
 10
182.4776689454
 20
123.8029370353
 10
182.8617147102
 20
123.2028207079
 10
183.4169384956
 20
122.7357391536
 10
184.0940053507
 20
122.4431930378
 10
184.8327555626
 20
122.3511783674
 10
185.5675476536
 20
122.4678702921
 10
186.2330912545
 20
122.7828994662
 10
186.7702520385
 20
123.2682749897
 10
187.131297861
 20
123.8808682457
 10
187.2841521099
 20
124.5662490174
  0
LWPOLYLINE
  5
132
330
1F
100
AcDbEntity
  8
0
  6
HIDDEN
 62
     7
370
    18
100
AcDbPolyline
 90
       21
 70
   128
 43
0.0
 10
187.0844765499
 20
124.4024321705
 10
187.0125654086
 20
125.0752484694
 10
186.7229185
 20
125.6942529499
 10
186.2438890084
 20
126.1988546967
 10
185.6223680943
 20
126.5396572918
 10
184.9191934734
 20
126.683302623
 10
184.2031973347
 20
126.6157277197
 10
183.544465427
 20
126.3435505599
 10
183.007480663
 20
125.8934088319
 10
182.6448059573
 20
125.3093708575
 10
182.4919423952
 20
124.6486021474
 10
182.5638535365
 20
123.9757858485
 10
182.8534995138
 20
123.3567804366
 10
183.3325290054
 20
122.8521796212
 10
183.9540508508
 20
122.5113770261
 10
184.6572254717
 20
122.3677316949
 10
185.3732216104
 20
122.4353056669
 10
186.0319525867
 20
122.7074846894
 10
186.5689373508
 20
123.1576245546
 10
186.9316129878
 20
123.7416643918
 10
187.0844765499
 20
124.4024321705
  0
LWPOLYLINE
  5
133
330
1F
100
AcDbEntity
  8
0
  6
HIDDEN
 62
     7
370
    18
100
AcDbPolyline
 90
       22
 70
   128
 43
0.0
 10
187.2841521099
 20
124.754360345
 10
187.2152305141
 20
125.4516285181
 10
186.9306555882
 20
126.0988287896
 10
186.4557164654
 20
126.6384557158
 10
185.8326123028
 20
127.0225592226
 10
185.1167074337
 20
127.2170100629
 10
184.3716139838
 20
127.2045322031
 10
183.6635378122
 20
126.9862339169
 10
183.0553925529
 20
126.5815109283
 10
182.6012163355
 20
126.0263253272
 10
182.3413642987
 20
125.3700074077
 10
182.2989248603
 20
124.6708756581
 10
182.4776689454
 20
123.9910474315
 10
182.8617147102
 20
123.3909320354
 10
183.4169384956
 20
122.9238495499
 10
184.0940053507
 20
122.6313043654
 10
184.8327555626
 20
122.539289695
 10
185.5675476536
 20
122.6559806883
 10
186.2330912545
 20
122.9710107937
 10
186.7702520385
 20
123.4563863173
 10
187.131297861
 20
124.0689795732
 10
187.2841521099
 20
124.754360345
  0
LWPOLYLINE
  5
134
330
1F
100
AcDbEntity
  8
0
  6
HIDDEN
 62
     7
370
    18
100
AcDbPolyline
 90
       22
 70
   128
 43
0.0
 10
187.1443792179
 20
124.8097349226
 10
187.0793170228
 20
125.4679564655
 10
186.8106788888
 20
126.0789133877
 10
186.3623364761
 20
126.5883207589
 10
185.7741252452
 20
126.9509144396
 10
185.0983119502
 20
127.134478119
 10
184.3949436142
 20
127.1226987511
 10
183.7265194326
 20
126.916625005
 10
183.1524307772
 20
126.5345666826
 10
182.7236880481
 20
126.0104704916
 10
182.4783879265
 20
125.3909062862
 10
182.4383242919
 20
124.7309254751
 10
182.6070594534
 20
124.0891678527
 10
182.969598186
 20
123.5226583004
 10
183.4937297671
 20
123.0817329407
 10
184.1328806176
 20
122.8055706516
 10
184.8302605494
 20
122.7187080577
 10
185.5239040151
 20
122.8288648918
 10
186.1521779492
 20
123.1262529537
 10
186.659257014
 20
123.5844478279
 10
187.0000856861
 20
124.1627358168
 10
187.1443792179
 20
124.8097349226
  0
CIRCLE
  5
135
330
1F
100
AcDbEntity
  8
0
  6
HIDDEN
 62
     7
370
    18
100
AcDbCircle
 10
210.5382093802
 20
109.649440673
 30
0.0
 40
3.68038475772933
  0
CIRCLE
  5
136
330
1F
100
AcDbEntity
  8
0
  6
HIDDEN
 62
     7
370
    18
100
AcDbCircle
 10
210.5382093802
 20
109.649440673
 30
0.0
 40
3.380384757729332
  0
LWPOLYLINE
  5
137
330
1F
100
AcDbEntity
  8
0
  6
HIDDEN
 62
     7
370
    18
100
AcDbPolyline
 90
       22
 70
   128
 43
0.0
 10
184.7882094725
 20
93.7921241194
 10
185.5250970393
 20
93.896493715
 10
186.1965098351
 20
94.2003293231
 10
186.7427873358
 20
94.6766328335
 10
187.1153945967
 20
95.283084017
 10
187.2812184438
 20
95.9657965496
 10
187.2255290791
 20
96.6641087353
 10
186.9532736882
 20
97.3159712076
 10
186.488640581
 20
97.8634640843
 10
185.8729190126
 20
98.2579397306
 10
185.1608148708
 20
98.4643478215
 10
184.4156040742
 20
98.4643478215
 10
183.7034999325
 20
98.2579397306
 10
183.0877774327
 20
97.8634640843
 10
182.6231461882
 20
97.3159712076
 10
182.350889866
 20
96.6641087353
 10
182.29519957
 20
95.9657965496
 10
182.4610252797
 20
95.283084017
 10
182.833630678
 20
94.6766328335
 10
183.37990911
 20
94.2003293231
 10
184.0513219058
 20
93.896493715
 10
184.7882094725
 20
93.7921241194
  0
LWPOLYLINE
  5
138
330
1F
100
AcDbEntity
  8
0
  6
HIDDEN
 62
     7
370
    18
100
AcDbPolyline
 90
       24
 70
   128
 43
0.0
 10
174.0599403556
 20
95.7445804298
 10
174.2537334494
 20
94.9509175762
 10
174.5554526269
 20
94.2161171034
 10
174.9427207678
 20
93.594676283
 10
175.3868154182
 20
93.132682544
 10
175.854800821
 20
92.8644020379
 10
176.3119679808
 20
92.8097315401
 10
176.7244116336
 20
92.9727260292
 10
177.0615420237
 20
93.3412950754
 10
177.298355934
 20
93.8881043613
 10
177.4172900177
 20
94.5726013079
 10
177.4095237187
 20
95.3440185904
 10
177.2756325945
 20
96.1451432005
 10
177.0255473375
 20
96.9165595517
 10
176.6778147712
 20
97.6010564983
 10
176.258225546
 20
98.1478667155
 10
175.7978979431
 20
98.5164357617
 10
175.3309723854
 20
98.6794293195
 10
174.8920791715
 20
98.6247588217
 10
174.5137689568
 20
98.3564783156
 10
174.2240985322
 20
97.8944855079
 10
174.0445521127
 20
97.2730446875
 10
173.9884457483
 20
96.5382432833
 10
174.0599403556
 20
95.7445804298
  0
LWPOLYLINE
  5
139
330
1F
100
AcDbEntity
  8
0
  6
HIDDEN
 62
     7
370
    18
100
AcDbPolyline
 90
       21
 70
   128
 43
0.0
 10
174.8229722425
 20
95.8088426188
 10
174.9858158573
 20
95.1725164697
 10
175.2457102693
 20
94.5984781057
 10
175.5772150054
 20
94.1429188743
 10
175.9478795275
 20
93.8504323631
 10
176.3214218363
 20
93.7496464968
 10
176.6612758792
 20
93.8504323631
 10
176.9341743484
 20
94.1429188743
 10
177.1134050495
 20
94.5984781057
 10
177.1814227968
 20
95.1725164697
 10
177.1315700307
 20
95.8088426188
 10
176.9687259502
 20
96.4451687679
 10
176.7088315382
 20
97.0192062005
 10
176.3773272678
 20
97.4747654319
 10
176.0066622801
 20
97.7672528744
 10
175.6331204369
 20
97.8680368781
 10
175.2932663939
 20
97.7672528744
 10
175.0203674592
 20
97.4747654319
 10
174.841136758
 20
97.0192062005
 10
174.7731190107
 20
96.4451687679
 10
174.8229722425
 20
95.8088426188
  0
ELLIPSE
  5
13A
330
1F
100
AcDbEntity
  8
0
  6
HIDDEN
 62
     7
370
    18
100
AcDbEllipse
 10
184.7882093802
 20
97.9189305616
 30
0.0
 11
1.760776919379055
 21
2.232245799914452
 31
0.0
210
0.0
220
0.0
230
1.0
 40
0.5126701559
 41
1.100887047646267
 42
4.029627027608258
  0
ARC
  5
13B
330
1F
100
AcDbEntity
  8
0
  6
HIDDEN
 62
     7
370
    18
100
AcDbCircle
 10
184.0916099116
 20
99.0964704428
 30
0.0
 40
0.7945949542257955
100
AcDbArc
 50
53.4208190544
 51
99.1663888759
  0
ELLIPSE
  5
13C
330
1F
100
AcDbEntity
  8
0
  6
HIDDEN
 62
     7
370
    18
100
AcDbEllipse
 10
184.7882093802
 20
97.9189305616
 30
0.0
 11
1.760776919379055
 21
-1.388886188042932
 31
0.0
210
0.0
220
0.0
230
1.0
 40
0.8239737799
 41
2.549926265248557
 42
4.885930273856118
  0
ARC
  5
13D
330
1F
100
AcDbEntity
  8
0
  6
HIDDEN
 62
     7
370
    18
100
AcDbCircle
 10
185.0342621421
 20
97.0794529976
 30
0.0
 40
1.353195702694776
100
AcDbArc
 50
217.8001040701
 51
249.7155767561
  0
LWPOLYLINE
  5
13E
330
1F
100
AcDbEntity
  8
0
  6
HIDDEN
 62
     7
370
    18
100
AcDbPolyline
 90
       21
 70
   128
 43
0.0
 10
184.7882094725
 20
94.2177944154
 10
185.437144798
 20
94.314377223
 10
186.0225583359
 20
94.5946717903
 10
186.487144877
 20
95.031240423
 10
186.7854288712
 20
95.5813493848
 10
186.8882096305
 20
96.1911496043
 10
186.7854288712
 20
96.8009488925
 10
186.487144877
 20
97.3510578543
 10
186.0225583359
 20
97.787626487
 10
185.437144798
 20
98.0679210544
 10
184.7882094725
 20
98.164503862
 10
184.1392741471
 20
98.0679210544
 10
183.5538606092
 20
97.787626487
 10
183.0892740681
 20
97.3510578543
 10
182.7909910052
 20
96.8009488925
 10
182.6882093146
 20
96.1911496043
 10
182.7909910052
 20
95.5813493848
 10
183.0892740681
 20
95.031240423
 10
183.5538606092
 20
94.5946717903
 10
184.1392741471
 20
94.314377223
 10
184.7882094725
 20
94.2177944154
  0
SPLINE
  5
13F
330
1F
100
AcDbEntity
  8
0
  6
HIDDEN
 62
     7
370
    18
100
AcDbSpline
210
0.0
220
0.0
230
1.0
 70
    11
 71
     3
 72
    64
 73
    60
 74
     0
 42
0.000000001
 43
0.00000001
 40
0.0
 40
0.0
 40
0.0
 40
0.0
 40
0.03125
 40
0.03125
 40
0.0625000000000001
 40
0.0625000000000001
 40
0.0937500000000001
 40
0.0937500000000001
 40
0.1250000000000002
 40
0.1250000000000002
 40
0.1875000000000003
 40
0.1875000000000003
 40
0.2187500000000004
 40
0.2187500000000004
 40
0.2500000000000004
 40
0.2500000000000004
 40
0.2812500000000004
 40
0.2812500000000004
 40
0.3125000000000005
 40
0.3125000000000005
 40
0.3437500000000005
 40
0.3437500000000005
 40
0.3750000000000006
 40
0.3750000000000006
 40
0.4062500000000006
 40
0.4062500000000006
 40
0.4375000000000007
 40
0.4375000000000007
 40
0.5000000000000008
 40
0.5000000000000008
 40
0.5312500000000008
 40
0.5312500000000008
 40
0.5625000000000009
 40
0.5625000000000009
 40
0.5937500000000009
 40
0.5937500000000009
 40
0.625000000000001
 40
0.625000000000001
 40
0.656250000000001
 40
0.656250000000001
 40
0.687500000000001
 40
0.687500000000001
 40
0.7187500000000011
 40
0.7187500000000011
 40
0.7500000000000011
 40
0.7500000000000011
 40
0.8125000000000011
 40
0.8125000000000011
 40
0.8437500000000011
 40
0.8437500000000011
 40
0.8750000000000011
 40
0.8750000000000011
 40
0.9062500000000009
 40
0.9062500000000009
 40
0.9375000000000006
 40
0.9375000000000006
 40
0.9687500000000003
 40
0.9687500000000003
 40
1.0
 40
1.0
 40
1.0
 40
1.0
 10
184.7882093801545
 20
106.0865201863372
 30
0.0
 10
184.647798325881
 20
106.0865201863372
 30
0.0
 10
184.5100878239959
 20
106.0974390515817
 30
0.0
 10
184.2397223527742
 20
106.1402475954768
 30
0.0
 10
184.1056638604249
 20
106.1727240811176
 30
0.0
 10
183.8523154383762
 20
106.2572764253373
 30
0.0
 10
183.7324048647289
 20
106.3091700146174
 30
0.0
 10
183.5054418396352
 20
106.4331944466078
 30
0.0
 10
183.3993958445869
 20
106.5050750707082
 30
0.0
 10
183.1122526596253
 20
106.7448750510043
 30
0.0
 10
182.9563318677099
 20
106.9427368665883
 30
0.0
 10
182.7981126288803
 20
107.277373976224
 30
0.0
 10
182.7568618607741
 20
107.3975663880995
 30
0.0
 10
182.7021439905056
 20
107.6454270136724
 30
0.0
 10
182.6883669283792
 20
107.7725292900293
 30
0.0
 10
182.6880544928557
 20
108.0333043220986
 30
0.0
 10
182.7020039244132
 20
108.1675479079308
 30
0.0
 10
182.7562734890291
 20
108.4295724327348
 30
0.0
 10
182.7965439063981
 20
108.5592114921985
 30
0.0
 10
182.9032885795609
 20
108.8138604426144
 30
0.0
 10
182.9681387761367
 20
108.9351456210376
 30
0.0
 10
183.1197440324106
 20
109.1658583143385
 30
0.0
 10
183.2075335137927
 20
109.2761736962625
 30
0.0
 10
183.3995659215611
 20
109.4765468600716
 30
0.0
 10
183.5040039823472
 20
109.567355370631
 30
0.0
 10
183.7304953864154
 20
109.7292444768773
 30
0.0
 10
183.852475318828
 20
109.799803214222
 30
0.0
 10
184.2302366912359
 20
109.9703461123964
 30
0.0
 10
184.5092727938625
 20
110.0328678410625
 30
0.0
 10
184.9239316162436
 20
110.0334074325727
 30
0.0
 10
185.0641528103223
 20
110.018339476994
 30
0.0
 10
185.3364009975881
 20
109.9589211360802
 30
0.0
 10
185.4678603203803
 20
109.9151575872641
 30
0.0
 10
185.7219587183249
 20
109.8009490945722
 30
0.0
 10
185.8439714478469
 20
109.7304165182428
 30
0.0
 10
186.0697540756174
 20
109.5694757802529
 30
0.0
 10
186.1754076492465
 20
109.477963070351
 30
0.0
 10
186.3689071278402
 20
109.2762419417246
 30
0.0
 10
186.4550016523218
 20
109.168069870943
 30
0.0
 10
186.6066512296583
 20
108.9379515729615
 30
0.0
 10
186.6727569243123
 20
108.8144368443963
 30
0.0
 10
186.7787556836546
 20
108.5621910121939
 30
0.0
 10
186.8190832640257
 20
108.4334565459488
 30
0.0
 10
186.8739419121791
 20
108.171040286945
 30
0.0
 10
186.8881111690135
 20
108.0366781086438
 30
0.0
 10
186.8884042350118
 20
107.6462338671104
 30
0.0
 10
186.8321614761754
 20
107.3921297401547
 30
0.0
 10
186.6738175540926
 20
107.0559593033012
 30
0.0
 10
186.6078873721496
 20
106.9492313208758
 30
0.0
 10
186.4557630352864
 20
106.7545432701106
 30
0.0
 10
186.3696210321011
 20
106.6659771329286
 30
0.0
 10
186.1768676801215
 20
106.5048868618216
 30
0.0
 10
186.0705817418239
 20
106.4330149157788
 30
0.0
 10
185.8453130700222
 20
106.3098436816047
 30
0.0
 10
185.725411467196
 20
106.2577157686081
 30
0.0
 10
185.4695332978705
 20
106.1723136216714
 30
0.0
 10
185.3379963699021
 20
106.1405391636295
 30
0.0
 10
185.0681730312923
 20
106.0976459762477
 30
0.0
 10
184.928620434428
 20
106.0865201863372
 30
0.0
 10
184.7882093801545
 20
106.0865201863372
 30
0.0
  0
SPLINE
  5
140
330
1F
100
AcDbEntity
  8
0
  6
HIDDEN
 62
     7
370
    18
100
AcDbSpline
210
0.0
220
0.0
230
1.0
 70
     8
 71
     3
 72
     8
 73
     4
 74
     0
 42
0.000000001
 43
0.00000001
 40
0.0
 40
0.0
 40
0.0
 40
0.0
 40
1.0
 40
1.0
 40
1.0
 40
1.0
 10
183.9650292039952
 20
99.88091863751038
 30
0.0
 10
184.1764565939964
 20
99.87340912772788
 30
0.0
 10
184.3789251405291
 20
99.81928559809323
 30
0.0
 10
184.5651357396665
 20
99.73455731086807
 30
0.0
  0
SPLINE
  5
141
330
1F
100
AcDbEntity
  8
0
  6
HIDDEN
 62
     7
370
    18
100
AcDbSpline
210
0.0
220
0.0
230
1.0
 70
     8
 71
     3
 72
     8
 73
     4
 74
     0
 42
0.000000001
 43
0.00000001
 40
0.0
 40
0.0
 40
0.0
 40
0.0
 40
1.0
 40
1.0
 40
1.0
 40
1.0
 10
184.5651357396665
 20
95.81017854293381
 30
0.0
 10
184.378611390382
 20
95.93249895883429
 30
0.0
 10
184.1760564918564
 20
96.073584119499
 30
0.0
 10
183.9650292039952
 20
96.25006775528384
 30
0.0
  0
SPLINE
  5
142
330
1F
100
AcDbEntity
  8
0
  6
HIDDEN
 62
     7
370
    18
100
AcDbSpline
210
0.0
220
0.0
230
1.0
 70
     8
 71
     3
 72
    16
 73
    12
 74
     0
 42
0.000000001
 43
0.00000001
 40
0.0
 40
0.0
 40
0.0
 40
0.0
 40
0.2499999999999987
 40
0.2499999999999987
 40
0.4999999999999973
 40
0.4999999999999973
 40
0.6249999999999948
 40
0.6249999999999948
 40
0.7499999999999922
 40
0.7499999999999922
 40
1.0
 40
1.0
 40
1.0
 40
1.0
 10
223.5882093801545
 20
122.717917130689
 30
0.0
 10
223.5882093801545
 20
122.628396738786
 30
0.0
 10
223.5829818732786
 20
122.5370936306159
 30
0.0
 10
223.5537100375678
 20
122.3480712961038
 30
0.0
 10
223.5299665139716
 20
122.2482260446677
 30
0.0
 10
223.4616574531339
 20
122.1080387596143
 30
0.0
 10
223.4327866114762
 20
122.0636015306794
 30
0.0
 10
223.3663355678819
 20
121.9937132023619
 30
0.0
 10
223.328528551367
 20
121.9683130991606
 30
0.0
 10
223.2183063331617
 20
121.9234907176643
 30
0.0
 10
223.1502960839784
 20
121.929333158629
 30
0.0
 10
223.0882093801376
 20
121.9455382131731
 30
0.0
  0
SPLINE
  5
143
330
1F
100
AcDbEntity
  8
0
  6
HIDDEN
 62
     7
370
    18
100
AcDbSpline
210
0.0
220
0.0
230
1.0
 70
     8
 71
     3
 72
     8
 73
     4
 74
     0
 42
0.000000001
 43
0.00000001
 40
0.0
 40
0.0
 40
0.0
 40
0.0
 40
1.0
 40
1.0
 40
1.0
 40
1.0
 10
223.0882093801376
 20
121.9455382131731
 30
0.0
 10
223.0019659953302
 20
121.8868813690265
 30
0.0
 10
222.8985866869113
 20
121.846808533057
 30
0.0
 10
222.7882093801545
 20
121.846808533057
 30
0.0
  0
SPLINE
  5
144
330
1F
100
AcDbEntity
  8
0
  6
HIDDEN
 62
     7
370
    18
100
AcDbSpline
210
0.0
220
0.0
230
1.0
 70
     8
 71
     3
 72
     8
 73
     4
 74
     0
 42
0.000000001
 43
0.00000001
 40
0.0
 40
0.0
 40
0.0
 40
0.0
 40
1.0
 40
1.0
 40
1.0
 40
1.0
 10
223.0882093801707
 20
97.35334313278233
 30
0.0
 10
223.0019659953559
 20
97.41199997694143
 30
0.0
 10
222.8985866869254
 20
97.45207281292102
 30
0.0
 10
222.7882093801545
 20
97.452072812921
 30
0.0
  0
SPLINE
  5
145
330
1F
100
AcDbEntity
  8
0
  6
HIDDEN
 62
     7
370
    18
100
AcDbSpline
210
0.0
220
0.0
230
1.0
 70
     8
 71
     3
 72
    16
 73
    12
 74
     0
 42
0.000000001
 43
0.00000001
 40
0.0
 40
0.0
 40
0.0
 40
0.0
 40
0.2499999999999976
 40
0.2499999999999976
 40
0.3750000000000017
 40
0.3750000000000017
 40
0.5000000000000058
 40
0.5000000000000058
 40
0.7500000000000028
 40
0.7500000000000028
 40
1.0
 40
1.0
 40
1.0
 40
1.0
 10
223.0882093801607
 20
97.35334313278537
 30
0.0
 10
223.1502825295451
 20
97.3695447271743
 30
0.0
 10
223.2183440869397
 20
97.37537255028604
 30
0.0
 10
223.3284907689116
 20
97.3305896040546
 30
0.0
 10
223.3659195358491
 20
97.30549304847582
 30
0.0
 10
223.4323299509825
 20
97.23588080478207
 30
0.0
 10
223.4613239670888
 20
97.191434709424
 30
0.0
 10
223.5299226594114
 20
97.0509417745669
 30
0.0
 10
223.5534617302244
 20
96.95190276351111
 30
0.0
 10
223.5828622737429
 20
96.76306897674294
 30
0.0
 10
223.5882093801546
 20
96.67055887094811
 30
0.0
 10
223.5882093801546
 20
96.58096539503379
 30
0.0
  0
LINE
  5
146
330
1F
100
AcDbEntity
  8
0
  6
HIDDEN
 62
     7
370
    18
100
AcDbLine
 10
193.0882102742
 20
109.649440673
 30
0.0
 11
193.0882102742
 21
96.1494403228
 31
0.0
  0
LINE
  5
147
330
1F
100
AcDbEntity
  8
0
  6
HIDDEN
 62
     7
370
    18
100
AcDbLine
 10
193.0882102742
 20
123.1494410232
 30
0.0
 11
193.0882102742
 21
109.649440673
 31
0.0
  0
LINE
  5
148
330
1F
100
AcDbEntity
  8
0
  6
HIDDEN
 62
     7
370
    18
100
AcDbLine
 10
197.9542347535
 20
109.649440673
 30
0.0
 11
197.9542347535
 21
95.6494402409
 31
0.0
  0
LINE
  5
149
330
1F
100
AcDbEntity
  8
0
  6
HIDDEN
 62
     7
370
    18
100
AcDbLine
 10
197.9542347535
 20
123.6494411051
 30
0.0
 11
197.9542347535
 21
109.649440673
 31
0.0
  0
LINE
  5
14A
330
1F
100
AcDbEntity
  8
0
  6
HIDDEN
 62
     7
370
    18
100
AcDbLine
 10
209.9882095053
 20
121.84680852
 30
0.0
 11
222.7882101133
 21
121.84680852
 31
0.0
  0
LINE
  5
14B
330
1F
100
AcDbEntity
  8
0
  6
HIDDEN
 62
     7
370
    18
100
AcDbLine
 10
209.9882095053
 20
97.452072826
 30
0.0
 11
222.7882101133
 21
97.452072826
 31
0.0
  0
LINE
  5
14C
330
1F
100
AcDbEntity
  8
0
  6
HIDDEN
 62
     7
370
    18
100
AcDbLine
 10
173.9597822006
 20
74.349439171
 30
0.0
 11
173.7882092993
 21
74.349439171
 31
0.0
  0
ELLIPSE
  5
14D
330
1F
100
AcDbEntity
  8
0
  6
HIDDEN
 62
     7
370
    18
100
AcDbEllipse
 10
173.9597822554
 20
72.349440673
 30
0.0
 11
0.0
 21
2.0
 31
0.0
210
0.0
220
0.0
230
1.0
 40
0.4142135624
 41
4.712388980384702
 42
6.283185307179586
  0
LINE
  5
14E
330
1F
100
AcDbEntity
  8
0
  6
HIDDEN
 62
     7
370
    18
100
AcDbLine
 10
173.7882092993
 20
147.1494421631
 30
0.0
 11
173.9597822006
 21
147.1494421631
 31
0.0
  0
ELLIPSE
  5
14F
330
1F
100
AcDbEntity
  8
0
  6
HIDDEN
 62
     7
370
    18
100
AcDbEllipse
 10
173.9597822554
 20
149.149440673
 30
0.0
 11
0.0
 21
2.0
 31
0.0
210
0.0
220
0.0
230
1.0
 40
0.4142135624
 41
3.141592653589793
 42
4.712388980384695
  0
LINE
  5
150
330
1F
100
AcDbEntity
  8
0
  6
HIDDEN
 62
     7
370
    18
100
AcDbLine
 10
174.7882092304
 20
63.4635262459
 30
0.0
 11
174.0038693815
 21
63.0159847707
 31
0.0
  0
LINE
  5
151
330
1F
100
AcDbEntity
  8
0
  6
HIDDEN
 62
     7
370
    18
100
AcDbLine
 10
174.0780783284
 20
156.3596040279
 30
0.0
 11
174.7882092304
 21
155.64947429
 31
0.0
  0
LINE
  5
152
330
1F
100
AcDbEntity
  8
0
  6
HIDDEN
 62
     7
370
    18
100
AcDbLine
 10
189.6382096156
 20
74.349439171
 30
0.0
 11
173.9597822006
 21
74.349439171
 31
0.0
  0
LINE
  5
153
330
1F
100
AcDbEntity
  8
0
  6
HIDDEN
 62
     7
370
    18
100
AcDbLine
 10
174.7882092304
 20
155.64947429
 30
0.0
 11
179.0115387111
 21
155.64947429
 31
0.0
  0
LINE
  5
154
330
1F
100
AcDbEntity
  8
0
  6
HIDDEN
 62
     7
370
    18
100
AcDbLine
 10
184.3648805215
 20
155.64947429
 30
0.0
 11
189.6382096156
 21
155.64947429
 31
0.0
  0
LINE
  5
155
330
1F
100
AcDbEntity
  8
0
  6
HIDDEN
 62
     7
370
    18
100
AcDbLine
 10
174.7882092304
 20
155.64947429
 30
0.0
 11
174.7882092304
 21
149.1494424909
 31
0.0
  0
LINE
  5
156
330
1F
100
AcDbEntity
  8
0
  6
HIDDEN
 62
     7
370
    18
100
AcDbLine
 10
178.9081619054
 20
63.4635262459
 30
0.0
 11
174.7882092304
 21
63.4635262459
 31
0.0
  0
LINE
  5
157
330
1F
100
AcDbEntity
  8
0
  6
HIDDEN
 62
     7
370
    18
100
AcDbLine
 10
189.6382096156
 20
63.4635262459
 30
0.0
 11
184.4682573273
 21
63.4635262459
 31
0.0
  0
LINE
  5
158
330
1F
100
AcDbEntity
  8
0
  6
HIDDEN
 62
     7
370
    18
100
AcDbLine
 10
174.7882092304
 20
63.4635262459
 30
0.0
 11
174.7882092304
 21
72.3494388431
 31
0.0
  0
LINE
  5
159
330
1F
100
AcDbEntity
  8
0
  6
HIDDEN
 62
     7
370
    18
100
AcDbLine
 10
173.9597822006
 20
147.1494421631
 30
0.0
 11
189.6382096156
 21
147.1494421631
 31
0.0
  0
LINE
  5
15A
330
1F
100
AcDbEntity
  8
0
  6
HIDDEN
 62
     7
370
    18
100
AcDbLine
 10
78.9882085218
 20
97.1494404867
 30
0.0
 11
78.9882085218
 21
122.1494408593
 31
0.0
  0
LINE
  5
15B
330
1F
100
AcDbEntity
  8
0
  6
HIDDEN
 62
     7
370
    18
100
AcDbLine
 10
82.2728118792
 20
99.1494408146
 30
0.0
 11
82.2728118792
 21
120.1494405314
 31
0.0
  0
LINE
  5
15C
330
1F
100
AcDbEntity
  8
0
  6
HIDDEN
 62
     7
370
    18
100
AcDbLine
 10
130.9882095947
 20
99.1494408146
 30
0.0
 11
130.9882095947
 21
120.1494405314
 31
0.0
  0
LINE
  5
15D
330
1F
100
AcDbEntity
  8
0
  6
HIDDEN
 62
     7
370
    18
100
AcDbLine
 10
134.2328554883
 20
104.549440489
 30
0.0
 11
134.2328554883
 21
114.749440857
 31
0.0
  0
LINE
  5
15E
330
1F
100
AcDbEntity
  8
0
  6
HIDDEN
 62
     7
370
    18
100
AcDbLine
 10
223.088207741
 20
91.8494411081
 30
0.0
 11
223.088207741
 21
97.3533433199
 31
0.0
  0
SPLINE
  5
15F
330
1F
100
AcDbEntity
  8
0
  6
HIDDEN
 62
     7
370
    18
100
AcDbSpline
210
0.0
220
0.0
230
1.0
 70
     8
 71
     3
 72
    11
 73
     7
 74
     0
 42
0.000000001
 43
0.00000001
 40
0.0
 40
0.0
 40
0.0
 40
0.0
 40
0.2411047238629795
 40
0.5671655295584845
 40
0.893331237699257
 40
1.0
 40
1.0
 40
1.0
 40
1.0
 10
223.0314417674588
 20
89.79599962830076
 30
0.0
 10
223.027528759917
 20
89.80809497401943
 30
0.0
 10
223.0183239506578
 20
89.83654760261088
 30
0.0
 10
223.0476320480061
 20
90.43053121977562
 30
0.0
 10
223.084234547618
 20
91.18973266084413
 30
0.0
 10
223.0874221746065
 20
91.71900577560127
 30
0.0
 10
223.0882077410268
 20
91.8494411081029
 30
0.0
  0
LINE
  5
160
330
1F
100
AcDbEntity
  8
0
  6
HIDDEN
 62
     7
370
    18
100
AcDbLine
 10
209.9882095053
 20
127.4494402379
 30
0.0
 11
209.9882095053
 21
121.84680852
 31
0.0
  0
LINE
  5
161
330
1F
100
AcDbEntity
  8
0
  6
HIDDEN
 62
     7
370
    18
100
AcDbLine
 10
209.9882095053
 20
91.8494411081
 30
0.0
 11
209.9882095053
 21
97.452072826
 31
0.0
  0
SPLINE
  5
162
330
1F
100
AcDbEntity
  8
0
  6
HIDDEN
 62
     7
370
    18
100
AcDbSpline
210
0.0
220
0.0
230
1.0
 70
    11
 71
     3
 72
    64
 73
    60
 74
     0
 42
0.000000001
 43
0.00000001
 40
0.0
 40
0.0
 40
0.0
 40
0.0
 40
0.03125
 40
0.03125
 40
0.0625
 40
0.0625
 40
0.09375
 40
0.09375
 40
0.125
 40
0.125
 40
0.1875
 40
0.1875
 40
0.21875
 40
0.21875
 40
0.25
 40
0.25
 40
0.2812499999999999
 40
0.2812499999999999
 40
0.3124999999999999
 40
0.3124999999999999
 40
0.3437499999999998
 40
0.3437499999999998
 40
0.3749999999999998
 40
0.3749999999999998
 40
0.4062499999999997
 40
0.4062499999999997
 40
0.4374999999999997
 40
0.4374999999999997
 40
0.5
 40
0.5
 40
0.53125
 40
0.53125
 40
0.5625
 40
0.5625
 40
0.59375
 40
0.59375
 40
0.625
 40
0.625
 40
0.65625
 40
0.65625
 40
0.6875
 40
0.6875
 40
0.71875
 40
0.71875
 40
0.75
 40
0.75
 40
0.8125
 40
0.8125
 40
0.84375
 40
0.84375
 40
0.875
 40
0.875
 40
0.90625
 40
0.90625
 40
0.9375
 40
0.9375
 40
0.96875
 40
0.96875
 40
1.0
 40
1.0
 40
1.0
 40
1.0
 10
184.7882093801545
 20
109.2656521523399
 30
0.0
 10
184.928620434428
 20
109.2656521523399
 30
0.0
 10
185.0663309363132
 20
109.2809261397959
 30
0.0
 10
185.3366964075349
 20
109.3401166271947
 30
0.0
 10
185.4707548998841
 20
109.3848227270833
 30
0.0
 10
185.7241033219328
 20
109.4991022807263
 30
0.0
 10
185.8440138955802
 20
109.5684344021069
 30
0.0
 10
186.0709769206738
 20
109.7303382474069
 30
0.0
 10
186.1770229157222
 20
109.8225287109959
 30
0.0
 10
186.4641661006838
 20
110.1220934552777
 30
0.0
 10
186.6200868925991
 20
110.3592627821222
 30
0.0
 10
186.7783061314287
 20
110.7355420216098
 30
0.0
 10
186.8195568995349
 20
110.8670566873765
 30
0.0
 10
186.8742747698035
 20
111.1300764177967
 30
0.0
 10
186.8880518319299
 20
111.2610903763668
 30
0.0
 10
186.8883642674534
 20
111.521953410119
 30
0.0
 10
186.8744148358958
 20
111.6522372353536
 30
0.0
 10
186.82014527128
 20
111.8992246309342
 30
0.0
 10
186.779874853911
 20
112.0177982465608
 30
0.0
 10
186.6731301807482
 20
112.2443412266311
 30
0.0
 10
186.6082799841724
 20
112.3490220688814
 30
0.0
 10
186.4566747278985
 20
112.543295714235
 30
0.0
 10
186.3688852465164
 20
112.6335623581374
 30
0.0
 10
186.176852838748
 20
112.793963493217
 30
0.0
 10
186.0724147779618
 20
112.8647647727368
 30
0.0
 10
185.8459233738937
 20
112.9888022988065
 30
0.0
 10
185.7239434414811
 20
113.0416208583451
 30
0.0
 10
185.3461820690731
 20
113.1678067009594
 30
0.0
 10
185.0671459664466
 20
113.2121018762927
 30
0.0
 10
184.6524871440655
 20
113.2124890524273
 30
0.0
 10
184.5122659499868
 20
113.2017191882498
 30
0.0
 10
184.2400177627209
 20
113.158747891133
 30
0.0
 10
184.1085584399288
 20
113.1269620947773
 30
0.0
 10
183.8544600419842
 20
113.0424786979886
 30
0.0
 10
183.7324473124622
 20
112.9896834359174
 30
0.0
 10
183.5066646846916
 20
112.8664059312185
 30
0.0
 10
183.4010111110626
 20
112.7950876758471
 30
0.0
 10
183.2075116324689
 20
112.6336264305049
 30
0.0
 10
183.1214171079873
 20
112.5451204261601
 30
0.0
 10
182.9697675306508
 20
112.3514215840787
 30
0.0
 10
182.9036618359968
 20
112.2448239586504
 30
0.0
 10
182.7976630766545
 20
112.0204785434396
 30
0.0
 10
182.7573354962833
 20
111.9028168821818
 30
0.0
 10
182.7024768481299
 20
111.6555962405753
 30
0.0
 10
182.6883075912955
 20
111.5252559080632
 30
0.0
 10
182.6880145252972
 20
111.1348942125507
 30
0.0
 10
182.7442572841337
 20
110.8644847874976
 30
0.0
 10
182.9026012062165
 20
110.4866204854638
 30
0.0
 10
182.9685313881594
 20
110.3630074364354
 30
0.0
 10
183.1206557250226
 20
110.1317675578103
 30
0.0
 10
183.206797728208
 20
110.0235235609482
 30
0.0
 10
183.3995510801876
 20
109.8223019916317
 30
0.0
 10
183.5058370184852
 20
109.7300996100233
 30
0.0
 10
183.7311056902869
 20
109.5693180770873
 30
0.0
 10
183.851007293113
 20
109.4996958974283
 30
0.0
 10
184.1068854624386
 20
109.3842681492172
 30
0.0
 10
184.238422390407
 20
109.3405179693993
 30
0.0
 10
184.5082457290168
 20
109.2812140324575
 30
0.0
 10
184.647798325881
 20
109.2656521523399
 30
0.0
 10
184.7882093801545
 20
109.2656521523399
 30
0.0
  0
LINE
  5
163
330
1F
100
AcDbEntity
  8
0
  6
HIDDEN
 62
     7
370
    18
100
AcDbLine
 10
209.9882095053
 20
89.7494409502
 30
0.0
 11
209.9882095053
 21
91.8494411081
 31
0.0
  0
LINE
  5
164
330
1F
100
AcDbEntity
  8
0
  6
HIDDEN
 62
     7
370
    18
100
AcDbLine
 10
209.9882095053
 20
129.5494403958
 30
0.0
 11
209.9882095053
 21
127.4494402379
 31
0.0
  0
ELLIPSE
  5
165
330
1F
100
AcDbEntity
  8
0
  6
HIDDEN
 62
     7
370
    18
100
AcDbEllipse
 10
184.7882093802
 20
121.3799507843
 30
0.0
 11
-1.760776919379083
 21
2.232245799914466
 31
0.0
210
0.0
220
0.0
230
1.0
 40
0.5126701559
 41
5.395150933160683
 42
8.323890913122774
  0
SPLINE
  5
166
330
1F
100
AcDbEntity
  8
0
  6
HIDDEN
 62
     7
370
    18
100
AcDbSpline
210
0.0
220
0.0
230
1.0
 70
     8
 71
     3
 72
     8
 73
     4
 74
     0
 42
0.000000001
 43
0.00000001
 40
0.0
 40
0.0
 40
0.0
 40
0.0
 40
1.0
 40
1.0
 40
1.0
 40
1.0
 10
184.5651357396673
 20
123.4887028030447
 30
0.0
 10
184.3786113903827
 20
123.3663823871441
 30
0.0
 10
184.1760564918568
 20
123.2252972264792
 30
0.0
 10
183.9650292039952
 20
123.0488135906942
 30
0.0
  0
ELLIPSE
  5
167
330
1F
100
AcDbEntity
  8
0
  6
HIDDEN
 62
     7
370
    18
100
AcDbEllipse
 10
184.7882093802
 20
121.3799507843
 30
0.0
 11
1.760776919379055
 21
1.388886188042946
 31
0.0
210
0.0
220
0.0
230
1.0
 40
0.8239737799
 41
1.397255033323468
 42
3.733259041931015
  0
SPLINE
  5
168
330
1F
100
AcDbEntity
  8
0
  6
HIDDEN
 62
     7
370
    18
100
AcDbSpline
210
0.0
220
0.0
230
1.0
 70
     8
 71
     3
 72
     8
 73
     4
 74
     0
 42
0.000000001
 43
0.00000001
 40
0.0
 40
0.0
 40
0.0
 40
0.0
 40
1.0
 40
1.0
 40
1.0
 40
1.0
 10
183.965029203995
 20
119.4179627084676
 30
0.0
 10
184.176456593996
 20
119.4254722182501
 30
0.0
 10
184.3789251405285
 20
119.4795957478846
 30
0.0
 10
184.5651357396657
 20
119.5643240351096
 30
0.0
  0
LWPOLYLINE
  5
169
330
1F
100
AcDbEntity
  8
0
  6
HIDDEN
 62
     7
370
    18
100
AcDbPolyline
 90
       21
 70
   128
 43
0.0
 10
184.7882094725
 20
121.134377484
 10
185.437144798
 20
121.2309602916
 10
186.0225583359
 20
121.511254859
 10
186.487144877
 20
121.9478234917
 10
186.7854288712
 20
122.4979324534
 10
186.8882096305
 20
123.1077317417
 10
186.7854288712
 20
123.7175319612
 10
186.487144877
 20
124.267640923
 10
186.0225583359
 20
124.7042095557
 10
185.437144798
 20
124.984504123
 10
184.7882094725
 20
125.0810869306
 10
184.1392741471
 20
124.984504123
 10
183.5538606092
 20
124.7042095557
 10
183.0892740681
 20
124.267640923
 10
182.7909910052
 20
123.7175319612
 10
182.6882093146
 20
123.1077317417
 10
182.7909910052
 20
122.4979324534
 10
183.0892740681
 20
121.9478234917
 10
183.5538606092
 20
121.511254859
 10
184.1392741471
 20
121.2309602916
 10
184.7882094725
 20
121.134377484
  0
LINE
  5
16A
330
1F
100
AcDbEntity
  8
0
  6
HIDDEN
 62
     7
370
    18
100
AcDbLine
 10
179.7782090425
 20
145.0424850255
 30
0.0
 11
179.7782090425
 21
139.4994411886
 31
0.0
  0
LINE
  5
16B
330
1F
100
AcDbEntity
  8
0
  6
HIDDEN
 62
     7
370
    18
100
AcDbLine
 10
183.5982092589
 20
145.0424850255
 30
0.0
 11
183.5982092589
 21
139.4994411886
 31
0.0
  0
SPLINE
  5
16C
330
1F
100
AcDbEntity
  8
0
  6
HIDDEN
 62
     7
370
    18
100
AcDbSpline
210
0.0
220
0.0
230
1.0
 70
     8
 71
     3
 72
    14
 73
    10
 74
     0
 42
0.000000001
 43
0.00000001
 40
0.0
 40
0.0
 40
0.0
 40
0.0
 40
0.25
 40
0.25
 40
0.5
 40
0.5
 40
0.75
 40
0.75
 40
1.0
 40
1.0
 40
1.0
 40
1.0
 10
182.7982093801543
 20
126.6247302299228
 30
0.0
 10
182.872634932289
 20
126.7155876847044
 30
0.0
 10
182.9545131919024
 20
126.8047982679102
 30
0.0
 10
183.127499338078
 20
126.9802225867021
 30
0.0
 10
183.218171157939
 20
127.0657575423288
 30
0.0
 10
183.3855347072834
 20
127.2266091552673
 30
0.0
 10
183.4619855322499
 20
127.3023412441638
 30
0.0
 10
183.5682786170883
 20
127.4339322677392
 30
0.0
 10
183.5982093801546
 20
127.4909324426455
 30
0.0
 10
183.5982093801545
 20
127.5331297155976
 30
0.0
  0
SPLINE
  5
16D
330
1F
100
AcDbEntity
  8
0
  6
HIDDEN
 62
     7
370
    18
100
AcDbSpline
210
0.0
220
0.0
230
1.0
 70
     8
 71
     3
 72
    14
 73
    10
 74
     0
 42
0.000000001
 43
0.00000001
 40
0.0
 40
0.0
 40
0.0
 40
0.0
 40
0.25
 40
0.25
 40
0.5
 40
0.5
 40
0.75
 40
0.75
 40
1.0
 40
1.0
 40
1.0
 40
1.0
 10
183.5982093801545
 20
123.4010885169661
 30
0.0
 10
183.5982093801545
 20
123.3585880993115
 30
0.0
 10
183.5684959213378
 20
123.3313161928289
 30
0.0
 10
183.4624145544456
 20
123.3177634188617
 30
0.0
 10
183.3860476252811
 20
123.3322089760027
 30
0.0
 10
183.2172880807526
 20
123.4045851400225
 30
0.0
 10
183.1264912682807
 20
123.46165807514
 30
0.0
 10
182.9549263280734
 20
123.6028160086569
 30
0.0
 10
182.8728650877789
 20
123.6873932237404
 30
0.0
 10
182.7982093801543
 20
123.7807663868697
 30
0.0
  0
LINE
  5
16E
330
1F
100
AcDbEntity
  8
0
  6
HIDDEN
 62
     7
370
    18
100
AcDbLine
 10
183.5982092589
 20
95.8521789208
 30
0.0
 11
183.5982092589
 21
91.7201381445
 31
0.0
  0
LINE
  5
16F
330
1F
100
AcDbEntity
  8
0
  6
HIDDEN
 62
     7
370
    18
100
AcDbLine
 10
178.4550483271
 20
148.1605194777
 30
0.0
 11
178.4550483271
 21
139.4994411886
 31
0.0
  0
LINE
  5
170
330
1F
100
AcDbEntity
  8
0
  6
HIDDEN
 62
     7
370
    18
100
AcDbLine
 10
184.9213709056
 20
95.3522933915
 30
0.0
 11
184.9213709056
 21
90.6604998082
 31
0.0
  0
LINE
  5
171
330
1F
100
AcDbEntity
  8
0
  6
HIDDEN
 62
     7
370
    18
100
AcDbLine
 10
184.9213709056
 20
148.1605194777
 30
0.0
 11
184.9213709056
 21
139.4994411886
 31
0.0
  0
ARC
  5
172
330
1F
100
AcDbEntity
  8
0
  6
HIDDEN
 62
     7
370
    18
100
AcDbCircle
 10
185.0342621421
 20
122.2194283483
 30
0.0
 40
1.353195702694776
100
AcDbArc
 50
110.2844232439
 51
142.1998959299
  0
ARC
  5
173
330
1F
100
AcDbEntity
  8
0
  6
HIDDEN
 62
     7
370
    18
100
AcDbCircle
 10
184.0916099116
 20
120.2024109032
 30
0.0
 40
0.7945949542257933
100
AcDbArc
 50
260.8336111241
 51
306.5791809456
  0
LWPOLYLINE
  5
174
330
1F
100
AcDbEntity
  8
0
  6
HIDDEN
 62
     7
370
    18
100
AcDbPolyline
 90
       21
 70
   128
 43
0.0
 10
174.8229722425
 20
122.3623924226
 10
174.9858158573
 20
121.885150139
 10
175.2457102693
 20
121.56500521
 10
175.5772150054
 20
121.4332966402
 10
175.9478795275
 20
121.5029157966
 10
176.3214218363
 20
121.7670491233
 10
176.6612758792
 20
122.1998403117
 10
176.9341743484
 20
122.7589253604
 10
177.1134050495
 20
123.3895760298
 10
177.1814227968
 20
124.0300614655
 10
177.1315700307
 20
124.6176859632
 10
176.9687259502
 20
125.0949282467
 10
176.7088315382
 20
125.4150722444
 10
176.3773272678
 20
125.5467817455
 10
176.0066622801
 20
125.4771616578
 10
175.6331204369
 20
125.2130292624
 10
175.2932663939
 20
124.7802380741
 10
175.0203674592
 20
124.2211530253
 10
174.841136758
 20
123.5905014247
 10
174.7731190107
 20
122.9500159889
 10
174.8229722425
 20
122.3623924226
  0
LWPOLYLINE
  5
175
330
1F
100
AcDbEntity
  8
0
  6
HIDDEN
 62
     7
370
    18
100
AcDbPolyline
 90
       24
 70
   128
 43
0.0
 10
174.0599403556
 20
121.9433764264
 10
174.2537334494
 20
121.3390318945
 10
174.5554526269
 20
120.8989838406
 10
174.9427207678
 20
120.6558686018
 10
175.3868154182
 20
120.627716583
 10
175.854800821
 20
120.8166167408
 10
176.3119679808
 20
121.2085573271
 10
176.7244116336
 20
121.7744717643
 10
177.0615420237
 20
122.4723872065
 10
177.298355934
 20
123.2505435392
 10
177.4172900177
 20
124.051228565
 10
177.4095237187
 20
124.8150583625
 10
177.2756325945
 20
125.4853833735
 10
177.0255473375
 20
126.012489599
 10
176.6778147712
 20
126.3572819799
 10
176.258225546
 20
126.4941901237
 10
175.7978979431
 20
126.4130607516
 10
175.3309723854
 20
126.1199102074
 10
174.8920791715
 20
125.636481148
 10
174.5137689568
 20
124.9986248359
 10
174.2240985322
 20
124.2536496639
 10
174.0445521127
 20
123.4568072751
 10
173.9884457483
 20
122.6671956748
 10
174.0599403556
 20
121.9433764264
  0
LWPOLYLINE
  5
176
330
1F
100
AcDbEntity
  8
0
  6
HIDDEN
 62
     7
370
    18
100
AcDbPolyline
 90
       22
 70
   128
 43
0.0
 10
184.7882094725
 20
120.8082944423
 10
185.5250970393
 20
120.9126640379
 10
186.1965098351
 20
121.216499646
 10
186.7427873358
 20
121.6928040877
 10
187.1153945967
 20
122.2992552713
 10
187.2812184438
 20
122.9819678038
 10
187.2255290791
 20
123.6802790582
 10
186.9532736882
 20
124.3321424618
 10
186.488640581
 20
124.8796344072
 10
185.8729190126
 20
125.2741109848
 10
185.1608148708
 20
125.4805181444
 10
184.4156040742
 20
125.4805181444
 10
183.7034999325
 20
125.2741109848
 10
183.0877774327
 20
124.8796344072
 10
182.6231461882
 20
124.3321424618
 10
182.350889866
 20
123.6802790582
 10
182.29519957
 20
122.9819678038
 10
182.4610252797
 20
122.2992552713
 10
182.833630678
 20
121.6928040877
 10
183.37990911
 20
121.216499646
 10
184.0513219058
 20
120.9126640379
 10
184.7882094725
 20
120.8082944423
  0
SPLINE
  5
177
330
1F
100
AcDbEntity
  8
0
  6
HIDDEN
 62
     7
370
    18
100
AcDbSpline
210
0.0
220
0.0
230
1.0
 70
     8
 71
     3
 72
    34
 73
    30
 74
     0
 42
0.000000001
 43
0.00000001
 40
0.0
 40
0.0
 40
0.0
 40
0.0
 40
0.062499999999999
 40
0.062499999999999
 40
0.124999999999998
 40
0.124999999999998
 40
0.1874999999999971
 40
0.1874999999999971
 40
0.2499999999999966
 40
0.2499999999999966
 40
0.3124999999999962
 40
0.3124999999999962
 40
0.3749999999999957
 40
0.3749999999999957
 40
0.4999999999999958
 40
0.4999999999999958
 40
0.6249999999999958
 40
0.6249999999999958
 40
0.6874999999999964
 40
0.6874999999999964
 40
0.7499999999999971
 40
0.7499999999999971
 40
0.8124999999999979
 40
0.8124999999999979
 40
0.8749999999999986
 40
0.8749999999999986
 40
0.9374999999999992
 40
0.9374999999999992
 40
1.0
 40
1.0
 40
1.0
 40
1.0
 10
184.9213708876165
 20
128.6383810609902
 30
0.0
 10
185.0807627154043
 20
128.6305409650674
 30
0.0
 10
185.2367651988478
 20
128.6088823169769
 30
0.0
 10
185.5422747149251
 20
128.5390340894841
 30
0.0
 10
185.6931690499373
 20
128.4902083871559
 30
0.0
 10
185.9810683946281
 20
128.3672844337486
 30
0.0
 10
186.1170147975878
 20
128.2939769256143
 30
0.0
 10
186.3731974131799
 20
128.1239663018429
 30
0.0
 10
186.494379700939
 20
128.0260925096414
 30
0.0
 10
186.7115257728117
 20
127.8135083342095
 30
0.0
 10
186.8084876457721
 20
127.6984623956799
 30
0.0
 10
186.9790500815976
 20
127.4506012755598
 30
0.0
 10
187.0522901348096
 20
127.3175677784942
 30
0.0
 10
187.2271705915584
 20
126.908059762364
 30
0.0
 10
187.2882085525344
 20
126.610099112589
 30
0.0
 10
187.2882102077574
 20
126.0186575567145
 30
0.0
 10
187.2271755981712
 20
125.7184840067379
 30
0.0
 10
187.0522858307692
 20
125.3032527264702
 30
0.0
 10
186.9790421253448
 20
125.1678976082234
 30
0.0
 10
186.8084814096082
 20
124.9149982768367
 30
0.0
 10
186.7115176940147
 20
124.7972329992289
 30
0.0
 10
186.4943573654275
 20
124.5791027038603
 30
0.0
 10
186.3731761067407
 20
124.4783993787134
 30
0.0
 10
186.117005879802
 20
124.3031556858801
 30
0.0
 10
185.9810625301392
 20
124.2274107167895
 30
0.0
 10
185.6931598269561
 20
124.1002423414872
 30
0.0
 10
185.5422696310394
 20
124.0496410691598
 30
0.0
 10
185.2367641273337
 20
123.9772119694119
 30
0.0
 10
185.0807627290703
 20
123.954726198015
 30
0.0
 10
184.9213708876165
 20
123.9465877381201
 30
0.0
  0
SPLINE
  5
178
330
1F
100
AcDbEntity
  8
0
  6
HIDDEN
 62
     7
370
    18
100
AcDbSpline
210
0.0
220
0.0
230
1.0
 70
     8
 71
     3
 72
    10
 73
     6
 74
     0
 42
0.000000001
 43
0.00000001
 40
0.0
 40
0.0
 40
0.0
 40
0.0
 40
0.5
 40
0.5
 40
1.0
 40
1.0
 40
1.0
 40
1.0
 10
184.9213708876165
 20
123.9465877381201
 30
0.0
 10
184.698643860743
 20
123.8030992378263
 30
0.0
 10
184.4769579735179
 20
123.6883784920934
 30
0.0
 10
184.0357371356659
 20
123.5186180627356
 30
0.0
 10
183.8161784882671
 20
123.4631980683482
 30
0.0
 10
183.5982093801548
 20
123.4467027389786
 30
0.0
  0
SPLINE
  5
179
330
1F
100
AcDbEntity
  8
0
  6
HIDDEN
 62
     7
370
    18
100
AcDbSpline
210
0.0
220
0.0
230
1.0
 70
     8
 71
     3
 72
    10
 73
     6
 74
     0
 42
0.000000001
 43
0.00000001
 40
0.0
 40
0.0
 40
0.0
 40
0.0
 40
0.5
 40
0.5
 40
1.0
 40
1.0
 40
1.0
 40
1.0
 10
183.5982093801548
 20
127.5787439376101
 30
0.0
 10
183.8151002126756
 20
127.8157828770586
 30
0.0
 10
184.0342528493345
 20
128.0179531120521
 30
0.0
 10
184.4757373496033
 20
128.3687051835708
 30
0.0
 10
184.6989398148768
 20
128.5173812759677
 30
0.0
 10
184.9213708876165
 20
128.6383810609902
 30
0.0
  0
SPLINE
  5
17A
330
1F
100
AcDbEntity
  8
0
  6
HIDDEN
 62
     7
370
    18
100
AcDbSpline
210
0.0
220
0.0
230
1.0
 70
     8
 71
     3
 72
    16
 73
    12
 74
     0
 42
0.000000001
 43
0.00000001
 40
0.0
 40
0.0
 40
0.0
 40
0.0
 40
0.2499999999999994
 40
0.2499999999999994
 40
0.4999999999999989
 40
0.4999999999999989
 40
0.7499999999999983
 40
0.7499999999999983
 40
0.8749999999999991
 40
0.8749999999999991
 40
1.0
 40
1.0
 40
1.0
 40
1.0
 10
182.7982093801545
 20
123.7807663868695
 30
0.0
 10
182.6327952736744
 20
123.9876526228948
 30
0.0
 10
182.5065979426987
 20
124.2135213207037
 30
0.0
 10
182.3321916443679
 20
124.7023905663165
 30
0.0
 10
182.2883616052711
 20
124.9541576196611
 30
0.0
 10
182.2880579323011
 20
125.4659369442433
 30
0.0
 10
182.3319147923613
 20
125.716991653326
 30
0.0
 10
182.4618365516285
 20
126.077840221468
 30
0.0
 10
182.5159513630365
 20
126.1951129898166
 30
0.0
 10
182.6426283531799
 20
126.4176019411554
 30
0.0
 10
182.7155020735408
 20
126.5237625493988
 30
0.0
 10
182.7982093801545
 20
126.6247302299231
 30
0.0
  0
LINE
  5
17B
330
1F
100
AcDbEntity
  8
0
  6
HIDDEN
 62
     7
370
    18
100
AcDbLine
 10
176.501644396
 20
93.3637306362
 30
0.0
 11
179.7725838541
 21
94.1470707104
 31
0.0
  0
LINE
  5
17C
330
1F
100
AcDbEntity
  8
0
  6
HIDDEN
 62
     7
370
    18
100
AcDbLine
 10
178.6080860465
 20
99.0095747903
 30
0.0
 11
175.3371475197
 21
98.2262337848
 31
0.0
  0
LINE
  5
17D
330
1F
100
AcDbEntity
  8
0
  6
HIDDEN
 62
     7
370
    18
100
AcDbLine
 10
180.4762883976
 20
94.9107906118
 30
0.0
 11
180.7048666223
 21
95.5581808731
 31
0.0
  0
LINE
  5
17E
330
1F
100
AcDbEntity
  8
0
  6
HIDDEN
 62
     7
370
    18
100
AcDbLine
 10
180.0784497454
 20
98.1738627225
 30
0.0
 11
179.581407544
 21
98.6474784359
 31
0.0
  0
LINE
  5
17F
330
1F
100
AcDbEntity
  8
0
  6
HIDDEN
 62
     7
370
    18
100
AcDbLine
 10
179.581407544
 20
120.65140291
 30
0.0
 11
180.0784497454
 21
121.1250186235
 31
0.0
  0
LINE
  5
180
330
1F
100
AcDbEntity
  8
0
  6
HIDDEN
 62
     7
370
    18
100
AcDbLine
 10
180.7048666223
 20
123.7407004729
 30
0.0
 11
180.4762883976
 21
124.3880907342
 31
0.0
  0
LINE
  5
181
330
1F
100
AcDbEntity
  8
0
  6
HIDDEN
 62
     7
370
    18
100
AcDbLine
 10
175.3371475197
 20
121.0726475611
 30
0.0
 11
178.6080860465
 21
120.2893065557
 31
0.0
  0
LINE
  5
182
330
1F
100
AcDbEntity
  8
0
  6
HIDDEN
 62
     7
370
    18
100
AcDbLine
 10
179.7725838541
 20
125.1518106356
 30
0.0
 11
176.501644396
 21
125.9351507097
 31
0.0
  0
LINE
  5
183
330
1F
100
AcDbEntity
  8
0
  6
HIDDEN
 62
     7
370
    18
100
AcDbLine
 10
182.2882090628
 20
94.5988441154
 30
0.0
 11
182.2882090628
 21
94.4107327878
 31
0.0
  0
LINE
  5
184
330
1F
100
AcDbEntity
  8
0
  6
HIDDEN
 62
     7
370
    18
100
AcDbLine
 10
187.288208951
 20
94.4107327878
 30
0.0
 11
187.288208951
 21
94.5988441154
 31
0.0
  0
LINE
  5
185
330
1F
100
AcDbEntity
  8
0
  6
HIDDEN
 62
     7
370
    18
100
AcDbLine
 10
182.7882091447
 20
95.7806263387
 30
0.0
 11
182.7882091447
 21
94.3628507003
 31
0.0
  0
LINE
  5
186
330
1F
100
AcDbEntity
  8
0
  6
HIDDEN
 62
     7
370
    18
100
AcDbLine
 10
186.7882098004
 20
94.3628507003
 30
0.0
 11
186.7882098004
 21
95.7806263387
 31
0.0
  0
LINE
  5
187
330
1F
100
AcDbEntity
  8
0
  6
HIDDEN
 62
     7
370
    18
100
AcDbLine
 10
182.2882090628
 20
96.1413555115
 30
0.0
 11
182.2882090628
 21
95.5428196385
 31
0.0
  0
LINE
  5
188
330
1F
100
AcDbEntity
  8
0
  6
HIDDEN
 62
     7
370
    18
100
AcDbLine
 10
187.288208951
 20
95.5428196385
 30
0.0
 11
187.288208951
 21
96.1413555115
 31
0.0
  0
LINE
  5
189
330
1F
100
AcDbEntity
  8
0
  6
HIDDEN
 62
     7
370
    18
100
AcDbLine
 10
187.288208951
 20
123.1575258344
 30
0.0
 11
187.288208951
 21
123.7560617074
 31
0.0
  0
LINE
  5
18A
330
1F
100
AcDbEntity
  8
0
  6
HIDDEN
 62
     7
370
    18
100
AcDbLine
 10
182.2882090628
 20
123.7560617074
 30
0.0
 11
182.2882090628
 21
123.1575258344
 31
0.0
  0
LINE
  5
18B
330
1F
100
AcDbEntity
  8
0
  6
HIDDEN
 62
     7
370
    18
100
AcDbLine
 10
186.7882098004
 20
123.5182550073
 30
0.0
 11
186.7882098004
 21
124.9360306457
 31
0.0
  0
LINE
  5
18C
330
1F
100
AcDbEntity
  8
0
  6
HIDDEN
 62
     7
370
    18
100
AcDbLine
 10
182.7882091447
 20
124.9360306457
 30
0.0
 11
182.7882091447
 21
123.5182550073
 31
0.0
  0
LINE
  5
18D
330
1F
100
AcDbEntity
  8
0
  6
HIDDEN
 62
     7
370
    18
100
AcDbLine
 10
187.288208951
 20
124.7000372305
 30
0.0
 11
187.288208951
 21
124.8881485581
 31
0.0
  0
LINE
  5
18E
330
1F
100
AcDbEntity
  8
0
  6
HIDDEN
 62
     7
370
    18
100
AcDbLine
 10
182.2882090628
 20
124.8881485581
 30
0.0
 11
182.2882090628
 21
124.7000372305
 31
0.0
  0
ARC
  5
18F
330
1F
100
AcDbEntity
  8
0
  6
HIDDEN
 62
     7
370
    18
100
AcDbCircle
 10
184.7882093802
 20
95.183698711
 30
0.0
 40
2.000000000000006
100
AcDbArc
 50
120.2544809684
 51
192.2156859341
  0
ARC
  5
190
330
1F
100
AcDbEntity
  8
0
  6
HIDDEN
 62
     7
370
    18
100
AcDbCircle
 10
184.7882093802
 20
95.183698711
 30
0.0
 40
1.999999999999997
100
AcDbArc
 50
340.4919350399
 51
120.2544809684
  0
CIRCLE
  5
191
330
1F
100
AcDbEntity
  8
0
  6
HIDDEN
 62
     7
370
    18
100
AcDbCircle
 10
184.7882093802
 20
124.1151826349
 30
0.0
 40
1.999999999999999
  0
LINE
  5
192
330
1F
100
AcDbEntity
  8
0
  6
HIDDEN
 62
     7
370
    18
100
AcDbLine
 10
187.288208951
 20
92.9851275206
 30
0.0
 11
187.288208951
 21
96.1413555115
 31
0.0
  0
LINE
  5
193
330
1F
100
AcDbEntity
  8
0
  6
HIDDEN
 62
     7
370
    18
100
AcDbLine
 10
182.2882090628
 20
96.1413555115
 30
0.0
 11
182.2882090628
 21
94.0876961023
 31
0.0
  0
LINE
  5
194
330
1F
100
AcDbEntity
  8
0
  6
HIDDEN
 62
     7
370
    18
100
AcDbLine
 10
173.7882092993
 20
92.1997636825
 30
0.0
 11
176.407637161
 21
92.8270783544
 31
0.0
  0
LINE
  5
195
330
1F
100
AcDbEntity
  8
0
  6
HIDDEN
 62
     7
370
    18
100
AcDbLine
 10
175.0102402575
 20
98.6620834365
 30
0.0
 11
173.7882092993
 21
98.3694246307
 31
0.0
  0
LINE
  5
196
330
1F
100
AcDbEntity
  8
0
  6
HIDDEN
 62
     7
370
    18
100
AcDbLine
 10
176.4663598433
 20
93.7665909797
 30
0.0
 11
183.9355091497
 21
95.5553403392
 31
0.0
  0
LINE
  5
197
330
1F
100
AcDbEntity
  8
0
  6
HIDDEN
 62
     7
370
    18
100
AcDbLine
 10
183.9355091497
 20
99.8741029099
 30
0.0
 11
175.4881819643
 21
97.8510942578
 31
0.0
  0
LINE
  5
198
330
1F
100
AcDbEntity
  8
0
  6
HIDDEN
 62
     7
370
    18
100
AcDbLine
 10
186.8882096305
 20
96.1911496043
 30
0.0
 11
186.8882096305
 21
107.9087117024
 31
0.0
  0
LINE
  5
199
330
1F
100
AcDbEntity
  8
0
  6
HIDDEN
 62
     7
370
    18
100
AcDbLine
 10
182.6882093146
 20
96.5391997516
 30
0.0
 11
182.6882093146
 21
96.1911496043
 31
0.0
  0
LINE
  5
19A
330
1F
100
AcDbEntity
  8
0
  6
HIDDEN
 62
     7
370
    18
100
AcDbLine
 10
182.6882093146
 20
107.9080006376
 30
0.0
 11
182.6882093146
 21
98.2928242803
 31
0.0
  0
LINE
  5
19B
330
1F
100
AcDbEntity
  8
0
  6
HIDDEN
 62
     7
370
    18
100
AcDbLine
 10
195.9565571442
 20
124.1494402558
 30
0.0
 11
194.0882085755
 21
124.1494402558
 31
0.0
  0
LINE
  5
19C
330
1F
100
AcDbEntity
  8
0
  6
HIDDEN
 62
     7
370
    18
100
AcDbLine
 10
194.0882085755
 20
95.1494410902
 30
0.0
 11
195.9565571442
 21
95.1494410902
 31
0.0
  0
ARC
  5
19D
330
1F
100
AcDbEntity
  8
0
  6
HIDDEN
 62
     7
370
    18
100
AcDbCircle
 10
194.0882093802
 20
123.149440673
 30
0.0
 40
1.0
100
AcDbArc
 50
90.0
 51
180.0
  0
ARC
  5
19E
330
1F
100
AcDbEntity
  8
0
  6
HIDDEN
 62
     7
370
    18
100
AcDbCircle
 10
194.0882093802
 20
96.149440673
 30
0.0
 40
1.0
100
AcDbArc
 50
180.0
 51
270.0
  0
ARC
  5
19F
330
1F
100
AcDbEntity
  8
0
  6
HIDDEN
 62
     7
370
    18
100
AcDbCircle
 10
195.9565568826
 20
123.149440673
 30
0.0
 40
1.000000000000003
100
AcDbArc
 50
75.0
 51
90.0
  0
ARC
  5
1A0
330
1F
100
AcDbEntity
  8
0
  6
HIDDEN
 62
     7
370
    18
100
AcDbCircle
 10
195.9565568826
 20
96.149440673
 30
0.0
 40
1.000000000000003
100
AcDbArc
 50
270.0
 51
285.0
  0
LINE
  5
1A1
330
1F
100
AcDbEntity
  8
0
  6
HIDDEN
 62
     7
370
    18
100
AcDbLine
 10
196.2153754129
 20
95.1835144579
 30
0.0
 11
197.9542347535
 21
95.6494402409
 31
0.0
  0
LINE
  5
1A2
330
1F
100
AcDbEntity
  8
0
  6
HIDDEN
 62
     7
370
    18
100
AcDbLine
 10
197.9542347535
 20
123.6494411051
 30
0.0
 11
196.2153754129
 21
124.115366888
 31
0.0
  0
LINE
  5
1A3
330
1F
100
AcDbEntity
  8
0
  6
HIDDEN
 62
     7
370
    18
100
AcDbLine
 10
209.9882095053
 20
123.6494411051
 30
0.0
 11
197.9542347535
 21
123.6494411051
 31
0.0
  0
LINE
  5
1A4
330
1F
100
AcDbEntity
  8
0
  6
HIDDEN
 62
     7
370
    18
100
AcDbLine
 10
197.9542347535
 20
95.6494402409
 30
0.0
 11
209.9882095053
 21
95.6494402409
 31
0.0
  0
ARC
  5
1A5
330
1F
100
AcDbEntity
  8
0
  6
HIDDEN
 62
     7
370
    18
100
AcDbCircle
 10
70.1882093802
 20
95.949440673
 30
0.0
 40
1.200000000000003
100
AcDbArc
 50
90.0
 51
180.0
  0
ARC
  5
1A6
330
1F
100
AcDbEntity
  8
0
  6
HIDDEN
 62
     7
370
    18
100
AcDbCircle
 10
70.1882093802
 20
123.349440673
 30
0.0
 40
1.200000000000003
100
AcDbArc
 50
180.0
 51
270.0
  0
ARC
  5
1A7
330
1F
100
AcDbEntity
  8
0
  6
HIDDEN
 62
     7
370
    18
100
AcDbCircle
 10
79.8805818109
 20
97.324440673
 30
0.0
 40
0.4000000000000199
100
AcDbArc
 50
255.0
 51
270.0
  0
ARC
  5
1A8
330
1F
100
AcDbEntity
  8
0
  6
HIDDEN
 62
     7
370
    18
100
AcDbCircle
 10
79.8805818109
 20
121.974440673
 30
0.0
 40
0.4000000000000096
100
AcDbArc
 50
90.0
 51
105.0
  0
LINE
  5
1A9
330
1F
100
AcDbEntity
  8
0
  6
HIDDEN
 62
     7
370
    18
100
AcDbLine
 10
79.8805794611
 20
96.9244404033
 30
0.0
 11
80.7572669282
 21
96.9244404033
 31
0.0
  0
LINE
  5
1AA
330
1F
100
AcDbEntity
  8
0
  6
HIDDEN
 62
     7
370
    18
100
AcDbLine
 10
80.7572669282
 20
122.3744409427
 30
0.0
 11
79.8805794611
 21
122.3744409427
 31
0.0
  0
ARC
  5
1AB
330
1F
100
AcDbEntity
  8
0
  6
HIDDEN
 62
     7
370
    18
100
AcDbCircle
 10
80.7572692725
 20
97.324440673
 30
0.0
 40
0.4000000000000057
100
AcDbArc
 50
270.0
 51
330.0
  0
ARC
  5
1AC
330
1F
100
AcDbEntity
  8
0
  6
HIDDEN
 62
     7
370
    18
100
AcDbCircle
 10
80.7572692725
 20
121.974440673
 30
0.0
 40
0.3999999999999998
100
AcDbArc
 50
30.0
 51
90.0
  0
LINE
  5
1AD
330
1F
100
AcDbEntity
  8
0
  6
HIDDEN
 62
     7
370
    18
100
AcDbLine
 10
79.7770536437
 20
122.3608110368
 30
0.0
 11
78.9882085218
 21
122.1494408593
 31
0.0
  0
LINE
  5
1AE
330
1F
100
AcDbEntity
  8
0
  6
HIDDEN
 62
     7
370
    18
100
AcDbLine
 10
78.9882085218
 20
97.1494404867
 30
0.0
 11
79.7770536437
 21
96.9380703092
 31
0.0
  0
LINE
  5
1AF
330
1F
100
AcDbEntity
  8
0
  6
HIDDEN
 62
     7
370
    18
100
AcDbLine
 10
81.1036816731
 20
97.1244409949
 30
0.0
 11
82.2728118792
 21
99.1494408146
 31
0.0
  0
LINE
  5
1B0
330
1F
100
AcDbEntity
  8
0
  6
HIDDEN
 62
     7
370
    18
100
AcDbLine
 10
82.2728118792
 20
120.1494405314
 30
0.0
 11
81.1036816731
 21
122.1744403511
 31
0.0
  0
LINE
  5
1B1
330
1F
100
AcDbEntity
  8
0
  6
HIDDEN
 62
     7
370
    18
100
AcDbLine
 10
70.1882085695
 20
97.1494404867
 30
0.0
 11
78.9882085218
 21
97.1494404867
 31
0.0
  0
LINE
  5
1B2
330
1F
100
AcDbEntity
  8
0
  6
HIDDEN
 62
     7
370
    18
100
AcDbLine
 10
78.9882085218
 20
122.1494408593
 30
0.0
 11
70.1882085695
 21
122.1494408593
 31
0.0
  0
LINE
  5
1B3
330
1F
100
AcDbEntity
  8
0
  6
HIDDEN
 62
     7
370
    18
100
AcDbLine
 10
130.9882095947
 20
99.1494408146
 30
0.0
 11
134.2328554883
 21
104.549440489
 31
0.0
  0
LINE
  5
1B4
330
1F
100
AcDbEntity
  8
0
  6
HIDDEN
 62
     7
370
    18
100
AcDbLine
 10
134.2328554883
 20
114.749440857
 30
0.0
 11
130.9882095947
 21
120.1494405314
 31
0.0
  0
LINE
  5
1B5
330
1F
100
AcDbEntity
  8
0
  6
HIDDEN
 62
     7
370
    18
100
AcDbLine
 10
82.2728118792
 20
99.1494408146
 30
0.0
 11
130.9882095947
 21
99.1494408146
 31
0.0
  0
LINE
  5
1B6
330
1F
100
AcDbEntity
  8
0
  6
HIDDEN
 62
     7
370
    18
100
AcDbLine
 10
130.9882095947
 20
120.1494405314
 30
0.0
 11
82.2728118792
 21
120.1494405314
 31
0.0
  0
LINE
  5
1B7
330
1F
100
AcDbEntity
  8
0
  6
HIDDEN
 62
     7
370
    18
100
AcDbLine
 10
223.5882087543
 20
130.1086753875
 30
0.0
 11
223.0182579651
 21
129.5387488127
 31
0.0
  0
LINE
  5
1B8
330
1F
100
AcDbEntity
  8
0
  6
HIDDEN
 62
     7
370
    18
100
AcDbLine
 10
223.0185708895
 20
89.7598196089
 30
0.0
 11
223.5882087543
 21
89.1902040958
 31
0.0
  0
LINE
  5
1B9
330
1F
100
AcDbEntity
  8
0
  6
HIDDEN
 62
     7
370
    18
100
AcDbLine
 10
134.2328554883
 20
104.549440489
 30
0.0
 11
193.0882102742
 21
104.549440489
 31
0.0
  0
LINE
  5
1BA
330
1F
100
AcDbEntity
  8
0
  6
HIDDEN
 62
     7
370
    18
100
AcDbLine
 10
193.0882102742
 20
114.749440857
 30
0.0
 11
134.2328554883
 21
114.749440857
 31
0.0
  0
LINE
  5
1BB
330
1F
100
AcDbEntity
  8
0
  6
HIDDEN
 62
     7
370
    18
100
AcDbLine
 10
209.9882095053
 20
89.7494409502
 30
0.0
 11
223.0318664506
 21
89.7494409502
 31
0.0
  0
LINE
  5
1BC
330
1F
100
AcDbEntity
  8
0
  6
HIDDEN
 62
     7
370
    18
100
AcDbLine
 10
223.0304806426
 20
129.5494403958
 30
0.0
 11
209.9882095053
 21
129.5494403958
 31
0.0
  0
LINE
  5
1BD
330
1F
100
AcDbEntity
  8
0
  6
HIDDEN
 62
     7
370
    18
100
AcDbLine
 10
186.8882096305
 20
111.3908807084
 30
0.0
 11
186.8882096305
 21
123.1077317417
 31
0.0
  0
LINE
  5
1BE
330
1F
100
AcDbEntity
  8
0
  6
HIDDEN
 62
     7
370
    18
100
AcDbLine
 10
182.6882093146
 20
121.0060570657
 30
0.0
 11
182.6882093146
 21
111.3901696436
 31
0.0
  0
LINE
  5
1BF
330
1F
100
AcDbEntity
  8
0
  6
HIDDEN
 62
     7
370
    18
100
AcDbLine
 10
182.6882093146
 20
123.1077317417
 30
0.0
 11
182.6882093146
 21
122.7596815944
 31
0.0
  0
LINE
  5
1C0
330
1F
100
AcDbEntity
  8
0
  6
HIDDEN
 62
     7
370
    18
100
AcDbLine
 10
175.4881819643
 20
121.4477870882
 30
0.0
 11
183.9480969056
 21
119.4217637449
 31
0.0
  0
LINE
  5
1C1
330
1F
100
AcDbEntity
  8
0
  6
HIDDEN
 62
     7
370
    18
100
AcDbLine
 10
183.9355091497
 20
123.7435410067
 30
0.0
 11
176.4663598433
 21
125.5322903663
 31
0.0
  0
LINE
  5
1C2
330
1F
100
AcDbEntity
  8
0
  6
HIDDEN
 62
     7
370
    18
100
AcDbLine
 10
173.7882092993
 20
120.9294567153
 30
0.0
 11
175.0102402575
 21
120.6367979094
 31
0.0
  0
LINE
  5
1C3
330
1F
100
AcDbEntity
  8
0
  6
HIDDEN
 62
     7
370
    18
100
AcDbLine
 10
176.407637161
 20
126.4718029916
 30
0.0
 11
173.7882092993
 21
127.0991176635
 31
0.0
  0
LINE
  5
1C4
330
1F
100
AcDbEntity
  8
0
  6
HIDDEN
 62
     7
370
    18
100
AcDbLine
 10
187.288208951
 20
123.1575258344
 30
0.0
 11
187.288208951
 21
126.3137538254
 31
0.0
  0
LINE
  5
1C5
330
1F
100
AcDbEntity
  8
0
  6
HIDDEN
 62
     7
370
    18
100
AcDbLine
 10
182.2882090628
 20
125.2111852437
 30
0.0
 11
182.2882090628
 21
123.1575258344
 31
0.0
  0
DIMENSION
  5
1C6
330
1F
100
AcDbEntity
  8
VERMASSUNG
100
AcDbDimension
  2
_D
 10
60.4416344969
 20
158.374440673
 30
0.0
 11
60.4416344969
 21
109.649440673
 31
0.0
 70
   160
  1
ISO 50 %%c<>
 71
     2
 42
-1.0
  3
SLDDIMSTYLE0
100
AcDbAlignedDimension
 13
189.0382093802
 23
60.924440673
 33
0.0
 14
189.0382093802
 24
158.374440673
 34
0.0
 50
90.0
100
AcDbRotatedDimension
  0
DIMENSION
  5
1D3
330
1F
100
AcDbEntity
  8
VERMASSUNG
100
AcDbDimension
  2
_D_1
 10
231.0823937326
 20
95.649440673
 30
0.0
 11
231.0823937326
 21
109.649440673
 31
0.0
 70
   160
  1
%%c<>
 71
     2
 42
-1.0
  3
SLDDIMSTYLE0
100
AcDbAlignedDimension
 13
209.9882093802
 23
123.649440673
 33
0.0
 14
209.9882093802
 24
95.649440673
 34
0.0
 50
90.0
100
AcDbRotatedDimension
  0
DIMENSION
  5
1DE
330
1F
100
AcDbEntity
  8
VERMASSUNG
100
AcDbDimension
  2
_D_2
 10
223.5882093802
 20
163.2108492698
 30
0.0
 11
206.6132093802
 21
163.2108492698
 31
0.0
 70
   160
  1
(<>)
 71
     2
 42
-1.0
  3
SLDDIMSTYLE0
100
AcDbAlignedDimension
 13
189.6382093802
 23
155.9444276262
 33
0.0
 14
223.5882093802
 24
134.149440673
 34
0.0
100
AcDbRotatedDimension
  0
DIMENSION
  5
1EA
330
1F
100
AcDbEntity
  8
VERMASSUNG
100
AcDbDimension
  2
_D_3
 10
223.5882093802
 20
169.2108492698
 30
0.0
 11
197.0882093802
 21
169.2108492698
 31
0.0
 70
   160
  1
<>
 71
     2
 42
-1.0
  3
SLDDIMSTYLE0
100
AcDbAlignedDimension
 13
170.5882093802
 23
144.574440673
 33
0.0
 14
223.5882093802
 24
134.149440673
 34
0.0
100
AcDbRotatedDimension
  0
DIMENSION
  5
1F4
330
1F
100
AcDbEntity
  8
VERMASSUNG
100
AcDbDimension
  2
_D_4
 10
223.5882093802
 20
175.2108492698
 30
0.0
 11
146.2882093802
 21
175.2108492698
 31
0.0
 70
   160
  1
(<>)
 71
     2
 42
-1.0
  3
SLDDIMSTYLE0
100
AcDbAlignedDimension
 13
68.9882093802
 23
128.0282852004
 33
0.0
 14
223.5882093802
 24
134.149440673
 34
0.0
100
AcDbRotatedDimension
  0
DIMENSION
  5
200
330
1F
100
AcDbEntity
  8
VERMASSUNG
100
AcDbDimension
  2
_D_5
 10
237.0823937326
 20
84.649440673
 30
0.0
 11
237.0823937326
 21
109.649440673
 31
0.0
 70
   160
  1
ST5 %%c<>
 71
     2
 42
-1.0
  3
SLDDIMSTYLE0
100
AcDbAlignedDimension
 13
223.0882093802
 23
134.649440673
 33
0.0
 14
223.0882093802
 24
84.649440673
 34
0.0
 50
90.0
100
AcDbRotatedDimension
  0
LINE
  5
20C
330
1F
100
AcDbEntity
  8
VERMASSUNG
  6
CENTERX2
 62
     7
370
    18
100
AcDbLine
 10
182.4921843098
 20
121.9298145379
 30
0.0
 11
186.3944379569
 21
120.995283001
 31
0.0
  0
LINE
  5
20D
330
1F
100
AcDbEntity
  8
VERMASSUNG
  6
CENTERX2
 62
     7
370
    18
100
AcDbLine
 10
66.9882093802
 20
109.649440673
 30
0.0
 11
225.3779692838
 21
109.649440673
 31
0.0
  0
LINE
  5
20E
330
1F
100
AcDbEntity
  8
0
  6
Continuous
 62
     7
370
    25
100
AcDbLine
 10
269.1464157334
 20
43.2416429337
 30
0.0
 11
268.9696100332
 21
43.3437442471
 31
0.0
  0
LINE
  5
20F
330
1F
100
AcDbEntity
  8
0
  6
Continuous
 62
     7
370
    25
100
AcDbLine
 10
265.7871123082
 20
43.3437444026
 30
0.0
 11
265.6103065281
 21
43.2416434232
 31
0.0
  0
LINE
  5
210
330
1F
100
AcDbEntity
  8
0
  6
Continuous
 62
     7
370
    25
100
AcDbLine
 10
269.8783607891
 20
41.9150963813
 30
0.0
 11
269.8783607891
 21
42.2212990459
 31
0.0
  0
LINE
  5
211
330
1F
100
AcDbEntity
  8
0
  6
Continuous
 62
     7
370
    25
100
AcDbLine
 10
264.8783612829
 20
42.2212988558
 30
0.0
 11
264.8783612829
 21
41.9150961913
 31
0.0
  0
LINE
  5
212
330
1F
100
AcDbEntity
  8
0
  6
Continuous
 62
     7
370
    25
100
AcDbLine
 10
271.8168920244
 20
19.4512631828
 30
0.0
 11
271.9936403469
 21
19.5533309926
 31
0.0
  0
LINE
  5
213
330
1F
100
AcDbEntity
  8
0
  6
Continuous
 62
     7
370
    25
100
AcDbLine
 10
280.6542903618
 20
34.5556425088
 30
0.0
 11
280.6542903618
 21
34.7597449504
 31
0.0
  0
LINE
  5
214
330
1F
100
AcDbEntity
  8
0
  6
Continuous
 62
     7
370
    25
100
AcDbLine
 10
278.064947357
 20
40.482805016
 30
0.0
 11
267.6528008986
 21
46.4936092229
 31
0.0
  0
LINE
  5
215
330
1F
100
AcDbEntity
  8
0
  6
Continuous
 62
     7
370
    25
100
AcDbLine
 10
255.153817115
 20
24.8423875418
 30
0.0
 11
265.5659635734
 21
18.8315833349
 31
0.0
  0
SPLINE
  5
216
330
1F
100
AcDbEntity
  8
0
  6
Continuous
 62
     7
370
    25
100
AcDbSpline
210
0.0
220
0.0
230
1.0
 70
     8
 71
     3
 72
    28
 73
    24
 74
     0
 42
0.000000001
 43
0.00000001
 40
0.0
 40
0.0
 40
0.0
 40
0.0
 40
0.0447173261690669
 40
0.0926961987052328
 40
0.1407230826206579
 40
0.1887762090398099
 40
0.2368397186498423
 40
0.2849009493127463
 40
0.3329546489991367
 40
0.3809985028383839
 40
0.429031931398393
 40
0.4770555112588186
 40
0.5250704710664534
 40
0.573078423966344
 40
0.6210812246449585
 40
0.6690807971874013
 40
0.7170791646275417
 40
0.7650783327552065
 40
0.8130797339111663
 40
0.8610854243166471
 40
0.9090975344680139
 40
0.9571180684930469
 40
1.0
 40
1.0
 40
1.0
 40
1.0
 10
260.0263681732463
 20
61.65329001131637
 30
0.0
 10
259.6286186616232
 20
61.57105039135553
 30
0.0
 10
258.8041089933814
 20
61.40057284257477
 30
0.0
 10
257.5213499224695
 20
60.97932675836964
 30
0.0
 10
256.1946994073724
 20
60.43156104249634
 30
0.0
 10
254.8581331014059
 20
59.75609870317422
 30
0.0
 10
253.5206307382982
 20
58.96098887062195
 30
0.0
 10
252.189988728953
 20
58.0501658058994
 30
0.0
 10
250.8741735231378
 20
57.02952720766736
 30
0.0
 10
249.5809118347088
 20
55.90520877846289
 30
0.0
 10
248.3177961407113
 20
54.68401493967868
 30
0.0
 10
247.0922290373307
 20
53.37326773167229
 30
0.0
 10
245.9113993544171
 20
51.98079312521799
 30
0.0
 10
244.7822372346475
 20
50.51488413804013
 30
0.0
 10
243.7113813370515
 20
48.98425050909961
 30
0.0
 10
242.7051371928686
 20
47.39796721161844
 30
0.0
 10
241.769454722488
 20
45.76543920713754
 30
0.0
 10
240.9098169722793
 20
44.09631425317407
 30
0.0
 10
240.1315622974845
 20
42.40052447754555
 30
0.0
 10
239.4384248425568
 20
40.6878863354024
 30
0.0
 10
238.8379363280138
 20
38.96925887552996
 30
0.0
 10
238.3395360685075
 20
37.31332713777984
 30
0.0
 10
238.0934617912682
 20
36.24305225385599
 30
0.0
 10
237.9773797879865
 20
35.73816546121025
 30
0.0
  0
SPLINE
  5
217
330
1F
100
AcDbEntity
  8
0
  6
Continuous
 62
     7
370
    25
100
AcDbSpline
210
0.0
220
0.0
230
1.0
 70
     8
 71
     3
 72
    21
 73
    17
 74
     0
 42
0.000000001
 43
0.00000001
 40
0.0
 40
0.0
 40
0.0
 40
0.0
 40
0.0150080187095314
 40
0.0927827053099312
 40
0.1706465713203275
 40
0.2485204770193596
 40
0.3263401848286913
 40
0.4040516992614836
 40
0.4816059829032791
 40
0.5589639255543754
 40
0.6361160904156449
 40
0.7131267334236213
 40
0.7901478886913809
 40
0.867559433928749
 40
0.9461120717317465
 40
0.9999999999999999
 40
0.9999999999999999
 40
0.9999999999999999
 40
0.9999999999999999
 10
267.549342239329
 20
29.96793966705837
 30
0.0
 10
267.571489905995
 20
30.02695820099258
 30
0.0
 10
267.7084114057178
 20
30.39182310073875
 30
0.0
 10
268.0194587369031
 20
31.05812788504486
 30
0.0
 10
268.5097099077374
 20
31.94162308102651
 30
0.0
 10
269.0713976573018
 20
32.77829609270636
 30
0.0
 10
269.6878085569154
 20
33.55032991851512
 30
0.0
 10
270.3465325063026
 20
34.24141263814629
 30
0.0
 10
271.03247646617
 20
34.83727660642715
 30
0.0
 10
271.7300688698419
 20
35.32601583316137
 30
0.0
 10
272.4232697714286
 20
35.69874654522187
 30
0.0
 10
273.0958355798475
 20
35.94934916140898
 30
0.0
 10
273.7336714908552
 20
36.0772369626108
 30
0.0
 10
274.3215711110681
 20
36.07818240120373
 30
0.0
 10
274.8033358209161
 20
35.98732682418709
 30
0.0
 10
275.0589470463531
 20
35.84654684798329
 30
0.0
 10
275.1629511275008
 20
35.78926574836011
 30
0.0
  0
LINE
  5
218
330
1F
100
AcDbEntity
  8
0
  6
Continuous
 62
     7
370
    25
100
AcDbLine
 10
253.2363343882
 20
58.7463338487
 30
0.0
 11
222.4749630942
 21
69.8315127872
 31
0.0
  0
LINE
  5
219
330
1F
100
AcDbEntity
  8
0
  6
Continuous
 62
     7
370
    25
100
AcDbLine
 10
212.3511037137
 20
52.2945743868
 30
0.0
 11
241.8186148323
 21
27.4124519486
 31
0.0
  0
LINE
  5
21A
330
1F
100
AcDbEntity
  8
0
  6
Continuous
 62
     7
370
    25
100
AcDbLine
 10
267.4721581888
 20
24.37411142
 30
0.0
 11
267.4003435809
 21
24.4724038073
 31
0.0
  0
SPLINE
  5
21B
330
1F
100
AcDbEntity
  8
0
  6
Continuous
 62
     7
370
    25
100
AcDbSpline
210
0.0
220
0.0
230
1.0
 70
     8
 71
     3
 72
    10
 73
     6
 74
     0
 42
0.000000001
 43
0.00000001
 40
0.0
 40
0.0
 40
0.0
 40
0.0
 40
0.1971079259975407
 40
0.8069498728311424
 40
1.0
 40
1.0
 40
1.0
 40
1.0
 10
268.2558350436657
 20
23.64757619591279
 30
0.0
 10
268.2022582264235
 20
23.67244051115736
 30
0.0
 10
267.9829174483118
 20
23.77423375931367
 30
0.0
 10
267.7548004463399
 20
23.97783384486763
 30
0.0
 10
267.603411473043
 20
24.19263821730597
 30
0.0
 10
267.5670109884781
 20
24.24428651819021
 30
0.0
  0
SPLINE
  5
21C
330
1F
100
AcDbEntity
  8
0
  6
Continuous
 62
     7
370
    25
100
AcDbSpline
210
0.0
220
0.0
230
1.0
 70
     8
 71
     3
 72
    15
 73
    11
 74
     0
 42
0.000000001
 43
0.00000001
 40
0.0
 40
0.0
 40
0.0
 40
0.0
 40
0.1190513898546254
 40
0.251127133537871
 40
0.3833497067196818
 40
0.5156560106007964
 40
0.6479988826888686
 40
0.7803416401795995
 40
0.9126659056922322
 40
1.0
 40
1.0
 40
1.0
 40
1.0
 10
254.1170316419743
 20
14.5117380993278
 30
0.0
 10
254.4997433014579
 20
14.58293346322395
 30
0.0
 10
255.307035699598
 20
14.73311304263297
 30
0.0
 10
256.5720733332453
 20
15.1238337847082
 30
0.0
 10
257.8956549707822
 20
15.6443087500704
 30
0.0
 10
259.2308937622271
 20
16.29378473857716
 30
0.0
 10
260.5690390135872
 20
17.06274582337206
 30
0.0
 10
261.9010353685846
 20
17.95255474422319
 30
0.0
 10
263.0737893934862
 20
18.82680811638326
 30
0.0
 10
263.7897524510408
 20
19.44632383188267
 30
0.0
 10
264.07441261713
 20
19.69263744346935
 30
0.0
  0
LINE
  5
21D
330
1F
100
AcDbEntity
  8
0
  6
Continuous
 62
     7
370
    25
100
AcDbLine
 10
246.1411807983
 20
16.3480077498
 30
0.0
 11
247.5967027846
 21
15.5077527925
 31
0.0
  0
LINE
  5
21E
330
1F
100
AcDbEntity
  8
0
  6
Continuous
 62
     7
370
    25
100
AcDbLine
 10
242.41714585
 20
18.4978473649
 30
0.0
 11
243.854990526
 21
17.6677973015
 31
0.0
  0
SPLINE
  5
21F
330
1F
100
AcDbEntity
  8
0
  6
Continuous
 62
     7
370
    25
100
AcDbSpline
210
0.0
220
0.0
230
1.0
 70
     8
 71
     3
 72
     9
 73
     5
 74
     0
 42
0.000000001
 43
0.00000001
 40
0.0
 40
0.0
 40
0.0
 40
0.0
 40
0.6734029320401759
 40
1.0
 40
1.0
 40
1.0
 40
1.0
 10
237.9850471393749
 20
24.56314310942251
 30
0.0
 10
238.0232685958361
 20
24.42541999530783
 30
0.0
 10
238.0800272683078
 20
24.22090185681764
 30
0.0
 10
238.1549290036899
 20
24.03304896821733
 30
0.0
 10
238.1793916908508
 20
23.97169676559267
 30
0.0
  0
SPLINE
  5
220
330
1F
100
AcDbEntity
  8
0
  6
Continuous
 62
     7
370
    25
100
AcDbSpline
210
0.0
220
0.0
230
1.0
 70
     8
 71
     3
 72
     9
 73
     5
 74
     0
 42
0.000000001
 43
0.00000001
 40
0.0
 40
0.0
 40
0.0
 40
0.0
 40
0.5379342876456521
 40
1.0
 40
1.0
 40
1.0
 40
1.0
 10
276.4042923785246
 20
51.59494889555112
 30
0.0
 10
276.3517880196487
 20
51.77643277661268
 30
0.0
 10
276.2541843530268
 20
52.1138046178014
 30
0.0
 10
276.1264397006989
 20
52.42329924827596
 30
0.0
 10
276.0674132769215
 20
52.56630610517604
 30
0.0
  0
SPLINE
  5
221
330
1F
100
AcDbEntity
  8
0
  6
Continuous
 62
     7
370
    25
100
AcDbSpline
210
0.0
220
0.0
230
1.0
 70
     8
 71
     3
 72
    26
 73
    22
 74
     0
 42
0.000000001
 43
0.00000001
 40
0.0
 40
0.0
 40
0.0
 40
0.0
 40
0.0467308472814889
 40
0.0973326434838578
 40
0.1488805743965798
 40
0.2016197087418456
 40
0.2554248526501341
 40
0.3099371161925181
 40
0.3647756339296268
 40
0.4196399376932919
 40
0.4744075185933919
 40
0.5290567021162506
 40
0.5836057530973672
 40
0.6380913019544088
 40
0.6925578475989355
 40
0.7470500234978396
 40
0.8016043736145406
 40
0.8562710752201851
 40
0.9110986004207394
 40
0.9661271617002658
 40
1.0
 40
1.0
 40
1.0
 40
1.0
 10
222.4830539719813
 20
69.82370391836953
 30
0.0
 10
222.2546888517612
 20
69.89594487006931
 30
0.0
 10
221.7790419905639
 20
70.04641085144505
 30
0.0
 10
220.9984409452734
 20
70.10991136890213
 30
0.0
 10
220.1664265947699
 20
70.0539102382436
 30
0.0
 10
219.3019392482137
 20
69.86153724250852
 30
0.0
 10
218.4165226422974
 20
69.53682737900388
 30
0.0
 10
217.5229616980336
 20
69.08195630995415
 30
0.0
 10
216.6362957772756
 20
68.50456165697078
 30
0.0
 10
215.7708066458661
 20
67.81490340493603
 30
0.0
 10
214.9392356122331
 20
67.02487674472363
 30
0.0
 10
214.1526665503899
 20
66.14685575874977
 30
0.0
 10
213.4212069393703
 20
65.19367780289679
 30
0.0
 10
212.7542662133625
 20
64.17871449374954
 30
0.0
 10
212.1605857092778
 20
63.11586551731957
 30
0.0
 10
211.6482052569626
 20
62.01945267983993
 30
0.0
 10
211.224512782753
 20
60.90412192648933
 30
0.0
 10
210.895354180568
 20
59.78416484604359
 30
0.0
 10
210.6684124934112
 20
58.67489046975317
 30
0.0
 10
210.557276497617
 20
57.72752786869658
 30
0.0
 10
210.5462750085963
 20
57.16448194163624
 30
0.0
 10
210.5420832674042
 20
56.94995254465374
 30
0.0
  0
SPLINE
  5
222
330
1F
100
AcDbEntity
  8
0
  6
Continuous
 62
     7
370
    25
100
AcDbSpline
210
0.0
220
0.0
230
1.0
 70
     8
 71
     3
 72
    13
 73
     9
 74
     0
 42
0.000000001
 43
0.00000001
 40
0.0
 40
0.0
 40
0.0
 40
0.0
 40
0.0977760648121671
 40
0.2821138686811855
 40
0.4664633395755799
 40
0.6492183373567416
 40
0.8287029249663207
 40
1.0
 40
1.0
 40
1.0
 40
1.0
 10
210.5420832674042
 20
56.94995254465374
 30
0.0
 10
210.5452621229494
 20
56.76701385679118
 30
0.0
 10
210.5544340939995
 20
56.23917975891136
 30
0.0
 10
210.6570821727937
 20
55.40880065671361
 30
0.0
 10
210.8883217351334
 20
54.49297042294643
 30
0.0
 10
211.2382965396612
 20
53.66900461334838
 30
0.0
 10
211.6860738642854
 20
52.94710297028428
 30
0.0
 10
212.0698853254043
 20
52.56494758375247
 30
0.0
 10
212.2573118292833
 20
52.37832979014266
 30
0.0
  0
ARC
  5
223
330
1F
100
AcDbEntity
  8
0
  6
Continuous
 62
     7
370
    25
100
AcDbCircle
 10
253.1124051381
 20
50.8721541716
 30
0.0
 40
1.558719489223518
100
AcDbArc
 50
79.7562805873
 51
142.8351294241
  0
ARC
  5
224
330
1F
100
AcDbEntity
  8
0
  6
Continuous
 62
     7
370
    25
100
AcDbCircle
 10
253.0800912339
 20
50.9563806588
 30
0.0
 40
1.464053822548125
100
AcDbArc
 50
78.3983121863
 51
144.4363944444
  0
ARC
  5
225
330
1F
100
AcDbEntity
  8
0
  6
Continuous
 62
     7
370
    25
100
AcDbCircle
 10
253.0515787239
 20
51.0304785459
 30
0.0
 40
1.249732236004998
100
AcDbArc
 50
80.8850171095
 51
142.4204212578
  0
LWPOLYLINE
  5
226
330
1F
100
AcDbEntity
  8
0
  6
Continuous
 62
     7
370
    25
100
AcDbPolyline
 90
       24
 70
   128
 43
0.0
 10
267.970926299
 20
43.678476973
 10
268.5345646652
 20
43.5397184714
 10
269.012452634
 20
43.3183186908
 10
269.3691473398
 20
43.0306979188
 10
269.5781947206
 20
42.6981872845
 10
269.6240904984
 20
42.3454479181
 10
269.5034304096
 20
41.9986410516
 10
269.2251645268
 20
41.683486944
 10
268.8099291243
 20
41.4233600175
 10
268.2885213241
 20
41.2375521474
 10
267.699609913
 20
41.1398446976
 10
267.0868738433
 20
41.1374831312
 10
266.4957563081
 20
41.2306428966
 10
265.9700970268
 20
41.4124150282
 10
265.5488817521
 20
41.6693186626
 10
265.2633513414
 20
41.9822994115
 10
265.1346816227
 20
42.3281454468
 10
265.1724153175
 20
42.6812069595
 10
265.3737527473
 20
43.015299646
 10
265.7237637512
 20
43.3056442564
 10
266.1964896879
 20
43.5307071438
 10
266.756868053
 20
43.6737979399
 10
267.3633403766
 20
43.7243028605
 10
267.970926299
 20
43.678476973
  0
LWPOLYLINE
  5
227
330
1F
100
AcDbEntity
  8
0
  6
Continuous
 62
     7
370
    25
100
AcDbPolyline
 90
       20
 70
   128
 43
0.0
 10
269.1464157334
 20
43.2416429337
 10
269.1544290676
 20
43.2369943142
 10
269.5492844521
 20
42.9370176483
 10
269.7961936969
 20
42.5882666417
 10
269.8783327186
 20
42.2145066973
 10
269.7901037242
 20
41.8412090866
 10
269.5375175376
 20
41.4938145491
 10
269.1377883482
 20
41.1959969146
 10
268.6181573004
 20
40.9680518002
 10
268.0140362689
 20
40.8255132956
 10
267.3665948213
 20
40.7780954952
 10
266.7199551516
 20
40.8290296748
 10
266.1181849181
 20
40.9748444102
 10
265.6022930044
 20
41.2056035875
 10
265.2074376199
 20
41.5055802533
 10
264.960527058
 20
41.8543320203
 10
264.8783880363
 20
42.2280919647
 10
264.9666183478
 20
42.601388815
 10
265.2192045344
 20
42.9487833526
 10
265.6103065281
 20
43.2416434232
  0
LWPOLYLINE
  5
228
330
1F
100
AcDbEntity
  8
0
  6
Continuous
 62
     7
370
    25
100
AcDbPolyline
 90
       20
 70
   128
 43
0.0
 10
267.7734043526
 20
43.2607963137
 10
268.2218544763
 20
43.1414852481
 10
268.5788992809
 20
42.9445788953
 10
268.8058473008
 20
42.6914150374
 10
268.8781053561
 20
42.409427952
 10
268.7878421589
 20
42.129175747
 10
268.5448390605
 20
41.8810282692
 10
268.1754312456
 20
41.6918749121
 10
267.7196478172
 20
41.5822145007
 10
267.2268805703
 20
41.56393017
 10
266.7505289036
 20
41.6390029841
 10
266.3422128694
 20
41.7992977163
 10
266.0461795793
 20
42.0274441301
 10
265.8945083004
 20
42.2987191752
 10
265.9036352745
 20
42.5837260195
 10
266.0725720058
 20
42.8515792883
 10
266.3830118882
 20
43.0732528058
 10
266.8013115755
 20
43.2247261497
 10
267.2821457077
 20
43.2895826172
 10
267.7734043526
 20
43.2607963137
  0
SPLINE
  5
229
330
1F
100
AcDbEntity
  8
0
  6
Continuous
 62
     7
370
    25
100
AcDbSpline
210
0.0
220
0.0
230
1.0
 70
     8
 71
     3
 72
    11
 73
     7
 74
     0
 42
0.000000001
 43
0.00000001
 40
0.0
 40
0.0
 40
0.0
 40
0.0
 40
0.1285560200552933
 40
0.4801535177189796
 40
0.8150692180253306
 40
1.0
 40
1.0
 40
1.0
 40
1.0
 10
267.0113541405411
 20
43.18505541705468
 30
0.0
 10
267.0674309270796
 20
43.15372184440146
 30
0.0
 10
267.2768763214474
 20
43.03669173468219
 30
0.0
 10
267.6696336298107
 20
42.8937997460208
 30
0.0
 10
268.094907118617
 20
42.89291698176352
 30
0.0
 10
268.3227289254725
 20
42.94653589611573
 30
0.0
 10
268.403774515524
 20
42.96561035001273
 30
0.0
  0
SPLINE
  5
22A
330
1F
100
AcDbEntity
  8
0
  6
Continuous
 62
     7
370
    25
100
AcDbSpline
210
0.0
220
0.0
230
1.0
 70
     8
 71
     3
 72
    10
 73
     6
 74
     0
 42
0.000000001
 43
0.00000001
 40
0.0
 40
0.0
 40
0.0
 40
0.0
 40
0.4391256108190023
 40
0.7513741443980115
 40
0.9999999999999999
 40
0.9999999999999999
 40
0.9999999999999999
 40
0.9999999999999999
 10
265.9859412784014
 20
42.59864308681503
 30
0.0
 10
266.1327400570569
 20
42.61268779601789
 30
0.0
 10
266.3839228712527
 20
42.63671926013801
 30
0.0
 10
266.7490576440061
 20
42.89870371837268
 30
0.0
 10
266.9307937067516
 20
43.09710678881556
 30
0.0
 10
267.0113541405411
 20
43.18505541705468
 30
0.0
  0
SPLINE
  5
22B
330
1F
100
AcDbEntity
  8
0
  6
Continuous
 62
     7
370
    25
100
AcDbSpline
210
0.0
220
0.0
230
1.0
 70
     8
 71
     3
 72
    10
 73
     6
 74
     0
 42
0.000000001
 43
0.00000001
 40
0.0
 40
0.0
 40
0.0
 40
0.0
 40
0.4391251762771847
 40
0.7513744574132716
 40
0.9999999999999999
 40
0.9999999999999999
 40
0.9999999999999999
 40
0.9999999999999999
 10
266.3529475564737
 20
41.79278649739394
 30
0.0
 10
266.3004069199106
 20
41.83824685372016
 30
0.0
 10
266.2105061480523
 20
41.91603276173391
 30
0.0
 10
266.0798193092971
 20
42.25615799830505
 30
0.0
 10
266.0147744665503
 20
42.493454078258
 30
0.0
 10
265.9859412784014
 20
42.59864308681503
 30
0.0
  0
LINE
  5
22C
330
1F
100
AcDbEntity
  8
0
  6
Continuous
 62
     7
370
    25
100
AcDbLine
 10
268.7707807936
 20
42.1597537606
 30
0.0
 11
268.4037742068
 21
41.8228003066
 31
0.0
  0
SPLINE
  5
22D
330
1F
100
AcDbEntity
  8
0
  6
Continuous
 62
     7
370
    25
100
AcDbSpline
210
0.0
220
0.0
230
1.0
 70
     8
 71
     3
 72
    10
 73
     6
 74
     0
 42
0.000000001
 43
0.00000001
 40
0.0
 40
0.0
 40
0.0
 40
0.0
 40
0.4391251762771847
 40
0.7513744574132716
 40
0.9999999999999999
 40
0.9999999999999999
 40
0.9999999999999999
 40
0.9999999999999999
 10
268.403774515524
 20
42.96561035001273
 30
0.0
 10
268.4563151520871
 20
42.78033651918062
 30
0.0
 10
268.5462159239455
 20
42.46331979676323
 30
0.0
 10
268.6769027627007
 20
42.22953776904523
 30
0.0
 10
268.7419476054475
 20
42.18118684164724
 30
0.0
 10
268.7707807935963
 20
42.15975376059165
 30
0.0
  0
LINE
  5
22E
330
1F
100
AcDbEntity
  8
0
  6
Continuous
 62
     7
370
    25
100
AcDbLine
 10
268.4037745155
 20
41.8228004054
 30
0.0
 11
268.4037745155
 21
42.96561035
 31
0.0
  0
LINE
  5
22F
330
1F
100
AcDbEntity
  8
0
  6
Continuous
 62
     7
370
    25
100
AcDbLine
 10
267.0113541405
 20
41.5858217289
 30
0.0
 11
267.0113541405
 21
43.1850554171
 31
0.0
  0
SPLINE
  5
230
330
1F
100
AcDbEntity
  8
0
  6
Continuous
 62
     7
370
    25
100
AcDbSpline
210
0.0
220
0.0
230
1.0
 70
     8
 71
     3
 72
    12
 73
     8
 74
     0
 42
0.000000001
 43
0.00000001
 40
0.0
 40
0.0
 40
0.0
 40
0.0
 40
0.2499999999999972
 40
0.2499999999999972
 40
0.4999999999999944
 40
0.4999999999999944
 40
1.0
 40
1.0
 40
1.0
 40
1.0
 10
243.2556750149977
 20
32.70437916031832
 30
0.0
 10
243.2896065072872
 20
32.68479092676684
 30
0.0
 10
243.3280382163145
 20
32.65760373783043
 30
0.0
 10
243.4022150689794
 20
32.5983798102946
 30
0.0
 10
243.4374313492349
 20
32.56694713127784
 30
0.0
 10
243.5325302664928
 20
32.47495441447586
 30
0.0
 10
243.5810594232547
 20
32.41809774895121
 30
0.0
 10
243.6144010194098
 20
32.36986894294888
 30
0.0
  0
ARC
  5
231
330
1F
100
AcDbEntity
  8
0
  6
Continuous
 62
     7
370
    25
100
AcDbCircle
 10
267.3874017024
 20
48.5334194732
 30
0.0
 40
10.31750614408507
100
AcDbArc
 50
73.4258511449
 51
101.5099115138
  0
SPLINE
  5
232
330
1F
100
AcDbEntity
  8
0
  6
Continuous
 62
     7
370
    25
100
AcDbSpline
210
0.0
220
0.0
230
1.0
 70
     8
 71
     3
 72
    12
 73
     8
 74
     0
 42
0.000000001
 43
0.00000001
 40
0.0
 40
0.0
 40
0.0
 40
0.0
 40
0.4999999999999972
 40
0.4999999999999972
 40
0.7499999999999986
 40
0.7499999999999986
 40
1.0
 40
1.0
 40
1.0
 40
1.0
 10
270.5426638386082
 20
57.9886848811602
 30
0.0
 10
270.5426638386082
 20
58.061367878353
 30
0.0
 10
270.525647070538
 20
58.1449507250933
 30
0.0
 10
270.4712362446564
 20
58.26639490296898
 30
0.0
 10
270.4480910257346
 20
58.30610978065033
 30
0.0
 10
270.3938102138774
 20
58.37483955251613
 30
0.0
 10
270.3625742453199
 20
58.40374914842179
 30
0.0
 10
270.3305318042521
 20
58.42224685591539
 30
0.0
  0
LWPOLYLINE
  5
233
330
1F
100
AcDbEntity
  8
0
  6
Continuous
 62
     7
370
    25
100
AcDbPolyline
 90
       16
 70
   128
 43
0.0
 10
243.7383069759
 20
32.9244324376
 10
244.0472618147
 20
34.1480859588
 10
244.5868968922
 20
35.9419505533
 10
245.2296929668
 20
37.7394480852
 10
245.9713444746
 20
39.5285400703
 10
246.8068846729
 20
41.2972428402
 10
247.7307159334
 20
43.0337096685
 10
248.7366518889
 20
44.7263121373
 10
249.8179543122
 20
46.3637116166
 10
250.9673811891
 20
47.93494101
 10
252.177233476
 20
49.4294766137
 10
253.4394077825
 20
50.8373080743
 10
254.7454510314
 20
52.1490079661
 10
256.0866151175
 20
53.3557892008
 10
257.4539171644
 20
54.4495687106
 10
258.6371451553
 20
55.2898330583
  0
LWPOLYLINE
  5
234
330
1F
100
AcDbEntity
  8
0
  6
Continuous
 62
     7
370
    25
100
AcDbPolyline
 90
       12
 70
   128
 43
0.0
 10
253.2666359967
 20
53.5463736834
 10
254.7169930183
 20
54.818976994
 10
256.1946249779
 20
55.9601260312
 10
257.6883507363
 20
56.9611850531
 10
259.1868672413
 20
57.8145795078
 10
260.678834974
 20
58.5138529649
 10
262.1529641353
 20
59.0537107866
 10
263.5980995576
 20
59.4300706666
 10
265.0033061093
 20
59.6400830358
 10
266.3579506014
 20
59.6821585739
 10
267.651781801
 20
59.5559809397
 10
268.8750097853
 20
59.2625023908
  0
LINE
  5
235
330
1F
100
AcDbEntity
  8
0
  6
Continuous
 62
     7
370
    25
100
AcDbLine
 10
270.3305317716
 20
58.4222474335
 30
0.0
 11
268.8750097853
 21
59.2625023908
 31
0.0
  0
LINE
  5
236
330
1F
100
AcDbEntity
  8
0
  6
Continuous
 62
     7
370
    25
100
AcDbLine
 10
241.8001528663
 20
33.5446343028
 30
0.0
 11
243.2556748525
 21
32.7043793455
 31
0.0
  0
ARC
  5
237
330
1F
100
AcDbEntity
  8
0
  6
Continuous
 62
     7
370
    25
100
AcDbCircle
 10
281.1328767379
 20
24.3135334379
 30
0.0
 40
40.40144044883893
100
AcDbArc
 50
136.9528122493
 51
166.7921386576
  0
SPLINE
  5
238
330
1F
100
AcDbEntity
  8
0
  6
Continuous
 62
     7
370
    25
100
AcDbSpline
210
0.0
220
0.0
230
1.0
 70
     8
 71
     3
 72
    34
 73
    30
 74
     0
 42
0.000000001
 43
0.00000001
 40
0.0
 40
0.0
 40
0.0
 40
0.0
 40
0.0624999999999989
 40
0.0624999999999989
 40
0.1249999999999978
 40
0.1249999999999978
 40
0.1874999999999968
 40
0.1874999999999968
 40
0.2499999999999962
 40
0.2499999999999962
 40
0.3124999999999957
 40
0.3124999999999957
 40
0.3749999999999952
 40
0.3749999999999952
 40
0.499999999999995
 40
0.499999999999995
 40
0.6249999999999948
 40
0.6249999999999948
 40
0.6874999999999954
 40
0.6874999999999954
 40
0.749999999999996
 40
0.749999999999996
 40
0.8124999999999966
 40
0.8124999999999966
 40
0.8749999999999977
 40
0.8749999999999977
 40
0.9374999999999989
 40
0.9374999999999989
 40
1.0
 40
1.0
 40
1.0
 40
1.0
 10
251.6078366295299
 20
51.89157605135065
 30
0.0
 10
251.6669620431732
 20
51.86199856749242
 30
0.0
 10
251.7297747386037
 20
51.83832254529689
 30
0.0
 10
251.8624837415283
 20
51.80224303487716
 30
0.0
 10
251.9330954378994
 20
51.78979514473791
 30
0.0
 10
252.0783434078768
 20
51.77708525101252
 30
0.0
 10
252.152325837639
 20
51.77674307111519
 30
0.0
 10
252.3030079024638
 20
51.78774941593781
 30
0.0
 10
252.3804559222639
 20
51.79933607992329
 30
0.0
 10
252.532388508239
 20
51.8335106226621
 30
0.0
 10
252.6073445888235
 20
51.85602302505209
 30
0.0
 10
252.7552796557322
 20
51.91183509765015
 30
0.0
 10
252.8282083688226
 20
51.94527994385644
 30
0.0
 10
253.0348208948325
 20
52.05764220317575
 30
0.0
 10
253.1617460708818
 20
52.15167960419649
 30
0.0
 10
253.3708528235087
 20
52.36028091937239
 30
0.0
 10
253.4554012067066
 20
52.47720501351611
 30
0.0
 10
253.5403747634807
 20
52.65573026348876
 30
0.0
 10
253.5623344640786
 20
52.71694684241544
 30
0.0
 10
253.5914455608184
 20
52.83775282492929
 30
0.0
 10
253.5988000235981
 20
52.89735335137443
 30
0.0
 10
253.5991429586425
 20
53.0150946415077
 30
0.0
 10
253.5919029158071
 20
53.0735460296448
 30
0.0
 10
253.5632910652852
 20
53.18430865403626
 30
0.0
 10
253.5420077237257
 20
53.23722109875889
 30
0.0
 10
253.4851795571187
 20
53.33813930606814
 30
0.0
 10
253.4497220681448
 20
53.38565432069925
 30
0.0
 10
253.3673171152582
 20
53.47191429858267
 30
0.0
 10
253.3201122126823
 20
53.51115985100274
 30
0.0
 10
253.2666360667934
 20
53.54637297911636
 30
0.0
  0
LINE
  5
239
330
1F
100
AcDbEntity
  8
0
  6
Continuous
 62
     7
370
    25
100
AcDbLine
 10
276.2525630653
 20
51.1193813249
 30
0.0
 11
276.3568449053
 21
51.3000031497
 31
0.0
  0
LINE
  5
23A
330
1F
100
AcDbEntity
  8
0
  6
Continuous
 62
     7
370
    25
100
AcDbLine
 10
273.9544547838
 20
49.792711653
 30
0.0
 11
276.2525630653
 21
51.1193813249
 31
0.0
  0
ARC
  5
23B
330
1F
100
AcDbEntity
  8
0
  6
Continuous
 62
     7
370
    25
100
AcDbCircle
 10
274.7825578814
 20
48.49810937
 30
0.0
 40
1.536798559128305
100
AcDbArc
 50
122.6053519586
 51
177.394632491
  0
LINE
  5
23C
330
1F
100
AcDbEntity
  8
0
  6
Continuous
 62
     7
370
    25
100
AcDbLine
 10
273.2473478867
 20
43.2639466653
 30
0.0
 11
273.2473478867
 21
48.5679669646
 31
0.0
  0
LINE
  5
23D
330
1F
100
AcDbEntity
  8
0
  6
Continuous
 62
     7
370
    25
100
AcDbLine
 10
243.6599085693
 20
21.8114932808
 30
0.0
 11
243.6144005096
 21
21.6931246577
 31
0.0
  0
LINE
  5
23E
330
1F
100
AcDbEntity
  8
0
  6
Continuous
 62
     7
370
    25
100
AcDbLine
 10
243.6599085693
 20
21.8114932808
 30
0.0
 11
246.8015530966
 21
23.6251260621
 31
0.0
  0
ARC
  5
23F
330
1F
100
AcDbEntity
  8
0
  6
Continuous
 62
     7
370
    25
100
AcDbCircle
 10
245.973449999
 20
24.9197283451
 30
0.0
 40
1.536798559128181
100
AcDbArc
 50
302.6053519586
 51
357.394632491
  0
LINE
  5
240
330
1F
100
AcDbEntity
  8
0
  6
Continuous
 62
     7
370
    25
100
AcDbLine
 10
247.5086599936
 20
33.7093387188
 30
0.0
 11
247.5086599936
 21
24.8498707504
 31
0.0
  0
ARC
  5
241
330
1F
100
AcDbEntity
  8
0
  6
Continuous
 62
     7
370
    25
100
AcDbCircle
 10
247.0775865106
 20
33.7792672658
 30
0.0
 40
0.4367085406723013
100
AcDbArc
 50
350.7857695821
 51
129.2035248725
  0
LINE
  5
242
330
1F
100
AcDbEntity
  8
0
  6
Continuous
 62
     7
370
    25
100
AcDbLine
 10
246.8015530966
 20
34.1176751614
 30
0.0
 11
243.6599085693
 21
32.3040423801
 31
0.0
  0
LINE
  5
243
330
1F
100
AcDbEntity
  8
0
  6
Continuous
 62
     7
370
    25
100
AcDbLine
 10
243.6144005096
 20
32.3698685158
 30
0.0
 11
243.6599085693
 21
32.3040423801
 31
0.0
  0
LINE
  5
244
330
1F
100
AcDbEntity
  8
0
  6
Continuous
 62
     7
370
    25
100
AcDbLine
 10
270.5426641041
 20
54.7637240956
 30
0.0
 11
270.5426641041
 21
57.9886852386
 31
0.0
  0
LINE
  5
245
330
1F
100
AcDbEntity
  8
0
  6
Continuous
 62
     7
370
    25
100
AcDbLine
 10
273.3354110925
 20
56.3759426149
 30
0.0
 11
270.5426641041
 21
54.7637240956
 31
0.0
  0
SPLINE
  5
246
330
1F
100
AcDbEntity
  8
0
  6
Continuous
 62
     7
370
    25
100
AcDbSpline
210
0.0
220
0.0
230
1.0
 70
     8
 71
     3
 72
     8
 73
     4
 74
     0
 42
0.000000001
 43
0.00000001
 40
0.0
 40
0.0
 40
0.0
 40
0.0
 40
1.0
 40
1.0
 40
1.0
 40
1.0
 10
240.7275985427692
 20
34.63614808784982
 30
0.0
 10
240.4405314130969
 20
34.58869608812646
 30
0.0
 10
240.1534182945114
 20
34.54133865542367
 30
0.0
 10
239.8662634681137
 20
34.4940669865116
 30
0.0
  0
SPLINE
  5
247
330
1F
100
AcDbEntity
  8
0
  6
Continuous
 62
     7
370
    25
100
AcDbSpline
210
0.0
220
0.0
230
1.0
 70
     8
 71
     3
 72
     8
 73
     4
 74
     0
 42
0.000000001
 43
0.00000001
 40
0.0
 40
0.0
 40
0.0
 40
0.0
 40
0.0011862984959112
 40
0.0011862984959112
 40
0.0011862984959112
 40
0.0011862984959112
 10
239.5139623808383
 20
34.86442388617377
 30
0.0
 10
239.6316732486828
 20
34.74087393506131
 30
0.0
 10
239.7491129991188
 20
34.61741888594604
 30
0.0
 10
239.8662634681137
 20
34.4940669865116
 30
0.0
  0
LWPOLYLINE
  5
248
330
1F
100
AcDbEntity
  8
0
  6
Continuous
 62
     7
370
    25
100
AcDbPolyline
 90
       24
 70
   128
 43
0.0
 10
239.513962594
 20
34.8644238545
 10
239.9846217196
 20
36.7257841017
 10
240.5697556371
 20
38.6017021752
 10
241.2651904914
 20
40.4787977418
 10
242.0659674422
 20
42.3436848387
 10
242.9663755916
 20
44.1830612242
 10
243.9599914965
 20
45.9838102768
 10
245.039729218
 20
47.7330861617
 10
246.1978890537
 20
49.418414968
 10
247.4262095627
 20
51.0277756935
 10
248.715930786
 20
52.5496914936
 10
250.0578548325
 20
53.9733057226
 10
251.4424097576
 20
55.2884674791
 10
252.8597213452
 20
56.485795859
 10
254.2996811015
 20
57.5567496263
 10
255.7520193338
 20
58.4936937347
 10
257.2063775278
 20
59.2899426317
 10
258.6523830521
 20
59.9398201143
 10
260.07972312
 20
60.4386898594
 10
261.4782171275
 20
60.7829941411
 10
262.8378915826
 20
60.9702773149
 10
264.1490490882
 20
60.9992043476
 10
265.4023376537
 20
60.8695673696
 10
266.588819513
 20
60.5822919425
  0
LINE
  5
249
330
1F
100
AcDbEntity
  8
0
  6
Continuous
 62
     7
370
    25
100
AcDbLine
 10
266.8876037905
 20
59.6421505804
 30
0.0
 11
266.588819513
 21
60.5822919425
 31
0.0
  0
LWPOLYLINE
  5
24A
330
1F
100
AcDbEntity
  8
0
  6
Continuous
 62
     7
370
    25
100
AcDbPolyline
 90
       23
 70
   128
 43
0.0
 10
240.7275985483
 20
34.6361480622
 10
241.1788477331
 20
36.4501557262
 10
241.7445835636
 20
38.2794539214
 10
242.420579501
 20
40.1103767658
 10
243.2017858262
 20
41.9292447662
 10
244.0823652005
 20
43.7224689986
 10
245.0557387643
 20
45.4766530054
 10
246.1146355277
 20
47.1786912713
 10
247.2511437371
 20
48.8158688385
 10
248.456772778
 20
50.3759517967
 10
249.7225157372
 20
51.8472872774
 10
251.038915257
 20
53.2188810152
 10
252.3961376217
 20
54.4804872658
 10
253.7840427274
 20
55.6226811382
 10
255.1922613794
 20
56.6369275519
 10
256.610272938
 20
57.5156503965
 10
258.027483583
 20
58.2522837956
 10
259.4333050506
 20
58.8413251657
 10
260.817235017
 20
59.2783740165
 10
262.1689338396
 20
59.5601640843
 10
263.4783027383
 20
59.6845917356
 10
264.7355603516
 20
59.6507251805
 10
264.9186297979
 20
59.6320413002
  0
LINE
  5
24B
330
1F
100
AcDbEntity
  8
0
  6
Continuous
 62
     7
370
    25
100
AcDbLine
 10
238.0761179179
 20
35.6944739178
 30
0.0
 11
239.513962594
 21
34.8644238545
 31
0.0
  0
ARC
  5
24C
330
1F
100
AcDbEntity
  8
0
  6
Continuous
 62
     7
370
    25
100
AcDbCircle
 10
262.2077923229
 20
51.5232035267
 30
0.0
 40
10.31781872162038
100
AcDbArc
 50
73.4260638919
 51
101.5149223456
  0
LINE
  5
24D
330
1F
100
AcDbEntity
  8
0
  6
Continuous
 62
     7
370
    25
100
AcDbLine
 10
266.588819513
 20
60.5822919425
 30
0.0
 11
265.150974837
 21
61.4123420059
 31
0.0
  0
LWPOLYLINE
  5
24E
330
1F
100
AcDbEntity
  8
0
  6
Continuous
 62
     7
370
    25
100
AcDbPolyline
 90
       55
 70
   128
 43
0.0
 10
271.9922325188
 20
39.5577676387
 10
270.9866289635
 20
38.9096110144
 10
269.994624517
 20
38.1349509676
 10
269.0296340602
 20
37.2442640875
 10
268.1047079694
 20
36.2495952618
 10
267.232353816
 20
35.1643946697
 10
266.4243690956
 20
34.0033390887
 10
265.69167972
 20
32.782129151
 10
265.0441948085
 20
31.5172796599
 10
264.4906703688
 20
30.2258956461
 10
264.0385914179
 20
28.925441198
 10
263.6940718829
 20
27.6335020166
 10
263.4617703077
 20
26.3675494899
 10
263.3448292667
 20
25.1447042418
 10
263.3448292667
 20
23.9815023898
 10
263.4617703077
 20
22.8936743938
 10
263.6940718829
 20
21.8959315568
 10
264.0385914179
 20
21.0017661636
 10
264.4906703688
 20
20.2232709621
 10
265.0441948085
 20
19.570972663
 10
265.69167972
 20
19.0536933382
 10
266.4243690956
 20
18.6784285472
 10
267.232353816
 20
18.4502522674
 10
268.1047079694
 20
18.3722503421
 10
269.0296340602
 20
18.4454784499
 10
269.994624517
 20
18.6689458358
 10
270.9866289635
 20
19.0396297436
 10
271.9922325188
 20
19.5525182707
 10
272.997836074
 20
20.200674895
 10
273.9898405205
 20
20.9753349417
 10
274.9548309774
 20
21.8660218219
 10
275.8797570681
 20
22.8606906476
 10
276.7521112215
 20
23.9458912396
 10
277.560095942
 20
25.1069468207
 10
278.2927853175
 20
26.3281567584
 10
278.9402702291
 20
27.5930062495
 10
279.4937946687
 20
28.8843902633
 10
279.9458736196
 20
30.1848447114
 10
280.2903931546
 20
31.4767838928
 10
280.5226947298
 20
32.7427364195
 10
280.6396357708
 20
33.9655816675
 10
280.6396357708
 20
35.1287835196
 10
280.5226947298
 20
36.2166115156
 10
280.2903931546
 20
37.2143543526
 10
279.9458736196
 20
38.1085197457
 10
279.4937946687
 20
38.8870149473
 10
278.9402702291
 20
39.5393132464
 10
278.2927853175
 20
40.0565925711
 10
277.560095942
 20
40.4318573622
 10
276.7521112215
 20
40.6600336419
 10
275.8797570681
 20
40.7380355673
 10
274.9548309774
 20
40.6648074595
 10
273.9898405205
 20
40.4413400736
 10
272.997836074
 20
40.0706561657
 10
271.9922325188
 20
39.5577676387
  0
LWPOLYLINE
  5
24F
330
1F
100
AcDbEntity
  8
0
  6
Continuous
 62
     7
370
    25
100
AcDbPolyline
 90
       29
 70
   128
 43
0.0
 10
271.8154554652
 20
39.8639544761
 10
270.8079042646
 20
39.2157769318
 10
269.8134878989
 20
38.4429891808
 10
268.8451704751
 20
37.5556646193
 10
267.9155749746
 20
36.5653717451
 10
267.0368207564
 20
35.4850202749
 10
266.2203632023
 20
34.3286940471
 10
265.4768460379
 20
33.1114676696
 10
264.8159623798
 20
31.8492091921
 10
264.2463279658
 20
30.5583749837
 10
263.7753685439
 20
29.2557922506
 10
263.4092243829
 20
27.9584426939
 10
263.1526679549
 20
26.6832385602
 10
263.0090440075
 20
25.4468046806
 10
262.9802254413
 20
24.2652596981
 10
263.0665869681
 20
23.1540065159
 10
263.2670044524
 20
22.1275328655
 10
263.5788634725
 20
21.1992196695
 10
263.9980988332
 20
20.3811686504
 10
264.5192459321
 20
19.6840456228
 10
265.135509907
 20
19.1169372351
 10
265.8388571735
 20
18.6872374612
 10
266.6201188164
 20
18.4005479707
 10
267.469109457
 20
18.2606056833
 10
268.3747612671
 20
18.269235798
 10
269.3252680253
 20
18.4263246878
 10
270.3082378997
 20
18.729825969
 10
271.3108568901
 20
19.1757818505
 10
271.8168920244
 20
19.4512631828
  0
LWPOLYLINE
  5
250
330
1F
100
AcDbEntity
  8
0
  6
Continuous
 62
     7
370
    25
100
AcDbPolyline
 90
       15
 70
   128
 43
0.0
 10
280.6542903618
 20
34.7597449504
 10
280.6218669229
 20
35.6144709248
 10
280.4782429755
 20
36.6850801245
 10
280.2216865476
 20
37.6640705114
 10
279.8555423866
 20
38.5386790182
 10
279.3845829646
 20
39.2975035769
 10
278.8149485506
 20
39.9306518902
 10
278.1540648926
 20
40.4298703378
 10
277.4105477282
 20
40.7886500699
 10
276.5940901741
 20
41.0023144708
 10
275.7153359559
 20
41.0680779168
 10
274.7857404553
 20
40.9850826717
 10
273.8174230316
 20
40.754411733
 10
272.8230066658
 20
40.3790707866
 10
271.8154554652
 20
39.8639544761
  0
SPLINE
  5
251
330
1F
100
AcDbEntity
  8
0
  6
Continuous
 62
     7
370
    25
100
AcDbSpline
210
0.0
220
0.0
230
1.0
 70
    11
 71
     3
 72
    83
 73
    79
 74
     0
 42
0.000000001
 43
0.00000001
 40
0.0
 40
0.0
 40
0.0
 40
0.0
 40
0.0312500000000008
 40
0.0312500000000008
 40
0.0625000000000016
 40
0.0625000000000016
 40
0.0937500000000024
 40
0.0937500000000024
 40
0.1093750000000028
 40
0.1093750000000028
 40
0.1250000000000032
 40
0.1250000000000032
 40
0.1562500000000034
 40
0.1562500000000034
 40
0.1875000000000037
 40
0.1875000000000037
 40
0.2187500000000039
 40
0.2187500000000039
 40
0.2500000000000042
 40
0.2500000000000042
 40
0.2812500000000044
 40
0.2812500000000044
 40
0.3125000000000047
 40
0.3125000000000047
 40
0.3437500000000049
 40
0.3437500000000049
 40
0.3593750000000049
 40
0.3593750000000049
 40
0.375000000000005
 40
0.3906250000000051
 40
0.3906250000000051
 40
0.4062500000000052
 40
0.4062500000000052
 40
0.4375000000000052
 40
0.4375000000000052
 40
0.4687500000000052
 40
0.4687500000000052
 40
0.5000000000000052
 40
0.5000000000000052
 40
0.5312500000000052
 40
0.5312500000000052
 40
0.5468750000000052
 40
0.5468750000000052
 40
0.5625000000000051
 40
0.5625000000000051
 40
0.5937500000000052
 40
0.5937500000000052
 40
0.6250000000000052
 40
0.6250000000000052
 40
0.6562500000000052
 40
0.6562500000000052
 40
0.6875000000000052
 40
0.6875000000000052
 40
0.7187500000000052
 40
0.7187500000000052
 40
0.7500000000000052
 40
0.7500000000000052
 40
0.765625000000005
 40
0.765625000000005
 40
0.7812500000000048
 40
0.7812500000000048
 40
0.8125000000000039
 40
0.8125000000000039
 40
0.8281250000000036
 40
0.8281250000000036
 40
0.8437500000000033
 40
0.8437500000000033
 40
0.8750000000000027
 40
0.8750000000000027
 40
0.8906250000000023
 40
0.8906250000000023
 40
0.9062500000000019
 40
0.9062500000000019
 40
0.9375000000000013
 40
0.9375000000000013
 40
0.9687500000000007
 40
0.9687500000000007
 40
1.0
 40
1.0
 40
1.0
 40
1.0
 10
267.3663805299324
 20
43.98696275826121
 30
0.0
 10
267.5605970076032
 20
43.95846512158204
 30
0.0
 10
267.7498429902368
 20
43.92024961960572
 30
0.0
 10
268.1194717570496
 20
43.82780215830548
 30
0.0
 10
268.3010394092743
 20
43.77311503349809
 30
0.0
 10
268.6497708858596
 20
43.65070838870992
 30
0.0
 10
268.8146950623668
 20
43.58391601395269
 30
0.0
 10
269.0485410130185
 20
43.47635079041482
 30
0.0
 10
269.1242172776068
 20
43.43925239147074
 30
0.0
 10
269.2709461631011
 20
43.36257812804411
 30
0.0
 10
269.3421061212816
 20
43.32291199758507
 30
0.0
 10
269.5446026771719
 20
43.20243582815485
 30
0.0
 10
269.6664490176211
 20
43.11949510795291
 30
0.0
 10
269.884067372607
 20
42.94799286869733
 30
0.0
 10
269.9805618922508
 20
42.85849736854633
 30
0.0
 10
270.1401545374308
 20
42.67813185865941
 30
0.0
 10
270.2038014708243
 20
42.58716855556245
 30
0.0
 10
270.2980112217546
 20
42.4020116031284
 30
0.0
 10
270.328535498111
 20
42.30677506946805
 30
0.0
 10
270.3514162527309
 20
42.11813015775958
 30
0.0
 10
270.3444312466221
 20
42.02427982894012
 30
0.0
 10
270.2911923211939
 20
41.83551335433267
 30
0.0
 10
270.2438957833089
 20
41.73972661436003
 30
0.0
 10
270.1109537224935
 20
41.55506383510814
 30
0.0
 10
270.0253737605669
 20
41.46509302763201
 30
0.0
 10
269.8659606981989
 20
41.33304864234987
 30
0.0
 10
269.8074452885957
 20
41.28949530985027
 30
0.0
 10
269.6831739979566
 20
41.20588886045447
 30
0.0
 10
269.550917632186
 20
41.12511349496639
 30
0.0
 10
269.4028835851436
 20
41.04989845309402
 30
0.0
 10
269.246804149012
 20
40.97755765925804
 30
0.0
 10
269.1645914966328
 20
40.94281673972356
 30
0.0
 10
268.9124995285229
 20
40.84576707721652
 30
0.0
 10
268.7351688333824
 20
40.78951634836096
 30
0.0
 10
268.3626114685355
 20
40.69447783597339
 30
0.0
 10
268.171377492381
 20
40.65684519727584
 30
0.0
 10
267.7862510861396
 20
40.60251815877238
 30
0.0
 10
267.5894817445437
 20
40.58561291761158
 30
0.0
 10
267.2040940372082
 20
40.574359285662
 30
0.0
 10
267.014506135781
 20
40.57967907179565
 30
0.0
 10
266.7344383909603
 20
40.60477240730428
 30
0.0
 10
266.6415913306003
 20
40.61606865095676
 30
0.0
 10
266.460654462868
 20
40.64412585551862
 30
0.0
 10
266.3721557367473
 20
40.66090806870569
 30
0.0
 10
266.1123657137587
 20
40.71950566216837
 30
0.0
 10
265.9467303152105
 20
40.76951588043127
 30
0.0
 10
265.6307743661935
 20
40.89275058373068
 30
0.0
 10
265.4844465083257
 20
40.96447335527888
 30
0.0
 10
265.215581543406
 20
41.12679852004253
 30
0.0
 10
265.09245749641
 20
41.2177943009482
 30
0.0
 10
264.8720418135856
 20
41.41830236730063
 30
0.0
 10
264.7772867946002
 20
41.52537850096328
 30
0.0
 10
264.6180744743122
 20
41.75194122557406
 30
0.0
 10
264.5533249815393
 20
41.87216542134978
 30
0.0
 10
264.4581424521584
 20
42.12144208160387
 30
0.0
 10
264.4284317664295
 20
42.24800345742924
 30
0.0
 10
264.4111108204922
 20
42.43949763732928
 30
0.0
 10
264.4099100031395
 20
42.50360633576537
 30
0.0
 10
264.4171633906139
 20
42.63218390003543
 30
0.0
 10
264.425729354195
 20
42.69705748321499
 30
0.0
 10
264.4661982861472
 20
42.88783454497148
 30
0.0
 10
264.5124573537136
 20
43.01041032941084
 30
0.0
 10
264.6120065638596
 20
43.18587556736841
 30
0.0
 10
264.6502533219721
 20
43.24295746543253
 30
0.0
 10
264.7376126194015
 20
43.35394491838773
 30
0.0
 10
264.7864351764254
 20
43.40736300609225
 30
0.0
 10
264.9454005775923
 20
43.55810798794002
 30
0.0
 10
265.0689032560257
 20
43.64731570723686
 30
0.0
 10
265.2814676584131
 20
43.76327407700848
 30
0.0
 10
265.3569281952785
 20
43.79884248356145
 30
0.0
 10
265.5128024633183
 20
43.8620459599197
 30
0.0
 10
265.5937123142278
 20
43.88997336662967
 30
0.0
 10
265.8451266990839
 20
43.96316719397856
 30
0.0
 10
266.0264640110414
 20
43.99799023255663
 30
0.0
 10
266.3970970877909
 20
44.03873469130127
 30
0.0
 10
266.587181661139
 20
44.04526948638767
 30
0.0
 10
266.9766636866049
 20
44.03361126784268
 30
0.0
 10
267.1721640522616
 20
44.01546039494039
 30
0.0
 10
267.3663805299324
 20
43.98696275826121
 30
0.0
  0
LINE
  5
252
330
1F
100
AcDbEntity
  8
0
  6
Continuous
 62
     7
370
    25
100
AcDbLine
 10
276.6126835197
 20
29.3864929206
 30
0.0
 11
278.3738712443
 21
31.5773936874
 31
0.0
  0
SPLINE
  5
253
330
1F
100
AcDbEntity
  8
0
  6
Continuous
 62
     7
370
    25
100
AcDbSpline
210
0.0
220
0.0
230
1.0
 70
     8
 71
     3
 72
    22
 73
    18
 74
     0
 42
0.000000001
 43
0.00000001
 40
0.0
 40
0.0
 40
0.0
 40
0.0
 40
0.0500000000000109
 40
0.0999999999999997
 40
0.1499999999999999
 40
0.2
 40
0.2500000000000001
 40
0.2968749999999668
 40
0.34375
 40
0.3906249999999997
 40
0.4374999999999987
 40
0.5292946909502638
 40
0.5292946909502638
 40
0.53125
 40
0.6250000000000003
 40
0.8125
 40
0.8968030376394989
 40
0.8968030376394989
 40
0.8968030376394989
 40
0.8968030376394989
 10
278.373871440249
 20
31.57739347869024
 30
0.0
 10
278.4550711222523
 20
31.67840511115146
 30
0.0
 10
278.6146605138755
 20
31.89841846354429
 30
0.0
 10
278.8338362509991
 20
32.27461452618238
 30
0.0
 10
279.0206970352037
 20
32.69190443415773
 30
0.0
 10
279.1580318760118
 20
33.13156241356989
 30
0.0
 10
279.2287051877173
 20
33.55872343698034
 30
0.0
 10
279.2282257673587
 20
33.94822822158921
 30
0.0
 10
279.1599035941226
 20
34.28039941087394
 30
0.0
 10
279.028178381746
 20
34.5473994773763
 30
0.0
 10
278.7882005139023
 20
34.80061633979015
 30
0.0
 10
278.5436413461816
 20
34.88468849820909
 30
0.0
 10
278.3710614620706
 20
34.90118446316423
 30
0.0
 10
278.2069573059293
 20
34.91690750218564
 30
0.0
 10
277.7977432831831
 20
34.95153917994598
 30
0.0
 10
277.4521104344648
 20
34.9834550111503
 30
0.0
 10
276.8210102422073
 20
35.03991012915742
 30
0.0
 10
276.6126369015471
 20
35.05852692316781
 30
0.0
  0
SPLINE
  5
254
330
1F
100
AcDbEntity
  8
0
  6
Continuous
 62
     7
370
    25
100
AcDbSpline
210
0.0
220
0.0
230
1.0
 70
     8
 71
     3
 72
    22
 73
    18
 74
     0
 42
0.000000001
 43
0.00000001
 40
0.0
 40
0.0
 40
0.0
 40
0.0
 40
0.0500000000000109
 40
0.0999999999999997
 40
0.1499999999999999
 40
0.2
 40
0.2500000000000001
 40
0.2968749999999668
 40
0.34375
 40
0.3906249999999997
 40
0.4374999999999987
 40
0.5292946909502638
 40
0.5292946909502638
 40
0.53125
 40
0.6250000000000003
 40
0.8125
 40
0.8955927989355191
 40
0.8955927989355191
 40
0.8955927989355191
 40
0.8955927989355191
 10
265.6105940398321
 20
24.2093102694905
 30
0.0
 10
265.5303381112925
 20
24.2164863588791
 30
0.0
 10
265.369366968937
 20
24.25236527193643
 30
0.0
 10
265.1507465893268
 20
24.37545675374393
 30
0.0
 10
264.9637370011671
 20
24.57701511194105
 30
0.0
 10
264.8264420186659
 20
24.85810604282386
 30
0.0
 10
264.7557582991306
 20
25.20367051990467
 30
0.0
 10
264.7562398695425
 20
25.5937279660891
 30
0.0
 10
264.8245632051716
 20
26.00478463105436
 30
0.0
 10
264.9562816646631
 20
26.42386274294132
 30
0.0
 10
265.1962936386189
 20
26.95419466161105
 30
0.0
 10
265.4406996308466
 20
27.32043825382447
 30
0.0
 10
265.6133987447533
 20
27.53633902608195
 30
0.0
 10
265.7776294619542
 20
27.74169012526842
 30
0.0
 10
266.187939985056
 20
28.25015430464235
 30
0.0
 10
266.5238729678504
 20
28.66905943446758
 30
0.0
 10
267.1645393796039
 20
29.46607071859266
 30
0.0
 10
267.3718289956354
 20
29.72392297547009
 30
0.0
  0
LINE
  5
255
330
1F
100
AcDbEntity
  8
0
  6
Continuous
 62
     7
370
    25
100
AcDbLine
 10
267.3717815178
 20
24.0518337463
 30
0.0
 11
265.6105937933
 21
24.209310449
 31
0.0
  0
LINE
  5
256
330
1F
100
AcDbEntity
  8
0
  6
Continuous
 62
     7
370
    25
100
AcDbLine
 10
241.9801893858
 20
34.3098060607
 30
0.0
 11
241.3540857681
 21
34.6712479857
 31
0.0
  0
SPLINE
  5
257
330
1F
100
AcDbEntity
  8
0
  6
Continuous
 62
     7
370
    25
100
AcDbSpline
210
0.0
220
0.0
230
1.0
 70
     8
 71
     3
 72
    11
 73
     7
 74
     0
 42
0.000000001
 43
0.00000001
 40
0.0
 40
0.0
 40
0.0
 40
0.0
 40
0.3165694752064712
 40
0.6331520400060429
 40
0.9494411625907934
 40
1.0
 40
1.0
 40
1.0
 40
1.0
 10
252.5746120737071
 20
52.65389473360353
 30
0.0
 10
252.4410218935034
 20
52.60671607068347
 30
0.0
 10
252.1738360093761
 20
52.5123567940883
 30
0.0
 10
251.8578858101774
 20
52.25254109489512
 30
0.0
 10
251.6771831192207
 20
52.02934970942263
 30
0.0
 10
251.6422481556706
 20
51.90060053192483
 30
0.0
 10
251.6374334331299
 20
51.88285637237768
 30
0.0
  0
SPLINE
  5
258
330
1F
100
AcDbEntity
  8
0
  6
Continuous
 62
     7
370
    25
100
AcDbSpline
210
0.0
220
0.0
230
1.0
 70
     8
 71
     3
 72
    14
 73
    10
 74
     0
 42
0.000000001
 43
0.00000001
 40
0.0
 40
0.0
 40
0.0
 40
0.0
 40
0.25
 40
0.25
 40
0.5
 40
0.5
 40
0.75
 40
0.75
 40
1.0
 40
1.0
 40
1.0
 40
1.0
 10
241.3540856555029
 20
34.67124815508186
 30
0.0
 10
241.3164516620448
 20
34.6929737970619
 30
0.0
 10
241.2706777053557
 20
34.71018555817341
 30
0.0
 10
241.1707418278457
 20
34.7325908918059
 30
0.0
 10
241.1163079590059
 20
34.73776577540573
 30
0.0
 10
241.0100923085139
 20
34.73582358109097
 30
0.0
 10
240.9567760085638
 20
34.72873517817273
 30
0.0
 10
240.8592829412631
 20
34.70400174188805
 30
0.0
 10
240.8143712507335
 20
34.686240905902
 30
0.0
 10
240.7766179851335
 20
34.66444640958002
 30
0.0
  0
LINE
  5
259
330
1F
100
AcDbEntity
  8
0
  6
Continuous
 62
     7
370
    25
100
AcDbLine
 10
240.7766179673
 20
34.6644463704
 30
0.0
 11
240.7275985483
 21
34.6361480622
 31
0.0
  0
SPLINE
  5
25A
330
1F
100
AcDbEntity
  8
0
  6
Continuous
 62
     7
370
    25
100
AcDbSpline
210
0.0
220
0.0
230
1.0
 70
     8
 71
     3
 72
    10
 73
     6
 74
     0
 42
0.000000001
 43
0.00000001
 40
0.0
 40
0.0
 40
0.0
 40
0.0
 40
0.5
 40
0.5
 40
1.0
 40
1.0
 40
1.0
 40
1.0
 10
237.9741053524833
 20
35.72392209675848
 30
0.0
 10
237.9814216369056
 20
35.72829009665167
 30
0.0
 10
237.9932454971139
 20
35.72882214923992
 30
0.0
 10
238.0273968613917
 20
35.71959209960163
 30
0.0
 10
238.0496538247845
 20
35.70975122228533
 30
0.0
 10
238.0761178428062
 20
35.69447386986901
 30
0.0
  0
SPLINE
  5
25B
330
1F
100
AcDbEntity
  8
0
  6
Continuous
 62
     7
370
    25
100
AcDbSpline
210
0.0
220
0.0
230
1.0
 70
     8
 71
     3
 72
    14
 73
    10
 74
     0
 42
0.000000001
 43
0.00000001
 40
0.0
 40
0.0
 40
0.0
 40
0.0
 40
0.25
 40
0.25
 40
0.5
 40
0.5
 40
0.75
 40
0.75
 40
1.0
 40
1.0
 40
1.0
 40
1.0
 10
252.9916909287328
 20
52.96034654274178
 30
0.0
 10
253.006531820862
 20
52.92182852390619
 30
0.0
 10
253.005898052958
 20
52.88390988575271
 30
0.0
 10
252.9729624479976
 20
52.81796893598344
 30
0.0
 10
252.9408266026556
 20
52.78969537844149
 30
0.0
 10
252.8559240272512
 20
52.74177635225399
 30
0.0
 10
252.8035071147581
 20
52.72189925480624
 30
0.0
 10
252.692171450463
 20
52.68604232878987
 30
0.0
 10
252.634016773752
 20
52.67017030510645
 30
0.0
 10
252.5746118180206
 20
52.6538949595517
 30
0.0
  0
LINE
  5
25C
330
1F
100
AcDbEntity
  8
0
  6
Continuous
 62
     7
370
    25
100
AcDbLine
 10
252.9755639339
 20
53.0022023853
 30
0.0
 11
252.9916910304
 21
52.9603468957
 31
0.0
  0
SPLINE
  5
25D
330
1F
100
AcDbEntity
  8
0
  6
Continuous
 62
     7
370
    25
100
AcDbSpline
210
0.0
220
0.0
230
1.0
 70
     8
 71
     3
 72
    10
 73
     6
 74
     0
 42
0.000000001
 43
0.00000001
 40
0.0
 40
0.0
 40
0.0
 40
0.0
 40
0.5
 40
0.5
 40
1.0
 40
1.0
 40
1.0
 40
1.0
 10
253.2666360667934
 20
53.54637297911636
 30
0.0
 10
253.2386210170556
 20
53.47434687642834
 30
0.0
 10
253.2008031286058
 20
53.39340039112489
 30
0.0
 10
253.1048273807708
 20
53.21300535478498
 30
0.0
 10
253.0467956034712
 20
53.11367914781017
 30
0.0
 10
252.9755638658811
 20
53.0022026862461
 30
0.0
  0
SPLINE
  5
25E
330
1F
100
AcDbEntity
  8
0
  6
Continuous
 62
     7
370
    25
100
AcDbSpline
210
0.0
220
0.0
230
1.0
 70
     8
 71
     3
 72
    11
 73
     7
 74
     0
 42
0.000000001
 43
0.00000001
 40
0.0
 40
0.0
 40
0.0
 40
0.0
 40
0.2801028700515402
 40
0.594981641837942
 40
0.9098466842382934
 40
1.0
 40
1.0
 40
1.0
 40
1.0
 10
265.5222052665005
 20
24.53917351432829
 30
0.0
 10
265.3995903600888
 20
24.56722393581068
 30
0.0
 10
265.1391374117943
 20
24.62680735180627
 30
0.0
 10
264.8779819441963
 20
24.9656478541921
 30
0.0
 10
264.7447337262181
 20
25.33543918518203
 30
0.0
 10
264.7712780919492
 20
25.59765726153979
 30
0.0
 10
264.7771866206301
 20
25.65602456405809
 30
0.0
  0
SPLINE
  5
25F
330
1F
100
AcDbEntity
  8
0
  6
Continuous
 62
     7
370
    25
100
AcDbSpline
210
0.0
220
0.0
230
1.0
 70
     8
 71
     3
 72
    12
 73
     8
 74
     0
 42
0.000000001
 43
0.00000001
 40
0.0
 40
0.0
 40
0.0
 40
0.0
 40
0.0039777659445959
 40
0.1372693767689647
 40
0.3618752438788039
 40
0.7855614106682706
 40
1.0
 40
1.0
 40
1.0
 40
1.0
 10
267.5467419763392
 20
29.96889077946881
 30
0.0
 10
267.5467358457519
 20
29.96877535352927
 30
0.0
 10
267.5465242843123
 20
29.96479210086817
 30
0.0
 10
267.5323789268317
 20
29.9400072721428
 30
0.0
 10
267.4940219883304
 20
29.88099669649129
 30
0.0
 10
267.4340066473162
 20
29.8018919484419
 30
0.0
 10
267.3874680071314
 20
29.74353407959591
 30
0.0
 10
267.3718289330242
 20
29.72392321361446
 30
0.0
  0
SPLINE
  5
260
330
1F
100
AcDbEntity
  8
0
  6
Continuous
 62
     7
370
    25
100
AcDbSpline
210
0.0
220
0.0
230
1.0
 70
     8
 71
     3
 72
    16
 73
    12
 74
     0
 42
0.000000001
 43
0.00000001
 40
0.0
 40
0.0
 40
0.0
 40
0.0
 40
0.2499999999999987
 40
0.2499999999999987
 40
0.4999999999999973
 40
0.4999999999999973
 40
0.6249999999999948
 40
0.6249999999999948
 40
0.7499999999999922
 40
0.7499999999999922
 40
1.0
 40
1.0
 40
1.0
 40
1.0
 10
276.6126369015488
 20
35.05852692316767
 30
0.0
 10
276.5809866634643
 20
35.06135466476327
 30
0.0
 10
276.5468579372186
 20
35.06283978225501
 30
0.0
 10
276.4696792931896
 20
35.060978127153
 30
0.0
 10
276.4259840627377
 20
35.05777860861947
 30
0.0
 10
276.3522694727216
 20
35.04393369168278
 30
0.0
 10
276.3263511558058
 20
35.03761487815274
 30
0.0
 10
276.2781479085949
 20
35.02205040704536
 30
0.0
 10
276.2558008171097
 20
35.01274254802359
 30
0.0
 10
276.200984273192
 20
34.98468600209097
 30
0.0
 10
276.1790046338106
 20
34.96631939470515
 30
0.0
 10
276.1627830211356
 20
34.94920949276777
 30
0.0
  0
SPLINE
  5
261
330
1F
100
AcDbEntity
  8
0
  6
Continuous
 62
     7
370
    25
100
AcDbSpline
210
0.0
220
0.0
230
1.0
 70
     8
 71
     3
 72
     8
 73
     4
 74
     0
 42
0.000000001
 43
0.00000001
 40
0.0
 40
0.0
 40
0.0
 40
0.0
 40
1.0
 40
1.0
 40
1.0
 40
1.0
 10
276.1627830211356
 20
34.94920949276777
 30
0.0
 10
276.1115530538912
 20
34.96866626136667
 30
0.0
 10
276.0608350618548
 20
34.99103301045991
 30
0.0
 10
276.0218107908065
 20
35.01356124260924
 30
0.0
  0
LINE
  5
262
330
1F
100
AcDbEntity
  8
0
  6
Continuous
 62
     7
370
    25
100
AcDbLine
 10
275.2091058779
 20
35.7807665377
 30
0.0
 11
275.1663133265
 21
35.8048732343
 31
0.0
  0
LINE
  5
263
330
1F
100
AcDbEntity
  8
0
  6
Continuous
 62
     7
370
    25
100
AcDbLine
 10
274.2083585945
 20
36.0604449865
 30
0.0
 11
276.0218110454
 21
35.0135611701
 31
0.0
  0
ARC
  5
264
330
1F
100
AcDbEntity
  8
0
  6
Continuous
 62
     7
370
    25
100
AcDbCircle
 10
263.420232641
 20
35.2720869269
 30
0.0
 40
8.708224248341159
100
AcDbArc
 50
338.0346241386
 51
1.6683887085
  0
LINE
  5
265
330
1F
100
AcDbEntity
  8
0
  6
Continuous
 62
     7
370
    25
100
AcDbLine
 10
271.4963274308
 20
32.0148085377
 30
0.0
 11
276.0218110454
 21
29.4023024558
 31
0.0
  0
LINE
  5
266
330
1F
100
AcDbEntity
  8
0
  6
Continuous
 62
     7
370
    25
100
AcDbLine
 10
268.2096746957
 20
23.6560820617
 30
0.0
 11
268.2524774545
 21
23.6319698508
 31
0.0
  0
LINE
  5
267
330
1F
100
AcDbEntity
  8
0
  6
Continuous
 62
     7
370
    25
100
AcDbLine
 10
264.8265201654
 20
25.9071762609
 30
0.0
 11
267.3969695282
 21
24.4232874292
 31
0.0
  0
LINE
  5
268
330
1F
100
AcDbEntity
  8
0
  6
Continuous
 62
     7
370
    25
100
AcDbLine
 10
243.6599085693
 20
32.3040423801
 30
0.0
 11
241.8320544086
 21
33.3592401266
 31
0.0
  0
SPLINE
  5
269
330
1F
100
AcDbEntity
  8
0
  6
Continuous
 62
     7
370
    25
100
AcDbSpline
210
0.0
220
0.0
230
1.0
 70
     8
 71
     3
 72
     8
 73
     4
 74
     0
 42
0.000000001
 43
0.00000001
 40
0.0000000000000004
 40
0.0000000000000004
 40
0.0000000000000004
 40
0.0000000000000004
 40
0.0011862984959127
 40
0.0011862984959127
 40
0.0011862984959127
 40
0.0011862984959127
 10
241.8320541410847
 20
33.35924018647306
 30
0.0
 10
241.8209919418271
 20
33.42134863139184
 30
0.0
 10
241.8103659352533
 20
33.48314141869345
 30
0.0
 10
241.8001528074359
 20
33.54463424541134
 30
0.0
  0
LINE
  5
26A
330
1F
100
AcDbEntity
  8
0
  6
Continuous
 62
     7
370
    25
100
AcDbLine
 10
241.9048386409
 20
34.1444150218
 30
0.0
 11
241.8849453284
 21
33.9150692653
 31
0.0
  0
ARC
  5
26B
330
1F
100
AcDbEntity
  8
0
  6
Continuous
 62
     7
370
    25
100
AcDbCircle
 10
257.8876218029
 20
32.4877690843
 30
0.0
 40
16.0629628324799
100
AcDbArc
 50
176.9225000953
 51
185.727139394
  0
LWPOLYLINE
  5
26C
330
1F
100
AcDbEntity
  8
0
  6
Continuous
 62
     7
370
    25
100
AcDbPolyline
 90
        3
 70
   128
 43
0.0
 10
240.9060512683
 20
33.244287211
 10
240.9636949862
 20
34.6537411202
 10
240.9679965989
 20
34.7065242557
  0
ARC
  5
26D
330
1F
100
AcDbEntity
  8
0
  6
Continuous
 62
     7
370
    25
100
AcDbCircle
 10
252.6024468503
 20
32.9419699686
 30
0.0
 40
11.70030193310964
100
AcDbArc
 50
178.5194031648
 51
203.8932285757
  0
LINE
  5
26E
330
1F
100
AcDbEntity
  8
0
  6
Continuous
 62
     7
370
    25
100
AcDbLine
 10
212.3511037137
 20
52.2945743868
 30
0.0
 11
212.2715587812
 21
52.363812111
 31
0.0
  0
LINE
  5
26F
330
1F
100
AcDbEntity
  8
0
  6
Continuous
 62
     7
370
    25
100
AcDbLine
 10
238.4096405828
 20
35.3349575739
 30
0.0
 11
237.9741047638
 21
35.7239217436
 31
0.0
  0
LINE
  5
270
330
1F
100
AcDbEntity
  8
0
  6
Continuous
 62
     7
370
    25
100
AcDbLine
 10
239.8662638201
 20
34.4940668778
 30
0.0
 11
238.4096405828
 21
35.3349575739
 31
0.0
  0
LINE
  5
271
330
1F
100
AcDbEntity
  8
0
  6
Continuous
 62
     7
370
    25
100
AcDbLine
 10
267.468128555
 20
24.3651784782
 30
0.0
 11
265.5222052665
 21
24.5391735143
 31
0.0
  0
SPLINE
  5
272
330
1F
100
AcDbEntity
  8
0
  6
Continuous
 62
     7
370
    25
100
AcDbSpline
210
0.0
220
0.0
230
1.0
 70
     8
 71
     3
 72
    16
 73
    12
 74
     0
 42
0.000000001
 43
0.00000001
 40
0.0
 40
0.0
 40
0.0
 40
0.0
 40
0.2499999999999981
 40
0.2499999999999981
 40
0.4999999999999962
 40
0.4999999999999962
 40
0.6249999999999971
 40
0.6249999999999971
 40
0.7499999999999981
 40
0.7499999999999981
 40
1.0
 40
1.0
 40
1.0
 40
1.0
 10
267.3717816720825
 20
24.05183355581833
 30
0.0
 10
267.403042730728
 20
24.04903834610231
 30
0.0
 10
267.4339728733581
 20
24.0496418668211
 30
0.0
 10
267.4906287852368
 20
24.0635461122212
 30
0.0
 10
267.5174699708211
 20
24.07645503485428
 30
0.0
 10
267.5428220613585
 20
24.11836511441262
 30
0.0
 10
267.5482566821157
 20
24.13650206333137
 30
0.0
 10
267.5493782834579
 20
24.17913131771853
 30
0.0
 10
267.5450154359455
 20
24.2036743292574
 30
0.0
 10
267.5217718736276
 20
24.27695429671132
 30
0.0
 10
267.4956437062409
 20
24.32297834630316
 30
0.0
 10
267.4681290683421
 20
24.36517818907501
 30
0.0
  0
SPLINE
  5
273
330
1F
100
AcDbEntity
  8
0
  6
Continuous
 62
     7
370
    25
100
AcDbSpline
210
0.0
220
0.0
230
1.0
 70
     8
 71
     3
 72
     8
 73
     4
 74
     0
 42
0.000000001
 43
0.00000001
 40
0.0
 40
0.0
 40
0.0
 40
0.0
 40
1.0
 40
1.0
 40
1.0
 40
1.0
 10
267.3969692643255
 20
24.4232876560031
 30
0.0
 10
267.4359567550241
 20
24.40078065669776
 30
0.0
 10
267.4583744221475
 20
24.38092846938092
 30
0.0
 10
267.4681290683421
 20
24.36517818907503
 30
0.0
  0
LINE
  5
274
330
1F
100
AcDbEntity
  8
0
  6
Continuous
 62
     7
370
    25
100
AcDbLine
 10
241.9048386409
 20
34.1444150218
 30
0.0
 11
241.9048386409
 21
33.9992651846
 31
0.0
  0
LINE
  5
275
330
1F
100
AcDbEntity
  8
0
  6
Continuous
 62
     7
370
    25
100
AcDbLine
 10
241.9048386409
 20
33.3172219872
 30
0.0
 11
241.9048386409
 21
30.8848288627
 31
0.0
  0
LINE
  5
276
330
1F
100
AcDbEntity
  8
0
  6
Continuous
 62
     7
370
    25
100
AcDbLine
 10
241.9048386409
 20
34.3533046722
 30
0.0
 11
241.9048386409
 21
34.1444150218
 31
0.0
  0
LINE
  5
277
330
1F
100
AcDbEntity
  8
0
  6
Continuous
 62
     7
370
    25
100
AcDbLine
 10
241.9048386409
 20
30.8848288627
 30
0.0
 11
241.9048386409
 21
28.01483982
 31
0.0
  0
SPLINE
  5
278
330
1F
100
AcDbEntity
  8
0
  6
Continuous
 62
     7
370
    25
100
AcDbSpline
210
0.0
220
0.0
230
1.0
 70
     8
 71
     3
 72
     8
 73
     4
 74
     0
 42
0.000000001
 43
0.00000001
 40
0.0
 40
0.0
 40
0.0
 40
0.0
 40
1.0
 40
1.0
 40
1.0
 40
1.0
 10
276.0218107908065
 20
29.40230268792564
 30
0.0
 10
276.060798281505
 20
29.37979568862029
 30
0.0
 10
276.1115460616237
 20
29.37629812741756
 30
0.0
 10
276.1627830211457
 20
29.38449507686447
 30
0.0
  0
SPLINE
  5
279
330
1F
100
AcDbEntity
  8
0
  6
Continuous
 62
     7
370
    25
100
AcDbSpline
210
0.0
220
0.0
230
1.0
 70
     8
 71
     3
 72
    16
 73
    12
 74
     0
 42
0.000000001
 43
0.00000001
 40
0.0
 40
0.0
 40
0.0
 40
0.0
 40
0.25
 40
0.25
 40
0.375
 40
0.375
 40
0.5
 40
0.5
 40
0.75
 40
0.75
 40
1.0
 40
1.0
 40
1.0
 40
1.0
 10
276.1627830211457
 20
29.38449507686444
 30
0.0
 10
276.1789122437694
 20
29.33570601358258
 30
0.0
 10
276.2013185524914
 20
29.28657997248508
 30
0.0
 10
276.2556443747234
 20
29.2323403820816
 30
0.0
 10
276.2777108703862
 20
29.21801999827064
 30
0.0
 10
276.326057059615
 20
29.20368490354638
 30
0.0
 10
276.3521420250091
 20
29.20370423478563
 30
0.0
 10
276.4258796982534
 20
29.21917278724355
 30
0.0
 10
276.4693558562927
 20
29.2468734212676
 30
0.0
 10
276.5466635210074
 20
29.31024860103643
 30
0.0
 10
276.5813169234357
 20
29.34747270127079
 30
0.0
 10
276.6126838079986
 20
29.38649280746776
 30
0.0
  0
LINE
  5
27A
330
1F
100
AcDbEntity
  8
0
  6
Continuous
 62
     7
370
    25
100
AcDbLine
 10
241.8320544086
 20
22.8666910272
 30
0.0
 11
243.6599085693
 21
21.8114932808
 31
0.0
  0
SPLINE
  5
27B
330
1F
100
AcDbEntity
  8
0
  6
Continuous
 62
     7
370
    25
100
AcDbSpline
210
0.0
220
0.0
230
1.0
 70
     8
 71
     3
 72
    14
 73
    10
 74
     0
 42
0.000000001
 43
0.00000001
 40
0.0
 40
0.0
 40
0.0
 40
0.0
 40
0.25
 40
0.25
 40
0.5
 40
0.5
 40
0.75
 40
0.75
 40
1.0
 40
1.0
 40
1.0
 40
1.0
 10
243.6144010194098
 20
21.69312501141242
 30
0.0
 10
243.5977261763434
 20
21.64975239330584
 30
0.0
 10
243.5774309334274
 20
21.60952206385998
 30
0.0
 10
243.529133954357
 20
21.53575017618785
 30
0.0
 10
243.5009151065519
 20
21.50218056951074
 30
0.0
 10
243.4379897581288
 20
21.44862916384811
 30
0.0
 10
243.4028265821118
 20
21.42817313448846
 30
0.0
 10
243.3281435929034
 20
21.41074084097658
 30
0.0
 10
243.2896187176949
 20
21.41468814996147
 30
0.0
 10
243.2556750149977
 20
21.4342834324313
 30
0.0
  0
LINE
  5
27C
330
1F
100
AcDbEntity
  8
0
  6
Continuous
 62
     7
370
    25
100
AcDbLine
 10
243.2556748525
 20
21.4342835561
 30
0.0
 11
241.8001528663
 21
22.2745385134
 31
0.0
  0
SPLINE
  5
27D
330
1F
100
AcDbEntity
  8
0
  6
Continuous
 62
     7
370
    25
100
AcDbSpline
210
0.0
220
0.0
230
1.0
 70
     8
 71
     3
 72
     8
 73
     4
 74
     0
 42
0.000000001
 43
0.00000001
 40
0.0
 40
0.0
 40
0.0
 40
0.0
 40
0.0011862984959112
 40
0.0011862984959112
 40
0.0011862984959112
 40
0.0011862984959112
 10
241.8001528074359
 20
22.27453851752432
 30
0.0
 10
241.8103659352533
 20
22.47193741941325
 30
0.0
 10
241.8209919418285
 20
22.66932325639003
 30
0.0
 10
241.8320541410861
 20
22.86669075374036
 30
0.0
  0
ARC
  5
27E
330
1F
100
AcDbEntity
  8
0
  6
Continuous
 62
     7
370
    25
100
AcDbCircle
 10
252.1403920535
 20
23.4001681502
 30
0.0
 40
9.061897959805167
100
AcDbArc
 50
196.3008007218
 51
281.7962055315
  0
SPLINE
  5
27F
330
1F
100
AcDbEntity
  8
0
  6
Continuous
 62
     7
370
    25
100
AcDbSpline
210
0.0
220
0.0
230
1.0
 70
     8
 71
     3
 72
     8
 73
     4
 74
     0
 42
0.000000001
 43
0.00000001
 40
0.0
 40
0.0
 40
0.0
 40
0.0
 40
1.0
 40
1.0
 40
1.0
 40
1.0
 10
242.0781724948355
 20
23.36392890832724
 30
0.0
 10
241.9959743140498
 20
23.19820858182376
 30
0.0
 10
241.9139399458979
 20
23.03246170648579
 30
0.0
 10
241.8320541410861
 20
22.86669075374037
 30
0.0
  0
LINE
  5
280
330
1F
100
AcDbEntity
  8
0
  6
Continuous
 62
     7
370
    25
100
AcDbLine
 10
242.1271919958
 20
23.3922274801
 30
0.0
 11
242.0781725768
 21
23.3639291719
 31
0.0
  0
SPLINE
  5
281
330
1F
100
AcDbEntity
  8
0
  6
Continuous
 62
     7
370
    25
100
AcDbSpline
210
0.0
220
0.0
230
1.0
 70
     8
 71
     3
 72
    12
 73
     8
 74
     0
 42
0.000000001
 43
0.00000001
 40
0.0
 40
0.0
 40
0.0
 40
0.0
 40
0.249999999999997
 40
0.249999999999997
 40
0.499999999999994
 40
0.499999999999994
 40
1.0
 40
1.0
 40
1.0
 40
1.0
 10
242.13897418262
 20
23.72559222028837
 30
0.0
 10
242.1765729671946
 20
23.70388690396408
 30
0.0
 10
242.206750526441
 20
23.6770850333909
 30
0.0
 10
242.2453402611219
 20
23.61946132856092
 30
0.0
 10
242.2541997463117
 20
23.58841320298954
 30
0.0
 10
242.2491523124734
 20
23.49622422658424
 30
0.0
 10
242.2024500253981
 20
23.43567279960938
 30
0.0
 10
242.1271919371998
 20
23.39222723005744
 30
0.0
  0
LINE
  5
282
330
1F
100
AcDbEntity
  8
0
  6
Continuous
 62
     7
370
    25
100
AcDbLine
 10
241.3540857681
 20
24.1786988863
 30
0.0
 11
242.1389743449
 21
23.7255923556
 31
0.0
  0
SPLINE
  5
283
330
1F
100
AcDbEntity
  8
0
  6
Continuous
 62
     7
370
    25
100
AcDbSpline
210
0.0
220
0.0
230
1.0
 70
     8
 71
     3
 72
    10
 73
     6
 74
     0
 42
0.000000001
 43
0.00000001
 40
0.0
 40
0.0
 40
0.0
 40
0.0
 40
0.5
 40
0.5
 40
1.0
 40
1.0
 40
1.0
 40
1.0
 10
240.7766179851335
 20
24.17189697684813
 30
0.0
 10
240.852755375472
 20
24.21585015672084
 30
0.0
 10
240.9562631561564
 20
24.24233682289963
 30
0.0
 10
241.1707584482422
 20
24.24616489328697
 30
0.0
 10
241.2781886926604
 20
24.22251310638356
 30
0.0
 10
241.3540856555029
 20
24.17869872234998
 30
0.0
  0
LINE
  5
284
330
1F
100
AcDbEntity
  8
0
  6
Continuous
 62
     7
370
    25
100
AcDbLine
 10
240.7275985483
 20
24.1435989628
 30
0.0
 11
240.7766179673
 21
24.1718972711
 31
0.0
  0
SPLINE
  5
285
330
1F
100
AcDbEntity
  8
0
  6
Continuous
 62
     7
370
    25
100
AcDbSpline
210
0.0
220
0.0
230
1.0
 70
     8
 71
     3
 72
     8
 73
     4
 74
     0
 42
0.000000001
 43
0.00000001
 40
0.0
 40
0.0
 40
0.0
 40
0.0
 40
1.0
 40
1.0
 40
1.0
 40
1.0
 10
239.8662634681147
 20
24.00151755377986
 30
0.0
 10
240.153418294512
 20
24.04878922269189
 30
0.0
 10
240.4405314130972
 20
24.09614665539463
 30
0.0
 10
240.7275985427692
 20
24.14359865511793
 30
0.0
  0
LINE
  5
286
330
1F
100
AcDbEntity
  8
0
  6
Continuous
 62
     7
370
    25
100
AcDbLine
 10
238.4096405828
 20
24.8424084745
 30
0.0
 11
239.8662638201
 21
24.0015177785
 31
0.0
  0
LINE
  5
287
330
1F
100
AcDbEntity
  8
0
  6
Continuous
 62
     7
370
    25
100
AcDbLine
 10
238.4096405828
 20
24.8424084745
 30
0.0
 11
241.5512851101
 21
26.6560412558
 31
0.0
  0
ARC
  5
288
330
1F
100
AcDbEntity
  8
0
  6
Continuous
 62
     7
370
    25
100
AcDbCircle
 10
251.379080695
 20
24.7377414641
 30
0.0
 40
9.8905625282467
100
AcDbArc
 50
194.4210541018
 51
238.0225374632
  0
SPLINE
  5
289
330
1F
100
AcDbEntity
  8
0
  6
Continuous
 62
     7
370
    25
100
AcDbSpline
210
0.0
220
0.0
230
1.0
 70
     8
 71
     3
 72
    30
 73
    26
 74
     0
 42
0.000000001
 43
0.00000001
 40
0.0
 40
0.0
 40
0.0
 40
0.0
 40
0.1250000000000008
 40
0.1250000000000008
 40
0.1875000000000007
 40
0.1875000000000007
 40
0.2500000000000007
 40
0.2500000000000007
 40
0.3125000000000007
 40
0.3125000000000007
 40
0.3750000000000007
 40
0.3750000000000007
 40
0.4375000000000006
 40
0.4375000000000006
 40
0.5000000000000006
 40
0.5000000000000006
 40
0.6250000000000004
 40
0.6250000000000004
 40
0.6875000000000003
 40
0.6875000000000003
 40
0.7500000000000003
 40
0.7500000000000003
 40
0.8750000000000002
 40
0.8750000000000002
 40
1.0
 40
1.0
 40
1.0
 40
1.0
 10
278.1087063973042
 20
31.80520525725888
 30
0.0
 10
278.2219964877028
 20
31.94613705268606
 30
0.0
 10
278.3242946548296
 20
32.0959274743719
 30
0.0
 10
278.4601693447394
 20
32.33439399812766
 30
0.0
 10
278.5028206449524
 20
32.4168185162141
 30
0.0
 10
278.5802655687346
 20
32.58241682883801
 30
0.0
 10
278.6151441219797
 20
32.66569179916858
 30
0.0
 10
278.6774058240031
 20
32.83315905768212
 30
0.0
 10
278.7048098577786
 20
32.9173399380768
 30
0.0
 10
278.7519715683016
 20
33.08660675958811
 30
0.0
 10
278.7715250059049
 20
33.17115092587223
 30
0.0
 10
278.8022019547723
 20
33.33617826272469
 30
0.0
 10
278.8134487382413
 20
33.4172385634982
 30
0.0
 10
278.8279181542782
 20
33.5763646708193
 30
0.0
 10
278.8311690375441
 20
33.65489691552417
 30
0.0
 10
278.8286513304569
 20
33.88198554781578
 30
0.0
 10
278.8111609254393
 20
34.02030066424419
 30
0.0
 10
278.7619545619995
 20
34.20799598352014
 30
0.0
 10
278.741589967661
 20
34.26722630836687
 30
0.0
 10
278.6941195009958
 20
34.375543613546
 30
0.0
 10
278.6668984799114
 20
34.425131710364
 30
0.0
 10
278.5748735864427
 20
34.56029428365277
 30
0.0
 10
278.4986349225643
 20
34.63258289854748
 30
0.0
 10
278.3229497491527
 20
34.73420926270154
 30
0.0
 10
278.2220067108809
 20
34.76508386136653
 30
0.0
 10
278.1087063978009
 20
34.7752146195154
 30
0.0
  0
LWPOLYLINE
  5
28A
330
1F
100
AcDbEntity
  8
0
  6
Continuous
 62
     7
370
    25
100
AcDbPolyline
 90
        3
 70
   128
 43
0.0
 10
278.1087056639
 20
34.7752148366
 10
277.2386639896
 20
34.8530097942
 10
276.1627823755
 20
34.9492098727
  0
ELLIPSE
  5
28B
330
1F
100
AcDbEntity
  8
0
  6
Continuous
 62
     7
370
    25
100
AcDbEllipse
 10
241.2583925911
 20
27.6416659001
 30
0.0
 11
-7.507462981948265E-5
 21
1.066811201853401
 31
0.0
210
0.0
220
0.0
230
1.0
 40
0.7174342186
 41
3.534193645557478
 42
5.104989972352352
  0
ARC
  5
28C
330
1F
100
AcDbEntity
  8
0
  6
Continuous
 62
     7
370
    25
100
AcDbCircle
 10
251.237816782
 20
27.0317399849
 30
0.0
 40
10.89981861699966
100
AcDbArc
 50
195.3652578774
 51
215.9035762319
  0
ARC
  5
28D
330
1F
100
AcDbEntity
  8
0
  6
Continuous
 62
     7
370
    25
100
AcDbCircle
 10
248.6339930178
 20
25.7642152981
 30
0.0
 40
9.374612820624542
100
AcDbArc
 50
193.3832905048
 51
247.5353305273
  0
SPLINE
  5
28E
330
1F
100
AcDbEntity
  8
0
  6
Continuous
 62
     7
370
    25
100
AcDbSpline
210
0.0
220
0.0
230
1.0
 70
     8
 71
     3
 72
     8
 73
     4
 74
     0
 42
0.000000001
 43
0.00000001
 40
0.0000000000000004
 40
0.0000000000000004
 40
0.0000000000000004
 40
0.0000000000000004
 40
0.0011862984959127
 40
0.0011862984959127
 40
0.0011862984959127
 40
0.0011862984959127
 10
239.8662634681151
 20
24.0015175537789
 30
0.0
 10
239.7491129991201
 20
23.86539351094414
 30
0.0
 10
239.6316732486829
 20
23.72966993578121
 30
0.0
 10
239.5139623808383
 20
23.59432815828674
 30
0.0
  0
LINE
  5
28F
330
1F
100
AcDbEntity
  8
0
  6
Continuous
 62
     7
370
    25
100
AcDbLine
 10
237.9741047638
 20
24.590926767
 30
0.0
 11
238.4096405828
 21
24.8424084745
 31
0.0
  0
LINE
  5
290
330
1F
100
AcDbEntity
  8
0
  6
Continuous
 62
     7
370
    25
100
AcDbLine
 10
239.513962594
 20
23.5943280651
 30
0.0
 11
238.0761179179
 21
24.4243781284
 31
0.0
  0
SPLINE
  5
291
330
1F
100
AcDbEntity
  8
0
  6
Continuous
 62
     7
370
    25
100
AcDbSpline
210
0.0
220
0.0
230
1.0
 70
     8
 71
     3
 72
    10
 73
     6
 74
     0
 42
0.000000001
 43
0.00000001
 40
0.0
 40
0.0
 40
0.0
 40
0.0
 40
0.5
 40
0.5
 40
1.0
 40
1.0
 40
1.0
 40
1.0
 10
238.0761178428062
 20
24.42437814198198
 30
0.0
 10
238.0497084135255
 20
24.4396239809889
 30
0.0
 10
238.0274250093164
 20
24.46348140340115
 30
0.0
 10
237.9933178744949
 20
24.52140749513543
 30
0.0
 10
237.98141784444
 20
24.55530602661629
 30
0.0
 10
237.9741053524833
 20
24.59092706907064
 30
0.0
  0
ARC
  5
292
330
1F
100
AcDbEntity
  8
0
  6
Continuous
 62
     7
370
    25
100
AcDbCircle
 10
247.5470826163
 20
26.770466487
 30
0.0
 40
9.734088471257465
100
AcDbArc
 50
197.3399090963
 51
238.1965202407
  0
ARC
  5
293
330
1F
100
AcDbEntity
  8
0
  6
Continuous
 62
     7
370
    25
100
AcDbCircle
 10
270.8785275013
 20
36.6096982836
 30
0.0
 40
3.360505625278236
100
AcDbArc
 50
320.6498233595
 51
350.7253980182
  0
LINE
  5
294
330
1F
100
AcDbEntity
  8
0
  6
Continuous
 62
     7
370
    25
100
AcDbLine
 10
276.1627823755
 20
29.3844952897
 30
0.0
 11
278.1087056639
 21
31.8052055319
 31
0.0
  0
LINE
  5
295
330
1F
100
AcDbEntity
  8
0
  6
Continuous
 62
     7
370
    25
100
AcDbLine
 10
271.4963274308
 20
32.0148085377
 30
0.0
 11
273.477156871
 21
34.4789417381
 31
0.0
  0
ELLIPSE
  5
296
330
1F
100
AcDbEntity
  8
0
  6
Continuous
 62
     7
370
    25
100
AcDbEllipse
 10
241.1977324194
 20
27.6066361445
 30
0.0
 11
0.3250094736511925
 21
1.213179526238665
 31
0.0
210
0.0
220
0.0
230
1.0
 40
0.5176380889
 41
3.619174351347777
 42
5.189970678142607
  0
SPLINE
  5
297
330
1F
100
AcDbEntity
  8
0
  6
Continuous
 62
     7
370
    25
100
AcDbSpline
210
0.0
220
0.0
230
1.0
 70
     8
 71
     3
 72
    12
 73
     8
 74
     0
 42
0.000000001
 43
0.00000001
 40
0.0
 40
0.0
 40
0.0
 40
0.0
 40
0.5000000000000003
 40
0.5000000000000003
 40
0.7500000000000001
 40
0.7500000000000001
 40
1.0
 40
1.0
 40
1.0
 40
1.0
 10
267.7315895083586
 20
59.61095944549145
 30
0.0
 10
267.7946493855882
 20
59.6473631377417
 30
0.0
 10
267.8745823388193
 20
59.67419444959329
 30
0.0
 10
268.0075615271259
 20
59.68795129110382
 30
0.0
 10
268.053232696238
 20
59.68783015730489
 30
0.0
 10
268.1408705148755
 20
59.67505577568325
 30
0.0
 10
268.1816144257296
 20
59.66221579002849
 30
0.0
 10
268.2131281080682
 20
59.64402332845185
 30
0.0
  0
LINE
  5
298
330
1F
100
AcDbEntity
  8
0
  6
Continuous
 62
     7
370
    25
100
AcDbLine
 10
268.2131284323
 20
59.6440237
 30
0.0
 11
268.8727967465
 21
59.2632052881
 31
0.0
  0
LINE
  5
299
330
1F
100
AcDbEntity
  8
0
  6
Continuous
 62
     7
370
    25
100
AcDbLine
 10
270.5426637749
 20
57.1884090715
 30
0.0
 11
271.9371633807
 21
57.4941840849
 31
0.0
  0
LINE
  5
29A
330
1F
100
AcDbEntity
  8
0
  6
Continuous
 62
     7
370
    25
100
AcDbLine
 10
271.9371633807
 20
57.4941840849
 30
0.0
 11
273.3926853669
 21
56.6539291276
 31
0.0
  0
SPLINE
  5
29B
330
1F
100
AcDbEntity
  8
0
  6
Continuous
 62
     7
370
    25
100
AcDbSpline
210
0.0
220
0.0
230
1.0
 70
     8
 71
     3
 72
    12
 73
     8
 74
     0
 42
0.000000001
 43
0.00000001
 40
0.0
 40
0.0
 40
0.0
 40
0.0
 40
0.250000000000004
 40
0.250000000000004
 40
0.500000000000008
 40
0.500000000000008
 40
1.0
 40
1.0
 40
1.0
 40
1.0
 10
273.3926852802599
 20
56.65392861890107
 30
0.0
 10
273.42434141076
 20
56.63565392375114
 30
0.0
 10
273.44664068777
 20
56.61182981295286
 30
0.0
 10
273.468461258362
 20
56.56179791050516
 30
0.0
 10
273.4687420206882
 20
56.53540670209126
 30
0.0
 10
273.4453746465674
 20
56.45933147209634
 30
0.0
 10
273.3983362437624
 20
56.41226841714593
 30
0.0
 10
273.3354107492621
 20
56.37594230239395
 30
0.0
  0
LINE
  5
29C
330
1F
100
AcDbEntity
  8
0
  6
Continuous
 62
     7
370
    25
100
AcDbLine
 10
267.7315897398
 20
59.6109598226
 30
0.0
 11
267.6397991721
 21
59.5579702558
 31
0.0
  0
SPLINE
  5
29D
330
1F
100
AcDbEntity
  8
0
  6
Continuous
 62
     7
370
    25
100
AcDbSpline
210
0.0
220
0.0
230
1.0
 70
     8
 71
     3
 72
    10
 73
     6
 74
     0
 42
0.000000001
 43
0.00000001
 40
0.0
 40
0.0
 40
0.0
 40
0.0
 40
0.4037649593212062
 40
0.8085921653615464
 40
1.0
 40
1.0
 40
1.0
 40
1.0
 10
276.356844905269
 20
51.30000314968248
 30
0.0
 10
276.3750863314686
 20
51.33876723124693
 30
0.0
 10
276.4116171743997
 20
51.41639737702071
 30
0.0
 10
276.4255538005785
 20
51.52380742070916
 30
0.0
 10
276.4074945654307
 20
51.57709097060386
 30
0.0
 10
276.4016970546186
 20
51.59419645453445
 30
0.0
  0
ARC
  5
29E
330
1F
100
AcDbEntity
  8
0
  6
Continuous
 62
     7
370
    25
100
AcDbCircle
 10
266.2788886903
 20
49.158901532
 30
0.0
 40
10.33351546254145
100
AcDbArc
 50
19.8734020784
 51
46.4948476325
  0
LWPOLYLINE
  5
29F
330
1F
100
AcDbEntity
  8
0
  6
Continuous
 62
     7
370
    25
100
AcDbPolyline
 90
        3
 70
   128
 43
0.0
 10
270.5426634456
 20
57.869398858
 10
270.5811184936
 20
57.8219347606
 10
270.9662366389
 20
57.3087086067
  0
LWPOLYLINE
  5
2A0
330
1F
100
AcDbEntity
  8
0
  6
Continuous
 62
     7
370
    18
100
AcDbPolyline
 90
       21
 70
   128
 43
0.0
 10
243.2556748525
 20
32.7043793455
 10
243.7263339782
 20
34.5657395926
 10
244.3114678957
 20
36.4416576661
 10
245.0069027499
 20
38.3187532328
 10
245.8076797007
 20
40.1836403297
 10
246.7080878502
 20
42.0230167152
 10
247.7017037551
 20
43.8237657678
 10
248.7814414766
 20
45.5730416526
 10
249.9396013122
 20
47.258370459
 10
251.1679218213
 20
48.8677311845
 10
252.4576430446
 20
50.3896469846
 10
253.799567091
 20
51.8132612135
 10
255.1841220162
 20
53.1284229701
 10
256.6014336037
 20
54.32575135
 10
258.0413933601
 20
55.3967051173
 10
259.4937315923
 20
56.3336492257
 10
260.9480897864
 20
57.1298981227
 10
262.3940953106
 20
57.7797756053
 10
263.8214353786
 20
58.2786453504
 10
265.2199293861
 20
58.6229496321
 10
265.328672865
 20
58.6434426486
  0
LINE
  5
2A1
330
1F
100
AcDbEntity
  8
0
  6
Continuous
 62
     7
370
    18
100
AcDbLine
 10
243.6144005096
 20
32.3698685158
 30
0.0
 11
243.7383069759
 21
32.9244324376
 31
0.0
  0
LWPOLYLINE
  5
2A2
330
1F
100
AcDbEntity
  8
0
  6
Continuous
 62
     7
370
    18
100
AcDbPolyline
 90
       11
 70
   128
 43
0.0
 10
258.6371451553
 20
55.2898330583
 10
258.8381993698
 20
55.4230217682
 10
260.2301900034
 20
56.2696278467
 10
261.6205658035
 20
56.9837172866
 10
263.0000143745
 20
57.5605042758
 10
264.3592963371
 20
57.9961303319
 10
265.6893076427
 20
58.2876728997
 10
266.9811401597
 20
58.4331833686
 10
268.2261409425
 20
58.4316832643
 10
269.4159721592
 20
58.2831866773
 10
270.5426641041
 20
57.9886852386
  0
LWPOLYLINE
  5
2A3
330
1F
100
AcDbEntity
  8
0
  6
Continuous
 62
     7
370
    18
100
AcDbPolyline
 90
       20
 70
   128
 43
0.0
 10
264.0209285956
 20
19.7235128791
 10
263.5044281868
 20
19.2896693554
 10
262.1030214369
 20
18.2089684447
 10
260.6868697932
 20
17.2557384203
 10
259.265851094
 20
16.4366322156
 10
257.8498770926
 20
15.7573595965
 10
256.4488244751
 20
15.2226579855
 10
255.0724651363
 20
14.8362598157
 10
253.7304001613
 20
14.6008589815
 10
252.4319894433
 20
14.5180975847
 10
251.1862899447
 20
14.5885515865
 10
250.0019911604
 20
14.8117315742
 10
248.8873532142
 20
15.1860804854
 10
247.8501495653
 20
15.7089846402
 10
246.897616301
 20
16.376799982
 10
246.0363981353
 20
17.1848680519
 10
245.2724996769
 20
18.1275502147
 10
244.6112498681
 20
19.1982725291
 10
244.0572624716
 20
20.3895675771
 10
243.6144005096
 20
21.6931246577
  0
ARC
  5
2A4
330
1F
100
AcDbEntity
  8
0
  6
Continuous
 62
     7
370
    18
100
AcDbCircle
 10
266.1767055025
 20
48.6775318552
 30
0.0
 40
10.51249703684812
100
AcDbArc
 50
14.4456939373
 51
47.0804331381
  0
LWPOLYLINE
  5
2A5
330
1F
100
AcDbEntity
  8
0
  6
Continuous
 62
     7
370
    18
100
AcDbPolyline
 90
       29
 70
   128
 43
0.0
 10
249.7360471805
 20
30.5654479876
 10
249.7941327817
 20
31.8574781149
 10
249.9677310409
 20
33.2019330308
 10
250.2548755442
 20
34.5835798973
 10
250.6523130816
 20
35.9867639406
 10
251.1555398674
 20
37.3955863955
 10
251.7588542232
 20
38.7940845402
 10
252.4554204568
 20
40.1664136311
 10
253.2373459126
 20
41.4970233229
 10
254.0957718496
 20
42.7708390305
 10
255.0209715656
 20
43.97342656
 10
256.0024620198
 20
45.0911599703
 10
257.0291227003
 20
46.1113761263
 10
258.0893209123
 20
47.0225147072
 10
259.1710443924
 20
47.8142525581
 10
260.2620367013
 20
48.4776183534
 10
261.349936444
 20
49.0050965406
 10
262.4224173343
 20
49.3907097191
 10
263.4673277648
 20
49.6300900866
 10
264.4728284225
 20
49.7205239015
 10
265.4275263226
 20
49.6609877943
 10
266.3206048716
 20
49.4521554094
 10
267.1419448747
 20
49.0963934964
 10
267.8822404394
 20
48.597732241
 10
268.5331030257
 20
47.9618226697
 10
269.0871589108
 20
47.1958693393
 10
269.5381301898
 20
46.3085508612
 10
269.8809065575
 20
45.3099204641
 10
269.9131205792
 20
45.1887545999
  0
LWPOLYLINE
  5
2A6
330
1F
100
AcDbEntity
  8
0
  6
Continuous
 62
     7
370
    18
100
AcDbPolyline
 90
       14
 70
   128
 43
0.0
 10
257.4141363017
 20
23.5375326337
 10
257.0291227003
 20
23.4399256106
 10
256.0024620198
 20
23.274784576
 10
255.0209715656
 20
23.2593132289
 10
254.0957718496
 20
23.3936879038
 10
253.2373459126
 20
23.676386121
 10
252.4554204568
 20
24.1042038981
 10
251.7588542232
 20
24.6722947343
 10
251.1555398674
 20
25.3742209508
 10
250.6523130816
 20
26.2020301261
 10
250.2548755442
 20
27.146342556
 10
249.9677310409
 20
28.1964594358
 10
249.7941327817
 20
29.3404820679
 10
249.7360471805
 20
30.5654479876
  0
LWPOLYLINE
  5
2A7
330
1F
100
AcDbEntity
  8
0
  6
Continuous
 62
     7
370
    18
100
AcDbPolyline
 90
       21
 70
   128
 43
0.0
 10
238.0761179179
 20
35.6944739178
 10
238.5467770436
 20
37.555834165
 10
239.1319109611
 20
39.4317522385
 10
239.8273458153
 20
41.3088478052
 10
240.6281227662
 20
43.173734902
 10
241.5285309156
 20
45.0131112876
 10
242.5221468205
 20
46.8138603402
 10
243.601884542
 20
48.563136225
 10
244.7600443777
 20
50.2484650314
 10
245.9883648867
 20
51.8578257569
 10
247.27808611
 20
53.379741557
 10
248.6200101564
 20
54.8033557859
 10
250.0045650816
 20
56.1185175425
 10
251.4218766691
 20
57.3158459224
 10
252.8618364255
 20
58.3867996897
 10
254.3141746578
 20
59.3237437981
 10
255.7685328518
 20
60.1199926951
 10
257.214538376
 20
60.7698701777
 10
258.641878444
 20
61.2687399228
 10
260.0403724515
 20
61.6130442045
 10
260.1481169184
 20
61.6333529025
  0
LWPOLYLINE
  5
2A8
330
1F
100
AcDbEntity
  8
0
  6
Continuous
 62
     7
370
    18
100
AcDbPolyline
 90
        8
 70
   128
 43
0.0
 10
252.5644741103
 20
30.5654476074
 10
252.6220881936
 20
29.4352245716
 10
252.7941783859
 20
28.3862548093
 10
253.0785023431
 20
27.4322143153
 10
253.4713524595
 20
26.5855392872
 10
253.9676078931
 20
25.8572685144
 10
254.5607991027
 20
25.2568954622
 10
255.153817115
 20
24.8423875418
  0
LWPOLYLINE
  5
2A9
330
1F
100
AcDbEntity
  8
0
  6
Continuous
 62
     7
370
    18
100
AcDbPolyline
 90
       22
 70
   128
 43
0.0
 10
267.6528008986
 20
46.4936092229
 10
267.1915148369
 20
46.7232130595
 10
266.3923292589
 20
46.9734919379
 10
265.5281045082
 20
47.0763870433
 10
264.6101063057
 20
47.030555482
 10
263.6503028746
 20
46.8365960411
 10
262.6612063137
 20
46.4970374639
 10
261.6557112126
 20
46.016304601
 10
260.6469256114
 20
45.4006664528
 10
259.6480007676
 20
44.6581477818
 10
258.6719587815
 20
43.7984288431
 10
257.7315242968
 20
42.8327178082
 10
256.8389571076
 20
41.7736031801
 10
256.0058933659
 20
40.6348929224
 10
255.2431928
 20
39.4314312023
 10
254.5607991027
 20
38.1789075275
 10
253.9676078931
 20
36.8936504829
 10
253.4713524595
 20
35.5924153824
 10
253.0785023431
 20
34.2921652644
 10
252.7941783859
 20
33.009851317
 10
252.6220881936
 20
31.7621904479
 10
252.5644741103
 20
30.5654476074
  0
LWPOLYLINE
  5
2AA
330
1F
100
AcDbEntity
  8
0
  6
Continuous
 62
     7
370
    18
100
AcDbPolyline
 90
       15
 70
   128
 43
0.0
 10
267.3717815178
 20
24.0518337463
 10
267.8050804257
 20
23.5141739615
 10
268.3382660475
 20
23.1206248795
 10
268.9586195839
 20
22.8805756081
 10
269.6513418933
 20
22.7997521103
 10
270.3999074599
 20
22.8800821895
 10
271.1864588615
 20
23.1196502041
 10
271.9922325188
 20
23.5127409449
 10
272.798006176
 20
24.0499766662
 10
273.5845575777
 20
24.7185415698
 10
274.3331231443
 20
25.5024868972
 10
275.0258454537
 20
26.3831105491
 10
275.64619899
 20
27.3394047679
 10
276.1793846118
 20
28.3485568654
 10
276.6126835197
 20
29.3864929206
  0
LWPOLYLINE
  5
2AB
330
1F
100
AcDbEntity
  8
0
  6
Continuous
 62
     7
370
    18
100
AcDbPolyline
 90
       15
 70
   128
 43
0.0
 10
276.6126367631
 20
35.0585270731
 10
276.1793335746
 20
35.5961615728
 10
275.6461479528
 20
35.9896889816
 10
275.0257990263
 20
36.2297219027
 10
274.3330851133
 20
36.3105338976
 10
273.584530742
 20
36.2301981139
 10
272.7979924289
 20
35.9906300506
 10
271.9922329631
 20
35.597545221
 10
271.1864734318
 20
35.060320316
 10
270.3999351187
 20
34.3917705729
 10
269.6513807474
 20
33.607844256
 10
268.9586666698
 20
32.727241326
 10
268.3383177433
 20
31.7709691601
 10
267.8051321215
 20
30.7618387359
 10
267.371828933
 20
29.7239232136
  0
LWPOLYLINE
  5
2AC
330
1F
100
AcDbEntity
  8
0
  6
Continuous
 62
     7
370
    18
100
AcDbPolyline
 90
       20
 70
   128
 43
0.0
 10
241.3540857681
 20
34.6712479857
 10
241.8069641921
 20
36.4605244831
 10
242.3730398315
 20
38.2639555012
 10
243.0480334642
 20
40.0679124255
 10
243.8268440045
 20
41.8587629164
 10
244.7035866984
 20
43.6229728076
 10
245.6716365885
 20
45.3472110458
 10
246.723677245
 20
47.0184470254
 10
247.8517580603
 20
48.6240521049
 10
249.0473548342
 20
50.1518900964
 10
250.301432336
 20
51.5904180212
 10
251.6045127932
 20
52.9287621491
 10
252.946749319
 20
54.1568105785
 10
254.317998517
 20
55.2652810054
 10
255.7078976955
 20
56.24580028
 10
257.1059433988
 20
57.0909543043
 10
258.5015704328
 20
57.7943579874
 10
259.8842322072
 20
58.3506970637
 10
261.2434799255
 20
58.7557646822
 10
261.3699622886
 20
58.7860114422
  0
LINE
  5
2AD
330
1F
100
AcDbEntity
  8
0
  6
Continuous
 62
     7
370
    18
100
AcDbLine
 10
252.5746120737
 20
52.6538947336
 30
0.0
 11
252.9336396735
 21
52.9912721559
 31
0.0
  0
LWPOLYLINE
  5
2AE
330
1F
100
AcDbEntity
  8
0
  6
Continuous
 62
     7
370
    18
100
AcDbPolyline
 90
       22
 70
   128
 43
0.0
 10
240.7766179673
 20
34.6644463704
 10
241.2280910572
 20
36.4749132982
 10
241.7938637662
 20
38.3005095566
 10
242.4697056042
 20
40.1275753477
 10
243.2505563153
 20
41.9424387839
 10
244.1305759268
 20
43.7315193064
 10
245.1031763594
 20
45.4814280634
 10
246.1610813548
 20
47.1790732282
 10
247.296373891
 20
48.8117497297
 10
248.5005600608
 20
50.3672415286
 10
249.7646276828
 20
51.8339079243
 10
251.0791184114
 20
53.2007738533
 10
252.4341958966
 20
54.4576118226
 10
253.8197201993
 20
55.5950183292
 10
255.2253238533
 20
56.6044790627
 10
256.6404886475
 20
57.4784436491
 10
258.054625001
 20
58.2103699525
 10
259.4571512765
 20
58.7947820289
 10
260.8375721885
 20
59.2273062646
 10
262.1855581372
 20
59.5047065285
 10
263.491023184
 20
59.6249078933
 10
264.61608128
 20
59.5983583693
  0
LINE
  5
2AF
330
1F
100
AcDbEntity
  8
0
  6
Continuous
 62
     7
370
    18
100
AcDbLine
 10
265.5222052665
 20
24.5391735143
 30
0.0
 11
265.6105937933
 21
24.209310449
 31
0.0
  0
LWPOLYLINE
  5
2B0
330
1F
100
AcDbEntity
  8
0
  6
Continuous
 62
     7
370
    18
100
AcDbPolyline
 90
        3
 70
   128
 43
0.0
 10
276.0218110454
 20
35.0135611701
 10
275.5712197465
 20
35.5231546526
 10
275.2091058779
 20
35.7807665377
  0
LWPOLYLINE
  5
2B1
330
1F
100
AcDbEntity
  8
0
  6
Continuous
 62
     7
370
    18
100
AcDbPolyline
 90
       13
 70
   128
 43
0.0
 10
268.2524774545
 20
23.6319698508
 10
268.4001879998
 20
23.5574707417
 10
269.040249633
 20
23.3640298175
 10
269.7508343036
 20
23.338482311
 10
270.5131672371
 20
23.4815031838
 10
271.3071062733
 20
23.7893137321
 10
272.1116743002
 20
24.2537809676
 10
272.9056133365
 20
24.8626329188
 10
273.6679462699
 20
25.599782916
 10
274.3785309405
 20
26.4457540199
 10
275.0185925737
 20
27.3781943758
 10
275.5712197465
 20
28.3724673333
 10
276.0218110454
 20
29.4023024558
  0
LINE
  5
2B2
330
1F
100
AcDbEntity
  8
0
  6
Continuous
 62
     7
370
    18
100
AcDbLine
 10
265.0385438381
 20
24.8183853138
 30
0.0
 11
265.5222052665
 21
24.5391735143
 31
0.0
  0
LWPOLYLINE
  5
2B3
330
1F
100
AcDbEntity
  8
0
  6
Continuous
 62
     7
370
    18
100
AcDbPolyline
 90
        3
 70
   128
 43
0.0
 10
241.8257418479
 20
32.5919430195
 10
241.8252900864
 20
32.7136219368
 10
241.8375548193
 20
33.3560653498
  0
LWPOLYLINE
  5
2B4
330
1F
100
AcDbEntity
  8
0
  6
Continuous
 62
     7
370
    18
100
AcDbPolyline
 90
       19
 70
   128
 43
0.0
 10
210.7403361159
 20
56.6049284362
 10
210.7994286317
 20
57.7018969808
 10
210.9757348259
 20
58.8490794886
 10
211.2663603955
 20
60.0276396605
 10
211.6665335268
 20
61.2182257797
 10
212.1696832629
 20
62.4012881024
 10
212.767547175
 20
63.5574004288
 10
213.4503089987
 20
64.6675802448
 10
214.2067576723
 20
65.7135980256
 10
215.0244723879
 20
66.678277981
 10
215.8900262461
 20
67.5457798833
 10
216.7892068685
 20
68.3018602653
 10
217.707249708
 20
68.9341044467
 10
218.6290805366
 20
69.432129638
 10
219.539562853
 20
69.7877589445
 10
220.4237467707
 20
69.9951528793
 10
221.2671137704
 20
70.0509065487
 10
222.0558159784
 20
69.9541041341
 10
222.4749630942
 20
69.8315127872
  0
ARC
  5
2B5
330
1F
100
AcDbEntity
  8
0
  6
Continuous
 62
     7
370
    18
100
AcDbCircle
 10
216.1909687938
 20
56.1758614568
 30
0.0
 40
5.467494404429981
100
AcDbArc
 50
175.4990296335
 51
224.2044299174
  0
LINE
  5
2B6
330
1F
100
AcDbEntity
  8
0
  6
Continuous
 62
     7
370
    18
100
AcDbLine
 10
247.5086599936
 20
33.7093387188
 30
0.0
 11
246.8014385098
 21
34.1176089911
 31
0.0
  0
LINE
  5
2B7
330
1F
100
AcDbEntity
  8
0
  6
Continuous
 62
     7
370
    18
100
AcDbLine
 10
241.9654988219
 20
28.049869581
 30
0.0
 11
247.5086599936
 21
24.8498707504
 31
0.0
  0
LINE
  5
2B8
330
1F
100
AcDbEntity
  8
0
  6
Continuous
 62
     7
370
    18
100
AcDbLine
 10
241.9048386409
 20
28.01483982
 30
0.0
 11
241.9654988219
 21
28.049869581
 31
0.0
  0
LINE
  5
2B9
330
1F
100
AcDbEntity
  8
0
  6
Continuous
 62
     7
370
    18
100
AcDbLine
 10
243.4427699814
 20
20.8566735217
 30
0.0
 11
243.2556748525
 21
21.4342835561
 31
0.0
  0
LINE
  5
2BA
330
1F
100
AcDbEntity
  8
0
  6
Continuous
 62
     7
370
    18
100
AcDbLine
 10
246.8015530966
 20
23.6251260621
 30
0.0
 11
241.5512851101
 21
26.6560412558
 31
0.0
  0
LINE
  5
2BB
330
1F
100
AcDbEntity
  8
0
  6
Continuous
 62
     7
370
    18
100
AcDbLine
 10
278.3738712443
 20
31.5773936874
 30
0.0
 11
278.1087056639
 21
31.8052055319
 31
0.0
  0
LINE
  5
2BC
330
1F
100
AcDbEntity
  8
0
  6
Continuous
 62
     7
370
    18
100
AcDbLine
 10
242.2157277073
 20
23.4777286242
 30
0.0
 11
242.1389743449
 21
23.7255923556
 31
0.0
  0
LWPOLYLINE
  5
2BD
330
1F
100
AcDbEntity
  8
0
  6
Continuous
 62
     7
370
    18
100
AcDbPolyline
 90
        3
 70
   128
 43
0.0
 10
241.8202483519
 20
22.8809328256
 10
241.7991960011
 20
22.9307694552
 10
241.3540857681
 20
24.1786988863
  0
ARC
  5
2BE
330
1F
100
AcDbEntity
  8
0
  6
Continuous
 62
     7
370
    18
100
AcDbCircle
 10
251.5390783356
 20
27.1907717522
 30
0.0
 40
11.17784220286586
100
AcDbArc
 50
195.6688296447
 51
214.1331604714
  0
LINE
  5
2BF
330
1F
100
AcDbEntity
  8
0
  6
Continuous
 62
     7
370
    18
100
AcDbLine
 10
238.2553750501
 20
23.8693203566
 30
0.0
 11
238.0761179179
 21
24.4243781284
 31
0.0
  0
LINE
  5
2C0
330
1F
100
AcDbEntity
  8
0
  6
Continuous
 62
     7
370
    18
100
AcDbLine
 10
273.477156871
 20
34.4789417381
 30
0.0
 11
278.1087056639
 21
31.8052055319
 31
0.0
  0
OLE2FRAME
  5
2C1
330
1F
100
AcDbEntity
  8
0
100
AcDbOle2Frame
 70
     2
  3
Paintbrush-Bild
 10
13.8511154363
 20
38.264191557
 30
0.0
 11
51.6290888628
 21
31.9806341108
 31
0.0
 71
     2
 72
     0
 73
     1
 90
    12928
310
80552BED0767C5B32B40DDAF6807D121434000000000000000006FFBDDFB85D0
310
4940DDAF6807D121434000000000000000006FFBDDFB85D04940416F4BD60AFB
310
3F4000000000000000002BED0767C5B32B40416F4BD60AFB3F40000000000000
310
0000000000000100000000010000010000000100000000000100000000320000
310
D0CF11E0A1B11AE1000000000000000000000000000000003E000300FEFF0900
310
0600000000000000000000000100000001000000000000000010000002000000
310
01000000FEFFFFFF0000000000000000FFFFFFFFFFFFFFFFFFFFFFFFFFFFFFFF
310
FFFFFFFFFFFFFFFFFFFFFFFFFFFFFFFFFFFFFFFFFFFFFFFFFFFFFFFFFFFFFFFF
310
FFFFFFFFFFFFFFFFFFFFFFFFFFFFFFFFFFFFFFFFFFFFFFFFFFFFFFFFFFFFFFFF
310
FFFFFFFFFFFFFFFFFFFFFFFFFFFFFFFFFFFFFFFFFFFFFFFFFFFFFFFFFFFFFFFF
310
FFFFFFFFFFFFFFFFFFFFFFFFFFFFFFFFFFFFFFFFFFFFFFFFFFFFFFFFFFFFFFFF
310
FFFFFFFFFFFFFFFFFFFFFFFFFFFFFFFFFFFFFFFFFFFFFFFFFFFFFFFFFFFFFFFF
310
FFFFFFFFFFFFFFFFFFFFFFFFFFFFFFFFFFFFFFFFFFFFFFFFFFFFFFFFFFFFFFFF
310
FFFFFFFFFFFFFFFFFFFFFFFFFFFFFFFFFFFFFFFFFFFFFFFFFFFFFFFFFFFFFFFF
310
FFFFFFFFFFFFFFFFFFFFFFFFFFFFFFFFFFFFFFFFFFFFFFFFFFFFFFFFFFFFFFFF
310
FFFFFFFFFFFFFFFFFFFFFFFFFFFFFFFFFFFFFFFFFFFFFFFFFFFFFFFFFFFFFFFF
310
FFFFFFFFFFFFFFFFFFFFFFFFFFFFFFFFFFFFFFFFFFFFFFFFFFFFFFFFFFFFFFFF
310
FFFFFFFFFFFFFFFFFFFFFFFFFFFFFFFFFFFFFFFFFFFFFFFFFFFFFFFFFFFFFFFF
310
FFFFFFFFFFFFFFFFFFFFFFFFFFFFFFFFFFFFFFFFFFFFFFFFFFFFFFFFFFFFFFFF
310
FFFFFFFFFFFFFFFFFFFFFFFFFFFFFFFFFFFFFFFFFFFFFFFFFFFFFFFFFFFFFFFF
310
FDFFFFFFFEFFFFFFFEFFFFFFFEFFFFFF05000000060000000700000008000000
310
090000000A0000000B0000000C0000000D0000000E0000000F00000010000000
310
11000000120000001300000014000000150000001600000017000000FEFFFFFF
310
FFFFFFFFFFFFFFFFFFFFFFFFFFFFFFFFFFFFFFFFFFFFFFFFFFFFFFFFFFFFFFFF
310
FFFFFFFFFFFFFFFFFFFFFFFFFFFFFFFFFFFFFFFFFFFFFFFFFFFFFFFFFFFFFFFF
310
FFFFFFFFFFFFFFFFFFFFFFFFFFFFFFFFFFFFFFFFFFFFFFFFFFFFFFFFFFFFFFFF
310
FFFFFFFFFFFFFFFFFFFFFFFFFFFFFFFFFFFFFFFFFFFFFFFFFFFFFFFFFFFFFFFF
310
FFFFFFFFFFFFFFFFFFFFFFFFFFFFFFFFFFFFFFFFFFFFFFFFFFFFFFFFFFFFFFFF
310
FFFFFFFFFFFFFFFFFFFFFFFFFFFFFFFFFFFFFFFFFFFFFFFFFFFFFFFFFFFFFFFF
310
FFFFFFFFFFFFFFFFFFFFFFFFFFFFFFFFFFFFFFFFFFFFFFFFFFFFFFFFFFFFFFFF
310
FFFFFFFFFFFFFFFFFFFFFFFFFFFFFFFFFFFFFFFFFFFFFFFFFFFFFFFFFFFFFFFF
310
FFFFFFFFFFFFFFFFFFFFFFFFFFFFFFFFFFFFFFFFFFFFFFFFFFFFFFFFFFFFFFFF
310
FFFFFFFFFFFFFFFFFFFFFFFFFFFFFFFFFFFFFFFFFFFFFFFFFFFFFFFFFFFFFFFF
310
FFFFFFFFFFFFFFFFFFFFFFFFFFFFFFFFFFFFFFFFFFFFFFFFFFFFFFFFFFFFFFFF
310
FFFFFFFFFFFFFFFFFFFFFFFFFFFFFFFFFFFFFFFFFFFFFFFFFFFFFFFFFFFFFFFF
310
FFFFFFFFFFFFFFFFFFFFFFFFFFFFFFFFFFFFFFFFFFFFFFFFFFFFFFFFFFFFFFFF
310
52006F006F007400200045006E00740072007900000000000000000000000000
310
0000000000000000000000000000000000000000000000000000000000000000
310
16000500FFFFFFFFFFFFFFFF020000000A00030000000000C000000000000046
310
00000000000000000000000020040A587354D30103000000C000000000000000
310
01004F006C006500000000000000000000000000000000000000000000000000
310
0000000000000000000000000000000000000000000000000000000000000000
310
0A000200FFFFFFFFFFFFFFFFFFFFFFFF00000000000000000000000000000000
310
0000000000000000000000000000000000000000000000001400000000000000
310
010043006F006D0070004F0062006A0000000000000000000000000000000000
310
0000000000000000000000000000000000000000000000000000000000000000
310
120002010100000003000000FFFFFFFF00000000000000000000000000000000
310
0000000000000000000000000000000000000000010000004D00000000000000
310
01004F006C006500310030004E00610074006900760065000000000000000000
310
0000000000000000000000000000000000000000000000000000000000000000
310
1A000200FFFFFFFFFFFFFFFFFFFFFFFF00000000000000000000000000000000
310
0000000000000000000000000000000000000000040000002426000000000000
310
FEFFFFFF02000000FEFFFFFFFFFFFFFFFFFFFFFFFFFFFFFFFFFFFFFFFFFFFFFF
310
FFFFFFFFFFFFFFFFFFFFFFFFFFFFFFFFFFFFFFFFFFFFFFFFFFFFFFFFFFFFFFFF
310
FFFFFFFFFFFFFFFFFFFFFFFFFFFFFFFFFFFFFFFFFFFFFFFFFFFFFFFFFFFFFFFF
310
FFFFFFFFFFFFFFFFFFFFFFFFFFFFFFFFFFFFFFFFFFFFFFFFFFFFFFFFFFFFFFFF
310
FFFFFFFFFFFFFFFFFFFFFFFFFFFFFFFFFFFFFFFFFFFFFFFFFFFFFFFFFFFFFFFF
310
FFFFFFFFFFFFFFFFFFFFFFFFFFFFFFFFFFFFFFFFFFFFFFFFFFFFFFFFFFFFFFFF
310
FFFFFFFFFFFFFFFFFFFFFFFFFFFFFFFFFFFFFFFFFFFFFFFFFFFFFFFFFFFFFFFF
310
FFFFFFFFFFFFFFFFFFFFFFFFFFFFFFFFFFFFFFFFFFFFFFFFFFFFFFFFFFFFFFFF
310
FFFFFFFFFFFFFFFFFFFFFFFFFFFFFFFFFFFFFFFFFFFFFFFFFFFFFFFFFFFFFFFF
310
FFFFFFFFFFFFFFFFFFFFFFFFFFFFFFFFFFFFFFFFFFFFFFFFFFFFFFFFFFFFFFFF
310
FFFFFFFFFFFFFFFFFFFFFFFFFFFFFFFFFFFFFFFFFFFFFFFFFFFFFFFFFFFFFFFF
310
FFFFFFFFFFFFFFFFFFFFFFFFFFFFFFFFFFFFFFFFFFFFFFFFFFFFFFFFFFFFFFFF
310
FFFFFFFFFFFFFFFFFFFFFFFFFFFFFFFFFFFFFFFFFFFFFFFFFFFFFFFFFFFFFFFF
310
FFFFFFFFFFFFFFFFFFFFFFFFFFFFFFFFFFFFFFFFFFFFFFFFFFFFFFFFFFFFFFFF
310
FFFFFFFFFFFFFFFFFFFFFFFFFFFFFFFFFFFFFFFFFFFFFFFFFFFFFFFFFFFFFFFF
310
FFFFFFFFFFFFFFFFFFFFFFFFFFFFFFFFFFFFFFFFFFFFFFFFFFFFFFFFFFFFFFFF
310
0100000200000000000000000000000000000000000000000000000000000000
310
0000000000000000000000000000000000000000000000000000000000000000
310
0100FEFF030A0000FFFFFFFF0A00030000000000C00000000000004607000000
310
5042727573680007000000504272757368000700000050427275736800F439B2
310
7100000000000000000000000000000000000000000000000000000000000000
310
0000000000000000000000000000000000000000000000000000000000000000
310
0000000000000000000000000000000000000000000000000000000000000000
310
0000000000000000000000000000000000000000000000000000000000000000
310
0000000000000000000000000000000000000000000000000000000000000000
310
0000000000000000000000000000000000000000000000000000000000000000
310
0000000000000000000000000000000000000000000000000000000000000000
310
0000000000000000000000000000000000000000000000000000000000000000
310
0000000000000000000000000000000000000000000000000000000000000000
310
0000000000000000000000000000000000000000000000000000000000000000
310
0000000000000000000000000000000000000000000000000000000000000000
310
0000000000000000000000000000000000000000000000000000000000000000
310
20260000424D0E260000000000003E00000028000000B40200006E0000000100
310
01000000000000000000130B0000130B00000200000002000000000000FFFFFF
310
FFFFFFFFFFFFFFFFFFFFFFFFFFFFFFFFFFFFFFFFFFFFFFFFFFFFFFFFFFFFFFFF
310
FFFFFFFFFFFFFFFFFFFFFFFFFFFFFFFFFFFFFFFFFFFFFFFFFFFFFFFFFFFFFFFF
310
FFFFFFFFFFFFFFFFFFFFFFFFFFFFFFFFFFFFFFFFFFFFFFFFF000FFFFFFFFFFFF
310
FFFFFFFFFFFFFFFFFFFFFFFFFFFFFFFFFFFFFFFFFFFFFFFFFFFFFFFFFFFFFFFF
310
FFFFFFFFFFFFFFFFFFFFFFFFFFFFFFFFFFFFFFFFFFFFFFFFFFFFFFFFFFFFFFFF
310
FFFFFFFFFFFFFFFFFFFFFFFFFFFFFFFFF000FFFFFFFFFFFFFFFFFFFFFFFFFFFF
310
FFFFFFFFFFFFFFFFFFFFFFFFFFFFFFFFFFFFFFFFFFFFFFFFFFFFFFFFFFFFFFFF
310
FFFFFFFFFFFFFFFFFFFFFFFFFFFFFFFFFFFFFFFFFFFFFFFFFFFFFFFFFFFFFFFF
310
FFFFFFFFFFFFFFFFF000FFFFFFFFFFFFFFFFFFFFFFFFFFFFFFFFFFFFFFFFFFFF
310
FFFFFFFFFFFFFFFFFFFFFFFFFFFFFFFFFFFFFFFFFFFFFFFFFFFFFFFFFFFFFFFF
310
FFFFFFFFFFFFFFFFFFFFFFFFFFFFFFFFFFFFFFFFFFFFFFFFFFFFFFFFFFFFFFFF
310
F000FFFFFFFFFFFFFFFFFFFFFFFFFFFFFFFFFFFFFFFFFFFFFFFFFFFFFFFFFFFF
310
FFFFFFFFFFFFFFFFFFFFFFFFFFFFFFFFFFFFFFFFFFFFFFFFFFFFFFFFFFFFFFFF
310
FFFFFFFFFFFFFFFFFFFFFFFFFFFFFFFFFFFFFFFFFFFFFFFFF000FFFFFFFFFFFF
310
FFFFFFFFFFFFFFFFFFFFFFFFFFFFFFFFFFFFFFFFFFFFFFFFFFFFFFFFFFFFFFFF
310
FFFFFFFFFFFFFFFFFFFFFFFFFFFFFFFFFFFFFFFFFFFFFFFFFFFFFFFFFFFFFFFF
310
FFFFFFFFFFFFFFFFFFFFFFFFFFFFFFFFF000FFFFFFFFFFFFFFFFFFFFFFFFFFFF
310
FFFFFFFFFFFFFFFFFFFFFFFFFFFFFFFFFFFFFFFFFFFFFFFFFFFFFFFFFFFFFFFF
310
FFFFFFFFFFFFFFFFFFFFFFFFFFFFFFFFFFFFFFFFFFFFFFFFFFFFFFFFFFFFFFFF
310
FFFFFFFFFFFFFFFFF000FFFFFFFFFFFFFFFFFFFFFFFFFFFFFFFFFFFFFFFFFFFF
310
FFFFFFFFFFFFFFFFFFFFFFFFFFFFFFFFFFFFFFFFFFFFFFFFFFFFFFFFFFFFFFFF
310
FFFFFFFFFFFFFFFFFFFFFFFFFFFFFFFFFFFFFFFFFFFFFFFFFFFFFFFFFFFFFFFF
310
F000FFFFFFFFFFFFFFFFFFFFFFFFFFFFFFFFFFFFFFFFFFFFFFFFFFFFFFFFFFFF
310
FFFFFFFFFFFFFFFFFFFFFFFFFFFFFFFFFFFFFFFFFFFFFFFFFFFFFFFFFFFFFFFF
310
FFFFFFFFFFFFFFFFFFFFFFFFFFFFFFFFFFFFFFFFFFFFFFFFF000FFFFFFFFFFFF
310
FFFFFFFFFFFFFFFFFFFFFFFFFFFFFFFFFFFFFFFFFFFFFFFFFFFFFFFFFFFFFFFF
310
FFFFFFFFFFFFFFFFFFFFFFFFFFFFFFFFFFFFFFFFFFFFFFFFFFFFFFFFFFFFFFFF
310
FFFFFFFFFFFFFFFFFFFFFFFFFFFFFFFFF000FFFFFFFFFFFFFFFFFFFFFFFFFFFF
310
FFFFFFFFFFFFFFFFFFFFFFFFFFFFFFFFFFFFFFFFFFFFFFFFFFFFFFFFFFFFFFFF
310
FFFFFFFFFFFFFFFFFFFFFFFFFFFFFFFFFFFFFFFFFFFFFFFFFFFFFFFFFFFFFFFF
310
FFFFFFFFFFFFFFFFF000FFFFFFFFFFFFFFFFFFFFFFFFFFFFFFFFFFFFFFFFFFFF
310
FFFFFFFFFFFFFFFFFFFFFFFFFFFFFFFFFFFFFFFFFFFFFFFFFFFFFFFFFFFFFFFF
310
FFFFFFFFFFFFFFFFFFFFFFFFFFFFFFFFFFFFFFFFFFFFFFFFFFFFFFFFFFFFFFFF
310
F000FFFFFFFFFFFFFFFFFFFFFFFFFFFFFFFFFFFFFFFFFFFFFFFFFFFFFFFFFFFF
310
FFFFFFFFFFFFFFFFFFFFFFFFFFFFFFFFFFFFFFFFFFFFFFFFFFFFFFFFFFFFFFFF
310
FFFFFFFFFFFFFFFFFFFFFFFFFFFFFFFFFFFFFFFFFFFFFFFFF000FFFFFFFFFFFF
310
FFFFFFFFFFFFFFFFFFFFFFFFFFFFFFFFFFFFFFFFFFFFFFFFFFFFFFFFFFFFFFFF
310
FFFFFFFFFFFFFFFFFFFFFFFFFFFFFFFFFFFFFFFFFFFFFFFFFFFFFFFFFFFFFFFF
310
FFFFFFFFFFFFFFFFFFFFFFFFFFFFFFFFF000FFFFFFFFFFFFFFFFFFFFFFFFFFFF
310
FFFFFFFFFFFFFFFFFFFFFFFFFFFFFFFFFFFFFFFFFFFFFFFFFFFFFFFFFFFFFFFF
310
FFFFFFFFFFFFFFFFFFFFFFFFFFFFFFFFFFFFFFFFFFFFFFFFFFFFFFFFFFFFFFFF
310
FFFFFFFFFFFFFFFFF000FFFFFFFFFFFFFFFFFFFFFFFFFFFFFFFFFFFFFFFFFFFF
310
FFFFFFFFFFFFFFFFFFFFFFFFFFFFFFFFFFFFFFFFFFFFFFFFFFFFFFFFFFFFFFFF
310
FFFFFFFFFFFFFFFFFFFFFFFFFFFFFFFFFFFFFFFFFFFFFFFFFFFFFFFFFFFFFFFF
310
F000FFFFFFFFFFFFFFFFFFFFFFFFFFFFFFFFFFFFFFFFFFFFFFFFFFFFFFFFFFFF
310
FFFFFFFFFFFFFFFFFFFFFFFFFFFFFFFFFFFFFFFFFFFFFFFFFFFFFFFFFFFFFFFF
310
FFFFFFFFFFFFFFFFFFFFFFFFFFFFFFFFFFFFFFFFFFFFFFFFF000FFFFFFFFFFFF
310
FFFFFFFFFFFFFFFFFFFFFFFFFFFFFFFFFFFFFFFFFFFFFFFFFFFFFFFFFFFFFFFF
310
FFFFFFFFFFFFFFFFFFFFFFFFFFFFFFFFFFFFFFFFFFFFFFFFFFFFFFFFFFFFFFFF
310
FFFFFFFFFFFFFFFFFFFFFFFFFFFFFFFFF000FFFFFFFFFFFFFFFFFFFFFFFFFFFF
310
FFFFFFFFFFFFFFFFFFFFFFFFFFFFFFFFFFFFFFFFFFFFFFFFFFFFFFFFFFFFFFFF
310
FFFFFFFFFFFFFFFFFFFFFFFFFFFFFFFFFFFFFFFFFFFFFFFFFFFFFFFFFFFFFFFF
310
FFFFFFFFFFFFFFFFF000FFFFF80003FFFFFFFFFFFFFFFFFFFFFFFFFFFFFFFFFF
310
FFFFF00007FFFFFFFFFF00007FFFFFF800000000000000007FFFFFFFFFFFFFFF
310
FFFFFFFC001FFFFFFFFFFFFFFC001FFFFFFFFFFFFFFFFFFFFFFFFFFE0007FFFF
310
F000FFFF8000007FFFFFFFF8000FFFFFC0007FFFFF80007FFFFF0000007FFFFF
310
FFF8000007FFFFF800000000000000007FFFFFF0001FFFFFFFFFFFC00001FFFF
310
FFFFFFFFC00001FFFFFFFF000000000003FFFFE000007FFFF000FFFE0000000F
310
FFFFFFF0000FFFFF80007FFFFF80007FFFFC0000001FFFFFFFC0000001FFFFF8
310
00000000000000007FFFFFF0001FFFFFFFFFFE0000003FFFFFFFFFFE0000003F
310
FFFFFF000000000003FFFF0000000FFFF000FFF800000003FFFFFFF00007FFFF
310
80007FFFFF80007FFFF000000007FFFFFF000000003FFFF80000000000000000
310
7FFFFFF0001FFFFFFFFFF80000000FFFFFFFFFF80000000FFFFFFF0000000000
310
03FFFC00000003FFF000FFE000000000FFFFFFF00007FFFF80003FFFFF80007F
310
FFC000000001FFFFFC000000001FFFF800000000000000007FFFFFF0001FFFFF
310
FFFFE000000003FFFFFFFFE000000003FFFFFF000000000003FFF000000000FF
310
F000FF80000000007FFFFFF00007FFFF80003FFFFF80007FFF8000000000FFFF
310
F80000000007FFF800000000000000007FFFFFF0001FFFFFFFFFC000000001FF
310
FFFFFFC000000001FFFFFF000000000003FFC0000000007FF000FF0000000000
310
3FFFFFE00007FFFF00003FFFFF80007FFE00000000003FFFF00000000003FFF8
310
00000000000000007FFFFFF0001FFFFFFFFF8000000000FFFFFFFF8000000000
310
FFFFFF000000000003FF80000000003FF000FE00000000001FFFFFE00003FFFF
310
00003FFFFF80007FFC00000000001FFFE00000000001FFF8000001FFFE000000
310
7FFFFFF0001FFFFFFFFE00000000003FFFFFFE00000000003FFFFF0000000000
310
03FF00000000001FF000FC00000000000FFFFFE00003FFFF00001FFFFF80007F
310
F800000000001FFFC00000000000FFF8000001FFFE0000007FFFFFF0001FFFFF
310
FFFC00000000001FFFFFFC00000000001FFFFF000000000003FE00000000000F
310
F000F8000000000007FFFFE00003FFFF00001FFFFF80007FF800000000000FFF
310
800000000000FFF8000001FFFE0000007FFFFFF0001FFFFFFFF800000000000F
310
FFFFF800000000000FFFFF000000000003FC000000000007F000F80000000000
310
03FFFFC00003FFFE00001FFFFF80007FF0000000000007FF0000000000007FF8
310
000001FFFE0000007FFFFFF0001FFFFFFFF0000000000007FFFFF00000000000
310
07FFFF000000000003F8000000000003F000F0000000000003FFFFC00001FFFE
310
00001FFFFF80007FE0000000000007FE0000000000003FF8000001FFFE000000
310
7FFFFFF0001FFFFFFFF0000000000007FFFFF0000000000007FFFF0000000000
310
03F800001F800003F000E00001FFF00001FFFFC00001FFFE00000FFFFF80007F
310
E00001FFE00003FE00001FFF00003FF8000001FFFE0000007FFFFFF0001FFFFF
310
FFE000003E000003FFFFE000003E000003FFFF000000000003F00001FFF80001
310
F000E00007FFFC0001FFFFC00001FFFE00000FFFFF80007FC0000FFFFC0003FC
310
0000FFFFC0001FF8000001FFFE0000007FFFFFF0001FFFFFFFC00003FFE00001
310
FFFFC00003FFE00001FFFF0001FFFFFFFFF00007FFFE0001F000E0000FFFFF00
310
00FFFF800001FFFC00000FFFFF80007FC0001FFFFE0001FC0001FFFFE0001FF8
310
000001FFFE0000007FFFFFF0001FFFFFFF80000FFFF80000FFFF80000FFFF800
310
00FFFF0003FFFFFFFFE0000FFFFF8000F000C0003FFFFF8000FFFF800000FFFC
310
000007FFFF80007F80003FFFFF0001FC0003FFFFF0001FF8000001FFFE000000
310
7FFFFFF0001FFFFFFF80003FFFFE0000FFFF80003FFFFE0000FFFF0003FFFFFF
310
FFE0003FFFFF8000F000C0003FFFFF8000FFFF800000FFFC000007FFFF80007F
310
80007FFFFF8001F80007FFFFF8000FF8000001FFFE0000007FFFFFF0001FFFFF
310
FF00007FFFFF00007FFF00007FFFFF00007FFF0003FFFFFFFFE0003FFFFFC000
310
F000C0007FFFFFC000FFFF000000FFFC000007FFFF80007F8000FFFFFF8000F8
310
000FFFFFF8000FF8000001FFFE0000007FFFFFF0001FFFFFFF0000FFFFFF8000
310
7FFF0000FFFFFF80007FFF0003FFFFFFFFC0007FFFFFC00070008000FFFFFFC0
310
00FFFF000000FFF8000007FFFF80007F8000FFFFFF8000F8000FFFFFF8000FF8
310
000001FFFE0000007FFFFFF0001FFFFFFE0001FFFFFFC0003FFE0001FFFFFFC0
310
003FFF0003FFFFFFFFC0007FFFFFE00070008000FFFFFFC0007FFF0000007FF8
310
000003FFFF80007F0001FFFFFF8000F8000FFFFFF8000FF8000001FFFE000000
310
7FFFFFF0001FFFFFFE0001FFFFFFC0003FFE0001FFFFFFC0003FFF0003FFFFFF
310
FFC000FFFFFFE00070008000FFFFFFC0007FFF0000007FF8000003FFFF80007F
310
0001FFFFFF8000F8001FFFFFF8000FF8000001FFFE0000007FFFFFF0001FFFFF
310
FE0003FFFFFFE0003FFE0003FFFFFFE0003FFF0003FFFFFFFFC000FFFFFFE000
310
70008000FFFFFFC0007FFE0000007FF8000003FFFF80007F0001FFFFFF8000F0
310
001FFFFFF8000FF8000001FFFE0000007FFFFFF0001FFFFFFC0003FFFFFFE000
310
1FFC0003FFFFFFE0001FFF0003FFFFFFFFC000FFFFFFC00070008000FFFFFF80
310
007FFE0000007FF0000003FFFF80007F0001FFFFFF0000F0001FFFFFF8000FF8
310
000001FFFE0000007FFFFFF0001FFFFFFC0007FFFFFFF0001FFC0007FFFFFFF0
310
001FFF0003FFFFFFFFC000FFFFFFC00070008001FFFFFF0000FFFE0000003FF0
310
000001FFFF80007F0001FFFFFF0000F8001FFFFFF0000FF8000001FFFE000000
310
7FFFFFF0001FFFFFFC0007FFFFFFF0001FFC0007FFFFFFF0001FFF0003FFFFFF
310
FFC001FFFFFF80007000FFFFFFFFFE0000FFFE0008003FF0008001FFFF80007F
310
FFFFFFFFFC0000FFFFFFFFFFE0000FF8000001FFFE0000007FFFFFF0001FFFFF
310
F8000FFFFFFFF8000FF8000FFFFFFFF8000FFF0003FFFFFFFFFFFFFFFFFF0000
310
7000FFFFFFFFFC0000FFFC0008003FF0008001FFFF80007FFFFFFFFFF80001FF
310
FFFFFFFF80000FF8000001FFFE0000007FFFFFF0001FFFFFF8000FFFFFFFF800
310
0FF8000FFFFFFFF8000FFF0003FFFFFFFFFFFFFFFFFE0000F000FFFFFFFFE000
310
00FFFC000C003FE000C001FFFF80007FFFFFFFFFC00001FFFFFFFFFE00001FF8
310
000001FFFE0000007FFFFFF0001FFFFFF8000FFFFFFFF8000FF8000FFFFFFFF8
310
000FFF0003FFFFFFFFFFFFFFFFF00000F000FFFFFFFE000001FFFC000C001FE0
310
00C000FFFF80007FFFFFFFFE000001FFFFFFFFE000001FF80FFFFFFFFFFFFFC0
310
7FFFFFF0001FFFFFF8000FFFFFFFF8000FF8000FFFFFFFF8000FFF0003FFFFFF
310
FFFFFFFFFF800000F000FFFFFFC0000001FFFC001C001FE001C000FFFF80007F
310
FFFFFF80000003FFFFFFF80000001FF80FFFFFFFFFFFFFC07FFFFFF0001FFFFF
310
F8001FFFFFFFFC000FF8001FFFFFFFFC000FFF0003FFFFFFFFFFFFFFF0000001
310
F000FFFFF800000001FFF8001C001FE001C000FFFF80007FFFFFF800000003FF
310
FFFF800000003FF80FFFFFFFFFFFFFC07FFFFFF0001FFFFFF8001FFFFFFFFC00
310
0FF8001FFFFFFFFC000FFF0003FFFFFFFFFFFFFE00000001F000FFFFC0000000
310
03FFF8001E001FC001E000FFFF80007FFFFF8000000007FFFFFC000000003FF8
310
0FFFFFFFFFFFFFC07FFFFFF0001FFFFFF8001FFFFFFFFC000FF8001FFFFFFFFC
310
000FFF0003FFFFFFFFFFFFE000000003F000FFFE0000000007FFF8001E000FC0
310
01E0007FFF80007FFFFE0000000007FFFFE0000000007FF80FFFFFFFFFFFFFC0
310
7FFFFFF0001FFFFFF0001FFFFFFFFC0007F0001FFFFFFFFC0007FF0003FFFFFF
310
FFFFFF0000000003F000FFF80000000007FFF8001E000FC003E0007FFF80007F
310
FFF0000000000FFFFF8000000000FFF80FFFFFFFFFFFFFC07FFFFFF0001FFFFF
310
F0001FFFFFFFFC0007F0001FFFFFFFFC0007FF0003FFFFFFFFFFFC0000000007
310
F000FFE0000000000FFFF0003E000FC003E0007FFF80007FFFC0000000001FFF
310
FE0000000001FFF80FFFFFFFFFFFFFC07FFFFFF0001FFFFFF0001FFFFFFFFC00
310
07F0001FFFFFFFFC0007FF0003FFFFFFFFFFF0000000000FF000FFC000000000
310
1FFFF0003F000F8003F0003FFF80007FFF80000000003FFFF80000000003FFF8
310
0FFFFFFFFFFFFFC07FFFFFF0001FFFFFF0001FFFFFFFFC0007F0001FFFFFFFFC
310
0007FF0003FFFFFFFFFFE0000000001FF000FF00000000007FFFF0003F000780
310
03F0003FFF80007FFF00000000007FFFF00000000007FFF80FFFFFFFFFFFFFC0
310
7FFFFFF0001FFFFFF0001FFFFFFFFC0007F0001FFFFFFFFC0007FF0003FFFFFF
310
FFFF80000000007FF000FE0000000000FFFFE0003F00078007F0003FFF80007F
310
FE0000000001FFFFE0000000001FFFF80FFFFFFFFFFFFFC07FFFFFF0001FFFFF
310
F0001FFFFFFFFC0007F0001FFFFFFFFC0007FF0003FFFFFFFFFF0000000000FF
310
F000FC0000000003FFFFE0007F00078007F0003FFF80007FFC0000000007FFFF
310
C0000000007FFFF80FFFFFFFFFFFFFC07FFFFFF0001FFFFFF8001FFFFFFFFC00
310
0FF8001FFFFFFFFC000FFF0003FFFFFFFFFE0000000003FFF000FC000000000F
310
FFFFE0007F80070007F8001FFF80007FF8000000001FFFFF8000000001FFFFF8
310
0FFFFFFFFFFFFFC07FFFFFF0001FFFFFF8001FFFFFFFFC000FF8001FFFFFFFFC
310
000FFF0003FFFFFFFFFC000000000FFFF000F8000000007FFFFFE0007F800700
310
07F8001FFF80007FF000000000FFFFFF800000000FFFFFF80FFFFFFFFFFFFFC0
310
7FFFFFF0001FFFFFF8000FFFFFFFF8000FF8000FFFFFFFF8000FFF0003FFFFFF
310
FFFC000000007FFFF000F800000007FFFFFFC0007F8003000FF8001FFF80007F
310
F000000007FFFFFF000000007FFFFFF80FFFFFFFFFFFFFC07FFFFFF0001FFFFF
310
F8000FFFFFFFF8000FF8000FFFFFFFF8000FFF0003FFFFFFFFF80000000FFFFF
310
F000F0000000FFFFFFFFC000FF8003000FF8001FFF80007FE0000000FFFFFFFF
310
0000000FFFFFFFF8000001FFFE0000007FFFFFF0001FFFFFF8000FFFFFFFF800
310
0FF8000FFFFFFFF8000FFF0003FFFFFFFFF8000000FFFFFFF000F000000FFFFF
310
FFFFC000FFC002000FF8000FFF80007FE000001FFFFFFFFE000001FFFFFFFFF8
310
000001FFFE0000007FFFFFF0001FFFFFF8000FFFFFFFF8000FF8000FFFFFFFF8
310
000FFF0003FFFFFFFFF000001FFFFFFFF000E00000FFFFFFFFFFC000FFC00200
310
0FFC000FFF80007FE00001FFFFFFFFFE00001FFFFFFFFFF8000001FFFE000000
310
7FFFFFF0001FFFFFFC000FFFFFFFF8001FFC000FFFFFFFF8001FFF0003FFFFFF
310
FFF00001FFFFFFFFF000E00007FFFFFFFFFF8000FFC000001FFC000FFF80007F
310
C0000FFFFFFFFFFE0000FFFFFFFFFFF8000001FFFE0000007FFFFFF0001FFFFF
310
FC0007FFFFFFF0001FFC0007FFFFFFF0001FFF0003FFFFFFFFF00007FFFFFFFF
310
F000E0001FFFFFFFFFFF8000FFC000001FFC000FFF80007FC0003FFFFFFFFFFE
310
0001FFFFFFFFFFF8000001FFFE0000007FFFFFF0001FFFFFFC0007FFFFFFF000
310
1FFC0007FFFFFFF0001FFF0003FFFFFFFFF0001FFFFFFFFFF000E0003FFFFF00
310
03FF8001FFE000001FFC0007FF80007FC0007FFFFF0007FC0003FFFFF0003FF8
310
000001FFFE0000007FFFFFF0001FFFFFFC0003FFFFFFE0001FFC0003FFFFFFE0
310
001FFF0003FFFFFFFFF0003FFFFFFFFFF000E0003FFFFF0001FF8001FFE00000
310
1FFE0007FF80007FC0007FFFFE0003FC0007FFFFE0003FF8000001FFFE000000
310
7FFFFFF0001FFFFFFE0003FFFFFFE0003FFE0003FFFFFFE0003FFF0003FFFFFF
310
FFF0003FFFFF8001F000E0003FFFFF0001FF0001FFE000001FFE0007FF80007F
310
C0007FFFFE0003FC0007FFFFE0003FF8000001FFFE0000007FFFFFF0001FFFFF
310
FE0001FFFFFFC0003FFE0001FFFFFFC0003FFF0003FFFFFFFFF0003FFFFF0001
310
F000E0003FFFFF0003FF0001FFE000003FFE0007FF80007FC0007FFFFE0003FC
310
0007FFFFE0003FF8000001FFFE0000007FFFFFF0001FFFFFFF0001FFFFFFC000
310
7FFF0001FFFFFFC0007FFF0003FFFFFFFFF0003FFFFF0001F000E0003FFFFE00
310
03FF0003FFF000003FFE0003FF80007FC0007FFFFC0003FE0007FFFFE0003FF8
310
000001FFFE0000007FFFFFF0001FFFFFFF0000FFFFFF80007FFF0000FFFFFF80
310
007FFF0003FFFFFFFFF0003FFFFF0001F000E0003FFFFE0003FF0003FFF00000
310
3FFF0003FF80007FC0007FFFFC0007FE0007FFFFC0003FF8000001FFFE000000
310
7FFFFFF0001FFFFFFF80007FFFFF0000FFFF80007FFFFF0000FFFF0003FFFFFF
310
FFF0003FFFFF0003F000E0003FFFFC0003FE0003FFF000003FFF0003FF80007F
310
E0003FFFF80007FE0003FFFFC0007FF8000001FFFE0000007FFFFFF0001FFFFF
310
FF80003FFFFE0000FFFF80003FFFFE0000FFFF0003FFFFFFFFF0001FFFFE0003
310
F000F0001FFFF80003FE0003FFF000007FFF0001FF80007FE0003FFFF00007FE
310
0001FFFF80007FF8000001FFFE0000007FFFFFF0001FFFFFFFC0000FFFF80001
310
FFFFC0000FFFF80001FFFF0003FFFFFFFFF0001FFFFC0003F000F0000FFFF000
310
07FE0007FFF800007FFF0001FF80007FE0001FFFE00007FF0000FFFE00007FF8
310
000001FFFE0000007FFFFFF0001FFFFFFFC00003FFE00001FFFFC00003FFE000
310
01FFFF0003FFFFFFFFF8000FFFF80003F000F00003FFC00007FC0007FFF80000
310
7FFF8001FF80007FF00007FF80000FFF00007FF80000FFF8000001FFFE000000
310
7F80000000000001FFE000003E000003FFFFE000003E000003FFFF0003FFFFFF
310
FFF80003FFE00007F000F800000000000FFC0007FFF800007FFF8001FF80007F
310
F000000000000FFF000000000000FFF8000001FFFE0000007F80000000000001
310
FFF0000000000007FFFFF0000000000007FFFF0003FFFFFFFFFC00007E000007
310
F000F800000000000FFC0007FFF80000FFFF8000FF80007FF800000000001FFF
310
800000000001FFF8000001FFFE0000007F80000000000001FFF800000000000F
310
FFFFF800000000000FFFFF0003FFFFFFFFFC00000000000FF000FC0000000000
310
1FFC0007FFFC0000FFFF8000FF80007FF800000000003FFFC00000000001FFF8
310
000001FFFE0000007F80000000000001FFF800000000000FFFFFF80000000000
310
0FFFFF0003FFFFFFFFFE00000000001FF000FE00000000003FF8000FFFFC0000
310
FFFF8000FF80007FFC00000000003FFFC00000000003FFF8000001FFFE000000
310
7F80000000000001FFFC00000000001FFFFFFC00000000001FFFFF0003FFFFFF
310
FFFF00000000001FF000FF00000000003FF8000FFFFC0000FFFFC000FF80007F
310
FE00000000007FFFE00000000007FFF8000001FFFE0000007F80000000000001
310
FFFE00000000003FFFFFFE00000000003FFFFF0003FFFFFFFFFF80000000003F
310
F000FF80000000007FF8000FFFFC0001FFFFC0007F80007FFF0000000000FFFF
310
F0000000000FFFF800000000000000007F80000000000001FFFF8000000000FF
310
FFFFFF8000000000FFFFFF0003FFFFFFFFFFC0000000007FF000FFC000000000
310
FFF8000FFFFE0001FFFFC0007F80007FFF8000000001FFFFF8000000001FFFF8
310
00000000000000007F80000000000001FFFFC000000001FFFFFFFFC000000001
310
FFFFFF0003FFFFFFFFFFE000000000FFF000FFE000000003FFF0001FFFFE0001
310
FFFFC0007F80007FFFC000000007FFFFFE000000003FFFF80000000000000000
310
7F80000000000001FFFFE000000003FFFFFFFFE000000003FFFFFF0003FFFFFF
310
FFFFF000000003FFF000FFF80000000FFFF0001FFFFE0001FFFFE0007F80007F
310
FFF00000000FFFFFFF00000000FFFFF800000000000000007F80000000000001
310
FFFFF80000000FFFFFFFFFF80000000FFFFFFF0003FFFFFFFFFFFC0000000FFF
310
F000FFFE0000003FFFF0001FFFFE0003FFFFE0003F80007FFFFC0000003FFFFF
310
FFC0000003FFFFF800000000000000007F80000000000001FFFFFE0000003FFF
310
FFFFFFFE0000003FFFFFFF0003FFFFFFFFFFFF0000003FFFF000FFFF800000FF
310
FFF0001FFFFF0003FFFFE0003F80007FFFFF000001FFFFFFFFF800001FFFFFF8
310
00000000000000007F80000000000001FFFFFFC00001FFFFFFFFFFFFC00001FF
310
FFFFFF0003FFFFFFFFFFFFC00000FFFFF000FFFFF8000FFFFFFFFFFFFFFFFFFF
310
FFFFFFFFFFFFFFFFFFFFF0001FFFFFFFFFFF0000FFFFFFF80000000000000000
310
7FFFFFFFFFFFFFFFFFFFFFFC001FFFFFFFFFFFFFFC001FFFFFFFFFFFFFFFFFFF
310
FFFFFFFC001FFFFFF000FFFFFFFFFFFFFFFFFFFFFFFFFFFFFFFFFFFFFFFFFFFF
310
FFFFFFFFFFFFFFFFFFFFFFFFFFFFFFFFFFFFFFFFFFFFFFFFFFFFFFFFFFFFFFFF
310
FFFFFFFFFFFFFFFFFFFFFFFFFFFFFFFFFFFFFFFFFFFFFFFFFFFFFFFFFFFFFFFF
310
F000FFFFFFFFFFFFFFFFFFFFFFFFFFFFFFFFFFFFFFFFFFFFFFFFFFFFFFFFFFFF
310
FFFFFFFFFFFFFFFFFFFFFFFFFFFFFFFFFFFFFFFFFFFFFFFFFFFFFFFFFFFFFFFF
310
FFFFFFFFFFFFFFFFFFFFFFFFFFFFFFFFFFFFFFFFFFFFFFFFF000FFFFFFFFFFFF
310
FFFFFFFFFFFFFFFFFFFFFFFFFFFFFFFFFFFFFFFFFFFFFFFFFFFFFFFFFFFFFFFF
310
FFFFFFFFFFFFFFFFFFFFFFFFFFFFFFFFFFFFFFFFFFFFFFFFFFFFFFFFFFFFFFFF
310
FFFFFFFFFFFFFFFFFFFFFFFFFFFFFFFFF000FFFFFFFFFFFFFFFFFFFFFFFFFFFF
310
FFFFFFFFFFFFFFFFFFFFFFFFFFFFFFFFFFFFFFFFFFFFFFFFFFFFFFFFFFFFFFFF
310
FFFFFFFFFFFFFFFFFFFFFFFFFFFFFFFFFFFFFFFFFFFFFFFFFFFFFFFFFFFFFFFF
310
FFFFFFFFFFFFFFFFF000FFFFFFFFFFFFFFFFFFFFFFFFFFFFFFFFFFFFFFFFFFFF
310
FFFFFFFFFFFFFFFFFFFFFFFFFFFFFFFFFFFFFFFFFFFFFFFFFFFFFFFFFFFFFFFF
310
FFFFFFFFFFFFFFFFFFFFFFFFFFFFFFFFFFFFFFFFFFFFFFFFFFFFFFFFFFFFFFFF
310
F000FFFFFFFFFFFFFFFFFFFFFFFFFFFFFFFFFFFFFFFFFFFFFFFFFFFFFFFFFFFF
310
FFFFFFFFFFFFFFFFFFFFFFFFFFFFFFFFFFFFFFFFFFFFFFFFFFFFFFFFFFFFFFFF
310
FFFFFFFFFFFFFFFFFFFFFFFFFFFFFFFFFFFFFFFFFFFFFFFFF000FFFFFFFFFFFF
310
FFFFFFFFFFFFFFFFFFFFFFFFFFFFFFFFFFFFFFFFFFFFFFFFFFFFFFFFFFFFFFFF
310
FFFFFFFFFFFFFFFFFFFFFFFFFFFFFFFFFFFFFFFFFFFFFFFFFFFFFFFFFFFFFFFF
310
FFFFFFFFFFFFFFFFFFFFFFFFFFFFFFFFF000FFFFFFFFFFFFFFFFFFFFFFFFFFFF
310
FFFFFFFFFFFFFFFFFFFFFFFFFFFFFFFFFFFFFFFFFFFFFFFFFFFFFFFFFFFFFFFF
310
FFFFFFFFFFFFFFFFFFFFFFFFFFFFFFFFFFFFFFFFFFFFFFFFFFFFFFFFFFFFFFFF
310
FFFFFFFFFFFFFFFFF000FFFFFFFFFFFFFFFFFFFFFFFFFFFFFFFFFFFFFFFFFFFF
310
FFFFFFFFFFFFFFFFFFFFFFFFFFFFFFFFFFFFFFFFFFFFFFFFFFFFFFFFFFFFFFFF
310
FFFFFFFFFFFFFFFFFFFFFFFFFFFFFFFFFFFFFFFFFFFFFFFFFFFFFFFFFFFFFFFF
310
F000FFFFFFFFFFFFFFFFFFFFFFFFFFFFFFFFFFFFFFFFFFFFFFFFFFFFFFFFFFFF
310
FFFFFFFFFFFFFFFFFFFFFFFFFFFFFFFFFFFFFFFFFFFFFFFFFFFFFFFFFFFFFFFF
310
FFFFFFFFFFFFFFFFFFFFFFFFFFFFFFFFFFFFFFFFFFFFFFFFF000FFFFFFFFFFFF
310
FFFFFFFFFFFFFFFFFFFFFFFFFFFFFFFFFFFFFFFFFFFFFFFFFFFFFFFFFFFFFFFF
310
FFFFFFFFFFFFFFFFFFFFFFFFFFFFFFFFFFFFFFFFFFFFFFFFFFFFFFFFFFFFFFFF
310
FFFFFFFFFFFFFFFFFFFFFFFFFFFFFFFFF000FFFFFFFFFFFFFFFFFFFFFFFFFFFF
310
FFFFFFFFFFFFFFFFFFFFFFFFFFFFFFFFFFFFFFFFFFFFFFFFFFFFFFFFFFFFFFFF
310
FFFFFFFFFFFFFFFFFFFFFFFFFFFFFFFFFFFFFFFFFFFFFFFFFFFFFFFFFFFFFFFF
310
FFFFFFFFFFFFFFFFF000FFFFFFFFFFFFFFFFFFFFFFFFFFFFFFFFFFFFFFFFFFFF
310
FFFFFFFFFFFFFFFFFFFFFFFFFFFFFFFFFFFFFFFFFFFFFFFFFFFFFFFFFFFFFFFF
310
FFFFFFFFFFFFFFFFFFFFFFFFFFFFFFFFFFFFFFFFFFFFFFFFFFFFFFFFFFFFFFFF
310
F000FFFFFFFFFFFFFFFFFFFFFFFFFFFFFFFFFFFFFFFFFFFFFFFFFFFFFFFFFFFF
310
FFFFFFFFFFFFFFFFFFFFFFFFFFFFFFFFFFFFFFFFFFFFFFFFFFFFFFFFFFFFFFFF
310
FFFFFFFFFFFFFFFFFFFFFFFFFFFFFFFFFFFFFFFFFFFFFFFFF000FFFFFFFFFFFF
310
FFFFFFFFFFFFFFFFFFFFFFFFFFFFFFFFFFFFFFFFFFFFFFFFFFFFFFFFFFFFFFFF
310
FFFFFFFFFFFFFFFFFFFFFFFFFFFFFFFFFFFFFFFFFFFFFFFFFFFFFFFFFFFFFFFF
310
FFFFFFFFFFFFFFFFFFFFFFFFFFFFFFFFF000FFFFFFFFFFFFFFFFFFFFFFFFFFFF
310
FFFFFFFFFFFFFFFFFFFFFFFFFFFFFFFFFFFFFFFFFFFFFFFFFFFFFFFFFFFFFFFF
310
FFFFFFFFFFFFFFFFFFFFFFFFFFFFFFFFFFFFFFFFFFFFFFFFFFFFFFFFFFFFFFFF
310
FFFFFFFFFFFFFFFFF000FFFFFFFFFFFFFFFFFFFFFFFFFFFFFFFFFFFFFFFFFFFF
310
FFFFFFFFFFFFFFFFFFFFFFFFFFFFFFFFFFFFFFFFFFFFFFFFFFFFFFFFFFFFFFFF
310
FFFFFFFFFFFFFFFFFFFFFFFFFFFFFFFFFFFFFFFFFFFFFFFFFFFFFFFFFFFFFFFF
310
F000FFFFFFFFFFFFFFFFFFFFFFFFFFFFFFFFFFFFFFFFFFFFFFFFFFFFFFFFFFFF
310
FFFFFFFFFFFFFFFFFFFFFFFFFFFFFFFFFFFFFFFFFFFFFFFFFFFFFFFFFFFFFFFF
310
FFFFFFFFFFFFFFFFFFFFFFFFFFFFFFFFFFFFFFFFFFFFFFFFF000FFFFFFFFFFFF
310
FFFFFFFFFFFFFFFFFFFFFFFFFFFFFFFFFFFFFFFFFFFFFFFFFFFFFFFFFFFFFFFF
310
FFFFFFFFFFFFFFFFFFFFFFFFFFFFFFFFFFFFFFFFFFFFFFFFFFFFFFFFFFFFFFFF
310
FFFFFFFFFFFFFFFFFFFFFFFFFFFFFFFFF000FFFFFFFFFFFFFFFFFFFFFFFFFFFF
310
FFFFFFFFFFFFFFFFFFFFFFFFFFFFFFFFFFFFFFFFFFFFFFFFFFFFFFFFFFFFFFFF
310
FFFFFFFFFFFFFFFFFFFFFFFFFFFFFFFFFFFFFFFFFFFFFFFFFFFFFFFFFFFFFFFF
310
FFFFFFFFFFFFFFFFF000FFFFFFFFFFFFFFFFFFFFFFFFFFFFFFFFFFFFFFFFFFFF
310
FFFFFFFFFFFFFFFFFFFFFFFFFFFFFFFFFFFFFFFFFFFFFFFFFFFFFFFFFFFFFFFF
310
FFFFFFFFFFFFFFFFFFFFFFFFFFFFFFFFFFFFFFFFFFFFFFFFFFFFFFFFFFFFFFFF
310
F000FFFFFFFFFFFFFFFFFFFFFFFFFFFFFFFFFFFFFFFFFFFFFFFFFFFFFFFFFFFF
310
FFFFFFFFFFFFFFFFFFFFFFFFFFFFFFFFFFFFFFFFFFFFFFFFFFFFFFFFFFFFFFFF
310
FFFFFFFFFFFFFFFFFFFFFFFFFFFFFFFFFFFFFFFFFFFFFFFFF000FFFFFFFFFFFF
310
FFFFFFFFFFFFFFFFFFFFFFFFFFFFFFFFFFFFFFFFFFFFFFFFFFFFFFFFFFFFFFFF
310
FFFFFFFFFFFFFFFFFFFFFFFFFFFFFFFFFFFFFFFFFFFFFFFFFFFFFFFFFFFFFFFF
310
FFFFFFFFFFFFFFFFFFFFFFFFFFFFFFFFF0000000000000000000000000000000
310
0000000000000000000000000000000000000000000000000000000000000000
310
0000000000000000000000000000000000000000000000000000000000000000
310
0000000000000000000000000000000000000000000000000000000000000000
310
0000000000000000000000000000000000000000000000000000000000000000
310
0000000000000000000000000000000000000000000000000000000000000000
310
0000000000000000000000000000000000000000000000000000000000000000
310
0000000000000000000000000000000000000000000000000000000000000000
310
0000000000000000000000000000000000000000000000000000000000000000
310
0000000000000000000000000000000000000000000000000000000000000000
310
0000000000000000000000000000000000000000000000000000000000000000
310
0000000000000000000000000000000000000000000000000000000000000000
310
0000000000000000000000000000000000000000000000000000000000000000
310
0000000000000000000000000000000000000000000000000000000000000000
310
0000000000000000000000000000000000000000000000000000000000000000
310
0000000000000000000000000000000000000000000000000000000000000000
  1
OLE
  0
ENDSEC
  0
SECTION
  2
OBJECTS
  0
DICTIONARY
  5
C
330
0
100
AcDbDictionary
281
     1
  3
ACAD_GROUP
350
D
  3
ACAD_LAYOUT
350
1A
  3
ACAD_MLINESTYLE
350
17
  3
ACAD_PLOTSETTINGS
350
19
  3
ACAD_PLOTSTYLENAME
350
E
  3
ACAD_SCALELIST
350
47
  0
DICTIONARY
  5
D
102
{ACAD_REACTORS
330
C
102
}
330
C
100
AcDbDictionary
281
     1
  0
DICTIONARY
  5
1A
102
{ACAD_REACTORS
330
C
102
}
330
C
100
AcDbDictionary
281
     1
  3
Layout1
350
1E
  3
Layout2
350
26
  3
Model
350
22
  0
DICTIONARY
  5
17
102
{ACAD_REACTORS
330
C
102
}
330
C
100
AcDbDictionary
281
     1
  3
Standard
350
18
  0
DICTIONARY
  5
19
102
{ACAD_REACTORS
330
C
102
}
330
C
100
AcDbDictionary
281
     1
  0
ACDBDICTIONARYWDFLT
  5
E
102
{ACAD_REACTORS
330
C
102
}
330
C
100
AcDbDictionary
281
     1
  3
Normal
350
F
100
AcDbDictionaryWithDefault
340
F
  0
DICTIONARY
  5
47
102
{ACAD_REACTORS
330
C
102
}
330
C
100
AcDbDictionary
281
     1
  3
A0
350
48
  3
A1
350
49
  3
A2
350
4A
  3
A3
350
4B
  3
A4
350
4C
  3
A5
350
4D
  3
A6
350
4E
  3
A7
350
4F
  3
A8
350
50
  3
A9
350
51
  3
B0
350
52
  3
B1
350
53
  3
B2
350
54
  3
B3
350
55
  3
B4
350
56
  3
B5
350
57
  3
B6
350
58
  3
B7
350
59
  3
B8
350
5A
  3
B9
350
5B
  3
C0
350
5C
  3
C1
350
5D
  3
C2
350
5E
  3
C3
350
5F
  3
C4
350
60
  3
C5
350
61
  3
C6
350
62
  3
C7
350
63
  3
C8
350
64
  3
C9
350
65
  3
D0
350
66
  3
D1
350
67
  3
D2
350
68
  0
LAYOUT
  5
1E
102
{ACAD_REACTORS
330
1A
102
}
330
1A
100
AcDbPlotSettings
  1

  2
none_device
  4

  6

 40
0.0
 41
0.0
 42
0.0
 43
0.0
 44
0.0
 45
0.0
 46
0.0
 47
0.0
 48
0.0
 49
0.0
140
0.0
141
0.0
142
1.0
143
1.0
 70
   688
 72
     1
 73
     0
 74
     5
  7

 75
    16
147
1.0
148
0.0
149
0.0
100
AcDbLayout
  1
Layout1
 70
     1
 71
     1
 10
0.0
 20
0.0
 11
420.0
 21
297.0
 12
0.0
 22
0.0
 32
0.0
 14
1.0000000000E+20
 24
1.0000000000E+20
 34
1.0000000000E+20
 15
-1.0000000000E+20
 25
-1.0000000000E+20
 35
-1.0000000000E+20
146
0.0
 13
0.0
 23
0.0
 33
0.0
 16
1.0
 26
0.0
 36
0.0
 17
0.0
 27
1.0
 37
0.0
 76
     0
330
1B
  0
LAYOUT
  5
26
102
{ACAD_REACTORS
330
1A
102
}
330
1A
100
AcDbPlotSettings
  1

  2
none_device
  4

  6

 40
0.0
 41
0.0
 42
0.0
 43
0.0
 44
0.0
 45
0.0
 46
0.0
 47
0.0
 48
0.0
 49
0.0
140
0.0
141
0.0
142
1.0
143
1.0
 70
   688
 72
     1
 73
     0
 74
     5
  7

 75
    16
147
1.0
148
0.0
149
0.0
100
AcDbLayout
  1
Layout2
 70
     1
 71
     2
 10
0.0
 20
0.0
 11
0.0
 21
0.0
 12
0.0
 22
0.0
 32
0.0
 14
0.0
 24
0.0
 34
0.0
 15
0.0
 25
0.0
 35
0.0
146
0.0
 13
0.0
 23
0.0
 33
0.0
 16
1.0
 26
0.0
 36
0.0
 17
0.0
 27
1.0
 37
0.0
 76
     0
330
23
  0
LAYOUT
  5
22
102
{ACAD_REACTORS
330
1A
102
}
330
1A
100
AcDbPlotSettings
  1

  2
none_device
  4
Letter_(8.50_x_11.00_Inches)
  6

 40
6.35
 41
6.35
 42
6.35000508
 43
6.35000508
 44
215.9
 45
279.4
 46
0.0
 47
0.0
 48
0.0
 49
0.0
140
0.0
141
0.0
142
1.0
143
1.0
 70
  1712
 72
     1
 73
     0
 74
     0
  7

 75
     0
147
1.0
148
0.0
149
0.0
100
AcDbLayout
  1
Model
 70
     1
 71
     0
 10
0.0
 20
0.0
 11
297.0
 21
210.0
 12
0.0
 22
0.0
 32
0.0
 14
0.0
 24
0.0
 34
0.0
 15
297.0
 25
210.0
 35
0.0
146
0.0
 13
0.0
 23
0.0
 33
0.0
 16
1.0
 26
0.0
 36
0.0
 17
0.0
 27
1.0
 37
0.0
 76
     0
330
1F
331
29
  0
MLINESTYLE
  5
18
102
{ACAD_REACTORS
330
17
102
}
330
17
100
AcDbMlineStyle
  2
Standard
 70
     0
  3

 62
   256
 51
90.0
 52
90.0
 71
     2
 49
0.5
 62
   256
  6
BYLAYER
 49
-0.5
 62
   256
  6
BYLAYER
  0
ACDBPLACEHOLDER
  5
F
102
{ACAD_REACTORS
330
E
102
}
330
E
  0
SCALE
  5
48
102
{ACAD_REACTORS
330
47
102
}
330
47
100
AcDbScale
 70
     0
300
1:1
140
1.0
141
1.0
290
     1
  0
SCALE
  5
49
102
{ACAD_REACTORS
330
47
102
}
330
47
100
AcDbScale
 70
     0
300
1:2
140
1.0
141
2.0
290
     0
  0
SCALE
  5
4A
102
{ACAD_REACTORS
330
47
102
}
330
47
100
AcDbScale
 70
     0
300
1:4
140
1.0
141
4.0
290
     0
  0
SCALE
  5
4B
102
{ACAD_REACTORS
330
47
102
}
330
47
100
AcDbScale
 70
     0
300
1:5
140
1.0
141
5.0
290
     0
  0
SCALE
  5
4C
102
{ACAD_REACTORS
330
47
102
}
330
47
100
AcDbScale
 70
     0
300
1:8
140
1.0
141
8.0
290
     0
  0
SCALE
  5
4D
102
{ACAD_REACTORS
330
47
102
}
330
47
100
AcDbScale
 70
     0
300
1:10
140
1.0
141
10.0
290
     0
  0
SCALE
  5
4E
102
{ACAD_REACTORS
330
47
102
}
330
47
100
AcDbScale
 70
     0
300
1:16
140
1.0
141
16.0
290
     0
  0
SCALE
  5
4F
102
{ACAD_REACTORS
330
47
102
}
330
47
100
AcDbScale
 70
     0
300
1:20
140
1.0
141
20.0
290
     0
  0
SCALE
  5
50
102
{ACAD_REACTORS
330
47
102
}
330
47
100
AcDbScale
 70
     0
300
1:30
140
1.0
141
30.0
290
     0
  0
SCALE
  5
51
102
{ACAD_REACTORS
330
47
102
}
330
47
100
AcDbScale
 70
     0
300
1:40
140
1.0
141
40.0
290
     0
  0
SCALE
  5
52
102
{ACAD_REACTORS
330
47
102
}
330
47
100
AcDbScale
 70
     0
300
1:50
140
1.0
141
50.0
290
     0
  0
SCALE
  5
53
102
{ACAD_REACTORS
330
47
102
}
330
47
100
AcDbScale
 70
     0
300
1:100
140
1.0
141
100.0
290
     0
  0
SCALE
  5
54
102
{ACAD_REACTORS
330
47
102
}
330
47
100
AcDbScale
 70
     0
300
2:1
140
2.0
141
1.0
290
     0
  0
SCALE
  5
55
102
{ACAD_REACTORS
330
47
102
}
330
47
100
AcDbScale
 70
     0
300
4:1
140
4.0
141
1.0
290
     0
  0
SCALE
  5
56
102
{ACAD_REACTORS
330
47
102
}
330
47
100
AcDbScale
 70
     0
300
8:1
140
8.0
141
1.0
290
     0
  0
SCALE
  5
57
102
{ACAD_REACTORS
330
47
102
}
330
47
100
AcDbScale
 70
     0
300
10:1
140
10.0
141
1.0
290
     0
  0
SCALE
  5
58
102
{ACAD_REACTORS
330
47
102
}
330
47
100
AcDbScale
 70
     0
300
100:1
140
100.0
141
1.0
290
     0
  0
SCALE
  5
59
102
{ACAD_REACTORS
330
47
102
}
330
47
100
AcDbScale
 70
     0
300
1/128" = 1'-0"
140
0.0078125
141
12.0
290
     0
  0
SCALE
  5
5A
102
{ACAD_REACTORS
330
47
102
}
330
47
100
AcDbScale
 70
     0
300
1/64" = 1'-0"
140
0.015625
141
12.0
290
     0
  0
SCALE
  5
5B
102
{ACAD_REACTORS
330
47
102
}
330
47
100
AcDbScale
 70
     0
300
1/32" = 1'-0"
140
0.03125
141
12.0
290
     0
  0
SCALE
  5
5C
102
{ACAD_REACTORS
330
47
102
}
330
47
100
AcDbScale
 70
     0
300
1/16" = 1'-0"
140
0.0625
141
12.0
290
     0
  0
SCALE
  5
5D
102
{ACAD_REACTORS
330
47
102
}
330
47
100
AcDbScale
 70
     0
300
3/32" = 1'-0"
140
0.09375
141
12.0
290
     0
  0
SCALE
  5
5E
102
{ACAD_REACTORS
330
47
102
}
330
47
100
AcDbScale
 70
     0
300
1/8" = 1'-0"
140
0.125
141
12.0
290
     0
  0
SCALE
  5
5F
102
{ACAD_REACTORS
330
47
102
}
330
47
100
AcDbScale
 70
     0
300
3/16" = 1'-0"
140
0.1875
141
12.0
290
     0
  0
SCALE
  5
60
102
{ACAD_REACTORS
330
47
102
}
330
47
100
AcDbScale
 70
     0
300
1/4" = 1'-0"
140
0.25
141
12.0
290
     0
  0
SCALE
  5
61
102
{ACAD_REACTORS
330
47
102
}
330
47
100
AcDbScale
 70
     0
300
3/8" = 1'-0"
140
0.375
141
12.0
290
     0
  0
SCALE
  5
62
102
{ACAD_REACTORS
330
47
102
}
330
47
100
AcDbScale
 70
     0
300
1/2" = 1'-0"
140
0.5
141
12.0
290
     0
  0
SCALE
  5
63
102
{ACAD_REACTORS
330
47
102
}
330
47
100
AcDbScale
 70
     0
300
3/4" = 1'-0"
140
0.75
141
12.0
290
     0
  0
SCALE
  5
64
102
{ACAD_REACTORS
330
47
102
}
330
47
100
AcDbScale
 70
     0
300
1" = 1'-0"
140
1.0
141
12.0
290
     0
  0
SCALE
  5
65
102
{ACAD_REACTORS
330
47
102
}
330
47
100
AcDbScale
 70
     0
300
1-1/2" = 1'-0"
140
1.5
141
12.0
290
     0
  0
SCALE
  5
66
102
{ACAD_REACTORS
330
47
102
}
330
47
100
AcDbScale
 70
     0
300
3" = 1'-0"
140
3.0
141
12.0
290
     0
  0
SCALE
  5
67
102
{ACAD_REACTORS
330
47
102
}
330
47
100
AcDbScale
 70
     0
300
6" = 1'-0"
140
6.0
141
12.0
290
     0
  0
SCALE
  5
68
102
{ACAD_REACTORS
330
47
102
}
330
47
100
AcDbScale
 70
     0
300
1'-0" = 1'-0"
140
12.0
141
12.0
290
     0
  0
ENDSEC
  0
EOF
