  0
SECTION
  2
HEADER
  9
$ACADVER
  1
AC1015
  9
$ACADMAINTVER
 70
     6
  9
$DWGCODEPAGE
  3
ANSI_1252
  9
$INSBASE
 10
0.0
 20
0.0
 30
0.0
  9
$EXTMIN
 10
0.0
 20
0.0
 30
0.0
  9
$EXTMAX
 10
297.0
 20
210.0
 30
0.0
  9
$LIMMIN
 10
0.0
 20
0.0
  9
$LIMMAX
 10
297.0
 20
210.0
  9
$ORTHOMODE
 70
     0
  9
$REGENMODE
 70
     1
  9
$FILLMODE
 70
     1
  9
$QTEXTMODE
 70
     0
  9
$MIRRTEXT
 70
     1
  9
$LTSCALE
 40
1.0
  9
$ATTMODE
 70
     1
  9
$TEXTSIZE
 40
2.0
  9
$TRACEWID
 40
1.0
  9
$TEXTSTYLE
  7
Standard
  9
$CLAYER
  8
0
  9
$CELTYPE
  6
ByLayer
  9
$CECOLOR
 62
   256
  9
$CELTSCALE
 40
1.0
  9
$DISPSILH
 70
     0
  9
$DIMSCALE
 40
1.0
  9
$DIMASZ
 40
3.0
  9
$DIMEXO
 40
0.0
  9
$DIMDLI
 40
3.75
  9
$DIMRND
 40
0.0
  9
$DIMDLE
 40
0.0
  9
$DIMEXE
 40
1.0
  9
$DIMTP
 40
0.0
  9
$DIMTM
 40
0.0
  9
$DIMTXT
 40
2.0
  9
$DIMCEN
 40
2.5
  9
$DIMTSZ
 40
0.0
  9
$DIMTOL
 70
     0
  9
$DIMLIM
 70
     0
  9
$DIMTIH
 70
     1
  9
$DIMTOH
 70
     1
  9
$DIMSE1
 70
     0
  9
$DIMSE2
 70
     0
  9
$DIMTAD
 70
     1
  9
$DIMZIN
 70
     0
  9
$DIMBLK
  1

  9
$DIMASO
 70
     1
  9
$DIMSHO
 70
     1
  9
$DIMPOST
  1

  9
$DIMAPOST
  1

  9
$DIMALT
 70
     0
  9
$DIMALTD
 70
     3
  9
$DIMALTF
 40
0.0393700787
  9
$DIMLFAC
 40
1.0
  9
$DIMTOFL
 70
     1
  9
$DIMTVP
 40
0.0
  9
$DIMTIX
 70
     0
  9
$DIMSOXD
 70
     0
  9
$DIMSAH
 70
     0
  9
$DIMBLK1
  1

  9
$DIMBLK2
  1

  9
$DIMSTYLE
  2
ISO-25
  9
$DIMCLRD
 70
     0
  9
$DIMCLRE
 70
     0
  9
$DIMCLRT
 70
     0
  9
$DIMTFAC
 40
1.0
  9
$DIMGAP
 40
1.524
  9
$DIMJUST
 70
     0
  9
$DIMSD1
 70
     0
  9
$DIMSD2
 70
     0
  9
$DIMTOLJ
 70
     0
  9
$DIMTZIN
 70
     0
  9
$DIMALTZ
 70
     0
  9
$DIMALTTZ
 70
     0
  9
$DIMUPT
 70
     0
  9
$DIMDEC
 70
     2
  9
$DIMTDEC
 70
     3
  9
$DIMALTU
 70
     2
  9
$DIMALTTD
 70
     3
  9
$DIMTXSTY
  7
Standard
  9
$DIMAUNIT
 70
     0
  9
$DIMADEC
 70
     2
  9
$DIMALTRND
 40
0.0
  9
$DIMAZIN
 70
     0
  9
$DIMDSEP
 70
    44
  9
$DIMATFIT
 70
     3
  9
$DIMFRAC
 70
     0
  9
$DIMLDRBLK
  1

  9
$DIMLUNIT
 70
     2
  9
$DIMLWD
 70
    -2
  9
$DIMLWE
 70
    -2
  9
$DIMTMOVE
 70
     0
  9
$LUNITS
 70
     2
  9
$LUPREC
 70
     2
  9
$SKETCHINC
 40
1.0
  9
$FILLETRAD
 40
10.0
  9
$AUNITS
 70
     0
  9
$AUPREC
 70
     2
  9
$MENU
  1
.
  9
$ELEVATION
 40
0.0
  9
$PELEVATION
 40
0.0
  9
$THICKNESS
 40
0.0
  9
$LIMCHECK
 70
     0
  9
$CHAMFERA
 40
0.0
  9
$CHAMFERB
 40
0.0
  9
$CHAMFERC
 40
0.0
  9
$CHAMFERD
 40
0.0
  9
$SKPOLY
 70
     0
  9
$TDCREATE
 40
2457668.348498692
  9
$TDUCREATE
 40
2457668.265165359
  9
$TDUPDATE
 40
2457668.348500104
  9
$TDUUPDATE
 40
2457668.265166771
  9
$TDINDWG
 40
0.0000000116
  9
$TDUSRTIMER
 40
0.0000000116
  9
$USRTIMER
 70
     1
  9
$ANGBASE
 50
0.0
  9
$ANGDIR
 70
     0
  9
$PDMODE
 70
     0
  9
$PDSIZE
 40
-1.0
  9
$PLINEWID
 40
0.0
  9
$SPLFRAME
 70
     0
  9
$SPLINETYPE
 70
     6
  9
$SPLINESEGS
 70
     8
  9
$HANDSEED
  5
2DA
  9
$SURFTAB1
 70
     6
  9
$SURFTAB2
 70
     6
  9
$SURFTYPE
 70
     6
  9
$SURFU
 70
     6
  9
$SURFV
 70
     6
  9
$UCSBASE
  2

  9
$UCSNAME
  2

  9
$UCSORG
 10
0.0
 20
0.0
 30
0.0
  9
$UCSXDIR
 10
1.0
 20
0.0
 30
0.0
  9
$UCSYDIR
 10
0.0
 20
1.0
 30
0.0
  9
$UCSORTHOREF
  2

  9
$UCSORTHOVIEW
 70
     0
  9
$UCSORGTOP
 10
0.0
 20
0.0
 30
0.0
  9
$UCSORGBOTTOM
 10
0.0
 20
0.0
 30
0.0
  9
$UCSORGLEFT
 10
0.0
 20
0.0
 30
0.0
  9
$UCSORGRIGHT
 10
0.0
 20
0.0
 30
0.0
  9
$UCSORGFRONT
 10
0.0
 20
0.0
 30
0.0
  9
$UCSORGBACK
 10
0.0
 20
0.0
 30
0.0
  9
$PUCSBASE
  2

  9
$PUCSNAME
  2

  9
$PUCSORG
 10
0.0
 20
0.0
 30
0.0
  9
$PUCSXDIR
 10
1.0
 20
0.0
 30
0.0
  9
$PUCSYDIR
 10
0.0
 20
1.0
 30
0.0
  9
$PUCSORTHOREF
  2

  9
$PUCSORTHOVIEW
 70
     0
  9
$PUCSORGTOP
 10
0.0
 20
0.0
 30
0.0
  9
$PUCSORGBOTTOM
 10
0.0
 20
0.0
 30
0.0
  9
$PUCSORGLEFT
 10
0.0
 20
0.0
 30
0.0
  9
$PUCSORGRIGHT
 10
0.0
 20
0.0
 30
0.0
  9
$PUCSORGFRONT
 10
0.0
 20
0.0
 30
0.0
  9
$PUCSORGBACK
 10
0.0
 20
0.0
 30
0.0
  9
$USERI1
 70
     0
  9
$USERI2
 70
     0
  9
$USERI3
 70
     0
  9
$USERI4
 70
     0
  9
$USERI5
 70
     0
  9
$USERR1
 40
0.0
  9
$USERR2
 40
0.0
  9
$USERR3
 40
0.0
  9
$USERR4
 40
0.0
  9
$USERR5
 40
0.0
  9
$WORLDVIEW
 70
     1
  9
$SHADEDGE
 70
     3
  9
$SHADEDIF
 70
    70
  9
$TILEMODE
 70
     1
  9
$MAXACTVP
 70
    64
  9
$PINSBASE
 10
0.0
 20
0.0
 30
0.0
  9
$PLIMCHECK
 70
     0
  9
$PEXTMIN
 10
1.0000000000E+20
 20
1.0000000000E+20
 30
1.0000000000E+20
  9
$PEXTMAX
 10
-1.0000000000E+20
 20
-1.0000000000E+20
 30
-1.0000000000E+20
  9
$PLIMMIN
 10
0.0
 20
0.0
  9
$PLIMMAX
 10
420.0
 20
297.0
  9
$UNITMODE
 70
     0
  9
$VISRETAIN
 70
     1
  9
$PLINEGEN
 70
     0
  9
$PSLTSCALE
 70
     1
  9
$TREEDEPTH
 70
  3020
  9
$CMLSTYLE
  2
Standard
  9
$CMLJUST
 70
     0
  9
$CMLSCALE
 40
20.0
  9
$PROXYGRAPHICS
 70
     1
  9
$MEASUREMENT
 70
     1
  9
$CELWEIGHT
370
    -1
  9
$ENDCAPS
280
     0
  9
$JOINSTYLE
280
     0
  9
$LWDISPLAY
290
     1
  9
$INSUNITS
 70
     4
  9
$HYPERLINKBASE
  1

  9
$STYLESHEET
  1

  9
$XEDIT
290
     1
  9
$CEPSNTYPE
380
     0
  9
$PSTYLEMODE
290
     1
  9
$FINGERPRINTGUID
  2
{B0CED8D6-DEFE-4DFD-9E05-435C363C693D}
  9
$VERSIONGUID
  2
{FAEB1C32-E019-11D5-929B-00C0DF256EC4}
  9
$EXTNAMES
290
     1
  9
$PSVPSCALE
 40
0.0
  9
$OLESTARTUP
290
     0
  0
ENDSEC
  0
SECTION
  2
CLASSES
  0
CLASS
  1
ACDBDICTIONARYWDFLT
  2
AcDbDictionaryWithDefault
  3
ObjectDBX Classes
 90
        0
280
     0
281
     0
  0
CLASS
  1
VISUALSTYLE
  2
AcDbVisualStyle
  3
ObjectDBX Classes
 90
     4095
280
     0
281
     0
  0
CLASS
  1
MATERIAL
  2
AcDbMaterial
  3
ObjectDBX Classes
 90
     1153
280
     0
281
     0
  0
CLASS
  1
SCALE
  2
AcDbScale
  3
ObjectDBX Classes
 90
     1153
280
     0
281
     0
  0
CLASS
  1
TABLESTYLE
  2
AcDbTableStyle
  3
ObjectDBX Classes
 90
     4095
280
     0
281
     0
  0
CLASS
  1
MLEADERSTYLE
  2
AcDbMLeaderStyle
  3
ACDB_MLEADERSTYLE_CLASS
 90
     4095
280
     0
281
     0
  0
CLASS
  1
SUN
  2
AcDbSun
  3
SCENEOE
 90
     1153
280
     0
281
     0
  0
CLASS
  1
ACDBPLACEHOLDER
  2
AcDbPlaceHolder
  3
ObjectDBX Classes
 90
        0
280
     0
281
     0
  0
CLASS
  1
LAYOUT
  2
AcDbLayout
  3
ObjectDBX Classes
 90
        0
280
     0
281
     0
  0
ENDSEC
  0
SECTION
  2
TABLES
  0
TABLE
  2
VPORT
  5
8
330
0
100
AcDbSymbolTable
 70
     1
  0
VPORT
  5
29
330
8
100
AcDbSymbolTableRecord
100
AcDbViewportTableRecord
  2
*Active
 70
     0
 10
0.0
 20
0.0
 11
1.0
 21
1.0
 12
148.5
 22
105.0
 13
0.0
 23
0.0
 14
10.0
 24
10.0
 15
10.0
 25
10.0
 16
0.0
 26
0.0
 36
1.0
 17
0.0
 27
0.0
 37
0.0
 40
210.0
 41
1.4142857143
 42
50.0
 43
0.0
 44
0.0
 50
0.0
 51
0.0
 71
     0
 72
  2000
 73
     1
 74
     3
 75
     0
 76
     0
 77
     0
 78
     0
281
     0
 65
     1
110
0.0
120
0.0
130
0.0
111
1.0
121
0.0
131
0.0
112
0.0
122
1.0
132
0.0
 79
     0
146
0.0
  0
ENDTAB
  0
TABLE
  2
LTYPE
  5
5
330
0
100
AcDbSymbolTable
 70
     6
  0
LTYPE
  5
14
330
5
100
AcDbSymbolTableRecord
100
AcDbLinetypeTableRecord
  2
ByBlock
 70
     0
  3

 72
    65
 73
     0
 40
0.0
  0
LTYPE
  5
15
330
5
100
AcDbSymbolTableRecord
100
AcDbLinetypeTableRecord
  2
ByLayer
 70
     0
  3

 72
    65
 73
     0
 40
0.0
  0
LTYPE
  5
16
330
5
100
AcDbSymbolTableRecord
100
AcDbLinetypeTableRecord
  2
Continuous
 70
     0
  3
Solid line
 72
    65
 73
     0
 40
0.0
  0
LTYPE
  5
6E
330
5
100
AcDbSymbolTableRecord
100
AcDbLinetypeTableRecord
  2
HIDDEN
 70
     0
  3
Hidden __ __ __ __ __ __ __ __ __ __ __ __ __ __
 72
    65
 73
     2
 40
1.905
 49
1.27
 74
     0
 49
-0.635
 74
     0
  0
LTYPE
  5
6F
330
5
100
AcDbSymbolTableRecord
100
AcDbLinetypeTableRecord
  2
PHANTOM
 70
     0
  3
Phantom ______  __  __  ______  __  __  ______
 72
    65
 73
     6
 40
12.7
 49
6.35
 74
     0
 49
-1.27
 74
     0
 49
1.27
 74
     0
 49
-1.27
 74
     0
 49
1.27
 74
     0
 49
-1.27
 74
     0
  0
LTYPE
  5
70
330
5
100
AcDbSymbolTableRecord
100
AcDbLinetypeTableRecord
  2
CENTER
 70
     0
  3
Center ____ _ ____ _ ____ _ ____ _ ____ _ ____
 72
    65
 73
     4
 40
10.16
 49
6.35
 74
     0
 49
-1.27
 74
     0
 49
1.27
 74
     0
 49
-1.27
 74
     0
  0
LTYPE
  5
71
330
5
100
AcDbSymbolTableRecord
100
AcDbLinetypeTableRecord
  2
CENTERX2
 70
     0
  3
Center (2x) ________  __  ________  __  _____
 72
    65
 73
     4
 40
20.32
 49
12.7
 74
     0
 49
-2.54
 74
     0
 49
2.54
 74
     0
 49
-2.54
 74
     0
  0
LTYPE
  5
72
330
5
100
AcDbSymbolTableRecord
100
AcDbLinetypeTableRecord
  2
DOT2
 70
     0
  3
Dot (.5x) ........................................
 72
    65
 73
     2
 40
0.635
 49
0.0
 74
     0
 49
-0.635
 74
     0
  0
ENDTAB
  0
TABLE
  2
LAYER
  5
2
330
0
100
AcDbSymbolTable
 70
     5
  0
LAYER
  5
10
330
2
100
AcDbSymbolTableRecord
100
AcDbLayerTableRecord
  2
0
 70
     0
 62
     7
  6
Continuous
370
    -3
390
F
  0
LAYER
  5
73
330
2
100
AcDbSymbolTableRecord
100
AcDbLayerTableRecord
  2
FORMAT
 70
     0
 62
     7
  6
Continuous
370
    -3
390
F
  0
LAYER
  5
74
330
2
100
AcDbSymbolTableRecord
100
AcDbLayerTableRecord
  2
VERMASSUNG
 70
     0
 62
     7
  6
Continuous
370
    -3
390
F
  0
LAYER
  5
75
330
2
100
AcDbSymbolTableRecord
100
AcDbLayerTableRecord
  2
KOPF_DÜNN
 70
     0
 62
     7
  6
Continuous
370
    -3
390
F
  0
LAYER
  5
76
330
2
100
AcDbSymbolTableRecord
100
AcDbLayerTableRecord
  2
KOPF_DICK
 70
     0
 62
     7
  6
Continuous
370
    15
390
F
  0
ENDTAB
  0
TABLE
  2
STYLE
  5
3
330
0
100
AcDbSymbolTable
 70
     2
  0
STYLE
  5
11
330
3
100
AcDbSymbolTableRecord
100
AcDbTextStyleTableRecord
  2
Standard
 70
     0
 40
0.0
 41
1.0
 50
0.0
 71
     0
 42
2.0
  3
txt
  4

  0
STYLE
  5
77
330
3
100
AcDbSymbolTableRecord
100
AcDbTextStyleTableRecord
  2
SLDTEXTSTYLE0
 70
     0
 40
0.0
 41
0.7
 50
0.0
 71
     0
 42
2.0
  3
TXT
  4

  0
ENDTAB
  0
TABLE
  2
VIEW
  5
6
330
0
100
AcDbSymbolTable
 70
     0
  0
ENDTAB
  0
TABLE
  2
UCS
  5
7
330
0
100
AcDbSymbolTable
 70
     0
  0
ENDTAB
  0
TABLE
  2
APPID
  5
9
330
0
100
AcDbSymbolTable
 70
     1
  0
APPID
  5
12
330
9
100
AcDbSymbolTableRecord
100
AcDbRegAppTableRecord
  2
ACAD
 70
     0
  0
ENDTAB
  0
TABLE
  2
DIMSTYLE
  5
A
330
0
100
AcDbSymbolTable
 70
     2
100
AcDbDimStyleTable
  0
DIMSTYLE
105
27
330
A
100
AcDbSymbolTableRecord
100
AcDbDimStyleTableRecord
  2
ISO-25
 70
     0
 41
2.5
 42
0.625
 43
3.75
 44
1.25
 73
     0
 74
     0
 77
     1
 78
     8
140
2.5
141
2.5
143
0.0393700787
147
0.625
171
     3
172
     1
178
     0
271
     2
272
     2
274
     3
278
    44
283
     0
284
     8
340
11
  0
DIMSTYLE
105
1EC
102
{ACAD_REACTORS
330
1EB
330
1F8
330
203
330
20F
330
219
330
225
102
}
330
A
100
AcDbSymbolTableRecord
100
AcDbDimStyleTableRecord
  2
SLDDIMSTYLE0
 70
     0
 41
3.0
 44
0.0
 45
0.000000001
 73
     0
 74
     0
 77
     1
 78
    12
 79
     3
140
2.0
147
0.5
173
     1
178
     0
271
     2
272
     3
276
     2
284
    12
340
77
  0
ENDTAB
  0
TABLE
  2
BLOCK_RECORD
  5
1
330
0
100
AcDbSymbolTable
 70
     7
  0
BLOCK_RECORD
  5
1F
330
1
100
AcDbSymbolTableRecord
100
AcDbBlockTableRecord
  2
*Model_Space
340
22
  0
BLOCK_RECORD
  5
1B
330
1
100
AcDbSymbolTableRecord
100
AcDbBlockTableRecord
  2
*Paper_Space
340
1E
  0
BLOCK_RECORD
  5
23
330
1
100
AcDbSymbolTableRecord
100
AcDbBlockTableRecord
  2
*Paper_Space0
340
26
  0
BLOCK_RECORD
  5
1ED
330
1
100
AcDbSymbolTableRecord
100
AcDbBlockTableRecord
  2
_D
340
0
  0
BLOCK_RECORD
  5
1F9
330
1
100
AcDbSymbolTableRecord
100
AcDbBlockTableRecord
  2
_D_1
340
0
  0
BLOCK_RECORD
  5
204
330
1
100
AcDbSymbolTableRecord
100
AcDbBlockTableRecord
  2
_D_2
340
0
  0
BLOCK_RECORD
  5
210
330
1
100
AcDbSymbolTableRecord
100
AcDbBlockTableRecord
  2
_D_3
340
0
  0
BLOCK_RECORD
  5
21A
330
1
100
AcDbSymbolTableRecord
100
AcDbBlockTableRecord
  2
_D_4
340
0
  0
BLOCK_RECORD
  5
226
330
1
100
AcDbSymbolTableRecord
100
AcDbBlockTableRecord
  2
_D_5
340
0
  0
ENDTAB
  0
ENDSEC
  0
SECTION
  2
BLOCKS
  0
BLOCK
  5
20
330
1F
100
AcDbEntity
  8
0
100
AcDbBlockBegin
  2
*Model_Space
 70
     0
 10
0.0
 20
0.0
 30
0.0
  3
*Model_Space
  1

  0
ENDBLK
  5
21
330
1F
100
AcDbEntity
  8
0
100
AcDbBlockEnd
  0
BLOCK
  5
1C
330
1B
100
AcDbEntity
 67
     1
  8
0
100
AcDbBlockBegin
  2
*Paper_Space
 70
     0
 10
0.0
 20
0.0
 30
0.0
  3
*Paper_Space
  1

  0
ENDBLK
  5
1D
330
1B
100
AcDbEntity
 67
     1
  8
0
100
AcDbBlockEnd
  0
BLOCK
  5
24
330
23
100
AcDbEntity
  8
0
100
AcDbBlockBegin
  2
*Paper_Space0
 70
     0
 10
0.0
 20
0.0
 30
0.0
  3
*Paper_Space0
  1

  0
ENDBLK
  5
25
330
23
100
AcDbEntity
  8
0
100
AcDbBlockEnd
  0
BLOCK
  5
1EE
330
1ED
100
AcDbEntity
  8
0
100
AcDbBlockBegin
  2
_D
 70
     0
 10
0.0
 20
0.0
 30
0.0
  3
_D
  1

  0
SOLID
  5
1F0
330
1ED
100
AcDbEntity
  8
VERMASSUNG
100
AcDbTrace
 10
85.7944554585
 20
80.3594241942
 30
0.0
 11
86.2444554585
 21
83.3594241942
 31
0.0
 12
85.3444554585
 22
83.3594241942
 32
0.0
 13
85.3444554585
 23
83.3594241942
 33
0.0
  0
SOLID
  5
1F1
330
1ED
100
AcDbEntity
  8
VERMASSUNG
100
AcDbTrace
 10
85.7944554585
 20
143.8594241942
 30
0.0
 11
85.3444554585
 21
140.8594241942
 31
0.0
 12
86.2444554585
 22
140.8594241942
 32
0.0
 13
86.2444554585
 23
140.8594241942
 33
0.0
  0
LINE
  5
1F2
330
1ED
100
AcDbEntity
  8
VERMASSUNG
100
AcDbLine
 10
179.3717575702
 20
80.3594241942
 30
0.0
 11
84.7944554585
 21
80.3594241942
 31
0.0
  0
LINE
  5
1F3
330
1ED
100
AcDbEntity
  8
VERMASSUNG
100
AcDbLine
 10
179.3717575702
 20
143.8594241942
 30
0.0
 11
84.7944554585
 21
143.8594241942
 31
0.0
  0
LINE
  5
1F4
330
1ED
100
AcDbEntity
  8
VERMASSUNG
100
AcDbLine
 10
85.7944554585
 20
80.3594241942
 30
0.0
 11
85.7944554585
 21
143.8594241942
 31
0.0
  0
MTEXT
  5
1F5
330
1ED
100
AcDbEntity
  8
VERMASSUNG
100
AcDbMText
 10
83.0163202023
 20
103.3064880459
 30
0.0
 40
2.0
 41
0.0
 71
     1
 72
     1
  1
ISO 40
  7
SLDTEXTSTYLE0
 11
3.391901413832837E-15
 21
1.0
 31
0.0
 73
     1
 44
1.0
  0
MTEXT
  5
1F6
330
1ED
100
AcDbEntity
  8
VERMASSUNG
100
AcDbMText
 10
83.2163201536
 20
112.50648825
 30
0.0
 40
2.0
 41
0.0
 71
     1
 72
     1
  1
%%c
  7
SLDTEXTSTYLE0
 11
3.391901413832837E-15
 21
1.0
 31
0.0
 73
     1
 44
1.0
  0
MTEXT
  5
1F7
330
1ED
100
AcDbEntity
  8
VERMASSUNG
100
AcDbMText
 10
83.2163198626
 20
116.1143685814
 30
0.0
 40
2.0
 41
0.0
 71
     1
 72
     1
  1
63.5
  7
SLDTEXTSTYLE0
 11
3.391901413832837E-15
 21
1.0
 31
0.0
 73
     1
 44
1.0
  0
ENDBLK
  5
1EF
330
1ED
100
AcDbEntity
  8
0
100
AcDbBlockEnd
  0
BLOCK
  5
1FA
330
1F9
100
AcDbEntity
  8
0
100
AcDbBlockBegin
  2
_D_1
 70
     0
 10
0.0
 20
0.0
 30
0.0
  3
_D_1
  1

  0
SOLID
  5
1FC
330
1F9
100
AcDbEntity
  8
VERMASSUNG
100
AcDbTrace
 10
211.08036621
 20
123.1094241942
 30
0.0
 11
210.63036621
 21
120.1094241942
 31
0.0
 12
211.53036621
 22
120.1094241942
 32
0.0
 13
211.53036621
 23
120.1094241942
 33
0.0
  0
SOLID
  5
1FD
330
1F9
100
AcDbEntity
  8
VERMASSUNG
100
AcDbTrace
 10
211.08036621
 20
101.1094241942
 30
0.0
 11
211.53036621
 21
104.1094241942
 31
0.0
 12
210.63036621
 22
104.1094241942
 32
0.0
 13
210.63036621
 23
104.1094241942
 33
0.0
  0
LINE
  5
1FE
330
1F9
100
AcDbEntity
  8
VERMASSUNG
100
AcDbLine
 10
193.3217575702
 20
123.1094241942
 30
0.0
 11
212.08036621
 21
123.1094241942
 31
0.0
  0
LINE
  5
1FF
330
1F9
100
AcDbEntity
  8
VERMASSUNG
100
AcDbLine
 10
193.3217575702
 20
101.1094241942
 30
0.0
 11
212.08036621
 21
101.1094241942
 31
0.0
  0
LINE
  5
200
330
1F9
100
AcDbEntity
  8
VERMASSUNG
100
AcDbLine
 10
211.08036621
 20
123.1094241942
 30
0.0
 11
211.08036621
 21
101.1094241942
 31
0.0
  0
MTEXT
  5
201
330
1F9
100
AcDbEntity
  8
VERMASSUNG
100
AcDbMText
 10
208.5022306722
 20
108.9052480871
 30
0.0
 40
2.0
 41
0.0
 71
     1
 72
     1
  1
%%c
  7
SLDTEXTSTYLE0
 11
-7.044195017643634E-15
 21
1.0
 31
0.0
 73
     1
 44
1.0
  0
MTEXT
  5
202
330
1F9
100
AcDbEntity
  8
VERMASSUNG
100
AcDbMText
 10
208.502230614
 20
112.5142202807
 30
0.0
 40
2.0
 41
0.0
 71
     1
 72
     1
  1
22
  7
SLDTEXTSTYLE0
 11
-7.044195017643634E-15
 21
1.0
 31
0.0
 73
     1
 44
1.0
  0
ENDBLK
  5
1FB
330
1F9
100
AcDbEntity
  8
0
100
AcDbBlockEnd
  0
BLOCK
  5
205
330
204
100
AcDbEntity
  8
0
100
AcDbBlockBegin
  2
_D_2
 70
     0
 10
0.0
 20
0.0
 30
0.0
  3
_D_2
  1

  0
ARC
  5
207
330
204
100
AcDbEntity
  8
VERMASSUNG
100
AcDbCircle
 10
191.058551082
 20
148.2978486236
 30
0.0
 40
4.247059938537272
100
AcDbArc
 50
153.4349488229
 51
206.5650511771
  0
ARC
  5
208
330
204
100
AcDbEntity
  8
VERMASSUNG
100
AcDbCircle
 10
192.8349640583
 20
148.2978486236
 30
0.0
 40
4.247059938537323
100
AcDbArc
 50
333.4349488229
 51
26.5650511771
  0
SOLID
  5
209
330
204
100
AcDbEntity
  8
VERMASSUNG
100
AcDbTrace
 10
179.9717575702
 20
146.3985056782
 30
0.0
 11
182.9717575702
 21
145.9485056782
 31
0.0
 12
182.9717575702
 22
146.8485056782
 32
0.0
 13
182.9717575702
 23
146.8485056782
 33
0.0
  0
SOLID
  5
20A
330
204
100
AcDbEntity
  8
VERMASSUNG
100
AcDbTrace
 10
203.9217575702
 20
146.3985056782
 30
0.0
 11
200.9217575702
 21
146.8485056782
 31
0.0
 12
200.9217575702
 22
145.9485056782
 32
0.0
 13
200.9217575702
 23
145.9485056782
 33
0.0
  0
LINE
  5
20B
330
204
100
AcDbEntity
  8
VERMASSUNG
100
AcDbLine
 10
179.9717575702
 20
137.2808365503
 30
0.0
 11
179.9717575702
 21
147.3985056782
 31
0.0
  0
LINE
  5
20C
330
204
100
AcDbEntity
  8
VERMASSUNG
100
AcDbLine
 10
203.9217575702
 20
131.2094241942
 30
0.0
 11
203.9217575702
 21
147.3985056782
 31
0.0
  0
LINE
  5
20D
330
204
100
AcDbEntity
  8
VERMASSUNG
100
AcDbLine
 10
179.9717575702
 20
146.3985056782
 30
0.0
 11
203.9217575702
 21
146.3985056782
 31
0.0
  0
MTEXT
  5
20E
330
204
100
AcDbEntity
  8
VERMASSUNG
100
AcDbMText
 10
188.8473651912
 20
148.9766412741
 30
0.0
 40
2.0
 41
0.0
 71
     1
 72
     1
  1
23.95
  7
SLDTEXTSTYLE0
 73
     1
 44
1.0
  0
ENDBLK
  5
206
330
204
100
AcDbEntity
  8
0
100
AcDbBlockEnd
  0
BLOCK
  5
211
330
210
100
AcDbEntity
  8
0
100
AcDbBlockBegin
  2
_D_3
 70
     0
 10
0.0
 20
0.0
 30
0.0
  3
_D_3
  1

  0
SOLID
  5
213
330
210
100
AcDbEntity
  8
VERMASSUNG
100
AcDbTrace
 10
160.9217575702
 20
152.3985056782
 30
0.0
 11
163.9217575702
 21
151.9485056782
 31
0.0
 12
163.9217575702
 22
152.8485056782
 32
0.0
 13
163.9217575702
 23
152.8485056782
 33
0.0
  0
SOLID
  5
214
330
210
100
AcDbEntity
  8
VERMASSUNG
100
AcDbTrace
 10
203.9217575702
 20
152.3985056782
 30
0.0
 11
200.9217575702
 21
152.8485056782
 31
0.0
 12
200.9217575702
 22
151.9485056782
 32
0.0
 13
200.9217575702
 23
151.9485056782
 33
0.0
  0
LINE
  5
215
330
210
100
AcDbEntity
  8
VERMASSUNG
100
AcDbLine
 10
160.9217575702
 20
134.3344241942
 30
0.0
 11
160.9217575702
 21
153.3985056782
 31
0.0
  0
LINE
  5
216
330
210
100
AcDbEntity
  8
VERMASSUNG
100
AcDbLine
 10
203.9217575702
 20
131.2094241942
 30
0.0
 11
203.9217575702
 21
153.3985056782
 31
0.0
  0
LINE
  5
217
330
210
100
AcDbEntity
  8
VERMASSUNG
100
AcDbLine
 10
160.9217575702
 20
152.3985056782
 30
0.0
 11
203.9217575702
 21
152.3985056782
 31
0.0
  0
MTEXT
  5
218
330
210
100
AcDbEntity
  8
VERMASSUNG
100
AcDbMText
 10
180.9227987648
 20
154.9766412741
 30
0.0
 40
2.0
 41
0.0
 71
     1
 72
     1
  1
43
  7
SLDTEXTSTYLE0
 73
     1
 44
1.0
  0
ENDBLK
  5
212
330
210
100
AcDbEntity
  8
0
100
AcDbBlockEnd
  0
BLOCK
  5
21B
330
21A
100
AcDbEntity
  8
0
100
AcDbBlockBegin
  2
_D_4
 70
     0
 10
0.0
 20
0.0
 30
0.0
  3
_D_4
  1

  0
ARC
  5
21D
330
21A
100
AcDbEntity
  8
VERMASSUNG
100
AcDbCircle
 10
147.3081793003
 20
160.2978486236
 30
0.0
 40
4.247059938537323
100
AcDbArc
 50
153.4349488229
 51
206.5650511771
  0
ARC
  5
21E
330
21A
100
AcDbEntity
  8
VERMASSUNG
100
AcDbCircle
 10
149.28533584
 20
160.2978486236
 30
0.0
 40
4.247059938537323
100
AcDbArc
 50
333.4349488229
 51
26.5650511771
  0
SOLID
  5
21F
330
21A
100
AcDbEntity
  8
VERMASSUNG
100
AcDbTrace
 10
92.6717575702
 20
158.3985056782
 30
0.0
 11
95.6717575702
 21
157.9485056782
 31
0.0
 12
95.6717575702
 22
158.8485056782
 32
0.0
 13
95.6717575702
 23
158.8485056782
 33
0.0
  0
SOLID
  5
220
330
21A
100
AcDbEntity
  8
VERMASSUNG
100
AcDbTrace
 10
203.9217575702
 20
158.3985056782
 30
0.0
 11
200.9217575702
 21
158.8485056782
 31
0.0
 12
200.9217575702
 22
157.9485056782
 32
0.0
 13
200.9217575702
 23
157.9485056782
 33
0.0
  0
LINE
  5
221
330
21A
100
AcDbEntity
  8
VERMASSUNG
100
AcDbLine
 10
92.6717575702
 20
123.5165547912
 30
0.0
 11
92.6717575702
 21
159.3985056782
 31
0.0
  0
LINE
  5
222
330
21A
100
AcDbEntity
  8
VERMASSUNG
100
AcDbLine
 10
203.9217575702
 20
131.2094241942
 30
0.0
 11
203.9217575702
 21
159.3985056782
 31
0.0
  0
LINE
  5
223
330
21A
100
AcDbEntity
  8
VERMASSUNG
100
AcDbLine
 10
92.6717575702
 20
158.3985056782
 30
0.0
 11
203.9217575702
 21
158.3985056782
 31
0.0
  0
MTEXT
  5
224
330
21A
100
AcDbEntity
  8
VERMASSUNG
100
AcDbMText
 10
145.0969934095
 20
160.9766412741
 30
0.0
 40
2.0
 41
0.0
 71
     1
 72
     1
  1
111.25
  7
SLDTEXTSTYLE0
 73
     1
 44
1.0
  0
ENDBLK
  5
21C
330
21A
100
AcDbEntity
  8
0
100
AcDbBlockEnd
  0
BLOCK
  5
227
330
226
100
AcDbEntity
  8
0
100
AcDbBlockBegin
  2
_D_5
 70
     0
 10
0.0
 20
0.0
 30
0.0
  3
_D_5
  1

  0
SOLID
  5
229
330
226
100
AcDbEntity
  8
VERMASSUNG
100
AcDbTrace
 10
217.08036621
 20
131.6094241942
 30
0.0
 11
216.63036621
 21
128.6094241942
 31
0.0
 12
217.53036621
 22
128.6094241942
 32
0.0
 13
217.53036621
 23
128.6094241942
 33
0.0
  0
SOLID
  5
22A
330
226
100
AcDbEntity
  8
VERMASSUNG
100
AcDbTrace
 10
217.08036621
 20
92.6094241942
 30
0.0
 11
217.53036621
 21
95.6094241942
 31
0.0
 12
216.63036621
 22
95.6094241942
 32
0.0
 13
216.63036621
 23
95.6094241942
 33
0.0
  0
LINE
  5
22B
330
226
100
AcDbEntity
  8
VERMASSUNG
100
AcDbLine
 10
203.5217575702
 20
131.6094241942
 30
0.0
 11
218.08036621
 21
131.6094241942
 31
0.0
  0
LINE
  5
22C
330
226
100
AcDbEntity
  8
VERMASSUNG
100
AcDbLine
 10
203.5217575702
 20
92.6094241942
 30
0.0
 11
218.08036621
 21
92.6094241942
 31
0.0
  0
LINE
  5
22D
330
226
100
AcDbEntity
  8
VERMASSUNG
100
AcDbLine
 10
217.08036621
 20
131.6094241942
 30
0.0
 11
217.08036621
 21
92.6094241942
 31
0.0
  0
MTEXT
  5
22E
330
226
100
AcDbEntity
  8
VERMASSUNG
100
AcDbMText
 10
214.3022309537
 20
105.9044242109
 30
0.0
 40
2.0
 41
0.0
 71
     1
 72
     1
  1
ST4
  7
SLDTEXTSTYLE0
 11
-7.044195017643634E-15
 21
1.0
 31
0.0
 73
     1
 44
1.0
  0
MTEXT
  5
22F
330
226
100
AcDbEntity
  8
VERMASSUNG
100
AcDbMText
 10
214.502230905
 20
111.904424263
 30
0.0
 40
2.0
 41
0.0
 71
     1
 72
     1
  1
%%c
  7
SLDTEXTSTYLE0
 11
-7.044195017643634E-15
 21
1.0
 31
0.0
 73
     1
 44
1.0
  0
MTEXT
  5
230
330
226
100
AcDbEntity
  8
VERMASSUNG
100
AcDbMText
 10
214.3022309537
 20
115.5144242773
 30
0.0
 40
2.0
 41
0.0
 71
     1
 72
     1
  1
39
  7
SLDTEXTSTYLE0
 11
-7.044195017643634E-15
 21
1.0
 31
0.0
 73
     1
 44
1.0
  0
ENDBLK
  5
228
330
226
100
AcDbEntity
  8
0
100
AcDbBlockEnd
  0
ENDSEC
  0
SECTION
  2
ENTITIES
  0
MTEXT
  5
78
330
1F
100
AcDbEntity
  8
KOPF_DÜNN
100
AcDbMText
 10
13.8892156294
 20
23.8442973028
 30
0.0
 40
3.0
 41
0.0
 71
     1
 72
     1
  1
124.440.039.043
  7
SLDTEXTSTYLE0
 73
     1
 44
1.0
  0
MTEXT
  5
79
330
1F
100
AcDbEntity
  8
VERMASSUNG
100
AcDbMText
 10
13.9329988022
 20
28.8834360957
 30
0.0
 40
3.0
 41
0.0
 71
     1
 72
     1
  1
Aufnahme_Master shank ST4
  7
SLDTEXTSTYLE0
 73
     1
 44
1.0
  0
MTEXT
  5
7A
330
1F
100
AcDbEntity
  8
VERMASSUNG
100
AcDbMText
 10
98.8601118557
 20
13.8365368761
 30
0.0
 40
2.0
 41
0.0
 71
     1
 72
     1
  1
Datum: 14.05.2008
  7
SLDTEXTSTYLE0
 73
     1
 44
1.0
  0
MTEXT
  5
7B
330
1F
100
AcDbEntity
  8
VERMASSUNG
100
AcDbMText
 10
13.933048693
 20
18.0482802738
 30
0.0
 40
2.0
 41
0.0
 71
     1
 72
     1
  1
DIN 69871 B ISO 40
  7
SLDTEXTSTYLE0
 73
     1
 44
1.0
  0
MTEXT
  5
7C
330
1F
100
AcDbEntity
  8
VERMASSUNG
100
AcDbMText
 10
13.9808475933
 20
13.9090974274
 30
0.0
 40
2.0
 41
0.0
 71
     1
 72
     1
  1
Gewicht: 958g
  7
SLDTEXTSTYLE0
 73
     1
 44
1.0
  0
ARC
  5
7D
330
1F
100
AcDbEntity
  8
0
  6
Continuous
 62
     7
370
    15
100
AcDbCircle
 10
183.9717575702
 20
88.6094241942
 30
0.0
 40
4.000000000000015
100
AcDbArc
 50
90.0
 51
166.9845595248
  0
ARC
  5
7E
330
1F
100
AcDbEntity
  8
0
  6
Continuous
 62
     7
370
    15
100
AcDbCircle
 10
183.9717575702
 20
135.6094241942
 30
0.0
 40
4.0
100
AcDbArc
 50
180.0
 51
270.0
  0
ARC
  5
7F
330
1F
100
AcDbEntity
  8
0
  6
Continuous
 62
     7
370
    15
100
AcDbCircle
 10
163.5217575702
 20
89.2844241942
 30
0.0
 40
0.6000000000000227
100
AcDbArc
 50
0.0
 51
90.0
  0
ARC
  5
80
330
1F
100
AcDbEntity
  8
0
  6
Continuous
 62
     7
370
    15
100
AcDbCircle
 10
163.5217575702
 20
134.9344241942
 30
0.0
 40
0.6000000000000227
100
AcDbArc
 50
270.0
 51
0.0
  0
LINE
  5
81
330
1F
100
AcDbEntity
  8
0
  6
Continuous
 62
     7
370
    15
100
AcDbLine
 10
160.9217575702
 20
134.3344241584
 30
0.0
 11
93.5274488243
 21
124.5060876215
 31
0.0
  0
LINE
  5
82
330
1F
100
AcDbEntity
  8
0
  6
Continuous
 62
     7
370
    15
100
AcDbLine
 10
93.5274488243
 20
99.7127607668
 30
0.0
 11
160.9217575702
 21
89.8844242299
 31
0.0
  0
LINE
  5
83
330
1F
100
AcDbEntity
  8
0
  6
Continuous
 62
     7
370
    15
100
AcDbLine
 10
160.9217575702
 20
89.8844242299
 30
0.0
 11
163.5217575772
 21
89.8844242299
 31
0.0
  0
LINE
  5
84
330
1F
100
AcDbEntity
  8
0
  6
Continuous
 62
     7
370
    15
100
AcDbLine
 10
163.5217575772
 20
134.3344241584
 30
0.0
 11
160.9217575702
 21
134.3344241584
 31
0.0
  0
LINE
  5
85
330
1F
100
AcDbEntity
  8
0
  6
Continuous
 62
     7
370
    15
100
AcDbLine
 10
203.5217559847
 20
131.6094245965
 30
0.0
 11
183.9717584612
 21
131.6094245965
 31
0.0
  0
LINE
  5
86
330
1F
100
AcDbEntity
  8
0
  6
Continuous
 62
     7
370
    15
100
AcDbLine
 10
183.9717584612
 20
92.6094237918
 30
0.0
 11
203.5217559847
 21
92.6094237918
 31
0.0
  0
LINE
  5
87
330
1F
100
AcDbEntity
  8
0
  6
Continuous
 62
     7
370
    15
100
AcDbLine
 10
203.5217559847
 20
92.6094237918
 30
0.0
 11
203.9217590305
 21
93.009424975
 31
0.0
  0
LINE
  5
88
330
1F
100
AcDbEntity
  8
0
  6
Continuous
 62
     7
370
    15
100
AcDbLine
 10
203.9217590305
 20
131.2094234134
 30
0.0
 11
203.5217559847
 21
131.6094245965
 31
0.0
  0
ARC
  5
89
330
1F
100
AcDbEntity
  8
0
  6
Continuous
 62
     7
370
    15
100
AcDbCircle
 10
93.6717575702
 20
100.7022935972
 30
0.0
 40
0.9999999999999938
100
AcDbArc
 50
180.0
 51
261.7028550302
  0
ARC
  5
8A
330
1F
100
AcDbEntity
  8
0
  6
Continuous
 62
     7
370
    15
100
AcDbCircle
 10
93.6717575702
 20
123.5165547912
 30
0.0
 40
0.9999999999999858
100
AcDbArc
 50
98.2971449698
 51
180.0
  0
ARC
  5
8B
330
1F
100
AcDbEntity
  8
0
  6
Continuous
 62
     7
370
    15
100
AcDbCircle
 10
173.9217575702
 20
103.3879105394
 30
0.0
 40
1.500000000000007
100
AcDbArc
 50
228.5821656737
 51
336.5459085336
  0
ARC
  5
8C
330
1F
100
AcDbEntity
  8
0
  6
Continuous
 62
     7
370
    15
100
AcDbCircle
 10
173.9217575702
 20
103.3879105394
 30
0.0
 40
1.499999999999983
100
AcDbArc
 50
191.5274417157
 51
228.5821656737
  0
SPLINE
  5
8D
330
1F
100
AcDbEntity
  8
0
  6
Continuous
 62
     7
370
    15
100
AcDbSpline
210
0.0
220
0.0
230
1.0
 70
     8
 71
     3
 72
    11
 73
     7
 74
     0
 42
0.000000001
 43
0.00000001
 40
0.0
 40
0.0
 40
0.0
 40
0.0
 40
0.1285560857061957
 40
0.4801535650591569
 40
0.8150691150127094
 40
1.0
 40
1.0
 40
1.0
 40
1.0
 10
192.2119348260257
 20
110.5037094064521
 30
0.0
 10
192.1893544249631
 20
110.5939331289493
 30
0.0
 10
192.1050172268357
 20
110.9309163357107
 30
0.0
 10
191.9468689772762
 20
111.5628346954472
 30
0.0
 10
191.7756269075394
 20
112.2470697662138
 30
0.0
 10
191.6838906622882
 20
112.613619105754
 30
0.0
 10
191.6512562843654
 20
112.7440158714073
 30
0.0
  0
SPLINE
  5
8E
330
1F
100
AcDbEntity
  8
0
  6
Continuous
 62
     7
370
    15
100
AcDbSpline
210
0.0
220
0.0
230
1.0
 70
     8
 71
     3
 72
    11
 73
     7
 74
     0
 42
0.000000001
 43
0.00000001
 40
0.0
 40
0.0
 40
0.0
 40
0.0
 40
0.2164523863581143
 40
0.4403056394613513
 40
0.7518956977886998
 40
1.0
 40
1.0
 40
1.0
 40
1.0
 10
194.4324350866172
 20
109.8691177292259
 30
0.0
 10
194.2803308421895
 20
109.9125873713604
 30
0.0
 10
193.9709216564819
 20
110.0010129549227
 30
0.0
 10
193.3967376071719
 20
110.1651071006098
 30
0.0
 10
192.7808142738646
 20
110.3411309327035
 30
0.0
 10
192.386658361675
 20
110.4537756535951
 30
0.0
 10
192.2119348260257
 20
110.5037094064521
 30
0.0
  0
SPLINE
  5
8F
330
1F
100
AcDbEntity
  8
0
  6
Continuous
 62
     7
370
    15
100
AcDbSpline
210
0.0
220
0.0
230
1.0
 70
     8
 71
     3
 72
    11
 73
     7
 74
     0
 42
0.000000001
 43
0.00000001
 40
0.0
 40
0.0
 40
0.0
 40
0.0
 40
0.2164527550009924
 40
0.440305911648444
 40
0.7518956045312349
 40
1.0
 40
1.0
 40
1.0
 40
1.0
 10
196.0922605308387
 20
111.474832516955
 30
0.0
 10
195.9785622497942
 20
111.3648407986497
 30
0.0
 10
195.747278405484
 20
111.1410968051763
 30
0.0
 10
195.3180743804423
 20
110.7258875827885
 30
0.0
 10
194.857674003478
 20
110.2804912966156
 30
0.0
 10
194.5630414773331
 20
109.995465565095
 30
0.0
 10
194.4324350866172
 20
109.8691177292259
 30
0.0
  0
SPLINE
  5
90
330
1F
100
AcDbEntity
  8
0
  6
Continuous
 62
     7
370
    15
100
AcDbSpline
210
0.0
220
0.0
230
1.0
 70
     8
 71
     3
 72
    11
 73
     7
 74
     0
 42
0.000000001
 43
0.00000001
 40
0.0
 40
0.0
 40
0.0
 40
0.0
 40
0.1849306830777104
 40
0.5198462584977215
 40
0.8714438835156383
 40
1.0
 40
1.0
 40
1.0
 40
1.0
 10
195.5315819891784
 20
113.7151389819102
 30
0.0
 10
195.5642156562902
 20
113.5847422200562
 30
0.0
 10
195.6559499724503
 20
113.2181926154047
 30
0.0
 10
195.8271924604112
 20
112.5339575999782
 30
0.0
 10
195.9853430951662
 20
111.9020396733155
 30
0.0
 10
196.069680166591
 20
111.5650562783012
 30
0.0
 10
196.0922605308387
 20
111.474832516955
 30
0.0
  0
SPLINE
  5
91
330
1F
100
AcDbEntity
  8
0
  6
Continuous
 62
     7
370
    15
100
AcDbSpline
210
0.0
220
0.0
230
1.0
 70
     8
 71
     3
 72
    11
 73
     7
 74
     0
 42
0.000000001
 43
0.00000001
 40
0.0
 40
0.0
 40
0.0
 40
0.0
 40
0.2164534598840376
 40
0.4403049408376934
 40
0.7518960438772269
 40
1.0
 40
1.0
 40
1.0
 40
1.0
 10
193.3110780032966
 20
114.3497306591364
 30
0.0
 10
193.4631835782196
 20
114.3062612128116
 30
0.0
 10
193.7725934449106
 20
114.2178366064203
 30
0.0
 10
194.3467773516314
 20
114.0537398140835
 30
0.0
 10
194.9627016365984
 20
113.8777181504404
 30
0.0
 10
195.35685849563
 20
113.7650728567135
 30
0.0
 10
195.5315819891784
 20
113.7151389819102
 30
0.0
  0
SPLINE
  5
92
330
1F
100
AcDbEntity
  8
0
  6
Continuous
 62
     7
370
    15
100
AcDbSpline
210
0.0
220
0.0
230
1.0
 70
     8
 71
     3
 72
    11
 73
     7
 74
     0
 42
0.000000001
 43
0.00000001
 40
0.0
 40
0.0
 40
0.0
 40
0.0
 40
0.216452454622002
 40
0.4403052866410652
 40
0.7518963929718019
 40
1.0
 40
1.0
 40
1.0
 40
1.0
 10
191.6512562843654
 20
112.7440158714073
 30
0.0
 10
191.7649539965403
 20
112.8540075301323
 30
0.0
 10
191.9962366763188
 20
113.0777513953039
 30
0.0
 10
192.4254386672778
 20
113.4929626842895
 30
0.0
 10
192.8858429298175
 20
113.9383548037906
 30
0.0
 10
193.1804731816445
 20
114.2233824965075
 30
0.0
 10
193.3110780032966
 20
114.3497306591364
 30
0.0
  0
CIRCLE
  5
93
330
1F
100
AcDbEntity
  8
0
  6
Continuous
 62
     7
370
    15
100
AcDbCircle
 10
193.8717575702
 20
112.1094241942
 30
0.0
 40
2.399999999999995
  0
CIRCLE
  5
94
330
1F
100
AcDbEntity
  8
0
  6
Continuous
 62
     7
370
    15
100
AcDbCircle
 10
193.8717575702
 20
112.1094241942
 30
0.0
 40
3.620000000000011
  0
CIRCLE
  5
95
330
1F
100
AcDbEntity
  8
0
  6
Continuous
 62
     7
370
    15
100
AcDbCircle
 10
193.8717575702
 20
112.1094241942
 30
0.0
 40
4.000000000000006
  0
ARC
  5
96
330
1F
100
AcDbEntity
  8
0
  6
Continuous
 62
     7
370
    15
100
AcDbCircle
 10
193.8717575702
 20
112.1094241942
 30
0.0
 40
2.000000000000003
100
AcDbArc
 50
194.0507228532
 51
254.0507228532
  0
ARC
  5
97
330
1F
100
AcDbEntity
  8
0
  6
Continuous
 62
     7
370
    15
100
AcDbCircle
 10
193.8717575702
 20
112.1094241942
 30
0.0
 40
2.000000000000013
100
AcDbArc
 50
134.0507228532
 51
194.0507228532
  0
ARC
  5
98
330
1F
100
AcDbEntity
  8
0
  6
Continuous
 62
     7
370
    15
100
AcDbCircle
 10
193.8717575702
 20
112.1094241942
 30
0.0
 40
2.000000000000013
100
AcDbArc
 50
74.0507228532
 51
134.0507228532
  0
ARC
  5
99
330
1F
100
AcDbEntity
  8
0
  6
Continuous
 62
     7
370
    15
100
AcDbCircle
 10
193.8717575702
 20
112.1094241942
 30
0.0
 40
2.000000000000003
100
AcDbArc
 50
254.0507228532
 51
314.0507228532
  0
ARC
  5
9A
330
1F
100
AcDbEntity
  8
0
  6
Continuous
 62
     7
370
    15
100
AcDbCircle
 10
193.8717575702
 20
112.1094241942
 30
0.0
 40
2.000000000000003
100
AcDbArc
 50
314.0507228532
 51
14.0507228532
  0
ARC
  5
9B
330
1F
100
AcDbEntity
  8
0
  6
Continuous
 62
     7
370
    15
100
AcDbCircle
 10
193.8717575702
 20
112.1094241942
 30
0.0
 40
2.000000000000008
100
AcDbArc
 50
14.0507228532
 51
74.0507228532
  0
SPLINE
  5
9C
330
1F
100
AcDbEntity
  8
0
  6
Continuous
 62
     7
370
    15
100
AcDbSpline
210
0.0
220
0.0
230
1.0
 70
     8
 71
     3
 72
    12
 73
     8
 74
     0
 42
0.000000001
 43
0.00000001
 40
0.0
 40
0.0
 40
0.0
 40
0.0
 40
0.2499999999999997
 40
0.2499999999999997
 40
0.4999999999999993
 40
0.4999999999999993
 40
1.0
 40
1.0
 40
1.0
 40
1.0
 10
179.3717575701568
 20
81.66133184554447
 30
0.0
 10
179.4672994802928
 20
81.66133184554447
 30
0.0
 10
179.5594444221556
 20
81.67758551474068
 30
0.0
 10
179.7157706987655
 20
81.73119393565416
 30
0.0
 10
179.7794388413855
 20
81.76760506093584
 30
0.0
 10
179.9283066868158
 20
81.88972870062231
 30
0.0
 10
179.9717575701568
 20
81.98488137605936
 30
0.0
 10
179.9717575701568
 20
82.08050783167904
 30
0.0
  0
SPLINE
  5
9D
330
1F
100
AcDbEntity
  8
0
  6
Continuous
 62
     7
370
    15
100
AcDbSpline
210
0.0
220
0.0
230
1.0
 70
    24
 71
     3
 72
    12
 73
     8
 74
     0
 42
0.000000001
 43
0.00000001
 40
0.0
 40
0.0
 40
0.0
 40
0.0
 40
0.5
 40
0.5
 40
0.75
 40
0.75
 40
1.0
 40
1.0
 40
1.0
 40
1.0
 10
179.9717575701568
 20
130.4594241941812
 30
0.0
 10
179.9717575701568
 20
130.4594241941812
 30
0.0
 10
179.9214719029852
 20
130.4594241941812
 30
0.0
 10
179.7663497686099
 20
130.4594241941812
 30
0.0
 10
179.7008924932678
 20
130.4594241941812
 30
0.0
 10
179.5469212696256
 20
130.4594241941812
 30
0.0
 10
179.4596989809097
 20
130.4594241941812
 30
0.0
 10
179.3717575701567
 20
130.4594241941812
 30
0.0
  0
LINE
  5
9E
330
1F
100
AcDbEntity
  8
0
  6
Continuous
 62
     7
370
    15
100
AcDbLine
 10
179.9717578056
 20
82.0805072988
 30
0.0
 11
179.9717578056
 21
130.4594237561
 31
0.0
  0
LINE
  5
9F
330
1F
100
AcDbEntity
  8
0
  6
Continuous
 62
     7
370
    15
100
AcDbLine
 10
175.5435946348
 20
102.3574039544
 30
0.0
 11
175.5435946348
 21
130.4594237561
 31
0.0
  0
LINE
  5
A0
330
1F
100
AcDbEntity
  8
0
  6
Continuous
 62
     7
370
    15
100
AcDbLine
 10
179.3717569622
 20
130.4594237561
 30
0.0
 11
175.5435946348
 21
130.4594237561
 31
0.0
  0
LINE
  5
A1
330
1F
100
AcDbEntity
  8
0
  6
Continuous
 62
     7
370
    15
100
AcDbLine
 10
175.5435946348
 20
81.6613320465
 30
0.0
 11
179.3717569622
 21
81.6613320465
 31
0.0
  0
LINE
  5
A2
330
1F
100
AcDbEntity
  8
0
  6
Continuous
 62
     7
370
    15
100
AcDbLine
 10
175.5435946348
 20
81.6613320465
 30
0.0
 11
175.5435946348
 21
100.1579245756
 31
0.0
  0
SPLINE
  5
A3
330
1F
100
AcDbEntity
  8
0
  6
Continuous
 62
     7
370
    15
100
AcDbSpline
210
0.0
220
0.0
230
1.0
 70
     8
 71
     3
 72
    12
 73
     8
 74
     0
 42
0.000000001
 43
0.00000001
 40
0.0
 40
0.0
 40
0.0
 40
0.0
 40
0.2499999999999997
 40
0.2499999999999997
 40
0.4999999999999993
 40
0.4999999999999993
 40
1.0
 40
1.0
 40
1.0
 40
1.0
 10
175.5435942122135
 20
100.1579243959741
 30
0.0
 10
175.6665417060091
 20
100.3158812446692
 30
0.0
 10
175.7600859091179
 20
100.4877146116467
 30
0.0
 10
175.8890252982802
 20
100.8593873212926
 30
0.0
 10
175.9215780556653
 20
101.0525757674838
 30
0.0
 10
175.9221143973991
 20
101.6408723057601
 30
0.0
 10
175.7894907404311
 20
102.0328905436488
 30
0.0
 10
175.5435942122135
 20
102.3574041263575
 30
0.0
  0
LINE
  5
A4
330
1F
100
AcDbEntity
  8
0
  6
Continuous
 62
     7
370
    15
100
AcDbLine
 10
164.7217576342
 20
81.6613320465
 30
0.0
 11
168.4999209779
 21
81.6613320465
 31
0.0
  0
LINE
  5
A5
330
1F
100
AcDbEntity
  8
0
  6
Continuous
 62
     7
370
    15
100
AcDbLine
 10
168.4999209779
 20
130.4594237561
 30
0.0
 11
164.7217576342
 21
130.4594237561
 31
0.0
  0
LINE
  5
A6
330
1F
100
AcDbEntity
  8
0
  6
Continuous
 62
     7
370
    15
100
AcDbLine
 10
168.4999209779
 20
81.6613320465
 30
0.0
 11
168.4999209779
 21
130.4594237561
 31
0.0
  0
SPLINE
  5
A7
330
1F
100
AcDbEntity
  8
0
  6
Continuous
 62
     7
370
    15
100
AcDbSpline
210
0.0
220
0.0
230
1.0
 70
     8
 71
     3
 72
     8
 73
     4
 74
     0
 42
0.000000001
 43
0.00000001
 40
0.0
 40
0.0
 40
0.0
 40
0.0
 40
1.0
 40
1.0
 40
1.0
 40
1.0
 10
170.1117575701568
 20
84.2925977346797
 30
0.0
 10
169.7276228215725
 20
83.5999563127355
 30
0.0
 10
169.3426365450795
 20
82.90777013841179
 30
0.0
 10
168.9569679664532
 20
82.21597584756759
 30
0.0
  0
SPLINE
  5
A8
330
1F
100
AcDbEntity
  8
0
  6
Continuous
 62
     7
370
    15
100
AcDbSpline
210
0.0
220
0.0
230
1.0
 70
     8
 71
     3
 72
     8
 73
     4
 74
     0
 42
0.000000001
 43
0.00000001
 40
0.0
 40
0.0
 40
0.0
 40
0.0
 40
0.0011901715795577
 40
0.0011901715795577
 40
0.0011901715795577
 40
0.0011901715795577
 10
168.4999209281001
 20
81.66133184554447
 30
0.0
 10
168.653767117596
 20
81.84589708322805
 30
0.0
 10
168.8061623852686
 20
82.03077244375667
 30
0.0
 10
168.9569679664532
 20
82.21597584756759
 30
0.0
  0
SPLINE
  5
A9
330
1F
100
AcDbEntity
  8
0
  6
Continuous
 62
     7
370
    15
100
AcDbSpline
210
0.0
220
0.0
230
1.0
 70
    24
 71
     3
 72
     8
 73
     4
 74
     0
 42
0.000000001
 43
0.00000001
 40
0.0
 40
0.0
 40
0.0
 40
0.0
 40
1.0
 40
1.0
 40
1.0
 40
1.0
 10
170.1117575701568
 20
130.4594241941812
 30
0.0
 10
169.5870250817949
 20
130.4594241941812
 30
0.0
 10
169.0483495975761
 20
130.4594241941812
 30
0.0
 10
168.4999209281001
 20
130.4594241941812
 30
0.0
  0
LINE
  5
AA
330
1F
100
AcDbEntity
  8
0
  6
Continuous
 62
     7
370
    15
100
AcDbLine
 10
170.1117572325
 20
84.2925977165
 30
0.0
 11
170.1117572325
 21
130.4594237561
 31
0.0
  0
SPLINE
  5
AB
330
1F
100
AcDbEntity
  8
0
  6
Continuous
 62
     7
370
    15
100
AcDbSpline
210
0.0
220
0.0
230
1.0
 70
     8
 71
     3
 72
    10
 73
     6
 74
     0
 42
0.000000001
 43
0.00000001
 40
0.0
 40
0.0
 40
0.0
 40
0.0
 40
0.5
 40
0.5
 40
1.0
 40
1.0
 40
1.0
 40
1.0
 10
164.337902111504
 20
81.75769434471293
 30
0.0
 10
164.3866720844854
 20
81.72946633750492
 30
0.0
 10
164.4441242077877
 20
81.7053717332633
 30
0.0
 10
164.5747211107764
 20
81.67110826017077
 30
0.0
 10
164.6472107906186
 20
81.66133184554447
 30
0.0
 10
164.7217575701568
 20
81.66133184554447
 30
0.0
  0
SPLINE
  5
AC
330
1F
100
AcDbEntity
  8
0
  6
Continuous
 62
     7
370
    15
100
AcDbSpline
210
0.0
220
0.0
230
1.0
 70
     8
 71
     3
 72
    10
 73
     6
 74
     0
 42
0.000000001
 43
0.00000001
 40
0.0
 40
0.0
 40
0.0
 40
0.0
 40
0.5
 40
0.5
 40
1.0
 40
1.0
 40
1.0
 40
1.0
 10
164.337902111504
 20
81.75769434471292
 30
0.0
 10
164.2797794514279
 20
81.82499950457472
 30
0.0
 10
164.2273762854244
 20
81.90508489160838
 30
0.0
 10
164.1484732638781
 20
82.08910433329714
 30
0.0
 10
164.1217575701568
 20
82.19431569071762
 30
0.0
 10
164.1217575701568
 20
82.30304903717825
 30
0.0
  0
LINE
  5
AD
330
1F
100
AcDbEntity
  8
0
  6
Continuous
 62
     7
370
    15
100
AcDbLine
 10
164.1217574893
 20
82.3030486906
 30
0.0
 11
164.1217574893
 21
130.4594237561
 31
0.0
  0
SPLINE
  5
AE
330
1F
100
AcDbEntity
  8
0
  6
Continuous
 62
     7
370
    15
100
AcDbSpline
210
0.0
220
0.0
230
1.0
 70
    24
 71
     3
 72
    12
 73
     8
 74
     0
 42
0.000000001
 43
0.00000001
 40
0.0
 40
0.0
 40
0.0
 40
0.0
 40
0.25
 40
0.25
 40
0.5
 40
0.5
 40
1.0
 40
1.0
 40
1.0
 40
1.0
 10
164.7217575701568
 20
130.4594241941812
 30
0.0
 10
164.6342732005041
 20
130.4594241941812
 30
0.0
 10
164.5469403230834
 20
130.4594241941812
 30
0.0
 10
164.3931039096446
 20
130.4594241941812
 30
0.0
 10
164.3274817406711
 20
130.4594241941812
 30
0.0
 10
164.1720635353286
 20
130.4594241941812
 30
0.0
 10
164.1217575701568
 20
130.4594241941812
 30
0.0
 10
164.1217575701568
 20
130.4594241941812
 30
0.0
  0
LINE
  5
AF
330
1F
100
AcDbEntity
  8
0
  6
Continuous
 62
     7
370
    15
100
AcDbLine
 10
173.9317574489
 20
104.108141383
 30
0.0
 11
173.9317574489
 21
130.4594237561
 31
0.0
  0
SPLINE
  5
B0
330
1F
100
AcDbEntity
  8
0
  6
Continuous
 62
     7
370
    15
100
AcDbSpline
210
0.0
220
0.0
230
1.0
 70
    24
 71
     3
 72
     8
 73
     4
 74
     0
 42
0.000000001
 43
0.00000001
 40
0.0
 40
0.0
 40
0.0
 40
0.0
 40
1.0
 40
1.0
 40
1.0
 40
1.0
 10
175.5435942122135
 20
130.4594241941812
 30
0.0
 10
174.9951655427375
 20
130.4594241941812
 30
0.0
 10
174.4564900585187
 20
130.4594241941812
 30
0.0
 10
173.9317575701568
 20
130.4594241941812
 30
0.0
  0
SPLINE
  5
B1
330
1F
100
AcDbEntity
  8
0
  6
Continuous
 62
     7
370
    15
100
AcDbSpline
210
0.0
220
0.0
230
1.0
 70
     8
 71
     3
 72
    12
 73
     8
 74
     0
 42
0.000000001
 43
0.00000001
 40
0.0
 40
0.0
 40
0.0
 40
0.0
 40
0.2499999999999994
 40
0.2499999999999994
 40
0.4999999999999989
 40
0.4999999999999989
 40
1.0
 40
1.0
 40
1.0
 40
1.0
 10
175.5435942122135
 20
102.3574041263575
 30
0.0
 10
175.4286981609529
 20
102.577144561414
 30
0.0
 10
175.3019321444802
 20
102.7741129130358
 30
0.0
 10
175.0417172108617
 20
103.1278304858747
 30
0.0
 10
174.9082097528994
 20
103.2846557797469
 30
0.0
 10
174.4998114843112
 20
103.7111983506546
 30
0.0
 10
174.2161583493737
 20
103.9378905296098
 30
0.0
 10
173.9317575701569
 20
104.1081416740053
 30
0.0
  0
SPLINE
  5
B2
330
1F
100
AcDbEntity
  8
0
  6
Continuous
 62
     7
370
    15
100
AcDbSpline
210
0.0
220
0.0
230
1.0
 70
     8
 71
     3
 72
    14
 73
    10
 74
     0
 42
0.000000001
 43
0.00000001
 40
0.0
 40
0.0
 40
0.0
 40
0.0
 40
0.2499999999999995
 40
0.2499999999999995
 40
0.4999999999999997
 40
0.4999999999999997
 40
0.7499999999999998
 40
0.7499999999999998
 40
1.0
 40
1.0
 40
1.0
 40
1.0
 10
173.9317575701569
 20
104.1623853238524
 30
0.0
 10
173.9317575701569
 20
104.1986449135276
 30
0.0
 10
173.9106374826586
 20
104.235272967316
 30
0.0
 10
173.8281698275099
 20
104.3005506997293
 30
0.0
 10
173.7677384731687
 20
104.3284770110575
 30
0.0
 10
173.615273607021
 20
104.3626414479518
 30
0.0
 10
173.5246927200703
 20
104.3680209448809
 30
0.0
 10
173.3320508041018
 20
104.3471446352018
 30
0.0
 10
173.2302386614943
 20
104.3207985899933
 30
0.0
 10
173.1317575701566
 20
104.2800564808515
 30
0.0
  0
SPLINE
  5
B3
330
1F
100
AcDbEntity
  8
0
  6
Continuous
 62
     7
370
    15
100
AcDbSpline
210
0.0
220
0.0
230
1.0
 70
     8
 71
     3
 72
    12
 73
     8
 74
     0
 42
0.000000001
 43
0.00000001
 40
0.0
 40
0.0
 40
0.0
 40
0.0
 40
0.5000000000000017
 40
0.5000000000000017
 40
0.7500000000000008
 40
0.7500000000000008
 40
1.0
 40
1.0
 40
1.0
 40
1.0
 10
173.9317575701568
 20
100.3494181757842
 30
0.0
 10
174.2159641047221
 20
100.1819540134905
 30
0.0
 10
174.4946598388259
 20
100.0703169139789
 30
0.0
 10
174.9040058820152
 20
100.0030036483395
 30
0.0
 10
175.0401452193347
 20
99.99785260832554
 30
0.0
 10
175.3014652683307
 20
100.0356185459449
 30
0.0
 10
175.4268864507625
 20
100.0771683042892
 30
0.0
 10
175.5435942122139
 20
100.157924395972
 30
0.0
  0
LINE
  5
B4
330
1F
100
AcDbEntity
  8
0
  6
Continuous
 62
     7
370
    15
100
AcDbLine
 10
173.9317574489
 20
100.4036614875
 30
0.0
 11
173.9317574489
 21
100.3494184668
 31
0.0
  0
SPLINE
  5
B5
330
1F
100
AcDbEntity
  8
0
  6
Continuous
 62
     7
370
    15
100
AcDbSpline
210
0.0
220
0.0
230
1.0
 70
     8
 71
     3
 72
    14
 73
    10
 74
     0
 42
0.000000001
 43
0.00000001
 40
0.0
 40
0.0
 40
0.0
 40
0.0
 40
0.25
 40
0.25
 40
0.5
 40
0.5
 40
0.75
 40
0.75
 40
1.0
 40
1.0
 40
1.0
 40
1.0
 10
173.1317575701568
 20
100.826945004073
 30
0.0
 10
173.230236843771
 20
100.7881083734611
 30
0.0
 10
173.3315342024695
 20
100.7508155453656
 30
0.0
 10
173.5245179027118
 20
100.6794042542907
 30
0.0
 10
173.6156132731261
 20
100.6453044914336
 30
0.0
 10
173.7669057964437
 20
100.5784755182034
 30
0.0
 10
173.8281715194722
 20
100.545056112462
 30
0.0
 10
173.9103551203918
 20
100.4760385061679
 30
0.0
 10
173.9317575701568
 20
100.4402422243266
 30
0.0
 10
173.9317575701568
 20
100.4036618256326
 30
0.0
  0
SPLINE
  5
B6
330
1F
100
AcDbEntity
  8
0
  6
Continuous
 62
     7
370
    15
100
AcDbSpline
210
0.0
220
0.0
230
1.0
 70
     8
 71
     3
 72
    22
 73
    18
 74
     0
 42
0.000000001
 43
0.00000001
 40
0.0
 40
0.0
 40
0.0
 40
0.0
 40
0.125
 40
0.125
 40
0.25
 40
0.25
 40
0.375
 40
0.375
 40
0.5
 40
0.5
 40
0.625
 40
0.625
 40
0.75
 40
0.75
 40
0.875
 40
0.875
 40
1.0
 40
1.0
 40
1.0
 40
1.0
 10
173.1317575701568
 20
104.2800564808502
 30
0.0
 10
172.9517408755874
 20
104.2055826938737
 30
0.0
 10
172.7873090537171
 20
104.1081334318896
 30
0.0
 10
172.4889128199585
 20
103.8687639983253
 30
0.0
 10
172.3586090925937
 20
103.7288673862548
 30
0.0
 10
172.1453903089746
 20
103.4206157961946
 30
0.0
 10
172.0617624518632
 20
103.2504525780754
 30
0.0
 10
171.950631574945
 20
102.8999578432849
 30
0.0
 10
171.9217955800913
 20
102.7148328821335
 30
0.0
 10
171.9217196374316
 20
102.3516260075163
 30
0.0
 10
171.9503782628589
 20
102.1682559938087
 30
0.0
 10
172.0615293559715
 20
101.8223648813154
 30
0.0
 10
172.1445964766155
 20
101.6568453540479
 30
0.0
 10
172.3582824347342
 20
101.3563056166442
 30
0.0
 10
172.4872894246585
 20
101.2224336953602
 30
0.0
 10
172.7868987041481
 20
100.991186925956
 30
0.0
 10
172.9517414024073
 20
100.8979368092973
 30
0.0
 10
173.1317575701568
 20
100.826945004073
 30
0.0
  0
SPLINE
  5
B7
330
1F
100
AcDbEntity
  8
0
  6
Continuous
 62
     7
370
    15
100
AcDbSpline
210
0.0
220
0.0
230
1.0
 70
     8
 71
     3
 72
     8
 73
     4
 74
     0
 42
0.000000001
 43
0.00000001
 40
0.0
 40
0.0
 40
0.0
 40
0.0
 40
0.0011901715795577
 40
0.0011901715795577
 40
0.0011901715795577
 40
0.0011901715795577
 10
175.0865471738605
 20
82.21597584756759
 30
0.0
 10
175.237352755045
 20
82.03077244375667
 30
0.0
 10
175.3897480227176
 20
81.84589708322805
 30
0.0
 10
175.5435942122135
 20
81.66133184554447
 30
0.0
  0
SPLINE
  5
B8
330
1F
100
AcDbEntity
  8
0
  6
Continuous
 62
     7
370
    15
100
AcDbSpline
210
0.0
220
0.0
230
1.0
 70
     8
 71
     3
 72
     8
 73
     4
 74
     0
 42
0.000000001
 43
0.00000001
 40
0.0
 40
0.0
 40
0.0
 40
0.0
 40
1.0
 40
1.0
 40
1.0
 40
1.0
 10
175.0865471738605
 20
82.21597584756759
 30
0.0
 10
174.7008785952341
 20
82.90777013841179
 30
0.0
 10
174.3158923187412
 20
83.5999563127355
 30
0.0
 10
173.9317575701568
 20
84.29259773467969
 30
0.0
  0
LINE
  5
B9
330
1F
100
AcDbEntity
  8
0
  6
Continuous
 62
     7
370
    15
100
AcDbLine
 10
173.9317574489
 20
84.2925977165
 30
0.0
 11
173.9317574489
 21
100.3494184668
 31
0.0
  0
SPLINE
  5
BA
330
1F
100
AcDbEntity
  8
0
  6
Continuous
 62
     7
370
    15
100
AcDbSpline
210
0.0
220
0.0
230
1.0
 70
     8
 71
     3
 72
    12
 73
     8
 74
     0
 42
0.000000001
 43
0.00000001
 40
0.0
 40
0.0
 40
0.0
 40
0.0
 40
0.2499999999999986
 40
0.2499999999999986
 40
0.4999999999999971
 40
0.4999999999999971
 40
1.0
 40
1.0
 40
1.0
 40
1.0
 10
170.9117575701568
 20
85.29156633789442
 30
0.0
 10
170.8041709691946
 20
85.29156633789442
 30
0.0
 10
170.6981662152252
 20
85.26892495900734
 30
0.0
 10
170.5015411688765
 20
85.1820250944136
 30
0.0
 10
170.4136559956544
 20
85.11909287930565
 30
0.0
 10
170.1931034025501
 20
84.88408908074628
 30
0.0
 10
170.1117575701568
 20
84.67087139247542
 30
0.0
 10
170.1117575701568
 20
84.45734470637412
 30
0.0
  0
SPLINE
  5
BB
330
1F
100
AcDbEntity
  8
0
  6
Continuous
 62
     7
370
    15
100
AcDbSpline
210
0.0
220
0.0
230
1.0
 70
    24
 71
     3
 72
    12
 73
     8
 74
     0
 42
0.000000001
 43
0.00000001
 40
0.0
 40
0.0
 40
0.0
 40
0.0
 40
0.2499999999999995
 40
0.2499999999999995
 40
0.499999999999999
 40
0.499999999999999
 40
1.0
 40
1.0
 40
1.0
 40
1.0
 10
170.9117575701568
 20
130.4594241941812
 30
0.0
 10
170.7902797983523
 20
130.4594241941812
 30
0.0
 10
170.6677263266904
 20
130.4594241941812
 30
0.0
 10
170.463673173152
 20
130.4594241941812
 30
0.0
 10
170.3775141099263
 20
130.4594241941812
 30
0.0
 10
170.1754735432305
 20
130.4594241941812
 30
0.0
 10
170.1117575701568
 20
130.4594241941812
 30
0.0
 10
170.1117575701568
 20
130.4594241941812
 30
0.0
  0
SPLINE
  5
BC
330
1F
100
AcDbEntity
  8
0
  6
Continuous
 62
     7
370
    15
100
AcDbSpline
210
0.0
220
0.0
230
1.0
 70
    24
 71
     3
 72
    14
 73
    10
 74
     0
 42
0.000000001
 43
0.00000001
 40
0.0
 40
0.0
 40
0.0
 40
0.0
 40
0.25
 40
0.25
 40
0.5
 40
0.5
 40
0.75
 40
0.75
 40
1.0
 40
1.0
 40
1.0
 40
1.0
 10
173.9317575701568
 20
130.4594241941812
 30
0.0
 10
173.9317575701568
 20
130.4594241941812
 30
0.0
 10
173.915675968697
 20
130.4594241941812
 30
0.0
 10
173.8501844554301
 20
130.4594241941812
 30
0.0
 10
173.8008764823028
 20
130.4594241941812
 30
0.0
 10
173.6663069606058
 20
130.4594241941812
 30
0.0
 10
173.5807838845205
 20
130.4594241941812
 30
0.0
 10
173.3737883889655
 20
130.4594241941812
 30
0.0
 10
173.2530947550219
 20
130.4594241941812
 30
0.0
 10
173.1317575701569
 20
130.4594241941812
 30
0.0
  0
LINE
  5
BD
330
1F
100
AcDbEntity
  8
0
  6
Continuous
 62
     7
370
    15
100
AcDbLine
 10
173.1317578765
 20
85.291565975
 30
0.0
 11
170.9117577362
 21
85.291565975
 31
0.0
  0
LINE
  5
BE
330
1F
100
AcDbEntity
  8
0
  6
Continuous
 62
     7
370
    15
100
AcDbLine
 10
173.1317578765
 20
130.4594237561
 30
0.0
 11
170.9117577362
 21
130.4594237561
 31
0.0
  0
SPLINE
  5
BF
330
1F
100
AcDbEntity
  8
0
  6
Continuous
 62
     7
370
    15
100
AcDbSpline
210
0.0
220
0.0
230
1.0
 70
     8
 71
     3
 72
    12
 73
     8
 74
     0
 42
0.000000001
 43
0.00000001
 40
0.0
 40
0.0
 40
0.0
 40
0.0
 40
0.5000000000000013
 40
0.5000000000000013
 40
0.7500000000000007
 40
0.7500000000000007
 40
1.0
 40
1.0
 40
1.0
 40
1.0
 10
173.9317575701568
 20
84.4573447063741
 30
0.0
 10
173.9317575701568
 20
84.67016726530699
 30
0.0
 10
173.8498322123371
 20
84.88442377194495
 30
0.0
 10
173.6309104088687
 20
85.11811340039483
 30
0.0
 10
173.5408631173777
 20
85.1825982252388
 30
0.0
 10
173.3454496493578
 20
85.2687978363944
 30
0.0
 10
173.238166682374
 20
85.29156633789444
 30
0.0
 10
173.1317575701568
 20
85.29156633789442
 30
0.0
  0
LINE
  5
C0
330
1F
100
AcDbEntity
  8
0
  6
Continuous
 62
     7
370
    15
100
AcDbLine
 10
160.9217575702
 20
89.8844242299
 30
0.0
 11
160.9217575702
 21
134.3344241584
 31
0.0
  0
SPLINE
  5
C1
330
1F
100
AcDbEntity
  8
0
  6
Continuous
 62
     7
370
    15
100
AcDbSpline
210
0.0
220
0.0
230
1.0
 70
    11
 71
     3
 72
    77
 73
    73
 74
     0
 42
0.000000001
 43
0.00000001
 40
0.0
 40
0.0
 40
0.0
 40
0.0
 40
0.0312499999999999
 40
0.0312499999999999
 40
0.0624999999999998
 40
0.0624999999999998
 40
0.0937499999999996
 40
0.0937499999999996
 40
0.1249999999999995
 40
0.1249999999999995
 40
0.1562499999999994
 40
0.1562499999999994
 40
0.1874999999999993
 40
0.1874999999999993
 40
0.2187499999999992
 40
0.2187499999999992
 40
0.2499999999999991
 40
0.2499999999999991
 40
0.2812499999999989
 40
0.2812499999999989
 40
0.3124999999999988
 40
0.3124999999999988
 40
0.3437499999999987
 40
0.3437499999999987
 40
0.3593749999999987
 40
0.3593749999999987
 40
0.3749999999999986
 40
0.3906249999999985
 40
0.3906249999999985
 40
0.4062499999999984
 40
0.4062499999999984
 40
0.4374999999999985
 40
0.4374999999999985
 40
0.4687499999999986
 40
0.4687499999999986
 40
0.4999999999999986
 40
0.4999999999999986
 40
0.5312499999999986
 40
0.5312499999999986
 40
0.5624999999999987
 40
0.5624999999999987
 40
0.5937499999999988
 40
0.5937499999999988
 40
0.6249999999999989
 40
0.6249999999999989
 40
0.656249999999999
 40
0.656249999999999
 40
0.6874999999999991
 40
0.6874999999999991
 40
0.7187499999999992
 40
0.7187499999999992
 40
0.7499999999999992
 40
0.7499999999999992
 40
0.7656249999999993
 40
0.7656249999999993
 40
0.7812499999999993
 40
0.7812499999999993
 40
0.8124999999999994
 40
0.8124999999999994
 40
0.8437499999999996
 40
0.8437499999999996
 40
0.8749999999999997
 40
0.8749999999999997
 40
0.8906249999999998
 40
0.8906249999999998
 40
0.9062499999999998
 40
0.9062499999999998
 40
0.9374999999999999
 40
0.9374999999999999
 40
0.96875
 40
0.96875
 40
1.0
 40
1.0
 40
1.0
 40
1.0
 10
190.5213575146265
 20
115.4277834120566
 30
0.0
 10
190.7637041633655
 20
115.6242551315534
 30
0.0
 10
191.0208253181642
 20
115.7946764086146
 30
0.0
 10
191.5622344265694
 20
116.0882806894826
 30
0.0
 10
191.8485549559918
 20
116.2120555045937
 30
0.0
 10
192.4400770897424
 20
116.408451434477
 30
0.0
 10
192.741081802992
 20
116.4800875862108
 30
0.0
 10
193.3532068865084
 20
116.572505774555
 30
0.0
 10
193.6673130828274
 20
116.5931051975784
 30
0.0
 10
194.289838295848
 20
116.581089954812
 30
0.0
 10
194.5973968624452
 20
116.5491055295677
 30
0.0
 10
195.2051983371639
 20
116.4336526324592
 30
0.0
 10
195.5083754236954
 20
116.3489084592439
 30
0.0
 10
196.0885527234344
 20
116.1304977235462
 30
0.0
 10
196.3660552268123
 20
115.9974321707853
 30
0.0
 10
196.895504388378
 20
115.6822556277538
 30
0.0
 10
197.1499163588548
 20
115.4976445353904
 30
0.0
 10
197.6121002846706
 20
115.0888962729309
 30
0.0
 10
197.8214057067517
 20
114.8646771057062
 30
0.0
 10
198.1938968857175
 20
114.3736739919036
 30
0.0
 10
198.3579450884171
 20
114.1036111260704
 30
0.0
 10
198.6184541574204
 20
113.5439918774446
 30
0.0
 10
198.717492020579
 20
113.2521243737434
 30
0.0
 10
198.8154804766168
 20
112.7946631952229
 30
0.0
 10
198.8395357375858
 20
112.6384379180767
 30
0.0
 10
198.8687729866061
 20
112.3283923116162
 30
0.0
 10
198.8797370322259
 20
112.0185357781202
 30
0.0
 10
198.8546398007014
 20
111.7090525069133
 30
0.0
 10
198.8111764940772
 20
111.3997591829415
 30
0.0
 10
198.7800466557541
 20
111.2449312826848
 30
0.0
 10
198.6617573405145
 20
110.793005904817
 30
0.0
 10
198.5495842795611
 20
110.5041478419312
 30
0.0
 10
198.2613649260182
 20
109.9500805399131
 30
0.0
 10
198.088043086314
 20
109.6909403310732
 30
0.0
 10
197.6942789199816
 20
109.2141566726857
 30
0.0
 10
197.4704892318166
 20
108.9932807425289
 30
0.0
 10
196.9905185700444
 20
108.6024122329209
 30
0.0
 10
196.7337273980772
 20
108.4308442743454
 30
0.0
 10
196.1875799739103
 20
108.1333185541245
 30
0.0
 10
195.9000343222033
 20
108.0089578964175
 30
0.0
 10
195.313204946692
 20
107.8131714220239
 30
0.0
 10
195.0116488267957
 20
107.7404688078878
 30
0.0
 10
194.3918622251819
 20
107.6462660276333
 30
0.0
 10
194.0812860043139
 20
107.6260300428394
 30
0.0
 10
193.4622039593281
 20
107.637217249061
 30
0.0
 10
193.152350578543
 20
107.6687005268093
 30
0.0
 10
192.5368447785894
 20
107.7853349557727
 30
0.0
 10
192.2386794904079
 20
107.8689268119374
 30
0.0
 10
191.6610208017882
 20
108.0857557708913
 30
0.0
 10
191.3800679983214
 20
108.2198333980864
 30
0.0
 10
190.8446698107267
 20
108.5386118846512
 30
0.0
 10
190.5955740119102
 20
108.7197682045802
 30
0.0
 10
190.2500594698959
 20
109.0248718051734
 30
0.0
 10
190.1396092430224
 20
109.1321737739248
 30
0.0
 10
189.9286398565332
 20
109.3586397133307
 30
0.0
 10
189.8275337572002
 20
109.4786354476077
 30
0.0
 10
189.5460359971393
 20
109.8503069273237
 30
0.0
 10
189.3865036290342
 20
110.1135934085346
 30
0.0
 10
189.1258894596118
 20
110.6727176015843
 30
0.0
 10
189.0241929441353
 20
110.9732418528052
 30
0.0
 10
188.8948770965662
 20
111.5810450125454
 30
0.0
 10
188.8655413916463
 20
111.889351633443
 30
0.0
 10
188.876489228165
 20
112.3586775345962
 30
0.0
 10
188.8895480223921
 20
112.5162965137425
 30
0.0
 10
188.9334162965996
 20
112.8249741207365
 30
0.0
 10
188.9642102750435
 20
112.9771739919761
 30
0.0
 10
189.0824288321493
 20
113.4275487474342
 30
0.0
 10
189.1974757329522
 20
113.7225963033046
 30
0.0
 10
189.4850372527568
 20
114.2732121756377
 30
0.0
 10
189.6572508003033
 20
114.5307865490153
 30
0.0
 10
190.0561596819966
 20
115.0123341667786
 30
0.0
 10
190.2790108658876
 20
115.2313116925598
 30
0.0
 10
190.5213575146265
 20
115.4277834120566
 30
0.0
  0
LINE
  5
C2
330
1F
100
AcDbEntity
  8
0
  6
Continuous
 62
     7
370
    15
100
AcDbLine
 10
203.5217559847
 20
112.1094241942
 30
0.0
 11
203.5217559847
 21
92.6094237918
 31
0.0
  0
LINE
  5
C3
330
1F
100
AcDbEntity
  8
0
  6
Continuous
 62
     7
370
    15
100
AcDbLine
 10
203.5217559847
 20
131.6094245965
 30
0.0
 11
203.5217559847
 21
112.1094241942
 31
0.0
  0
LINE
  5
C4
330
1F
100
AcDbEntity
  8
0
  6
Continuous
 62
     7
370
    15
100
AcDbLine
 10
203.9217590305
 20
112.1094241942
 30
0.0
 11
203.9217590305
 21
93.009424975
 31
0.0
  0
LINE
  5
C5
330
1F
100
AcDbEntity
  8
0
  6
Continuous
 62
     7
370
    15
100
AcDbLine
 10
203.9217590305
 20
131.2094234134
 30
0.0
 11
203.9217590305
 21
112.1094241942
 31
0.0
  0
SPLINE
  5
C6
330
1F
100
AcDbEntity
  8
0
  6
Continuous
 62
     7
370
    15
100
AcDbSpline
210
0.0
220
0.0
230
1.0
 70
     8
 71
     3
 72
     8
 73
     4
 74
     0
 42
0.000000001
 43
0.00000001
 40
0.0
 40
0.0
 40
0.0
 40
0.0
 40
0.0012409313617635
 40
0.0012409313617635
 40
0.0012409313617635
 40
0.0012409313617635
 10
169.0578028838608
 20
141.8219623504457
 30
0.0
 10
168.8725790443048
 20
142.0834898939228
 30
0.0
 10
168.6865938563323
 20
142.3447483956982
 30
0.0
 10
168.4999209281001
 20
142.6057602733967
 30
0.0
  0
SPLINE
  5
C7
330
1F
100
AcDbEntity
  8
0
  6
Continuous
 62
     7
370
    15
100
AcDbSpline
210
0.0
220
0.0
230
1.0
 70
     8
 71
     3
 72
     8
 73
     4
 74
     0
 42
0.000000001
 43
0.00000001
 40
0.0
 40
0.0
 40
0.0
 40
0.0
 40
1.0
 40
1.0
 40
1.0
 40
1.0
 10
170.1117575701568
 20
139.9262506536826
 30
0.0
 10
169.7611053298292
 20
140.558519062733
 30
0.0
 10
169.409746906769
 20
141.1904009624318
 30
0.0
 10
169.0578028838608
 20
141.8219623504457
 30
0.0
  0
LINE
  5
C8
330
1F
100
AcDbEntity
  8
0
  6
Continuous
 62
     7
370
    15
100
AcDbLine
 10
170.1117572325
 20
134.5115635748
 30
0.0
 11
170.1117572325
 21
139.9262506718
 31
0.0
  0
SPLINE
  5
C9
330
1F
100
AcDbEntity
  8
0
  6
Continuous
 62
     7
370
    15
100
AcDbSpline
210
0.0
220
0.0
230
1.0
 70
     8
 71
     3
 72
     8
 73
     4
 74
     0
 42
0.000000001
 43
0.00000001
 40
0.0
 40
0.0
 40
0.0
 40
0.0
 40
1.0
 40
1.0
 40
1.0
 40
1.0
 10
168.4999209281001
 20
138.0196538342287
 30
0.0
 10
169.048865706297
 20
136.854557721915
 30
0.0
 10
169.5874760808137
 20
135.6853994050905
 30
0.0
 10
170.1117575701568
 20
134.5115632500396
 30
0.0
  0
LINE
  5
CA
330
1F
100
AcDbEntity
  8
0
  6
Continuous
 62
     7
370
    15
100
AcDbLine
 10
168.4999209779
 20
138.0196545477
 30
0.0
 11
168.4999209779
 21
142.6057607139
 31
0.0
  0
SPLINE
  5
CB
330
1F
100
AcDbEntity
  8
0
  6
Continuous
 62
     7
370
    15
100
AcDbSpline
210
0.0
220
0.0
230
1.0
 70
     8
 71
     3
 72
    12
 73
     8
 74
     0
 42
0.000000001
 43
0.00000001
 40
0.0
 40
0.0
 40
0.0
 40
0.0
 40
0.5
 40
0.5
 40
0.75
 40
0.75
 40
1.0
 40
1.0
 40
1.0
 40
1.0
 10
173.9317575701568
 20
139.7615036819882
 30
0.0
 10
173.9317575701568
 20
139.5483662803367
 30
0.0
 10
173.8491151550089
 20
139.333386755599
 30
0.0
 10
173.6305317441985
 20
139.1004676867133
 30
0.0
 10
173.5414417912178
 20
139.0366007768928
 30
0.0
 10
173.3460364733203
 20
138.950214622511
 30
0.0
 10
173.2395124263769
 20
138.9272820504679
 30
0.0
 10
173.1317575701568
 20
138.9272820504679
 30
0.0
  0
SPLINE
  5
CC
330
1F
100
AcDbEntity
  8
0
  6
Continuous
 62
     7
370
    15
100
AcDbSpline
210
0.0
220
0.0
230
1.0
 70
     8
 71
     3
 72
    12
 73
     8
 74
     0
 42
0.000000001
 43
0.00000001
 40
0.0
 40
0.0
 40
0.0
 40
0.0
 40
0.2499999999999986
 40
0.2499999999999986
 40
0.4999999999999971
 40
0.4999999999999971
 40
1.0
 40
1.0
 40
1.0
 40
1.0
 10
173.1317575701568
 20
133.2583603376376
 30
0.0
 10
173.2538395676451
 20
133.2583603376376
 30
0.0
 10
173.3744301101308
 20
133.2970866938113
 30
0.0
 10
173.5799253938306
 20
133.4270502815576
 30
0.0
 10
173.6654418767831
 20
133.5162565181044
 30
0.0
 10
173.8688362283273
 20
133.82113305565
 30
0.0
 10
173.9317575701568
 20
134.0639036697521
 30
0.0
 10
173.9317575701568
 20
134.3066650137064
 30
0.0
  0
SPLINE
  5
CD
330
1F
100
AcDbEntity
  8
0
  6
Continuous
 62
     7
370
    15
100
AcDbSpline
210
0.0
220
0.0
230
1.0
 70
     8
 71
     3
 72
     8
 73
     4
 74
     0
 42
0.000000001
 43
0.00000001
 40
0.0
 40
0.0
 40
0.0
 40
0.0
 40
1.0
 40
1.0
 40
1.0
 40
1.0
 10
174.9857122564528
 20
141.8219623504457
 30
0.0
 10
174.6337682335446
 20
141.1904009624318
 30
0.0
 10
174.2824098104844
 20
140.558519062733
 30
0.0
 10
173.9317575701568
 20
139.9262506536826
 30
0.0
  0
SPLINE
  5
CE
330
1F
100
AcDbEntity
  8
0
  6
Continuous
 62
     7
370
    15
100
AcDbSpline
210
0.0
220
0.0
230
1.0
 70
     8
 71
     3
 72
     8
 73
     4
 74
     0
 42
0.000000001
 43
0.00000001
 40
0.0
 40
0.0
 40
0.0
 40
0.0
 40
0.0012409313617635
 40
0.0012409313617635
 40
0.0012409313617635
 40
0.0012409313617635
 10
175.5435942122135
 20
142.6057602733967
 30
0.0
 10
175.3569212839813
 20
142.3447483956982
 30
0.0
 10
175.1709360960088
 20
142.0834898939228
 30
0.0
 10
174.9857122564528
 20
141.8219623504457
 30
0.0
  0
LINE
  5
CF
330
1F
100
AcDbEntity
  8
0
  6
Continuous
 62
     7
370
    15
100
AcDbLine
 10
175.5435946348
 20
138.0196545477
 30
0.0
 11
175.5435946348
 21
142.6057607139
 31
0.0
  0
SPLINE
  5
D0
330
1F
100
AcDbEntity
  8
0
  6
Continuous
 62
     7
370
    15
100
AcDbSpline
210
0.0
220
0.0
230
1.0
 70
     8
 71
     3
 72
     8
 73
     4
 74
     0
 42
0.000000001
 43
0.00000001
 40
0.0
 40
0.0
 40
0.0
 40
0.0
 40
1.0
 40
1.0
 40
1.0
 40
1.0
 10
173.9317575701568
 20
134.5115632500396
 30
0.0
 10
174.4565486896527
 20
135.6865404377444
 30
0.0
 10
174.9950649408356
 20
136.8554396054825
 30
0.0
 10
175.5435942122135
 20
138.0196538342287
 30
0.0
  0
LINE
  5
D1
330
1F
100
AcDbEntity
  8
0
  6
Continuous
 62
     7
370
    15
100
AcDbLine
 10
173.9317574489
 20
134.5115635748
 30
0.0
 11
173.9317574489
 21
139.9262506718
 31
0.0
  0
SPLINE
  5
D2
330
1F
100
AcDbEntity
  8
0
  6
Continuous
 62
     7
370
    15
100
AcDbSpline
210
0.0
220
0.0
230
1.0
 70
     8
 71
     3
 72
    12
 73
     8
 74
     0
 42
0.000000001
 43
0.00000001
 40
0.0
 40
0.0
 40
0.0
 40
0.0
 40
0.5000000000000004
 40
0.5000000000000004
 40
0.7500000000000002
 40
0.7500000000000002
 40
1.0
 40
1.0
 40
1.0
 40
1.0
 10
179.9717575701568
 20
142.1199753276224
 30
0.0
 10
179.9717575701568
 20
142.2403023606755
 30
0.0
 10
179.9179627585638
 20
142.3583999341573
 30
0.0
 10
179.7570391885975
 20
142.4980426765963
 30
0.0
 10
179.692287727495
 20
142.5363186299907
 30
0.0
 10
179.5400675441773
 20
142.5911584596252
 30
0.0
 10
179.4572600286524
 20
142.6057602733967
 30
0.0
 10
179.3717575701568
 20
142.6057602733967
 30
0.0
  0
SPLINE
  5
D3
330
1F
100
AcDbEntity
  8
0
  6
Continuous
 62
     7
370
    15
100
AcDbSpline
210
0.0
220
0.0
230
1.0
 70
     8
 71
     3
 72
    14
 73
    10
 74
     0
 42
0.000000001
 43
0.00000001
 40
0.0
 40
0.0
 40
0.0
 40
0.0
 40
0.25
 40
0.25
 40
0.5
 40
0.5
 40
0.75
 40
0.75
 40
1.0
 40
1.0
 40
1.0
 40
1.0
 10
179.3717575701568
 20
138.0196538342287
 30
0.0
 10
179.4601801082793
 20
138.0196538342287
 30
0.0
 10
179.5482340979723
 20
137.9945814837693
 30
0.0
 10
179.7000638618437
 20
137.908239418798
 30
0.0
 10
179.7659068064075
 20
137.8466961642851
 30
0.0
 10
179.869705866953
 20
137.7048684180342
 30
0.0
 10
179.9081779764277
 20
137.6248198280642
 30
0.0
 10
179.9594006397023
 20
137.4558073313905
 30
0.0
 10
179.9717575701568
 20
137.3690280245208
 30
0.0
 10
179.9717575701568
 20
137.2808365502648
 30
0.0
  0
LINE
  5
D4
330
1F
100
AcDbEntity
  8
0
  6
Continuous
 62
     7
370
    15
100
AcDbLine
 10
179.9717578056
 20
137.2808363492
 30
0.0
 11
179.9717578056
 21
142.1199754084
 31
0.0
  0
SPLINE
  5
D5
330
1F
100
AcDbEntity
  8
0
  6
Continuous
 62
     7
370
    15
100
AcDbSpline
210
0.0
220
0.0
230
1.0
 70
     8
 71
     3
 72
    12
 73
     8
 74
     0
 42
0.000000001
 43
0.00000001
 40
0.0
 40
0.0
 40
0.0
 40
0.0
 40
0.5000000000000003
 40
0.5000000000000003
 40
0.7500000000000001
 40
0.7500000000000001
 40
1.0
 40
1.0
 40
1.0
 40
1.0
 10
164.1217575701568
 20
137.2808365502648
 30
0.0
 10
164.1217575701568
 20
137.455596725599
 30
0.0
 10
164.1716777714751
 20
137.6333018293842
 30
0.0
 10
164.3270196693869
 20
137.8460585712295
 30
0.0
 10
164.3928703679111
 20
137.9078519439546
 30
0.0
 10
164.5453164357496
 20
137.9946585316356
 30
0.0
 10
164.6343265358692
 20
138.0196538342289
 30
0.0
 10
164.7217575701568
 20
138.0196538342289
 30
0.0
  0
LINE
  5
D6
330
1F
100
AcDbEntity
  8
0
  6
Continuous
 62
     7
370
    15
100
AcDbLine
 10
164.7217576342
 20
138.0196545477
 30
0.0
 11
168.4999209779
 21
138.0196545477
 31
0.0
  0
LINE
  5
D7
330
1F
100
AcDbEntity
  8
0
  6
Continuous
 62
     7
370
    15
100
AcDbLine
 10
170.1117572325
 20
134.5115635748
 30
0.0
 11
170.1117572325
 21
134.3066651578
 31
0.0
  0
SPLINE
  5
D8
330
1F
100
AcDbEntity
  8
0
  6
Continuous
 62
     7
370
    15
100
AcDbSpline
210
0.0
220
0.0
230
1.0
 70
     8
 71
     3
 72
    14
 73
    10
 74
     0
 42
0.000000001
 43
0.00000001
 40
0.0
 40
0.0
 40
0.0
 40
0.0
 40
0.25
 40
0.25
 40
0.5
 40
0.5
 40
0.75
 40
0.75
 40
1.0
 40
1.0
 40
1.0
 40
1.0
 10
170.1117575701568
 20
134.3066650137064
 30
0.0
 10
170.1117575701568
 20
134.185772955618
 30
0.0
 10
170.12825304255
 20
134.06330768053
 30
0.0
 10
170.1934851092718
 20
133.8314865369783
 30
0.0
 10
170.2431029436907
 20
133.7185126616709
 30
0.0
 10
170.3777437796944
 20
133.5168071917954
 30
0.0
 10
170.464065644842
 20
133.4266753447173
 30
0.0
 10
170.669253297944
 20
133.2970544663366
 30
0.0
 10
170.789221320559
 20
133.2583603376376
 30
0.0
 10
170.9117575701568
 20
133.2583603376376
 30
0.0
  0
LINE
  5
D9
330
1F
100
AcDbEntity
  8
0
  6
Continuous
 62
     7
370
    15
100
AcDbLine
 10
170.9117577362
 20
133.2583610172
 30
0.0
 11
173.1317578765
 21
133.2583610172
 31
0.0
  0
LINE
  5
DA
330
1F
100
AcDbEntity
  8
0
  6
Continuous
 62
     7
370
    15
100
AcDbLine
 10
173.9317574489
 20
134.3066651578
 30
0.0
 11
173.9317574489
 21
134.5115635748
 31
0.0
  0
LINE
  5
DB
330
1F
100
AcDbEntity
  8
0
  6
Continuous
 62
     7
370
    15
100
AcDbLine
 10
175.5435946348
 20
138.0196545477
 30
0.0
 11
179.3717569622
 21
138.0196545477
 31
0.0
  0
LINE
  5
DC
330
1F
100
AcDbEntity
  8
0
  6
Continuous
 62
     7
370
    15
100
AcDbLine
 10
164.1217574893
 20
137.2808363492
 30
0.0
 11
164.1217574893
 21
130.4594237561
 31
0.0
  0
LINE
  5
DD
330
1F
100
AcDbEntity
  8
0
  6
Continuous
 62
     7
370
    15
100
AcDbLine
 10
179.9717578056
 20
137.2808363492
 30
0.0
 11
179.9717578056
 21
130.4594237561
 31
0.0
  0
LINE
  5
DE
330
1F
100
AcDbEntity
  8
0
  6
Continuous
 62
     7
370
    15
100
AcDbLine
 10
173.1317578765
 20
138.9272824133
 30
0.0
 11
170.9117577362
 21
138.9272824133
 31
0.0
  0
LINE
  5
DF
330
1F
100
AcDbEntity
  8
0
  6
Continuous
 62
     7
370
    15
100
AcDbLine
 10
179.3717569622
 20
142.6057607139
 30
0.0
 11
175.5435946348
 21
142.6057607139
 31
0.0
  0
LINE
  5
E0
330
1F
100
AcDbEntity
  8
0
  6
Continuous
 62
     7
370
    15
100
AcDbLine
 10
168.4999209779
 20
142.6057607139
 30
0.0
 11
164.7217576342
 21
142.6057607139
 31
0.0
  0
SPLINE
  5
E1
330
1F
100
AcDbEntity
  8
0
  6
Continuous
 62
     7
370
    15
100
AcDbSpline
210
0.0
220
0.0
230
1.0
 70
     8
 71
     3
 72
    10
 73
     6
 74
     0
 42
0.000000001
 43
0.00000001
 40
0.0
 40
0.0
 40
0.0
 40
0.0
 40
0.5
 40
0.5
 40
1.0
 40
1.0
 40
1.0
 40
1.0
 10
164.4089991714644
 20
142.5347207491381
 30
0.0
 10
164.3331595774609
 20
142.4646715628095
 30
0.0
 10
164.2658360597349
 20
142.3794527892358
 30
0.0
 10
164.1591924214298
 20
142.169226662574
 30
0.0
 10
164.1217575701568
 20
142.0457174717067
 30
0.0
 10
164.1217575701568
 20
141.9157993511841
 30
0.0
  0
SPLINE
  5
E2
330
1F
100
AcDbEntity
  8
0
  6
Continuous
 62
     7
370
    15
100
AcDbSpline
210
0.0
220
0.0
230
1.0
 70
     8
 71
     3
 72
     8
 73
     4
 74
     0
 42
0.000000001
 43
0.00000001
 40
0.0
 40
0.0
 40
0.0
 40
0.0
 40
1.0
 40
1.0
 40
1.0
 40
1.0
 10
164.7217575701568
 20
142.6057602733967
 30
0.0
 10
164.6095793159771
 20
142.6057602733967
 30
0.0
 10
164.5009098032487
 20
142.5800792081358
 30
0.0
 10
164.4089991714644
 20
142.5347207491381
 30
0.0
  0
LINE
  5
E3
330
1F
100
AcDbEntity
  8
0
  6
Continuous
 62
     7
370
    15
100
AcDbLine
 10
164.1217574893
 20
137.2808363492
 30
0.0
 11
164.1217574893
 21
141.9157996977
 31
0.0
  0
SPLINE
  5
E4
330
1F
100
AcDbEntity
  8
0
  6
Continuous
 62
     7
370
    15
100
AcDbSpline
210
0.0
220
0.0
230
1.0
 70
     8
 71
     3
 72
    12
 73
     8
 74
     0
 42
0.000000001
 43
0.00000001
 40
0.0
 40
0.0
 40
0.0
 40
0.0
 40
0.2499999999999993
 40
0.2499999999999993
 40
0.4999999999999987
 40
0.4999999999999987
 40
1.0
 40
1.0
 40
1.0
 40
1.0
 10
170.9117575701568
 20
138.9272820504679
 30
0.0
 10
170.8052793576788
 20
138.9272820504679
 30
0.0
 10
170.6982734092202
 20
138.9499312480774
 30
0.0
 10
170.502106790128
 20
139.0365183086496
 30
0.0
 10
170.4136381045731
 20
139.0997627570364
 30
0.0
 10
170.1930124910902
 20
139.3348798167695
 30
0.0
 10
170.1117575701568
 20
139.5486476488617
 30
0.0
 10
170.1117575701568
 20
139.7615036819882
 30
0.0
  0
LINE
  5
E5
330
1F
100
AcDbEntity
  8
0
  6
Continuous
 62
     7
370
    15
100
AcDbLine
 10
92.6717570933
 20
100.7022937963
 30
0.0
 11
92.6717570933
 21
123.516554592
 31
0.0
  0
ARC
  5
E6
330
1F
100
AcDbEntity
  8
0
  6
Continuous
 62
     7
370
    15
100
AcDbCircle
 10
173.9302212893
 20
102.9486342461
 30
0.0
 40
2.011363023468913
100
AcDbArc
 50
183.0767132224
 51
316.1157768738
  0
LWPOLYLINE
  5
E7
330
1F
100
AcDbEntity
  8
0
  6
Continuous
 62
     7
370
    15
100
AcDbPolyline
 90
        3
 70
   128
 43
0.0
 10
175.7356743279
 20
102.0490421186
 10
175.6951431694
 20
101.9717265124
 10
175.3798951345
 20
101.5543505753
  0
ARC
  5
E8
330
1F
100
AcDbEntity
  8
0
  6
Continuous
 62
     7
370
    15
100
AcDbCircle
 10
173.9279641472
 20
102.8566530657
 30
0.0
 40
1.876211102063881
100
AcDbArc
 50
162.157731575
 51
317.3075840952
  0
LWPOLYLINE
  5
E9
330
1F
100
AcDbEntity
  8
0
  6
Continuous
 62
     7
370
    15
100
AcDbPolyline
 90
        3
 70
   128
 43
0.0
 10
175.6880418348
 20
102.1485306526
 10
175.6172520059
 20
102.0006934384
 10
175.3069874781
 20
101.5844648907
  0
LWPOLYLINE
  5
EA
330
1F
100
AcDbEntity
  8
0
  6
Continuous
 62
     7
370
    15
100
AcDbPolyline
 90
       14
 70
   128
 43
0.0
 10
175.0153605777
 20
101.8417306448
 10
174.6445796403
 20
101.5713872591
 10
174.2030442643
 20
101.4219425822
 10
173.7339752677
 20
101.408025829
 10
173.2832868534
 20
101.5309995244
 10
172.8950967031
 20
101.7788253928
 10
172.6074027779
 20
102.1272452752
 10
172.4483673411
 20
102.5421532074
 10
172.4335583809
 20
102.9829342122
 10
172.5644241037
 20
103.4064429084
 10
172.8281550991
 20
103.7712224031
 10
173.1989351052
 20
104.0415657888
 10
173.6404704812
 20
104.1910095344
 10
173.9083309608
 20
104.2159587348
  0
LWPOLYLINE
  5
EB
330
1F
100
AcDbEntity
  8
0
  6
Continuous
 62
     7
370
    15
100
AcDbPolyline
 90
        3
 70
   128
 43
0.0
 10
175.4068755495
 20
102.6084168086
 10
175.279091573
 20
102.2065101395
 10
175.0153605777
 20
101.8417306448
  0
LWPOLYLINE
  5
EC
330
1F
100
AcDbEntity
  8
0
  6
HIDDEN
 62
     7
370
     0
100
AcDbPolyline
 90
       27
 70
   128
 43
0.0
 10
173.0667068573
 20
118.3668674173
 10
172.529345839
 20
118.6233010347
 10
172.0729055765
 20
118.9931273664
 10
171.7239147934
 20
119.4548524188
 10
171.5026539701
 20
119.9816433916
 10
171.4219828087
 20
120.5428835208
 10
171.486589587
 20
121.1059574241
 10
171.6927192124
 20
121.638140289
 10
172.028393014
 20
122.108503824
 10
172.4741016465
 20
122.4897118489
 10
173.0039431664
 20
122.7596109936
 10
173.5871243241
 20
122.9025140608
 10
174.1897533598
 20
122.9101173783
 10
174.7768078881
 20
122.7819785679
 10
175.3141698378
 20
122.5255444849
 10
175.770609169
 20
122.1557181532
 10
176.1196008834
 20
121.6939926351
 10
176.3408607754
 20
121.167202128
 10
176.4215319368
 20
120.6059619988
 10
176.3569251585
 20
120.0428880955
 10
176.150795533
 20
119.5107052306
 10
175.8151217314
 20
119.0403416956
 10
175.3694130989
 20
118.6591336707
 10
174.839571579
 20
118.3892349916
 10
174.2563904213
 20
118.2463314588
 10
173.6537613856
 20
118.2387281413
 10
173.0667068573
 20
118.3668674173
  0
LWPOLYLINE
  5
ED
330
1F
100
AcDbEntity
  8
0
  6
HIDDEN
 62
     7
370
     0
100
AcDbPolyline
 90
       22
 70
   128
 43
0.0
 10
173.3232219654
 20
118.7726185861
 10
172.8650997343
 20
119.0070534328
 10
172.5008659946
 20
119.3579632061
 10
172.2628851372
 20
119.794168623
 10
172.1723019096
 20
120.2769099007
 10
172.2371648016
 20
120.7632949779
 10
172.4517126518
 20
121.2101044337
 10
172.7968794244
 20
121.5776387806
 10
173.241996667
 20
121.8332402612
 10
173.7475139039
 20
121.9541976432
 10
174.2685134473
 20
121.9297643954
 10
174.7587020459
 20
121.7621095682
 10
175.174524537
 20
121.4661315287
 10
175.4790334913
 20
121.0681289638
 10
175.645171194
 20
120.603465123
 10
175.6581761825
 20
120.1134292612
 10
175.5168926852
 20
119.6415616403
 10
175.2338749307
 20
119.2297904024
 10
174.8342695596
 20
118.9147030207
 10
174.3535832452
 20
118.7242969143
 10
173.8345273721
 20
118.6754895578
 10
173.3232219654
 20
118.7726185861
  0
LWPOLYLINE
  5
EE
330
1F
100
AcDbEntity
  8
0
  6
HIDDEN
 62
     7
370
     0
100
AcDbPolyline
 90
       27
 70
   128
 43
0.0
 10
173.0667068573
 20
119.3905604275
 10
172.529345839
 20
119.6469945105
 10
172.0729055765
 20
120.0168203766
 10
171.7239147934
 20
120.4785458947
 10
171.5026539701
 20
121.0053364018
 10
171.4219828087
 20
121.5665774623
 10
171.486589587
 20
122.1296504343
 10
171.6927192124
 20
122.6618332992
 10
172.028393014
 20
123.1321968342
 10
172.4741016465
 20
123.5134057904
 10
173.0039431664
 20
123.7833040039
 10
173.5871243241
 20
123.926207071
 10
174.1897533598
 20
123.9338103885
 10
174.7768078881
 20
123.8056715781
 10
175.3141698378
 20
123.5492374951
 10
175.770609169
 20
123.1794111634
 10
176.1196008834
 20
122.7176865766
 10
176.3408607754
 20
122.1908960695
 10
176.4215319368
 20
121.629655009
 10
176.3569251585
 20
121.0665811057
 10
176.150795533
 20
120.5343982408
 10
175.8151217314
 20
120.0640347058
 10
175.3694130989
 20
119.6828266809
 10
174.839571579
 20
119.4129284675
 10
174.2563904213
 20
119.2700249346
 10
173.6537613856
 20
119.2624216171
 10
173.0667068573
 20
119.3905604275
  0
LINE
  5
EF
330
1F
100
AcDbEntity
  8
0
  6
HIDDEN
 62
     7
370
     0
100
AcDbLine
 10
172.9939733582
 20
122.0409568603
 30
0.0
 11
174.4154212015
 21
122.2764808888
 31
0.0
  0
LINE
  5
F0
330
1F
100
AcDbEntity
  8
0
  6
HIDDEN
 62
     7
370
     0
100
AcDbLine
 10
175.3432047504
 20
121.2374722789
 30
0.0
 11
174.4154212015
 21
122.2764808888
 31
0.0
  0
LINE
  5
F1
330
1F
100
AcDbEntity
  8
0
  6
HIDDEN
 62
     7
370
     0
100
AcDbLine
 10
174.4154212015
 20
122.2764808888
 30
0.0
 11
174.4154212015
 21
122.9605205561
 31
0.0
  0
LINE
  5
F2
330
1F
100
AcDbEntity
  8
0
  6
HIDDEN
 62
     7
370
     0
100
AcDbLine
 10
172.5003099951
 20
120.7664242218
 30
0.0
 11
172.9939733582
 21
122.0409568603
 31
0.0
  0
LINE
  5
F3
330
1F
100
AcDbEntity
  8
0
  6
HIDDEN
 62
     7
370
     0
100
AcDbLine
 10
172.9939733582
 20
122.0409568603
 30
0.0
 11
172.9939733582
 21
122.7249965275
 31
0.0
  0
LINE
  5
F4
330
1F
100
AcDbEntity
  8
0
  6
HIDDEN
 62
     7
370
     0
100
AcDbLine
 10
174.8495413872
 20
119.9629396404
 30
0.0
 11
174.8495413872
 21
120.6469793076
 31
0.0
  0
LINE
  5
F5
330
1F
100
AcDbEntity
  8
0
  6
HIDDEN
 62
     7
370
     0
100
AcDbLine
 10
174.8495413872
 20
120.6469793076
 30
0.0
 11
175.3432047504
 21
121.9215119461
 31
0.0
  0
LINE
  5
F6
330
1F
100
AcDbEntity
  8
0
  6
HIDDEN
 62
     7
370
     0
100
AcDbLine
 10
175.3432047504
 20
121.2374722789
 30
0.0
 11
175.3432047504
 21
121.9215119461
 31
0.0
  0
LINE
  5
F7
330
1F
100
AcDbEntity
  8
0
  6
HIDDEN
 62
     7
370
     0
100
AcDbLine
 10
174.8495413872
 20
119.9629396404
 30
0.0
 11
175.3432047504
 21
121.2374722789
 31
0.0
  0
LINE
  5
F8
330
1F
100
AcDbEntity
  8
0
  6
HIDDEN
 62
     7
370
     0
100
AcDbLine
 10
173.4280944752
 20
119.7274151462
 30
0.0
 11
173.4280944752
 21
120.4114552791
 31
0.0
  0
LINE
  5
F9
330
1F
100
AcDbEntity
  8
0
  6
HIDDEN
 62
     7
370
     0
100
AcDbLine
 10
172.5003099951
 20
121.450463889
 30
0.0
 11
173.4280944752
 21
120.4114552791
 31
0.0
  0
LINE
  5
FA
330
1F
100
AcDbEntity
  8
0
  6
HIDDEN
 62
     7
370
     0
100
AcDbLine
 10
172.5003099951
 20
120.7664242218
 30
0.0
 11
172.5003099951
 21
121.450463889
 31
0.0
  0
LINE
  5
FB
330
1F
100
AcDbEntity
  8
0
  6
HIDDEN
 62
     7
370
     0
100
AcDbLine
 10
172.5003099951
 20
120.7664242218
 30
0.0
 11
173.4280944752
 21
119.7274151462
 31
0.0
  0
LINE
  5
FC
330
1F
100
AcDbEntity
  8
0
  6
HIDDEN
 62
     7
370
     0
100
AcDbLine
 10
174.8495413872
 20
120.6469793076
 30
0.0
 11
173.4280944752
 21
120.4114552791
 31
0.0
  0
LINE
  5
FD
330
1F
100
AcDbEntity
  8
0
  6
HIDDEN
 62
     7
370
     0
100
AcDbLine
 10
174.8495413872
 20
119.9629396404
 30
0.0
 11
173.4280944752
 21
119.7274151462
 31
0.0
  0
LWPOLYLINE
  5
FE
330
1F
100
AcDbEntity
  8
0
  6
HIDDEN
 62
     7
370
     0
100
AcDbPolyline
 90
       24
 70
   128
 43
0.0
 10
173.2189063864
 20
119.8713775928
 10
172.7239736306
 20
120.1168593223
 10
172.3178760099
 20
120.4787163267
 10
172.0307297024
 20
120.9301106835
 10
171.883833124
 20
121.4375660027
 10
171.8880799549
 20
121.963444745
 10
172.0431554082
 20
122.4687459151
 10
172.3375576499
 20
122.9159940238
 10
172.7494536849
 20
123.2720181549
 10
173.248293339
 20
123.510413451
 10
173.797080754
 20
123.6134996841
 10
174.3551152709
 20
123.573630696
 10
174.8810098457
 20
123.3937643672
 10
175.335760689
 20
123.0872400308
 10
175.6856408852
 20
122.6767912711
 10
175.9047028559
 20
122.1928592975
 10
175.9766987475
 20
121.6713344882
 10
175.8962883564
 20
121.1508974636
 10
175.6694368037
 20
120.6701450253
 10
175.3129675003
 20
120.264732858
 10
174.8533179002
 20
119.964728711
 10
174.3245799976
 20
119.792382812
 10
173.7659661981
 20
119.7604770976
 10
173.2189063864
 20
119.8713775928
  0
LINE
  5
FF
330
1F
100
AcDbEntity
  8
0
  6
HIDDEN
 62
     7
370
     0
100
AcDbLine
 10
172.5003099951
 20
121.450463889
 30
0.0
 11
172.9939733582
 21
122.7249965275
 31
0.0
  0
LINE
  5
100
330
1F
100
AcDbEntity
  8
0
  6
HIDDEN
 62
     7
370
     0
100
AcDbLine
 10
175.3432047504
 20
121.9215119461
 30
0.0
 11
174.4154212015
 21
122.9605205561
 31
0.0
  0
LINE
  5
101
330
1F
100
AcDbEntity
  8
0
  6
HIDDEN
 62
     7
370
     0
100
AcDbLine
 10
172.9939733582
 20
122.7249965275
 30
0.0
 11
174.4154212015
 21
122.9605205561
 31
0.0
  0
CIRCLE
  5
102
330
1F
100
AcDbEntity
  8
0
  6
HIDDEN
 62
     7
370
     0
100
AcDbCircle
 10
193.8717575702
 20
112.1094241942
 30
0.0
 40
2.953589838486232
  0
CIRCLE
  5
103
330
1F
100
AcDbEntity
  8
0
  6
HIDDEN
 62
     7
370
     0
100
AcDbCircle
 10
193.8717575702
 20
112.1094241942
 30
0.0
 40
2.753589838486223
  0
SPLINE
  5
104
330
1F
100
AcDbEntity
  8
0
  6
HIDDEN
 62
     7
370
     0
100
AcDbSpline
210
0.0
220
0.0
230
1.0
 70
     8
 71
     3
 72
     9
 73
     5
 74
     0
 42
0.000000001
 43
0.00000001
 40
0.0
 40
0.0
 40
0.0
 40
0.0
 40
0.9333113421934416
 40
1.0
 40
1.0
 40
1.0
 40
1.0
 10
171.9458666580412
 20
104.3628851155283
 30
0.0
 10
171.9312908394925
 20
104.2619150274686
 30
0.0
 10
171.9156735230732
 20
104.1537302412189
 30
0.0
 10
171.9227033779563
 20
104.061247744244
 30
0.0
 10
171.923172189543
 20
104.0550802106502
 30
0.0
  0
LWPOLYLINE
  5
105
330
1F
100
AcDbEntity
  8
0
  6
HIDDEN
 62
     7
370
     0
100
AcDbPolyline
 90
       23
 70
   128
 43
0.0
 10
171.945866658
 20
103.7810161913
 10
172.1012485164
 20
103.2937938551
 10
172.389971553
 20
102.8635665978
 10
172.7908891576
 20
102.52184665
 10
173.274635798
 20
102.2936623747
 10
173.8057811695
 20
102.195728218
 10
174.3454211342
 20
102.2352162952
 10
174.8540294307
 20
102.4092339183
 10
175.2943550187
 20
102.7050368691
 10
175.6341452661
 20
103.1009579281
 10
175.848513371
 20
103.5679985041
 10
175.9217572349
 20
104.0719511191
 10
175.848513371
 20
104.5759032684
 10
175.6341452661
 20
105.0429438444
 10
175.2943550187
 20
105.4388649034
 10
174.8540294307
 20
105.7346673886
 10
174.3454211342
 20
105.9086854773
 10
173.8057811695
 20
105.9481735545
 10
173.274635798
 20
105.8502389322
 10
172.7908891576
 20
105.6220551225
 10
172.389971553
 20
105.2803351747
 10
172.1012485164
 20
104.8501079174
 10
171.945866658
 20
104.3628851155
  0
LWPOLYLINE
  5
106
330
1F
100
AcDbEntity
  8
0
  6
HIDDEN
 62
     7
370
     0
100
AcDbPolyline
 90
       25
 70
   128
 43
0.0
 10
164.3719691734
 20
103.2112395594
 10
164.5003736435
 20
102.6782809029
 10
164.6986913352
 20
102.1816419641
 10
164.9534068952
 20
101.7551688681
 10
165.2471618677
 20
101.4279244671
 10
165.5599377068
 20
101.2222102115
 10
165.8704187671
 20
101.1520443688
 10
166.1574467967
 20
101.2222102115
 10
166.4014607618
 20
101.4279244671
 10
166.585831898
 20
101.7551688681
 10
166.6979957322
 20
102.1816419641
 10
166.730307969
 20
102.6782809029
 10
166.6805669616
 20
103.2112395594
 10
166.5521622586
 20
103.744198216
 10
166.3538450326
 20
104.2408371548
 10
166.0991292397
 20
104.6673102508
 10
165.8053742672
 20
104.9945546518
 10
165.4925984281
 20
105.2002689073
 10
165.1821173678
 20
105.2704342844
 10
164.8950893382
 20
105.2002689073
 10
164.6510753731
 20
104.9945546518
 10
164.466704237
 20
104.6673102508
 10
164.3545406355
 20
104.2408371548
 10
164.322228166
 20
103.744198216
 10
164.3719691734
 20
103.2112395594
  0
LWPOLYLINE
  5
107
330
1F
100
AcDbEntity
  8
0
  6
HIDDEN
 62
     7
370
     0
100
AcDbPolyline
 90
       22
 70
   128
 43
0.0
 10
164.7534850004
 20
103.2433701883
 10
164.8734812575
 20
102.7664743567
 10
165.0634016792
 20
102.331952771
 10
165.3063711661
 20
101.9784152711
 10
165.5808007295
 20
101.7372735048
 10
165.8623060162
 20
101.6299553419
 10
166.1258740301
 20
101.6659965942
 10
166.3480857338
 20
101.8421944434
 10
166.5091966229
 20
102.1428924257
 10
166.5948908726
 20
102.5413727591
 10
166.5975549209
 20
103.0022293533
 10
166.516951746
 20
103.4845119546
 10
166.3602432186
 20
103.9453676174
 10
166.1413535426
 20
104.3438484164
 10
165.8797319929
 20
104.6445463988
 10
165.5986248466
 20
104.820744248
 10
165.3230097095
 20
104.8567850346
 10
165.0773761744
 20
104.7494673374
 10
164.8835502515
 20
104.5083260367
 10
164.758753725
 20
104.1547876055
 10
164.7140753871
 20
103.7202660198
 10
164.7534850004
 20
103.2433701883
  0
ELLIPSE
  5
108
330
1F
100
AcDbEntity
  8
0
  6
HIDDEN
 62
     7
370
     0
100
AcDbEllipse
 10
173.9217575702
 20
105.2218341336
 30
0.0
 11
1.383467579512114
 21
-1.091267719176599
 31
0.0
210
0.0
220
0.0
230
1.0
 40
0.8239737799
 41
2.147131942757438
 42
5.288724596347245
  0
ELLIPSE
  5
109
330
1F
100
AcDbEntity
  8
0
  6
HIDDEN
 62
     7
370
     0
100
AcDbEllipse
 10
173.9217575702
 20
105.2218341336
 30
0.0
 11
1.383467579512114
 21
1.753907414218489
 31
0.0
210
0.0
220
0.0
230
1.0
 40
0.5126701559
 41
0.9944607108323609
 42
4.136053364422168
  0
SPLINE
  5
10A
330
1F
100
AcDbEntity
  8
0
  6
HIDDEN
 62
     7
370
     0
100
AcDbSpline
210
0.0
220
0.0
230
1.0
 70
     8
 71
     3
 72
    14
 73
    10
 74
     0
 42
0.000000001
 43
0.00000001
 40
0.0
 40
0.0
 40
0.0
 40
0.0
 40
0.25
 40
0.25
 40
0.5
 40
0.5
 40
0.75
 40
0.75
 40
1.0
 40
1.0
 40
1.0
 40
1.0
 10
171.9458668075164
 20
103.7810166273433
 30
0.0
 10
171.9822306355467
 20
103.8265112627452
 30
0.0
 10
172.0147083627568
 20
103.8749030689614
 30
0.0
 10
172.0634619921726
 20
103.980388212891
 30
0.0
 10
172.0783657698471
 20
104.0369727211339
 30
0.0
 10
172.0783762035047
 20
104.1458603150844
 30
0.0
 10
172.0634859076966
 20
104.198044980847
 30
0.0
 10
172.014596976819
 20
104.2893223797906
 30
0.0
 10
171.9822247985486
 20
104.3279890851648
 30
0.0
 10
171.9458668075164
 20
104.3628850247125
 30
0.0
  0
LWPOLYLINE
  5
10B
330
1F
100
AcDbEntity
  8
0
  6
HIDDEN
 62
     7
370
     0
100
AcDbPolyline
 90
       22
 70
   128
 43
0.0
 10
173.9217578384
 20
102.5650274212
 10
174.4081038001
 20
102.6339117641
 10
174.851235463
 20
102.8344432096
 10
175.2117793026
 20
103.1488046254
 10
175.457699685
 20
103.5490619222
 10
175.5671440574
 20
103.9996525476
 10
175.5303884807
 20
104.4605375471
 10
175.3506991031
 20
104.8907671327
 10
175.044042519
 20
105.2521123754
 10
174.6376655015
 20
105.5124663951
 10
174.1676772895
 20
105.6486956047
 10
173.6758374559
 20
105.6486956047
 10
173.2058492439
 20
105.5124663951
 10
172.7994722265
 20
105.2521123754
 10
172.4928156423
 20
104.8907671327
 10
172.3131262648
 20
104.4605375471
 10
172.2763716194
 20
103.9996525476
 10
172.3858159917
 20
103.5490619222
 10
172.6317354428
 20
103.1488046254
 10
172.9922792825
 20
102.8344432096
 10
173.4354118767
 20
102.6339117641
 10
173.9217578384
 20
102.5650274212
  0
SPLINE
  5
10C
330
1F
100
AcDbEntity
  8
0
  6
HIDDEN
 62
     7
370
     0
100
AcDbSpline
210
0.0
220
0.0
230
1.0
 70
    11
 71
     3
 72
    60
 73
    56
 74
     0
 42
0.000000001
 43
0.00000001
 40
0.0
 40
0.0
 40
0.0
 40
0.0
 40
0.0312500000000005
 40
0.0312500000000005
 40
0.0625000000000009
 40
0.0625000000000009
 40
0.1250000000000014
 40
0.1250000000000014
 40
0.1875000000000018
 40
0.1875000000000018
 40
0.2187500000000019
 40
0.2187500000000019
 40
0.250000000000002
 40
0.250000000000002
 40
0.2812500000000021
 40
0.2812500000000021
 40
0.3125000000000021
 40
0.3125000000000021
 40
0.3437500000000022
 40
0.3437500000000022
 40
0.3750000000000022
 40
0.3750000000000022
 40
0.4062500000000023
 40
0.4062500000000023
 40
0.4375000000000024
 40
0.4375000000000024
 40
0.5000000000000024
 40
0.5000000000000024
 40
0.5312500000000023
 40
0.5312500000000023
 40
0.5625000000000021
 40
0.5625000000000021
 40
0.5937500000000019
 40
0.5937500000000019
 40
0.6250000000000017
 40
0.6250000000000017
 40
0.6562500000000014
 40
0.6562500000000014
 40
0.6875000000000012
 40
0.6875000000000012
 40
0.718750000000001
 40
0.718750000000001
 40
0.7500000000000008
 40
0.7500000000000008
 40
0.8125000000000004
 40
0.8125000000000004
 40
0.8437500000000003
 40
0.8437500000000003
 40
0.8750000000000002
 40
0.8750000000000002
 40
0.9062500000000001
 40
0.9062500000000001
 40
0.9375
 40
0.9375
 40
1.0
 40
1.0
 40
1.0
 40
1.0
 10
173.9217575701568
 20
109.219364603621
 30
0.0
 10
173.8115646591865
 20
109.219364603621
 30
0.0
 10
173.7034554558991
 20
109.2280398727116
 30
0.0
 10
173.4911503014127
 20
109.262056170255
 30
0.0
 10
173.3858416379537
 20
109.2878602153521
 30
0.0
 10
173.0870436773451
 20
109.3886777674646
 30
0.0
 10
172.9056214729591
 20
109.4885137842705
 30
0.0
 10
172.6044155723022
 20
109.7421496993898
 30
0.0
 10
172.48186109351
 20
109.8988585017826
 30
0.0
 10
172.3577276428908
 20
110.1629015761092
 30
0.0
 10
172.3254245260548
 20
110.2575243347582
 30
0.0
 10
172.2825748642229
 20
110.4526121310065
 30
0.0
 10
172.2718296967104
 20
110.5525029547262
 30
0.0
 10
172.2716861603573
 20
110.7571304895059
 30
0.0
 10
172.2826692813937
 20
110.8624245278534
 30
0.0
 10
172.325340940921
 20
111.0678279645823
 30
0.0
 10
172.3569038350284
 20
111.1691689519316
 30
0.0
 10
172.4408689305161
 20
111.3687666332496
 30
0.0
 10
172.4919034835168
 20
111.4637781832734
 30
0.0
 10
172.6111368142956
 20
111.6442630942188
 30
0.0
 10
172.6801958716301
 20
111.730522502388
 30
0.0
 10
172.8314943954844
 20
111.8872624405279
 30
0.0
 10
172.9137271002394
 20
111.9581528007209
 30
0.0
 10
173.0918396173876
 20
112.084305665377
 30
0.0
 10
173.187974501592
 20
112.1393512634947
 30
0.0
 10
173.4852211867108
 20
112.2720160370522
 30
0.0
 10
173.7042789274898
 20
112.320277552821
 30
0.0
 10
174.0297326023776
 20
112.320386474017
 30
0.0
 10
174.1395692035707
 20
112.3086227490572
 30
0.0
 10
174.3535015005531
 20
112.2622166868288
 30
0.0
 10
174.4567411614966
 20
112.2280776439179
 30
0.0
 10
174.6561702180591
 20
112.1390704938843
 30
0.0
 10
174.7522627253325
 20
112.0839186231685
 30
0.0
 10
174.9298067748986
 20
111.9581105733282
 30
0.0
 10
175.0125033420118
 20
111.8868991774916
 30
0.0
 10
175.1649779003769
 20
111.7286655954796
 30
0.0
 10
175.2326548214187
 20
111.6438743128175
 30
0.0
 10
175.3516324856874
 20
111.4637168269221
 30
0.0
 10
175.4033767688876
 20
111.3671703685618
 30
0.0
 10
175.4865534755438
 20
111.1691648983014
 30
0.0
 10
175.5180645124928
 20
111.068231642286
 30
0.0
 10
175.5608001199446
 20
110.8627685534487
 30
0.0
 10
175.5718058243648
 20
110.757356162852
 30
0.0
 10
175.5716605713612
 20
110.4507330211116
 30
0.0
 10
175.5273076827769
 20
110.2510885484577
 30
0.0
 10
175.4027224744953
 20
109.9862800562862
 30
0.0
 10
175.3509386608292
 20
109.9021798841727
 30
0.0
 10
175.230980982499
 20
109.7480943115293
 30
0.0
 10
175.1631299205033
 20
109.6780479733527
 30
0.0
 10
175.0116041817481
 20
109.5507151213901
 30
0.0
 10
174.9276349084851
 20
109.4935511266349
 30
0.0
 10
174.7501436401462
 20
109.3958705494177
 30
0.0
 10
174.6558621051919
 20
109.3546225409423
 30
0.0
 10
174.3549769979626
 20
109.2534292940099
 30
0.0
 10
174.1421433920974
 20
109.219364603621
 30
0.0
 10
173.9217575701568
 20
109.219364603621
 30
0.0
  0
ELLIPSE
  5
10D
330
1F
100
AcDbEntity
  8
0
  6
HIDDEN
 62
     7
370
     0
100
AcDbEllipse
 10
173.9217575702
 20
105.2218341336
 30
0.0
 11
1.383467579512114
 21
-1.091267719176599
 31
0.0
210
0.0
220
0.0
230
1.0
 40
0.8239737799
 41
5.288724596347236
 42
5.331125843614711
  0
SPLINE
  5
10E
330
1F
100
AcDbEntity
  8
0
  6
HIDDEN
 62
     7
370
     0
100
AcDbSpline
210
0.0
220
0.0
230
1.0
 70
     8
 71
     3
 72
     8
 73
     4
 74
     0
 42
0.000000001
 43
0.00000001
 40
0.0
 40
0.0
 40
0.0
 40
0.0
 40
1.0
 40
1.0
 40
1.0
 40
1.0
 10
173.9916986663005
 20
103.6602822678168
 30
0.0
 10
173.9747139402058
 20
103.6673979778637
 30
0.0
 10
173.9577097956722
 20
103.6752731073819
 30
0.0
 10
173.9407109116004
 20
103.6838962268319
 30
0.0
  0
ELLIPSE
  5
10F
330
1F
100
AcDbEntity
  8
0
  6
HIDDEN
 62
     7
370
     0
100
AcDbEllipse
 10
173.9217575702
 20
105.2218341336
 30
0.0
 11
1.383467579512114
 21
1.753907414218489
 31
0.0
210
0.0
220
0.0
230
1.0
 40
0.5126701559
 41
4.136053364422173
 42
4.147540490642134
  0
ELLIPSE
  5
110
330
1F
100
AcDbEntity
  8
0
  6
HIDDEN
 62
     7
370
     0
100
AcDbEllipse
 10
173.9217575702
 20
105.2218341336
 30
0.0
 11
1.383467579512114
 21
1.753907414218489
 31
0.0
210
0.0
220
0.0
230
1.0
 40
0.5126701559
 41
0.9829735846123864
 42
0.9944607108323662
  0
SPLINE
  5
111
330
1F
100
AcDbEntity
  8
0
  6
HIDDEN
 62
     7
370
     0
100
AcDbSpline
210
0.0
220
0.0
230
1.0
 70
     8
 71
     3
 72
     8
 73
     4
 74
     0
 42
0.000000001
 43
0.00000001
 40
0.0
 40
0.0
 40
0.0
 40
0.0
 40
1.0
 40
1.0
 40
1.0
 40
1.0
 10
173.9407109116003
 20
106.7846772838387
 30
0.0
 10
173.9577097956722
 20
106.7766940103286
 30
0.0
 10
173.9747139402058
 20
106.7679576078847
 30
0.0
 10
173.9916986663006
 20
106.7584807560517
 30
0.0
  0
ELLIPSE
  5
112
330
1F
100
AcDbEntity
  8
0
  6
HIDDEN
 62
     7
370
     0
100
AcDbEllipse
 10
173.9217575702
 20
105.2218341336
 30
0.0
 11
1.383467579512114
 21
-1.091267719176599
 31
0.0
210
0.0
220
0.0
230
1.0
 40
0.8239737799
 41
2.10473069549027
 42
2.147131942757429
  0
CIRCLE
  5
113
330
1F
100
AcDbEntity
  8
0
  6
HIDDEN
 62
     7
370
     0
100
AcDbCircle
 10
193.8717575702
 20
112.1094241942
 30
0.0
 40
3.624999999999986
  0
SPLINE
  5
114
330
1F
100
AcDbEntity
  8
0
  6
HIDDEN
 62
     7
370
     0
100
AcDbSpline
210
0.0
220
0.0
230
1.0
 70
     8
 71
     3
 72
    16
 73
    12
 74
     0
 42
0.000000001
 43
0.00000001
 40
0.0
 40
0.0
 40
0.0
 40
0.0
 40
0.2500000000000004
 40
0.2500000000000004
 40
0.5000000000000009
 40
0.5000000000000009
 40
0.6249999999999974
 40
0.6249999999999974
 40
0.749999999999994
 40
0.749999999999994
 40
1.0
 40
1.0
 40
1.0
 40
1.0
 10
203.9217575701568
 20
122.5735293091921
 30
0.0
 10
203.9217575701568
 20
122.4844636406862
 30
0.0
 10
203.9164378299696
 20
122.3936012672367
 30
0.0
 10
203.8870007053487
 20
122.2055281508148
 30
0.0
 10
203.8636101592853
 20
122.1074269589124
 30
0.0
 10
203.795482729189
 20
121.9673986103881
 30
0.0
 10
203.7665211825969
 20
121.9226984439374
 30
0.0
 10
203.6999796396406
 20
121.8526280164632
 30
0.0
 10
203.6625335048439
 20
121.8274256249271
 30
0.0
 10
203.5521642209341
 20
121.7822859782846
 30
0.0
 10
203.4841328831304
 20
121.7878843139143
 30
0.0
 10
203.4217575701304
 20
121.8036192651175
 30
0.0
  0
SPLINE
  5
115
330
1F
100
AcDbEntity
  8
0
  6
HIDDEN
 62
     7
370
     0
100
AcDbSpline
210
0.0
220
0.0
230
1.0
 70
     8
 71
     3
 72
     8
 73
     4
 74
     0
 42
0.000000001
 43
0.00000001
 40
0.0
 40
0.0
 40
0.0
 40
0.0
 40
1.0
 40
1.0
 40
1.0
 40
1.0
 10
203.4217575701313
 20
121.8036192651166
 30
0.0
 10
203.3367181730721
 20
121.746175173824
 30
0.0
 10
203.2316989221281
 20
121.705417929411
 30
0.0
 10
203.1217575701571
 20
121.7054179294109
 30
0.0
  0
SPLINE
  5
116
330
1F
100
AcDbEntity
  8
0
  6
HIDDEN
 62
     7
370
     0
100
AcDbSpline
210
0.0
220
0.0
230
1.0
 70
     8
 71
     3
 72
     8
 73
     4
 74
     0
 42
0.000000001
 43
0.00000001
 40
0.0
 40
0.0
 40
0.0
 40
0.0
 40
1.0
 40
1.0
 40
1.0
 40
1.0
 10
203.4217575701749
 20
102.4152291232162
 30
0.0
 10
203.3367181731067
 20
102.4726732145245
 30
0.0
 10
203.2316989221469
 20
102.5134304589513
 30
0.0
 10
203.1217575701571
 20
102.5134304589514
 30
0.0
  0
SPLINE
  5
117
330
1F
100
AcDbEntity
  8
0
  6
HIDDEN
 62
     7
370
     0
100
AcDbSpline
210
0.0
220
0.0
230
1.0
 70
     8
 71
     3
 72
    16
 73
    12
 74
     0
 42
0.000000001
 43
0.00000001
 40
0.0
 40
0.0
 40
0.0
 40
0.0
 40
0.2499999999999981
 40
0.2499999999999981
 40
0.3749999999999972
 40
0.3749999999999972
 40
0.4999999999999962
 40
0.4999999999999962
 40
0.7499999999999981
 40
0.7499999999999981
 40
1.0
 40
1.0
 40
1.0
 40
1.0
 10
203.4217575701741
 20
102.4152291232153
 30
0.0
 10
203.4838306535295
 20
102.4308878961452
 30
0.0
 10
203.5516399374106
 20
102.4364887850501
 30
0.0
 10
203.6614957093448
 20
102.3919914459793
 30
0.0
 10
203.6988026271327
 20
102.3671113186756
 30
0.0
 10
203.7651103092968
 20
102.2979757387703
 30
0.0
 10
203.7940765304463
 20
102.2538512394695
 30
0.0
 10
203.8628884805673
 20
102.1138516427084
 30
0.0
 10
203.8865991546779
 20
102.0151442890847
 30
0.0
 10
203.9163001631239
 20
101.8268562518193
 30
0.0
 10
203.9217575701568
 20
101.7346198740808
 30
0.0
 10
203.9217575701568
 20
101.6453192553742
 30
0.0
  0
LINE
  5
118
330
1F
100
AcDbEntity
  8
0
  6
HIDDEN
 62
     7
370
     0
100
AcDbLine
 10
179.4217578086
 20
112.1094241942
 30
0.0
 11
179.4217578086
 21
101.6094243357
 31
0.0
  0
LINE
  5
119
330
1F
100
AcDbEntity
  8
0
  6
HIDDEN
 62
     7
370
     0
100
AcDbLine
 10
179.4217578086
 20
122.6094240526
 30
0.0
 11
179.4217578086
 21
112.1094241942
 31
0.0
  0
LINE
  5
11A
330
1F
100
AcDbEntity
  8
0
  6
HIDDEN
 62
     7
370
     0
100
AcDbLine
 10
183.2877821239
 20
112.1094241942
 30
0.0
 11
183.2877821239
 21
101.1094242538
 31
0.0
  0
LINE
  5
11B
330
1F
100
AcDbEntity
  8
0
  6
HIDDEN
 62
     7
370
     0
100
AcDbLine
 10
183.2877821239
 20
123.1094241346
 30
0.0
 11
183.2877821239
 21
112.1094241942
 31
0.0
  0
LINE
  5
11C
330
1F
100
AcDbEntity
  8
0
  6
HIDDEN
 62
     7
370
     0
100
AcDbLine
 10
193.3217584106
 20
121.7054181004
 30
0.0
 11
203.1217566642
 21
121.7054181004
 31
0.0
  0
LINE
  5
11D
330
1F
100
AcDbEntity
  8
0
  6
HIDDEN
 62
     7
370
     0
100
AcDbLine
 10
193.3217584106
 20
102.5134302879
 30
0.0
 11
203.1217566642
 21
102.5134302879
 31
0.0
  0
LINE
  5
11E
330
1F
100
AcDbEntity
  8
0
  6
HIDDEN
 62
     7
370
     0
100
AcDbLine
 10
164.1217574893
 20
136.9094249065
 30
0.0
 11
164.4590159363
 21
136.9094249065
 31
0.0
  0
ELLIPSE
  5
11F
330
1F
100
AcDbEntity
  8
0
  6
HIDDEN
 62
     7
370
     0
100
AcDbEllipse
 10
164.4590158704
 20
138.5094241942
 30
0.0
 11
0.0
 21
1.599999999999994
 31
0.0
210
0.0
220
0.0
230
1.0
 40
0.4142135624
 41
3.141592653589793
 42
4.712388980384695
  0
LINE
  5
120
330
1F
100
AcDbEntity
  8
0
  6
HIDDEN
 62
     7
370
     0
100
AcDbLine
 10
164.4590159363
 20
89.50942347
 30
0.0
 11
164.1217574893
 21
89.50942347
 31
0.0
  0
ELLIPSE
  5
121
330
1F
100
AcDbEntity
  8
0
  6
HIDDEN
 62
     7
370
     0
100
AcDbEllipse
 10
164.4590158704
 20
87.9094241942
 30
0.0
 11
0.0
 21
1.599999999999994
 31
0.0
210
0.0
220
0.0
230
1.0
 40
0.4142135624
 41
4.712388980384695
 42
6.283185307179586
  0
LINE
  5
122
330
1F
100
AcDbEntity
  8
0
  6
HIDDEN
 62
     7
370
     0
100
AcDbLine
 10
165.1217574204
 20
82.2159756179
 30
0.0
 11
164.3379020921
 21
81.7576941306
 31
0.0
  0
LINE
  5
123
330
1F
100
AcDbEntity
  8
0
  6
HIDDEN
 62
     7
370
     0
100
AcDbLine
 10
164.4089992574
 20
142.5347212906
 30
0.0
 11
165.1217574204
 21
141.8219614977
 31
0.0
  0
LINE
  5
124
330
1F
100
AcDbEntity
  8
0
  6
HIDDEN
 62
     7
370
     0
100
AcDbLine
 10
99.6717563781
 20
103.6094237322
 30
0.0
 11
99.6717563781
 21
120.6094246561
 31
0.0
  0
LINE
  5
125
330
1F
100
AcDbEntity
  8
0
  6
HIDDEN
 62
     7
370
     0
100
AcDbLine
 10
102.6676869902
 20
105.1094239781
 30
0.0
 11
102.6676869902
 21
119.1094244102
 31
0.0
  0
LINE
  5
126
330
1F
100
AcDbEntity
  8
0
  6
HIDDEN
 62
     7
370
     0
100
AcDbLine
 10
168.9569675314
 20
82.2159756179
 30
0.0
 11
165.1217574204
 21
82.2159756179
 31
0.0
  0
LINE
  5
127
330
1F
100
AcDbEntity
  8
0
  6
HIDDEN
 62
     7
370
     0
100
AcDbLine
 10
179.9717578056
 20
82.2159756179
 30
0.0
 11
175.08654715
 21
82.2159756179
 31
0.0
  0
LINE
  5
128
330
1F
100
AcDbEntity
  8
0
  6
HIDDEN
 62
     7
370
     0
100
AcDbLine
 10
165.1217574204
 20
82.2159756179
 30
0.0
 11
165.1217574204
 21
87.9094243253
 31
0.0
  0
LINE
  5
129
330
1F
100
AcDbEntity
  8
0
  6
HIDDEN
 62
     7
370
     0
100
AcDbLine
 10
179.9717578056
 20
89.50942347
 30
0.0
 11
164.4590159363
 21
89.50942347
 31
0.0
  0
LINE
  5
12A
330
1F
100
AcDbEntity
  8
0
  6
HIDDEN
 62
     7
370
     0
100
AcDbLine
 10
165.1217574204
 20
141.8219614977
 30
0.0
 11
169.0578027579
 21
141.8219614977
 31
0.0
  0
LINE
  5
12B
330
1F
100
AcDbEntity
  8
0
  6
HIDDEN
 62
     7
370
     0
100
AcDbLine
 10
174.9857119235
 20
141.8219614977
 30
0.0
 11
179.9717578056
 21
141.8219614977
 31
0.0
  0
LINE
  5
12C
330
1F
100
AcDbEntity
  8
0
  6
HIDDEN
 62
     7
370
     0
100
AcDbLine
 10
165.1217574204
 20
141.8219614977
 30
0.0
 11
165.1217574204
 21
138.5094240511
 31
0.0
  0
LINE
  5
12D
330
1F
100
AcDbEntity
  8
0
  6
HIDDEN
 62
     7
370
     0
100
AcDbLine
 10
164.4590159363
 20
136.9094249065
 30
0.0
 11
179.9717578056
 21
136.9094249065
 31
0.0
  0
LINE
  5
12E
330
1F
100
AcDbEntity
  8
0
  6
HIDDEN
 62
     7
370
     0
100
AcDbLine
 10
135.671756691
 20
105.1094239781
 30
0.0
 11
135.671756691
 21
119.1094244102
 31
0.0
  0
LINE
  5
12F
330
1F
100
AcDbEntity
  8
0
  6
HIDDEN
 62
     7
370
     0
100
AcDbLine
 10
137.324124104
 20
107.8594239632
 30
0.0
 11
137.324124104
 21
116.3594244251
 31
0.0
  0
SPLINE
  5
130
330
1F
100
AcDbEntity
  8
0
  6
HIDDEN
 62
     7
370
     0
100
AcDbSpline
210
0.0
220
0.0
230
1.0
 70
     8
 71
     3
 72
    11
 73
     7
 74
     0
 42
0.000000001
 43
0.00000001
 40
0.0
 40
0.0
 40
0.0
 40
0.0
 40
0.2775324527743999
 40
0.6034494395995728
 40
0.929749646306265
 40
1.0
 40
1.0
 40
1.0
 40
1.0
 10
203.3763877066467
 20
127.79588217088
 30
0.0
 10
203.3735109242894
 20
127.7751585968475
 30
0.0
 10
203.3672558262495
 20
127.7300985362622
 30
0.0
 10
203.3940260392571
 20
127.2315733587771
 30
0.0
 10
203.4199047855824
 20
126.6569042524213
 30
0.0
 10
203.4214791184747
 20
126.2852618509509
 30
0.0
 10
203.4217580171916
 20
126.2194240669252
 30
0.0
  0
LINE
  5
131
330
1F
100
AcDbEntity
  8
0
  6
HIDDEN
 62
     7
370
     0
100
AcDbLine
 10
203.4217580172
 20
126.2194240669
 30
0.0
 11
203.4217580172
 21
121.8036195467
 31
0.0
  0
LINE
  5
132
330
1F
100
AcDbEntity
  8
0
  6
HIDDEN
 62
     7
370
     0
100
AcDbLine
 10
203.4217580172
 20
97.9994243214
 30
0.0
 11
203.4217580172
 21
102.4152288417
 31
0.0
  0
SPLINE
  5
133
330
1F
100
AcDbEntity
  8
0
  6
HIDDEN
 62
     7
370
     0
100
AcDbSpline
210
0.0
220
0.0
230
1.0
 70
     8
 71
     3
 72
    10
 73
     6
 74
     0
 42
0.000000001
 43
0.00000001
 40
0.0
 40
0.0
 40
0.0
 40
0.0
 40
0.5222433397994484
 40
0.9674877263370528
 40
1.0
 40
1.0
 40
1.0
 40
1.0
 10
203.4217580171916
 20
97.99942432143708
 30
0.0
 10
203.4213617640758
 20
97.66669070460813
 30
0.0
 10
203.4206276809444
 20
97.05028133010973
 30
0.0
 10
203.4013432044743
 20
96.59974693739437
 30
0.0
 10
203.3940327112312
 20
96.54789026868418
 30
0.0
 10
203.3935352178905
 20
96.54436132111569
 30
0.0
  0
SPLINE
  5
134
330
1F
100
AcDbEntity
  8
0
  6
HIDDEN
 62
     7
370
     0
100
AcDbSpline
210
0.0
220
0.0
230
1.0
 70
     8
 71
     3
 72
    11
 73
     7
 74
     0
 42
0.000000001
 43
0.00000001
 40
0.0
 40
0.0
 40
0.0
 40
0.0
 40
0.007007032514193
 40
0.3341927693112997
 40
0.6604330491663934
 40
1.0
 40
1.0
 40
1.0
 40
1.0
 10
203.3748789640758
 20
96.40363196083327
 30
0.0
 10
203.3747312364224
 20
96.40249756452144
 30
0.0
 10
203.367685527203
 20
96.34839377034305
 30
0.0
 10
203.3699389865643
 20
96.57701121785512
 30
0.0
 10
203.4037236520048
 20
97.09103188923214
 30
0.0
 10
203.4156668776843
 20
97.6926131320975
 30
0.0
 10
203.4217580171916
 20
97.99942432143708
 30
0.0
  0
LINE
  5
135
330
1F
100
AcDbEntity
  8
0
  6
HIDDEN
 62
     7
370
     0
100
AcDbLine
 10
193.3217584106
 20
126.2194240669
 30
0.0
 11
193.3217584106
 21
121.7054181004
 31
0.0
  0
LINE
  5
136
330
1F
100
AcDbEntity
  8
0
  6
HIDDEN
 62
     7
370
     0
100
AcDbLine
 10
193.3217584106
 20
97.9994243214
 30
0.0
 11
193.3217584106
 21
102.5134302879
 31
0.0
  0
SPLINE
  5
137
330
1F
100
AcDbEntity
  8
0
  6
HIDDEN
 62
     7
370
     0
100
AcDbSpline
210
0.0
220
0.0
230
1.0
 70
    11
 71
     3
 72
    60
 73
    56
 74
     0
 42
0.000000001
 43
0.00000001
 40
0.0
 40
0.0
 40
0.0
 40
0.0
 40
0.0312500000000005
 40
0.0312500000000005
 40
0.062500000000001
 40
0.062500000000001
 40
0.1250000000000015
 40
0.1250000000000015
 40
0.187500000000002
 40
0.187500000000002
 40
0.2187500000000022
 40
0.2187500000000022
 40
0.2500000000000024
 40
0.2500000000000024
 40
0.2812500000000026
 40
0.2812500000000026
 40
0.3125000000000028
 40
0.3125000000000028
 40
0.3437500000000029
 40
0.3437500000000029
 40
0.3750000000000029
 40
0.3750000000000029
 40
0.4062500000000031
 40
0.4062500000000031
 40
0.4375000000000032
 40
0.4375000000000032
 40
0.5000000000000033
 40
0.5000000000000033
 40
0.5312500000000031
 40
0.5312500000000031
 40
0.562500000000003
 40
0.562500000000003
 40
0.5937500000000028
 40
0.5937500000000028
 40
0.6250000000000027
 40
0.6250000000000027
 40
0.6562500000000024
 40
0.6562500000000024
 40
0.6875000000000023
 40
0.6875000000000023
 40
0.7187500000000021
 40
0.7187500000000021
 40
0.7500000000000019
 40
0.7500000000000019
 40
0.8125000000000016
 40
0.8125000000000016
 40
0.8437500000000014
 40
0.8437500000000014
 40
0.8750000000000012
 40
0.8750000000000012
 40
0.9062500000000011
 40
0.9062500000000011
 40
0.9375000000000009
 40
0.9375000000000009
 40
1.0
 40
1.0
 40
1.0
 40
1.0
 10
173.9217575701568
 20
111.8984981361478
 30
0.0
 10
174.0319504811271
 20
111.8984981361478
 30
0.0
 10
174.1400596844146
 20
111.9103557584525
 30
0.0
 10
174.352364838901
 20
111.9563614853427
 30
0.0
 10
174.4576735023599
 20
111.9911213376564
 30
0.0
 10
174.7564714629685
 20
112.1246751758208
 30
0.0
 10
174.9378936673545
 20
112.2545835889643
 30
0.0
 10
175.2390995680114
 20
112.5670420760747
 30
0.0
 10
175.3616540468036
 20
112.7528195589022
 30
0.0
 10
175.4857874974228
 20
113.0476303074059
 30
0.0
 10
175.5180906142588
 20
113.150609393827
 30
0.0
 10
175.5609402760907
 20
113.356887033532
 30
0.0
 10
175.5716854436032
 20
113.4596550184513
 30
0.0
 10
175.5718289799563
 20
113.6643206719697
 30
0.0
 10
175.5608458589199
 20
113.7666747581638
 30
0.0
 10
175.5181741993927
 20
113.9609348671711
 30
0.0
 10
175.4866113052852
 20
114.0541031759147
 30
0.0
 10
175.4026462097975
 20
114.2328866965568
 30
0.0
 10
175.3516116567968
 20
114.3156040882685
 30
0.0
 10
175.2323783260181
 20
114.4691557036825
 30
0.0
 10
175.1633192686835
 20
114.5406061644358
 30
0.0
 10
175.0120207448292
 20
114.6678182068231
 30
0.0
 10
174.9297880400742
 20
114.7239610906703
 30
0.0
 10
174.751675522926
 20
114.8222829035143
 30
0.0
 10
174.6555406387217
 20
114.8642771976656
 30
0.0
 10
174.3582939536028
 20
114.9644163079421
 30
0.0
 10
174.1392362128238
 20
114.9994304158429
 30
0.0
 10
173.813782537936
 20
114.9995103753029
 30
0.0
 10
173.7039459367429
 20
114.9909049708801
 30
0.0
 10
173.4900136397605
 20
114.9565921754059
 30
0.0
 10
173.386773978817
 20
114.9312503622112
 30
0.0
 10
173.1873449222545
 20
114.8640652730265
 30
0.0
 10
173.0912524149811
 20
114.8219832879679
 30
0.0
 10
172.9137083654151
 20
114.7239261324039
 30
0.0
 10
172.8310117983018
 20
114.6675366680801
 30
0.0
 10
172.6785372399367
 20
114.5390855984305
 30
0.0
 10
172.610860318895
 20
114.4688280817974
 30
0.0
 10
172.4918826546262
 20
114.3155487374293
 30
0.0
 10
172.440138371426
 20
114.2314695606699
 30
0.0
 10
172.3569616647698
 20
114.0540867727856
 30
0.0
 10
172.3254506278208
 20
113.9613101305106
 30
0.0
 10
172.282715020369
 20
113.767006610859
 30
0.0
 10
172.2717093159489
 20
113.6645401959207
 30
0.0
 10
172.2718545689524
 20
113.3578784795493
 30
0.0
 10
172.3162074575368
 20
113.1461065951508
 30
0.0
 10
172.4407926658183
 20
112.8504212540765
 30
0.0
 10
172.4925764794844
 20
112.7538447262374
 30
0.0
 10
172.6125341578146
 20
112.5726804779218
 30
0.0
 10
172.6803852198103
 20
112.4880911592223
 30
0.0
 10
172.8319109585655
 20
112.3311931264294
 30
0.0
 10
172.9158802318285
 20
112.2589968954763
 30
0.0
 10
173.0933715001674
 20
112.1336350522473
 30
0.0
 10
173.1876530351217
 20
112.0795686991364
 30
0.0
 10
173.4885381423511
 20
111.9454967171203
 30
0.0
 10
173.7013717482162
 20
111.8984981361478
 30
0.0
 10
173.9217575701568
 20
111.8984981361478
 30
0.0
  0
LINE
  5
138
330
1F
100
AcDbEntity
  8
0
  6
HIDDEN
 62
     7
370
     0
100
AcDbLine
 10
193.3217584106
 20
96.3994242454
 30
0.0
 11
193.3217584106
 21
97.9994243214
 31
0.0
  0
LINE
  5
139
330
1F
100
AcDbEntity
  8
0
  6
HIDDEN
 62
     7
370
     0
100
AcDbLine
 10
193.3217584106
 20
127.8194241429
 30
0.0
 11
193.3217584106
 21
126.2194240669
 31
0.0
  0
ELLIPSE
  5
13A
330
1F
100
AcDbEntity
  8
0
  6
HIDDEN
 62
     7
370
     0
100
AcDbEllipse
 10
173.9217575702
 20
118.9970142547
 30
0.0
 11
-1.383467579512114
 21
1.753907414218503
 31
0.0
210
0.0
220
0.0
230
1.0
 40
0.5126701559
 41
5.277237470121266
 42
5.288724596347244
  0
ELLIPSE
  5
13B
330
1F
100
AcDbEntity
  8
0
  6
HIDDEN
 62
     7
370
     0
100
AcDbEllipse
 10
173.9217575702
 20
118.9970142547
 30
0.0
 11
1.383467579512143
 21
1.091267719176599
 31
0.0
210
0.0
220
0.0
230
1.0
 40
0.8239737799
 41
0.9944607108323701
 42
4.136053364422176
  0
ELLIPSE
  5
13C
330
1F
100
AcDbEntity
  8
0
  6
HIDDEN
 62
     7
370
     0
100
AcDbEllipse
 10
173.9217575702
 20
118.9970142547
 30
0.0
 11
-1.383467579512114
 21
1.753907414218503
 31
0.0
210
0.0
220
0.0
230
1.0
 40
0.5126701559
 41
2.147131942757437
 42
2.158619068976642
  0
SPLINE
  5
13D
330
1F
100
AcDbEntity
  8
0
  6
HIDDEN
 62
     7
370
     0
100
AcDbSpline
210
0.0
220
0.0
230
1.0
 70
     8
 71
     3
 72
     8
 73
     4
 74
     0
 42
0.000000001
 43
0.00000001
 40
0.0
 40
0.0
 40
0.0
 40
0.0
 40
1.0
 40
1.0
 40
1.0
 40
1.0
 10
173.9407109116038
 20
117.4341711045253
 30
0.0
 10
173.9577097956733
 20
117.4421543780345
 30
0.0
 10
173.9747139402047
 20
117.4508907804772
 30
0.0
 10
173.9916986662971
 20
117.4603676323089
 30
0.0
  0
ELLIPSE
  5
13E
330
1F
100
AcDbEntity
  8
0
  6
HIDDEN
 62
     7
370
     0
100
AcDbEllipse
 10
173.9217575702
 20
118.9970142547
 30
0.0
 11
1.383467579512143
 21
1.091267719176599
 31
0.0
210
0.0
220
0.0
230
1.0
 40
0.8239737799
 41
4.136053364422185
 42
4.178454611687244
  0
ELLIPSE
  5
13F
330
1F
100
AcDbEntity
  8
0
  6
HIDDEN
 62
     7
370
     0
100
AcDbEllipse
 10
173.9217575702
 20
118.9970142547
 30
0.0
 11
-1.383467579512114
 21
1.753907414218503
 31
0.0
210
0.0
220
0.0
230
1.0
 40
0.5126701559
 41
5.288724596347235
 42
8.430317249937014
  0
ELLIPSE
  5
140
330
1F
100
AcDbEntity
  8
0
  6
HIDDEN
 62
     7
370
     0
100
AcDbEllipse
 10
173.9217575702
 20
118.9970142547
 30
0.0
 11
1.383467579512143
 21
1.091267719176599
 31
0.0
210
0.0
220
0.0
230
1.0
 40
0.8239737799
 41
0.9520594635615527
 42
0.9944607108323791
  0
SPLINE
  5
141
330
1F
100
AcDbEntity
  8
0
  6
HIDDEN
 62
     7
370
     0
100
AcDbSpline
210
0.0
220
0.0
230
1.0
 70
     8
 71
     3
 72
     8
 73
     4
 74
     0
 42
0.000000001
 43
0.00000001
 40
0.0
 40
0.0
 40
0.0
 40
0.0
 40
1.0
 40
1.0
 40
1.0
 40
1.0
 10
173.9916986663061
 20
120.558566120548
 30
0.0
 10
173.9747139402076
 20
120.5514504104997
 30
0.0
 10
173.9577097956704
 20
120.5435752809798
 30
0.0
 10
173.9407109115948
 20
120.5349521615277
 30
0.0
  0
LWPOLYLINE
  5
142
330
1F
100
AcDbEntity
  8
0
  6
HIDDEN
 62
     7
370
     0
100
AcDbPolyline
 90
       22
 70
   128
 43
0.0
 10
173.9217578384
 20
118.5528348404
 10
174.4081038001
 20
118.6217191833
 10
174.851235463
 20
118.8222506287
 10
175.2117793026
 20
119.1366111132
 10
175.457699685
 20
119.5368693414
 10
175.5671440574
 20
119.9874595011
 10
175.5303884807
 20
120.4483449663
 10
175.3506991031
 20
120.8785740862
 10
175.044042519
 20
121.2399197946
 10
174.6376655015
 20
121.5002738143
 10
174.1676772895
 20
121.6365030239
 10
173.6758374559
 20
121.6365030239
 10
173.2058492439
 20
121.5002738143
 10
172.7994722265
 20
121.2399197946
 10
172.4928156423
 20
120.8785740862
 10
172.3131262648
 20
120.4483449663
 10
172.2763716194
 20
119.9874595011
 10
172.3858159917
 20
119.5368693414
 10
172.6317354428
 20
119.1366111132
 10
172.9922792825
 20
118.8222506287
 10
173.4354118767
 20
118.6217191833
 10
173.9217578384
 20
118.5528348404
  0
LINE
  5
143
330
1F
100
AcDbEntity
  8
0
  6
HIDDEN
 62
     7
370
     0
100
AcDbLine
 10
170.1117572325
 20
134.3066651578
 30
0.0
 11
170.1117572325
 21
130.4594237561
 31
0.0
  0
SPLINE
  5
144
330
1F
100
AcDbEntity
  8
0
  6
HIDDEN
 62
     7
370
     0
100
AcDbSpline
210
0.0
220
0.0
230
1.0
 70
     8
 71
     3
 72
    14
 73
    10
 74
     0
 42
0.000000001
 43
0.00000001
 40
0.0
 40
0.0
 40
0.0
 40
0.0
 40
0.25
 40
0.25
 40
0.5
 40
0.5
 40
0.75
 40
0.75
 40
1.0
 40
1.0
 40
1.0
 40
1.0
 10
173.1317575701568
 20
123.3919033842893
 30
0.0
 10
173.230236843771
 20
123.4307400149012
 30
0.0
 10
173.3315342024695
 20
123.4680328429967
 30
0.0
 10
173.5245179027118
 20
123.5394441340716
 30
0.0
 10
173.6156132731261
 20
123.5735438969287
 30
0.0
 10
173.7669057964437
 20
123.6403728701589
 30
0.0
 10
173.8281715194722
 20
123.6737922759003
 30
0.0
 10
173.9103551203918
 20
123.7428098821944
 30
0.0
 10
173.9317575701568
 20
123.7786061640357
 30
0.0
 10
173.9317575701568
 20
123.8151865627298
 30
0.0
  0
LINE
  5
145
330
1F
100
AcDbEntity
  8
0
  6
HIDDEN
 62
     7
370
     0
100
AcDbLine
 10
173.9317574489
 20
134.3066651578
 30
0.0
 11
173.9317574489
 21
130.4594237561
 31
0.0
  0
LINE
  5
146
330
1F
100
AcDbEntity
  8
0
  6
HIDDEN
 62
     7
370
     0
100
AcDbLine
 10
173.9317574489
 20
104.108141383
 30
0.0
 11
173.9317574489
 21
100.3494184668
 31
0.0
  0
SPLINE
  5
147
330
1F
100
AcDbEntity
  8
0
  6
HIDDEN
 62
     7
370
     0
100
AcDbSpline
210
0.0
220
0.0
230
1.0
 70
     8
 71
     3
 72
    14
 73
    10
 74
     0
 42
0.000000001
 43
0.00000001
 40
0.0
 40
0.0
 40
0.0
 40
0.0
 40
0.2499999999999995
 40
0.2499999999999995
 40
0.4999999999999997
 40
0.4999999999999997
 40
0.7499999999999998
 40
0.7499999999999998
 40
1.0
 40
1.0
 40
1.0
 40
1.0
 10
173.9317575701569
 20
120.0564630645099
 30
0.0
 10
173.9317575701569
 20
120.0202034748347
 30
0.0
 10
173.9106374826586
 20
119.9835754210463
 30
0.0
 10
173.8281698275099
 20
119.918297688633
 30
0.0
 10
173.7677384731687
 20
119.8903713773048
 30
0.0
 10
173.615273607021
 20
119.8562069404105
 30
0.0
 10
173.5246927200703
 20
119.8508274434814
 30
0.0
 10
173.3320508041018
 20
119.8717037531605
 30
0.0
 10
173.2302386614943
 20
119.898049798369
 30
0.0
 10
173.1317575701567
 20
119.9387919075109
 30
0.0
  0
LINE
  5
148
330
1F
100
AcDbEntity
  8
0
  6
HIDDEN
 62
     7
370
     0
100
AcDbLine
 10
175.5435946348
 20
102.3574039544
 30
0.0
 11
175.5435946348
 21
100.1579245756
 31
0.0
  0
LINE
  5
149
330
1F
100
AcDbEntity
  8
0
  6
HIDDEN
 62
     7
370
     0
100
AcDbLine
 10
175.5435946348
 20
138.0196545477
 30
0.0
 11
175.5435946348
 21
130.4594237561
 31
0.0
  0
LINE
  5
14A
330
1F
100
AcDbEntity
  8
0
  6
HIDDEN
 62
     7
370
     0
100
AcDbLine
 10
168.4999209779
 20
138.0196545477
 30
0.0
 11
168.4999209779
 21
130.4594237561
 31
0.0
  0
SPLINE
  5
14B
330
1F
100
AcDbEntity
  8
0
  6
HIDDEN
 62
     7
370
     0
100
AcDbSpline
210
0.0
220
0.0
230
1.0
 70
     8
 71
     3
 72
    10
 73
     6
 74
     0
 42
0.000000001
 43
0.00000001
 40
0.0
 40
0.0
 40
0.0
 40
0.0
 40
0.5
 40
0.5
 40
1.0
 40
1.0
 40
1.0
 40
1.0
 10
171.9458668075164
 20
119.8559633636501
 30
0.0
 10
171.9302607565352
 20
119.9612355642586
 30
0.0
 10
171.9217562935066
 20
120.0651740620495
 30
0.0
 10
171.9217588470963
 20
120.2646873340055
 30
0.0
 10
171.9302564346968
 20
120.3558998286758
 30
0.0
 10
171.9458668075164
 20
120.4378317610189
 30
0.0
  0
SPLINE
  5
14C
330
1F
100
AcDbEntity
  8
0
  6
HIDDEN
 62
     7
370
     0
100
AcDbSpline
210
0.0
220
0.0
230
1.0
 70
     8
 71
     3
 72
    14
 73
    10
 74
     0
 42
0.000000001
 43
0.00000001
 40
0.0
 40
0.0
 40
0.0
 40
0.0
 40
0.25
 40
0.25
 40
0.5
 40
0.5
 40
0.75
 40
0.75
 40
1.0
 40
1.0
 40
1.0
 40
1.0
 10
171.9458668075164
 20
120.437831761019
 30
0.0
 10
171.9822306355466
 20
120.3923371256172
 30
0.0
 10
172.0147083627568
 20
120.3439453194009
 30
0.0
 10
172.0634619921725
 20
120.2384601754713
 30
0.0
 10
172.078365769847
 20
120.1818756672284
 30
0.0
 10
172.0783762035046
 20
120.072988073278
 30
0.0
 10
172.0634859076965
 20
120.0208034075154
 30
0.0
 10
172.0145969768189
 20
119.9295260085718
 30
0.0
 10
171.9822247985485
 20
119.8908593031977
 30
0.0
 10
171.9458668075164
 20
119.85596336365
 30
0.0
  0
LWPOLYLINE
  5
14D
330
1F
100
AcDbEntity
  8
0
  6
HIDDEN
 62
     7
370
     0
100
AcDbPolyline
 90
       22
 70
   128
 43
0.0
 10
164.7534850004
 20
120.0894700567
 10
164.8734812575
 20
119.729799332
 10
165.0634016792
 20
119.4808130356
 10
165.3063711661
 20
119.3646342697
 10
165.5808007295
 20
119.3915862794
 10
165.8623060162
 20
119.5592737029
 10
166.1258740301
 20
119.8527972417
 10
166.3480857338
 20
120.2460756729
 10
166.5091966229
 20
120.7041653077
 10
166.5948908726
 20
121.186361296
 10
166.5975549209
 20
121.6498200054
 10
166.516951746
 20
122.0533602143
 10
166.3602432186
 20
122.3611260036
 10
166.1413535426
 20
122.5457709486
 10
165.8797319929
 20
122.5908879394
 10
165.5986248466
 20
122.492469495
 10
165.3230097095
 20
122.2592588718
 10
165.0773761744
 20
121.9119789282
 10
164.8835502515
 20
121.4814871753
 10
164.758753725
 20
121.0060339625
 10
164.7140753871
 20
120.5278659443
 10
164.7534850004
 20
120.0894700567
  0
LWPOLYLINE
  5
14E
330
1F
100
AcDbEntity
  8
0
  6
HIDDEN
 62
     7
370
     0
100
AcDbPolyline
 90
       23
 70
   128
 43
0.0
 10
171.945866658
 20
119.8559632728
 10
172.1012485164
 20
119.3687404709
 10
172.389971553
 20
118.9385132136
 10
172.7908891576
 20
118.5967932659
 10
173.274635798
 20
118.3686094562
 10
173.8057811695
 20
118.2706748339
 10
174.3454211342
 20
118.3101629111
 10
174.8540294307
 20
118.4841809998
 10
175.2943550187
 20
118.779983485
 10
175.6341452661
 20
119.1759045439
 10
175.848513371
 20
119.64294512
 10
175.9217572349
 20
120.1468972693
 10
175.848513371
 20
120.6508498842
 10
175.6341452661
 20
121.1178904603
 10
175.2943550187
 20
121.5138115192
 10
174.8540294307
 20
121.8096144701
 10
174.3454211342
 20
121.9836320932
 10
173.8057811695
 20
122.0231201703
 10
173.274635798
 20
121.9251860137
 10
172.7908891576
 20
121.6970017383
 10
172.389971553
 20
121.3552817906
 10
172.1012485164
 20
120.9250545333
 10
171.945866658
 20
120.437832197
  0
SPLINE
  5
14F
330
1F
100
AcDbEntity
  8
0
  6
HIDDEN
 62
     7
370
     0
100
AcDbSpline
210
0.0
220
0.0
230
1.0
 70
     8
 71
     3
 72
    12
 73
     8
 74
     0
 42
0.000000001
 43
0.00000001
 40
0.0
 40
0.0
 40
0.0
 40
0.0
 40
0.2499999999999997
 40
0.2499999999999997
 40
0.4999999999999993
 40
0.4999999999999993
 40
1.0
 40
1.0
 40
1.0
 40
1.0
 10
175.5435942122135
 20
124.0609239923882
 30
0.0
 10
175.6665417060091
 20
123.9029671436931
 30
0.0
 10
175.7600859091179
 20
123.7311337767156
 30
0.0
 10
175.8890252982802
 20
123.3594610670697
 30
0.0
 10
175.9215780556653
 20
123.1662726208785
 30
0.0
 10
175.9221143973991
 20
122.5779760826023
 30
0.0
 10
175.7894907404311
 20
122.1859578447135
 30
0.0
 10
175.5435942122135
 20
121.8614442620049
 30
0.0
  0
SPLINE
  5
150
330
1F
100
AcDbEntity
  8
0
  6
HIDDEN
 62
     7
370
     0
100
AcDbSpline
210
0.0
220
0.0
230
1.0
 70
     8
 71
     3
 72
    12
 73
     8
 74
     0
 42
0.000000001
 43
0.00000001
 40
0.0
 40
0.0
 40
0.0
 40
0.0
 40
0.2500000000000002
 40
0.2500000000000002
 40
0.5000000000000004
 40
0.5000000000000004
 40
1.0
 40
1.0
 40
1.0
 40
1.0
 10
175.5435942122135
 20
121.8614442620049
 30
0.0
 10
175.4286981609529
 20
121.6417038269483
 30
0.0
 10
175.3019321444802
 20
121.4447354753266
 30
0.0
 10
175.0417172108617
 20
121.0910179024877
 30
0.0
 10
174.9082097528994
 20
120.9341926086154
 30
0.0
 10
174.4998114843113
 20
120.5076500377077
 30
0.0
 10
174.2161583493737
 20
120.2809578587525
 30
0.0
 10
173.9317575701569
 20
120.110706714357
 30
0.0
  0
SPLINE
  5
151
330
1F
100
AcDbEntity
  8
0
  6
HIDDEN
 62
     7
370
     0
100
AcDbSpline
210
0.0
220
0.0
230
1.0
 70
     8
 71
     3
 72
    12
 73
     8
 74
     0
 42
0.000000001
 43
0.00000001
 40
0.0
 40
0.0
 40
0.0
 40
0.0
 40
0.4999999999999987
 40
0.4999999999999987
 40
0.7499999999999993
 40
0.7499999999999993
 40
1.0
 40
1.0
 40
1.0
 40
1.0
 10
173.9317575701568
 20
123.8694302125781
 30
0.0
 10
174.2159641047221
 20
124.0368943748718
 30
0.0
 10
174.4946598388259
 20
124.1485314743834
 30
0.0
 10
174.9040058820152
 20
124.2158447400228
 30
0.0
 10
175.0401452193347
 20
124.2209957800368
 30
0.0
 10
175.3014652683308
 20
124.1832298424174
 30
0.0
 10
175.4268864507625
 20
124.1416800840731
 30
0.0
 10
175.5435942122139
 20
124.0609239923903
 30
0.0
  0
SPLINE
  5
152
330
1F
100
AcDbEntity
  8
0
  6
HIDDEN
 62
     7
370
     0
100
AcDbSpline
210
0.0
220
0.0
230
1.0
 70
     8
 71
     3
 72
     9
 73
     5
 74
     0
 42
0.000000001
 43
0.00000001
 40
0.0
 40
0.0
 40
0.0
 40
0.0
 40
0.5290924410221515
 40
0.9999999999999999
 40
0.9999999999999999
 40
0.9999999999999999
 40
0.9999999999999999
 10
173.1317578765247
 20
119.9387923086526
 30
0.0
 10
172.9303499658652
 20
120.0418587145131
 30
0.0
 10
172.5496831956683
 20
120.2366571993702
 30
0.0
 10
172.3133706804834
 20
120.5793250400171
 30
0.0
 10
172.2020893308017
 20
120.7406899163963
 30
0.0
  0
SPLINE
  5
153
330
1F
100
AcDbEntity
  8
0
  6
HIDDEN
 62
     7
370
     0
100
AcDbSpline
210
0.0
220
0.0
230
1.0
 70
     8
 71
     3
 72
    12
 73
     8
 74
     0
 42
0.000000001
 43
0.00000001
 40
0.0
 40
0.0
 40
0.0
 40
0.0
 40
0.1244447628781252
 40
0.3483880636443556
 40
0.5720271521965478
 40
0.7959942791665983
 40
1.0
 40
1.0
 40
1.0
 40
1.0
 10
172.0624449613187
 20
121.0655501315834
 30
0.0
 10
172.016929820834
 20
121.1759913879287
 30
0.0
 10
171.8895083746178
 20
121.4851760780252
 30
0.0
 10
171.9243424726436
 20
122.040363246806
 30
0.0
 10
172.1538326106466
 20
122.6317664945731
 30
0.0
 10
172.5729783731065
 20
123.1146140732737
 30
0.0
 10
172.9513811659225
 20
123.3023931970498
 30
0.0
 10
173.1317578765247
 20
123.3919035846831
 30
0.0
  0
LWPOLYLINE
  5
154
330
1F
100
AcDbEntity
  8
0
  6
HIDDEN
 62
     7
370
     0
100
AcDbPolyline
 90
       25
 70
   128
 43
0.0
 10
164.3719691734
 20
119.8799615929
 10
164.5003736435
 20
119.472442774
 10
164.6986913352
 20
119.1695426794
 10
164.9534068952
 20
118.9919036085
 10
165.2471618677
 20
118.9516318234
 10
165.5599377068
 20
119.0514714661
 10
165.8704187671
 20
119.2846182937
 10
166.1574467967
 20
119.635184409
 10
166.4014607618
 20
120.0792785937
 10
166.585831898
 20
120.5866370554
 10
166.6979957322
 20
121.1226849089
 10
166.730307969
 20
121.6508891637
 10
166.6805669616
 20
122.1352560649
 10
166.5521622586
 20
122.5427748839
 10
166.3538450326
 20
122.8456745128
 10
166.0991292397
 20
123.0233140493
 10
165.8053742672
 20
123.0635853688
 10
165.4925984281
 20
122.9637457261
 10
165.1821173678
 20
122.7305993641
 10
164.8950893382
 20
122.3800327832
 10
164.6510753731
 20
121.9359390641
 10
164.466704237
 20
121.4285796712
 10
164.3545406355
 20
120.892532749
 10
164.322228166
 20
120.3643284942
 10
164.3719691734
 20
119.8799615929
  0
LWPOLYLINE
  5
155
330
1F
100
AcDbEntity
  8
0
  6
HIDDEN
 62
     7
370
     0
100
AcDbPolyline
 90
       22
 70
   128
 43
0.0
 10
165.8421093548
 20
101.6352992708
 10
166.0838560152
 20
101.73289722
 10
166.2760586428
 20
101.9618516991
 10
166.4016391101
 20
102.3018198291
 10
166.4494392412
 20
102.7225941623
 10
166.415211274
 20
103.1867867539
 10
166.3019969078
 20
103.6531521211
 10
166.119855358
 20
104.0802510659
 10
165.884971148
 20
104.4301349873
 10
165.6182147513
 20
104.6717149409
 10
165.3432883273
 20
104.7835248726
 10
165.0846204671
 20
104.7556308302
 10
164.8651952806
 20
104.5905105973
 10
164.7045088417
 20
104.3028357642
 10
164.6168394896
 20
103.9181683416
 10
164.6099768064
 20
103.4706864709
 10
164.6845305754
 20
103.0001525039
 10
164.833876765
 20
102.5483744422
 10
165.0447444941
 20
102.1554941515
 10
165.2983981135
 20
101.8564222584
 10
165.5722986857
 20
101.6777312587
 10
165.8421093548
 20
101.6352992708
  0
LWPOLYLINE
  5
156
330
1F
100
AcDbEntity
  8
0
  6
HIDDEN
 62
     7
370
     0
100
AcDbPolyline
 90
       24
 70
   128
 43
0.0
 10
166.1030631463
 20
101.2977218459
 10
166.379346973
 20
101.4016816596
 10
166.6060411322
 20
101.6431233118
 10
166.7663329231
 20
102.0041421259
 10
166.8483344788
 20
102.4579607154
 10
166.8459637972
 20
102.9709229449
 10
166.7593968982
 20
103.5049852187
 10
166.5950538541
 20
104.020536525
 10
166.3651233489
 20
104.4793428125
 10
166.0866583648
 20
104.847375417
 10
165.7803114454
 20
105.097339602
 10
165.4688026706
 20
105.2106959949
 10
165.175234894
 20
105.1790384779
 10
164.9213815058
 20
105.0047139841
 10
164.7260694249
 20
104.700651599
 10
164.6037837441
 20
104.2894028331
 10
164.5635939154
 20
103.8014671037
 10
164.6084808695
 20
103.2730328123
 10
164.7351153611
 20
102.7432928065
 10
164.9341052348
 20
102.2515330667
 10
165.1906929861
 20
101.8342269788
 10
165.4858482021
 20
101.5223233233
 10
165.7976806114
 20
101.3389552216
 10
166.1030631463
 20
101.2977218459
  0
LWPOLYLINE
  5
157
330
1F
100
AcDbEntity
  8
0
  6
HIDDEN
 62
     7
370
     0
100
AcDbPolyline
 90
       24
 70
   128
 43
0.0
 10
168.5808617572
 20
101.8911177496
 10
168.8571455839
 20
101.9950775633
 10
169.0838397431
 20
102.2365192155
 10
169.244131534
 20
102.5975370983
 10
169.3261326241
 20
103.0513566191
 10
169.3237624081
 20
103.5643188486
 10
169.2371950435
 20
104.0983811224
 10
169.0728519994
 20
104.6139324287
 10
168.8429224255
 20
105.0727387162
 10
168.5644569757
 20
105.4407713207
 10
168.2581095907
 20
105.6907355058
 10
167.9466008159
 20
105.8040918986
 10
167.6530335049
 20
105.772433916
 10
167.3991801168
 20
105.5981094221
 10
167.203867803
 20
105.2940475027
 10
167.081582355
 20
104.8827982711
 10
167.0413925263
 20
104.3948630075
 10
167.0862794804
 20
103.866428716
 10
167.2129137392
 20
103.3366887102
 10
167.4119038458
 20
102.8449289704
 10
167.668491597
 20
102.4276228825
 10
167.963646813
 20
102.115719227
 10
168.2754792223
 20
101.9323511253
 10
168.5808617572
 20
101.8911177496
  0
LINE
  5
158
330
1F
100
AcDbEntity
  8
0
  6
HIDDEN
 62
     7
370
     0
100
AcDbLine
 10
165.9519919145
 20
103.8344992528
 30
0.0
 11
165.2997452716
 21
104.3415121938
 31
0.0
  0
LINE
  5
159
330
1F
100
AcDbEntity
  8
0
  6
HIDDEN
 62
     7
370
     0
100
AcDbLine
 10
164.8740209589
 20
103.7182525004
 30
0.0
 11
165.2997452716
 21
104.3415121938
 31
0.0
  0
LINE
  5
15A
330
1F
100
AcDbEntity
  8
0
  6
HIDDEN
 62
     7
370
     0
100
AcDbLine
 10
165.1005442205
 20
102.5879798661
 30
0.0
 11
164.8740209589
 21
103.7182525004
 31
0.0
  0
LINE
  5
15B
330
1F
100
AcDbEntity
  8
0
  6
HIDDEN
 62
     7
370
     0
100
AcDbLine
 10
165.1005442205
 20
102.5879798661
 30
0.0
 11
165.752791329
 21
102.0809669251
 31
0.0
  0
LINE
  5
15C
330
1F
100
AcDbEntity
  8
0
  6
HIDDEN
 62
     7
370
     0
100
AcDbLine
 10
166.178515176
 20
102.7042266185
 30
0.0
 11
165.752791329
 21
102.0809669251
 31
0.0
  0
LINE
  5
15D
330
1F
100
AcDbEntity
  8
0
  6
HIDDEN
 62
     7
370
     0
100
AcDbLine
 10
166.178515176
 20
102.7042266185
 30
0.0
 11
165.9519919145
 21
103.8344992528
 31
0.0
  0
LINE
  5
15E
330
1F
100
AcDbEntity
  8
0
  6
HIDDEN
 62
     7
370
     0
100
AcDbLine
 10
167.1807202461
 20
104.1287617961
 30
0.0
 11
165.9519919145
 21
103.8344992528
 31
0.0
  0
LINE
  5
15F
330
1F
100
AcDbEntity
  8
0
  6
HIDDEN
 62
     7
370
     0
100
AcDbLine
 10
167.4072430419
 20
102.9984891618
 30
0.0
 11
166.178515176
 21
102.7042266185
 31
0.0
  0
LINE
  5
160
330
1F
100
AcDbEntity
  8
0
  6
HIDDEN
 62
     7
370
     0
100
AcDbLine
 10
166.3292720864
 20
102.8822424094
 30
0.0
 11
166.9815191949
 21
102.3752294684
 31
0.0
  0
LINE
  5
161
330
1F
100
AcDbEntity
  8
0
  6
HIDDEN
 62
     7
370
     0
100
AcDbLine
 10
166.3292720864
 20
102.8822424094
 30
0.0
 11
166.1027492906
 21
104.0125150437
 31
0.0
  0
LINE
  5
162
330
1F
100
AcDbEntity
  8
0
  6
HIDDEN
 62
     7
370
     0
100
AcDbLine
 10
166.1027492906
 20
104.0125150437
 30
0.0
 11
166.5284731376
 21
104.6357742714
 31
0.0
  0
LINE
  5
163
330
1F
100
AcDbEntity
  8
0
  6
HIDDEN
 62
     7
370
     0
100
AcDbLine
 10
167.4072430419
 20
102.9984891618
 30
0.0
 11
166.9815191949
 21
102.3752294684
 31
0.0
  0
LINE
  5
164
330
1F
100
AcDbEntity
  8
0
  6
HIDDEN
 62
     7
370
     0
100
AcDbLine
 10
167.4072430419
 20
102.9984891618
 30
0.0
 11
167.1807202461
 21
104.1287617961
 31
0.0
  0
LINE
  5
165
330
1F
100
AcDbEntity
  8
0
  6
HIDDEN
 62
     7
370
     0
100
AcDbLine
 10
167.1807202461
 20
104.1287617961
 30
0.0
 11
166.5284731376
 21
104.6357742714
 31
0.0
  0
LINE
  5
166
330
1F
100
AcDbEntity
  8
0
  6
HIDDEN
 62
     7
370
     0
100
AcDbLine
 10
166.1027492906
 20
104.0125150437
 30
0.0
 11
164.8740209589
 21
103.7182525004
 31
0.0
  0
LINE
  5
167
330
1F
100
AcDbEntity
  8
0
  6
HIDDEN
 62
     7
370
     0
100
AcDbLine
 10
166.5284731376
 20
104.6357742714
 30
0.0
 11
165.2997452716
 21
104.3415121938
 31
0.0
  0
LWPOLYLINE
  5
168
330
1F
100
AcDbEntity
  8
0
  6
HIDDEN
 62
     7
370
     0
100
AcDbPolyline
 90
       19
 70
   128
 43
0.0
 10
169.0480946514
 20
102.7723826671
 10
169.2637358742
 20
102.8710209037
 10
169.4237911093
 20
103.1053416634
 10
169.5089540395
 20
103.447081169
 10
169.5089540395
 20
103.8550209458
 10
169.4237911093
 20
104.2799573595
 10
169.2637358742
 20
104.670636935
 10
169.0480946514
 20
104.9799380096
 10
168.8028764861
 20
105.1705541293
 10
168.5576578553
 20
105.2194941992
 10
168.3420166324
 20
105.1208559627
 10
168.1819613973
 20
104.8865356686
 10
168.0967980015
 20
104.5447961631
 10
168.0967980015
 20
104.1368559206
 10
168.1819613973
 20
103.7119195069
 10
168.3420166324
 20
103.3212399314
 10
168.5576578553
 20
103.0119393224
 10
168.8028764861
 20
102.8213227371
 10
169.0480946514
 20
102.7723826671
  0
LINE
  5
169
330
1F
100
AcDbEntity
  8
0
  6
HIDDEN
 62
     7
370
     0
100
AcDbLine
 10
166.3292720864
 20
102.8822424094
 30
0.0
 11
165.1005442205
 21
102.5879798661
 31
0.0
  0
LINE
  5
16A
330
1F
100
AcDbEntity
  8
0
  6
HIDDEN
 62
     7
370
     0
100
AcDbLine
 10
166.9815191949
 20
102.3752294684
 30
0.0
 11
165.752791329
 21
102.0809669251
 31
0.0
  0
LWPOLYLINE
  5
16B
330
1F
100
AcDbEntity
  8
0
  6
HIDDEN
 62
     7
370
     0
100
AcDbPolyline
 90
       24
 70
   128
 43
0.0
 10
169.1518635439
 20
119.8202153871
 10
168.9481032031
 20
119.3327159824
 10
168.6880076254
 20
118.922149876
 10
168.3908668297
 20
118.6189671251
 10
168.0787177707
 20
118.4456540475
 10
167.7747121962
 20
118.4150633606
 10
167.5013960289
 20
118.5294646973
 10
167.2790399703
 20
118.7803732435
 10
167.1241354148
 20
119.1491802427
 10
167.0481711576
 20
119.6085327508
 10
167.0567803035
 20
120.1243629883
 10
167.1493248964
 20
120.6584131549
 10
167.3189415547
 20
121.1710773612
 10
167.5530499729
 20
121.6243315692
 10
167.83428797
 20
121.9845615531
 10
168.14179718
 20
122.2250485996
 10
168.4527709099
 20
122.3279597441
 10
168.7441454219
 20
122.2856600041
 10
168.994311704
 20
122.1012879367
 10
169.1847150164
 20
121.7885172198
 10
169.3012355777
 20
121.3705443049
 10
169.335229783
 20
120.8783691952
 10
169.2841765421
 20
120.3484932164
 10
169.1518635439
 20
119.8202153871
  0
LWPOLYLINE
  5
16C
330
1F
100
AcDbEntity
  8
0
  6
HIDDEN
 62
     7
370
     0
100
AcDbPolyline
 90
       19
 70
   128
 43
0.0
 10
169.4049709427
 20
119.8792691546
 10
169.2355233195
 20
119.4975880178
 10
169.0138918298
 20
119.2033915984
 10
168.7668091568
 20
119.0321642178
 10
168.5240757602
 20
119.004557954
 10
168.3149705591
 20
119.1239032167
 10
168.1647137689
 20
119.3758050183
 10
168.0914289268
 20
119.7298798914
 10
168.1039552155
 20
120.1434215734
 10
168.2007815639
 20
120.5665512214
 10
168.3702291871
 20
120.9482323582
 10
168.5918606768
 20
121.2424287776
 10
168.8389438155
 20
121.4136561582
 10
169.0816762807
 20
121.4412614907
 10
169.2907814818
 20
121.321916228
 10
169.441038272
 20
121.070014892
 10
169.5143231141
 20
120.715940019
 10
169.5017977568
 20
120.3023983369
 10
169.4049709427
 20
119.8792691546
  0
LWPOLYLINE
  5
16D
330
1F
100
AcDbEntity
  8
0
  6
HIDDEN
 62
     7
370
     0
100
AcDbPolyline
 90
       24
 70
   128
 43
0.0
 10
166.6740653987
 20
120.4136112908
 10
166.4703050579
 20
119.9261114205
 10
166.2102094802
 20
119.5155457797
 10
165.9130682188
 20
119.2123630288
 10
165.6009196254
 20
119.0390494856
 10
165.2969135853
 20
119.0084592643
 10
165.023597418
 20
119.122860601
 10
164.8012415922
 20
119.3737691472
 10
164.6463370367
 20
119.7425756807
 10
164.5703725467
 20
120.2019281889
 10
164.5789819254
 20
120.7177579606
 10
164.6715265183
 20
121.2518090586
 10
164.8411429437
 20
121.7644732649
 10
165.0752518276
 20
122.2177274729
 10
165.3564893591
 20
122.5779565255
 10
165.6639985691
 20
122.8184445033
 10
165.974972299
 20
122.9213556478
 10
166.2663472767
 20
122.8790559078
 10
166.5165135587
 20
122.6946838404
 10
166.7069168712
 20
122.3819131235
 10
166.8234369668
 20
121.9639402086
 10
166.8574311721
 20
121.471765099
 10
166.8063783968
 20
120.9418891201
 10
166.6740653987
 20
120.4136112908
  0
LINE
  5
16E
330
1F
100
AcDbEntity
  8
0
  6
HIDDEN
 62
     7
370
     0
100
AcDbLine
 10
166.1654869045
 20
119.930824844
 30
0.0
 11
166.1988049696
 21
121.0307885165
 31
0.0
  0
LINE
  5
16F
330
1F
100
AcDbEntity
  8
0
  6
HIDDEN
 62
     7
370
     0
100
AcDbLine
 10
166.1988049696
 20
121.0307885165
 30
0.0
 11
164.970076638
 21
121.3250510598
 31
0.0
  0
LINE
  5
170
330
1F
100
AcDbEntity
  8
0
  6
HIDDEN
 62
     7
370
     0
100
AcDbLine
 10
166.7883139985
 20
121.8133108894
 30
0.0
 11
166.1988049696
 21
121.0307885165
 31
0.0
  0
LINE
  5
171
330
1F
100
AcDbEntity
  8
0
  6
HIDDEN
 62
     7
370
     0
100
AcDbLine
 10
165.5595856669
 20
122.1075725014
 30
0.0
 11
164.970076638
 21
121.3250510598
 31
0.0
  0
LINE
  5
172
330
1F
100
AcDbEntity
  8
0
  6
HIDDEN
 62
     7
370
     0
100
AcDbLine
 10
164.9367590385
 20
120.225086456
 30
0.0
 11
164.970076638
 21
121.3250510598
 31
0.0
  0
LWPOLYLINE
  5
173
330
1F
100
AcDbEntity
  8
0
  6
HIDDEN
 62
     7
370
     0
100
AcDbPolyline
 90
       22
 70
   128
 43
0.0
 10
166.3017659398
 20
120.564999638
 10
166.1195298607
 20
120.1379910315
 10
165.8845795269
 20
119.788251465
 10
165.6177919308
 20
119.546857776
 10
165.3428720261
 20
119.4352578575
 10
165.0842474724
 20
119.4633684325
 10
164.8648986543
 20
119.6286916936
 10
164.7043151266
 20
119.9165374244
 10
164.6167656823
 20
120.3013301099
 10
164.6100296589
 20
120.7488781045
 10
164.6847054313
 20
121.2194157968
 10
164.8341580244
 20
121.6711333225
 10
165.0451072442
 20
122.063894404
 10
165.2988097581
 20
122.3627995903
 10
165.5727229031
 20
122.5412894244
 10
165.8425084266
 20
122.5835053454
 10
166.0841950166
 20
122.4856959859
 10
166.2763068403
 20
122.2565524484
 10
166.4017746175
 20
121.9164343754
 10
166.4494494858
 20
121.4955631847
 10
166.4150962556
 20
121.0313352028
 10
166.3017659398
 20
120.564999638
  0
LINE
  5
174
330
1F
100
AcDbEntity
  8
0
  6
HIDDEN
 62
     7
370
     0
100
AcDbLine
 10
165.492950468
 20
119.9076446908
 30
0.0
 11
164.9367590385
 21
120.225086456
 31
0.0
  0
LINE
  5
175
330
1F
100
AcDbEntity
  8
0
  6
HIDDEN
 62
     7
370
     0
100
AcDbLine
 10
166.1654869045
 20
119.930824844
 30
0.0
 11
164.9367590385
 21
120.225086456
 31
0.0
  0
LINE
  5
176
330
1F
100
AcDbEntity
  8
0
  6
HIDDEN
 62
     7
370
     0
100
AcDbLine
 10
166.721678334
 20
119.6133826131
 30
0.0
 11
166.1654869045
 21
119.930824844
 31
0.0
  0
LINE
  5
177
330
1F
100
AcDbEntity
  8
0
  6
HIDDEN
 62
     7
370
     0
100
AcDbLine
 10
167.344505428
 20
121.4958686585
 30
0.0
 11
166.1157770964
 21
121.7901312018
 31
0.0
  0
LINE
  5
178
330
1F
100
AcDbEntity
  8
0
  6
HIDDEN
 62
     7
370
     0
100
AcDbLine
 10
166.1157770964
 20
121.7901312018
 30
0.0
 11
165.5595856669
 21
122.1075725014
 31
0.0
  0
LINE
  5
179
330
1F
100
AcDbEntity
  8
0
  6
HIDDEN
 62
     7
370
     0
100
AcDbLine
 10
166.7883139985
 20
121.8133108894
 30
0.0
 11
165.5595856669
 21
122.1075725014
 31
0.0
  0
LINE
  5
17A
330
1F
100
AcDbEntity
  8
0
  6
HIDDEN
 62
     7
370
     0
100
AcDbLine
 10
167.344505428
 20
121.4958686585
 30
0.0
 11
166.7883139985
 21
121.8133108894
 31
0.0
  0
LINE
  5
17B
330
1F
100
AcDbEntity
  8
0
  6
HIDDEN
 62
     7
370
     0
100
AcDbLine
 10
167.3111873629
 20
120.395904986
 30
0.0
 11
166.082459497
 21
120.690166598
 31
0.0
  0
LINE
  5
17C
330
1F
100
AcDbEntity
  8
0
  6
HIDDEN
 62
     7
370
     0
100
AcDbLine
 10
166.721678334
 20
119.6133826131
 30
0.0
 11
165.492950468
 21
119.9076446908
 31
0.0
  0
LINE
  5
17D
330
1F
100
AcDbEntity
  8
0
  6
HIDDEN
 62
     7
370
     0
100
AcDbLine
 10
165.492950468
 20
119.9076446908
 30
0.0
 11
166.082459497
 21
120.690166598
 31
0.0
  0
LINE
  5
17E
330
1F
100
AcDbEntity
  8
0
  6
HIDDEN
 62
     7
370
     0
100
AcDbLine
 10
166.721678334
 20
119.6133826131
 30
0.0
 11
167.3111873629
 21
120.395904986
 31
0.0
  0
LINE
  5
17F
330
1F
100
AcDbEntity
  8
0
  6
HIDDEN
 62
     7
370
     0
100
AcDbLine
 10
166.1157770964
 20
121.7901312018
 30
0.0
 11
166.082459497
 21
120.690166598
 31
0.0
  0
LINE
  5
180
330
1F
100
AcDbEntity
  8
0
  6
HIDDEN
 62
     7
370
     0
100
AcDbLine
 10
167.344505428
 20
121.4958686585
 30
0.0
 11
167.3111873629
 21
120.395904986
 31
0.0
  0
LWPOLYLINE
  5
181
330
1F
100
AcDbEntity
  8
0
  6
HIDDEN
 62
     7
370
     0
100
AcDbPolyline
 90
       21
 70
   128
 43
0.0
 10
175.3551228854
 20
119.6964752133
 10
175.3993486005
 20
120.129720887
 10
175.2989361944
 20
120.5546032841
 10
175.0637167084
 20
120.9295341949
 10
174.716714299
 20
121.2178101967
 10
174.2918961632
 20
121.3912140782
 10
173.8308458539
 20
121.4327724854
 10
173.3786943319
 20
121.3384164701
 10
172.9797027024
 20
121.1173819582
 10
172.6729250463
 20
120.791306367
 10
172.4883918601
 20
120.3921079839
 10
172.4441670763
 20
119.9588623101
 10
172.544578551
 20
119.5339794474
 10
172.7797980371
 20
119.159049468
 10
173.1268004465
 20
118.8707730005
 10
173.5516195136
 20
118.6973686534
 10
174.0126688915
 20
118.6558107118
 10
174.4648204135
 20
118.7501667271
 10
174.8638129743
 20
118.9712007734
 10
175.1705896991
 20
119.2972763645
 10
175.3551228854
 20
119.6964752133
  0
LWPOLYLINE
  5
182
330
1F
100
AcDbEntity
  8
0
  6
HIDDEN
 62
     7
370
     0
100
AcDbPolyline
 90
       24
 70
   128
 43
0.0
 10
175.858234516
 20
119.6769975329
 10
175.9213381397
 20
120.1853702048
 10
175.8361426132
 20
120.6908893044
 10
175.6089660289
 20
121.15606351
 10
175.2566560122
 20
121.5463919769
 10
174.8053436118
 20
121.8329264055
 10
174.2884986984
 20
121.9944158772
 10
173.7444554406
 20
122.0188835839
 10
173.2135605949
 20
121.9045143778
 10
172.7351904797
 20
121.6597907449
 10
172.3448219659
 20
121.3028622995
 10
172.0714080098
 20
120.8602018858
 10
171.9352262976
 20
120.3646395559
 10
171.9463760915
 20
119.8529271612
 10
172.1040303769
 20
119.3630179594
 10
172.3964982616
 20
118.9312451723
 10
172.8020864489
 20
118.5896318609
 10
173.2907160136
 20
118.3635137247
 10
173.8261473315
 20
118.2696610893
 10
174.3686697396
 20
118.3150346594
 10
174.8780463773
 20
118.4962686355
 10
175.3164990755
 20
118.7999226356
 10
175.6515107068
 20
119.2034754174
 10
175.858234516
 20
119.6769975329
  0
LWPOLYLINE
  5
183
330
1F
100
AcDbEntity
  8
0
  6
HIDDEN
 62
     7
370
     0
100
AcDbPolyline
 90
       24
 70
   128
 43
0.0
 10
175.858234516
 20
120.0019164214
 10
175.9213381397
 20
120.5102890933
 10
175.8361426132
 20
121.0158081929
 10
175.6089660289
 20
121.4809823985
 10
175.2566560122
 20
121.8713108654
 10
174.8053436118
 20
122.157845294
 10
174.2884986984
 20
122.3193347658
 10
173.7444554406
 20
122.3438024724
 10
173.2135605949
 20
122.2294332663
 10
172.7351904797
 20
121.9847096334
 10
172.3448219659
 20
121.6277821193
 10
172.0714080098
 20
121.1851217056
 10
171.9352262976
 20
120.6895584444
 10
171.9463760915
 20
120.1778460498
 10
172.1040303769
 20
119.6879368479
 10
172.3964982616
 20
119.2561640608
 10
172.8020864489
 20
118.9145507494
 10
173.2907160136
 20
118.6884326132
 10
173.8261473315
 20
118.5945799778
 10
174.3686697396
 20
118.6399535479
 10
174.8780463773
 20
118.8211879896
 10
175.3164990755
 20
119.1248419898
 10
175.6515107068
 20
119.5283947716
 10
175.858234516
 20
120.0019164214
  0
LWPOLYLINE
  5
184
330
1F
100
AcDbEntity
  8
0
  6
HIDDEN
 62
     7
370
     0
100
AcDbPolyline
 90
       21
 70
   128
 43
0.0
 10
175.3741153466
 20
121.059947295
 10
175.4189268636
 20
121.4989327098
 10
175.317184529
 20
121.9294458831
 10
175.0788479062
 20
122.3093435372
 10
174.7272475573
 20
122.6014398242
 10
174.2968005079
 20
122.7771422098
 10
173.8296416538
 20
122.8192510287
 10
173.3714989337
 20
122.7236442471
 10
172.9672201859
 20
122.499681657
 10
172.6563782382
 20
122.1692847291
 10
172.4693993988
 20
121.7647973652
 10
172.4245888131
 20
121.325811019
 10
172.5263311478
 20
120.8952978457
 10
172.7646668392
 20
120.5154001916
 10
173.1162671881
 20
120.2233039046
 10
173.5467151689
 20
120.0476024503
 10
174.0138740229
 20
120.0054936314
 10
174.4720158118
 20
120.1010994817
 10
174.8762954908
 20
120.3250630031
 10
175.1871374386
 20
120.6554589997
 10
175.3741153466
 20
121.059947295
  0
LWPOLYLINE
  5
185
330
1F
100
AcDbEntity
  8
0
  6
HIDDEN
 62
     7
370
     0
100
AcDbPolyline
 90
       21
 70
   128
 43
0.0
 10
175.3741153466
 20
120.0564686412
 10
175.4189268636
 20
120.4954549874
 10
175.317184529
 20
120.9259672294
 10
175.0788479062
 20
121.3058658148
 10
174.7272475573
 20
121.5979611705
 10
174.2968005079
 20
121.7736635561
 10
173.8296416538
 20
121.815772375
 10
173.3714989337
 20
121.7201655934
 10
172.9672201859
 20
121.4962030033
 10
172.6563782382
 20
121.1658070067
 10
172.4693993988
 20
120.7613187114
 10
172.4245888131
 20
120.3223323653
 10
172.5263311478
 20
119.8918196576
 10
172.7646668392
 20
119.5119220036
 10
173.1162671881
 20
119.2198257165
 10
173.5467151689
 20
119.0441237966
 10
174.0138740229
 20
119.0020149777
 10
174.4720158118
 20
119.0976217593
 10
174.8762954908
 20
119.3215843494
 10
175.1871374386
 20
119.6519808116
 10
175.3741153466
 20
120.0564686412
  0
LWPOLYLINE
  5
186
330
1F
100
AcDbEntity
  8
0
  6
HIDDEN
 62
     7
370
     0
100
AcDbPolyline
 90
       24
 70
   128
 43
0.0
 10
175.858234516
 20
120.194303451
 10
175.9213381397
 20
120.7026751915
 10
175.8361426132
 20
121.2081952224
 10
175.6089660289
 20
121.6733684967
 10
175.2566560122
 20
122.0636969636
 10
174.8053436118
 20
122.3502313922
 10
174.2884986984
 20
122.511720864
 10
173.7444554406
 20
122.5361885706
 10
173.2135605949
 20
122.4218193645
 10
172.7351904797
 20
122.1770957316
 10
172.3448219659
 20
121.8201682175
 10
172.0714080098
 20
121.3775078038
 10
171.9352262976
 20
120.8819445426
 10
171.9463760915
 20
120.3702330793
 10
172.1040303769
 20
119.8803234118
 10
172.3964982616
 20
119.4485506246
 10
172.8020864489
 20
119.1069373133
 10
173.2907160136
 20
118.8808191771
 10
173.8261473315
 20
118.7869665416
 10
174.3686697396
 20
118.8323401118
 10
174.8780463773
 20
119.0135740879
 10
175.3164990755
 20
119.317228088
 10
175.6515107068
 20
119.7207808698
 10
175.858234516
 20
120.194303451
  0
LWPOLYLINE
  5
187
330
1F
100
AcDbEntity
  8
0
  6
HIDDEN
 62
     7
370
     0
100
AcDbPolyline
 90
       23
 70
   128
 43
0.0
 10
175.7033164563
 20
120.0876055489
 10
175.7607622954
 20
120.576770624
 10
175.6692235308
 20
121.0613293777
 10
175.4361153531
 20
121.502025632
 10
175.0803221899
 20
121.8631571362
 10
174.6306694063
 20
122.1154673229
 10
174.1235847535
 20
122.2385145927
 10
173.6001498016
 20
122.2223310004
 10
173.1027695301
 20
122.0682287792
 10
172.6717376101
 20
121.7886904458
 10
172.3419758442
 20
121.4063629712
 10
172.1401992204
 20
120.9522212128
 10
172.0827524501
 20
120.4630561376
 10
172.1742921459
 20
119.978497384
 10
172.4074003237
 20
119.5378011296
 10
172.7631925556
 20
119.1766696254
 10
173.2128453391
 20
118.9243594388
 10
173.7199299919
 20
118.8013117033
 10
174.2433658751
 20
118.8174952956
 10
174.7407461467
 20
118.9715979824
 10
175.1717771354
 20
119.2511363158
 10
175.5015389013
 20
119.6334633248
 10
175.7033164563
 20
120.0876055489
  0
LWPOLYLINE
  5
188
330
1F
100
AcDbEntity
  8
0
  6
HIDDEN
 62
     7
370
     0
100
AcDbPolyline
 90
       24
 70
   128
 43
0.0
 10
175.858234516
 20
120.3866895492
 10
175.9213381397
 20
120.8950622211
 10
175.8361426132
 20
121.4005813206
 10
175.6089660289
 20
121.8657545949
 10
175.2566560122
 20
122.2560830618
 10
174.8053436118
 20
122.5426184217
 10
174.2884986984
 20
122.7041078935
 10
173.7444554406
 20
122.7285746688
 10
173.2135605949
 20
122.6142054627
 10
172.7351904797
 20
122.3694827611
 10
172.3448219659
 20
122.0125543157
 10
172.0714080098
 20
121.569893902
 10
171.9352262976
 20
121.0743306408
 10
171.9463760915
 20
120.5626191775
 10
172.1040303769
 20
120.0727099756
 10
172.3964982616
 20
119.6409367228
 10
172.8020864489
 20
119.2993234115
 10
173.2907160136
 20
119.0732052753
 10
173.8261473315
 20
118.9793526398
 10
174.3686697396
 20
119.02472621
 10
174.8780463773
 20
119.2059606517
 10
175.3164990755
 20
119.5096146519
 10
175.6515107068
 20
119.9131674337
 10
175.858234516
 20
120.3866895492
  0
LWPOLYLINE
  5
189
330
1F
100
AcDbEntity
  8
0
  6
HIDDEN
 62
     7
370
     0
100
AcDbPolyline
 90
       23
 70
   128
 43
0.0
 10
175.7033164563
 20
120.2799916471
 10
175.7607622954
 20
120.7691567222
 10
175.6692235308
 20
121.2537154759
 10
175.4361153531
 20
121.6944117303
 10
175.0803221899
 20
122.0555432344
 10
174.6306694063
 20
122.3078534211
 10
174.1235847535
 20
122.4309006909
 10
173.6001498016
 20
122.4147180299
 10
173.1027695301
 20
122.2606148774
 10
172.6717376101
 20
121.981076544
 10
172.3419758442
 20
121.5987490694
 10
172.1401992204
 20
121.144607311
 10
172.0827524501
 20
120.6554422359
 10
172.1742921459
 20
120.1708834822
 10
172.4074003237
 20
119.7301872278
 10
172.7631925556
 20
119.3690557236
 10
173.2128453391
 20
119.1167460027
 10
173.7199299919
 20
118.9936982671
 10
174.2433658751
 20
119.0098813938
 10
174.7407461467
 20
119.1639845463
 10
175.1717771354
 20
119.4435228797
 10
175.5015389013
 20
119.8258498887
 10
175.7033164563
 20
120.2799916471
  0
LWPOLYLINE
  5
18A
330
1F
100
AcDbEntity
  8
0
  6
HIDDEN
 62
     7
370
     0
100
AcDbPolyline
 90
       24
 70
   128
 43
0.0
 10
175.858234516
 20
120.5790756474
 10
175.9213381397
 20
121.0874483193
 10
175.8361426132
 20
121.5929674188
 10
175.6089660289
 20
122.0581416244
 10
175.2566560122
 20
122.4484700913
 10
174.8053436118
 20
122.7350045199
 10
174.2884986984
 20
122.8964939917
 10
173.7444554406
 20
122.9209616984
 10
173.2135605949
 20
122.8065924922
 10
172.7351904797
 20
122.5618688593
 10
172.3448219659
 20
122.2049404139
 10
172.0714080098
 20
121.7622800002
 10
171.9352262976
 20
121.2667176703
 10
171.9463760915
 20
120.7550052757
 10
172.1040303769
 20
120.2650960738
 10
172.3964982616
 20
119.8333232867
 10
172.8020864489
 20
119.4917099754
 10
173.2907160136
 20
119.2655918392
 10
173.8261473315
 20
119.1717392037
 10
174.3686697396
 20
119.2171127739
 10
174.8780463773
 20
119.3983467499
 10
175.3164990755
 20
119.7020007501
 10
175.6515107068
 20
120.1055539975
 10
175.858234516
 20
120.5790756474
  0
LWPOLYLINE
  5
18B
330
1F
100
AcDbEntity
  8
0
  6
HIDDEN
 62
     7
370
     0
100
AcDbPolyline
 90
       23
 70
   128
 43
0.0
 10
175.7033164563
 20
120.4723777453
 10
175.7607622954
 20
120.9615428204
 10
175.6692235308
 20
121.4461015741
 10
175.4361153531
 20
121.8867978285
 10
175.0803221899
 20
122.2479293326
 10
174.6306694063
 20
122.5002395193
 10
174.1235847535
 20
122.6232877205
 10
173.6001498016
 20
122.6071041281
 10
173.1027695301
 20
122.4530009756
 10
172.6717376101
 20
122.1734626422
 10
172.3419758442
 20
121.7911360989
 10
172.1401992204
 20
121.3369934092
 10
172.0827524501
 20
120.8478292654
 10
172.1742921459
 20
120.3632705117
 10
172.4074003237
 20
119.922573326
 10
172.7631925556
 20
119.5614422875
 10
173.2128453391
 20
119.3091321009
 10
173.7199299919
 20
119.1860843653
 10
174.2433658751
 20
119.2022679577
 10
174.7407461467
 20
119.3563706445
 10
175.1717771354
 20
119.6359089779
 10
175.5015389013
 20
120.0182359869
 10
175.7033164563
 20
120.4723777453
  0
LWPOLYLINE
  5
18C
330
1F
100
AcDbEntity
  8
0
  6
HIDDEN
 62
     7
370
     0
100
AcDbPolyline
 90
       24
 70
   128
 43
0.0
 10
175.858234516
 20
120.7714617456
 10
175.9213381397
 20
121.2798344175
 10
175.8361426132
 20
121.785353517
 10
175.6089660289
 20
122.2505277226
 10
175.2566560122
 20
122.6408561895
 10
174.8053436118
 20
122.9273906181
 10
174.2884986984
 20
123.0888800899
 10
173.7444554406
 20
123.1133477966
 10
173.2135605949
 20
122.9989785905
 10
172.7351904797
 20
122.7542549575
 10
172.3448219659
 20
122.3973274434
 10
172.0714080098
 20
121.9546670298
 10
171.9352262976
 20
121.4591037686
 10
171.9463760915
 20
120.9473913739
 10
172.1040303769
 20
120.457482172
 10
172.3964982616
 20
120.0257098506
 10
172.8020864489
 20
119.6840960736
 10
173.2907160136
 20
119.4579779374
 10
173.8261473315
 20
119.3641253019
 10
174.3686697396
 20
119.4094988721
 10
174.8780463773
 20
119.5907333138
 10
175.3164990755
 20
119.894387314
 10
175.6515107068
 20
120.2979400957
 10
175.858234516
 20
120.7714617456
  0
LWPOLYLINE
  5
18D
330
1F
100
AcDbEntity
  8
0
  6
HIDDEN
 62
     7
370
     0
100
AcDbPolyline
 90
       23
 70
   128
 43
0.0
 10
175.7033164563
 20
120.6647647748
 10
175.7607622954
 20
121.1539289186
 10
175.6692235308
 20
121.6384876723
 10
175.4361153531
 20
122.079184858
 10
175.0803221899
 20
122.4403163622
 10
174.6306694063
 20
122.6926256175
 10
174.1235847535
 20
122.8156738187
 10
173.6001498016
 20
122.7994902263
 10
173.1027695301
 20
122.6453870738
 10
172.6717376101
 20
122.3658487404
 10
172.3419758442
 20
121.9835221971
 10
172.1401992204
 20
121.5293804387
 10
172.0827524501
 20
121.0402153636
 10
172.1742921459
 20
120.5556566099
 10
172.4074003237
 20
120.1149603555
 10
172.7631925556
 20
119.7538283857
 10
173.2128453391
 20
119.5015186647
 10
173.7199299919
 20
119.3784709292
 10
174.2433658751
 20
119.3946540559
 10
174.7407461467
 20
119.5487572084
 10
175.1717771354
 20
119.8282955418
 10
175.5015389013
 20
120.2106220851
 10
175.7033164563
 20
120.6647647748
  0
LWPOLYLINE
  5
18E
330
1F
100
AcDbEntity
  8
0
  6
HIDDEN
 62
     7
370
     0
100
AcDbPolyline
 90
       24
 70
   128
 43
0.0
 10
175.858234516
 20
120.9082702378
 10
175.9213381397
 20
121.4166429097
 10
175.8361426132
 20
121.9221620093
 10
175.6089660289
 20
122.3873352835
 10
175.2566560122
 20
122.7776637504
 10
174.8053436118
 20
123.0641991104
 10
174.2884986984
 20
123.2256885821
 10
173.7444554406
 20
123.2501553575
 10
173.2135605949
 20
123.1357861514
 10
172.7351904797
 20
122.8910634498
 10
172.3448219659
 20
122.5341350044
 10
172.0714080098
 20
122.0914745907
 10
171.9352262976
 20
121.5959113295
 10
171.9463760915
 20
121.0841998661
 10
172.1040303769
 20
120.5942906643
 10
172.3964982616
 20
120.1625174115
 10
172.8020864489
 20
119.8209041002
 10
173.2907160136
 20
119.5947864296
 10
173.8261473315
 20
119.5009333285
 10
174.3686697396
 20
119.5463068987
 10
174.8780463773
 20
119.7275413404
 10
175.3164990755
 20
120.0311953405
 10
175.6515107068
 20
120.4347476567
 10
175.858234516
 20
120.9082702378
  0
LWPOLYLINE
  5
18F
330
1F
100
AcDbEntity
  8
0
  6
HIDDEN
 62
     7
370
     0
100
AcDbPolyline
 90
       23
 70
   128
 43
0.0
 10
175.7614104959
 20
120.965967534
 10
175.820730156
 20
121.4710833708
 10
175.7262055712
 20
121.9714429433
 10
175.4854959386
 20
122.426509505
 10
175.1181012901
 20
122.7994175831
 10
174.6537866953
 20
123.0599550734
 10
174.1301664102
 20
123.1870144809
 10
173.5896621781
 20
123.17030376
 10
173.0760629239
 20
123.0111761222
 10
172.6309764149
 20
122.7225220034
 10
172.2904615986
 20
122.3277278448
 10
172.0821042495
 20
121.8587771262
 10
172.0227855208
 20
121.3536612893
 10
172.1173091742
 20
120.8533017168
 10
172.3580188068
 20
120.3982342238
 10
172.7254134553
 20
120.025327077
 10
173.1897289815
 20
119.7647895867
 10
173.7133483353
 20
119.6377292479
 10
174.2538525673
 20
119.6544404345
 10
174.7674518215
 20
119.8135685379
 10
175.2125383305
 20
120.1022217254
 10
175.5530531468
 20
120.497015884
 10
175.7614104959
 20
120.965967534
  0
ARC
  5
190
330
1F
100
AcDbEntity
  8
0
  6
HIDDEN
 62
     7
370
     0
100
AcDbCircle
 10
173.9011828532
 20
102.7939888497
 30
0.0
 40
1.979975909621968
100
AcDbArc
 50
337.8990082622
 51
178.6487901385
  0
ARC
  5
191
330
1F
100
AcDbEntity
  8
0
  6
HIDDEN
 62
     7
370
     0
100
AcDbCircle
 10
173.8977115933
 20
102.7421950171
 30
0.0
 40
1.886191864917411
100
AcDbArc
 50
341.6547426572
 51
158.5642031426
  0
ARC
  5
192
330
1F
100
AcDbEntity
  8
0
  6
HIDDEN
 62
     7
370
     0
100
AcDbCircle
 10
173.9844749396
 20
102.7847000663
 30
0.0
 40
1.433282694329804
100
AcDbArc
 50
352.935150575
 51
93.0453053153
  0
LWPOLYLINE
  5
193
330
1F
100
AcDbEntity
  8
0
  6
HIDDEN
 62
     7
370
     0
100
AcDbPolyline
 90
       24
 70
   128
 43
0.0
 10
175.3798951345
 20
101.6911590675
 10
174.9565028536
 20
101.3691831584
 10
174.4563695925
 20
101.1664891819
 10
173.9165862041
 20
101.0981077532
 10
173.3771855893
 20
101.1691108549
 10
172.8781745719
 20
101.3742337207
 10
172.4565601858
 20
101.6982622648
 10
172.143613449
 20
102.1171646396
 10
171.9625438514
 20
102.5998737867
 10
171.9267792019
 20
103.1105878035
 10
172.0389737698
 20
103.6114307324
 10
172.2908052566
 20
104.0652577037
 10
172.6635978507
 20
104.4384088571
 10
173.1297015163
 20
104.7032099421
 10
173.6545483532
 20
104.8400226253
 10
174.1992137345
 20
104.8386987502
 10
174.7233006122
 20
104.6993379685
 10
175.18794117
 20
104.4322747009
 10
175.5586746099
 20
104.0573172475
 10
175.8080045643
 20
103.6022730375
 10
175.9174414861
 20
103.1008908729
 10
175.8788670364
 20
102.5903575326
 10
175.6951431694
 20
102.1085350046
 10
175.3798951345
 20
101.6911590675
  0
LWPOLYLINE
  5
194
330
1F
100
AcDbEntity
  8
0
  6
HIDDEN
 62
     7
370
     0
100
AcDbPolyline
 90
       21
 70
   128
 43
0.0
 10
175.0153605777
 20
102.8452092985
 10
174.6445796403
 20
102.5748659129
 10
174.2030442643
 20
102.4254212359
 10
173.7339752677
 20
102.4115044827
 10
173.2832868534
 20
102.5344781781
 10
172.8950967031
 20
102.7823040465
 10
172.6074027779
 20
103.1307239289
 10
172.4483673411
 20
103.5456309299
 10
172.4335583809
 20
103.9864128659
 10
172.5644241037
 20
104.4099210965
 10
172.8281550991
 20
104.7747005912
 10
173.1989351052
 20
105.0450439768
 10
173.6404704812
 20
105.1944881881
 10
174.1095404091
 20
105.2084049413
 10
174.5602278921
 20
105.0854312459
 10
174.9484189736
 20
104.8376053775
 10
175.2361119675
 20
104.4891854952
 10
175.3951474043
 20
104.0742784942
 10
175.4099572959
 20
103.6334965582
 10
175.279091573
 20
103.2099887932
 10
175.0153605777
 20
102.8452092985
  0
LWPOLYLINE
  5
195
330
1F
100
AcDbEntity
  8
0
  6
HIDDEN
 62
     7
370
     0
100
AcDbPolyline
 90
       24
 70
   128
 43
0.0
 10
175.3798951345
 20
101.8835451657
 10
174.9565028536
 20
101.5615701879
 10
174.4563695925
 20
101.3588752801
 10
173.9165862041
 20
101.2904938514
 10
173.3771855893
 20
101.3614969532
 10
172.8781745719
 20
101.5666198189
 10
172.4565601858
 20
101.890648363
 10
172.143613449
 20
102.3095507378
 10
171.9625438514
 20
102.7922598849
 10
171.9267792019
 20
103.302974833
 10
172.0389737698
 20
103.8038177619
 10
172.2908052566
 20
104.257643802
 10
172.6635978507
 20
104.6307949553
 10
173.1297015163
 20
104.8955965059
 10
173.6545483532
 20
105.0324087235
 10
174.1992137345
 20
105.0310853141
 10
174.7233006122
 20
104.8917240667
 10
175.18794117
 20
104.6246612648
 10
175.5586746099
 20
104.2497033457
 10
175.8080045643
 20
103.7946591357
 10
175.9174414861
 20
103.2932779024
 10
175.8788670364
 20
102.7827436308
 10
175.6951431694
 20
102.3009211028
 10
175.3798951345
 20
101.8835451657
  0
LWPOLYLINE
  5
196
330
1F
100
AcDbEntity
  8
0
  6
HIDDEN
 62
     7
370
     0
100
AcDbPolyline
 90
       23
 70
   128
 43
0.0
 10
175.2632441881
 20
101.9383544306
 10
174.8540983486
 20
101.6311437095
 10
174.3694203856
 20
101.4446947927
 10
173.8484748589
 20
101.3941137324
 10
173.333467445
 20
101.4834964851
 10
172.8661186012
 20
101.7056038807
 10
172.4842921781
 20
102.0424409042
 10
172.2189201924
 20
102.4667188729
 10
172.0915022256
 20
102.9440663958
 10
172.112360126
 20
103.4358103032
 10
172.2798054057
 20
103.9021132717
 10
172.5802714887
 20
104.3051975983
 10
172.9894163969
 20
104.6124083193
 10
173.4740952911
 20
104.7988572361
 10
173.9950398865
 20
104.8494387622
 10
174.5100482317
 20
104.7600550781
 10
174.9773961442
 20
104.5379481482
 10
175.3592234987
 20
104.2011115903
 10
175.6245954844
 20
103.7768336216
 10
175.7520134511
 20
103.2994860987
 10
175.7311546194
 20
102.8077421913
 10
175.5637102711
 20
102.3414392228
 10
175.2632441881
 20
101.9383544306
  0
LWPOLYLINE
  5
197
330
1F
100
AcDbEntity
  8
0
  6
HIDDEN
 62
     7
370
     0
100
AcDbPolyline
 90
       24
 70
   128
 43
0.0
 10
175.3798951345
 20
102.0759312639
 10
174.9565028536
 20
101.7539562861
 10
174.4563695925
 20
101.5512613783
 10
173.9165862041
 20
101.4828799496
 10
173.3771855893
 20
101.5538839827
 10
172.8781745719
 20
101.7590059171
 10
172.4565601858
 20
102.0830344612
 10
172.143613449
 20
102.5019377674
 10
171.9625438514
 20
102.9846459831
 10
171.9267792019
 20
103.4953609312
 10
172.0389737698
 20
103.9962038601
 10
172.2908052566
 20
104.4500303658
 10
172.6635978507
 20
104.8231815191
 10
173.1297015163
 20
105.0879826041
 10
173.6545483532
 20
105.2247952873
 10
174.1992137345
 20
105.2234714123
 10
174.7233006122
 20
105.0841106305
 10
175.18794117
 20
104.817047363
 10
175.5586746099
 20
104.4420894439
 10
175.8080045643
 20
103.9870452339
 10
175.9174414861
 20
103.4856640006
 10
175.8788670364
 20
102.975129729
 10
175.6951431694
 20
102.4933072011
 10
175.3798951345
 20
102.0759312639
  0
LWPOLYLINE
  5
198
330
1F
100
AcDbEntity
  8
0
  6
HIDDEN
 62
     7
370
     0
100
AcDbPolyline
 90
       23
 70
   128
 43
0.0
 10
175.2632441881
 20
102.1307405288
 10
174.8540983486
 20
101.8235298077
 10
174.3694203856
 20
101.6370818222
 10
173.8484748589
 20
101.5864998306
 10
173.333467445
 20
101.6758835147
 10
172.8661186012
 20
101.8979899789
 10
172.4842921781
 20
102.2348270024
 10
172.2189201924
 20
102.6591049711
 10
172.0915022256
 20
103.136452494
 10
172.112360126
 20
103.6281964014
 10
172.2798054057
 20
104.0944993699
 10
172.5802714887
 20
104.4975836965
 10
172.9894163969
 20
104.8047948832
 10
173.4740952911
 20
104.9912433343
 10
173.9950398865
 20
105.0418248604
 10
174.5100482317
 20
104.9524416419
 10
174.9773961442
 20
104.7303347121
 10
175.3592234987
 20
104.3934976886
 10
175.6245954844
 20
103.9692197199
 10
175.7520134511
 20
103.4918721969
 10
175.7311546194
 20
103.0001282895
 10
175.5637102711
 20
102.533825321
 10
175.2632441881
 20
102.1307405288
  0
LWPOLYLINE
  5
199
330
1F
100
AcDbEntity
  8
0
  6
HIDDEN
 62
     7
370
     0
100
AcDbPolyline
 90
       24
 70
   128
 43
0.0
 10
175.3798951345
 20
102.2683173622
 10
174.9565028536
 20
101.9463423843
 10
174.4563695925
 20
101.7436474765
 10
173.9165862041
 20
101.6752660478
 10
173.3771855893
 20
101.7462700809
 10
172.8781745719
 20
101.9513929466
 10
172.4565601858
 20
102.2754205594
 10
172.143613449
 20
102.6943238656
 10
171.9625438514
 20
103.1770320813
 10
171.9267792019
 20
103.6877470294
 10
172.0389737698
 20
104.1885899583
 10
172.2908052566
 20
104.642416464
 10
172.6635978507
 20
105.0155676174
 10
173.1297015163
 20
105.280369168
 10
173.6545483532
 20
105.4171813855
 10
174.1992137345
 20
105.4158579762
 10
174.7233006122
 20
105.2764967287
 10
175.18794117
 20
105.0094339269
 10
175.5586746099
 20
104.6344760078
 10
175.8080045643
 20
104.1794322635
 10
175.9174414861
 20
103.6780500988
 10
175.8788670364
 20
103.1675167585
 10
175.6951431694
 20
102.6856942306
 10
175.3798951345
 20
102.2683173622
  0
LWPOLYLINE
  5
19A
330
1F
100
AcDbEntity
  8
0
  6
HIDDEN
 62
     7
370
     0
100
AcDbPolyline
 90
       23
 70
   128
 43
0.0
 10
175.2632441881
 20
102.3231275583
 10
174.8540983486
 20
102.0159168372
 10
174.3694203856
 20
101.8294679204
 10
173.8484748589
 20
101.7788859288
 10
173.333467445
 20
101.8682696129
 10
172.8661186012
 20
102.0903770084
 10
172.4842921781
 20
102.4272131006
 10
172.2189201924
 20
102.8514920006
 10
172.0915022256
 20
103.3288385923
 10
172.112360126
 20
103.8205824996
 10
172.2798054057
 20
104.2868854681
 10
172.5802714887
 20
104.6899702603
 10
172.9894163969
 20
104.9971809814
 10
173.4740952911
 20
105.1836298982
 10
173.9950398865
 20
105.2342114242
 10
174.5100482317
 20
105.1448277401
 10
174.9773961442
 20
104.9227208103
 10
175.3592234987
 20
104.5858842524
 10
175.6245954844
 20
104.1616058181
 10
175.7520134511
 20
103.6842592264
 10
175.7311546194
 20
103.1925143878
 10
175.5637102711
 20
102.7262123505
 10
175.2632441881
 20
102.3231275583
  0
LWPOLYLINE
  5
19B
330
1F
100
AcDbEntity
  8
0
  6
HIDDEN
 62
     7
370
     0
100
AcDbPolyline
 90
       24
 70
   128
 43
0.0
 10
175.3798951345
 20
102.4607043917
 10
174.9565028536
 20
102.1387284825
 10
174.4563695925
 20
101.936034506
 10
173.9165862041
 20
101.8676530773
 10
173.3771855893
 20
101.9386561791
 10
172.8781745719
 20
102.1437790448
 10
172.4565601858
 20
102.467807589
 10
172.143613449
 20
102.8867099638
 10
171.9625438514
 20
103.3694191108
 10
171.9267792019
 20
103.8801331277
 10
172.0389737698
 20
104.3809765222
 10
172.2908052566
 20
104.8348030279
 10
172.6635978507
 20
105.2079541812
 10
173.1297015163
 20
105.4727552662
 10
173.6545483532
 20
105.6095679494
 10
174.1992137345
 20
105.6082440744
 10
174.7233006122
 20
105.4688832926
 10
175.18794117
 20
105.2018200251
 10
175.5586746099
 20
104.826862106
 10
175.8080045643
 20
104.3718183617
 10
175.9174414861
 20
103.870436197
 10
175.8788670364
 20
103.3599028567
 10
175.6951431694
 20
102.8780803288
 10
175.3798951345
 20
102.4607043917
  0
LWPOLYLINE
  5
19C
330
1F
100
AcDbEntity
  8
0
  6
HIDDEN
 62
     7
370
     0
100
AcDbPolyline
 90
       23
 70
   128
 43
0.0
 10
175.2632441881
 20
102.5155136565
 10
174.8540983486
 20
102.2083029354
 10
174.3694203856
 20
102.0218540187
 10
173.8484748589
 20
101.9712729583
 10
173.333467445
 20
102.0606557111
 10
172.8661186012
 20
102.2827631066
 10
172.4842921781
 20
102.6196001301
 10
172.2189201924
 20
103.0438780988
 10
172.0915022256
 20
103.5212246905
 10
172.112360126
 20
104.0129695291
 10
172.2798054057
 20
104.479272032
 10
172.5802714887
 20
104.8823563586
 10
172.9894163969
 20
105.1895675453
 10
173.4740952911
 20
105.3760159964
 10
173.9950398865
 20
105.4265975224
 10
174.5100482317
 20
105.337214304
 10
174.9773961442
 20
105.1151073741
 10
175.3592234987
 20
104.7782703506
 10
175.6245954844
 20
104.3539923819
 10
175.7520134511
 20
103.8766453246
 10
175.7311546194
 20
103.3849014173
 10
175.5637102711
 20
102.9185984487
 10
175.2632441881
 20
102.5155136565
  0
LWPOLYLINE
  5
19D
330
1F
100
AcDbEntity
  8
0
  6
HIDDEN
 62
     7
370
     0
100
AcDbPolyline
 90
       24
 70
   128
 43
0.0
 10
175.3798951345
 20
102.7856232802
 10
174.9565028536
 20
102.4636483023
 10
174.4563695925
 20
102.2609533946
 10
173.9165862041
 20
102.1925719658
 10
173.3771855893
 20
102.2635750676
 10
172.8781745719
 20
102.4686979333
 10
172.4565601858
 20
102.7927264775
 10
172.143613449
 20
103.2116288523
 10
171.9625438514
 20
103.6943379993
 10
171.9267792019
 20
104.2050529475
 10
172.0389737698
 20
104.7058958764
 10
172.2908052566
 20
105.1597219164
 10
172.6635978507
 20
105.5328730697
 10
173.1297015163
 20
105.7976746204
 10
173.6545483532
 20
105.9344868379
 10
174.1992137345
 20
105.9331634285
 10
174.7233006122
 20
105.7938021811
 10
175.18794117
 20
105.5267393793
 10
175.5586746099
 20
105.1517814601
 10
175.8080045643
 20
104.6967372502
 10
175.9174414861
 20
104.1953560168
 10
175.8788670364
 20
103.6848217452
 10
175.6951431694
 20
103.2029992173
 10
175.3798951345
 20
102.7856232802
  0
LWPOLYLINE
  5
19E
330
1F
100
AcDbEntity
  8
0
  6
HIDDEN
 62
     7
370
     0
100
AcDbPolyline
 90
       21
 70
   128
 43
0.0
 10
175.0010591882
 20
103.2224266062
 10
174.6351276475
 20
102.9556185211
 10
174.1993664714
 20
102.8081286902
 10
173.736430234
 20
102.7943944762
 10
173.2916361603
 20
102.9157597775
 10
172.908521718
 20
103.1603446434
 10
172.624590336
 20
103.5042084957
 10
172.4676354739
 20
103.9136896113
 10
172.4530192974
 20
104.3487071263
 10
172.5821732494
 20
104.7666772472
 10
172.8424555572
 20
105.1266869734
 10
173.208387098
 20
105.3934950585
 10
173.6441492053
 20
105.5409848894
 10
174.1070845115
 20
105.554719569
 10
174.5518795165
 20
105.4333542677
 10
174.9349930274
 20
105.1887689362
 10
175.2189244094
 20
104.8449055495
 10
175.3758802029
 20
104.4354239682
 10
175.3904963794
 20
104.0004069189
 10
175.2613414961
 20
103.5824358667
 10
175.0010591882
 20
103.2224266062
  0
LINE
  5
19F
330
1F
100
AcDbEntity
  8
0
  6
HIDDEN
 62
     7
370
     0
100
AcDbLine
 10
171.4217574286
 20
121.59811577
 30
0.0
 11
171.4217574286
 21
120.5744227598
 31
0.0
  0
LINE
  5
1A0
330
1F
100
AcDbEntity
  8
0
  6
HIDDEN
 62
     7
370
     0
100
AcDbLine
 10
176.4217573168
 20
120.5744227598
 30
0.0
 11
176.4217573168
 21
121.59811577
 31
0.0
  0
LINE
  5
1A1
330
1F
100
AcDbEntity
  8
0
  6
HIDDEN
 62
     7
370
     0
100
AcDbLine
 10
175.9217572349
 20
101.2505810911
 30
0.0
 11
175.9217572349
 21
104.0719511191
 31
0.0
  0
LINE
  5
1A2
330
1F
100
AcDbEntity
  8
0
  6
HIDDEN
 62
     7
370
     0
100
AcDbLine
 10
171.9217575106
 20
104.0549963916
 30
0.0
 11
171.9217575106
 21
102.5335403363
 31
0.0
  0
LINE
  5
1A3
330
1F
100
AcDbEntity
  8
0
  6
HIDDEN
 62
     7
370
     0
100
AcDbLine
 10
164.1217574893
 20
100.7154990191
 30
0.0
 11
166.0153567741
 21
101.1689879204
 31
0.0
  0
LINE
  5
1A4
330
1F
100
AcDbEntity
  8
0
  6
HIDDEN
 62
     7
370
     0
100
AcDbLine
 10
165.0371793608
 20
105.2534911985
 30
0.0
 11
164.1217574893
 21
105.0342615897
 31
0.0
  0
LINE
  5
1A5
330
1F
100
AcDbEntity
  8
0
  6
HIDDEN
 62
     7
370
     0
100
AcDbLine
 10
166.0447181153
 20
101.638744233
 30
0.0
 11
173.251778348
 21
103.3647271077
 31
0.0
  0
LINE
  5
1A6
330
1F
100
AcDbEntity
  8
0
  6
HIDDEN
 62
     7
370
     0
100
AcDbLine
 10
173.251778348
 20
106.7580409552
 30
0.0
 11
165.2761502142
 21
104.8479966091
 31
0.0
  0
LINE
  5
1A7
330
1F
100
AcDbEntity
  8
0
  6
HIDDEN
 62
     7
370
     0
100
AcDbLine
 10
175.5717578294
 20
104.1155202518
 30
0.0
 11
175.5717578294
 21
110.6583337503
 31
0.0
  0
LINE
  5
1A8
330
1F
100
AcDbEntity
  8
0
  6
HIDDEN
 62
     7
370
     0
100
AcDbLine
 10
172.2717578473
 20
104.1377602349
 30
0.0
 11
172.2717578473
 21
104.1155202518
 31
0.0
  0
LINE
  5
1A9
330
1F
100
AcDbEntity
  8
0
  6
HIDDEN
 62
     7
370
     0
100
AcDbLine
 10
172.2717578473
 20
110.6580416643
 30
0.0
 11
172.2717578473
 21
105.5156072805
 31
0.0
  0
ARC
  5
1AA
330
1F
100
AcDbEntity
  8
0
  6
HIDDEN
 62
     7
370
     0
100
AcDbCircle
 10
181.2901050726
 20
122.6094241942
 30
0.0
 40
1.000000000000014
100
AcDbArc
 50
75.0
 51
90.0
  0
ARC
  5
1AB
330
1F
100
AcDbEntity
  8
0
  6
HIDDEN
 62
     7
370
     0
100
AcDbCircle
 10
181.2901050726
 20
101.6094241942
 30
0.0
 40
1.0
100
AcDbArc
 50
270.0
 51
285.0
  0
ARC
  5
1AC
330
1F
100
AcDbEntity
  8
0
  6
HIDDEN
 62
     7
370
     0
100
AcDbCircle
 10
180.4217575702
 20
122.6094241942
 30
0.0
 40
1.000000000000014
100
AcDbArc
 50
90.0
 51
180.0
  0
ARC
  5
1AD
330
1F
100
AcDbEntity
  8
0
  6
HIDDEN
 62
     7
370
     0
100
AcDbCircle
 10
180.4217575702
 20
101.6094241942
 30
0.0
 40
1.0
100
AcDbArc
 50
180.0
 51
270.0
  0
LINE
  5
1AE
330
1F
100
AcDbEntity
  8
0
  6
HIDDEN
 62
     7
370
     0
100
AcDbLine
 10
181.2901045146
 20
123.6094242165
 30
0.0
 11
180.4217579725
 21
123.6094242165
 31
0.0
  0
LINE
  5
1AF
330
1F
100
AcDbEntity
  8
0
  6
HIDDEN
 62
     7
370
     0
100
AcDbLine
 10
180.4217579725
 20
100.6094241718
 30
0.0
 11
181.2901045146
 21
100.6094241718
 31
0.0
  0
LINE
  5
1B0
330
1F
100
AcDbEntity
  8
0
  6
HIDDEN
 62
     7
370
     0
100
AcDbLine
 10
181.548924646
 20
100.6434984709
 30
0.0
 11
183.2877821239
 21
101.1094242538
 31
0.0
  0
LINE
  5
1B1
330
1F
100
AcDbEntity
  8
0
  6
HIDDEN
 62
     7
370
     0
100
AcDbLine
 10
183.2877821239
 20
123.1094241346
 30
0.0
 11
181.548924646
 21
123.5753499175
 31
0.0
  0
LINE
  5
1B2
330
1F
100
AcDbEntity
  8
0
  6
HIDDEN
 62
     7
370
     0
100
AcDbLine
 10
193.3217584106
 20
123.1094241346
 30
0.0
 11
183.2877821239
 21
123.1094241346
 31
0.0
  0
LINE
  5
1B3
330
1F
100
AcDbEntity
  8
0
  6
HIDDEN
 62
     7
370
     0
100
AcDbLine
 10
183.2877821239
 20
101.1094242538
 30
0.0
 11
193.3217584106
 21
101.1094242538
 31
0.0
  0
ARC
  5
1B4
330
1F
100
AcDbEntity
  8
0
  6
HIDDEN
 62
     7
370
     0
100
AcDbCircle
 10
93.4717575702
 20
102.8094241942
 30
0.0
 40
0.7999999999999972
100
AcDbArc
 50
90.0
 51
180.0
  0
ARC
  5
1B5
330
1F
100
AcDbEntity
  8
0
  6
HIDDEN
 62
     7
370
     0
100
AcDbCircle
 10
93.4717575702
 20
121.4094241942
 30
0.0
 40
0.7999999999999972
100
AcDbArc
 50
180.0
 51
270.0
  0
ARC
  5
1B6
330
1F
100
AcDbEntity
  8
0
  6
HIDDEN
 62
     7
370
     0
100
AcDbCircle
 10
101.4408174625
 20
103.7844241942
 30
0.0
 40
0.4000000000000057
100
AcDbArc
 50
270.0
 51
330.0
  0
ARC
  5
1B7
330
1F
100
AcDbEntity
  8
0
  6
HIDDEN
 62
     7
370
     0
100
AcDbCircle
 10
101.4408174625
 20
120.4344241942
 30
0.0
 40
0.4000000000000057
100
AcDbArc
 50
30.0
 51
90.0
  0
LINE
  5
1B8
330
1F
100
AcDbEntity
  8
0
  6
HIDDEN
 62
     7
370
     0
100
AcDbLine
 10
100.5641310426
 20
103.3844245801
 30
0.0
 11
101.4408185097
 21
103.3844245801
 31
0.0
  0
LINE
  5
1B9
330
1F
100
AcDbEntity
  8
0
  6
HIDDEN
 62
     7
370
     0
100
AcDbLine
 10
101.4408185097
 20
120.8344238082
 30
0.0
 11
100.5641310426
 21
120.8344238082
 31
0.0
  0
ARC
  5
1BA
330
1F
100
AcDbEntity
  8
0
  6
HIDDEN
 62
     7
370
     0
100
AcDbCircle
 10
100.5641300009
 20
103.7844241942
 30
0.0
 40
0.3999999999999915
100
AcDbArc
 50
255.0
 51
270.0
  0
ARC
  5
1BB
330
1F
100
AcDbEntity
  8
0
  6
HIDDEN
 62
     7
370
     0
100
AcDbCircle
 10
100.5641300009
 20
120.4344241942
 30
0.0
 40
0.3999999999999915
100
AcDbArc
 50
90.0
 51
105.0
  0
LINE
  5
1BC
330
1F
100
AcDbEntity
  8
0
  6
HIDDEN
 62
     7
370
     0
100
AcDbLine
 10
100.4606014999
 20
120.8207948337
 30
0.0
 11
99.6717563781
 21
120.6094246561
 31
0.0
  0
LINE
  5
1BD
330
1F
100
AcDbEntity
  8
0
  6
HIDDEN
 62
     7
370
     0
100
AcDbLine
 10
99.6717563781
 20
103.6094237322
 30
0.0
 11
100.4606014999
 21
103.3980535547
 31
0.0
  0
LINE
  5
1BE
330
1F
100
AcDbEntity
  8
0
  6
HIDDEN
 62
     7
370
     0
100
AcDbLine
 10
101.787225804
 20
103.5844242404
 30
0.0
 11
102.6676869902
 21
105.1094239781
 31
0.0
  0
LINE
  5
1BF
330
1F
100
AcDbEntity
  8
0
  6
HIDDEN
 62
     7
370
     0
100
AcDbLine
 10
102.6676869902
 20
119.1094244102
 30
0.0
 11
101.787225804
 21
120.634424148
 31
0.0
  0
LINE
  5
1C0
330
1F
100
AcDbEntity
  8
0
  6
HIDDEN
 62
     7
370
     0
100
AcDbLine
 10
93.4717557343
 20
103.6094237322
 30
0.0
 11
99.6717563781
 21
103.6094237322
 31
0.0
  0
LINE
  5
1C1
330
1F
100
AcDbEntity
  8
0
  6
HIDDEN
 62
     7
370
     0
100
AcDbLine
 10
99.6717563781
 20
120.6094246561
 30
0.0
 11
93.4717557343
 21
120.6094246561
 31
0.0
  0
LINE
  5
1C2
330
1F
100
AcDbEntity
  8
0
  6
HIDDEN
 62
     7
370
     0
100
AcDbLine
 10
102.6676869902
 20
105.1094239781
 30
0.0
 11
135.671756691
 21
105.1094239781
 31
0.0
  0
LINE
  5
1C3
330
1F
100
AcDbEntity
  8
0
  6
HIDDEN
 62
     7
370
     0
100
AcDbLine
 10
135.671756691
 20
119.1094244102
 30
0.0
 11
102.6676869902
 21
119.1094244102
 31
0.0
  0
LINE
  5
1C4
330
1F
100
AcDbEntity
  8
0
  6
HIDDEN
 62
     7
370
     0
100
AcDbLine
 10
135.671756691
 20
105.1094239781
 30
0.0
 11
137.324124104
 21
107.8594239632
 31
0.0
  0
LINE
  5
1C5
330
1F
100
AcDbEntity
  8
0
  6
HIDDEN
 62
     7
370
     0
100
AcDbLine
 10
137.324124104
 20
116.3594244251
 30
0.0
 11
135.671756691
 21
119.1094244102
 31
0.0
  0
LINE
  5
1C6
330
1F
100
AcDbEntity
  8
0
  6
HIDDEN
 62
     7
370
     0
100
AcDbLine
 10
203.9217590305
 20
128.3660285378
 30
0.0
 11
203.3661506089
 21
127.8104294295
 31
0.0
  0
LINE
  5
1C7
330
1F
100
AcDbEntity
  8
0
  6
HIDDEN
 62
     7
370
     0
100
AcDbLine
 10
203.366575292
 20
96.4079905505
 30
0.0
 11
203.9217590305
 21
95.8528198505
 31
0.0
  0
LINE
  5
1C8
330
1F
100
AcDbEntity
  8
0
  6
HIDDEN
 62
     7
370
     0
100
AcDbLine
 10
137.324124104
 20
107.8594239632
 30
0.0
 11
179.4217578086
 21
107.8594239632
 31
0.0
  0
LINE
  5
1C9
330
1F
100
AcDbEntity
  8
0
  6
HIDDEN
 62
     7
370
     0
100
AcDbLine
 10
179.4217578086
 20
116.3594244251
 30
0.0
 11
137.324124104
 21
116.3594244251
 31
0.0
  0
LINE
  5
1CA
330
1F
100
AcDbEntity
  8
0
  6
HIDDEN
 62
     7
370
     0
100
AcDbLine
 10
193.3217584106
 20
96.3994242454
 30
0.0
 11
203.3758587154
 21
96.3994242454
 31
0.0
  0
LINE
  5
1CB
330
1F
100
AcDbEntity
  8
0
  6
HIDDEN
 62
     7
370
     0
100
AcDbLine
 10
203.376585147
 20
127.8194241429
 30
0.0
 11
193.3217584106
 21
127.8194241429
 31
0.0
  0
LINE
  5
1CC
330
1F
100
AcDbEntity
  8
0
  6
HIDDEN
 62
     7
370
     0
100
AcDbLine
 10
175.5717578294
 20
113.5608067241
 30
0.0
 11
175.5717578294
 21
120.1033281366
 31
0.0
  0
LINE
  5
1CD
330
1F
100
AcDbEntity
  8
0
  6
HIDDEN
 62
     7
370
     0
100
AcDbLine
 10
172.2717578473
 20
118.7032411078
 30
0.0
 11
172.2717578473
 21
113.5605146381
 31
0.0
  0
LINE
  5
1CE
330
1F
100
AcDbEntity
  8
0
  6
HIDDEN
 62
     7
370
     0
100
AcDbLine
 10
172.2717578473
 20
120.1033281366
 30
0.0
 11
172.2717578473
 21
120.0810881535
 31
0.0
  0
LINE
  5
1CF
330
1F
100
AcDbEntity
  8
0
  6
HIDDEN
 62
     7
370
     0
100
AcDbLine
 10
165.2761502142
 20
119.3708517792
 30
0.0
 11
173.251778348
 21
117.4608074332
 31
0.0
  0
LINE
  5
1D0
330
1F
100
AcDbEntity
  8
0
  6
HIDDEN
 62
     7
370
     0
100
AcDbLine
 10
173.251778348
 20
120.8541212807
 30
0.0
 11
166.0447181153
 21
122.5801041553
 31
0.0
  0
LINE
  5
1D1
330
1F
100
AcDbEntity
  8
0
  6
HIDDEN
 62
     7
370
     0
100
AcDbLine
 10
175.9217572349
 20
120.1468972693
 30
0.0
 11
175.9217572349
 21
122.9682672972
 31
0.0
  0
LINE
  5
1D2
330
1F
100
AcDbEntity
  8
0
  6
HIDDEN
 62
     7
370
     0
100
AcDbLine
 10
171.9217575106
 20
121.6853080521
 30
0.0
 11
171.9217575106
 21
120.1638519967
 31
0.0
  0
LINE
  5
1D3
330
1F
100
AcDbEntity
  8
0
  6
HIDDEN
 62
     7
370
     0
100
AcDbLine
 10
164.1217574893
 20
119.1845867986
 30
0.0
 11
165.0371793608
 21
118.9653571899
 31
0.0
  0
LINE
  5
1D4
330
1F
100
AcDbEntity
  8
0
  6
HIDDEN
 62
     7
370
     0
100
AcDbLine
 10
166.0153567741
 20
123.049860468
 30
0.0
 11
164.1217574893
 21
123.5033493693
 31
0.0
  0
LINE
  5
1D5
330
1F
100
AcDbEntity
  8
0
  6
HIDDEN
 62
     7
370
     0
100
AcDbLine
 10
166.1765128324
 20
101.3104101846
 30
0.0
 11
168.6543109777
 21
101.9038060884
 31
0.0
  0
LINE
  5
1D6
330
1F
100
AcDbEntity
  8
0
  6
HIDDEN
 62
     7
370
     0
100
AcDbLine
 10
167.7227131973
 20
105.793809166
 30
0.0
 11
165.244915052
 21
105.2004132623
 31
0.0
  0
LINE
  5
1D7
330
1F
100
AcDbEntity
  8
0
  6
HIDDEN
 62
     7
370
     0
100
AcDbLine
 10
169.217274985
 20
102.514781637
 30
0.0
 11
169.4458532097
 21
103.1621718983
 31
0.0
  0
LINE
  5
1D8
330
1F
100
AcDbEntity
  8
0
  6
HIDDEN
 62
     7
370
     0
100
AcDbLine
 10
168.9984123173
 20
105.030516276
 30
0.0
 11
168.5013701158
 21
105.5041315238
 31
0.0
  0
LINE
  5
1D9
330
1F
100
AcDbEntity
  8
0
  6
HIDDEN
 62
     7
370
     0
100
AcDbLine
 10
168.5013701158
 20
118.7147168646
 30
0.0
 11
168.9984123173
 21
119.1883321124
 31
0.0
  0
LINE
  5
1DA
330
1F
100
AcDbEntity
  8
0
  6
HIDDEN
 62
     7
370
     0
100
AcDbLine
 10
169.4458532097
 20
121.0566764901
 30
0.0
 11
169.217274985
 21
121.7040667514
 31
0.0
  0
LINE
  5
1DB
330
1F
100
AcDbEntity
  8
0
  6
HIDDEN
 62
     7
370
     0
100
AcDbLine
 10
165.244915052
 20
119.018435126
 30
0.0
 11
167.7227131973
 21
118.4250392223
 31
0.0
  0
LINE
  5
1DC
330
1F
100
AcDbEntity
  8
0
  6
HIDDEN
 62
     7
370
     0
100
AcDbLine
 10
168.6543109777
 20
122.3150423
 30
0.0
 11
166.1765128324
 21
122.9084382037
 31
0.0
  0
LINE
  5
1DD
330
1F
100
AcDbEntity
  8
0
  6
HIDDEN
 62
     7
370
     0
100
AcDbLine
 10
175.9217572349
 20
120.1468972693
 30
0.0
 11
175.9217572349
 21
120.4718170891
 31
0.0
  0
LINE
  5
1DE
330
1F
100
AcDbEntity
  8
0
  6
HIDDEN
 62
     7
370
     0
100
AcDbLine
 10
171.9217575106
 20
120.4718170891
 30
0.0
 11
171.9217575106
 21
120.1468972693
 31
0.0
  0
LINE
  5
1DF
330
1F
100
AcDbEntity
  8
0
  6
HIDDEN
 62
     7
370
     0
100
AcDbLine
 10
175.4217571529
 20
120.408894142
 30
0.0
 11
175.4217571529
 21
121.4123718644
 31
0.0
  0
LINE
  5
1E0
330
1F
100
AcDbEntity
  8
0
  6
HIDDEN
 62
     7
370
     0
100
AcDbLine
 10
172.4217575925
 20
121.4123718644
 30
0.0
 11
172.4217575925
 21
120.408894142
 31
0.0
  0
LINE
  5
1E1
330
1F
100
AcDbEntity
  8
0
  6
HIDDEN
 62
     7
370
     0
100
AcDbLine
 10
175.9217572349
 20
121.2413624133
 30
0.0
 11
175.9217572349
 21
121.3781699742
 31
0.0
  0
LINE
  5
1E2
330
1F
100
AcDbEntity
  8
0
  6
HIDDEN
 62
     7
370
     0
100
AcDbLine
 10
171.9217575106
 20
121.3781699742
 30
0.0
 11
171.9217575106
 21
121.2413624133
 31
0.0
  0
LINE
  5
1E3
330
1F
100
AcDbEntity
  8
0
  6
HIDDEN
 62
     7
370
     0
100
AcDbLine
 10
171.9217575106
 20
102.9774859751
 30
0.0
 11
171.9217575106
 21
102.8406784142
 31
0.0
  0
LINE
  5
1E4
330
1F
100
AcDbEntity
  8
0
  6
HIDDEN
 62
     7
370
     0
100
AcDbLine
 10
175.9217572349
 20
102.8406784142
 30
0.0
 11
175.9217572349
 21
102.9774859751
 31
0.0
  0
LINE
  5
1E5
330
1F
100
AcDbEntity
  8
0
  6
HIDDEN
 62
     7
370
     0
100
AcDbLine
 10
172.4217575925
 20
103.8099542464
 30
0.0
 11
172.4217575925
 21
102.806476524
 31
0.0
  0
LINE
  5
1E6
330
1F
100
AcDbEntity
  8
0
  6
HIDDEN
 62
     7
370
     0
100
AcDbLine
 10
175.4217571529
 20
102.806476524
 30
0.0
 11
175.4217571529
 21
103.8099542464
 31
0.0
  0
LINE
  5
1E7
330
1F
100
AcDbEntity
  8
0
  6
HIDDEN
 62
     7
370
     0
100
AcDbLine
 10
171.9217575106
 20
104.0719511191
 30
0.0
 11
171.9217575106
 21
103.7470312993
 31
0.0
  0
LINE
  5
1E8
330
1F
100
AcDbEntity
  8
0
  6
HIDDEN
 62
     7
370
     0
100
AcDbLine
 10
175.9217572349
 20
103.7470312993
 30
0.0
 11
175.9217572349
 21
104.0719511191
 31
0.0
  0
CIRCLE
  5
1E9
330
1F
100
AcDbEntity
  8
0
  6
HIDDEN
 62
     7
370
     0
100
AcDbCircle
 10
173.9217575702
 20
120.830937849
 30
0.0
 40
1.499999999999995
  0
ARC
  5
1EA
330
1F
100
AcDbEntity
  8
0
  6
HIDDEN
 62
     7
370
     0
100
AcDbCircle
 10
173.9217575702
 20
103.3879105394
 30
0.0
 40
1.500000000000007
100
AcDbArc
 50
336.5459085336
 51
191.5274417157
  0
DIMENSION
  5
1EB
330
1F
100
AcDbEntity
  8
VERMASSUNG
100
AcDbDimension
  2
_D
 10
83.8951125131
 20
143.8594241942
 30
0.0
 11
83.8951125131
 21
112.1094241942
 31
0.0
 70
   160
  1
ISO 40 %%c<>
 71
     2
 42
-1.0
  3
SLDDIMSTYLE0
100
AcDbAlignedDimension
 13
179.3717575702
 23
80.3594241942
 33
0.0
 14
179.3717575702
 24
143.8594241942
 34
0.0
 50
90.0
100
AcDbRotatedDimension
  0
DIMENSION
  5
1F8
330
1F
100
AcDbEntity
  8
VERMASSUNG
100
AcDbDimension
  2
_D_1
 10
211.08036621
 20
101.1094241942
 30
0.0
 11
211.08036621
 21
112.1094241942
 31
0.0
 70
   160
  1
%%c<>
 71
     2
 42
-1.0
  3
SLDDIMSTYLE0
100
AcDbAlignedDimension
 13
193.3217575702
 23
123.1094241942
 33
0.0
 14
193.3217575702
 24
101.1094241942
 34
0.0
 50
90.0
100
AcDbRotatedDimension
  0
DIMENSION
  5
203
330
1F
100
AcDbEntity
  8
VERMASSUNG
100
AcDbDimension
  2
_D_2
 10
203.9217575702
 20
146.3985056782
 30
0.0
 11
191.9467575702
 21
146.3985056782
 31
0.0
 70
   160
  1
(<>)
 71
     2
 42
-1.0
  3
SLDDIMSTYLE0
100
AcDbAlignedDimension
 13
179.9717575702
 23
137.2808365503
 33
0.0
 14
203.9217575702
 24
131.2094241942
 34
0.0
100
AcDbRotatedDimension
  0
DIMENSION
  5
20F
330
1F
100
AcDbEntity
  8
VERMASSUNG
100
AcDbDimension
  2
_D_3
 10
203.9217575702
 20
152.3985056782
 30
0.0
 11
182.4217575702
 21
152.3985056782
 31
0.0
 70
   160
  1
<>
 71
     2
 42
-1.0
  3
SLDDIMSTYLE0
100
AcDbAlignedDimension
 13
160.9217575702
 23
134.3344241942
 33
0.0
 14
203.9217575702
 24
131.2094241942
 34
0.0
100
AcDbRotatedDimension
  0
DIMENSION
  5
219
330
1F
100
AcDbEntity
  8
VERMASSUNG
100
AcDbDimension
  2
_D_4
 10
203.9217575702
 20
158.3985056782
 30
0.0
 11
148.2967575702
 21
158.3985056782
 31
0.0
 70
   160
  1
(<>)
 71
     2
 42
-1.0
  3
SLDDIMSTYLE0
100
AcDbAlignedDimension
 13
92.6717575702
 23
123.5165547912
 33
0.0
 14
203.9217575702
 24
131.2094241942
 34
0.0
100
AcDbRotatedDimension
  0
DIMENSION
  5
225
330
1F
100
AcDbEntity
  8
VERMASSUNG
100
AcDbDimension
  2
_D_5
 10
217.08036621
 20
92.6094241942
 30
0.0
 11
217.08036621
 21
112.1094241942
 31
0.0
 70
   160
  1
ST4 %%c<>
 71
     2
 42
-1.0
  3
SLDDIMSTYLE0
100
AcDbAlignedDimension
 13
203.5217575702
 23
131.6094241942
 33
0.0
 14
203.5217575702
 24
92.6094241942
 34
0.0
 50
90.0
100
AcDbRotatedDimension
  0
LINE
  5
231
330
1F
100
AcDbEntity
  8
VERMASSUNG
  6
CENTERX2
 62
     7
370
     0
100
AcDbLine
 10
90.6717575702
 20
112.1094241942
 30
0.0
 11
205.9920436206
 21
112.1094241942
 31
0.0
  0
LINE
  5
232
330
1F
100
AcDbEntity
  8
0
  6
Continuous
 62
     7
370
    15
100
AcDbLine
 10
272.8385104454
 20
49.2134912749
 30
0.0
 11
272.5697651818
 21
49.3686852293
 31
0.0
  0
LINE
  5
233
330
1F
100
AcDbEntity
  8
0
  6
Continuous
 62
     7
370
    15
100
AcDbLine
 10
267.4494809505
 20
49.3686848928
 30
0.0
 11
267.1807366389
 21
49.213491678
 31
0.0
  0
LINE
  5
234
330
1F
100
AcDbEntity
  8
0
  6
Continuous
 62
     7
370
    15
100
AcDbLine
 10
274.0096222052
 20
47.0746861166
 30
0.0
 11
274.0096222052
 21
47.5809414726
 31
0.0
  0
LINE
  5
235
330
1F
100
AcDbEntity
  8
0
  6
Continuous
 62
     7
370
    15
100
AcDbLine
 10
266.0096228637
 20
47.5809410924
 30
0.0
 11
266.0096228637
 21
47.0746857365
 31
0.0
  0
LINE
  5
236
330
1F
100
AcDbEntity
  8
0
  6
Continuous
 62
     7
370
    15
100
AcDbLine
 10
276.8354436092
 20
12.1082593614
 30
0.0
 11
277.1182425054
 21
12.2715672486
 31
0.0
  0
LINE
  5
237
330
1F
100
AcDbEntity
  8
0
  6
Continuous
 62
     7
370
    15
100
AcDbLine
 10
290.6217864114
 20
35.6629260847
 30
0.0
 11
290.6217850944
 21
35.9894910557
 31
0.0
  0
LINE
  5
238
330
1F
100
AcDbEntity
  8
0
  6
Continuous
 62
     7
370
    15
100
AcDbLine
 10
286.5824100596
 20
44.9174648797
 30
0.0
 11
272.7584742387
 21
52.8978531618
 31
0.0
  0
LINE
  5
239
330
1F
100
AcDbEntity
  8
0
  6
Continuous
 62
     7
370
    15
100
AcDbLine
 10
253.2600592728
 20
19.1219470047
 30
0.0
 11
267.0839950938
 21
11.1415587226
 31
0.0
  0
SPLINE
  5
23A
330
1F
100
AcDbEntity
  8
0
  6
Continuous
 62
     7
370
    15
100
AcDbSpline
210
0.0
220
0.0
230
1.0
 70
     8
 71
     3
 72
    32
 73
    28
 74
     0
 42
0.000000001
 43
0.00000001
 40
0.0
 40
0.0
 40
0.0
 40
0.0
 40
0.0090862833404515
 40
0.0502490168160589
 40
0.0915184275901941
 40
0.1329497655624537
 40
0.1745293928146775
 40
0.2162254921269943
 40
0.258001236001542
 40
0.2998236479621514
 40
0.3416675000941471
 40
0.383513493020816
 40
0.4253509946411263
 40
0.4671757694238724
 40
0.5089864391136004
 40
0.5507835066404406
 40
0.5925684928744902
 40
0.634343623315636
 40
0.6761114097716281
 40
0.7178746277665965
 40
0.759636109516068
 40
0.8013986712016656
 40
0.8431643175791922
 40
0.8849359877463931
 40
0.9267166229655034
 40
0.9685090816425505
 40
1.0
 40
1.0
 40
1.0
 40
1.0
 10
262.2736827477535
 20
72.54875929946009
 30
0.0
 10
262.1657791750838
 20
72.57634184866328
 30
0.0
 10
261.5690502118286
 20
72.72887902220384
 30
0.0
 10
260.4294462063077
 20
72.88056784249977
 30
0.0
 10
258.8346461899965
 20
72.92972361657718
 30
0.0
 10
257.1776693492832
 20
72.78957521427866
 30
0.0
 10
255.4719772089381
 20
72.46934251388255
 30
0.0
 10
253.7274259670241
 20
71.96823318245701
 30
0.0
 10
251.9557119056565
 20
71.28998890801233
 30
0.0
 10
250.1683554470123
 20
70.43893290308421
 30
0.0
 10
248.3769527953968
 20
69.42085937277565
 30
0.0
 10
246.5929053757975
 20
68.24260390140482
 30
0.0
 10
244.8273792151403
 20
66.91198387230968
 30
0.0
 10
243.0912552866785
 20
65.43763043816644
 30
0.0
 10
241.3951471672053
 20
63.82897273902493
 30
0.0
 10
239.7494046917633
 20
62.09618776242679
 30
0.0
 10
238.1640667228645
 20
60.25016653630804
 30
0.0
 10
236.6488214921762
 20
58.30244414602299
 30
0.0
 10
235.2129466328585
 20
56.26515254116629
 30
0.0
 10
233.8652550790534
 20
54.15094022775963
 30
0.0
 10
232.6140717423663
 20
51.97291616868206
 30
0.0
 10
231.4670582537565
 20
49.7445507889081
 30
0.0
 10
230.4316653020142
 20
47.47969966919952
 30
0.0
 10
229.5131613820087
 20
45.19206961756101
 30
0.0
 10
228.7218496630469
 20
42.89676505739243
 30
0.0
 10
228.1014815020841
 20
40.79272191245337
 30
0.0
 10
227.8001479645635
 20
39.4689138094184
 30
0.0
 10
227.670660620879
 20
38.90005447759503
 30
0.0
  0
SPLINE
  5
23B
330
1F
100
AcDbEntity
  8
0
  6
Continuous
 62
     7
370
    15
100
AcDbSpline
210
0.0
220
0.0
230
1.0
 70
     8
 71
     3
 72
    22
 73
    18
 74
     0
 42
0.000000001
 43
0.00000001
 40
0.0
 40
0.0
 40
0.0
 40
0.0
 40
0.0074376053505556
 40
0.0796242185602519
 40
0.1519012040080252
 40
0.2242005962526994
 40
0.2964617408980549
 40
0.3686262020836312
 40
0.4406432430511302
 40
0.5124673327662029
 40
0.5840691202881207
 40
0.6554601861789958
 40
0.7267422037263018
 40
0.7980895851149499
 40
0.8699626332939059
 40
0.9431876365658395
 40
1.0
 40
1.0
 40
1.0
 40
1.0
 10
270.0664641451179
 20
28.53311523390979
 30
0.0
 10
270.0835480762357
 20
28.57929574897665
 30
0.0
 10
270.2664422472867
 20
29.07368705526367
 30
0.0
 10
270.69399151356
 20
30.01248405900791
 30
0.0
 10
271.3893903986628
 20
31.31817597696081
 30
0.0
 10
272.1868093938832
 20
32.56636808151041
 30
0.0
 10
273.0633820415496
 20
33.73374007346701
 30
0.0
 10
274.0042336022819
 20
34.79863376170216
 30
0.0
 10
274.9902307891916
 20
35.74170263605008
 30
0.0
 10
276.0017119279793
 20
36.54632732098616
 30
0.0
 10
277.0179068107354
 20
37.1991349425348
 30
0.0
 10
278.0179578396305
 20
37.69077985680359
 30
0.0
 10
278.9809861530695
 20
38.01561788031016
 30
0.0
 10
279.8894399432176
 20
38.17485956197621
 30
0.0
 10
280.7258971717966
 20
38.16580987449321
 30
0.0
 10
281.4324610506841
 20
38.02887800258395
 30
0.0
 10
281.8176260310772
 20
37.82479091769024
 30
0.0
 10
281.985901761373
 20
37.73562678023576
 30
0.0
  0
SPLINE
  5
23C
330
1F
100
AcDbEntity
  8
0
  6
Continuous
 62
     7
370
    15
100
AcDbSpline
210
0.0
220
0.0
230
1.0
 70
     8
 71
     3
 72
    10
 73
     6
 74
     0
 42
0.000000001
 43
0.00000001
 40
0.0
 40
0.0
 40
0.0
 40
0.0
 40
0.1177704579623228
 40
0.607460365848549
 40
1.0
 40
1.0
 40
1.0
 40
1.0
 10
271.1148067450039
 20
18.64996084451833
 30
0.0
 10
271.0571366005132
 20
18.67591153697134
 30
0.0
 10
270.7596738269368
 20
18.80976528437352
 30
0.0
 10
270.3505157363026
 20
19.17026857509037
 30
0.0
 10
270.0462622891373
 20
19.59074128962022
 30
0.0
 10
269.9108876149185
 20
19.77782662021456
 30
0.0
  0
LINE
  5
23D
330
1F
100
AcDbEntity
  8
0
  6
Continuous
 62
     7
370
    15
100
AcDbLine
 10
247.2031956009
 20
68.6181976121
 30
0.0
 11
204.5809899078
 21
83.9775520817
 31
0.0
  0
LINE
  5
23E
330
1F
100
AcDbEntity
  8
0
  6
Continuous
 62
     7
370
    15
100
AcDbLine
 10
192.2514259185
 20
62.6198067911
 30
0.0
 11
232.8439021136
 21
28.343856616
 31
0.0
  0
SPLINE
  5
23F
330
1F
100
AcDbEntity
  8
0
  6
Continuous
 62
     7
370
    15
100
AcDbSpline
210
0.0
220
0.0
230
1.0
 70
     8
 71
     3
 72
    16
 73
    12
 74
     0
 42
0.000000001
 43
0.00000001
 40
0.0
 40
0.0
 40
0.0
 40
0.0
 40
0.0192729781778833
 40
0.1453201594057411
 40
0.271854761448579
 40
0.3988095845880729
 40
0.5260777166857111
 40
0.653548892353917
 40
0.781130714568743
 40
0.9087556573361187
 40
1.0
 40
1.0
 40
1.0
 40
1.0
 10
249.0810774122206
 20
8.887573227889648
 30
0.0
 10
249.1603095823905
 20
8.878965020991087
 30
0.0
 10
249.7577279726824
 20
8.81405829058586
 30
0.0
 10
250.935206413117
 20
8.868114750978034
 30
0.0
 10
252.6064402149132
 20
9.061087603646039
 30
0.0
 10
254.3293368799324
 20
9.45289268471964
 30
0.0
 10
256.0849640569415
 20
10.01978805675995
 30
0.0
 10
257.8641096224819
 20
10.76223484668173
 30
0.0
 10
259.6537863723232
 20
11.68055651216229
 30
0.0
 10
261.2754658240892
 20
12.6423134256865
 30
0.0
 10
262.2898168171684
 20
13.36413866799233
 30
0.0
 10
262.7126892609267
 20
13.66506015006606
 30
0.0
  0
LINE
  5
240
330
1F
100
AcDbEntity
  8
0
  6
Continuous
 62
     7
370
    15
100
AcDbLine
 10
241.1759453583
 20
11.9532597917
 30
0.0
 11
243.8828648995
 21
10.3905884029
 31
0.0
  0
LINE
  5
241
330
1F
100
AcDbEntity
  8
0
  6
Continuous
 62
     7
370
    15
100
AcDbLine
 10
233.5237510304
 20
16.3707775477
 30
0.0
 11
236.1953159511
 21
14.8285159469
 31
0.0
  0
SPLINE
  5
242
330
1F
100
AcDbEntity
  8
0
  6
Continuous
 62
     7
370
    15
100
AcDbSpline
210
0.0
220
0.0
230
1.0
 70
     8
 71
     3
 72
    11
 73
     7
 74
     0
 42
0.000000001
 43
0.00000001
 40
0.0
 40
0.0
 40
0.0
 40
0.0
 40
0.1172116533609816
 40
0.4808911828553006
 40
0.8440155784706895
 40
0.9999999999999999
 40
0.9999999999999999
 40
0.9999999999999999
 40
0.9999999999999999
 10
227.6837315769096
 20
24.36501919048522
 30
0.0
 10
227.7377621578381
 20
24.18119156948559
 30
0.0
 10
227.9594366179111
 20
23.4269911161251
 30
0.0
 10
228.4535904429069
 20
22.1967063578447
 30
0.0
 10
229.0441310346977
 20
20.98015243583477
 30
0.0
 10
229.4746371650069
 20
20.35658860277213
 30
0.0
 10
229.603997806713
 20
20.1692170140523
 30
0.0
  0
SPLINE
  5
243
330
1F
100
AcDbEntity
  8
0
  6
Continuous
 62
     7
370
    15
100
AcDbSpline
210
0.0
220
0.0
230
1.0
 70
     8
 71
     3
 72
    12
 73
     8
 74
     0
 42
0.000000001
 43
0.00000001
 40
0.0
 40
0.0
 40
0.0
 40
0.0
 40
0.092519472273242
 40
0.3278626642611225
 40
0.5628433156348515
 40
0.797086680621113
 40
1.0
 40
1.0
 40
1.0
 40
1.0
 10
281.4979209395024
 20
57.30026415395611
 30
0.0
 10
281.4318131569217
 20
57.52428700775146
 30
0.0
 10
281.1975460000439
 20
58.31816020974944
 30
0.0
 10
280.694239437138
 20
59.59264522961821
 30
0.0
 10
279.9377360766458
 20
61.06103424636848
 30
0.0
 10
279.0971496074103
 20
62.33571446341596
 30
0.0
 10
278.4556002686462
 20
63.04777010342873
 30
0.0
 10
278.1578148051504
 20
63.37828220278568
 30
0.0
  0
SPLINE
  5
244
330
1F
100
AcDbEntity
  8
0
  6
Continuous
 62
     7
370
    15
100
AcDbSpline
210
0.0
220
0.0
230
1.0
 70
     8
 71
     3
 72
    25
 73
    21
 74
     0
 42
0.000000001
 43
0.00000001
 40
0.0
 40
0.0
 40
0.0
 40
0.0
 40
0.0284545923469404
 40
0.083227052690217
 40
0.1389412224044042
 40
0.1958383283661586
 40
0.2537344121117195
 40
0.3122307618536715
 40
0.370958681028374
 40
0.4296502491410901
 40
0.4882378451250147
 40
0.5467192617028147
 40
0.6051221096973685
 40
0.6634864946524845
 40
0.7218577046352647
 40
0.7802713008701714
 40
0.8387722141475965
 40
0.8974086415524684
 40
0.956223556583766
 40
0.9999999999999999
 40
0.9999999999999999
 40
0.9999999999999999
 40
0.9999999999999999
 10
204.3101117831165
 20
84.0413304149456
 30
0.0
 10
204.1474597735182
 20
84.09432576400042
 30
0.0
 10
203.671717678606
 20
84.24933226187409
 30
0.0
 10
202.8087854532206
 20
84.30832793686186
 30
0.0
 10
201.7449150284812
 20
84.23195003550238
 30
0.0
 10
200.6348550677399
 20
83.96447282378381
 30
0.0
 10
199.4981535193996
 20
83.51890456071939
 30
0.0
 10
198.3528210301602
 20
82.89773008525842
 30
0.0
 10
197.2202506534982
 20
82.11325058274595
 30
0.0
 10
196.1200979672557
 20
81.18036190765048
 30
0.0
 10
195.0700451942737
 20
80.11624490706382
 30
0.0
 10
194.085728297142
 20
78.9387904353253
 30
0.0
 10
193.1816369959631
 20
77.6669341662658
 30
0.0
 10
192.3711700199881
 20
76.32057962919572
 30
0.0
 10
191.666621310464
 20
74.92042408765879
 30
0.0
 10
191.0792319900621
 20
73.48789154283887
 30
0.0
 10
190.6178256299289
 20
72.04406074570844
 30
0.0
 10
190.2937436761559
 20
70.61173717230074
 30
0.0
 10
190.118710477561
 20
69.32748009863546
 30
0.0
 10
190.0996151937279
 20
68.54722756847804
 30
0.0
 10
190.0914671038217
 20
68.21428840816581
 30
0.0
  0
SPLINE
  5
245
330
1F
100
AcDbEntity
  8
0
  6
Continuous
 62
     7
370
    15
100
AcDbSpline
210
0.0
220
0.0
230
1.0
 70
     8
 71
     3
 72
    13
 73
     9
 74
     0
 42
0.000000001
 43
0.00000001
 40
0.0
 40
0.0
 40
0.0
 40
0.0
 40
0.1008347408105707
 40
0.2914524096741826
 40
0.4820992879175727
 40
0.6712206755046068
 40
0.857142098922728
 40
1.0
 40
1.0
 40
1.0
 40
1.0
 10
190.0914671038217
 20
68.21428840816583
 30
0.0
 10
190.0957195010945
 20
67.98102654614485
 30
0.0
 10
190.108010616459
 20
67.30680721236568
 30
0.0
 10
190.2458319525965
 20
66.2516955303908
 30
0.0
 10
190.5554531048264
 20
65.0970160833939
 30
0.0
 10
191.024437959529
 20
64.07349133420871
 30
0.0
 10
191.5800890583962
 20
63.24127737565506
 30
0.0
 10
192.0378857163058
 20
62.83263168582316
 30
0.0
 10
192.2368029376655
 20
62.6550710511231
 30
0.0
  0
LWPOLYLINE
  5
246
330
1F
100
AcDbEntity
  8
0
  6
Continuous
 62
     7
370
    15
100
AcDbPolyline
 90
       26
 70
   128
 43
0.0
 10
266.9050279682
 20
48.9659574979
 10
267.4655484143
 20
49.3779056978
 10
268.1859221021
 20
49.6964405828
 10
269.0208860328
 20
49.9015470287
 10
269.9179745416
 20
49.9803383772
 10
270.8208229277
 20
49.9278626096
 10
271.6727017799
 20
49.7474166999
 10
272.4200819664
 20
49.4503403483
 10
273.0160033369
 20
49.0552995046
 10
273.4230241786
 20
48.5871149703
 10
273.6155669523
 20
48.0752059837
 10
273.5815371588
 20
47.551735848
 10
273.3230698816
 20
47.0495976492
 10
272.85640666
 20
46.6003419638
 10
272.2108692292
 20
46.2321975528
 10
271.4270181687
 20
45.968296694
 10
270.5541096032
 20
45.8252191326
 10
269.6469890742
 20
45.811956249
 10
268.7626522096
 20
45.9293428482
 10
267.9566666656
 20
46.1700019284
 10
267.2796792894
 20
46.5188100555
 10
266.7742210256
 20
46.9538539657
 10
266.4720562746
 20
47.4477957543
 10
266.392169722
 20
47.9695999866
 10
266.5395819467
 20
48.4864792162
 10
266.9050279682
 20
48.9659574979
  0
LWPOLYLINE
  5
247
330
1F
100
AcDbEntity
  8
0
  6
Continuous
 62
     7
370
    15
100
AcDbPolyline
 90
        3
 70
   128
 43
0.0
 10
266.5791314957
 20
48.7684888206
 10
267.1711160999
 20
49.2079165695
 10
267.1807366389
 20
49.213491678
  0
LWPOLYLINE
  5
248
330
1F
100
AcDbEntity
  8
0
  6
Continuous
 62
     7
370
    15
100
AcDbPolyline
 90
       21
 70
   128
 43
0.0
 10
272.8385104454
 20
49.2134912749
 10
273.149529492
 20
49.0115187337
 10
273.6513369497
 20
48.5361586873
 10
273.9415030199
 20
48.0052841773
 10
274.003161719
 20
47.4497486322
 10
273.8327317997
 20
46.9018367717
 10
273.4401148903
 20
46.393392984
 10
272.8481302861
 20
45.9539652351
 10
272.0911834364
 20
45.6090905407
 10
271.2132628533
 20
45.378813181
 10
270.2653921664
 20
45.2765148974
 10
269.3026544256
 20
45.3081429216
 10
268.381007228
 20
45.471855569
 10
267.5540045653
 20
45.7581431811
 10
266.8697182111
 20
46.1503623106
 10
266.3679081192
 20
46.6257238777
 10
266.0777433661
 20
47.1565976273
 10
266.016084667
 20
47.7121331724
 10
266.1865159034
 20
48.2600442726
 10
266.5791314957
 20
48.7684888206
 10
266.5791314957
 20
48.7684888206
  0
LWPOLYLINE
  5
249
330
1F
100
AcDbEntity
  8
0
  6
Continuous
 62
     7
370
    15
100
AcDbPolyline
 90
       21
 70
   128
 43
0.0
 10
267.9513276395
 20
48.6037555425
 10
268.4334787064
 20
48.9360643126
 10
269.0699126134
 20
49.1660977638
 10
269.7983329742
 20
49.2713372774
 10
270.5474357485
 20
49.2414820794
 10
271.2438931577
 20
49.079454819
 10
271.8195326744
 20
48.8011146536
 10
272.2180042914
 20
48.4337092924
 10
272.4003044754
 20
48.0132016916
 10
272.3485893868
 20
47.5807536273
 10
272.0679174294
 20
47.1786982021
 10
271.5857689967
 20
46.8463879113
 10
270.9493324555
 20
46.6163559807
 10
270.2209134118
 20
46.5111157068
 10
269.4718119546
 20
46.5409701445
 10
268.7753545454
 20
46.7029974048
 10
268.1997150287
 20
46.9813375703
 10
267.8012434117
 20
47.3487429315
 10
267.6189432277
 20
47.7692505323
 10
267.6706583163
 20
48.2016985966
 10
267.9513276395
 20
48.6037555425
  0
SPLINE
  5
24A
330
1F
100
AcDbEntity
  8
0
  6
Continuous
 62
     7
370
    15
100
AcDbSpline
210
0.0
220
0.0
230
1.0
 70
     8
 71
     3
 72
    11
 73
     7
 74
     0
 42
0.000000001
 43
0.00000001
 40
0.0
 40
0.0
 40
0.0
 40
0.0
 40
0.1285560857061957
 40
0.4801535650591569
 40
0.8150691150127094
 40
1.0
 40
1.0
 40
1.0
 40
1.0
 10
267.7005395263841
 20
47.83933571100039
 30
0.0
 10
267.7483705776726
 20
47.84938962434052
 30
0.0
 10
267.9270182836174
 20
47.88694072358675
 30
0.0
 10
268.262024341247
 20
48.07985594816689
 30
0.0
 10
268.6247651709765
 20
48.5348928610176
 30
0.0
 10
268.8190873735071
 20
48.86520386195661
 30
0.0
 10
268.8882158208163
 20
48.98270915124773
 30
0.0
  0
SPLINE
  5
24B
330
1F
100
AcDbEntity
  8
0
  6
Continuous
 62
     7
370
    15
100
AcDbSpline
210
0.0
220
0.0
230
1.0
 70
     8
 71
     3
 72
    10
 73
     6
 74
     0
 42
0.000000001
 43
0.00000001
 40
0.0
 40
0.0
 40
0.0
 40
0.0
 40
0.0423317254167814
 40
0.5754796979074401
 40
1.0
 40
1.0
 40
1.0
 40
1.0
 10
268.3593509918468
 20
46.92031405121696
 30
0.0
 10
268.3501464111312
 20
46.92498312430244
 30
0.0
 10
268.2250145088179
 20
46.98845695491722
 30
0.0
 10
267.9862096220215
 20
47.33619871446862
 30
0.0
 10
267.7882791860408
 20
47.68480406939523
 30
0.0
 10
267.7005395263841
 20
47.83933571100039
 30
0.0
  0
SPLINE
  5
24C
330
1F
100
AcDbEntity
  8
0
  6
Continuous
 62
     7
370
    15
100
AcDbSpline
210
0.0
220
0.0
230
1.0
 70
     8
 71
     3
 72
    10
 73
     6
 74
     0
 42
0.000000001
 43
0.00000001
 40
0.0
 40
0.0
 40
0.0
 40
0.0
 40
0.2594465704720446
 40
0.7293128792655927
 40
1.0
 40
1.0
 40
1.0
 40
1.0
 10
272.3187081767057
 20
47.79516085278254
 30
0.0
 10
272.2496991300835
 20
47.67861667486782
 30
0.0
 10
272.0557124206201
 20
47.35100714122866
 30
0.0
 10
271.7555772147162
 20
46.9512866598864
 30
0.0
 10
271.5445351757522
 20
46.844042920219
 30
0.0
 10
271.4673950807863
 20
46.80484318398139
 30
0.0
  0
SPLINE
  5
24D
330
1F
100
AcDbEntity
  8
0
  6
Continuous
 62
     7
370
    15
100
AcDbSpline
210
0.0
220
0.0
230
1.0
 70
     8
 71
     3
 72
    10
 73
     6
 74
     0
 42
0.000000001
 43
0.00000001
 40
0.0
 40
0.0
 40
0.0
 40
0.0
 40
0.4391216669782367
 40
0.7513715173142315
 40
1.0
 40
1.0
 40
1.0
 40
1.0
 10
271.197298828888
 20
48.96062248247812
 30
0.0
 10
271.3578390051526
 20
48.68192503758752
 30
0.0
 10
271.6325358031036
 20
48.20505191155836
 30
0.0
 10
272.0318546176748
 20
47.87512013652786
 30
0.0
 10
272.2306051938141
 20
47.8197192073368
 30
0.0
 10
272.3187081767057
 20
47.79516085278254
 30
0.0
  0
SPLINE
  5
24E
330
1F
100
AcDbEntity
  8
0
  6
Continuous
 62
     7
370
    15
100
AcDbSpline
210
0.0
220
0.0
230
1.0
 70
     8
 71
     3
 72
    10
 73
     6
 74
     0
 42
0.000000001
 43
0.00000001
 40
0.0
 40
0.0
 40
0.0
 40
0.0
 40
0.4391219715632275
 40
0.7513718485513258
 40
1.0
 40
1.0
 40
1.0
 40
1.0
 10
268.8882158208163
 20
48.98270915124773
 30
0.0
 10
269.2187832782652
 20
48.86769712916749
 30
0.0
 10
269.7844099097227
 20
48.67090261367461
 30
0.0
 10
270.6066416405972
 20
48.74810790985824
 30
0.0
 10
271.0158869897771
 20
48.89535169559684
 30
0.0
 10
271.197298828888
 20
48.96062248247812
 30
0.0
  0
LINE
  5
24F
330
1F
100
AcDbEntity
  8
0
  6
Continuous
 62
     7
370
    15
100
AcDbLine
 10
271.1972988289
 20
46.6872779853
 30
0.0
 11
271.1972988289
 21
48.9606224825
 31
0.0
  0
LINE
  5
250
330
1F
100
AcDbEntity
  8
0
  6
Continuous
 62
     7
370
    15
100
AcDbLine
 10
268.8882158208
 20
46.6662813895
 30
0.0
 11
268.8882158208
 21
48.9827091512
 31
0.0
  0
LWPOLYLINE
  5
251
330
1F
100
AcDbEntity
  8
0
  6
Continuous
 62
     7
370
    15
100
AcDbPolyline
 90
       59
 70
   128
 43
0.0
 10
277.1160474429
 20
43.4621578049
 10
275.6558201561
 20
42.5277636866
 10
274.2127127217
 20
41.4214746411
 10
272.8036441357
 20
40.1562639084
 10
271.4451343166
 20
38.746962577
 10
270.1531114802
 20
37.2100951517
 10
268.9427218211
 20
35.5636799498
 10
267.8281576318
 20
33.8270188494
 10
266.8224850941
 20
32.0204723986
 10
265.9374954472
 20
30.1652218046
 10
265.1835634014
 20
28.283017614
 10
264.5695299167
 20
26.39592725
 10
264.1025928846
 20
24.5260745645
 10
263.788226127
 20
22.6953820481
 10
263.630114859
 20
20.9253123747
 10
263.630114859
 20
19.2366191628
 10
263.788226127
 20
17.6491008738
 10
264.1025928846
 20
16.1813684899
 10
264.5695299167
 20
14.8506298263
 10
265.1835634014
 20
13.6724874334
 10
265.9374954472
 20
12.6607546543
 10
266.8224850941
 20
11.8272913572
 10
267.8281576318
 20
11.1818697033
 10
268.9427218211
 20
10.7320570244
 10
270.1531114802
 20
10.4831279767
 10
271.4451343166
 20
10.4379983657
 10
272.8036441357
 20
10.597199085
 10
274.2127127217
 20
10.9588643126
 10
275.6558201561
 20
11.5187516453
 10
277.1160474429
 20
12.270300066
 10
278.5762747297
 20
13.2046941843
 10
280.0193821641
 20
14.3109832299
 10
281.4284507501
 20
15.5761939626
 10
282.7869605692
 20
16.985495294
 10
284.0789834056
 20
18.5223627193
 10
285.2893730647
 20
20.1687779212
 10
286.403937254
 20
21.9054390216
 10
287.4096097918
 20
23.7119854724
 10
288.2945994386
 20
25.5672360664
 10
289.0485314844
 20
27.449440257
 10
289.6625649691
 20
29.336530621
 10
290.1295020012
 20
31.2063833065
 10
290.4438687588
 20
33.0370758228
 10
290.6019800268
 20
34.8071454963
 10
290.6019800268
 20
36.4958387081
 10
290.4438687588
 20
38.0833569972
 10
290.1295020012
 20
39.551089381
 10
289.6625649691
 20
40.8818280447
 10
289.0485314844
 20
42.0599704376
 10
288.2945994386
 20
43.0717032167
 10
287.4096097918
 20
43.9051665138
 10
286.403937254
 20
44.5505881677
 10
285.2893730647
 20
45.0004008465
 10
284.0789834056
 20
45.2493298943
 10
282.7869605692
 20
45.2944595053
 10
281.4284507501
 20
45.1352587859
 10
280.0193821641
 20
44.7735935584
 10
278.5762747297
 20
44.2137062257
 10
277.1160474429
 20
43.4621578049
  0
LWPOLYLINE
  5
252
330
1F
100
AcDbEntity
  8
0
  6
Continuous
 62
     7
370
    15
100
AcDbPolyline
 90
       31
 70
   128
 43
0.0
 10
276.8332025767
 20
43.9520579615
 10
275.36756617
 20
43.0157594862
 10
273.9185359509
 20
41.9096604467
 10
272.5025299278
 20
40.6462942974
 10
271.135592056
 20
39.2399755318
 10
269.8332109731
 20
37.7066372461
 10
268.6101423566
 20
36.0636525413
 10
267.4802439584
 20
34.3296389104
 10
266.4563185425
 20
32.524242091
 10
265.5499670289
 20
30.6679174465
 10
264.7714594192
 20
28.7816987969
 10
264.129616917
 20
26.8869585042
 10
263.6317098538
 20
25.0051629934
 10
263.2833819559
 20
23.1576351142
 10
263.088577905
 20
21.3653068079
 10
263.0495064593
 20
19.6484869319
 10
263.1666101608
 20
18.0266276576
 10
263.4385613838
 20
16.5181046022
 10
263.8622794569
 20
15.1400110267
 10
264.4329635908
 20
13.9079600649
 10
265.1441468784
 20
12.835912141
 10
265.9877720276
 20
11.9360141243
 10
266.9542796064
 20
11.2184609169
 10
268.0327199952
 20
10.6913847956
 10
269.2108732422
 20
10.3607557803
 10
270.4753906501
 20
10.2303204034
 10
271.8119445953
 20
10.3015589194
 10
273.2053911885
 20
10.5736605749
 10
274.6399424834
 20
11.0435446953
 10
276.0993442023
 20
11.7058857157
 10
276.8354436092
 20
12.1082593614
  0
LWPOLYLINE
  5
253
330
1F
100
AcDbEntity
  8
0
  6
Continuous
 62
     7
370
    15
100
AcDbPolyline
 90
       16
 70
   128
 43
0.0
 10
290.6217850944
 20
35.9894910557
 10
290.5778272484
 20
37.2345126683
 10
290.3830231975
 20
38.8019250049
 10
290.0346952997
 20
40.2472820537
 10
289.5367882364
 20
41.5542063058
 10
288.8949457343
 20
42.7078910192
 10
288.1164381245
 20
43.6952639151
 10
287.2100866109
 20
44.5051373764
 10
286.186161195
 20
45.1283350743
 10
285.0562627969
 20
45.557795783
 10
283.8331941803
 20
45.788655521
 10
282.5308130974
 20
45.8182966155
 10
281.1638752256
 20
45.646382508
 10
279.7478692026
 20
45.2748629026
 10
278.2988389834
 20
44.7079472622
 10
276.8332025767
 20
43.9520579615
  0
SPLINE
  5
254
330
1F
100
AcDbEntity
  8
0
  6
Continuous
 62
     7
370
    15
100
AcDbSpline
210
0.0
220
0.0
230
1.0
 70
    11
 71
     3
 72
    77
 73
    73
 74
     0
 42
0.000000001
 43
0.00000001
 40
0.0
 40
0.0
 40
0.0
 40
0.0
 40
0.0312499999999999
 40
0.0312499999999999
 40
0.0624999999999998
 40
0.0624999999999998
 40
0.0937499999999996
 40
0.0937499999999996
 40
0.1249999999999995
 40
0.1249999999999995
 40
0.1562499999999994
 40
0.1562499999999994
 40
0.1874999999999993
 40
0.1874999999999993
 40
0.2187499999999992
 40
0.2187499999999992
 40
0.2499999999999991
 40
0.2499999999999991
 40
0.2812499999999989
 40
0.2812499999999989
 40
0.3124999999999988
 40
0.3124999999999988
 40
0.3437499999999987
 40
0.3437499999999987
 40
0.3593749999999987
 40
0.3593749999999987
 40
0.3749999999999986
 40
0.3906249999999985
 40
0.3906249999999985
 40
0.4062499999999984
 40
0.4062499999999984
 40
0.4374999999999985
 40
0.4374999999999985
 40
0.4687499999999986
 40
0.4687499999999986
 40
0.4999999999999986
 40
0.4999999999999986
 40
0.5312499999999986
 40
0.5312499999999986
 40
0.5624999999999987
 40
0.5624999999999987
 40
0.5937499999999988
 40
0.5937499999999988
 40
0.6249999999999989
 40
0.6249999999999989
 40
0.656249999999999
 40
0.656249999999999
 40
0.6874999999999991
 40
0.6874999999999991
 40
0.7187499999999992
 40
0.7187499999999992
 40
0.7499999999999992
 40
0.7499999999999992
 40
0.7656249999999993
 40
0.7656249999999993
 40
0.7812499999999993
 40
0.7812499999999993
 40
0.8124999999999994
 40
0.8124999999999994
 40
0.8437499999999996
 40
0.8437499999999996
 40
0.8749999999999997
 40
0.8749999999999997
 40
0.8906249999999998
 40
0.8906249999999998
 40
0.9062499999999998
 40
0.9062499999999998
 40
0.9374999999999999
 40
0.9374999999999999
 40
0.96875
 40
0.96875
 40
1.0
 40
1.0
 40
1.0
 40
1.0
 10
269.9869669658011
 20
50.38119985505931
 30
0.0
 10
270.2972584096898
 20
50.33476918017935
 30
0.0
 10
270.599576562503
 20
50.27286936138435
 30
0.0
 10
271.1900201924395
 20
50.12366486489164
 30
0.0
 10
271.4800013914922
 20
50.03564251961803
 30
0.0
 10
272.0371435973071
 20
49.83897269245151
 30
0.0
 10
272.3006404798841
 20
49.73183791091995
 30
0.0
 10
272.7988278050561
 20
49.50214245087744
 30
0.0
 10
273.0355004181943
 20
49.37831984117332
 30
0.0
 10
273.4671961581431
 20
49.12161253230039
 30
0.0
 10
273.6620565022133
 20
48.98921405020767
 30
0.0
 10
274.0101995201492
 20
48.71571909959409
 30
0.0
 10
274.1646549143894
 20
48.57313514703194
 30
0.0
 10
274.4204625050295
 20
48.28579954826026
 30
0.0
 10
274.5225948522647
 20
48.14098990435282
 30
0.0
 10
274.6741084738528
 20
47.84636949878058
 30
0.0
 10
274.7234651480995
 20
47.69486706616924
 30
0.0
 10
274.761249868016
 20
47.39458456100411
 30
0.0
 10
274.7507042576921
 20
47.2452228358858
 30
0.0
 10
274.6669036649175
 20
46.94477474667551
 30
0.0
 10
274.5919399777105
 20
46.79216150041454
 30
0.0
 10
274.3804371413775
 20
46.4977117062023
 30
0.0
 10
274.244085994936
 20
46.35422447253323
 30
0.0
 10
273.9899003952169
 20
46.14354971836927
 30
0.0
 10
273.8964420805085
 20
46.07394759898223
 30
0.0
 10
273.6978805867487
 20
45.94030728898528
 30
0.0
 10
273.4865316817257
 20
45.81118028696311
 30
0.0
 10
273.2499475393915
 20
45.69090477184101
 30
0.0
 10
273.0005109337886
 20
45.57520075028872
 30
0.0
 10
272.8690189558247
 20
45.51957509512802
 30
0.0
 10
272.4658162795963
 20
45.36414713790454
 30
0.0
 10
272.1822444524627
 20
45.2740210024236
 30
0.0
 10
271.5866578466126
 20
45.12162451405399
 30
0.0
 10
271.2808609994811
 20
45.06117199105005
 30
0.0
 10
270.6652907292746
 20
44.97373982582825
 30
0.0
 10
270.3508646551987
 20
44.94640115852547
 30
0.0
 10
269.7350883717929
 20
44.92777290245105
 30
0.0
 10
269.4321927258029
 20
44.93595373927846
 30
0.0
 10
268.8356257243013
 20
44.98881307356267
 30
0.0
 10
268.5443639797012
 20
45.03365348041227
 30
0.0
 10
267.9909710051694
 20
45.15803259736468
 30
0.0
 10
267.7263301164168
 20
45.23775798181603
 30
0.0
 10
267.2214633828025
 20
45.43441904349417
 30
0.0
 10
266.9875438288797
 20
45.54899319575553
 30
0.0
 10
266.5576972661412
 20
45.80842688658357
 30
0.0
 10
266.3608598786043
 20
45.95387299069059
 30
0.0
 10
266.0081045492373
 20
46.27470089171226
 30
0.0
 10
265.8563782203958
 20
46.44608725209938
 30
0.0
 10
265.6012330716954
 20
46.80878923521305
 30
0.0
 10
265.4973766385656
 20
47.00119238804181
 30
0.0
 10
265.3442033790288
 20
47.40060016076256
 30
0.0
 10
265.2961629127972
 20
47.60340410386951
 30
0.0
 10
265.2675880620842
 20
47.91025078800606
 30
0.0
 10
265.2653619074172
 20
48.01297630011113
 30
0.0
 10
265.2763196250696
 20
48.21899644153241
 30
0.0
 10
265.2896766140327
 20
48.32295476061534
 30
0.0
 10
265.3534390626855
 20
48.6289232438678
 30
0.0
 10
265.4268042996387
 20
48.82545793248627
 30
0.0
 10
265.6378827615977
 20
49.20041749257504
 30
0.0
 10
265.7784752018305
 20
49.38111709511315
 30
0.0
 10
266.1168168249785
 20
49.70321382906656
 30
0.0
 10
266.3140790514202
 20
49.84598500885212
 30
0.0
 10
266.6536838681537
 20
50.03127279779044
 30
0.0
 10
266.7743712791039
 20
50.0881040577514
 30
0.0
 10
267.0236588623808
 20
50.1889433433393
 30
0.0
 10
267.1530550544074
 20
50.23342632433134
 30
0.0
 10
267.5551112414587
 20
50.34979158615123
 30
0.0
 10
267.8450918126994
 20
50.40481942801863
 30
0.0
 10
268.4377727305172
 20
50.46845204334302
 30
0.0
 10
268.7416786838748
 20
50.47803115128831
 30
0.0
 10
269.3642554451803
 20
50.4575772458802
 30
0.0
 10
269.6766755219123
 20
50.42763052993926
 30
0.0
 10
269.9869669658011
 20
50.38119985505931
 30
0.0
  0
SPLINE
  5
255
330
1F
100
AcDbEntity
  8
0
  6
Continuous
 62
     7
370
    15
100
AcDbSpline
210
0.0
220
0.0
230
1.0
 70
     8
 71
     3
 72
    12
 73
     8
 74
     0
 42
0.000000001
 43
0.00000001
 40
0.0
 40
0.0
 40
0.0
 40
0.0
 40
0.2499999999999997
 40
0.2499999999999997
 40
0.4999999999999993
 40
0.4999999999999993
 40
1.0
 40
1.0
 40
1.0
 40
1.0
 10
238.2265223582615
 20
32.80639063654822
 30
0.0
 10
238.2940806908062
 20
32.76739004132119
 30
0.0
 10
238.3707300837572
 20
32.71371054416686
 30
0.0
 10
238.5191763319823
 20
32.59690953752156
 30
0.0
 10
238.5899430609718
 20
32.53493022055976
 30
0.0
 10
238.7815629777417
 20
32.35345151451826
 30
0.0
 10
238.8795704940503
 20
32.24166325708318
 30
0.0
 10
238.9471886092798
 20
32.14714352954986
 30
0.0
  0
SPLINE
  5
256
330
1F
100
AcDbEntity
  8
0
  6
Continuous
 62
     7
370
    15
100
AcDbSpline
210
0.0
220
0.0
230
1.0
 70
     8
 71
     3
 72
    12
 73
     8
 74
     0
 42
0.000000001
 43
0.00000001
 40
0.0
 40
0.0
 40
0.0
 40
0.0
 40
0.5
 40
0.5
 40
0.75
 40
0.75
 40
1.0
 40
1.0
 40
1.0
 40
1.0
 10
273.1562484356619
 20
65.68674657819295
 30
0.0
 10
273.1562484356619
 20
65.8301168305395
 30
0.0
 10
273.1206910994084
 20
65.99561170429229
 30
0.0
 10
273.0110031862794
 20
66.23222080875723
 30
0.0
 10
272.964717903007
 20
66.30927172320646
 30
0.0
 10
272.8558438066621
 20
66.44353617687518
 30
0.0
 10
272.7941683348404
 20
66.49904543607107
 30
0.0
 10
272.7319843669499
 20
66.534943476623
 30
0.0
  0
LINE
  5
257
330
1F
100
AcDbEntity
  8
0
  6
Continuous
 62
     7
370
    15
100
AcDbLine
 10
284.5153284111
 20
27.6846919996
 30
0.0
 11
287.270101089
 21
31.1116024969
 31
0.0
  0
SPLINE
  5
258
330
1F
100
AcDbEntity
  8
0
  6
Continuous
 62
     7
370
    15
100
AcDbSpline
210
0.0
220
0.0
230
1.0
 70
     8
 71
     3
 72
    22
 73
    18
 74
     0
 42
0.000000001
 43
0.00000001
 40
0.0
 40
0.0
 40
0.0
 40
0.0
 40
0.0500000000000154
 40
0.1000000000000001
 40
0.15
 40
0.2000000000000001
 40
0.25
 40
0.2968749999999255
 40
0.34375
 40
0.3906249999999999
 40
0.4374999999999989
 40
0.515352885058417
 40
0.515352885058417
 40
0.53125
 40
0.6249999999995614
 40
0.8125
 40
0.8824198414284187
 40
0.8824198414284187
 40
0.8824198414284187
 40
0.8824198414284187
 10
287.2700997881451
 20
31.11160295509915
 30
0.0
 10
287.4015761660139
 20
31.27515831924543
 30
0.0
 10
287.6590855925682
 20
31.63116410135054
 30
0.0
 10
288.0116957717364
 20
32.2418940390462
 30
0.0
 10
288.3091118877869
 20
32.9190360784085
 30
0.0
 10
288.5224870751741
 20
33.63060940927742
 30
0.0
 10
288.623582061124
 20
34.31782980274483
 30
0.0
 10
288.6057243102674
 20
34.9380483998011
 30
0.0
 10
288.4756669410356
 20
35.45868600806386
 30
0.0
 10
288.2432704240424
 20
35.86697593121944
 30
0.0
 10
287.8595754156792
 20
36.2126266288895
 30
0.0
 10
287.5091171932959
 20
36.32109781606362
 30
0.0
 10
287.235223032406
 20
36.34726946511406
 30
0.0
 10
286.9393417517318
 20
36.37498669628577
 30
0.0
 10
286.2659859269021
 20
36.43345391108937
 30
0.0
 10
285.810098607891
 20
36.4750400888667
 30
0.0
 10
284.8096656722386
 20
36.56454498396443
 30
0.0
 10
284.5152860961794
 20
36.59086288777108
 30
0.0
  0
SPLINE
  5
259
330
1F
100
AcDbEntity
  8
0
  6
Continuous
 62
     7
370
    15
100
AcDbSpline
210
0.0
220
0.0
230
1.0
 70
     8
 71
     3
 72
    22
 73
    18
 74
     0
 42
0.000000001
 43
0.00000001
 40
0.0
 40
0.0
 40
0.0
 40
0.0
 40
0.0500000000000154
 40
0.1000000000000001
 40
0.15
 40
0.2000000000000001
 40
0.25
 40
0.2968749999999255
 40
0.34375
 40
0.3906249999999999
 40
0.4374999999999989
 40
0.515352885058417
 40
0.515352885058417
 40
0.53125
 40
0.6249999999995614
 40
0.8125
 40
0.8812161579344685
 40
0.8812161579344685
 40
0.8812161579344685
 40
0.8812161579344685
 10
266.9619930324679
 20
19.38798246932534
 30
0.0
 10
266.8324553494883
 20
19.39956509018798
 30
0.0
 10
266.5721074770641
 20
19.45851061843458
 30
0.0
 10
266.2206381349749
 20
19.66202349327305
 30
0.0
 10
265.9229163394131
 20
19.99580355469891
 30
0.0
 10
265.7096230329921
 20
20.46101171212815
 30
0.0
 10
265.6085066577793
 20
21.03151261389981
 30
0.0
 10
265.6263688572656
 20
21.67234759320392
 30
0.0
 10
265.7564284968979
 20
22.34315097343929
 30
0.0
 10
265.988811580369
 20
23.01974298511655
 30
0.0
 10
266.3725693892101
 20
23.80847678504477
 30
0.0
 10
266.7227854658242
 20
24.32127717023677
 30
0.0
 10
266.9967961814771
 20
24.66382526303878
 30
0.0
 10
267.2928850829965
 20
25.03341800943117
 30
0.0
 10
267.9685315525271
 20
25.87217487676833
 30
0.0
 10
268.4064939637929
 20
26.41781610167003
 30
0.0
 10
269.4235647095122
 20
27.68309588536682
 30
0.0
 10
269.7168068490384
 20
28.04788293691232
 30
0.0
  0
LINE
  5
25A
330
1F
100
AcDbEntity
  8
0
  6
Continuous
 62
     7
370
    15
100
AcDbLine
 10
269.7167664747
 20
19.1416640371
 30
0.0
 11
266.9619937968
 21
19.3879817014
 31
0.0
  0
LWPOLYLINE
  5
25B
330
1F
100
AcDbEntity
  8
0
  6
Continuous
 62
     7
370
    15
100
AcDbPolyline
 90
       12
 70
   128
 43
0.0
 10
250.1539353192
 20
60.1414709137
 10
251.9796103562
 20
61.7788712693
 10
253.8413808762
 20
63.2573052577
 10
255.7259921069
 20
64.5662495539
 10
257.6200270272
 20
65.6963829973
 10
259.5100012798
 20
66.6396626768
 10
261.3824593186
 20
67.3893687887
 10
263.2240708033
 20
67.9401694103
 10
265.0217241129
 20
68.2881395018
 10
266.7626214226
 20
68.4308021056
 10
268.4343695834
 20
68.3671443075
 10
270.0250640861
 20
68.0976155172
  0
LINE
  5
25C
330
1F
100
AcDbEntity
  8
0
  6
Continuous
 62
     7
370
    15
100
AcDbLine
 10
272.7319836273
 20
66.5349441285
 30
0.0
 11
270.0250640861
 21
68.0976155172
 31
0.0
  0
LINE
  5
25D
330
1F
100
AcDbEntity
  8
0
  6
Continuous
 62
     7
370
    15
100
AcDbLine
 10
235.5196025292
 20
34.3690624045
 30
0.0
 11
238.2265220704
 21
32.8063910158
 31
0.0
  0
ARC
  5
25E
330
1F
100
AcDbEntity
  8
0
  6
Continuous
 62
     7
370
    15
100
AcDbCircle
 10
286.7514973408
 20
22.3460353807
 30
0.0
 40
52.62376102858373
100
AcDbArc
 50
136.4697995832
 51
166.7929036469
  0
SPLINE
  5
25F
330
1F
100
AcDbEntity
  8
0
  6
Continuous
 62
     7
370
    15
100
AcDbSpline
210
0.0
220
0.0
230
1.0
 70
     8
 71
     3
 72
    12
 73
     8
 74
     0
 42
0.000000001
 43
0.00000001
 40
0.0
 40
0.0
 40
0.0
 40
0.0
 40
0.2499999999999997
 40
0.2499999999999997
 40
0.4999999999999993
 40
0.4999999999999993
 40
1.0
 40
1.0
 40
1.0
 40
1.0
 10
248.5986681096233
 20
58.58995736281724
 30
0.0
 10
248.7972974750632
 20
58.65665353140887
 30
0.0
 10
248.9849477544461
 20
58.7444179344179
 30
0.0
 10
249.3389339642574
 20
58.96067847200936
 30
0.0
 10
249.4985571000994
 20
59.08548945237173
 30
0.0
 10
249.9149248225401
 20
59.50028460795127
 30
0.0
 10
250.0983444897122
 20
59.82310568353883
 30
0.0
 10
250.1539351420598
 20
60.14147169861702
 30
0.0
  0
LINE
  5
260
330
1F
100
AcDbEntity
  8
0
  6
Continuous
 62
     7
370
    15
100
AcDbLine
 10
281.190775781
 20
56.3446485899
 30
0.0
 11
281.4015034381
 21
56.709638837
 31
0.0
  0
LINE
  5
261
330
1F
100
AcDbEntity
  8
0
  6
Continuous
 62
     7
370
    15
100
AcDbLine
 10
278.8484580895
 20
54.9924573688
 30
0.0
 11
281.190775781
 21
56.3446485899
 31
0.0
  0
ARC
  5
262
330
1F
100
AcDbEntity
  8
0
  6
Continuous
 62
     7
370
    15
100
AcDbCircle
 10
280.1734337449
 20
52.9210885294
 30
0.0
 40
2.458887829109689
100
AcDbArc
 50
122.6054968531
 51
177.3945222572
  0
LINE
  5
263
330
1F
100
AcDbEntity
  8
0
  6
Continuous
 62
     7
370
    15
100
AcDbLine
 10
277.7170878445
 20
50.0353068934
 30
0.0
 11
277.7170878445
 21
53.0328658674
 31
0.0
  0
LINE
  5
264
330
1F
100
AcDbEntity
  8
0
  6
Continuous
 62
     7
370
    15
100
AcDbLine
 10
239.042978966
 20
18.8669358439
 30
0.0
 11
238.947188399
 21
18.6224385221
 31
0.0
  0
LINE
  5
265
330
1F
100
AcDbEntity
  8
0
  6
Continuous
 62
     7
370
    15
100
AcDbLine
 10
239.042978966
 20
18.8669358439
 30
0.0
 11
243.0688551554
 21
21.1910246984
 31
0.0
  0
ARC
  5
266
330
1F
100
AcDbEntity
  8
0
  6
Continuous
 62
     7
370
    15
100
AcDbCircle
 10
241.7438795
 20
23.2623935378
 30
0.0
 40
2.458887829109873
100
AcDbArc
 50
302.6054968531
 51
357.3945222572
  0
LINE
  5
267
330
1F
100
AcDbEntity
  8
0
  6
Continuous
 62
     7
370
    15
100
AcDbLine
 10
244.2002254005
 20
23.1577421173
 30
0.0
 11
244.2002254005
 21
23.1506161998
 31
0.0
  0
LINE
  5
268
330
1F
100
AcDbEntity
  8
0
  6
Continuous
 62
     7
370
    15
100
AcDbLine
 10
244.2002254005
 20
33.6839930309
 30
0.0
 11
244.2002254005
 21
33.6768671134
 31
0.0
  0
ARC
  5
269
330
1F
100
AcDbEntity
  8
0
  6
Continuous
 62
     7
370
    15
100
AcDbCircle
 10
243.5105065143
 20
33.795876654
 30
0.0
 40
0.6987346327980001
100
AcDbArc
 50
350.7859529282
 51
129.2032375553
  0
LINE
  5
26A
330
1F
100
AcDbEntity
  8
0
  6
Continuous
 62
     7
370
    15
100
AcDbLine
 10
243.0688551554
 20
34.3373322516
 30
0.0
 11
239.042978966
 21
32.0132433971
 31
0.0
  0
LINE
  5
26B
330
1F
100
AcDbEntity
  8
0
  6
Continuous
 62
     7
370
    15
100
AcDbLine
 10
238.947188399
 20
32.1471432844
 30
0.0
 11
239.042978966
 21
32.0132433971
 31
0.0
  0
LINE
  5
26C
330
1F
100
AcDbEntity
  8
0
  6
Continuous
 62
     7
370
    15
100
AcDbLine
 10
273.1562482924
 20
60.1167843621
 30
0.0
 11
273.1562482924
 21
65.6867461391
 31
0.0
  0
LINE
  5
26D
330
1F
100
AcDbEntity
  8
0
  6
Continuous
 62
     7
370
    15
100
AcDbLine
 10
277.9797153942
 20
62.9013126496
 30
0.0
 11
273.1562482924
 21
60.1167843621
 31
0.0
  0
SPLINE
  5
26E
330
1F
100
AcDbEntity
  8
0
  6
Continuous
 62
     7
370
    15
100
AcDbSpline
210
0.0
220
0.0
230
1.0
 70
     8
 71
     3
 72
     8
 73
     4
 74
     0
 42
0.000000001
 43
0.00000001
 40
0.0
 40
0.0
 40
0.0
 40
0.0
 40
1.0
 40
1.0
 40
1.0
 40
1.0
 10
233.5392995177864
 20
36.88582081428758
 30
0.0
 10
232.7779037857856
 20
36.75988713894638
 30
0.0
 10
232.0162278413059
 20
36.63448689467631
 30
0.0
 10
231.2543465398265
 20
36.50952513733024
 30
0.0
  0
SPLINE
  5
26F
330
1F
100
AcDbEntity
  8
0
  6
Continuous
 62
     7
370
    15
100
AcDbSpline
210
0.0
220
0.0
230
1.0
 70
     8
 71
     3
 72
     8
 73
     4
 74
     0
 42
0.000000001
 43
0.00000001
 40
0.0
 40
0.0
 40
0.0
 40
0.0
 40
0.0011901715795577
 40
0.0011901715795577
 40
0.0011901715795577
 40
0.0011901715795577
 10
230.5389729447108
 20
37.24431844904147
 30
0.0
 10
230.7782659597005
 20
36.9990886295305
 30
0.0
 10
231.0167523079966
 20
36.75414454853908
 30
0.0
 10
231.2543465398265
 20
36.50952513733024
 30
0.0
  0
LWPOLYLINE
  5
270
330
1F
100
AcDbEntity
  8
0
  6
Continuous
 62
     7
370
    15
100
AcDbPolyline
 90
       23
 70
   128
 43
0.0
 10
230.538973122
 20
37.2443185598
 10
231.1679371278
 20
39.7241594489
 10
231.9526429584
 20
42.2233843721
 10
232.8872414216
 20
44.7233709026
 10
233.9647703848
 20
47.2054906342
 10
235.1771995563
 20
49.6512483419
 10
236.5154950225
 20
52.0424203803
 10
237.9696851025
 20
54.361189279
 10
239.5289327879
 20
56.5902752961
 10
241.181622012
 20
58.7130729133
 10
242.9154366755
 20
60.7137603348
 10
244.7174567938
 20
62.5774310387
 10
246.5742566198
 20
64.2902006125
 10
248.4719991457
 20
65.8393023728
 10
250.3965445977
 20
67.2131986677
 10
252.3335521196
 20
68.401645661
 10
254.2685885766
 20
69.3957941665
 10
256.1872352809
 20
70.1882314874
 10
258.0751964452
 20
70.7730577137
 10
259.918403254
 20
71.1459108196
 10
261.7031214324
 20
71.3040150734
 10
263.416052991
 20
71.2461911042
 10
265.0444346788
 20
70.9728716725
  0
SPLINE
  5
271
330
1F
100
AcDbEntity
  8
0
  6
Continuous
 62
     7
370
    15
100
AcDbSpline
210
0.0
220
0.0
230
1.0
 70
     8
 71
     3
 72
     9
 73
     5
 74
     0
 42
0.000000001
 43
0.00000001
 40
0.0
 40
0.0
 40
0.0
 40
0.0
 40
0.0042838105961262
 40
1.0
 40
1.0
 40
1.0
 40
1.0
 10
265.9135487932438
 20
68.30109043028656
 30
0.0
 10
265.9123355945068
 20
68.304904161573
 30
0.0
 10
265.6291300909526
 20
69.19517024614291
 30
0.0
 10
265.3361548596931
 20
70.08592887995762
 30
0.0
 10
265.0444346788336
 20
70.97287167249821
 30
0.0
  0
LWPOLYLINE
  5
272
330
1F
100
AcDbEntity
  8
0
  6
Continuous
 62
     7
370
    15
100
AcDbPolyline
 90
       22
 70
   128
 43
0.0
 10
233.5392992662
 20
36.8858211856
 10
234.1289560674
 20
39.2364646387
 10
234.8723369131
 20
41.6066953589
 10
235.7634529995
 20
43.9774179245
 10
236.7951235573
 20
46.3295301814
 10
237.9590377549
 20
48.6440814137
 10
239.2458166014
 20
50.9024236701
 10
240.6450946061
 20
53.086361567
 10
242.1455961701
 20
55.1783013327
 10
243.7352337088
 20
57.1613850192
 10
245.4011972146
 20
59.0196380242
 10
247.1300662089
 20
60.7380869518
 10
248.9079108289
 20
62.3028879318
 10
250.7204067439
 20
63.7014309816
 10
252.5529511409
 20
64.9224510712
 10
254.3907793698
 20
65.9561076278
 10
256.2190841396
 20
66.7940746394
 10
258.0231352091
 20
67.4296006253
 10
259.7883973485
 20
67.8575645663
 10
261.5006479722
 20
68.074519478
 10
263.1460918896
 20
68.0787160693
 10
263.6368557206
 20
68.0371552095
  0
LINE
  5
273
330
1F
100
AcDbEntity
  8
0
  6
Continuous
 62
     7
370
    15
100
AcDbLine
 10
227.8674082013
 20
38.7865801606
 30
0.0
 11
230.538973122
 21
37.2443185598
 31
0.0
  0
LINE
  5
274
330
1F
100
AcDbEntity
  8
0
  6
Continuous
 62
     7
370
    15
100
AcDbLine
 10
265.0444346788
 20
70.9728716725
 30
0.0
 11
262.3728697581
 21
72.5151332733
 31
0.0
  0
SPLINE
  5
275
330
1F
100
AcDbEntity
  8
0
  6
Continuous
 62
     7
370
    15
100
AcDbSpline
210
0.0
220
0.0
230
1.0
 70
     8
 71
     3
 72
    16
 73
    12
 74
     0
 42
0.000000001
 43
0.00000001
 40
0.0
 40
0.0
 40
0.0
 40
0.0
 40
0.25
 40
0.25
 40
0.5
 40
0.5
 40
0.625
 40
0.625
 40
0.75
 40
0.75
 40
1.0
 40
1.0
 40
1.0
 40
1.0
 10
244.2002257460727
 20
33.67686742768041
 30
0.0
 10
244.2002257460727
 20
32.80150414562454
 30
0.0
 10
244.2220909105401
 20
31.91331625762946
 30
0.0
 10
244.2585445194889
 20
30.14120850653752
 30
0.0
 10
244.2726861991694
 20
29.25755068503328
 30
0.0
 10
244.2727817066091
 20
27.94444974383535
 30
0.0
 10
244.2695749240442
 20
27.50619065150619
 30
0.0
 10
244.2579700125255
 20
26.63516921409125
 30
0.0
 10
244.2495848697371
 20
26.20117717129
 30
0.0
 10
244.2221981922768
 20
24.90051306567626
 30
0.0
 10
244.2002257460727
 20
24.03558796318557
 30
0.0
 10
244.2002257460727
 20
23.15774258647059
 30
0.0
  0
LINE
  5
276
330
1F
100
AcDbEntity
  8
0
  6
Continuous
 62
     7
370
    15
100
AcDbLine
 10
235.9923834853
 20
36.2852515989
 30
0.0
 11
234.8113622771
 21
36.9670406302
 31
0.0
  0
SPLINE
  5
277
330
1F
100
AcDbEntity
  8
0
  6
Continuous
 62
     7
370
    15
100
AcDbSpline
210
0.0
220
0.0
230
1.0
 70
     8
 71
     3
 72
    14
 73
    10
 74
     0
 42
0.000000001
 43
0.00000001
 40
0.0
 40
0.0
 40
0.0
 40
0.0
 40
0.1132391862462963
 40
0.2878193928827188
 40
0.462429493445903
 40
0.6366777754258902
 40
0.8106893525994725
 40
0.9849561735358273
 40
0.9999999999999999
 40
0.9999999999999999
 40
0.9999999999999999
 40
0.9999999999999999
 10
249.580833009894
 20
59.19057235856055
 30
0.0
 10
249.441731834463
 20
59.19727233978771
 30
0.0
 10
249.0881791713881
 20
59.21430164380382
 30
0.0
 10
248.498514906812
 20
59.04401165064542
 30
0.0
 10
247.91319502727
 20
58.71713185912981
 30
0.0
 10
247.4622130265664
 20
58.25578828738374
 30
0.0
 10
247.2236472267317
 20
57.73020239275152
 30
0.0
 10
247.1560947560371
 20
57.33823156899678
 30
0.0
 10
247.2205137299606
 20
57.16477534992605
 30
0.0
 10
247.2256328707908
 20
57.15099141703764
 30
0.0
  0
SPLINE
  5
278
330
1F
100
AcDbEntity
  8
0
  6
Continuous
 62
     7
370
    15
100
AcDbSpline
210
0.0
220
0.0
230
1.0
 70
     8
 71
     3
 72
    12
 73
     8
 74
     0
 42
0.000000001
 43
0.00000001
 40
0.0
 40
0.0
 40
0.0
 40
0.0
 40
0.2499999999999986
 40
0.2499999999999986
 40
0.4999999999999971
 40
0.4999999999999971
 40
1.0
 40
1.0
 40
1.0
 40
1.0
 10
234.8113624162613
 20
36.96704060511885
 30
0.0
 10
234.7352872011561
 20
37.01095789199333
 30
0.0
 10
234.6443206482399
 20
37.04498715981639
 30
0.0
 10
234.4438382610771
 20
37.08977742404441
 30
0.0
 10
234.3371942630681
 20
37.09996332275355
 30
0.0
 10
234.0150672493098
 20
37.09406428207402
 30
0.0
 10
233.806779386358
 20
37.04023365564422
 30
0.0
 10
233.6557932186516
 20
36.95307119633237
 30
0.0
  0
SPLINE
  5
279
330
1F
100
AcDbEntity
  8
0
  6
Continuous
 62
     7
370
    15
100
AcDbSpline
210
0.0
220
0.0
230
1.0
 70
     8
 71
     3
 72
    10
 73
     6
 74
     0
 42
0.000000001
 43
0.00000001
 40
0.0
 40
0.0
 40
0.0
 40
0.0
 40
0.5
 40
0.5
 40
1.0
 40
1.0
 40
1.0
 40
1.0
 10
227.6641197926839
 20
38.84802415823711
 30
0.0
 10
227.6786451559811
 20
38.85601736921276
 30
0.0
 10
227.7022324839125
 20
38.8563809259831
 30
0.0
 10
227.770350505447
 20
38.83693766696361
 30
0.0
 10
227.8146954805515
 20
38.81701035341221
 30
0.0
 10
227.8674080138786
 20
38.78658005564959
 30
0.0
  0
LINE
  5
27A
330
1F
100
AcDbEntity
  8
0
  6
Continuous
 62
     7
370
    15
100
AcDbLine
 10
233.6557931555
 20
36.9530716764
 30
0.0
 11
233.5392992662
 21
36.8858211856
 31
0.0
  0
SPLINE
  5
27B
330
1F
100
AcDbEntity
  8
0
  6
Continuous
 62
     7
370
    15
100
AcDbSpline
210
0.0
220
0.0
230
1.0
 70
     8
 71
     3
 72
    10
 73
     6
 74
     0
 42
0.000000001
 43
0.00000001
 40
0.0
 40
0.0
 40
0.0
 40
0.0
 40
0.4207743472059966
 40
0.7795102119169568
 40
1.0
 40
1.0
 40
1.0
 40
1.0
 10
266.7852167432559
 20
20.04770783217697
 30
0.0
 10
266.5457886360235
 20
20.1171522099105
 30
0.0
 10
266.1022334244312
 20
20.2458021667412
 30
0.0
 10
265.7318244012162
 20
20.79756236003891
 30
0.0
 10
265.6863167575917
 20
21.2519860569045
 30
0.0
 10
265.6689936803928
 20
21.42496835514783
 30
0.0
  0
SPLINE
  5
27C
330
1F
100
AcDbEntity
  8
0
  6
Continuous
 62
     7
370
    15
100
AcDbSpline
210
0.0
220
0.0
230
1.0
 70
     8
 71
     3
 72
    12
 73
     8
 74
     0
 42
0.000000001
 43
0.00000001
 40
0.0
 40
0.0
 40
0.0
 40
0.0
 40
0.000130120321688
 40
0.1347995549695276
 40
0.3632259033825185
 40
0.7938662179877788
 40
0.9999999999999999
 40
0.9999999999999999
 40
0.9999999999999999
 40
0.9999999999999999
 10
270.0641401415492
 20
28.53393878315025
 30
0.0
 10
270.0641392664365
 20
28.53393118454055
 30
0.0
 10
270.0632326839417
 20
28.52605932260893
 30
0.0
 10
270.0352263631344
 20
28.47621620134618
 30
0.0
 10
269.9577235710253
 20
28.35774232348513
 30
0.0
 10
269.8385192166181
 20
28.20045519700139
 30
0.0
 10
269.7465725453931
 20
28.08519405976127
 30
0.0
 10
269.7168079629709
 20
28.04788221830204
 30
0.0
  0
SPLINE
  5
27D
330
1F
100
AcDbEntity
  8
0
  6
Continuous
 62
     7
370
    15
100
AcDbSpline
210
0.0
220
0.0
230
1.0
 70
     8
 71
     3
 72
    16
 73
    12
 74
     0
 42
0.000000001
 43
0.00000001
 40
0.0
 40
0.0
 40
0.0
 40
0.0
 40
0.2500000000000004
 40
0.2500000000000004
 40
0.5000000000000009
 40
0.5000000000000009
 40
0.6249999999999974
 40
0.6249999999999974
 40
0.749999999999994
 40
0.749999999999994
 40
1.0
 40
1.0
 40
1.0
 40
1.0
 10
284.5152860961795
 20
36.59086288777108
 30
0.0
 10
284.4523071580081
 20
36.59649328393792
 30
0.0
 10
284.3842961332268
 20
36.59939147929296
 30
0.0
 10
284.2304931668079
 20
36.59553434446597
 30
0.0
 10
284.1445855350341
 20
36.58922369151218
 30
0.0
 10
283.9973971724284
 20
36.56163753023888
 30
0.0
 10
283.945310475622
 20
36.54897372951697
 30
0.0
 10
283.8487112249393
 20
36.51781738871625
 30
0.0
 10
283.804412027138
 20
36.49938589526449
 30
0.0
 10
283.6944506078095
 20
36.44322160376129
 30
0.0
 10
283.6503038086024
 20
36.40649307429665
 30
0.0
 10
283.6173240924989
 20
36.37214875435993
 30
0.0
  0
SPLINE
  5
27E
330
1F
100
AcDbEntity
  8
0
  6
Continuous
 62
     7
370
    15
100
AcDbSpline
210
0.0
220
0.0
230
1.0
 70
     8
 71
     3
 72
     8
 73
     4
 74
     0
 42
0.000000001
 43
0.00000001
 40
0.0
 40
0.0
 40
0.0
 40
0.0
 40
1.0
 40
1.0
 40
1.0
 40
1.0
 10
283.6173240924988
 20
36.37214875435963
 30
0.0
 10
283.5165730516782
 20
36.41049414136147
 30
0.0
 10
283.4134935032736
 20
36.45594034314748
 30
0.0
 10
283.335753227762
 20
36.50081884893441
 30
0.0
  0
LINE
  5
27F
330
1F
100
AcDbEntity
  8
0
  6
Continuous
 62
     7
370
    15
100
AcDbLine
 10
282.0499132754
 20
37.7193305414
 30
0.0
 11
281.9843018275
 21
37.7563145862
 31
0.0
  0
LINE
  5
280
330
1F
100
AcDbEntity
  8
0
  6
Continuous
 62
     7
370
    15
100
AcDbLine
 10
280.4892019748
 20
38.1440980069
 30
0.0
 11
283.3357527081
 21
36.5008192468
 31
0.0
  0
ARC
  5
281
330
1F
100
AcDbEntity
  8
0
  6
Continuous
 62
     7
370
    15
100
AcDbCircle
 10
263.8163937961
 20
36.7874284092
 30
0.0
 40
13.57150203559654
100
AcDbArc
 50
338.0726483352
 51
2.4340725314
  0
LINE
  5
282
330
1F
100
AcDbEntity
  8
0
  6
Continuous
 62
     7
370
    15
100
AcDbLine
 10
276.4061074873
 20
31.7194133467
 30
0.0
 11
283.3357527081
 21
27.7190143116
 31
0.0
  0
LINE
  5
283
330
1F
100
AcDbEntity
  8
0
  6
Continuous
 62
     7
370
    15
100
AcDbLine
 10
271.0508074141
 20
18.666255751
 30
0.0
 11
271.1164060203
 21
18.6292787416
 31
0.0
  0
LINE
  5
284
330
1F
100
AcDbEntity
  8
0
  6
Continuous
 62
     7
370
    15
100
AcDbLine
 10
265.7569343969
 20
22.1985555835
 30
0.0
 11
269.7649679814
 21
19.8847670456
 31
0.0
  0
LINE
  5
285
330
1F
100
AcDbEntity
  8
0
  6
Continuous
 62
     7
370
    15
100
AcDbLine
 10
239.042978966
 20
32.0132433971
 30
0.0
 11
235.5886133839
 21
34.0074062007
 31
0.0
  0
SPLINE
  5
286
330
1F
100
AcDbEntity
  8
0
  6
Continuous
 62
     7
370
    15
100
AcDbSpline
210
0.0
220
0.0
230
1.0
 70
     8
 71
     3
 72
     8
 73
     4
 74
     0
 42
0.000000001
 43
0.00000001
 40
0.0
 40
0.0
 40
0.0
 40
0.0
 40
0.0011901715795577
 40
0.0011901715795577
 40
0.0011901715795577
 40
0.0011901715795577
 10
235.5886135632043
 20
34.00740604383665
 30
0.0
 10
235.5642906295671
 20
34.12890655525833
 30
0.0
 10
235.541323735655
 20
34.24943390351842
 30
0.0
 10
235.5196020883699
 20
34.3690624459519
 30
0.0
  0
LINE
  5
287
330
1F
100
AcDbEntity
  8
0
  6
Continuous
 62
     7
370
    15
100
AcDbLine
 10
269.9076620639
 20
19.7685141275
 30
0.0
 11
266.7852167433
 21
20.0477078322
 31
0.0
  0
SPLINE
  5
288
330
1F
100
AcDbEntity
  8
0
  6
Continuous
 62
     7
370
    15
100
AcDbSpline
210
0.0
220
0.0
230
1.0
 70
     8
 71
     3
 72
    16
 73
    12
 74
     0
 42
0.000000001
 43
0.00000001
 40
0.0
 40
0.0
 40
0.0
 40
0.0
 40
0.2500000000000063
 40
0.2500000000000063
 40
0.5000000000000125
 40
0.5000000000000125
 40
0.625000000000012
 40
0.625000000000012
 40
0.7500000000000114
 40
0.7500000000000114
 40
1.0
 40
1.0
 40
1.0
 40
1.0
 10
269.71676512505
 20
19.14166433256825
 30
0.0
 10
269.7788626331983
 20
19.13611187959198
 30
0.0
 10
269.8402100806991
 20
19.13740655306161
 30
0.0
 10
269.9531691406381
 20
19.16560823635856
 30
0.0
 10
270.0063039150247
 20
19.19144439787644
 30
0.0
 10
270.0567477608762
 20
19.27555623459319
 30
0.0
 10
270.0674890153176
 20
19.31181208847226
 30
0.0
 10
270.0695475625906
 20
19.39714377112555
 30
0.0
 10
270.0607489736402
 20
19.44606753775149
 30
0.0
 10
270.0144953814314
 20
19.59179833160037
 30
0.0
 10
269.9624404834789
 20
19.68394685132154
 30
0.0
 10
269.9076619468963
 20
19.76851436475367
 30
0.0
  0
SPLINE
  5
289
330
1F
100
AcDbEntity
  8
0
  6
Continuous
 62
     7
370
    15
100
AcDbSpline
210
0.0
220
0.0
230
1.0
 70
     8
 71
     3
 72
     8
 73
     4
 74
     0
 42
0.000000001
 43
0.00000001
 40
0.0
 40
0.0
 40
0.0
 40
0.0
 40
1.0
 40
1.0
 40
1.0
 40
1.0
 10
269.7649687429506
 20
19.8847667037141
 30
0.0
 10
269.8428809077108
 20
19.83978896837606
 30
0.0
 10
269.8878448552939
 20
19.80008048503431
 30
0.0
 10
269.9076619468962
 20
19.76851436475376
 30
0.0
  0
ARC
  5
28A
330
1F
100
AcDbEntity
  8
0
  6
Continuous
 62
     7
370
    15
100
AcDbCircle
 10
253.5445033114
 20
34.8569619171
 30
0.0
 40
20.71323866174791
100
AcDbArc
 50
174.7082462525
 51
187.1554568556
  0
LINE
  5
28B
330
1F
100
AcDbEntity
  8
0
  6
Continuous
 62
     7
370
    15
100
AcDbLine
 10
232.992582695
 20
36.7955370043
 30
0.0
 11
232.992582695
 21
32.2768815239
 31
0.0
  0
LINE
  5
28C
330
1F
100
AcDbEntity
  8
0
  6
Continuous
 62
     7
370
    15
100
AcDbLine
 10
232.992582695
 20
32.2768815239
 30
0.0
 11
232.992582695
 21
29.3452657093
 31
0.0
  0
SPLINE
  5
28D
330
1F
100
AcDbEntity
  8
0
  6
Continuous
 62
     7
370
    15
100
AcDbSpline
210
0.0
220
0.0
230
1.0
 70
     8
 71
     3
 72
     8
 73
     4
 74
     0
 42
0.000000001
 43
0.00000001
 40
0.0
 40
0.0
 40
0.0
 40
0.0
 40
1.0
 40
1.0
 40
1.0
 40
1.0
 10
283.3357532277639
 20
27.71901383015796
 30
0.0
 10
283.4136653925242
 20
27.67403609481987
 30
0.0
 10
283.5150020394593
 20
27.66687087811101
 30
0.0
 10
283.6173240925299
 20
27.68293385827229
 30
0.0
  0
SPLINE
  5
28E
330
1F
100
AcDbEntity
  8
0
  6
Continuous
 62
     7
370
    15
100
AcDbSpline
210
0.0
220
0.0
230
1.0
 70
     8
 71
     3
 72
    16
 73
    12
 74
     0
 42
0.000000001
 43
0.00000001
 40
0.0
 40
0.0
 40
0.0
 40
0.0
 40
0.2500000000000046
 40
0.2500000000000046
 40
0.3750000000000063
 40
0.3750000000000063
 40
0.500000000000008
 40
0.500000000000008
 40
0.750000000000004
 40
0.750000000000004
 40
1.0
 40
1.0
 40
1.0
 40
1.0
 10
283.6173240925302
 20
27.68293385827214
 30
0.0
 10
283.6499555068218
 20
27.58585635619264
 30
0.0
 10
283.6947051408789
 20
27.48819224952525
 30
0.0
 10
283.8029744155626
 20
27.37979065881876
 30
0.0
 10
283.8468419949253
 20
27.35113458192648
 30
0.0
 10
283.9430720344684
 20
27.32215835359203
 30
0.0
 10
283.995008661874
 20
27.32192520110312
 30
0.0
 10
284.1423038890829
 20
27.35210706678398
 30
0.0
 10
284.2291448730983
 20
27.40698056611633
 30
0.0
 10
284.383552167349
 20
27.53279647877959
 30
0.0
 10
284.4527980220976
 20
27.6069063417219
 30
0.0
 10
284.515327695563
 20
27.68469266105442
 30
0.0
  0
LINE
  5
28F
330
1F
100
AcDbEntity
  8
0
  6
Continuous
 62
     7
370
    15
100
AcDbLine
 10
228.542442993
 20
38.0750737846
 30
0.0
 11
227.6641196276
 21
38.8480240232
 31
0.0
  0
LINE
  5
290
330
1F
100
AcDbEntity
  8
0
  6
Continuous
 62
     7
370
    15
100
AcDbLine
 10
231.2543460698
 20
36.5095254621
 30
0.0
 11
228.542442993
 21
38.0750737846
 31
0.0
  0
LINE
  5
291
330
1F
100
AcDbEntity
  8
0
  6
Continuous
 62
     7
370
    15
100
AcDbLine
 10
230.9950066327
 20
36.3466688078
 30
0.0
 11
230.9963895762
 21
36.5882458277
 31
0.0
  0
ARC
  5
292
330
1F
100
AcDbEntity
  8
0
  6
Continuous
 62
     7
370
    15
100
AcDbCircle
 10
244.5412219001
 20
35.7435323239
 30
0.0
 40
13.55963575062303
100
AcDbArc
 50
177.4506261827
 51
211.1387319523
  0
LINE
  5
293
330
1F
100
AcDbEntity
  8
0
  6
Continuous
 62
     7
370
    15
100
AcDbLine
 10
204.3535753914
 20
84.052410954
 30
0.0
 11
204.5809899078
 21
83.9775520817
 31
0.0
  0
LINE
  5
294
330
1F
100
AcDbEntity
  8
0
  6
Continuous
 62
     7
370
    15
100
AcDbLine
 10
235.5886133839
 20
20.8610986475
 30
0.0
 11
239.042978966
 21
18.8669358439
 31
0.0
  0
SPLINE
  5
295
330
1F
100
AcDbEntity
  8
0
  6
Continuous
 62
     7
370
    15
100
AcDbSpline
210
0.0
220
0.0
230
1.0
 70
     8
 71
     3
 72
    14
 73
    10
 74
     0
 42
0.000000001
 43
0.00000001
 40
0.0
 40
0.0
 40
0.0
 40
0.0
 40
0.25
 40
0.25
 40
0.5
 40
0.5
 40
0.75
 40
0.75
 40
1.0
 40
1.0
 40
1.0
 40
1.0
 10
238.9471886092797
 20
18.62243890420197
 30
0.0
 10
238.9133722142037
 20
18.53612520510368
 30
0.0
 10
238.8723258324416
 20
18.45609326012566
 30
0.0
 10
238.774758961317
 20
18.30947400615583
 30
0.0
 10
238.7178450045653
 20
18.24289968894369
 30
0.0
 10
238.5911197595489
 20
18.13705399628304
 30
0.0
 10
238.5204816380671
 20
18.0969266634325
 30
0.0
 10
238.3708454839648
 20
18.06340868246843
 30
0.0
 10
238.2941065358355
 20
18.0718024736908
 30
0.0
 10
238.2265223582615
 20
18.11081798893568
 30
0.0
  0
LINE
  5
296
330
1F
100
AcDbEntity
  8
0
  6
Continuous
 62
     7
370
    15
100
AcDbLine
 10
238.2265220704
 20
18.1108182701
 30
0.0
 11
235.5196025292
 21
19.6734896588
 31
0.0
  0
SPLINE
  5
297
330
1F
100
AcDbEntity
  8
0
  6
Continuous
 62
     7
370
    15
100
AcDbSpline
210
0.0
220
0.0
230
1.0
 70
     8
 71
     3
 72
     8
 73
     4
 74
     0
 42
0.000000001
 43
0.00000001
 40
0.0
 40
0.0
 40
0.0
 40
0.0
 40
0.0011901715795577
 40
0.0011901715795577
 40
0.0011901715795577
 40
0.0011901715795577
 10
235.5196020883699
 20
19.67348979833937
 30
0.0
 10
235.541323735655
 20
20.06940017505569
 30
0.0
 10
235.5642906295671
 20
20.46527800005883
 30
0.0
 10
235.5886135632043
 20
20.86109897247608
 30
0.0
  0
ARC
  5
298
330
1F
100
AcDbEntity
  8
0
  6
Continuous
 62
     7
370
    15
100
AcDbCircle
 10
249.4357791041
 20
20.0108664862
 30
0.0
 40
11.09601928939494
100
AcDbArc
 50
212.4894083032
 51
267.2777375986
  0
SPLINE
  5
299
330
1F
100
AcDbEntity
  8
0
  6
Continuous
 62
     7
370
    15
100
AcDbSpline
210
0.0
220
0.0
230
1.0
 70
     8
 71
     3
 72
    26
 73
    22
 74
     0
 42
0.000000001
 43
0.00000001
 40
0.0
 40
0.0
 40
0.0
 40
0.0
 40
0.1249999999999999
 40
0.1249999999999999
 40
0.1874999999999998
 40
0.1874999999999998
 40
0.2499999999999996
 40
0.2499999999999996
 40
0.3749999999999994
 40
0.3749999999999994
 40
0.4999999999999996
 40
0.4999999999999996
 40
0.6249999999999997
 40
0.6249999999999997
 40
0.6874999999999997
 40
0.6874999999999997
 40
0.7499999999999998
 40
0.7499999999999998
 40
0.8749999999999999
 40
0.8749999999999999
 40
1.0
 40
1.0
 40
1.0
 40
1.0
 10
286.7397697022554
 20
31.56722651223658
 30
0.0
 10
286.9123847604766
 20
31.78195800364321
 30
0.0
 10
287.068380767586
 20
32.01027852120657
 30
0.0
 10
287.2755523864244
 20
32.37404264423574
 30
0.0
 10
287.3404969906718
 20
32.49977110981776
 30
0.0
 10
287.4582510809025
 20
32.75191813586364
 30
0.0
 10
287.5113298370316
 20
32.87877213524963
 30
0.0
 10
287.6534766683328
 20
33.26164301236121
 30
0.0
 10
287.7259784361858
 20
33.52352159133291
 30
0.0
 10
287.8190601422667
 20
34.02634545628098
 30
0.0
 10
287.8409950406443
 20
34.2715199772545
 30
0.0
 10
287.8357234881713
 20
34.73240331461265
 30
0.0
 10
287.8090475831095
 20
34.94320774889039
 30
0.0
 10
287.7340715242995
 20
35.22941680431329
 30
0.0
 10
287.7030728177483
 20
35.31954645290384
 30
0.0
 10
287.6309478296963
 20
35.48438716824852
 30
0.0
 10
287.5895851439951
 20
35.55988315375222
 30
0.0
 10
287.4494195705453
 20
35.76586074452207
 30
0.0
 10
287.3335213909489
 20
35.8758326123693
 30
0.0
 10
287.0663108336699
 20
36.03045136919251
 30
0.0
 10
286.9124015392898
 20
36.07751916519663
 30
0.0
 10
286.7397697119419
 20
36.09295505909159
 30
0.0
  0
LWPOLYLINE
  5
29A
330
1F
100
AcDbEntity
  8
0
  6
Continuous
 62
     7
370
    15
100
AcDbPolyline
 90
        3
 70
   128
 43
0.0
 10
286.7397699284
 20
36.092954922
 10
285.1438274845
 20
36.2356559147
 10
283.6173246077
 20
36.3721486267
  0
SPLINE
  5
29B
330
1F
100
AcDbEntity
  8
0
  6
Continuous
 62
     7
370
    15
100
AcDbSpline
210
0.0
220
0.0
230
1.0
 70
     8
 71
     3
 72
     8
 73
     4
 74
     0
 42
0.000000001
 43
0.00000001
 40
0.0
 40
0.0
 40
0.0
 40
0.0
 40
1.0
 40
1.0
 40
1.0
 40
1.0
 10
236.2404474219191
 20
22.18017424934563
 30
0.0
 10
236.022300261145
 20
21.74062984922718
 30
0.0
 10
235.8050771302091
 20
21.30092368588785
 30
0.0
 10
235.5886135632043
 20
20.86109897247608
 30
0.0
  0
LINE
  5
29C
330
1F
100
AcDbEntity
  8
0
  6
Continuous
 62
     7
370
    15
100
AcDbLine
 10
236.3569412126
 20
22.2474245414
 30
0.0
 11
236.2404473233
 21
22.1801740505
 31
0.0
  0
SPLINE
  5
29D
330
1F
100
AcDbEntity
  8
0
  6
Continuous
 62
     7
370
    15
100
AcDbSpline
210
0.0
220
0.0
230
1.0
 70
     8
 71
     3
 72
    12
 73
     8
 74
     0
 42
0.000000001
 43
0.00000001
 40
0.0
 40
0.0
 40
0.0
 40
0.0
 40
0.2499999999999986
 40
0.2499999999999986
 40
0.4999999999999971
 40
0.4999999999999971
 40
1.0
 40
1.0
 40
1.0
 40
1.0
 10
236.3811394704954
 20
22.91452052963507
 30
0.0
 10
236.4572146856006
 20
22.87060324276058
 30
0.0
 10
236.5161614934239
 20
22.81808936955126
 30
0.0
 10
236.5937489135098
 20
22.70235335095263
 30
0.0
 10
236.6113933194029
 20
22.64078908133437
 30
0.0
 10
236.6011747740294
 20
22.45482911456088
 30
0.0
 10
236.5079272904906
 20
22.33458709070225
 30
0.0
 10
236.3569411227841
 20
22.2474246313904
 30
0.0
  0
LINE
  5
29E
330
1F
100
AcDbEntity
  8
0
  6
Continuous
 62
     7
370
    15
100
AcDbLine
 10
234.8113622771
 20
23.820733077
 30
0.0
 11
236.3811394305
 21
22.9145200155
 31
0.0
  0
SPLINE
  5
29F
330
1F
100
AcDbEntity
  8
0
  6
Continuous
 62
     7
370
    15
100
AcDbSpline
210
0.0
220
0.0
230
1.0
 70
     8
 71
     3
 72
    12
 73
     8
 74
     0
 42
0.000000001
 43
0.00000001
 40
0.0
 40
0.0
 40
0.0
 40
0.0
 40
0.5
 40
0.5
 40
0.75
 40
0.75
 40
1.0
 40
1.0
 40
1.0
 40
1.0
 10
233.6557932186515
 20
23.80676412497178
 30
0.0
 10
233.8062814932624
 20
23.89363915671761
 30
0.0
 10
234.015713698085
 20
23.94765726838862
 30
0.0
 10
234.3357583108369
 20
23.95368555444306
 30
0.0
 10
234.4450290182085
 20
23.94325085187864
 30
0.0
 10
234.6441595361643
 20
23.89866931254491
 30
0.0
 10
234.7361198114325
 20
23.86417016495127
 30
0.0
 10
234.8113624162613
 20
23.82073353375828
 30
0.0
  0
LINE
  5
2A0
330
1F
100
AcDbEntity
  8
0
  6
Continuous
 62
     7
370
    15
100
AcDbLine
 10
233.5392992662
 20
23.7395136324
 30
0.0
 11
233.6557931555
 21
23.8067641233
 31
0.0
  0
SPLINE
  5
2A1
330
1F
100
AcDbEntity
  8
0
  6
Continuous
 62
     7
370
    15
100
AcDbSpline
210
0.0
220
0.0
230
1.0
 70
     8
 71
     3
 72
     8
 73
     4
 74
     0
 42
0.000000001
 43
0.00000001
 40
0.0
 40
0.0
 40
0.0
 40
0.0
 40
1.0
 40
1.0
 40
1.0
 40
1.0
 10
231.2543465398265
 20
23.36321806596967
 30
0.0
 10
232.0162278413059
 20
23.48817982331573
 30
0.0
 10
232.7779037857856
 20
23.6135800675858
 30
0.0
 10
233.5392995177864
 20
23.73951374292701
 30
0.0
  0
LINE
  5
2A2
330
1F
100
AcDbEntity
  8
0
  6
Continuous
 62
     7
370
    15
100
AcDbLine
 10
228.542442993
 20
24.9287662315
 30
0.0
 11
231.2543460698
 21
23.3632179089
 31
0.0
  0
LINE
  5
2A3
330
1F
100
AcDbEntity
  8
0
  6
Continuous
 62
     7
370
    15
100
AcDbLine
 10
228.542442993
 20
24.9287662315
 30
0.0
 11
232.5683191824
 21
27.252855086
 31
0.0
  0
ARC
  5
2A4
330
1F
100
AcDbEntity
  8
0
  6
Continuous
 62
     7
370
    15
100
AcDbCircle
 10
247.9925081024
 20
22.879734644
 30
0.0
 40
12.87840752353298
100
AcDbArc
 50
194.4161472332
 51
238.0417156746
  0
ELLIPSE
  5
2A5
330
1F
100
AcDbEntity
  8
0
  6
Continuous
 62
     7
370
    15
100
AcDbEllipse
 10
232.0996900455
 20
28.8298543611
 30
0.0
 11
-0.0001201194076543288
 21
1.706897922965442
 31
0.0
210
0.0
220
0.0
230
1.0
 40
0.7174342186
 41
3.534193645557521
 42
5.104989972352366
  0
ARC
  5
2A6
330
1F
100
AcDbEntity
  8
0
  6
Continuous
 62
     7
370
    15
100
AcDbCircle
 10
246.8573492592
 20
27.4671899308
 30
0.0
 40
13.82989610233247
100
AcDbArc
 50
195.6367501838
 51
215.4284682093
  0
ARC
  5
2A7
330
1F
100
AcDbEntity
  8
0
  6
Continuous
 62
     7
370
    15
100
AcDbCircle
 10
242.2628078381
 20
25.2860006608
 30
0.0
 40
12.03913886234631
100
AcDbArc
 50
193.1418706541
 51
253.6915959719
  0
SPLINE
  5
2A8
330
1F
100
AcDbEntity
  8
0
  6
Continuous
 62
     7
370
    15
100
AcDbSpline
210
0.0
220
0.0
230
1.0
 70
     8
 71
     3
 72
     8
 73
     4
 74
     0
 42
0.000000001
 43
0.00000001
 40
0.0
 40
0.0
 40
0.0
 40
0.0
 40
0.0011901715795577
 40
0.0011901715795577
 40
0.0011901715795577
 40
0.0011901715795577
 10
231.2543465398265
 20
23.36321806596967
 30
0.0
 10
231.0167523079966
 20
23.09051599333958
 30
0.0
 10
230.7782659597005
 20
22.81905490106776
 30
0.0
 10
230.5389729447108
 20
22.54874580142892
 30
0.0
  0
ARC
  5
2A9
330
1F
100
AcDbEntity
  8
0
  6
Continuous
 62
     7
370
    15
100
AcDbCircle
 10
275.6138237
 20
38.9506937618
 30
0.0
 40
5.148315384987788
100
AcDbArc
 50
320.7034186956
 51
349.7436697801
  0
LINE
  5
2AA
330
1F
100
AcDbEntity
  8
0
  6
Continuous
 62
     7
370
    15
100
AcDbLine
 10
283.6173246077
 20
27.6829338509
 30
0.0
 11
286.7397699284
 21
31.5672261861
 31
0.0
  0
LINE
  5
2AB
330
1F
100
AcDbEntity
  8
0
  6
Continuous
 62
     7
370
    15
100
AcDbLine
 10
227.6641196276
 20
24.4216171178
 30
0.0
 11
228.542442993
 21
24.9287662315
 31
0.0
  0
LINE
  5
2AC
330
1F
100
AcDbEntity
  8
0
  6
Continuous
 62
     7
370
    15
100
AcDbLine
 10
230.538973122
 20
22.5487458141
 30
0.0
 11
227.8674082013
 21
24.0910074149
 31
0.0
  0
SPLINE
  5
2AD
330
1F
100
AcDbEntity
  8
0
  6
Continuous
 62
     7
370
    15
100
AcDbSpline
210
0.0
220
0.0
230
1.0
 70
     8
 71
     3
 72
    10
 73
     6
 74
     0
 42
0.000000001
 43
0.00000001
 40
0.0
 40
0.0
 40
0.0
 40
0.0
 40
0.5
 40
0.5
 40
1.0
 40
1.0
 40
1.0
 40
1.0
 10
227.8674080138786
 20
24.09100740803704
 30
0.0
 10
227.8147995091249
 20
24.12137765138258
 30
0.0
 10
227.7704032808877
 20
24.16863695325032
 30
0.0
 10
227.7023795080243
 20
24.28352173887012
 30
0.0
 10
227.6786377472121
 20
24.35079829517134
 30
0.0
 10
227.6641197926838
 20
24.4216171416576
 30
0.0
  0
LINE
  5
2AE
330
1F
100
AcDbEntity
  8
0
  6
Continuous
 62
     7
370
    15
100
AcDbLine
 10
276.4061074873
 20
31.7194133467
 30
0.0
 11
279.5979917166
 21
35.6900869902
 31
0.0
  0
ARC
  5
2AF
330
1F
100
AcDbEntity
  8
0
  6
Continuous
 62
     7
370
    15
100
AcDbCircle
 10
239.2963703337
 20
26.1836254792
 30
0.0
 40
11.38486355417605
100
AcDbArc
 50
212.7127804463
 51
239.5329116315
  0
ELLIPSE
  5
2B0
330
1F
100
AcDbEntity
  8
0
  6
Continuous
 62
     7
370
    15
100
AcDbEllipse
 10
231.8612124144
 20
28.6921394009
 30
0.0
 11
0.5200151578418684
 21
1.941087241981862
 31
0.0
210
0.0
220
0.0
230
1.0
 40
0.5176380889
 41
3.619174351347739
 42
5.189970678142613
  0
SPLINE
  5
2B1
330
1F
100
AcDbEntity
  8
0
  6
Continuous
 62
     7
370
    15
100
AcDbSpline
210
0.0
220
0.0
230
1.0
 70
     8
 71
     3
 72
    12
 73
     8
 74
     0
 42
0.000000001
 43
0.00000001
 40
0.0
 40
0.0
 40
0.0
 40
0.0
 40
0.5000000000000003
 40
0.5000000000000003
 40
0.7500000000000001
 40
0.7500000000000001
 40
1.0
 40
1.0
 40
1.0
 40
1.0
 10
266.7720728881116
 20
69.37134747174107
 30
0.0
 10
266.8956469931717
 20
69.4426852841243
 30
0.0
 10
267.0566023899801
 20
69.49484759959556
 30
0.0
 10
267.3168874342978
 20
69.51828457175868
 30
0.0
 10
267.4071454226565
 20
69.51662835491132
 30
0.0
 10
267.5763225977913
 20
69.48983405288311
 30
0.0
 10
267.6569365911413
 20
69.46370295289454
 30
0.0
 10
267.7187596683723
 20
69.42801325008583
 30
0.0
  0
LINE
  5
2B2
330
1F
100
AcDbEntity
  8
0
  6
Continuous
 62
     7
370
    15
100
AcDbLine
 10
267.7187602181
 20
69.4280131574
 30
0.0
 11
270.0220868064
 21
68.0983310211
 31
0.0
  0
SPLINE
  5
2B3
330
1F
100
AcDbEntity
  8
0
  6
Continuous
 62
     7
370
    15
100
AcDbSpline
210
0.0
220
0.0
230
1.0
 70
     8
 71
     3
 72
     9
 73
     5
 74
     0
 42
0.000000001
 43
0.00000001
 40
0.0
 40
0.0
 40
0.0
 40
0.0
 40
0.8664443272572582
 40
1.0
 40
1.0
 40
1.0
 40
1.0
 10
273.1562482923626
 20
64.5377027356641
 30
0.0
 10
273.7946016886145
 20
64.67628271813592
 30
0.0
 10
274.5313523097104
 20
64.83622373005358
 30
0.0
 10
275.2720325044386
 20
64.9899626910358
 30
0.0
 10
275.3709545461327
 20
65.01049540139654
 30
0.0
  0
LINE
  5
2B4
330
1F
100
AcDbEntity
  8
0
  6
Continuous
 62
     7
370
    15
100
AcDbLine
 10
275.3709545461
 20
65.0104954014
 30
0.0
 11
278.0778740873
 21
63.4478240127
 31
0.0
  0
SPLINE
  5
2B5
330
1F
100
AcDbEntity
  8
0
  6
Continuous
 62
     7
370
    15
100
AcDbSpline
210
0.0
220
0.0
230
1.0
 70
     8
 71
     3
 72
    14
 73
    10
 74
     0
 42
0.000000001
 43
0.00000001
 40
0.0
 40
0.0
 40
0.0
 40
0.0
 40
0.25
 40
0.25
 40
0.5
 40
0.5
 40
0.75
 40
0.75
 40
1.0
 40
1.0
 40
1.0
 40
1.0
 10
278.0778740127552
 20
63.4478238309844
 30
0.0
 10
278.1403981890713
 20
63.41172939228884
 30
0.0
 10
278.1849329332636
 20
63.36555076140821
 30
0.0
 10
278.2312397292401
 20
63.2683280548708
 30
0.0
 10
278.2342800692321
 20
63.21632849174057
 30
0.0
 10
278.2073897276902
 20
63.11606263296572
 30
0.0
 10
278.1779907163941
 20
63.06768200274293
 30
0.0
 10
278.0947007264427
 20
62.97778111719775
 30
0.0
 10
278.0420761594076
 20
62.93731330303422
 30
0.0
 10
277.9797153699183
 20
62.90131318554611
 30
0.0
  0
LINE
  5
2B6
330
1F
100
AcDbEntity
  8
0
  6
Continuous
 62
     7
370
    15
100
AcDbLine
 10
266.7720726888
 20
69.3713470649
 30
0.0
 11
265.7562309067
 21
68.7849140867
 31
0.0
  0
SPLINE
  5
2B7
330
1F
100
AcDbEntity
  8
0
  6
Continuous
 62
     7
370
    15
100
AcDbSpline
210
0.0
220
0.0
230
1.0
 70
     8
 71
     3
 72
    10
 73
     6
 74
     0
 42
0.000000001
 43
0.00000001
 40
0.0
 40
0.0
 40
0.0
 40
0.0
 40
0.4052124101739071
 40
0.8115422890724497
 40
1.0
 40
1.0
 40
1.0
 40
1.0
 10
281.4015034380886
 20
56.70963883703288
 30
0.0
 10
281.4381426624972
 20
56.78749170977076
 30
0.0
 10
281.5115221526112
 20
56.94341215289208
 30
0.0
 10
281.5395529636057
 20
57.15852305177817
 30
0.0
 10
281.5033692437
 20
57.26483841233416
 30
0.0
 10
281.4919044768774
 20
57.2985243026075
 30
0.0
  0
LWPOLYLINE
  5
2B8
330
1F
100
AcDbEntity
  8
0
  6
Continuous
 62
     7
370
    15
100
AcDbPolyline
 90
        3
 70
   128
 43
0.0
 10
247.6159192734
 20
57.5296607144
 10
248.0108187804
 20
58.0115227003
 10
248.1968694577
 20
58.1642192377
  0
LWPOLYLINE
  5
2B9
330
1F
100
AcDbEntity
  8
0
  6
Continuous
 62
     7
370
    15
100
AcDbPolyline
 90
        3
 70
   128
 43
0.0
 10
247.7318553755
 20
57.6581232804
 10
248.0535359284
 20
58.0298431274
 10
248.1454522781
 20
58.1089731904
  0
LWPOLYLINE
  5
2BA
330
1F
100
AcDbEntity
  8
0
  6
Continuous
 62
     7
370
     0
100
AcDbPolyline
 90
        9
 70
   128
 43
0.0
 10
249.2206842381
 20
28.0499208288
 10
249.2987994705
 20
26.4025529662
 10
249.5322600841
 20
24.8640402957
 10
249.9184200468
 20
23.4518142059
 10
250.4529039891
 20
22.1818758169
 10
251.1296572528
 20
21.0686155559
 10
251.9410117455
 20
20.1246460392
 10
252.8777728688
 20
19.3606617589
 10
253.2600592728
 20
19.1219470047
  0
LWPOLYLINE
  5
2BB
330
1F
100
AcDbEntity
  8
0
  6
Continuous
 62
     7
370
     0
100
AcDbPolyline
 90
       24
 70
   128
 43
0.0
 10
272.7584742387
 20
52.8978531618
 10
272.6286165057
 20
52.9708481112
 10
271.5240556075
 20
53.449285956
 10
270.323019256
 20
53.7301296129
 10
269.0391149563
 20
53.8101956483
 10
267.6868896274
 20
53.688577556
 10
266.2816656243
 20
53.3666529979
 10
264.8393635898
 20
52.8480689909
 10
263.3763260055
 20
52.1387024034
 10
261.9091294657
 20
51.2465896064
 10
260.4543978974
 20
50.1818384199
 10
259.0286141348
 20
48.9565147738
 10
257.6479327684
 20
47.5844996876
 10
256.3279975231
 20
46.0813412583
 10
255.083763286
 20
44.464068269
 10
253.9293281781
 20
42.751005792
 10
252.8777728688
 20
40.9615645557
 10
251.9410117455
 20
39.116018904
 10
251.1296572528
 20
37.2352794298
 10
250.4529039891
 20
35.3406564824
 10
249.9184200468
 20
33.453616069
 10
249.5322600841
 20
31.5955391764
 10
249.2987994705
 20
29.787478619
 10
249.2206842381
 20
28.0499208288
  0
LWPOLYLINE
  5
2BC
330
1F
100
AcDbEntity
  8
0
  6
Continuous
 62
     7
370
     0
100
AcDbPolyline
 90
       23
 70
   128
 43
0.0
 10
238.2265220704
 20
32.8063910158
 10
238.8554860762
 20
35.2862319049
 10
239.6401919069
 20
37.7854568281
 10
240.5747903701
 20
40.2854433586
 10
241.6523193333
 20
42.7675630902
 10
242.8647485048
 20
45.2133207979
 10
244.203043971
 20
47.6044928363
 10
245.657234051
 20
49.923261735
 10
247.2164817363
 20
52.1523477521
 10
248.8691709604
 20
54.2751453693
 10
250.602985624
 20
56.2758327908
 10
252.4050057422
 20
58.1395034947
 10
254.2618055682
 20
59.8522730685
 10
256.1595480941
 20
61.4013748288
 10
258.0840935461
 20
62.7752711237
 10
260.021101068
 20
63.963718117
 10
261.9561375251
 20
64.9578666225
 10
263.8747842293
 20
65.7503039434
 10
265.7627453936
 20
66.3351301697
 10
267.6059522025
 20
66.7079832756
 10
269.3906703808
 20
66.8660875294
 10
271.1036019395
 20
66.8082635602
 10
272.7319836273
 20
66.5349441285
  0
LWPOLYLINE
  5
2BD
330
1F
100
AcDbEntity
  8
0
  6
Continuous
 62
     7
370
     0
100
AcDbPolyline
 90
       23
 70
   128
 43
0.0
 10
238.947188399
 20
32.1471432844
 10
239.5424876095
 20
34.6148533865
 10
240.296785806
 20
37.1058902171
 10
241.2042719918
 20
39.6010625197
 10
242.2579550584
 20
42.0811487296
 10
243.449716469
 20
44.5270391763
 10
244.7703747962
 20
46.9198942531
 10
246.2097568444
 20
49.2412767313
 10
247.7567727241
 20
51.4733030853
 10
249.3995047553
 20
53.5987769452
 10
251.125296371
 20
55.601325592
 10
252.9208528749
 20
57.4655204811
 10
254.7723402224
 20
59.1769981467
 10
256.6654953273
 20
60.722575592
 10
258.5857324165
 20
62.0903436256
 10
260.518258543
 20
63.2697670065
 10
262.4481851886
 20
64.251756475
 10
264.3606438793
 20
65.0287491851
 10
266.24090139
 20
65.5947584801
 10
268.074471717
 20
65.9454233237
 10
269.8472287515
 20
66.0780429267
 10
271.5455155974
 20
65.9915957481
 10
273.1562482924
 20
65.6867461391
  0
LWPOLYLINE
  5
2BE
330
1F
100
AcDbEntity
  8
0
  6
Continuous
 62
     7
370
     0
100
AcDbPolyline
 90
       16
 70
   128
 43
0.0
 10
269.7167664747
 20
19.1416640371
 10
270.3534769395
 20
18.3183773571
 10
271.132868316
 20
17.6965372169
 10
272.0384957599
 20
17.2892621939
 10
273.0512522609
 20
17.1051461708
 10
274.1497700254
 20
17.1480729356
 10
275.3108719087
 20
17.4171380011
 10
276.5100604666
 20
17.9066632459
 10
277.7220344192
 20
18.6063209161
 10
278.9212229771
 20
19.5013493093
 10
280.0823248604
 20
20.5728639431
 10
281.1808426249
 20
21.7982587922
 10
282.1935991259
 20
23.1516785821
 10
283.0992265699
 20
24.6045687953
 10
283.8786179463
 20
26.1262750646
 10
284.5153284111
 20
27.6846919996
  0
LWPOLYLINE
  5
2BF
330
1F
100
AcDbEntity
  8
0
  6
Continuous
 62
     7
370
     0
100
AcDbPolyline
 90
       16
 70
   128
 43
0.0
 10
284.5152869228
 20
36.5908622794
 10
283.8785725067
 20
37.4141272866
 10
283.0991811303
 20
38.0359491757
 10
282.1935563205
 20
38.4432089892
 10
281.1808060757
 20
38.6273141751
 10
280.0822968723
 20
38.5843809456
 10
278.9212055257
 20
38.3153143581
 10
277.7220285746
 20
37.8257920115
 10
276.5100665581
 20
37.1261412319
 10
275.3108896894
 20
36.2311233891
 10
274.1497980136
 20
35.1596222525
 10
273.0512891394
 20
33.9342439426
 10
272.0385385653
 20
32.5808420231
 10
271.1329144141
 20
31.1279704408
 10
270.3535230376
 20
29.6062824227
 10
269.716807963
 20
28.0478822183
  0
LWPOLYLINE
  5
2C0
330
1F
100
AcDbEntity
  8
0
  6
Continuous
 62
     7
370
     0
100
AcDbPolyline
 90
       18
 70
   128
 43
0.0
 10
262.5783224737
 20
13.742628505
 10
262.0640318109
 20
13.3877480085
 10
260.1565140921
 20
12.1934427878
 10
258.2491791298
 20
11.1903443529
 10
256.3563570838
 20
10.3859892009
 10
254.4922691457
 20
9.7864197317
 10
252.6709214047
 20
9.3961412292
 10
250.9059964401
 20
9.2180851347
 10
249.2107560211
 20
9.2535893788
 10
247.59793574
 20
9.5023877454
 10
246.0796547914
 20
9.9626110201
 10
244.6673178491
 20
10.6308018289
 10
243.3715380163
 20
11.5019385999
 10
242.2020512151
 20
12.569477397
 10
241.1676424292
 20
13.8253960332
 10
240.2760838009
 20
15.2602609974
 10
239.5340740448
 20
16.8632890579
 10
238.947188399
 20
18.6224385221
  0
LWPOLYLINE
  5
2C1
330
1F
100
AcDbEntity
  8
0
  6
Continuous
 62
     7
370
     0
100
AcDbPolyline
 90
       29
 70
   128
 43
0.0
 10
244.2002254005
 20
33.6768671134
 10
244.7169615683
 20
35.7391418956
 10
245.3793309028
 20
37.819343473
 10
246.1810956703
 20
39.897881766
 10
247.1147063168
 20
41.9551816472
 10
248.1713686387
 20
43.9718681079
 10
249.3411320286
 20
45.9289487606
 10
250.612980354
 20
47.8079917789
 10
251.9749360073
 20
49.5913023153
 10
253.4141712
 20
51.2620848493
 10
254.9171334156
 20
52.8046053445
 10
256.4696672396
 20
54.2043345846
 10
258.0571518318
 20
55.4480944541
 10
259.6646364618
 20
56.5241666009
 10
261.2769825496
 20
57.4224215825
 10
262.8790054996
 20
58.1343961828
 10
264.4556178512
 20
58.6533882181
 10
265.9919722245
 20
58.9745086398
 10
267.4735985858
 20
59.0947333993
 10
268.8865446818
 20
59.0129297652
 10
270.2175033037
 20
58.7298674342
 10
271.4539397152
 20
58.2482145256
 10
272.5842101909
 20
57.5725056316
 10
273.597669359
 20
56.7091056848
 10
274.4847735923
 20
55.6661434081
 10
275.2371685952
 20
54.453443245
 10
275.8477671117
 20
53.0824249713
 10
276.3108200483
 20
51.5660006457
 10
276.4880185703
 20
50.7448331468
  0
LWPOLYLINE
  5
2C2
330
1F
100
AcDbEntity
  8
0
  6
Continuous
 62
     7
370
     0
100
AcDbPolyline
 90
       13
 70
   128
 43
0.0
 10
256.9896029459
 20
16.9689269897
 10
256.4696672396
 20
16.7962706619
 10
254.9171334156
 20
16.4034825035
 10
253.4141712
 20
16.2107197612
 10
251.9749360073
 20
16.2197967121
 10
250.612980354
 20
16.4306267223
 10
249.3411320286
 20
16.8412249209
 10
248.1713686387
 20
17.4477255115
 10
247.1147063168
 20
18.2444156237
 10
246.1810956703
 20
19.2237915968
 10
245.3793309028
 20
20.3766319932
 10
244.7169615683
 20
21.6920782152
 10
244.2002254005
 20
23.1577421173
  0
ARC
  5
2C3
330
1F
100
AcDbEntity
  8
0
  6
Continuous
 62
     7
370
     0
100
AcDbCircle
 10
267.8039879916
 20
53.2364121422
 30
0.0
 40
14.03409170522032
100
AcDbArc
 50
14.3287351339
 51
43.52515955
  0
LWPOLYLINE
  5
2C4
330
1F
100
AcDbEntity
  8
0
  6
Continuous
 62
     7
370
     0
100
AcDbPolyline
 90
       23
 70
   128
 43
0.0
 10
227.8674082013
 20
38.7865801606
 10
228.496372207
 20
41.2664210496
 10
229.2810780377
 20
43.7656459729
 10
230.2156765009
 20
46.2656325034
 10
231.2932054641
 20
48.7477522349
 10
232.5056346356
 20
51.1935099427
 10
233.8439301018
 20
53.5846819811
 10
235.2981201818
 20
55.9034508798
 10
236.8573678671
 20
58.1325368969
 10
238.5100570913
 20
60.2553345141
 10
240.2438717548
 20
62.2560219356
 10
242.045891873
 20
64.1196926395
 10
243.902691699
 20
65.8324622133
 10
245.8004342249
 20
67.3815639736
 10
247.724979677
 20
68.7554602685
 10
249.6619871989
 20
69.9439072617
 10
251.5970236559
 20
70.9380557672
 10
253.5156703601
 20
71.7304930882
 10
255.4036315245
 20
72.3153193145
 10
257.2468383333
 20
72.6881724203
 10
259.0315565117
 20
72.8462766741
 10
260.7444880703
 20
72.788452705
 10
262.3728697581
 20
72.5151332733
  0
LWPOLYLINE
  5
2C5
330
1F
100
AcDbEntity
  8
0
  6
Continuous
 62
     7
370
     0
100
AcDbPolyline
 90
       19
 70
   128
 43
0.0
 10
234.8113622771
 20
36.9670406302
 10
235.404359216
 20
39.2642589703
 10
236.1481378225
 20
41.5785241472
 10
237.0365933892
 20
43.8908403705
 10
238.0624318768
 20
46.1822279314
 10
239.2172344526
 20
48.4338775702
 10
240.4915233439
 20
50.6273116884
 10
241.8748369127
 20
52.7445227461
 10
243.3558231687
 20
54.7681344707
 10
244.9223253804
 20
56.6815379727
 10
246.5614854661
 20
58.4690259568
 10
248.2598490324
 20
60.1159278847
 10
250.0034766677
 20
61.6087259354
 10
251.7780562241
 20
62.9351684936
 10
253.5690222405
 20
64.0843649466
 10
255.3616745014
 20
65.0468860666
 10
257.1412986734
 20
65.8148306108
 10
258.8932881775
 20
66.3818941559
 10
259.031405705
 20
66.4183223875
  0
LWPOLYLINE
  5
2C6
330
1F
100
AcDbEntity
  8
0
  6
Continuous
 62
     7
370
     0
100
AcDbPolyline
 90
       22
 70
   128
 43
0.0
 10
233.6557931555
 20
36.9530716764
 10
234.2459649385
 20
39.2948541676
 10
234.9893708088
 20
41.655811801
 10
235.8800008894
 20
44.0168628451
 10
236.9106599229
 20
46.3589317635
 10
238.0730199554
 20
48.6630906558
 10
239.3576861911
 20
50.9107212301
 10
240.7542799684
 20
53.0836615646
 10
242.2515144931
 20
55.1643509685
 10
243.837291644
 20
57.1359786438
 10
245.4987968034
 20
58.9826099128
 10
247.2226035661
 20
60.6893242323
 10
248.994783057
 20
62.2423284929
 10
250.8010145673
 20
63.6290756401
 10
252.6267023224
 20
64.8383579392
 10
254.457093567
 20
65.8604055631
 10
256.277397268
 20
66.6869566387
 10
258.0729047103
 20
67.3113344699
 10
259.8291059358
 20
67.7284934636
 10
261.5318102983
 20
67.935061348
 10
263.1672588272
 20
67.9293690573
 10
263.1776302446
 20
67.92863842
  0
LINE
  5
2C7
330
1F
100
AcDbEntity
  8
0
  6
Continuous
 62
     7
370
     0
100
AcDbLine
 10
266.7852167433
 20
20.0477078322
 30
0.0
 11
266.9619937968
 21
19.3879817014
 31
0.0
  0
LWPOLYLINE
  5
2C8
330
1F
100
AcDbEntity
  8
0
  6
Continuous
 62
     7
370
     0
100
AcDbPolyline
 90
        3
 70
   128
 43
0.0
 10
283.3357527081
 20
36.5008192468
 10
282.6844956536
 20
37.256617731
 10
282.0499132754
 20
37.7193305414
  0
LWPOLYLINE
  5
2C9
330
1F
100
AcDbEntity
  8
0
  6
Continuous
 62
     7
370
     0
100
AcDbPolyline
 90
       14
 70
   128
 43
0.0
 10
271.1164060203
 20
18.6292787416
 10
271.2078765354
 20
18.5806180242
 10
272.1218042743
 20
18.2522668635
 10
273.1370905741
 20
18.1514287042
 10
274.2304983625
 20
18.2804124007
 10
275.3770017134
 20
18.6362659506
 10
276.5503603447
 20
19.2108442641
 10
277.7237189761
 20
19.99099699
 10
278.870222327
 20
20.9588680329
 10
279.9636301154
 20
22.0923060974
 10
280.9789164151
 20
23.365368867
 10
281.892844154
 20
24.7489185345
 10
282.6844956536
 20
26.2112904375
 10
283.3357527081
 20
27.7190143116
  0
LINE
  5
2CA
330
1F
100
AcDbEntity
  8
0
  6
Continuous
 62
     7
370
     0
100
AcDbLine
 10
266.0204648112
 20
20.4891897253
 30
0.0
 11
266.7852167433
 21
20.0477078322
 31
0.0
  0
LINE
  5
2CB
330
1F
100
AcDbEntity
  8
0
  6
Continuous
 62
     7
370
     0
100
AcDbLine
 10
244.2002254005
 20
33.6839930309
 30
0.0
 11
243.0686707629
 21
34.3372256187
 31
0.0
  0
LWPOLYLINE
  5
2CC
330
1F
100
AcDbEntity
  8
0
  6
Continuous
 62
     7
370
     0
100
AcDbPolyline
 90
        3
 70
   128
 43
0.0
 10
232.8348961882
 20
35.0428620626
 10
232.8334842688
 20
35.2853382595
 10
232.8830963778
 20
36.7548325133
  0
LINE
  5
2CD
330
1F
100
AcDbEntity
  8
0
  6
Continuous
 62
     7
370
     0
100
AcDbLine
 10
233.2310604299
 20
29.4829803492
 30
0.0
 11
244.2002254005
 21
23.1506161998
 31
0.0
  0
LINE
  5
2CE
330
1F
100
AcDbEntity
  8
0
  6
Continuous
 62
     7
370
     0
100
AcDbLine
 10
232.992582695
 20
29.3452657093
 30
0.0
 11
233.2310604299
 21
29.4829803492
 31
0.0
  0
LWPOLYLINE
  5
2CF
330
1F
100
AcDbEntity
  8
0
  6
Continuous
 62
     7
370
     0
100
AcDbPolyline
 90
       18
 70
   128
 43
0.0
 10
190.2897173181
 20
67.8692658204
 10
190.3679300152
 20
69.2635984665
 10
190.6011719919
 20
70.7233515458
 10
190.9852819056
 20
72.2224760776
 10
191.513404308
 20
73.7342195255
 10
192.1761154271
 20
75.2316053528
 10
192.9615884621
 20
76.6879120033
 10
193.8558079395
 20
78.0771521627
 10
194.8428153503
 20
79.3745350978
 10
195.9049979215
 20
80.5569090276
 10
197.023401096
 20
81.6031734558
 10
198.1780667768
 20
82.4946584673
 10
199.3483899296
 20
83.2154553057
 10
200.5134861322
 20
83.7527015602
 10
201.6525641469
 20
84.0968099346
 10
202.7452970918
 20
84.2416391745
 10
203.7721856287
 20
84.1846063914
 10
204.3535753914
 20
84.052410954
  0
ARC
  5
2D0
330
1F
100
AcDbEntity
  8
0
  6
Continuous
 62
     7
370
     0
100
AcDbCircle
 10
196.8203764231
 20
67.3184833077
 30
0.0
 40
6.553843889033582
100
AcDbArc
 50
175.1791987811
 51
225.801960153
  0
ARC
  5
2D1
330
1F
100
AcDbEntity
  8
0
  6
Continuous
 62
     7
370
     0
100
AcDbCircle
 10
252.9849138378
 20
22.3835665065
 30
0.0
 40
15.36445589825568
100
AcDbArc
 50
196.1464242455
 51
212.8435091821
  0
LINE
  5
2D2
330
1F
100
AcDbEntity
  8
0
  6
Continuous
 62
     7
370
     0
100
AcDbLine
 10
287.270101089
 20
31.1116024969
 30
0.0
 11
286.7397699284
 21
31.5672261861
 31
0.0
  0
LINE
  5
2D3
330
1F
100
AcDbEntity
  8
0
  6
Continuous
 62
     7
370
     0
100
AcDbLine
 10
243.0688551554
 20
21.1910246984
 30
0.0
 11
232.5683191824
 21
27.252855086
 31
0.0
  0
LINE
  5
2D4
330
1F
100
AcDbEntity
  8
0
  6
Continuous
 62
     7
370
     0
100
AcDbLine
 10
236.5369945251
 20
22.4322920695
 30
0.0
 11
236.3811394305
 21
22.9145200155
 31
0.0
  0
LINE
  5
2D5
330
1F
100
AcDbEntity
  8
0
  6
Continuous
 62
     7
370
     0
100
AcDbLine
 10
279.5979917166
 20
35.6900869902
 30
0.0
 11
286.7397699284
 21
31.5672261861
 31
0.0
  0
LWPOLYLINE
  5
2D6
330
1F
100
AcDbEntity
  8
0
  6
Continuous
 62
     7
370
     0
100
AcDbPolyline
 90
        3
 70
   128
 43
0.0
 10
235.8076624094
 20
21.363348246
 10
235.4098383063
 20
22.1956179121
 10
234.8113622771
 20
23.820733077
  0
ARC
  5
2D7
330
1F
100
AcDbEntity
  8
0
  6
Continuous
 62
     7
370
     0
100
AcDbCircle
 10
247.0131000635
 20
27.5883635954
 30
0.0
 40
13.88229600618015
100
AcDbArc
 50
195.8073969979
 51
213.7468395253
  0
ARC
  5
2D8
330
1F
100
AcDbEntity
  8
0
  6
Continuous
 62
     7
370
     0
100
AcDbCircle
 10
242.6258435813
 20
28.3637730876
 30
0.0
 40
15.36450263953567
100
AcDbArc
 50
196.1464414747
 51
212.8433525357
  0
OLE2FRAME
  5
2D9
330
1F
100
AcDbEntity
  8
0
100
AcDbOle2Frame
 70
     2
  3
Paintbrush-Bild
 10
13.8511154363
 20
38.264191557
 30
0.0
 11
51.6290888628
 21
31.9806341108
 31
0.0
 71
     2
 72
     0
 73
     1
 90
    12928
310
80552BED0767C5B32B40DDAF6807D121434000000000000000006FFBDDFB85D0
310
4940DDAF6807D121434000000000000000006FFBDDFB85D04940416F4BD60AFB
310
3F4000000000000000002BED0767C5B32B40416F4BD60AFB3F40000000000000
310
0000000000000100000000010000010000000100000000000100000000320000
310
D0CF11E0A1B11AE1000000000000000000000000000000003E000300FEFF0900
310
0600000000000000000000000100000001000000000000000010000002000000
310
01000000FEFFFFFF0000000000000000FFFFFFFFFFFFFFFFFFFFFFFFFFFFFFFF
310
FFFFFFFFFFFFFFFFFFFFFFFFFFFFFFFFFFFFFFFFFFFFFFFFFFFFFFFFFFFFFFFF
310
FFFFFFFFFFFFFFFFFFFFFFFFFFFFFFFFFFFFFFFFFFFFFFFFFFFFFFFFFFFFFFFF
310
FFFFFFFFFFFFFFFFFFFFFFFFFFFFFFFFFFFFFFFFFFFFFFFFFFFFFFFFFFFFFFFF
310
FFFFFFFFFFFFFFFFFFFFFFFFFFFFFFFFFFFFFFFFFFFFFFFFFFFFFFFFFFFFFFFF
310
FFFFFFFFFFFFFFFFFFFFFFFFFFFFFFFFFFFFFFFFFFFFFFFFFFFFFFFFFFFFFFFF
310
FFFFFFFFFFFFFFFFFFFFFFFFFFFFFFFFFFFFFFFFFFFFFFFFFFFFFFFFFFFFFFFF
310
FFFFFFFFFFFFFFFFFFFFFFFFFFFFFFFFFFFFFFFFFFFFFFFFFFFFFFFFFFFFFFFF
310
FFFFFFFFFFFFFFFFFFFFFFFFFFFFFFFFFFFFFFFFFFFFFFFFFFFFFFFFFFFFFFFF
310
FFFFFFFFFFFFFFFFFFFFFFFFFFFFFFFFFFFFFFFFFFFFFFFFFFFFFFFFFFFFFFFF
310
FFFFFFFFFFFFFFFFFFFFFFFFFFFFFFFFFFFFFFFFFFFFFFFFFFFFFFFFFFFFFFFF
310
FFFFFFFFFFFFFFFFFFFFFFFFFFFFFFFFFFFFFFFFFFFFFFFFFFFFFFFFFFFFFFFF
310
FFFFFFFFFFFFFFFFFFFFFFFFFFFFFFFFFFFFFFFFFFFFFFFFFFFFFFFFFFFFFFFF
310
FFFFFFFFFFFFFFFFFFFFFFFFFFFFFFFFFFFFFFFFFFFFFFFFFFFFFFFFFFFFFFFF
310
FDFFFFFFFEFFFFFFFEFFFFFFFEFFFFFF05000000060000000700000008000000
310
090000000A0000000B0000000C0000000D0000000E0000000F00000010000000
310
11000000120000001300000014000000150000001600000017000000FEFFFFFF
310
FFFFFFFFFFFFFFFFFFFFFFFFFFFFFFFFFFFFFFFFFFFFFFFFFFFFFFFFFFFFFFFF
310
FFFFFFFFFFFFFFFFFFFFFFFFFFFFFFFFFFFFFFFFFFFFFFFFFFFFFFFFFFFFFFFF
310
FFFFFFFFFFFFFFFFFFFFFFFFFFFFFFFFFFFFFFFFFFFFFFFFFFFFFFFFFFFFFFFF
310
FFFFFFFFFFFFFFFFFFFFFFFFFFFFFFFFFFFFFFFFFFFFFFFFFFFFFFFFFFFFFFFF
310
FFFFFFFFFFFFFFFFFFFFFFFFFFFFFFFFFFFFFFFFFFFFFFFFFFFFFFFFFFFFFFFF
310
FFFFFFFFFFFFFFFFFFFFFFFFFFFFFFFFFFFFFFFFFFFFFFFFFFFFFFFFFFFFFFFF
310
FFFFFFFFFFFFFFFFFFFFFFFFFFFFFFFFFFFFFFFFFFFFFFFFFFFFFFFFFFFFFFFF
310
FFFFFFFFFFFFFFFFFFFFFFFFFFFFFFFFFFFFFFFFFFFFFFFFFFFFFFFFFFFFFFFF
310
FFFFFFFFFFFFFFFFFFFFFFFFFFFFFFFFFFFFFFFFFFFFFFFFFFFFFFFFFFFFFFFF
310
FFFFFFFFFFFFFFFFFFFFFFFFFFFFFFFFFFFFFFFFFFFFFFFFFFFFFFFFFFFFFFFF
310
FFFFFFFFFFFFFFFFFFFFFFFFFFFFFFFFFFFFFFFFFFFFFFFFFFFFFFFFFFFFFFFF
310
FFFFFFFFFFFFFFFFFFFFFFFFFFFFFFFFFFFFFFFFFFFFFFFFFFFFFFFFFFFFFFFF
310
FFFFFFFFFFFFFFFFFFFFFFFFFFFFFFFFFFFFFFFFFFFFFFFFFFFFFFFFFFFFFFFF
310
52006F006F007400200045006E00740072007900000000000000000000000000
310
0000000000000000000000000000000000000000000000000000000000000000
310
16000500FFFFFFFFFFFFFFFF020000000A00030000000000C000000000000046
310
000000000000000000000000702D6BEC991FD20103000000C000000000000000
310
01004F006C006500000000000000000000000000000000000000000000000000
310
0000000000000000000000000000000000000000000000000000000000000000
310
0A000200FFFFFFFFFFFFFFFFFFFFFFFF00000000000000000000000000000000
310
0000000000000000000000000000000000000000000000001400000000000000
310
010043006F006D0070004F0062006A0000000000000000000000000000000000
310
0000000000000000000000000000000000000000000000000000000000000000
310
120002010100000003000000FFFFFFFF00000000000000000000000000000000
310
0000000000000000000000000000000000000000010000004D00000000000000
310
01004F006C006500310030004E00610074006900760065000000000000000000
310
0000000000000000000000000000000000000000000000000000000000000000
310
1A000200FFFFFFFFFFFFFFFFFFFFFFFF00000000000000000000000000000000
310
0000000000000000000000000000000000000000040000002426000000000000
310
FEFFFFFF02000000FEFFFFFFFFFFFFFFFFFFFFFFFFFFFFFFFFFFFFFFFFFFFFFF
310
FFFFFFFFFFFFFFFFFFFFFFFFFFFFFFFFFFFFFFFFFFFFFFFFFFFFFFFFFFFFFFFF
310
FFFFFFFFFFFFFFFFFFFFFFFFFFFFFFFFFFFFFFFFFFFFFFFFFFFFFFFFFFFFFFFF
310
FFFFFFFFFFFFFFFFFFFFFFFFFFFFFFFFFFFFFFFFFFFFFFFFFFFFFFFFFFFFFFFF
310
FFFFFFFFFFFFFFFFFFFFFFFFFFFFFFFFFFFFFFFFFFFFFFFFFFFFFFFFFFFFFFFF
310
FFFFFFFFFFFFFFFFFFFFFFFFFFFFFFFFFFFFFFFFFFFFFFFFFFFFFFFFFFFFFFFF
310
FFFFFFFFFFFFFFFFFFFFFFFFFFFFFFFFFFFFFFFFFFFFFFFFFFFFFFFFFFFFFFFF
310
FFFFFFFFFFFFFFFFFFFFFFFFFFFFFFFFFFFFFFFFFFFFFFFFFFFFFFFFFFFFFFFF
310
FFFFFFFFFFFFFFFFFFFFFFFFFFFFFFFFFFFFFFFFFFFFFFFFFFFFFFFFFFFFFFFF
310
FFFFFFFFFFFFFFFFFFFFFFFFFFFFFFFFFFFFFFFFFFFFFFFFFFFFFFFFFFFFFFFF
310
FFFFFFFFFFFFFFFFFFFFFFFFFFFFFFFFFFFFFFFFFFFFFFFFFFFFFFFFFFFFFFFF
310
FFFFFFFFFFFFFFFFFFFFFFFFFFFFFFFFFFFFFFFFFFFFFFFFFFFFFFFFFFFFFFFF
310
FFFFFFFFFFFFFFFFFFFFFFFFFFFFFFFFFFFFFFFFFFFFFFFFFFFFFFFFFFFFFFFF
310
FFFFFFFFFFFFFFFFFFFFFFFFFFFFFFFFFFFFFFFFFFFFFFFFFFFFFFFFFFFFFFFF
310
FFFFFFFFFFFFFFFFFFFFFFFFFFFFFFFFFFFFFFFFFFFFFFFFFFFFFFFFFFFFFFFF
310
FFFFFFFFFFFFFFFFFFFFFFFFFFFFFFFFFFFFFFFFFFFFFFFFFFFFFFFFFFFFFFFF
310
0100000200000000000000000000000000000000000000000000000000000000
310
0000000000000000000000000000000000000000000000000000000000000000
310
0100FEFF030A0000FFFFFFFF0A00030000000000C00000000000004607000000
310
5042727573680007000000504272757368000700000050427275736800F439B2
310
7100000000000000000000000000000000000000000000000000000000000000
310
0000000000000000000000000000000000000000000000000000000000000000
310
0000000000000000000000000000000000000000000000000000000000000000
310
0000000000000000000000000000000000000000000000000000000000000000
310
0000000000000000000000000000000000000000000000000000000000000000
310
0000000000000000000000000000000000000000000000000000000000000000
310
0000000000000000000000000000000000000000000000000000000000000000
310
0000000000000000000000000000000000000000000000000000000000000000
310
0000000000000000000000000000000000000000000000000000000000000000
310
0000000000000000000000000000000000000000000000000000000000000000
310
0000000000000000000000000000000000000000000000000000000000000000
310
0000000000000000000000000000000000000000000000000000000000000000
310
20260000424D0E260000000000003E00000028000000B40200006E0000000100
310
01000000000000000000130B0000130B00000200000002000000000000FFFFFF
310
FFFFFFFFFFFFFFFFFFFFFFFFFFFFFFFFFFFFFFFFFFFFFFFFFFFFFFFFFFFFFFFF
310
FFFFFFFFFFFFFFFFFFFFFFFFFFFFFFFFFFFFFFFFFFFFFFFFFFFFFFFFFFFFFFFF
310
FFFFFFFFFFFFFFFFFFFFFFFFFFFFFFFFFFFFFFFFFFFFFFFFF000FFFFFFFFFFFF
310
FFFFFFFFFFFFFFFFFFFFFFFFFFFFFFFFFFFFFFFFFFFFFFFFFFFFFFFFFFFFFFFF
310
FFFFFFFFFFFFFFFFFFFFFFFFFFFFFFFFFFFFFFFFFFFFFFFFFFFFFFFFFFFFFFFF
310
FFFFFFFFFFFFFFFFFFFFFFFFFFFFFFFFF000FFFFFFFFFFFFFFFFFFFFFFFFFFFF
310
FFFFFFFFFFFFFFFFFFFFFFFFFFFFFFFFFFFFFFFFFFFFFFFFFFFFFFFFFFFFFFFF
310
FFFFFFFFFFFFFFFFFFFFFFFFFFFFFFFFFFFFFFFFFFFFFFFFFFFFFFFFFFFFFFFF
310
FFFFFFFFFFFFFFFFF000FFFFFFFFFFFFFFFFFFFFFFFFFFFFFFFFFFFFFFFFFFFF
310
FFFFFFFFFFFFFFFFFFFFFFFFFFFFFFFFFFFFFFFFFFFFFFFFFFFFFFFFFFFFFFFF
310
FFFFFFFFFFFFFFFFFFFFFFFFFFFFFFFFFFFFFFFFFFFFFFFFFFFFFFFFFFFFFFFF
310
F000FFFFFFFFFFFFFFFFFFFFFFFFFFFFFFFFFFFFFFFFFFFFFFFFFFFFFFFFFFFF
310
FFFFFFFFFFFFFFFFFFFFFFFFFFFFFFFFFFFFFFFFFFFFFFFFFFFFFFFFFFFFFFFF
310
FFFFFFFFFFFFFFFFFFFFFFFFFFFFFFFFFFFFFFFFFFFFFFFFF000FFFFFFFFFFFF
310
FFFFFFFFFFFFFFFFFFFFFFFFFFFFFFFFFFFFFFFFFFFFFFFFFFFFFFFFFFFFFFFF
310
FFFFFFFFFFFFFFFFFFFFFFFFFFFFFFFFFFFFFFFFFFFFFFFFFFFFFFFFFFFFFFFF
310
FFFFFFFFFFFFFFFFFFFFFFFFFFFFFFFFF000FFFFFFFFFFFFFFFFFFFFFFFFFFFF
310
FFFFFFFFFFFFFFFFFFFFFFFFFFFFFFFFFFFFFFFFFFFFFFFFFFFFFFFFFFFFFFFF
310
FFFFFFFFFFFFFFFFFFFFFFFFFFFFFFFFFFFFFFFFFFFFFFFFFFFFFFFFFFFFFFFF
310
FFFFFFFFFFFFFFFFF000FFFFFFFFFFFFFFFFFFFFFFFFFFFFFFFFFFFFFFFFFFFF
310
FFFFFFFFFFFFFFFFFFFFFFFFFFFFFFFFFFFFFFFFFFFFFFFFFFFFFFFFFFFFFFFF
310
FFFFFFFFFFFFFFFFFFFFFFFFFFFFFFFFFFFFFFFFFFFFFFFFFFFFFFFFFFFFFFFF
310
F000FFFFFFFFFFFFFFFFFFFFFFFFFFFFFFFFFFFFFFFFFFFFFFFFFFFFFFFFFFFF
310
FFFFFFFFFFFFFFFFFFFFFFFFFFFFFFFFFFFFFFFFFFFFFFFFFFFFFFFFFFFFFFFF
310
FFFFFFFFFFFFFFFFFFFFFFFFFFFFFFFFFFFFFFFFFFFFFFFFF000FFFFFFFFFFFF
310
FFFFFFFFFFFFFFFFFFFFFFFFFFFFFFFFFFFFFFFFFFFFFFFFFFFFFFFFFFFFFFFF
310
FFFFFFFFFFFFFFFFFFFFFFFFFFFFFFFFFFFFFFFFFFFFFFFFFFFFFFFFFFFFFFFF
310
FFFFFFFFFFFFFFFFFFFFFFFFFFFFFFFFF000FFFFFFFFFFFFFFFFFFFFFFFFFFFF
310
FFFFFFFFFFFFFFFFFFFFFFFFFFFFFFFFFFFFFFFFFFFFFFFFFFFFFFFFFFFFFFFF
310
FFFFFFFFFFFFFFFFFFFFFFFFFFFFFFFFFFFFFFFFFFFFFFFFFFFFFFFFFFFFFFFF
310
FFFFFFFFFFFFFFFFF000FFFFFFFFFFFFFFFFFFFFFFFFFFFFFFFFFFFFFFFFFFFF
310
FFFFFFFFFFFFFFFFFFFFFFFFFFFFFFFFFFFFFFFFFFFFFFFFFFFFFFFFFFFFFFFF
310
FFFFFFFFFFFFFFFFFFFFFFFFFFFFFFFFFFFFFFFFFFFFFFFFFFFFFFFFFFFFFFFF
310
F000FFFFFFFFFFFFFFFFFFFFFFFFFFFFFFFFFFFFFFFFFFFFFFFFFFFFFFFFFFFF
310
FFFFFFFFFFFFFFFFFFFFFFFFFFFFFFFFFFFFFFFFFFFFFFFFFFFFFFFFFFFFFFFF
310
FFFFFFFFFFFFFFFFFFFFFFFFFFFFFFFFFFFFFFFFFFFFFFFFF000FFFFFFFFFFFF
310
FFFFFFFFFFFFFFFFFFFFFFFFFFFFFFFFFFFFFFFFFFFFFFFFFFFFFFFFFFFFFFFF
310
FFFFFFFFFFFFFFFFFFFFFFFFFFFFFFFFFFFFFFFFFFFFFFFFFFFFFFFFFFFFFFFF
310
FFFFFFFFFFFFFFFFFFFFFFFFFFFFFFFFF000FFFFFFFFFFFFFFFFFFFFFFFFFFFF
310
FFFFFFFFFFFFFFFFFFFFFFFFFFFFFFFFFFFFFFFFFFFFFFFFFFFFFFFFFFFFFFFF
310
FFFFFFFFFFFFFFFFFFFFFFFFFFFFFFFFFFFFFFFFFFFFFFFFFFFFFFFFFFFFFFFF
310
FFFFFFFFFFFFFFFFF000FFFFFFFFFFFFFFFFFFFFFFFFFFFFFFFFFFFFFFFFFFFF
310
FFFFFFFFFFFFFFFFFFFFFFFFFFFFFFFFFFFFFFFFFFFFFFFFFFFFFFFFFFFFFFFF
310
FFFFFFFFFFFFFFFFFFFFFFFFFFFFFFFFFFFFFFFFFFFFFFFFFFFFFFFFFFFFFFFF
310
F000FFFFFFFFFFFFFFFFFFFFFFFFFFFFFFFFFFFFFFFFFFFFFFFFFFFFFFFFFFFF
310
FFFFFFFFFFFFFFFFFFFFFFFFFFFFFFFFFFFFFFFFFFFFFFFFFFFFFFFFFFFFFFFF
310
FFFFFFFFFFFFFFFFFFFFFFFFFFFFFFFFFFFFFFFFFFFFFFFFF000FFFFFFFFFFFF
310
FFFFFFFFFFFFFFFFFFFFFFFFFFFFFFFFFFFFFFFFFFFFFFFFFFFFFFFFFFFFFFFF
310
FFFFFFFFFFFFFFFFFFFFFFFFFFFFFFFFFFFFFFFFFFFFFFFFFFFFFFFFFFFFFFFF
310
FFFFFFFFFFFFFFFFFFFFFFFFFFFFFFFFF000FFFFFFFFFFFFFFFFFFFFFFFFFFFF
310
FFFFFFFFFFFFFFFFFFFFFFFFFFFFFFFFFFFFFFFFFFFFFFFFFFFFFFFFFFFFFFFF
310
FFFFFFFFFFFFFFFFFFFFFFFFFFFFFFFFFFFFFFFFFFFFFFFFFFFFFFFFFFFFFFFF
310
FFFFFFFFFFFFFFFFF000FFFFF80003FFFFFFFFFFFFFFFFFFFFFFFFFFFFFFFFFF
310
FFFFF00007FFFFFFFFFF00007FFFFFF800000000000000007FFFFFFFFFFFFFFF
310
FFFFFFFC001FFFFFFFFFFFFFFC001FFFFFFFFFFFFFFFFFFFFFFFFFFE0007FFFF
310
F000FFFF8000007FFFFFFFF8000FFFFFC0007FFFFF80007FFFFF0000007FFFFF
310
FFF8000007FFFFF800000000000000007FFFFFF0001FFFFFFFFFFFC00001FFFF
310
FFFFFFFFC00001FFFFFFFF000000000003FFFFE000007FFFF000FFFE0000000F
310
FFFFFFF0000FFFFF80007FFFFF80007FFFFC0000001FFFFFFFC0000001FFFFF8
310
00000000000000007FFFFFF0001FFFFFFFFFFE0000003FFFFFFFFFFE0000003F
310
FFFFFF000000000003FFFF0000000FFFF000FFF800000003FFFFFFF00007FFFF
310
80007FFFFF80007FFFF000000007FFFFFF000000003FFFF80000000000000000
310
7FFFFFF0001FFFFFFFFFF80000000FFFFFFFFFF80000000FFFFFFF0000000000
310
03FFFC00000003FFF000FFE000000000FFFFFFF00007FFFF80003FFFFF80007F
310
FFC000000001FFFFFC000000001FFFF800000000000000007FFFFFF0001FFFFF
310
FFFFE000000003FFFFFFFFE000000003FFFFFF000000000003FFF000000000FF
310
F000FF80000000007FFFFFF00007FFFF80003FFFFF80007FFF8000000000FFFF
310
F80000000007FFF800000000000000007FFFFFF0001FFFFFFFFFC000000001FF
310
FFFFFFC000000001FFFFFF000000000003FFC0000000007FF000FF0000000000
310
3FFFFFE00007FFFF00003FFFFF80007FFE00000000003FFFF00000000003FFF8
310
00000000000000007FFFFFF0001FFFFFFFFF8000000000FFFFFFFF8000000000
310
FFFFFF000000000003FF80000000003FF000FE00000000001FFFFFE00003FFFF
310
00003FFFFF80007FFC00000000001FFFE00000000001FFF8000001FFFE000000
310
7FFFFFF0001FFFFFFFFE00000000003FFFFFFE00000000003FFFFF0000000000
310
03FF00000000001FF000FC00000000000FFFFFE00003FFFF00001FFFFF80007F
310
F800000000001FFFC00000000000FFF8000001FFFE0000007FFFFFF0001FFFFF
310
FFFC00000000001FFFFFFC00000000001FFFFF000000000003FE00000000000F
310
F000F8000000000007FFFFE00003FFFF00001FFFFF80007FF800000000000FFF
310
800000000000FFF8000001FFFE0000007FFFFFF0001FFFFFFFF800000000000F
310
FFFFF800000000000FFFFF000000000003FC000000000007F000F80000000000
310
03FFFFC00003FFFE00001FFFFF80007FF0000000000007FF0000000000007FF8
310
000001FFFE0000007FFFFFF0001FFFFFFFF0000000000007FFFFF00000000000
310
07FFFF000000000003F8000000000003F000F0000000000003FFFFC00001FFFE
310
00001FFFFF80007FE0000000000007FE0000000000003FF8000001FFFE000000
310
7FFFFFF0001FFFFFFFF0000000000007FFFFF0000000000007FFFF0000000000
310
03F800001F800003F000E00001FFF00001FFFFC00001FFFE00000FFFFF80007F
310
E00001FFE00003FE00001FFF00003FF8000001FFFE0000007FFFFFF0001FFFFF
310
FFE000003E000003FFFFE000003E000003FFFF000000000003F00001FFF80001
310
F000E00007FFFC0001FFFFC00001FFFE00000FFFFF80007FC0000FFFFC0003FC
310
0000FFFFC0001FF8000001FFFE0000007FFFFFF0001FFFFFFFC00003FFE00001
310
FFFFC00003FFE00001FFFF0001FFFFFFFFF00007FFFE0001F000E0000FFFFF00
310
00FFFF800001FFFC00000FFFFF80007FC0001FFFFE0001FC0001FFFFE0001FF8
310
000001FFFE0000007FFFFFF0001FFFFFFF80000FFFF80000FFFF80000FFFF800
310
00FFFF0003FFFFFFFFE0000FFFFF8000F000C0003FFFFF8000FFFF800000FFFC
310
000007FFFF80007F80003FFFFF0001FC0003FFFFF0001FF8000001FFFE000000
310
7FFFFFF0001FFFFFFF80003FFFFE0000FFFF80003FFFFE0000FFFF0003FFFFFF
310
FFE0003FFFFF8000F000C0003FFFFF8000FFFF800000FFFC000007FFFF80007F
310
80007FFFFF8001F80007FFFFF8000FF8000001FFFE0000007FFFFFF0001FFFFF
310
FF00007FFFFF00007FFF00007FFFFF00007FFF0003FFFFFFFFE0003FFFFFC000
310
F000C0007FFFFFC000FFFF000000FFFC000007FFFF80007F8000FFFFFF8000F8
310
000FFFFFF8000FF8000001FFFE0000007FFFFFF0001FFFFFFF0000FFFFFF8000
310
7FFF0000FFFFFF80007FFF0003FFFFFFFFC0007FFFFFC00070008000FFFFFFC0
310
00FFFF000000FFF8000007FFFF80007F8000FFFFFF8000F8000FFFFFF8000FF8
310
000001FFFE0000007FFFFFF0001FFFFFFE0001FFFFFFC0003FFE0001FFFFFFC0
310
003FFF0003FFFFFFFFC0007FFFFFE00070008000FFFFFFC0007FFF0000007FF8
310
000003FFFF80007F0001FFFFFF8000F8000FFFFFF8000FF8000001FFFE000000
310
7FFFFFF0001FFFFFFE0001FFFFFFC0003FFE0001FFFFFFC0003FFF0003FFFFFF
310
FFC000FFFFFFE00070008000FFFFFFC0007FFF0000007FF8000003FFFF80007F
310
0001FFFFFF8000F8001FFFFFF8000FF8000001FFFE0000007FFFFFF0001FFFFF
310
FE0003FFFFFFE0003FFE0003FFFFFFE0003FFF0003FFFFFFFFC000FFFFFFE000
310
70008000FFFFFFC0007FFE0000007FF8000003FFFF80007F0001FFFFFF8000F0
310
001FFFFFF8000FF8000001FFFE0000007FFFFFF0001FFFFFFC0003FFFFFFE000
310
1FFC0003FFFFFFE0001FFF0003FFFFFFFFC000FFFFFFC00070008000FFFFFF80
310
007FFE0000007FF0000003FFFF80007F0001FFFFFF0000F0001FFFFFF8000FF8
310
000001FFFE0000007FFFFFF0001FFFFFFC0007FFFFFFF0001FFC0007FFFFFFF0
310
001FFF0003FFFFFFFFC000FFFFFFC00070008001FFFFFF0000FFFE0000003FF0
310
000001FFFF80007F0001FFFFFF0000F8001FFFFFF0000FF8000001FFFE000000
310
7FFFFFF0001FFFFFFC0007FFFFFFF0001FFC0007FFFFFFF0001FFF0003FFFFFF
310
FFC001FFFFFF80007000FFFFFFFFFE0000FFFE0008003FF0008001FFFF80007F
310
FFFFFFFFFC0000FFFFFFFFFFE0000FF8000001FFFE0000007FFFFFF0001FFFFF
310
F8000FFFFFFFF8000FF8000FFFFFFFF8000FFF0003FFFFFFFFFFFFFFFFFF0000
310
7000FFFFFFFFFC0000FFFC0008003FF0008001FFFF80007FFFFFFFFFF80001FF
310
FFFFFFFF80000FF8000001FFFE0000007FFFFFF0001FFFFFF8000FFFFFFFF800
310
0FF8000FFFFFFFF8000FFF0003FFFFFFFFFFFFFFFFFE0000F000FFFFFFFFE000
310
00FFFC000C003FE000C001FFFF80007FFFFFFFFFC00001FFFFFFFFFE00001FF8
310
000001FFFE0000007FFFFFF0001FFFFFF8000FFFFFFFF8000FF8000FFFFFFFF8
310
000FFF0003FFFFFFFFFFFFFFFFF00000F000FFFFFFFE000001FFFC000C001FE0
310
00C000FFFF80007FFFFFFFFE000001FFFFFFFFE000001FF80FFFFFFFFFFFFFC0
310
7FFFFFF0001FFFFFF8000FFFFFFFF8000FF8000FFFFFFFF8000FFF0003FFFFFF
310
FFFFFFFFFF800000F000FFFFFFC0000001FFFC001C001FE001C000FFFF80007F
310
FFFFFF80000003FFFFFFF80000001FF80FFFFFFFFFFFFFC07FFFFFF0001FFFFF
310
F8001FFFFFFFFC000FF8001FFFFFFFFC000FFF0003FFFFFFFFFFFFFFF0000001
310
F000FFFFF800000001FFF8001C001FE001C000FFFF80007FFFFFF800000003FF
310
FFFF800000003FF80FFFFFFFFFFFFFC07FFFFFF0001FFFFFF8001FFFFFFFFC00
310
0FF8001FFFFFFFFC000FFF0003FFFFFFFFFFFFFE00000001F000FFFFC0000000
310
03FFF8001E001FC001E000FFFF80007FFFFF8000000007FFFFFC000000003FF8
310
0FFFFFFFFFFFFFC07FFFFFF0001FFFFFF8001FFFFFFFFC000FF8001FFFFFFFFC
310
000FFF0003FFFFFFFFFFFFE000000003F000FFFE0000000007FFF8001E000FC0
310
01E0007FFF80007FFFFE0000000007FFFFE0000000007FF80FFFFFFFFFFFFFC0
310
7FFFFFF0001FFFFFF0001FFFFFFFFC0007F0001FFFFFFFFC0007FF0003FFFFFF
310
FFFFFF0000000003F000FFF80000000007FFF8001E000FC003E0007FFF80007F
310
FFF0000000000FFFFF8000000000FFF80FFFFFFFFFFFFFC07FFFFFF0001FFFFF
310
F0001FFFFFFFFC0007F0001FFFFFFFFC0007FF0003FFFFFFFFFFFC0000000007
310
F000FFE0000000000FFFF0003E000FC003E0007FFF80007FFFC0000000001FFF
310
FE0000000001FFF80FFFFFFFFFFFFFC07FFFFFF0001FFFFFF0001FFFFFFFFC00
310
07F0001FFFFFFFFC0007FF0003FFFFFFFFFFF0000000000FF000FFC000000000
310
1FFFF0003F000F8003F0003FFF80007FFF80000000003FFFF80000000003FFF8
310
0FFFFFFFFFFFFFC07FFFFFF0001FFFFFF0001FFFFFFFFC0007F0001FFFFFFFFC
310
0007FF0003FFFFFFFFFFE0000000001FF000FF00000000007FFFF0003F000780
310
03F0003FFF80007FFF00000000007FFFF00000000007FFF80FFFFFFFFFFFFFC0
310
7FFFFFF0001FFFFFF0001FFFFFFFFC0007F0001FFFFFFFFC0007FF0003FFFFFF
310
FFFF80000000007FF000FE0000000000FFFFE0003F00078007F0003FFF80007F
310
FE0000000001FFFFE0000000001FFFF80FFFFFFFFFFFFFC07FFFFFF0001FFFFF
310
F0001FFFFFFFFC0007F0001FFFFFFFFC0007FF0003FFFFFFFFFF0000000000FF
310
F000FC0000000003FFFFE0007F00078007F0003FFF80007FFC0000000007FFFF
310
C0000000007FFFF80FFFFFFFFFFFFFC07FFFFFF0001FFFFFF8001FFFFFFFFC00
310
0FF8001FFFFFFFFC000FFF0003FFFFFFFFFE0000000003FFF000FC000000000F
310
FFFFE0007F80070007F8001FFF80007FF8000000001FFFFF8000000001FFFFF8
310
0FFFFFFFFFFFFFC07FFFFFF0001FFFFFF8001FFFFFFFFC000FF8001FFFFFFFFC
310
000FFF0003FFFFFFFFFC000000000FFFF000F8000000007FFFFFE0007F800700
310
07F8001FFF80007FF000000000FFFFFF800000000FFFFFF80FFFFFFFFFFFFFC0
310
7FFFFFF0001FFFFFF8000FFFFFFFF8000FF8000FFFFFFFF8000FFF0003FFFFFF
310
FFFC000000007FFFF000F800000007FFFFFFC0007F8003000FF8001FFF80007F
310
F000000007FFFFFF000000007FFFFFF80FFFFFFFFFFFFFC07FFFFFF0001FFFFF
310
F8000FFFFFFFF8000FF8000FFFFFFFF8000FFF0003FFFFFFFFF80000000FFFFF
310
F000F0000000FFFFFFFFC000FF8003000FF8001FFF80007FE0000000FFFFFFFF
310
0000000FFFFFFFF8000001FFFE0000007FFFFFF0001FFFFFF8000FFFFFFFF800
310
0FF8000FFFFFFFF8000FFF0003FFFFFFFFF8000000FFFFFFF000F000000FFFFF
310
FFFFC000FFC002000FF8000FFF80007FE000001FFFFFFFFE000001FFFFFFFFF8
310
000001FFFE0000007FFFFFF0001FFFFFF8000FFFFFFFF8000FF8000FFFFFFFF8
310
000FFF0003FFFFFFFFF000001FFFFFFFF000E00000FFFFFFFFFFC000FFC00200
310
0FFC000FFF80007FE00001FFFFFFFFFE00001FFFFFFFFFF8000001FFFE000000
310
7FFFFFF0001FFFFFFC000FFFFFFFF8001FFC000FFFFFFFF8001FFF0003FFFFFF
310
FFF00001FFFFFFFFF000E00007FFFFFFFFFF8000FFC000001FFC000FFF80007F
310
C0000FFFFFFFFFFE0000FFFFFFFFFFF8000001FFFE0000007FFFFFF0001FFFFF
310
FC0007FFFFFFF0001FFC0007FFFFFFF0001FFF0003FFFFFFFFF00007FFFFFFFF
310
F000E0001FFFFFFFFFFF8000FFC000001FFC000FFF80007FC0003FFFFFFFFFFE
310
0001FFFFFFFFFFF8000001FFFE0000007FFFFFF0001FFFFFFC0007FFFFFFF000
310
1FFC0007FFFFFFF0001FFF0003FFFFFFFFF0001FFFFFFFFFF000E0003FFFFF00
310
03FF8001FFE000001FFC0007FF80007FC0007FFFFF0007FC0003FFFFF0003FF8
310
000001FFFE0000007FFFFFF0001FFFFFFC0003FFFFFFE0001FFC0003FFFFFFE0
310
001FFF0003FFFFFFFFF0003FFFFFFFFFF000E0003FFFFF0001FF8001FFE00000
310
1FFE0007FF80007FC0007FFFFE0003FC0007FFFFE0003FF8000001FFFE000000
310
7FFFFFF0001FFFFFFE0003FFFFFFE0003FFE0003FFFFFFE0003FFF0003FFFFFF
310
FFF0003FFFFF8001F000E0003FFFFF0001FF0001FFE000001FFE0007FF80007F
310
C0007FFFFE0003FC0007FFFFE0003FF8000001FFFE0000007FFFFFF0001FFFFF
310
FE0001FFFFFFC0003FFE0001FFFFFFC0003FFF0003FFFFFFFFF0003FFFFF0001
310
F000E0003FFFFF0003FF0001FFE000003FFE0007FF80007FC0007FFFFE0003FC
310
0007FFFFE0003FF8000001FFFE0000007FFFFFF0001FFFFFFF0001FFFFFFC000
310
7FFF0001FFFFFFC0007FFF0003FFFFFFFFF0003FFFFF0001F000E0003FFFFE00
310
03FF0003FFF000003FFE0003FF80007FC0007FFFFC0003FE0007FFFFE0003FF8
310
000001FFFE0000007FFFFFF0001FFFFFFF0000FFFFFF80007FFF0000FFFFFF80
310
007FFF0003FFFFFFFFF0003FFFFF0001F000E0003FFFFE0003FF0003FFF00000
310
3FFF0003FF80007FC0007FFFFC0007FE0007FFFFC0003FF8000001FFFE000000
310
7FFFFFF0001FFFFFFF80007FFFFF0000FFFF80007FFFFF0000FFFF0003FFFFFF
310
FFF0003FFFFF0003F000E0003FFFFC0003FE0003FFF000003FFF0003FF80007F
310
E0003FFFF80007FE0003FFFFC0007FF8000001FFFE0000007FFFFFF0001FFFFF
310
FF80003FFFFE0000FFFF80003FFFFE0000FFFF0003FFFFFFFFF0001FFFFE0003
310
F000F0001FFFF80003FE0003FFF000007FFF0001FF80007FE0003FFFF00007FE
310
0001FFFF80007FF8000001FFFE0000007FFFFFF0001FFFFFFFC0000FFFF80001
310
FFFFC0000FFFF80001FFFF0003FFFFFFFFF0001FFFFC0003F000F0000FFFF000
310
07FE0007FFF800007FFF0001FF80007FE0001FFFE00007FF0000FFFE00007FF8
310
000001FFFE0000007FFFFFF0001FFFFFFFC00003FFE00001FFFFC00003FFE000
310
01FFFF0003FFFFFFFFF8000FFFF80003F000F00003FFC00007FC0007FFF80000
310
7FFF8001FF80007FF00007FF80000FFF00007FF80000FFF8000001FFFE000000
310
7F80000000000001FFE000003E000003FFFFE000003E000003FFFF0003FFFFFF
310
FFF80003FFE00007F000F800000000000FFC0007FFF800007FFF8001FF80007F
310
F000000000000FFF000000000000FFF8000001FFFE0000007F80000000000001
310
FFF0000000000007FFFFF0000000000007FFFF0003FFFFFFFFFC00007E000007
310
F000F800000000000FFC0007FFF80000FFFF8000FF80007FF800000000001FFF
310
800000000001FFF8000001FFFE0000007F80000000000001FFF800000000000F
310
FFFFF800000000000FFFFF0003FFFFFFFFFC00000000000FF000FC0000000000
310
1FFC0007FFFC0000FFFF8000FF80007FF800000000003FFFC00000000001FFF8
310
000001FFFE0000007F80000000000001FFF800000000000FFFFFF80000000000
310
0FFFFF0003FFFFFFFFFE00000000001FF000FE00000000003FF8000FFFFC0000
310
FFFF8000FF80007FFC00000000003FFFC00000000003FFF8000001FFFE000000
310
7F80000000000001FFFC00000000001FFFFFFC00000000001FFFFF0003FFFFFF
310
FFFF00000000001FF000FF00000000003FF8000FFFFC0000FFFFC000FF80007F
310
FE00000000007FFFE00000000007FFF8000001FFFE0000007F80000000000001
310
FFFE00000000003FFFFFFE00000000003FFFFF0003FFFFFFFFFF80000000003F
310
F000FF80000000007FF8000FFFFC0001FFFFC0007F80007FFF0000000000FFFF
310
F0000000000FFFF800000000000000007F80000000000001FFFF8000000000FF
310
FFFFFF8000000000FFFFFF0003FFFFFFFFFFC0000000007FF000FFC000000000
310
FFF8000FFFFE0001FFFFC0007F80007FFF8000000001FFFFF8000000001FFFF8
310
00000000000000007F80000000000001FFFFC000000001FFFFFFFFC000000001
310
FFFFFF0003FFFFFFFFFFE000000000FFF000FFE000000003FFF0001FFFFE0001
310
FFFFC0007F80007FFFC000000007FFFFFE000000003FFFF80000000000000000
310
7F80000000000001FFFFE000000003FFFFFFFFE000000003FFFFFF0003FFFFFF
310
FFFFF000000003FFF000FFF80000000FFFF0001FFFFE0001FFFFE0007F80007F
310
FFF00000000FFFFFFF00000000FFFFF800000000000000007F80000000000001
310
FFFFF80000000FFFFFFFFFF80000000FFFFFFF0003FFFFFFFFFFFC0000000FFF
310
F000FFFE0000003FFFF0001FFFFE0003FFFFE0003F80007FFFFC0000003FFFFF
310
FFC0000003FFFFF800000000000000007F80000000000001FFFFFE0000003FFF
310
FFFFFFFE0000003FFFFFFF0003FFFFFFFFFFFF0000003FFFF000FFFF800000FF
310
FFF0001FFFFF0003FFFFE0003F80007FFFFF000001FFFFFFFFF800001FFFFFF8
310
00000000000000007F80000000000001FFFFFFC00001FFFFFFFFFFFFC00001FF
310
FFFFFF0003FFFFFFFFFFFFC00000FFFFF000FFFFF8000FFFFFFFFFFFFFFFFFFF
310
FFFFFFFFFFFFFFFFFFFFF0001FFFFFFFFFFF0000FFFFFFF80000000000000000
310
7FFFFFFFFFFFFFFFFFFFFFFC001FFFFFFFFFFFFFFC001FFFFFFFFFFFFFFFFFFF
310
FFFFFFFC001FFFFFF000FFFFFFFFFFFFFFFFFFFFFFFFFFFFFFFFFFFFFFFFFFFF
310
FFFFFFFFFFFFFFFFFFFFFFFFFFFFFFFFFFFFFFFFFFFFFFFFFFFFFFFFFFFFFFFF
310
FFFFFFFFFFFFFFFFFFFFFFFFFFFFFFFFFFFFFFFFFFFFFFFFFFFFFFFFFFFFFFFF
310
F000FFFFFFFFFFFFFFFFFFFFFFFFFFFFFFFFFFFFFFFFFFFFFFFFFFFFFFFFFFFF
310
FFFFFFFFFFFFFFFFFFFFFFFFFFFFFFFFFFFFFFFFFFFFFFFFFFFFFFFFFFFFFFFF
310
FFFFFFFFFFFFFFFFFFFFFFFFFFFFFFFFFFFFFFFFFFFFFFFFF000FFFFFFFFFFFF
310
FFFFFFFFFFFFFFFFFFFFFFFFFFFFFFFFFFFFFFFFFFFFFFFFFFFFFFFFFFFFFFFF
310
FFFFFFFFFFFFFFFFFFFFFFFFFFFFFFFFFFFFFFFFFFFFFFFFFFFFFFFFFFFFFFFF
310
FFFFFFFFFFFFFFFFFFFFFFFFFFFFFFFFF000FFFFFFFFFFFFFFFFFFFFFFFFFFFF
310
FFFFFFFFFFFFFFFFFFFFFFFFFFFFFFFFFFFFFFFFFFFFFFFFFFFFFFFFFFFFFFFF
310
FFFFFFFFFFFFFFFFFFFFFFFFFFFFFFFFFFFFFFFFFFFFFFFFFFFFFFFFFFFFFFFF
310
FFFFFFFFFFFFFFFFF000FFFFFFFFFFFFFFFFFFFFFFFFFFFFFFFFFFFFFFFFFFFF
310
FFFFFFFFFFFFFFFFFFFFFFFFFFFFFFFFFFFFFFFFFFFFFFFFFFFFFFFFFFFFFFFF
310
FFFFFFFFFFFFFFFFFFFFFFFFFFFFFFFFFFFFFFFFFFFFFFFFFFFFFFFFFFFFFFFF
310
F000FFFFFFFFFFFFFFFFFFFFFFFFFFFFFFFFFFFFFFFFFFFFFFFFFFFFFFFFFFFF
310
FFFFFFFFFFFFFFFFFFFFFFFFFFFFFFFFFFFFFFFFFFFFFFFFFFFFFFFFFFFFFFFF
310
FFFFFFFFFFFFFFFFFFFFFFFFFFFFFFFFFFFFFFFFFFFFFFFFF000FFFFFFFFFFFF
310
FFFFFFFFFFFFFFFFFFFFFFFFFFFFFFFFFFFFFFFFFFFFFFFFFFFFFFFFFFFFFFFF
310
FFFFFFFFFFFFFFFFFFFFFFFFFFFFFFFFFFFFFFFFFFFFFFFFFFFFFFFFFFFFFFFF
310
FFFFFFFFFFFFFFFFFFFFFFFFFFFFFFFFF000FFFFFFFFFFFFFFFFFFFFFFFFFFFF
310
FFFFFFFFFFFFFFFFFFFFFFFFFFFFFFFFFFFFFFFFFFFFFFFFFFFFFFFFFFFFFFFF
310
FFFFFFFFFFFFFFFFFFFFFFFFFFFFFFFFFFFFFFFFFFFFFFFFFFFFFFFFFFFFFFFF
310
FFFFFFFFFFFFFFFFF000FFFFFFFFFFFFFFFFFFFFFFFFFFFFFFFFFFFFFFFFFFFF
310
FFFFFFFFFFFFFFFFFFFFFFFFFFFFFFFFFFFFFFFFFFFFFFFFFFFFFFFFFFFFFFFF
310
FFFFFFFFFFFFFFFFFFFFFFFFFFFFFFFFFFFFFFFFFFFFFFFFFFFFFFFFFFFFFFFF
310
F000FFFFFFFFFFFFFFFFFFFFFFFFFFFFFFFFFFFFFFFFFFFFFFFFFFFFFFFFFFFF
310
FFFFFFFFFFFFFFFFFFFFFFFFFFFFFFFFFFFFFFFFFFFFFFFFFFFFFFFFFFFFFFFF
310
FFFFFFFFFFFFFFFFFFFFFFFFFFFFFFFFFFFFFFFFFFFFFFFFF000FFFFFFFFFFFF
310
FFFFFFFFFFFFFFFFFFFFFFFFFFFFFFFFFFFFFFFFFFFFFFFFFFFFFFFFFFFFFFFF
310
FFFFFFFFFFFFFFFFFFFFFFFFFFFFFFFFFFFFFFFFFFFFFFFFFFFFFFFFFFFFFFFF
310
FFFFFFFFFFFFFFFFFFFFFFFFFFFFFFFFF000FFFFFFFFFFFFFFFFFFFFFFFFFFFF
310
FFFFFFFFFFFFFFFFFFFFFFFFFFFFFFFFFFFFFFFFFFFFFFFFFFFFFFFFFFFFFFFF
310
FFFFFFFFFFFFFFFFFFFFFFFFFFFFFFFFFFFFFFFFFFFFFFFFFFFFFFFFFFFFFFFF
310
FFFFFFFFFFFFFFFFF000FFFFFFFFFFFFFFFFFFFFFFFFFFFFFFFFFFFFFFFFFFFF
310
FFFFFFFFFFFFFFFFFFFFFFFFFFFFFFFFFFFFFFFFFFFFFFFFFFFFFFFFFFFFFFFF
310
FFFFFFFFFFFFFFFFFFFFFFFFFFFFFFFFFFFFFFFFFFFFFFFFFFFFFFFFFFFFFFFF
310
F000FFFFFFFFFFFFFFFFFFFFFFFFFFFFFFFFFFFFFFFFFFFFFFFFFFFFFFFFFFFF
310
FFFFFFFFFFFFFFFFFFFFFFFFFFFFFFFFFFFFFFFFFFFFFFFFFFFFFFFFFFFFFFFF
310
FFFFFFFFFFFFFFFFFFFFFFFFFFFFFFFFFFFFFFFFFFFFFFFFF000FFFFFFFFFFFF
310
FFFFFFFFFFFFFFFFFFFFFFFFFFFFFFFFFFFFFFFFFFFFFFFFFFFFFFFFFFFFFFFF
310
FFFFFFFFFFFFFFFFFFFFFFFFFFFFFFFFFFFFFFFFFFFFFFFFFFFFFFFFFFFFFFFF
310
FFFFFFFFFFFFFFFFFFFFFFFFFFFFFFFFF000FFFFFFFFFFFFFFFFFFFFFFFFFFFF
310
FFFFFFFFFFFFFFFFFFFFFFFFFFFFFFFFFFFFFFFFFFFFFFFFFFFFFFFFFFFFFFFF
310
FFFFFFFFFFFFFFFFFFFFFFFFFFFFFFFFFFFFFFFFFFFFFFFFFFFFFFFFFFFFFFFF
310
FFFFFFFFFFFFFFFFF000FFFFFFFFFFFFFFFFFFFFFFFFFFFFFFFFFFFFFFFFFFFF
310
FFFFFFFFFFFFFFFFFFFFFFFFFFFFFFFFFFFFFFFFFFFFFFFFFFFFFFFFFFFFFFFF
310
FFFFFFFFFFFFFFFFFFFFFFFFFFFFFFFFFFFFFFFFFFFFFFFFFFFFFFFFFFFFFFFF
310
F000FFFFFFFFFFFFFFFFFFFFFFFFFFFFFFFFFFFFFFFFFFFFFFFFFFFFFFFFFFFF
310
FFFFFFFFFFFFFFFFFFFFFFFFFFFFFFFFFFFFFFFFFFFFFFFFFFFFFFFFFFFFFFFF
310
FFFFFFFFFFFFFFFFFFFFFFFFFFFFFFFFFFFFFFFFFFFFFFFFF000FFFFFFFFFFFF
310
FFFFFFFFFFFFFFFFFFFFFFFFFFFFFFFFFFFFFFFFFFFFFFFFFFFFFFFFFFFFFFFF
310
FFFFFFFFFFFFFFFFFFFFFFFFFFFFFFFFFFFFFFFFFFFFFFFFFFFFFFFFFFFFFFFF
310
FFFFFFFFFFFFFFFFFFFFFFFFFFFFFFFFF000FFFFFFFFFFFFFFFFFFFFFFFFFFFF
310
FFFFFFFFFFFFFFFFFFFFFFFFFFFFFFFFFFFFFFFFFFFFFFFFFFFFFFFFFFFFFFFF
310
FFFFFFFFFFFFFFFFFFFFFFFFFFFFFFFFFFFFFFFFFFFFFFFFFFFFFFFFFFFFFFFF
310
FFFFFFFFFFFFFFFFF000FFFFFFFFFFFFFFFFFFFFFFFFFFFFFFFFFFFFFFFFFFFF
310
FFFFFFFFFFFFFFFFFFFFFFFFFFFFFFFFFFFFFFFFFFFFFFFFFFFFFFFFFFFFFFFF
310
FFFFFFFFFFFFFFFFFFFFFFFFFFFFFFFFFFFFFFFFFFFFFFFFFFFFFFFFFFFFFFFF
310
F000FFFFFFFFFFFFFFFFFFFFFFFFFFFFFFFFFFFFFFFFFFFFFFFFFFFFFFFFFFFF
310
FFFFFFFFFFFFFFFFFFFFFFFFFFFFFFFFFFFFFFFFFFFFFFFFFFFFFFFFFFFFFFFF
310
FFFFFFFFFFFFFFFFFFFFFFFFFFFFFFFFFFFFFFFFFFFFFFFFF000FFFFFFFFFFFF
310
FFFFFFFFFFFFFFFFFFFFFFFFFFFFFFFFFFFFFFFFFFFFFFFFFFFFFFFFFFFFFFFF
310
FFFFFFFFFFFFFFFFFFFFFFFFFFFFFFFFFFFFFFFFFFFFFFFFFFFFFFFFFFFFFFFF
310
FFFFFFFFFFFFFFFFFFFFFFFFFFFFFFFFF0000000000000000000000000000000
310
0000000000000000000000000000000000000000000000000000000000000000
310
0000000000000000000000000000000000000000000000000000000000000000
310
0000000000000000000000000000000000000000000000000000000000000000
310
0000000000000000000000000000000000000000000000000000000000000000
310
0000000000000000000000000000000000000000000000000000000000000000
310
0000000000000000000000000000000000000000000000000000000000000000
310
0000000000000000000000000000000000000000000000000000000000000000
310
0000000000000000000000000000000000000000000000000000000000000000
310
0000000000000000000000000000000000000000000000000000000000000000
310
0000000000000000000000000000000000000000000000000000000000000000
310
0000000000000000000000000000000000000000000000000000000000000000
310
0000000000000000000000000000000000000000000000000000000000000000
310
0000000000000000000000000000000000000000000000000000000000000000
310
0000000000000000000000000000000000000000000000000000000000000000
310
0000000000000000000000000000000000000000000000000000000000000000
  1
OLE
  0
ENDSEC
  0
SECTION
  2
OBJECTS
  0
DICTIONARY
  5
C
330
0
100
AcDbDictionary
281
     1
  3
ACAD_GROUP
350
D
  3
ACAD_LAYOUT
350
1A
  3
ACAD_MLINESTYLE
350
17
  3
ACAD_PLOTSETTINGS
350
19
  3
ACAD_PLOTSTYLENAME
350
E
  3
ACAD_SCALELIST
350
47
  0
DICTIONARY
  5
D
102
{ACAD_REACTORS
330
C
102
}
330
C
100
AcDbDictionary
281
     1
  0
DICTIONARY
  5
1A
102
{ACAD_REACTORS
330
C
102
}
330
C
100
AcDbDictionary
281
     1
  3
Layout1
350
1E
  3
Layout2
350
26
  3
Model
350
22
  0
DICTIONARY
  5
17
102
{ACAD_REACTORS
330
C
102
}
330
C
100
AcDbDictionary
281
     1
  3
Standard
350
18
  0
DICTIONARY
  5
19
102
{ACAD_REACTORS
330
C
102
}
330
C
100
AcDbDictionary
281
     1
  0
ACDBDICTIONARYWDFLT
  5
E
102
{ACAD_REACTORS
330
C
102
}
330
C
100
AcDbDictionary
281
     1
  3
Normal
350
F
100
AcDbDictionaryWithDefault
340
F
  0
DICTIONARY
  5
47
102
{ACAD_REACTORS
330
C
102
}
330
C
100
AcDbDictionary
281
     1
  3
A0
350
48
  3
A1
350
49
  3
A2
350
4A
  3
A3
350
4B
  3
A4
350
4C
  3
A5
350
4D
  3
A6
350
4E
  3
A7
350
4F
  3
A8
350
50
  3
A9
350
51
  3
B0
350
52
  3
B1
350
53
  3
B2
350
54
  3
B3
350
55
  3
B4
350
56
  3
B5
350
57
  3
B6
350
58
  3
B7
350
59
  3
B8
350
5A
  3
B9
350
5B
  3
C0
350
5C
  3
C1
350
5D
  3
C2
350
5E
  3
C3
350
5F
  3
C4
350
60
  3
C5
350
61
  3
C6
350
62
  3
C7
350
63
  3
C8
350
64
  3
C9
350
65
  3
D0
350
66
  3
D1
350
67
  3
D2
350
68
  0
LAYOUT
  5
1E
102
{ACAD_REACTORS
330
1A
102
}
330
1A
100
AcDbPlotSettings
  1

  2
none_device
  4

  6

 40
0.0
 41
0.0
 42
0.0
 43
0.0
 44
0.0
 45
0.0
 46
0.0
 47
0.0
 48
0.0
 49
0.0
140
0.0
141
0.0
142
1.0
143
1.0
 70
   688
 72
     1
 73
     0
 74
     5
  7

 75
    16
147
1.0
148
0.0
149
0.0
100
AcDbLayout
  1
Layout1
 70
     1
 71
     1
 10
0.0
 20
0.0
 11
420.0
 21
297.0
 12
0.0
 22
0.0
 32
0.0
 14
1.0000000000E+20
 24
1.0000000000E+20
 34
1.0000000000E+20
 15
-1.0000000000E+20
 25
-1.0000000000E+20
 35
-1.0000000000E+20
146
0.0
 13
0.0
 23
0.0
 33
0.0
 16
1.0
 26
0.0
 36
0.0
 17
0.0
 27
1.0
 37
0.0
 76
     0
330
1B
  0
LAYOUT
  5
26
102
{ACAD_REACTORS
330
1A
102
}
330
1A
100
AcDbPlotSettings
  1

  2
none_device
  4

  6

 40
0.0
 41
0.0
 42
0.0
 43
0.0
 44
0.0
 45
0.0
 46
0.0
 47
0.0
 48
0.0
 49
0.0
140
0.0
141
0.0
142
1.0
143
1.0
 70
   688
 72
     1
 73
     0
 74
     5
  7

 75
    16
147
1.0
148
0.0
149
0.0
100
AcDbLayout
  1
Layout2
 70
     1
 71
     2
 10
0.0
 20
0.0
 11
0.0
 21
0.0
 12
0.0
 22
0.0
 32
0.0
 14
0.0
 24
0.0
 34
0.0
 15
0.0
 25
0.0
 35
0.0
146
0.0
 13
0.0
 23
0.0
 33
0.0
 16
1.0
 26
0.0
 36
0.0
 17
0.0
 27
1.0
 37
0.0
 76
     0
330
23
  0
LAYOUT
  5
22
102
{ACAD_REACTORS
330
1A
102
}
330
1A
100
AcDbPlotSettings
  1

  2
none_device
  4
Letter_(8.50_x_11.00_Inches)
  6

 40
6.35
 41
6.35
 42
6.35000508
 43
6.35000508
 44
215.9
 45
279.4
 46
0.0
 47
0.0
 48
0.0
 49
0.0
140
0.0
141
0.0
142
1.0
143
1.0
 70
  1712
 72
     1
 73
     0
 74
     0
  7

 75
     0
147
1.0
148
0.0
149
0.0
100
AcDbLayout
  1
Model
 70
     1
 71
     0
 10
0.0
 20
0.0
 11
297.0
 21
210.0
 12
0.0
 22
0.0
 32
0.0
 14
0.0
 24
0.0
 34
0.0
 15
297.0
 25
210.0
 35
0.0
146
0.0
 13
0.0
 23
0.0
 33
0.0
 16
1.0
 26
0.0
 36
0.0
 17
0.0
 27
1.0
 37
0.0
 76
     0
330
1F
331
29
  0
MLINESTYLE
  5
18
102
{ACAD_REACTORS
330
17
102
}
330
17
100
AcDbMlineStyle
  2
Standard
 70
     0
  3

 62
   256
 51
90.0
 52
90.0
 71
     2
 49
0.5
 62
   256
  6
BYLAYER
 49
-0.5
 62
   256
  6
BYLAYER
  0
ACDBPLACEHOLDER
  5
F
102
{ACAD_REACTORS
330
E
102
}
330
E
  0
SCALE
  5
48
102
{ACAD_REACTORS
330
47
102
}
330
47
100
AcDbScale
 70
     0
300
1:1
140
1.0
141
1.0
290
     1
  0
SCALE
  5
49
102
{ACAD_REACTORS
330
47
102
}
330
47
100
AcDbScale
 70
     0
300
1:2
140
1.0
141
2.0
290
     0
  0
SCALE
  5
4A
102
{ACAD_REACTORS
330
47
102
}
330
47
100
AcDbScale
 70
     0
300
1:4
140
1.0
141
4.0
290
     0
  0
SCALE
  5
4B
102
{ACAD_REACTORS
330
47
102
}
330
47
100
AcDbScale
 70
     0
300
1:5
140
1.0
141
5.0
290
     0
  0
SCALE
  5
4C
102
{ACAD_REACTORS
330
47
102
}
330
47
100
AcDbScale
 70
     0
300
1:8
140
1.0
141
8.0
290
     0
  0
SCALE
  5
4D
102
{ACAD_REACTORS
330
47
102
}
330
47
100
AcDbScale
 70
     0
300
1:10
140
1.0
141
10.0
290
     0
  0
SCALE
  5
4E
102
{ACAD_REACTORS
330
47
102
}
330
47
100
AcDbScale
 70
     0
300
1:16
140
1.0
141
16.0
290
     0
  0
SCALE
  5
4F
102
{ACAD_REACTORS
330
47
102
}
330
47
100
AcDbScale
 70
     0
300
1:20
140
1.0
141
20.0
290
     0
  0
SCALE
  5
50
102
{ACAD_REACTORS
330
47
102
}
330
47
100
AcDbScale
 70
     0
300
1:30
140
1.0
141
30.0
290
     0
  0
SCALE
  5
51
102
{ACAD_REACTORS
330
47
102
}
330
47
100
AcDbScale
 70
     0
300
1:40
140
1.0
141
40.0
290
     0
  0
SCALE
  5
52
102
{ACAD_REACTORS
330
47
102
}
330
47
100
AcDbScale
 70
     0
300
1:50
140
1.0
141
50.0
290
     0
  0
SCALE
  5
53
102
{ACAD_REACTORS
330
47
102
}
330
47
100
AcDbScale
 70
     0
300
1:100
140
1.0
141
100.0
290
     0
  0
SCALE
  5
54
102
{ACAD_REACTORS
330
47
102
}
330
47
100
AcDbScale
 70
     0
300
2:1
140
2.0
141
1.0
290
     0
  0
SCALE
  5
55
102
{ACAD_REACTORS
330
47
102
}
330
47
100
AcDbScale
 70
     0
300
4:1
140
4.0
141
1.0
290
     0
  0
SCALE
  5
56
102
{ACAD_REACTORS
330
47
102
}
330
47
100
AcDbScale
 70
     0
300
8:1
140
8.0
141
1.0
290
     0
  0
SCALE
  5
57
102
{ACAD_REACTORS
330
47
102
}
330
47
100
AcDbScale
 70
     0
300
10:1
140
10.0
141
1.0
290
     0
  0
SCALE
  5
58
102
{ACAD_REACTORS
330
47
102
}
330
47
100
AcDbScale
 70
     0
300
100:1
140
100.0
141
1.0
290
     0
  0
SCALE
  5
59
102
{ACAD_REACTORS
330
47
102
}
330
47
100
AcDbScale
 70
     0
300
1/128" = 1'-0"
140
0.0078125
141
12.0
290
     0
  0
SCALE
  5
5A
102
{ACAD_REACTORS
330
47
102
}
330
47
100
AcDbScale
 70
     0
300
1/64" = 1'-0"
140
0.015625
141
12.0
290
     0
  0
SCALE
  5
5B
102
{ACAD_REACTORS
330
47
102
}
330
47
100
AcDbScale
 70
     0
300
1/32" = 1'-0"
140
0.03125
141
12.0
290
     0
  0
SCALE
  5
5C
102
{ACAD_REACTORS
330
47
102
}
330
47
100
AcDbScale
 70
     0
300
1/16" = 1'-0"
140
0.0625
141
12.0
290
     0
  0
SCALE
  5
5D
102
{ACAD_REACTORS
330
47
102
}
330
47
100
AcDbScale
 70
     0
300
3/32" = 1'-0"
140
0.09375
141
12.0
290
     0
  0
SCALE
  5
5E
102
{ACAD_REACTORS
330
47
102
}
330
47
100
AcDbScale
 70
     0
300
1/8" = 1'-0"
140
0.125
141
12.0
290
     0
  0
SCALE
  5
5F
102
{ACAD_REACTORS
330
47
102
}
330
47
100
AcDbScale
 70
     0
300
3/16" = 1'-0"
140
0.1875
141
12.0
290
     0
  0
SCALE
  5
60
102
{ACAD_REACTORS
330
47
102
}
330
47
100
AcDbScale
 70
     0
300
1/4" = 1'-0"
140
0.25
141
12.0
290
     0
  0
SCALE
  5
61
102
{ACAD_REACTORS
330
47
102
}
330
47
100
AcDbScale
 70
     0
300
3/8" = 1'-0"
140
0.375
141
12.0
290
     0
  0
SCALE
  5
62
102
{ACAD_REACTORS
330
47
102
}
330
47
100
AcDbScale
 70
     0
300
1/2" = 1'-0"
140
0.5
141
12.0
290
     0
  0
SCALE
  5
63
102
{ACAD_REACTORS
330
47
102
}
330
47
100
AcDbScale
 70
     0
300
3/4" = 1'-0"
140
0.75
141
12.0
290
     0
  0
SCALE
  5
64
102
{ACAD_REACTORS
330
47
102
}
330
47
100
AcDbScale
 70
     0
300
1" = 1'-0"
140
1.0
141
12.0
290
     0
  0
SCALE
  5
65
102
{ACAD_REACTORS
330
47
102
}
330
47
100
AcDbScale
 70
     0
300
1-1/2" = 1'-0"
140
1.5
141
12.0
290
     0
  0
SCALE
  5
66
102
{ACAD_REACTORS
330
47
102
}
330
47
100
AcDbScale
 70
     0
300
3" = 1'-0"
140
3.0
141
12.0
290
     0
  0
SCALE
  5
67
102
{ACAD_REACTORS
330
47
102
}
330
47
100
AcDbScale
 70
     0
300
6" = 1'-0"
140
6.0
141
12.0
290
     0
  0
SCALE
  5
68
102
{ACAD_REACTORS
330
47
102
}
330
47
100
AcDbScale
 70
     0
300
1'-0" = 1'-0"
140
12.0
141
12.0
290
     0
  0
ENDSEC
  0
EOF
