  0
SECTION
  2
HEADER
  9
$ACADVER
  1
AC1015
  9
$ACADMAINTVER
 70
     6
  9
$DWGCODEPAGE
  3
ANSI_1252
  9
$INSBASE
 10
0.0
 20
0.0
 30
0.0
  9
$EXTMIN
 10
0.0
 20
0.0
 30
0.0
  9
$EXTMAX
 10
297.0
 20
210.0
 30
0.0
  9
$LIMMIN
 10
0.0
 20
0.0
  9
$LIMMAX
 10
297.0
 20
210.0
  9
$ORTHOMODE
 70
     0
  9
$REGENMODE
 70
     1
  9
$FILLMODE
 70
     1
  9
$QTEXTMODE
 70
     0
  9
$MIRRTEXT
 70
     1
  9
$LTSCALE
 40
1.0
  9
$ATTMODE
 70
     1
  9
$TEXTSIZE
 40
2.0
  9
$TRACEWID
 40
1.0
  9
$TEXTSTYLE
  7
Standard
  9
$CLAYER
  8
0
  9
$CELTYPE
  6
ByLayer
  9
$CECOLOR
 62
   256
  9
$CELTSCALE
 40
1.0
  9
$DISPSILH
 70
     0
  9
$DIMSCALE
 40
1.0
  9
$DIMASZ
 40
3.0
  9
$DIMEXO
 40
0.0
  9
$DIMDLI
 40
3.75
  9
$DIMRND
 40
0.0
  9
$DIMDLE
 40
0.0
  9
$DIMEXE
 40
1.0
  9
$DIMTP
 40
0.0
  9
$DIMTM
 40
0.0
  9
$DIMTXT
 40
2.0
  9
$DIMCEN
 40
2.5
  9
$DIMTSZ
 40
0.0
  9
$DIMTOL
 70
     0
  9
$DIMLIM
 70
     0
  9
$DIMTIH
 70
     1
  9
$DIMTOH
 70
     1
  9
$DIMSE1
 70
     0
  9
$DIMSE2
 70
     0
  9
$DIMTAD
 70
     1
  9
$DIMZIN
 70
     0
  9
$DIMBLK
  1

  9
$DIMASO
 70
     1
  9
$DIMSHO
 70
     1
  9
$DIMPOST
  1

  9
$DIMAPOST
  1

  9
$DIMALT
 70
     0
  9
$DIMALTD
 70
     3
  9
$DIMALTF
 40
0.0393700787
  9
$DIMLFAC
 40
1.0
  9
$DIMTOFL
 70
     1
  9
$DIMTVP
 40
0.0
  9
$DIMTIX
 70
     0
  9
$DIMSOXD
 70
     0
  9
$DIMSAH
 70
     0
  9
$DIMBLK1
  1

  9
$DIMBLK2
  1

  9
$DIMSTYLE
  2
ISO-25
  9
$DIMCLRD
 70
     0
  9
$DIMCLRE
 70
     0
  9
$DIMCLRT
 70
     0
  9
$DIMTFAC
 40
1.0
  9
$DIMGAP
 40
1.524
  9
$DIMJUST
 70
     0
  9
$DIMSD1
 70
     0
  9
$DIMSD2
 70
     0
  9
$DIMTOLJ
 70
     0
  9
$DIMTZIN
 70
     0
  9
$DIMALTZ
 70
     0
  9
$DIMALTTZ
 70
     0
  9
$DIMUPT
 70
     0
  9
$DIMDEC
 70
     2
  9
$DIMTDEC
 70
     3
  9
$DIMALTU
 70
     2
  9
$DIMALTTD
 70
     3
  9
$DIMTXSTY
  7
Standard
  9
$DIMAUNIT
 70
     0
  9
$DIMADEC
 70
     2
  9
$DIMALTRND
 40
0.0
  9
$DIMAZIN
 70
     0
  9
$DIMDSEP
 70
    44
  9
$DIMATFIT
 70
     3
  9
$DIMFRAC
 70
     0
  9
$DIMLDRBLK
  1

  9
$DIMLUNIT
 70
     2
  9
$DIMLWD
 70
    -2
  9
$DIMLWE
 70
    -2
  9
$DIMTMOVE
 70
     0
  9
$LUNITS
 70
     2
  9
$LUPREC
 70
     2
  9
$SKETCHINC
 40
1.0
  9
$FILLETRAD
 40
10.0
  9
$AUNITS
 70
     0
  9
$AUPREC
 70
     2
  9
$MENU
  1
.
  9
$ELEVATION
 40
0.0
  9
$PELEVATION
 40
0.0
  9
$THICKNESS
 40
0.0
  9
$LIMCHECK
 70
     0
  9
$CHAMFERA
 40
0.0
  9
$CHAMFERB
 40
0.0
  9
$CHAMFERC
 40
0.0
  9
$CHAMFERD
 40
0.0
  9
$SKPOLY
 70
     0
  9
$TDCREATE
 40
2458061.336573055
  9
$TDUCREATE
 40
2458061.294906389
  9
$TDUPDATE
 40
2458061.33657456
  9
$TDUUPDATE
 40
2458061.294907894
  9
$TDINDWG
 40
0.0000000116
  9
$TDUSRTIMER
 40
0.0000000116
  9
$USRTIMER
 70
     1
  9
$ANGBASE
 50
0.0
  9
$ANGDIR
 70
     0
  9
$PDMODE
 70
     0
  9
$PDSIZE
 40
-1.0
  9
$PLINEWID
 40
0.0
  9
$SPLFRAME
 70
     0
  9
$SPLINETYPE
 70
     6
  9
$SPLINESEGS
 70
     8
  9
$HANDSEED
  5
248
  9
$SURFTAB1
 70
     6
  9
$SURFTAB2
 70
     6
  9
$SURFTYPE
 70
     6
  9
$SURFU
 70
     6
  9
$SURFV
 70
     6
  9
$UCSBASE
  2

  9
$UCSNAME
  2

  9
$UCSORG
 10
0.0
 20
0.0
 30
0.0
  9
$UCSXDIR
 10
1.0
 20
0.0
 30
0.0
  9
$UCSYDIR
 10
0.0
 20
1.0
 30
0.0
  9
$UCSORTHOREF
  2

  9
$UCSORTHOVIEW
 70
     0
  9
$UCSORGTOP
 10
0.0
 20
0.0
 30
0.0
  9
$UCSORGBOTTOM
 10
0.0
 20
0.0
 30
0.0
  9
$UCSORGLEFT
 10
0.0
 20
0.0
 30
0.0
  9
$UCSORGRIGHT
 10
0.0
 20
0.0
 30
0.0
  9
$UCSORGFRONT
 10
0.0
 20
0.0
 30
0.0
  9
$UCSORGBACK
 10
0.0
 20
0.0
 30
0.0
  9
$PUCSBASE
  2

  9
$PUCSNAME
  2

  9
$PUCSORG
 10
0.0
 20
0.0
 30
0.0
  9
$PUCSXDIR
 10
1.0
 20
0.0
 30
0.0
  9
$PUCSYDIR
 10
0.0
 20
1.0
 30
0.0
  9
$PUCSORTHOREF
  2

  9
$PUCSORTHOVIEW
 70
     0
  9
$PUCSORGTOP
 10
0.0
 20
0.0
 30
0.0
  9
$PUCSORGBOTTOM
 10
0.0
 20
0.0
 30
0.0
  9
$PUCSORGLEFT
 10
0.0
 20
0.0
 30
0.0
  9
$PUCSORGRIGHT
 10
0.0
 20
0.0
 30
0.0
  9
$PUCSORGFRONT
 10
0.0
 20
0.0
 30
0.0
  9
$PUCSORGBACK
 10
0.0
 20
0.0
 30
0.0
  9
$USERI1
 70
     0
  9
$USERI2
 70
     0
  9
$USERI3
 70
     0
  9
$USERI4
 70
     0
  9
$USERI5
 70
     0
  9
$USERR1
 40
0.0
  9
$USERR2
 40
0.0
  9
$USERR3
 40
0.0
  9
$USERR4
 40
0.0
  9
$USERR5
 40
0.0
  9
$WORLDVIEW
 70
     1
  9
$SHADEDGE
 70
     3
  9
$SHADEDIF
 70
    70
  9
$TILEMODE
 70
     1
  9
$MAXACTVP
 70
    64
  9
$PINSBASE
 10
0.0
 20
0.0
 30
0.0
  9
$PLIMCHECK
 70
     0
  9
$PEXTMIN
 10
1.0000000000E+20
 20
1.0000000000E+20
 30
1.0000000000E+20
  9
$PEXTMAX
 10
-1.0000000000E+20
 20
-1.0000000000E+20
 30
-1.0000000000E+20
  9
$PLIMMIN
 10
0.0
 20
0.0
  9
$PLIMMAX
 10
420.0
 20
297.0
  9
$UNITMODE
 70
     0
  9
$VISRETAIN
 70
     1
  9
$PLINEGEN
 70
     0
  9
$PSLTSCALE
 70
     1
  9
$TREEDEPTH
 70
  3020
  9
$CMLSTYLE
  2
Standard
  9
$CMLJUST
 70
     0
  9
$CMLSCALE
 40
20.0
  9
$PROXYGRAPHICS
 70
     1
  9
$MEASUREMENT
 70
     1
  9
$CELWEIGHT
370
    -1
  9
$ENDCAPS
280
     0
  9
$JOINSTYLE
280
     0
  9
$LWDISPLAY
290
     1
  9
$INSUNITS
 70
     4
  9
$HYPERLINKBASE
  1

  9
$STYLESHEET
  1

  9
$XEDIT
290
     1
  9
$CEPSNTYPE
380
     0
  9
$PSTYLEMODE
290
     1
  9
$FINGERPRINTGUID
  2
{629D14B5-E28D-4E0E-990B-0C86517461A0}
  9
$VERSIONGUID
  2
{FAEB1C32-E019-11D5-929B-00C0DF256EC4}
  9
$EXTNAMES
290
     1
  9
$PSVPSCALE
 40
0.0
  9
$OLESTARTUP
290
     0
  0
ENDSEC
  0
SECTION
  2
CLASSES
  0
CLASS
  1
ACDBDICTIONARYWDFLT
  2
AcDbDictionaryWithDefault
  3
ObjectDBX Classes
 90
        0
280
     0
281
     0
  0
CLASS
  1
VISUALSTYLE
  2
AcDbVisualStyle
  3
ObjectDBX Classes
 90
     4095
280
     0
281
     0
  0
CLASS
  1
MATERIAL
  2
AcDbMaterial
  3
ObjectDBX Classes
 90
     1153
280
     0
281
     0
  0
CLASS
  1
SCALE
  2
AcDbScale
  3
ObjectDBX Classes
 90
     1153
280
     0
281
     0
  0
CLASS
  1
TABLESTYLE
  2
AcDbTableStyle
  3
ObjectDBX Classes
 90
     4095
280
     0
281
     0
  0
CLASS
  1
MLEADERSTYLE
  2
AcDbMLeaderStyle
  3
ACDB_MLEADERSTYLE_CLASS
 90
     4095
280
     0
281
     0
  0
CLASS
  1
SUN
  2
AcDbSun
  3
SCENEOE
 90
     1153
280
     0
281
     0
  0
CLASS
  1
ACDBPLACEHOLDER
  2
AcDbPlaceHolder
  3
ObjectDBX Classes
 90
        0
280
     0
281
     0
  0
CLASS
  1
LAYOUT
  2
AcDbLayout
  3
ObjectDBX Classes
 90
        0
280
     0
281
     0
  0
ENDSEC
  0
SECTION
  2
TABLES
  0
TABLE
  2
VPORT
  5
8
330
0
100
AcDbSymbolTable
 70
     1
  0
VPORT
  5
29
330
8
100
AcDbSymbolTableRecord
100
AcDbViewportTableRecord
  2
*Active
 70
     0
 10
0.0
 20
0.0
 11
1.0
 21
1.0
 12
148.5
 22
105.0
 13
0.0
 23
0.0
 14
10.0
 24
10.0
 15
10.0
 25
10.0
 16
0.0
 26
0.0
 36
1.0
 17
0.0
 27
0.0
 37
0.0
 40
210.0
 41
1.4142857143
 42
50.0
 43
0.0
 44
0.0
 50
0.0
 51
0.0
 71
     0
 72
  2000
 73
     1
 74
     3
 75
     0
 76
     0
 77
     0
 78
     0
281
     0
 65
     1
110
0.0
120
0.0
130
0.0
111
1.0
121
0.0
131
0.0
112
0.0
122
1.0
132
0.0
 79
     0
146
0.0
  0
ENDTAB
  0
TABLE
  2
LTYPE
  5
5
330
0
100
AcDbSymbolTable
 70
     6
  0
LTYPE
  5
14
330
5
100
AcDbSymbolTableRecord
100
AcDbLinetypeTableRecord
  2
ByBlock
 70
     0
  3

 72
    65
 73
     0
 40
0.0
  0
LTYPE
  5
15
330
5
100
AcDbSymbolTableRecord
100
AcDbLinetypeTableRecord
  2
ByLayer
 70
     0
  3

 72
    65
 73
     0
 40
0.0
  0
LTYPE
  5
16
330
5
100
AcDbSymbolTableRecord
100
AcDbLinetypeTableRecord
  2
Continuous
 70
     0
  3
Solid line
 72
    65
 73
     0
 40
0.0
  0
LTYPE
  5
6E
330
5
100
AcDbSymbolTableRecord
100
AcDbLinetypeTableRecord
  2
HIDDEN
 70
     0
  3
Hidden __ __ __ __ __ __ __ __ __ __ __ __ __ __
 72
    65
 73
     2
 40
1.905
 49
1.27
 74
     0
 49
-0.635
 74
     0
  0
LTYPE
  5
6F
330
5
100
AcDbSymbolTableRecord
100
AcDbLinetypeTableRecord
  2
PHANTOM
 70
     0
  3
Phantom ______  __  __  ______  __  __  ______
 72
    65
 73
     6
 40
12.7
 49
6.35
 74
     0
 49
-1.27
 74
     0
 49
1.27
 74
     0
 49
-1.27
 74
     0
 49
1.27
 74
     0
 49
-1.27
 74
     0
  0
LTYPE
  5
70
330
5
100
AcDbSymbolTableRecord
100
AcDbLinetypeTableRecord
  2
CENTER
 70
     0
  3
Center ____ _ ____ _ ____ _ ____ _ ____ _ ____
 72
    65
 73
     4
 40
10.16
 49
6.35
 74
     0
 49
-1.27
 74
     0
 49
1.27
 74
     0
 49
-1.27
 74
     0
  0
LTYPE
  5
71
330
5
100
AcDbSymbolTableRecord
100
AcDbLinetypeTableRecord
  2
CENTERX2
 70
     0
  3
Center (2x) ________  __  ________  __  _____
 72
    65
 73
     4
 40
20.32
 49
12.7
 74
     0
 49
-2.54
 74
     0
 49
2.54
 74
     0
 49
-2.54
 74
     0
  0
LTYPE
  5
72
330
5
100
AcDbSymbolTableRecord
100
AcDbLinetypeTableRecord
  2
DOT2
 70
     0
  3
Dot (.5x) ........................................
 72
    65
 73
     2
 40
0.635
 49
0.0
 74
     0
 49
-0.635
 74
     0
  0
ENDTAB
  0
TABLE
  2
LAYER
  5
2
330
0
100
AcDbSymbolTable
 70
     5
  0
LAYER
  5
10
330
2
100
AcDbSymbolTableRecord
100
AcDbLayerTableRecord
  2
0
 70
     0
 62
     7
  6
Continuous
370
    -3
390
F
  0
LAYER
  5
73
330
2
100
AcDbSymbolTableRecord
100
AcDbLayerTableRecord
  2
FORMAT
 70
     0
 62
     7
  6
Continuous
370
    -3
390
F
  0
LAYER
  5
74
330
2
100
AcDbSymbolTableRecord
100
AcDbLayerTableRecord
  2
VERMASSUNG
 70
     0
 62
     7
  6
Continuous
370
    -3
390
F
  0
LAYER
  5
75
330
2
100
AcDbSymbolTableRecord
100
AcDbLayerTableRecord
  2
KOPF_DÜNN
 70
     0
 62
     7
  6
Continuous
370
    -3
390
F
  0
LAYER
  5
76
330
2
100
AcDbSymbolTableRecord
100
AcDbLayerTableRecord
  2
KOPF_DICK
 70
     0
 62
     7
  6
Continuous
370
    25
390
F
  0
ENDTAB
  0
TABLE
  2
STYLE
  5
3
330
0
100
AcDbSymbolTable
 70
     2
  0
STYLE
  5
11
330
3
100
AcDbSymbolTableRecord
100
AcDbTextStyleTableRecord
  2
Standard
 70
     0
 40
0.0
 41
1.0
 50
0.0
 71
     0
 42
2.0
  3
txt
  4

  0
STYLE
  5
77
330
3
100
AcDbSymbolTableRecord
100
AcDbTextStyleTableRecord
  2
SLDTEXTSTYLE0
 70
     0
 40
0.0
 41
0.7
 50
0.0
 71
     0
 42
2.0
  3
TXT
  4

  0
ENDTAB
  0
TABLE
  2
VIEW
  5
6
330
0
100
AcDbSymbolTable
 70
     0
  0
ENDTAB
  0
TABLE
  2
UCS
  5
7
330
0
100
AcDbSymbolTable
 70
     0
  0
ENDTAB
  0
TABLE
  2
APPID
  5
9
330
0
100
AcDbSymbolTable
 70
     1
  0
APPID
  5
12
330
9
100
AcDbSymbolTableRecord
100
AcDbRegAppTableRecord
  2
ACAD
 70
     0
  0
ENDTAB
  0
TABLE
  2
DIMSTYLE
  5
A
330
0
100
AcDbSymbolTable
 70
     2
100
AcDbDimStyleTable
  0
DIMSTYLE
105
27
330
A
100
AcDbSymbolTableRecord
100
AcDbDimStyleTableRecord
  2
ISO-25
 70
     0
 41
2.5
 42
0.625
 43
3.75
 44
1.25
 73
     0
 74
     0
 77
     1
 78
     8
140
2.5
141
2.5
143
0.0393700787
147
0.625
171
     3
172
     1
178
     0
271
     2
272
     2
274
     3
278
    44
283
     0
284
     8
340
11
  0
DIMSTYLE
105
14B
102
{ACAD_REACTORS
330
14A
330
157
330
162
330
16E
330
17A
330
184
102
}
330
A
100
AcDbSymbolTableRecord
100
AcDbDimStyleTableRecord
  2
SLDDIMSTYLE0
 70
     0
 41
3.0
 44
0.0
 45
0.000000001
 73
     0
 74
     0
 77
     1
 78
    12
 79
     3
140
2.0
147
0.5
173
     1
178
     0
271
     2
272
     3
276
     2
284
    12
340
77
  0
ENDTAB
  0
TABLE
  2
BLOCK_RECORD
  5
1
330
0
100
AcDbSymbolTable
 70
     7
  0
BLOCK_RECORD
  5
1F
330
1
100
AcDbSymbolTableRecord
100
AcDbBlockTableRecord
  2
*Model_Space
340
22
  0
BLOCK_RECORD
  5
1B
330
1
100
AcDbSymbolTableRecord
100
AcDbBlockTableRecord
  2
*Paper_Space
340
1E
  0
BLOCK_RECORD
  5
23
330
1
100
AcDbSymbolTableRecord
100
AcDbBlockTableRecord
  2
*Paper_Space0
340
26
  0
BLOCK_RECORD
  5
14C
330
1
100
AcDbSymbolTableRecord
100
AcDbBlockTableRecord
  2
_D
340
0
  0
BLOCK_RECORD
  5
158
330
1
100
AcDbSymbolTableRecord
100
AcDbBlockTableRecord
  2
_D_1
340
0
  0
BLOCK_RECORD
  5
163
330
1
100
AcDbSymbolTableRecord
100
AcDbBlockTableRecord
  2
_D_2
340
0
  0
BLOCK_RECORD
  5
16F
330
1
100
AcDbSymbolTableRecord
100
AcDbBlockTableRecord
  2
_D_3
340
0
  0
BLOCK_RECORD
  5
17B
330
1
100
AcDbSymbolTableRecord
100
AcDbBlockTableRecord
  2
_D_4
340
0
  0
BLOCK_RECORD
  5
185
330
1
100
AcDbSymbolTableRecord
100
AcDbBlockTableRecord
  2
_D_5
340
0
  0
ENDTAB
  0
ENDSEC
  0
SECTION
  2
BLOCKS
  0
BLOCK
  5
20
330
1F
100
AcDbEntity
  8
0
100
AcDbBlockBegin
  2
*Model_Space
 70
     0
 10
0.0
 20
0.0
 30
0.0
  3
*Model_Space
  1

  0
ENDBLK
  5
21
330
1F
100
AcDbEntity
  8
0
100
AcDbBlockEnd
  0
BLOCK
  5
1C
330
1B
100
AcDbEntity
 67
     1
  8
0
100
AcDbBlockBegin
  2
*Paper_Space
 70
     0
 10
0.0
 20
0.0
 30
0.0
  3
*Paper_Space
  1

  0
ENDBLK
  5
1D
330
1B
100
AcDbEntity
 67
     1
  8
0
100
AcDbBlockEnd
  0
BLOCK
  5
24
330
23
100
AcDbEntity
  8
0
100
AcDbBlockBegin
  2
*Paper_Space0
 70
     0
 10
0.0
 20
0.0
 30
0.0
  3
*Paper_Space0
  1

  0
ENDBLK
  5
25
330
23
100
AcDbEntity
  8
0
100
AcDbBlockEnd
  0
BLOCK
  5
14D
330
14C
100
AcDbEntity
  8
0
100
AcDbBlockBegin
  2
_D
 70
     0
 10
0.0
 20
0.0
 30
0.0
  3
_D
  1

  0
SOLID
  5
14F
330
14C
100
AcDbEntity
  8
VERMASSUNG
100
AcDbTrace
 10
48.8558563582
 20
58.54468183
 30
0.0
 11
49.3058563582
 21
61.54468183
 31
0.0
 12
48.4058563582
 22
61.54468183
 32
0.0
 13
48.4058563582
 23
61.54468183
 33
0.0
  0
SOLID
  5
150
330
14C
100
AcDbEntity
  8
VERMASSUNG
100
AcDbTrace
 10
48.8558563582
 20
155.99468183
 30
0.0
 11
48.4058563582
 21
152.99468183
 31
0.0
 12
49.3058563582
 22
152.99468183
 32
0.0
 13
49.3058563582
 23
152.99468183
 33
0.0
  0
LINE
  5
151
330
14C
100
AcDbEntity
  8
VERMASSUNG
100
AcDbLine
 10
176.5993035112
 20
58.54468183
 30
0.0
 11
47.8558563582
 21
58.54468183
 31
0.0
  0
LINE
  5
152
330
14C
100
AcDbEntity
  8
VERMASSUNG
100
AcDbLine
 10
176.5993035112
 20
155.99468183
 30
0.0
 11
47.8558563582
 21
155.99468183
 31
0.0
  0
LINE
  5
153
330
14C
100
AcDbEntity
  8
VERMASSUNG
100
AcDbLine
 10
48.8558563582
 20
58.54468183
 30
0.0
 11
48.8558563582
 21
155.99468183
 31
0.0
  0
MTEXT
  5
154
330
14C
100
AcDbEntity
  8
VERMASSUNG
100
AcDbMText
 10
46.077721102
 20
97.7663119516
 30
0.0
 40
2.0
 41
0.0
 71
     1
 72
     1
  1
ISO 50
  7
SLDTEXTSTYLE0
 11
3.391901413832837E-15
 21
1.0
 31
0.0
 73
     1
 44
1.0
  0
MTEXT
  5
155
330
14C
100
AcDbEntity
  8
VERMASSUNG
100
AcDbMText
 10
46.2777210533
 20
106.7663115642
 30
0.0
 40
2.0
 41
0.0
 71
     1
 72
     1
  1
%%c
  7
SLDTEXTSTYLE0
 11
3.391901413832837E-15
 21
1.0
 31
0.0
 73
     1
 44
1.0
  0
MTEXT
  5
156
330
14C
100
AcDbEntity
  8
VERMASSUNG
100
AcDbMText
 10
46.2777207623
 20
110.3749079378
 30
0.0
 40
2.0
 41
0.0
 71
     1
 72
     1
  1
97.45
  7
SLDTEXTSTYLE0
 11
3.391901413832837E-15
 21
1.0
 31
0.0
 73
     1
 44
1.0
  0
ENDBLK
  5
14E
330
14C
100
AcDbEntity
  8
0
100
AcDbBlockEnd
  0
BLOCK
  5
159
330
158
100
AcDbEntity
  8
0
100
AcDbBlockBegin
  2
_D_1
 70
     0
 10
0.0
 20
0.0
 30
0.0
  3
_D_1
  1

  0
SOLID
  5
15B
330
158
100
AcDbEntity
  8
VERMASSUNG
100
AcDbTrace
 10
252.4445263617
 20
130.26968183
 30
0.0
 11
251.9945263617
 21
127.26968183
 31
0.0
 12
252.8945263617
 22
127.26968183
 32
0.0
 13
252.8945263617
 23
127.26968183
 33
0.0
  0
SOLID
  5
15C
330
158
100
AcDbEntity
  8
VERMASSUNG
100
AcDbTrace
 10
252.4445263617
 20
84.26968183
 30
0.0
 11
252.8945263617
 21
87.26968183
 31
0.0
 12
251.9945263617
 22
87.26968183
 32
0.0
 13
251.9945263617
 23
87.26968183
 33
0.0
  0
LINE
  5
15D
330
158
100
AcDbEntity
  8
VERMASSUNG
100
AcDbLine
 10
221.149303511
 20
130.26968183
 30
0.0
 11
253.4445263617
 21
130.26968183
 31
0.0
  0
LINE
  5
15E
330
158
100
AcDbEntity
  8
VERMASSUNG
100
AcDbLine
 10
221.149303511
 20
84.26968183
 30
0.0
 11
253.4445263617
 21
84.26968183
 31
0.0
  0
LINE
  5
15F
330
158
100
AcDbEntity
  8
VERMASSUNG
100
AcDbLine
 10
252.4445263617
 20
130.26968183
 30
0.0
 11
252.4445263617
 21
84.26968183
 31
0.0
  0
MTEXT
  5
160
330
158
100
AcDbEntity
  8
VERMASSUNG
100
AcDbMText
 10
249.8663908239
 20
103.966072876
 30
0.0
 40
2.0
 41
0.0
 71
     1
 72
     1
  1
%%c
  7
SLDTEXTSTYLE0
 11
-7.044195017643634E-15
 21
1.0
 31
0.0
 73
     1
 44
1.0
  0
MTEXT
  5
161
330
158
100
AcDbEntity
  8
VERMASSUNG
100
AcDbMText
 10
249.8663907657
 20
107.5749775873
 30
0.0
 40
2.0
 41
0.0
 71
     1
 72
     1
  1
46
  7
SLDTEXTSTYLE0
 11
-7.044195017643634E-15
 21
1.0
 31
0.0
 73
     1
 44
1.0
  0
ENDBLK
  5
15A
330
158
100
AcDbEntity
  8
0
100
AcDbBlockEnd
  0
BLOCK
  5
164
330
163
100
AcDbEntity
  8
0
100
AcDbBlockBegin
  2
_D_2
 70
     0
 10
0.0
 20
0.0
 30
0.0
  3
_D_2
  1

  0
SOLID
  5
166
330
163
100
AcDbEntity
  8
VERMASSUNG
100
AcDbTrace
 10
258.4445263617
 20
152.26968183
 30
0.0
 11
257.9945263617
 21
149.26968183
 31
0.0
 12
258.8945263617
 22
149.26968183
 32
0.0
 13
258.8945263617
 23
149.26968183
 33
0.0
  0
SOLID
  5
167
330
163
100
AcDbEntity
  8
VERMASSUNG
100
AcDbTrace
 10
258.4445263617
 20
62.26968183
 30
0.0
 11
258.8945263617
 21
65.26968183
 31
0.0
 12
257.9945263617
 22
65.26968183
 32
0.0
 13
257.9945263617
 23
65.26968183
 33
0.0
  0
LINE
  5
168
330
163
100
AcDbEntity
  8
VERMASSUNG
100
AcDbLine
 10
242.4493035112
 20
152.26968183
 30
0.0
 11
259.4445263617
 21
152.26968183
 31
0.0
  0
LINE
  5
169
330
163
100
AcDbEntity
  8
VERMASSUNG
100
AcDbLine
 10
242.4493035112
 20
62.26968183
 30
0.0
 11
259.4445263617
 21
62.26968183
 31
0.0
  0
LINE
  5
16A
330
163
100
AcDbEntity
  8
VERMASSUNG
100
AcDbLine
 10
258.4445263617
 20
152.26968183
 30
0.0
 11
258.4445263617
 21
62.26968183
 31
0.0
  0
MTEXT
  5
16B
330
163
100
AcDbEntity
  8
VERMASSUNG
100
AcDbMText
 10
255.6663911055
 20
101.1646826081
 30
0.0
 40
2.0
 41
0.0
 71
     1
 72
     1
  1
ST7
  7
SLDTEXTSTYLE0
 11
-7.044195017643634E-15
 21
1.0
 31
0.0
 73
     1
 44
1.0
  0
MTEXT
  5
16C
330
163
100
AcDbEntity
  8
VERMASSUNG
100
AcDbMText
 10
255.8663910567
 20
106.9646825344
 30
0.0
 40
2.0
 41
0.0
 71
     1
 72
     1
  1
%%c
  7
SLDTEXTSTYLE0
 11
-7.044195017643634E-15
 21
1.0
 31
0.0
 73
     1
 44
1.0
  0
MTEXT
  5
16D
330
163
100
AcDbEntity
  8
VERMASSUNG
100
AcDbMText
 10
255.6663911055
 20
110.574682083
 30
0.0
 40
2.0
 41
0.0
 71
     1
 72
     1
  1
90
  7
SLDTEXTSTYLE0
 11
-7.044195017643634E-15
 21
1.0
 31
0.0
 73
     1
 44
1.0
  0
ENDBLK
  5
165
330
163
100
AcDbEntity
  8
0
100
AcDbBlockEnd
  0
BLOCK
  5
170
330
16F
100
AcDbEntity
  8
0
100
AcDbBlockBegin
  2
_D_3
 70
     0
 10
0.0
 20
0.0
 30
0.0
  3
_D_3
  1

  0
ARC
  5
172
330
16F
100
AcDbEntity
  8
VERMASSUNG
100
AcDbCircle
 10
210.8743037481
 20
164.156268714
 30
0.0
 40
4.24852922888762
100
AcDbArc
 50
153.4349488229
 51
206.5650511771
  0
ARC
  5
173
330
16F
100
AcDbEntity
  8
VERMASSUNG
100
AcDbCircle
 10
209.4743033324
 20
164.156268714
 30
0.0
 40
4.24852922888762
100
AcDbArc
 50
333.4349488229
 51
26.5650511771
  0
SOLID
  5
174
330
16F
100
AcDbEntity
  8
VERMASSUNG
100
AcDbTrace
 10
177.1993035112
 20
162.2562684492
 30
0.0
 11
180.1993035112
 21
161.8062684492
 31
0.0
 12
180.1993035112
 22
162.7062684492
 32
0.0
 13
180.1993035112
 23
162.7062684492
 33
0.0
  0
SOLID
  5
175
330
16F
100
AcDbEntity
  8
VERMASSUNG
100
AcDbTrace
 10
243.1493035112
 20
162.2562684492
 30
0.0
 11
240.1493035112
 21
162.7062684492
 31
0.0
 12
240.1493035112
 22
161.8062684492
 32
0.0
 13
240.1493035112
 23
161.8062684492
 33
0.0
  0
LINE
  5
176
330
16F
100
AcDbEntity
  8
VERMASSUNG
100
AcDbLine
 10
177.1993035112
 20
153.5646687832
 30
0.0
 11
177.1993035112
 21
163.2562684492
 31
0.0
  0
LINE
  5
177
330
16F
100
AcDbEntity
  8
VERMASSUNG
100
AcDbLine
 10
243.1493035112
 20
151.56968183
 30
0.0
 11
243.1493035112
 21
163.2562684492
 31
0.0
  0
LINE
  5
178
330
16F
100
AcDbEntity
  8
VERMASSUNG
100
AcDbLine
 10
177.1993035112
 20
162.2562684492
 30
0.0
 11
243.1493035112
 21
162.2562684492
 31
0.0
  0
MTEXT
  5
179
330
16F
100
AcDbEntity
  8
VERMASSUNG
100
AcDbMText
 10
207.0743036841
 20
164.834404278
 30
0.0
 40
2.0
 41
0.0
 71
     1
 72
     1
  1
65.95
  7
SLDTEXTSTYLE0
 73
     1
 44
1.0
  0
ENDBLK
  5
171
330
16F
100
AcDbEntity
  8
0
100
AcDbBlockEnd
  0
BLOCK
  5
17C
330
17B
100
AcDbEntity
  8
0
100
AcDbBlockBegin
  2
_D_4
 70
     0
 10
0.0
 20
0.0
 30
0.0
  3
_D_4
  1

  0
SOLID
  5
17E
330
17B
100
AcDbEntity
  8
VERMASSUNG
100
AcDbTrace
 10
158.1493035112
 20
168.2562684492
 30
0.0
 11
161.1493035112
 21
167.8062684492
 31
0.0
 12
161.1493035112
 22
168.7062684492
 32
0.0
 13
161.1493035112
 23
168.7062684492
 33
0.0
  0
SOLID
  5
17F
330
17B
100
AcDbEntity
  8
VERMASSUNG
100
AcDbTrace
 10
243.1493035112
 20
168.2562684492
 30
0.0
 11
240.1493035112
 21
168.7062684492
 31
0.0
 12
240.1493035112
 22
167.8062684492
 32
0.0
 13
240.1493035112
 23
167.8062684492
 33
0.0
  0
LINE
  5
180
330
17B
100
AcDbEntity
  8
VERMASSUNG
100
AcDbLine
 10
158.1493035112
 20
142.19468183
 30
0.0
 11
158.1493035112
 21
169.2562684492
 31
0.0
  0
LINE
  5
181
330
17B
100
AcDbEntity
  8
VERMASSUNG
100
AcDbLine
 10
243.1493035112
 20
151.56968183
 30
0.0
 11
243.1493035112
 21
169.2562684492
 31
0.0
  0
LINE
  5
182
330
17B
100
AcDbEntity
  8
VERMASSUNG
100
AcDbLine
 10
158.1493035112
 20
168.2562684492
 30
0.0
 11
243.1493035112
 21
168.2562684492
 31
0.0
  0
MTEXT
  5
183
330
17B
100
AcDbEntity
  8
VERMASSUNG
100
AcDbMText
 10
199.2493035611
 20
170.8344040451
 30
0.0
 40
2.0
 41
0.0
 71
     1
 72
     1
  1
85
  7
SLDTEXTSTYLE0
 73
     1
 44
1.0
  0
ENDBLK
  5
17D
330
17B
100
AcDbEntity
  8
0
100
AcDbBlockEnd
  0
BLOCK
  5
186
330
185
100
AcDbEntity
  8
0
100
AcDbBlockBegin
  2
_D_5
 70
     0
 10
0.0
 20
0.0
 30
0.0
  3
_D_5
  1

  0
ARC
  5
188
330
185
100
AcDbEntity
  8
VERMASSUNG
100
AcDbCircle
 10
150.7493036412
 20
176.156268714
 30
0.0
 40
4.248529228887608
100
AcDbArc
 50
153.4349488229
 51
206.5650511771
  0
ARC
  5
189
330
185
100
AcDbEntity
  8
VERMASSUNG
100
AcDbCircle
 10
148.9493034393
 20
176.156268714
 30
0.0
 40
4.248529228887633
100
AcDbArc
 50
333.4349488229
 51
26.5650511771
  0
SOLID
  5
18A
330
185
100
AcDbEntity
  8
VERMASSUNG
100
AcDbTrace
 10
243.1493035112
 20
174.2562684492
 30
0.0
 11
240.1493035112
 21
174.7062684492
 31
0.0
 12
240.1493035112
 22
173.8062684492
 32
0.0
 13
240.1493035112
 23
173.8062684492
 33
0.0
  0
SOLID
  5
18B
330
185
100
AcDbEntity
  8
VERMASSUNG
100
AcDbTrace
 10
56.5493035112
 20
174.2562684492
 30
0.0
 11
59.5493035112
 21
173.8062684492
 31
0.0
 12
59.5493035112
 22
174.7062684492
 32
0.0
 13
59.5493035112
 23
174.7062684492
 33
0.0
  0
LINE
  5
18C
330
185
100
AcDbEntity
  8
VERMASSUNG
100
AcDbLine
 10
243.1493035112
 20
151.56968183
 30
0.0
 11
243.1493035112
 21
175.2562684492
 31
0.0
  0
LINE
  5
18D
330
185
100
AcDbEntity
  8
VERMASSUNG
100
AcDbLine
 10
56.5493035112
 20
125.6485263574
 30
0.0
 11
56.5493035112
 21
175.2562684492
 31
0.0
  0
LINE
  5
18E
330
185
100
AcDbEntity
  8
VERMASSUNG
100
AcDbLine
 10
243.1493035112
 20
174.2562684492
 30
0.0
 11
56.5493035112
 21
174.2562684492
 31
0.0
  0
MTEXT
  5
18F
330
185
100
AcDbEntity
  8
VERMASSUNG
100
AcDbMText
 10
146.9493035771
 20
176.834404278
 30
0.0
 40
2.0
 41
0.0
 71
     1
 72
     1
  1
186.6
  7
SLDTEXTSTYLE0
 73
     1
 44
1.0
  0
ENDBLK
  5
187
330
185
100
AcDbEntity
  8
0
100
AcDbBlockEnd
  0
ENDSEC
  0
SECTION
  2
ENTITIES
  0
MTEXT
  5
78
330
1F
100
AcDbEntity
  8
KOPF_DÜNN
100
AcDbMText
 10
13.8892156294
 20
23.8442973028
 30
0.0
 40
3.0
 41
0.0
 71
     1
 72
     1
  1
114.450.090.085
  7
SLDTEXTSTYLE0
 73
     1
 44
1.0
  0
MTEXT
  5
79
330
1F
100
AcDbEntity
  8
VERMASSUNG
100
AcDbMText
 10
13.9329988022
 20
28.8834360957
 30
0.0
 40
3.0
 41
0.0
 71
     1
 72
     1
  1
Aufnahme_Master shank ST7+
  7
SLDTEXTSTYLE0
 73
     1
 44
1.0
  0
MTEXT
  5
7A
330
1F
100
AcDbEntity
  8
VERMASSUNG
100
AcDbMText
 10
98.8601118557
 20
13.8365368761
 30
0.0
 40
2.0
 41
0.0
 71
     1
 72
     1
  1
Datum: 14.05.2008
  7
SLDTEXTSTYLE0
 73
     1
 44
1.0
  0
MTEXT
  5
7B
330
1F
100
AcDbEntity
  8
VERMASSUNG
100
AcDbMText
 10
13.933048693
 20
18.0482802738
 30
0.0
 40
2.0
 41
0.0
 71
     1
 72
     1
  1
DIN 69871 A/D ISO 50
  7
SLDTEXTSTYLE0
 73
     1
 44
1.0
  0
MTEXT
  5
7C
330
1F
100
AcDbEntity
  8
VERMASSUNG
100
AcDbMText
 10
13.9808475933
 20
13.9090974274
 30
0.0
 40
2.0
 41
0.0
 71
     1
 72
     1
  1
Gewicht: 4608g
  7
SLDTEXTSTYLE0
 73
     1
 44
1.0
  0
LINE
  5
7D
330
1F
100
AcDbEntity
  8
0
  6
Continuous
 62
     7
370
    25
100
AcDbLine
 10
242.4493000064
 20
152.2696836181
 30
0.0
 11
196.6134064052
 21
152.2696836181
 31
0.0
  0
LINE
  5
7E
330
1F
100
AcDbEntity
  8
0
  6
Continuous
 62
     7
370
    25
100
AcDbLine
 10
196.6134064052
 20
62.2696800419
 30
0.0
 11
242.4493000064
 21
62.2696800419
 31
0.0
  0
ARC
  5
7F
330
1F
100
AcDbEntity
  8
0
  6
Continuous
 62
     7
370
    25
100
AcDbCircle
 10
196.6134051263
 20
63.26968183
 30
0.0
 40
1.000000000000008
100
AcDbArc
 50
210.0
 51
270.0
  0
ARC
  5
80
330
1F
100
AcDbEntity
  8
0
  6
Continuous
 62
     7
370
    25
100
AcDbCircle
 10
196.6134051263
 20
151.26968183
 30
0.0
 40
1.000000000000008
100
AcDbArc
 50
90.0
 51
150.0
  0
LINE
  5
81
330
1F
100
AcDbEntity
  8
0
  6
Continuous
 62
     7
370
    25
100
AcDbLine
 10
242.4493000064
 20
62.2696800419
 30
0.0
 11
243.1493044052
 21
62.9696807154
 31
0.0
  0
LINE
  5
82
330
1F
100
AcDbEntity
  8
0
  6
Continuous
 62
     7
370
    25
100
AcDbLine
 10
243.1493044052
 20
151.5696829446
 30
0.0
 11
242.4493000064
 21
152.2696836181
 31
0.0
  0
LINE
  5
83
330
1F
100
AcDbEntity
  8
0
  6
Continuous
 62
     7
370
    25
100
AcDbLine
 10
195.747380719
 20
151.7696826049
 30
0.0
 11
193.4379801307
 21
147.7696819492
 31
0.0
  0
LINE
  5
84
330
1F
100
AcDbEntity
  8
0
  6
Continuous
 62
     7
370
    25
100
AcDbLine
 10
193.4379801307
 20
66.7696817108
 30
0.0
 11
195.747380719
 21
62.7696810551
 31
0.0
  0
ARC
  5
85
330
1F
100
AcDbEntity
  8
0
  6
Continuous
 62
     7
370
    25
100
AcDbCircle
 10
192.571953242
 20
148.26968183
 30
0.0
 40
1.0
100
AcDbArc
 50
270.0
 51
330.0
  0
ARC
  5
86
330
1F
100
AcDbEntity
  8
0
  6
Continuous
 62
     7
370
    25
100
AcDbCircle
 10
192.571953242
 20
66.26968183
 30
0.0
 40
1.0
100
AcDbArc
 50
30.0
 51
90.0
  0
LINE
  5
87
330
1F
100
AcDbEntity
  8
0
  6
Continuous
 62
     7
370
    25
100
AcDbLine
 10
190.0425270352
 20
67.2696827241
 30
0.0
 11
192.5719544444
 21
67.2696827241
 31
0.0
  0
LINE
  5
88
330
1F
100
AcDbEntity
  8
0
  6
Continuous
 62
     7
370
    25
100
AcDbLine
 10
192.5719544444
 20
147.2696809359
 30
0.0
 11
190.0425270352
 21
147.2696809359
 31
0.0
  0
ARC
  5
89
330
1F
100
AcDbEntity
  8
0
  6
Continuous
 62
     7
370
    25
100
AcDbCircle
 10
160.7493035112
 20
71.74468183
 30
0.0
 40
0.6000000000000227
100
AcDbArc
 50
0.0
 51
90.0
  0
ARC
  5
8A
330
1F
100
AcDbEntity
  8
0
  6
Continuous
 62
     7
370
    25
100
AcDbCircle
 10
160.7493035112
 20
142.79468183
 30
0.0
 40
0.6000000000000227
100
AcDbArc
 50
270.0
 51
0.0
  0
LINE
  5
8B
330
1F
100
AcDbEntity
  8
0
  6
Continuous
 62
     7
370
    25
100
AcDbLine
 10
158.1493035112
 20
72.3446829506
 30
0.0
 11
160.7493035182
 21
72.3446829506
 31
0.0
  0
LINE
  5
8C
330
1F
100
AcDbEntity
  8
0
  6
Continuous
 62
     7
370
    25
100
AcDbLine
 10
160.7493035182
 20
142.1946807094
 30
0.0
 11
158.1493035112
 21
142.1946807094
 31
0.0
  0
LINE
  5
8D
330
1F
100
AcDbEntity
  8
0
  6
Continuous
 62
     7
370
    25
100
AcDbLine
 10
158.1493035112
 20
142.1946807094
 30
0.0
 11
58.260688201
 21
127.6275923737
 31
0.0
  0
LINE
  5
8E
330
1F
100
AcDbEntity
  8
0
  6
Continuous
 62
     7
370
    25
100
AcDbLine
 10
58.260688201
 20
86.9117712863
 30
0.0
 11
158.1493035112
 21
72.3446829506
 31
0.0
  0
ARC
  5
8F
330
1F
100
AcDbEntity
  8
0
  6
Continuous
 62
     7
370
    25
100
AcDbCircle
 10
58.5493035112
 20
88.8908373026
 30
0.0
 40
2.000000000000007
100
AcDbArc
 50
180.0
 51
261.7028550302
  0
ARC
  5
90
330
1F
100
AcDbEntity
  8
0
  6
Continuous
 62
     7
370
    25
100
AcDbCircle
 10
58.5493035112
 20
125.6485263574
 30
0.0
 40
1.999999999999993
100
AcDbArc
 50
98.2971449698
 51
180.0
  0
SPLINE
  5
91
330
1F
100
AcDbEntity
  8
0
  6
Continuous
 62
     7
370
    25
100
AcDbSpline
210
0.0
220
0.0
230
1.0
 70
    24
 71
     3
 72
    12
 73
     8
 74
     0
 42
0.000000001
 43
0.00000001
 40
0.0
 40
0.0
 40
0.0
 40
0.0
 40
0.1345037793812143
 40
0.3093344892724896
 40
0.483734455006835
 40
0.8160089204081862
 40
1.0
 40
1.0
 40
1.0
 40
1.0
 10
226.9860521111564
 20
102.2696819417564
 30
0.0
 10
226.7420758519877
 20
102.2696819417564
 30
0.0
 10
226.1809743582473
 20
102.2696819417564
 30
0.0
 10
225.2501505164468
 20
102.2696819417564
 30
0.0
 10
223.8873094015728
 20
102.2696819417564
 30
0.0
 10
222.4864639075971
 20
102.2696819417564
 30
0.0
 10
221.5472702714112
 20
102.2696819417564
 30
0.0
 10
221.2125525031165
 20
102.2696819417564
 30
0.0
  0
SPLINE
  5
92
330
1F
100
AcDbEntity
  8
0
  6
Continuous
 62
     7
370
    25
100
AcDbSpline
210
0.0
220
0.0
230
1.0
 70
     8
 71
     3
 72
    11
 73
     7
 74
     0
 42
0.000000001
 43
0.00000001
 40
0.0
 40
0.0
 40
0.0
 40
0.0
 40
0.2164574026127798
 40
0.440315949400439
 40
0.7519037912553242
 40
1.0
 40
1.0
 40
1.0
 40
1.0
 10
229.8728093657569
 20
107.2696818299977
 30
0.0
 10
229.6750623586952
 20
106.9271732873321
 30
0.0
 10
229.2728069490652
 20
106.2304450982234
 30
0.0
 10
228.5263252420797
 20
104.9375152245929
 30
0.0
 10
227.7256107440138
 20
103.5506198495276
 30
0.0
 10
227.2131951873009
 20
102.6631006158069
 30
0.0
 10
226.9860521111564
 20
102.2696819417564
 30
0.0
  0
SPLINE
  5
93
330
1F
100
AcDbEntity
  8
0
  6
Continuous
 62
     7
370
    25
100
AcDbSpline
210
0.0
220
0.0
230
1.0
 70
     8
 71
     3
 72
    11
 73
     7
 74
     0
 42
0.000000001
 43
0.00000001
 40
0.0
 40
0.0
 40
0.0
 40
0.0
 40
0.2164573712293592
 40
0.4403159504644553
 40
0.7519037917269804
 40
1.0
 40
1.0
 40
1.0
 40
1.0
 10
226.9860521111564
 20
112.269681718239
 30
0.0
 10
227.1837991365245
 20
111.9271732657541
 30
0.0
 10
227.5860546426872
 20
111.2304451573905
 30
0.0
 10
228.3325361426741
 20
109.9375151270686
 30
0.0
 10
229.1332507456459
 20
108.5506197473348
 30
0.0
 10
229.6456662935272
 20
107.6631005069862
 30
0.0
 10
229.8728093657569
 20
107.2696818299977
 30
0.0
  0
SPLINE
  5
94
330
1F
100
AcDbEntity
  8
0
  6
Continuous
 62
     7
370
    25
100
AcDbSpline
210
0.0
220
0.0
230
1.0
 70
    24
 71
     3
 72
    12
 73
     8
 74
     0
 42
0.000000001
 43
0.00000001
 40
0.0
 40
0.0
 40
0.0
 40
0.0
 40
0.1839910795918138
 40
0.516265544993165
 40
0.6906655107275105
 40
0.8654962206187857
 40
1.0
 40
1.0
 40
1.0
 40
1.0
 10
221.2125525031165
 20
112.269681718239
 30
0.0
 10
221.5472702714112
 20
112.269681718239
 30
0.0
 10
222.4864639075971
 20
112.269681718239
 30
0.0
 10
223.8873094015729
 20
112.269681718239
 30
0.0
 10
225.2501505164468
 20
112.269681718239
 30
0.0
 10
226.1809743582473
 20
112.269681718239
 30
0.0
 10
226.7420758519877
 20
112.269681718239
 30
0.0
 10
226.9860521111564
 20
112.269681718239
 30
0.0
  0
SPLINE
  5
95
330
1F
100
AcDbEntity
  8
0
  6
Continuous
 62
     7
370
    25
100
AcDbSpline
210
0.0
220
0.0
230
1.0
 70
     8
 71
     3
 72
    11
 73
     7
 74
     0
 42
0.000000001
 43
0.00000001
 40
0.0
 40
0.0
 40
0.0
 40
0.0
 40
0.2164574325982701
 40
0.440315771631631
 40
0.7519040089507589
 40
1.0
 40
1.0
 40
1.0
 40
1.0
 10
221.2125525031165
 20
102.2696819417564
 30
0.0
 10
221.0148051242803
 20
102.6121901961615
 30
0.0
 10
220.6125491765163
 20
103.3089174210864
 30
0.0
 10
219.8660739787129
 20
104.6018508981273
 30
0.0
 10
219.0653523358233
 20
105.9887418281814
 30
0.0
 10
218.552940243019
 20
106.8762628385617
 30
0.0
 10
218.3257989738063
 20
107.2696818299977
 30
0.0
  0
CIRCLE
  5
96
330
1F
100
AcDbEntity
  8
0
  6
Continuous
 62
     7
370
    25
100
AcDbCircle
 10
224.0993035112
 20
107.26968183
 30
0.0
 40
5.799999999999997
  0
SPLINE
  5
97
330
1F
100
AcDbEntity
  8
0
  6
Continuous
 62
     7
370
    25
100
AcDbSpline
210
0.0
220
0.0
230
1.0
 70
     8
 71
     3
 72
    11
 73
     7
 74
     0
 42
0.000000001
 43
0.00000001
 40
0.0
 40
0.0
 40
0.0
 40
0.0
 40
0.2164574639817093
 40
0.4403157705675891
 40
0.7519040084790921
 40
1.0
 40
1.0
 40
1.0
 40
1.0
 10
218.3257989738063
 20
107.2696818299977
 30
0.0
 10
218.523546334336
 20
107.6121901745835
 30
0.0
 10
218.9258021855675
 20
108.3089174802533
 30
0.0
 10
219.6722775903696
 20
109.601850800603
 30
0.0
 10
220.472999128353
 20
110.9887417259884
 30
0.0
 10
220.985411229989
 20
111.876262729741
 30
0.0
 10
221.2125525031165
 20
112.269681718239
 30
0.0
  0
CIRCLE
  5
98
330
1F
100
AcDbEntity
  8
0
  6
Continuous
 62
     7
370
    25
100
AcDbCircle
 10
224.0993035112
 20
107.26968183
 30
0.0
 40
9.199999999999989
  0
CIRCLE
  5
99
330
1F
100
AcDbEntity
  8
0
  6
Continuous
 62
     7
370
    25
100
AcDbCircle
 10
224.0993035112
 20
107.26968183
 30
0.0
 40
9.999999999999986
  0
ARC
  5
9A
330
1F
100
AcDbEntity
  8
0
  6
Continuous
 62
     7
370
    25
100
AcDbCircle
 10
224.0993035112
 20
107.26968183
 30
0.0
 40
4.999999999999999
100
AcDbArc
 50
330.0
 51
30.0
  0
ARC
  5
9B
330
1F
100
AcDbEntity
  8
0
  6
Continuous
 62
     7
370
    25
100
AcDbCircle
 10
224.0993035112
 20
107.26968183
 30
0.0
 40
5.000000000000073
100
AcDbArc
 50
90.0
 51
150.0
  0
ARC
  5
9C
330
1F
100
AcDbEntity
  8
0
  6
Continuous
 62
     7
370
    25
100
AcDbCircle
 10
224.0993035112
 20
107.26968183
 30
0.0
 40
5.0
100
AcDbArc
 50
270.0
 51
330.0
  0
ARC
  5
9D
330
1F
100
AcDbEntity
  8
0
  6
Continuous
 62
     7
370
    25
100
AcDbCircle
 10
224.0993035112
 20
107.26968183
 30
0.0
 40
5.000000000000066
100
AcDbArc
 50
210.0
 51
270.0
  0
ARC
  5
9E
330
1F
100
AcDbEntity
  8
0
  6
Continuous
 62
     7
370
    25
100
AcDbCircle
 10
224.0993035112
 20
107.26968183
 30
0.0
 40
5.000000000000014
100
AcDbArc
 50
30.0
 51
90.0
  0
ARC
  5
9F
330
1F
100
AcDbEntity
  8
0
  6
Continuous
 62
     7
370
    25
100
AcDbCircle
 10
224.0993035112
 20
107.26968183
 30
0.0
 40
5.000000000000073
100
AcDbArc
 50
150.0
 51
210.0
  0
LINE
  5
A0
330
1F
100
AcDbEntity
  8
0
  6
Continuous
 62
     7
370
    25
100
AcDbLine
 10
161.9493035752
 20
60.5404226371
 30
0.0
 11
166.0161424581
 21
60.5404226371
 31
0.0
  0
LINE
  5
A1
330
1F
100
AcDbEntity
  8
0
  6
Continuous
 62
     7
370
    25
100
AcDbLine
 10
166.0161424581
 20
137.1196823456
 30
0.0
 11
161.9493035752
 21
137.1196823456
 31
0.0
  0
LINE
  5
A2
330
1F
100
AcDbEntity
  8
0
  6
Continuous
 62
     7
370
    25
100
AcDbLine
 10
166.0161424581
 20
60.5404226371
 30
0.0
 11
166.0161424581
 21
137.1196823456
 31
0.0
  0
SPLINE
  5
A3
330
1F
100
AcDbEntity
  8
0
  6
Continuous
 62
     7
370
    25
100
AcDbSpline
210
0.0
220
0.0
230
1.0
 70
     8
 71
     3
 72
     8
 73
     4
 74
     0
 42
0.000000001
 43
0.00000001
 40
0.0
 40
0.0
 40
0.0
 40
0.0
 40
1.0
 40
1.0
 40
1.0
 40
1.0
 10
167.3393035111503
 20
62.64994242116795
 30
0.0
 10
167.0495750651257
 20
62.12772241100443
 30
0.0
 10
166.759549914908
 20
61.60566902874446
 30
0.0
 10
166.4692556806462
 20
61.08376676302136
 30
0.0
  0
SPLINE
  5
A4
330
1F
100
AcDbEntity
  8
0
  6
Continuous
 62
     7
370
    25
100
AcDbSpline
210
0.0
220
0.0
230
1.0
 70
     8
 71
     3
 72
     8
 73
     4
 74
     0
 42
0.000000001
 43
0.00000001
 40
0.0
 40
0.0
 40
0.0
 40
0.0
 40
0.0011862984959113
 40
0.0011862984959113
 40
0.0011862984959113
 40
0.0011862984959113
 10
166.0161420036884
 20
60.54042248865174
 30
0.0
 10
166.1681667655592
 20
60.72133433826972
 30
0.0
 10
166.319224210775
 20
60.90244666871057
 30
0.0
 10
166.4692556806462
 20
61.08376676302137
 30
0.0
  0
SPLINE
  5
A5
330
1F
100
AcDbEntity
  8
0
  6
Continuous
 62
     7
370
    25
100
AcDbSpline
210
0.0
220
0.0
230
1.0
 70
    24
 71
     3
 72
     8
 73
     4
 74
     0
 42
0.000000001
 43
0.00000001
 40
0.0
 40
0.0
 40
0.0
 40
0.0
 40
1.0
 40
1.0
 40
1.0
 40
1.0
 10
167.3393035111503
 20
137.1196818299977
 30
0.0
 10
166.9041034064466
 20
137.1196818299977
 30
0.0
 10
166.4627437237077
 20
137.1196818299977
 30
0.0
 10
166.0161420036884
 20
137.1196818299977
 30
0.0
  0
LINE
  5
A6
330
1F
100
AcDbEntity
  8
0
  6
Continuous
 62
     7
370
    25
100
AcDbLine
 10
167.3393031735
 20
62.6499427744
 30
0.0
 11
167.3393031735
 21
137.1196823456
 31
0.0
  0
LINE
  5
A7
330
1F
100
AcDbEntity
  8
0
  6
Continuous
 62
     7
370
    25
100
AcDbLine
 10
172.4824650366
 20
60.5404226371
 30
0.0
 11
176.5993029032
 21
60.5404226371
 31
0.0
  0
LINE
  5
A8
330
1F
100
AcDbEntity
  8
0
  6
Continuous
 62
     7
370
    25
100
AcDbLine
 10
172.4824650366
 20
60.5404226371
 30
0.0
 11
172.4824650366
 21
137.1196823456
 31
0.0
  0
LINE
  5
A9
330
1F
100
AcDbEntity
  8
0
  6
Continuous
 62
     7
370
    25
100
AcDbLine
 10
176.5993029032
 20
137.1196823456
 30
0.0
 11
172.4824650366
 21
137.1196823456
 31
0.0
  0
SPLINE
  5
AA
330
1F
100
AcDbEntity
  8
0
  6
Continuous
 62
     7
370
    25
100
AcDbSpline
210
0.0
220
0.0
230
1.0
 70
     8
 71
     3
 72
     8
 73
     4
 74
     0
 42
0.000000001
 43
0.00000001
 40
0.0000000000000004
 40
0.0000000000000004
 40
0.0000000000000004
 40
0.0000000000000004
 40
0.0011862984959128
 40
0.0011862984959128
 40
0.0011862984959128
 40
0.0011862984959128
 10
172.0293513416504
 20
61.08376676302137
 30
0.0
 10
172.1793828115217
 20
60.90244666871033
 30
0.0
 10
172.3304402567411
 20
60.72133433826995
 30
0.0
 10
172.4824650186121
 20
60.54042248865174
 30
0.0
  0
SPLINE
  5
AB
330
1F
100
AcDbEntity
  8
0
  6
Continuous
 62
     7
370
    25
100
AcDbSpline
210
0.0
220
0.0
230
1.0
 70
     8
 71
     3
 72
     8
 73
     4
 74
     0
 42
0.000000001
 43
0.00000001
 40
0.0
 40
0.0
 40
0.0
 40
0.0
 40
1.0
 40
1.0
 40
1.0
 40
1.0
 10
172.0293513416534
 20
61.08376676302303
 30
0.0
 10
171.7390571073919
 20
61.60566902874557
 30
0.0
 10
171.4490319571745
 20
62.12772241100498
 30
0.0
 10
171.1593035111503
 20
62.64994242116795
 30
0.0
  0
LINE
  5
AC
330
1F
100
AcDbEntity
  8
0
  6
Continuous
 62
     7
370
    25
100
AcDbLine
 10
171.1593033899
 20
62.6499427744
 30
0.0
 11
171.1593033899
 21
137.1196823456
 31
0.0
  0
SPLINE
  5
AD
330
1F
100
AcDbEntity
  8
0
  6
Continuous
 62
     7
370
    25
100
AcDbSpline
210
0.0
220
0.0
230
1.0
 70
    24
 71
     3
 72
     8
 73
     4
 74
     0
 42
0.000000001
 43
0.00000001
 40
0.0
 40
0.0
 40
0.0
 40
0.0
 40
1.0
 40
1.0
 40
1.0
 40
1.0
 10
172.4824650186121
 20
137.1196818299977
 30
0.0
 10
172.0358632985928
 20
137.1196818299977
 30
0.0
 10
171.5945036158539
 20
137.1196818299977
 30
0.0
 10
171.1593035111503
 20
137.1196818299977
 30
0.0
  0
SPLINE
  5
AE
330
1F
100
AcDbEntity
  8
0
  6
Continuous
 62
     7
370
    25
100
AcDbSpline
210
0.0
220
0.0
230
1.0
 70
     8
 71
     3
 72
    10
 73
     6
 74
     0
 42
0.000000001
 43
0.00000001
 40
0.0
 40
0.0
 40
0.0
 40
0.0
 40
0.5
 40
0.5
 40
1.0
 40
1.0
 40
1.0
 40
1.0
 10
161.5649635423043
 20
60.6362275628055
 30
0.0
 10
161.6136141108839
 20
60.60827057153807
 30
0.0
 10
161.6709993228434
 20
60.58432828651129
 30
0.0
 10
161.8017124310094
 20
60.55020982341556
 30
0.0
 10
161.874451964748
 20
60.54042248865172
 30
0.0
 10
161.9493035111502
 20
60.54042248865173
 30
0.0
  0
SPLINE
  5
AF
330
1F
100
AcDbEntity
  8
0
  6
Continuous
 62
     7
370
    25
100
AcDbSpline
210
0.0
220
0.0
230
1.0
 70
     8
 71
     3
 72
    10
 73
     6
 74
     0
 42
0.000000001
 43
0.00000001
 40
0.0
 40
0.0
 40
0.0
 40
0.0
 40
0.5
 40
0.5
 40
1.0
 40
1.0
 40
1.0
 40
1.0
 10
161.5649635423043
 20
60.63622756280549
 30
0.0
 10
161.5067755357221
 20
60.70381129298431
 30
0.0
 10
161.4543330691958
 20
60.78428752762608
 30
0.0
 10
161.3759807620171
 20
60.96732315060881
 30
0.0
 10
161.3493035111502
 20
61.07319885340443
 30
0.0
 10
161.3493035111502
 20
61.18071216262505
 30
0.0
  0
LINE
  5
B0
330
1F
100
AcDbEntity
  8
0
  6
Continuous
 62
     7
370
    25
100
AcDbLine
 10
161.3493034303
 20
61.1807106324
 30
0.0
 11
161.3493034303
 21
137.1196823456
 31
0.0
  0
SPLINE
  5
B1
330
1F
100
AcDbEntity
  8
0
  6
Continuous
 62
     7
370
    25
100
AcDbSpline
210
0.0
220
0.0
230
1.0
 70
    24
 71
     3
 72
    14
 73
    10
 74
     0
 42
0.000000001
 43
0.00000001
 40
0.0
 40
0.0
 40
0.0
 40
0.0
 40
0.25
 40
0.25
 40
0.5
 40
0.5
 40
0.75
 40
0.75
 40
1.0
 40
1.0
 40
1.0
 40
1.0
 10
161.9493035111502
 20
137.1196818299977
 30
0.0
 10
161.8602815588066
 20
137.1196818299977
 30
0.0
 10
161.770594859533
 20
137.1196818299977
 30
0.0
 10
161.6168680339757
 20
137.1196818299977
 30
0.0
 10
161.5516631393489
 20
137.1196818299977
 30
0.0
 10
161.4490724451785
 20
137.1196818299977
 30
0.0
 10
161.4114349908626
 20
137.1196818299977
 30
0.0
 10
161.3613430754775
 20
137.1196818299977
 30
0.0
 10
161.3493035111503
 20
137.1196818299977
 30
0.0
 10
161.3493035111503
 20
137.1196818299977
 30
0.0
  0
SPLINE
  5
B2
330
1F
100
AcDbEntity
  8
0
  6
Continuous
 62
     7
370
    25
100
AcDbSpline
210
0.0
220
0.0
230
1.0
 70
     8
 71
     3
 72
    12
 73
     8
 74
     0
 42
0.000000001
 43
0.00000001
 40
0.0
 40
0.0
 40
0.0
 40
0.0
 40
0.2499999999999981
 40
0.2499999999999981
 40
0.4999999999999962
 40
0.4999999999999962
 40
1.0
 40
1.0
 40
1.0
 40
1.0
 10
176.5993035111503
 20
60.54042248865174
 30
0.0
 10
176.6952762643251
 20
60.54042248865172
 30
0.0
 10
176.7877042284796
 20
60.55669581276032
 30
0.0
 10
176.944134328589
 20
60.61006953475672
 30
0.0
 10
177.0076127533619
 20
60.64619779229105
 30
0.0
 10
177.155891914189
 20
60.76689898857036
 30
0.0
 10
177.1993035111503
 20
60.86074857493553
 30
0.0
 10
177.1993035111503
 20
60.95505284988273
 30
0.0
  0
SPLINE
  5
B3
330
1F
100
AcDbEntity
  8
0
  6
Continuous
 62
     7
370
    25
100
AcDbSpline
210
0.0
220
0.0
230
1.0
 70
    24
 71
     3
 72
    12
 73
     8
 74
     0
 42
0.000000001
 43
0.00000001
 40
0.0
 40
0.0
 40
0.0
 40
0.0
 40
0.4999999999999972
 40
0.4999999999999972
 40
0.7499999999999986
 40
0.7499999999999986
 40
1.0
 40
1.0
 40
1.0
 40
1.0
 10
177.1993035111503
 20
137.1196818299977
 30
0.0
 10
177.1993035111503
 20
137.1196818299977
 30
0.0
 10
177.1511728227649
 20
137.1196818299977
 30
0.0
 10
176.9972757669618
 20
137.1196818299977
 30
0.0
 10
176.9318112019551
 20
137.1196818299977
 30
0.0
 10
176.7782818813449
 20
137.1196818299977
 30
0.0
 10
176.6899332206091
 20
137.1196818299977
 30
0.0
 10
176.5993035111501
 20
137.1196818299977
 30
0.0
  0
LINE
  5
B4
330
1F
100
AcDbEntity
  8
0
  6
Continuous
 62
     7
370
    25
100
AcDbLine
 10
177.1993037466
 20
60.9550511726
 30
0.0
 11
177.1993037466
 21
137.1196823456
 31
0.0
  0
SPLINE
  5
B5
330
1F
100
AcDbEntity
  8
0
  6
Continuous
 62
     7
370
    25
100
AcDbSpline
210
0.0
220
0.0
230
1.0
 70
     8
 71
     3
 72
    14
 73
    10
 74
     0
 42
0.000000001
 43
0.00000001
 40
0.0
 40
0.0
 40
0.0
 40
0.0
 40
0.25
 40
0.25
 40
0.5
 40
0.5
 40
0.75
 40
0.75
 40
1.0
 40
1.0
 40
1.0
 40
1.0
 10
171.1593035111503
 20
62.78859034159111
 30
0.0
 10
171.1593035111503
 20
62.89565432793191
 30
0.0
 10
171.1393196849103
 20
63.00239365430643
 30
0.0
 10
171.0618846024768
 20
63.20114355649722
 30
0.0
 10
171.0039456803173
 20
63.29369777298974
 30
0.0
 10
170.8583078745566
 20
63.44879471639532
 30
0.0
 10
170.7695188782212
 20
63.51253487330818
 30
0.0
 10
170.5729705180167
 20
63.59928343039578
 30
0.0
 10
170.4668312883173
 20
63.62191556412794
 30
0.0
 10
170.3593035111502
 20
63.62191556412794
 30
0.0
  0
SPLINE
  5
B6
330
1F
100
AcDbEntity
  8
0
  6
Continuous
 62
     7
370
    25
100
AcDbSpline
210
0.0
220
0.0
230
1.0
 70
    24
 71
     3
 72
    14
 73
    10
 74
     0
 42
0.000000001
 43
0.00000001
 40
0.0
 40
0.0
 40
0.0
 40
0.0
 40
0.25
 40
0.25
 40
0.5
 40
0.5
 40
0.75
 40
0.75
 40
1.0
 40
1.0
 40
1.0
 40
1.0
 10
171.1593035111503
 20
137.1196818299977
 30
0.0
 10
171.1593035111503
 20
137.1196818299977
 30
0.0
 10
171.1430224763745
 20
137.1196818299977
 30
0.0
 10
171.0783594138499
 20
137.1196818299977
 30
0.0
 10
171.0288796175611
 20
137.1196818299977
 30
0.0
 10
170.8949098604224
 20
137.1196818299977
 30
0.0
 10
170.8087951338229
 20
137.1196818299977
 30
0.0
 10
170.6033390181099
 20
137.1196818299977
 30
0.0
 10
170.4819184809171
 20
137.1196818299977
 30
0.0
 10
170.3593035111502
 20
137.1196818299977
 30
0.0
  0
SPLINE
  5
B7
330
1F
100
AcDbEntity
  8
0
  6
Continuous
 62
     7
370
    25
100
AcDbSpline
210
0.0
220
0.0
230
1.0
 70
     8
 71
     3
 72
    14
 73
    10
 74
     0
 42
0.000000001
 43
0.00000001
 40
0.0
 40
0.0
 40
0.0
 40
0.0
 40
0.25
 40
0.25
 40
0.5
 40
0.5
 40
0.75
 40
0.75
 40
1.0
 40
1.0
 40
1.0
 40
1.0
 10
168.1393035111502
 20
63.62191556412795
 30
0.0
 10
168.032858503241
 20
63.62191556412794
 30
0.0
 10
167.9259597519675
 20
63.59934601469485
 30
0.0
 10
167.729741496525
 20
63.51290292345291
 30
0.0
 10
167.6400831830606
 20
63.44859900578578
 30
0.0
 10
167.4946294701795
 20
63.29362949174282
 30
0.0
 10
167.4365936874533
 20
63.20086400549908
 30
0.0
 10
167.3593085330687
 20
63.00239712385569
 30
0.0
 10
167.3393035111503
 20
62.89537270206191
 30
0.0
 10
167.3393035111503
 20
62.7885903415911
 30
0.0
  0
SPLINE
  5
B8
330
1F
100
AcDbEntity
  8
0
  6
Continuous
 62
     7
370
    25
100
AcDbSpline
210
0.0
220
0.0
230
1.0
 70
    24
 71
     3
 72
    14
 73
    10
 74
     0
 42
0.000000001
 43
0.00000001
 40
0.0
 40
0.0
 40
0.0
 40
0.0
 40
0.25
 40
0.25
 40
0.5
 40
0.5
 40
0.75
 40
0.75
 40
1.0
 40
1.0
 40
1.0
 40
1.0
 10
168.1393035111502
 20
137.1196818299977
 30
0.0
 10
168.016322211604
 20
137.1196818299977
 30
0.0
 10
167.896132323202
 20
137.1196818299977
 30
0.0
 10
167.6911084935228
 20
137.1196818299977
 30
0.0
 10
167.6045140047206
 20
137.1196818299977
 30
0.0
 10
167.4694061179582
 20
137.1196818299977
 30
0.0
 10
167.4208830329301
 20
137.1196818299977
 30
0.0
 10
167.3552005242033
 20
137.1196818299977
 30
0.0
 10
167.3393035111503
 20
137.1196818299977
 30
0.0
 10
167.3393035111503
 20
137.1196818299977
 30
0.0
  0
LINE
  5
B9
330
1F
100
AcDbEntity
  8
0
  6
Continuous
 62
     7
370
    25
100
AcDbLine
 10
170.3593038175
 20
63.6219157167
 30
0.0
 11
168.1393036771
 21
63.6219157167
 31
0.0
  0
LINE
  5
BA
330
1F
100
AcDbEntity
  8
0
  6
Continuous
 62
     7
370
    25
100
AcDbLine
 10
170.3593038175
 20
137.1196823456
 30
0.0
 11
168.1393036771
 21
137.1196823456
 31
0.0
  0
SPLINE
  5
BB
330
1F
100
AcDbEntity
  8
0
  6
Continuous
 62
     7
370
    25
100
AcDbSpline
210
0.0
220
0.0
230
1.0
 70
    11
 71
     3
 72
    99
 73
    95
 74
     0
 42
0.000000001
 43
0.00000001
 40
0.0
 40
0.0
 40
0.0
 40
0.0
 40
0.0312500000000014
 40
0.0312500000000014
 40
0.046875000000002
 40
0.046875000000002
 40
0.0625000000000026
 40
0.0625000000000026
 40
0.0937500000000038
 40
0.0937500000000038
 40
0.1093750000000041
 40
0.1093750000000041
 40
0.1250000000000044
 40
0.1250000000000044
 40
0.156250000000005
 40
0.156250000000005
 40
0.1718750000000053
 40
0.1718750000000053
 40
0.1875000000000056
 40
0.1875000000000056
 40
0.2187500000000061
 40
0.2187500000000061
 40
0.2343750000000061
 40
0.2343750000000061
 40
0.2500000000000061
 40
0.2500000000000061
 40
0.2812500000000066
 40
0.2812500000000066
 40
0.296875000000007
 40
0.296875000000007
 40
0.3125000000000074
 40
0.3125000000000074
 40
0.3437500000000085
 40
0.3437500000000085
 40
0.359375000000009
 40
0.359375000000009
 40
0.3750000000000095
 40
0.39062500000001
 40
0.39062500000001
 40
0.4062500000000104
 40
0.4062500000000104
 40
0.4375000000000114
 40
0.4375000000000114
 40
0.4531250000000119
 40
0.4531250000000119
 40
0.4687500000000124
 40
0.4687500000000124
 40
0.4843750000000129
 40
0.4843750000000129
 40
0.5000000000000133
 40
0.5000000000000133
 40
0.531250000000014
 40
0.531250000000014
 40
0.546875000000014
 40
0.546875000000014
 40
0.562500000000014
 40
0.562500000000014
 40
0.5937500000000135
 40
0.5937500000000135
 40
0.625000000000013
 40
0.625000000000013
 40
0.6562500000000125
 40
0.6562500000000125
 40
0.6875000000000121
 40
0.6875000000000121
 40
0.7031250000000117
 40
0.7031250000000117
 40
0.7187500000000112
 40
0.7187500000000112
 40
0.7500000000000104
 40
0.7500000000000104
 40
0.7656250000000099
 40
0.7656250000000099
 40
0.7812500000000094
 40
0.7812500000000094
 40
0.8125000000000081
 40
0.8125000000000081
 40
0.8281250000000075
 40
0.8281250000000075
 40
0.8437500000000069
 40
0.8437500000000069
 40
0.8750000000000056
 40
0.8750000000000056
 40
0.890625000000005
 40
0.890625000000005
 40
0.9062500000000043
 40
0.9062500000000043
 40
0.9218750000000037
 40
0.9218750000000037
 40
0.9375000000000031
 40
0.9375000000000031
 40
0.9687500000000016
 40
0.9687500000000016
 40
1.0
 40
1.0
 40
1.0
 40
1.0
 10
216.042941034224
 20
115.1898542391241
 30
0.0
 10
216.6234355882399
 20
115.6603393022373
 30
0.0
 10
217.2392778839239
 20
116.0685128376914
 30
0.0
 10
218.2117433641448
 20
116.5961941755276
 30
0.0
 10
218.5440852684276
 20
116.7578654155652
 30
0.0
 10
219.2251649069233
 20
117.0529123961568
 30
0.0
 10
219.5756112963248
 20
117.1868172080669
 30
0.0
 10
220.6382018984789
 20
117.5406600145092
 30
0.0
 10
221.3591615655392
 20
117.7131785705485
 30
0.0
 10
222.4587768871029
 20
117.8810365232506
 30
0.0
 10
222.8283641511204
 20
117.9217320455644
 30
0.0
 10
223.5737513404074
 20
117.9720949647564
 30
0.0
 10
223.950570565749
 20
117.9816070155686
 30
0.0
 10
225.0695604305773
 20
117.9627789190418
 30
0.0
 10
225.8067393009788
 20
117.8882516485252
 30
0.0
 10
226.8994688131161
 20
117.6844478282143
 30
0.0
 10
227.2615261708721
 20
117.6010829806547
 30
0.0
 10
227.981137493743
 20
117.4024364355351
 30
0.0
 10
228.3386796981675
 20
117.2869327549351
 30
0.0
 10
229.3830957720718
 20
116.898754329653
 30
0.0
 10
230.0493391322844
 20
116.5830110953573
 30
0.0
 10
231.0030552444244
 20
116.0216825986551
 30
0.0
 10
231.313303224043
 20
115.8198572869974
 30
0.0
 10
231.9176976300669
 20
115.3850320667313
 30
0.0
 10
232.2106847573892
 20
115.1525891863674
 30
0.0
 10
233.0453787807867
 20
114.4227031471937
 30
0.0
 10
233.5497436945275
 20
113.8886051874222
 30
0.0
 10
234.2236704643394
 20
113.0110518014067
 30
0.0
 10
234.434442305464
 20
112.7057075916738
 30
0.0
 10
234.8259825531454
 20
112.0671024441043
 30
0.0
 10
235.0031386339307
 20
111.7395969927963
 30
0.0
 10
235.4770229190032
 20
110.7364262742045
 30
0.0
 10
235.7178604779385
 20
110.038685352066
 30
0.0
 10
235.957655040111
 20
108.9448988388858
 30
0.0
 10
236.0170496959635
 20
108.5706140896603
 30
0.0
 10
236.090223010543
 20
107.8274388955637
 30
0.0
 10
236.1192473074059
 20
107.0848270326582
 30
0.0
 10
236.0613036032309
 20
106.3433253297779
 30
0.0
 10
235.9591448100731
 20
105.6023875691752
 30
0.0
 10
235.8853583571357
 20
105.2310564597553
 30
0.0
 10
235.6037878089232
 20
104.1471725644479
 30
0.0
 10
235.3357414034944
 20
103.4548008876255
 30
0.0
 10
234.8186655340537
 20
102.4591683869801
 30
0.0
 10
234.627536250701
 20
102.1360841066613
 30
0.0
 10
234.2162460409997
 20
101.5176214417855
 30
0.0
 10
233.9952125832468
 20
101.2205125233035
 30
0.0
 10
233.5236054474776
 20
100.6494166987319
 30
0.0
 10
233.2730278965065
 20
100.3754331080622
 30
0.0
 10
232.7425760806564
 20
99.85023868036679
 30
0.0
 10
232.4643106892559
 20
99.60081704535666
 30
0.0
 10
231.6020216726781
 20
98.89860077075515
 30
0.0
 10
230.986924049086
 20
98.48755327847108
 30
0.0
 10
230.0058578345432
 20
97.95265432323377
 30
0.0
 10
229.6681328319901
 20
97.78784705372131
 30
0.0
 10
228.9853205942009
 20
97.49116122851862
 30
0.0
 10
228.6388633726026
 20
97.35844155311301
 30
0.0
 10
227.5847429250216
 20
97.00563327958488
 30
0.0
 10
226.8624528060088
 20
96.83050472772945
 30
0.0
 10
225.3778479696909
 20
96.60227733031383
 30
0.0
 10
224.6336496404911
 20
96.55221692924646
 30
0.0
 10
223.1501271767128
 20
96.57530274170027
 30
0.0
 10
222.4078135845824
 20
96.64851494320077
 30
0.0
 10
220.93170241945
 20
96.92307215595224
 30
0.0
 10
220.2164537369328
 20
97.12068659359831
 30
0.0
 10
219.1768527654545
 20
97.50593597805927
 30
0.0
 10
218.8358997018692
 20
97.64925471051428
 30
0.0
 10
218.165442536148
 20
97.96665539901102
 30
0.0
 10
217.8346304520927
 20
98.14151637453337
 30
0.0
 10
216.8694753469768
 20
98.70964442108084
 30
0.0
 10
216.27041070319
 20
99.14047227169819
 30
0.0
 10
215.4388471907956
 20
99.86655343938162
 30
0.0
 10
215.1729106620746
 20
100.1219812040874
 30
0.0
 10
214.6646964606378
 20
100.6612228025783
 30
0.0
 10
214.4209783947311
 20
100.9470165008261
 30
0.0
 10
213.7410379427817
 20
101.8338641818793
 30
0.0
 10
213.3552069068236
 20
102.462389111121
 30
0.0
 10
212.8815507216872
 20
103.4639185660222
 30
0.0
 10
212.7413111271391
 20
103.8076232150656
 30
0.0
 10
212.4986457492419
 20
104.5162518898134
 30
0.0
 10
212.3970184099003
 20
104.8800388676633
 30
0.0
 10
212.1593875195183
 20
105.9717650553234
 30
0.0
 10
212.0861870703312
 20
106.7101586263229
 30
0.0
 10
212.1087150990781
 20
107.8342055951162
 30
0.0
 10
212.1389206508133
 20
108.2122794485693
 30
0.0
 10
212.2422619260309
 20
108.9525719417708
 30
0.0
 10
212.3153235911434
 20
109.3175140360474
 30
0.0
 10
212.5029551288711
 20
110.0373211143034
 30
0.0
 10
212.6175275468429
 20
110.3921854372845
 30
0.0
 10
212.8882732534646
 20
111.0918476342059
 30
0.0
 10
213.043811114011
 20
111.4343645747838
 30
0.0
 10
213.5601011343436
 20
112.4242096589679
 30
0.0
 10
213.9726734019398
 20
113.0413520307662
 30
0.0
 10
214.9284521970482
 20
114.1949249753594
 30
0.0
 10
215.4624464802082
 20
114.7193691760108
 30
0.0
 10
216.042941034224
 20
115.1898542391241
 30
0.0
  0
LINE
  5
BC
330
1F
100
AcDbEntity
  8
0
  6
Continuous
 62
     7
370
    25
100
AcDbLine
 10
242.4493000064
 20
107.26968183
 30
0.0
 11
242.4493000064
 21
62.2696800419
 31
0.0
  0
LINE
  5
BD
330
1F
100
AcDbEntity
  8
0
  6
Continuous
 62
     7
370
    25
100
AcDbLine
 10
242.4493000064
 20
152.2696836181
 30
0.0
 11
242.4493000064
 21
107.26968183
 31
0.0
  0
LINE
  5
BE
330
1F
100
AcDbEntity
  8
0
  6
Continuous
 62
     7
370
    25
100
AcDbLine
 10
243.1493044052
 20
107.26968183
 30
0.0
 11
243.1493044052
 21
62.9696807154
 31
0.0
  0
LINE
  5
BF
330
1F
100
AcDbEntity
  8
0
  6
Continuous
 62
     7
370
    25
100
AcDbLine
 10
243.1493044052
 20
151.5696829446
 30
0.0
 11
243.1493044052
 21
107.26968183
 31
0.0
  0
SPLINE
  5
C0
330
1F
100
AcDbEntity
  8
0
  6
Continuous
 62
     7
370
    25
100
AcDbSpline
210
0.0
220
0.0
230
1.0
 70
     8
 71
     3
 72
    14
 73
    10
 74
     0
 42
0.000000001
 43
0.00000001
 40
0.0
 40
0.0
 40
0.0
 40
0.0
 40
0.25
 40
0.25
 40
0.5
 40
0.5
 40
0.75
 40
0.75
 40
1.0
 40
1.0
 40
1.0
 40
1.0
 10
178.1993035111503
 20
69.37670754715738
 30
0.0
 10
178.0642621608991
 20
69.38027130410195
 30
0.0
 10
177.9304773972967
 20
69.35389886885248
 30
0.0
 10
177.6848737357402
 20
69.24748736629819
 30
0.0
 10
177.5732432161648
 20
69.16712977783656
 30
0.0
 10
177.3913374087494
 20
68.9710666876629
 30
0.0
 10
177.3196318355146
 20
68.85427875854283
 30
0.0
 10
177.2238048102236
 20
68.60366902301588
 30
0.0
 10
177.1993035111503
 20
68.47008289004147
 30
0.0
 10
177.1993035111503
 20
68.33541029449897
 30
0.0
  0
SPLINE
  5
C1
330
1F
100
AcDbEntity
  8
0
  6
Continuous
 62
     7
370
    25
100
AcDbSpline
210
0.0
220
0.0
230
1.0
 70
     8
 71
     3
 72
    14
 73
    10
 74
     0
 42
0.000000001
 43
0.00000001
 40
0.0
 40
0.0
 40
0.0
 40
0.0
 40
0.25
 40
0.25
 40
0.5
 40
0.5
 40
0.75
 40
0.75
 40
1.0
 40
1.0
 40
1.0
 40
1.0
 10
178.1993035111503
 20
145.3560833910343
 30
0.0
 10
178.0652495244958
 20
145.3534204495313
 30
0.0
 10
177.9349905563683
 20
145.3725170415604
 30
0.0
 10
177.6948760662751
 20
145.4504121307223
 30
0.0
 10
177.5857154774835
 20
145.509394512568
 30
0.0
 10
177.4033712036939
 20
145.6620056002526
 30
0.0
 10
177.3284606249024
 20
145.7576730287691
 30
0.0
 10
177.2270136643066
 20
145.9748613828188
 30
0.0
 10
177.1993035111502
 20
146.0991235495769
 30
0.0
 10
177.1993035111503
 20
146.2284991363852
 30
0.0
  0
SPLINE
  5
C2
330
1F
100
AcDbEntity
  8
0
  6
Continuous
 62
     7
370
    25
100
AcDbSpline
210
0.0
220
0.0
230
1.0
 70
     8
 71
     3
 72
    17
 73
    13
 74
     0
 42
0.000000001
 43
0.00000001
 40
0.0
 40
0.0
 40
0.0
 40
0.0
 40
0.0045085079287206
 40
0.1160981167433076
 40
0.2216418390647785
 40
0.3301078333418276
 40
0.4383786628823748
 40
0.5495442680163631
 40
0.6622529182566766
 40
0.7782389060721052
 40
0.8874741877179562
 40
1.0
 40
1.0
 40
1.0
 40
1.0
 10
190.0425270352439
 20
67.2718471177308
 30
0.0
 10
190.0447718793437
 20
67.27112967250298
 30
0.0
 10
190.1025786252774
 20
67.25265481538115
 30
0.0
 10
189.8932540722228
 20
67.32001936386199
 30
0.0
 10
189.3966607131482
 20
67.47612054034695
 30
0.0
 10
188.5568403639297
 20
67.72764071470282
 30
0.0
 10
187.4192196834301
 20
68.04189893143908
 30
0.0
 10
185.9938191448843
 20
68.39222178564772
 30
0.0
 10
184.2908921149391
 20
68.74617716135029
 30
0.0
 10
182.3888172098721
 20
69.05145294098688
 30
0.0
 10
180.3360515718408
 20
69.28457951396807
 30
0.0
 10
178.9185641081562
 20
69.34569549928007
 30
0.0
 10
178.1993039105014
 20
69.37670691687744
 30
0.0
  0
SPLINE
  5
C3
330
1F
100
AcDbEntity
  8
0
  6
Continuous
 62
     7
370
    25
100
AcDbSpline
210
0.0
220
0.0
230
1.0
 70
     8
 71
     3
 72
    20
 73
    16
 74
     0
 42
0.000000001
 43
0.00000001
 40
0.0
 40
0.0
 40
0.0
 40
0.0
 40
0.2499999999999993
 40
0.2499999999999993
 40
0.3749999999999994
 40
0.3749999999999994
 40
0.4999999999999996
 40
0.4999999999999996
 40
0.6249999999999997
 40
0.6249999999999997
 40
0.7499999999999998
 40
0.7499999999999998
 40
0.8749999999999999
 40
0.8749999999999999
 40
1.0
 40
1.0
 40
1.0
 40
1.0
 10
188.3962897128029
 20
146.7696818299977
 30
0.0
 10
187.8896587465268
 20
146.626068160663
 30
0.0
 10
187.2754417200218
 20
146.4657036219933
 30
0.0
 10
186.1890265455212
 20
146.2243335818609
 30
0.0
 10
185.7967020919558
 20
146.1433553331962
 30
0.0
 10
184.9790232636271
 20
145.9896972980095
 30
0.0
 10
184.5515213423271
 20
145.9164707160832
 30
0.0
 10
183.6608299935946
 20
145.7801606587958
 30
0.0
 10
183.1966556581773
 20
145.7169577681832
 30
0.0
 10
182.237324401726
 20
145.6036909720991
 30
0.0
 10
181.7494208042762
 20
145.5544483241608
 30
0.0
 10
180.7587183074541
 20
145.4712197240077
 30
0.0
 10
180.2559187209353
 20
145.437223571766
 30
0.0
 10
179.2363141087154
 20
145.3848109517011
 30
0.0
 10
178.7184256576778
 20
145.3663955939281
 30
0.0
 10
178.1993035111503
 20
145.3560833910343
 30
0.0
  0
SPLINE
  5
C4
330
1F
100
AcDbEntity
  8
0
  6
Continuous
 62
     7
370
    25
100
AcDbSpline
210
0.0
220
0.0
230
1.0
 70
     8
 71
     3
 72
    12
 73
     8
 74
     0
 42
0.000000001
 43
0.00000001
 40
0.0
 40
0.0
 40
0.0
 40
0.0
 40
0.0131684556703008
 40
0.3390995264753813
 40
0.6473717643514794
 40
0.9641793778578283
 40
1.0
 40
1.0
 40
1.0
 40
1.0
 10
190.0425270352439
 20
147.2675165422647
 30
0.0
 10
190.044771860843
 20
147.2682339884226
 30
0.0
 10
190.1025781303667
 20
147.2867088694957
 30
0.0
 10
189.8933229298713
 20
147.2193408343418
 30
0.0
 10
189.3964297672212
 20
147.0632547303657
 30
0.0
 10
188.8075744630061
 20
146.8866226024186
 30
0.0
 10
188.4342160217851
 20
146.780467116646
 30
0.0
 10
188.396289587386
 20
146.7696836479394
 30
0.0
  0
LINE
  5
C5
330
1F
100
AcDbEntity
  8
0
  6
Continuous
 62
     7
370
    25
100
AcDbLine
 10
158.1493035112
 20
72.3446829506
 30
0.0
 11
158.1493035112
 21
142.1946807094
 31
0.0
  0
SPLINE
  5
C6
330
1F
100
AcDbEntity
  8
0
  6
Continuous
 62
     7
370
    25
100
AcDbSpline
210
0.0
220
0.0
230
1.0
 70
     8
 71
     3
 72
     8
 73
     4
 74
     0
 42
0.000000001
 43
0.00000001
 40
0.0
 40
0.0
 40
0.0
 40
0.0
 40
0.0012352705496722
 40
0.0012352705496722
 40
0.0012352705496722
 40
0.0012352705496722
 10
166.5726324889829
 20
153.2697150746669
 30
0.0
 10
166.3875972381809
 20
153.5298166503951
 30
0.0
 10
166.2020904290102
 20
153.789750729022
 30
0.0
 10
166.0161420036884
 20
154.0495264847733
 30
0.0
  0
SPLINE
  5
C7
330
1F
100
AcDbEntity
  8
0
  6
Continuous
 62
     7
370
    25
100
AcDbSpline
210
0.0
220
0.0
230
1.0
 70
     8
 71
     3
 72
     8
 73
     4
 74
     0
 42
0.000000001
 43
0.00000001
 40
0.0
 40
0.0
 40
0.0
 40
0.0
 40
1.0
 40
1.0
 40
1.0
 40
1.0
 10
167.3393035111503
 20
151.8894212388275
 30
0.0
 10
167.0839721978449
 20
152.3496422590931
 30
0.0
 10
166.8284087997386
 20
152.8097367194015
 30
0.0
 10
166.5726324889829
 20
153.2697150746669
 30
0.0
  0
LINE
  5
C8
330
1F
100
AcDbEntity
  8
0
  6
Continuous
 62
     7
370
    25
100
AcDbLine
 10
167.3393031735
 20
142.8368164488
 30
0.0
 11
167.3393031735
 21
151.8894208856
 31
0.0
  0
SPLINE
  5
C9
330
1F
100
AcDbEntity
  8
0
  6
Continuous
 62
     7
370
    25
100
AcDbSpline
210
0.0
220
0.0
230
1.0
 70
     8
 71
     3
 72
     8
 73
     4
 74
     0
 42
0.000000001
 43
0.00000001
 40
0.0
 40
0.0
 40
0.0
 40
0.0
 40
1.0
 40
1.0
 40
1.0
 40
1.0
 10
166.0161420036884
 20
145.7807597816729
 30
0.0
 10
166.462990731616
 20
144.8015238834166
 30
0.0
 10
166.9043570895119
 20
143.8203218906897
 30
0.0
 10
167.3393035111503
 20
142.8368175723073
 30
0.0
  0
LINE
  5
CA
330
1F
100
AcDbEntity
  8
0
  6
Continuous
 62
     7
370
    25
100
AcDbLine
 10
166.0161424581
 20
145.7807606347
 30
0.0
 11
166.0161424581
 21
154.0495267399
 31
0.0
  0
SPLINE
  5
CB
330
1F
100
AcDbEntity
  8
0
  6
Continuous
 62
     7
370
    25
100
AcDbSpline
210
0.0
220
0.0
230
1.0
 70
     8
 71
     3
 72
    12
 73
     8
 74
     0
 42
0.000000001
 43
0.00000001
 40
0.0
 40
0.0
 40
0.0
 40
0.0
 40
0.2500000000000007
 40
0.2500000000000007
 40
0.5000000000000014
 40
0.5000000000000014
 40
1.0
 40
1.0
 40
1.0
 40
1.0
 10
168.1393035111502
 20
150.9174480958675
 30
0.0
 10
168.0329585312743
 20
150.9174480958675
 30
0.0
 10
167.9256821838717
 20
150.9401633337271
 30
0.0
 10
167.7303063944756
 20
151.0261885006094
 30
0.0
 10
167.6417526583986
 20
151.0891672275378
 30
0.0
 10
167.4204947342674
 20
151.3243587379748
 30
0.0
 10
167.3393035111503
 20
151.5375349524601
 30
0.0
 10
167.3393035111502
 20
151.7507733184042
 30
0.0
  0
SPLINE
  5
CC
330
1F
100
AcDbEntity
  8
0
  6
Continuous
 62
     7
370
    25
100
AcDbSpline
210
0.0
220
0.0
230
1.0
 70
     8
 71
     3
 72
    12
 73
     8
 74
     0
 42
0.000000001
 43
0.00000001
 40
0.0
 40
0.0
 40
0.0
 40
0.0
 40
0.499999999999994
 40
0.499999999999994
 40
0.749999999999997
 40
0.749999999999997
 40
1.0
 40
1.0
 40
1.0
 40
1.0
 10
167.3393035111503
 20
142.6627249317148
 30
0.0
 10
167.3393035111503
 20
142.420301835734
 30
0.0
 10
167.4022246525921
 20
142.1745313151326
 30
0.0
 10
167.6042535495945
 20
141.8695851357158
 30
0.0
 10
167.6905472742417
 20
141.7789922691173
 30
0.0
 10
167.8960210688085
 20
141.6485587061805
 30
0.0
 10
168.0159716294081
 20
141.6095638915308
 30
0.0
 10
168.1393035111502
 20
141.6095638915308
 30
0.0
  0
LINE
  5
CD
330
1F
100
AcDbEntity
  8
0
  6
Continuous
 62
     7
370
    25
100
AcDbLine
 10
166.0161424581
 20
154.0495267399
 30
0.0
 11
161.9493035752
 21
154.0495267399
 31
0.0
  0
LINE
  5
CE
330
1F
100
AcDbEntity
  8
0
  6
Continuous
 62
     7
370
    25
100
AcDbLine
 10
161.9493035752
 20
145.7807606347
 30
0.0
 11
166.0161424581
 21
145.7807606347
 31
0.0
  0
SPLINE
  5
CF
330
1F
100
AcDbEntity
  8
0
  6
Continuous
 62
     7
370
    25
100
AcDbSpline
210
0.0
220
0.0
230
1.0
 70
     8
 71
     3
 72
    10
 73
     6
 74
     0
 42
0.000000001
 43
0.00000001
 40
0.0
 40
0.0
 40
0.0
 40
0.0
 40
0.5
 40
0.5
 40
1.0
 40
1.0
 40
1.0
 40
1.0
 10
161.6391724300966
 20
153.9798461557205
 30
0.0
 10
161.5627193401778
 20
153.9095833844999
 30
0.0
 10
161.4938576179087
 20
153.8224884694582
 30
0.0
 10
161.3873453868358
 20
153.6133193412059
 30
0.0
 10
161.3493035111502
 20
153.4880017919664
 30
0.0
 10
161.3493035111502
 20
153.3586514973704
 30
0.0
  0
SPLINE
  5
D0
330
1F
100
AcDbEntity
  8
0
  6
Continuous
 62
     7
370
    25
100
AcDbSpline
210
0.0
220
0.0
230
1.0
 70
     8
 71
     3
 72
     8
 73
     4
 74
     0
 42
0.000000001
 43
0.00000001
 40
0.0
 40
0.0
 40
0.0
 40
0.0
 40
1.0
 40
1.0
 40
1.0
 40
1.0
 10
161.9493035111502
 20
154.0495264847733
 30
0.0
 10
161.8382253258128
 20
154.0495264847733
 30
0.0
 10
161.7305613219106
 20
154.0243773092187
 30
0.0
 10
161.6391724300966
 20
153.9798461557205
 30
0.0
  0
SPLINE
  5
D1
330
1F
100
AcDbEntity
  8
0
  6
Continuous
 62
     7
370
    25
100
AcDbSpline
210
0.0
220
0.0
230
1.0
 70
     8
 71
     3
 72
    12
 73
     8
 74
     0
 42
0.000000001
 43
0.00000001
 40
0.0
 40
0.0
 40
0.0
 40
0.0
 40
0.5
 40
0.5
 40
0.75
 40
0.75
 40
1.0
 40
1.0
 40
1.0
 40
1.0
 10
161.3493035111502
 20
145.0187629446421
 30
0.0
 10
161.3493035111502
 20
145.1971232118814
 30
0.0
 10
161.3966156325262
 20
145.3758956235853
 30
0.0
 10
161.5509757104076
 20
145.5976574889371
 30
0.0
 10
161.6158612453266
 20
145.6619495275535
 30
0.0
 10
161.7710939445548
 20
145.7545940117132
 30
0.0
 10
161.8601693572231
 20
145.780759781673
 30
0.0
 10
161.9493035111502
 20
145.780759781673
 30
0.0
  0
LINE
  5
D2
330
1F
100
AcDbEntity
  8
0
  6
Continuous
 62
     7
370
    25
100
AcDbLine
 10
161.3493034303
 20
145.01876368
 30
0.0
 11
161.3493034303
 21
153.3586530276
 31
0.0
  0
SPLINE
  5
D3
330
1F
100
AcDbEntity
  8
0
  6
Continuous
 62
     7
370
    25
100
AcDbSpline
210
0.0
220
0.0
230
1.0
 70
     8
 71
     3
 72
    14
 73
    10
 74
     0
 42
0.000000001
 43
0.00000001
 40
0.0
 40
0.0
 40
0.0
 40
0.0
 40
0.25
 40
0.25
 40
0.5
 40
0.5
 40
0.75
 40
0.75
 40
1.0
 40
1.0
 40
1.0
 40
1.0
 10
171.1593035111503
 20
151.7507733184044
 30
0.0
 10
171.1593035111503
 20
151.6434309462569
 30
0.0
 10
171.139307319086
 20
151.5368019394091
 30
0.0
 10
171.0616092347414
 20
151.3376501602579
 30
0.0
 10
171.0036160898478
 20
151.2451672619424
 30
0.0
 10
170.857569597025
 20
151.0899314268332
 30
0.0
 10
170.7682318578573
 20
151.0261974852209
 30
0.0
 10
170.5734768457969
 20
150.9403672188257
 30
0.0
 10
170.465946574588
 20
150.9174480958672
 30
0.0
 10
170.3593035111482
 20
150.9174480958675
 30
0.0
  0
SPLINE
  5
D4
330
1F
100
AcDbEntity
  8
0
  6
Continuous
 62
     7
370
    25
100
AcDbSpline
210
0.0
220
0.0
230
1.0
 70
     8
 71
     3
 72
    14
 73
    10
 74
     0
 42
0.000000001
 43
0.00000001
 40
0.0
 40
0.0
 40
0.0
 40
0.0
 40
0.25
 40
0.25
 40
0.5
 40
0.5
 40
0.75
 40
0.75
 40
1.0
 40
1.0
 40
1.0
 40
1.0
 10
170.3593035111502
 20
141.6095638915308
 30
0.0
 10
170.480630041136
 20
141.6095638915308
 30
0.0
 10
170.6023347496982
 20
141.648345406964
 30
0.0
 10
170.8087746285844
 20
141.7795000286578
 30
0.0
 10
170.8947251670404
 20
141.870152113245
 30
0.0
 10
171.0286369267887
 20
142.0722691481863
 30
0.0
 10
171.0782013636079
 20
142.1860040917254
 30
0.0
 10
171.1430553915758
 20
142.4189637087919
 30
0.0
 10
171.1593035111503
 20
142.5416619751211
 30
0.0
 10
171.1593035111503
 20
142.6627249317148
 30
0.0
  0
LINE
  5
D5
330
1F
100
AcDbEntity
  8
0
  6
Continuous
 62
     7
370
    25
100
AcDbLine
 10
176.5993029032
 20
154.0495267399
 30
0.0
 11
172.4824650366
 21
154.0495267399
 31
0.0
  0
LINE
  5
D6
330
1F
100
AcDbEntity
  8
0
  6
Continuous
 62
     7
370
    25
100
AcDbLine
 10
172.4824650366
 20
145.7807606347
 30
0.0
 11
176.5993029032
 21
145.7807606347
 31
0.0
  0
LINE
  5
D7
330
1F
100
AcDbEntity
  8
0
  6
Continuous
 62
     7
370
    25
100
AcDbLine
 10
172.4824650366
 20
145.7807606347
 30
0.0
 11
172.4824650366
 21
154.0495267399
 31
0.0
  0
LINE
  5
D8
330
1F
100
AcDbEntity
  8
0
  6
Continuous
 62
     7
370
    25
100
AcDbLine
 10
170.3593038175
 20
150.9174479433
 30
0.0
 11
168.1393036771
 21
150.9174479433
 31
0.0
  0
LINE
  5
D9
330
1F
100
AcDbEntity
  8
0
  6
Continuous
 62
     7
370
    25
100
AcDbLine
 10
168.1393036771
 20
141.6095642634
 30
0.0
 11
170.3593038175
 21
141.6095642634
 31
0.0
  0
SPLINE
  5
DA
330
1F
100
AcDbEntity
  8
0
  6
Continuous
 62
     7
370
    25
100
AcDbSpline
210
0.0
220
0.0
230
1.0
 70
     8
 71
     3
 72
    12
 73
     8
 74
     0
 42
0.000000001
 43
0.00000001
 40
0.0
 40
0.0
 40
0.0
 40
0.0
 40
0.499999999999993
 40
0.499999999999993
 40
0.7499999999999964
 40
0.7499999999999964
 40
1.0
 40
1.0
 40
1.0
 40
1.0
 10
177.1993035111503
 20
153.5646687832282
 30
0.0
 10
177.1993035111503
 20
153.6848613898934
 30
0.0
 10
177.1453350808812
 20
153.8027686904084
 30
0.0
 10
176.9842484399483
 20
153.9421482348917
 30
0.0
 10
176.9194860204752
 20
153.9803135324557
 30
0.0
 10
176.7674320189107
 20
154.0349657947891
 30
0.0
 10
176.6847022457615
 20
154.0495264847733
 30
0.0
 10
176.5993035111503
 20
154.0495264847733
 30
0.0
  0
SPLINE
  5
DB
330
1F
100
AcDbEntity
  8
0
  6
Continuous
 62
     7
370
    25
100
AcDbSpline
210
0.0
220
0.0
230
1.0
 70
     8
 71
     3
 72
    12
 73
     8
 74
     0
 42
0.000000001
 43
0.00000001
 40
0.0
 40
0.0
 40
0.0
 40
0.0
 40
0.250000000000004
 40
0.250000000000004
 40
0.500000000000008
 40
0.500000000000008
 40
1.0
 40
1.0
 40
1.0
 40
1.0
 10
176.5993035111507
 20
145.7807597816729
 30
0.0
 10
176.6888405693219
 20
145.7807597816729
 30
0.0
 10
176.7787397481105
 20
145.7539324828419
 30
0.0
 10
176.9321646071097
 20
145.6622255175823
 30
0.0
 10
176.9972136644875
 20
145.5979705759835
 30
0.0
 10
177.1505328957518
 20
145.3785584299219
 30
0.0
 10
177.1993035111503
 20
145.196743120125
 30
0.0
 10
177.1993035111503
 20
145.0187629446421
 30
0.0
  0
LINE
  5
DC
330
1F
100
AcDbEntity
  8
0
  6
Continuous
 62
     7
370
    25
100
AcDbLine
 10
177.1993037466
 20
145.01876368
 30
0.0
 11
177.1993037466
 21
153.5646690317
 31
0.0
  0
SPLINE
  5
DD
330
1F
100
AcDbEntity
  8
0
  6
Continuous
 62
     7
370
    25
100
AcDbSpline
210
0.0
220
0.0
230
1.0
 70
     8
 71
     3
 72
     8
 73
     4
 74
     0
 42
0.000000001
 43
0.00000001
 40
0.0
 40
0.0
 40
0.0
 40
0.0
 40
1.0
 40
1.0
 40
1.0
 40
1.0
 10
171.1593035111503
 20
142.8368175723074
 30
0.0
 10
171.5942499327886
 20
143.8203218906897
 30
0.0
 10
172.0356162906845
 20
144.8015238834166
 30
0.0
 10
172.4824650186121
 20
145.7807597816729
 30
0.0
  0
LINE
  5
DE
330
1F
100
AcDbEntity
  8
0
  6
Continuous
 62
     7
370
    25
100
AcDbLine
 10
167.3393031735
 20
142.8368164488
 30
0.0
 11
167.3393031735
 21
142.6627261825
 31
0.0
  0
LINE
  5
DF
330
1F
100
AcDbEntity
  8
0
  6
Continuous
 62
     7
370
    25
100
AcDbLine
 10
171.1593033899
 20
142.6627261825
 30
0.0
 11
171.1593033899
 21
142.8368164488
 31
0.0
  0
LINE
  5
E0
330
1F
100
AcDbEntity
  8
0
  6
Continuous
 62
     7
370
    25
100
AcDbLine
 10
161.3493034303
 20
145.01876368
 30
0.0
 11
161.3493034303
 21
137.1196823456
 31
0.0
  0
LINE
  5
E1
330
1F
100
AcDbEntity
  8
0
  6
Continuous
 62
     7
370
    25
100
AcDbLine
 10
177.1993037466
 20
145.01876368
 30
0.0
 11
177.1993037466
 21
137.1196823456
 31
0.0
  0
SPLINE
  5
E2
330
1F
100
AcDbEntity
  8
0
  6
Continuous
 62
     7
370
    25
100
AcDbSpline
210
0.0
220
0.0
230
1.0
 70
     8
 71
     3
 72
     8
 73
     4
 74
     0
 42
0.000000001
 43
0.00000001
 40
0.0
 40
0.0
 40
0.0
 40
0.0
 40
1.0
 40
1.0
 40
1.0
 40
1.0
 10
171.9259745333167
 20
153.2697150746652
 30
0.0
 10
171.6701982225613
 20
152.8097367194004
 30
0.0
 10
171.4146348244553
 20
152.3496422590925
 30
0.0
 10
171.1593035111503
 20
151.8894212388275
 30
0.0
  0
SPLINE
  5
E3
330
1F
100
AcDbEntity
  8
0
  6
Continuous
 62
     7
370
    25
100
AcDbSpline
210
0.0
220
0.0
230
1.0
 70
     8
 71
     3
 72
     8
 73
     4
 74
     0
 42
0.000000001
 43
0.00000001
 40
0.0
 40
0.0
 40
0.0
 40
0.0
 40
0.0012352705496738
 40
0.0012352705496738
 40
0.0012352705496738
 40
0.0012352705496738
 10
172.4824650186121
 20
154.0495264847733
 30
0.0
 10
172.2965165932901
 20
153.7897507290216
 30
0.0
 10
172.111009784119
 20
153.5298166503943
 30
0.0
 10
171.9259745333168
 20
153.2697150746657
 30
0.0
  0
LINE
  5
E4
330
1F
100
AcDbEntity
  8
0
  6
Continuous
 62
     7
370
    25
100
AcDbLine
 10
171.1593033899
 20
142.8368164488
 30
0.0
 11
171.1593033899
 21
151.8894208856
 31
0.0
  0
LINE
  5
E5
330
1F
100
AcDbEntity
  8
0
  6
Continuous
 62
     7
370
    25
100
AcDbLine
 10
56.549304739
 20
88.8908373453
 30
0.0
 11
56.549304739
 21
125.648299072
 31
0.0
  0
CIRCLE
  5
E6
330
1F
100
AcDbEntity
  8
0
  6
HIDDEN
 62
     7
370
    18
100
AcDbCircle
 10
224.0993035112
 20
107.26968183
 30
0.0
 40
7.08038475772932
  0
CIRCLE
  5
E7
330
1F
100
AcDbEntity
  8
0
  6
HIDDEN
 62
     7
370
    18
100
AcDbCircle
 10
224.0993035112
 20
107.26968183
 30
0.0
 40
6.780384757729337
  0
CIRCLE
  5
E8
330
1F
100
AcDbEntity
  8
0
  6
HIDDEN
 62
     7
370
    18
100
AcDbCircle
 10
224.0993035112
 20
107.26968183
 30
0.0
 40
9.25
  0
SPLINE
  5
E9
330
1F
100
AcDbEntity
  8
0
  6
HIDDEN
 62
     7
370
    18
100
AcDbSpline
210
0.0
220
0.0
230
1.0
 70
     8
 71
     3
 72
    18
 73
    14
 74
     0
 42
0.000000001
 43
0.00000001
 40
0.0
 40
0.0
 40
0.0
 40
0.0
 40
0.25
 40
0.25
 40
0.5
 40
0.5
 40
0.625
 40
0.625
 40
0.75
 40
0.75
 40
0.875
 40
0.875
 40
1.0
 40
1.0
 40
1.0
 40
1.0
 10
243.1493035111503
 20
128.6970480211902
 30
0.0
 10
243.1493035111503
 20
128.6016582178277
 30
0.0
 10
243.1441054017191
 20
128.5045732274329
 30
0.0
 10
243.116735554925
 20
128.3048672436327
 30
0.0
 10
243.0943235796227
 20
128.1998002539805
 30
0.0
 10
243.0360777262146
 20
128.047690706947
 30
0.0
 10
243.0117581823063
 20
127.9965954837761
 30
0.0
 10
242.9529102897085
 20
127.9039114167742
 30
0.0
 10
242.9177783640652
 20
127.861996998953
 30
0.0
 10
242.8427758637685
 20
127.7972860341478
 30
0.0
 10
242.8027406901441
 20
127.7739624527969
 30
0.0
 10
242.7240524054243
 20
127.7437095288709
 30
0.0
 10
242.6861083708114
 20
127.7365561799356
 30
0.0
 10
242.6492824278958
 20
127.7342457677557
 30
0.0
  0
SPLINE
  5
EA
330
1F
100
AcDbEntity
  8
0
  6
HIDDEN
 62
     7
370
    18
100
AcDbSpline
210
0.0
220
0.0
230
1.0
 70
     8
 71
     3
 72
    10
 73
     6
 74
     0
 42
0.000000001
 43
0.00000001
 40
0.0
 40
0.0
 40
0.0
 40
0.0
 40
0.5
 40
0.5
 40
1.0
 40
1.0
 40
1.0
 40
1.0
 10
242.6492824278959
 20
127.7342457677557
 30
0.0
 10
242.5844977670557
 20
127.6734677417191
 30
0.0
 10
242.5096603808435
 20
127.6186564050566
 30
0.0
 10
242.3411425857597
 20
127.5391572377365
 30
0.0
 10
242.2465861321257
 20
127.5149316477166
 30
0.0
 10
242.1493035111503
 20
127.5149316477166
 30
0.0
  0
SPLINE
  5
EB
330
1F
100
AcDbEntity
  8
0
  6
HIDDEN
 62
     7
370
    18
100
AcDbSpline
210
0.0
220
0.0
230
1.0
 70
     8
 71
     3
 72
    10
 73
     6
 74
     0
 42
0.000000001
 43
0.00000001
 40
0.0
 40
0.0
 40
0.0
 40
0.0
 40
0.5
 40
0.5
 40
1.0
 40
1.0
 40
1.0
 40
1.0
 10
242.6492780464052
 20
86.80512200273179
 30
0.0
 10
242.5844937204466
 20
86.8658990212183
 30
0.0
 10
242.5096567976328
 20
86.92070938571858
 30
0.0
 10
242.341140470416
 20
87.00020697978783
 30
0.0
 10
242.2465850355658
 20
87.02443201227882
 30
0.0
 10
242.1493035111503
 20
87.02443201227882
 30
0.0
  0
SPLINE
  5
EC
330
1F
100
AcDbEntity
  8
0
  6
HIDDEN
 62
     7
370
    18
100
AcDbSpline
210
0.0
220
0.0
230
1.0
 70
     8
 71
     3
 72
    18
 73
    14
 74
     0
 42
0.000000001
 43
0.00000001
 40
0.0
 40
0.0
 40
0.0
 40
0.0
 40
0.125
 40
0.125
 40
0.25
 40
0.25
 40
0.375
 40
0.375
 40
0.5
 40
0.5
 40
0.75
 40
0.75
 40
1.0
 40
1.0
 40
1.0
 40
1.0
 10
242.6492780464053
 20
86.80512200273178
 30
0.0
 10
242.6858118462959
 20
86.80283321527362
 30
0.0
 10
242.7241385965468
 20
86.7955760325565
 30
0.0
 10
242.8017855546802
 20
86.76584111613184
 30
0.0
 10
242.8417710634616
 20
86.74270801434838
 30
0.0
 10
242.9161484557713
 20
86.67904128531715
 30
0.0
 10
242.9512957249108
 20
86.63756563248332
 30
0.0
 10
243.0102800495448
 20
86.54553820146882
 30
0.0
 10
243.03469698817
 20
86.49481194137259
 30
0.0
 10
243.0937325403423
 20
86.34203387644217
 30
0.0
 10
243.1161477312567
 20
86.23774481814588
 30
0.0
 10
243.1440098350427
 20
86.03650709600913
 30
0.0
 10
243.1493035111502
 20
85.93796602179677
 30
0.0
 10
243.1493035111502
 20
85.84231563880522
 30
0.0
  0
LINE
  5
ED
330
1F
100
AcDbEntity
  8
0
  6
HIDDEN
 62
     7
370
    18
100
AcDbLine
 10
192.6493026469
 20
107.26968183
 30
0.0
 11
192.6493026469
 21
84.7696809359
 31
0.0
  0
LINE
  5
EE
330
1F
100
AcDbEntity
  8
0
  6
HIDDEN
 62
     7
370
    18
100
AcDbLine
 10
192.6493026469
 20
129.7696827241
 30
0.0
 11
192.6493026469
 21
107.26968183
 31
0.0
  0
LINE
  5
EF
330
1F
100
AcDbEntity
  8
0
  6
HIDDEN
 62
     7
370
    18
100
AcDbLine
 10
197.5153289888
 20
107.26968183
 30
0.0
 11
197.5153289888
 21
84.2696817853
 31
0.0
  0
LINE
  5
F0
330
1F
100
AcDbEntity
  8
0
  6
HIDDEN
 62
     7
370
    18
100
AcDbLine
 10
197.5153289888
 20
130.2696818747
 30
0.0
 11
197.5153289888
 21
107.26968183
 31
0.0
  0
LINE
  5
F1
330
1F
100
AcDbEntity
  8
0
  6
HIDDEN
 62
     7
370
    18
100
AcDbLine
 10
221.1493045244
 20
127.5149321445
 30
0.0
 11
242.1493023787
 21
127.5149321445
 31
0.0
  0
LINE
  5
F2
330
1F
100
AcDbEntity
  8
0
  6
HIDDEN
 62
     7
370
    18
100
AcDbLine
 10
221.1493045244
 20
87.0244315155
 30
0.0
 11
242.1493023787
 21
87.0244315155
 31
0.0
  0
LINE
  5
F3
330
1F
100
AcDbEntity
  8
0
  6
HIDDEN
 62
     7
370
    18
100
AcDbLine
 10
188.6493038539
 20
107.26968183
 30
0.0
 11
188.6493038539
 21
85.6696812697
 31
0.0
  0
LINE
  5
F4
330
1F
100
AcDbEntity
  8
0
  6
HIDDEN
 62
     7
370
    18
100
AcDbLine
 10
188.6493038539
 20
128.8696823903
 30
0.0
 11
188.6493038539
 21
107.26968183
 31
0.0
  0
LINE
  5
F5
330
1F
100
AcDbEntity
  8
0
  6
HIDDEN
 62
     7
370
    18
100
AcDbLine
 10
187.64930369
 20
107.26968183
 30
0.0
 11
187.64930369
 21
88.2696824409
 31
0.0
  0
LINE
  5
F6
330
1F
100
AcDbEntity
  8
0
  6
HIDDEN
 62
     7
370
    18
100
AcDbLine
 10
187.64930369
 20
126.2696812191
 30
0.0
 11
187.64930369
 21
107.26968183
 31
0.0
  0
LINE
  5
F7
330
1F
100
AcDbEntity
  8
0
  6
HIDDEN
 62
     7
370
    18
100
AcDbLine
 10
154.6493034031
 20
107.26968183
 30
0.0
 11
154.6493034031
 21
88.2696824409
 31
0.0
  0
LINE
  5
F8
330
1F
100
AcDbEntity
  8
0
  6
HIDDEN
 62
     7
370
    18
100
AcDbLine
 10
154.6493034031
 20
126.2696812191
 30
0.0
 11
154.6493034031
 21
107.26968183
 31
0.0
  0
LINE
  5
F9
330
1F
100
AcDbEntity
  8
0
  6
HIDDEN
 62
     7
370
    18
100
AcDbLine
 10
149.5419886116
 20
107.26968183
 30
0.0
 11
149.5419886116
 21
96.7696819716
 31
0.0
  0
LINE
  5
FA
330
1F
100
AcDbEntity
  8
0
  6
HIDDEN
 62
     7
370
    18
100
AcDbLine
 10
149.5419886116
 20
117.7696816884
 30
0.0
 11
149.5419886116
 21
107.26968183
 31
0.0
  0
ELLIPSE
  5
FB
330
1F
100
AcDbEntity
  8
0
  6
HIDDEN
 62
     7
370
    18
100
AcDbEllipse
 10
161.5208763864
 20
69.96968183
 30
0.0
 11
0.0
 21
2.0
 31
0.0
210
0.0
220
0.0
230
1.0
 40
0.4142135624
 41
4.712388980384695
 42
6.283185307179586
  0
LINE
  5
FC
330
1F
100
AcDbEntity
  8
0
  6
HIDDEN
 62
     7
370
    18
100
AcDbLine
 10
161.5208763316
 20
71.969680328
 30
0.0
 11
161.3493034303
 21
71.969680328
 31
0.0
  0
LINE
  5
FD
330
1F
100
AcDbEntity
  8
0
  6
HIDDEN
 62
     7
370
    18
100
AcDbLine
 10
161.3493034303
 20
144.7696833201
 30
0.0
 11
161.5208763316
 21
144.7696833201
 31
0.0
  0
ELLIPSE
  5
FE
330
1F
100
AcDbEntity
  8
0
  6
HIDDEN
 62
     7
370
    18
100
AcDbEllipse
 10
161.5208763864
 20
146.76968183
 30
0.0
 11
0.0
 21
2.0
 31
0.0
210
0.0
220
0.0
230
1.0
 40
0.4142135624
 41
3.141592653589793
 42
4.712388980384695
  0
LINE
  5
FF
330
1F
100
AcDbEntity
  8
0
  6
HIDDEN
 62
     7
370
    18
100
AcDbLine
 10
162.3493033614
 20
61.083767403
 30
0.0
 11
161.5649635125
 21
60.6362259277
 31
0.0
  0
LINE
  5
100
330
1F
100
AcDbEntity
  8
0
  6
HIDDEN
 62
     7
370
    18
100
AcDbLine
 10
161.6391724594
 20
153.9798451849
 30
0.0
 11
162.3493033614
 21
153.269715447
 31
0.0
  0
LINE
  5
101
330
1F
100
AcDbEntity
  8
0
  6
HIDDEN
 62
     7
370
    18
100
AcDbLine
 10
177.1993037466
 20
144.7696833201
 30
0.0
 11
188.0493030105
 21
144.7696833201
 31
0.0
  0
LINE
  5
102
330
1F
100
AcDbEntity
  8
0
  6
HIDDEN
 62
     7
370
    18
100
AcDbLine
 10
161.5208763316
 20
144.7696833201
 30
0.0
 11
177.1993037466
 21
144.7696833201
 31
0.0
  0
LINE
  5
103
330
1F
100
AcDbEntity
  8
0
  6
HIDDEN
 62
     7
370
    18
100
AcDbLine
 10
166.4692560363
 20
61.083767403
 30
0.0
 11
162.3493033614
 21
61.083767403
 31
0.0
  0
LINE
  5
104
330
1F
100
AcDbEntity
  8
0
  6
HIDDEN
 62
     7
370
    18
100
AcDbLine
 10
177.1993037466
 20
61.083767403
 30
0.0
 11
172.0293514583
 21
61.083767403
 31
0.0
  0
LINE
  5
105
330
1F
100
AcDbEntity
  8
0
  6
HIDDEN
 62
     7
370
    18
100
AcDbLine
 10
162.3493033614
 20
61.083767403
 30
0.0
 11
162.3493033614
 21
69.9696800001
 31
0.0
  0
LINE
  5
106
330
1F
100
AcDbEntity
  8
0
  6
HIDDEN
 62
     7
370
    18
100
AcDbLine
 10
188.0493030105
 20
71.969680328
 30
0.0
 11
177.1993037466
 21
71.969680328
 31
0.0
  0
LINE
  5
107
330
1F
100
AcDbEntity
  8
0
  6
HIDDEN
 62
     7
370
    18
100
AcDbLine
 10
162.3493033614
 20
153.269715447
 30
0.0
 11
166.5726328421
 21
153.269715447
 31
0.0
  0
LINE
  5
108
330
1F
100
AcDbEntity
  8
0
  6
HIDDEN
 62
     7
370
    18
100
AcDbLine
 10
171.9259746525
 20
153.269715447
 30
0.0
 11
177.1993037466
 21
153.269715447
 31
0.0
  0
LINE
  5
109
330
1F
100
AcDbEntity
  8
0
  6
HIDDEN
 62
     7
370
    18
100
AcDbLine
 10
162.3493033614
 20
153.269715447
 30
0.0
 11
162.3493033614
 21
146.7696836479
 31
0.0
  0
LINE
  5
10A
330
1F
100
AcDbEntity
  8
0
  6
HIDDEN
 62
     7
370
    18
100
AcDbLine
 10
177.1993037466
 20
71.969680328
 30
0.0
 11
161.5208763316
 21
71.969680328
 31
0.0
  0
LINE
  5
10B
330
1F
100
AcDbEntity
  8
0
  6
HIDDEN
 62
     7
370
    18
100
AcDbLine
 10
66.5493026528
 20
94.7696816437
 30
0.0
 11
66.5493026528
 21
119.7696820163
 31
0.0
  0
LINE
  5
10C
330
1F
100
AcDbEntity
  8
0
  6
HIDDEN
 62
     7
370
    18
100
AcDbLine
 10
69.8339060102
 20
96.7696819716
 30
0.0
 11
69.8339060102
 21
117.7696816884
 31
0.0
  0
SPLINE
  5
10D
330
1F
100
AcDbEntity
  8
0
  6
HIDDEN
 62
     7
370
    18
100
AcDbSpline
210
0.0
220
0.0
230
1.0
 70
     8
 71
     3
 72
    10
 73
     6
 74
     0
 42
0.000000001
 43
0.00000001
 40
0.0
 40
0.0
 40
0.0
 40
0.0
 40
0.4356120713831977
 40
0.8742477361876902
 40
1.0
 40
1.0
 40
1.0
 40
1.0
 10
242.649303391941
 20
136.6696821786849
 30
0.0
 10
242.6491068063788
 20
136.8225047277599
 30
0.0
 10
242.6487122707496
 20
137.1292105707431
 30
0.0
 10
242.6486439204124
 20
137.461892269597
 30
0.0
 10
242.6476356082663
 20
137.6335111705289
 30
0.0
 10
242.6474109444694
 20
137.6717498787133
 30
0.0
  0
SPLINE
  5
10E
330
1F
100
AcDbEntity
  8
0
  6
HIDDEN
 62
     7
370
    18
100
AcDbSpline
210
0.0
220
0.0
230
1.0
 70
     8
 71
     3
 72
    18
 73
    14
 74
     0
 42
0.000000001
 43
0.00000001
 40
0.0
 40
0.0
 40
0.0
 40
0.0
 40
0.031958554171609
 40
0.1127345906906474
 40
0.1952770015819292
 40
0.2784308992658824
 40
0.3584234912222929
 40
0.5211206704122382
 40
0.604015136828073
 40
0.6841397815285659
 40
0.847100967363957
 40
0.9301478591756352
 40
1.0
 40
1.0
 40
1.0
 40
1.0
 10
242.5545916113929
 20
139.9136780091016
 30
0.0
 10
242.553613868281
 20
139.9139947106113
 30
0.0
 10
242.5501648552587
 20
139.915111883024
 30
0.0
 10
242.5470316269924
 20
139.8695887151591
 30
0.0
 10
242.5461511144979
 20
139.7766594027526
 30
0.0
 10
242.5491718786986
 20
139.63511735199
 30
0.0
 10
242.5590899912414
 20
139.3898716259338
 30
0.0
 10
242.5758190764144
 20
139.0590633467818
 30
0.0
 10
242.592477294589
 20
138.6499521046303
 30
0.0
 10
242.6145108867643
 20
138.1914672063596
 30
0.0
 10
242.6536921555353
 20
137.6625943334238
 30
0.0
 10
242.6722662792674
 20
137.0960641377342
 30
0.0
 10
242.6641806463371
 20
136.8033905322069
 30
0.0
 10
242.660486713417
 20
136.6696821786849
 30
0.0
  0
SPLINE
  5
10F
330
1F
100
AcDbEntity
  8
0
  6
HIDDEN
 62
     7
370
    18
100
AcDbSpline
210
0.0
220
0.0
230
1.0
 70
     8
 71
     3
 72
    14
 73
    10
 74
     0
 42
0.000000001
 43
0.00000001
 40
0.0
 40
0.0
 40
0.0
 40
0.0
 40
0.2500000000000001
 40
0.2500000000000001
 40
0.5000000000000002
 40
0.5000000000000002
 40
0.7500000000000001
 40
0.7500000000000001
 40
1.0
 40
1.0
 40
1.0
 40
1.0
 10
242.660484618622
 20
136.6696818299978
 30
0.0
 10
242.6283558562759
 20
135.925131935991
 30
0.0
 10
242.6433829760643
 20
135.1804809133396
 30
0.0
 10
242.655239866726
 20
133.6912178933535
 30
0.0
 10
242.6544886565394
 20
132.9465982881627
 30
0.0
 10
242.6506459219176
 20
131.4573558609857
 30
0.0
 10
242.6483200744116
 20
130.7127348773813
 30
0.0
 10
242.6481742972587
 20
129.2234906099849
 30
0.0
 10
242.6491419134812
 20
128.478868218199
 30
0.0
 10
242.6492824278959
 20
127.7342457677557
 30
0.0
  0
SPLINE
  5
110
330
1F
100
AcDbEntity
  8
0
  6
HIDDEN
 62
     7
370
    18
100
AcDbSpline
210
0.0
220
0.0
230
1.0
 70
     8
 71
     3
 72
    14
 73
    10
 74
     0
 42
0.000000001
 43
0.00000001
 40
0.0
 40
0.0
 40
0.0
 40
0.0
 40
0.2500000000000001
 40
0.2500000000000001
 40
0.5000000000000002
 40
0.5000000000000002
 40
0.7500000000000001
 40
0.7500000000000001
 40
1.0
 40
1.0
 40
1.0
 40
1.0
 10
242.6604669932838
 20
77.8696818299977
 30
0.0
 10
242.6283877789769
 20
78.61419590789869
 30
0.0
 10
242.6433483204065
 20
79.35885153887517
 30
0.0
 10
242.6552740665983
 20
80.84810864886224
 30
0.0
 10
242.6544611951523
 20
81.59273180028256
 30
0.0
 10
242.6505868501688
 20
83.08198502975905
 30
0.0
 10
242.6483628904783
 20
83.82661177942603
 30
0.0
 10
242.6481416958359
 20
85.31586663814643
 30
0.0
 10
242.6491104349685
 20
86.06049446970208
 30
0.0
 10
242.6492780464052
 20
86.80512200273179
 30
0.0
  0
SPLINE
  5
111
330
1F
100
AcDbEntity
  8
0
  6
HIDDEN
 62
     7
370
    18
100
AcDbSpline
210
0.0
220
0.0
230
1.0
 70
     8
 71
     3
 72
     9
 73
     5
 74
     0
 42
0.000000001
 43
0.00000001
 40
0.0
 40
0.0
 40
0.0
 40
0.0
 40
0.9853006026734407
 40
1.0
 40
1.0
 40
1.0
 40
1.0
 10
242.649303391941
 20
77.86968148131055
 30
0.0
 10
242.6498510184236
 20
77.55512189144486
 30
0.0
 10
242.6504068147777
 20
77.2358694835886
 30
0.0
 10
242.6480270705617
 20
76.97541882649509
 30
0.0
 10
242.6479920897559
 20
76.9715903588025
 30
0.0
  0
SPLINE
  5
112
330
1F
100
AcDbEntity
  8
0
  6
HIDDEN
 62
     7
370
    18
100
AcDbSpline
210
0.0
220
0.0
230
1.0
 70
     8
 71
     3
 72
    14
 73
    10
 74
     0
 42
0.000000001
 43
0.00000001
 40
0.0
 40
0.0
 40
0.0
 40
0.0
 40
0.1127050436590877
 40
0.2783433809626331
 40
0.4388366275079874
 40
0.6039676077194192
 40
0.7647303476246327
 40
0.9301279552434694
 40
1.0
 40
1.0
 40
1.0
 40
1.0
 10
242.5554409775809
 20
74.63918237764518
 30
0.0
 10
242.5523135539531
 20
74.64383477805984
 30
0.0
 10
242.544589874178
 20
74.65532463529215
 30
0.0
 10
242.5468325310839
 20
74.88487864172552
 30
0.0
 10
242.5675678543503
 20
75.29380910495124
 30
0.0
 10
242.5897755268522
 20
75.86903753176706
 30
0.0
 10
242.6319337530632
 20
76.59750438690632
 30
0.0
 10
242.6763328657019
 20
77.28630423525418
 30
0.0
 10
242.6640979680751
 20
77.73609842324434
 30
0.0
 10
242.6604643616752
 20
77.86968148131055
 30
0.0
  0
LINE
  5
113
330
1F
100
AcDbEntity
  8
0
  6
HIDDEN
 62
     7
370
    18
100
AcDbLine
 10
221.1493045244
 20
136.6696821787
 30
0.0
 11
221.1493045244
 21
127.5149321445
 31
0.0
  0
LINE
  5
114
330
1F
100
AcDbEntity
  8
0
  6
HIDDEN
 62
     7
370
    18
100
AcDbLine
 10
221.1493045244
 20
77.8696814813
 30
0.0
 11
221.1493045244
 21
87.0244315155
 31
0.0
  0
LINE
  5
115
330
1F
100
AcDbEntity
  8
0
  6
HIDDEN
 62
     7
370
    18
100
AcDbLine
 10
221.1493045244
 20
139.9196831771
 30
0.0
 11
221.1493045244
 21
136.6696821787
 31
0.0
  0
LINE
  5
116
330
1F
100
AcDbEntity
  8
0
  6
HIDDEN
 62
     7
370
    18
100
AcDbLine
 10
221.1493045244
 20
74.6196804829
 30
0.0
 11
221.1493045244
 21
77.8696814813
 31
0.0
  0
SPLINE
  5
117
330
1F
100
AcDbEntity
  8
0
  6
HIDDEN
 62
     7
370
    18
100
AcDbSpline
210
0.0
220
0.0
230
1.0
 70
     8
 71
     3
 72
    16
 73
    12
 74
     0
 42
0.000000001
 43
0.00000001
 40
0.0
 40
0.0
 40
0.0
 40
0.0
 40
0.2500000000000013
 40
0.2500000000000013
 40
0.3749999999999988
 40
0.3749999999999988
 40
0.4999999999999963
 40
0.4999999999999963
 40
0.7499999999999982
 40
0.7499999999999982
 40
1.0
 40
1.0
 40
1.0
 40
1.0
 10
242.6493035110366
 20
127.7342655475436
 30
0.0
 10
242.7231768574689
 20
127.7389329939298
 30
0.0
 10
242.804210112588
 20
127.7644097765543
 30
0.0
 10
242.9171950234243
 20
127.8615869400969
 30
0.0
 10
242.9518108665038
 20
127.9027548334185
 30
0.0
 10
243.0108385647261
 20
127.9952414185454
 30
0.0
 10
243.0352116000338
 20
128.0461375826709
 30
0.0
 10
243.0940197640269
 20
128.1989828525504
 30
0.0
 10
243.1164210436411
 20
128.3037370480087
 30
0.0
 10
243.1440451859588
 20
128.5042569026646
 30
0.0
 10
243.1493035111508
 20
128.6028399027384
 30
0.0
 10
243.1493035111503
 20
128.69778239574
 30
0.0
  0
LINE
  5
118
330
1F
100
AcDbEntity
  8
0
  6
HIDDEN
 62
     7
370
    18
100
AcDbLine
 10
167.3393031735
 20
142.6627261825
 30
0.0
 11
167.3393031735
 21
137.1196823456
 31
0.0
  0
LINE
  5
119
330
1F
100
AcDbEntity
  8
0
  6
HIDDEN
 62
     7
370
    18
100
AcDbLine
 10
171.1593033899
 20
142.6627261825
 30
0.0
 11
171.1593033899
 21
137.1196823456
 31
0.0
  0
LINE
  5
11A
330
1F
100
AcDbEntity
  8
0
  6
HIDDEN
 62
     7
370
    18
100
AcDbLine
 10
166.0161424581
 20
145.7807606347
 30
0.0
 11
166.0161424581
 21
137.1196823456
 31
0.0
  0
LINE
  5
11B
330
1F
100
AcDbEntity
  8
0
  6
HIDDEN
 62
     7
370
    18
100
AcDbLine
 10
172.4824650366
 20
145.7807606347
 30
0.0
 11
172.4824650366
 21
137.1196823456
 31
0.0
  0
ARC
  5
11C
330
1F
100
AcDbEntity
  8
0
  6
HIDDEN
 62
     7
370
    18
100
AcDbCircle
 10
193.6493035112
 20
129.76968183
 30
0.0
 40
1.0
100
AcDbArc
 50
90.0
 51
180.0
  0
ARC
  5
11D
330
1F
100
AcDbEntity
  8
0
  6
HIDDEN
 62
     7
370
    18
100
AcDbCircle
 10
193.6493035112
 20
84.76968183
 30
0.0
 40
1.0
100
AcDbArc
 50
180.0
 51
270.0
  0
LINE
  5
11E
330
1F
100
AcDbEntity
  8
0
  6
HIDDEN
 62
     7
370
    18
100
AcDbLine
 10
195.5176495168
 20
130.7696810253
 30
0.0
 11
193.6493046734
 21
130.7696810253
 31
0.0
  0
LINE
  5
11F
330
1F
100
AcDbEntity
  8
0
  6
HIDDEN
 62
     7
370
    18
100
AcDbLine
 10
193.6493046734
 20
83.7696826347
 30
0.0
 11
195.5176495168
 21
83.7696826347
 31
0.0
  0
ARC
  5
120
330
1F
100
AcDbEntity
  8
0
  6
HIDDEN
 62
     7
370
    18
100
AcDbCircle
 10
195.5176510136
 20
129.76968183
 30
0.0
 40
1.000000000000003
100
AcDbArc
 50
75.0
 51
90.0
  0
ARC
  5
121
330
1F
100
AcDbEntity
  8
0
  6
HIDDEN
 62
     7
370
    18
100
AcDbCircle
 10
195.5176510136
 20
84.76968183
 30
0.0
 40
0.9999999999999893
100
AcDbArc
 50
270.0
 51
285.0
  0
LINE
  5
122
330
1F
100
AcDbEntity
  8
0
  6
HIDDEN
 62
     7
370
    18
100
AcDbLine
 10
195.7764715109
 20
83.8037560024
 30
0.0
 11
197.5153289888
 21
84.2696817853
 31
0.0
  0
LINE
  5
123
330
1F
100
AcDbEntity
  8
0
  6
HIDDEN
 62
     7
370
    18
100
AcDbLine
 10
197.5153289888
 20
130.2696818747
 30
0.0
 11
195.7764715109
 21
130.7356076576
 31
0.0
  0
LINE
  5
124
330
1F
100
AcDbEntity
  8
0
  6
HIDDEN
 62
     7
370
    18
100
AcDbLine
 10
221.1493045244
 20
130.2696818747
 30
0.0
 11
197.5153289888
 21
130.2696818747
 31
0.0
  0
LINE
  5
125
330
1F
100
AcDbEntity
  8
0
  6
HIDDEN
 62
     7
370
    18
100
AcDbLine
 10
197.5153289888
 20
84.2696817853
 30
0.0
 11
221.1493045244
 21
84.2696817853
 31
0.0
  0
LINE
  5
126
330
1F
100
AcDbEntity
  8
0
  6
HIDDEN
 62
     7
370
    18
100
AcDbLine
 10
192.6493026469
 20
129.2696817108
 30
0.0
 11
189.0493031744
 21
129.2696817108
 31
0.0
  0
LINE
  5
127
330
1F
100
AcDbEntity
  8
0
  6
HIDDEN
 62
     7
370
    18
100
AcDbLine
 10
189.0493031744
 20
85.2696819492
 30
0.0
 11
192.6493026469
 21
85.2696819492
 31
0.0
  0
ARC
  5
128
330
1F
100
AcDbEntity
  8
0
  6
HIDDEN
 62
     7
370
    18
100
AcDbCircle
 10
189.0493035112
 20
128.86968183
 30
0.0
 40
0.4000000000000057
100
AcDbArc
 50
90.0
 51
180.0
  0
ARC
  5
129
330
1F
100
AcDbEntity
  8
0
  6
HIDDEN
 62
     7
370
    18
100
AcDbCircle
 10
189.0493035112
 20
85.66968183
 30
0.0
 40
0.4000000000000057
100
AcDbArc
 50
180.0
 51
270.0
  0
LINE
  5
12A
330
1F
100
AcDbEntity
  8
0
  6
HIDDEN
 62
     7
370
    18
100
AcDbLine
 10
188.6493038539
 20
127.269681383
 30
0.0
 11
187.64930369
 21
126.2696812191
 31
0.0
  0
LINE
  5
12B
330
1F
100
AcDbEntity
  8
0
  6
HIDDEN
 62
     7
370
    18
100
AcDbLine
 10
187.64930369
 20
88.2696824409
 30
0.0
 11
188.6493038539
 21
87.269682277
 31
0.0
  0
LINE
  5
12C
330
1F
100
AcDbEntity
  8
0
  6
HIDDEN
 62
     7
370
    18
100
AcDbLine
 10
187.64930369
 20
126.2696812191
 30
0.0
 11
154.6493034031
 21
126.2696812191
 31
0.0
  0
LINE
  5
12D
330
1F
100
AcDbEntity
  8
0
  6
HIDDEN
 62
     7
370
    18
100
AcDbLine
 10
154.6493034031
 20
88.2696824409
 30
0.0
 11
187.64930369
 21
88.2696824409
 31
0.0
  0
LINE
  5
12E
330
1F
100
AcDbEntity
  8
0
  6
HIDDEN
 62
     7
370
    18
100
AcDbLine
 10
154.6493034031
 20
126.2696812191
 30
0.0
 11
149.5419886116
 21
117.7696816884
 31
0.0
  0
LINE
  5
12F
330
1F
100
AcDbEntity
  8
0
  6
HIDDEN
 62
     7
370
    18
100
AcDbLine
 10
149.5419886116
 20
96.7696819716
 30
0.0
 11
154.6493034031
 21
88.2696824409
 31
0.0
  0
ARC
  5
130
330
1F
100
AcDbEntity
  8
0
  6
HIDDEN
 62
     7
370
    18
100
AcDbCircle
 10
57.7493035112
 20
93.56968183
 30
0.0
 40
1.200000000000017
100
AcDbArc
 50
90.0
 51
180.0
  0
ARC
  5
131
330
1F
100
AcDbEntity
  8
0
  6
HIDDEN
 62
     7
370
    18
100
AcDbCircle
 10
57.7493035112
 20
120.96968183
 30
0.0
 40
1.200000000000017
100
AcDbArc
 50
180.0
 51
270.0
  0
ARC
  5
132
330
1F
100
AcDbEntity
  8
0
  6
HIDDEN
 62
     7
370
    18
100
AcDbCircle
 10
188.0493035112
 20
146.76968183
 30
0.0
 40
2.0
100
AcDbArc
 50
270.0
 51
0.0
  0
LINE
  5
133
330
1F
100
AcDbEntity
  8
0
  6
HIDDEN
 62
     7
370
    18
100
AcDbLine
 10
190.0493033383
 20
67.2696827241
 30
0.0
 11
190.0493033383
 21
69.9696800001
 31
0.0
  0
ARC
  5
134
330
1F
100
AcDbEntity
  8
0
  6
HIDDEN
 62
     7
370
    18
100
AcDbCircle
 10
188.0493035112
 20
69.96968183
 30
0.0
 40
2.0
100
AcDbArc
 50
0.0
 51
90.0
  0
ARC
  5
135
330
1F
100
AcDbEntity
  8
0
  6
HIDDEN
 62
     7
370
    18
100
AcDbCircle
 10
67.4416759419
 20
94.94468183
 30
0.0
 40
0.3999999999999923
100
AcDbArc
 50
255.0
 51
270.0
  0
ARC
  5
136
330
1F
100
AcDbEntity
  8
0
  6
HIDDEN
 62
     7
370
    18
100
AcDbCircle
 10
67.4416759419
 20
119.59468183
 30
0.0
 40
0.400000000000006
100
AcDbArc
 50
90.0
 51
105.0
  0
LINE
  5
137
330
1F
100
AcDbEntity
  8
0
  6
HIDDEN
 62
     7
370
    18
100
AcDbLine
 10
67.4416735921
 20
94.5446815603
 30
0.0
 11
68.3183610592
 21
94.5446815603
 31
0.0
  0
LINE
  5
138
330
1F
100
AcDbEntity
  8
0
  6
HIDDEN
 62
     7
370
    18
100
AcDbLine
 10
68.3183610592
 20
119.9946820997
 30
0.0
 11
67.4416735921
 21
119.9946820997
 31
0.0
  0
ARC
  5
139
330
1F
100
AcDbEntity
  8
0
  6
HIDDEN
 62
     7
370
    18
100
AcDbCircle
 10
68.3183634035
 20
94.94468183
 30
0.0
 40
0.3999999999999998
100
AcDbArc
 50
270.0
 51
330.0
  0
ARC
  5
13A
330
1F
100
AcDbEntity
  8
0
  6
HIDDEN
 62
     7
370
    18
100
AcDbCircle
 10
68.3183634035
 20
119.59468183
 30
0.0
 40
0.4000000000000069
100
AcDbArc
 50
30.0
 51
90.0
  0
LINE
  5
13B
330
1F
100
AcDbEntity
  8
0
  6
HIDDEN
 62
     7
370
    18
100
AcDbLine
 10
67.3381477747
 20
119.9810521938
 30
0.0
 11
66.5493026528
 21
119.7696820163
 31
0.0
  0
LINE
  5
13C
330
1F
100
AcDbEntity
  8
0
  6
HIDDEN
 62
     7
370
    18
100
AcDbLine
 10
66.5493026528
 20
94.7696816437
 30
0.0
 11
67.3381477747
 21
94.5583114662
 31
0.0
  0
LINE
  5
13D
330
1F
100
AcDbEntity
  8
0
  6
HIDDEN
 62
     7
370
    18
100
AcDbLine
 10
68.6647758041
 20
94.7446821519
 30
0.0
 11
69.8339060102
 21
96.7696819716
 31
0.0
  0
LINE
  5
13E
330
1F
100
AcDbEntity
  8
0
  6
HIDDEN
 62
     7
370
    18
100
AcDbLine
 10
69.8339060102
 20
117.7696816884
 30
0.0
 11
68.6647758041
 21
119.7946815081
 31
0.0
  0
LINE
  5
13F
330
1F
100
AcDbEntity
  8
0
  6
HIDDEN
 62
     7
370
    18
100
AcDbLine
 10
57.7493027005
 20
94.7696816437
 30
0.0
 11
66.5493026528
 21
94.7696816437
 31
0.0
  0
LINE
  5
140
330
1F
100
AcDbEntity
  8
0
  6
HIDDEN
 62
     7
370
    18
100
AcDbLine
 10
66.5493026528
 20
119.7696820163
 30
0.0
 11
57.7493027005
 21
119.7696820163
 31
0.0
  0
LINE
  5
141
330
1F
100
AcDbEntity
  8
0
  6
HIDDEN
 62
     7
370
    18
100
AcDbLine
 10
243.1493044052
 20
140.5140457936
 30
0.0
 11
242.5394743834
 21
139.904219497
 31
0.0
  0
LINE
  5
142
330
1F
100
AcDbEntity
  8
0
  6
HIDDEN
 62
     7
370
    18
100
AcDbLine
 10
242.5394818339
 20
74.6351329871
 30
0.0
 11
243.1493044052
 21
74.0253178664
 31
0.0
  0
LINE
  5
143
330
1F
100
AcDbEntity
  8
0
  6
HIDDEN
 62
     7
370
    18
100
AcDbLine
 10
69.8339060102
 20
96.7696819716
 30
0.0
 11
149.5419886116
 21
96.7696819716
 31
0.0
  0
LINE
  5
144
330
1F
100
AcDbEntity
  8
0
  6
HIDDEN
 62
     7
370
    18
100
AcDbLine
 10
149.5419886116
 20
117.7696816884
 30
0.0
 11
69.8339060102
 21
117.7696816884
 31
0.0
  0
LINE
  5
145
330
1F
100
AcDbEntity
  8
0
  6
HIDDEN
 62
     7
370
    18
100
AcDbLine
 10
190.0493033383
 20
146.7696836479
 30
0.0
 11
190.0493033383
 21
147.2696809359
 31
0.0
  0
LINE
  5
146
330
1F
100
AcDbEntity
  8
0
  6
HIDDEN
 62
     7
370
    18
100
AcDbLine
 10
242.5557986054
 20
139.9196831771
 30
0.0
 11
221.1493045244
 21
139.9196831771
 31
0.0
  0
LINE
  5
147
330
1F
100
AcDbEntity
  8
0
  6
HIDDEN
 62
     7
370
    18
100
AcDbLine
 10
221.1493045244
 20
74.6196804829
 30
0.0
 11
242.5564095531
 21
74.6196804829
 31
0.0
  0
LINE
  5
148
330
1F
100
AcDbEntity
  8
VERMASSUNG
100
AcDbLine
 10
193.1493035112
 20
147.26968183
 30
0.0
 11
193.1493035112
 21
67.26968183
 31
0.0
  0
LINE
  5
149
330
1F
100
AcDbEntity
  8
VERMASSUNG
100
AcDbLine
 10
196.0360548571
 20
152.26968183
 30
0.0
 11
196.0360548571
 21
62.26968183
 31
0.0
  0
DIMENSION
  5
14A
330
1F
100
AcDbEntity
  8
VERMASSUNG
100
AcDbDimension
  2
_D
 10
48.8558563582
 20
155.99468183
 30
0.0
 11
48.8558563582
 21
107.26968183
 31
0.0
 70
   160
  1
ISO 50 %%c<>
 71
     2
 42
-1.0
  3
SLDDIMSTYLE0
100
AcDbAlignedDimension
 13
176.5993035112
 23
58.54468183
 33
0.0
 14
176.5993035112
 24
155.99468183
 34
0.0
 50
90.0
100
AcDbRotatedDimension
  0
DIMENSION
  5
157
330
1F
100
AcDbEntity
  8
VERMASSUNG
100
AcDbDimension
  2
_D_1
 10
252.4445263617
 20
84.26968183
 30
0.0
 11
252.4445263617
 21
107.26968183
 31
0.0
 70
   160
  1
%%c<>
 71
     2
 42
-1.0
  3
SLDDIMSTYLE0
100
AcDbAlignedDimension
 13
221.149303511
 23
130.26968183
 33
0.0
 14
221.149303511
 24
84.26968183
 34
0.0
 50
90.0
100
AcDbRotatedDimension
  0
DIMENSION
  5
162
330
1F
100
AcDbEntity
  8
VERMASSUNG
100
AcDbDimension
  2
_D_2
 10
258.4445263617
 20
62.26968183
 30
0.0
 11
258.4445263617
 21
107.26968183
 31
0.0
 70
   160
  1
ST7 %%c<>
 71
     2
 42
-1.0
  3
SLDDIMSTYLE0
100
AcDbAlignedDimension
 13
242.4493035112
 23
152.26968183
 33
0.0
 14
242.4493035112
 24
62.26968183
 34
0.0
 50
90.0
100
AcDbRotatedDimension
  0
DIMENSION
  5
16E
330
1F
100
AcDbEntity
  8
VERMASSUNG
100
AcDbDimension
  2
_D_3
 10
243.1493035112
 20
162.2562684492
 30
0.0
 11
210.1743035112
 21
162.2562684492
 31
0.0
 70
   160
  1
(<>)
 71
     2
 42
-1.0
  3
SLDDIMSTYLE0
100
AcDbAlignedDimension
 13
177.1993035112
 23
153.5646687832
 33
0.0
 14
243.1493035112
 24
151.56968183
 34
0.0
100
AcDbRotatedDimension
  0
DIMENSION
  5
17A
330
1F
100
AcDbEntity
  8
VERMASSUNG
100
AcDbDimension
  2
_D_4
 10
243.1493035112
 20
168.2562684492
 30
0.0
 11
200.6493035112
 21
168.2562684492
 31
0.0
 70
   160
  1
<>
 71
     2
 42
-1.0
  3
SLDDIMSTYLE0
100
AcDbAlignedDimension
 13
158.1493035112
 23
142.19468183
 33
0.0
 14
243.1493035112
 24
151.56968183
 34
0.0
100
AcDbRotatedDimension
  0
DIMENSION
  5
184
330
1F
100
AcDbEntity
  8
VERMASSUNG
100
AcDbDimension
  2
_D_5
 10
56.5493035112
 20
174.2562684492
 30
0.0
 11
149.8493035112
 21
174.2562684492
 31
0.0
 70
   160
  1
(<>)
 71
     2
 42
-1.0
  3
SLDDIMSTYLE0
100
AcDbAlignedDimension
 13
243.1493035112
 23
151.56968183
 33
0.0
 14
56.5493035112
 24
125.6485263574
 34
0.0
100
AcDbRotatedDimension
  0
LINE
  5
190
330
1F
100
AcDbEntity
  8
VERMASSUNG
  6
CENTERX2
 62
     7
370
    18
100
AcDbLine
 10
177.1993035112
 20
60.9306224204
 30
0.0
 11
177.1993035112
 21
82.2750399237
 31
0.0
  0
LINE
  5
191
330
1F
100
AcDbEntity
  8
VERMASSUNG
  6
CENTERX2
 62
     7
370
    18
100
AcDbLine
 10
177.1993035112
 20
149.2696817485
 30
0.0
 11
177.1993035112
 21
144.76968183
 31
0.0
  0
LINE
  5
192
330
1F
100
AcDbEntity
  8
VERMASSUNG
  6
CENTERX2
 62
     7
370
    18
100
AcDbLine
 10
245.1493035112
 20
107.26968183
 30
0.0
 11
54.5493035112
 21
107.26968183
 31
0.0
  0
LINE
  5
193
330
1F
100
AcDbEntity
  8
0
  6
Continuous
 62
     7
370
    25
100
AcDbLine
 10
275.7274067567
 20
33.9972799578
 30
0.0
 11
275.6142518198
 21
34.0626246007
 31
0.0
  0
LINE
  5
194
330
1F
100
AcDbEntity
  8
0
  6
Continuous
 62
     7
370
    25
100
AcDbLine
 10
273.0116757239
 20
34.0626247329
 30
0.0
 11
272.8985204461
 21
33.9972797412
 31
0.0
  0
LINE
  5
195
330
1F
100
AcDbEntity
  8
0
  6
Continuous
 62
     7
370
    25
100
AcDbLine
 10
276.3129638549
 20
32.9850347773
 30
0.0
 11
276.3129638549
 21
33.1810042393
 31
0.0
  0
LINE
  5
196
330
1F
100
AcDbEntity
  8
0
  6
Continuous
 62
     7
370
    25
100
AcDbLine
 10
272.3129637232
 20
33.1810043913
 30
0.0
 11
272.3129637232
 21
32.9850349294
 31
0.0
  0
LINE
  5
197
330
1F
100
AcDbEntity
  8
0
  6
Continuous
 62
     7
370
    25
100
AcDbLine
 10
276.9090794099
 20
17.1164051985
 30
0.0
 11
277.0080588918
 21
17.1735621986
 31
0.0
  0
LINE
  5
198
330
1F
100
AcDbEntity
  8
0
  6
Continuous
 62
     7
370
    25
100
AcDbLine
 10
283.2720068976
 20
28.0242141868
 30
0.0
 11
283.2720063707
 21
28.1385117366
 31
0.0
  0
LINE
  5
199
330
1F
100
AcDbEntity
  8
0
  6
Continuous
 62
     7
370
    25
100
AcDbLine
 10
281.4076795127
 20
32.259114923
 30
0.0
 11
274.9255052753
 21
36.0011944578
 31
0.0
  0
LINE
  5
19A
330
1F
100
AcDbEntity
  8
0
  6
Continuous
 62
     7
370
    25
100
AcDbLine
 10
265.9262364242
 20
20.4123147866
 30
0.0
 11
272.4084106617
 21
16.6702352518
 31
0.0
  0
SPLINE
  5
19B
330
1F
100
AcDbEntity
  8
0
  6
Continuous
 62
     7
370
    25
100
AcDbSpline
210
0.0
220
0.0
230
1.0
 70
     8
 71
     3
 72
    25
 73
    21
 74
     0
 42
0.000000001
 43
0.00000001
 40
0.0
 40
0.0
 40
0.0
 40
0.0
 40
0.0122707650775494
 40
0.0733490120147784
 40
0.1344799037799866
 40
0.195628080379459
 40
0.2567726839931831
 40
0.3178876438710169
 40
0.3789525431621754
 40
0.4399475834888894
 40
0.5008554245469669
 40
0.5616651375297209
 40
0.6223803923951832
 40
0.6830344307389422
 40
0.7436887939455277
 40
0.8044782699131928
 40
0.8656562098172328
 40
0.9275757317713035
 40
0.9905374748315364
 40
1.0
 40
1.0
 40
1.0
 40
1.0
 10
274.0618402215443
 20
24.54129977349977
 30
0.0
 10
274.0735647435146
 20
24.57418976339422
 30
0.0
 10
274.1436485644853
 20
24.77079105505678
 30
0.0
 10
274.2985674023956
 20
25.13030820785184
 30
0.0
 10
274.5397102106591
 20
25.61136734062975
 30
0.0
 10
274.8149049386137
 20
26.07691978184458
 30
0.0
 10
275.1183046305194
 20
26.52035912612399
 30
0.0
 10
275.4461191551544
 20
26.93547312783643
 30
0.0
 10
275.7934780984776
 20
27.31648629447325
 30
0.0
 10
276.1553683656852
 20
27.65815819425638
 30
0.0
 10
276.5264533662732
 20
27.95587512783395
 30
0.0
 10
276.9012258682305
 20
28.20574143545893
 30
0.0
 10
277.2741091157205
 20
28.40469880020975
 30
0.0
 10
277.639544679159
 20
28.55054322531308
 30
0.0
 10
277.9923162828132
 20
28.64218704756098
 30
0.0
 10
278.3274767714908
 20
28.67892839872252
 30
0.0
 10
278.6423424321908
 20
28.66281191585898
 30
0.0
 10
278.9307154894113
 20
28.58788656177104
 30
0.0
 10
279.1258093474332
 20
28.50951121276754
 30
0.0
 10
279.2149892365963
 20
28.43989319664724
 30
0.0
 10
279.2266409517792
 20
28.4307973197288
 30
0.0
  0
SPLINE
  5
19C
330
1F
100
AcDbEntity
  8
0
  6
Continuous
 62
     7
370
    25
100
AcDbSpline
210
0.0
220
0.0
230
1.0
 70
     8
 71
     3
 72
    12
 73
     8
 74
     0
 42
0.000000001
 43
0.00000001
 40
0.0
 40
0.0
 40
0.0
 40
0.0
 40
0.1580218509998794
 40
0.3911468901034804
 40
0.6239420153780167
 40
0.8561392081587943
 40
1.0
 40
1.0
 40
1.0
 40
1.0
 10
264.0893956334585
 20
23.49353225548474
 30
0.0
 10
264.1088879522982
 20
23.36515930617877
 30
0.0
 10
264.1571367219895
 20
23.04740147979765
 30
0.0
 10
264.2857326178982
 20
22.57943675040156
 30
0.0
 10
264.4695083613265
 20
22.09189163484223
 30
0.0
 10
264.6637088272707
 20
21.69802795164109
 30
0.0
 10
264.8126406223511
 20
21.48669483609251
 30
0.0
 10
264.8696144052429
 20
21.40584945961247
 30
0.0
  0
SPLINE
  5
19D
330
1F
100
AcDbEntity
  8
0
  6
Continuous
 62
     7
370
    25
100
AcDbSpline
210
0.0
220
0.0
230
1.0
 70
     8
 71
     3
 72
    14
 73
    10
 74
     0
 42
0.000000001
 43
0.00000001
 40
0.0
 40
0.0
 40
0.0
 40
0.0
 40
0.0574862183232205
 40
0.2436037600009413
 40
0.4306079551369433
 40
0.6183720413429785
 40
0.8066901558781631
 40
0.9953528884925479
 40
1.0
 40
1.0
 40
1.0
 40
1.0
 10
273.5165830179275
 20
36.42181108367046
 30
0.0
 10
273.4684949251402
 20
36.42744577725506
 30
0.0
 10
273.2647166882699
 20
36.45132337059309
 30
0.0
 10
272.8847095838537
 20
36.43456392434286
 30
0.0
 10
272.3798737032372
 20
36.37007572396151
 30
0.0
 10
271.8595370232951
 20
36.24520693877121
 30
0.0
 10
271.3292726593921
 20
36.05819863927486
 30
0.0
 10
270.9674781243821
 20
35.91010755524118
 30
0.0
 10
270.7837140109991
 20
35.81040678621717
 30
0.0
 10
270.7792963760367
 20
35.80801000920285
 30
0.0
  0
LINE
  5
19E
330
1F
100
AcDbEntity
  8
0
  6
Continuous
 62
     7
370
    25
100
AcDbLine
 10
263.8220486903
 20
22.7817061925
 30
0.0
 11
264.3285953307
 21
22.4892830414
 31
0.0
  0
LINE
  5
19F
330
1F
100
AcDbEntity
  8
0
  6
Continuous
 62
     7
370
    25
100
AcDbLine
 10
272.3254930593
 20
36.3474798783
 30
0.0
 11
271.8213983118
 21
36.6384875817
 31
0.0
  0
SPLINE
  5
1A0
330
1F
100
AcDbEntity
  8
0
  6
Continuous
 62
     7
370
    25
100
AcDbSpline
210
0.0
220
0.0
230
1.0
 70
     8
 71
     3
 72
    10
 73
     6
 74
     0
 42
0.000000001
 43
0.00000001
 40
0.0
 40
0.0
 40
0.0
 40
0.0
 40
0.134195124446517
 40
0.6045542330645128
 40
1.0
 40
1.0
 40
1.0
 40
1.0
 10
259.303249269599
 20
31.00765207537295
 30
0.0
 10
259.2788365256994
 20
30.93948760984651
 30
0.0
 10
259.1688561689161
 20
30.6324040526118
 30
0.0
 10
259.0218938933045
 20
30.12434527861112
 30
0.0
 10
258.9211998208004
 20
29.6900932326244
 30
0.0
 10
258.875209037136
 20
29.49175393214548
 30
0.0
  0
SPLINE
  5
1A1
330
1F
100
AcDbEntity
  8
0
  6
Continuous
 62
     7
370
    25
100
AcDbSpline
210
0.0
220
0.0
230
1.0
 70
     8
 71
     3
 72
    19
 73
    15
 74
     0
 42
0.000000001
 43
0.00000001
 40
0.0
 40
0.0
 40
0.0
 40
0.0
 40
0.0322518670420541
 40
0.1267981326814274
 40
0.2214319228444567
 40
0.3161097108905252
 40
0.4107995680169471
 40
0.5054797862936263
 40
0.6001421720025398
 40
0.6947836094698621
 40
0.7894041357995022
 40
0.884005857290241
 40
0.9785918871585876
 40
1.0
 40
1.0
 40
1.0
 40
1.0
 10
267.2755407789981
 20
39.76061412073591
 30
0.0
 10
267.2143904343479
 20
39.746148454683
 30
0.0
 10
266.9739780109563
 20
39.68927672564138
 30
0.0
 10
266.5437279058756
 20
39.53179215281259
 30
0.0
 10
265.9889327891527
 20
39.28933087958961
 30
0.0
 10
265.4305056705636
 20
38.98921282652672
 30
0.0
 10
264.8730738115527
 20
38.63846207127101
 30
0.0
 10
264.3200249514167
 20
38.23810338988579
 30
0.0
 10
263.7749387832536
 20
37.79122296837967
 30
0.0
 10
263.2414782002688
 20
37.30045887282118
 30
0.0
 10
262.7223268458847
 20
36.76984469811516
 30
0.0
 10
262.2235067159539
 20
36.1998675708059
 30
0.0
 10
261.8632537395083
 20
35.75858608470511
 30
0.0
 10
261.6784117653713
 20
35.49997387879996
 30
0.0
 10
261.6442969579533
 20
35.45224388867418
 30
0.0
  0
SPLINE
  5
1A2
330
1F
100
AcDbEntity
  8
0
  6
Continuous
 62
     7
370
    25
100
AcDbSpline
210
0.0
220
0.0
230
1.0
 70
     8
 71
     3
 72
    10
 73
     6
 74
     0
 42
0.000000001
 43
0.00000001
 40
0.0
 40
0.0
 40
0.0
 40
0.0
 40
0.3838501303591913
 40
0.8341159909267079
 40
1.0
 40
1.0
 40
1.0
 40
1.0
 10
274.5046394901024
 20
20.5475209798804
 30
0.0
 10
274.4355014961279
 20
20.59611130340275
 30
0.0
 10
274.2852628957118
 20
20.70169929894772
 30
0.0
 10
274.1329774762557
 20
20.87560248696469
 30
0.0
 10
274.0541638631016
 20
21.00427688250274
 30
0.0
 10
274.0329451324586
 20
21.03891946809539
 30
0.0
  0
LINE
  5
1A3
330
1F
100
AcDbEntity
  8
0
  6
Continuous
 62
     7
370
    25
100
AcDbLine
 10
264.9791624939
 20
38.6965213729
 30
0.0
 11
252.6746492743
 21
43.1305801754
 31
0.0
  0
LINE
  5
1A4
330
1F
100
AcDbEntity
  8
0
  6
Continuous
 62
     7
370
    25
100
AcDbLine
 10
248.6251055221
 20
36.1158048152
 30
0.0
 11
260.4121099695
 21
26.1629558399
 31
0.0
  0
LINE
  5
1A5
330
1F
100
AcDbEntity
  8
0
  6
Continuous
 62
     7
370
    25
100
AcDbLine
 10
262.1411363559
 20
21.7371781604
 30
0.0
 11
262.7233451504
 21
21.4010761775
 31
0.0
  0
LINE
  5
1A6
330
1F
100
AcDbEntity
  8
0
  6
Continuous
 62
     7
370
    25
100
AcDbLine
 10
260.6515223766
 20
22.5971140064
 30
0.0
 11
261.226660247
 21
22.2650939811
 31
0.0
  0
LINE
  5
1A7
330
1F
100
AcDbEntity
  8
0
  6
Continuous
 62
     7
370
    25
100
AcDbLine
 10
258.8787693922
 20
25.0233463088
 30
0.0
 11
258.8965138739
 21
24.9649999786
 31
0.0
  0
SPLINE
  5
1A8
330
1F
100
AcDbEntity
  8
0
  6
Continuous
 62
     7
370
    25
100
AcDbSpline
210
0.0
220
0.0
230
1.0
 70
     8
 71
     3
 72
    26
 73
    22
 74
     0
 42
0.000000001
 43
0.00000001
 40
0.0
 40
0.0
 40
0.0
 40
0.0
 40
0.0206098635346963
 40
0.0728944510643923
 40
0.1258585040611578
 40
0.1800156137396773
 40
0.2354401611125397
 40
0.2918299514627566
 40
0.3487416667418533
 40
0.4057939356565405
 40
0.4627674603426434
 40
0.5196158025351038
 40
0.5763503990457023
 40
0.6330092550266897
 40
0.6896415235028057
 40
0.7462991724022513
 40
0.8030217144057956
 40
0.8598660589598679
 40
0.9168873020481363
 40
0.9741306256673679
 40
1.0
 40
1.0
 40
1.0
 40
1.0
 10
252.6951837456855
 20
43.11506034409902
 30
0.0
 10
252.6564348942081
 20
43.13170107322679
 30
0.0
 10
252.5193851629929
 20
43.19055720359555
 30
0.0
 10
252.2585430025758
 20
43.23169503302644
 30
0.0
 10
251.9203257307851
 20
43.23906400428067
 30
0.0
 10
251.5655624664498
 20
43.18507431883111
 30
0.0
 10
251.1998544025224
 20
43.07414289023541
 30
0.0
 10
250.82789453718
 20
42.90565171973802
 30
0.0
 10
250.4563499813233
 20
42.68248500977953
 30
0.0
 10
250.0918764227152
 20
42.40877894569779
 30
0.0
 10
249.7405497064744
 20
42.08978241037825
 30
0.0
 10
249.4076532818714
 20
41.73109956053288
 30
0.0
 10
249.0978723146828
 20
41.33852254568474
 30
0.0
 10
248.8155445326216
 20
40.91809120030623
 30
0.0
 10
248.564693853707
 20
40.47608649927919
 30
0.0
 10
248.3490036167088
 20
40.01900952166182
 30
0.0
 10
248.1718375432445
 20
39.55350567912125
 30
0.0
 10
248.0359120329406
 20
39.08609069838752
 30
0.0
 10
247.9444954562347
 20
38.62364430333449
 30
0.0
 10
247.9057276346895
 20
38.25442090099446
 30
0.0
 10
247.9025014993997
 20
38.04358129390206
 30
0.0
 10
247.9014973435545
 20
37.97795607832817
 30
0.0
  0
SPLINE
  5
1A9
330
1F
100
AcDbEntity
  8
0
  6
Continuous
 62
     7
370
    25
100
AcDbSpline
210
0.0
220
0.0
230
1.0
 70
     8
 71
     3
 72
    13
 73
     9
 74
     0
 42
0.000000001
 43
0.00000001
 40
0.0
 40
0.0
 40
0.0
 40
0.0
 40
0.1013708038922181
 40
0.2925452651573772
 40
0.4837075735181394
 40
0.673017314708729
 40
0.8585816591153959
 40
1.0
 40
1.0
 40
1.0
 40
1.0
 10
247.9014973435545
 20
37.97795607832817
 30
0.0
 10
247.902879706658
 20
37.9016496072748
 30
0.0
 10
247.9068690582772
 20
37.68143731783426
 30
0.0
 10
247.9516095422228
 20
37.3358803111938
 30
0.0
 10
248.0522580030659
 20
36.95634890207026
 30
0.0
 10
248.2050089557007
 20
36.61820435604132
 30
0.0
 10
248.3857502524629
 20
36.34218118642231
 30
0.0
 10
248.5348227514918
 20
36.20494745319826
 30
0.0
 10
248.5992958457335
 20
36.14559456468474
 30
0.0
  0
LWPOLYLINE
  5
1AA
330
1F
100
AcDbEntity
  8
0
  6
Continuous
 62
     7
370
    25
100
AcDbPolyline
 90
       33
 70
   128
 43
0.0
 10
273.0118870194
 20
32.5605559042
 10
272.7830595299
 20
32.7215193548
 10
272.6130254452
 20
32.9051613698
 10
272.5083189758
 20
33.1044244038
 10
272.4729636968
 20
33.3116513077
 10
272.5083188441
 20
33.5188779835
 10
272.6130255111
 20
33.7181411315
 10
272.7830596451
 20
33.901783175
 10
273.0118871511
 20
34.0627467872
 10
273.2907145171
 20
34.1948460946
 10
273.608826335
 20
34.2930047108
 10
273.9539976315
 20
34.353450583
 10
274.3129636573
 20
34.3738606751
 10
274.6719300783
 20
34.353450507
 10
275.0171011772
 20
34.2930047488
 10
275.3352129457
 20
34.1948461611
 10
275.6140400319
 20
34.0627468633
 10
275.8428675214
 20
33.9017834126
 10
276.0129021328
 20
33.7181410935
 10
276.1176086022
 20
33.5188780595
 10
276.1529638812
 20
33.3116511556
 10
276.1176082071
 20
33.104424784
 10
276.0129015401
 20
32.9051616359
 10
275.8428679329
 20
32.7215192883
 10
275.6140399002
 20
32.5605559802
 10
275.335213061
 20
32.4284563687
 10
275.0171007162
 20
32.3302980566
 10
274.6719294198
 20
32.2698521844
 10
274.3129639207
 20
32.2494417882
 10
273.9539974998
 20
32.2698519563
 10
273.6088264008
 20
32.3302977145
 10
273.2907141055
 20
32.4284566063
 10
273.0118870194
 20
32.5605559042
  0
LWPOLYLINE
  5
1AB
330
1F
100
AcDbEntity
  8
0
  6
Continuous
 62
     7
370
    25
100
AcDbPolyline
 90
       10
 70
   128
 43
0.0
 10
272.8987499948
 20
32.3645963738
 10
272.6566646873
 20
32.5338563428
 10
272.4744433146
 20
32.7265053372
 10
272.3586701364
 20
32.9355816144
 10
272.3135303349
 20
33.1535280099
 10
272.3406551904
 20
33.3724675226
 10
272.4390645256
 20
33.5844869972
 10
272.6052013767
 20
33.7819235631
 10
272.833060847
 20
33.9576415737
 10
272.8985204461
 20
33.9972797412
  0
LWPOLYLINE
  5
1AC
330
1F
100
AcDbEntity
  8
0
  6
Continuous
 62
     7
370
    25
100
AcDbPolyline
 90
       18
 70
   128
 43
0.0
 10
275.7274067567
 20
33.9972799578
 10
275.8552028502
 20
33.9161113039
 10
276.068321419
 20
33.7343335648
 10
276.2179966002
 20
33.5325572293
 10
276.2988193725
 20
33.3180745595
 10
276.3078678399
 20
33.098637937
 10
276.2448155619
 20
32.8821781189
 10
276.1119408389
 20
32.6765188445
 10
275.9140461728
 20
32.489093115
 10
275.6582842212
 20
32.3266748359
 10
275.3538997718
 20
32.1951337554
 10
275.0118925511
 20
32.0992249927
 10
274.644623201
 20
32.042415101
 10
274.2653688018
 20
32.0267556469
 10
273.8878331379
 20
32.0528146039
 10
273.5256631613
 20
32.119649037
 10
273.1919486295
 20
32.2248435005
 10
272.8987499948
 20
32.3645963738
  0
LWPOLYLINE
  5
1AD
330
1F
100
AcDbEntity
  8
0
  6
Continuous
 62
     7
370
    25
100
AcDbPolyline
 90
       26
 70
   128
 43
0.0
 10
273.4927196699
 20
32.8381346849
 10
273.314502577
 20
32.9707699839
 10
273.1990231756
 20
33.1248237371
 10
273.15353586
 20
33.2906170531
 10
273.1809004917
 20
33.4577315726
 10
273.2793961126
 20
33.6156677418
 10
273.4428348987
 20
33.7545012271
 10
273.6609469224
 20
33.8655089265
 10
273.9200277655
 20
33.9417155775
 10
274.2037977879
 20
33.9783332333
 10
274.4944274404
 20
33.9730605844
 10
274.7736553826
 20
33.9262290436
 10
275.0239360131
 20
33.8407815043
 10
275.2295430915
 20
33.7220870644
 10
275.3775586088
 20
33.5776031318
 10
275.4586820067
 20
33.4164082719
 10
275.4678154922
 20
33.2486313448
 10
275.4043849791
 20
33.0848143978
 10
275.2723768843
 20
32.9352502106
 10
275.0800856005
 20
32.8093365153
 10
274.8395923655
 20
32.7149856166
 10
274.5660097796
 20
32.6581250008
 10
274.2765275751
 20
32.6423277352
 10
273.9893334834
 20
32.6685873076
 10
273.7224756413
 20
32.7352521471
 10
273.4927196699
 20
32.8381346849
  0
SPLINE
  5
1AE
330
1F
100
AcDbEntity
  8
0
  6
Continuous
 62
     7
370
    25
100
AcDbSpline
210
0.0
220
0.0
230
1.0
 70
     8
 71
     3
 72
     9
 73
     5
 74
     0
 42
0.000000001
 43
0.00000001
 40
0.0
 40
0.0
 40
0.0
 40
0.0
 40
0.6314245583266482
 40
1.0
 40
1.0
 40
1.0
 40
1.0
 10
273.60596318102
 20
32.77573460059847
 30
0.0
 10
273.5159537924579
 20
32.83775413073968
 30
0.0
 10
273.3734040810552
 20
32.93597573033277
 30
0.0
 10
273.2449527090102
 20
33.08125150994216
 30
0.0
 10
273.1976086878252
 20
33.13479659457613
 30
0.0
  0
SPLINE
  5
1AF
330
1F
100
AcDbEntity
  8
0
  6
Continuous
 62
     7
370
    25
100
AcDbSpline
210
0.0
220
0.0
230
1.0
 70
     8
 71
     3
 72
    11
 73
     7
 74
     0
 42
0.000000001
 43
0.00000001
 40
0.0
 40
0.0
 40
0.0
 40
0.0
 40
0.2164573712293592
 40
0.4403159504644553
 40
0.7519037917269804
 40
1.0
 40
1.0
 40
1.0
 40
1.0
 10
275.4283183633927
 20
33.4798514967898
 30
0.0
 10
275.407846006039
 20
33.40616975041526
 30
0.0
 10
275.3662012912611
 20
33.25628689818191
 30
0.0
 10
275.2889217989872
 20
33.03964471743842
 30
0.0
 10
275.2060233185373
 20
32.8912797916142
 30
0.0
 10
275.1529756456189
 20
32.85295764875449
 30
0.0
 10
275.1294607240847
 20
32.83597024605062
 30
0.0
  0
SPLINE
  5
1B0
330
1F
100
AcDbEntity
  8
0
  6
Continuous
 62
     7
370
    25
100
AcDbSpline
210
0.0
220
0.0
230
1.0
 70
     8
 71
     3
 72
    11
 73
     7
 74
     0
 42
0.000000001
 43
0.00000001
 40
0.0
 40
0.0
 40
0.0
 40
0.0
 40
0.1842411469497827
 40
0.5169672157542325
 40
0.8653134128173353
 40
1.0
 40
1.0
 40
1.0
 40
1.0
 10
274.6118222185881
 20
33.9512046881507
 30
0.0
 10
274.6591709916956
 20
33.89848292144668
 30
0.0
 10
274.7920281943778
 20
33.75054949075624
 30
0.0
 10
275.0394599143001
 20
33.55462371119614
 30
0.0
 10
275.2702259361829
 20
33.48479337052979
 30
0.0
 10
275.3938481323053
 20
33.48092901538337
 30
0.0
 10
275.4283183633927
 20
33.4798514967898
 30
0.0
  0
SPLINE
  5
1B1
330
1F
100
AcDbEntity
  8
0
  6
Continuous
 62
     7
370
    25
100
AcDbSpline
210
0.0
220
0.0
230
1.0
 70
     8
 71
     3
 72
    11
 73
     7
 74
     0
 42
0.000000001
 43
0.00000001
 40
0.0
 40
0.0
 40
0.0
 40
0.0
 40
0.2164574639817093
 40
0.4403157705675891
 40
0.7519040084790921
 40
1.0
 40
1.0
 40
1.0
 40
1.0
 10
273.4964668539688
 20
33.77867754117959
 30
0.0
 10
273.5728705485012
 20
33.76092109735196
 30
0.0
 10
273.7282902370321
 20
33.72480110360038
 30
0.0
 10
274.0167061848653
 20
33.71927131322052
 30
0.0
 10
274.3260813063566
 20
33.79735992550813
 30
0.0
 10
274.5240617447621
 20
33.90395387915829
 30
0.0
 10
274.6118222185881
 20
33.9512046881507
 30
0.0
  0
SPLINE
  5
1B2
330
1F
100
AcDbEntity
  8
0
  6
Continuous
 62
     7
370
    25
100
AcDbSpline
210
0.0
220
0.0
230
1.0
 70
     8
 71
     3
 72
    11
 73
     7
 74
     0
 42
0.000000001
 43
0.00000001
 40
0.0
 40
0.0
 40
0.0
 40
0.0
 40
0.2164574325982701
 40
0.440315771631631
 40
0.7519040089507589
 40
1.0
 40
1.0
 40
1.0
 40
1.0
 10
273.1976086878252
 20
33.13479659457613
 30
0.0
 10
273.2180809671783
 20
33.14932865383003
 30
0.0
 10
273.2597254945673
 20
33.17888963867109
 30
0.0
 10
273.3370063655441
 20
33.29524557567104
 30
0.0
 10
273.4199032211196
 20
33.50407730263061
 30
0.0
 10
273.4729516329799
 20
33.69433873628252
 30
0.0
 10
273.4964668539688
 20
33.77867754117959
 30
0.0
  0
LINE
  5
1B3
330
1F
100
AcDbEntity
  8
0
  6
Continuous
 62
     7
370
    25
100
AcDbLine
 10
273.496466854
 20
32.8359809729
 30
0.0
 11
273.496466854
 21
33.7786775412
 31
0.0
  0
LINE
  5
1B4
330
1F
100
AcDbEntity
  8
0
  6
Continuous
 62
     7
370
    25
100
AcDbLine
 10
274.6118222186
 20
32.6646036824
 30
0.0
 11
274.6118222186
 21
33.9512046882
 31
0.0
  0
LWPOLYLINE
  5
1B5
330
1F
100
AcDbEntity
  8
0
  6
Continuous
 62
     7
370
    25
100
AcDbPolyline
 90
       71
 70
   128
 43
0.0
 10
277.0070406586
 20
31.6420779358
 10
276.445453461
 20
31.2887560353
 10
275.88838783
 20
30.880030795
 10
275.3403287829
 20
30.4191928113
 10
274.8056892924
 20
29.909952843
 10
274.2887738687
 20
29.3564098374
 10
273.7937441182
 20
28.7630219221
 10
273.3245859471
 20
28.1345655706
 10
272.8850767669
 20
27.4761014612
 10
272.4787553323
 20
26.7929312089
 10
272.1088930291
 20
26.0905549351
 10
271.7784675319
 20
25.3746277706
 10
271.4901393608
 20
24.6509140788
 10
271.2462302801
 20
23.9252409168
 10
271.0487038062
 20
23.2034508888
 10
270.8991504557
 20
22.4913553032
 10
270.7987740482
 20
21.7946876328
 10
270.7483827493
 20
21.1190567861
 10
270.7483827493
 20
20.4699029243
 10
270.7987740482
 20
19.8524526329
 10
270.8991504557
 20
19.2716770959
 10
271.0487038062
 20
18.7322521332
 10
271.2462302801
 20
18.2385213177
 10
271.4901393608
 20
17.794459586
 10
271.7784675319
 20
17.4036425147
 10
272.1088930291
 20
17.0692165087
 10
272.4787553323
 20
16.7938741605
 10
272.8850767669
 20
16.579832651
 10
273.3245859471
 20
16.4288150397
 10
273.7937441182
 20
16.3420371825
 10
274.2887738687
 20
16.3201984514
 10
274.8056892924
 20
16.3634732904
 10
275.3403287829
 20
16.4715149387
 10
275.88838783
 20
16.6434524617
 10
276.445453461
 20
16.8779015086
 10
277.0070406586
 20
17.1729743851
 10
277.5686278563
 20
17.5262962855
 10
278.1256934873
 20
17.9350215258
 10
278.6737525344
 20
18.3958595096
 10
279.2083920249
 20
18.9050994779
 10
279.7253074485
 20
19.4586424834
 10
280.2203371991
 20
20.0520303987
 10
280.6894953702
 20
20.6804867502
 10
281.1290045504
 20
21.3389508597
 10
281.5353259849
 20
22.0221211119
 10
281.9051882882
 20
22.7244973858
 10
282.2356137854
 20
23.4404245503
 10
282.5239419565
 20
24.1641382421
 10
282.7678510372
 20
24.8898114041
 10
282.9653775111
 20
25.611601432
 10
283.1149308615
 20
26.3236970177
 10
283.2153072691
 20
27.020364688
 10
283.265698568
 20
27.6959955348
 10
283.265698568
 20
28.3451493965
 10
283.2153072691
 20
28.962599688
 10
283.1149308615
 20
29.543375225
 10
282.9653775111
 20
30.0828001876
 10
282.7678510372
 20
30.5765310032
 10
282.5239419565
 20
31.0205927349
 10
282.2356137854
 20
31.4114098062
 10
281.9051882882
 20
31.7458358121
 10
281.5353259849
 20
32.0211781603
 10
281.1290045504
 20
32.2352196698
 10
280.6894953702
 20
32.3862372812
 10
280.2203371991
 20
32.4730151383
 10
279.7253074485
 20
32.4948538694
 10
279.2083920249
 20
32.4515790304
 10
278.6737525344
 20
32.3435373822
 10
278.1256934873
 20
32.1715998592
 10
277.5686278563
 20
31.9371508122
 10
277.0070406586
 20
31.6420779358
  0
LWPOLYLINE
  5
1B6
330
1F
100
AcDbEntity
  8
0
  6
Continuous
 62
     7
370
    25
100
AcDbPolyline
 90
       37
 70
   128
 43
0.0
 10
276.9080450872
 20
31.8135426864
 10
276.345597567
 20
31.4600909796
 10
275.78755189
 20
31.0518907788
 10
275.238275721
 20
30.5921369491
 10
274.7020675775
 20
30.0844273314
 10
274.1831243636
 20
29.5327354828
 10
273.6855073233
 20
28.9413788546
 10
273.2131109573
 20
28.314986247
 10
272.7696323342
 20
27.6584600173
 10
272.3585425105
 20
26.9769376793
 10
271.9830588713
 20
26.2757537303
 10
271.6461195787
 20
25.560395395
 10
271.3503624987
 20
24.836461866
 10
271.0981014931
 20
24.1096183748
 10
270.8913111419
 20
23.3855537591
 10
270.7316098841
 20
22.6699346843
 10
270.6202479004
 20
21.9683619944
 10
270.5580960503
 20
21.2863261499
 10
270.5456416565
 20
20.6291654783
 10
270.5829811301
 20
20.002022601
 10
270.669823131
 20
19.4098061051
 10
270.8054875143
 20
18.8571508477
 10
270.9889127064
 20
18.348382137
 10
271.218663607
 20
17.8874817393
 10
271.4929410725
 20
17.4780565469
 10
271.8095993016
 20
17.1233113518
 10
272.1661595326
 20
16.826022076
 10
272.5598316443
 20
16.5885156937
 10
272.9875344386
 20
16.4126509131
 10
273.445920402
 20
16.2998044863
 10
273.9314023108
 20
16.2508585825
 10
274.4401806268
 20
16.2661974401
 10
274.9682729996
 20
16.345700671
 10
275.5115469305
 20
16.488745692
 10
276.0657503296
 20
16.694212588
 10
276.6265457921
 20
16.9604947749
 10
276.9090794099
 20
17.1164051985
  0
LWPOLYLINE
  5
1B7
330
1F
100
AcDbEntity
  8
0
  6
Continuous
 62
     7
370
    25
100
AcDbPolyline
 90
       19
 70
   128
 43
0.0
 10
283.2720063707
 20
28.1385117366
 10
283.2579941241
 20
28.6178212527
 10
283.195842274
 20
29.2280980985
 10
283.0844802903
 20
29.8010949788
 10
282.9247790325
 20
30.3323269061
 10
282.7179886813
 20
30.8176364643
 10
282.4657276757
 20
31.253225598
 10
282.1699705956
 20
31.6356852708
 10
281.8330313031
 20
31.9620217796
 10
281.4575476639
 20
32.2296815465
 10
281.0464578402
 20
32.436569677
 10
280.6029792171
 20
32.5810663873
 10
280.130582851
 20
32.6620417602
 10
279.6329658108
 20
32.6788619831
 10
279.1140225969
 20
32.6313947504
 10
278.5778144534
 20
32.5200116233
 10
278.0285382844
 20
32.3455846872
 10
277.4704926074
 20
32.1094790638
 10
276.9080450872
 20
31.8135426864
  0
SPLINE
  5
1B8
330
1F
100
AcDbEntity
  8
0
  6
Continuous
 62
     7
370
    25
100
AcDbSpline
210
0.0
220
0.0
230
1.0
 70
    11
 71
     3
 72
    99
 73
    95
 74
     0
 42
0.000000001
 43
0.00000001
 40
0.0
 40
0.0
 40
0.0
 40
0.0
 40
0.0312500000000014
 40
0.0312500000000014
 40
0.046875000000002
 40
0.046875000000002
 40
0.0625000000000026
 40
0.0625000000000026
 40
0.0937500000000038
 40
0.0937500000000038
 40
0.1093750000000041
 40
0.1093750000000041
 40
0.1250000000000044
 40
0.1250000000000044
 40
0.156250000000005
 40
0.156250000000005
 40
0.1718750000000053
 40
0.1718750000000053
 40
0.1875000000000056
 40
0.1875000000000056
 40
0.2187500000000061
 40
0.2187500000000061
 40
0.2343750000000061
 40
0.2343750000000061
 40
0.2500000000000061
 40
0.2500000000000061
 40
0.2812500000000066
 40
0.2812500000000066
 40
0.296875000000007
 40
0.296875000000007
 40
0.3125000000000074
 40
0.3125000000000074
 40
0.3437500000000085
 40
0.3437500000000085
 40
0.359375000000009
 40
0.359375000000009
 40
0.3750000000000095
 40
0.39062500000001
 40
0.39062500000001
 40
0.4062500000000104
 40
0.4062500000000104
 40
0.4375000000000114
 40
0.4375000000000114
 40
0.4531250000000119
 40
0.4531250000000119
 40
0.4687500000000124
 40
0.4687500000000124
 40
0.4843750000000129
 40
0.4843750000000129
 40
0.5000000000000133
 40
0.5000000000000133
 40
0.531250000000014
 40
0.531250000000014
 40
0.546875000000014
 40
0.546875000000014
 40
0.562500000000014
 40
0.562500000000014
 40
0.5937500000000135
 40
0.5937500000000135
 40
0.625000000000013
 40
0.625000000000013
 40
0.6562500000000125
 40
0.6562500000000125
 40
0.6875000000000121
 40
0.6875000000000121
 40
0.7031250000000117
 40
0.7031250000000117
 40
0.7187500000000112
 40
0.7187500000000112
 40
0.7500000000000104
 40
0.7500000000000104
 40
0.7656250000000099
 40
0.7656250000000099
 40
0.7812500000000094
 40
0.7812500000000094
 40
0.8125000000000081
 40
0.8125000000000081
 40
0.8281250000000075
 40
0.8281250000000075
 40
0.8437500000000069
 40
0.8437500000000069
 40
0.8750000000000056
 40
0.8750000000000056
 40
0.890625000000005
 40
0.890625000000005
 40
0.9062500000000043
 40
0.9062500000000043
 40
0.9218750000000037
 40
0.9218750000000037
 40
0.9375000000000031
 40
0.9375000000000031
 40
0.9687500000000016
 40
0.9687500000000016
 40
1.0
 40
1.0
 40
1.0
 40
1.0
 10
274.2937035117879
 20
34.501268660108
 30
0.0
 10
274.4423344746201
 20
34.47854985863725
 30
0.0
 10
274.5871521822681
 20
34.44844232853326
 30
0.0
 10
274.7993049798329
 20
34.39423248962913
 30
0.0
 10
274.8691689887017
 20
34.37463711259126
 30
0.0
 10
275.0072141390323
 20
34.3325587109695
 30
0.0
 10
275.075711742817
 20
34.30995924288721
 30
0.0
 10
275.2760256764806
 20
34.23887735898639
 30
0.0
 10
275.4023825785598
 20
34.18735437862696
 30
0.0
 10
275.581630368001
 20
34.1046703923369
 30
0.0
 10
275.6396531160848
 20
34.07619856259593
 30
0.0
 10
275.7521891756519
 20
34.01744736752016
 30
0.0
 10
275.8068246686825
 20
33.9870783952811
 30
0.0
 10
275.9624110380361
 20
33.89493913778914
 30
0.0
 10
276.0561241260046
 20
33.8316733205571
 30
0.0
 10
276.1818372029369
 20
33.73379581815431
 30
0.0
 10
276.2212502757021
 20
33.70066657686287
 30
0.0
 10
276.2949258211235
 20
33.63327399886976
 30
0.0
 10
276.3291552374245
 20
33.59900066864304
 30
0.0
 10
276.4219612557066
 20
33.4963207326519
 30
0.0
 10
276.4715294588751
 20
33.42739159566347
 30
0.0
 10
276.5270214476211
 20
33.3222822728055
 30
0.0
 10
276.542354728371
 20
33.28695607928733
 30
0.0
 10
276.5663354325968
 20
33.21549394342431
 30
0.0
 10
276.5748976821141
 20
33.17947635034906
 30
0.0
 10
276.5897197693875
 20
33.07227670176953
 30
0.0
 10
276.5855148816928
 20
33.00119328762113
 30
0.0
 10
276.5567177294633
 20
32.89392043893874
 30
0.0
 10
276.5433431768321
 20
32.85805498098777
 30
0.0
 10
276.5084029236113
 20
32.78588870890719
 30
0.0
 10
276.4871403117226
 20
32.75024164501972
 30
0.0
 10
276.4122879064562
 20
32.64477335704171
 30
0.0
 10
276.3476720131627
 20
32.5762089275034
 30
0.0
 10
276.2268993132354
 20
32.47543950720396
 30
0.0
 10
276.1823671291649
 20
32.44206483992137
 30
0.0
 10
276.087614554682
 20
32.37792448247877
 30
0.0
 10
275.9866980332982
 20
32.31592861924327
 30
0.0
 10
275.8736393795947
 20
32.25812711826357
 30
0.0
 10
275.754407521523
 20
32.20248818281834
 30
0.0
 10
275.6914583921694
 20
32.17568559097442
 30
0.0
 10
275.4983539728865
 20
32.10073056150513
 30
0.0
 10
275.3625303451397
 20
32.05720429339323
 30
0.0
 10
275.1486010758506
 20
32.00187149806066
 30
0.0
 10
275.0758802962806
 20
31.98520714576583
 30
0.0
 10
274.9302512481686
 20
31.95598694148115
 30
0.0
 10
274.8569748505974
 20
31.94333319903139
 30
0.0
 10
274.7095143837934
 20
31.92194981132391
 30
0.0
 10
274.6353302357131
 20
31.91322035877037
 30
0.0
 10
274.4860393122441
 20
31.89983300286359
 30
0.0
 10
274.4114130973003
 20
31.89523498720434
 30
0.0
 10
274.1901586371812
 20
31.8878457164132
 30
0.0
 10
274.0450398031978
 20
31.89129937279641
 30
0.0
 10
273.8306499528789
 20
31.90960731946523
 30
0.0
 10
273.7595811574104
 20
31.91795718635413
 30
0.0
 10
273.6210592129103
 20
31.93886619607009
 30
0.0
 10
273.5532933662584
 20
31.95144060134814
 30
0.0
 10
273.3543235983899
 20
31.99552443037679
 30
0.0
 10
273.227409432843
 20
32.03335204316839
 30
0.0
 10
272.9851783753415
 20
32.12693216131501
 30
0.0
 10
272.8728532285037
 20
32.1815768745041
 30
0.0
 10
272.6663162965748
 20
32.30550105374151
 30
0.0
 10
272.5716910704517
 20
32.37503279933205
 30
0.0
 10
272.4017656809136
 20
32.52870038038161
 30
0.0
 10
272.3285611439691
 20
32.61086682410402
 30
0.0
 10
272.2360218550771
 20
32.74136974761761
 30
0.0
 10
272.2080721399295
 20
32.78608497408354
 30
0.0
 10
272.1581424140921
 20
32.8778823708809
 30
0.0
 10
272.1360875968167
 20
32.92516094601634
 30
0.0
 10
272.079939491731
 20
33.06914393884119
 30
0.0
 10
272.056147216272
 20
33.16667156997942
 30
0.0
 10
272.0412297600238
 20
33.3142811018378
 30
0.0
 10
272.0397435963645
 20
33.36370553857829
 30
0.0
 10
272.0441315329363
 20
33.4628407441577
 30
0.0
 10
272.0500819259266
 20
33.51287325410001
 30
0.0
 10
272.0793430268817
 20
33.66036111836065
 30
0.0
 10
272.1136651264204
 20
33.7551026094487
 30
0.0
 10
272.188317680152
 20
33.89064793028304
 30
0.0
 10
272.2170919841056
 20
33.93472997042568
 30
0.0
 10
272.282989145503
 20
34.02040558755329
 30
0.0
 10
272.3200641171316
 20
34.06181474935845
 30
0.0
 10
272.4408514324285
 20
34.17837854390255
 30
0.0
 10
272.5349239458749
 20
34.24718251833057
 30
0.0
 10
272.6970741370549
 20
34.33633700139947
 30
0.0
 10
272.7548135642604
 20
34.36369728108387
 30
0.0
 10
272.8741213959578
 20
34.4121702107236
 30
0.0
 10
272.9360644816476
 20
34.43351390003203
 30
0.0
 10
273.0643956814222
 20
34.47066255988446
 30
0.0
 10
273.1307840619953
 20
34.48646703995777
 30
0.0
 10
273.2680204638178
 20
34.51264107862995
 30
0.0
 10
273.3384560492733
 20
34.52289879095626
 30
0.0
 10
273.5514557184307
 20
34.54533337499345
 30
0.0
 10
273.6970793592712
 20
34.54952537992839
 30
0.0
 10
273.9953867430814
 20
34.53882780025513
 30
0.0
 10
274.1450725489557
 20
34.52398746157873
 30
0.0
 10
274.2937035117879
 20
34.501268660108
 30
0.0
  0
ARC
  5
1B9
330
1F
100
AcDbEntity
  8
0
  6
Continuous
 62
     7
370
    25
100
AcDbCircle
 10
273.3488821119
 20
33.2339500959
 30
0.0
 40
3.184867651618885
100
AcDbArc
 50
60.3278960318
 51
85.9583462935
  0
ARC
  5
1BA
330
1F
100
AcDbEntity
  8
0
  6
Continuous
 62
     7
370
    25
100
AcDbCircle
 10
267.5212273064
 20
23.147030005
 30
0.0
 40
3.165859005038716
100
AcDbArc
 50
214.3071888501
 51
239.7476220508
  0
LINE
  5
1BB
330
1F
100
AcDbEntity
  8
0
  6
Continuous
 62
     7
370
    25
100
AcDbLine
 10
280.0374317304
 20
24.3917204576
 30
0.0
 11
281.200183992
 21
25.8381731422
 31
0.0
  0
SPLINE
  5
1BC
330
1F
100
AcDbEntity
  8
0
  6
Continuous
 62
     7
370
    25
100
AcDbSpline
210
0.0
220
0.0
230
1.0
 70
     8
 71
     3
 72
    20
 73
    16
 74
     0
 42
0.000000001
 43
0.00000001
 40
0.0
 40
0.0
 40
0.0
 40
0.0
 40
0.0470305088026581
 40
0.097990220595031
 40
0.1521417717150748
 40
0.2084840042351703
 40
0.2659399655249142
 40
0.319999985212021
 40
0.3736901181006502
 40
0.4267167692590154
 40
0.4789423374223448
 40
0.580087779633338
 40
0.6698186120751233
 40
0.8327299676045745
 40
0.9208507232321744
 40
0.9208507232321744
 40
0.9208507232321744
 40
0.9208507232321744
 10
281.2001837446227
 20
25.83817316412713
 30
0.0
 10
281.2503108122627
 20
25.90053075972225
 30
0.0
 10
281.3497118697139
 20
26.03835386831797
 30
0.0
 10
281.4821981729763
 20
26.26858211436781
 30
0.0
 10
281.5942676131992
 20
26.52403233442923
 30
0.0
 10
281.6746966684796
 20
26.79212195040204
 30
0.0
 10
281.7130661652806
 20
27.0512513865925
 30
0.0
 10
281.7066659759403
 20
27.28512755833439
 30
0.0
 10
281.6580267729587
 20
27.48193393133461
 30
0.0
 10
281.5702382744157
 20
27.63600301096112
 30
0.0
 10
281.4136044387039
 20
27.78105775115035
 30
0.0
 10
281.1622195348449
 20
27.82679101291385
 30
0.0
 10
280.8042969599715
 20
27.85099395427993
 30
0.0
 10
280.5245587083411
 20
27.87886617364488
 30
0.0
 10
280.1668246929909
 20
27.9108146598066
 30
0.0
 10
280.0373277195517
 20
27.92232474587573
 30
0.0
  0
SPLINE
  5
1BD
330
1F
100
AcDbEntity
  8
0
  6
Continuous
 62
     7
370
    25
100
AcDbSpline
210
0.0
220
0.0
230
1.0
 70
     8
 71
     3
 72
    20
 73
    16
 74
     0
 42
0.000000001
 43
0.00000001
 40
0.0
 40
0.0
 40
0.0
 40
0.0
 40
0.0470305088026581
 40
0.097990220595031
 40
0.1521417717150747
 40
0.2084840042351702
 40
0.2659399655249141
 40
0.3199999852120209
 40
0.37369011810065
 40
0.4267167692590152
 40
0.4789423374223447
 40
0.5800877796333379
 40
0.6698186120751229
 40
0.8327299676045741
 40
0.9208507232321747
 40
0.9208507232321747
 40
0.9208507232321747
 40
0.9208507232321747
 10
272.8138973197511
 20
20.99687306101898
 30
0.0
 10
272.763770252111
 20
21.00135517623114
 30
0.0
 10
272.6643691946599
 20
21.02441226675719
 30
0.0
 10
272.5318828913975
 20
21.10167508302095
 30
0.0
 10
272.4198134511746
 20
21.22773268160039
 30
0.0
 10
272.3393843958942
 20
21.40296088695717
 30
0.0
 10
272.3010148990933
 20
21.61778984510342
 30
0.0
 10
272.3074150884335
 20
21.85905551816757
 30
0.0
 10
272.3560542914151
 20
22.11201951958162
 30
0.0
 10
272.4438427899581
 20
22.3674470421508
 30
0.0
 10
272.60047662567
 20
22.69334735964653
 30
0.0
 10
272.8518615295289
 20
23.02932345341327
 30
0.0
 10
273.2097841044023
 20
23.46677500348419
 30
0.0
 10
273.4895223560328
 20
23.81762613338217
 30
0.0
 10
273.8472563713829
 20
24.26260552205722
 30
0.0
 10
273.9767533448221
 20
24.42362963116382
 30
0.0
  0
LINE
  5
1BE
330
1F
100
AcDbEntity
  8
0
  6
Continuous
 62
     7
370
    25
100
AcDbLine
 10
273.9766495869
 20
20.8929054005
 30
0.0
 11
272.8138973252
 21
20.9968728995
 31
0.0
  0
SPLINE
  5
1BF
330
1F
100
AcDbEntity
  8
0
  6
Continuous
 62
     7
370
    25
100
AcDbSpline
210
0.0
220
0.0
230
1.0
 70
     8
 71
     3
 72
    18
 73
    14
 74
     0
 42
0.000000001
 43
0.00000001
 40
0.0
 40
0.0
 40
0.0
 40
0.0
 40
0.25
 40
0.25
 40
0.5
 40
0.5
 40
0.625
 40
0.625
 40
0.75
 40
0.75
 40
0.875
 40
0.875
 40
1.0
 40
1.0
 40
1.0
 40
1.0
 10
280.0373277195549
 20
27.92232474588905
 30
0.0
 10
280.0238375641921
 20
27.9235237920535
 30
0.0
 10
280.0093725494946
 20
27.92418694455656
 30
0.0
 10
279.9772591775632
 20
27.92376309073512
 30
0.0
 10
279.9592309294477
 20
27.92268090132879
 30
0.0
 10
279.9294821834254
 20
27.91834989409523
 30
0.0
 10
279.9188169247847
 20
27.91638571459868
 30
0.0
 10
279.8973870695448
 20
27.91124517092889
 30
0.0
 10
279.8864910711589
 20
27.90800829716663
 30
0.0
 10
279.8667326034396
 20
27.90078854687976
 30
0.0
 10
279.8577723223815
 20
27.89679463759133
 30
0.0
 10
279.8423657089047
 20
27.88875049367239
 30
0.0
 10
279.8359879757605
 20
27.88477891430729
 30
0.0
 10
279.8304532593447
 20
27.88086720024683
 30
0.0
  0
SPLINE
  5
1C0
330
1F
100
AcDbEntity
  8
0
  6
Continuous
 62
     7
370
    25
100
AcDbSpline
210
0.0
220
0.0
230
1.0
 70
     8
 71
     3
 72
    10
 73
     6
 74
     0
 42
0.000000001
 43
0.00000001
 40
0.0
 40
0.0
 40
0.0
 40
0.0
 40
0.5
 40
0.5
 40
1.0
 40
1.0
 40
1.0
 40
1.0
 10
279.8304532593448
 20
27.88086720024681
 30
0.0
 10
279.8126960138738
 20
27.8869248228247
 30
0.0
 10
279.7943609156505
 20
27.89372770807411
 30
0.0
 10
279.7592860204575
 20
27.90849092046
 30
0.0
 10
279.7424877027473
 20
27.91651692347603
 30
0.0
 10
279.7287298625506
 20
27.92445915556641
 30
0.0
  0
LINE
  5
1C1
330
1F
100
AcDbEntity
  8
0
  6
Continuous
 62
     7
370
    25
100
AcDbLine
 10
279.234554286
 20
28.4306147417
 30
0.0
 11
279.1654321374
 21
28.4729919385
 31
0.0
  0
SPLINE
  5
1C2
330
1F
100
AcDbEntity
  8
0
  6
Continuous
 62
     7
370
    25
100
AcDbSpline
210
0.0
220
0.0
230
1.0
 70
     8
 71
     3
 72
    17
 73
    13
 74
     0
 42
0.000000001
 43
0.00000001
 40
0.0
 40
0.0
 40
0.0
 40
0.0
 40
0.0489831721429827
 40
0.1232264344762026
 40
0.2285277887877665
 40
0.3367352968946266
 40
0.460238959871659
 40
0.5225469169222406
 40
0.5836749339688945
 40
0.712826584425516
 40
0.8560958600886
 40
1.0
 40
1.0
 40
1.0
 40
1.0
 10
274.0606321874989
 20
24.5417420344449
 30
0.0
 10
274.0602798741044
 20
24.54071441341642
 30
0.0
 10
274.0593935631219
 20
24.53812923834931
 30
0.0
 10
274.0559796037621
 20
24.53154057194218
 30
0.0
 10
274.0502291474984
 20
24.52190519629713
 30
0.0
 10
274.0417422767484
 20
24.5091053481511
 30
0.0
 10
274.0332844160392
 20
24.4971250503686
 30
0.0
 10
274.0256981495025
 20
24.48673523664984
 30
0.0
 10
274.0176675325669
 20
24.47592933795061
 30
0.0
 10
274.006586107084
 20
24.46137823518604
 30
0.0
 10
273.992199251355
 20
24.44293088931122
 30
0.0
 10
273.9819095820396
 20
24.43007277085478
 30
0.0
 10
273.9767533735171
 20
24.42362949868194
 30
0.0
  0
SPLINE
  5
1C3
330
1F
100
AcDbEntity
  8
0
  6
Continuous
 62
     7
370
    25
100
AcDbSpline
210
0.0
220
0.0
230
1.0
 70
     8
 71
     3
 72
    20
 73
    16
 74
     0
 42
0.000000001
 43
0.00000001
 40
0.0
 40
0.0
 40
0.0
 40
0.0
 40
0.1158278638928808
 40
0.194295177399271
 40
0.2739002555382525
 40
0.3138953078792496
 40
0.42970160055409
 40
0.5081548636571338
 40
0.5877448028384784
 40
0.6277317943141728
 40
0.7435541283476657
 40
0.8220160245184319
 40
0.9016134819534635
 40
0.9416044696767395
 40
1.0
 40
1.0
 40
1.0
 40
1.0
 10
272.7785419145369
 20
21.12881816362468
 30
0.0
 10
272.7461666833617
 20
21.13349711247537
 30
0.0
 10
272.6918589281022
 20
21.14134580420146
 30
0.0
 10
272.6222716343879
 20
21.16833337570741
 30
0.0
 10
272.5751770208528
 20
21.19426961179246
 30
0.0
 10
272.5227124843804
 20
21.23142275224426
 30
0.0
 10
272.475045942388
 20
21.27626926342934
 30
0.0
 10
272.4268498061537
 20
21.33941719131964
 30
0.0
 10
272.3966627634583
 20
21.39107412770771
 30
0.0
 10
272.3652409960608
 20
21.45744559999558
 30
0.0
 10
272.33988995627
 20
21.52985153785094
 30
0.0
 10
272.319382083845
 20
21.62222424681347
 30
0.0
 10
272.3104860777771
 20
21.6933480668754
 30
0.0
 10
272.3055320353204
 20
21.75919979582737
 30
0.0
 10
272.3068086893015
 20
21.79771114717855
 30
0.0
 10
272.307566424078
 20
21.82056886010781
 30
0.0
  0
LINE
  5
1C4
330
1F
100
AcDbEntity
  8
0
  6
Continuous
 62
     7
370
    25
100
AcDbLine
 10
278.4487932036
 20
28.6633509823
 30
0.0
 11
279.7287297726
 21
27.9244593288
 31
0.0
  0
ARC
  5
1C5
330
1F
100
AcDbEntity
  8
0
  6
Continuous
 62
     7
370
    25
100
AcDbCircle
 10
271.4890122563
 20
28.1272541733
 30
0.0
 40
5.655734973579988
100
AcDbArc
 50
338.7131304148
 51
2.0414243935
  0
LINE
  5
1C6
330
1F
100
AcDbEntity
  8
0
  6
Continuous
 62
     7
370
    25
100
AcDbLine
 10
276.7588815951
 20
26.0740091215
 30
0.0
 11
279.7287297726
 21
24.3595522618
 31
0.0
  0
LINE
  5
1C7
330
1F
100
AcDbEntity
  8
0
  6
Continuous
 62
     7
370
    25
100
AcDbLine
 10
274.496725629
 20
20.5476923039
 30
0.0
 11
274.5658058943
 21
20.5053423356
 31
0.0
  0
LINE
  5
1C8
330
1F
100
AcDbEntity
  8
0
  6
Continuous
 62
     7
370
    25
100
AcDbLine
 10
272.3432932539
 20
22.0117193795
 30
0.0
 11
274.002508259
 21
21.0538749453
 31
0.0
  0
LWPOLYLINE
  5
1C9
330
1F
100
AcDbEntity
  8
0
  6
Continuous
 62
     7
370
    25
100
AcDbPolyline
 90
       22
 70
   128
 43
0.0
 10
264.089438834
 20
23.5402372277
 10
264.0671015311
 20
23.701819513
 10
264.0164826392
 20
24.3220573405
 10
264.0164826392
 20
24.9741419502
 10
264.0671015311
 20
25.6528231063
 10
264.1679310173
 20
26.3526359326
 10
264.318159771
 20
27.0679465399
 10
264.5165776507
 20
27.7929950677
 10
264.7615883447
 20
28.5219445047
 10
265.0512177998
 20
29.2489253272
 10
265.3831352953
 20
29.9680846231
 10
265.7546671407
 20
30.6736318706
 10
266.1628232803
 20
31.3598865402
 10
266.6043165233
 20
32.0213235693
 10
267.0755928369
 20
32.6526167049
 10
267.5728574242
 20
33.2486842817
 10
268.0921065978
 20
33.8047255691
 10
268.6291597857
 20
34.3162654069
 10
269.1796931162
 20
34.7791839371
 10
269.7392737287
 20
35.1897540525
 10
270.3033963227
 20
35.5446710141
 10
270.7481194961
 20
35.7832358664
  0
SPLINE
  5
1CA
330
1F
100
AcDbEntity
  8
0
  6
Continuous
 62
     7
370
    25
100
AcDbSpline
210
0.0
220
0.0
230
1.0
 70
     8
 71
     3
 72
    12
 73
     8
 74
     0
 42
0.000000001
 43
0.00000001
 40
0.0
 40
0.0
 40
0.0
 40
0.0
 40
0.2499999999999981
 40
0.2499999999999981
 40
0.4999999999999962
 40
0.4999999999999962
 40
1.0
 40
1.0
 40
1.0
 40
1.0
 10
260.9869340425919
 20
28.279726724594
 30
0.0
 10
261.0005066395078
 20
28.27189143117341
 30
0.0
 10
261.0158793231187
 20
28.26101655559885
 30
0.0
 10
261.0455500641846
 20
28.23732698458452
 30
0.0
 10
261.0596365762868
 20
28.22475391297781
 30
0.0
 10
261.09767614319
 20
28.18795682625702
 30
0.0
 10
261.1170878058948
 20
28.16521416004716
 30
0.0
 10
261.1304244443567
 20
28.14592263764623
 30
0.0
  0
ARC
  5
1CB
330
1F
100
AcDbEntity
  8
0
  6
Continuous
 62
     7
370
    25
100
AcDbCircle
 10
270.6170511467
 20
34.3879342866
 30
0.0
 40
4.34777171414538
100
AcDbArc
 50
73.9805689162
 51
106.2233053919
  0
SPLINE
  5
1CC
330
1F
100
AcDbEntity
  8
0
  6
Continuous
 62
     7
370
    25
100
AcDbSpline
210
0.0
220
0.0
230
1.0
 70
     8
 71
     3
 72
    12
 73
     8
 74
     0
 42
0.000000001
 43
0.00000001
 40
0.0
 40
0.0
 40
0.0
 40
0.0
 40
0.4999999999999972
 40
0.4999999999999972
 40
0.7499999999999986
 40
0.7499999999999986
 40
1.0
 40
1.0
 40
1.0
 40
1.0
 10
271.9017295720361
 20
38.39344901293075
 30
0.0
 10
271.9017295720361
 20
38.42252221180787
 30
0.0
 10
271.8949228648081
 20
38.45595535050398
 30
0.0
 10
271.8731585344555
 20
38.50453302165426
 30
0.0
 10
271.8639004468867
 20
38.5204189727268
 30
0.0
 10
271.8421881221439
 20
38.54791088147312
 30
0.0
 10
271.8296937347208
 20
38.55947471983538
 30
0.0
 10
271.8168767582937
 20
38.56687380283283
 30
0.0
  0
LWPOLYLINE
  5
1CD
330
1F
100
AcDbEntity
  8
0
  6
Continuous
 62
     7
370
    25
100
AcDbPolyline
 90
       17
 70
   128
 43
0.0
 10
261.1624948311
 20
28.2915093176
 10
261.3120750502
 20
28.8883115781
 10
261.540165365
 20
29.6372883283
 10
261.8130335453
 20
30.3873918373
 10
262.1286881525
 20
31.1331509135
 10
262.4848284956
 20
31.869128159
 10
262.8788567481
 20
32.589955862
 10
263.3078998122
 20
33.2903778205
 10
263.7688285476
 20
33.9652856906
 10
264.2582817433
 20
34.6097580718
 10
264.772690088
 20
35.2190947258
 10
265.3083022487
 20
35.7888523158
 10
265.8612122664
 20
36.314876039
 10
266.4273881363
 20
36.7933295103
 10
267.0027007844
 20
37.2207236572
 10
267.5829548377
 20
37.5939417834
 10
267.7596986265
 20
37.6962427005
  0
SPLINE
  5
1CE
330
1F
100
AcDbEntity
  8
0
  6
Continuous
 62
     7
370
    25
100
AcDbSpline
210
0.0
220
0.0
230
1.0
 70
     8
 71
     3
 72
    51
 73
    47
 74
     0
 42
0.000000001
 43
0.00000001
 40
0.0
 40
0.0
 40
0.0
 40
0.0
 40
0.0625000000000002
 40
0.0625000000000002
 40
0.0937500000000003
 40
0.0937500000000003
 40
0.1250000000000004
 40
0.1250000000000004
 40
0.1875000000000006
 40
0.1875000000000006
 40
0.2500000000000008
 40
0.2500000000000008
 40
0.3125000000000011
 40
0.3125000000000011
 40
0.3437500000000012
 40
0.3437500000000012
 40
0.3750000000000012
 40
0.3750000000000012
 40
0.4375000000000013
 40
0.4375000000000013
 40
0.4687500000000013
 40
0.4687500000000013
 40
0.5000000000000013
 40
0.5312500000000013
 40
0.5312500000000013
 40
0.5625000000000013
 40
0.5625000000000013
 40
0.6250000000000013
 40
0.6250000000000013
 40
0.6562500000000014
 40
0.6562500000000014
 40
0.6875000000000014
 40
0.6875000000000014
 40
0.7500000000000013
 40
0.7500000000000013
 40
0.7812500000000011
 40
0.7812500000000011
 40
0.8125000000000009
 40
0.8125000000000009
 40
0.8750000000000006
 40
0.8750000000000006
 40
0.9062500000000006
 40
0.9062500000000006
 40
0.9375000000000004
 40
0.9375000000000004
 40
1.0
 40
1.0
 40
1.0
 40
1.0
 10
262.462847629645
 20
24.52433792778194
 30
0.0
 10
262.5744183184419
 20
24.46676727907479
 30
0.0
 10
262.6794807150511
 20
24.42105651282269
 30
0.0
 10
262.8284152496169
 20
24.36964784902154
 30
0.0
 10
262.8766119006261
 20
24.35539434604374
 30
0.0
 10
262.9702401559423
 20
24.3328199559969
 30
0.0
 10
263.015849793959
 20
24.32449886675137
 30
0.0
 10
263.1461640230609
 20
24.30914273858903
 30
0.0
 10
263.2251580713629
 20
24.31134809886201
 30
0.0
 10
263.3697510381191
 20
24.34103712670775
 30
0.0
 10
263.4357273917199
 20
24.36902851638672
 30
0.0
 10
263.5512700431797
 20
24.44992669628049
 30
0.0
 10
263.6014715405264
 20
24.50274028341432
 30
0.0
 10
263.6666723182884
 20
24.60166026632297
 30
0.0
 10
263.6868018045699
 20
24.63816518027244
 30
0.0
 10
263.7231358431208
 20
24.71692392836666
 30
0.0
 10
263.7393642390704
 20
24.75912767478913
 30
0.0
 10
263.7826019281156
 20
24.89420244615078
 30
0.0
 10
263.8042266527293
 20
24.99546783135186
 30
0.0
 10
263.8261411946401
 20
25.16535432041216
 30
0.0
 10
263.8316498912658
 20
25.22505801768946
 30
0.0
 10
263.8389069568838
 20
25.34784235720465
 30
0.0
 10
263.8425033838321
 20
25.47464845532013
 30
0.0
 10
263.8389353156313
 20
25.60939281537964
 30
0.0
 10
263.8317280180021
 20
25.74813564585003
 30
0.0
 10
263.826276797246
 20
25.81978011030008
 30
0.0
 10
263.8043588207009
 20
26.03902138146282
 30
0.0
 10
263.7826975684584
 20
26.18840308109855
 30
0.0
 10
263.7393988781004
 20
26.41678799255839
 30
0.0
 10
263.7231489374515
 20
26.49363865774616
 30
0.0
 10
263.6867764426758
 20
26.64873671074776
 30
0.0
 10
263.6666619796257
 20
26.72685135990609
 30
0.0
 10
263.6014594572371
 20
26.95843536322561
 30
0.0
 10
263.5512171477905
 20
27.1107422672947
 30
0.0
 10
263.4643767949049
 20
27.33561985875231
 30
0.0
 10
263.4333560538872
 20
27.41029938606498
 30
0.0
 10
263.3677690882287
 20
27.55673471116548
 30
0.0
 10
263.3333679106206
 20
27.6281723477551
 30
0.0
 10
263.2250766141674
 20
27.83714361702894
 30
0.0
 10
263.1461461713907
 20
27.96938566907537
 30
0.0
 10
263.015812960897
 20
28.15625149585124
 30
0.0
 10
262.9701965362524
 20
28.21677439836489
 30
0.0
 10
262.8765917812985
 20
28.33126480024843
 30
0.0
 10
262.8284046643384
 20
28.385549487658
 30
0.0
 10
262.6794906527396
 20
28.53951820870117
 30
0.0
 10
262.5744313554797
 20
28.63039105810469
 30
0.0
 10
262.462847629645
 20
28.70862959449634
 30
0.0
  0
ARC
  5
1CF
330
1F
100
AcDbEntity
  8
0
  6
Continuous
 62
     7
370
    25
100
AcDbCircle
 10
270.4370049427
 20
34.2197933036
 30
0.0
 40
2.786866880807383
100
AcDbArc
 50
60.2143778007
 51
81.9496603317
  0
ARC
  5
1D0
330
1F
100
AcDbEntity
  8
0
  6
Continuous
 62
     7
370
    25
100
AcDbCircle
 10
265.237117581
 20
25.2067054554
 30
0.0
 40
2.807675442548999
100
AcDbArc
 50
216.3106857683
 51
239.7349963392
  0
LINE
  5
1D1
330
1F
100
AcDbEntity
  8
0
  6
Continuous
 62
     7
370
    25
100
AcDbLine
 10
260.4047251831
 20
28.6158287816
 30
0.0
 11
260.9869339776
 21
28.2797267986
 31
0.0
  0
LWPOLYLINE
  5
1D2
330
1F
100
AcDbEntity
  8
0
  6
Continuous
 62
     7
370
    25
100
AcDbPolyline
 90
       23
 70
   128
 43
0.0
 10
260.4047251831
 20
28.6158287816
 10
260.60264573
 20
29.3943944757
 10
260.8505350537
 20
30.1790591084
 10
261.1464617748
 20
30.9637061536
 10
261.4881188803
 20
31.742219881
 10
261.8728426892
 20
32.5085314384
 10
262.2976349801
 20
33.2566681274
 10
262.7591845913
 20
33.9807975082
 10
263.2538937624
 20
34.6752763713
 10
263.7779060568
 20
35.3346905828
 10
264.3271371814
 20
35.9539002529
 10
264.8973058067
 20
36.5280788213
 10
265.4839676791
 20
37.0527503924
 10
266.0825500633
 20
37.5238260439
 10
266.688386875
 20
37.9376332349
 10
267.2967558891
 20
38.2909464111
 10
267.9029149266
 20
38.5810115446
 10
268.5021391941
 20
38.8055682987
 10
269.0897578001
 20
38.9628656325
 10
269.6611904356
 20
39.0516775013
 10
270.2119825741
 20
39.0713116175
 10
270.7378414273
 20
39.0216156067
 10
271.2346679507
 20
38.9029760168
  0
LINE
  5
1D3
330
1F
100
AcDbEntity
  8
0
  6
Continuous
 62
     7
370
    25
100
AcDbLine
 10
271.8168767452
 20
38.5668740339
 30
0.0
 11
271.2346679507
 21
38.9029760168
 31
0.0
  0
LINE
  5
1D4
330
1F
100
AcDbEntity
  8
0
  6
Continuous
 62
     7
370
    25
100
AcDbLine
 10
261.1486274643
 20
28.1195920125
 30
0.0
 11
262.174164602
 21
28.7116220004
 31
0.0
  0
LINE
  5
1D5
330
1F
100
AcDbEntity
  8
0
  6
Continuous
 62
     7
370
    25
100
AcDbLine
 10
261.1304242404
 20
28.1459224668
 30
0.0
 11
261.1486274643
 21
28.1195920125
 31
0.0
  0
LINE
  5
1D6
330
1F
100
AcDbEntity
  8
0
  6
Continuous
 62
     7
370
    25
100
AcDbLine
 10
271.9017296782
 20
37.1034646987
 30
0.0
 11
271.9017296782
 21
38.3934491559
 31
0.0
  0
LINE
  5
1D7
330
1F
100
AcDbEntity
  8
0
  6
Continuous
 62
     7
370
    25
100
AcDbLine
 10
273.0188284736
 20
37.7483521064
 30
0.0
 11
271.9017296782
 21
37.1034646987
 31
0.0
  0
LINE
  5
1D8
330
1F
100
AcDbEntity
  8
0
  6
Continuous
 62
     7
370
    25
100
AcDbLine
 10
274.0422005804
 20
21.0158280381
 30
0.0
 11
272.7785419145
 21
21.1288181636
 31
0.0
  0
SPLINE
  5
1D9
330
1F
100
AcDbEntity
  8
0
  6
Continuous
 62
     7
370
    25
100
AcDbSpline
210
0.0
220
0.0
230
1.0
 70
     8
 71
     3
 72
    18
 73
    14
 74
     0
 42
0.000000001
 43
0.00000001
 40
0.0
 40
0.0
 40
0.0
 40
0.0
 40
0.2500000000000033
 40
0.2500000000000033
 40
0.5000000000000067
 40
0.5000000000000067
 40
0.625000000000005
 40
0.625000000000005
 40
0.7500000000000033
 40
0.7500000000000033
 40
0.8750000000000017
 40
0.8750000000000017
 40
1.0
 40
1.0
 40
1.0
 40
1.0
 10
273.9766494886068
 20
20.89290549557268
 30
0.0
 10
273.9900544367486
 20
20.89170689120941
 30
0.0
 10
274.0032785809626
 20
20.89187922117796
 30
0.0
 10
274.0277330198013
 20
20.89681026535083
 30
0.0
 10
274.0393474774593
 20
20.90150086307487
 30
0.0
 10
274.0527078625022
 20
20.91553804833005
 30
0.0
 10
274.0564433708792
 20
20.92150104645728
 30
0.0
 10
274.0611357174208
 20
20.93616392616746
 30
0.0
 10
274.0620737628163
 20
20.94513928340878
 30
0.0
 10
274.0605960565417
 20
20.96450052784421
 30
0.0
 10
274.0582219582715
 20
20.97502436030483
 30
0.0
 10
274.0514522622304
 20
20.99566990469769
 30
0.0
 10
274.0470517466383
 20
21.00596326063649
 30
0.0
 10
274.0422006699009
 20
21.0158280491394
 30
0.0
  0
SPLINE
  5
1DA
330
1F
100
AcDbEntity
  8
0
  6
Continuous
 62
     7
370
    25
100
AcDbSpline
210
0.0
220
0.0
230
1.0
 70
     8
 71
     3
 72
    10
 73
     6
 74
     0
 42
0.000000001
 43
0.00000001
 40
0.0
 40
0.0
 40
0.0
 40
0.0
 40
0.5
 40
0.5
 40
1.0
 40
1.0
 40
1.0
 40
1.0
 10
274.0025084893807
 20
21.05387493361943
 30
0.0
 10
274.0162741037554
 20
21.04592821359162
 30
0.0
 10
274.0262303349139
 20
21.03850267741341
 30
0.0
 10
274.0387933272939
 20
21.02577400536255
 30
0.0
 10
274.0416345407845
 20
21.020348347226
 30
0.0
 10
274.042200669901
 20
21.01582804913939
 30
0.0
  0
SPLINE
  5
1DB
330
1F
100
AcDbEntity
  8
0
  6
Continuous
 62
     7
370
    25
100
AcDbSpline
210
0.0
220
0.0
230
1.0
 70
     8
 71
     3
 72
     8
 73
     4
 74
     0
 42
0.000000001
 43
0.00000001
 40
0.0
 40
0.0
 40
0.0
 40
0.0
 40
1.0
 40
1.0
 40
1.0
 40
1.0
 10
259.9757034537005
 20
29.05243429560659
 30
0.0
 10
259.8608766018316
 20
29.03345349571725
 30
0.0
 10
259.7460313543974
 20
29.01451052263614
 30
0.0
 10
259.6311694238383
 20
28.99560185507131
 30
0.0
  0
SPLINE
  5
1DC
330
1F
100
AcDbEntity
  8
0
  6
Continuous
 62
     7
370
    25
100
AcDbSpline
210
0.0
220
0.0
230
1.0
 70
     8
 71
     3
 72
     8
 73
     4
 74
     0
 42
0.000000001
 43
0.00000001
 40
0.0
 40
0.0
 40
0.0
 40
0.0
 40
0.0011862984959113
 40
0.0011862984959113
 40
0.0011862984959113
 40
0.0011862984959113
 10
259.4902489889282
 20
29.14374461493618
 30
0.0
 10
259.537333336066
 20
29.0943246344912
 30
0.0
 10
259.5843092362404
 20
29.04494261484509
 30
0.0
 10
259.6311694238383
 20
28.99560185507131
 30
0.0
  0
LWPOLYLINE
  5
1DD
330
1F
100
AcDbEntity
  8
0
  6
Continuous
 62
     7
370
    25
100
AcDbPolyline
 90
       23
 70
   128
 43
0.0
 10
259.4902490742
 20
29.1437446023
 10
259.6881696211
 20
29.9223102964
 10
259.9360589448
 20
30.706974929
 10
260.2319856659
 20
31.4916219742
 10
260.5736427714
 20
32.2701357017
 10
260.9583665803
 20
33.0364472591
 10
261.3831588712
 20
33.7845839481
 10
261.8447084824
 20
34.5087133289
 10
262.3394176535
 20
35.203192192
 10
262.8634299479
 20
35.8626064034
 10
263.4126610725
 20
36.4818160736
 10
263.9828296978
 20
37.055994642
 10
264.5694915702
 20
37.580666213
 10
265.1680739544
 20
38.0517418645
 10
265.7739107661
 20
38.4655490556
 10
266.3822797802
 20
38.8188622318
 10
266.9884388177
 20
39.1089273653
 10
267.5876630852
 20
39.3334841193
 10
268.1752816911
 20
39.4907814532
 10
268.7467143267
 20
39.579593322
 10
269.2975064652
 20
39.5992274381
 10
269.8233653184
 20
39.5495314274
 10
270.3201918418
 20
39.4308918375
  0
LINE
  5
1DE
330
1F
100
AcDbEntity
  8
0
  6
Continuous
 62
     7
370
    25
100
AcDbLine
 10
270.4481744352
 20
39.0281873383
 30
0.0
 11
270.3201918418
 21
39.4308918375
 31
0.0
  0
LWPOLYLINE
  5
1DF
330
1F
100
AcDbEntity
  8
0
  6
Continuous
 62
     7
370
    25
100
AcDbPolyline
 90
       22
 70
   128
 43
0.0
 10
259.9757034559
 20
29.0524342853
 10
260.1655070466
 20
29.8112057399
 10
260.4052846825
 20
30.5763911163
 10
260.6930781155
 20
31.3417426351
 10
261.0265371321
 20
32.1010104244
 10
261.4029395726
 20
32.8479957503
 10
261.8192118781
 20
33.5765990764
 10
262.2719549053
 20
34.2808714682
 10
262.7574721122
 20
34.955062196
 10
263.2717993242
 20
35.5936663366
 10
263.8107371347
 20
36.1914702464
 10
264.3698844908
 20
36.7435922426
 10
264.9446763619
 20
37.245523817
 10
265.5304194331
 20
37.6931672754
 10
266.1223309096
 20
38.0828678733
 10
266.7155778814
 20
38.4114426238
 10
267.3053163421
 20
38.6762095152
 10
267.8867310636
 20
38.8750068797
 10
268.4550747304
 20
39.0062105099
 10
269.0057068425
 20
39.0687500335
 10
269.5341311217
 20
39.0621140807
 10
269.6521159557
 20
39.0507915805
  0
LINE
  5
1E0
330
1F
100
AcDbEntity
  8
0
  6
Continuous
 62
     7
370
    25
100
AcDbLine
 10
258.9151112038
 20
29.4757646276
 30
0.0
 11
259.4902490742
 21
29.1437446023
 31
0.0
  0
ARC
  5
1E1
330
1F
100
AcDbEntity
  8
0
  6
Continuous
 62
     7
370
    25
100
AcDbCircle
 10
268.5452304257
 20
35.5839877442
 30
0.0
 40
4.347756125835189
100
AcDbArc
 50
73.9805380809
 51
106.2228094608
  0
LINE
  5
1E2
330
1F
100
AcDbEntity
  8
0
  6
Continuous
 62
     7
370
    25
100
AcDbLine
 10
270.3201918418
 20
39.4308918375
 30
0.0
 11
269.7450539714
 21
39.7629118628
 31
0.0
  0
LINE
  5
1E3
330
1F
100
AcDbEntity
  8
0
  6
Continuous
 62
     7
370
    25
100
AcDbLine
 10
260.5402537745
 20
28.8852316424
 30
0.0
 11
260.2262983438
 21
29.0664742547
 31
0.0
  0
SPLINE
  5
1E4
330
1F
100
AcDbEntity
  8
0
  6
Continuous
 62
     7
370
    25
100
AcDbSpline
210
0.0
220
0.0
230
1.0
 70
     8
 71
     3
 72
    14
 73
    10
 74
     0
 42
0.000000001
 43
0.00000001
 40
0.0
 40
0.0
 40
0.0
 40
0.0
 40
0.25
 40
0.25
 40
0.5
 40
0.5
 40
0.75
 40
0.75
 40
1.0
 40
1.0
 40
1.0
 40
1.0
 10
260.226298298794
 20
29.06647432249941
 30
0.0
 10
260.2112447014107
 20
29.07516457929143
 30
0.0
 10
260.1929351187351
 20
29.08204928373603
 30
0.0
 10
260.1529607677311
 20
29.09101141718903
 30
0.0
 10
260.1311872201952
 20
29.09308137062896
 30
0.0
 10
260.0887009599984
 20
29.09230449290306
 30
0.0
 10
260.0673744400184
 20
29.08946913173576
 30
0.0
 10
260.0283772130981
 20
29.07957575722189
 30
0.0
 10
260.0104125368862
 20
29.07247142282747
 30
0.0
 10
259.9953112306462
 20
29.06375362429868
 30
0.0
  0
LINE
  5
1E5
330
1F
100
AcDbEntity
  8
0
  6
Continuous
 62
     7
370
    25
100
AcDbLine
 10
259.9953112235
 20
29.0637536086
 30
0.0
 11
259.9757034559
 21
29.0524342853
 31
0.0
  0
SPLINE
  5
1E6
330
1F
100
AcDbEntity
  8
0
  6
Continuous
 62
     7
370
    25
100
AcDbSpline
210
0.0
220
0.0
230
1.0
 70
     8
 71
     3
 72
    14
 73
    10
 74
     0
 42
0.000000001
 43
0.00000001
 40
0.0
 40
0.0
 40
0.0
 40
0.0
 40
0.25
 40
0.25
 40
0.5
 40
0.5
 40
0.75
 40
0.75
 40
1.0
 40
1.0
 40
1.0
 40
1.0
 10
262.462847629645
 20
28.70862959449634
 30
0.0
 10
262.4442538900847
 20
28.721666862775
 30
0.0
 10
262.4216042418119
 20
28.73177499078253
 30
0.0
 10
262.3718217798873
 20
28.74503981290718
 30
0.0
 10
262.3446705612673
 20
28.74815950228368
 30
0.0
 10
262.2912176871547
 20
28.74765805943109
 30
0.0
 10
262.2645606804098
 20
28.7440818288351
 30
0.0
 10
262.2155671238444
 20
28.73153343438425
 30
0.0
 10
262.1932101848001
 20
28.72261688642299
 30
0.0
 10
262.1741646036905
 20
28.71162210647889
 30
0.0
  0
SPLINE
  5
1E7
330
1F
100
AcDbEntity
  8
0
  6
Continuous
 62
     7
370
    25
100
AcDbSpline
210
0.0
220
0.0
230
1.0
 70
     8
 71
     3
 72
    10
 73
     6
 74
     0
 42
0.000000001
 43
0.00000001
 40
0.0
 40
0.0
 40
0.0
 40
0.0
 40
0.5
 40
0.5
 40
1.0
 40
1.0
 40
1.0
 40
1.0
 10
258.8743061775862
 20
29.48754389917007
 30
0.0
 10
258.8772326913551
 20
29.48929109912734
 30
0.0
 10
258.8819622354384
 20
29.48950392016265
 30
0.0
 10
258.8956227811495
 20
29.48581190030733
 30
0.0
 10
258.9045255665067
 20
29.48187554938081
 30
0.0
 10
258.9151111737153
 20
29.47576460841428
 30
0.0
  0
ARC
  5
1E8
330
1F
100
AcDbEntity
  8
0
  6
Continuous
 62
     7
370
    25
100
AcDbCircle
 10
274.8024557028
 20
25.6840948122
 30
0.0
 40
16.36818197874961
100
AcDbArc
 50
143.5835897407
 51
160.8037648338
  0
SPLINE
  5
1E9
330
1F
100
AcDbEntity
  8
0
  6
Continuous
 62
     7
370
    25
100
AcDbSpline
210
0.0
220
0.0
230
1.0
 70
     8
 71
     3
 72
    10
 73
     6
 74
     0
 42
0.000000001
 43
0.00000001
 40
0.0
 40
0.0
 40
0.0
 40
0.0
 40
0.5
 40
0.5
 40
1.0
 40
1.0
 40
1.0
 40
1.0
 10
279.7287298625506
 20
24.35955216903201
 30
0.0
 10
279.7424954769253
 20
24.3516054490042
 30
0.0
 10
279.7593302502424
 20
24.3481508106912
 30
0.0
 10
279.7943425887808
 20
24.34838187032189
 30
0.0
 10
279.8127020345591
 20
24.35191469699842
 30
0.0
 10
279.8304590382356
 20
24.35731847955524
 30
0.0
  0
SPLINE
  5
1EA
330
1F
100
AcDbEntity
  8
0
  6
Continuous
 62
     7
370
    25
100
AcDbSpline
210
0.0
220
0.0
230
1.0
 70
     8
 71
     3
 72
    16
 73
    12
 74
     0
 42
0.000000001
 43
0.00000001
 40
0.0
 40
0.0
 40
0.0
 40
0.0
 40
0.2500000000000013
 40
0.2500000000000013
 40
0.3749999999999988
 40
0.3749999999999988
 40
0.4999999999999963
 40
0.4999999999999963
 40
0.7499999999999982
 40
0.7499999999999982
 40
1.0
 40
1.0
 40
1.0
 40
1.0
 10
279.8304590382356
 20
24.35731847955527
 30
0.0
 10
279.8415663836759
 20
24.33817808225686
 30
0.0
 10
279.8566291776665
 20
24.32076390614634
 30
0.0
 10
279.8863505832548
 20
24.30733000278784
 30
0.0
 10
279.8970680220373
 20
24.30521889439012
 30
0.0
 10
279.9184953774779
 20
24.30553972382021
 30
0.0
 10
279.9291400497447
 20
24.3079078173135
 30
0.0
 10
279.9590723654152
 20
24.31890667934025
 30
0.0
 10
279.977054865153
 20
24.33128263885661
 30
0.0
 10
280.0093192986224
 20
24.35909506198482
 30
0.0
 10
280.024004679675
 20
24.37501758900595
 30
0.0
 10
280.0374315757998
 20
24.39172052013828
 30
0.0
  0
SPLINE
  5
1EB
330
1F
100
AcDbEntity
  8
0
  6
Continuous
 62
     7
370
    25
100
AcDbSpline
210
0.0
220
0.0
230
1.0
 70
     8
 71
     3
 72
    12
 73
     8
 74
     0
 42
0.000000001
 43
0.00000001
 40
0.0
 40
0.0
 40
0.0
 40
0.0
 40
0.4999999999999978
 40
0.4999999999999978
 40
0.7499999999999989
 40
0.7499999999999989
 40
1.0
 40
1.0
 40
1.0
 40
1.0
 10
262.1741646036904
 20
24.51460233338601
 30
0.0
 10
262.2120001283123
 20
24.53644431683055
 30
0.0
 10
262.2641223516857
 20
24.55006690007056
 30
0.0
 10
262.3446726159524
 20
24.55282065160662
 30
0.0
 10
262.371429011464
 20
24.55089150346375
 30
0.0
 10
262.4217948426272
 20
24.54133490507662
 30
0.0
 10
262.4442351089638
 20
24.53394201736177
 30
0.0
 10
262.462847629645
 20
24.52433792778195
 30
0.0
  0
LINE
  5
1EC
330
1F
100
AcDbEntity
  8
0
  6
Continuous
 62
     7
370
    25
100
AcDbLine
 10
261.1486274643
 20
28.1195920125
 30
0.0
 11
260.4174858
 21
28.5416711111
 31
0.0
  0
SPLINE
  5
1ED
330
1F
100
AcDbEntity
  8
0
  6
Continuous
 62
     7
370
    25
100
AcDbSpline
210
0.0
220
0.0
230
1.0
 70
     8
 71
     3
 72
     8
 73
     4
 74
     0
 42
0.000000001
 43
0.00000001
 40
0.0000000000000004
 40
0.0000000000000004
 40
0.0000000000000004
 40
0.0000000000000004
 40
0.0011862984959128
 40
0.0011862984959128
 40
0.0011862984959128
 40
0.0011862984959128
 10
260.4174856930268
 20
28.5416711350559
 30
0.0
 10
260.4130608133237
 20
28.56651451302341
 30
0.0
 10
260.4088104106942
 20
28.59123162794405
 30
0.0
 10
260.4047251595672
 20
28.61582875863121
 30
0.0
  0
SPLINE
  5
1EE
330
1F
100
AcDbEntity
  8
0
  6
Continuous
 62
     7
370
    25
100
AcDbSpline
210
0.0
220
0.0
230
1.0
 70
     8
 71
     3
 72
    34
 73
    30
 74
     0
 42
0.000000001
 43
0.00000001
 40
0.0
 40
0.0
 40
0.0
 40
0.0
 40
0.1250000000000007
 40
0.1250000000000007
 40
0.1875000000000008
 40
0.1875000000000008
 40
0.2500000000000008
 40
0.2500000000000008
 40
0.3125000000000008
 40
0.3125000000000008
 40
0.3750000000000009
 40
0.3750000000000009
 40
0.4375000000000009
 40
0.4375000000000009
 40
0.500000000000001
 40
0.500000000000001
 40
0.6250000000000011
 40
0.6250000000000011
 40
0.6875000000000012
 40
0.6875000000000012
 40
0.7500000000000012
 40
0.7500000000000012
 40
0.8125000000000012
 40
0.8125000000000012
 40
0.8750000000000008
 40
0.8750000000000008
 40
0.9375000000000004
 40
0.9375000000000004
 40
1.0
 40
1.0
 40
1.0
 40
1.0
 10
281.0941177274451
 20
25.92929787555404
 30
0.0
 10
281.164245610769
 20
26.01653629571563
 30
0.0
 10
281.2275585896161
 20
26.1093310392284
 30
0.0
 10
281.311798315965
 20
26.25707366107422
 30
0.0
 10
281.3381986446193
 20
26.30814409423837
 30
0.0
 10
281.3860394038168
 20
26.41058274172899
 30
0.0
 10
281.4076041126572
 20
26.46211884737079
 30
0.0
 10
281.446114427437
 20
26.56581059735977
 30
0.0
 10
281.4630578262817
 20
26.6179675770775
 30
0.0
 10
281.4922277819275
 20
26.72289159667521
 30
0.0
 10
281.5042773904141
 20
26.77511737443265
 30
0.0
 10
281.5231878557747
 20
26.87725443993678
 30
0.0
 10
281.5301221167344
 20
26.92744809330829
 30
0.0
 10
281.5390329652337
 20
27.02602513079391
 30
0.0
 10
281.5410089187125
 20
27.07473991223302
 30
0.0
 10
281.5393905534382
 20
27.21517203724096
 30
0.0
 10
281.5285368045682
 20
27.30081910607712
 30
0.0
 10
281.4980620434191
 20
27.4170955190712
 30
0.0
 10
281.4854904525165
 20
27.4536960410792
 30
0.0
 10
281.4562611769783
 20
27.52061608175769
 30
0.0
 10
281.4394975970179
 20
27.55126049577946
 30
0.0
 10
281.4013663462128
 20
27.60713933642859
 30
0.0
 10
281.3798533496591
 20
27.63249456905429
 30
0.0
 10
281.3330079763293
 20
27.67679557797015
 30
0.0
 10
281.3081374175053
 20
27.6954066250374
 30
0.0
 10
281.2553799649257
 20
27.72592984169773
 30
0.0
 10
281.227310201219
 20
27.73794887921386
 30
0.0
 10
281.1658249747766
 20
27.75646730257641
 30
0.0
 10
281.1322695914949
 20
27.76295424158014
 30
0.0
 10
281.0956989748441
 20
27.76696226529243
 30
0.0
  0
SPLINE
  5
1EF
330
1F
100
AcDbEntity
  8
0
  6
Continuous
 62
     7
370
    25
100
AcDbSpline
210
0.0
220
0.0
230
1.0
 70
     8
 71
     3
 72
    14
 73
    10
 74
     0
 42
0.000000001
 43
0.00000001
 40
0.0
 40
0.0
 40
0.0
 40
0.0
 40
0.2500000000000001
 40
0.2500000000000001
 40
0.5000000000000002
 40
0.5000000000000002
 40
0.7500000000000001
 40
0.7500000000000001
 40
1.0
 40
1.0
 40
1.0
 40
1.0
 10
281.0956989748441
 20
27.76696226529242
 30
0.0
 10
280.9858600259021
 20
27.77900026607583
 30
0.0
 10
280.8826756240161
 20
27.78718970118172
 30
0.0
 10
280.6737388454937
 20
27.80505372423739
 30
0.0
 10
280.5683274938833
 20
27.81453091772147
 30
0.0
 10
280.3571733653239
 20
27.83367641052033
 30
0.0
 10
280.2515391314311
 20
27.8432821761028
 30
0.0
 10
280.0409075713646
 20
27.86212586956493
 30
0.0
 10
279.9357389044321
 20
27.87146277190375
 30
0.0
 10
279.8304532593447
 20
27.88086720024682
 30
0.0
  0
LINE
  5
1F0
330
1F
100
AcDbEntity
  8
0
  6
Continuous
 62
     7
370
    25
100
AcDbLine
 10
260.446599493
 20
28.8557410692
 30
0.0
 11
260.446599493
 21
28.7976811343
 31
0.0
  0
LINE
  5
1F1
330
1F
100
AcDbEntity
  8
0
  6
Continuous
 62
     7
370
    25
100
AcDbLine
 10
260.446599493
 20
28.5248638553
 30
0.0
 11
260.446599493
 21
27.5519066055
 31
0.0
  0
LINE
  5
1F2
330
1F
100
AcDbEntity
  8
0
  6
Continuous
 62
     7
370
    25
100
AcDbLine
 10
260.446599493
 20
28.9392969294
 30
0.0
 11
260.446599493
 21
28.8557410692
 31
0.0
  0
LINE
  5
1F3
330
1F
100
AcDbEntity
  8
0
  6
Continuous
 62
     7
370
    25
100
AcDbLine
 10
260.446599493
 20
27.5519066055
 30
0.0
 11
260.446599493
 21
26.4039109885
 31
0.0
  0
LINE
  5
1F4
330
1F
100
AcDbEntity
  8
0
  6
Continuous
 62
     7
370
    25
100
AcDbLine
 10
260.446599493
 20
28.8557410692
 30
0.0
 11
260.438642168
 21
28.7640027666
 31
0.0
  0
ARC
  5
1F5
330
1F
100
AcDbEntity
  8
0
  6
Continuous
 62
     7
370
    25
100
AcDbCircle
 10
266.8397127578
 20
28.1930826942
 30
0.0
 40
6.425185132992345
100
AcDbArc
 50
176.9225000953
 51
185.727139394
  0
LINE
  5
1F6
330
1F
100
AcDbEntity
  8
0
  6
Continuous
 62
     7
370
    25
100
AcDbLine
 10
260.0470845439
 20
28.4956899448
 30
0.0
 11
260.0717936607
 21
29.0797484121
 31
0.0
  0
ARC
  5
1F7
330
1F
100
AcDbEntity
  8
0
  6
Continuous
 62
     7
370
    25
100
AcDbCircle
 10
264.7810796326
 20
28.3857461917
 30
0.0
 40
4.735271600305406
100
AcDbArc
 50
178.6695844123
 51
203.7430473282
  0
LINE
  5
1F8
330
1F
100
AcDbEntity
  8
0
  6
Continuous
 62
     7
370
    25
100
AcDbLine
 10
252.6746492743
 20
43.1305801754
 30
0.0
 11
252.6945287573
 21
43.1232458508
 31
0.0
  0
LINE
  5
1F9
330
1F
100
AcDbEntity
  8
0
  6
Continuous
 62
     7
370
    25
100
AcDbLine
 10
248.6251055221
 20
36.1158048152
 30
0.0
 11
248.6004585719
 21
36.1371110395
 31
0.0
  0
LINE
  5
1FA
330
1F
100
AcDbEntity
  8
0
  6
Continuous
 62
     7
370
    25
100
AcDbLine
 10
259.0485202697
 20
29.33195809
 30
0.0
 11
258.8743059421
 21
29.4875437579
 31
0.0
  0
LINE
  5
1FB
330
1F
100
AcDbEntity
  8
0
  6
Continuous
 62
     7
370
    25
100
AcDbLine
 10
259.6311695646
 20
28.9956018116
 30
0.0
 11
259.0485202697
 21
29.33195809
 31
0.0
  0
ARC
  5
1FC
330
1F
100
AcDbEntity
  8
0
  6
Continuous
 62
     7
370
    25
100
AcDbCircle
 10
276.4176517036
 20
29.0171664713
 30
0.0
 40
2.109974222779273
100
AcDbArc
 50
320.8341331313
 51
349.6393655616
  0
LINE
  5
1FD
330
1F
100
AcDbEntity
  8
0
  6
Continuous
 62
     7
370
    25
100
AcDbLine
 10
279.8304590941
 20
24.3573185524
 30
0.0
 11
281.0941177599
 21
25.9292979181
 31
0.0
  0
LINE
  5
1FE
330
1F
100
AcDbEntity
  8
0
  6
Continuous
 62
     7
370
    25
100
AcDbLine
 10
276.7588815951
 20
26.0740091215
 30
0.0
 11
278.053558761
 21
27.684575266
 31
0.0
  0
LINE
  5
1FF
330
1F
100
AcDbEntity
  8
0
  6
Continuous
 62
     7
370
    25
100
AcDbLine
 10
260.4174858
 20
24.3446514714
 30
0.0
 11
261.1486274643
 21
23.9225723728
 31
0.0
  0
LINE
  5
200
330
1F
100
AcDbEntity
  8
0
  6
Continuous
 62
     7
370
    25
100
AcDbLine
 10
261.1486274643
 20
23.9225723728
 30
0.0
 11
261.1304242404
 21
23.8752249236
 31
0.0
  0
SPLINE
  5
201
330
1F
100
AcDbEntity
  8
0
  6
Continuous
 62
     7
370
    25
100
AcDbSpline
210
0.0
220
0.0
230
1.0
 70
     8
 71
     3
 72
    14
 73
    10
 74
     0
 42
0.000000001
 43
0.00000001
 40
0.0
 40
0.0
 40
0.0
 40
0.0
 40
0.25
 40
0.25
 40
0.5
 40
0.5
 40
0.75
 40
0.75
 40
1.0
 40
1.0
 40
1.0
 40
1.0
 10
261.1304244443567
 20
23.87522506503162
 30
0.0
 10
261.1237545071302
 20
23.85787601778899
 30
0.0
 10
261.1156364099638
 20
23.84178388601065
 30
0.0
 10
261.0963176183357
 20
23.8122751309418
 30
0.0
 10
261.0850300792137
 20
23.79884728827095
 30
0.0
 10
261.0598599398444
 20
23.77742672600591
 30
0.0
 10
261.0457946694376
 20
23.76924431426205
 30
0.0
 10
261.0159214737542
 20
23.76227139685729
 30
0.0
 10
261.0005115236708
 20
23.76385032045125
 30
0.0
 10
260.9869340425919
 20
23.77168843343918
 30
0.0
  0
LINE
  5
202
330
1F
100
AcDbEntity
  8
0
  6
Continuous
 62
     7
370
    25
100
AcDbLine
 10
260.9869339776
 20
23.7716884829
 30
0.0
 11
260.4047251831
 21
24.1077904658
 31
0.0
  0
SPLINE
  5
203
330
1F
100
AcDbEntity
  8
0
  6
Continuous
 62
     7
370
    25
100
AcDbSpline
210
0.0
220
0.0
230
1.0
 70
     8
 71
     3
 72
     8
 73
     4
 74
     0
 42
0.000000001
 43
0.00000001
 40
0.0
 40
0.0
 40
0.0
 40
0.0
 40
0.0011862984959113
 40
0.0011862984959113
 40
0.0011862984959113
 40
0.0011862984959113
 10
260.4047251595672
 20
24.10779046747639
 30
0.0
 10
260.4088104106942
 20
24.18675002823197
 30
0.0
 10
260.4130608133243
 20
24.26570436302269
 30
0.0
 10
260.4174856930273
 20
24.34465136196282
 30
0.0
  0
LWPOLYLINE
  5
204
330
1F
100
AcDbEntity
  8
0
  6
Continuous
 62
     7
370
    25
100
AcDbPolyline
 90
       12
 70
   128
 43
0.0
 10
265.1992346342
 20
20.9968368433
 10
264.7439807084
 20
20.9506735318
 10
264.2175236334
 20
20.9551708783
 10
263.7158583884
 20
21.0248825878
 10
263.2426665005
 20
21.1592960668
 10
262.8014211336
 20
21.3574255818
 10
262.3953604826
 20
21.6178163676
 10
262.0274653835
 20
21.9385581658
 10
261.700434815
 20
22.3172957217
 10
261.4166700939
 20
22.7512503827
 10
261.1782532744
 20
23.237237135
 10
260.9975655201
 20
23.7366696901
  0
LINE
  5
205
330
1F
100
AcDbEntity
  8
0
  6
Continuous
 62
     7
370
    25
100
AcDbLine
 10
261.1486274643
 20
23.9225723728
 30
0.0
 11
262.174164602
 21
24.5146023607
 31
0.0
  0
SPLINE
  5
206
330
1F
100
AcDbEntity
  8
0
  6
Continuous
 62
     7
370
    25
100
AcDbSpline
210
0.0
220
0.0
230
1.0
 70
     8
 71
     3
 72
     8
 73
     4
 74
     0
 42
0.000000001
 43
0.00000001
 40
0.0
 40
0.0
 40
0.0
 40
0.0
 40
1.0
 40
1.0
 40
1.0
 40
1.0
 10
260.5159330345271
 20
24.54354662379756
 30
0.0
 10
260.4830537622128
 20
24.47725849319618
 30
0.0
 10
260.450240014952
 20
24.41095974306099
 30
0.0
 10
260.4174856930273
 20
24.34465136196282
 30
0.0
  0
LINE
  5
207
330
1F
100
AcDbEntity
  8
0
  6
Continuous
 62
     7
370
    25
100
AcDbLine
 10
260.5355408349
 20
24.5548660525
 30
0.0
 11
260.5159330673
 21
24.5435467292
 31
0.0
  0
SPLINE
  5
208
330
1F
100
AcDbEntity
  8
0
  6
Continuous
 62
     7
370
    25
100
AcDbSpline
210
0.0
220
0.0
230
1.0
 70
     8
 71
     3
 72
    12
 73
     8
 74
     0
 42
0.000000001
 43
0.00000001
 40
0.0
 40
0.0
 40
0.0
 40
0.0
 40
0.249999999999997
 40
0.249999999999997
 40
0.499999999999994
 40
0.499999999999994
 40
1.0
 40
1.0
 40
1.0
 40
1.0
 10
260.5402537096409
 20
24.68821194858202
 30
0.0
 10
260.5552932234707
 20
24.6795298220523
 30
0.0
 10
260.5673642471693
 20
24.66880907382303
 30
0.0
 10
260.5828001410416
 20
24.64575959189104
 30
0.0
 10
260.5863439351176
 20
24.63334034166249
 30
0.0
 10
260.5843249615822
 20
24.59646475110036
 30
0.0
 10
260.5656440467521
 20
24.57224418031042
 30
0.0
 10
260.5355408114728
 20
24.55486595248965
 30
0.0
  0
LINE
  5
209
330
1F
100
AcDbEntity
  8
0
  6
Continuous
 62
     7
370
    25
100
AcDbLine
 10
260.2262983438
 20
24.869454615
 30
0.0
 11
260.5402537745
 21
24.6882120027
 31
0.0
  0
SPLINE
  5
20A
330
1F
100
AcDbEntity
  8
0
  6
Continuous
 62
     7
370
    25
100
AcDbSpline
210
0.0
220
0.0
230
1.0
 70
     8
 71
     3
 72
    10
 73
     6
 74
     0
 42
0.000000001
 43
0.00000001
 40
0.0
 40
0.0
 40
0.0
 40
0.0
 40
0.5
 40
0.5
 40
1.0
 40
1.0
 40
1.0
 40
1.0
 10
259.9953112306462
 20
24.86673385120592
 30
0.0
 10
260.0257661867817
 20
24.88431512315501
 30
0.0
 10
260.0671692990554
 20
24.89490978962652
 30
0.0
 10
260.1529674158897
 20
24.89644101778146
 30
0.0
 10
260.195939513657
 20
24.8869803030201
 30
0.0
 10
260.226298298794
 20
24.86945454940666
 30
0.0
  0
LINE
  5
20B
330
1F
100
AcDbEntity
  8
0
  6
Continuous
 62
     7
370
    25
100
AcDbLine
 10
259.9757034559
 20
24.8554146456
 30
0.0
 11
259.9953112235
 21
24.8667339689
 31
0.0
  0
SPLINE
  5
20C
330
1F
100
AcDbEntity
  8
0
  6
Continuous
 62
     7
370
    25
100
AcDbSpline
210
0.0
220
0.0
230
1.0
 70
     8
 71
     3
 72
     8
 73
     4
 74
     0
 42
0.000000001
 43
0.00000001
 40
0.0
 40
0.0
 40
0.0
 40
0.0
 40
1.0
 40
1.0
 40
1.0
 40
1.0
 10
259.6311694238387
 20
24.79858208197862
 30
0.0
 10
259.7460313543976
 20
24.81749074954342
 30
0.0
 10
259.8608766018317
 20
24.83643372262452
 30
0.0
 10
259.9757034537005
 20
24.85541452251384
 30
0.0
  0
LINE
  5
20D
330
1F
100
AcDbEntity
  8
0
  6
Continuous
 62
     7
370
    25
100
AcDbLine
 10
259.0485202697
 20
25.1349384503
 30
0.0
 11
259.6311695646
 21
24.7985821719
 31
0.0
  0
LINE
  5
20E
330
1F
100
AcDbEntity
  8
0
  6
Continuous
 62
     7
370
    25
100
AcDbLine
 10
259.0485202697
 20
25.1349384503
 30
0.0
 11
260.3051780806
 21
25.8603915628
 31
0.0
  0
ARC
  5
20F
330
1F
100
AcDbEntity
  8
0
  6
Continuous
 62
     7
370
    25
100
AcDbCircle
 10
264.2280121431
 20
25.0870037083
 30
0.0
 40
3.946692508024804
100
AcDbArc
 50
194.3656903365
 51
238.0779012285
  0
ELLIPSE
  5
210
330
1F
100
AcDbEntity
  8
0
  6
Continuous
 62
     7
370
    25
100
AcDbEllipse
 10
260.1880210731
 20
26.2546414205
 30
0.0
 11
-3.002985187094964E-5
 21
0.4267244807413597
 31
0.0
210
0.0
220
0.0
230
1.0
 40
0.7174342186
 41
3.534193645557683
 42
5.104989972352453
  0
ARC
  5
211
330
1F
100
AcDbEntity
  8
0
  6
Continuous
 62
     7
370
    25
100
AcDbCircle
 10
264.2459067391
 20
26.0423973752
 30
0.0
 40
4.432106054758109
100
AcDbArc
 50
195.5342643695
 51
215.7345697398
  0
ARC
  5
212
330
1F
100
AcDbEntity
  8
0
  6
Continuous
 62
     7
370
    25
100
AcDbCircle
 10
263.214722109
 20
25.5688710757
 30
0.0
 40
3.839595800478276
100
AcDbArc
 50
194.065870688
 51
246.8527503441
  0
SPLINE
  5
213
330
1F
100
AcDbEntity
  8
0
  6
Continuous
 62
     7
370
    25
100
AcDbSpline
210
0.0
220
0.0
230
1.0
 70
     8
 71
     3
 72
     8
 73
     4
 74
     0
 42
0.000000001
 43
0.00000001
 40
0.0000000000000004
 40
0.0000000000000004
 40
0.0000000000000004
 40
0.0000000000000004
 40
0.0011862984959128
 40
0.0011862984959128
 40
0.0011862984959128
 40
0.0011862984959128
 10
259.6311694238389
 20
24.79858208197823
 30
0.0
 10
259.5843092362409
 20
24.74413246484432
 30
0.0
 10
259.5373333360661
 20
24.68984303477915
 30
0.0
 10
259.4902489889282
 20
24.63570632378136
 30
0.0
  0
LINE
  5
214
330
1F
100
AcDbEntity
  8
0
  6
Continuous
 62
     7
370
    25
100
AcDbLine
 10
258.8743059421
 20
25.0343457673
 30
0.0
 11
259.0485202697
 21
25.1349384503
 31
0.0
  0
LINE
  5
215
330
1F
100
AcDbEntity
  8
0
  6
Continuous
 62
     7
370
    25
100
AcDbLine
 10
259.4902490742
 20
24.6357062865
 30
0.0
 11
258.9151112038
 21
24.9677263118
 31
0.0
  0
SPLINE
  5
216
330
1F
100
AcDbEntity
  8
0
  6
Continuous
 62
     7
370
    25
100
AcDbSpline
210
0.0
220
0.0
230
1.0
 70
     8
 71
     3
 72
    10
 73
     6
 74
     0
 42
0.000000001
 43
0.00000001
 40
0.0
 40
0.0
 40
0.0
 40
0.0
 40
0.5
 40
0.5
 40
1.0
 40
1.0
 40
1.0
 40
1.0
 10
258.9151111737153
 20
24.96772631725946
 30
0.0
 10
258.9045474020031
 20
24.97382465286222
 30
0.0
 10
258.8956340403194
 20
24.98336762182713
 30
0.0
 10
258.8819911863908
 20
25.00653805852084
 30
0.0
 10
258.8772311743688
 20
25.02009747111319
 30
0.0
 10
258.8743061775862
 20
25.03434588809493
 30
0.0
  0
ARC
  5
217
330
1F
100
AcDbEntity
  8
0
  6
Continuous
 62
     7
370
    25
100
AcDbCircle
 10
262.7297010788
 20
25.9374545806
 30
0.0
 40
3.934043958786304
100
AcDbArc
 50
194.9325993597
 51
238.1123668138
  0
ELLIPSE
  5
218
330
1F
100
AcDbEntity
  8
0
  6
Continuous
 62
     7
370
    25
100
AcDbEllipse
 10
260.1637570043
 20
26.2406295183
 30
0.0
 11
0.1300037894604884
 21
0.4852718104954654
 31
0.0
210
0.0
220
0.0
230
1.0
 40
0.5176380889
 41
3.61917435134792
 42
5.189970678142513
  0
SPLINE
  5
219
330
1F
100
AcDbEntity
  8
0
  6
Continuous
 62
     7
370
    25
100
AcDbSpline
210
0.0
220
0.0
230
1.0
 70
     8
 71
     3
 72
    12
 73
     8
 74
     0
 42
0.000000001
 43
0.00000001
 40
0.0
 40
0.0
 40
0.0
 40
0.0
 40
0.5
 40
0.5
 40
0.75
 40
0.75
 40
1.0
 40
1.0
 40
1.0
 40
1.0
 10
270.7772998399363
 20
39.04235883866325
 30
0.0
 10
270.8025237908282
 20
39.05692031556335
 30
0.0
 10
270.8344969721206
 20
39.06765284030399
 30
0.0
 10
270.8876886474432
 20
39.0731555769082
 30
0.0
 10
270.905957115088
 20
39.07310712338863
 30
0.0
 10
270.941012242543
 20
39.06799737073997
 30
0.0
 10
270.9573098068847
 20
39.06286137647807
 30
0.0
 10
270.9699152798201
 20
39.05558439184741
 30
0.0
  0
LINE
  5
21A
330
1F
100
AcDbEntity
  8
0
  6
Continuous
 62
     7
370
    25
100
AcDbLine
 10
270.9699154095
 20
39.0555845405
 30
0.0
 11
271.2337827352
 21
38.9032571757
 31
0.0
  0
LINE
  5
21B
330
1F
100
AcDbEntity
  8
0
  6
Continuous
 62
     7
370
    25
100
AcDbLine
 10
271.9017295465
 20
38.0733386891
 30
0.0
 11
272.4595293889
 21
38.1956486944
 31
0.0
  0
LINE
  5
21C
330
1F
100
AcDbEntity
  8
0
  6
Continuous
 62
     7
370
    25
100
AcDbLine
 10
272.4595293889
 20
38.1956486944
 30
0.0
 11
273.0417381834
 21
37.8595467115
 31
0.0
  0
SPLINE
  5
21D
330
1F
100
AcDbEntity
  8
0
  6
Continuous
 62
     7
370
    25
100
AcDbSpline
210
0.0
220
0.0
230
1.0
 70
     8
 71
     3
 72
    12
 73
     8
 74
     0
 42
0.000000001
 43
0.00000001
 40
0.0
 40
0.0
 40
0.0
 40
0.0
 40
0.250000000000004
 40
0.250000000000004
 40
0.500000000000008
 40
0.500000000000008
 40
1.0
 40
1.0
 40
1.0
 40
1.0
 10
273.0417381486968
 20
37.8595465080271
 30
0.0
 10
273.0544006008968
 20
37.85223662996712
 30
0.0
 10
273.0633203117009
 20
37.84270698564781
 30
0.0
 10
273.0720485399377
 20
37.82269422466873
 30
0.0
 10
273.0721608448681
 20
37.81213774130318
 30
0.0
 10
273.0628138952198
 20
37.7817076493052
 30
0.0
 10
273.0439985340979
 20
37.76288242732504
 30
0.0
 10
273.0188283362976
 20
37.74835198142426
 30
0.0
  0
LINE
  5
21E
330
1F
100
AcDbEntity
  8
0
  6
Continuous
 62
     7
370
    25
100
AcDbLine
 10
270.7772999325
 20
39.0423589895
 30
0.0
 11
270.7405837054
 21
39.0211631628
 31
0.0
  0
ARC
  5
21F
330
1F
100
AcDbEntity
  8
0
  6
Continuous
 62
     7
370
    25
100
AcDbCircle
 10
270.2152246784
 20
34.8767353328
 30
0.0
 40
4.109299491922674
100
AcDbArc
 50
20.8369564519
 51
46.5411513136
  0
LWPOLYLINE
  5
220
330
1F
100
AcDbEntity
  8
0
  6
Continuous
 62
     7
370
    25
100
AcDbPolyline
 90
        3
 70
   128
 43
0.0
 10
271.9017294148
 20
38.3457346037
 10
271.917111434
 20
38.3267489647
 10
272.0692136151
 20
38.1242365045
  0
LWPOLYLINE
  5
221
330
1F
100
AcDbEntity
  8
0
  6
Continuous
 62
     7
370
    18
100
AcDbPolyline
 90
       32
 70
   128
 43
0.0
 10
273.5733569302
 20
36.4108972176
 10
273.4025136261
 20
36.4205711271
 10
272.8937353101
 20
36.4052322695
 10
272.3656429374
 20
36.3257290386
 10
271.8223690064
 20
36.1826840176
 10
271.2681656074
 20
35.9772171216
 10
270.7073701449
 20
35.7109349347
 10
270.1443715546
 20
35.3859227666
 10
269.5835760921
 20
35.0047242945
 10
269.0293726931
 20
34.570321566
 10
268.4860987621
 20
34.0861158577
 10
267.9580063894
 20
33.5558966134
 10
267.4492280734
 20
32.983812531
 10
266.9637461645
 20
32.3743411463
 10
266.5053602011
 20
31.7322535514
 10
266.0776574069
 20
31.0625736357
 10
265.6839852952
 20
30.3705431081
 10
265.3274250642
 20
29.6615781523
 10
265.0107668351
 20
28.941227148
 10
264.7364893695
 20
28.2151279345
 10
264.5067384689
 20
27.4889627933
 10
264.3233132769
 20
26.7684158637
 10
264.1876488935
 20
26.0591258433
 10
264.1008068927
 20
25.3666437075
 10
264.0634674191
 20
24.6963895916
 10
264.0759218128
 20
24.0536084569
 10
264.138073663
 20
23.4433316111
 10
264.2494356466
 20
22.8703347308
 10
264.4091369045
 20
22.3391028035
 10
264.6159272557
 20
21.8537932453
 10
264.8681882613
 20
21.4182041116
 10
264.9061404447
 20
21.3626578618
  0
LWPOLYLINE
  5
222
330
1F
100
AcDbEntity
  8
0
  6
Continuous
 62
     7
370
    18
100
AcDbPolyline
 90
       19
 70
   128
 43
0.0
 10
273.9766495869
 20
20.8929054005
 10
274.1863807345
 20
20.5992049903
 10
274.4384713087
 20
20.3626963883
 10
274.7291354689
 20
20.1869310072
 10
275.0540081188
 20
20.0745485191
 10
275.4082106288
 20
20.0272372292
 10
275.7864236716
 20
20.0457067682
 10
276.1829674324
 20
20.1296805565
 10
276.5918867593
 20
20.2778968984
 10
277.0070406586
 20
20.4881302293
 10
277.422194558
 20
20.7572233879
 10
277.8311138848
 20
21.0811352512
 10
278.2276576457
 20
21.4550011438
 10
278.6058706885
 20
21.873207089
 10
278.9600731985
 20
22.3294718922
 10
279.2849458483
 20
22.8169443578
 10
279.5756100086
 20
23.328303435
 10
279.8277005828
 20
23.8558696187
 10
280.0374317304
 20
24.3917204576
  0
LWPOLYLINE
  5
223
330
1F
100
AcDbEntity
  8
0
  6
Continuous
 62
     7
370
    18
100
AcDbPolyline
 90
       19
 70
   128
 43
0.0
 10
280.0373279438
 20
27.9223247263
 10
279.8275865229
 20
28.2159781408
 10
279.5754927877
 20
28.4524452219
 10
279.2848320518
 20
28.6281748609
 10
278.9599683582
 20
28.7405281464
 10
278.6057802045
 20
28.7878188264
 10
278.2275858644
 20
28.7693360536
 10
277.8310641647
 20
28.6853576624
 10
277.4221691382
 20
28.5371443981
 10
277.0070406586
 20
28.3269220915
 10
276.5919121791
 20
28.0578472577
 10
276.1830171525
 20
27.7339603734
 10
275.7864954529
 20
27.360124555
 10
275.4083011128
 20
26.9419534372
 10
275.0541129591
 20
26.4857258193
 10
274.7292492654
 20
25.9982928969
 10
274.4385885296
 20
25.4869735156
 10
274.1864947944
 20
24.9594452032
 10
273.9767533735
 20
24.4236294987
  0
ARC
  5
224
330
1F
100
AcDbEntity
  8
0
  6
Continuous
 62
     7
370
    18
100
AcDbCircle
 10
278.3351401247
 20
27.0581710812
 30
0.0
 40
1.640898362068653
100
AcDbArc
 50
31.8660604527
 51
56.7616608318
  0
LINE
  5
225
330
1F
100
AcDbEntity
  8
0
  6
Continuous
 62
     7
370
    18
100
AcDbLine
 10
272.7785419145
 20
21.1288181636
 30
0.0
 11
272.8138973252
 21
20.9968728995
 31
0.0
  0
LWPOLYLINE
  5
226
330
1F
100
AcDbEntity
  8
0
  6
Continuous
 62
     7
370
    18
100
AcDbPolyline
 90
       16
 70
   128
 43
0.0
 10
274.5658058943
 20
20.5053423356
 10
274.7790046738
 20
20.4032213659
 10
275.1108319488
 20
20.3135489172
 10
275.4707591862
 20
20.2907420182
 10
275.8530230021
 20
20.3351663459
 10
276.2515018301
 20
20.4461102254
 10
276.6598147362
 20
20.6217972625
 10
277.0714232954
 20
20.8594138259
 10
277.4797362015
 20
21.1551548355
 10
277.8782150295
 20
21.504284818
 10
278.2604788454
 20
21.9012128976
 10
278.6204060829
 20
22.3395829395
 10
278.9522333578
 20
22.812375005
 10
279.250646743
 20
23.3120182721
 10
279.5108679712
 20
23.8305116748
 10
279.7287297726
 20
24.3595522618
  0
LINE
  5
227
330
1F
100
AcDbEntity
  8
0
  6
Continuous
 62
     7
370
    18
100
AcDbLine
 10
272.4404283054
 20
21.3240069955
 30
0.0
 11
272.7785419145
 21
21.1288181636
 31
0.0
  0
LWPOLYLINE
  5
228
330
1F
100
AcDbEntity
  8
0
  6
Continuous
 62
     7
370
    18
100
AcDbPolyline
 90
       19
 70
   128
 43
0.0
 10
260.9869339776
 20
28.2797267986
 10
261.1848545245
 20
29.0582924928
 10
261.4327438482
 20
29.8429571254
 10
261.7286705694
 20
30.6276041706
 10
262.0703276748
 20
31.4061178981
 10
262.4550514837
 20
32.1724294555
 10
262.8798437746
 20
32.9205661444
 10
263.3413933858
 20
33.6446955253
 10
263.8361025569
 20
34.3391743884
 10
264.3601148513
 20
34.9985885998
 10
264.9093459759
 20
35.61779827
 10
265.4795146012
 20
36.1919768384
 10
266.0661764736
 20
36.7166484094
 10
266.6647588578
 20
37.1877240609
 10
267.2705956695
 20
37.601531252
 10
267.8789646836
 20
37.9548444281
 10
268.4851237211
 20
38.2449095616
 10
269.0843479886
 20
38.4694663157
 10
269.4023633462
 20
38.5625782745
  0
LINE
  5
229
330
1F
100
AcDbEntity
  8
0
  6
Continuous
 62
     7
370
    18
100
AcDbLine
 10
261.1304242404
 20
28.1459224668
 30
0.0
 11
261.1624948311
 21
28.2915093176
 31
0.0
  0
LWPOLYLINE
  5
22A
330
1F
100
AcDbEntity
  8
0
  6
Continuous
 62
     7
370
    18
100
AcDbPolyline
 90
        9
 70
   128
 43
0.0
 10
267.7596986265
 20
37.6962427005
 10
268.1639188349
 20
37.9102618764
 10
268.7413560135
 20
38.1673780304
 10
269.3110554916
 20
38.3634147971
 10
269.8688625779
 20
38.4969422499
 10
270.4107095747
 20
38.5669864654
 10
270.9326450831
 20
38.5730373155
 10
271.4308629793
 20
38.5150505943
 10
271.9017296782
 20
38.3934491559
  0
LWPOLYLINE
  5
22B
330
1F
100
AcDbEntity
  8
0
  6
Continuous
 62
     7
370
    18
100
AcDbPolyline
 90
       20
 70
   128
 43
0.0
 10
262.462847597
 20
28.7086294872
 10
262.6619861878
 20
29.4091782665
 10
262.9089841057
 20
30.1125184728
 10
263.2015490888
 20
30.8121257018
 10
263.5369687241
 20
31.5015114823
 10
263.9121309936
 20
32.1742806134
 10
264.3235564115
 20
32.8241935194
 10
264.7674291076
 20
33.445222521
 10
265.2396313348
 20
34.0316055211
 10
265.735783772
 20
34.5779057731
 10
266.2512842469
 20
35.0790543109
 10
266.7813511337
 20
35.5304035962
 10
267.3210679694
 20
35.9277666582
 10
267.8654285647
 20
36.2674589538
 10
268.4093837929
 20
36.5463284198
 10
268.9478882152
 20
36.7617890812
 10
269.4759470022
 20
36.9118420547
 10
269.9886620972
 20
36.9950955064
 10
270.4812778871
 20
37.0107776325
 10
270.8272863912
 20
36.9791967541
  0
ARC
  5
22C
330
1F
100
AcDbEntity
  8
0
  6
Continuous
 62
     7
370
    18
100
AcDbCircle
 10
265.8830611194
 20
25.6863553079
 30
0.0
 40
3.612221625534897
100
AcDbArc
 50
198.7651910149
 51
216.3742314258
  0
LWPOLYLINE
  5
22D
330
1F
100
AcDbEntity
  8
0
  6
Continuous
 62
     7
370
    18
100
AcDbPolyline
 90
       25
 70
   128
 43
0.0
 10
262.174164602
 20
28.7116220004
 10
262.3662857426
 20
29.4027801777
 10
262.6041493847
 20
30.0972861833
 10
262.8857082452
 20
30.7891617541
 10
263.2085394071
 20
31.4724520849
 10
263.5698627588
 20
32.1412744954
 10
263.9665689168
 20
32.7898725733
 10
264.395242669
 20
33.4126625602
 10
264.8521940591
 20
34.004283843
 10
265.3334897322
 20
34.5596435146
 10
265.8349865216
 20
35.0739613137
 10
266.3523677996
 20
35.5428100784
 10
266.8811799615
 20
35.9621538417
 10
267.4168708677
 20
36.3283827996
 10
267.9548293896
 20
36.6383446577
 10
268.4904248069
 20
36.8893710251
 10
269.0190467152
 20
37.0793016692
 10
269.5361446874
 20
37.2065007195
 10
270.0372676869
 20
37.2698739452
 10
270.5181021154
 20
37.2688755108
 10
270.9745087575
 20
37.2035147019
 10
271.4025589998
 20
37.0743531088
 10
271.7985684177
 20
36.8825033303
 10
272.1591275944
 20
36.6296163471
 10
272.4333913622
 20
36.3704494977
  0
ARC
  5
22E
330
1F
100
AcDbEntity
  8
0
  6
Continuous
 62
     7
370
    18
100
AcDbCircle
 10
270.3920596908
 20
34.8538204439
 30
0.0
 40
3.908737364341913
100
AcDbArc
 50
22.5029150287
 51
47.7764604863
  0
LWPOLYLINE
  5
22F
330
1F
100
AcDbEntity
  8
0
  6
Continuous
 62
     7
370
    18
100
AcDbPolyline
 90
       19
 70
   128
 43
0.0
 10
258.9151112038
 20
29.4757646276
 10
259.1130317507
 20
30.2543303217
 10
259.3609210744
 20
31.0389949544
 10
259.6568477955
 20
31.8236419996
 10
259.9985049009
 20
32.602155727
 10
260.3832287098
 20
33.3684672844
 10
260.8080210008
 20
34.1166039734
 10
261.269570612
 20
34.8407333542
 10
261.7642797831
 20
35.5352122173
 10
262.2882920775
 20
36.1946264288
 10
262.8375232021
 20
36.8138360989
 10
263.4076918273
 20
37.3880146674
 10
263.9943536998
 20
37.9126862384
 10
264.592936084
 20
38.3837618899
 10
265.1987728957
 20
38.797569081
 10
265.8071419098
 20
39.1508822571
 10
266.4133009473
 20
39.4409473906
 10
267.0125252148
 20
39.6655041447
 10
267.3305831144
 20
39.7586272782
  0
LWPOLYLINE
  5
230
330
1F
100
AcDbEntity
  8
0
  6
Continuous
 62
     7
370
    18
100
AcDbPolyline
 90
       19
 70
   128
 43
0.0
 10
260.2262983438
 20
29.0664742547
 10
260.4167715427
 20
29.8148927047
 10
260.6566529651
 20
30.5692290036
 10
260.9439617094
 20
31.3232527126
 10
261.2763249079
 20
32.0707364717
 10
261.6509972203
 20
32.8055067967
 10
262.0648842776
 20
33.5214947235
 10
262.514567707
 20
34.2127867571
 10
262.9963335809
 20
34.8736744511
 10
263.5062029735
 20
35.4986979033
 10
264.0399643607
 20
36.0826954867
 10
264.5932098409
 20
36.6208442268
 10
265.1613697737
 20
37.1086992668
 10
265.7397517661
 20
37.5422315821
 10
266.323578802
 20
37.9178603351
 10
266.9080289198
 20
38.2324824721
 10
267.4882750871
 20
38.4835006099
 10
268.0595249766
 20
38.6688411305
 10
268.232648952
 20
38.7123796374
  0
LWPOLYLINE
  5
231
330
1F
100
AcDbEntity
  8
0
  6
Continuous
 62
     7
370
    18
100
AcDbPolyline
 90
       21
 70
   128
 43
0.0
 10
259.9953112235
 20
29.0637536086
 10
260.1852064836
 20
29.8210427604
 10
260.4249946562
 20
30.5846758789
 10
260.7127138054
 20
31.3484070103
 10
261.0460110834
 20
32.1059908458
 10
261.4221611697
 20
32.8512316935
 10
261.8380873442
 20
33.5780342759
 10
262.2903880929
 20
34.2804555905
 10
262.7753650299
 20
34.9527508391
 10
263.2890513464
 20
35.5894214869
 10
263.8272463187
 20
36.1852610387
 10
264.3855484988
 20
36.7353967091
 10
264.9593919341
 20
37.2353291916
 10
265.544083639
 20
37.680970716
 10
266.1348419052
 20
38.0686750739
 10
266.7268354693
 20
38.3952730047
 10
267.315222893
 20
38.6580937132
 10
267.8951923069
 20
38.854986596
 10
268.4620005112
 20
38.9843419892
 10
269.0110120771
 20
39.0451021816
 10
269.5310965486
 20
39.0373184082
  0
LINE
  5
232
330
1F
100
AcDbEntity
  8
0
  6
Continuous
 62
     7
370
    18
100
AcDbLine
 10
262.174164602
 20
24.5146023607
 30
0.0
 11
262.4052852752
 21
24.6480254853
 31
0.0
  0
ARC
  5
233
330
1F
100
AcDbEntity
  8
0
  6
Continuous
 62
     7
370
    18
100
AcDbCircle
 10
263.1737846947
 20
25.7491611746
 30
0.0
 40
1.342792301137421
100
AcDbArc
 50
235.0882233321
 51
288.6162626671
  0
ARC
  5
234
330
1F
100
AcDbEntity
  8
0
  6
Continuous
 62
     7
370
    18
100
AcDbCircle
 10
263.3121920704
 20
25.9569344488
 30
0.0
 40
1.029677174670616
100
AcDbArc
 50
232.6935913172
 51
300.1435831176
  0
ARC
  5
235
330
1F
100
AcDbEntity
  8
0
  6
Continuous
 62
     7
370
    18
100
AcDbCircle
 10
262.0740440362
 20
25.1658663985
 30
0.0
 40
0.6147194236509236
100
AcDbArc
 50
302.6053519586
 51
357.394632491
  0
LINE
  5
236
330
1F
100
AcDbEntity
  8
0
  6
Continuous
 62
     7
370
    18
100
AcDbLine
 10
281.200183992
 20
25.8381731422
 30
0.0
 11
281.0941177599
 21
25.9292979181
 31
0.0
  0
LINE
  5
237
330
1F
100
AcDbEntity
  8
0
  6
Continuous
 62
     7
370
    18
100
AcDbLine
 10
260.4708635654
 20
26.4179228928
 30
0.0
 11
262.6881280341
 21
25.1379233606
 31
0.0
  0
LINE
  5
238
330
1F
100
AcDbEntity
  8
0
  6
Continuous
 62
     7
370
    18
100
AcDbLine
 10
260.446599493
 20
26.4039109885
 30
0.0
 11
260.4708635654
 21
26.4179228928
 31
0.0
  0
LINE
  5
239
330
1F
100
AcDbEntity
  8
0
  6
Continuous
 62
     7
370
    18
100
AcDbLine
 10
260.4147800711
 20
28.2834238352
 30
0.0
 11
260.4196859643
 21
28.5404012004
 31
0.0
  0
LWPOLYLINE
  5
23A
330
1F
100
AcDbEntity
  8
0
  6
Continuous
 62
     7
370
    18
100
AcDbPolyline
 90
        3
 70
   128
 43
0.0
 10
260.4288729236
 20
28.7221134405
 10
260.4401208638
 20
28.8750701039
 10
260.4465998881
 20
28.9481638963
  0
LINE
  5
23B
330
1F
100
AcDbEntity
  8
0
  6
Continuous
 62
     7
370
    18
100
AcDbLine
 10
260.4149607757
 20
28.2347522683
 30
0.0
 11
260.4147800711
 21
28.2834238352
 31
0.0
  0
LWPOLYLINE
  5
23C
330
1F
100
AcDbEntity
  8
0
  6
Continuous
 62
     7
370
    18
100
AcDbPolyline
 90
       18
 70
   128
 43
0.0
 10
247.980798483
 20
37.8399464349
 10
248.0064867237
 20
38.2979034849
 10
248.0830933624
 20
38.777347503
 10
248.2092509972
 20
39.2697225355
 10
248.3827084596
 20
39.7662422912
 10
248.600370327
 20
40.2580462232
 10
248.8583526355
 20
40.7363581175
 10
249.1520516322
 20
41.1926426664
 10
249.4762260932
 20
41.6187576294
 10
249.8250912317
 20
42.0070983879
 10
250.192421563
 20
42.3507353518
 10
250.5716619682
 20
42.6435363261
 10
250.9560449721
 20
42.8802761922
 10
251.3387112327
 20
43.056730191
 10
251.712832047
 20
43.1697498152
 10
252.0717312306
 20
43.2173179596
 10
252.4090041418
 20
43.1985856932
 10
252.6746492743
 20
43.1305801754
  0
ARC
  5
23D
330
1F
100
AcDbEntity
  8
0
  6
Continuous
 62
     7
370
    18
100
AcDbCircle
 10
250.1400745239
 20
37.6615402766
 30
0.0
 40
2.166633743462601
100
AcDbArc
 50
175.2767713477
 51
224.7160200025
  0
LINE
  5
23E
330
1F
100
AcDbEntity
  8
0
  6
Continuous
 62
     7
370
    18
100
AcDbLine
 10
278.053558761
 20
27.684575266
 30
0.0
 11
281.0941177599
 21
25.9292979181
 31
0.0
  0
LINE
  5
23F
330
1F
100
AcDbEntity
  8
0
  6
Continuous
 62
     7
370
    18
100
AcDbLine
 10
260.9975655201
 20
23.7366696901
 30
0.0
 11
260.9869339776
 21
23.7716884829
 31
0.0
  0
LWPOLYLINE
  5
240
330
1F
100
AcDbEntity
  8
0
  6
Continuous
 62
     7
370
    18
100
AcDbPolyline
 90
       12
 70
   128
 43
0.0
 10
265.1631058288
 20
21.0366855535
 10
264.8284145437
 20
21.0094418923
 10
264.3062401154
 20
21.0185098274
 10
263.8091941649
 20
21.0929165055
 10
263.3409785028
 20
21.2321075059
 10
262.9050799904
 20
21.4350472075
 10
262.5047449888
 20
21.7002228968
 10
262.1429553875
 20
22.0256610451
 10
261.822404897
 20
22.4089367397
 10
261.5454816631
 20
22.8471961955
 10
261.3142471934
 20
23.3371753124
 10
261.1304242404
 20
23.8752249236
  0
ARC
  5
241
330
1F
100
AcDbEntity
  8
0
  6
Continuous
 62
     7
370
    18
100
AcDbCircle
 10
265.1435289201
 20
25.3769203031
 30
0.0
 40
3.092040861199328
100
AcDbArc
 50
196.1935559752
 51
255.3082189437
  0
LINE
  5
242
330
1F
100
AcDbEntity
  8
0
  6
Continuous
 62
     7
370
    18
100
AcDbLine
 10
262.4052852752
 20
24.6480254853
 30
0.0
 11
260.3051780806
 21
25.8603915628
 31
0.0
  0
LINE
  5
243
330
1F
100
AcDbEntity
  8
0
  6
Continuous
 62
     7
370
    18
100
AcDbLine
 10
260.5708597623
 20
24.5893644684
 30
0.0
 11
260.5402537745
 21
24.6882120027
 31
0.0
  0
LWPOLYLINE
  5
244
330
1F
100
AcDbEntity
  8
0
  6
Continuous
 62
     7
370
    18
100
AcDbPolyline
 90
        3
 70
   128
 43
0.0
 10
260.4148396365
 20
24.3454731246
 10
260.4112740131
 20
24.3538552811
 10
260.2262983438
 20
24.869454615
  0
ARC
  5
245
330
1F
100
AcDbEntity
  8
0
  6
Continuous
 62
     7
370
    18
100
AcDbCircle
 10
264.2907680034
 20
26.0698611035
 30
0.0
 40
4.460769423570739
100
AcDbArc
 50
195.6471844777
 51
214.1548056384
  0
LINE
  5
246
330
1F
100
AcDbEntity
  8
0
  6
Continuous
 62
     7
370
    18
100
AcDbLine
 10
258.9285112674
 20
24.9237199567
 30
0.0
 11
258.9151112038
 21
24.9677263118
 31
0.0
  0
OLE2FRAME
  5
247
330
1F
100
AcDbEntity
  8
0
100
AcDbOle2Frame
 70
     2
  3
Paintbrush-Bild
 10
13.8511154363
 20
38.264191557
 30
0.0
 11
51.6290888628
 21
31.9806341108
 31
0.0
 71
     2
 72
     0
 73
     1
 90
    12928
310
80552BED0767C5B32B40DDAF6807D121434000000000000000006FFBDDFB85D0
310
4940DDAF6807D121434000000000000000006FFBDDFB85D04940416F4BD60AFB
310
3F4000000000000000002BED0767C5B32B40416F4BD60AFB3F40000000000000
310
0000000000000100000000010000010000000100000000000100000000320000
310
D0CF11E0A1B11AE1000000000000000000000000000000003E000300FEFF0900
310
0600000000000000000000000100000001000000000000000010000002000000
310
01000000FEFFFFFF0000000000000000FFFFFFFFFFFFFFFFFFFFFFFFFFFFFFFF
310
FFFFFFFFFFFFFFFFFFFFFFFFFFFFFFFFFFFFFFFFFFFFFFFFFFFFFFFFFFFFFFFF
310
FFFFFFFFFFFFFFFFFFFFFFFFFFFFFFFFFFFFFFFFFFFFFFFFFFFFFFFFFFFFFFFF
310
FFFFFFFFFFFFFFFFFFFFFFFFFFFFFFFFFFFFFFFFFFFFFFFFFFFFFFFFFFFFFFFF
310
FFFFFFFFFFFFFFFFFFFFFFFFFFFFFFFFFFFFFFFFFFFFFFFFFFFFFFFFFFFFFFFF
310
FFFFFFFFFFFFFFFFFFFFFFFFFFFFFFFFFFFFFFFFFFFFFFFFFFFFFFFFFFFFFFFF
310
FFFFFFFFFFFFFFFFFFFFFFFFFFFFFFFFFFFFFFFFFFFFFFFFFFFFFFFFFFFFFFFF
310
FFFFFFFFFFFFFFFFFFFFFFFFFFFFFFFFFFFFFFFFFFFFFFFFFFFFFFFFFFFFFFFF
310
FFFFFFFFFFFFFFFFFFFFFFFFFFFFFFFFFFFFFFFFFFFFFFFFFFFFFFFFFFFFFFFF
310
FFFFFFFFFFFFFFFFFFFFFFFFFFFFFFFFFFFFFFFFFFFFFFFFFFFFFFFFFFFFFFFF
310
FFFFFFFFFFFFFFFFFFFFFFFFFFFFFFFFFFFFFFFFFFFFFFFFFFFFFFFFFFFFFFFF
310
FFFFFFFFFFFFFFFFFFFFFFFFFFFFFFFFFFFFFFFFFFFFFFFFFFFFFFFFFFFFFFFF
310
FFFFFFFFFFFFFFFFFFFFFFFFFFFFFFFFFFFFFFFFFFFFFFFFFFFFFFFFFFFFFFFF
310
FFFFFFFFFFFFFFFFFFFFFFFFFFFFFFFFFFFFFFFFFFFFFFFFFFFFFFFFFFFFFFFF
310
FDFFFFFFFEFFFFFFFEFFFFFFFEFFFFFF05000000060000000700000008000000
310
090000000A0000000B0000000C0000000D0000000E0000000F00000010000000
310
11000000120000001300000014000000150000001600000017000000FEFFFFFF
310
FFFFFFFFFFFFFFFFFFFFFFFFFFFFFFFFFFFFFFFFFFFFFFFFFFFFFFFFFFFFFFFF
310
FFFFFFFFFFFFFFFFFFFFFFFFFFFFFFFFFFFFFFFFFFFFFFFFFFFFFFFFFFFFFFFF
310
FFFFFFFFFFFFFFFFFFFFFFFFFFFFFFFFFFFFFFFFFFFFFFFFFFFFFFFFFFFFFFFF
310
FFFFFFFFFFFFFFFFFFFFFFFFFFFFFFFFFFFFFFFFFFFFFFFFFFFFFFFFFFFFFFFF
310
FFFFFFFFFFFFFFFFFFFFFFFFFFFFFFFFFFFFFFFFFFFFFFFFFFFFFFFFFFFFFFFF
310
FFFFFFFFFFFFFFFFFFFFFFFFFFFFFFFFFFFFFFFFFFFFFFFFFFFFFFFFFFFFFFFF
310
FFFFFFFFFFFFFFFFFFFFFFFFFFFFFFFFFFFFFFFFFFFFFFFFFFFFFFFFFFFFFFFF
310
FFFFFFFFFFFFFFFFFFFFFFFFFFFFFFFFFFFFFFFFFFFFFFFFFFFFFFFFFFFFFFFF
310
FFFFFFFFFFFFFFFFFFFFFFFFFFFFFFFFFFFFFFFFFFFFFFFFFFFFFFFFFFFFFFFF
310
FFFFFFFFFFFFFFFFFFFFFFFFFFFFFFFFFFFFFFFFFFFFFFFFFFFFFFFFFFFFFFFF
310
FFFFFFFFFFFFFFFFFFFFFFFFFFFFFFFFFFFFFFFFFFFFFFFFFFFFFFFFFFFFFFFF
310
FFFFFFFFFFFFFFFFFFFFFFFFFFFFFFFFFFFFFFFFFFFFFFFFFFFFFFFFFFFFFFFF
310
FFFFFFFFFFFFFFFFFFFFFFFFFFFFFFFFFFFFFFFFFFFFFFFFFFFFFFFFFFFFFFFF
310
52006F006F007400200045006E00740072007900000000000000000000000000
310
0000000000000000000000000000000000000000000000000000000000000000
310
16000500FFFFFFFFFFFFFFFF020000000A00030000000000C000000000000046
310
00000000000000000000000090F561047254D30103000000C000000000000000
310
01004F006C006500000000000000000000000000000000000000000000000000
310
0000000000000000000000000000000000000000000000000000000000000000
310
0A000200FFFFFFFFFFFFFFFFFFFFFFFF00000000000000000000000000000000
310
0000000000000000000000000000000000000000000000001400000000000000
310
010043006F006D0070004F0062006A0000000000000000000000000000000000
310
0000000000000000000000000000000000000000000000000000000000000000
310
120002010100000003000000FFFFFFFF00000000000000000000000000000000
310
0000000000000000000000000000000000000000010000004D00000000000000
310
01004F006C006500310030004E00610074006900760065000000000000000000
310
0000000000000000000000000000000000000000000000000000000000000000
310
1A000200FFFFFFFFFFFFFFFFFFFFFFFF00000000000000000000000000000000
310
0000000000000000000000000000000000000000040000002426000000000000
310
FEFFFFFF02000000FEFFFFFFFFFFFFFFFFFFFFFFFFFFFFFFFFFFFFFFFFFFFFFF
310
FFFFFFFFFFFFFFFFFFFFFFFFFFFFFFFFFFFFFFFFFFFFFFFFFFFFFFFFFFFFFFFF
310
FFFFFFFFFFFFFFFFFFFFFFFFFFFFFFFFFFFFFFFFFFFFFFFFFFFFFFFFFFFFFFFF
310
FFFFFFFFFFFFFFFFFFFFFFFFFFFFFFFFFFFFFFFFFFFFFFFFFFFFFFFFFFFFFFFF
310
FFFFFFFFFFFFFFFFFFFFFFFFFFFFFFFFFFFFFFFFFFFFFFFFFFFFFFFFFFFFFFFF
310
FFFFFFFFFFFFFFFFFFFFFFFFFFFFFFFFFFFFFFFFFFFFFFFFFFFFFFFFFFFFFFFF
310
FFFFFFFFFFFFFFFFFFFFFFFFFFFFFFFFFFFFFFFFFFFFFFFFFFFFFFFFFFFFFFFF
310
FFFFFFFFFFFFFFFFFFFFFFFFFFFFFFFFFFFFFFFFFFFFFFFFFFFFFFFFFFFFFFFF
310
FFFFFFFFFFFFFFFFFFFFFFFFFFFFFFFFFFFFFFFFFFFFFFFFFFFFFFFFFFFFFFFF
310
FFFFFFFFFFFFFFFFFFFFFFFFFFFFFFFFFFFFFFFFFFFFFFFFFFFFFFFFFFFFFFFF
310
FFFFFFFFFFFFFFFFFFFFFFFFFFFFFFFFFFFFFFFFFFFFFFFFFFFFFFFFFFFFFFFF
310
FFFFFFFFFFFFFFFFFFFFFFFFFFFFFFFFFFFFFFFFFFFFFFFFFFFFFFFFFFFFFFFF
310
FFFFFFFFFFFFFFFFFFFFFFFFFFFFFFFFFFFFFFFFFFFFFFFFFFFFFFFFFFFFFFFF
310
FFFFFFFFFFFFFFFFFFFFFFFFFFFFFFFFFFFFFFFFFFFFFFFFFFFFFFFFFFFFFFFF
310
FFFFFFFFFFFFFFFFFFFFFFFFFFFFFFFFFFFFFFFFFFFFFFFFFFFFFFFFFFFFFFFF
310
FFFFFFFFFFFFFFFFFFFFFFFFFFFFFFFFFFFFFFFFFFFFFFFFFFFFFFFFFFFFFFFF
310
0100000200000000000000000000000000000000000000000000000000000000
310
0000000000000000000000000000000000000000000000000000000000000000
310
0100FEFF030A0000FFFFFFFF0A00030000000000C00000000000004607000000
310
5042727573680007000000504272757368000700000050427275736800F439B2
310
7100000000000000000000000000000000000000000000000000000000000000
310
0000000000000000000000000000000000000000000000000000000000000000
310
0000000000000000000000000000000000000000000000000000000000000000
310
0000000000000000000000000000000000000000000000000000000000000000
310
0000000000000000000000000000000000000000000000000000000000000000
310
0000000000000000000000000000000000000000000000000000000000000000
310
0000000000000000000000000000000000000000000000000000000000000000
310
0000000000000000000000000000000000000000000000000000000000000000
310
0000000000000000000000000000000000000000000000000000000000000000
310
0000000000000000000000000000000000000000000000000000000000000000
310
0000000000000000000000000000000000000000000000000000000000000000
310
0000000000000000000000000000000000000000000000000000000000000000
310
20260000424D0E260000000000003E00000028000000B40200006E0000000100
310
01000000000000000000130B0000130B00000200000002000000000000FFFFFF
310
FFFFFFFFFFFFFFFFFFFFFFFFFFFFFFFFFFFFFFFFFFFFFFFFFFFFFFFFFFFFFFFF
310
FFFFFFFFFFFFFFFFFFFFFFFFFFFFFFFFFFFFFFFFFFFFFFFFFFFFFFFFFFFFFFFF
310
FFFFFFFFFFFFFFFFFFFFFFFFFFFFFFFFFFFFFFFFFFFFFFFFF000FFFFFFFFFFFF
310
FFFFFFFFFFFFFFFFFFFFFFFFFFFFFFFFFFFFFFFFFFFFFFFFFFFFFFFFFFFFFFFF
310
FFFFFFFFFFFFFFFFFFFFFFFFFFFFFFFFFFFFFFFFFFFFFFFFFFFFFFFFFFFFFFFF
310
FFFFFFFFFFFFFFFFFFFFFFFFFFFFFFFFF000FFFFFFFFFFFFFFFFFFFFFFFFFFFF
310
FFFFFFFFFFFFFFFFFFFFFFFFFFFFFFFFFFFFFFFFFFFFFFFFFFFFFFFFFFFFFFFF
310
FFFFFFFFFFFFFFFFFFFFFFFFFFFFFFFFFFFFFFFFFFFFFFFFFFFFFFFFFFFFFFFF
310
FFFFFFFFFFFFFFFFF000FFFFFFFFFFFFFFFFFFFFFFFFFFFFFFFFFFFFFFFFFFFF
310
FFFFFFFFFFFFFFFFFFFFFFFFFFFFFFFFFFFFFFFFFFFFFFFFFFFFFFFFFFFFFFFF
310
FFFFFFFFFFFFFFFFFFFFFFFFFFFFFFFFFFFFFFFFFFFFFFFFFFFFFFFFFFFFFFFF
310
F000FFFFFFFFFFFFFFFFFFFFFFFFFFFFFFFFFFFFFFFFFFFFFFFFFFFFFFFFFFFF
310
FFFFFFFFFFFFFFFFFFFFFFFFFFFFFFFFFFFFFFFFFFFFFFFFFFFFFFFFFFFFFFFF
310
FFFFFFFFFFFFFFFFFFFFFFFFFFFFFFFFFFFFFFFFFFFFFFFFF000FFFFFFFFFFFF
310
FFFFFFFFFFFFFFFFFFFFFFFFFFFFFFFFFFFFFFFFFFFFFFFFFFFFFFFFFFFFFFFF
310
FFFFFFFFFFFFFFFFFFFFFFFFFFFFFFFFFFFFFFFFFFFFFFFFFFFFFFFFFFFFFFFF
310
FFFFFFFFFFFFFFFFFFFFFFFFFFFFFFFFF000FFFFFFFFFFFFFFFFFFFFFFFFFFFF
310
FFFFFFFFFFFFFFFFFFFFFFFFFFFFFFFFFFFFFFFFFFFFFFFFFFFFFFFFFFFFFFFF
310
FFFFFFFFFFFFFFFFFFFFFFFFFFFFFFFFFFFFFFFFFFFFFFFFFFFFFFFFFFFFFFFF
310
FFFFFFFFFFFFFFFFF000FFFFFFFFFFFFFFFFFFFFFFFFFFFFFFFFFFFFFFFFFFFF
310
FFFFFFFFFFFFFFFFFFFFFFFFFFFFFFFFFFFFFFFFFFFFFFFFFFFFFFFFFFFFFFFF
310
FFFFFFFFFFFFFFFFFFFFFFFFFFFFFFFFFFFFFFFFFFFFFFFFFFFFFFFFFFFFFFFF
310
F000FFFFFFFFFFFFFFFFFFFFFFFFFFFFFFFFFFFFFFFFFFFFFFFFFFFFFFFFFFFF
310
FFFFFFFFFFFFFFFFFFFFFFFFFFFFFFFFFFFFFFFFFFFFFFFFFFFFFFFFFFFFFFFF
310
FFFFFFFFFFFFFFFFFFFFFFFFFFFFFFFFFFFFFFFFFFFFFFFFF000FFFFFFFFFFFF
310
FFFFFFFFFFFFFFFFFFFFFFFFFFFFFFFFFFFFFFFFFFFFFFFFFFFFFFFFFFFFFFFF
310
FFFFFFFFFFFFFFFFFFFFFFFFFFFFFFFFFFFFFFFFFFFFFFFFFFFFFFFFFFFFFFFF
310
FFFFFFFFFFFFFFFFFFFFFFFFFFFFFFFFF000FFFFFFFFFFFFFFFFFFFFFFFFFFFF
310
FFFFFFFFFFFFFFFFFFFFFFFFFFFFFFFFFFFFFFFFFFFFFFFFFFFFFFFFFFFFFFFF
310
FFFFFFFFFFFFFFFFFFFFFFFFFFFFFFFFFFFFFFFFFFFFFFFFFFFFFFFFFFFFFFFF
310
FFFFFFFFFFFFFFFFF000FFFFFFFFFFFFFFFFFFFFFFFFFFFFFFFFFFFFFFFFFFFF
310
FFFFFFFFFFFFFFFFFFFFFFFFFFFFFFFFFFFFFFFFFFFFFFFFFFFFFFFFFFFFFFFF
310
FFFFFFFFFFFFFFFFFFFFFFFFFFFFFFFFFFFFFFFFFFFFFFFFFFFFFFFFFFFFFFFF
310
F000FFFFFFFFFFFFFFFFFFFFFFFFFFFFFFFFFFFFFFFFFFFFFFFFFFFFFFFFFFFF
310
FFFFFFFFFFFFFFFFFFFFFFFFFFFFFFFFFFFFFFFFFFFFFFFFFFFFFFFFFFFFFFFF
310
FFFFFFFFFFFFFFFFFFFFFFFFFFFFFFFFFFFFFFFFFFFFFFFFF000FFFFFFFFFFFF
310
FFFFFFFFFFFFFFFFFFFFFFFFFFFFFFFFFFFFFFFFFFFFFFFFFFFFFFFFFFFFFFFF
310
FFFFFFFFFFFFFFFFFFFFFFFFFFFFFFFFFFFFFFFFFFFFFFFFFFFFFFFFFFFFFFFF
310
FFFFFFFFFFFFFFFFFFFFFFFFFFFFFFFFF000FFFFFFFFFFFFFFFFFFFFFFFFFFFF
310
FFFFFFFFFFFFFFFFFFFFFFFFFFFFFFFFFFFFFFFFFFFFFFFFFFFFFFFFFFFFFFFF
310
FFFFFFFFFFFFFFFFFFFFFFFFFFFFFFFFFFFFFFFFFFFFFFFFFFFFFFFFFFFFFFFF
310
FFFFFFFFFFFFFFFFF000FFFFFFFFFFFFFFFFFFFFFFFFFFFFFFFFFFFFFFFFFFFF
310
FFFFFFFFFFFFFFFFFFFFFFFFFFFFFFFFFFFFFFFFFFFFFFFFFFFFFFFFFFFFFFFF
310
FFFFFFFFFFFFFFFFFFFFFFFFFFFFFFFFFFFFFFFFFFFFFFFFFFFFFFFFFFFFFFFF
310
F000FFFFFFFFFFFFFFFFFFFFFFFFFFFFFFFFFFFFFFFFFFFFFFFFFFFFFFFFFFFF
310
FFFFFFFFFFFFFFFFFFFFFFFFFFFFFFFFFFFFFFFFFFFFFFFFFFFFFFFFFFFFFFFF
310
FFFFFFFFFFFFFFFFFFFFFFFFFFFFFFFFFFFFFFFFFFFFFFFFF000FFFFFFFFFFFF
310
FFFFFFFFFFFFFFFFFFFFFFFFFFFFFFFFFFFFFFFFFFFFFFFFFFFFFFFFFFFFFFFF
310
FFFFFFFFFFFFFFFFFFFFFFFFFFFFFFFFFFFFFFFFFFFFFFFFFFFFFFFFFFFFFFFF
310
FFFFFFFFFFFFFFFFFFFFFFFFFFFFFFFFF000FFFFFFFFFFFFFFFFFFFFFFFFFFFF
310
FFFFFFFFFFFFFFFFFFFFFFFFFFFFFFFFFFFFFFFFFFFFFFFFFFFFFFFFFFFFFFFF
310
FFFFFFFFFFFFFFFFFFFFFFFFFFFFFFFFFFFFFFFFFFFFFFFFFFFFFFFFFFFFFFFF
310
FFFFFFFFFFFFFFFFF000FFFFF80003FFFFFFFFFFFFFFFFFFFFFFFFFFFFFFFFFF
310
FFFFF00007FFFFFFFFFF00007FFFFFF800000000000000007FFFFFFFFFFFFFFF
310
FFFFFFFC001FFFFFFFFFFFFFFC001FFFFFFFFFFFFFFFFFFFFFFFFFFE0007FFFF
310
F000FFFF8000007FFFFFFFF8000FFFFFC0007FFFFF80007FFFFF0000007FFFFF
310
FFF8000007FFFFF800000000000000007FFFFFF0001FFFFFFFFFFFC00001FFFF
310
FFFFFFFFC00001FFFFFFFF000000000003FFFFE000007FFFF000FFFE0000000F
310
FFFFFFF0000FFFFF80007FFFFF80007FFFFC0000001FFFFFFFC0000001FFFFF8
310
00000000000000007FFFFFF0001FFFFFFFFFFE0000003FFFFFFFFFFE0000003F
310
FFFFFF000000000003FFFF0000000FFFF000FFF800000003FFFFFFF00007FFFF
310
80007FFFFF80007FFFF000000007FFFFFF000000003FFFF80000000000000000
310
7FFFFFF0001FFFFFFFFFF80000000FFFFFFFFFF80000000FFFFFFF0000000000
310
03FFFC00000003FFF000FFE000000000FFFFFFF00007FFFF80003FFFFF80007F
310
FFC000000001FFFFFC000000001FFFF800000000000000007FFFFFF0001FFFFF
310
FFFFE000000003FFFFFFFFE000000003FFFFFF000000000003FFF000000000FF
310
F000FF80000000007FFFFFF00007FFFF80003FFFFF80007FFF8000000000FFFF
310
F80000000007FFF800000000000000007FFFFFF0001FFFFFFFFFC000000001FF
310
FFFFFFC000000001FFFFFF000000000003FFC0000000007FF000FF0000000000
310
3FFFFFE00007FFFF00003FFFFF80007FFE00000000003FFFF00000000003FFF8
310
00000000000000007FFFFFF0001FFFFFFFFF8000000000FFFFFFFF8000000000
310
FFFFFF000000000003FF80000000003FF000FE00000000001FFFFFE00003FFFF
310
00003FFFFF80007FFC00000000001FFFE00000000001FFF8000001FFFE000000
310
7FFFFFF0001FFFFFFFFE00000000003FFFFFFE00000000003FFFFF0000000000
310
03FF00000000001FF000FC00000000000FFFFFE00003FFFF00001FFFFF80007F
310
F800000000001FFFC00000000000FFF8000001FFFE0000007FFFFFF0001FFFFF
310
FFFC00000000001FFFFFFC00000000001FFFFF000000000003FE00000000000F
310
F000F8000000000007FFFFE00003FFFF00001FFFFF80007FF800000000000FFF
310
800000000000FFF8000001FFFE0000007FFFFFF0001FFFFFFFF800000000000F
310
FFFFF800000000000FFFFF000000000003FC000000000007F000F80000000000
310
03FFFFC00003FFFE00001FFFFF80007FF0000000000007FF0000000000007FF8
310
000001FFFE0000007FFFFFF0001FFFFFFFF0000000000007FFFFF00000000000
310
07FFFF000000000003F8000000000003F000F0000000000003FFFFC00001FFFE
310
00001FFFFF80007FE0000000000007FE0000000000003FF8000001FFFE000000
310
7FFFFFF0001FFFFFFFF0000000000007FFFFF0000000000007FFFF0000000000
310
03F800001F800003F000E00001FFF00001FFFFC00001FFFE00000FFFFF80007F
310
E00001FFE00003FE00001FFF00003FF8000001FFFE0000007FFFFFF0001FFFFF
310
FFE000003E000003FFFFE000003E000003FFFF000000000003F00001FFF80001
310
F000E00007FFFC0001FFFFC00001FFFE00000FFFFF80007FC0000FFFFC0003FC
310
0000FFFFC0001FF8000001FFFE0000007FFFFFF0001FFFFFFFC00003FFE00001
310
FFFFC00003FFE00001FFFF0001FFFFFFFFF00007FFFE0001F000E0000FFFFF00
310
00FFFF800001FFFC00000FFFFF80007FC0001FFFFE0001FC0001FFFFE0001FF8
310
000001FFFE0000007FFFFFF0001FFFFFFF80000FFFF80000FFFF80000FFFF800
310
00FFFF0003FFFFFFFFE0000FFFFF8000F000C0003FFFFF8000FFFF800000FFFC
310
000007FFFF80007F80003FFFFF0001FC0003FFFFF0001FF8000001FFFE000000
310
7FFFFFF0001FFFFFFF80003FFFFE0000FFFF80003FFFFE0000FFFF0003FFFFFF
310
FFE0003FFFFF8000F000C0003FFFFF8000FFFF800000FFFC000007FFFF80007F
310
80007FFFFF8001F80007FFFFF8000FF8000001FFFE0000007FFFFFF0001FFFFF
310
FF00007FFFFF00007FFF00007FFFFF00007FFF0003FFFFFFFFE0003FFFFFC000
310
F000C0007FFFFFC000FFFF000000FFFC000007FFFF80007F8000FFFFFF8000F8
310
000FFFFFF8000FF8000001FFFE0000007FFFFFF0001FFFFFFF0000FFFFFF8000
310
7FFF0000FFFFFF80007FFF0003FFFFFFFFC0007FFFFFC00070008000FFFFFFC0
310
00FFFF000000FFF8000007FFFF80007F8000FFFFFF8000F8000FFFFFF8000FF8
310
000001FFFE0000007FFFFFF0001FFFFFFE0001FFFFFFC0003FFE0001FFFFFFC0
310
003FFF0003FFFFFFFFC0007FFFFFE00070008000FFFFFFC0007FFF0000007FF8
310
000003FFFF80007F0001FFFFFF8000F8000FFFFFF8000FF8000001FFFE000000
310
7FFFFFF0001FFFFFFE0001FFFFFFC0003FFE0001FFFFFFC0003FFF0003FFFFFF
310
FFC000FFFFFFE00070008000FFFFFFC0007FFF0000007FF8000003FFFF80007F
310
0001FFFFFF8000F8001FFFFFF8000FF8000001FFFE0000007FFFFFF0001FFFFF
310
FE0003FFFFFFE0003FFE0003FFFFFFE0003FFF0003FFFFFFFFC000FFFFFFE000
310
70008000FFFFFFC0007FFE0000007FF8000003FFFF80007F0001FFFFFF8000F0
310
001FFFFFF8000FF8000001FFFE0000007FFFFFF0001FFFFFFC0003FFFFFFE000
310
1FFC0003FFFFFFE0001FFF0003FFFFFFFFC000FFFFFFC00070008000FFFFFF80
310
007FFE0000007FF0000003FFFF80007F0001FFFFFF0000F0001FFFFFF8000FF8
310
000001FFFE0000007FFFFFF0001FFFFFFC0007FFFFFFF0001FFC0007FFFFFFF0
310
001FFF0003FFFFFFFFC000FFFFFFC00070008001FFFFFF0000FFFE0000003FF0
310
000001FFFF80007F0001FFFFFF0000F8001FFFFFF0000FF8000001FFFE000000
310
7FFFFFF0001FFFFFFC0007FFFFFFF0001FFC0007FFFFFFF0001FFF0003FFFFFF
310
FFC001FFFFFF80007000FFFFFFFFFE0000FFFE0008003FF0008001FFFF80007F
310
FFFFFFFFFC0000FFFFFFFFFFE0000FF8000001FFFE0000007FFFFFF0001FFFFF
310
F8000FFFFFFFF8000FF8000FFFFFFFF8000FFF0003FFFFFFFFFFFFFFFFFF0000
310
7000FFFFFFFFFC0000FFFC0008003FF0008001FFFF80007FFFFFFFFFF80001FF
310
FFFFFFFF80000FF8000001FFFE0000007FFFFFF0001FFFFFF8000FFFFFFFF800
310
0FF8000FFFFFFFF8000FFF0003FFFFFFFFFFFFFFFFFE0000F000FFFFFFFFE000
310
00FFFC000C003FE000C001FFFF80007FFFFFFFFFC00001FFFFFFFFFE00001FF8
310
000001FFFE0000007FFFFFF0001FFFFFF8000FFFFFFFF8000FF8000FFFFFFFF8
310
000FFF0003FFFFFFFFFFFFFFFFF00000F000FFFFFFFE000001FFFC000C001FE0
310
00C000FFFF80007FFFFFFFFE000001FFFFFFFFE000001FF80FFFFFFFFFFFFFC0
310
7FFFFFF0001FFFFFF8000FFFFFFFF8000FF8000FFFFFFFF8000FFF0003FFFFFF
310
FFFFFFFFFF800000F000FFFFFFC0000001FFFC001C001FE001C000FFFF80007F
310
FFFFFF80000003FFFFFFF80000001FF80FFFFFFFFFFFFFC07FFFFFF0001FFFFF
310
F8001FFFFFFFFC000FF8001FFFFFFFFC000FFF0003FFFFFFFFFFFFFFF0000001
310
F000FFFFF800000001FFF8001C001FE001C000FFFF80007FFFFFF800000003FF
310
FFFF800000003FF80FFFFFFFFFFFFFC07FFFFFF0001FFFFFF8001FFFFFFFFC00
310
0FF8001FFFFFFFFC000FFF0003FFFFFFFFFFFFFE00000001F000FFFFC0000000
310
03FFF8001E001FC001E000FFFF80007FFFFF8000000007FFFFFC000000003FF8
310
0FFFFFFFFFFFFFC07FFFFFF0001FFFFFF8001FFFFFFFFC000FF8001FFFFFFFFC
310
000FFF0003FFFFFFFFFFFFE000000003F000FFFE0000000007FFF8001E000FC0
310
01E0007FFF80007FFFFE0000000007FFFFE0000000007FF80FFFFFFFFFFFFFC0
310
7FFFFFF0001FFFFFF0001FFFFFFFFC0007F0001FFFFFFFFC0007FF0003FFFFFF
310
FFFFFF0000000003F000FFF80000000007FFF8001E000FC003E0007FFF80007F
310
FFF0000000000FFFFF8000000000FFF80FFFFFFFFFFFFFC07FFFFFF0001FFFFF
310
F0001FFFFFFFFC0007F0001FFFFFFFFC0007FF0003FFFFFFFFFFFC0000000007
310
F000FFE0000000000FFFF0003E000FC003E0007FFF80007FFFC0000000001FFF
310
FE0000000001FFF80FFFFFFFFFFFFFC07FFFFFF0001FFFFFF0001FFFFFFFFC00
310
07F0001FFFFFFFFC0007FF0003FFFFFFFFFFF0000000000FF000FFC000000000
310
1FFFF0003F000F8003F0003FFF80007FFF80000000003FFFF80000000003FFF8
310
0FFFFFFFFFFFFFC07FFFFFF0001FFFFFF0001FFFFFFFFC0007F0001FFFFFFFFC
310
0007FF0003FFFFFFFFFFE0000000001FF000FF00000000007FFFF0003F000780
310
03F0003FFF80007FFF00000000007FFFF00000000007FFF80FFFFFFFFFFFFFC0
310
7FFFFFF0001FFFFFF0001FFFFFFFFC0007F0001FFFFFFFFC0007FF0003FFFFFF
310
FFFF80000000007FF000FE0000000000FFFFE0003F00078007F0003FFF80007F
310
FE0000000001FFFFE0000000001FFFF80FFFFFFFFFFFFFC07FFFFFF0001FFFFF
310
F0001FFFFFFFFC0007F0001FFFFFFFFC0007FF0003FFFFFFFFFF0000000000FF
310
F000FC0000000003FFFFE0007F00078007F0003FFF80007FFC0000000007FFFF
310
C0000000007FFFF80FFFFFFFFFFFFFC07FFFFFF0001FFFFFF8001FFFFFFFFC00
310
0FF8001FFFFFFFFC000FFF0003FFFFFFFFFE0000000003FFF000FC000000000F
310
FFFFE0007F80070007F8001FFF80007FF8000000001FFFFF8000000001FFFFF8
310
0FFFFFFFFFFFFFC07FFFFFF0001FFFFFF8001FFFFFFFFC000FF8001FFFFFFFFC
310
000FFF0003FFFFFFFFFC000000000FFFF000F8000000007FFFFFE0007F800700
310
07F8001FFF80007FF000000000FFFFFF800000000FFFFFF80FFFFFFFFFFFFFC0
310
7FFFFFF0001FFFFFF8000FFFFFFFF8000FF8000FFFFFFFF8000FFF0003FFFFFF
310
FFFC000000007FFFF000F800000007FFFFFFC0007F8003000FF8001FFF80007F
310
F000000007FFFFFF000000007FFFFFF80FFFFFFFFFFFFFC07FFFFFF0001FFFFF
310
F8000FFFFFFFF8000FF8000FFFFFFFF8000FFF0003FFFFFFFFF80000000FFFFF
310
F000F0000000FFFFFFFFC000FF8003000FF8001FFF80007FE0000000FFFFFFFF
310
0000000FFFFFFFF8000001FFFE0000007FFFFFF0001FFFFFF8000FFFFFFFF800
310
0FF8000FFFFFFFF8000FFF0003FFFFFFFFF8000000FFFFFFF000F000000FFFFF
310
FFFFC000FFC002000FF8000FFF80007FE000001FFFFFFFFE000001FFFFFFFFF8
310
000001FFFE0000007FFFFFF0001FFFFFF8000FFFFFFFF8000FF8000FFFFFFFF8
310
000FFF0003FFFFFFFFF000001FFFFFFFF000E00000FFFFFFFFFFC000FFC00200
310
0FFC000FFF80007FE00001FFFFFFFFFE00001FFFFFFFFFF8000001FFFE000000
310
7FFFFFF0001FFFFFFC000FFFFFFFF8001FFC000FFFFFFFF8001FFF0003FFFFFF
310
FFF00001FFFFFFFFF000E00007FFFFFFFFFF8000FFC000001FFC000FFF80007F
310
C0000FFFFFFFFFFE0000FFFFFFFFFFF8000001FFFE0000007FFFFFF0001FFFFF
310
FC0007FFFFFFF0001FFC0007FFFFFFF0001FFF0003FFFFFFFFF00007FFFFFFFF
310
F000E0001FFFFFFFFFFF8000FFC000001FFC000FFF80007FC0003FFFFFFFFFFE
310
0001FFFFFFFFFFF8000001FFFE0000007FFFFFF0001FFFFFFC0007FFFFFFF000
310
1FFC0007FFFFFFF0001FFF0003FFFFFFFFF0001FFFFFFFFFF000E0003FFFFF00
310
03FF8001FFE000001FFC0007FF80007FC0007FFFFF0007FC0003FFFFF0003FF8
310
000001FFFE0000007FFFFFF0001FFFFFFC0003FFFFFFE0001FFC0003FFFFFFE0
310
001FFF0003FFFFFFFFF0003FFFFFFFFFF000E0003FFFFF0001FF8001FFE00000
310
1FFE0007FF80007FC0007FFFFE0003FC0007FFFFE0003FF8000001FFFE000000
310
7FFFFFF0001FFFFFFE0003FFFFFFE0003FFE0003FFFFFFE0003FFF0003FFFFFF
310
FFF0003FFFFF8001F000E0003FFFFF0001FF0001FFE000001FFE0007FF80007F
310
C0007FFFFE0003FC0007FFFFE0003FF8000001FFFE0000007FFFFFF0001FFFFF
310
FE0001FFFFFFC0003FFE0001FFFFFFC0003FFF0003FFFFFFFFF0003FFFFF0001
310
F000E0003FFFFF0003FF0001FFE000003FFE0007FF80007FC0007FFFFE0003FC
310
0007FFFFE0003FF8000001FFFE0000007FFFFFF0001FFFFFFF0001FFFFFFC000
310
7FFF0001FFFFFFC0007FFF0003FFFFFFFFF0003FFFFF0001F000E0003FFFFE00
310
03FF0003FFF000003FFE0003FF80007FC0007FFFFC0003FE0007FFFFE0003FF8
310
000001FFFE0000007FFFFFF0001FFFFFFF0000FFFFFF80007FFF0000FFFFFF80
310
007FFF0003FFFFFFFFF0003FFFFF0001F000E0003FFFFE0003FF0003FFF00000
310
3FFF0003FF80007FC0007FFFFC0007FE0007FFFFC0003FF8000001FFFE000000
310
7FFFFFF0001FFFFFFF80007FFFFF0000FFFF80007FFFFF0000FFFF0003FFFFFF
310
FFF0003FFFFF0003F000E0003FFFFC0003FE0003FFF000003FFF0003FF80007F
310
E0003FFFF80007FE0003FFFFC0007FF8000001FFFE0000007FFFFFF0001FFFFF
310
FF80003FFFFE0000FFFF80003FFFFE0000FFFF0003FFFFFFFFF0001FFFFE0003
310
F000F0001FFFF80003FE0003FFF000007FFF0001FF80007FE0003FFFF00007FE
310
0001FFFF80007FF8000001FFFE0000007FFFFFF0001FFFFFFFC0000FFFF80001
310
FFFFC0000FFFF80001FFFF0003FFFFFFFFF0001FFFFC0003F000F0000FFFF000
310
07FE0007FFF800007FFF0001FF80007FE0001FFFE00007FF0000FFFE00007FF8
310
000001FFFE0000007FFFFFF0001FFFFFFFC00003FFE00001FFFFC00003FFE000
310
01FFFF0003FFFFFFFFF8000FFFF80003F000F00003FFC00007FC0007FFF80000
310
7FFF8001FF80007FF00007FF80000FFF00007FF80000FFF8000001FFFE000000
310
7F80000000000001FFE000003E000003FFFFE000003E000003FFFF0003FFFFFF
310
FFF80003FFE00007F000F800000000000FFC0007FFF800007FFF8001FF80007F
310
F000000000000FFF000000000000FFF8000001FFFE0000007F80000000000001
310
FFF0000000000007FFFFF0000000000007FFFF0003FFFFFFFFFC00007E000007
310
F000F800000000000FFC0007FFF80000FFFF8000FF80007FF800000000001FFF
310
800000000001FFF8000001FFFE0000007F80000000000001FFF800000000000F
310
FFFFF800000000000FFFFF0003FFFFFFFFFC00000000000FF000FC0000000000
310
1FFC0007FFFC0000FFFF8000FF80007FF800000000003FFFC00000000001FFF8
310
000001FFFE0000007F80000000000001FFF800000000000FFFFFF80000000000
310
0FFFFF0003FFFFFFFFFE00000000001FF000FE00000000003FF8000FFFFC0000
310
FFFF8000FF80007FFC00000000003FFFC00000000003FFF8000001FFFE000000
310
7F80000000000001FFFC00000000001FFFFFFC00000000001FFFFF0003FFFFFF
310
FFFF00000000001FF000FF00000000003FF8000FFFFC0000FFFFC000FF80007F
310
FE00000000007FFFE00000000007FFF8000001FFFE0000007F80000000000001
310
FFFE00000000003FFFFFFE00000000003FFFFF0003FFFFFFFFFF80000000003F
310
F000FF80000000007FF8000FFFFC0001FFFFC0007F80007FFF0000000000FFFF
310
F0000000000FFFF800000000000000007F80000000000001FFFF8000000000FF
310
FFFFFF8000000000FFFFFF0003FFFFFFFFFFC0000000007FF000FFC000000000
310
FFF8000FFFFE0001FFFFC0007F80007FFF8000000001FFFFF8000000001FFFF8
310
00000000000000007F80000000000001FFFFC000000001FFFFFFFFC000000001
310
FFFFFF0003FFFFFFFFFFE000000000FFF000FFE000000003FFF0001FFFFE0001
310
FFFFC0007F80007FFFC000000007FFFFFE000000003FFFF80000000000000000
310
7F80000000000001FFFFE000000003FFFFFFFFE000000003FFFFFF0003FFFFFF
310
FFFFF000000003FFF000FFF80000000FFFF0001FFFFE0001FFFFE0007F80007F
310
FFF00000000FFFFFFF00000000FFFFF800000000000000007F80000000000001
310
FFFFF80000000FFFFFFFFFF80000000FFFFFFF0003FFFFFFFFFFFC0000000FFF
310
F000FFFE0000003FFFF0001FFFFE0003FFFFE0003F80007FFFFC0000003FFFFF
310
FFC0000003FFFFF800000000000000007F80000000000001FFFFFE0000003FFF
310
FFFFFFFE0000003FFFFFFF0003FFFFFFFFFFFF0000003FFFF000FFFF800000FF
310
FFF0001FFFFF0003FFFFE0003F80007FFFFF000001FFFFFFFFF800001FFFFFF8
310
00000000000000007F80000000000001FFFFFFC00001FFFFFFFFFFFFC00001FF
310
FFFFFF0003FFFFFFFFFFFFC00000FFFFF000FFFFF8000FFFFFFFFFFFFFFFFFFF
310
FFFFFFFFFFFFFFFFFFFFF0001FFFFFFFFFFF0000FFFFFFF80000000000000000
310
7FFFFFFFFFFFFFFFFFFFFFFC001FFFFFFFFFFFFFFC001FFFFFFFFFFFFFFFFFFF
310
FFFFFFFC001FFFFFF000FFFFFFFFFFFFFFFFFFFFFFFFFFFFFFFFFFFFFFFFFFFF
310
FFFFFFFFFFFFFFFFFFFFFFFFFFFFFFFFFFFFFFFFFFFFFFFFFFFFFFFFFFFFFFFF
310
FFFFFFFFFFFFFFFFFFFFFFFFFFFFFFFFFFFFFFFFFFFFFFFFFFFFFFFFFFFFFFFF
310
F000FFFFFFFFFFFFFFFFFFFFFFFFFFFFFFFFFFFFFFFFFFFFFFFFFFFFFFFFFFFF
310
FFFFFFFFFFFFFFFFFFFFFFFFFFFFFFFFFFFFFFFFFFFFFFFFFFFFFFFFFFFFFFFF
310
FFFFFFFFFFFFFFFFFFFFFFFFFFFFFFFFFFFFFFFFFFFFFFFFF000FFFFFFFFFFFF
310
FFFFFFFFFFFFFFFFFFFFFFFFFFFFFFFFFFFFFFFFFFFFFFFFFFFFFFFFFFFFFFFF
310
FFFFFFFFFFFFFFFFFFFFFFFFFFFFFFFFFFFFFFFFFFFFFFFFFFFFFFFFFFFFFFFF
310
FFFFFFFFFFFFFFFFFFFFFFFFFFFFFFFFF000FFFFFFFFFFFFFFFFFFFFFFFFFFFF
310
FFFFFFFFFFFFFFFFFFFFFFFFFFFFFFFFFFFFFFFFFFFFFFFFFFFFFFFFFFFFFFFF
310
FFFFFFFFFFFFFFFFFFFFFFFFFFFFFFFFFFFFFFFFFFFFFFFFFFFFFFFFFFFFFFFF
310
FFFFFFFFFFFFFFFFF000FFFFFFFFFFFFFFFFFFFFFFFFFFFFFFFFFFFFFFFFFFFF
310
FFFFFFFFFFFFFFFFFFFFFFFFFFFFFFFFFFFFFFFFFFFFFFFFFFFFFFFFFFFFFFFF
310
FFFFFFFFFFFFFFFFFFFFFFFFFFFFFFFFFFFFFFFFFFFFFFFFFFFFFFFFFFFFFFFF
310
F000FFFFFFFFFFFFFFFFFFFFFFFFFFFFFFFFFFFFFFFFFFFFFFFFFFFFFFFFFFFF
310
FFFFFFFFFFFFFFFFFFFFFFFFFFFFFFFFFFFFFFFFFFFFFFFFFFFFFFFFFFFFFFFF
310
FFFFFFFFFFFFFFFFFFFFFFFFFFFFFFFFFFFFFFFFFFFFFFFFF000FFFFFFFFFFFF
310
FFFFFFFFFFFFFFFFFFFFFFFFFFFFFFFFFFFFFFFFFFFFFFFFFFFFFFFFFFFFFFFF
310
FFFFFFFFFFFFFFFFFFFFFFFFFFFFFFFFFFFFFFFFFFFFFFFFFFFFFFFFFFFFFFFF
310
FFFFFFFFFFFFFFFFFFFFFFFFFFFFFFFFF000FFFFFFFFFFFFFFFFFFFFFFFFFFFF
310
FFFFFFFFFFFFFFFFFFFFFFFFFFFFFFFFFFFFFFFFFFFFFFFFFFFFFFFFFFFFFFFF
310
FFFFFFFFFFFFFFFFFFFFFFFFFFFFFFFFFFFFFFFFFFFFFFFFFFFFFFFFFFFFFFFF
310
FFFFFFFFFFFFFFFFF000FFFFFFFFFFFFFFFFFFFFFFFFFFFFFFFFFFFFFFFFFFFF
310
FFFFFFFFFFFFFFFFFFFFFFFFFFFFFFFFFFFFFFFFFFFFFFFFFFFFFFFFFFFFFFFF
310
FFFFFFFFFFFFFFFFFFFFFFFFFFFFFFFFFFFFFFFFFFFFFFFFFFFFFFFFFFFFFFFF
310
F000FFFFFFFFFFFFFFFFFFFFFFFFFFFFFFFFFFFFFFFFFFFFFFFFFFFFFFFFFFFF
310
FFFFFFFFFFFFFFFFFFFFFFFFFFFFFFFFFFFFFFFFFFFFFFFFFFFFFFFFFFFFFFFF
310
FFFFFFFFFFFFFFFFFFFFFFFFFFFFFFFFFFFFFFFFFFFFFFFFF000FFFFFFFFFFFF
310
FFFFFFFFFFFFFFFFFFFFFFFFFFFFFFFFFFFFFFFFFFFFFFFFFFFFFFFFFFFFFFFF
310
FFFFFFFFFFFFFFFFFFFFFFFFFFFFFFFFFFFFFFFFFFFFFFFFFFFFFFFFFFFFFFFF
310
FFFFFFFFFFFFFFFFFFFFFFFFFFFFFFFFF000FFFFFFFFFFFFFFFFFFFFFFFFFFFF
310
FFFFFFFFFFFFFFFFFFFFFFFFFFFFFFFFFFFFFFFFFFFFFFFFFFFFFFFFFFFFFFFF
310
FFFFFFFFFFFFFFFFFFFFFFFFFFFFFFFFFFFFFFFFFFFFFFFFFFFFFFFFFFFFFFFF
310
FFFFFFFFFFFFFFFFF000FFFFFFFFFFFFFFFFFFFFFFFFFFFFFFFFFFFFFFFFFFFF
310
FFFFFFFFFFFFFFFFFFFFFFFFFFFFFFFFFFFFFFFFFFFFFFFFFFFFFFFFFFFFFFFF
310
FFFFFFFFFFFFFFFFFFFFFFFFFFFFFFFFFFFFFFFFFFFFFFFFFFFFFFFFFFFFFFFF
310
F000FFFFFFFFFFFFFFFFFFFFFFFFFFFFFFFFFFFFFFFFFFFFFFFFFFFFFFFFFFFF
310
FFFFFFFFFFFFFFFFFFFFFFFFFFFFFFFFFFFFFFFFFFFFFFFFFFFFFFFFFFFFFFFF
310
FFFFFFFFFFFFFFFFFFFFFFFFFFFFFFFFFFFFFFFFFFFFFFFFF000FFFFFFFFFFFF
310
FFFFFFFFFFFFFFFFFFFFFFFFFFFFFFFFFFFFFFFFFFFFFFFFFFFFFFFFFFFFFFFF
310
FFFFFFFFFFFFFFFFFFFFFFFFFFFFFFFFFFFFFFFFFFFFFFFFFFFFFFFFFFFFFFFF
310
FFFFFFFFFFFFFFFFFFFFFFFFFFFFFFFFF000FFFFFFFFFFFFFFFFFFFFFFFFFFFF
310
FFFFFFFFFFFFFFFFFFFFFFFFFFFFFFFFFFFFFFFFFFFFFFFFFFFFFFFFFFFFFFFF
310
FFFFFFFFFFFFFFFFFFFFFFFFFFFFFFFFFFFFFFFFFFFFFFFFFFFFFFFFFFFFFFFF
310
FFFFFFFFFFFFFFFFF000FFFFFFFFFFFFFFFFFFFFFFFFFFFFFFFFFFFFFFFFFFFF
310
FFFFFFFFFFFFFFFFFFFFFFFFFFFFFFFFFFFFFFFFFFFFFFFFFFFFFFFFFFFFFFFF
310
FFFFFFFFFFFFFFFFFFFFFFFFFFFFFFFFFFFFFFFFFFFFFFFFFFFFFFFFFFFFFFFF
310
F000FFFFFFFFFFFFFFFFFFFFFFFFFFFFFFFFFFFFFFFFFFFFFFFFFFFFFFFFFFFF
310
FFFFFFFFFFFFFFFFFFFFFFFFFFFFFFFFFFFFFFFFFFFFFFFFFFFFFFFFFFFFFFFF
310
FFFFFFFFFFFFFFFFFFFFFFFFFFFFFFFFFFFFFFFFFFFFFFFFF000FFFFFFFFFFFF
310
FFFFFFFFFFFFFFFFFFFFFFFFFFFFFFFFFFFFFFFFFFFFFFFFFFFFFFFFFFFFFFFF
310
FFFFFFFFFFFFFFFFFFFFFFFFFFFFFFFFFFFFFFFFFFFFFFFFFFFFFFFFFFFFFFFF
310
FFFFFFFFFFFFFFFFFFFFFFFFFFFFFFFFF000FFFFFFFFFFFFFFFFFFFFFFFFFFFF
310
FFFFFFFFFFFFFFFFFFFFFFFFFFFFFFFFFFFFFFFFFFFFFFFFFFFFFFFFFFFFFFFF
310
FFFFFFFFFFFFFFFFFFFFFFFFFFFFFFFFFFFFFFFFFFFFFFFFFFFFFFFFFFFFFFFF
310
FFFFFFFFFFFFFFFFF000FFFFFFFFFFFFFFFFFFFFFFFFFFFFFFFFFFFFFFFFFFFF
310
FFFFFFFFFFFFFFFFFFFFFFFFFFFFFFFFFFFFFFFFFFFFFFFFFFFFFFFFFFFFFFFF
310
FFFFFFFFFFFFFFFFFFFFFFFFFFFFFFFFFFFFFFFFFFFFFFFFFFFFFFFFFFFFFFFF
310
F000FFFFFFFFFFFFFFFFFFFFFFFFFFFFFFFFFFFFFFFFFFFFFFFFFFFFFFFFFFFF
310
FFFFFFFFFFFFFFFFFFFFFFFFFFFFFFFFFFFFFFFFFFFFFFFFFFFFFFFFFFFFFFFF
310
FFFFFFFFFFFFFFFFFFFFFFFFFFFFFFFFFFFFFFFFFFFFFFFFF000FFFFFFFFFFFF
310
FFFFFFFFFFFFFFFFFFFFFFFFFFFFFFFFFFFFFFFFFFFFFFFFFFFFFFFFFFFFFFFF
310
FFFFFFFFFFFFFFFFFFFFFFFFFFFFFFFFFFFFFFFFFFFFFFFFFFFFFFFFFFFFFFFF
310
FFFFFFFFFFFFFFFFFFFFFFFFFFFFFFFFF0000000000000000000000000000000
310
0000000000000000000000000000000000000000000000000000000000000000
310
0000000000000000000000000000000000000000000000000000000000000000
310
0000000000000000000000000000000000000000000000000000000000000000
310
0000000000000000000000000000000000000000000000000000000000000000
310
0000000000000000000000000000000000000000000000000000000000000000
310
0000000000000000000000000000000000000000000000000000000000000000
310
0000000000000000000000000000000000000000000000000000000000000000
310
0000000000000000000000000000000000000000000000000000000000000000
310
0000000000000000000000000000000000000000000000000000000000000000
310
0000000000000000000000000000000000000000000000000000000000000000
310
0000000000000000000000000000000000000000000000000000000000000000
310
0000000000000000000000000000000000000000000000000000000000000000
310
0000000000000000000000000000000000000000000000000000000000000000
310
0000000000000000000000000000000000000000000000000000000000000000
310
0000000000000000000000000000000000000000000000000000000000000000
  1
OLE
  0
ENDSEC
  0
SECTION
  2
OBJECTS
  0
DICTIONARY
  5
C
330
0
100
AcDbDictionary
281
     1
  3
ACAD_GROUP
350
D
  3
ACAD_LAYOUT
350
1A
  3
ACAD_MLINESTYLE
350
17
  3
ACAD_PLOTSETTINGS
350
19
  3
ACAD_PLOTSTYLENAME
350
E
  3
ACAD_SCALELIST
350
47
  0
DICTIONARY
  5
D
102
{ACAD_REACTORS
330
C
102
}
330
C
100
AcDbDictionary
281
     1
  0
DICTIONARY
  5
1A
102
{ACAD_REACTORS
330
C
102
}
330
C
100
AcDbDictionary
281
     1
  3
Layout1
350
1E
  3
Layout2
350
26
  3
Model
350
22
  0
DICTIONARY
  5
17
102
{ACAD_REACTORS
330
C
102
}
330
C
100
AcDbDictionary
281
     1
  3
Standard
350
18
  0
DICTIONARY
  5
19
102
{ACAD_REACTORS
330
C
102
}
330
C
100
AcDbDictionary
281
     1
  0
ACDBDICTIONARYWDFLT
  5
E
102
{ACAD_REACTORS
330
C
102
}
330
C
100
AcDbDictionary
281
     1
  3
Normal
350
F
100
AcDbDictionaryWithDefault
340
F
  0
DICTIONARY
  5
47
102
{ACAD_REACTORS
330
C
102
}
330
C
100
AcDbDictionary
281
     1
  3
A0
350
48
  3
A1
350
49
  3
A2
350
4A
  3
A3
350
4B
  3
A4
350
4C
  3
A5
350
4D
  3
A6
350
4E
  3
A7
350
4F
  3
A8
350
50
  3
A9
350
51
  3
B0
350
52
  3
B1
350
53
  3
B2
350
54
  3
B3
350
55
  3
B4
350
56
  3
B5
350
57
  3
B6
350
58
  3
B7
350
59
  3
B8
350
5A
  3
B9
350
5B
  3
C0
350
5C
  3
C1
350
5D
  3
C2
350
5E
  3
C3
350
5F
  3
C4
350
60
  3
C5
350
61
  3
C6
350
62
  3
C7
350
63
  3
C8
350
64
  3
C9
350
65
  3
D0
350
66
  3
D1
350
67
  3
D2
350
68
  0
LAYOUT
  5
1E
102
{ACAD_REACTORS
330
1A
102
}
330
1A
100
AcDbPlotSettings
  1

  2
none_device
  4

  6

 40
0.0
 41
0.0
 42
0.0
 43
0.0
 44
0.0
 45
0.0
 46
0.0
 47
0.0
 48
0.0
 49
0.0
140
0.0
141
0.0
142
1.0
143
1.0
 70
   688
 72
     1
 73
     0
 74
     5
  7

 75
    16
147
1.0
148
0.0
149
0.0
100
AcDbLayout
  1
Layout1
 70
     1
 71
     1
 10
0.0
 20
0.0
 11
420.0
 21
297.0
 12
0.0
 22
0.0
 32
0.0
 14
1.0000000000E+20
 24
1.0000000000E+20
 34
1.0000000000E+20
 15
-1.0000000000E+20
 25
-1.0000000000E+20
 35
-1.0000000000E+20
146
0.0
 13
0.0
 23
0.0
 33
0.0
 16
1.0
 26
0.0
 36
0.0
 17
0.0
 27
1.0
 37
0.0
 76
     0
330
1B
  0
LAYOUT
  5
26
102
{ACAD_REACTORS
330
1A
102
}
330
1A
100
AcDbPlotSettings
  1

  2
none_device
  4

  6

 40
0.0
 41
0.0
 42
0.0
 43
0.0
 44
0.0
 45
0.0
 46
0.0
 47
0.0
 48
0.0
 49
0.0
140
0.0
141
0.0
142
1.0
143
1.0
 70
   688
 72
     1
 73
     0
 74
     5
  7

 75
    16
147
1.0
148
0.0
149
0.0
100
AcDbLayout
  1
Layout2
 70
     1
 71
     2
 10
0.0
 20
0.0
 11
0.0
 21
0.0
 12
0.0
 22
0.0
 32
0.0
 14
0.0
 24
0.0
 34
0.0
 15
0.0
 25
0.0
 35
0.0
146
0.0
 13
0.0
 23
0.0
 33
0.0
 16
1.0
 26
0.0
 36
0.0
 17
0.0
 27
1.0
 37
0.0
 76
     0
330
23
  0
LAYOUT
  5
22
102
{ACAD_REACTORS
330
1A
102
}
330
1A
100
AcDbPlotSettings
  1

  2
none_device
  4
Letter_(8.50_x_11.00_Inches)
  6

 40
6.35
 41
6.35
 42
6.35000508
 43
6.35000508
 44
215.9
 45
279.4
 46
0.0
 47
0.0
 48
0.0
 49
0.0
140
0.0
141
0.0
142
1.0
143
1.0
 70
  1712
 72
     1
 73
     0
 74
     0
  7

 75
     0
147
1.0
148
0.0
149
0.0
100
AcDbLayout
  1
Model
 70
     1
 71
     0
 10
0.0
 20
0.0
 11
297.0
 21
210.0
 12
0.0
 22
0.0
 32
0.0
 14
0.0
 24
0.0
 34
0.0
 15
297.0
 25
210.0
 35
0.0
146
0.0
 13
0.0
 23
0.0
 33
0.0
 16
1.0
 26
0.0
 36
0.0
 17
0.0
 27
1.0
 37
0.0
 76
     0
330
1F
331
29
  0
MLINESTYLE
  5
18
102
{ACAD_REACTORS
330
17
102
}
330
17
100
AcDbMlineStyle
  2
Standard
 70
     0
  3

 62
   256
 51
90.0
 52
90.0
 71
     2
 49
0.5
 62
   256
  6
BYLAYER
 49
-0.5
 62
   256
  6
BYLAYER
  0
ACDBPLACEHOLDER
  5
F
102
{ACAD_REACTORS
330
E
102
}
330
E
  0
SCALE
  5
48
102
{ACAD_REACTORS
330
47
102
}
330
47
100
AcDbScale
 70
     0
300
1:1
140
1.0
141
1.0
290
     1
  0
SCALE
  5
49
102
{ACAD_REACTORS
330
47
102
}
330
47
100
AcDbScale
 70
     0
300
1:2
140
1.0
141
2.0
290
     0
  0
SCALE
  5
4A
102
{ACAD_REACTORS
330
47
102
}
330
47
100
AcDbScale
 70
     0
300
1:4
140
1.0
141
4.0
290
     0
  0
SCALE
  5
4B
102
{ACAD_REACTORS
330
47
102
}
330
47
100
AcDbScale
 70
     0
300
1:5
140
1.0
141
5.0
290
     0
  0
SCALE
  5
4C
102
{ACAD_REACTORS
330
47
102
}
330
47
100
AcDbScale
 70
     0
300
1:8
140
1.0
141
8.0
290
     0
  0
SCALE
  5
4D
102
{ACAD_REACTORS
330
47
102
}
330
47
100
AcDbScale
 70
     0
300
1:10
140
1.0
141
10.0
290
     0
  0
SCALE
  5
4E
102
{ACAD_REACTORS
330
47
102
}
330
47
100
AcDbScale
 70
     0
300
1:16
140
1.0
141
16.0
290
     0
  0
SCALE
  5
4F
102
{ACAD_REACTORS
330
47
102
}
330
47
100
AcDbScale
 70
     0
300
1:20
140
1.0
141
20.0
290
     0
  0
SCALE
  5
50
102
{ACAD_REACTORS
330
47
102
}
330
47
100
AcDbScale
 70
     0
300
1:30
140
1.0
141
30.0
290
     0
  0
SCALE
  5
51
102
{ACAD_REACTORS
330
47
102
}
330
47
100
AcDbScale
 70
     0
300
1:40
140
1.0
141
40.0
290
     0
  0
SCALE
  5
52
102
{ACAD_REACTORS
330
47
102
}
330
47
100
AcDbScale
 70
     0
300
1:50
140
1.0
141
50.0
290
     0
  0
SCALE
  5
53
102
{ACAD_REACTORS
330
47
102
}
330
47
100
AcDbScale
 70
     0
300
1:100
140
1.0
141
100.0
290
     0
  0
SCALE
  5
54
102
{ACAD_REACTORS
330
47
102
}
330
47
100
AcDbScale
 70
     0
300
2:1
140
2.0
141
1.0
290
     0
  0
SCALE
  5
55
102
{ACAD_REACTORS
330
47
102
}
330
47
100
AcDbScale
 70
     0
300
4:1
140
4.0
141
1.0
290
     0
  0
SCALE
  5
56
102
{ACAD_REACTORS
330
47
102
}
330
47
100
AcDbScale
 70
     0
300
8:1
140
8.0
141
1.0
290
     0
  0
SCALE
  5
57
102
{ACAD_REACTORS
330
47
102
}
330
47
100
AcDbScale
 70
     0
300
10:1
140
10.0
141
1.0
290
     0
  0
SCALE
  5
58
102
{ACAD_REACTORS
330
47
102
}
330
47
100
AcDbScale
 70
     0
300
100:1
140
100.0
141
1.0
290
     0
  0
SCALE
  5
59
102
{ACAD_REACTORS
330
47
102
}
330
47
100
AcDbScale
 70
     0
300
1/128" = 1'-0"
140
0.0078125
141
12.0
290
     0
  0
SCALE
  5
5A
102
{ACAD_REACTORS
330
47
102
}
330
47
100
AcDbScale
 70
     0
300
1/64" = 1'-0"
140
0.015625
141
12.0
290
     0
  0
SCALE
  5
5B
102
{ACAD_REACTORS
330
47
102
}
330
47
100
AcDbScale
 70
     0
300
1/32" = 1'-0"
140
0.03125
141
12.0
290
     0
  0
SCALE
  5
5C
102
{ACAD_REACTORS
330
47
102
}
330
47
100
AcDbScale
 70
     0
300
1/16" = 1'-0"
140
0.0625
141
12.0
290
     0
  0
SCALE
  5
5D
102
{ACAD_REACTORS
330
47
102
}
330
47
100
AcDbScale
 70
     0
300
3/32" = 1'-0"
140
0.09375
141
12.0
290
     0
  0
SCALE
  5
5E
102
{ACAD_REACTORS
330
47
102
}
330
47
100
AcDbScale
 70
     0
300
1/8" = 1'-0"
140
0.125
141
12.0
290
     0
  0
SCALE
  5
5F
102
{ACAD_REACTORS
330
47
102
}
330
47
100
AcDbScale
 70
     0
300
3/16" = 1'-0"
140
0.1875
141
12.0
290
     0
  0
SCALE
  5
60
102
{ACAD_REACTORS
330
47
102
}
330
47
100
AcDbScale
 70
     0
300
1/4" = 1'-0"
140
0.25
141
12.0
290
     0
  0
SCALE
  5
61
102
{ACAD_REACTORS
330
47
102
}
330
47
100
AcDbScale
 70
     0
300
3/8" = 1'-0"
140
0.375
141
12.0
290
     0
  0
SCALE
  5
62
102
{ACAD_REACTORS
330
47
102
}
330
47
100
AcDbScale
 70
     0
300
1/2" = 1'-0"
140
0.5
141
12.0
290
     0
  0
SCALE
  5
63
102
{ACAD_REACTORS
330
47
102
}
330
47
100
AcDbScale
 70
     0
300
3/4" = 1'-0"
140
0.75
141
12.0
290
     0
  0
SCALE
  5
64
102
{ACAD_REACTORS
330
47
102
}
330
47
100
AcDbScale
 70
     0
300
1" = 1'-0"
140
1.0
141
12.0
290
     0
  0
SCALE
  5
65
102
{ACAD_REACTORS
330
47
102
}
330
47
100
AcDbScale
 70
     0
300
1-1/2" = 1'-0"
140
1.5
141
12.0
290
     0
  0
SCALE
  5
66
102
{ACAD_REACTORS
330
47
102
}
330
47
100
AcDbScale
 70
     0
300
3" = 1'-0"
140
3.0
141
12.0
290
     0
  0
SCALE
  5
67
102
{ACAD_REACTORS
330
47
102
}
330
47
100
AcDbScale
 70
     0
300
6" = 1'-0"
140
6.0
141
12.0
290
     0
  0
SCALE
  5
68
102
{ACAD_REACTORS
330
47
102
}
330
47
100
AcDbScale
 70
     0
300
1'-0" = 1'-0"
140
12.0
141
12.0
290
     0
  0
ENDSEC
  0
EOF
