  0
SECTION
  2
HEADER
  9
$ACADVER
  1
AC1015
  9
$ACADMAINTVER
 70
     6
  9
$DWGCODEPAGE
  3
ANSI_1252
  9
$INSBASE
 10
0.0
 20
0.0
 30
0.0
  9
$EXTMIN
 10
0.0
 20
0.0
 30
0.0
  9
$EXTMAX
 10
297.0
 20
210.0
 30
0.0
  9
$LIMMIN
 10
0.0
 20
0.0
  9
$LIMMAX
 10
297.0
 20
210.0
  9
$ORTHOMODE
 70
     0
  9
$REGENMODE
 70
     1
  9
$FILLMODE
 70
     1
  9
$QTEXTMODE
 70
     0
  9
$MIRRTEXT
 70
     1
  9
$LTSCALE
 40
1.0
  9
$ATTMODE
 70
     1
  9
$TEXTSIZE
 40
2.0
  9
$TRACEWID
 40
1.0
  9
$TEXTSTYLE
  7
Standard
  9
$CLAYER
  8
0
  9
$CELTYPE
  6
ByLayer
  9
$CECOLOR
 62
   256
  9
$CELTSCALE
 40
1.0
  9
$DISPSILH
 70
     0
  9
$DIMSCALE
 40
1.0
  9
$DIMASZ
 40
3.0
  9
$DIMEXO
 40
0.0
  9
$DIMDLI
 40
3.75
  9
$DIMRND
 40
0.0
  9
$DIMDLE
 40
0.0
  9
$DIMEXE
 40
1.0
  9
$DIMTP
 40
0.0
  9
$DIMTM
 40
0.0
  9
$DIMTXT
 40
2.0
  9
$DIMCEN
 40
2.5
  9
$DIMTSZ
 40
0.0
  9
$DIMTOL
 70
     0
  9
$DIMLIM
 70
     0
  9
$DIMTIH
 70
     1
  9
$DIMTOH
 70
     1
  9
$DIMSE1
 70
     0
  9
$DIMSE2
 70
     0
  9
$DIMTAD
 70
     1
  9
$DIMZIN
 70
     0
  9
$DIMBLK
  1

  9
$DIMASO
 70
     1
  9
$DIMSHO
 70
     1
  9
$DIMPOST
  1

  9
$DIMAPOST
  1

  9
$DIMALT
 70
     0
  9
$DIMALTD
 70
     3
  9
$DIMALTF
 40
0.0393700787
  9
$DIMLFAC
 40
1.0
  9
$DIMTOFL
 70
     1
  9
$DIMTVP
 40
0.0
  9
$DIMTIX
 70
     0
  9
$DIMSOXD
 70
     0
  9
$DIMSAH
 70
     0
  9
$DIMBLK1
  1

  9
$DIMBLK2
  1

  9
$DIMSTYLE
  2
ISO-25
  9
$DIMCLRD
 70
     0
  9
$DIMCLRE
 70
     0
  9
$DIMCLRT
 70
     0
  9
$DIMTFAC
 40
1.0
  9
$DIMGAP
 40
1.524
  9
$DIMJUST
 70
     0
  9
$DIMSD1
 70
     0
  9
$DIMSD2
 70
     0
  9
$DIMTOLJ
 70
     0
  9
$DIMTZIN
 70
     0
  9
$DIMALTZ
 70
     0
  9
$DIMALTTZ
 70
     0
  9
$DIMUPT
 70
     0
  9
$DIMDEC
 70
     2
  9
$DIMTDEC
 70
     3
  9
$DIMALTU
 70
     2
  9
$DIMALTTD
 70
     3
  9
$DIMTXSTY
  7
Standard
  9
$DIMAUNIT
 70
     0
  9
$DIMADEC
 70
     2
  9
$DIMALTRND
 40
0.0
  9
$DIMAZIN
 70
     0
  9
$DIMDSEP
 70
    44
  9
$DIMATFIT
 70
     3
  9
$DIMFRAC
 70
     0
  9
$DIMLDRBLK
  1

  9
$DIMLUNIT
 70
     2
  9
$DIMLWD
 70
    -2
  9
$DIMLWE
 70
    -2
  9
$DIMTMOVE
 70
     0
  9
$LUNITS
 70
     2
  9
$LUPREC
 70
     2
  9
$SKETCHINC
 40
1.0
  9
$FILLETRAD
 40
10.0
  9
$AUNITS
 70
     0
  9
$AUPREC
 70
     2
  9
$MENU
  1
.
  9
$ELEVATION
 40
0.0
  9
$PELEVATION
 40
0.0
  9
$THICKNESS
 40
0.0
  9
$LIMCHECK
 70
     0
  9
$CHAMFERA
 40
0.0
  9
$CHAMFERB
 40
0.0
  9
$CHAMFERC
 40
0.0
  9
$CHAMFERD
 40
0.0
  9
$SKPOLY
 70
     0
  9
$TDCREATE
 40
2457667.621146609
  9
$TDUCREATE
 40
2457667.537813276
  9
$TDUPDATE
 40
2457667.621147928
  9
$TDUUPDATE
 40
2457667.537814595
  9
$TDINDWG
 40
0.0000000116
  9
$TDUSRTIMER
 40
0.0000000116
  9
$USRTIMER
 70
     1
  9
$ANGBASE
 50
0.0
  9
$ANGDIR
 70
     0
  9
$PDMODE
 70
     0
  9
$PDSIZE
 40
-1.0
  9
$PLINEWID
 40
0.0
  9
$SPLFRAME
 70
     0
  9
$SPLINETYPE
 70
     6
  9
$SPLINESEGS
 70
     8
  9
$HANDSEED
  5
22D
  9
$SURFTAB1
 70
     6
  9
$SURFTAB2
 70
     6
  9
$SURFTYPE
 70
     6
  9
$SURFU
 70
     6
  9
$SURFV
 70
     6
  9
$UCSBASE
  2

  9
$UCSNAME
  2

  9
$UCSORG
 10
0.0
 20
0.0
 30
0.0
  9
$UCSXDIR
 10
1.0
 20
0.0
 30
0.0
  9
$UCSYDIR
 10
0.0
 20
1.0
 30
0.0
  9
$UCSORTHOREF
  2

  9
$UCSORTHOVIEW
 70
     0
  9
$UCSORGTOP
 10
0.0
 20
0.0
 30
0.0
  9
$UCSORGBOTTOM
 10
0.0
 20
0.0
 30
0.0
  9
$UCSORGLEFT
 10
0.0
 20
0.0
 30
0.0
  9
$UCSORGRIGHT
 10
0.0
 20
0.0
 30
0.0
  9
$UCSORGFRONT
 10
0.0
 20
0.0
 30
0.0
  9
$UCSORGBACK
 10
0.0
 20
0.0
 30
0.0
  9
$PUCSBASE
  2

  9
$PUCSNAME
  2

  9
$PUCSORG
 10
0.0
 20
0.0
 30
0.0
  9
$PUCSXDIR
 10
1.0
 20
0.0
 30
0.0
  9
$PUCSYDIR
 10
0.0
 20
1.0
 30
0.0
  9
$PUCSORTHOREF
  2

  9
$PUCSORTHOVIEW
 70
     0
  9
$PUCSORGTOP
 10
0.0
 20
0.0
 30
0.0
  9
$PUCSORGBOTTOM
 10
0.0
 20
0.0
 30
0.0
  9
$PUCSORGLEFT
 10
0.0
 20
0.0
 30
0.0
  9
$PUCSORGRIGHT
 10
0.0
 20
0.0
 30
0.0
  9
$PUCSORGFRONT
 10
0.0
 20
0.0
 30
0.0
  9
$PUCSORGBACK
 10
0.0
 20
0.0
 30
0.0
  9
$USERI1
 70
     0
  9
$USERI2
 70
     0
  9
$USERI3
 70
     0
  9
$USERI4
 70
     0
  9
$USERI5
 70
     0
  9
$USERR1
 40
0.0
  9
$USERR2
 40
0.0
  9
$USERR3
 40
0.0
  9
$USERR4
 40
0.0
  9
$USERR5
 40
0.0
  9
$WORLDVIEW
 70
     1
  9
$SHADEDGE
 70
     3
  9
$SHADEDIF
 70
    70
  9
$TILEMODE
 70
     1
  9
$MAXACTVP
 70
    64
  9
$PINSBASE
 10
0.0
 20
0.0
 30
0.0
  9
$PLIMCHECK
 70
     0
  9
$PEXTMIN
 10
1.0000000000E+20
 20
1.0000000000E+20
 30
1.0000000000E+20
  9
$PEXTMAX
 10
-1.0000000000E+20
 20
-1.0000000000E+20
 30
-1.0000000000E+20
  9
$PLIMMIN
 10
0.0
 20
0.0
  9
$PLIMMAX
 10
420.0
 20
297.0
  9
$UNITMODE
 70
     0
  9
$VISRETAIN
 70
     1
  9
$PLINEGEN
 70
     0
  9
$PSLTSCALE
 70
     1
  9
$TREEDEPTH
 70
  3020
  9
$CMLSTYLE
  2
Standard
  9
$CMLJUST
 70
     0
  9
$CMLSCALE
 40
20.0
  9
$PROXYGRAPHICS
 70
     1
  9
$MEASUREMENT
 70
     1
  9
$CELWEIGHT
370
    -1
  9
$ENDCAPS
280
     0
  9
$JOINSTYLE
280
     0
  9
$LWDISPLAY
290
     1
  9
$INSUNITS
 70
     4
  9
$HYPERLINKBASE
  1

  9
$STYLESHEET
  1

  9
$XEDIT
290
     1
  9
$CEPSNTYPE
380
     0
  9
$PSTYLEMODE
290
     1
  9
$FINGERPRINTGUID
  2
{FC28099E-FC29-4BAC-8218-0719E4A498D5}
  9
$VERSIONGUID
  2
{FAEB1C32-E019-11D5-929B-00C0DF256EC4}
  9
$EXTNAMES
290
     1
  9
$PSVPSCALE
 40
0.0
  9
$OLESTARTUP
290
     0
  0
ENDSEC
  0
SECTION
  2
CLASSES
  0
CLASS
  1
ACDBDICTIONARYWDFLT
  2
AcDbDictionaryWithDefault
  3
ObjectDBX Classes
 90
        0
280
     0
281
     0
  0
CLASS
  1
VISUALSTYLE
  2
AcDbVisualStyle
  3
ObjectDBX Classes
 90
     4095
280
     0
281
     0
  0
CLASS
  1
MATERIAL
  2
AcDbMaterial
  3
ObjectDBX Classes
 90
     1153
280
     0
281
     0
  0
CLASS
  1
SCALE
  2
AcDbScale
  3
ObjectDBX Classes
 90
     1153
280
     0
281
     0
  0
CLASS
  1
TABLESTYLE
  2
AcDbTableStyle
  3
ObjectDBX Classes
 90
     4095
280
     0
281
     0
  0
CLASS
  1
MLEADERSTYLE
  2
AcDbMLeaderStyle
  3
ACDB_MLEADERSTYLE_CLASS
 90
     4095
280
     0
281
     0
  0
CLASS
  1
SUN
  2
AcDbSun
  3
SCENEOE
 90
     1153
280
     0
281
     0
  0
CLASS
  1
ACDBPLACEHOLDER
  2
AcDbPlaceHolder
  3
ObjectDBX Classes
 90
        0
280
     0
281
     0
  0
CLASS
  1
LAYOUT
  2
AcDbLayout
  3
ObjectDBX Classes
 90
        0
280
     0
281
     0
  0
ENDSEC
  0
SECTION
  2
TABLES
  0
TABLE
  2
VPORT
  5
8
330
0
100
AcDbSymbolTable
 70
     1
  0
VPORT
  5
29
330
8
100
AcDbSymbolTableRecord
100
AcDbViewportTableRecord
  2
*Active
 70
     0
 10
0.0
 20
0.0
 11
1.0
 21
1.0
 12
148.5
 22
105.0
 13
0.0
 23
0.0
 14
10.0
 24
10.0
 15
10.0
 25
10.0
 16
0.0
 26
0.0
 36
1.0
 17
0.0
 27
0.0
 37
0.0
 40
210.0
 41
1.4142857143
 42
50.0
 43
0.0
 44
0.0
 50
0.0
 51
0.0
 71
     0
 72
  2000
 73
     1
 74
     3
 75
     0
 76
     0
 77
     0
 78
     0
281
     0
 65
     1
110
0.0
120
0.0
130
0.0
111
1.0
121
0.0
131
0.0
112
0.0
122
1.0
132
0.0
 79
     0
146
0.0
  0
ENDTAB
  0
TABLE
  2
LTYPE
  5
5
330
0
100
AcDbSymbolTable
 70
     6
  0
LTYPE
  5
14
330
5
100
AcDbSymbolTableRecord
100
AcDbLinetypeTableRecord
  2
ByBlock
 70
     0
  3

 72
    65
 73
     0
 40
0.0
  0
LTYPE
  5
15
330
5
100
AcDbSymbolTableRecord
100
AcDbLinetypeTableRecord
  2
ByLayer
 70
     0
  3

 72
    65
 73
     0
 40
0.0
  0
LTYPE
  5
16
330
5
100
AcDbSymbolTableRecord
100
AcDbLinetypeTableRecord
  2
Continuous
 70
     0
  3
Solid line
 72
    65
 73
     0
 40
0.0
  0
LTYPE
  5
6E
330
5
100
AcDbSymbolTableRecord
100
AcDbLinetypeTableRecord
  2
HIDDEN
 70
     0
  3
Hidden __ __ __ __ __ __ __ __ __ __ __ __ __ __
 72
    65
 73
     2
 40
1.905
 49
1.27
 74
     0
 49
-0.635
 74
     0
  0
LTYPE
  5
6F
330
5
100
AcDbSymbolTableRecord
100
AcDbLinetypeTableRecord
  2
PHANTOM
 70
     0
  3
Phantom ______  __  __  ______  __  __  ______
 72
    65
 73
     6
 40
12.7
 49
6.35
 74
     0
 49
-1.27
 74
     0
 49
1.27
 74
     0
 49
-1.27
 74
     0
 49
1.27
 74
     0
 49
-1.27
 74
     0
  0
LTYPE
  5
70
330
5
100
AcDbSymbolTableRecord
100
AcDbLinetypeTableRecord
  2
CENTER
 70
     0
  3
Center ____ _ ____ _ ____ _ ____ _ ____ _ ____
 72
    65
 73
     4
 40
10.16
 49
6.35
 74
     0
 49
-1.27
 74
     0
 49
1.27
 74
     0
 49
-1.27
 74
     0
  0
LTYPE
  5
71
330
5
100
AcDbSymbolTableRecord
100
AcDbLinetypeTableRecord
  2
CENTERX2
 70
     0
  3
Center (2x) ________  __  ________  __  _____
 72
    65
 73
     4
 40
20.32
 49
12.7
 74
     0
 49
-2.54
 74
     0
 49
2.54
 74
     0
 49
-2.54
 74
     0
  0
LTYPE
  5
72
330
5
100
AcDbSymbolTableRecord
100
AcDbLinetypeTableRecord
  2
DOT2
 70
     0
  3
Dot (.5x) ........................................
 72
    65
 73
     2
 40
0.635
 49
0.0
 74
     0
 49
-0.635
 74
     0
  0
ENDTAB
  0
TABLE
  2
LAYER
  5
2
330
0
100
AcDbSymbolTable
 70
     5
  0
LAYER
  5
10
330
2
100
AcDbSymbolTableRecord
100
AcDbLayerTableRecord
  2
0
 70
     0
 62
     7
  6
Continuous
370
    -3
390
F
  0
LAYER
  5
73
330
2
100
AcDbSymbolTableRecord
100
AcDbLayerTableRecord
  2
FORMAT
 70
     0
 62
     7
  6
Continuous
370
    -3
390
F
  0
LAYER
  5
74
330
2
100
AcDbSymbolTableRecord
100
AcDbLayerTableRecord
  2
VERMASSUNG
 70
     0
 62
     7
  6
Continuous
370
    -3
390
F
  0
LAYER
  5
75
330
2
100
AcDbSymbolTableRecord
100
AcDbLayerTableRecord
  2
KOPF_DÜNN
 70
     0
 62
     7
  6
Continuous
370
    -3
390
F
  0
LAYER
  5
76
330
2
100
AcDbSymbolTableRecord
100
AcDbLayerTableRecord
  2
KOPF_DICK
 70
     0
 62
     7
  6
Continuous
370
    15
390
F
  0
ENDTAB
  0
TABLE
  2
STYLE
  5
3
330
0
100
AcDbSymbolTable
 70
     2
  0
STYLE
  5
11
330
3
100
AcDbSymbolTableRecord
100
AcDbTextStyleTableRecord
  2
Standard
 70
     0
 40
0.0
 41
1.0
 50
0.0
 71
     0
 42
2.0
  3
txt
  4

  0
STYLE
  5
77
330
3
100
AcDbSymbolTableRecord
100
AcDbTextStyleTableRecord
  2
SLDTEXTSTYLE0
 70
     0
 40
0.0
 41
0.7
 50
0.0
 71
     0
 42
2.0
  3
TXT
  4

  0
ENDTAB
  0
TABLE
  2
VIEW
  5
6
330
0
100
AcDbSymbolTable
 70
     0
  0
ENDTAB
  0
TABLE
  2
UCS
  5
7
330
0
100
AcDbSymbolTable
 70
     0
  0
ENDTAB
  0
TABLE
  2
APPID
  5
9
330
0
100
AcDbSymbolTable
 70
     1
  0
APPID
  5
12
330
9
100
AcDbSymbolTableRecord
100
AcDbRegAppTableRecord
  2
ACAD
 70
     0
  0
ENDTAB
  0
TABLE
  2
DIMSTYLE
  5
A
330
0
100
AcDbSymbolTable
 70
     2
100
AcDbDimStyleTable
  0
DIMSTYLE
105
27
330
A
100
AcDbSymbolTableRecord
100
AcDbDimStyleTableRecord
  2
ISO-25
 70
     0
 41
2.5
 42
0.625
 43
3.75
 44
1.25
 73
     0
 74
     0
 77
     1
 78
     8
140
2.5
141
2.5
143
0.0393700787
147
0.625
171
     3
172
     1
178
     0
271
     2
272
     2
274
     3
278
    44
283
     0
284
     8
340
11
  0
DIMSTYLE
105
13C
102
{ACAD_REACTORS
330
13B
330
148
330
153
330
15F
330
169
330
175
102
}
330
A
100
AcDbSymbolTableRecord
100
AcDbDimStyleTableRecord
  2
SLDDIMSTYLE0
 70
     0
 41
3.0
 44
0.0
 45
0.000000001
 73
     0
 74
     0
 77
     1
 78
    12
 79
     3
140
2.0
147
0.5
173
     1
178
     0
271
     2
272
     3
276
     2
284
    12
340
77
  0
ENDTAB
  0
TABLE
  2
BLOCK_RECORD
  5
1
330
0
100
AcDbSymbolTable
 70
     7
  0
BLOCK_RECORD
  5
1F
330
1
100
AcDbSymbolTableRecord
100
AcDbBlockTableRecord
  2
*Model_Space
340
22
  0
BLOCK_RECORD
  5
1B
330
1
100
AcDbSymbolTableRecord
100
AcDbBlockTableRecord
  2
*Paper_Space
340
1E
  0
BLOCK_RECORD
  5
23
330
1
100
AcDbSymbolTableRecord
100
AcDbBlockTableRecord
  2
*Paper_Space0
340
26
  0
BLOCK_RECORD
  5
13D
330
1
100
AcDbSymbolTableRecord
100
AcDbBlockTableRecord
  2
_D
340
0
  0
BLOCK_RECORD
  5
149
330
1
100
AcDbSymbolTableRecord
100
AcDbBlockTableRecord
  2
_D_1
340
0
  0
BLOCK_RECORD
  5
154
330
1
100
AcDbSymbolTableRecord
100
AcDbBlockTableRecord
  2
_D_2
340
0
  0
BLOCK_RECORD
  5
160
330
1
100
AcDbSymbolTableRecord
100
AcDbBlockTableRecord
  2
_D_3
340
0
  0
BLOCK_RECORD
  5
16A
330
1
100
AcDbSymbolTableRecord
100
AcDbBlockTableRecord
  2
_D_4
340
0
  0
BLOCK_RECORD
  5
176
330
1
100
AcDbSymbolTableRecord
100
AcDbBlockTableRecord
  2
_D_5
340
0
  0
ENDTAB
  0
ENDSEC
  0
SECTION
  2
BLOCKS
  0
BLOCK
  5
20
330
1F
100
AcDbEntity
  8
0
100
AcDbBlockBegin
  2
*Model_Space
 70
     0
 10
0.0
 20
0.0
 30
0.0
  3
*Model_Space
  1

  0
ENDBLK
  5
21
330
1F
100
AcDbEntity
  8
0
100
AcDbBlockEnd
  0
BLOCK
  5
1C
330
1B
100
AcDbEntity
 67
     1
  8
0
100
AcDbBlockBegin
  2
*Paper_Space
 70
     0
 10
0.0
 20
0.0
 30
0.0
  3
*Paper_Space
  1

  0
ENDBLK
  5
1D
330
1B
100
AcDbEntity
 67
     1
  8
0
100
AcDbBlockEnd
  0
BLOCK
  5
24
330
23
100
AcDbEntity
  8
0
100
AcDbBlockBegin
  2
*Paper_Space0
 70
     0
 10
0.0
 20
0.0
 30
0.0
  3
*Paper_Space0
  1

  0
ENDBLK
  5
25
330
23
100
AcDbEntity
  8
0
100
AcDbBlockEnd
  0
BLOCK
  5
13E
330
13D
100
AcDbEntity
  8
0
100
AcDbBlockBegin
  2
_D
 70
     0
 10
0.0
 20
0.0
 30
0.0
  3
_D
  1

  0
SOLID
  5
140
330
13D
100
AcDbEntity
  8
VERMASSUNG
100
AcDbTrace
 10
55.5747853298
 20
67.1214893823
 30
0.0
 11
56.0247853298
 21
70.1214893823
 31
0.0
 12
55.1247853298
 22
70.1214893823
 32
0.0
 13
55.1247853298
 23
70.1214893823
 33
0.0
  0
SOLID
  5
141
330
13D
100
AcDbEntity
  8
VERMASSUNG
100
AcDbTrace
 10
55.5747853298
 20
164.5714893823
 30
0.0
 11
55.1247853298
 21
161.5714893823
 31
0.0
 12
56.0247853298
 22
161.5714893823
 32
0.0
 13
56.0247853298
 23
161.5714893823
 33
0.0
  0
LINE
  5
142
330
13D
100
AcDbEntity
  8
VERMASSUNG
100
AcDbLine
 10
182.5648412546
 20
67.1214893823
 30
0.0
 11
54.5747853298
 21
67.1214893823
 31
0.0
  0
LINE
  5
143
330
13D
100
AcDbEntity
  8
VERMASSUNG
100
AcDbLine
 10
182.5648412546
 20
164.5714893823
 30
0.0
 11
54.5747853298
 21
164.5714893823
 31
0.0
  0
LINE
  5
144
330
13D
100
AcDbEntity
  8
VERMASSUNG
100
AcDbLine
 10
55.5747853298
 20
67.1214893823
 30
0.0
 11
55.5747853298
 21
164.5714893823
 31
0.0
  0
MTEXT
  5
145
330
13D
100
AcDbEntity
  8
VERMASSUNG
100
AcDbMText
 10
52.7966500736
 20
106.3420537489
 30
0.0
 40
2.0
 41
0.0
 71
     1
 72
     1
  1
ISO 50
  7
SLDTEXTSTYLE0
 11
3.391901413832837E-15
 21
1.0
 31
0.0
 73
     1
 44
1.0
  0
MTEXT
  5
146
330
13D
100
AcDbEntity
  8
VERMASSUNG
100
AcDbMText
 10
52.9966500249
 20
115.3420533615
 30
0.0
 40
2.0
 41
0.0
 71
     1
 72
     1
  1
%%c
  7
SLDTEXTSTYLE0
 11
3.391901413832837E-15
 21
1.0
 31
0.0
 73
     1
 44
1.0
  0
MTEXT
  5
147
330
13D
100
AcDbEntity
  8
VERMASSUNG
100
AcDbMText
 10
52.9966497339
 20
118.9513966943
 30
0.0
 40
2.0
 41
0.0
 71
     1
 72
     1
  1
97.45
  7
SLDTEXTSTYLE0
 11
3.391901413832837E-15
 21
1.0
 31
0.0
 73
     1
 44
1.0
  0
ENDBLK
  5
13F
330
13D
100
AcDbEntity
  8
0
100
AcDbBlockEnd
  0
BLOCK
  5
14A
330
149
100
AcDbEntity
  8
0
100
AcDbBlockBegin
  2
_D_1
 70
     0
 10
0.0
 20
0.0
 30
0.0
  3
_D_1
  1

  0
SOLID
  5
14C
330
149
100
AcDbEntity
  8
VERMASSUNG
100
AcDbTrace
 10
241.6922927944
 20
133.8464893823
 30
0.0
 11
241.2422927944
 21
130.8464893823
 31
0.0
 12
242.1422927944
 22
130.8464893823
 32
0.0
 13
242.1422927944
 23
130.8464893823
 33
0.0
  0
SOLID
  5
14D
330
149
100
AcDbEntity
  8
VERMASSUNG
100
AcDbTrace
 10
241.6922927944
 20
97.8464893823
 30
0.0
 11
242.1422927944
 21
100.8464893823
 31
0.0
 12
241.2422927944
 22
100.8464893823
 32
0.0
 13
241.2422927944
 23
100.8464893823
 33
0.0
  0
LINE
  5
14E
330
149
100
AcDbEntity
  8
VERMASSUNG
100
AcDbLine
 10
216.5148412545
 20
133.8464893823
 30
0.0
 11
242.6922927944
 21
133.8464893823
 31
0.0
  0
LINE
  5
14F
330
149
100
AcDbEntity
  8
VERMASSUNG
100
AcDbLine
 10
216.5148412545
 20
97.8464893823
 30
0.0
 11
242.6922927944
 21
97.8464893823
 31
0.0
  0
LINE
  5
150
330
149
100
AcDbEntity
  8
VERMASSUNG
100
AcDbLine
 10
241.6922927944
 20
133.8464893823
 30
0.0
 11
241.6922927944
 21
97.8464893823
 31
0.0
  0
MTEXT
  5
151
330
149
100
AcDbEntity
  8
VERMASSUNG
100
AcDbMText
 10
239.1141572567
 20
112.6423132752
 30
0.0
 40
2.0
 41
0.0
 71
     1
 72
     1
  1
%%c
  7
SLDTEXTSTYLE0
 11
-7.044195017643634E-15
 21
1.0
 31
0.0
 73
     1
 44
1.0
  0
MTEXT
  5
152
330
149
100
AcDbEntity
  8
VERMASSUNG
100
AcDbMText
 10
239.1141571985
 20
116.2512854688
 30
0.0
 40
2.0
 41
0.0
 71
     1
 72
     1
  1
36
  7
SLDTEXTSTYLE0
 11
-7.044195017643634E-15
 21
1.0
 31
0.0
 73
     1
 44
1.0
  0
ENDBLK
  5
14B
330
149
100
AcDbEntity
  8
0
100
AcDbBlockEnd
  0
BLOCK
  5
155
330
154
100
AcDbEntity
  8
0
100
AcDbBlockBegin
  2
_D_2
 70
     0
 10
0.0
 20
0.0
 30
0.0
  3
_D_2
  1

  0
ARC
  5
157
330
154
100
AcDbEntity
  8
VERMASSUNG
100
AcDbCircle
 10
207.1512629847
 20
170.1803397553
 30
0.0
 40
4.247059938537297
100
AcDbArc
 50
153.4349488229
 51
206.5650511771
  0
ARC
  5
158
330
154
100
AcDbEntity
  8
VERMASSUNG
100
AcDbCircle
 10
209.1284195244
 20
170.1803397553
 30
0.0
 40
4.247059938537297
100
AcDbArc
 50
333.4349488229
 51
26.5650511771
  0
SOLID
  5
159
330
154
100
AcDbEntity
  8
VERMASSUNG
100
AcDbTrace
 10
183.1648412546
 20
168.2809968099
 30
0.0
 11
186.1648412546
 21
167.8309968099
 31
0.0
 12
186.1648412546
 22
168.7309968099
 32
0.0
 13
186.1648412546
 23
168.7309968099
 33
0.0
  0
SOLID
  5
15A
330
154
100
AcDbEntity
  8
VERMASSUNG
100
AcDbTrace
 10
233.1148412546
 20
168.2809968099
 30
0.0
 11
230.1148412546
 21
168.7309968099
 31
0.0
 12
230.1148412546
 22
167.8309968099
 32
0.0
 13
230.1148412546
 23
167.8309968099
 33
0.0
  0
LINE
  5
15B
330
154
100
AcDbEntity
  8
VERMASSUNG
100
AcDbLine
 10
183.1648412546
 20
162.1414763355
 30
0.0
 11
183.1648412546
 21
169.2809968099
 31
0.0
  0
LINE
  5
15C
330
154
100
AcDbEntity
  8
VERMASSUNG
100
AcDbLine
 10
233.1148412546
 20
147.2464893823
 30
0.0
 11
233.1148412546
 21
169.2809968099
 31
0.0
  0
LINE
  5
15D
330
154
100
AcDbEntity
  8
VERMASSUNG
100
AcDbLine
 10
183.1648412546
 20
168.2809968099
 30
0.0
 11
233.1148412546
 21
168.2809968099
 31
0.0
  0
MTEXT
  5
15E
330
154
100
AcDbEntity
  8
VERMASSUNG
100
AcDbMText
 10
204.9400770939
 20
170.8591324059
 30
0.0
 40
2.0
 41
0.0
 71
     1
 72
     1
  1
49.95
  7
SLDTEXTSTYLE0
 73
     1
 44
1.0
  0
ENDBLK
  5
156
330
154
100
AcDbEntity
  8
0
100
AcDbBlockEnd
  0
BLOCK
  5
161
330
160
100
AcDbEntity
  8
0
100
AcDbBlockBegin
  2
_D_3
 70
     0
 10
0.0
 20
0.0
 30
0.0
  3
_D_3
  1

  0
SOLID
  5
163
330
160
100
AcDbEntity
  8
VERMASSUNG
100
AcDbTrace
 10
164.1148412546
 20
174.2809968099
 30
0.0
 11
167.1148412546
 21
173.8309968099
 31
0.0
 12
167.1148412546
 22
174.7309968099
 32
0.0
 13
167.1148412546
 23
174.7309968099
 33
0.0
  0
SOLID
  5
164
330
160
100
AcDbEntity
  8
VERMASSUNG
100
AcDbTrace
 10
233.1148412546
 20
174.2809968099
 30
0.0
 11
230.1148412546
 21
174.7309968099
 31
0.0
 12
230.1148412546
 22
173.8309968099
 32
0.0
 13
230.1148412546
 23
173.8309968099
 33
0.0
  0
LINE
  5
165
330
160
100
AcDbEntity
  8
VERMASSUNG
100
AcDbLine
 10
164.1148412546
 20
150.7714893823
 30
0.0
 11
164.1148412546
 21
175.2809968099
 31
0.0
  0
LINE
  5
166
330
160
100
AcDbEntity
  8
VERMASSUNG
100
AcDbLine
 10
233.1148412546
 20
147.2464893823
 30
0.0
 11
233.1148412546
 21
175.2809968099
 31
0.0
  0
LINE
  5
167
330
160
100
AcDbEntity
  8
VERMASSUNG
100
AcDbLine
 10
164.1148412546
 20
174.2809968099
 30
0.0
 11
233.1148412546
 21
174.2809968099
 31
0.0
  0
MTEXT
  5
168
330
160
100
AcDbEntity
  8
VERMASSUNG
100
AcDbMText
 10
197.2151512443
 20
176.8591324059
 30
0.0
 40
2.0
 41
0.0
 71
     1
 72
     1
  1
69
  7
SLDTEXTSTYLE0
 73
     1
 44
1.0
  0
ENDBLK
  5
162
330
160
100
AcDbEntity
  8
0
100
AcDbBlockEnd
  0
BLOCK
  5
16B
330
16A
100
AcDbEntity
  8
0
100
AcDbBlockBegin
  2
_D_4
 70
     0
 10
0.0
 20
0.0
 30
0.0
  3
_D_4
  1

  0
ARC
  5
16D
330
16A
100
AcDbEntity
  8
VERMASSUNG
100
AcDbCircle
 10
147.1262753431
 20
182.1803397553
 30
0.0
 40
4.247059938537348
100
AcDbArc
 50
153.4349488229
 51
206.5650511771
  0
ARC
  5
16E
330
16A
100
AcDbEntity
  8
VERMASSUNG
100
AcDbCircle
 10
148.503407166
 20
182.1803397553
 30
0.0
 40
4.247059938537297
100
AcDbArc
 50
333.4349488229
 51
26.5650511771
  0
SOLID
  5
16F
330
16A
100
AcDbEntity
  8
VERMASSUNG
100
AcDbTrace
 10
62.5148412546
 20
180.2809968099
 30
0.0
 11
65.5148412546
 21
179.8309968099
 31
0.0
 12
65.5148412546
 22
180.7309968099
 32
0.0
 13
65.5148412546
 23
180.7309968099
 33
0.0
  0
SOLID
  5
170
330
16A
100
AcDbEntity
  8
VERMASSUNG
100
AcDbTrace
 10
233.1148412546
 20
180.2809968099
 30
0.0
 11
230.1148412546
 21
180.7309968099
 31
0.0
 12
230.1148412546
 22
179.8309968099
 32
0.0
 13
230.1148412546
 23
179.8309968099
 33
0.0
  0
LINE
  5
171
330
16A
100
AcDbEntity
  8
VERMASSUNG
100
AcDbLine
 10
62.5148412546
 20
134.2253339097
 30
0.0
 11
62.5148412546
 21
181.2809968099
 31
0.0
  0
LINE
  5
172
330
16A
100
AcDbEntity
  8
VERMASSUNG
100
AcDbLine
 10
233.1148412546
 20
147.2464893823
 30
0.0
 11
233.1148412546
 21
181.2809968099
 31
0.0
  0
LINE
  5
173
330
16A
100
AcDbEntity
  8
VERMASSUNG
100
AcDbLine
 10
62.5148412546
 20
180.2809968099
 30
0.0
 11
233.1148412546
 21
180.2809968099
 31
0.0
  0
MTEXT
  5
174
330
16A
100
AcDbEntity
  8
VERMASSUNG
100
AcDbMText
 10
144.9150894523
 20
182.8591324059
 30
0.0
 40
2.0
 41
0.0
 71
     1
 72
     1
  1
170.6
  7
SLDTEXTSTYLE0
 73
     1
 44
1.0
  0
ENDBLK
  5
16C
330
16A
100
AcDbEntity
  8
0
100
AcDbBlockEnd
  0
BLOCK
  5
177
330
176
100
AcDbEntity
  8
0
100
AcDbBlockBegin
  2
_D_5
 70
     0
 10
0.0
 20
0.0
 30
0.0
  3
_D_5
  1

  0
SOLID
  5
179
330
176
100
AcDbEntity
  8
VERMASSUNG
100
AcDbTrace
 10
247.6922927944
 20
147.8464893823
 30
0.0
 11
247.2422927944
 21
144.8464893823
 31
0.0
 12
248.1422927944
 22
144.8464893823
 32
0.0
 13
248.1422927944
 23
144.8464893823
 33
0.0
  0
SOLID
  5
17A
330
176
100
AcDbEntity
  8
VERMASSUNG
100
AcDbTrace
 10
247.6922927944
 20
83.8464893823
 30
0.0
 11
248.1422927944
 21
86.8464893823
 31
0.0
 12
247.2422927944
 22
86.8464893823
 32
0.0
 13
247.2422927944
 23
86.8464893823
 33
0.0
  0
LINE
  5
17B
330
176
100
AcDbEntity
  8
VERMASSUNG
100
AcDbLine
 10
232.5148412546
 20
147.8464893823
 30
0.0
 11
248.6922927944
 21
147.8464893823
 31
0.0
  0
LINE
  5
17C
330
176
100
AcDbEntity
  8
VERMASSUNG
100
AcDbLine
 10
232.5148412546
 20
83.8464893823
 30
0.0
 11
248.6922927944
 21
83.8464893823
 31
0.0
  0
LINE
  5
17D
330
176
100
AcDbEntity
  8
VERMASSUNG
100
AcDbLine
 10
247.6922927944
 20
147.8464893823
 30
0.0
 11
247.6922927944
 21
83.8464893823
 31
0.0
  0
MTEXT
  5
17E
330
176
100
AcDbEntity
  8
VERMASSUNG
100
AcDbMText
 10
244.9141575382
 20
109.6414898646
 30
0.0
 40
2.0
 41
0.0
 71
     1
 72
     1
  1
ST6
  7
SLDTEXTSTYLE0
 11
-7.044195017643634E-15
 21
1.0
 31
0.0
 73
     1
 44
1.0
  0
MTEXT
  5
17F
330
176
100
AcDbEntity
  8
VERMASSUNG
100
AcDbMText
 10
245.1141574895
 20
115.4414897909
 30
0.0
 40
2.0
 41
0.0
 71
     1
 72
     1
  1
%%c
  7
SLDTEXTSTYLE0
 11
-7.044195017643634E-15
 21
1.0
 31
0.0
 73
     1
 44
1.0
  0
MTEXT
  5
180
330
176
100
AcDbEntity
  8
VERMASSUNG
100
AcDbMText
 10
244.9141575382
 20
119.0514893395
 30
0.0
 40
2.0
 41
0.0
 71
     1
 72
     1
  1
64
  7
SLDTEXTSTYLE0
 11
-7.044195017643634E-15
 21
1.0
 31
0.0
 73
     1
 44
1.0
  0
ENDBLK
  5
178
330
176
100
AcDbEntity
  8
0
100
AcDbBlockEnd
  0
ENDSEC
  0
SECTION
  2
ENTITIES
  0
MTEXT
  5
78
330
1F
100
AcDbEntity
  8
KOPF_DÜNN
100
AcDbMText
 10
13.8892156294
 20
23.8442973028
 30
0.0
 40
3.0
 41
0.0
 71
     1
 72
     1
  1
114.450.064.069
  7
SLDTEXTSTYLE0
 73
     1
 44
1.0
  0
MTEXT
  5
79
330
1F
100
AcDbEntity
  8
VERMASSUNG
100
AcDbMText
 10
13.9329988022
 20
28.8834360957
 30
0.0
 40
3.0
 41
0.0
 71
     1
 72
     1
  1
Aufnahme_Master shank ST6+
  7
SLDTEXTSTYLE0
 73
     1
 44
1.0
  0
MTEXT
  5
7A
330
1F
100
AcDbEntity
  8
VERMASSUNG
100
AcDbMText
 10
98.8601118557
 20
13.8365368761
 30
0.0
 40
2.0
 41
0.0
 71
     1
 72
     1
  1
Datum: 14.05.2008
  7
SLDTEXTSTYLE0
 73
     1
 44
1.0
  0
MTEXT
  5
7B
330
1F
100
AcDbEntity
  8
VERMASSUNG
100
AcDbMText
 10
13.933048693
 20
18.0482802738
 30
0.0
 40
2.0
 41
0.0
 71
     1
 72
     1
  1
DIN 69871 A/D ISO 50
  7
SLDTEXTSTYLE0
 73
     1
 44
1.0
  0
MTEXT
  5
7C
330
1F
100
AcDbEntity
  8
VERMASSUNG
100
AcDbMText
 10
13.9808475933
 20
13.9090974274
 30
0.0
 40
2.0
 41
0.0
 71
     1
 72
     1
  1
Gewicht: 3355g
  7
SLDTEXTSTYLE0
 73
     1
 44
1.0
  0
ARC
  5
7D
330
1F
100
AcDbEntity
  8
0
  6
Continuous
 62
     7
370
    15
100
AcDbCircle
 10
187.1648412546
 20
79.8464893823
 30
0.0
 40
4.0
100
AcDbArc
 50
90.0
 51
169.9306041615
  0
ARC
  5
7E
330
1F
100
AcDbEntity
  8
0
  6
Continuous
 62
     7
370
    15
100
AcDbCircle
 10
187.1648412546
 20
151.8464893823
 30
0.0
 40
4.000000000000028
100
AcDbArc
 50
180.0
 51
270.0
  0
ARC
  5
7F
330
1F
100
AcDbEntity
  8
0
  6
Continuous
 62
     7
370
    15
100
AcDbCircle
 10
166.7148412546
 20
80.3214893823
 30
0.0
 40
0.6000000000000085
100
AcDbArc
 50
0.0
 51
90.0
  0
ARC
  5
80
330
1F
100
AcDbEntity
  8
0
  6
Continuous
 62
     7
370
    15
100
AcDbCircle
 10
166.7148412546
 20
151.3714893823
 30
0.0
 40
0.5999999999999943
100
AcDbArc
 50
270.0
 51
0.0
  0
LINE
  5
81
330
1F
100
AcDbEntity
  8
0
  6
Continuous
 62
     7
370
    15
100
AcDbLine
 10
164.1148412546
 20
80.9214893823
 30
0.0
 11
166.7148412546
 21
80.9214893823
 31
0.0
  0
LINE
  5
82
330
1F
100
AcDbEntity
  8
0
  6
Continuous
 62
     7
370
    15
100
AcDbLine
 10
166.7148412546
 20
150.7714893823
 30
0.0
 11
164.1148412546
 21
150.7714893823
 31
0.0
  0
LINE
  5
83
330
1F
100
AcDbEntity
  8
0
  6
Continuous
 62
     7
370
    15
100
AcDbLine
 10
164.1148412546
 20
150.7714893823
 30
0.0
 11
64.2262274684
 21
136.2043998718
 31
0.0
  0
LINE
  5
84
330
1F
100
AcDbEntity
  8
0
  6
Continuous
 62
     7
370
    15
100
AcDbLine
 10
64.2262274684
 20
95.4885788927
 30
0.0
 11
164.1148412546
 21
80.9214893823
 31
0.0
  0
LINE
  5
85
330
1F
100
AcDbEntity
  8
0
  6
Continuous
 62
     7
370
    15
100
AcDbLine
 10
232.5148412546
 20
83.8464893823
 30
0.0
 11
233.1148412546
 21
84.4464893823
 31
0.0
  0
LINE
  5
86
330
1F
100
AcDbEntity
  8
0
  6
Continuous
 62
     7
370
    15
100
AcDbLine
 10
233.1148412546
 20
147.2464893823
 30
0.0
 11
232.5148412546
 21
147.8464893823
 31
0.0
  0
LINE
  5
87
330
1F
100
AcDbEntity
  8
0
  6
Continuous
 62
     7
370
    15
100
AcDbLine
 10
232.5148412546
 20
147.8464893823
 30
0.0
 11
187.1648412546
 21
147.8464893823
 31
0.0
  0
LINE
  5
88
330
1F
100
AcDbEntity
  8
0
  6
Continuous
 62
     7
370
    15
100
AcDbLine
 10
187.1648412546
 20
83.8464893823
 30
0.0
 11
232.5148412546
 21
83.8464893823
 31
0.0
  0
ARC
  5
89
330
1F
100
AcDbEntity
  8
0
  6
Continuous
 62
     7
370
    15
100
AcDbCircle
 10
64.5148412546
 20
97.4676448549
 30
0.0
 40
1.999999999999992
100
AcDbArc
 50
180.0
 51
261.7028550302
  0
ARC
  5
8A
330
1F
100
AcDbEntity
  8
0
  6
Continuous
 62
     7
370
    15
100
AcDbCircle
 10
64.5148412546
 20
134.2253339097
 30
0.0
 40
1.999999999999992
100
AcDbArc
 50
98.2971449698
 51
180.0
  0
SPLINE
  5
8B
330
1F
100
AcDbEntity
  8
0
  6
Continuous
 62
     7
370
    15
100
AcDbSpline
210
0.0
220
0.0
230
1.0
 70
    24
 71
     3
 72
    11
 73
     7
 74
     0
 42
0.000000001
 43
0.00000001
 40
0.0
 40
0.0
 40
0.0
 40
0.0
 40
0.1336647920873946
 40
0.4825473608259774
 40
0.815635656150369
 40
1.0
 40
1.0
 40
1.0
 40
1.0
 10
215.6080819282929
 20
118.98939445008
 30
0.0
 10
215.7526218665728
 20
118.9764133972063
 30
0.0
 10
216.274429925836
 20
118.9295501005436
 30
0.0
 10
217.2492305323695
 20
118.8420037907463
 30
0.0
 10
218.2961560471125
 20
118.7479799823551
 30
0.0
 10
218.8580859687684
 20
118.6975133631553
 30
0.0
 10
219.0582972218425
 20
118.6795324999213
 30
0.0
  0
SPLINE
  5
8C
330
1F
100
AcDbEntity
  8
0
  6
Continuous
 62
     7
370
    15
100
AcDbSpline
210
0.0
220
0.0
230
1.0
 70
    24
 71
     3
 72
    10
 73
     6
 74
     0
 42
0.000000001
 43
0.00000001
 40
0.0
 40
0.0
 40
0.0
 40
0.0
 40
0.439127920315751
 40
0.7513760035667059
 40
0.9999999999999999
 40
0.9999999999999999
 40
0.9999999999999999
 40
0.9999999999999999
 10
213.6146259610144
 20
116.1563513324198
 30
0.0
 10
213.9000125893982
 20
116.5619347196057
 30
0.0
 10
214.3883273933217
 20
117.2559138780197
 30
0.0
 10
215.0981675042113
 20
118.2647185237227
 30
0.0
 10
215.4514697275739
 20
118.7668216294753
 30
0.0
 10
215.6080819282929
 20
118.98939445008
 30
0.0
  0
SPLINE
  5
8D
330
1F
100
AcDbEntity
  8
0
  6
Continuous
 62
     7
370
    15
100
AcDbSpline
210
0.0
220
0.0
230
1.0
 70
    24
 71
     3
 72
    12
 73
     8
 74
     0
 42
0.000000001
 43
0.00000001
 40
0.0
 40
0.0
 40
0.0
 40
0.0
 40
0.2161857461389834
 40
0.4397628073511831
 40
0.5934185666353804
 40
0.7522096186328742
 40
1.0
 40
1.0
 40
1.0
 40
1.0
 10
215.0713852872856
 20
113.0134462646009
 30
0.0
 10
214.9716407338839
 20
113.2286414974167
 30
0.0
 10
214.7687413956744
 20
113.6663894128175
 30
0.0
 10
214.470443998651
 20
114.3099551576285
 30
0.0
 10
214.1977203904231
 20
114.8983463866773
 30
0.0
 10
213.917617355676
 20
115.5026584590577
 30
0.0
 10
213.7293594375241
 20
115.9088180451651
 30
0.0
 10
213.6146259610144
 20
116.1563513324198
 30
0.0
  0
SPLINE
  5
8E
330
1F
100
AcDbEntity
  8
0
  6
Continuous
 62
     7
370
    15
100
AcDbSpline
210
0.0
220
0.0
230
1.0
 70
    24
 71
     3
 72
    13
 73
     9
 74
     0
 42
0.000000001
 43
0.00000001
 40
0.0
 40
0.0
 40
0.0
 40
0.0
 40
0.1838529273213726
 40
0.3480769280718183
 40
0.5173798705048257
 40
0.6890065088068168
 40
0.8667059866786633
 40
0.9999999999999999
 40
0.9999999999999999
 40
0.9999999999999999
 40
0.9999999999999999
 10
218.5216005808352
 20
112.7035843144422
 30
0.0
 10
218.3211276819852
 20
112.7215886759403
 30
0.0
 10
217.9415852302547
 20
112.7556751761309
 30
0.0
 10
217.3387465673316
 20
112.8098157870295
 30
0.0
 10
216.7305152325345
 20
112.8644407108423
 30
0.0
 10
216.108976282501
 20
112.9202607843076
 30
0.0
 10
215.5537201561359
 20
112.9701280335992
 30
0.0
 10
215.2160941746178
 20
113.0004500385051
 30
0.0
 10
215.0713852872856
 20
113.0134462646009
 30
0.0
  0
SPLINE
  5
8F
330
1F
100
AcDbEntity
  8
0
  6
Continuous
 62
     7
370
    15
100
AcDbSpline
210
0.0
220
0.0
230
1.0
 70
    24
 71
     3
 72
    12
 73
     8
 74
     0
 42
0.000000001
 43
0.00000001
 40
0.0
 40
0.0
 40
0.0
 40
0.0
 40
0.2161857461389845
 40
0.4397628073511837
 40
0.5934185666353792
 40
0.7522096186328722
 40
1.0
 40
1.0
 40
1.0
 40
1.0
 10
220.5150565481137
 20
115.5366274321024
 30
0.0
 10
220.3785642864227
 20
115.3426484985594
 30
0.0
 10
220.1009131403368
 20
114.9480585595586
 30
0.0
 10
219.6927175548367
 20
114.367942563448
 30
0.0
 10
219.3195176072304
 20
113.8375613759866
 30
0.0
 10
218.936219518109
 20
113.2928289960282
 30
0.0
 10
218.6786039576253
 20
112.9267130633914
 30
0.0
 10
218.5216005808352
 20
112.7035843144422
 30
0.0
  0
SPLINE
  5
90
330
1F
100
AcDbEntity
  8
0
  6
Continuous
 62
     7
370
    15
100
AcDbSpline
210
0.0
220
0.0
230
1.0
 70
    24
 71
     3
 72
    10
 73
     6
 74
     0
 42
0.000000001
 43
0.00000001
 40
0.0
 40
0.0
 40
0.0
 40
0.0
 40
0.439127920315758
 40
0.7513760035667004
 40
1.0
 40
1.0
 40
1.0
 40
1.0
 10
219.0582972218426
 20
118.6795324999213
 30
0.0
 10
219.2668494243067
 20
118.2295887362476
 30
0.0
 10
219.6236956032284
 20
117.4597061317988
 30
0.0
 10
220.142425998418
 20
116.3405642402918
 30
0.0
 10
220.4006089316375
 20
115.78354398677
 30
0.0
 10
220.5150565481137
 20
115.5366274321024
 30
0.0
  0
CIRCLE
  5
91
330
1F
100
AcDbEntity
  8
0
  6
Continuous
 62
     7
370
    15
100
AcDbCircle
 10
217.0648412546
 20
115.8464893823
 30
0.0
 40
3.499999999999987
  0
CIRCLE
  5
92
330
1F
100
AcDbEntity
  8
0
  6
Continuous
 62
     7
370
    15
100
AcDbCircle
 10
217.0648412546
 20
115.8464893823
 30
0.0
 40
5.500000000000004
  0
CIRCLE
  5
93
330
1F
100
AcDbEntity
  8
0
  6
Continuous
 62
     7
370
    15
100
AcDbCircle
 10
217.0648412546
 20
115.8464893823
 30
0.0
 40
6.000000000000004
  0
ARC
  5
94
330
1F
100
AcDbEntity
  8
0
  6
Continuous
 62
     7
370
    15
100
AcDbCircle
 10
217.0648412546
 20
115.8464893823
 30
0.0
 40
3.000000000000032
100
AcDbArc
 50
84.8680654121
 51
144.8680654121
  0
ARC
  5
95
330
1F
100
AcDbEntity
  8
0
  6
Continuous
 62
     7
370
    15
100
AcDbCircle
 10
217.0648412546
 20
115.8464893823
 30
0.0
 40
3.000000000000001
100
AcDbArc
 50
24.8680654121
 51
84.8680654121
  0
ARC
  5
96
330
1F
100
AcDbEntity
  8
0
  6
Continuous
 62
     7
370
    15
100
AcDbCircle
 10
217.0648412546
 20
115.8464893823
 30
0.0
 40
2.999999999999978
100
AcDbArc
 50
324.8680654121
 51
24.8680654121
  0
ARC
  5
97
330
1F
100
AcDbEntity
  8
0
  6
Continuous
 62
     7
370
    15
100
AcDbCircle
 10
217.0648412546
 20
115.8464893823
 30
0.0
 40
3.000000000000032
100
AcDbArc
 50
144.8680654121
 51
204.8680654121
  0
ARC
  5
98
330
1F
100
AcDbEntity
  8
0
  6
Continuous
 62
     7
370
    15
100
AcDbCircle
 10
217.0648412546
 20
115.8464893823
 30
0.0
 40
3.000000000000017
100
AcDbArc
 50
204.8680654121
 51
264.8680654121
  0
ARC
  5
99
330
1F
100
AcDbEntity
  8
0
  6
Continuous
 62
     7
370
    15
100
AcDbCircle
 10
217.0648412546
 20
115.8464893823
 30
0.0
 40
3.000000000000004
100
AcDbArc
 50
264.8680654121
 51
324.8680654121
  0
SPLINE
  5
9A
330
1F
100
AcDbEntity
  8
0
  6
Continuous
 62
     7
370
    15
100
AcDbSpline
210
0.0
220
0.0
230
1.0
 70
     8
 71
     3
 72
    10
 73
     6
 74
     0
 42
0.000000001
 43
0.00000001
 40
0.0
 40
0.0
 40
0.0
 40
0.0
 40
0.5
 40
0.5
 40
1.0
 40
1.0
 40
1.0
 40
1.0
 10
167.5305012857181
 20
69.21303511506886
 30
0.0
 10
167.5791518542977
 20
69.18507812380145
 30
0.0
 10
167.6365370662572
 20
69.16113583877465
 30
0.0
 10
167.7672501744232
 20
69.12701737567892
 30
0.0
 10
167.8399897081618
 20
69.11723004091508
 30
0.0
 10
167.9148412545641
 20
69.11723004091508
 30
0.0
  0
SPLINE
  5
9B
330
1F
100
AcDbEntity
  8
0
  6
Continuous
 62
     7
370
    15
100
AcDbSpline
210
0.0
220
0.0
230
1.0
 70
     8
 71
     3
 72
    10
 73
     6
 74
     0
 42
0.000000001
 43
0.00000001
 40
0.0
 40
0.0
 40
0.0
 40
0.0
 40
0.5
 40
0.5
 40
1.0
 40
1.0
 40
1.0
 40
1.0
 10
167.5305012857181
 20
69.21303511506885
 30
0.0
 10
167.4723132791359
 20
69.28061884524766
 30
0.0
 10
167.4198708126096
 20
69.36109507988942
 30
0.0
 10
167.3415185054309
 20
69.54413070287215
 30
0.0
 10
167.314841254564
 20
69.6500064056678
 30
0.0
 10
167.314841254564
 20
69.7575197148884
 30
0.0
  0
LINE
  5
9C
330
1F
100
AcDbEntity
  8
0
  6
Continuous
 62
     7
370
    15
100
AcDbLine
 10
167.3148412546
 20
69.7575197149
 30
0.0
 11
167.3148412546
 21
145.6964893823
 31
0.0
  0
SPLINE
  5
9D
330
1F
100
AcDbEntity
  8
0
  6
Continuous
 62
     7
370
    15
100
AcDbSpline
210
0.0
220
0.0
230
1.0
 70
    24
 71
     3
 72
    12
 73
     8
 74
     0
 42
0.000000001
 43
0.00000001
 40
0.0
 40
0.0
 40
0.0
 40
0.0
 40
0.2499999999999998
 40
0.2499999999999998
 40
0.4999999999999997
 40
0.4999999999999997
 40
1.0
 40
1.0
 40
1.0
 40
1.0
 10
167.9148412545641
 20
145.6964893822611
 30
0.0
 10
167.824431619801
 20
145.6964893822611
 30
0.0
 10
167.7362066946741
 20
145.6964893822611
 30
0.0
 10
167.5825327531659
 20
145.6964893822611
 30
0.0
 10
167.5169295334044
 20
145.6964893822611
 30
0.0
 10
167.3630421930799
 20
145.6964893822611
 30
0.0
 10
167.3148412545641
 20
145.6964893822611
 30
0.0
 10
167.3148412545641
 20
145.6964893822611
 30
0.0
  0
LINE
  5
9E
330
1F
100
AcDbEntity
  8
0
  6
Continuous
 62
     7
370
    15
100
AcDbLine
 10
167.9148412546
 20
69.1172300409
 30
0.0
 11
171.9816797471
 21
69.1172300409
 31
0.0
  0
LINE
  5
9F
330
1F
100
AcDbEntity
  8
0
  6
Continuous
 62
     7
370
    15
100
AcDbLine
 10
171.9816797471
 20
145.6964893823
 30
0.0
 11
167.9148412546
 21
145.6964893823
 31
0.0
  0
LINE
  5
A0
330
1F
100
AcDbEntity
  8
0
  6
Continuous
 62
     7
370
    15
100
AcDbLine
 10
171.9816797471
 20
69.1172300409
 30
0.0
 11
171.9816797471
 21
145.6964893823
 31
0.0
  0
SPLINE
  5
A1
330
1F
100
AcDbEntity
  8
0
  6
Continuous
 62
     7
370
    15
100
AcDbSpline
210
0.0
220
0.0
230
1.0
 70
     8
 71
     3
 72
     8
 73
     4
 74
     0
 42
0.000000001
 43
0.00000001
 40
0.0
 40
0.0
 40
0.0
 40
0.0
 40
1.0
 40
1.0
 40
1.0
 40
1.0
 10
173.3048412545641
 20
71.22674997343131
 30
0.0
 10
173.0151128085395
 20
70.70452996326779
 30
0.0
 10
172.7250876583218
 20
70.18247658100785
 30
0.0
 10
172.43479342406
 20
69.66057431528475
 30
0.0
  0
SPLINE
  5
A2
330
1F
100
AcDbEntity
  8
0
  6
Continuous
 62
     7
370
    15
100
AcDbSpline
210
0.0
220
0.0
230
1.0
 70
     8
 71
     3
 72
     8
 73
     4
 74
     0
 42
0.000000001
 43
0.00000001
 40
0.0
 40
0.0
 40
0.0
 40
0.0
 40
0.0011862984959113
 40
0.0011862984959113
 40
0.0011862984959113
 40
0.0011862984959113
 10
171.9816797471022
 20
69.11723004091509
 30
0.0
 10
172.133704508973
 20
69.2981418905331
 30
0.0
 10
172.2847619541888
 20
69.47925422097394
 30
0.0
 10
172.43479342406
 20
69.66057431528475
 30
0.0
  0
SPLINE
  5
A3
330
1F
100
AcDbEntity
  8
0
  6
Continuous
 62
     7
370
    15
100
AcDbSpline
210
0.0
220
0.0
230
1.0
 70
    24
 71
     3
 72
     8
 73
     4
 74
     0
 42
0.000000001
 43
0.00000001
 40
0.0
 40
0.0
 40
0.0
 40
0.0
 40
1.0
 40
1.0
 40
1.0
 40
1.0
 10
173.3048412545641
 20
145.6964893822611
 30
0.0
 10
172.8696411498604
 20
145.6964893822611
 30
0.0
 10
172.4282814671216
 20
145.6964893822611
 30
0.0
 10
171.9816797471022
 20
145.6964893822611
 30
0.0
  0
LINE
  5
A4
330
1F
100
AcDbEntity
  8
0
  6
Continuous
 62
     7
370
    15
100
AcDbLine
 10
173.3048412546
 20
71.2267499734
 30
0.0
 11
173.3048412546
 21
145.6964893823
 31
0.0
  0
LINE
  5
A5
330
1F
100
AcDbEntity
  8
0
  6
Continuous
 62
     7
370
    15
100
AcDbLine
 10
178.448002762
 20
69.1172300409
 30
0.0
 11
182.5648412546
 21
69.1172300409
 31
0.0
  0
LINE
  5
A6
330
1F
100
AcDbEntity
  8
0
  6
Continuous
 62
     7
370
    15
100
AcDbLine
 10
178.448002762
 20
69.1172300409
 30
0.0
 11
178.448002762
 21
145.6964893823
 31
0.0
  0
LINE
  5
A7
330
1F
100
AcDbEntity
  8
0
  6
Continuous
 62
     7
370
    15
100
AcDbLine
 10
182.5648412546
 20
145.6964893823
 30
0.0
 11
178.448002762
 21
145.6964893823
 31
0.0
  0
SPLINE
  5
A8
330
1F
100
AcDbEntity
  8
0
  6
Continuous
 62
     7
370
    15
100
AcDbSpline
210
0.0
220
0.0
230
1.0
 70
     8
 71
     3
 72
     8
 73
     4
 74
     0
 42
0.000000001
 43
0.00000001
 40
0.0000000000000004
 40
0.0000000000000004
 40
0.0000000000000004
 40
0.0000000000000004
 40
0.0011862984959128
 40
0.0011862984959128
 40
0.0011862984959128
 40
0.0011862984959128
 10
177.9948890850642
 20
69.66057431528475
 30
0.0
 10
178.1449205549356
 20
69.4792542209737
 30
0.0
 10
178.2959780001549
 20
69.29814189053332
 30
0.0
 10
178.448002762026
 20
69.11723004091509
 30
0.0
  0
SPLINE
  5
A9
330
1F
100
AcDbEntity
  8
0
  6
Continuous
 62
     7
370
    15
100
AcDbSpline
210
0.0
220
0.0
230
1.0
 70
     8
 71
     3
 72
     8
 73
     4
 74
     0
 42
0.000000001
 43
0.00000001
 40
0.0
 40
0.0
 40
0.0
 40
0.0
 40
1.0
 40
1.0
 40
1.0
 40
1.0
 10
177.9948890850672
 20
69.66057431528642
 30
0.0
 10
177.7045948508058
 20
70.18247658100896
 30
0.0
 10
177.4145697005883
 20
70.70452996326834
 30
0.0
 10
177.1248412545641
 20
71.22674997343131
 30
0.0
  0
LINE
  5
AA
330
1F
100
AcDbEntity
  8
0
  6
Continuous
 62
     7
370
    15
100
AcDbLine
 10
177.1248412546
 20
71.2267499734
 30
0.0
 11
177.1248412546
 21
145.6964893823
 31
0.0
  0
SPLINE
  5
AB
330
1F
100
AcDbEntity
  8
0
  6
Continuous
 62
     7
370
    15
100
AcDbSpline
210
0.0
220
0.0
230
1.0
 70
    24
 71
     3
 72
     8
 73
     4
 74
     0
 42
0.000000001
 43
0.00000001
 40
0.0
 40
0.0
 40
0.0
 40
0.0
 40
1.0
 40
1.0
 40
1.0
 40
1.0
 10
178.448002762026
 20
145.6964893822611
 30
0.0
 10
178.0014010420066
 20
145.6964893822611
 30
0.0
 10
177.5600413592677
 20
145.6964893822611
 30
0.0
 10
177.1248412545641
 20
145.6964893822611
 30
0.0
  0
SPLINE
  5
AC
330
1F
100
AcDbEntity
  8
0
  6
Continuous
 62
     7
370
    15
100
AcDbSpline
210
0.0
220
0.0
230
1.0
 70
     8
 71
     3
 72
    12
 73
     8
 74
     0
 42
0.000000001
 43
0.00000001
 40
0.0
 40
0.0
 40
0.0
 40
0.0
 40
0.2499999999999992
 40
0.2499999999999992
 40
0.4999999999999983
 40
0.4999999999999983
 40
1.0
 40
1.0
 40
1.0
 40
1.0
 10
182.5648412545641
 20
69.11723004091509
 30
0.0
 10
182.660814007739
 20
69.1172300409151
 30
0.0
 10
182.7532419718934
 20
69.13350336502367
 30
0.0
 10
182.9096720720029
 20
69.18687708702006
 30
0.0
 10
182.9731504967757
 20
69.22300534455442
 30
0.0
 10
183.1214296576029
 20
69.34370654083372
 30
0.0
 10
183.1648412545641
 20
69.43755612719889
 30
0.0
 10
183.1648412545641
 20
69.5318604021461
 30
0.0
  0
SPLINE
  5
AD
330
1F
100
AcDbEntity
  8
0
  6
Continuous
 62
     7
370
    15
100
AcDbSpline
210
0.0
220
0.0
230
1.0
 70
    24
 71
     3
 72
    14
 73
    10
 74
     0
 42
0.000000001
 43
0.00000001
 40
0.0
 40
0.0
 40
0.0
 40
0.0
 40
0.25
 40
0.25
 40
0.5
 40
0.5
 40
0.75
 40
0.75
 40
1.0
 40
1.0
 40
1.0
 40
1.0
 10
183.1648412545641
 20
145.6964893822611
 30
0.0
 10
183.1648412545641
 20
145.6964893822611
 30
0.0
 10
183.1527715284045
 20
145.6964893822611
 30
0.0
 10
183.1030074453122
 20
145.6964893822611
 30
0.0
 10
183.0654560181909
 20
145.6964893822611
 30
0.0
 10
182.9628562864887
 20
145.6964893822611
 30
0.0
 10
182.8977116657672
 20
145.6964893822611
 30
0.0
 10
182.7431098019892
 20
145.6964893822611
 30
0.0
 10
182.6541850889114
 20
145.6964893822611
 30
0.0
 10
182.5648412545647
 20
145.6964893822611
 30
0.0
  0
LINE
  5
AE
330
1F
100
AcDbEntity
  8
0
  6
Continuous
 62
     7
370
    15
100
AcDbLine
 10
183.1648412546
 20
69.5318604021
 30
0.0
 11
183.1648412546
 21
145.6964893823
 31
0.0
  0
SPLINE
  5
AF
330
1F
100
AcDbEntity
  8
0
  6
Continuous
 62
     7
370
    15
100
AcDbSpline
210
0.0
220
0.0
230
1.0
 70
     8
 71
     3
 72
    14
 73
    10
 74
     0
 42
0.000000001
 43
0.00000001
 40
0.0
 40
0.0
 40
0.0
 40
0.0
 40
0.25
 40
0.25
 40
0.5
 40
0.5
 40
0.75
 40
0.75
 40
1.0
 40
1.0
 40
1.0
 40
1.0
 10
174.1048412545641
 20
72.1987231163913
 30
0.0
 10
173.9983962466548
 20
72.1987231163913
 30
0.0
 10
173.8914974953813
 20
72.17615356695819
 30
0.0
 10
173.6952792399389
 20
72.08971047571625
 30
0.0
 10
173.6056209264744
 20
72.02540655804913
 30
0.0
 10
173.4601672135933
 20
71.87043704400617
 30
0.0
 10
173.4021314308671
 20
71.77767155776243
 30
0.0
 10
173.3248462764825
 20
71.57920467611906
 30
0.0
 10
173.3048412545641
 20
71.47218025432528
 30
0.0
 10
173.3048412545641
 20
71.36539789385445
 30
0.0
  0
SPLINE
  5
B0
330
1F
100
AcDbEntity
  8
0
  6
Continuous
 62
     7
370
    15
100
AcDbSpline
210
0.0
220
0.0
230
1.0
 70
    24
 71
     3
 72
    14
 73
    10
 74
     0
 42
0.000000001
 43
0.00000001
 40
0.0
 40
0.0
 40
0.0
 40
0.0
 40
0.25
 40
0.25
 40
0.5
 40
0.5
 40
0.75
 40
0.75
 40
1.0
 40
1.0
 40
1.0
 40
1.0
 10
174.1048412545641
 20
145.6964893822611
 30
0.0
 10
173.9818599550178
 20
145.6964893822611
 30
0.0
 10
173.8616700666158
 20
145.6964893822611
 30
0.0
 10
173.6566462369366
 20
145.6964893822611
 30
0.0
 10
173.5700517481345
 20
145.6964893822611
 30
0.0
 10
173.434943861372
 20
145.6964893822611
 30
0.0
 10
173.386420776344
 20
145.6964893822611
 30
0.0
 10
173.3207382676171
 20
145.6964893822611
 30
0.0
 10
173.3048412545641
 20
145.6964893822611
 30
0.0
 10
173.3048412545641
 20
145.6964893822611
 30
0.0
  0
SPLINE
  5
B1
330
1F
100
AcDbEntity
  8
0
  6
Continuous
 62
     7
370
    15
100
AcDbSpline
210
0.0
220
0.0
230
1.0
 70
     8
 71
     3
 72
    14
 73
    10
 74
     0
 42
0.000000001
 43
0.00000001
 40
0.0
 40
0.0
 40
0.0
 40
0.0
 40
0.25
 40
0.25
 40
0.5
 40
0.5
 40
0.75
 40
0.75
 40
1.0
 40
1.0
 40
1.0
 40
1.0
 10
177.1248412545641
 20
71.36539789385446
 30
0.0
 10
177.1248412545641
 20
71.47246188019527
 30
0.0
 10
177.1048574283241
 20
71.57920120656976
 30
0.0
 10
177.0274223458906
 20
71.77795110876056
 30
0.0
 10
176.9694834237312
 20
71.87050532525309
 30
0.0
 10
176.8238456179704
 20
72.02560226865867
 30
0.0
 10
176.735056621635
 20
72.08934242557153
 30
0.0
 10
176.5385082614305
 20
72.17609098265915
 30
0.0
 10
176.4323690317312
 20
72.1987231163913
 30
0.0
 10
176.3248412545641
 20
72.1987231163913
 30
0.0
  0
SPLINE
  5
B2
330
1F
100
AcDbEntity
  8
0
  6
Continuous
 62
     7
370
    15
100
AcDbSpline
210
0.0
220
0.0
230
1.0
 70
    24
 71
     3
 72
    14
 73
    10
 74
     0
 42
0.000000001
 43
0.00000001
 40
0.0
 40
0.0
 40
0.0
 40
0.0
 40
0.25
 40
0.25
 40
0.5
 40
0.5
 40
0.75
 40
0.75
 40
1.0
 40
1.0
 40
1.0
 40
1.0
 10
177.1248412545641
 20
145.6964893822611
 30
0.0
 10
177.1248412545641
 20
145.6964893822611
 30
0.0
 10
177.1085602197883
 20
145.6964893822611
 30
0.0
 10
177.0438971572636
 20
145.6964893822611
 30
0.0
 10
176.994417360975
 20
145.6964893822611
 30
0.0
 10
176.8604476038362
 20
145.6964893822611
 30
0.0
 10
176.7743328772368
 20
145.6964893822611
 30
0.0
 10
176.5688767615238
 20
145.6964893822611
 30
0.0
 10
176.4474562243309
 20
145.6964893822611
 30
0.0
 10
176.3248412545641
 20
145.6964893822611
 30
0.0
  0
LINE
  5
B3
330
1F
100
AcDbEntity
  8
0
  6
Continuous
 62
     7
370
    15
100
AcDbLine
 10
176.3248412546
 20
72.1987231164
 30
0.0
 11
174.1048412546
 21
72.1987231164
 31
0.0
  0
LINE
  5
B4
330
1F
100
AcDbEntity
  8
0
  6
Continuous
 62
     7
370
    15
100
AcDbLine
 10
176.3248412546
 20
145.6964893823
 30
0.0
 11
174.1048412546
 21
145.6964893823
 31
0.0
  0
LINE
  5
B5
330
1F
100
AcDbEntity
  8
0
  6
Continuous
 62
     7
370
    15
100
AcDbLine
 10
164.1148412546
 20
80.9214893823
 30
0.0
 11
164.1148412546
 21
150.7714893823
 31
0.0
  0
SPLINE
  5
B6
330
1F
100
AcDbEntity
  8
0
  6
Continuous
 62
     7
370
    15
100
AcDbSpline
210
0.0
220
0.0
230
1.0
 70
    11
 71
     3
 72
    94
 73
    90
 74
     0
 42
0.000000001
 43
0.00000001
 40
0.0
 40
0.0
 40
0.0
 40
0.0
 40
0.0312499999999997
 40
0.0312499999999997
 40
0.0624999999999995
 40
0.0624999999999995
 40
0.0937499999999992
 40
0.0937499999999992
 40
0.1093749999999991
 40
0.1093749999999991
 40
0.124999999999999
 40
0.124999999999999
 40
0.1562499999999992
 40
0.1562499999999992
 40
0.1718749999999995
 40
0.1718749999999995
 40
0.1874999999999999
 40
0.1874999999999999
 40
0.2187500000000005
 40
0.2187500000000005
 40
0.2343750000000007
 40
0.2343750000000007
 40
0.2500000000000008
 40
0.2500000000000008
 40
0.2812500000000013
 40
0.2812500000000013
 40
0.3125000000000019
 40
0.3125000000000019
 40
0.3281250000000022
 40
0.3281250000000022
 40
0.3437500000000026
 40
0.3437500000000026
 40
0.3750000000000032
 40
0.3750000000000032
 40
0.3906250000000035
 40
0.3906250000000035
 40
0.4062500000000038
 40
0.4062500000000038
 40
0.4218750000000041
 40
0.4218750000000041
 40
0.4375000000000044
 40
0.4375000000000044
 40
0.4687500000000051
 40
0.4687500000000051
 40
0.4843750000000053
 40
0.4843750000000053
 40
0.5000000000000057
 40
0.5000000000000057
 40
0.5312500000000059
 40
0.5312500000000059
 40
0.562500000000006
 40
0.562500000000006
 40
0.5781250000000059
 40
0.5781250000000059
 40
0.5937500000000058
 40
0.5937500000000058
 40
0.6250000000000054
 40
0.6250000000000054
 40
0.656250000000005
 40
0.656250000000005
 40
0.6875000000000047
 40
0.6875000000000047
 40
0.7187500000000043
 40
0.7187500000000043
 40
0.7500000000000039
 40
0.7500000000000039
 40
0.7812500000000036
 40
0.7812500000000036
 40
0.8125000000000033
 40
0.8125000000000033
 40
0.8281250000000031
 40
0.8281250000000031
 40
0.8437500000000029
 40
0.8437500000000029
 40
0.8593750000000026
 40
0.8593750000000026
 40
0.8750000000000023
 40
0.8750000000000023
 40
0.9062500000000019
 40
0.9062500000000019
 40
0.9218750000000017
 40
0.9218750000000017
 40
0.9375000000000013
 40
0.9375000000000013
 40
0.9531250000000009
 40
0.9531250000000009
 40
0.9687500000000006
 40
0.9687500000000006
 40
1.0
 40
1.0
 40
1.0
 40
1.0
 10
212.1755872024154
 20
120.6889963673018
 30
0.0
 10
212.5258320502116
 20
120.9794365990818
 30
0.0
 10
212.8991782636571
 20
121.2326888525488
 30
0.0
 10
213.6891512448836
 20
121.6702990026384
 30
0.0
 10
214.1089394614063
 20
121.8551088366377
 30
0.0
 10
214.9637317341356
 20
122.1449431462609
 30
0.0
 10
215.4013533128719
 20
122.2519610656068
 30
0.0
 10
216.0730731774853
 20
122.3561695518747
 30
0.0
 10
216.3006560684663
 20
122.3815003307903
 30
0.0
 10
216.7543793864831
 20
122.4122637843657
 30
0.0
 10
216.9805584184512
 20
122.4178270568087
 30
0.0
 10
217.6570983475258
 20
122.4058005174535
 30
0.0
 10
218.1054784372483
 20
122.3597406696825
 30
0.0
 10
218.7739825877435
 20
122.2320453801317
 30
0.0
 10
218.996898692069
 20
122.1793527039212
 30
0.0
 10
219.4329072163958
 20
122.055940573455
 30
0.0
 10
219.6469200986423
 20
121.9851155418317
 30
0.0
 10
220.277144139355
 20
121.745544480657
 30
0.0
 10
220.6816566301192
 20
121.5499781289005
 30
0.0
 10
221.2636495054054
 20
121.1992601481752
 30
0.0
 10
221.4534979102787
 20
121.0725320514329
 30
0.0
 10
221.8163590692323
 20
120.8048502786801
 30
0.0
 10
221.9904711321203
 20
120.6632824118327
 30
0.0
 10
222.4907805893185
 20
120.2151935149935
 30
0.0
 10
222.7952226159991
 20
119.8855796442971
 30
0.0
 10
223.3397862241685
 20
119.1573352434002
 30
0.0
 10
223.571571684649
 20
118.7690294741049
 30
0.0
 10
223.8527532624648
 20
118.1576423550043
 30
0.0
 10
223.9356261056741
 20
117.948578837913
 30
0.0
 10
224.0786027245481
 20
117.5193669257942
 30
0.0
 10
224.1389814134382
 20
117.2975779615843
 30
0.0
 10
224.2801678308367
 20
116.6300762292607
 30
0.0
 10
224.322710707377
 20
116.1811777733602
 30
0.0
 10
224.3091362007762
 20
115.5019734780124
 30
0.0
 10
224.2913772354007
 20
115.2731048434853
 30
0.0
 10
224.2298038527494
 20
114.8211286418108
 30
0.0
 10
224.1863014568683
 20
114.5987666021031
 30
0.0
 10
224.0749187446382
 20
114.1609828119536
 30
0.0
 10
224.0070352756491
 20
113.9455619726892
 30
0.0
 10
223.8471308358789
 20
113.5215745976878
 30
0.0
 10
223.7544513652882
 20
113.3118400868187
 30
0.0
 10
223.4455628366584
 20
112.7044179297525
 30
0.0
 10
223.1991140492191
 20
112.3270158317144
 30
0.0
 10
222.7726507262706
 20
111.7991650480415
 30
0.0
 10
222.620124939943
 20
111.6288934820251
 30
0.0
 10
222.3014525759311
 20
111.3067934918701
 30
0.0
 10
222.1350966900414
 20
111.1545130970678
 30
0.0
 10
221.6158927114659
 20
110.7226863490948
 30
0.0
 10
221.2412757089174
 20
110.4669312907097
 30
0.0
 10
220.4464896532435
 20
110.025320026276
 30
0.0
 10
220.0339471542243
 20
109.8432517876129
 30
0.0
 10
219.3935651985404
 20
109.6247818310777
 30
0.0
 10
219.1764835451912
 20
109.5611331240012
 30
0.0
 10
218.7349732983446
 20
109.4523855559839
 30
0.0
 10
218.5103258175734
 20
109.4073680660535
 30
0.0
 10
217.8380900660056
 20
109.3025738566889
 30
0.0
 10
217.3880057684896
 20
109.2716212281927
 30
0.0
 10
216.4840382478282
 20
109.2862780180377
 30
0.0
 10
216.0260653423545
 20
109.3330685737749
 30
0.0
 10
215.1372282521107
 20
109.5024803529519
 30
0.0
 10
214.703983660601
 20
109.6244035634681
 30
0.0
 10
213.8600684644693
 20
109.9439511378025
 30
0.0
 10
213.4464556700345
 20
110.1440139212638
 30
0.0
 10
212.6752173357808
 20
110.6086401996869
 30
0.0
 10
212.3138760548272
 20
110.8739091868162
 30
0.0
 10
211.6420822352482
 20
111.4743008422846
 30
0.0
 10
211.3308422647443
 20
111.8121835194429
 30
0.0
 10
210.792950106085
 20
112.5316131568758
 30
0.0
 10
210.5619484618732
 20
112.9162469622167
 30
0.0
 10
210.2773154728823
 20
113.5341794859745
 30
0.0
 10
210.1926892559326
 20
113.7479952173581
 30
0.0
 10
210.0496902686976
 20
114.1783018701872
 30
0.0
 10
209.9906212074692
 20
114.3960561980845
 30
0.0
 10
209.8972874187772
 20
114.836766545894
 30
0.0
 10
209.8630211771056
 20
115.0597222361424
 30
0.0
 10
209.8200265037518
 20
115.5109960134002
 30
0.0
 10
209.8113828873977
 20
115.7409550824338
 30
0.0
 10
209.8255682755131
 20
116.4251449365795
 30
0.0
 10
209.8871171644815
 20
116.8729890356271
 30
0.0
 10
210.0549521304321
 20
117.5327767427592
 30
0.0
 10
210.1241457587572
 20
117.7519886885559
 30
0.0
 10
210.2851348465687
 20
118.177639522872
 30
0.0
 10
210.376849716098
 20
118.3845069674863
 30
0.0
 10
210.5816757536287
 20
118.7869198840015
 30
0.0
 10
210.6947903098696
 20
118.982463496899
 30
0.0
 10
210.9421009506598
 20
119.3624419760935
 30
0.0
 10
211.0769284438319
 20
119.5475353084811
 30
0.0
 10
211.5055626066851
 20
120.0768008307906
 30
0.0
 10
211.8253423546191
 20
120.3985561355217
 30
0.0
 10
212.1755872024154
 20
120.6889963673018
 30
0.0
  0
LINE
  5
B7
330
1F
100
AcDbEntity
  8
0
  6
Continuous
 62
     7
370
    15
100
AcDbLine
 10
233.1148412546
 20
115.8464893823
 30
0.0
 11
233.1148412546
 21
84.4464893823
 31
0.0
  0
LINE
  5
B8
330
1F
100
AcDbEntity
  8
0
  6
Continuous
 62
     7
370
    15
100
AcDbLine
 10
233.1148412546
 20
147.2464893823
 30
0.0
 11
233.1148412546
 21
115.8464893823
 31
0.0
  0
LINE
  5
B9
330
1F
100
AcDbEntity
  8
0
  6
Continuous
 62
     7
370
    15
100
AcDbLine
 10
232.5148412546
 20
115.8464893823
 30
0.0
 11
232.5148412546
 21
83.8464893823
 31
0.0
  0
LINE
  5
BA
330
1F
100
AcDbEntity
  8
0
  6
Continuous
 62
     7
370
    15
100
AcDbLine
 10
232.5148412546
 20
147.8464893823
 30
0.0
 11
232.5148412546
 21
115.8464893823
 31
0.0
  0
LINE
  5
BB
330
1F
100
AcDbEntity
  8
0
  6
Continuous
 62
     7
370
    15
100
AcDbLine
 10
171.9816797471
 20
162.626334037
 30
0.0
 11
167.9148412546
 21
162.626334037
 31
0.0
  0
LINE
  5
BC
330
1F
100
AcDbEntity
  8
0
  6
Continuous
 62
     7
370
    15
100
AcDbLine
 10
171.9816797471
 20
154.3575673339
 30
0.0
 11
171.9816797471
 21
162.626334037
 31
0.0
  0
LINE
  5
BD
330
1F
100
AcDbEntity
  8
0
  6
Continuous
 62
     7
370
    15
100
AcDbLine
 10
167.9148412546
 20
154.3575673339
 30
0.0
 11
171.9816797471
 21
154.3575673339
 31
0.0
  0
SPLINE
  5
BE
330
1F
100
AcDbEntity
  8
0
  6
Continuous
 62
     7
370
    15
100
AcDbSpline
210
0.0
220
0.0
230
1.0
 70
     8
 71
     3
 72
    12
 73
     8
 74
     0
 42
0.000000001
 43
0.00000001
 40
0.0
 40
0.0
 40
0.0
 40
0.0
 40
0.2500000000000007
 40
0.2500000000000007
 40
0.5000000000000014
 40
0.5000000000000014
 40
1.0
 40
1.0
 40
1.0
 40
1.0
 10
174.1048412545641
 20
159.4942556481309
 30
0.0
 10
173.9984962746881
 20
159.4942556481309
 30
0.0
 10
173.8912199272855
 20
159.5169708859904
 30
0.0
 10
173.6958441378894
 20
159.6029960528727
 30
0.0
 10
173.6072904018125
 20
159.6659747798011
 30
0.0
 10
173.3860324776812
 20
159.9011662902382
 30
0.0
 10
173.3048412545641
 20
160.1143425047235
 30
0.0
 10
173.3048412545641
 20
160.3275808706676
 30
0.0
  0
SPLINE
  5
BF
330
1F
100
AcDbEntity
  8
0
  6
Continuous
 62
     7
370
    15
100
AcDbSpline
210
0.0
220
0.0
230
1.0
 70
     8
 71
     3
 72
    12
 73
     8
 74
     0
 42
0.000000001
 43
0.00000001
 40
0.0
 40
0.0
 40
0.0
 40
0.0
 40
0.499999999999994
 40
0.499999999999994
 40
0.749999999999997
 40
0.749999999999997
 40
1.0
 40
1.0
 40
1.0
 40
1.0
 10
173.3048412545641
 20
151.2395324839781
 30
0.0
 10
173.3048412545641
 20
150.9971093879974
 30
0.0
 10
173.3677623960059
 20
150.751338867396
 30
0.0
 10
173.5697912930083
 20
150.4463926879791
 30
0.0
 10
173.6560850176556
 20
150.3557998213807
 30
0.0
 10
173.8615588122223
 20
150.2253662584438
 30
0.0
 10
173.9815093728219
 20
150.1863714437941
 30
0.0
 10
174.1048412545641
 20
150.1863714437941
 30
0.0
  0
SPLINE
  5
C0
330
1F
100
AcDbEntity
  8
0
  6
Continuous
 62
     7
370
    15
100
AcDbSpline
210
0.0
220
0.0
230
1.0
 70
     8
 71
     3
 72
    10
 73
     6
 74
     0
 42
0.000000001
 43
0.00000001
 40
0.0
 40
0.0
 40
0.0
 40
0.0
 40
0.5
 40
0.5
 40
1.0
 40
1.0
 40
1.0
 40
1.0
 10
167.6047101735104
 20
162.5566537079838
 30
0.0
 10
167.5282570835916
 20
162.4863909367632
 30
0.0
 10
167.4593953613225
 20
162.3992960217215
 30
0.0
 10
167.3528831302496
 20
162.1901268934692
 30
0.0
 10
167.314841254564
 20
162.0648093442297
 30
0.0
 10
167.314841254564
 20
161.9354590496338
 30
0.0
  0
SPLINE
  5
C1
330
1F
100
AcDbEntity
  8
0
  6
Continuous
 62
     7
370
    15
100
AcDbSpline
210
0.0
220
0.0
230
1.0
 70
     8
 71
     3
 72
     8
 73
     4
 74
     0
 42
0.000000001
 43
0.00000001
 40
0.0
 40
0.0
 40
0.0
 40
0.0
 40
1.0
 40
1.0
 40
1.0
 40
1.0
 10
167.9148412545641
 20
162.6263340370366
 30
0.0
 10
167.8037630692266
 20
162.6263340370366
 30
0.0
 10
167.6960990653244
 20
162.6011848614821
 30
0.0
 10
167.6047101735104
 20
162.5566537079838
 30
0.0
  0
SPLINE
  5
C2
330
1F
100
AcDbEntity
  8
0
  6
Continuous
 62
     7
370
    15
100
AcDbSpline
210
0.0
220
0.0
230
1.0
 70
     8
 71
     3
 72
    14
 73
    10
 74
     0
 42
0.000000001
 43
0.00000001
 40
0.0
 40
0.0
 40
0.0
 40
0.0
 40
0.25
 40
0.25
 40
0.5
 40
0.5
 40
0.75
 40
0.75
 40
1.0
 40
1.0
 40
1.0
 40
1.0
 10
167.3148412545641
 20
153.5955704969214
 30
0.0
 10
167.3148412545655
 20
153.6852941752631
 30
0.0
 10
167.3270547080125
 20
153.7741427508011
 30
0.0
 10
167.3766325634227
 20
153.9452208721045
 30
0.0
 10
167.414496253063
 20
154.0281124673608
 30
0.0
 10
167.5167603064191
 20
154.1746065846436
 30
0.0
 10
167.5829854917094
 20
154.2398813101563
 30
0.0
 10
167.7366728158321
 20
154.3312468312738
 30
0.0
 10
167.825193192996
 20
154.3575673339362
 30
0.0
 10
167.9148412545641
 20
154.3575673339362
 30
0.0
  0
LINE
  5
C3
330
1F
100
AcDbEntity
  8
0
  6
Continuous
 62
     7
370
    15
100
AcDbLine
 10
167.3148412546
 20
153.5955704969
 30
0.0
 11
167.3148412546
 21
161.9354590496
 31
0.0
  0
LINE
  5
C4
330
1F
100
AcDbEntity
  8
0
  6
Continuous
 62
     7
370
    15
100
AcDbLine
 10
176.3248412546
 20
159.4942556481
 30
0.0
 11
174.1048412546
 21
159.4942556481
 31
0.0
  0
LINE
  5
C5
330
1F
100
AcDbEntity
  8
0
  6
Continuous
 62
     7
370
    15
100
AcDbLine
 10
174.1048412546
 20
150.1863714438
 30
0.0
 11
176.3248412546
 21
150.1863714438
 31
0.0
  0
LINE
  5
C6
330
1F
100
AcDbEntity
  8
0
  6
Continuous
 62
     7
370
    15
100
AcDbLine
 10
182.5648412546
 20
162.626334037
 30
0.0
 11
178.448002762
 21
162.626334037
 31
0.0
  0
LINE
  5
C7
330
1F
100
AcDbEntity
  8
0
  6
Continuous
 62
     7
370
    15
100
AcDbLine
 10
178.448002762
 20
154.3575673339
 30
0.0
 11
182.5648412546
 21
154.3575673339
 31
0.0
  0
LINE
  5
C8
330
1F
100
AcDbEntity
  8
0
  6
Continuous
 62
     7
370
    15
100
AcDbLine
 10
178.448002762
 20
154.3575673339
 30
0.0
 11
178.448002762
 21
162.626334037
 31
0.0
  0
SPLINE
  5
C9
330
1F
100
AcDbEntity
  8
0
  6
Continuous
 62
     7
370
    15
100
AcDbSpline
210
0.0
220
0.0
230
1.0
 70
     8
 71
     3
 72
     8
 73
     4
 74
     0
 42
0.000000001
 43
0.00000001
 40
0.0
 40
0.0
 40
0.0
 40
0.0
 40
1.0
 40
1.0
 40
1.0
 40
1.0
 10
177.8915122767305
 20
161.8465226269284
 30
0.0
 10
177.6357359659751
 20
161.3865442716637
 30
0.0
 10
177.3801725678691
 20
160.9264498113559
 30
0.0
 10
177.1248412545641
 20
160.4662287910909
 30
0.0
  0
SPLINE
  5
CA
330
1F
100
AcDbEntity
  8
0
  6
Continuous
 62
     7
370
    15
100
AcDbSpline
210
0.0
220
0.0
230
1.0
 70
     8
 71
     3
 72
     8
 73
     4
 74
     0
 42
0.000000001
 43
0.00000001
 40
0.0
 40
0.0
 40
0.0
 40
0.0
 40
0.0012352705496738
 40
0.0012352705496738
 40
0.0012352705496738
 40
0.0012352705496738
 10
178.448002762026
 20
162.6263340370366
 30
0.0
 10
178.2620543367039
 20
162.3665582812849
 30
0.0
 10
178.0765475275328
 20
162.1066242026577
 30
0.0
 10
177.8915122767306
 20
161.846522626929
 30
0.0
  0
SPLINE
  5
CB
330
1F
100
AcDbEntity
  8
0
  6
Continuous
 62
     7
370
    15
100
AcDbSpline
210
0.0
220
0.0
230
1.0
 70
     8
 71
     3
 72
     8
 73
     4
 74
     0
 42
0.000000001
 43
0.00000001
 40
0.0
 40
0.0
 40
0.0
 40
0.0
 40
1.0
 40
1.0
 40
1.0
 40
1.0
 10
177.1248412545641
 20
151.4136251245707
 30
0.0
 10
177.5597876762025
 20
152.3971294429531
 30
0.0
 10
178.0011540340983
 20
153.37833143568
 30
0.0
 10
178.448002762026
 20
154.3575673339362
 30
0.0
  0
LINE
  5
CC
330
1F
100
AcDbEntity
  8
0
  6
Continuous
 62
     7
370
    15
100
AcDbLine
 10
177.1248412546
 20
151.4136251246
 30
0.0
 11
177.1248412546
 21
160.4662287911
 31
0.0
  0
SPLINE
  5
CD
330
1F
100
AcDbEntity
  8
0
  6
Continuous
 62
     7
370
    15
100
AcDbSpline
210
0.0
220
0.0
230
1.0
 70
     8
 71
     3
 72
    12
 73
     8
 74
     0
 42
0.000000001
 43
0.00000001
 40
0.0
 40
0.0
 40
0.0
 40
0.0
 40
0.499999999999993
 40
0.499999999999993
 40
0.7499999999999964
 40
0.7499999999999964
 40
1.0
 40
1.0
 40
1.0
 40
1.0
 10
183.1648412545641
 20
162.1414763354915
 30
0.0
 10
183.1648412545641
 20
162.2616689421567
 30
0.0
 10
183.110872824295
 20
162.3795762426717
 30
0.0
 10
182.9497861833621
 20
162.5189557871551
 30
0.0
 10
182.885023763889
 20
162.557121084719
 30
0.0
 10
182.7329697623246
 20
162.6117733470524
 30
0.0
 10
182.6502399891753
 20
162.6263340370366
 30
0.0
 10
182.5648412545641
 20
162.6263340370366
 30
0.0
  0
SPLINE
  5
CE
330
1F
100
AcDbEntity
  8
0
  6
Continuous
 62
     7
370
    15
100
AcDbSpline
210
0.0
220
0.0
230
1.0
 70
     8
 71
     3
 72
    12
 73
     8
 74
     0
 42
0.000000001
 43
0.00000001
 40
0.0
 40
0.0
 40
0.0
 40
0.0
 40
0.2500000000000054
 40
0.2500000000000054
 40
0.5000000000000108
 40
0.5000000000000108
 40
1.0
 40
1.0
 40
1.0
 40
1.0
 10
182.5648412545646
 20
154.3575673339363
 30
0.0
 10
182.6543783127357
 20
154.3575673339362
 30
0.0
 10
182.7442774915243
 20
154.3307400351052
 30
0.0
 10
182.8977023505236
 20
154.2390330698456
 30
0.0
 10
182.9627514079013
 20
154.1747781282468
 30
0.0
 10
183.1160706391656
 20
153.9553659821853
 30
0.0
 10
183.1648412545641
 20
153.7735506723884
 30
0.0
 10
183.1648412545641
 20
153.5955704969055
 30
0.0
  0
LINE
  5
CF
330
1F
100
AcDbEntity
  8
0
  6
Continuous
 62
     7
370
    15
100
AcDbLine
 10
183.1648412546
 20
153.5955704969
 30
0.0
 11
183.1648412546
 21
162.1414763355
 31
0.0
  0
SPLINE
  5
D0
330
1F
100
AcDbEntity
  8
0
  6
Continuous
 62
     7
370
    15
100
AcDbSpline
210
0.0
220
0.0
230
1.0
 70
     8
 71
     3
 72
     8
 73
     4
 74
     0
 42
0.000000001
 43
0.00000001
 40
0.0
 40
0.0
 40
0.0
 40
0.0
 40
1.0
 40
1.0
 40
1.0
 40
1.0
 10
171.9816797471022
 20
154.3575673339362
 30
0.0
 10
172.4285284750299
 20
153.3783314356799
 30
0.0
 10
172.8698948329257
 20
152.3971294429531
 30
0.0
 10
173.3048412545641
 20
151.4136251245707
 30
0.0
  0
LINE
  5
D1
330
1F
100
AcDbEntity
  8
0
  6
Continuous
 62
     7
370
    15
100
AcDbLine
 10
173.3048412546
 20
151.4136251246
 30
0.0
 11
173.3048412546
 21
151.239532484
 31
0.0
  0
SPLINE
  5
D2
330
1F
100
AcDbEntity
  8
0
  6
Continuous
 62
     7
370
    15
100
AcDbSpline
210
0.0
220
0.0
230
1.0
 70
     8
 71
     3
 72
    14
 73
    10
 74
     0
 42
0.000000001
 43
0.00000001
 40
0.0
 40
0.0
 40
0.0
 40
0.0
 40
0.25
 40
0.25
 40
0.5
 40
0.5
 40
0.75
 40
0.75
 40
1.0
 40
1.0
 40
1.0
 40
1.0
 10
176.3248412545641
 20
150.1863714437941
 30
0.0
 10
176.4461677845498
 20
150.1863714437941
 30
0.0
 10
176.567872493112
 20
150.2251529592273
 30
0.0
 10
176.7743123719981
 20
150.3563075809212
 30
0.0
 10
176.8602629104542
 20
150.4469596655084
 30
0.0
 10
176.9941746702025
 20
150.6490767004496
 30
0.0
 10
177.0437391070217
 20
150.7628116439888
 30
0.0
 10
177.1085931349896
 20
150.9957712610553
 30
0.0
 10
177.1248412545641
 20
151.1184695273845
 30
0.0
 10
177.1248412545641
 20
151.2395324839781
 30
0.0
  0
LINE
  5
D3
330
1F
100
AcDbEntity
  8
0
  6
Continuous
 62
     7
370
    15
100
AcDbLine
 10
177.1248412546
 20
151.239532484
 30
0.0
 11
177.1248412546
 21
151.4136251246
 31
0.0
  0
LINE
  5
D4
330
1F
100
AcDbEntity
  8
0
  6
Continuous
 62
     7
370
    15
100
AcDbLine
 10
167.3148412546
 20
153.5955704969
 30
0.0
 11
167.3148412546
 21
145.6964893823
 31
0.0
  0
LINE
  5
D5
330
1F
100
AcDbEntity
  8
0
  6
Continuous
 62
     7
370
    15
100
AcDbLine
 10
183.1648412546
 20
153.5955704969
 30
0.0
 11
183.1648412546
 21
145.6964893823
 31
0.0
  0
SPLINE
  5
D6
330
1F
100
AcDbEntity
  8
0
  6
Continuous
 62
     7
370
    15
100
AcDbSpline
210
0.0
220
0.0
230
1.0
 70
     8
 71
     3
 72
     8
 73
     4
 74
     0
 42
0.000000001
 43
0.00000001
 40
0.0
 40
0.0
 40
0.0
 40
0.0
 40
0.0012352705496723
 40
0.0012352705496723
 40
0.0012352705496723
 40
0.0012352705496723
 10
172.5381702323967
 20
161.8465226269302
 30
0.0
 10
172.3531349815948
 20
162.1066242026584
 30
0.0
 10
172.167628172424
 20
162.3665582812853
 30
0.0
 10
171.9816797471022
 20
162.6263340370366
 30
0.0
  0
SPLINE
  5
D7
330
1F
100
AcDbEntity
  8
0
  6
Continuous
 62
     7
370
    15
100
AcDbSpline
210
0.0
220
0.0
230
1.0
 70
     8
 71
     3
 72
     8
 73
     4
 74
     0
 42
0.000000001
 43
0.00000001
 40
0.0
 40
0.0
 40
0.0
 40
0.0
 40
1.0
 40
1.0
 40
1.0
 40
1.0
 10
173.3048412545641
 20
160.4662287910909
 30
0.0
 10
173.0495099412587
 20
160.9264498113565
 30
0.0
 10
172.7939465431524
 20
161.3865442716648
 30
0.0
 10
172.5381702323967
 20
161.8465226269302
 30
0.0
  0
LINE
  5
D8
330
1F
100
AcDbEntity
  8
0
  6
Continuous
 62
     7
370
    15
100
AcDbLine
 10
173.3048412546
 20
151.4136251246
 30
0.0
 11
173.3048412546
 21
160.4662287911
 31
0.0
  0
SPLINE
  5
D9
330
1F
100
AcDbEntity
  8
0
  6
Continuous
 62
     7
370
    15
100
AcDbSpline
210
0.0
220
0.0
230
1.0
 70
     8
 71
     3
 72
    14
 73
    10
 74
     0
 42
0.000000001
 43
0.00000001
 40
0.0
 40
0.0
 40
0.0
 40
0.0
 40
0.25
 40
0.25
 40
0.5
 40
0.5
 40
0.75
 40
0.75
 40
1.0
 40
1.0
 40
1.0
 40
1.0
 10
177.1248412545641
 20
160.3275808706677
 30
0.0
 10
177.1248412545641
 20
160.2202384985202
 30
0.0
 10
177.1048450624999
 20
160.1136094916724
 30
0.0
 10
177.0271469781552
 20
159.9144577125213
 30
0.0
 10
176.9691538332617
 20
159.8219748142058
 30
0.0
 10
176.8231073404388
 20
159.6667389790966
 30
0.0
 10
176.7337696012711
 20
159.6030050374842
 30
0.0
 10
176.5390145892107
 20
159.517174771089
 30
0.0
 10
176.4314843180018
 20
159.4942556481306
 30
0.0
 10
176.324841254562
 20
159.4942556481309
 30
0.0
  0
LINE
  5
DA
330
1F
100
AcDbEntity
  8
0
  6
Continuous
 62
     7
370
    15
100
AcDbLine
 10
62.5148412546
 20
97.4676448549
 30
0.0
 11
62.5148412546
 21
134.2253339011
 31
0.0
  0
CIRCLE
  5
DB
330
1F
100
AcDbEntity
  8
0
  6
HIDDEN
 62
     7
370
     0
100
AcDbCircle
 10
217.0648412546
 20
115.8464893823
 30
0.0
 40
4.080384757729336
  0
CIRCLE
  5
DC
330
1F
100
AcDbEntity
  8
0
  6
HIDDEN
 62
     7
370
     0
100
AcDbCircle
 10
217.0648412546
 20
115.8464893823
 30
0.0
 40
3.780384757729347
  0
SPLINE
  5
DD
330
1F
100
AcDbEntity
  8
0
  6
HIDDEN
 62
     7
370
     0
100
AcDbSpline
210
0.0
220
0.0
230
1.0
 70
     8
 71
     3
 72
    18
 73
    14
 74
     0
 42
0.000000001
 43
0.00000001
 40
0.0
 40
0.0
 40
0.0
 40
0.0
 40
0.25
 40
0.25
 40
0.5
 40
0.5
 40
0.625
 40
0.625
 40
0.75
 40
0.75
 40
0.875
 40
0.875
 40
1.0
 40
1.0
 40
1.0
 40
1.0
 10
233.1148412545641
 20
132.844190626367
 30
0.0
 10
233.1148412545641
 20
132.7488709613492
 30
0.0
 10
233.1095831914011
 20
132.6518415751815
 30
0.0
 10
233.0820782015341
 20
132.4522574346564
 30
0.0
 10
233.0595947080605
 20
132.3472532649533
 30
0.0
 10
233.0012963559398
 20
132.1952445163689
 30
0.0
 10
232.9769695622319
 20
132.1441926161951
 30
0.0
 10
232.9181262030482
 20
132.0516417251174
 30
0.0
 10
232.8830034825952
 20
132.0098197484849
 30
0.0
 10
232.8080248106029
 20
131.9453474918825
 30
0.0
 10
232.768037992949
 20
131.9221896061288
 30
0.0
 10
232.6894301484022
 20
131.8922027603331
 30
0.0
 10
232.6515808053996
 20
131.8851648038479
 30
0.0
 10
232.6148016745497
 20
131.8829054968724
 30
0.0
  0
SPLINE
  5
DE
330
1F
100
AcDbEntity
  8
0
  6
HIDDEN
 62
     7
370
     0
100
AcDbSpline
210
0.0
220
0.0
230
1.0
 70
     8
 71
     3
 72
    10
 73
     6
 74
     0
 42
0.000000001
 43
0.00000001
 40
0.0
 40
0.0
 40
0.0
 40
0.0
 40
0.5
 40
0.5
 40
1.0
 40
1.0
 40
1.0
 40
1.0
 10
232.6148016745497
 20
131.8829054968726
 30
0.0
 10
232.5499802168169
 20
131.8220378924981
 30
0.0
 10
232.4751368205147
 20
131.7670660608778
 30
0.0
 10
232.3065261646634
 20
131.6872410526196
 30
0.0
 10
232.2122356126276
 20
131.6629342785924
 30
0.0
 10
232.1148412545641
 20
131.6629342785924
 30
0.0
  0
SPLINE
  5
DF
330
1F
100
AcDbEntity
  8
0
  6
HIDDEN
 62
     7
370
     0
100
AcDbSpline
210
0.0
220
0.0
230
1.0
 70
     8
 71
     3
 72
    10
 73
     6
 74
     0
 42
0.000000001
 43
0.00000001
 40
0.0
 40
0.0
 40
0.0
 40
0.0
 40
0.5
 40
0.5
 40
1.0
 40
1.0
 40
1.0
 40
1.0
 10
232.6147914482593
 20
99.81008287004961
 30
0.0
 10
232.5499707620926
 20
99.87094814013153
 30
0.0
 10
232.4751284794351
 20
99.92591768238154
 30
0.0
 10
232.3065212057142
 20
100.0057390296904
 30
0.0
 10
232.2122330518094
 20
100.0300444859297
 30
0.0
 10
232.1148412545641
 20
100.0300444859297
 30
0.0
  0
SPLINE
  5
E0
330
1F
100
AcDbEntity
  8
0
  6
HIDDEN
 62
     7
370
     0
100
AcDbSpline
210
0.0
220
0.0
230
1.0
 70
     8
 71
     3
 72
    18
 73
    14
 74
     0
 42
0.000000001
 43
0.00000001
 40
0.0
 40
0.0
 40
0.0
 40
0.0
 40
0.1250000000000018
 40
0.1250000000000018
 40
0.2500000000000037
 40
0.2500000000000037
 40
0.3750000000000055
 40
0.3750000000000055
 40
0.5000000000000073
 40
0.5000000000000073
 40
0.7500000000000037
 40
0.7500000000000037
 40
1.0
 40
1.0
 40
1.0
 40
1.0
 10
232.6147914482592
 20
99.81008287004953
 30
0.0
 10
232.6512783283551
 20
99.80784883376343
 30
0.0
 10
232.6895340203829
 20
99.80070534331212
 30
0.0
 10
232.7670810573715
 20
99.77124346258073
 30
0.0
 10
232.8070284725788
 20
99.74827038149992
 30
0.0
 10
232.8813733828141
 20
99.68484544564174
 30
0.0
 10
232.9165166278156
 20
99.6434554473193
 30
0.0
 10
232.9754995883869
 20
99.5515481720792
 30
0.0
 10
232.9999172108948
 20
99.50087164734148
 30
0.0
 10
233.0589935259546
 20
99.34822063098196
 30
0.0
 10
233.0814823945418
 20
99.24400142942162
 30
0.0
 10
233.1094866560121
 20
99.04286018865552
 30
0.0
 10
233.1148412545641
 20
98.94436592994887
 30
0.0
 10
233.1148412545641
 20
98.84878813815519
 30
0.0
  0
LINE
  5
E1
330
1F
100
AcDbEntity
  8
0
  6
HIDDEN
 62
     7
370
     0
100
AcDbLine
 10
192.6148412546
 20
115.8464893823
 30
0.0
 11
192.6148412546
 21
98.3464893823
 31
0.0
  0
LINE
  5
E2
330
1F
100
AcDbEntity
  8
0
  6
HIDDEN
 62
     7
370
     0
100
AcDbLine
 10
192.6148412546
 20
133.3464893823
 30
0.0
 11
192.6148412546
 21
115.8464893823
 31
0.0
  0
LINE
  5
E3
330
1F
100
AcDbEntity
  8
0
  6
HIDDEN
 62
     7
370
     0
100
AcDbLine
 10
197.4808666583
 20
115.8464893823
 30
0.0
 11
197.4808666583
 21
97.8464893823
 31
0.0
  0
LINE
  5
E4
330
1F
100
AcDbEntity
  8
0
  6
HIDDEN
 62
     7
370
     0
100
AcDbLine
 10
197.4808666583
 20
133.8464893823
 30
0.0
 11
197.4808666583
 21
115.8464893823
 31
0.0
  0
LINE
  5
E5
330
1F
100
AcDbEntity
  8
0
  6
HIDDEN
 62
     7
370
     0
100
AcDbLine
 10
216.5148412545
 20
131.6629342786
 30
0.0
 11
232.1148412546
 21
131.6629342786
 31
0.0
  0
LINE
  5
E6
330
1F
100
AcDbEntity
  8
0
  6
HIDDEN
 62
     7
370
     0
100
AcDbLine
 10
216.5148412545
 20
100.0300444859
 30
0.0
 11
232.1148412546
 21
100.0300444859
 31
0.0
  0
LINE
  5
E7
330
1F
100
AcDbEntity
  8
0
  6
HIDDEN
 62
     7
370
     0
100
AcDbLine
 10
188.6148412546
 20
115.8464893823
 30
0.0
 11
188.6148412546
 21
99.2464893823
 31
0.0
  0
LINE
  5
E8
330
1F
100
AcDbEntity
  8
0
  6
HIDDEN
 62
     7
370
     0
100
AcDbLine
 10
188.6148412546
 20
132.4464893823
 30
0.0
 11
188.6148412546
 21
115.8464893823
 31
0.0
  0
LINE
  5
E9
330
1F
100
AcDbEntity
  8
0
  6
HIDDEN
 62
     7
370
     0
100
AcDbLine
 10
187.6148412546
 20
115.8464893823
 30
0.0
 11
187.6148412546
 21
101.8464893823
 31
0.0
  0
LINE
  5
EA
330
1F
100
AcDbEntity
  8
0
  6
HIDDEN
 62
     7
370
     0
100
AcDbLine
 10
187.6148412546
 20
129.8464893823
 30
0.0
 11
187.6148412546
 21
115.8464893823
 31
0.0
  0
LINE
  5
EB
330
1F
100
AcDbEntity
  8
0
  6
HIDDEN
 62
     7
370
     0
100
AcDbLine
 10
156.6148412546
 20
115.8464893823
 30
0.0
 11
156.6148412546
 21
101.8464893823
 31
0.0
  0
LINE
  5
EC
330
1F
100
AcDbEntity
  8
0
  6
HIDDEN
 62
     7
370
     0
100
AcDbLine
 10
156.6148412546
 20
129.8464893823
 30
0.0
 11
156.6148412546
 21
115.8464893823
 31
0.0
  0
LINE
  5
ED
330
1F
100
AcDbEntity
  8
0
  6
HIDDEN
 62
     7
370
     0
100
AcDbLine
 10
153.0096775404
 20
115.8464893823
 30
0.0
 11
153.0096775404
 21
107.8464893823
 31
0.0
  0
LINE
  5
EE
330
1F
100
AcDbEntity
  8
0
  6
HIDDEN
 62
     7
370
     0
100
AcDbLine
 10
153.0096775404
 20
123.8464893823
 30
0.0
 11
153.0096775404
 21
115.8464893823
 31
0.0
  0
LINE
  5
EF
330
1F
100
AcDbEntity
  8
0
  6
HIDDEN
 62
     7
370
     0
100
AcDbLine
 10
167.4864141298
 20
80.5464893823
 30
0.0
 11
167.3148412546
 21
80.5464893823
 31
0.0
  0
ELLIPSE
  5
F0
330
1F
100
AcDbEntity
  8
0
  6
HIDDEN
 62
     7
370
     0
100
AcDbEllipse
 10
167.4864141298
 20
78.5464893823
 30
0.0
 11
0.0
 21
2.0
 31
0.0
210
0.0
220
0.0
230
1.0
 40
0.4142135624
 41
4.712388980384695
 42
6.283185307179586
  0
LINE
  5
F1
330
1F
100
AcDbEntity
  8
0
  6
HIDDEN
 62
     7
370
     0
100
AcDbLine
 10
167.3148412546
 20
153.3464893823
 30
0.0
 11
167.4864141298
 21
153.3464893823
 31
0.0
  0
ELLIPSE
  5
F2
330
1F
100
AcDbEntity
  8
0
  6
HIDDEN
 62
     7
370
     0
100
AcDbEllipse
 10
167.4864141298
 20
155.3464893823
 30
0.0
 11
0.0
 21
2.0
 31
0.0
210
0.0
220
0.0
230
1.0
 40
0.4142135624
 41
3.141592653589793
 42
4.712388980384695
  0
LINE
  5
F3
330
1F
100
AcDbEntity
  8
0
  6
HIDDEN
 62
     7
370
     0
100
AcDbLine
 10
168.3148412546
 20
69.6605743153
 30
0.0
 11
167.5305012857
 21
69.2130351151
 31
0.0
  0
LINE
  5
F4
330
1F
100
AcDbEntity
  8
0
  6
HIDDEN
 62
     7
370
     0
100
AcDbLine
 10
167.6047101735
 20
162.556653708
 30
0.0
 11
168.3148412546
 21
161.8465226269
 31
0.0
  0
LINE
  5
F5
330
1F
100
AcDbEntity
  8
0
  6
HIDDEN
 62
     7
370
     0
100
AcDbLine
 10
172.4347934241
 20
69.6605743153
 30
0.0
 11
168.3148412546
 21
69.6605743153
 31
0.0
  0
LINE
  5
F6
330
1F
100
AcDbEntity
  8
0
  6
HIDDEN
 62
     7
370
     0
100
AcDbLine
 10
168.3148412546
 20
69.6605743153
 30
0.0
 11
168.3148412546
 21
78.5464893823
 31
0.0
  0
LINE
  5
F7
330
1F
100
AcDbEntity
  8
0
  6
HIDDEN
 62
     7
370
     0
100
AcDbLine
 10
183.1648412546
 20
69.6605743153
 30
0.0
 11
177.9948890851
 21
69.6605743153
 31
0.0
  0
LINE
  5
F8
330
1F
100
AcDbEntity
  8
0
  6
HIDDEN
 62
     7
370
     0
100
AcDbLine
 10
167.4864141298
 20
153.3464893823
 30
0.0
 11
183.1648412546
 21
153.3464893823
 31
0.0
  0
LINE
  5
F9
330
1F
100
AcDbEntity
  8
0
  6
HIDDEN
 62
     7
370
     0
100
AcDbLine
 10
168.3148412546
 20
161.8465226269
 30
0.0
 11
172.5381702324
 21
161.8465226269
 31
0.0
  0
LINE
  5
FA
330
1F
100
AcDbEntity
  8
0
  6
HIDDEN
 62
     7
370
     0
100
AcDbLine
 10
177.8915122767
 20
161.8465226269
 30
0.0
 11
183.1648412546
 21
161.8465226269
 31
0.0
  0
LINE
  5
FB
330
1F
100
AcDbEntity
  8
0
  6
HIDDEN
 62
     7
370
     0
100
AcDbLine
 10
168.3148412546
 20
161.8465226269
 30
0.0
 11
168.3148412546
 21
155.3464893823
 31
0.0
  0
LINE
  5
FC
330
1F
100
AcDbEntity
  8
0
  6
HIDDEN
 62
     7
370
     0
100
AcDbLine
 10
183.1648412546
 20
80.5464893823
 30
0.0
 11
167.4864141298
 21
80.5464893823
 31
0.0
  0
LINE
  5
FD
330
1F
100
AcDbEntity
  8
0
  6
HIDDEN
 62
     7
370
     0
100
AcDbLine
 10
72.5148412546
 20
103.3464893823
 30
0.0
 11
72.5148412546
 21
128.3464893823
 31
0.0
  0
LINE
  5
FE
330
1F
100
AcDbEntity
  8
0
  6
HIDDEN
 62
     7
370
     0
100
AcDbLine
 10
75.7994456035
 20
105.3464893823
 30
0.0
 11
75.7994456035
 21
126.3464893823
 31
0.0
  0
LINE
  5
FF
330
1F
100
AcDbEntity
  8
0
  6
HIDDEN
 62
     7
370
     0
100
AcDbLine
 10
124.5148412546
 20
105.3464893823
 30
0.0
 11
124.5148412546
 21
126.3464893823
 31
0.0
  0
LINE
  5
100
330
1F
100
AcDbEntity
  8
0
  6
HIDDEN
 62
     7
370
     0
100
AcDbLine
 10
126.0169928021
 20
107.8464893823
 30
0.0
 11
126.0169928021
 21
123.8464893823
 31
0.0
  0
SPLINE
  5
101
330
1F
100
AcDbEntity
  8
0
  6
HIDDEN
 62
     7
370
     0
100
AcDbSpline
210
0.0
220
0.0
230
1.0
 70
     8
 71
     3
 72
     9
 73
     5
 74
     0
 42
0.000000001
 43
0.00000001
 40
0.0
 40
0.0
 40
0.0
 40
0.0
 40
0.3794529432996961
 40
1.0
 40
1.0
 40
1.0
 40
1.0
 10
232.6148412544504
 20
138.7464893822611
 30
0.0
 10
232.6147256094
 20
138.8620511960068
 30
0.0
 10
232.6144208415692
 20
139.1665996671315
 30
0.0
 10
232.6135327701836
 20
139.4347427985108
 30
0.0
 10
232.6129816800992
 20
139.6011382294626
 30
0.0
  0
SPLINE
  5
102
330
1F
100
AcDbEntity
  8
0
  6
HIDDEN
 62
     7
370
     0
100
AcDbSpline
210
0.0
220
0.0
230
1.0
 70
     8
 71
     3
 72
    19
 73
    15
 74
     0
 42
0.000000001
 43
0.00000001
 40
0.0
 40
0.0
 40
0.0
 40
0.0
 40
0.0115752053751237
 40
0.0922867432272149
 40
0.1747625053785105
 40
0.257849125602751
 40
0.3377924573528726
 40
0.5003919716398054
 40
0.5832383784219343
 40
0.6632717637473101
 40
0.7438678777385417
 40
0.8261921145145119
 40
0.9091396238176381
 40
1.0
 40
1.0
 40
1.0
 40
1.0
 10
232.5404006847924
 20
141.3438122502522
 30
0.0
 10
232.5401043745777
 20
141.3442402208263
 30
0.0
 10
232.5377419538846
 20
141.3476523426162
 30
0.0
 10
232.5352017063672
 20
141.3192820155799
 30
0.0
 10
232.5337146164298
 20
141.2554206432638
 30
0.0
 10
232.5353116703349
 20
141.1512134601168
 30
0.0
 10
232.5420659473489
 20
140.9670828800852
 30
0.0
 10
232.5542620938522
 20
140.7137242543855
 30
0.0
 10
232.5671445802355
 20
140.3970104018306
 30
0.0
 10
232.5802906553698
 20
140.1300748935666
 30
0.0
 10
232.6001529795635
 20
139.8363484954882
 30
0.0
 10
232.6193197183021
 20
139.5124414046569
 30
0.0
 10
232.6322777472575
 20
139.1508239650454
 30
0.0
 10
232.624371224257
 20
138.8852970808639
 30
0.0
 10
232.6202379845474
 20
138.7464893822611
 30
0.0
  0
SPLINE
  5
103
330
1F
100
AcDbEntity
  8
0
  6
HIDDEN
 62
     7
370
     0
100
AcDbSpline
210
0.0
220
0.0
230
1.0
 70
     8
 71
     3
 72
    14
 73
    10
 74
     0
 42
0.000000001
 43
0.00000001
 40
0.0
 40
0.0
 40
0.0
 40
0.0
 40
0.25
 40
0.25
 40
0.5
 40
0.5
 40
0.75
 40
0.75
 40
1.0
 40
1.0
 40
1.0
 40
1.0
 10
232.6202379845474
 20
138.7464893822611
 30
0.0
 10
232.5924200438283
 20
138.1747065880528
 30
0.0
 10
232.6095194871421
 20
137.602731639564
 30
0.0
 10
232.6222155687909
 20
136.4588153951449
 30
0.0
 10
232.621112120743
 20
135.8868169416095
 30
0.0
 10
232.6163646922578
 20
134.7428448929659
 30
0.0
 10
232.6136118637481
 20
134.170859457876
 30
0.0
 10
232.6134528835378
 20
133.026883088057
 30
0.0
 10
232.6146000425481
 20
132.4548943133225
 30
0.0
 10
232.6148016745497
 20
131.8829054968725
 30
0.0
  0
SPLINE
  5
104
330
1F
100
AcDbEntity
  8
0
  6
HIDDEN
 62
     7
370
     0
100
AcDbSpline
210
0.0
220
0.0
230
1.0
 70
     8
 71
     3
 72
    14
 73
    10
 74
     0
 42
0.000000001
 43
0.00000001
 40
0.0
 40
0.0
 40
0.0
 40
0.0
 40
0.25
 40
0.25
 40
0.5
 40
0.5
 40
0.75
 40
0.75
 40
1.0
 40
1.0
 40
1.0
 40
1.0
 10
232.6202270105304
 20
92.94648938226105
 30
0.0
 10
232.5924683867931
 20
93.5181971594505
 30
0.0
 10
232.6094766337328
 20
94.09019095332428
 30
0.0
 10
232.6222729012486
 20
95.23411255283963
 30
0.0
 10
232.6210614367796
 20
95.8061248576476
 30
0.0
 10
232.616275645182
 20
96.9501079784358
 30
0.0
 10
232.6136792012119
 20
97.52209921714919
 30
0.0
 10
232.6134015208316
 20
98.66609050857471
 30
0.0
 10
232.6145425438997
 20
99.23808672733568
 30
0.0
 10
232.6147914482592
 20
99.81008287004956
 30
0.0
  0
LINE
  5
105
330
1F
100
AcDbEntity
  8
0
  6
HIDDEN
 62
     7
370
     0
100
AcDbLine
 10
232.6148412545
 20
92.9464893823
 30
0.0
 11
232.611451306
 21
92.25899072
 31
0.0
  0
SPLINE
  5
106
330
1F
100
AcDbEntity
  8
0
  6
HIDDEN
 62
     7
370
     0
100
AcDbSpline
210
0.0
220
0.0
230
1.0
 70
     8
 71
     3
 72
    11
 73
     7
 74
     0
 42
0.000000001
 43
0.00000001
 40
0.0
 40
0.0
 40
0.0
 40
0.0
 40
0.279438139646767
 40
0.6044688022984394
 40
0.9299362456055991
 40
1.0
 40
1.0
 40
1.0
 40
1.0
 10
232.5428102981333
 20
90.38286382027059
 30
0.0
 10
232.5391428021673
 20
90.41672494101446
 30
0.0
 10
232.5312094295189
 20
90.48997188978963
 30
0.0
 10
232.5556368059003
 20
91.3019120437262
 30
0.0
 10
232.6426998800384
 20
92.23566075836995
 30
0.0
 10
232.6236087774561
 20
92.83952232452853
 30
0.0
 10
232.6202270105304
 20
92.94648938226105
 30
0.0
  0
LINE
  5
107
330
1F
100
AcDbEntity
  8
0
  6
HIDDEN
 62
     7
370
     0
100
AcDbLine
 10
216.5148412545
 20
92.9464893823
 30
0.0
 11
216.5148412545
 21
100.0300444859
 31
0.0
  0
LINE
  5
108
330
1F
100
AcDbEntity
  8
0
  6
HIDDEN
 62
     7
370
     0
100
AcDbLine
 10
216.5148412545
 20
138.7464893823
 30
0.0
 11
216.5148412545
 21
131.6629342786
 31
0.0
  0
LINE
  5
109
330
1F
100
AcDbEntity
  8
0
  6
HIDDEN
 62
     7
370
     0
100
AcDbLine
 10
216.5148412545
 20
90.3464893823
 30
0.0
 11
216.5148412545
 21
92.9464893823
 31
0.0
  0
LINE
  5
10A
330
1F
100
AcDbEntity
  8
0
  6
HIDDEN
 62
     7
370
     0
100
AcDbLine
 10
216.5148412545
 20
141.3464893823
 30
0.0
 11
216.5148412545
 21
138.7464893823
 31
0.0
  0
LINE
  5
10B
330
1F
100
AcDbEntity
  8
0
  6
HIDDEN
 62
     7
370
     0
100
AcDbLine
 10
173.3048412546
 20
151.239532484
 30
0.0
 11
173.3048412546
 21
145.6964893823
 31
0.0
  0
LINE
  5
10C
330
1F
100
AcDbEntity
  8
0
  6
HIDDEN
 62
     7
370
     0
100
AcDbLine
 10
177.1248412546
 20
151.239532484
 30
0.0
 11
177.1248412546
 21
145.6964893823
 31
0.0
  0
LINE
  5
10D
330
1F
100
AcDbEntity
  8
0
  6
HIDDEN
 62
     7
370
     0
100
AcDbLine
 10
171.9816797471
 20
154.3575673339
 30
0.0
 11
171.9816797471
 21
145.6964893823
 31
0.0
  0
LINE
  5
10E
330
1F
100
AcDbEntity
  8
0
  6
HIDDEN
 62
     7
370
     0
100
AcDbLine
 10
178.448002762
 20
154.3575673339
 30
0.0
 11
178.448002762
 21
145.6964893823
 31
0.0
  0
LINE
  5
10F
330
1F
100
AcDbEntity
  8
0
  6
HIDDEN
 62
     7
370
     0
100
AcDbLine
 10
195.483188757
 20
134.3464893823
 30
0.0
 11
193.6148412546
 21
134.3464893823
 31
0.0
  0
LINE
  5
110
330
1F
100
AcDbEntity
  8
0
  6
HIDDEN
 62
     7
370
     0
100
AcDbLine
 10
193.6148412546
 20
97.3464893823
 30
0.0
 11
195.483188757
 21
97.3464893823
 31
0.0
  0
ARC
  5
111
330
1F
100
AcDbEntity
  8
0
  6
HIDDEN
 62
     7
370
     0
100
AcDbCircle
 10
193.6148412546
 20
133.3464893823
 30
0.0
 40
1.0
100
AcDbArc
 50
90.0
 51
180.0
  0
ARC
  5
112
330
1F
100
AcDbEntity
  8
0
  6
HIDDEN
 62
     7
370
     0
100
AcDbCircle
 10
193.6148412546
 20
98.3464893823
 30
0.0
 40
1.0
100
AcDbArc
 50
180.0
 51
270.0
  0
ARC
  5
113
330
1F
100
AcDbEntity
  8
0
  6
HIDDEN
 62
     7
370
     0
100
AcDbCircle
 10
195.483188757
 20
133.3464893823
 30
0.0
 40
1.000000000000003
100
AcDbArc
 50
75.0
 51
90.0
  0
ARC
  5
114
330
1F
100
AcDbEntity
  8
0
  6
HIDDEN
 62
     7
370
     0
100
AcDbCircle
 10
195.483188757
 20
98.3464893823
 30
0.0
 40
1.000000000000003
100
AcDbArc
 50
270.0
 51
285.0
  0
LINE
  5
115
330
1F
100
AcDbEntity
  8
0
  6
HIDDEN
 62
     7
370
     0
100
AcDbLine
 10
195.7420078021
 20
97.380563556
 30
0.0
 11
197.4808666583
 21
97.8464893823
 31
0.0
  0
LINE
  5
116
330
1F
100
AcDbEntity
  8
0
  6
HIDDEN
 62
     7
370
     0
100
AcDbLine
 10
197.4808666583
 20
133.8464893823
 30
0.0
 11
195.7420078021
 21
134.3124152086
 31
0.0
  0
LINE
  5
117
330
1F
100
AcDbEntity
  8
0
  6
HIDDEN
 62
     7
370
     0
100
AcDbLine
 10
216.5148412545
 20
133.8464893823
 30
0.0
 11
197.4808666583
 21
133.8464893823
 31
0.0
  0
LINE
  5
118
330
1F
100
AcDbEntity
  8
0
  6
HIDDEN
 62
     7
370
     0
100
AcDbLine
 10
197.4808666583
 20
97.8464893823
 30
0.0
 11
216.5148412545
 21
97.8464893823
 31
0.0
  0
LINE
  5
119
330
1F
100
AcDbEntity
  8
0
  6
HIDDEN
 62
     7
370
     0
100
AcDbLine
 10
192.6148412546
 20
132.8464893823
 30
0.0
 11
189.0148412546
 21
132.8464893823
 31
0.0
  0
LINE
  5
11A
330
1F
100
AcDbEntity
  8
0
  6
HIDDEN
 62
     7
370
     0
100
AcDbLine
 10
189.0148412546
 20
98.8464893823
 30
0.0
 11
192.6148412546
 21
98.8464893823
 31
0.0
  0
ARC
  5
11B
330
1F
100
AcDbEntity
  8
0
  6
HIDDEN
 62
     7
370
     0
100
AcDbCircle
 10
189.0148412546
 20
132.4464893823
 30
0.0
 40
0.4000000000000341
100
AcDbArc
 50
90.0
 51
180.0
  0
ARC
  5
11C
330
1F
100
AcDbEntity
  8
0
  6
HIDDEN
 62
     7
370
     0
100
AcDbCircle
 10
189.0148412546
 20
99.2464893823
 30
0.0
 40
0.4000000000000341
100
AcDbArc
 50
180.0
 51
270.0
  0
LINE
  5
11D
330
1F
100
AcDbEntity
  8
0
  6
HIDDEN
 62
     7
370
     0
100
AcDbLine
 10
188.6148412546
 20
130.8464893823
 30
0.0
 11
187.6148412546
 21
129.8464893823
 31
0.0
  0
LINE
  5
11E
330
1F
100
AcDbEntity
  8
0
  6
HIDDEN
 62
     7
370
     0
100
AcDbLine
 10
187.6148412546
 20
101.8464893823
 30
0.0
 11
188.6148412546
 21
100.8464893823
 31
0.0
  0
LINE
  5
11F
330
1F
100
AcDbEntity
  8
0
  6
HIDDEN
 62
     7
370
     0
100
AcDbLine
 10
187.6148412546
 20
129.8464893823
 30
0.0
 11
156.6148412546
 21
129.8464893823
 31
0.0
  0
LINE
  5
120
330
1F
100
AcDbEntity
  8
0
  6
HIDDEN
 62
     7
370
     0
100
AcDbLine
 10
156.6148412546
 20
101.8464893823
 30
0.0
 11
187.6148412546
 21
101.8464893823
 31
0.0
  0
LINE
  5
121
330
1F
100
AcDbEntity
  8
0
  6
HIDDEN
 62
     7
370
     0
100
AcDbLine
 10
156.6148412546
 20
129.8464893823
 30
0.0
 11
153.0096775404
 21
123.8464893823
 31
0.0
  0
LINE
  5
122
330
1F
100
AcDbEntity
  8
0
  6
HIDDEN
 62
     7
370
     0
100
AcDbLine
 10
153.0096775404
 20
107.8464893823
 30
0.0
 11
156.6148412546
 21
101.8464893823
 31
0.0
  0
ARC
  5
123
330
1F
100
AcDbEntity
  8
0
  6
HIDDEN
 62
     7
370
     0
100
AcDbCircle
 10
63.7148412546
 20
102.1464893823
 30
0.0
 40
1.200000000000003
100
AcDbArc
 50
90.0
 51
180.0
  0
ARC
  5
124
330
1F
100
AcDbEntity
  8
0
  6
HIDDEN
 62
     7
370
     0
100
AcDbCircle
 10
63.7148412546
 20
129.5464893823
 30
0.0
 40
1.200000000000003
100
AcDbArc
 50
180.0
 51
270.0
  0
ARC
  5
125
330
1F
100
AcDbEntity
  8
0
  6
HIDDEN
 62
     7
370
     0
100
AcDbCircle
 10
73.4072136853
 20
103.5214893823
 30
0.0
 40
0.400000000000006
100
AcDbArc
 50
255.0
 51
270.0
  0
ARC
  5
126
330
1F
100
AcDbEntity
  8
0
  6
HIDDEN
 62
     7
370
     0
100
AcDbCircle
 10
73.4072136853
 20
128.1714893823
 30
0.0
 40
0.400000000000006
100
AcDbArc
 50
90.0
 51
105.0
  0
LINE
  5
127
330
1F
100
AcDbEntity
  8
0
  6
HIDDEN
 62
     7
370
     0
100
AcDbLine
 10
73.4072136853
 20
103.1214893823
 30
0.0
 11
74.2839011469
 21
103.1214893823
 31
0.0
  0
LINE
  5
128
330
1F
100
AcDbEntity
  8
0
  6
HIDDEN
 62
     7
370
     0
100
AcDbLine
 10
74.2839011469
 20
128.5714893823
 30
0.0
 11
73.4072136853
 21
128.5714893823
 31
0.0
  0
ARC
  5
129
330
1F
100
AcDbEntity
  8
0
  6
HIDDEN
 62
     7
370
     0
100
AcDbCircle
 10
74.2839011469
 20
103.5214893823
 30
0.0
 40
0.4000000000000057
100
AcDbArc
 50
270.0
 51
330.0
  0
ARC
  5
12A
330
1F
100
AcDbEntity
  8
0
  6
HIDDEN
 62
     7
370
     0
100
AcDbCircle
 10
74.2839011469
 20
128.1714893823
 30
0.0
 40
0.3999999999999946
100
AcDbArc
 50
30.0
 51
90.0
  0
LINE
  5
12B
330
1F
100
AcDbEntity
  8
0
  6
HIDDEN
 62
     7
370
     0
100
AcDbLine
 10
73.3036860673
 20
128.5578597128
 30
0.0
 11
72.5148412546
 21
128.3464893823
 31
0.0
  0
LINE
  5
12C
330
1F
100
AcDbEntity
  8
0
  6
HIDDEN
 62
     7
370
     0
100
AcDbLine
 10
72.5148412546
 20
103.3464893823
 30
0.0
 11
73.3036860673
 21
103.1351190517
 31
0.0
  0
LINE
  5
12D
330
1F
100
AcDbEntity
  8
0
  6
HIDDEN
 62
     7
370
     0
100
AcDbLine
 10
74.6303113084
 20
103.3214893823
 30
0.0
 11
75.7994456035
 21
105.3464893823
 31
0.0
  0
LINE
  5
12E
330
1F
100
AcDbEntity
  8
0
  6
HIDDEN
 62
     7
370
     0
100
AcDbLine
 10
75.7994456035
 20
126.3464893823
 30
0.0
 11
74.6303113084
 21
128.3714893823
 31
0.0
  0
LINE
  5
12F
330
1F
100
AcDbEntity
  8
0
  6
HIDDEN
 62
     7
370
     0
100
AcDbLine
 10
63.7148412546
 20
103.3464893823
 30
0.0
 11
72.5148412546
 21
103.3464893823
 31
0.0
  0
LINE
  5
130
330
1F
100
AcDbEntity
  8
0
  6
HIDDEN
 62
     7
370
     0
100
AcDbLine
 10
72.5148412546
 20
128.3464893823
 30
0.0
 11
63.7148412546
 21
128.3464893823
 31
0.0
  0
LINE
  5
131
330
1F
100
AcDbEntity
  8
0
  6
HIDDEN
 62
     7
370
     0
100
AcDbLine
 10
124.5148412546
 20
105.3464893823
 30
0.0
 11
126.0169928021
 21
107.8464893823
 31
0.0
  0
LINE
  5
132
330
1F
100
AcDbEntity
  8
0
  6
HIDDEN
 62
     7
370
     0
100
AcDbLine
 10
126.0169928021
 20
123.8464893823
 30
0.0
 11
124.5148412546
 21
126.3464893823
 31
0.0
  0
LINE
  5
133
330
1F
100
AcDbEntity
  8
0
  6
HIDDEN
 62
     7
370
     0
100
AcDbLine
 10
75.7994456035
 20
105.3464893823
 30
0.0
 11
124.5148412546
 21
105.3464893823
 31
0.0
  0
LINE
  5
134
330
1F
100
AcDbEntity
  8
0
  6
HIDDEN
 62
     7
370
     0
100
AcDbLine
 10
124.5148412546
 20
126.3464893823
 30
0.0
 11
75.7994456035
 21
126.3464893823
 31
0.0
  0
LINE
  5
135
330
1F
100
AcDbEntity
  8
0
  6
HIDDEN
 62
     7
370
     0
100
AcDbLine
 10
233.1148412545
 20
141.920570908
 30
0.0
 11
232.5280827851
 21
141.3338199184
 31
0.0
  0
LINE
  5
136
330
1F
100
AcDbEntity
  8
0
  6
HIDDEN
 62
     7
370
     0
100
AcDbLine
 10
232.5278816886
 20
90.3593551459
 30
0.0
 11
233.1148412545
 21
89.7724076222
 31
0.0
  0
LINE
  5
137
330
1F
100
AcDbEntity
  8
0
  6
HIDDEN
 62
     7
370
     0
100
AcDbLine
 10
126.0169928021
 20
107.8464893823
 30
0.0
 11
153.0096775404
 21
107.8464893823
 31
0.0
  0
LINE
  5
138
330
1F
100
AcDbEntity
  8
0
  6
HIDDEN
 62
     7
370
     0
100
AcDbLine
 10
153.0096775404
 20
123.8464893823
 30
0.0
 11
126.0169928021
 21
123.8464893823
 31
0.0
  0
LINE
  5
139
330
1F
100
AcDbEntity
  8
0
  6
HIDDEN
 62
     7
370
     0
100
AcDbLine
 10
216.5148412545
 20
90.3464893823
 30
0.0
 11
232.5430719312
 21
90.3464893823
 31
0.0
  0
LINE
  5
13A
330
1F
100
AcDbEntity
  8
0
  6
HIDDEN
 62
     7
370
     0
100
AcDbLine
 10
232.5413832888
 20
141.3464893823
 30
0.0
 11
216.5148412545
 21
141.3464893823
 31
0.0
  0
DIMENSION
  5
13B
330
1F
100
AcDbEntity
  8
VERMASSUNG
100
AcDbDimension
  2
_D
 10
55.5747853298
 20
164.5714893823
 30
0.0
 11
55.5747853298
 21
115.8464893823
 31
0.0
 70
   160
  1
ISO 50 %%c<>
 71
     2
 42
-1.0
  3
SLDDIMSTYLE0
100
AcDbAlignedDimension
 13
182.5648412546
 23
67.1214893823
 33
0.0
 14
182.5648412546
 24
164.5714893823
 34
0.0
 50
90.0
100
AcDbRotatedDimension
  0
DIMENSION
  5
148
330
1F
100
AcDbEntity
  8
VERMASSUNG
100
AcDbDimension
  2
_D_1
 10
241.6922927944
 20
97.8464893823
 30
0.0
 11
241.6922927944
 21
115.8464893823
 31
0.0
 70
   160
  1
%%c<>
 71
     2
 42
-1.0
  3
SLDDIMSTYLE0
100
AcDbAlignedDimension
 13
216.5148412545
 23
133.8464893823
 33
0.0
 14
216.5148412545
 24
97.8464893823
 34
0.0
 50
90.0
100
AcDbRotatedDimension
  0
DIMENSION
  5
153
330
1F
100
AcDbEntity
  8
VERMASSUNG
100
AcDbDimension
  2
_D_2
 10
233.1148412546
 20
168.2809968099
 30
0.0
 11
208.1398412546
 21
168.2809968099
 31
0.0
 70
   160
  1
(<>)
 71
     2
 42
-1.0
  3
SLDDIMSTYLE0
100
AcDbAlignedDimension
 13
183.1648412546
 23
162.1414763355
 33
0.0
 14
233.1148412546
 24
147.2464893823
 34
0.0
100
AcDbRotatedDimension
  0
DIMENSION
  5
15F
330
1F
100
AcDbEntity
  8
VERMASSUNG
100
AcDbDimension
  2
_D_3
 10
233.1148412546
 20
174.2809968099
 30
0.0
 11
198.6148412546
 21
174.2809968099
 31
0.0
 70
   160
  1
<>
 71
     2
 42
-1.0
  3
SLDDIMSTYLE0
100
AcDbAlignedDimension
 13
164.1148412546
 23
150.7714893823
 33
0.0
 14
233.1148412546
 24
147.2464893823
 34
0.0
100
AcDbRotatedDimension
  0
DIMENSION
  5
169
330
1F
100
AcDbEntity
  8
VERMASSUNG
100
AcDbDimension
  2
_D_4
 10
233.1148412546
 20
180.2809968099
 30
0.0
 11
147.8148412546
 21
180.2809968099
 31
0.0
 70
   160
  1
(<>)
 71
     2
 42
-1.0
  3
SLDDIMSTYLE0
100
AcDbAlignedDimension
 13
62.5148412546
 23
134.2253339097
 33
0.0
 14
233.1148412546
 24
147.2464893823
 34
0.0
100
AcDbRotatedDimension
  0
DIMENSION
  5
175
330
1F
100
AcDbEntity
  8
VERMASSUNG
100
AcDbDimension
  2
_D_5
 10
247.6922927944
 20
83.8464893823
 30
0.0
 11
247.6922927944
 21
115.8464893823
 31
0.0
 70
   160
  1
ST6 %%c<>
 71
     2
 42
-1.0
  3
SLDDIMSTYLE0
100
AcDbAlignedDimension
 13
232.5148412546
 23
147.8464893823
 33
0.0
 14
232.5148412546
 24
83.8464893823
 34
0.0
 50
90.0
100
AcDbRotatedDimension
  0
LINE
  5
181
330
1F
100
AcDbEntity
  8
VERMASSUNG
  6
CENTERX2
 62
     7
370
     0
100
AcDbLine
 10
60.5148412546
 20
115.8464893823
 30
0.0
 11
235.1148412546
 21
115.8464893823
 31
0.0
  0
LINE
  5
182
330
1F
100
AcDbEntity
  8
0
  6
Continuous
 62
     7
370
    15
100
AcDbLine
 10
275.0971318689
 20
45.7311166125
 30
0.0
 11
274.9203264495
 21
45.8332173863
 31
0.0
  0
LINE
  5
183
330
1F
100
AcDbEntity
  8
0
  6
Continuous
 62
     7
370
    15
100
AcDbLine
 10
271.0306072209
 20
45.8332173863
 30
0.0
 11
270.8538018014
 21
45.7311166125
 31
0.0
  0
LINE
  5
184
330
1F
100
AcDbEntity
  8
0
  6
Continuous
 62
     7
370
    15
100
AcDbLine
 10
275.9754668352
 20
44.200500658
 30
0.0
 11
275.9754668352
 21
44.5067034625
 31
0.0
  0
LINE
  5
185
330
1F
100
AcDbEntity
  8
0
  6
Continuous
 62
     7
370
    15
100
AcDbLine
 10
269.9754668352
 20
44.5067034625
 30
0.0
 11
269.9754668352
 21
44.200500658
 31
0.0
  0
LINE
  5
186
330
1F
100
AcDbEntity
  8
0
  6
Continuous
 62
     7
370
    15
100
AcDbLine
 10
278.4397055157
 20
15.42921804
 30
0.0
 11
278.6518030726
 21
15.5516991601
 31
0.0
  0
LINE
  5
187
330
1F
100
AcDbEntity
  8
0
  6
Continuous
 62
     7
370
    15
100
AcDbLine
 10
289.7515752188
 20
34.7791518044
 30
0.0
 11
289.7515752188
 21
35.024074238
 31
0.0
  0
LINE
  5
188
330
1F
100
AcDbEntity
  8
0
  6
Continuous
 62
     7
370
    15
100
AcDbLine
 10
286.4372165809
 20
42.3495911415
 30
0.0
 11
270.4035703175
 21
51.6056181093
 31
0.0
  0
LINE
  5
189
330
1F
100
AcDbEntity
  8
0
  6
Continuous
 62
     7
370
    15
100
AcDbLine
 10
254.4048705954
 20
23.8920545131
 30
0.0
 11
270.4385168588
 21
14.6360275453
 31
0.0
  0
SPLINE
  5
18A
330
1F
100
AcDbEntity
  8
0
  6
Continuous
 62
     7
370
    15
100
AcDbSpline
210
0.0
220
0.0
230
1.0
 70
     8
 71
     3
 72
    23
 73
    19
 74
     0
 42
0.000000001
 43
0.00000001
 40
0.0
 40
0.0
 40
0.0
 40
0.0
 40
0.0124670360571133
 40
0.0811810020446023
 40
0.1499709306876747
 40
0.2187830646072022
 40
0.2875778553680847
 40
0.3563124349502024
 40
0.424951305110752
 40
0.4934614077937698
 40
0.5618180313993669
 40
0.630018153673816
 40
0.6981074181144392
 40
0.7661893502080235
 40
0.834494635326927
 40
0.9034894690927443
 40
0.9738273240842674
 40
1.0
 40
1.0
 40
1.0
 40
1.0
 10
272.85219357645
 20
28.66006704949862
 30
0.0
 10
272.875116464095
 20
28.72450701751524
 30
0.0
 10
273.0243823345278
 20
29.14411767327548
 30
0.0
 10
273.3630749352843
 20
29.91728155185152
 30
0.0
 10
273.8992039605949
 20
30.95716861363127
 30
0.0
 10
274.5152457438674
 20
31.95638399465901
 30
0.0
 10
275.1954584023014
 20
32.8973677200419
 30
0.0
 10
275.9290644793743
 20
33.76387056917598
 30
0.0
 10
276.7024556590113
 20
34.54108413311524
 30
0.0
 10
277.5015539140744
 20
35.21599855518944
 30
0.0
 10
278.3114892070022
 20
35.77773594426782
 30
0.0
 10
279.1170628262672
 20
36.21784219307486
 30
0.0
 10
279.9032805849926
 20
36.53088532790809
 30
0.0
 10
280.6554259523103
 20
36.71357652118179
 30
0.0
 10
281.3629035092998
 20
36.76901058914154
 30
0.0
 10
282.0115109447533
 20
36.68911241404245
 30
0.0
 10
282.4875128061281
 20
36.55160655402388
 30
0.0
 10
282.7220166151494
 20
36.39705997969472
 30
0.0
 10
282.7856116667652
 20
36.35514851816011
 30
0.0
  0
SPLINE
  5
18B
330
1F
100
AcDbEntity
  8
0
  6
Continuous
 62
     7
370
    15
100
AcDbSpline
210
0.0
220
0.0
230
1.0
 70
     8
 71
     3
 72
    28
 73
    24
 74
     0
 42
0.000000001
 43
0.00000001
 40
0.0
 40
0.0
 40
0.0
 40
0.0
 40
0.0245397290332394
 40
0.0750394825628493
 40
0.1255876945049819
 40
0.1761612547257488
 40
0.2267433403146069
 40
0.2773213570226438
 40
0.3278905209338948
 40
0.3784488165007731
 40
0.4289960129440834
 40
0.4795329780856896
 40
0.5300612276172626
 40
0.5805826432897975
 40
0.6310993051370802
 40
0.6816133972847883
 40
0.7321271589370696
 40
0.7826424737611338
 40
0.8331612622676595
 40
0.883685822650731
 40
0.9342184362868668
 40
0.9847613157586461
 40
1.0
 40
1.0
 40
1.0
 40
1.0
 10
260.299182694452
 20
63.56719207870027
 30
0.0
 10
260.0860257862261
 20
63.51938322144473
 30
0.0
 10
259.43421809608
 20
63.37318959781034
 30
0.0
 10
258.3161502329257
 20
62.98112796549618
 30
0.0
 10
256.956266045327
 20
62.40202328869131
 30
0.0
 10
255.586732193587
 20
61.68552509156319
 30
0.0
 10
254.218129445932
 20
60.84572541477741
 30
0.0
 10
252.8585492721998
 20
59.8855899975973
 30
0.0
 10
251.5165774404533
 20
58.81198358832953
 30
0.0
 10
250.2004483587475
 20
57.63155676444403
 30
0.0
 10
248.9182651328477
 20
56.35181144233393
 30
0.0
 10
247.6779056674265
 20
54.98077040110061
 30
0.0
 10
246.4869983780103
 20
53.52701200314465
 30
0.0
 10
245.3528752474218
 20
51.99960185456496
 30
0.0
 10
244.282531702574
 20
50.40804700397442
 30
0.0
 10
243.2825775195751
 20
48.76223679213966
 30
0.0
 10
242.3592230753288
 20
47.07239421365163
 30
0.0
 10
241.5181494265212
 20
45.34899027220528
 30
0.0
 10
240.7648091805656
 20
43.60276176987972
 30
0.0
 10
240.1031297521574
 20
41.84431547287083
 30
0.0
 10
239.5402072288604
 20
40.08527162002456
 30
0.0
 10
239.1784959877315
 20
38.74164713968739
 30
0.0
 10
239.0121438087074
 20
37.98999079900558
 30
0.0
 10
238.9736073528082
 20
37.81586520838245
 30
0.0
  0
SPLINE
  5
18C
330
1F
100
AcDbEntity
  8
0
  6
Continuous
 62
     7
370
    15
100
AcDbSpline
210
0.0
220
0.0
230
1.0
 70
     8
 71
     3
 72
    10
 73
     6
 74
     0
 42
0.000000001
 43
0.00000001
 40
0.0
 40
0.0
 40
0.0
 40
0.0
 40
0.2864924197458749
 40
0.7427823870269773
 40
1.0
 40
1.0
 40
1.0
 40
1.0
 10
273.8073350406951
 20
20.79373965207578
 30
0.0
 10
273.6916697206978
 20
20.85979744722912
 30
0.0
 10
273.3917868736749
 20
21.0310639917655
 30
0.0
 10
273.0519708899399
 20
21.37477354279307
 30
0.0
 10
272.8541444744254
 20
21.68972371295421
 30
0.0
 10
272.7828285700261
 20
21.80326242398716
 30
0.0
  0
LINE
  5
18D
330
1F
100
AcDbEntity
  8
0
  6
Continuous
 62
     7
370
    15
100
AcDbLine
 10
254.2276935809
 20
60.8306142062
 30
0.0
 11
223.4758753513
 21
71.9123505362
 31
0.0
  0
LINE
  5
18E
330
1F
100
AcDbEntity
  8
0
  6
Continuous
 62
     7
370
    15
100
AcDbLine
 10
213.3520162786
 20
54.3754120898
 30
0.0
 11
242.8195266255
 21
29.4932899572
 31
0.0
  0
SPLINE
  5
18F
330
1F
100
AcDbEntity
  8
0
  6
Continuous
 62
     7
370
    15
100
AcDbSpline
210
0.0
220
0.0
230
1.0
 70
     8
 71
     3
 72
    12
 73
     8
 74
     0
 42
0.000000001
 43
0.00000001
 40
0.0
 40
0.0
 40
0.0
 40
0.0
 40
0.1062285603751256
 40
0.3324514694428339
 40
0.5588940035969763
 40
0.785452007329134
 40
1.0
 40
1.0
 40
1.0
 40
1.0
 10
256.0702270126874
 20
16.79664351863441
 30
0.0
 10
256.2761156591332
 20
16.84245458637654
 30
0.0
 10
256.9204619894495
 20
16.98582428595484
 30
0.0
 10
258.0309502064904
 20
17.37292569619278
 30
0.0
 10
259.3903845339127
 20
17.951114259434
 30
0.0
 10
260.7360736842884
 20
18.64459837879105
 30
0.0
 10
261.6230781447944
 20
19.203952309813
 30
0.0
 10
262.0545051216288
 20
19.47601449910973
 30
0.0
  0
LINE
  5
190
330
1F
100
AcDbEntity
  8
0
  6
Continuous
 62
     7
370
    15
100
AcDbLine
 10
247.1420925902
 20
18.4288453151
 30
0.0
 11
248.5976147978
 21
17.58859023
 31
0.0
  0
LINE
  5
191
330
1F
100
AcDbEntity
  8
0
  6
Continuous
 62
     7
370
    15
100
AcDbLine
 10
243.4180576256
 20
20.5786849396
 30
0.0
 11
244.8559021636
 21
19.7486349559
 31
0.0
  0
LINE
  5
192
330
1F
100
AcDbEntity
  8
0
  6
Continuous
 62
     7
370
    15
100
AcDbLine
 10
238.9860784119
 20
26.6441382806
 30
0.0
 11
239.0864110728
 21
26.3136722723
 31
0.0
  0
LINE
  5
193
330
1F
100
AcDbEntity
  8
0
  6
Continuous
 62
     7
370
    15
100
AcDbLine
 10
277.4051423452
 20
53.6757185591
 30
0.0
 11
277.2542363878
 21
54.161640083
 31
0.0
  0
SPLINE
  5
194
330
1F
100
AcDbEntity
  8
0
  6
Continuous
 62
     7
370
    15
100
AcDbSpline
210
0.0
220
0.0
230
1.0
 70
     8
 71
     3
 72
    26
 73
    22
 74
     0
 42
0.000000001
 43
0.00000001
 40
0.0
 40
0.0
 40
0.0
 40
0.0
 40
0.037904713220559
 40
0.0895164641387577
 40
0.1420184608086769
 40
0.1957500554997987
 40
0.2506381885919923
 40
0.3063219474704426
 40
0.362387142532216
 40
0.4185014759301126
 40
0.474518988872023
 40
0.5304136529218914
 40
0.5862043900657445
 40
0.6419304529195455
 40
0.6976396190911246
 40
0.7533787042000034
 40
0.8091882311416715
 40
0.8651220764276821
 40
0.9212317103921543
 40
0.9775580239603168
 40
1.0
 40
1.0
 40
1.0
 40
1.0
 10
223.4957122902545
 20
71.88978100480931
 30
0.0
 10
223.3128418312743
 20
71.95476522789754
 30
0.0
 10
222.8809716100673
 20
72.10823315790962
 30
0.0
 10
222.1391886312612
 20
72.18740055129064
 30
0.0
 10
221.2940612348234
 20
72.15322653665567
 30
0.0
 10
220.4132476617961
 20
71.97483255001775
 30
0.0
 10
219.5091584815762
 20
71.65819249324248
 30
0.0
 10
218.5947844714964
 20
71.20451892106988
 30
0.0
 10
217.6861989872882
 20
70.62166847201213
 30
0.0
 10
216.7988456786208
 20
69.92038208595861
 30
0.0
 10
215.9465453356337
 20
69.11339277208606
 30
0.0
 10
215.1413024369035
 20
68.21400586975007
 30
0.0
 10
214.3939836191373
 20
67.23602032280387
 30
0.0
 10
213.7146749688723
 20
66.1938185082404
 30
0.0
 10
213.1127444780761
 20
65.1023487069034
 30
0.0
 10
212.5967531080525
 20
63.97702745227385
 30
0.0
 10
212.1745124843783
 20
62.83356614577962
 30
0.0
 10
211.8523380214719
 20
61.68734427132483
 30
0.0
 10
211.6377728377591
 20
60.55454612199696
 30
0.0
 10
211.5515385441768
 20
59.67060167948173
 30
0.0
 10
211.544888869746
 20
59.17265985461898
 30
0.0
 10
211.5429943023384
 20
59.03079060040055
 30
0.0
  0
SPLINE
  5
195
330
1F
100
AcDbEntity
  8
0
  6
Continuous
 62
     7
370
    15
100
AcDbSpline
210
0.0
220
0.0
230
1.0
 70
     8
 71
     3
 72
    13
 73
     9
 74
     0
 42
0.000000001
 43
0.00000001
 40
0.0
 40
0.0
 40
0.0
 40
0.0
 40
0.1011095572739896
 40
0.291764545894048
 40
0.482418635197925
 40
0.6713158558092558
 40
0.8566373063439778
 40
1.0
 40
1.0
 40
1.0
 40
1.0
 10
211.5429943023384
 20
59.03079060040055
 30
0.0
 10
211.5463241874413
 20
58.84353113340635
 30
0.0
 10
211.5559329963523
 20
58.30317001597142
 30
0.0
 10
211.6636333032117
 20
57.45429803894144
 30
0.0
 10
211.9059100613927
 20
56.52007121770212
 30
0.0
 10
212.2736957515628
 20
55.68450692775452
 30
0.0
 10
212.7111441030805
 20
54.99676747116541
 30
0.0
 10
213.0736350791693
 20
54.64998728694143
 30
0.0
 10
213.2317433532574
 20
54.49873161429777
 30
0.0
  0
LWPOLYLINE
  5
196
330
1F
100
AcDbEntity
  8
0
  6
Continuous
 62
     7
370
    15
100
AcDbPolyline
 90
       26
 70
   128
 43
0.0
 10
275.086153857
 20
45.7284874137
 10
275.4582358475
 20
45.3934940245
 10
275.6743163301
 20
45.0156068885
 10
275.7208181732
 20
44.6185700442
 10
275.594819495
 20
44.2273307767
 10
275.3042372559
 20
43.866472088
 10
274.8673298067
 20
43.5586680568
 10
274.3115496491
 20
43.3232591423
 10
273.6718184947
 20
43.1750369524
 10
272.9883330044
 20
43.1233148325
 10
272.3040390854
 20
43.1713426734
 10
271.6619334413
 20
43.3161027094
 10
271.1023619311
 20
43.548499135
 10
270.6604844909
 20
43.8539296281
 10
270.3640659052
 20
44.2132028675
 10
270.2317312441
 20
44.6037443943
 10
270.2717955809
 20
45.001015048
 10
270.481741526
 20
45.3800528523
 10
270.8483774036
 20
45.7170414681
 10
271.348666133
 20
45.9908066613
 10
271.9511727335
 20
46.1841467579
 10
272.6180394996
 20
46.2849134886
 10
273.3073647396
 20
46.2867753091
 10
273.9758356137
 20
46.1896152344
 10
274.5814496383
 20
45.9995381894
 10
275.086153857
 20
45.7284874137
  0
LWPOLYLINE
  5
197
330
1F
100
AcDbEntity
  8
0
  6
Continuous
 62
     7
370
    15
100
AcDbPolyline
 90
       22
 70
   128
 43
0.0
 10
275.0971318689
 20
45.7311166125
 10
275.2780344953
 20
45.6168657333
 10
275.6713458394
 20
45.2664975205
 10
275.907982495
 20
44.8719728389
 10
275.9741919996
 20
44.4562200288
 10
275.8661264976
 20
44.0434011323
 10
275.5900663631
 20
43.6575076833
 10
275.1620552078
 20
43.3209664062
 10
274.6069674842
 20
43.0533358569
 10
273.9570628731
 20
42.87016975
 10
273.2501114682
 20
42.7821130339
 10
272.5271987156
 20
42.794283245
 10
271.8303376767
 20
42.9059730946
 10
271.2000273821
 20
43.1106915749
 10
270.6728991751
 20
43.3965411917
 10
270.2795878309
 20
43.7469094044
 10
270.0429511754
 20
44.1414340861
 10
269.9767416708
 20
44.5571868962
 10
270.0848071728
 20
44.9700057927
 10
270.3608673072
 20
45.3558992417
 10
270.7888784626
 20
45.6924405188
 10
270.8538018014
 20
45.7311166125
  0
LWPOLYLINE
  5
198
330
1F
100
AcDbEntity
  8
0
  6
Continuous
 62
     7
370
    15
100
AcDbPolyline
 90
       21
 70
   128
 43
0.0
 10
274.3186313036
 20
45.3584333234
 10
274.5995438345
 20
45.0871283736
 10
274.7214803931
 20
44.7789895653
 10
274.6725049795
 20
44.4641796721
 10
274.4574116484
 20
44.1735144798
 10
274.0972552336
 20
43.9354463225
 10
273.6272903544
 20
43.7732789703
 10
273.0935204477
 20
43.7028864933
 10
272.5481946308
 20
43.7311593978
 10
272.0446931943
 20
43.8553301348
 10
271.6323023668
 20
44.0632440075
 10
271.3513898359
 20
44.3345489574
 10
271.2294532772
 20
44.6426877656
 10
271.2784286909
 20
44.9574976588
 10
271.493522022
 20
45.2481628511
 10
271.8536784368
 20
45.4862310084
 10
272.323643316
 20
45.6483983607
 10
272.8574132227
 20
45.7187908376
 10
273.4027390396
 20
45.6905179331
 10
273.9062404761
 20
45.5663471961
 10
274.3186313036
 20
45.3584333234
  0
SPLINE
  5
199
330
1F
100
AcDbEntity
  8
0
  6
Continuous
 62
     7
370
    15
100
AcDbSpline
210
0.0
220
0.0
230
1.0
 70
     8
 71
     3
 72
    11
 73
     7
 74
     0
 42
0.000000001
 43
0.00000001
 40
0.0
 40
0.0
 40
0.0
 40
0.0
 40
0.1336647920873963
 40
0.4825473608259773
 40
0.8156356561503708
 40
1.0
 40
1.0
 40
1.0
 40
1.0
 10
273.5716093791477
 20
45.63498324804609
 30
0.0
 10
273.6181224691457
 20
45.57480628712551
 30
0.0
 10
273.7860408003076
 20
45.35755959694428
 30
0.0
 10
274.0997325652371
 20
45.0452986838135
 30
0.0
 10
274.4366341944199
 20
44.89201143899999
 30
0.0
 10
274.6174637791673
 20
44.87397138723023
 30
0.0
 10
274.6818919513644
 20
44.86754385733522
 30
0.0
  0
SPLINE
  5
19A
330
1F
100
AcDbEntity
  8
0
  6
Continuous
 62
     7
370
    15
100
AcDbSpline
210
0.0
220
0.0
230
1.0
 70
     8
 71
     3
 72
    10
 73
     6
 74
     0
 42
0.000000001
 43
0.00000001
 40
0.0
 40
0.0
 40
0.0
 40
0.0
 40
0.4391279203157522
 40
0.7513760035667059
 40
0.9999999999999999
 40
0.9999999999999999
 40
0.9999999999999999
 40
0.9999999999999999
 10
271.8651842629723
 20
45.46362180800764
 30
0.0
 10
272.1094790547752
 20
45.40426550453658
 30
0.0
 10
272.5274830938376
 20
45.30270306674736
 30
0.0
 10
273.1351157747562
 20
45.42753051870355
 30
0.0
 10
273.4375472291965
 20
45.57126740289029
 30
0.0
 10
273.5716093791477
 20
45.63498324804609
 30
0.0
  0
SPLINE
  5
19B
330
1F
100
AcDbEntity
  8
0
  6
Continuous
 62
     7
370
    15
100
AcDbSpline
210
0.0
220
0.0
230
1.0
 70
     8
 71
     3
 72
    12
 73
     8
 74
     0
 42
0.000000001
 43
0.00000001
 40
0.0
 40
0.0
 40
0.0
 40
0.0
 40
0.2161857461389835
 40
0.4397628073511833
 40
0.5934185666353804
 40
0.7522096186328743
 40
1.0
 40
1.0
 40
1.0
 40
1.0
 10
271.2690417190136
 20
44.52482097725833
 30
0.0
 10
271.3098596981668
 20
44.54472499451415
 30
0.0
 10
271.3928912089087
 20
44.58521354041652
 30
0.0
 10
271.5149620039336
 20
44.71820856219559
 30
0.0
 10
271.6265673615754
 20
44.89952418068584
 30
0.0
 10
271.7411925660916
 20
45.13503523548858
 30
0.0
 10
271.8182324396132
 20
45.33919622872136
 30
0.0
 10
271.8651842629723
 20
45.46362180800764
 30
0.0
  0
SPLINE
  5
19C
330
1F
100
AcDbEntity
  8
0
  6
Continuous
 62
     7
370
    15
100
AcDbSpline
210
0.0
220
0.0
230
1.0
 70
     8
 71
     3
 72
    11
 73
     7
 74
     0
 42
0.000000001
 43
0.00000001
 40
0.0
 40
0.0
 40
0.0
 40
0.0
 40
0.1602647038914319
 40
0.4588866160884867
 40
0.7680749705509067
 40
1.0
 40
1.0
 40
1.0
 40
1.0
 10
271.9104029383446
 20
43.90314403461593
 30
0.0
 10
271.8749540148548
 20
43.92261888113289
 30
0.0
 10
271.7734529597303
 20
43.97838129294296
 30
0.0
 10
271.6028449158472
 20
44.13033069686774
 30
0.0
 10
271.4242746822055
 20
44.32371678504902
 30
0.0
 10
271.3156143199834
 20
44.46448620618567
 30
0.0
 10
271.2690417190136
 20
44.52482097725832
 30
0.0
  0
SPLINE
  5
19D
330
1F
100
AcDbEntity
  8
0
  6
Continuous
 62
     7
370
    15
100
AcDbSpline
210
0.0
220
0.0
230
1.0
 70
     8
 71
     3
 72
    10
 73
     6
 74
     0
 42
0.000000001
 43
0.00000001
 40
0.0
 40
0.0
 40
0.0
 40
0.0
 40
0.4891059920241479
 40
0.8368916860111648
 40
1.0
 40
1.0
 40
1.0
 40
1.0
 10
274.6818919513644
 20
44.86754385733522
 30
0.0
 10
274.5966835872011
 20
44.65025923778087
 30
0.0
 10
274.4508866174037
 20
44.27847133379184
 30
0.0
 10
274.2591471510452
 20
44.02713718837867
 30
0.0
 10
274.1723039057736
 20
43.98056057681362
 30
0.0
 10
274.1445782814828
 20
43.96569050109324
 30
0.0
  0
LINE
  5
19E
330
1F
100
AcDbEntity
  8
0
  6
Continuous
 62
     7
370
    15
100
AcDbLine
 10
271.865184263
 20
43.9299468437
 30
0.0
 11
271.865184263
 21
45.463621808
 31
0.0
  0
LINE
  5
19F
330
1F
100
AcDbEntity
  8
0
  6
Continuous
 62
     7
370
    15
100
AcDbLine
 10
273.5716093791
 20
43.7610093025
 30
0.0
 11
273.5716093791
 21
45.634983248
 31
0.0
  0
LWPOLYLINE
  5
1A0
330
1F
100
AcDbEntity
  8
0
  6
Continuous
 62
     7
370
    15
100
AcDbPolyline
 90
       61
 70
   128
 43
0.0
 10
278.6499987542
 20
41.1900388732
 10
277.4895680265
 20
40.4499088661
 10
276.3418512207
 20
39.5774326638
 10
275.2194229623
 20
38.582169298
 10
274.1345808101
 20
37.4750230825
 10
273.0992105219
 20
36.2681241429
 10
272.1246558311
 20
34.9746955166
 10
271.2215941629
 20
33.6089082782
 10
270.3999196499
 20
32.1857262785
 10
269.66863473
 20
30.7207421974
 10
269.0357515138
 20
29.2300067071
 10
268.5082040023
 20
27.7298526174
 10
268.0917721164
 20
26.2367159305
 10
267.791018371
 20
24.7669557645
 10
267.609237887
 20
23.3366751192
 10
267.5484222896
 20
21.9615444488
 10
267.609237887
 20
20.6566299726
 10
267.791018371
 20
19.4362286067
 10
268.0917721164
 20
18.3137113238
 10
268.5082040023
 20
17.3013766583
 10
269.0357515138
 20
16.4103159604
 10
269.66863473
 20
15.6502918778
 10
270.3999196499
 20
15.0296313933
 10
271.2215941629
 20
14.5551345931
 10
272.1246558311
 20
14.2320001633
 10
273.0992105219
 20
14.0637684325
 10
274.1345808101
 20
14.0522825826
 10
275.2194229623
 20
14.1976684551
 10
276.3418512207
 20
14.4983331719
 10
277.4895680265
 20
14.9509825874
 10
278.6499987542
 20
15.55065738
 10
279.8104294819
 20
16.2907873871
 10
280.9581462877
 20
17.1632635894
 10
282.0805745461
 20
18.1585269552
 10
283.1654166983
 20
19.2656731707
 10
284.2007869865
 20
20.4725721103
 10
285.1753416773
 20
21.7660007366
 10
286.0784033455
 20
23.131787975
 10
286.9000778585
 20
24.5549699747
 10
287.6313627784
 20
26.0199540558
 10
288.2642459946
 20
27.5106895461
 10
288.7917935061
 20
29.0108436358
 10
289.208225392
 20
30.5039803227
 10
289.5089791375
 20
31.9737404887
 10
289.6907596214
 20
33.404021134
 10
289.7515752188
 20
34.7791518044
 10
289.6907596214
 20
36.0840662806
 10
289.5089791375
 20
37.3044676465
 10
289.208225392
 20
38.4269849294
 10
288.7917935061
 20
39.4393195949
 10
288.2642459946
 20
40.3303802927
 10
287.6313627784
 20
41.0904043754
 10
286.9000778585
 20
41.7110648599
 10
286.0784033455
 20
42.1855616601
 10
285.1753416773
 20
42.5086960899
 10
284.2007869865
 20
42.6769278207
 10
283.1654166983
 20
42.6884136706
 10
282.0805745461
 20
42.5430277981
 10
280.9581462877
 20
42.2423630813
 10
279.8104294819
 20
41.7897136658
 10
278.6499987542
 20
41.1900388732
  0
LWPOLYLINE
  5
1A1
330
1F
100
AcDbEntity
  8
0
  6
Continuous
 62
     7
370
    15
100
AcDbPolyline
 90
       32
 70
   128
 43
0.0
 10
278.4378667199
 20
41.5574623335
 10
277.2745799307
 20
40.8166668786
 10
276.1236242708
 20
39.945235468
 10
274.9972001567
 20
38.9524054914
 10
273.907247964
 20
37.8487011936
 10
272.8653214573
 20
36.6458221148
 10
271.8824653166
 20
35.3565190723
 10
270.9690980616
 20
33.9944589992
 10
270.1349016124
 20
32.5740800711
 10
269.3887186588
 20
31.110438658
 10
268.7384589259
 20
29.619049723
 10
268.1910153285
 20
28.1157223597
 10
267.752190905
 20
26.6163922123
 10
267.4266373034
 20
25.1369525533
 10
267.2178054728
 20
23.6930858111
 10
267.1279090828
 20
22.3000973324
 10
267.1579010572
 20
20.9727531416
 10
267.3074634739
 20
19.7251234172
 10
267.5750109338
 20
18.5704333448
 10
267.9577073674
 20
17.5209229265
 10
268.4514960974
 20
16.5877172336
 10
269.0511428402
 20
15.7807084787
 10
269.7502911913
 20
15.1084511554
 10
270.5415300043
 20
14.5780713585
 10
271.4164719508
 20
14.1951912458
 10
272.3658424285
 20
13.9638694418
 10
273.3795778743
 20
13.8865580152
 10
274.4469324402
 20
13.9640764862
 10
275.5565919023
 20
14.1956031398
 10
276.6967935943
 20
14.5786837359
 10
277.8554510945
 20
15.1092575249
 10
278.4397055157
 20
15.42921804
  0
LWPOLYLINE
  5
1A2
330
1F
100
AcDbEntity
  8
0
  6
Continuous
 62
     7
370
    15
100
AcDbPolyline
 90
       17
 70
   128
 43
0.0
 10
289.7515752188
 20
35.024074238
 10
289.7478243569
 20
35.3582964686
 10
289.6579279669
 20
36.6474927846
 10
289.4490961363
 20
37.8502474275
 10
289.1235425347
 20
38.9538108989
 10
288.6847181112
 20
39.9464851513
 10
288.1372745138
 20
40.8177475909
 10
287.4870147809
 20
41.558362619
 10
286.7408318273
 20
42.160479532
 10
285.9066353781
 20
42.6177157409
 10
284.9932681231
 20
42.9252244281
 10
284.0104119824
 20
43.079745925
 10
282.9684854757
 20
43.0796422654
 10
281.878533283
 20
42.924914548
 10
280.7521091689
 20
42.6172029252
 10
279.601153509
 20
42.1597692167
 10
278.4378667199
 20
41.5574623335
  0
SPLINE
  5
1A3
330
1F
100
AcDbEntity
  8
0
  6
Continuous
 62
     7
370
    15
100
AcDbSpline
210
0.0
220
0.0
230
1.0
 70
    11
 71
     3
 72
    94
 73
    90
 74
     0
 42
0.000000001
 43
0.00000001
 40
0.0
 40
0.0
 40
0.0
 40
0.0
 40
0.0312499999999997
 40
0.0312499999999997
 40
0.0624999999999995
 40
0.0624999999999995
 40
0.0937499999999992
 40
0.0937499999999992
 40
0.1093749999999991
 40
0.1093749999999991
 40
0.124999999999999
 40
0.124999999999999
 40
0.1562499999999992
 40
0.1562499999999992
 40
0.1718749999999995
 40
0.1718749999999995
 40
0.1874999999999999
 40
0.1874999999999999
 40
0.2187500000000005
 40
0.2187500000000005
 40
0.2343750000000007
 40
0.2343750000000007
 40
0.2500000000000008
 40
0.2500000000000008
 40
0.2812500000000013
 40
0.2812500000000013
 40
0.3125000000000019
 40
0.3125000000000019
 40
0.3281250000000022
 40
0.3281250000000022
 40
0.3437500000000026
 40
0.3437500000000026
 40
0.3750000000000032
 40
0.3750000000000032
 40
0.3906250000000035
 40
0.3906250000000035
 40
0.4062500000000038
 40
0.4062500000000038
 40
0.4218750000000041
 40
0.4218750000000041
 40
0.4375000000000044
 40
0.4375000000000044
 40
0.4687500000000051
 40
0.4687500000000051
 40
0.4843750000000053
 40
0.4843750000000053
 40
0.5000000000000057
 40
0.5000000000000057
 40
0.5312500000000059
 40
0.5312500000000059
 40
0.562500000000006
 40
0.562500000000006
 40
0.5781250000000059
 40
0.5781250000000059
 40
0.5937500000000058
 40
0.5937500000000058
 40
0.6250000000000054
 40
0.6250000000000054
 40
0.656250000000005
 40
0.656250000000005
 40
0.6875000000000047
 40
0.6875000000000047
 40
0.7187500000000043
 40
0.7187500000000043
 40
0.7500000000000039
 40
0.7500000000000039
 40
0.7812500000000036
 40
0.7812500000000036
 40
0.8125000000000033
 40
0.8125000000000033
 40
0.8281250000000031
 40
0.8281250000000031
 40
0.8437500000000029
 40
0.8437500000000029
 40
0.8593750000000026
 40
0.8593750000000026
 40
0.8750000000000023
 40
0.8750000000000023
 40
0.9062500000000019
 40
0.9062500000000019
 40
0.9218750000000017
 40
0.9218750000000017
 40
0.9375000000000013
 40
0.9375000000000013
 40
0.9531250000000009
 40
0.9531250000000009
 40
0.9687500000000006
 40
0.9687500000000006
 40
1.0
 40
1.0
 40
1.0
 40
1.0
 10
272.9589392511127
 20
46.5466524829578
 30
0.0
 10
273.1854556332995
 20
46.51629294293175
 30
0.0
 10
273.4069916458168
 20
46.47431446693872
 30
0.0
 10
273.8410078241288
 20
46.37061110169667
 30
0.0
 10
274.0547655148369
 20
46.30827821596374
 30
0.0
 10
274.4594521239908
 20
46.1697816183055
 30
0.0
 10
274.6520112651888
 20
46.09334666006195
 30
0.0
 10
274.9263433645003
 20
45.9687259150552
 30
0.0
 10
275.0157618500197
 20
45.92528616087009
 30
0.0
 10
275.1870537908137
 20
45.83633258609167
 30
0.0
 10
275.2689870682822
 20
45.79082659028298
 30
0.0
 10
275.5039280303121
 20
45.65131838489454
 30
0.0
 10
275.6461697159583
 20
45.55437474574827
 30
0.0
 10
275.8373745224081
 20
45.40255939712321
 30
0.0
 10
275.8975575925766
 20
45.35068271803745
 30
0.0
 10
276.0080771075133
 20
45.24657331891027
 30
0.0
 10
276.0587016575928
 20
45.19414037155224
 30
0.0
 10
276.1968183430538
 20
45.03547352787454
 30
0.0
 10
276.2706919589514
 20
44.92790843576446
 30
0.0
 10
276.3524599820825
 20
44.7623805307436
 30
0.0
 10
276.3747763810375
 20
44.70646586903553
 30
0.0
 10
276.4084273757434
 20
44.59538615393789
 30
0.0
 10
276.4199334865976
 20
44.53991635629647
 30
0.0
 10
276.4383962427712
 20
44.37331809798428
 30
0.0
 10
276.429496651972
 20
44.26201657110573
 30
0.0
 10
276.3645556849163
 20
44.03660641504232
 30
0.0
 10
276.3092173990381
 20
43.92576836098715
 30
0.0
 10
276.1924721103242
 20
43.76327163310488
 30
0.0
 10
276.1478569697119
 20
43.70961485658829
 30
0.0
 10
276.0466575112778
 20
43.60318405244988
 30
0.0
 10
275.9895903611619
 20
43.55003965678863
 30
0.0
 10
275.8035097970489
 20
43.39545549425488
 30
0.0
 10
275.6598414041797
 20
43.29839673317297
 30
0.0
 10
275.4149071098196
 20
43.1615168043658
 30
0.0
 10
275.3277110856602
 20
43.11708764709233
 30
0.0
 10
275.146143888884
 20
43.03279460609681
 30
0.0
 10
275.0521466162434
 20
42.99304293872864
 30
0.0
 10
274.8579869373268
 20
42.9182235075091
 30
0.0
 10
274.7578237385741
 20
42.88315623879041
 30
0.0
 10
274.551386807722
 20
42.8178016973781
 30
0.0
 10
274.4444673192141
 20
42.7873654136316
 30
0.0
 10
274.1205025694494
 20
42.7051440061998
 30
0.0
 10
273.8999379736642
 20
42.66203810354455
 30
0.0
 10
273.5625369855773
 20
42.61507980561102
 30
0.0
 10
273.4484108871815
 20
42.60237270672821
 30
0.0
 10
273.2218636487674
 20
42.58350823474352
 30
0.0
 10
273.1092087113627
 20
42.57728473737782
 30
0.0
 10
272.7729685734331
 20
42.56816585303561
 30
0.0
 10
272.5500983939547
 20
42.57483105749365
 30
0.0
 10
272.1129659293103
 20
42.61486613239794
 30
0.0
 10
271.9027392869195
 20
42.64774901681914
 30
0.0
 10
271.5990892813369
 20
42.71639764297554
 30
0.0
 10
271.4998361105659
 20
42.74251975149844
 30
0.0
 10
271.3052905944204
 20
42.80146335069026
 30
0.0
 10
271.2099496297046
 20
42.83435263959731
 30
0.0
 10
270.9352280524243
 20
42.94132994732159
 30
0.0
 10
270.7651558162322
 20
43.0241962201682
 30
0.0
 10
270.4507369920611
 20
43.21294413320736
 30
0.0
 10
270.3053620781596
 20
43.32000210583239
 30
0.0
 10
270.0510068201534
 20
43.55017726229232
 30
0.0
 10
269.9409380903389
 20
43.67357931150538
 30
0.0
 10
269.7555461397351
 20
43.93621588775532
 30
0.0
 10
269.6800448092942
 20
44.07671746049159
 30
0.0
 10
269.5716410773585
 20
44.36187098888038
 30
0.0
 10
269.5376743921349
 20
44.50750106714276
 30
0.0
 10
269.5124299149179
 20
44.80333521166801
 30
0.0
 10
269.5218495341901
 20
44.95435091236833
 30
0.0
 10
269.5860327253303
 20
45.24492580073539
 30
0.0
 10
269.6403498968016
 20
45.38622836970991
 30
0.0
 10
269.7581890774017
 20
45.59035941566346
 30
0.0
 10
269.8038644682589
 20
45.6573265537657
 30
0.0
 10
269.9054430675731
 20
45.78469697943523
 30
0.0
 10
269.9615467816411
 20
45.84554825932592
 30
0.0
 10
270.0843629419297
 20
45.96146932554134
 30
0.0
 10
270.1510747362432
 20
46.01653959794054
 30
0.0
 10
270.2954231977368
 20
46.12065202564774
 30
0.0
 10
270.3736700264224
 20
46.17000521874451
 30
0.0
 10
270.6205829612302
 20
46.30568490087875
 30
0.0
 10
270.8006805792877
 20
46.37985123882437
 30
0.0
 10
271.093289381488
 20
46.46790320088328
 30
0.0
 10
271.1952561500847
 20
46.49347261996191
 30
0.0
 10
271.4026646836103
 20
46.53596146078758
 30
0.0
 10
271.508229473147
 20
46.55299000263753
 30
0.0
 10
271.7229208642502
 20
46.57920244627086
 30
0.0
 10
271.8320480064834
 20
46.58838477934169
 30
0.0
 10
272.0538282017363
 20
46.59925069080874
 30
0.0
 10
272.1669372943343
 20
46.60090250121475
 30
0.0
 10
272.5056059758718
 20
46.59506418929596
 30
0.0
 10
272.7324228689259
 20
46.57701202298384
 30
0.0
 10
272.9589392511127
 20
46.5466524829578
 30
0.0
  0
LINE
  5
1A4
330
1F
100
AcDbEntity
  8
0
  6
Continuous
 62
     7
370
    15
100
AcDbLine
 10
284.6599680749
 20
28.3745264138
 30
0.0
 11
286.8347597464
 21
31.0799465778
 31
0.0
  0
SPLINE
  5
1A5
330
1F
100
AcDbEntity
  8
0
  6
Continuous
 62
     7
370
    15
100
AcDbSpline
210
0.0
220
0.0
230
1.0
 70
     8
 71
     3
 72
    20
 73
    16
 74
     0
 42
0.000000001
 43
0.00000001
 40
0.0
 40
0.0
 40
0.0
 40
0.0
 40
0.0469163091108922
 40
0.097706241442933
 40
0.1516689633031483
 40
0.20784633832185
 40
0.2651938476233375
 40
0.3192095203174432
 40
0.3728953068123729
 40
0.4259306594990931
 40
0.4781535685998788
 40
0.5793596734499672
 40
0.6698058354121683
 40
0.8327057026614845
 40
0.9074992363787103
 40
0.9074992363787103
 40
0.9074992363787103
 40
0.9074992363787103
 10
286.8347597464065
 20
31.07994657778032
 30
0.0
 10
286.9350910907459
 20
31.20475781630633
 30
0.0
 10
287.1341437777782
 20
31.48025986193769
 30
0.0
 10
287.4001029011279
 20
31.93982918361176
 30
0.0
 10
287.6265171054525
 20
32.44987124214858
 30
0.0
 10
287.7915441840626
 20
32.98640718633389
 30
0.0
 10
287.8744789283549
 20
33.50746389908975
 30
0.0
 10
287.869441270563
 20
33.98121100761319
 30
0.0
 10
287.780707796843
 20
34.383888268752
 30
0.0
 10
287.6134368471806
 20
34.70391701457363
 30
0.0
 10
287.3108555613359
 20
35.01122345190727
 30
0.0
 10
286.8098436841033
 20
35.12949339240945
 30
0.0
 10
286.0979051095704
 20
35.1683892845735
 30
0.0
 10
285.5972103113057
 20
35.22184605931712
 30
0.0
 10
284.892496367861
 20
35.28508407737787
 30
0.0
 10
284.6595936613462
 20
35.30578233912519
 30
0.0
  0
SPLINE
  5
1A6
330
1F
100
AcDbEntity
  8
0
  6
Continuous
 62
     7
370
    15
100
AcDbSpline
210
0.0
220
0.0
230
1.0
 70
     8
 71
     3
 72
    20
 73
    16
 74
     0
 42
0.000000001
 43
0.00000001
 40
0.0
 40
0.0
 40
0.0
 40
0.0
 40
0.0469163091108921
 40
0.097706241442933
 40
0.1516689633031483
 40
0.2078463383218499
 40
0.2651938476233375
 40
0.3192095203174433
 40
0.3728953068123729
 40
0.4259306594990931
 40
0.4781535685998787
 40
0.579359673449967
 40
0.6698058354121682
 40
0.8327057026614842
 40
0.9074992363787102
 40
0.9074992363787102
 40
0.9074992363787102
 40
0.9074992363787102
 10
270.4652377619353
 20
21.63002268343099
 30
0.0
 10
270.3649064175959
 20
21.63899381750868
 30
0.0
 10
270.1658537305636
 20
21.68467452257731
 30
0.0
 10
269.8998946072138
 20
21.8371739765977
 30
0.0
 10
269.6734804028893
 20
22.08580375913817
 30
0.0
 10
269.5084533242791
 20
22.4318034940374
 30
0.0
 10
269.4255185799868
 20
22.85710578922353
 30
0.0
 10
269.4305562377788
 20
23.33666925362889
 30
0.0
 10
269.5192897114987
 20
23.84179600282608
 30
0.0
 10
269.6865606611611
 20
24.35495167630567
 30
0.0
 10
269.9891419470059
 20
25.01161103008973
 30
0.0
 10
270.4901538242383
 20
25.70833697126236
 30
0.0
 10
271.2020923987714
 20
26.56921964510159
 30
0.0
 10
271.7027871970361
 20
27.20076632893193
 30
0.0
 10
272.4075011404807
 20
28.07764974716466
 30
0.0
 10
272.6404038469956
 20
28.36725175007696
 30
0.0
  0
LINE
  5
1A7
330
1F
100
AcDbEntity
  8
0
  6
Continuous
 62
     7
370
    15
100
AcDbLine
 10
272.6400294334
 20
21.4355635361
 30
0.0
 11
270.4652377619
 21
21.6300226834
 31
0.0
  0
SPLINE
  5
1A8
330
1F
100
AcDbEntity
  8
0
  6
Continuous
 62
     7
370
    15
100
AcDbSpline
210
0.0
220
0.0
230
1.0
 70
     8
 71
     3
 72
    12
 73
     8
 74
     0
 42
0.000000001
 43
0.00000001
 40
0.0
 40
0.0
 40
0.0
 40
0.0
 40
0.2499999999999992
 40
0.2499999999999992
 40
0.4999999999999983
 40
0.4999999999999983
 40
1.0
 40
1.0
 40
1.0
 40
1.0
 10
244.2565867796758
 20
34.78521690726411
 30
0.0
 10
244.2905182719653
 20
34.76562867371263
 30
0.0
 10
244.3289499809926
 20
34.73844148477623
 30
0.0
 10
244.4031268336575
 20
34.67921755724039
 30
0.0
 10
244.438343113913
 20
34.64778487822363
 30
0.0
 10
244.533442031171
 20
34.55579216142166
 30
0.0
 10
244.5819711879329
 20
34.49893549589702
 30
0.0
 10
244.6153127840879
 20
34.45070668989467
 30
0.0
  0
ARC
  5
1A9
330
1F
100
AcDbEntity
  8
0
  6
Continuous
 62
     7
370
    15
100
AcDbCircle
 10
268.3472204383
 20
50.2151649771
 30
0.0
 40
10.71199691556128
100
AcDbArc
 50
73.8241091981
 51
104.7934462044
  0
SPLINE
  5
1AA
330
1F
100
AcDbEntity
  8
0
  6
Continuous
 62
     7
370
    15
100
AcDbSpline
210
0.0
220
0.0
230
1.0
 70
     8
 71
     3
 72
    14
 73
    10
 74
     0
 42
0.000000001
 43
0.00000001
 40
0.0
 40
0.0
 40
0.0
 40
0.0
 40
0.25
 40
0.25
 40
0.5
 40
0.5
 40
0.75
 40
0.75
 40
1.0
 40
1.0
 40
1.0
 40
1.0
 10
271.5435756032863
 20
60.06952262810597
 30
0.0
 10
271.5435756032863
 20
60.10626374638296
 30
0.0
 10
271.5393083106791
 20
60.14466288724794
 30
0.0
 10
271.521714050372
 20
60.22498123364793
 30
0.0
 10
271.5084376159916
 20
60.26622811597825
 30
0.0
 10
271.4721631329744
 20
60.34720554427809
 30
0.0
 10
271.4491310314394
 20
60.38680076156918
 30
0.0
 10
271.3944710183086
 20
60.45597941613507
 30
0.0
 10
271.3630313844924
 20
60.48484934508548
 30
0.0
 10
271.3314435689306
 20
60.50308460286102
 30
0.0
  0
LWPOLYLINE
  5
1AB
330
1F
100
AcDbEntity
  8
0
  6
Continuous
 62
     7
370
    15
100
AcDbPolyline
 90
       16
 70
   128
 43
0.0
 10
244.7147149157
 20
34.8991152131
 10
245.0694386872
 20
36.3066785236
 10
245.6396656062
 20
38.1791209878
 10
246.3218351516
 20
40.0543792637
 10
247.1109725903
 20
41.9187779983
 10
248.001323124
 20
43.7587210319
 10
248.9863938562
 20
45.5607905486
 10
250.0590011418
 20
47.3118449255
 10
251.2113229737
 20
48.9991145687
 10
252.4349560255
 20
50.6102950354
 10
253.7209769319
 20
52.1336367645
 10
255.0600073637
 20
53.5580307604
 10
256.4422824185
 20
54.8730896055
 10
257.8577218318
 20
56.0692232108
 10
259.2960034875
 20
57.1377087513
 10
260.5089173806
 20
57.9276751096
  0
LINE
  5
1AC
330
1F
100
AcDbEntity
  8
0
  6
Continuous
 62
     7
370
    15
100
AcDbLine
 10
242.8010645721
 20
35.6254719924
 30
0.0
 11
244.2565867797
 21
34.7852169073
 31
0.0
  0
LWPOLYLINE
  5
1AD
330
1F
100
AcDbEntity
  8
0
  6
Continuous
 62
     7
370
    15
100
AcDbPolyline
 90
       24
 70
   128
 43
0.0
 10
242.8010645721
 20
35.6254719924
 10
243.271723412
 20
37.4868322354
 10
243.8568571204
 20
39.3627500333
 10
244.5522924587
 20
41.2398461322
 10
245.353069505
 20
43.1047328744
 10
246.2534770286
 20
44.9441096808
 10
247.247093223
 20
46.744857912
 10
248.3268315073
 20
48.4941344317
 10
249.4849910684
 20
50.1794632058
 10
250.7133117837
 20
51.7888242825
 10
252.0030331335
 20
53.3107395201
 10
253.3449566823
 20
54.7343544501
 10
254.7295116822
 20
56.049515693
 10
256.1468233335
 20
57.2468433728
 10
257.5867832123
 20
58.3177980158
 10
259.0391213648
 20
59.2547414546
 10
260.4934795543
 20
60.0509913047
 10
261.9394851367
 20
60.7008686237
 10
263.36682504
 20
61.1997384146
 10
264.7653193174
 20
61.5440426826
 10
266.1249937528
 20
61.7313258114
 10
267.4361509971
 20
61.7602520772
 10
268.6894397314
 20
61.6306151744
 10
269.8759213614
 20
61.343339688
  0
LINE
  5
1AE
330
1F
100
AcDbEntity
  8
0
  6
Continuous
 62
     7
370
    15
100
AcDbLine
 10
271.3314435689
 20
60.5030846029
 30
0.0
 11
269.8759213614
 21
61.343339688
 31
0.0
  0
LINE
  5
1AF
330
1F
100
AcDbEntity
  8
0
  6
Continuous
 62
     7
370
    15
100
AcDbLine
 10
277.2534746151
 20
53.2002192106
 30
0.0
 11
277.3577564989
 21
53.380840731
 31
0.0
  0
LINE
  5
1B0
330
1F
100
AcDbEntity
  8
0
  6
Continuous
 62
     7
370
    15
100
AcDbLine
 10
274.9553658225
 20
51.8735492436
 30
0.0
 11
277.2534746151
 21
53.2002192106
 31
0.0
  0
ARC
  5
1B1
330
1F
100
AcDbEntity
  8
0
  6
Continuous
 62
     7
370
    15
100
AcDbCircle
 10
275.7834751427
 20
50.5789435235
 30
0.0
 40
1.53680480757166
100
AcDbArc
 50
122.60547834
 51
177.3945215144
  0
LINE
  5
1B2
330
1F
100
AcDbEntity
  8
0
  6
Continuous
 62
     7
370
    15
100
AcDbLine
 10
274.2482590413
 20
49.3861265522
 30
0.0
 11
274.2482590413
 21
50.6488043758
 31
0.0
  0
LINE
  5
1B3
330
1F
100
AcDbEntity
  8
0
  6
Continuous
 62
     7
370
    15
100
AcDbLine
 10
244.6608200245
 20
23.8923307785
 30
0.0
 11
244.6153127841
 21
23.7739627584
 31
0.0
  0
LINE
  5
1B4
330
1F
100
AcDbEntity
  8
0
  6
Continuous
 62
     7
370
    15
100
AcDbLine
 10
244.6608200245
 20
23.8923307785
 30
0.0
 11
247.8024654249
 21
25.7059640639
 31
0.0
  0
ARC
  5
1B5
330
1F
100
AcDbEntity
  8
0
  6
Continuous
 62
     7
370
    15
100
AcDbCircle
 10
246.9743561048
 20
27.0005697839
 30
0.0
 40
1.536804807572143
100
AcDbArc
 50
302.60547834
 51
357.3945215143
  0
LINE
  5
1B6
330
1F
100
AcDbEntity
  8
0
  6
Continuous
 62
     7
370
    15
100
AcDbLine
 10
248.5095722061
 20
28.4761344974
 30
0.0
 11
248.5095722061
 21
26.9307089317
 31
0.0
  0
LINE
  5
1B7
330
1F
100
AcDbEntity
  8
0
  6
Continuous
 62
     7
370
    15
100
AcDbLine
 10
248.5095722061
 20
35.7901767406
 30
0.0
 11
248.5095722061
 21
34.2447511749
 31
0.0
  0
ARC
  5
1B8
330
1F
100
AcDbEntity
  8
0
  6
Continuous
 62
     7
370
    15
100
AcDbCircle
 10
248.0784978387
 20
35.8601039375
 30
0.0
 40
0.4367091974285047
100
AcDbArc
 50
350.7859630095
 51
129.2032852357
  0
LINE
  5
1B9
330
1F
100
AcDbEntity
  8
0
  6
Continuous
 62
     7
370
    15
100
AcDbLine
 10
247.8024654249
 20
36.1985134966
 30
0.0
 11
244.6608200245
 21
34.3848802112
 31
0.0
  0
LINE
  5
1BA
330
1F
100
AcDbEntity
  8
0
  6
Continuous
 62
     7
370
    15
100
AcDbLine
 10
244.6153127841
 20
34.4507066899
 30
0.0
 11
244.6608200245
 21
34.3848802112
 31
0.0
  0
LINE
  5
1BB
330
1F
100
AcDbEntity
  8
0
  6
Continuous
 62
     7
370
    15
100
AcDbLine
 10
271.5435756033
 20
56.8445615749
 30
0.0
 11
271.5435756033
 21
60.0695226281
 31
0.0
  0
LINE
  5
1BC
330
1F
100
AcDbEntity
  8
0
  6
Continuous
 62
     7
370
    15
100
AcDbLine
 10
274.3363225139
 20
58.4567800493
 30
0.0
 11
271.5435756033
 21
56.8445615749
 31
0.0
  0
SPLINE
  5
1BD
330
1F
100
AcDbEntity
  8
0
  6
Continuous
 62
     7
370
    15
100
AcDbSpline
210
0.0
220
0.0
230
1.0
 70
     8
 71
     3
 72
    18
 73
    14
 74
     0
 42
0.000000001
 43
0.00000001
 40
0.0
 40
0.0
 40
0.0
 40
0.0
 40
0.25
 40
0.25
 40
0.5
 40
0.5
 40
0.625
 40
0.625
 40
0.75
 40
0.75
 40
0.875
 40
0.875
 40
1.0
 40
1.0
 40
1.0
 40
1.0
 10
284.6595936613562
 20
35.30578233915828
 30
0.0
 10
284.625893070599
 20
35.30877733934086
 30
0.0
 10
284.5897289960729
 20
35.31041468097792
 30
0.0
 10
284.5094408640559
 20
35.30930137346503
 30
0.0
 10
284.464367168481
 20
35.30656349187026
 30
0.0
 10
284.3900123799609
 20
35.29569062005667
 30
0.0
 10
284.3633619871605
 20
35.29076527749496
 30
0.0
 10
284.3098360366643
 20
35.2778848800686
 30
0.0
 10
284.2826319781215
 20
35.26977764546992
 30
0.0
 10
284.2333286294955
 20
35.25169961107548
 30
0.0
 10
284.2110036055077
 20
35.24170958434232
 30
0.0
 10
284.1726095845367
 20
35.22159040035757
 30
0.0
 10
284.1567395276082
 20
35.21167417033771
 30
0.0
 10
284.1429373555516
 20
35.20189936653259
 30
0.0
  0
SPLINE
  5
1BE
330
1F
100
AcDbEntity
  8
0
  6
Continuous
 62
     7
370
    15
100
AcDbSpline
210
0.0
220
0.0
230
1.0
 70
     8
 71
     3
 72
    10
 73
     6
 74
     0
 42
0.000000001
 43
0.00000001
 40
0.0
 40
0.0
 40
0.0
 40
0.0
 40
0.5
 40
0.5
 40
1.0
 40
1.0
 40
1.0
 40
1.0
 10
284.1429373555517
 20
35.20189936653259
 30
0.0
 10
284.0984995614832
 20
35.21705376513776
 30
0.0
 10
284.0526029475005
 20
35.23406727866009
 30
0.0
 10
283.9647676761103
 20
35.27100456350561
 30
0.0
 10
283.9228371893655
 20
35.29101786646036
 30
0.0
 10
283.8884030838474
 20
35.31089625245257
 30
0.0
  0
SPLINE
  5
1BF
330
1F
100
AcDbEntity
  8
0
  6
Continuous
 62
     7
370
    15
100
AcDbSpline
210
0.0
220
0.0
230
1.0
 70
     8
 71
     3
 72
    11
 73
     7
 74
     0
 42
0.000000001
 43
0.00000001
 40
0.0
 40
0.0
 40
0.0
 40
0.0
 40
0.1212399723565399
 40
0.3348180809581081
 40
0.7110349367160957
 40
1.0
 40
1.0
 40
1.0
 40
1.0
 10
272.8491056014932
 20
28.66122260630827
 30
0.0
 10
272.8463009649805
 20
28.65422695688358
 30
0.0
 10
272.8385556397655
 20
28.63490766911156
 30
0.0
 10
272.794510666263
 20
28.56739354245304
 30
0.0
 10
272.7249819327926
 20
28.47346785796233
 30
0.0
 10
272.6660184665607
 20
28.39941948204126
 30
0.0
 10
272.6404038470659
 20
28.36725175014481
 30
0.0
  0
SPLINE
  5
1C0
330
1F
100
AcDbEntity
  8
0
  6
Continuous
 62
     7
370
    15
100
AcDbSpline
210
0.0
220
0.0
230
1.0
 70
     8
 71
     3
 72
    11
 73
     7
 74
     0
 42
0.000000001
 43
0.00000001
 40
0.0
 40
0.0
 40
0.0
 40
0.0
 40
0.313725520590899
 40
0.6274275333548534
 40
0.941167933103105
 40
0.9999999999999999
 40
0.9999999999999999
 40
0.9999999999999999
 40
0.9999999999999999
 10
270.3768494142882
 20
21.95988547598103
 30
0.0
 10
270.2068409233061
 20
22.00173672637997
 30
0.0
 10
269.8668366802804
 20
22.08543609121381
 30
0.0
 10
269.5526401749313
 20
22.54913806216292
 30
0.0
 10
269.4049515367662
 20
22.99944085979265
 30
0.0
 10
269.4426120072318
 20
23.30132026108478
 30
0.0
 10
269.4485588860707
 20
23.3489893475622
 30
0.0
  0
SPLINE
  5
1C1
330
1F
100
AcDbEntity
  8
0
  6
Continuous
 62
     7
370
    15
100
AcDbSpline
210
0.0
220
0.0
230
1.0
 70
     8
 71
     3
 72
     8
 73
     4
 74
     0
 42
0.000000001
 43
0.00000001
 40
0.0
 40
0.0
 40
0.0
 40
0.0
 40
1.0
 40
1.0
 40
1.0
 40
1.0
 10
241.7285103074473
 20
36.71698583479558
 30
0.0
 10
241.441443177775
 20
36.66953383507223
 30
0.0
 10
241.1543300591895
 20
36.62217640236944
 30
0.0
 10
240.8671752327919
 20
36.57490473345737
 30
0.0
  0
SPLINE
  5
1C2
330
1F
100
AcDbEntity
  8
0
  6
Continuous
 62
     7
370
    15
100
AcDbSpline
210
0.0
220
0.0
230
1.0
 70
     8
 71
     3
 72
     8
 73
     4
 74
     0
 42
0.000000001
 43
0.00000001
 40
0.0
 40
0.0
 40
0.0
 40
0.0
 40
0.0011862984959113
 40
0.0011862984959113
 40
0.0011862984959113
 40
0.0011862984959113
 10
240.5148741455164
 20
36.94526163311955
 30
0.0
 10
240.6325850133609
 20
36.8217116820071
 30
0.0
 10
240.7500247637969
 20
36.69825663289181
 30
0.0
 10
240.8671752327919
 20
36.57490473345737
 30
0.0
  0
LWPOLYLINE
  5
1C3
330
1F
100
AcDbEntity
  8
0
  6
Continuous
 62
     7
370
    15
100
AcDbPolyline
 90
       24
 70
   128
 43
0.0
 10
240.5148741455
 20
36.9452616331
 10
240.9855329854
 20
38.8066218762
 10
241.5706666938
 20
40.6825396741
 10
242.2661020321
 20
42.5596357729
 10
243.0668790784
 20
44.4245225151
 10
243.967286602
 20
46.2638993216
 10
244.9609027964
 20
48.0646475527
 10
246.0406410807
 20
49.8139240725
 10
247.1988006418
 20
51.4992528466
 10
248.4271213571
 20
53.1086139233
 10
249.716842707
 20
54.6305291608
 10
251.0587662557
 20
56.0541440908
 10
252.4433212556
 20
57.3693053337
 10
253.8606329069
 20
58.5666330136
 10
255.3005927857
 20
59.6375876566
 10
256.7529309382
 20
60.5745310954
 10
258.2072891277
 20
61.3707809455
 10
259.6532947101
 20
62.0206582645
 10
261.0806346134
 20
62.5195280553
 10
262.4791288908
 20
62.8638323233
 10
263.8388033262
 20
63.0511154522
 10
265.1499605705
 20
63.0800417179
 10
266.4032493048
 20
62.9504048152
 10
267.5897309348
 20
62.6631293287
  0
LINE
  5
1C4
330
1F
100
AcDbEntity
  8
0
  6
Continuous
 62
     7
370
    15
100
AcDbLine
 10
267.8986030906
 20
61.6912460496
 30
0.0
 11
267.5897309348
 21
62.6631293287
 31
0.0
  0
LWPOLYLINE
  5
1C5
330
1F
100
AcDbEntity
  8
0
  6
Continuous
 62
     7
370
    15
100
AcDbPolyline
 90
       23
 70
   128
 43
0.0
 10
241.7285103074
 20
36.7169858348
 10
242.1797595597
 20
38.5309933916
 10
242.7454955552
 20
40.3602917636
 10
243.4214916964
 20
42.1912143147
 10
244.2026976355
 20
44.0100822748
 10
245.083277005
 20
45.803306933
 10
246.0566510217
 20
47.5574911591
 10
247.1155476359
 20
49.2595294926
 10
248.2520558612
 20
50.8967060537
 10
249.457684877
 20
52.4567895428
 10
250.7234274633
 20
53.9281246206
 10
252.0398272932
 20
55.2997189847
 10
253.3970495812
 20
56.5613254927
 10
254.7849545581
 20
57.7035187182
 10
256.1931732254
 20
58.7177653681
 10
257.6111848215
 20
59.5964880347
 10
259.0283954222
 20
60.333121806
 10
260.4342170875
 20
60.9221633119
 10
261.8181469637
 20
61.3592118403
 10
263.16984575
 20
61.6410022139
 10
264.4792149435
 20
61.7654291849
 10
265.7364722841
 20
61.731563163
 10
265.9195419033
 20
61.7128797239
  0
LINE
  5
1C6
330
1F
100
AcDbEntity
  8
0
  6
Continuous
 62
     7
370
    15
100
AcDbLine
 10
281.4138279615
 20
36.7394380632
 30
0.0
 11
283.8884030838
 21
35.3108962525
 31
0.0
  0
ARC
  5
1C7
330
1F
100
AcDbEntity
  8
0
  6
Continuous
 62
     7
370
    15
100
AcDbCircle
 10
268.2392115382
 20
35.4742488488
 30
0.0
 40
10.89313594404311
100
AcDbArc
 50
338.4798252014
 51
3.8281615727
  0
LINE
  5
1C8
330
1F
100
AcDbEntity
  8
0
  6
Continuous
 62
     7
370
    15
100
AcDbLine
 10
278.3729701906
 20
31.4783326496
 30
0.0
 11
283.8884030838
 21
28.2943410134
 31
0.0
  0
LINE
  5
1C9
330
1F
100
AcDbEntity
  8
0
  6
Continuous
 62
     7
370
    15
100
AcDbLine
 10
269.5086609756
 20
23.6829155219
 30
0.0
 11
272.7044876434
 21
21.8380040567
 31
0.0
  0
LINE
  5
1CA
330
1F
100
AcDbEntity
  8
0
  6
Continuous
 62
     7
370
    15
100
AcDbLine
 10
239.0770296075
 20
37.7753116168
 30
0.0
 11
240.5148741455
 21
36.9452616331
 31
0.0
  0
ARC
  5
1CB
330
1F
100
AcDbEntity
  8
0
  6
Continuous
 62
     7
370
    15
100
AcDbCircle
 10
263.1676628061
 20
53.2052564703
 30
0.0
 40
10.7120001327924
100
AcDbArc
 50
73.8241116276
 51
104.793491821
  0
LINE
  5
1CC
330
1F
100
AcDbEntity
  8
0
  6
Continuous
 62
     7
370
    15
100
AcDbLine
 10
267.5897309348
 20
62.6631293287
 30
0.0
 11
266.1518863967
 21
63.4931793124
 31
0.0
  0
LINE
  5
1CD
330
1F
100
AcDbEntity
  8
0
  6
Continuous
 62
     7
370
    15
100
AcDbLine
 10
242.9811011004
 20
36.3906439409
 30
0.0
 11
242.3549974202
 21
36.752085902
 31
0.0
  0
SPLINE
  5
1CE
330
1F
100
AcDbEntity
  8
0
  6
Continuous
 62
     7
370
    15
100
AcDbSpline
210
0.0
220
0.0
230
1.0
 70
     8
 71
     3
 72
    14
 73
    10
 74
     0
 42
0.000000001
 43
0.00000001
 40
0.0
 40
0.0
 40
0.0
 40
0.0
 40
0.25
 40
0.25
 40
0.5
 40
0.5
 40
0.75
 40
0.75
 40
1.0
 40
1.0
 40
1.0
 40
1.0
 10
242.354997420181
 20
36.75208590202762
 30
0.0
 10
242.3173634267229
 20
36.77381154400767
 30
0.0
 10
242.2715894700338
 20
36.79102330511918
 30
0.0
 10
242.1716535925239
 20
36.81342863875167
 30
0.0
 10
242.117219723684
 20
36.81860352235149
 30
0.0
 10
242.011004073192
 20
36.81666132803673
 30
0.0
 10
241.9576877732419
 20
36.8095729251185
 30
0.0
 10
241.8601947059412
 20
36.78483948883382
 30
0.0
 10
241.8152830154116
 20
36.76707865284777
 30
0.0
 10
241.7775297498116
 20
36.74528415652578
 30
0.0
  0
LINE
  5
1CF
330
1F
100
AcDbEntity
  8
0
  6
Continuous
 62
     7
370
    15
100
AcDbLine
 10
241.7775297498
 20
36.7452841565
 30
0.0
 11
241.7285103074
 21
36.7169858348
 31
0.0
  0
SPLINE
  5
1D0
330
1F
100
AcDbEntity
  8
0
  6
Continuous
 62
     7
370
    15
100
AcDbSpline
210
0.0
220
0.0
230
1.0
 70
     8
 71
     3
 72
    10
 73
     6
 74
     0
 42
0.000000001
 43
0.00000001
 40
0.0
 40
0.0
 40
0.0
 40
0.0
 40
0.5
 40
0.5
 40
1.0
 40
1.0
 40
1.0
 40
1.0
 10
238.9750171171614
 20
37.80475984370428
 30
0.0
 10
238.9823334015837
 20
37.80912784359745
 30
0.0
 10
238.9941572617921
 20
37.80965989618572
 30
0.0
 10
239.0283086260698
 20
37.80042984654741
 30
0.0
 10
239.0505655894627
 20
37.79058896923111
 30
0.0
 10
239.0770296074843
 20
37.77531161681479
 30
0.0
  0
SPLINE
  5
1D1
330
1F
100
AcDbEntity
  8
0
  6
Continuous
 62
     7
370
    15
100
AcDbSpline
210
0.0
220
0.0
230
1.0
 70
     8
 71
     3
 72
    18
 73
    14
 74
     0
 42
0.000000001
 43
0.00000001
 40
0.0
 40
0.0
 40
0.0
 40
0.0
 40
0.2499999999999999
 40
0.2499999999999999
 40
0.4999999999999999
 40
0.4999999999999999
 40
0.5624999999999999
 40
0.5624999999999999
 40
0.6249999999999999
 40
0.6249999999999999
 40
0.7499999999999998
 40
0.7499999999999998
 40
1.0
 40
1.0
 40
1.0
 40
1.0
 10
248.5095722061345
 20
34.24475117494269
 30
0.0
 10
248.5095722061345
 20
33.76550064886315
 30
0.0
 10
248.5162376482212
 20
33.28206495042552
 30
0.0
 10
248.5271672401922
 20
32.31670130376681
 30
0.0
 10
248.531356511403
 20
31.83488249526389
 30
0.0
 10
248.5314051577033
 20
31.23558597907893
 30
0.0
 10
248.5311805266216
 20
31.11460162162311
 30
0.0
 10
248.5302842279725
 20
30.87411559422784
 30
0.0
 10
248.5296126991701
 20
30.75400337143669
 30
0.0
 10
248.5270303578771
 20
30.39399912919701
 30
0.0
 10
248.5245308944054
 20
30.15445177075386
 30
0.0
 10
248.5163051367271
 20
29.43623557619301
 30
0.0
 10
248.5095722061345
 20
28.95815613569351
 30
0.0
 10
248.5095722061345
 20
28.47613449735182
 30
0.0
  0
LINE
  5
1D2
330
1F
100
AcDbEntity
  8
0
  6
Continuous
 62
     7
370
    15
100
AcDbLine
 10
272.8034796279
 20
21.742908168
 30
0.0
 11
270.3768494143
 21
21.959885476
 31
0.0
  0
SPLINE
  5
1D3
330
1F
100
AcDbEntity
  8
0
  6
Continuous
 62
     7
370
    15
100
AcDbSpline
210
0.0
220
0.0
230
1.0
 70
     8
 71
     3
 72
    18
 73
    14
 74
     0
 42
0.000000001
 43
0.00000001
 40
0.0
 40
0.0
 40
0.0
 40
0.0
 40
0.2499999999999908
 40
0.2499999999999908
 40
0.4999999999999816
 40
0.4999999999999816
 40
0.6249999999999861
 40
0.6249999999999861
 40
0.7499999999999908
 40
0.7499999999999908
 40
0.8749999999999953
 40
0.8749999999999953
 40
1.0
 40
1.0
 40
1.0
 40
1.0
 10
272.6400294334235
 20
21.43556353597474
 30
0.0
 10
272.6735521595066
 20
21.43256609910841
 30
0.0
 10
272.7065742675509
 20
21.43304195414835
 30
0.0
 10
272.7676786235254
 20
21.44549579964241
 30
0.0
 10
272.7967109541103
 20
21.45732922362705
 30
0.0
 10
272.8300118853925
 20
21.49247848358554
 30
0.0
 10
272.839284329135
 20
21.5073312190854
 30
0.0
 10
272.8509641153683
 20
21.54393831656656
 30
0.0
 10
272.8532920820359
 20
21.56635689195614
 30
0.0
 10
272.8495501828632
 20
21.61472025463298
 30
0.0
 10
272.8435870092708
 20
21.64100765755911
 30
0.0
 10
272.8266109405101
 20
21.6925935668088
 30
0.0
 10
272.8156058441776
 20
21.71827271839453
 30
0.0
 10
272.8034796278629
 20
21.74290816797949
 30
0.0
  0
SPLINE
  5
1D4
330
1F
100
AcDbEntity
  8
0
  6
Continuous
 62
     7
370
    15
100
AcDbSpline
210
0.0
220
0.0
230
1.0
 70
     8
 71
     3
 72
    10
 73
     6
 74
     0
 42
0.000000001
 43
0.00000001
 40
0.0
 40
0.0
 40
0.0
 40
0.0
 40
0.5
 40
0.5
 40
1.0
 40
1.0
 40
1.0
 40
1.0
 10
272.7044876433882
 20
21.83800405665189
 30
0.0
 10
272.7389258845214
 20
21.81812328321983
 30
0.0
 10
272.7637651519021
 20
21.79955927231644
 30
0.0
 10
272.7950438315368
 20
21.76775836801201
 30
0.0
 10
272.8020845987092
 20
21.75420855820123
 30
0.0
 10
272.8034796278629
 20
21.74290816797949
 30
0.0
  0
LINE
  5
1D5
330
1F
100
AcDbEntity
  8
0
  6
Continuous
 62
     7
370
    15
100
AcDbLine
 10
244.6608200245
 20
34.3848802112
 30
0.0
 11
242.8329659058
 21
35.4400779334
 31
0.0
  0
SPLINE
  5
1D6
330
1F
100
AcDbEntity
  8
0
  6
Continuous
 62
     7
370
    15
100
AcDbSpline
210
0.0
220
0.0
230
1.0
 70
     8
 71
     3
 72
     8
 73
     4
 74
     0
 42
0.000000001
 43
0.00000001
 40
0.0000000000000004
 40
0.0000000000000004
 40
0.0000000000000004
 40
0.0000000000000004
 40
0.0011862984959128
 40
0.0011862984959128
 40
0.0011862984959128
 40
0.0011862984959128
 10
242.8329659057629
 20
35.44007793341884
 30
0.0
 10
242.8219037065052
 20
35.50218637833763
 30
0.0
 10
242.8112776999315
 20
35.56397916563924
 30
0.0
 10
242.801064572114
 20
35.62547199235713
 30
0.0
  0
SPLINE
  5
1D7
330
1F
100
AcDbEntity
  8
0
  6
Continuous
 62
     7
370
    15
100
AcDbSpline
210
0.0
220
0.0
230
1.0
 70
     8
 71
     3
 72
    10
 73
     6
 74
     0
 42
0.000000001
 43
0.00000001
 40
0.0
 40
0.0
 40
0.0
 40
0.0
 40
0.5
 40
0.5
 40
1.0
 40
1.0
 40
1.0
 40
1.0
 10
283.8884030838474
 20
28.29434101343278
 30
0.0
 10
283.9228413249807
 20
28.27446024000072
 30
0.0
 10
283.9649990754829
 20
28.26589397659535
 30
0.0
 10
284.0526207663361
 20
28.26661920032929
 30
0.0
 10
284.0985457036829
 20
28.27551674415482
 30
0.0
 10
284.1429644898855
 20
28.28905344020511
 30
0.0
  0
SPLINE
  5
1D8
330
1F
100
AcDbEntity
  8
0
  6
Continuous
 62
     7
370
    15
100
AcDbSpline
210
0.0
220
0.0
230
1.0
 70
     8
 71
     3
 72
    16
 73
    12
 74
     0
 42
0.000000001
 43
0.00000001
 40
0.0
 40
0.0
 40
0.0
 40
0.0
 40
0.2499999999999943
 40
0.2499999999999943
 40
0.3749999999999915
 40
0.3749999999999915
 40
0.4999999999999887
 40
0.4999999999999887
 40
0.7499999999999943
 40
0.7499999999999943
 40
1.0
 40
1.0
 40
1.0
 40
1.0
 10
284.1429644898855
 20
28.28905344020512
 30
0.0
 10
284.1706891655627
 20
28.24120527211284
 30
0.0
 10
284.2082024331856
 20
28.19762451739012
 30
0.0
 10
284.2824234128123
 20
28.16396700971998
 30
0.0
 10
284.3091894177505
 20
28.1586828530496
 30
0.0
 10
284.3627172542537
 20
28.15947138673402
 30
0.0
 10
284.3893071563876
 20
28.1653819828282
 30
0.0
 10
284.4640908630401
 20
28.19281551887744
 30
0.0
 10
284.5090439539781
 20
28.22367374227374
 30
0.0
 10
284.58970717194
 20
28.29305723417888
 30
0.0
 10
284.6264225943289
 20
28.33279615473622
 30
0.0
 10
284.6599680749995
 20
28.37452641378015
 30
0.0
  0
LINE
  5
1D9
330
1F
100
AcDbEntity
  8
0
  6
Continuous
 62
     7
370
    15
100
AcDbLine
 10
242.9057509652
 20
36.2252529909
 30
0.0
 11
242.8858575658
 21
35.9959072128
 31
0.0
  0
ARC
  5
1DA
330
1F
100
AcDbEntity
  8
0
  6
Continuous
 62
     7
370
    15
100
AcDbCircle
 10
258.8937305054
 20
34.5689443905
 30
0.0
 40
16.0681669231872
100
AcDbArc
 50
176.889603318
 51
185.7264867322
  0
LWPOLYLINE
  5
1DB
330
1F
100
AcDbEntity
  8
0
  6
Continuous
 62
     7
370
    15
100
AcDbPolyline
 90
        3
 70
   128
 43
0.0
 10
241.9069626368
 20
35.3251247292
 10
241.968321888
 20
36.7802690557
 10
241.9688125459
 20
36.7862031989
  0
ARC
  5
1DC
330
1F
100
AcDbEntity
  8
0
  6
Continuous
 62
     7
370
    15
100
AcDbCircle
 10
253.5581918861
 20
35.0138598497
 30
0.0
 40
11.65538625893133
100
AcDbArc
 50
178.4696959796
 51
203.9429416514
  0
LINE
  5
1DD
330
1F
100
AcDbEntity
  8
0
  6
Continuous
 62
     7
370
    15
100
AcDbLine
 10
213.3520162786
 20
54.3754120898
 30
0.0
 11
213.2437881825
 21
54.4706631567
 31
0.0
  0
LINE
  5
1DE
330
1F
100
AcDbEntity
  8
0
  6
Continuous
 62
     7
370
    15
100
AcDbLine
 10
239.4105521742
 20
37.4157953263
 30
0.0
 11
238.9750171172
 21
37.8047598437
 31
0.0
  0
LINE
  5
1DF
330
1F
100
AcDbEntity
  8
0
  6
Continuous
 62
     7
370
    15
100
AcDbLine
 10
240.8671752328
 20
36.5749047335
 30
0.0
 11
239.4105521742
 21
37.4157953263
 31
0.0
  0
LINE
  5
1E0
330
1F
100
AcDbEntity
  8
0
  6
Continuous
 62
     7
370
    15
100
AcDbLine
 10
242.9057509652
 20
36.2252529909
 30
0.0
 11
242.9057509652
 21
36.0801032238
 31
0.0
  0
LINE
  5
1E1
330
1F
100
AcDbEntity
  8
0
  6
Continuous
 62
     7
370
    15
100
AcDbLine
 10
242.9057509652
 20
35.398060013
 30
0.0
 11
242.9057509652
 21
32.9656669676
 31
0.0
  0
LINE
  5
1E2
330
1F
100
AcDbEntity
  8
0
  6
Continuous
 62
     7
370
    15
100
AcDbLine
 10
242.9057509652
 20
36.4341426481
 30
0.0
 11
242.9057509652
 21
36.2252529909
 31
0.0
  0
LINE
  5
1E3
330
1F
100
AcDbEntity
  8
0
  6
Continuous
 62
     7
370
    15
100
AcDbLine
 10
242.9057509652
 20
32.9656669676
 30
0.0
 11
242.9057509652
 21
30.0956779473
 31
0.0
  0
SPLINE
  5
1E4
330
1F
100
AcDbEntity
  8
0
  6
Continuous
 62
     7
370
    15
100
AcDbSpline
210
0.0
220
0.0
230
1.0
 70
     8
 71
     3
 72
    32
 73
    28
 74
     0
 42
0.000000001
 43
0.00000001
 40
0.0
 40
0.0
 40
0.0
 40
0.0
 40
0.1250000000000002
 40
0.1250000000000002
 40
0.1874999999999999
 40
0.1874999999999999
 40
0.2499999999999996
 40
0.2499999999999996
 40
0.3749999999999996
 40
0.3749999999999996
 40
0.4374999999999996
 40
0.4374999999999996
 40
0.4999999999999996
 40
0.4999999999999996
 40
0.6249999999999994
 40
0.6249999999999994
 40
0.6874999999999996
 40
0.6874999999999996
 40
0.7499999999999997
 40
0.7499999999999997
 40
0.8124999999999998
 40
0.8124999999999998
 40
0.8749999999999998
 40
0.8749999999999998
 40
0.9374999999999999
 40
0.9374999999999999
 40
1.0
 40
1.0
 40
1.0
 40
1.0
 10
286.5695947034602
 20
31.30775835635104
 30
0.0
 10
286.7098140905383
 20
31.48218994083547
 30
0.0
 10
286.8366505521055
 20
31.66796168346133
 30
0.0
 10
287.0055301838138
 20
31.96425714185684
 30
0.0
 10
287.0582476951838
 20
32.06635633369118
 30
0.0
 10
287.1536793816394
 20
32.27071316605654
 30
0.0
 10
287.1967908589437
 20
32.37366059700948
 30
0.0
 10
287.3124297872579
 20
32.68479924030099
 30
0.0
 10
287.3713536833799
 20
32.89761244165673
 30
0.0
 10
287.428093742188
 20
33.20356920077818
 30
0.0
 10
287.4419987518379
 20
33.30395738425626
 30
0.0
 10
287.4598918779794
 20
33.50138157495713
 30
0.0
 10
287.4638572190024
 20
33.59902079382625
 30
0.0
 10
287.4606453197646
 20
33.87899641713181
 30
0.0
 10
287.4390378444734
 20
34.05034321141696
 30
0.0
 10
287.3778768658287
 20
34.28352562657429
 30
0.0
 10
287.3528749680358
 20
34.35627610478306
 30
0.0
 10
287.2944287925341
 20
34.48994830280592
 30
0.0
 10
287.2608246429777
 20
34.55130061626091
 30
0.0
 10
287.1842932356826
 20
34.66331086506141
 30
0.0
 10
287.1410462870298
 20
34.7142516695495
 30
0.0
 10
287.0480435091328
 20
34.80232346343135
 30
0.0
 10
286.9988368151033
 20
34.8392545935866
 30
0.0
 10
286.8933131351799
 20
34.90035921578792
 30
0.0
 10
286.8367928086359
 20
34.92465192125329
 30
0.0
 10
286.712629009493
 20
34.96230928662728
 30
0.0
 10
286.6449910381237
 20
34.97557699523986
 30
0.0
 10
286.5715027356843
 20
34.98381132165716
 30
0.0
  0
SPLINE
  5
1E5
330
1F
100
AcDbEntity
  8
0
  6
Continuous
 62
     7
370
    15
100
AcDbSpline
210
0.0
220
0.0
230
1.0
 70
     8
 71
     3
 72
    14
 73
    10
 74
     0
 42
0.000000001
 43
0.00000001
 40
0.0
 40
0.0
 40
0.0
 40
0.0
 40
0.25
 40
0.25
 40
0.5
 40
0.5
 40
0.75
 40
0.75
 40
1.0
 40
1.0
 40
1.0
 40
1.0
 10
286.5715027356841
 20
34.98381132165702
 30
0.0
 10
286.3595118628484
 20
35.00756478971213
 30
0.0
 10
286.1633337466366
 20
35.02215660316909
 30
0.0
 10
285.7633870225816
 20
35.05572793232757
 30
0.0
 10
285.5607649021214
 20
35.07403573589117
 30
0.0
 10
285.1546312361419
 20
35.11116908498168
 30
0.0
 10
284.9514305743427
 20
35.12981311889025
 30
0.0
 10
284.5469176420422
 20
35.16601009298799
 30
0.0
 10
284.3450946533112
 20
35.18385823711093
 30
0.0
 10
284.1429373555516
 20
35.20189936653261
 30
0.0
  0
LINE
  5
1E6
330
1F
100
AcDbEntity
  8
0
  6
Continuous
 62
     7
370
    15
100
AcDbLine
 10
242.8329659058
 20
24.9475285007
 30
0.0
 11
244.6608200245
 21
23.8923307785
 31
0.0
  0
SPLINE
  5
1E7
330
1F
100
AcDbEntity
  8
0
  6
Continuous
 62
     7
370
    15
100
AcDbSpline
210
0.0
220
0.0
230
1.0
 70
     8
 71
     3
 72
    14
 73
    10
 74
     0
 42
0.000000001
 43
0.00000001
 40
0.0
 40
0.0
 40
0.0
 40
0.0
 40
0.25
 40
0.25
 40
0.5
 40
0.5
 40
0.75
 40
0.75
 40
1.0
 40
1.0
 40
1.0
 40
1.0
 10
244.6153127840879
 20
23.77396275835816
 30
0.0
 10
244.5986379410215
 20
23.73059014025157
 30
0.0
 10
244.5783426981056
 20
23.69035981080573
 30
0.0
 10
244.5300457190352
 20
23.61658792313359
 30
0.0
 10
244.50182687123
 20
23.58301831645648
 30
0.0
 10
244.4389015228069
 20
23.52946691079386
 30
0.0
 10
244.4037383467899
 20
23.5090108814342
 30
0.0
 10
244.3290553575815
 20
23.49157858792232
 30
0.0
 10
244.2905304823731
 20
23.49552589690722
 30
0.0
 10
244.2565867796758
 20
23.51512117937704
 30
0.0
  0
LINE
  5
1E8
330
1F
100
AcDbEntity
  8
0
  6
Continuous
 62
     7
370
    15
100
AcDbLine
 10
244.2565867797
 20
23.5151211794
 30
0.0
 11
242.8010645721
 21
24.3553762645
 31
0.0
  0
SPLINE
  5
1E9
330
1F
100
AcDbEntity
  8
0
  6
Continuous
 62
     7
370
    15
100
AcDbSpline
210
0.0
220
0.0
230
1.0
 70
     8
 71
     3
 72
     8
 73
     4
 74
     0
 42
0.000000001
 43
0.00000001
 40
0.0
 40
0.0
 40
0.0
 40
0.0
 40
0.0011862984959113
 40
0.0011862984959113
 40
0.0011862984959113
 40
0.0011862984959113
 10
242.801064572114
 20
24.35537626447007
 30
0.0
 10
242.8112776999314
 20
24.55277516635902
 30
0.0
 10
242.8219037065066
 20
24.75016100333581
 30
0.0
 10
242.8329659057642
 20
24.94752850068615
 30
0.0
  0
LWPOLYLINE
  5
1EA
330
1F
100
AcDbEntity
  8
0
  6
Continuous
 62
     7
370
    15
100
AcDbPolyline
 90
       13
 70
   128
 43
0.0
 10
255.9370920287
 20
16.8017471904
 10
255.0176657337
 20
16.6144566056
 10
253.6492036666
 20
16.4625835401
 10
252.3330611472
 20
16.4738275979
 10
251.0788977573
 20
16.6481062552
 10
249.8959181942
 20
16.9841404265
 10
248.792804715
 20
17.4794638518
 10
247.7776534145
 20
18.1304411977
 10
246.8579148058
 20
18.9322947377
 10
246.0403391381
 20
19.8791394179
 10
245.3309268551
 20
20.9640260489
 10
244.7348845553
 20
22.1789923086
 10
244.3540764206
 20
23.2033965065
  0
SPLINE
  5
1EB
330
1F
100
AcDbEntity
  8
0
  6
Continuous
 62
     7
370
    15
100
AcDbSpline
210
0.0
220
0.0
230
1.0
 70
     8
 71
     3
 72
     8
 73
     4
 74
     0
 42
0.000000001
 43
0.00000001
 40
0.0
 40
0.0
 40
0.0
 40
0.0
 40
1.0
 40
1.0
 40
1.0
 40
1.0
 10
243.0790842595136
 20
25.444766655273
 30
0.0
 10
242.9968860787279
 20
25.27904632876954
 30
0.0
 10
242.914851710576
 20
25.11329945343157
 30
0.0
 10
242.8329659057642
 20
24.94752850068615
 30
0.0
  0
LINE
  5
1EC
330
1F
100
AcDbEntity
  8
0
  6
Continuous
 62
     7
370
    15
100
AcDbLine
 10
243.1281037019
 20
25.473064977
 30
0.0
 11
243.0790842595
 21
25.4447666553
 31
0.0
  0
SPLINE
  5
1ED
330
1F
100
AcDbEntity
  8
0
  6
Continuous
 62
     7
370
    15
100
AcDbSpline
210
0.0
220
0.0
230
1.0
 70
     8
 71
     3
 72
    12
 73
     8
 74
     0
 42
0.000000001
 43
0.00000001
 40
0.0
 40
0.0
 40
0.0
 40
0.0
 40
0.249999999999997
 40
0.249999999999997
 40
0.499999999999994
 40
0.499999999999994
 40
1.0
 40
1.0
 40
1.0
 40
1.0
 10
243.1398859472981
 20
25.80642996723413
 30
0.0
 10
243.1774847318727
 20
25.78472465090984
 30
0.0
 10
243.2076622911191
 20
25.75792278033667
 30
0.0
 10
243.2462520258001
 20
25.70029907550668
 30
0.0
 10
243.2551115109898
 20
25.6692509499353
 30
0.0
 10
243.2500640771515
 20
25.57706197353
 30
0.0
 10
243.2033617900762
 20
25.51651054655515
 30
0.0
 10
243.1281037018779
 20
25.4730649770032
 30
0.0
  0
LINE
  5
1EE
330
1F
100
AcDbEntity
  8
0
  6
Continuous
 62
     7
370
    15
100
AcDbLine
 10
242.3549974202
 20
26.2595364693
 30
0.0
 11
243.1398859473
 21
25.8064299672
 31
0.0
  0
SPLINE
  5
1EF
330
1F
100
AcDbEntity
  8
0
  6
Continuous
 62
     7
370
    15
100
AcDbSpline
210
0.0
220
0.0
230
1.0
 70
     8
 71
     3
 72
    10
 73
     6
 74
     0
 42
0.000000001
 43
0.00000001
 40
0.0
 40
0.0
 40
0.0
 40
0.0
 40
0.5
 40
0.5
 40
1.0
 40
1.0
 40
1.0
 40
1.0
 10
241.7775297498116
 20
26.2527347237939
 30
0.0
 10
241.8536671401502
 20
26.29668790366661
 30
0.0
 10
241.9571749208345
 20
26.3231745698454
 30
0.0
 10
242.1716702129203
 20
26.32700264023272
 30
0.0
 10
242.2791004573385
 20
26.30335085332932
 30
0.0
 10
242.354997420181
 20
26.25953646929574
 30
0.0
  0
LINE
  5
1F0
330
1F
100
AcDbEntity
  8
0
  6
Continuous
 62
     7
370
    15
100
AcDbLine
 10
241.7285103074
 20
26.2244364021
 30
0.0
 11
241.7775297498
 21
26.2527347238
 31
0.0
  0
SPLINE
  5
1F1
330
1F
100
AcDbEntity
  8
0
  6
Continuous
 62
     7
370
    15
100
AcDbSpline
210
0.0
220
0.0
230
1.0
 70
     8
 71
     3
 72
     8
 73
     4
 74
     0
 42
0.000000001
 43
0.00000001
 40
0.0
 40
0.0
 40
0.0
 40
0.0
 40
1.0
 40
1.0
 40
1.0
 40
1.0
 10
240.8671752327928
 20
26.08235530072564
 30
0.0
 10
241.1543300591901
 20
26.12962696963766
 30
0.0
 10
241.4414431777753
 20
26.17698440234039
 30
0.0
 10
241.7285103074473
 20
26.22443640206369
 30
0.0
  0
LINE
  5
1F2
330
1F
100
AcDbEntity
  8
0
  6
Continuous
 62
     7
370
    15
100
AcDbLine
 10
239.4105521742
 20
26.9232458936
 30
0.0
 11
240.8671752328
 21
26.0823553007
 31
0.0
  0
LINE
  5
1F3
330
1F
100
AcDbEntity
  8
0
  6
Continuous
 62
     7
370
    15
100
AcDbLine
 10
239.4105521742
 20
26.9232458936
 30
0.0
 11
242.5521975746
 21
28.736879179
 31
0.0
  0
ARC
  5
1F4
330
1F
100
AcDbEntity
  8
0
  6
Continuous
 62
     7
370
    15
100
AcDbCircle
 10
252.3592832761
 20
26.8034101391
 30
0.0
 40
9.86673272387394
100
AcDbArc
 50
194.3656927801
 51
238.0778981556
  0
ARC
  5
1F5
330
1F
100
AcDbEntity
  8
0
  6
Continuous
 62
     7
370
    15
100
AcDbCircle
 10
277.6525964058
 20
37.2360780771
 30
0.0
 40
4.169039498117014
100
AcDbArc
 50
320.6700295195
 51
350.3607260606
  0
LINE
  5
1F6
330
1F
100
AcDbEntity
  8
0
  6
Continuous
 62
     7
370
    15
100
AcDbLine
 10
284.1429644899
 20
28.2890534402
 30
0.0
 11
286.5695947035
 21
31.3077583564
 31
0.0
  0
LINE
  5
1F7
330
1F
100
AcDbEntity
  8
0
  6
Continuous
 62
     7
370
    15
100
AcDbLine
 10
278.3729701906
 20
31.4783326496
 30
0.0
 11
280.8773851149
 21
34.5938010064
 31
0.0
  0
ELLIPSE
  5
1F8
330
1F
100
AcDbEntity
  8
0
  6
Continuous
 62
     7
370
    15
100
AcDbEllipse
 10
242.2593043558
 20
29.7225036471
 30
0.0
 11
-7.507462981948265E-5
 21
1.066811201853401
 31
0.0
210
0.0
220
0.0
230
1.0
 40
0.7174342186
 41
3.534193645557443
 42
5.104989972352355
  0
ARC
  5
1F9
330
1F
100
AcDbEntity
  8
0
  6
Continuous
 62
     7
370
    15
100
AcDbCircle
 10
252.42742723
 20
29.2031279818
 30
0.0
 40
11.10582850774251
100
AcDbArc
 50
195.5577647711
 51
215.7110859085
  0
ARC
  5
1FA
330
1F
100
AcDbEntity
  8
0
  6
Continuous
 62
     7
370
    15
100
AcDbCircle
 10
249.8260522789
 20
28.0080750943
 30
0.0
 40
9.598984504445461
100
AcDbArc
 50
194.0658610291
 51
246.8527683333
  0
SPLINE
  5
1FB
330
1F
100
AcDbEntity
  8
0
  6
Continuous
 62
     7
370
    15
100
AcDbSpline
210
0.0
220
0.0
230
1.0
 70
     8
 71
     3
 72
     8
 73
     4
 74
     0
 42
0.000000001
 43
0.00000001
 40
0.0000000000000004
 40
0.0000000000000004
 40
0.0000000000000004
 40
0.0000000000000004
 40
0.0011862984959128
 40
0.0011862984959128
 40
0.0011862984959128
 40
0.0011862984959128
 10
240.8671752327933
 20
26.08235530072468
 30
0.0
 10
240.7500247637982
 20
25.9462312578899
 30
0.0
 10
240.6325850133611
 20
25.81050768272697
 30
0.0
 10
240.5148741455164
 20
25.67516590523249
 30
0.0
  0
LINE
  5
1FC
330
1F
100
AcDbEntity
  8
0
  6
Continuous
 62
     7
370
    15
100
AcDbLine
 10
238.9750171172
 20
26.671764816
 30
0.0
 11
239.4105521742
 21
26.9232458936
 31
0.0
  0
LINE
  5
1FD
330
1F
100
AcDbEntity
  8
0
  6
Continuous
 62
     7
370
    15
100
AcDbLine
 10
240.5148741455
 20
25.6751659052
 30
0.0
 11
239.0770296075
 21
26.5052158889
 31
0.0
  0
SPLINE
  5
1FE
330
1F
100
AcDbEntity
  8
0
  6
Continuous
 62
     7
370
    15
100
AcDbSpline
210
0.0
220
0.0
230
1.0
 70
     8
 71
     3
 72
    10
 73
     6
 74
     0
 42
0.000000001
 43
0.00000001
 40
0.0
 40
0.0
 40
0.0
 40
0.0
 40
0.5
 40
0.5
 40
1.0
 40
1.0
 40
1.0
 40
1.0
 10
239.0770296074843
 20
26.50521588892773
 30
0.0
 10
239.0506201782037
 20
26.52046172793465
 30
0.0
 10
239.0283367739945
 20
26.54431915034691
 30
0.0
 10
238.994229639173
 20
26.6022452420812
 30
0.0
 10
238.9823296091181
 20
26.63614377356205
 30
0.0
 10
238.9750171171614
 20
26.67176481601641
 30
0.0
  0
ARC
  5
1FF
330
1F
100
AcDbEntity
  8
0
  6
Continuous
 62
     7
370
    15
100
AcDbCircle
 10
248.5777499698
 20
28.8905609122
 30
0.0
 40
9.783133816474384
100
AcDbArc
 50
195.8806280087
 51
238.1695831898
  0
ELLIPSE
  5
200
330
1F
100
AcDbEntity
  8
0
  6
Continuous
 62
     7
370
    15
100
AcDbEllipse
 10
242.198644184
 20
29.6874738914
 30
0.0
 11
0.3250094736511642
 21
1.213179526238669
 31
0.0
210
0.0
220
0.0
230
1.0
 40
0.5176380889
 41
3.619174351347739
 42
5.1899706781426
  0
SPLINE
  5
201
330
1F
100
AcDbEntity
  8
0
  6
Continuous
 62
     7
370
    15
100
AcDbSpline
210
0.0
220
0.0
230
1.0
 70
     8
 71
     3
 72
    14
 73
    10
 74
     0
 42
0.000000001
 43
0.00000001
 40
0.0
 40
0.0
 40
0.0
 40
0.0
 40
0.25
 40
0.25
 40
0.5
 40
0.5
 40
0.75
 40
0.75
 40
1.0
 40
1.0
 40
1.0
 40
1.0
 10
268.7325012730424
 20
61.69179719244046
 30
0.0
 10
268.7642233837371
 20
61.71010997714536
 30
0.0
 10
268.799954206745
 20
61.72575136097676
 30
0.0
 10
268.8779678754668
 20
61.75054981164273
 30
0.0
 10
268.920661315874
 20
61.75974009849354
 30
0.0
 10
269.0086106105412
 20
61.76876754423758
 30
0.0
 10
269.0551028498683
 20
61.76857355346949
 30
0.0
 10
269.1417421141775
 20
61.75585354709028
 30
0.0
 10
269.1823444966188
 20
61.74315842656594
 30
0.0
 10
269.2140398727463
 20
61.72486107539761
 30
0.0
  0
LINE
  5
202
330
1F
100
AcDbEntity
  8
0
  6
Continuous
 62
     7
370
    15
100
AcDbLine
 10
269.2140398727
 20
61.7248610754
 30
0.0
 11
269.8737082842
 21
61.3440426074
 31
0.0
  0
LINE
  5
203
330
1F
100
AcDbEntity
  8
0
  6
Continuous
 62
     7
370
    15
100
AcDbLine
 10
271.5435756033
 20
59.2692466786
 30
0.0
 11
272.9380748374
 21
59.5750214509
 31
0.0
  0
LINE
  5
204
330
1F
100
AcDbEntity
  8
0
  6
Continuous
 62
     7
370
    15
100
AcDbLine
 10
272.9380748374
 20
59.5750214509
 30
0.0
 11
274.3935970449
 21
58.7347663658
 31
0.0
  0
SPLINE
  5
205
330
1F
100
AcDbEntity
  8
0
  6
Continuous
 62
     7
370
    15
100
AcDbSpline
210
0.0
220
0.0
230
1.0
 70
     8
 71
     3
 72
    12
 73
     8
 74
     0
 42
0.000000001
 43
0.00000001
 40
0.0
 40
0.0
 40
0.0
 40
0.0
 40
0.2500000000000054
 40
0.2500000000000054
 40
0.5000000000000108
 40
0.5000000000000108
 40
1.0
 40
1.0
 40
1.0
 40
1.0
 10
274.3935970449379
 20
58.73476636584683
 30
0.0
 10
274.4252531754381
 20
58.71649167069692
 30
0.0
 10
274.4475524524482
 20
58.69266755989862
 30
0.0
 10
274.4693730230401
 20
58.64263565745092
 30
0.0
 10
274.4696537853662
 20
58.61624444903702
 30
0.0
 10
274.4462864112455
 20
58.54016921904211
 30
0.0
 10
274.3992480084405
 20
58.49310616409169
 30
0.0
 10
274.3363225139402
 20
58.45678004933972
 30
0.0
  0
LINE
  5
206
330
1F
100
AcDbEntity
  8
0
  6
Continuous
 62
     7
370
    15
100
AcDbLine
 10
268.732501273
 20
61.6917971924
 30
0.0
 11
268.6407108541
 21
61.6388077115
 31
0.0
  0
SPLINE
  5
207
330
1F
100
AcDbEntity
  8
0
  6
Continuous
 62
     7
370
    15
100
AcDbSpline
210
0.0
220
0.0
230
1.0
 70
     8
 71
     3
 72
    10
 73
     6
 74
     0
 42
0.000000001
 43
0.00000001
 40
0.0
 40
0.0
 40
0.0
 40
0.0
 40
0.4038326686048867
 40
0.808732695701045
 40
1.0
 40
1.0
 40
1.0
 40
1.0
 10
277.3577564988631
 20
53.38084073101324
 30
0.0
 10
277.3759974938052
 20
53.41960466383952
 30
0.0
 10
277.4125276959379
 20
53.49723498532607
 30
0.0
 10
277.4264669931807
 20
53.60462804227214
 30
0.0
 10
277.4084134860825
 20
53.65789712703825
 30
0.0
 10
277.4026214115189
 20
53.67498735273351
 30
0.0
  0
ARC
  5
208
330
1F
100
AcDbEntity
  8
0
  6
Continuous
 62
     7
370
    15
100
AcDbCircle
 10
267.1486874771
 20
51.1348453358
 30
0.0
 40
10.49988163309303
100
AcDbArc
 50
17.3131344668
 51
46.3699571664
  0
LWPOLYLINE
  5
209
330
1F
100
AcDbEntity
  8
0
  6
Continuous
 62
     7
370
    15
100
AcDbPolyline
 90
        3
 70
   128
 43
0.0
 10
271.5435756033
 20
59.9502371647
 10
271.5820298085
 20
59.9027724832
 10
271.9644584196
 20
59.3933900121
  0
LWPOLYLINE
  5
20A
330
1F
100
AcDbEntity
  8
0
  6
Continuous
 62
     7
370
     0
100
AcDbPolyline
 90
        9
 70
   128
 43
0.0
 10
251.0905119575
 20
31.2175714166
 10
251.1504760198
 20
29.9088672852
 10
251.3297325727
 20
28.6832687759
 10
251.6263814522
 20
27.5537675377
 10
252.0372781064
 20
26.5323365647
 10
252.5580669285
 20
25.6298032794
 10
253.1832274274
 20
24.855734759
 10
253.9061327463
 20
24.2183363226
 10
254.4048705954
 20
23.8920545131
  0
LWPOLYLINE
  5
20B
330
1F
100
AcDbEntity
  8
0
  6
Continuous
 62
     7
370
     0
100
AcDbPolyline
 90
       24
 70
   128
 43
0.0
 10
270.4035703175
 20
51.6056181093
 10
269.6517049467
 20
51.9648116163
 10
268.7200271989
 20
52.2343162114
 10
267.7214003284
 20
52.3502711161
 10
266.6664100285
 20
52.3114471794
 10
265.5662394588
 20
52.1182559447
 10
264.4325507011
 20
51.7727452872
 10
263.2773611382
 20
51.2785777058
 10
262.1129160669
 20
50.6409914999
 10
260.9515588946
 20
49.8667452417
 10
259.8056002962
 20
48.9640461344
 10
258.6871877179
 20
47.9424630128
 10
257.6081766114
 20
46.8128249124
 10
256.5800047628
 20
45.5871062779
 10
255.6135710494
 20
44.2783000318
 10
254.719119909
 20
42.900279846
 10
253.9061327463
 20
41.4676530772
 10
253.1832274274
 20
39.9956059255
 10
252.5580669285
 20
38.4997424569
 10
252.0372781064
 20
36.9959191965
 10
251.6263814522
 20
35.5000770447
 10
251.3297325727
 20
34.0280723006
 10
251.1504760198
 20
32.5955085806
 10
251.0905119575
 20
31.2175714166
  0
LWPOLYLINE
  5
20C
330
1F
100
AcDbEntity
  8
0
  6
Continuous
 62
     7
370
     0
100
AcDbPolyline
 90
       17
 70
   128
 43
0.0
 10
272.6400294334
 20
21.4355635361
 10
273.111729136
 20
20.7831639397
 10
273.6894374036
 20
20.2759913844
 10
274.3620962655
 20
19.9237537099
 10
275.1168302918
 20
19.7331931324
 10
275.9391930442
 20
19.7079571906
 10
276.8134435962
 20
19.8485289283
 10
277.7228478315
 20
20.1522176479
 10
278.6499987542
 20
20.6132104137
 10
279.5771496768
 20
21.2226833177
 10
280.4865539122
 20
21.9689703789
 10
281.3608044642
 20
22.837786843
 10
282.1831672166
 20
23.8125026085
 10
282.9379012429
 20
24.8744605446
 10
283.6105601048
 20
26.0033336097
 10
284.1882683724
 20
27.1775139333
 10
284.6599680749
 20
28.3745264138
  0
LWPOLYLINE
  5
20D
330
1F
100
AcDbEntity
  8
0
  6
Continuous
 62
     7
370
     0
100
AcDbPolyline
 90
       17
 70
   128
 43
0.0
 10
284.6595936613
 20
35.3057823391
 10
284.187853357
 20
35.9579908145
 10
283.6101362683
 20
36.4649961325
 10
282.9374980482
 20
36.8170958366
 10
282.1828108361
 20
37.0075518672
 10
281.3605169258
 20
37.0327195065
 10
280.4863523867
 20
36.8921171264
 10
279.577045926
 20
36.5884354059
 10
278.6499987542
 20
36.1274858395
 10
277.7229515824
 20
35.5180895243
 10
276.8136451216
 20
34.7719083522
 10
275.9394805826
 20
33.9032218388
 10
275.1171866723
 20
32.9286538593
 10
274.3624994602
 20
31.8668545205
 10
273.6898612401
 20
30.7381432582
 10
273.1121441514
 20
29.5641199874
 10
272.640403847
 20
28.3672517501
  0
LWPOLYLINE
  5
20E
330
1F
100
AcDbEntity
  8
0
  6
Continuous
 62
     7
370
     0
100
AcDbPolyline
 90
       20
 70
   128
 43
0.0
 10
244.2565867797
 20
34.7852169073
 10
244.7272456196
 20
36.6465771503
 10
245.312379328
 20
38.5224949482
 10
246.0078146663
 20
40.3995910471
 10
246.8085917126
 20
42.2644777893
 10
247.7089992361
 20
44.1038545957
 10
248.7026154305
 20
45.9046028269
 10
249.7823537149
 20
47.6538793466
 10
250.9405132759
 20
49.3392081207
 10
252.1688339912
 20
50.9485691974
 10
253.4585553411
 20
52.470484435
 10
254.8004788898
 20
53.894099365
 10
256.1850338898
 20
55.2092606079
 10
257.6023455411
 20
56.4065882877
 10
259.0423054198
 20
57.4775429307
 10
260.4946435723
 20
58.4144863696
 10
261.9490017618
 20
59.2107362196
 10
263.3950073443
 20
59.8606135386
 10
264.8223472475
 20
60.3594833295
 10
265.6120709291
 20
60.5720870624
  0
LINE
  5
20F
330
1F
100
AcDbEntity
  8
0
  6
Continuous
 62
     7
370
     0
100
AcDbLine
 10
244.6153127841
 20
34.4507066899
 30
0.0
 11
244.7147149157
 21
34.8991152131
 31
0.0
  0
LWPOLYLINE
  5
210
330
1F
100
AcDbEntity
  8
0
  6
Continuous
 62
     7
370
     0
100
AcDbPolyline
 90
       10
 70
   128
 43
0.0
 10
260.5089173806
 20
57.9276751096
 10
260.7466386919
 20
58.0707542782
 10
262.1990486632
 20
58.8615555408
 10
263.6426416767
 20
59.5043456075
 10
265.0668903057
 20
59.9944369207
 10
266.4614081926
 20
60.3282554811
 10
267.8160257921
 20
60.5033669112
 10
269.1208645319
 20
60.5184942079
 10
270.3664088534
 20
60.373527055
 10
271.5435756033
 20
60.0695226281
  0
LWPOLYLINE
  5
211
330
1F
100
AcDbEntity
  8
0
  6
Continuous
 62
     7
370
     0
100
AcDbPolyline
 90
       17
 70
   128
 43
0.0
 10
261.9775419698
 20
19.520444381
 10
260.9772609967
 20
18.9098785999
 10
259.5103190635
 20
18.1374645851
 10
258.0543971446
 20
17.5171870006
 10
256.6203382569
 20
17.0536653801
 10
255.2188225918
 20
16.7503518132
 10
253.8602879744
 20
16.6095052357
 10
252.5548521272
 20
16.6321746062
 10
251.312237318
 20
16.8181910939
 10
250.1416979536
 20
17.1661693362
 10
249.0519516568
 20
17.6735177559
 10
248.0511143419
 20
18.3364578622
 10
247.1466397714
 20
19.1500523911
 10
246.3452640435
 20
20.1082420759
 10
245.652955425
 20
21.2038907736
 10
245.0748699028
 20
22.4288386116
 10
244.6153127841
 20
23.7739627584
  0
LWPOLYLINE
  5
212
330
1F
100
AcDbEntity
  8
0
  6
Continuous
 62
     7
370
     0
100
AcDbPolyline
 90
       28
 70
   128
 43
0.0
 10
248.5095722061
 20
34.2447511749
 10
248.8143459782
 20
35.8188720208
 10
249.2362846289
 20
37.4194208686
 10
249.7713278946
 20
39.0309958346
 10
250.4143271204
 20
40.6380889324
 10
251.159094804
 20
42.225235304
 10
251.9984641384
 20
43.7771620361
 10
252.9243579763
 20
45.27893513
 10
253.9278665557
 20
46.7161032088
 10
254.9993332378
 20
48.074836582
 10
256.1284474313
 20
49.3420603264
 10
257.30434381
 20
50.5055801048
 10
258.5157068686
 20
51.5541995102
 10
259.7508798101
 20
52.477827808
 10
260.9979767183
 20
53.2675770371
 10
262.2449969339
 20
53.9158475386
 10
263.4799405356
 20
54.4164010856
 10
264.6909238139
 20
54.7644209133
 10
265.8662936266
 20
54.9565580698
 10
266.9947395354
 20
54.9909636432
 10
268.0654026449
 20
54.8673065528
 10
269.0679800965
 20
54.5867767356
 10
269.9928242115
 20
54.1520736952
 10
270.8310353293
 20
53.5673805252
 10
271.5745474481
 20
52.8383236557
 10
272.2162058427
 20
51.9719187106
 10
272.7498359139
 20
50.9765029977
 10
273.1127974275
 20
50.0416145894
  0
LWPOLYLINE
  5
213
330
1F
100
AcDbEntity
  8
0
  6
Continuous
 62
     7
370
     0
100
AcDbPolyline
 90
       12
 70
   128
 43
0.0
 10
257.1140977053
 20
22.3280509933
 10
256.1284474313
 20
22.1753914407
 10
254.9993332378
 20
22.1389676862
 10
253.9278665557
 20
22.2606119604
 10
252.9243579763
 20
22.5391536955
 10
251.9984641384
 20
22.9719125188
 10
251.159094804
 20
23.5547240457
 10
250.4143271204
 20
24.2819799529
 10
249.7713278946
 20
25.146681947
 10
249.2362846289
 20
26.1405091075
 10
248.8143459782
 20
27.2538979587
 10
248.5095722061
 20
28.4761344974
  0
ARC
  5
214
330
1F
100
AcDbEntity
  8
0
  6
Continuous
 62
     7
370
     0
100
AcDbCircle
 10
267.1776201581
 20
50.7583707935
 30
0.0
 40
10.51249373319303
100
AcDbArc
 50
14.4456909384
 51
47.0804404646
  0
ARC
  5
215
330
1F
100
AcDbEntity
  8
0
  6
Continuous
 62
     7
370
     0
100
AcDbCircle
 10
281.2013392679
 20
33.629485716
 30
0.0
 40
3.169771812493875
100
AcDbArc
 50
32.0359728457
 51
59.8555945249
  0
LINE
  5
216
330
1F
100
AcDbEntity
  8
0
  6
Continuous
 62
     7
370
     0
100
AcDbLine
 10
270.3768494143
 20
21.959885476
 30
0.0
 11
270.4652377619
 21
21.6300226834
 31
0.0
  0
LWPOLYLINE
  5
217
330
1F
100
AcDbEntity
  8
0
  6
Continuous
 62
     7
370
     0
100
AcDbPolyline
 90
       14
 70
   128
 43
0.0
 10
273.7968110668
 20
20.7800103931
 10
274.4761988852
 20
20.4915950136
 10
275.2410080018
 20
20.3641191433
 10
276.0682626804
 20
20.4044420767
 10
276.941055887
 20
20.6117397128
 10
277.841549893
 20
20.9817754023
 10
278.7513408342
 20
21.5069865332
 10
279.6518348402
 20
22.1766390927
 10
280.5246280468
 20
22.9770470432
 10
281.3518827254
 20
23.8918520313
 10
282.116691842
 20
24.9023577118
 10
282.8034245952
 20
25.9879118548
 10
283.3980458705
 20
27.1263284258
 10
283.8884030838
 20
28.2943410134
  0
LWPOLYLINE
  5
218
330
1F
100
AcDbEntity
  8
0
  6
Continuous
 62
     7
370
     0
100
AcDbPolyline
 90
       20
 70
   128
 43
0.0
 10
239.0770296075
 20
37.7753116168
 10
239.5476884474
 20
39.6366718599
 10
240.1328221558
 20
41.5125896577
 10
240.8282574941
 20
43.3896857566
 10
241.6290345404
 20
45.2545724988
 10
242.5294420639
 20
47.0939493053
 10
243.5230582584
 20
48.8946975364
 10
244.6027965427
 20
50.6439740562
 10
245.7609561038
 20
52.3293028303
 10
246.989276819
 20
53.938663907
 10
248.2789981689
 20
55.4605791445
 10
249.6209217177
 20
56.8841940745
 10
251.0054767176
 20
58.1993553174
 10
252.4227883689
 20
59.3966829973
 10
253.8627482476
 20
60.4676376403
 10
255.3150864001
 20
61.4045810791
 10
256.7694445896
 20
62.2008309291
 10
258.2154501721
 20
62.8507082482
 10
259.6427900753
 20
63.349578039
 10
260.4325042296
 20
63.5621794885
  0
LWPOLYLINE
  5
219
330
1F
100
AcDbEntity
  8
0
  6
Continuous
 62
     7
370
     0
100
AcDbPolyline
 90
       20
 70
   128
 43
0.0
 10
242.3549974202
 20
36.752085902
 10
242.8078760619
 20
38.5413621377
 10
243.3739510666
 20
40.3447930538
 10
244.0489445852
 20
42.1487500587
 10
244.8277556675
 20
43.9396005846
 10
245.7044988105
 20
45.7038111102
 10
246.6725484348
 20
47.4280494336
 10
247.7245889549
 20
49.0992854241
 10
248.8526700629
 20
50.7048894916
 10
250.0482668096
 20
52.2327280288
 10
251.3023440277
 20
53.6712551053
 10
252.6054246109
 20
55.0095997206
 10
253.9476611325
 20
56.2376479566
 10
255.3189102633
 20
57.346119409
 10
256.7088094246
 20
58.3266373192
 10
258.1068550988
 20
59.1717918785
 10
259.5024822047
 20
59.8751962237
 10
260.8851439384
 20
60.431534703
 10
262.2443914759
 20
60.8366030466
 10
262.3708739119
 20
60.866849469
  0
LWPOLYLINE
  5
21A
330
1F
100
AcDbEntity
  8
0
  6
Continuous
 62
     7
370
     0
100
AcDbPolyline
 90
       22
 70
   128
 43
0.0
 10
241.7775297498
 20
36.7452841565
 10
242.2290023222
 20
38.5557507446
 10
242.7947760205
 20
40.3813473139
 10
243.4706172143
 20
42.2084130999
 10
244.2514686485
 20
44.023276344
 10
245.1314872865
 20
45.8123565981
 10
246.1040880331
 20
47.5622663458
 10
247.1619930097
 20
49.2599111796
 10
248.2972860147
 20
50.8925877858
 10
249.5014717591
 20
52.4480790013
 10
250.765539436
 20
53.9147452341
 10
252.0800301479
 20
55.2816115611
 10
253.4351076865
 20
56.5384498523
 10
254.8206321362
 20
57.6758553068
 10
256.2262357501
 20
58.6853168284
 10
257.6414005306
 20
59.5592807132
 10
259.055536935
 20
60.2912071729
 10
260.4580631159
 20
60.8756192718
 10
261.8384841039
 20
61.30814391
 10
263.1864703409
 20
61.5855445472
 10
264.4919349747
 20
61.7057454207
 10
265.6169933977
 20
61.6791969198
  0
LINE
  5
21B
330
1F
100
AcDbEntity
  8
0
  6
Continuous
 62
     7
370
     0
100
AcDbLine
 10
269.7731973535
 20
22.3083663931
 30
0.0
 11
270.3768494143
 21
21.959885476
 31
0.0
  0
LINE
  5
21C
330
1F
100
AcDbEntity
  8
0
  6
Continuous
 62
     7
370
     0
100
AcDbLine
 10
242.8262014523
 20
34.7944594565
 30
0.0
 11
242.8393275729
 21
35.4593259821
 31
0.0
  0
LWPOLYLINE
  5
21D
330
1F
100
AcDbEntity
  8
0
  6
Continuous
 62
     7
370
     0
100
AcDbPolyline
 90
        3
 70
   128
 43
0.0
 10
242.861434325
 20
35.8911838911
 10
242.8875607035
 20
36.249603783
 10
242.9057509652
 20
36.4563095105
  0
LINE
  5
21E
330
1F
100
AcDbEntity
  8
0
  6
Continuous
 62
     7
370
     0
100
AcDbLine
 10
242.826652987
 20
34.6727804054
 30
0.0
 11
242.8262014523
 21
34.7944594565
 31
0.0
  0
LWPOLYLINE
  5
21F
330
1F
100
AcDbEntity
  8
0
  6
Continuous
 62
     7
370
     0
100
AcDbPolyline
 90
       19
 70
   128
 43
0.0
 10
211.7412484386
 20
58.6857658831
 10
211.8028249752
 20
59.8061859341
 10
211.9865009934
 20
60.9785300432
 10
212.2891337456
 20
62.1827390778
 10
212.7055451014
 20
63.3982086873
 10
213.2286101473
 20
64.6041418497
 10
213.8493790951
 20
65.7799047144
 10
214.5572304162
 20
66.9053796526
 10
215.340052578
 20
67.9613094762
 10
216.1844512765
 20
68.9296269332
 10
217.0759786157
 20
69.7937638433
 10
217.9993803158
 20
70.5389345845
 10
218.9388567175
 20
71.1523890787
 10
219.8783331193
 20
71.6236309495
 10
220.8017348193
 20
71.9445971178
 10
221.6932621585
 20
72.1097957636
 10
222.537660857
 20
72.1164002921
 10
223.3204830189
 20
71.9642976981
 10
223.4758753513
 20
71.9123505362
  0
ARC
  5
220
330
1F
100
AcDbEntity
  8
0
  6
Continuous
 62
     7
370
     0
100
AcDbCircle
 10
217.1900131917
 20
58.2527105439
 30
0.0
 40
5.465946785532967
100
AcDbArc
 50
175.4558147416
 51
223.7830048348
  0
LINE
  5
221
330
1F
100
AcDbEntity
  8
0
  6
Continuous
 62
     7
370
     0
100
AcDbLine
 10
248.5095722061
 20
35.7901767406
 30
0.0
 11
247.8023504909
 21
36.1984471466
 31
0.0
  0
LINE
  5
222
330
1F
100
AcDbEntity
  8
0
  6
Continuous
 62
     7
370
     0
100
AcDbLine
 10
242.966411137
 20
30.130707703
 30
0.0
 11
248.5095722061
 21
26.9307089317
 31
0.0
  0
LINE
  5
223
330
1F
100
AcDbEntity
  8
0
  6
Continuous
 62
     7
370
     0
100
AcDbLine
 10
242.9057509652
 20
30.0956779473
 30
0.0
 11
242.966411137
 21
30.130707703
 31
0.0
  0
LINE
  5
224
330
1F
100
AcDbEntity
  8
0
  6
Continuous
 62
     7
370
     0
100
AcDbLine
 10
286.8347597464
 20
31.0799465778
 30
0.0
 11
286.5695947035
 21
31.3077583564
 31
0.0
  0
LINE
  5
225
330
1F
100
AcDbEntity
  8
0
  6
Continuous
 62
     7
370
     0
100
AcDbLine
 10
244.3540764206
 20
23.2033965065
 30
0.0
 11
244.2565867797
 21
23.5151211794
 31
0.0
  0
LINE
  5
226
330
1F
100
AcDbEntity
  8
0
  6
Continuous
 62
     7
370
     0
100
AcDbLine
 10
247.8024654249
 20
25.7059640639
 30
0.0
 11
242.5521975746
 21
28.736879179
 31
0.0
  0
LINE
  5
227
330
1F
100
AcDbEntity
  8
0
  6
Continuous
 62
     7
370
     0
100
AcDbLine
 10
280.8773851149
 20
34.5938010064
 30
0.0
 11
286.5695947035
 21
31.3077583564
 31
0.0
  0
LINE
  5
228
330
1F
100
AcDbEntity
  8
0
  6
Continuous
 62
     7
370
     0
100
AcDbLine
 10
243.1895588692
 20
25.644060569
 30
0.0
 11
243.1398859473
 21
25.8064299672
 31
0.0
  0
LWPOLYLINE
  5
229
330
1F
100
AcDbEntity
  8
0
  6
Continuous
 62
     7
370
     0
100
AcDbPolyline
 90
        3
 70
   128
 43
0.0
 10
242.8193526823
 20
24.9660252366
 10
242.817436853
 20
24.9705386223
 10
242.3549974202
 20
26.2595364693
  0
ARC
  5
22A
330
1F
100
AcDbEntity
  8
0
  6
Continuous
 62
     7
370
     0
100
AcDbCircle
 10
252.5400321397
 20
29.2716282761
 30
0.0
 40
11.17788781356243
100
AcDbArc
 50
195.6688655944
 51
214.1331200111
  0
LINE
  5
22B
330
1F
100
AcDbEntity
  8
0
  6
Continuous
 62
     7
370
     0
100
AcDbLine
 10
239.1680003972
 20
26.2135625461
 30
0.0
 11
239.0770296075
 21
26.5052158889
 31
0.0
  0
OLE2FRAME
  5
22C
330
1F
100
AcDbEntity
  8
0
100
AcDbOle2Frame
 70
     2
  3
Paintbrush-Bild
 10
13.8511154363
 20
38.264191557
 30
0.0
 11
51.6290888628
 21
31.9806341108
 31
0.0
 71
     2
 72
     0
 73
     1
 90
    12928
310
80552BED0767C5B32B40DDAF6807D121434000000000000000006FFBDDFB85D0
310
4940DDAF6807D121434000000000000000006FFBDDFB85D04940416F4BD60AFB
310
3F4000000000000000002BED0767C5B32B40416F4BD60AFB3F40000000000000
310
0000000000000100000000010000010000000100000000000100000000320000
310
D0CF11E0A1B11AE1000000000000000000000000000000003E000300FEFF0900
310
0600000000000000000000000100000001000000000000000010000002000000
310
01000000FEFFFFFF0000000000000000FFFFFFFFFFFFFFFFFFFFFFFFFFFFFFFF
310
FFFFFFFFFFFFFFFFFFFFFFFFFFFFFFFFFFFFFFFFFFFFFFFFFFFFFFFFFFFFFFFF
310
FFFFFFFFFFFFFFFFFFFFFFFFFFFFFFFFFFFFFFFFFFFFFFFFFFFFFFFFFFFFFFFF
310
FFFFFFFFFFFFFFFFFFFFFFFFFFFFFFFFFFFFFFFFFFFFFFFFFFFFFFFFFFFFFFFF
310
FFFFFFFFFFFFFFFFFFFFFFFFFFFFFFFFFFFFFFFFFFFFFFFFFFFFFFFFFFFFFFFF
310
FFFFFFFFFFFFFFFFFFFFFFFFFFFFFFFFFFFFFFFFFFFFFFFFFFFFFFFFFFFFFFFF
310
FFFFFFFFFFFFFFFFFFFFFFFFFFFFFFFFFFFFFFFFFFFFFFFFFFFFFFFFFFFFFFFF
310
FFFFFFFFFFFFFFFFFFFFFFFFFFFFFFFFFFFFFFFFFFFFFFFFFFFFFFFFFFFFFFFF
310
FFFFFFFFFFFFFFFFFFFFFFFFFFFFFFFFFFFFFFFFFFFFFFFFFFFFFFFFFFFFFFFF
310
FFFFFFFFFFFFFFFFFFFFFFFFFFFFFFFFFFFFFFFFFFFFFFFFFFFFFFFFFFFFFFFF
310
FFFFFFFFFFFFFFFFFFFFFFFFFFFFFFFFFFFFFFFFFFFFFFFFFFFFFFFFFFFFFFFF
310
FFFFFFFFFFFFFFFFFFFFFFFFFFFFFFFFFFFFFFFFFFFFFFFFFFFFFFFFFFFFFFFF
310
FFFFFFFFFFFFFFFFFFFFFFFFFFFFFFFFFFFFFFFFFFFFFFFFFFFFFFFFFFFFFFFF
310
FFFFFFFFFFFFFFFFFFFFFFFFFFFFFFFFFFFFFFFFFFFFFFFFFFFFFFFFFFFFFFFF
310
FDFFFFFFFEFFFFFFFEFFFFFFFEFFFFFF05000000060000000700000008000000
310
090000000A0000000B0000000C0000000D0000000E0000000F00000010000000
310
11000000120000001300000014000000150000001600000017000000FEFFFFFF
310
FFFFFFFFFFFFFFFFFFFFFFFFFFFFFFFFFFFFFFFFFFFFFFFFFFFFFFFFFFFFFFFF
310
FFFFFFFFFFFFFFFFFFFFFFFFFFFFFFFFFFFFFFFFFFFFFFFFFFFFFFFFFFFFFFFF
310
FFFFFFFFFFFFFFFFFFFFFFFFFFFFFFFFFFFFFFFFFFFFFFFFFFFFFFFFFFFFFFFF
310
FFFFFFFFFFFFFFFFFFFFFFFFFFFFFFFFFFFFFFFFFFFFFFFFFFFFFFFFFFFFFFFF
310
FFFFFFFFFFFFFFFFFFFFFFFFFFFFFFFFFFFFFFFFFFFFFFFFFFFFFFFFFFFFFFFF
310
FFFFFFFFFFFFFFFFFFFFFFFFFFFFFFFFFFFFFFFFFFFFFFFFFFFFFFFFFFFFFFFF
310
FFFFFFFFFFFFFFFFFFFFFFFFFFFFFFFFFFFFFFFFFFFFFFFFFFFFFFFFFFFFFFFF
310
FFFFFFFFFFFFFFFFFFFFFFFFFFFFFFFFFFFFFFFFFFFFFFFFFFFFFFFFFFFFFFFF
310
FFFFFFFFFFFFFFFFFFFFFFFFFFFFFFFFFFFFFFFFFFFFFFFFFFFFFFFFFFFFFFFF
310
FFFFFFFFFFFFFFFFFFFFFFFFFFFFFFFFFFFFFFFFFFFFFFFFFFFFFFFFFFFFFFFF
310
FFFFFFFFFFFFFFFFFFFFFFFFFFFFFFFFFFFFFFFFFFFFFFFFFFFFFFFFFFFFFFFF
310
FFFFFFFFFFFFFFFFFFFFFFFFFFFFFFFFFFFFFFFFFFFFFFFFFFFFFFFFFFFFFFFF
310
FFFFFFFFFFFFFFFFFFFFFFFFFFFFFFFFFFFFFFFFFFFFFFFFFFFFFFFFFFFFFFFF
310
52006F006F007400200045006E00740072007900000000000000000000000000
310
0000000000000000000000000000000000000000000000000000000000000000
310
16000500FFFFFFFFFFFFFFFF020000000A00030000000000C000000000000046
310
000000000000000000000000B093EF9A071FD20103000000C000000000000000
310
01004F006C006500000000000000000000000000000000000000000000000000
310
0000000000000000000000000000000000000000000000000000000000000000
310
0A000200FFFFFFFFFFFFFFFFFFFFFFFF00000000000000000000000000000000
310
0000000000000000000000000000000000000000000000001400000000000000
310
010043006F006D0070004F0062006A0000000000000000000000000000000000
310
0000000000000000000000000000000000000000000000000000000000000000
310
120002010100000003000000FFFFFFFF00000000000000000000000000000000
310
0000000000000000000000000000000000000000010000004D00000000000000
310
01004F006C006500310030004E00610074006900760065000000000000000000
310
0000000000000000000000000000000000000000000000000000000000000000
310
1A000200FFFFFFFFFFFFFFFFFFFFFFFF00000000000000000000000000000000
310
0000000000000000000000000000000000000000040000002426000000000000
310
FEFFFFFF02000000FEFFFFFFFFFFFFFFFFFFFFFFFFFFFFFFFFFFFFFFFFFFFFFF
310
FFFFFFFFFFFFFFFFFFFFFFFFFFFFFFFFFFFFFFFFFFFFFFFFFFFFFFFFFFFFFFFF
310
FFFFFFFFFFFFFFFFFFFFFFFFFFFFFFFFFFFFFFFFFFFFFFFFFFFFFFFFFFFFFFFF
310
FFFFFFFFFFFFFFFFFFFFFFFFFFFFFFFFFFFFFFFFFFFFFFFFFFFFFFFFFFFFFFFF
310
FFFFFFFFFFFFFFFFFFFFFFFFFFFFFFFFFFFFFFFFFFFFFFFFFFFFFFFFFFFFFFFF
310
FFFFFFFFFFFFFFFFFFFFFFFFFFFFFFFFFFFFFFFFFFFFFFFFFFFFFFFFFFFFFFFF
310
FFFFFFFFFFFFFFFFFFFFFFFFFFFFFFFFFFFFFFFFFFFFFFFFFFFFFFFFFFFFFFFF
310
FFFFFFFFFFFFFFFFFFFFFFFFFFFFFFFFFFFFFFFFFFFFFFFFFFFFFFFFFFFFFFFF
310
FFFFFFFFFFFFFFFFFFFFFFFFFFFFFFFFFFFFFFFFFFFFFFFFFFFFFFFFFFFFFFFF
310
FFFFFFFFFFFFFFFFFFFFFFFFFFFFFFFFFFFFFFFFFFFFFFFFFFFFFFFFFFFFFFFF
310
FFFFFFFFFFFFFFFFFFFFFFFFFFFFFFFFFFFFFFFFFFFFFFFFFFFFFFFFFFFFFFFF
310
FFFFFFFFFFFFFFFFFFFFFFFFFFFFFFFFFFFFFFFFFFFFFFFFFFFFFFFFFFFFFFFF
310
FFFFFFFFFFFFFFFFFFFFFFFFFFFFFFFFFFFFFFFFFFFFFFFFFFFFFFFFFFFFFFFF
310
FFFFFFFFFFFFFFFFFFFFFFFFFFFFFFFFFFFFFFFFFFFFFFFFFFFFFFFFFFFFFFFF
310
FFFFFFFFFFFFFFFFFFFFFFFFFFFFFFFFFFFFFFFFFFFFFFFFFFFFFFFFFFFFFFFF
310
FFFFFFFFFFFFFFFFFFFFFFFFFFFFFFFFFFFFFFFFFFFFFFFFFFFFFFFFFFFFFFFF
310
0100000200000000000000000000000000000000000000000000000000000000
310
0000000000000000000000000000000000000000000000000000000000000000
310
0100FEFF030A0000FFFFFFFF0A00030000000000C00000000000004607000000
310
5042727573680007000000504272757368000700000050427275736800F439B2
310
7100000000000000000000000000000000000000000000000000000000000000
310
0000000000000000000000000000000000000000000000000000000000000000
310
0000000000000000000000000000000000000000000000000000000000000000
310
0000000000000000000000000000000000000000000000000000000000000000
310
0000000000000000000000000000000000000000000000000000000000000000
310
0000000000000000000000000000000000000000000000000000000000000000
310
0000000000000000000000000000000000000000000000000000000000000000
310
0000000000000000000000000000000000000000000000000000000000000000
310
0000000000000000000000000000000000000000000000000000000000000000
310
0000000000000000000000000000000000000000000000000000000000000000
310
0000000000000000000000000000000000000000000000000000000000000000
310
0000000000000000000000000000000000000000000000000000000000000000
310
20260000424D0E260000000000003E00000028000000B40200006E0000000100
310
01000000000000000000130B0000130B00000200000002000000000000FFFFFF
310
FFFFFFFFFFFFFFFFFFFFFFFFFFFFFFFFFFFFFFFFFFFFFFFFFFFFFFFFFFFFFFFF
310
FFFFFFFFFFFFFFFFFFFFFFFFFFFFFFFFFFFFFFFFFFFFFFFFFFFFFFFFFFFFFFFF
310
FFFFFFFFFFFFFFFFFFFFFFFFFFFFFFFFFFFFFFFFFFFFFFFFF000FFFFFFFFFFFF
310
FFFFFFFFFFFFFFFFFFFFFFFFFFFFFFFFFFFFFFFFFFFFFFFFFFFFFFFFFFFFFFFF
310
FFFFFFFFFFFFFFFFFFFFFFFFFFFFFFFFFFFFFFFFFFFFFFFFFFFFFFFFFFFFFFFF
310
FFFFFFFFFFFFFFFFFFFFFFFFFFFFFFFFF000FFFFFFFFFFFFFFFFFFFFFFFFFFFF
310
FFFFFFFFFFFFFFFFFFFFFFFFFFFFFFFFFFFFFFFFFFFFFFFFFFFFFFFFFFFFFFFF
310
FFFFFFFFFFFFFFFFFFFFFFFFFFFFFFFFFFFFFFFFFFFFFFFFFFFFFFFFFFFFFFFF
310
FFFFFFFFFFFFFFFFF000FFFFFFFFFFFFFFFFFFFFFFFFFFFFFFFFFFFFFFFFFFFF
310
FFFFFFFFFFFFFFFFFFFFFFFFFFFFFFFFFFFFFFFFFFFFFFFFFFFFFFFFFFFFFFFF
310
FFFFFFFFFFFFFFFFFFFFFFFFFFFFFFFFFFFFFFFFFFFFFFFFFFFFFFFFFFFFFFFF
310
F000FFFFFFFFFFFFFFFFFFFFFFFFFFFFFFFFFFFFFFFFFFFFFFFFFFFFFFFFFFFF
310
FFFFFFFFFFFFFFFFFFFFFFFFFFFFFFFFFFFFFFFFFFFFFFFFFFFFFFFFFFFFFFFF
310
FFFFFFFFFFFFFFFFFFFFFFFFFFFFFFFFFFFFFFFFFFFFFFFFF000FFFFFFFFFFFF
310
FFFFFFFFFFFFFFFFFFFFFFFFFFFFFFFFFFFFFFFFFFFFFFFFFFFFFFFFFFFFFFFF
310
FFFFFFFFFFFFFFFFFFFFFFFFFFFFFFFFFFFFFFFFFFFFFFFFFFFFFFFFFFFFFFFF
310
FFFFFFFFFFFFFFFFFFFFFFFFFFFFFFFFF000FFFFFFFFFFFFFFFFFFFFFFFFFFFF
310
FFFFFFFFFFFFFFFFFFFFFFFFFFFFFFFFFFFFFFFFFFFFFFFFFFFFFFFFFFFFFFFF
310
FFFFFFFFFFFFFFFFFFFFFFFFFFFFFFFFFFFFFFFFFFFFFFFFFFFFFFFFFFFFFFFF
310
FFFFFFFFFFFFFFFFF000FFFFFFFFFFFFFFFFFFFFFFFFFFFFFFFFFFFFFFFFFFFF
310
FFFFFFFFFFFFFFFFFFFFFFFFFFFFFFFFFFFFFFFFFFFFFFFFFFFFFFFFFFFFFFFF
310
FFFFFFFFFFFFFFFFFFFFFFFFFFFFFFFFFFFFFFFFFFFFFFFFFFFFFFFFFFFFFFFF
310
F000FFFFFFFFFFFFFFFFFFFFFFFFFFFFFFFFFFFFFFFFFFFFFFFFFFFFFFFFFFFF
310
FFFFFFFFFFFFFFFFFFFFFFFFFFFFFFFFFFFFFFFFFFFFFFFFFFFFFFFFFFFFFFFF
310
FFFFFFFFFFFFFFFFFFFFFFFFFFFFFFFFFFFFFFFFFFFFFFFFF000FFFFFFFFFFFF
310
FFFFFFFFFFFFFFFFFFFFFFFFFFFFFFFFFFFFFFFFFFFFFFFFFFFFFFFFFFFFFFFF
310
FFFFFFFFFFFFFFFFFFFFFFFFFFFFFFFFFFFFFFFFFFFFFFFFFFFFFFFFFFFFFFFF
310
FFFFFFFFFFFFFFFFFFFFFFFFFFFFFFFFF000FFFFFFFFFFFFFFFFFFFFFFFFFFFF
310
FFFFFFFFFFFFFFFFFFFFFFFFFFFFFFFFFFFFFFFFFFFFFFFFFFFFFFFFFFFFFFFF
310
FFFFFFFFFFFFFFFFFFFFFFFFFFFFFFFFFFFFFFFFFFFFFFFFFFFFFFFFFFFFFFFF
310
FFFFFFFFFFFFFFFFF000FFFFFFFFFFFFFFFFFFFFFFFFFFFFFFFFFFFFFFFFFFFF
310
FFFFFFFFFFFFFFFFFFFFFFFFFFFFFFFFFFFFFFFFFFFFFFFFFFFFFFFFFFFFFFFF
310
FFFFFFFFFFFFFFFFFFFFFFFFFFFFFFFFFFFFFFFFFFFFFFFFFFFFFFFFFFFFFFFF
310
F000FFFFFFFFFFFFFFFFFFFFFFFFFFFFFFFFFFFFFFFFFFFFFFFFFFFFFFFFFFFF
310
FFFFFFFFFFFFFFFFFFFFFFFFFFFFFFFFFFFFFFFFFFFFFFFFFFFFFFFFFFFFFFFF
310
FFFFFFFFFFFFFFFFFFFFFFFFFFFFFFFFFFFFFFFFFFFFFFFFF000FFFFFFFFFFFF
310
FFFFFFFFFFFFFFFFFFFFFFFFFFFFFFFFFFFFFFFFFFFFFFFFFFFFFFFFFFFFFFFF
310
FFFFFFFFFFFFFFFFFFFFFFFFFFFFFFFFFFFFFFFFFFFFFFFFFFFFFFFFFFFFFFFF
310
FFFFFFFFFFFFFFFFFFFFFFFFFFFFFFFFF000FFFFFFFFFFFFFFFFFFFFFFFFFFFF
310
FFFFFFFFFFFFFFFFFFFFFFFFFFFFFFFFFFFFFFFFFFFFFFFFFFFFFFFFFFFFFFFF
310
FFFFFFFFFFFFFFFFFFFFFFFFFFFFFFFFFFFFFFFFFFFFFFFFFFFFFFFFFFFFFFFF
310
FFFFFFFFFFFFFFFFF000FFFFFFFFFFFFFFFFFFFFFFFFFFFFFFFFFFFFFFFFFFFF
310
FFFFFFFFFFFFFFFFFFFFFFFFFFFFFFFFFFFFFFFFFFFFFFFFFFFFFFFFFFFFFFFF
310
FFFFFFFFFFFFFFFFFFFFFFFFFFFFFFFFFFFFFFFFFFFFFFFFFFFFFFFFFFFFFFFF
310
F000FFFFFFFFFFFFFFFFFFFFFFFFFFFFFFFFFFFFFFFFFFFFFFFFFFFFFFFFFFFF
310
FFFFFFFFFFFFFFFFFFFFFFFFFFFFFFFFFFFFFFFFFFFFFFFFFFFFFFFFFFFFFFFF
310
FFFFFFFFFFFFFFFFFFFFFFFFFFFFFFFFFFFFFFFFFFFFFFFFF000FFFFFFFFFFFF
310
FFFFFFFFFFFFFFFFFFFFFFFFFFFFFFFFFFFFFFFFFFFFFFFFFFFFFFFFFFFFFFFF
310
FFFFFFFFFFFFFFFFFFFFFFFFFFFFFFFFFFFFFFFFFFFFFFFFFFFFFFFFFFFFFFFF
310
FFFFFFFFFFFFFFFFFFFFFFFFFFFFFFFFF000FFFFFFFFFFFFFFFFFFFFFFFFFFFF
310
FFFFFFFFFFFFFFFFFFFFFFFFFFFFFFFFFFFFFFFFFFFFFFFFFFFFFFFFFFFFFFFF
310
FFFFFFFFFFFFFFFFFFFFFFFFFFFFFFFFFFFFFFFFFFFFFFFFFFFFFFFFFFFFFFFF
310
FFFFFFFFFFFFFFFFF000FFFFF80003FFFFFFFFFFFFFFFFFFFFFFFFFFFFFFFFFF
310
FFFFF00007FFFFFFFFFF00007FFFFFF800000000000000007FFFFFFFFFFFFFFF
310
FFFFFFFC001FFFFFFFFFFFFFFC001FFFFFFFFFFFFFFFFFFFFFFFFFFE0007FFFF
310
F000FFFF8000007FFFFFFFF8000FFFFFC0007FFFFF80007FFFFF0000007FFFFF
310
FFF8000007FFFFF800000000000000007FFFFFF0001FFFFFFFFFFFC00001FFFF
310
FFFFFFFFC00001FFFFFFFF000000000003FFFFE000007FFFF000FFFE0000000F
310
FFFFFFF0000FFFFF80007FFFFF80007FFFFC0000001FFFFFFFC0000001FFFFF8
310
00000000000000007FFFFFF0001FFFFFFFFFFE0000003FFFFFFFFFFE0000003F
310
FFFFFF000000000003FFFF0000000FFFF000FFF800000003FFFFFFF00007FFFF
310
80007FFFFF80007FFFF000000007FFFFFF000000003FFFF80000000000000000
310
7FFFFFF0001FFFFFFFFFF80000000FFFFFFFFFF80000000FFFFFFF0000000000
310
03FFFC00000003FFF000FFE000000000FFFFFFF00007FFFF80003FFFFF80007F
310
FFC000000001FFFFFC000000001FFFF800000000000000007FFFFFF0001FFFFF
310
FFFFE000000003FFFFFFFFE000000003FFFFFF000000000003FFF000000000FF
310
F000FF80000000007FFFFFF00007FFFF80003FFFFF80007FFF8000000000FFFF
310
F80000000007FFF800000000000000007FFFFFF0001FFFFFFFFFC000000001FF
310
FFFFFFC000000001FFFFFF000000000003FFC0000000007FF000FF0000000000
310
3FFFFFE00007FFFF00003FFFFF80007FFE00000000003FFFF00000000003FFF8
310
00000000000000007FFFFFF0001FFFFFFFFF8000000000FFFFFFFF8000000000
310
FFFFFF000000000003FF80000000003FF000FE00000000001FFFFFE00003FFFF
310
00003FFFFF80007FFC00000000001FFFE00000000001FFF8000001FFFE000000
310
7FFFFFF0001FFFFFFFFE00000000003FFFFFFE00000000003FFFFF0000000000
310
03FF00000000001FF000FC00000000000FFFFFE00003FFFF00001FFFFF80007F
310
F800000000001FFFC00000000000FFF8000001FFFE0000007FFFFFF0001FFFFF
310
FFFC00000000001FFFFFFC00000000001FFFFF000000000003FE00000000000F
310
F000F8000000000007FFFFE00003FFFF00001FFFFF80007FF800000000000FFF
310
800000000000FFF8000001FFFE0000007FFFFFF0001FFFFFFFF800000000000F
310
FFFFF800000000000FFFFF000000000003FC000000000007F000F80000000000
310
03FFFFC00003FFFE00001FFFFF80007FF0000000000007FF0000000000007FF8
310
000001FFFE0000007FFFFFF0001FFFFFFFF0000000000007FFFFF00000000000
310
07FFFF000000000003F8000000000003F000F0000000000003FFFFC00001FFFE
310
00001FFFFF80007FE0000000000007FE0000000000003FF8000001FFFE000000
310
7FFFFFF0001FFFFFFFF0000000000007FFFFF0000000000007FFFF0000000000
310
03F800001F800003F000E00001FFF00001FFFFC00001FFFE00000FFFFF80007F
310
E00001FFE00003FE00001FFF00003FF8000001FFFE0000007FFFFFF0001FFFFF
310
FFE000003E000003FFFFE000003E000003FFFF000000000003F00001FFF80001
310
F000E00007FFFC0001FFFFC00001FFFE00000FFFFF80007FC0000FFFFC0003FC
310
0000FFFFC0001FF8000001FFFE0000007FFFFFF0001FFFFFFFC00003FFE00001
310
FFFFC00003FFE00001FFFF0001FFFFFFFFF00007FFFE0001F000E0000FFFFF00
310
00FFFF800001FFFC00000FFFFF80007FC0001FFFFE0001FC0001FFFFE0001FF8
310
000001FFFE0000007FFFFFF0001FFFFFFF80000FFFF80000FFFF80000FFFF800
310
00FFFF0003FFFFFFFFE0000FFFFF8000F000C0003FFFFF8000FFFF800000FFFC
310
000007FFFF80007F80003FFFFF0001FC0003FFFFF0001FF8000001FFFE000000
310
7FFFFFF0001FFFFFFF80003FFFFE0000FFFF80003FFFFE0000FFFF0003FFFFFF
310
FFE0003FFFFF8000F000C0003FFFFF8000FFFF800000FFFC000007FFFF80007F
310
80007FFFFF8001F80007FFFFF8000FF8000001FFFE0000007FFFFFF0001FFFFF
310
FF00007FFFFF00007FFF00007FFFFF00007FFF0003FFFFFFFFE0003FFFFFC000
310
F000C0007FFFFFC000FFFF000000FFFC000007FFFF80007F8000FFFFFF8000F8
310
000FFFFFF8000FF8000001FFFE0000007FFFFFF0001FFFFFFF0000FFFFFF8000
310
7FFF0000FFFFFF80007FFF0003FFFFFFFFC0007FFFFFC00070008000FFFFFFC0
310
00FFFF000000FFF8000007FFFF80007F8000FFFFFF8000F8000FFFFFF8000FF8
310
000001FFFE0000007FFFFFF0001FFFFFFE0001FFFFFFC0003FFE0001FFFFFFC0
310
003FFF0003FFFFFFFFC0007FFFFFE00070008000FFFFFFC0007FFF0000007FF8
310
000003FFFF80007F0001FFFFFF8000F8000FFFFFF8000FF8000001FFFE000000
310
7FFFFFF0001FFFFFFE0001FFFFFFC0003FFE0001FFFFFFC0003FFF0003FFFFFF
310
FFC000FFFFFFE00070008000FFFFFFC0007FFF0000007FF8000003FFFF80007F
310
0001FFFFFF8000F8001FFFFFF8000FF8000001FFFE0000007FFFFFF0001FFFFF
310
FE0003FFFFFFE0003FFE0003FFFFFFE0003FFF0003FFFFFFFFC000FFFFFFE000
310
70008000FFFFFFC0007FFE0000007FF8000003FFFF80007F0001FFFFFF8000F0
310
001FFFFFF8000FF8000001FFFE0000007FFFFFF0001FFFFFFC0003FFFFFFE000
310
1FFC0003FFFFFFE0001FFF0003FFFFFFFFC000FFFFFFC00070008000FFFFFF80
310
007FFE0000007FF0000003FFFF80007F0001FFFFFF0000F0001FFFFFF8000FF8
310
000001FFFE0000007FFFFFF0001FFFFFFC0007FFFFFFF0001FFC0007FFFFFFF0
310
001FFF0003FFFFFFFFC000FFFFFFC00070008001FFFFFF0000FFFE0000003FF0
310
000001FFFF80007F0001FFFFFF0000F8001FFFFFF0000FF8000001FFFE000000
310
7FFFFFF0001FFFFFFC0007FFFFFFF0001FFC0007FFFFFFF0001FFF0003FFFFFF
310
FFC001FFFFFF80007000FFFFFFFFFE0000FFFE0008003FF0008001FFFF80007F
310
FFFFFFFFFC0000FFFFFFFFFFE0000FF8000001FFFE0000007FFFFFF0001FFFFF
310
F8000FFFFFFFF8000FF8000FFFFFFFF8000FFF0003FFFFFFFFFFFFFFFFFF0000
310
7000FFFFFFFFFC0000FFFC0008003FF0008001FFFF80007FFFFFFFFFF80001FF
310
FFFFFFFF80000FF8000001FFFE0000007FFFFFF0001FFFFFF8000FFFFFFFF800
310
0FF8000FFFFFFFF8000FFF0003FFFFFFFFFFFFFFFFFE0000F000FFFFFFFFE000
310
00FFFC000C003FE000C001FFFF80007FFFFFFFFFC00001FFFFFFFFFE00001FF8
310
000001FFFE0000007FFFFFF0001FFFFFF8000FFFFFFFF8000FF8000FFFFFFFF8
310
000FFF0003FFFFFFFFFFFFFFFFF00000F000FFFFFFFE000001FFFC000C001FE0
310
00C000FFFF80007FFFFFFFFE000001FFFFFFFFE000001FF80FFFFFFFFFFFFFC0
310
7FFFFFF0001FFFFFF8000FFFFFFFF8000FF8000FFFFFFFF8000FFF0003FFFFFF
310
FFFFFFFFFF800000F000FFFFFFC0000001FFFC001C001FE001C000FFFF80007F
310
FFFFFF80000003FFFFFFF80000001FF80FFFFFFFFFFFFFC07FFFFFF0001FFFFF
310
F8001FFFFFFFFC000FF8001FFFFFFFFC000FFF0003FFFFFFFFFFFFFFF0000001
310
F000FFFFF800000001FFF8001C001FE001C000FFFF80007FFFFFF800000003FF
310
FFFF800000003FF80FFFFFFFFFFFFFC07FFFFFF0001FFFFFF8001FFFFFFFFC00
310
0FF8001FFFFFFFFC000FFF0003FFFFFFFFFFFFFE00000001F000FFFFC0000000
310
03FFF8001E001FC001E000FFFF80007FFFFF8000000007FFFFFC000000003FF8
310
0FFFFFFFFFFFFFC07FFFFFF0001FFFFFF8001FFFFFFFFC000FF8001FFFFFFFFC
310
000FFF0003FFFFFFFFFFFFE000000003F000FFFE0000000007FFF8001E000FC0
310
01E0007FFF80007FFFFE0000000007FFFFE0000000007FF80FFFFFFFFFFFFFC0
310
7FFFFFF0001FFFFFF0001FFFFFFFFC0007F0001FFFFFFFFC0007FF0003FFFFFF
310
FFFFFF0000000003F000FFF80000000007FFF8001E000FC003E0007FFF80007F
310
FFF0000000000FFFFF8000000000FFF80FFFFFFFFFFFFFC07FFFFFF0001FFFFF
310
F0001FFFFFFFFC0007F0001FFFFFFFFC0007FF0003FFFFFFFFFFFC0000000007
310
F000FFE0000000000FFFF0003E000FC003E0007FFF80007FFFC0000000001FFF
310
FE0000000001FFF80FFFFFFFFFFFFFC07FFFFFF0001FFFFFF0001FFFFFFFFC00
310
07F0001FFFFFFFFC0007FF0003FFFFFFFFFFF0000000000FF000FFC000000000
310
1FFFF0003F000F8003F0003FFF80007FFF80000000003FFFF80000000003FFF8
310
0FFFFFFFFFFFFFC07FFFFFF0001FFFFFF0001FFFFFFFFC0007F0001FFFFFFFFC
310
0007FF0003FFFFFFFFFFE0000000001FF000FF00000000007FFFF0003F000780
310
03F0003FFF80007FFF00000000007FFFF00000000007FFF80FFFFFFFFFFFFFC0
310
7FFFFFF0001FFFFFF0001FFFFFFFFC0007F0001FFFFFFFFC0007FF0003FFFFFF
310
FFFF80000000007FF000FE0000000000FFFFE0003F00078007F0003FFF80007F
310
FE0000000001FFFFE0000000001FFFF80FFFFFFFFFFFFFC07FFFFFF0001FFFFF
310
F0001FFFFFFFFC0007F0001FFFFFFFFC0007FF0003FFFFFFFFFF0000000000FF
310
F000FC0000000003FFFFE0007F00078007F0003FFF80007FFC0000000007FFFF
310
C0000000007FFFF80FFFFFFFFFFFFFC07FFFFFF0001FFFFFF8001FFFFFFFFC00
310
0FF8001FFFFFFFFC000FFF0003FFFFFFFFFE0000000003FFF000FC000000000F
310
FFFFE0007F80070007F8001FFF80007FF8000000001FFFFF8000000001FFFFF8
310
0FFFFFFFFFFFFFC07FFFFFF0001FFFFFF8001FFFFFFFFC000FF8001FFFFFFFFC
310
000FFF0003FFFFFFFFFC000000000FFFF000F8000000007FFFFFE0007F800700
310
07F8001FFF80007FF000000000FFFFFF800000000FFFFFF80FFFFFFFFFFFFFC0
310
7FFFFFF0001FFFFFF8000FFFFFFFF8000FF8000FFFFFFFF8000FFF0003FFFFFF
310
FFFC000000007FFFF000F800000007FFFFFFC0007F8003000FF8001FFF80007F
310
F000000007FFFFFF000000007FFFFFF80FFFFFFFFFFFFFC07FFFFFF0001FFFFF
310
F8000FFFFFFFF8000FF8000FFFFFFFF8000FFF0003FFFFFFFFF80000000FFFFF
310
F000F0000000FFFFFFFFC000FF8003000FF8001FFF80007FE0000000FFFFFFFF
310
0000000FFFFFFFF8000001FFFE0000007FFFFFF0001FFFFFF8000FFFFFFFF800
310
0FF8000FFFFFFFF8000FFF0003FFFFFFFFF8000000FFFFFFF000F000000FFFFF
310
FFFFC000FFC002000FF8000FFF80007FE000001FFFFFFFFE000001FFFFFFFFF8
310
000001FFFE0000007FFFFFF0001FFFFFF8000FFFFFFFF8000FF8000FFFFFFFF8
310
000FFF0003FFFFFFFFF000001FFFFFFFF000E00000FFFFFFFFFFC000FFC00200
310
0FFC000FFF80007FE00001FFFFFFFFFE00001FFFFFFFFFF8000001FFFE000000
310
7FFFFFF0001FFFFFFC000FFFFFFFF8001FFC000FFFFFFFF8001FFF0003FFFFFF
310
FFF00001FFFFFFFFF000E00007FFFFFFFFFF8000FFC000001FFC000FFF80007F
310
C0000FFFFFFFFFFE0000FFFFFFFFFFF8000001FFFE0000007FFFFFF0001FFFFF
310
FC0007FFFFFFF0001FFC0007FFFFFFF0001FFF0003FFFFFFFFF00007FFFFFFFF
310
F000E0001FFFFFFFFFFF8000FFC000001FFC000FFF80007FC0003FFFFFFFFFFE
310
0001FFFFFFFFFFF8000001FFFE0000007FFFFFF0001FFFFFFC0007FFFFFFF000
310
1FFC0007FFFFFFF0001FFF0003FFFFFFFFF0001FFFFFFFFFF000E0003FFFFF00
310
03FF8001FFE000001FFC0007FF80007FC0007FFFFF0007FC0003FFFFF0003FF8
310
000001FFFE0000007FFFFFF0001FFFFFFC0003FFFFFFE0001FFC0003FFFFFFE0
310
001FFF0003FFFFFFFFF0003FFFFFFFFFF000E0003FFFFF0001FF8001FFE00000
310
1FFE0007FF80007FC0007FFFFE0003FC0007FFFFE0003FF8000001FFFE000000
310
7FFFFFF0001FFFFFFE0003FFFFFFE0003FFE0003FFFFFFE0003FFF0003FFFFFF
310
FFF0003FFFFF8001F000E0003FFFFF0001FF0001FFE000001FFE0007FF80007F
310
C0007FFFFE0003FC0007FFFFE0003FF8000001FFFE0000007FFFFFF0001FFFFF
310
FE0001FFFFFFC0003FFE0001FFFFFFC0003FFF0003FFFFFFFFF0003FFFFF0001
310
F000E0003FFFFF0003FF0001FFE000003FFE0007FF80007FC0007FFFFE0003FC
310
0007FFFFE0003FF8000001FFFE0000007FFFFFF0001FFFFFFF0001FFFFFFC000
310
7FFF0001FFFFFFC0007FFF0003FFFFFFFFF0003FFFFF0001F000E0003FFFFE00
310
03FF0003FFF000003FFE0003FF80007FC0007FFFFC0003FE0007FFFFE0003FF8
310
000001FFFE0000007FFFFFF0001FFFFFFF0000FFFFFF80007FFF0000FFFFFF80
310
007FFF0003FFFFFFFFF0003FFFFF0001F000E0003FFFFE0003FF0003FFF00000
310
3FFF0003FF80007FC0007FFFFC0007FE0007FFFFC0003FF8000001FFFE000000
310
7FFFFFF0001FFFFFFF80007FFFFF0000FFFF80007FFFFF0000FFFF0003FFFFFF
310
FFF0003FFFFF0003F000E0003FFFFC0003FE0003FFF000003FFF0003FF80007F
310
E0003FFFF80007FE0003FFFFC0007FF8000001FFFE0000007FFFFFF0001FFFFF
310
FF80003FFFFE0000FFFF80003FFFFE0000FFFF0003FFFFFFFFF0001FFFFE0003
310
F000F0001FFFF80003FE0003FFF000007FFF0001FF80007FE0003FFFF00007FE
310
0001FFFF80007FF8000001FFFE0000007FFFFFF0001FFFFFFFC0000FFFF80001
310
FFFFC0000FFFF80001FFFF0003FFFFFFFFF0001FFFFC0003F000F0000FFFF000
310
07FE0007FFF800007FFF0001FF80007FE0001FFFE00007FF0000FFFE00007FF8
310
000001FFFE0000007FFFFFF0001FFFFFFFC00003FFE00001FFFFC00003FFE000
310
01FFFF0003FFFFFFFFF8000FFFF80003F000F00003FFC00007FC0007FFF80000
310
7FFF8001FF80007FF00007FF80000FFF00007FF80000FFF8000001FFFE000000
310
7F80000000000001FFE000003E000003FFFFE000003E000003FFFF0003FFFFFF
310
FFF80003FFE00007F000F800000000000FFC0007FFF800007FFF8001FF80007F
310
F000000000000FFF000000000000FFF8000001FFFE0000007F80000000000001
310
FFF0000000000007FFFFF0000000000007FFFF0003FFFFFFFFFC00007E000007
310
F000F800000000000FFC0007FFF80000FFFF8000FF80007FF800000000001FFF
310
800000000001FFF8000001FFFE0000007F80000000000001FFF800000000000F
310
FFFFF800000000000FFFFF0003FFFFFFFFFC00000000000FF000FC0000000000
310
1FFC0007FFFC0000FFFF8000FF80007FF800000000003FFFC00000000001FFF8
310
000001FFFE0000007F80000000000001FFF800000000000FFFFFF80000000000
310
0FFFFF0003FFFFFFFFFE00000000001FF000FE00000000003FF8000FFFFC0000
310
FFFF8000FF80007FFC00000000003FFFC00000000003FFF8000001FFFE000000
310
7F80000000000001FFFC00000000001FFFFFFC00000000001FFFFF0003FFFFFF
310
FFFF00000000001FF000FF00000000003FF8000FFFFC0000FFFFC000FF80007F
310
FE00000000007FFFE00000000007FFF8000001FFFE0000007F80000000000001
310
FFFE00000000003FFFFFFE00000000003FFFFF0003FFFFFFFFFF80000000003F
310
F000FF80000000007FF8000FFFFC0001FFFFC0007F80007FFF0000000000FFFF
310
F0000000000FFFF800000000000000007F80000000000001FFFF8000000000FF
310
FFFFFF8000000000FFFFFF0003FFFFFFFFFFC0000000007FF000FFC000000000
310
FFF8000FFFFE0001FFFFC0007F80007FFF8000000001FFFFF8000000001FFFF8
310
00000000000000007F80000000000001FFFFC000000001FFFFFFFFC000000001
310
FFFFFF0003FFFFFFFFFFE000000000FFF000FFE000000003FFF0001FFFFE0001
310
FFFFC0007F80007FFFC000000007FFFFFE000000003FFFF80000000000000000
310
7F80000000000001FFFFE000000003FFFFFFFFE000000003FFFFFF0003FFFFFF
310
FFFFF000000003FFF000FFF80000000FFFF0001FFFFE0001FFFFE0007F80007F
310
FFF00000000FFFFFFF00000000FFFFF800000000000000007F80000000000001
310
FFFFF80000000FFFFFFFFFF80000000FFFFFFF0003FFFFFFFFFFFC0000000FFF
310
F000FFFE0000003FFFF0001FFFFE0003FFFFE0003F80007FFFFC0000003FFFFF
310
FFC0000003FFFFF800000000000000007F80000000000001FFFFFE0000003FFF
310
FFFFFFFE0000003FFFFFFF0003FFFFFFFFFFFF0000003FFFF000FFFF800000FF
310
FFF0001FFFFF0003FFFFE0003F80007FFFFF000001FFFFFFFFF800001FFFFFF8
310
00000000000000007F80000000000001FFFFFFC00001FFFFFFFFFFFFC00001FF
310
FFFFFF0003FFFFFFFFFFFFC00000FFFFF000FFFFF8000FFFFFFFFFFFFFFFFFFF
310
FFFFFFFFFFFFFFFFFFFFF0001FFFFFFFFFFF0000FFFFFFF80000000000000000
310
7FFFFFFFFFFFFFFFFFFFFFFC001FFFFFFFFFFFFFFC001FFFFFFFFFFFFFFFFFFF
310
FFFFFFFC001FFFFFF000FFFFFFFFFFFFFFFFFFFFFFFFFFFFFFFFFFFFFFFFFFFF
310
FFFFFFFFFFFFFFFFFFFFFFFFFFFFFFFFFFFFFFFFFFFFFFFFFFFFFFFFFFFFFFFF
310
FFFFFFFFFFFFFFFFFFFFFFFFFFFFFFFFFFFFFFFFFFFFFFFFFFFFFFFFFFFFFFFF
310
F000FFFFFFFFFFFFFFFFFFFFFFFFFFFFFFFFFFFFFFFFFFFFFFFFFFFFFFFFFFFF
310
FFFFFFFFFFFFFFFFFFFFFFFFFFFFFFFFFFFFFFFFFFFFFFFFFFFFFFFFFFFFFFFF
310
FFFFFFFFFFFFFFFFFFFFFFFFFFFFFFFFFFFFFFFFFFFFFFFFF000FFFFFFFFFFFF
310
FFFFFFFFFFFFFFFFFFFFFFFFFFFFFFFFFFFFFFFFFFFFFFFFFFFFFFFFFFFFFFFF
310
FFFFFFFFFFFFFFFFFFFFFFFFFFFFFFFFFFFFFFFFFFFFFFFFFFFFFFFFFFFFFFFF
310
FFFFFFFFFFFFFFFFFFFFFFFFFFFFFFFFF000FFFFFFFFFFFFFFFFFFFFFFFFFFFF
310
FFFFFFFFFFFFFFFFFFFFFFFFFFFFFFFFFFFFFFFFFFFFFFFFFFFFFFFFFFFFFFFF
310
FFFFFFFFFFFFFFFFFFFFFFFFFFFFFFFFFFFFFFFFFFFFFFFFFFFFFFFFFFFFFFFF
310
FFFFFFFFFFFFFFFFF000FFFFFFFFFFFFFFFFFFFFFFFFFFFFFFFFFFFFFFFFFFFF
310
FFFFFFFFFFFFFFFFFFFFFFFFFFFFFFFFFFFFFFFFFFFFFFFFFFFFFFFFFFFFFFFF
310
FFFFFFFFFFFFFFFFFFFFFFFFFFFFFFFFFFFFFFFFFFFFFFFFFFFFFFFFFFFFFFFF
310
F000FFFFFFFFFFFFFFFFFFFFFFFFFFFFFFFFFFFFFFFFFFFFFFFFFFFFFFFFFFFF
310
FFFFFFFFFFFFFFFFFFFFFFFFFFFFFFFFFFFFFFFFFFFFFFFFFFFFFFFFFFFFFFFF
310
FFFFFFFFFFFFFFFFFFFFFFFFFFFFFFFFFFFFFFFFFFFFFFFFF000FFFFFFFFFFFF
310
FFFFFFFFFFFFFFFFFFFFFFFFFFFFFFFFFFFFFFFFFFFFFFFFFFFFFFFFFFFFFFFF
310
FFFFFFFFFFFFFFFFFFFFFFFFFFFFFFFFFFFFFFFFFFFFFFFFFFFFFFFFFFFFFFFF
310
FFFFFFFFFFFFFFFFFFFFFFFFFFFFFFFFF000FFFFFFFFFFFFFFFFFFFFFFFFFFFF
310
FFFFFFFFFFFFFFFFFFFFFFFFFFFFFFFFFFFFFFFFFFFFFFFFFFFFFFFFFFFFFFFF
310
FFFFFFFFFFFFFFFFFFFFFFFFFFFFFFFFFFFFFFFFFFFFFFFFFFFFFFFFFFFFFFFF
310
FFFFFFFFFFFFFFFFF000FFFFFFFFFFFFFFFFFFFFFFFFFFFFFFFFFFFFFFFFFFFF
310
FFFFFFFFFFFFFFFFFFFFFFFFFFFFFFFFFFFFFFFFFFFFFFFFFFFFFFFFFFFFFFFF
310
FFFFFFFFFFFFFFFFFFFFFFFFFFFFFFFFFFFFFFFFFFFFFFFFFFFFFFFFFFFFFFFF
310
F000FFFFFFFFFFFFFFFFFFFFFFFFFFFFFFFFFFFFFFFFFFFFFFFFFFFFFFFFFFFF
310
FFFFFFFFFFFFFFFFFFFFFFFFFFFFFFFFFFFFFFFFFFFFFFFFFFFFFFFFFFFFFFFF
310
FFFFFFFFFFFFFFFFFFFFFFFFFFFFFFFFFFFFFFFFFFFFFFFFF000FFFFFFFFFFFF
310
FFFFFFFFFFFFFFFFFFFFFFFFFFFFFFFFFFFFFFFFFFFFFFFFFFFFFFFFFFFFFFFF
310
FFFFFFFFFFFFFFFFFFFFFFFFFFFFFFFFFFFFFFFFFFFFFFFFFFFFFFFFFFFFFFFF
310
FFFFFFFFFFFFFFFFFFFFFFFFFFFFFFFFF000FFFFFFFFFFFFFFFFFFFFFFFFFFFF
310
FFFFFFFFFFFFFFFFFFFFFFFFFFFFFFFFFFFFFFFFFFFFFFFFFFFFFFFFFFFFFFFF
310
FFFFFFFFFFFFFFFFFFFFFFFFFFFFFFFFFFFFFFFFFFFFFFFFFFFFFFFFFFFFFFFF
310
FFFFFFFFFFFFFFFFF000FFFFFFFFFFFFFFFFFFFFFFFFFFFFFFFFFFFFFFFFFFFF
310
FFFFFFFFFFFFFFFFFFFFFFFFFFFFFFFFFFFFFFFFFFFFFFFFFFFFFFFFFFFFFFFF
310
FFFFFFFFFFFFFFFFFFFFFFFFFFFFFFFFFFFFFFFFFFFFFFFFFFFFFFFFFFFFFFFF
310
F000FFFFFFFFFFFFFFFFFFFFFFFFFFFFFFFFFFFFFFFFFFFFFFFFFFFFFFFFFFFF
310
FFFFFFFFFFFFFFFFFFFFFFFFFFFFFFFFFFFFFFFFFFFFFFFFFFFFFFFFFFFFFFFF
310
FFFFFFFFFFFFFFFFFFFFFFFFFFFFFFFFFFFFFFFFFFFFFFFFF000FFFFFFFFFFFF
310
FFFFFFFFFFFFFFFFFFFFFFFFFFFFFFFFFFFFFFFFFFFFFFFFFFFFFFFFFFFFFFFF
310
FFFFFFFFFFFFFFFFFFFFFFFFFFFFFFFFFFFFFFFFFFFFFFFFFFFFFFFFFFFFFFFF
310
FFFFFFFFFFFFFFFFFFFFFFFFFFFFFFFFF000FFFFFFFFFFFFFFFFFFFFFFFFFFFF
310
FFFFFFFFFFFFFFFFFFFFFFFFFFFFFFFFFFFFFFFFFFFFFFFFFFFFFFFFFFFFFFFF
310
FFFFFFFFFFFFFFFFFFFFFFFFFFFFFFFFFFFFFFFFFFFFFFFFFFFFFFFFFFFFFFFF
310
FFFFFFFFFFFFFFFFF000FFFFFFFFFFFFFFFFFFFFFFFFFFFFFFFFFFFFFFFFFFFF
310
FFFFFFFFFFFFFFFFFFFFFFFFFFFFFFFFFFFFFFFFFFFFFFFFFFFFFFFFFFFFFFFF
310
FFFFFFFFFFFFFFFFFFFFFFFFFFFFFFFFFFFFFFFFFFFFFFFFFFFFFFFFFFFFFFFF
310
F000FFFFFFFFFFFFFFFFFFFFFFFFFFFFFFFFFFFFFFFFFFFFFFFFFFFFFFFFFFFF
310
FFFFFFFFFFFFFFFFFFFFFFFFFFFFFFFFFFFFFFFFFFFFFFFFFFFFFFFFFFFFFFFF
310
FFFFFFFFFFFFFFFFFFFFFFFFFFFFFFFFFFFFFFFFFFFFFFFFF000FFFFFFFFFFFF
310
FFFFFFFFFFFFFFFFFFFFFFFFFFFFFFFFFFFFFFFFFFFFFFFFFFFFFFFFFFFFFFFF
310
FFFFFFFFFFFFFFFFFFFFFFFFFFFFFFFFFFFFFFFFFFFFFFFFFFFFFFFFFFFFFFFF
310
FFFFFFFFFFFFFFFFFFFFFFFFFFFFFFFFF000FFFFFFFFFFFFFFFFFFFFFFFFFFFF
310
FFFFFFFFFFFFFFFFFFFFFFFFFFFFFFFFFFFFFFFFFFFFFFFFFFFFFFFFFFFFFFFF
310
FFFFFFFFFFFFFFFFFFFFFFFFFFFFFFFFFFFFFFFFFFFFFFFFFFFFFFFFFFFFFFFF
310
FFFFFFFFFFFFFFFFF000FFFFFFFFFFFFFFFFFFFFFFFFFFFFFFFFFFFFFFFFFFFF
310
FFFFFFFFFFFFFFFFFFFFFFFFFFFFFFFFFFFFFFFFFFFFFFFFFFFFFFFFFFFFFFFF
310
FFFFFFFFFFFFFFFFFFFFFFFFFFFFFFFFFFFFFFFFFFFFFFFFFFFFFFFFFFFFFFFF
310
F000FFFFFFFFFFFFFFFFFFFFFFFFFFFFFFFFFFFFFFFFFFFFFFFFFFFFFFFFFFFF
310
FFFFFFFFFFFFFFFFFFFFFFFFFFFFFFFFFFFFFFFFFFFFFFFFFFFFFFFFFFFFFFFF
310
FFFFFFFFFFFFFFFFFFFFFFFFFFFFFFFFFFFFFFFFFFFFFFFFF000FFFFFFFFFFFF
310
FFFFFFFFFFFFFFFFFFFFFFFFFFFFFFFFFFFFFFFFFFFFFFFFFFFFFFFFFFFFFFFF
310
FFFFFFFFFFFFFFFFFFFFFFFFFFFFFFFFFFFFFFFFFFFFFFFFFFFFFFFFFFFFFFFF
310
FFFFFFFFFFFFFFFFFFFFFFFFFFFFFFFFF0000000000000000000000000000000
310
0000000000000000000000000000000000000000000000000000000000000000
310
0000000000000000000000000000000000000000000000000000000000000000
310
0000000000000000000000000000000000000000000000000000000000000000
310
0000000000000000000000000000000000000000000000000000000000000000
310
0000000000000000000000000000000000000000000000000000000000000000
310
0000000000000000000000000000000000000000000000000000000000000000
310
0000000000000000000000000000000000000000000000000000000000000000
310
0000000000000000000000000000000000000000000000000000000000000000
310
0000000000000000000000000000000000000000000000000000000000000000
310
0000000000000000000000000000000000000000000000000000000000000000
310
0000000000000000000000000000000000000000000000000000000000000000
310
0000000000000000000000000000000000000000000000000000000000000000
310
0000000000000000000000000000000000000000000000000000000000000000
310
0000000000000000000000000000000000000000000000000000000000000000
310
0000000000000000000000000000000000000000000000000000000000000000
  1
OLE
  0
ENDSEC
  0
SECTION
  2
OBJECTS
  0
DICTIONARY
  5
C
330
0
100
AcDbDictionary
281
     1
  3
ACAD_GROUP
350
D
  3
ACAD_LAYOUT
350
1A
  3
ACAD_MLINESTYLE
350
17
  3
ACAD_PLOTSETTINGS
350
19
  3
ACAD_PLOTSTYLENAME
350
E
  3
ACAD_SCALELIST
350
47
  0
DICTIONARY
  5
D
102
{ACAD_REACTORS
330
C
102
}
330
C
100
AcDbDictionary
281
     1
  0
DICTIONARY
  5
1A
102
{ACAD_REACTORS
330
C
102
}
330
C
100
AcDbDictionary
281
     1
  3
Layout1
350
1E
  3
Layout2
350
26
  3
Model
350
22
  0
DICTIONARY
  5
17
102
{ACAD_REACTORS
330
C
102
}
330
C
100
AcDbDictionary
281
     1
  3
Standard
350
18
  0
DICTIONARY
  5
19
102
{ACAD_REACTORS
330
C
102
}
330
C
100
AcDbDictionary
281
     1
  0
ACDBDICTIONARYWDFLT
  5
E
102
{ACAD_REACTORS
330
C
102
}
330
C
100
AcDbDictionary
281
     1
  3
Normal
350
F
100
AcDbDictionaryWithDefault
340
F
  0
DICTIONARY
  5
47
102
{ACAD_REACTORS
330
C
102
}
330
C
100
AcDbDictionary
281
     1
  3
A0
350
48
  3
A1
350
49
  3
A2
350
4A
  3
A3
350
4B
  3
A4
350
4C
  3
A5
350
4D
  3
A6
350
4E
  3
A7
350
4F
  3
A8
350
50
  3
A9
350
51
  3
B0
350
52
  3
B1
350
53
  3
B2
350
54
  3
B3
350
55
  3
B4
350
56
  3
B5
350
57
  3
B6
350
58
  3
B7
350
59
  3
B8
350
5A
  3
B9
350
5B
  3
C0
350
5C
  3
C1
350
5D
  3
C2
350
5E
  3
C3
350
5F
  3
C4
350
60
  3
C5
350
61
  3
C6
350
62
  3
C7
350
63
  3
C8
350
64
  3
C9
350
65
  3
D0
350
66
  3
D1
350
67
  3
D2
350
68
  0
LAYOUT
  5
1E
102
{ACAD_REACTORS
330
1A
102
}
330
1A
100
AcDbPlotSettings
  1

  2
none_device
  4

  6

 40
0.0
 41
0.0
 42
0.0
 43
0.0
 44
0.0
 45
0.0
 46
0.0
 47
0.0
 48
0.0
 49
0.0
140
0.0
141
0.0
142
1.0
143
1.0
 70
   688
 72
     1
 73
     0
 74
     5
  7

 75
    16
147
1.0
148
0.0
149
0.0
100
AcDbLayout
  1
Layout1
 70
     1
 71
     1
 10
0.0
 20
0.0
 11
420.0
 21
297.0
 12
0.0
 22
0.0
 32
0.0
 14
1.0000000000E+20
 24
1.0000000000E+20
 34
1.0000000000E+20
 15
-1.0000000000E+20
 25
-1.0000000000E+20
 35
-1.0000000000E+20
146
0.0
 13
0.0
 23
0.0
 33
0.0
 16
1.0
 26
0.0
 36
0.0
 17
0.0
 27
1.0
 37
0.0
 76
     0
330
1B
  0
LAYOUT
  5
26
102
{ACAD_REACTORS
330
1A
102
}
330
1A
100
AcDbPlotSettings
  1

  2
none_device
  4

  6

 40
0.0
 41
0.0
 42
0.0
 43
0.0
 44
0.0
 45
0.0
 46
0.0
 47
0.0
 48
0.0
 49
0.0
140
0.0
141
0.0
142
1.0
143
1.0
 70
   688
 72
     1
 73
     0
 74
     5
  7

 75
    16
147
1.0
148
0.0
149
0.0
100
AcDbLayout
  1
Layout2
 70
     1
 71
     2
 10
0.0
 20
0.0
 11
0.0
 21
0.0
 12
0.0
 22
0.0
 32
0.0
 14
0.0
 24
0.0
 34
0.0
 15
0.0
 25
0.0
 35
0.0
146
0.0
 13
0.0
 23
0.0
 33
0.0
 16
1.0
 26
0.0
 36
0.0
 17
0.0
 27
1.0
 37
0.0
 76
     0
330
23
  0
LAYOUT
  5
22
102
{ACAD_REACTORS
330
1A
102
}
330
1A
100
AcDbPlotSettings
  1

  2
none_device
  4
Letter_(8.50_x_11.00_Inches)
  6

 40
6.35
 41
6.35
 42
6.35000508
 43
6.35000508
 44
215.9
 45
279.4
 46
0.0
 47
0.0
 48
0.0
 49
0.0
140
0.0
141
0.0
142
1.0
143
1.0
 70
  1712
 72
     1
 73
     0
 74
     0
  7

 75
     0
147
1.0
148
0.0
149
0.0
100
AcDbLayout
  1
Model
 70
     1
 71
     0
 10
0.0
 20
0.0
 11
297.0
 21
210.0
 12
0.0
 22
0.0
 32
0.0
 14
0.0
 24
0.0
 34
0.0
 15
297.0
 25
210.0
 35
0.0
146
0.0
 13
0.0
 23
0.0
 33
0.0
 16
1.0
 26
0.0
 36
0.0
 17
0.0
 27
1.0
 37
0.0
 76
     0
330
1F
331
29
  0
MLINESTYLE
  5
18
102
{ACAD_REACTORS
330
17
102
}
330
17
100
AcDbMlineStyle
  2
Standard
 70
     0
  3

 62
   256
 51
90.0
 52
90.0
 71
     2
 49
0.5
 62
   256
  6
BYLAYER
 49
-0.5
 62
   256
  6
BYLAYER
  0
ACDBPLACEHOLDER
  5
F
102
{ACAD_REACTORS
330
E
102
}
330
E
  0
SCALE
  5
48
102
{ACAD_REACTORS
330
47
102
}
330
47
100
AcDbScale
 70
     0
300
1:1
140
1.0
141
1.0
290
     1
  0
SCALE
  5
49
102
{ACAD_REACTORS
330
47
102
}
330
47
100
AcDbScale
 70
     0
300
1:2
140
1.0
141
2.0
290
     0
  0
SCALE
  5
4A
102
{ACAD_REACTORS
330
47
102
}
330
47
100
AcDbScale
 70
     0
300
1:4
140
1.0
141
4.0
290
     0
  0
SCALE
  5
4B
102
{ACAD_REACTORS
330
47
102
}
330
47
100
AcDbScale
 70
     0
300
1:5
140
1.0
141
5.0
290
     0
  0
SCALE
  5
4C
102
{ACAD_REACTORS
330
47
102
}
330
47
100
AcDbScale
 70
     0
300
1:8
140
1.0
141
8.0
290
     0
  0
SCALE
  5
4D
102
{ACAD_REACTORS
330
47
102
}
330
47
100
AcDbScale
 70
     0
300
1:10
140
1.0
141
10.0
290
     0
  0
SCALE
  5
4E
102
{ACAD_REACTORS
330
47
102
}
330
47
100
AcDbScale
 70
     0
300
1:16
140
1.0
141
16.0
290
     0
  0
SCALE
  5
4F
102
{ACAD_REACTORS
330
47
102
}
330
47
100
AcDbScale
 70
     0
300
1:20
140
1.0
141
20.0
290
     0
  0
SCALE
  5
50
102
{ACAD_REACTORS
330
47
102
}
330
47
100
AcDbScale
 70
     0
300
1:30
140
1.0
141
30.0
290
     0
  0
SCALE
  5
51
102
{ACAD_REACTORS
330
47
102
}
330
47
100
AcDbScale
 70
     0
300
1:40
140
1.0
141
40.0
290
     0
  0
SCALE
  5
52
102
{ACAD_REACTORS
330
47
102
}
330
47
100
AcDbScale
 70
     0
300
1:50
140
1.0
141
50.0
290
     0
  0
SCALE
  5
53
102
{ACAD_REACTORS
330
47
102
}
330
47
100
AcDbScale
 70
     0
300
1:100
140
1.0
141
100.0
290
     0
  0
SCALE
  5
54
102
{ACAD_REACTORS
330
47
102
}
330
47
100
AcDbScale
 70
     0
300
2:1
140
2.0
141
1.0
290
     0
  0
SCALE
  5
55
102
{ACAD_REACTORS
330
47
102
}
330
47
100
AcDbScale
 70
     0
300
4:1
140
4.0
141
1.0
290
     0
  0
SCALE
  5
56
102
{ACAD_REACTORS
330
47
102
}
330
47
100
AcDbScale
 70
     0
300
8:1
140
8.0
141
1.0
290
     0
  0
SCALE
  5
57
102
{ACAD_REACTORS
330
47
102
}
330
47
100
AcDbScale
 70
     0
300
10:1
140
10.0
141
1.0
290
     0
  0
SCALE
  5
58
102
{ACAD_REACTORS
330
47
102
}
330
47
100
AcDbScale
 70
     0
300
100:1
140
100.0
141
1.0
290
     0
  0
SCALE
  5
59
102
{ACAD_REACTORS
330
47
102
}
330
47
100
AcDbScale
 70
     0
300
1/128" = 1'-0"
140
0.0078125
141
12.0
290
     0
  0
SCALE
  5
5A
102
{ACAD_REACTORS
330
47
102
}
330
47
100
AcDbScale
 70
     0
300
1/64" = 1'-0"
140
0.015625
141
12.0
290
     0
  0
SCALE
  5
5B
102
{ACAD_REACTORS
330
47
102
}
330
47
100
AcDbScale
 70
     0
300
1/32" = 1'-0"
140
0.03125
141
12.0
290
     0
  0
SCALE
  5
5C
102
{ACAD_REACTORS
330
47
102
}
330
47
100
AcDbScale
 70
     0
300
1/16" = 1'-0"
140
0.0625
141
12.0
290
     0
  0
SCALE
  5
5D
102
{ACAD_REACTORS
330
47
102
}
330
47
100
AcDbScale
 70
     0
300
3/32" = 1'-0"
140
0.09375
141
12.0
290
     0
  0
SCALE
  5
5E
102
{ACAD_REACTORS
330
47
102
}
330
47
100
AcDbScale
 70
     0
300
1/8" = 1'-0"
140
0.125
141
12.0
290
     0
  0
SCALE
  5
5F
102
{ACAD_REACTORS
330
47
102
}
330
47
100
AcDbScale
 70
     0
300
3/16" = 1'-0"
140
0.1875
141
12.0
290
     0
  0
SCALE
  5
60
102
{ACAD_REACTORS
330
47
102
}
330
47
100
AcDbScale
 70
     0
300
1/4" = 1'-0"
140
0.25
141
12.0
290
     0
  0
SCALE
  5
61
102
{ACAD_REACTORS
330
47
102
}
330
47
100
AcDbScale
 70
     0
300
3/8" = 1'-0"
140
0.375
141
12.0
290
     0
  0
SCALE
  5
62
102
{ACAD_REACTORS
330
47
102
}
330
47
100
AcDbScale
 70
     0
300
1/2" = 1'-0"
140
0.5
141
12.0
290
     0
  0
SCALE
  5
63
102
{ACAD_REACTORS
330
47
102
}
330
47
100
AcDbScale
 70
     0
300
3/4" = 1'-0"
140
0.75
141
12.0
290
     0
  0
SCALE
  5
64
102
{ACAD_REACTORS
330
47
102
}
330
47
100
AcDbScale
 70
     0
300
1" = 1'-0"
140
1.0
141
12.0
290
     0
  0
SCALE
  5
65
102
{ACAD_REACTORS
330
47
102
}
330
47
100
AcDbScale
 70
     0
300
1-1/2" = 1'-0"
140
1.5
141
12.0
290
     0
  0
SCALE
  5
66
102
{ACAD_REACTORS
330
47
102
}
330
47
100
AcDbScale
 70
     0
300
3" = 1'-0"
140
3.0
141
12.0
290
     0
  0
SCALE
  5
67
102
{ACAD_REACTORS
330
47
102
}
330
47
100
AcDbScale
 70
     0
300
6" = 1'-0"
140
6.0
141
12.0
290
     0
  0
SCALE
  5
68
102
{ACAD_REACTORS
330
47
102
}
330
47
100
AcDbScale
 70
     0
300
1'-0" = 1'-0"
140
12.0
141
12.0
290
     0
  0
ENDSEC
  0
EOF
