  0
SECTION
  2
HEADER
  9
$ACADVER
  1
AC1015
  9
$ACADMAINTVER
 70
     6
  9
$DWGCODEPAGE
  3
ANSI_1252
  9
$INSBASE
 10
0.0
 20
0.0
 30
0.0
  9
$EXTMIN
 10
0.0
 20
0.0
 30
0.0
  9
$EXTMAX
 10
297.0
 20
210.0
 30
0.0
  9
$LIMMIN
 10
0.0
 20
0.0
  9
$LIMMAX
 10
297.0
 20
210.0
  9
$ORTHOMODE
 70
     0
  9
$REGENMODE
 70
     1
  9
$FILLMODE
 70
     1
  9
$QTEXTMODE
 70
     0
  9
$MIRRTEXT
 70
     1
  9
$LTSCALE
 40
1.0
  9
$ATTMODE
 70
     1
  9
$TEXTSIZE
 40
2.0
  9
$TRACEWID
 40
1.0
  9
$TEXTSTYLE
  7
Standard
  9
$CLAYER
  8
0
  9
$CELTYPE
  6
ByLayer
  9
$CECOLOR
 62
   256
  9
$CELTSCALE
 40
1.0
  9
$DISPSILH
 70
     0
  9
$DIMSCALE
 40
1.0
  9
$DIMASZ
 40
3.0
  9
$DIMEXO
 40
0.0
  9
$DIMDLI
 40
3.75
  9
$DIMRND
 40
0.0
  9
$DIMDLE
 40
0.0
  9
$DIMEXE
 40
1.0
  9
$DIMTP
 40
0.0
  9
$DIMTM
 40
0.0
  9
$DIMTXT
 40
2.0
  9
$DIMCEN
 40
2.5
  9
$DIMTSZ
 40
0.0
  9
$DIMTOL
 70
     0
  9
$DIMLIM
 70
     0
  9
$DIMTIH
 70
     1
  9
$DIMTOH
 70
     1
  9
$DIMSE1
 70
     0
  9
$DIMSE2
 70
     0
  9
$DIMTAD
 70
     1
  9
$DIMZIN
 70
     0
  9
$DIMBLK
  1

  9
$DIMASO
 70
     1
  9
$DIMSHO
 70
     1
  9
$DIMPOST
  1

  9
$DIMAPOST
  1

  9
$DIMALT
 70
     0
  9
$DIMALTD
 70
     3
  9
$DIMALTF
 40
0.0393700787
  9
$DIMLFAC
 40
1.0
  9
$DIMTOFL
 70
     1
  9
$DIMTVP
 40
0.0
  9
$DIMTIX
 70
     0
  9
$DIMSOXD
 70
     0
  9
$DIMSAH
 70
     0
  9
$DIMBLK1
  1

  9
$DIMBLK2
  1

  9
$DIMSTYLE
  2
ISO-25
  9
$DIMCLRD
 70
     0
  9
$DIMCLRE
 70
     0
  9
$DIMCLRT
 70
     0
  9
$DIMTFAC
 40
1.0
  9
$DIMGAP
 40
1.524
  9
$DIMJUST
 70
     0
  9
$DIMSD1
 70
     0
  9
$DIMSD2
 70
     0
  9
$DIMTOLJ
 70
     0
  9
$DIMTZIN
 70
     0
  9
$DIMALTZ
 70
     0
  9
$DIMALTTZ
 70
     0
  9
$DIMUPT
 70
     0
  9
$DIMDEC
 70
     2
  9
$DIMTDEC
 70
     3
  9
$DIMALTU
 70
     2
  9
$DIMALTTD
 70
     3
  9
$DIMTXSTY
  7
Standard
  9
$DIMAUNIT
 70
     0
  9
$DIMADEC
 70
     2
  9
$DIMALTRND
 40
0.0
  9
$DIMAZIN
 70
     0
  9
$DIMDSEP
 70
    44
  9
$DIMATFIT
 70
     3
  9
$DIMFRAC
 70
     0
  9
$DIMLDRBLK
  1

  9
$DIMLUNIT
 70
     2
  9
$DIMLWD
 70
    -2
  9
$DIMLWE
 70
    -2
  9
$DIMTMOVE
 70
     0
  9
$LUNITS
 70
     2
  9
$LUPREC
 70
     2
  9
$SKETCHINC
 40
1.0
  9
$FILLETRAD
 40
10.0
  9
$AUNITS
 70
     0
  9
$AUPREC
 70
     2
  9
$MENU
  1
.
  9
$ELEVATION
 40
0.0
  9
$PELEVATION
 40
0.0
  9
$THICKNESS
 40
0.0
  9
$LIMCHECK
 70
     0
  9
$CHAMFERA
 40
0.0
  9
$CHAMFERB
 40
0.0
  9
$CHAMFERC
 40
0.0
  9
$CHAMFERD
 40
0.0
  9
$SKPOLY
 70
     0
  9
$TDCREATE
 40
2457667.62281316
  9
$TDUCREATE
 40
2457667.539479827
  9
$TDUPDATE
 40
2457667.622814306
  9
$TDUUPDATE
 40
2457667.539480972
  9
$TDINDWG
 40
0.0000000116
  9
$TDUSRTIMER
 40
0.0000000116
  9
$USRTIMER
 70
     1
  9
$ANGBASE
 50
0.0
  9
$ANGDIR
 70
     0
  9
$PDMODE
 70
     0
  9
$PDSIZE
 40
-1.0
  9
$PLINEWID
 40
0.0
  9
$SPLFRAME
 70
     0
  9
$SPLINETYPE
 70
     6
  9
$SPLINESEGS
 70
     8
  9
$HANDSEED
  5
216
  9
$SURFTAB1
 70
     6
  9
$SURFTAB2
 70
     6
  9
$SURFTYPE
 70
     6
  9
$SURFU
 70
     6
  9
$SURFV
 70
     6
  9
$UCSBASE
  2

  9
$UCSNAME
  2

  9
$UCSORG
 10
0.0
 20
0.0
 30
0.0
  9
$UCSXDIR
 10
1.0
 20
0.0
 30
0.0
  9
$UCSYDIR
 10
0.0
 20
1.0
 30
0.0
  9
$UCSORTHOREF
  2

  9
$UCSORTHOVIEW
 70
     0
  9
$UCSORGTOP
 10
0.0
 20
0.0
 30
0.0
  9
$UCSORGBOTTOM
 10
0.0
 20
0.0
 30
0.0
  9
$UCSORGLEFT
 10
0.0
 20
0.0
 30
0.0
  9
$UCSORGRIGHT
 10
0.0
 20
0.0
 30
0.0
  9
$UCSORGFRONT
 10
0.0
 20
0.0
 30
0.0
  9
$UCSORGBACK
 10
0.0
 20
0.0
 30
0.0
  9
$PUCSBASE
  2

  9
$PUCSNAME
  2

  9
$PUCSORG
 10
0.0
 20
0.0
 30
0.0
  9
$PUCSXDIR
 10
1.0
 20
0.0
 30
0.0
  9
$PUCSYDIR
 10
0.0
 20
1.0
 30
0.0
  9
$PUCSORTHOREF
  2

  9
$PUCSORTHOVIEW
 70
     0
  9
$PUCSORGTOP
 10
0.0
 20
0.0
 30
0.0
  9
$PUCSORGBOTTOM
 10
0.0
 20
0.0
 30
0.0
  9
$PUCSORGLEFT
 10
0.0
 20
0.0
 30
0.0
  9
$PUCSORGRIGHT
 10
0.0
 20
0.0
 30
0.0
  9
$PUCSORGFRONT
 10
0.0
 20
0.0
 30
0.0
  9
$PUCSORGBACK
 10
0.0
 20
0.0
 30
0.0
  9
$USERI1
 70
     0
  9
$USERI2
 70
     0
  9
$USERI3
 70
     0
  9
$USERI4
 70
     0
  9
$USERI5
 70
     0
  9
$USERR1
 40
0.0
  9
$USERR2
 40
0.0
  9
$USERR3
 40
0.0
  9
$USERR4
 40
0.0
  9
$USERR5
 40
0.0
  9
$WORLDVIEW
 70
     1
  9
$SHADEDGE
 70
     3
  9
$SHADEDIF
 70
    70
  9
$TILEMODE
 70
     1
  9
$MAXACTVP
 70
    64
  9
$PINSBASE
 10
0.0
 20
0.0
 30
0.0
  9
$PLIMCHECK
 70
     0
  9
$PEXTMIN
 10
1.0000000000E+20
 20
1.0000000000E+20
 30
1.0000000000E+20
  9
$PEXTMAX
 10
-1.0000000000E+20
 20
-1.0000000000E+20
 30
-1.0000000000E+20
  9
$PLIMMIN
 10
0.0
 20
0.0
  9
$PLIMMAX
 10
420.0
 20
297.0
  9
$UNITMODE
 70
     0
  9
$VISRETAIN
 70
     1
  9
$PLINEGEN
 70
     0
  9
$PSLTSCALE
 70
     1
  9
$TREEDEPTH
 70
  3020
  9
$CMLSTYLE
  2
Standard
  9
$CMLJUST
 70
     0
  9
$CMLSCALE
 40
20.0
  9
$PROXYGRAPHICS
 70
     1
  9
$MEASUREMENT
 70
     1
  9
$CELWEIGHT
370
    -1
  9
$ENDCAPS
280
     0
  9
$JOINSTYLE
280
     0
  9
$LWDISPLAY
290
     1
  9
$INSUNITS
 70
     4
  9
$HYPERLINKBASE
  1

  9
$STYLESHEET
  1

  9
$XEDIT
290
     1
  9
$CEPSNTYPE
380
     0
  9
$PSTYLEMODE
290
     1
  9
$FINGERPRINTGUID
  2
{4BD2F6FB-12A1-45B9-B1D8-AA34220C7AE7}
  9
$VERSIONGUID
  2
{FAEB1C32-E019-11D5-929B-00C0DF256EC4}
  9
$EXTNAMES
290
     1
  9
$PSVPSCALE
 40
0.0
  9
$OLESTARTUP
290
     0
  0
ENDSEC
  0
SECTION
  2
CLASSES
  0
CLASS
  1
ACDBDICTIONARYWDFLT
  2
AcDbDictionaryWithDefault
  3
ObjectDBX Classes
 90
        0
280
     0
281
     0
  0
CLASS
  1
VISUALSTYLE
  2
AcDbVisualStyle
  3
ObjectDBX Classes
 90
     4095
280
     0
281
     0
  0
CLASS
  1
MATERIAL
  2
AcDbMaterial
  3
ObjectDBX Classes
 90
     1153
280
     0
281
     0
  0
CLASS
  1
SCALE
  2
AcDbScale
  3
ObjectDBX Classes
 90
     1153
280
     0
281
     0
  0
CLASS
  1
TABLESTYLE
  2
AcDbTableStyle
  3
ObjectDBX Classes
 90
     4095
280
     0
281
     0
  0
CLASS
  1
MLEADERSTYLE
  2
AcDbMLeaderStyle
  3
ACDB_MLEADERSTYLE_CLASS
 90
     4095
280
     0
281
     0
  0
CLASS
  1
SUN
  2
AcDbSun
  3
SCENEOE
 90
     1153
280
     0
281
     0
  0
CLASS
  1
ACDBPLACEHOLDER
  2
AcDbPlaceHolder
  3
ObjectDBX Classes
 90
        0
280
     0
281
     0
  0
CLASS
  1
LAYOUT
  2
AcDbLayout
  3
ObjectDBX Classes
 90
        0
280
     0
281
     0
  0
ENDSEC
  0
SECTION
  2
TABLES
  0
TABLE
  2
VPORT
  5
8
330
0
100
AcDbSymbolTable
 70
     1
  0
VPORT
  5
29
330
8
100
AcDbSymbolTableRecord
100
AcDbViewportTableRecord
  2
*Active
 70
     0
 10
0.0
 20
0.0
 11
1.0
 21
1.0
 12
148.5
 22
105.0
 13
0.0
 23
0.0
 14
10.0
 24
10.0
 15
10.0
 25
10.0
 16
0.0
 26
0.0
 36
1.0
 17
0.0
 27
0.0
 37
0.0
 40
210.0
 41
1.4142857143
 42
50.0
 43
0.0
 44
0.0
 50
0.0
 51
0.0
 71
     0
 72
  2000
 73
     1
 74
     3
 75
     0
 76
     0
 77
     0
 78
     0
281
     0
 65
     1
110
0.0
120
0.0
130
0.0
111
1.0
121
0.0
131
0.0
112
0.0
122
1.0
132
0.0
 79
     0
146
0.0
  0
ENDTAB
  0
TABLE
  2
LTYPE
  5
5
330
0
100
AcDbSymbolTable
 70
     6
  0
LTYPE
  5
14
330
5
100
AcDbSymbolTableRecord
100
AcDbLinetypeTableRecord
  2
ByBlock
 70
     0
  3

 72
    65
 73
     0
 40
0.0
  0
LTYPE
  5
15
330
5
100
AcDbSymbolTableRecord
100
AcDbLinetypeTableRecord
  2
ByLayer
 70
     0
  3

 72
    65
 73
     0
 40
0.0
  0
LTYPE
  5
16
330
5
100
AcDbSymbolTableRecord
100
AcDbLinetypeTableRecord
  2
Continuous
 70
     0
  3
Solid line
 72
    65
 73
     0
 40
0.0
  0
LTYPE
  5
6E
330
5
100
AcDbSymbolTableRecord
100
AcDbLinetypeTableRecord
  2
HIDDEN
 70
     0
  3
Hidden __ __ __ __ __ __ __ __ __ __ __ __ __ __
 72
    65
 73
     2
 40
1.905
 49
1.27
 74
     0
 49
-0.635
 74
     0
  0
LTYPE
  5
6F
330
5
100
AcDbSymbolTableRecord
100
AcDbLinetypeTableRecord
  2
PHANTOM
 70
     0
  3
Phantom ______  __  __  ______  __  __  ______
 72
    65
 73
     6
 40
12.7
 49
6.35
 74
     0
 49
-1.27
 74
     0
 49
1.27
 74
     0
 49
-1.27
 74
     0
 49
1.27
 74
     0
 49
-1.27
 74
     0
  0
LTYPE
  5
70
330
5
100
AcDbSymbolTableRecord
100
AcDbLinetypeTableRecord
  2
CENTER
 70
     0
  3
Center ____ _ ____ _ ____ _ ____ _ ____ _ ____
 72
    65
 73
     4
 40
10.16
 49
6.35
 74
     0
 49
-1.27
 74
     0
 49
1.27
 74
     0
 49
-1.27
 74
     0
  0
LTYPE
  5
71
330
5
100
AcDbSymbolTableRecord
100
AcDbLinetypeTableRecord
  2
CENTERX2
 70
     0
  3
Center (2x) ________  __  ________  __  _____
 72
    65
 73
     4
 40
20.32
 49
12.7
 74
     0
 49
-2.54
 74
     0
 49
2.54
 74
     0
 49
-2.54
 74
     0
  0
LTYPE
  5
72
330
5
100
AcDbSymbolTableRecord
100
AcDbLinetypeTableRecord
  2
DOT2
 70
     0
  3
Dot (.5x) ........................................
 72
    65
 73
     2
 40
0.635
 49
0.0
 74
     0
 49
-0.635
 74
     0
  0
ENDTAB
  0
TABLE
  2
LAYER
  5
2
330
0
100
AcDbSymbolTable
 70
     5
  0
LAYER
  5
10
330
2
100
AcDbSymbolTableRecord
100
AcDbLayerTableRecord
  2
0
 70
     0
 62
     7
  6
Continuous
370
    -3
390
F
  0
LAYER
  5
73
330
2
100
AcDbSymbolTableRecord
100
AcDbLayerTableRecord
  2
FORMAT
 70
     0
 62
     7
  6
Continuous
370
    -3
390
F
  0
LAYER
  5
74
330
2
100
AcDbSymbolTableRecord
100
AcDbLayerTableRecord
  2
VERMASSUNG
 70
     0
 62
     7
  6
Continuous
370
    -3
390
F
  0
LAYER
  5
75
330
2
100
AcDbSymbolTableRecord
100
AcDbLayerTableRecord
  2
KOPF_DÜNN
 70
     0
 62
     7
  6
Continuous
370
    -3
390
F
  0
LAYER
  5
76
330
2
100
AcDbSymbolTableRecord
100
AcDbLayerTableRecord
  2
KOPF_DICK
 70
     0
 62
     7
  6
Continuous
370
    15
390
F
  0
ENDTAB
  0
TABLE
  2
STYLE
  5
3
330
0
100
AcDbSymbolTable
 70
     2
  0
STYLE
  5
11
330
3
100
AcDbSymbolTableRecord
100
AcDbTextStyleTableRecord
  2
Standard
 70
     0
 40
0.0
 41
1.0
 50
0.0
 71
     0
 42
2.0
  3
txt
  4

  0
STYLE
  5
77
330
3
100
AcDbSymbolTableRecord
100
AcDbTextStyleTableRecord
  2
SLDTEXTSTYLE0
 70
     0
 40
0.0
 41
0.7
 50
0.0
 71
     0
 42
2.0
  3
TXT
  4

  0
ENDTAB
  0
TABLE
  2
VIEW
  5
6
330
0
100
AcDbSymbolTable
 70
     0
  0
ENDTAB
  0
TABLE
  2
UCS
  5
7
330
0
100
AcDbSymbolTable
 70
     0
  0
ENDTAB
  0
TABLE
  2
APPID
  5
9
330
0
100
AcDbSymbolTable
 70
     1
  0
APPID
  5
12
330
9
100
AcDbSymbolTableRecord
100
AcDbRegAppTableRecord
  2
ACAD
 70
     0
  0
ENDTAB
  0
TABLE
  2
DIMSTYLE
  5
A
330
0
100
AcDbSymbolTable
 70
     2
100
AcDbDimStyleTable
  0
DIMSTYLE
105
27
330
A
100
AcDbSymbolTableRecord
100
AcDbDimStyleTableRecord
  2
ISO-25
 70
     0
 41
2.5
 42
0.625
 43
3.75
 44
1.25
 73
     0
 74
     0
 77
     1
 78
     8
140
2.5
141
2.5
143
0.0393700787
147
0.625
171
     3
172
     1
178
     0
271
     2
272
     2
274
     3
278
    44
283
     0
284
     8
340
11
  0
DIMSTYLE
105
127
102
{ACAD_REACTORS
330
126
330
133
330
13E
330
14A
330
154
330
160
102
}
330
A
100
AcDbSymbolTableRecord
100
AcDbDimStyleTableRecord
  2
SLDDIMSTYLE0
 70
     0
 41
3.0
 44
0.0
 45
0.000000001
 73
     0
 74
     0
 77
     1
 78
    12
 79
     3
140
2.0
147
0.5
173
     1
178
     0
271
     2
272
     3
276
     2
284
    12
340
77
  0
ENDTAB
  0
TABLE
  2
BLOCK_RECORD
  5
1
330
0
100
AcDbSymbolTable
 70
     7
  0
BLOCK_RECORD
  5
1F
330
1
100
AcDbSymbolTableRecord
100
AcDbBlockTableRecord
  2
*Model_Space
340
22
  0
BLOCK_RECORD
  5
1B
330
1
100
AcDbSymbolTableRecord
100
AcDbBlockTableRecord
  2
*Paper_Space
340
1E
  0
BLOCK_RECORD
  5
23
330
1
100
AcDbSymbolTableRecord
100
AcDbBlockTableRecord
  2
*Paper_Space0
340
26
  0
BLOCK_RECORD
  5
128
330
1
100
AcDbSymbolTableRecord
100
AcDbBlockTableRecord
  2
_D
340
0
  0
BLOCK_RECORD
  5
134
330
1
100
AcDbSymbolTableRecord
100
AcDbBlockTableRecord
  2
_D_1
340
0
  0
BLOCK_RECORD
  5
13F
330
1
100
AcDbSymbolTableRecord
100
AcDbBlockTableRecord
  2
_D_2
340
0
  0
BLOCK_RECORD
  5
14B
330
1
100
AcDbSymbolTableRecord
100
AcDbBlockTableRecord
  2
_D_3
340
0
  0
BLOCK_RECORD
  5
155
330
1
100
AcDbSymbolTableRecord
100
AcDbBlockTableRecord
  2
_D_4
340
0
  0
BLOCK_RECORD
  5
161
330
1
100
AcDbSymbolTableRecord
100
AcDbBlockTableRecord
  2
_D_5
340
0
  0
ENDTAB
  0
ENDSEC
  0
SECTION
  2
BLOCKS
  0
BLOCK
  5
20
330
1F
100
AcDbEntity
  8
0
100
AcDbBlockBegin
  2
*Model_Space
 70
     0
 10
0.0
 20
0.0
 30
0.0
  3
*Model_Space
  1

  0
ENDBLK
  5
21
330
1F
100
AcDbEntity
  8
0
100
AcDbBlockEnd
  0
BLOCK
  5
1C
330
1B
100
AcDbEntity
 67
     1
  8
0
100
AcDbBlockBegin
  2
*Paper_Space
 70
     0
 10
0.0
 20
0.0
 30
0.0
  3
*Paper_Space
  1

  0
ENDBLK
  5
1D
330
1B
100
AcDbEntity
 67
     1
  8
0
100
AcDbBlockEnd
  0
BLOCK
  5
24
330
23
100
AcDbEntity
  8
0
100
AcDbBlockBegin
  2
*Paper_Space0
 70
     0
 10
0.0
 20
0.0
 30
0.0
  3
*Paper_Space0
  1

  0
ENDBLK
  5
25
330
23
100
AcDbEntity
  8
0
100
AcDbBlockEnd
  0
BLOCK
  5
129
330
128
100
AcDbEntity
  8
0
100
AcDbBlockBegin
  2
_D
 70
     0
 10
0.0
 20
0.0
 30
0.0
  3
_D
  1

  0
SOLID
  5
12B
330
128
100
AcDbEntity
  8
VERMASSUNG
100
AcDbTrace
 10
67.6686326974
 20
60.7646129647
 30
0.0
 11
68.1186326974
 21
63.7646129647
 31
0.0
 12
67.2186326974
 22
63.7646129647
 32
0.0
 13
67.2186326974
 23
63.7646129647
 33
0.0
  0
SOLID
  5
12C
330
128
100
AcDbEntity
  8
VERMASSUNG
100
AcDbTrace
 10
67.6686326974
 20
158.2146129647
 30
0.0
 11
67.2186326974
 21
155.2146129647
 31
0.0
 12
68.1186326974
 22
155.2146129647
 32
0.0
 13
68.1186326974
 23
155.2146129647
 33
0.0
  0
LINE
  5
12D
330
128
100
AcDbEntity
  8
VERMASSUNG
100
AcDbLine
 10
193.7671766815
 20
60.7646129647
 30
0.0
 11
66.6686326974
 21
60.7646129647
 31
0.0
  0
LINE
  5
12E
330
128
100
AcDbEntity
  8
VERMASSUNG
100
AcDbLine
 10
193.7671766815
 20
158.2146129647
 30
0.0
 11
66.6686326974
 21
158.2146129647
 31
0.0
  0
LINE
  5
12F
330
128
100
AcDbEntity
  8
VERMASSUNG
100
AcDbLine
 10
67.6686326974
 20
60.7646129647
 30
0.0
 11
67.6686326974
 21
158.2146129647
 31
0.0
  0
MTEXT
  5
130
330
128
100
AcDbEntity
  8
VERMASSUNG
100
AcDbMText
 10
64.8904974412
 20
99.9851773313
 30
0.0
 40
2.0
 41
0.0
 71
     1
 72
     1
  1
ISO 50
  7
SLDTEXTSTYLE0
 11
3.391901413832837E-15
 21
1.0
 31
0.0
 73
     1
 44
1.0
  0
MTEXT
  5
131
330
128
100
AcDbEntity
  8
VERMASSUNG
100
AcDbMText
 10
65.0904973925
 20
108.9851769439
 30
0.0
 40
2.0
 41
0.0
 71
     1
 72
     1
  1
%%c
  7
SLDTEXTSTYLE0
 11
3.391901413832837E-15
 21
1.0
 31
0.0
 73
     1
 44
1.0
  0
MTEXT
  5
132
330
128
100
AcDbEntity
  8
VERMASSUNG
100
AcDbMText
 10
65.0904971014
 20
112.5945202767
 30
0.0
 40
2.0
 41
0.0
 71
     1
 72
     1
  1
97.45
  7
SLDTEXTSTYLE0
 11
3.391901413832837E-15
 21
1.0
 31
0.0
 73
     1
 44
1.0
  0
ENDBLK
  5
12A
330
128
100
AcDbEntity
  8
0
100
AcDbBlockEnd
  0
BLOCK
  5
135
330
134
100
AcDbEntity
  8
0
100
AcDbBlockBegin
  2
_D_1
 70
     0
 10
0.0
 20
0.0
 30
0.0
  3
_D_1
  1

  0
SOLID
  5
137
330
134
100
AcDbEntity
  8
VERMASSUNG
100
AcDbTrace
 10
235.5175906008
 20
123.4896129647
 30
0.0
 11
235.0675906008
 21
120.4896129647
 31
0.0
 12
235.9675906008
 22
120.4896129647
 32
0.0
 13
235.9675906008
 23
120.4896129647
 33
0.0
  0
SOLID
  5
138
330
134
100
AcDbEntity
  8
VERMASSUNG
100
AcDbTrace
 10
235.5175906008
 20
95.4896129647
 30
0.0
 11
235.9675906008
 21
98.4896129647
 31
0.0
 12
235.0675906008
 22
98.4896129647
 32
0.0
 13
235.0675906008
 23
98.4896129647
 33
0.0
  0
LINE
  5
139
330
134
100
AcDbEntity
  8
VERMASSUNG
100
AcDbLine
 10
214.7171766815
 20
123.4896129647
 30
0.0
 11
236.5175906008
 21
123.4896129647
 31
0.0
  0
LINE
  5
13A
330
134
100
AcDbEntity
  8
VERMASSUNG
100
AcDbLine
 10
214.7171766815
 20
95.4896129647
 30
0.0
 11
236.5175906008
 21
95.4896129647
 31
0.0
  0
LINE
  5
13B
330
134
100
AcDbEntity
  8
VERMASSUNG
100
AcDbLine
 10
235.5175906008
 20
123.4896129647
 30
0.0
 11
235.5175906008
 21
95.4896129647
 31
0.0
  0
MTEXT
  5
13C
330
134
100
AcDbEntity
  8
VERMASSUNG
100
AcDbMText
 10
232.9394550631
 20
106.2854368576
 30
0.0
 40
2.0
 41
0.0
 71
     1
 72
     1
  1
%%c
  7
SLDTEXTSTYLE0
 11
-7.044195017643634E-15
 21
1.0
 31
0.0
 73
     1
 44
1.0
  0
MTEXT
  5
13D
330
134
100
AcDbEntity
  8
VERMASSUNG
100
AcDbMText
 10
232.9394550049
 20
109.8944090512
 30
0.0
 40
2.0
 41
0.0
 71
     1
 72
     1
  1
28
  7
SLDTEXTSTYLE0
 11
-7.044195017643634E-15
 21
1.0
 31
0.0
 73
     1
 44
1.0
  0
ENDBLK
  5
136
330
134
100
AcDbEntity
  8
0
100
AcDbBlockEnd
  0
BLOCK
  5
140
330
13F
100
AcDbEntity
  8
0
100
AcDbBlockBegin
  2
_D_2
 70
     0
 10
0.0
 20
0.0
 30
0.0
  3
_D_2
  1

  0
ARC
  5
142
330
13F
100
AcDbEntity
  8
VERMASSUNG
100
AcDbCircle
 10
210.4539701933
 20
165.4454776888
 30
0.0
 40
4.247059938537233
100
AcDbArc
 50
153.4349488229
 51
206.5650511771
  0
ARC
  5
143
330
13F
100
AcDbEntity
  8
VERMASSUNG
100
AcDbCircle
 10
212.2303831697
 20
165.4454776888
 30
0.0
 40
4.247059938537233
100
AcDbArc
 50
333.4349488229
 51
26.5650511771
  0
SOLID
  5
144
330
13F
100
AcDbEntity
  8
VERMASSUNG
100
AcDbTrace
 10
194.3671766815
 20
163.5461347434
 30
0.0
 11
197.3671766815
 21
163.0961347434
 31
0.0
 12
197.3671766815
 22
163.9961347434
 32
0.0
 13
197.3671766815
 23
163.9961347434
 33
0.0
  0
SOLID
  5
145
330
13F
100
AcDbEntity
  8
VERMASSUNG
100
AcDbTrace
 10
228.3171766815
 20
163.5461347434
 30
0.0
 11
225.3171766815
 21
163.9961347434
 31
0.0
 12
225.3171766815
 22
163.0961347434
 32
0.0
 13
225.3171766815
 23
163.0961347434
 33
0.0
  0
LINE
  5
146
330
13F
100
AcDbEntity
  8
VERMASSUNG
100
AcDbLine
 10
194.3671766815
 20
155.7845999179
 30
0.0
 11
194.3671766815
 21
164.5461347434
 31
0.0
  0
LINE
  5
147
330
13F
100
AcDbEntity
  8
VERMASSUNG
100
AcDbLine
 10
228.3171766815
 20
133.9896129647
 30
0.0
 11
228.3171766815
 21
164.5461347434
 31
0.0
  0
LINE
  5
148
330
13F
100
AcDbEntity
  8
VERMASSUNG
100
AcDbLine
 10
194.3671766815
 20
163.5461347434
 30
0.0
 11
228.3171766815
 21
163.5461347434
 31
0.0
  0
MTEXT
  5
149
330
13F
100
AcDbEntity
  8
VERMASSUNG
100
AcDbMText
 10
208.2427843025
 20
166.1242703394
 30
0.0
 40
2.0
 41
0.0
 71
     1
 72
     1
  1
33.95
  7
SLDTEXTSTYLE0
 73
     1
 44
1.0
  0
ENDBLK
  5
141
330
13F
100
AcDbEntity
  8
0
100
AcDbBlockEnd
  0
BLOCK
  5
14C
330
14B
100
AcDbEntity
  8
0
100
AcDbBlockBegin
  2
_D_3
 70
     0
 10
0.0
 20
0.0
 30
0.0
  3
_D_3
  1

  0
SOLID
  5
14E
330
14B
100
AcDbEntity
  8
VERMASSUNG
100
AcDbTrace
 10
175.3171766815
 20
169.5461347434
 30
0.0
 11
178.3171766815
 21
169.0961347434
 31
0.0
 12
178.3171766815
 22
169.9961347434
 32
0.0
 13
178.3171766815
 23
169.9961347434
 33
0.0
  0
SOLID
  5
14F
330
14B
100
AcDbEntity
  8
VERMASSUNG
100
AcDbTrace
 10
228.3171766815
 20
169.5461347434
 30
0.0
 11
225.3171766815
 21
169.9961347434
 31
0.0
 12
225.3171766815
 22
169.0961347434
 32
0.0
 13
225.3171766815
 23
169.0961347434
 33
0.0
  0
LINE
  5
150
330
14B
100
AcDbEntity
  8
VERMASSUNG
100
AcDbLine
 10
175.3171766815
 20
144.4146129647
 30
0.0
 11
175.3171766815
 21
170.5461347434
 31
0.0
  0
LINE
  5
151
330
14B
100
AcDbEntity
  8
VERMASSUNG
100
AcDbLine
 10
228.3171766815
 20
133.9896129647
 30
0.0
 11
228.3171766815
 21
170.5461347434
 31
0.0
  0
LINE
  5
152
330
14B
100
AcDbEntity
  8
VERMASSUNG
100
AcDbLine
 10
175.3171766815
 20
169.5461347434
 30
0.0
 11
228.3171766815
 21
169.5461347434
 31
0.0
  0
MTEXT
  5
153
330
14B
100
AcDbEntity
  8
VERMASSUNG
100
AcDbMText
 10
200.4174866712
 20
172.1242703394
 30
0.0
 40
2.0
 41
0.0
 71
     1
 72
     1
  1
53
  7
SLDTEXTSTYLE0
 73
     1
 44
1.0
  0
ENDBLK
  5
14D
330
14B
100
AcDbEntity
  8
0
100
AcDbBlockEnd
  0
BLOCK
  5
156
330
155
100
AcDbEntity
  8
0
100
AcDbBlockBegin
  2
_D_4
 70
     0
 10
0.0
 20
0.0
 30
0.0
  3
_D_4
  1

  0
ARC
  5
158
330
155
100
AcDbEntity
  8
VERMASSUNG
100
AcDbCircle
 10
150.229341975
 20
177.4454776888
 30
0.0
 40
4.24705993853731
100
AcDbArc
 50
153.4349488229
 51
206.5650511771
  0
ARC
  5
159
330
155
100
AcDbEntity
  8
VERMASSUNG
100
AcDbCircle
 10
151.805011388
 20
177.4454776888
 30
0.0
 40
4.247059938537284
100
AcDbArc
 50
333.4349488229
 51
26.5650511771
  0
SOLID
  5
15A
330
155
100
AcDbEntity
  8
VERMASSUNG
100
AcDbTrace
 10
73.7171766815
 20
175.5461347434
 30
0.0
 11
76.7171766815
 21
175.0961347434
 31
0.0
 12
76.7171766815
 22
175.9961347434
 32
0.0
 13
76.7171766815
 23
175.9961347434
 33
0.0
  0
SOLID
  5
15B
330
155
100
AcDbEntity
  8
VERMASSUNG
100
AcDbTrace
 10
228.3171766815
 20
175.5461347434
 30
0.0
 11
225.3171766815
 21
175.9961347434
 31
0.0
 12
225.3171766815
 22
175.0961347434
 32
0.0
 13
225.3171766815
 23
175.0961347434
 33
0.0
  0
LINE
  5
15C
330
155
100
AcDbEntity
  8
VERMASSUNG
100
AcDbLine
 10
73.7171766815
 20
127.8684574921
 30
0.0
 11
73.7171766815
 21
176.5461347434
 31
0.0
  0
LINE
  5
15D
330
155
100
AcDbEntity
  8
VERMASSUNG
100
AcDbLine
 10
228.3171766815
 20
133.9896129647
 30
0.0
 11
228.3171766815
 21
176.5461347434
 31
0.0
  0
LINE
  5
15E
330
155
100
AcDbEntity
  8
VERMASSUNG
100
AcDbLine
 10
73.7171766815
 20
175.5461347434
 30
0.0
 11
228.3171766815
 21
175.5461347434
 31
0.0
  0
MTEXT
  5
15F
330
155
100
AcDbEntity
  8
VERMASSUNG
100
AcDbMText
 10
148.0181560842
 20
178.1242703394
 30
0.0
 40
2.0
 41
0.0
 71
     1
 72
     1
  1
154.6
  7
SLDTEXTSTYLE0
 73
     1
 44
1.0
  0
ENDBLK
  5
157
330
155
100
AcDbEntity
  8
0
100
AcDbBlockEnd
  0
BLOCK
  5
162
330
161
100
AcDbEntity
  8
0
100
AcDbBlockBegin
  2
_D_5
 70
     0
 10
0.0
 20
0.0
 30
0.0
  3
_D_5
  1

  0
SOLID
  5
164
330
161
100
AcDbEntity
  8
VERMASSUNG
100
AcDbTrace
 10
241.5175906008
 20
134.4896129647
 30
0.0
 11
241.0675906008
 21
131.4896129647
 31
0.0
 12
241.9675906008
 22
131.4896129647
 32
0.0
 13
241.9675906008
 23
131.4896129647
 33
0.0
  0
SOLID
  5
165
330
161
100
AcDbEntity
  8
VERMASSUNG
100
AcDbTrace
 10
241.5175906008
 20
84.4896129647
 30
0.0
 11
241.9675906008
 21
87.4896129647
 31
0.0
 12
241.0675906008
 22
87.4896129647
 32
0.0
 13
241.0675906008
 23
87.4896129647
 33
0.0
  0
LINE
  5
166
330
161
100
AcDbEntity
  8
VERMASSUNG
100
AcDbLine
 10
227.8171766815
 20
134.4896129647
 30
0.0
 11
242.5175906008
 21
134.4896129647
 31
0.0
  0
LINE
  5
167
330
161
100
AcDbEntity
  8
VERMASSUNG
100
AcDbLine
 10
227.8171766815
 20
84.4896129647
 30
0.0
 11
242.5175906008
 21
84.4896129647
 31
0.0
  0
LINE
  5
168
330
161
100
AcDbEntity
  8
VERMASSUNG
100
AcDbLine
 10
241.5175906008
 20
134.4896129647
 30
0.0
 11
241.5175906008
 21
84.4896129647
 31
0.0
  0
MTEXT
  5
169
330
161
100
AcDbEntity
  8
VERMASSUNG
100
AcDbMText
 10
238.7394553446
 20
103.3846137428
 30
0.0
 40
2.0
 41
0.0
 71
     1
 72
     1
  1
ST5
  7
SLDTEXTSTYLE0
 11
-7.044195017643634E-15
 21
1.0
 31
0.0
 73
     1
 44
1.0
  0
MTEXT
  5
16A
330
161
100
AcDbEntity
  8
VERMASSUNG
100
AcDbMText
 10
238.9394552959
 20
109.1846136691
 30
0.0
 40
2.0
 41
0.0
 71
     1
 72
     1
  1
%%c
  7
SLDTEXTSTYLE0
 11
-7.044195017643634E-15
 21
1.0
 31
0.0
 73
     1
 44
1.0
  0
MTEXT
  5
16B
330
161
100
AcDbEntity
  8
VERMASSUNG
100
AcDbMText
 10
238.7394553446
 20
112.7946132177
 30
0.0
 40
2.0
 41
0.0
 71
     1
 72
     1
  1
50
  7
SLDTEXTSTYLE0
 11
-7.044195017643634E-15
 21
1.0
 31
0.0
 73
     1
 44
1.0
  0
ENDBLK
  5
163
330
161
100
AcDbEntity
  8
0
100
AcDbBlockEnd
  0
ENDSEC
  0
SECTION
  2
ENTITIES
  0
MTEXT
  5
78
330
1F
100
AcDbEntity
  8
KOPF_DÜNN
100
AcDbMText
 10
13.8892156294
 20
23.8442973028
 30
0.0
 40
3.0
 41
0.0
 71
     1
 72
     1
  1
114.450.050.053
  7
SLDTEXTSTYLE0
 73
     1
 44
1.0
  0
MTEXT
  5
79
330
1F
100
AcDbEntity
  8
VERMASSUNG
100
AcDbMText
 10
13.9329988022
 20
28.8834360957
 30
0.0
 40
3.0
 41
0.0
 71
     1
 72
     1
  1
Aufnahme_Master shank ST5
  7
SLDTEXTSTYLE0
 73
     1
 44
1.0
  0
MTEXT
  5
7A
330
1F
100
AcDbEntity
  8
VERMASSUNG
100
AcDbMText
 10
98.8601118557
 20
13.8365368761
 30
0.0
 40
2.0
 41
0.0
 71
     1
 72
     1
  1
Datum: 14.05.2008
  7
SLDTEXTSTYLE0
 73
     1
 44
1.0
  0
MTEXT
  5
7B
330
1F
100
AcDbEntity
  8
VERMASSUNG
100
AcDbMText
 10
13.933048693
 20
18.0482802738
 30
0.0
 40
2.0
 41
0.0
 71
     1
 72
     1
  1
DIN 69871 A/D ISO 50
  7
SLDTEXTSTYLE0
 73
     1
 44
1.0
  0
MTEXT
  5
7C
330
1F
100
AcDbEntity
  8
VERMASSUNG
100
AcDbMText
 10
13.9808475933
 20
13.9090974274
 30
0.0
 40
2.0
 41
0.0
 71
     1
 72
     1
  1
Gewicht: 3000g
  7
SLDTEXTSTYLE0
 73
     1
 44
1.0
  0
ARC
  5
7D
330
1F
100
AcDbEntity
  8
0
  6
Continuous
 62
     7
370
    15
100
AcDbCircle
 10
177.9171766815
 20
73.9646129647
 30
0.0
 40
0.6000000000000227
100
AcDbArc
 50
0.0
 51
90.0
  0
ARC
  5
7E
330
1F
100
AcDbEntity
  8
0
  6
Continuous
 62
     7
370
    15
100
AcDbCircle
 10
177.9171766815
 20
145.0146129647
 30
0.0
 40
0.6000000000000227
100
AcDbArc
 50
270.0
 51
0.0
  0
LINE
  5
7F
330
1F
100
AcDbEntity
  8
0
  6
Continuous
 62
     7
370
    15
100
AcDbLine
 10
175.3171766815
 20
144.4146129647
 30
0.0
 11
75.4285628954
 21
129.8475234542
 31
0.0
  0
LINE
  5
80
330
1F
100
AcDbEntity
  8
0
  6
Continuous
 62
     7
370
    15
100
AcDbLine
 10
75.4285628954
 20
89.1317024752
 30
0.0
 11
175.3171766815
 21
74.5646129647
 31
0.0
  0
LINE
  5
81
330
1F
100
AcDbEntity
  8
0
  6
Continuous
 62
     7
370
    15
100
AcDbLine
 10
175.3171766815
 20
74.5646129647
 30
0.0
 11
177.9171766815
 21
74.5646129647
 31
0.0
  0
LINE
  5
82
330
1F
100
AcDbEntity
  8
0
  6
Continuous
 62
     7
370
    15
100
AcDbLine
 10
177.9171766815
 20
144.4146129647
 30
0.0
 11
175.3171766815
 21
144.4146129647
 31
0.0
  0
ARC
  5
83
330
1F
100
AcDbEntity
  8
0
  6
Continuous
 62
     7
370
    15
100
AcDbCircle
 10
198.3671766815
 20
80.4896129647
 30
0.0
 40
4.000000000000028
100
AcDbArc
 50
90.0
 51
180.0
  0
ARC
  5
84
330
1F
100
AcDbEntity
  8
0
  6
Continuous
 62
     7
370
    15
100
AcDbCircle
 10
198.3671766815
 20
138.4896129647
 30
0.0
 40
4.000000000000028
100
AcDbArc
 50
180.0
 51
270.0
  0
LINE
  5
85
330
1F
100
AcDbEntity
  8
0
  6
Continuous
 62
     7
370
    15
100
AcDbLine
 10
227.8171766815
 20
84.4896129647
 30
0.0
 11
228.3171766815
 21
84.9896129647
 31
0.0
  0
LINE
  5
86
330
1F
100
AcDbEntity
  8
0
  6
Continuous
 62
     7
370
    15
100
AcDbLine
 10
228.3171766815
 20
133.9896129647
 30
0.0
 11
227.8171766815
 21
134.4896129647
 31
0.0
  0
LINE
  5
87
330
1F
100
AcDbEntity
  8
0
  6
Continuous
 62
     7
370
    15
100
AcDbLine
 10
227.8171766815
 20
134.4896129647
 30
0.0
 11
198.3671766815
 21
134.4896129647
 31
0.0
  0
LINE
  5
88
330
1F
100
AcDbEntity
  8
0
  6
Continuous
 62
     7
370
    15
100
AcDbLine
 10
198.3671766815
 20
84.4896129647
 30
0.0
 11
227.8171766815
 21
84.4896129647
 31
0.0
  0
ARC
  5
89
330
1F
100
AcDbEntity
  8
0
  6
Continuous
 62
     7
370
    15
100
AcDbCircle
 10
75.7171766815
 20
91.1107684373
 30
0.0
 40
2.0
100
AcDbArc
 50
180.0
 51
261.7028550302
  0
ARC
  5
8A
330
1F
100
AcDbEntity
  8
0
  6
Continuous
 62
     7
370
    15
100
AcDbCircle
 10
75.7171766815
 20
127.8684574921
 30
0.0
 40
2.000000000000024
100
AcDbArc
 50
98.2971449698
 51
180.0
  0
SPLINE
  5
8B
330
1F
100
AcDbEntity
  8
0
  6
Continuous
 62
     7
370
    15
100
AcDbSpline
210
0.0
220
0.0
230
1.0
 70
    24
 71
     3
 72
    11
 73
     7
 74
     0
 42
0.000000001
 43
0.00000001
 40
0.0
 40
0.0
 40
0.0
 40
0.0
 40
0.1285561766307388
 40
0.4801535797842236
 40
0.8150691831753799
 40
1.0
 40
1.0
 40
1.0
 40
1.0
 10
215.1135293292937
 20
112.3722724701531
 30
0.0
 10
215.2171628999155
 20
112.319584692822
 30
0.0
 10
215.6042312712995
 20
112.1227973772733
 30
0.0
 10
216.3300711591253
 20
111.7537770862776
 30
0.0
 10
217.1160026496364
 20
111.3542059519329
 30
0.0
 10
217.5370318960004
 20
111.1401527735159
 30
0.0
 10
217.6868093675945
 20
111.0640052276462
 30
0.0
  0
SPLINE
  5
8C
330
1F
100
AcDbEntity
  8
0
  6
Continuous
 62
     7
370
    15
100
AcDbSpline
210
0.0
220
0.0
230
1.0
 70
    24
 71
     3
 72
    12
 73
     8
 74
     0
 42
0.000000001
 43
0.00000001
 40
0.0
 40
0.0
 40
0.0
 40
0.0
 40
0.2161846684386932
 40
0.4397605101600224
 40
0.5934164929481065
 40
0.7522078034353499
 40
1.0
 40
1.0
 40
1.0
 40
1.0
 10
212.8475439953939
 20
107.9152207017135
 30
0.0
 10
212.8370237890248
 20
108.1125958758048
 30
0.0
 10
212.8156236992162
 20
108.5140943163658
 30
0.0
 10
212.784161797039
 20
109.1043677579352
 30
0.0
 10
212.7553971238011
 20
109.6440370561282
 30
0.0
 10
212.7258539544973
 20
110.1983121321097
 30
0.0
 10
212.7059979060009
 20
110.5708419942881
 30
0.0
 10
212.6938966431934
 20
110.7978802071867
 30
0.0
  0
SPLINE
  5
8D
330
1F
100
AcDbEntity
  8
0
  6
Continuous
 62
     7
370
    15
100
AcDbSpline
210
0.0
220
0.0
230
1.0
 70
    24
 71
     3
 72
    11
 73
     7
 74
     0
 42
0.000000001
 43
0.00000001
 40
0.0
 40
0.0
 40
0.0
 40
0.0
 40
0.1849308168246165
 40
0.5198464202157764
 40
0.8714438233692653
 40
1.0
 40
1.0
 40
1.0
 40
1.0
 10
215.4208240336946
 20
106.6069534592066
 30
0.0
 10
215.2710465621005
 20
106.6831010050763
 30
0.0
 10
214.8500173157366
 20
106.8971541834933
 30
0.0
 10
214.0640858252254
 20
107.296725317838
 30
0.0
 10
213.3382459373997
 20
107.6657456088337
 30
0.0
 10
212.9511775660156
 20
107.8625329243824
 30
0.0
 10
212.8475439953939
 20
107.9152207017135
 30
0.0
  0
CIRCLE
  5
8E
330
1F
100
AcDbEntity
  8
0
  6
Continuous
 62
     7
370
    15
100
AcDbCircle
 10
215.2671766815
 20
109.4896129647
 30
0.0
 40
3.000000000000002
  0
SPLINE
  5
8F
330
1F
100
AcDbEntity
  8
0
  6
Continuous
 62
     7
370
    15
100
AcDbSpline
210
0.0
220
0.0
230
1.0
 70
    24
 71
     3
 72
    12
 73
     8
 74
     0
 42
0.000000001
 43
0.00000001
 40
0.0
 40
0.0
 40
0.0
 40
0.0
 40
0.2161846684386954
 40
0.4397605101600224
 40
0.5934164929481115
 40
0.7522078034353471
 40
1.0
 40
1.0
 40
1.0
 40
1.0
 10
212.6938966431934
 20
110.7978802071867
 30
0.0
 10
212.8595684548484
 20
110.905678560201
 30
0.0
 10
213.1965762590497
 20
111.124960801899
 30
0.0
 10
213.6920371035395
 20
111.4473443292205
 30
0.0
 10
214.1450220887982
 20
111.7420899160727
 30
0.0
 10
214.6102668006309
 20
112.0448125891888
 30
0.0
 10
214.9229591006975
 20
112.2482733626946
 30
0.0
 10
215.1135293292937
 20
112.3722724701531
 30
0.0
  0
SPLINE
  5
90
330
1F
100
AcDbEntity
  8
0
  6
Continuous
 62
     7
370
    15
100
AcDbSpline
210
0.0
220
0.0
230
1.0
 70
    24
 71
     3
 72
    10
 73
     6
 74
     0
 42
0.000000001
 43
0.00000001
 40
0.0
 40
0.0
 40
0.0
 40
0.0
 40
0.4391256427914789
 40
0.7513741901692087
 40
1.0
 40
1.0
 40
1.0
 40
1.0
 10
217.8404567197948
 20
108.181345722173
 30
0.0
 10
217.4940598423453
 20
107.955954253912
 30
0.0
 10
216.9013509501559
 20
107.5702939429835
 30
0.0
 10
216.0397552530713
 20
107.0096759586557
 30
0.0
 10
215.6109194554286
 20
106.7306436221485
 30
0.0
 10
215.4208240336946
 20
106.6069534592066
 30
0.0
  0
SPLINE
  5
91
330
1F
100
AcDbEntity
  8
0
  6
Continuous
 62
     7
370
    15
100
AcDbSpline
210
0.0
220
0.0
230
1.0
 70
    24
 71
     3
 72
    12
 73
     8
 74
     0
 42
0.000000001
 43
0.00000001
 40
0.0
 40
0.0
 40
0.0
 40
0.0
 40
0.2161846684386939
 40
0.4397605101600184
 40
0.5934164929481061
 40
0.7522078034353489
 40
1.0
 40
1.0
 40
1.0
 40
1.0
 10
217.6868093675945
 20
111.0640052276462
 30
0.0
 10
217.6973295739635
 20
110.8666300535549
 30
0.0
 10
217.7187296637721
 20
110.4651316129939
 30
0.0
 10
217.7501915659493
 20
109.8748581714245
 30
0.0
 10
217.7789562391873
 20
109.3351888732315
 30
0.0
 10
217.8084994084909
 20
108.7809137972499
 30
0.0
 10
217.8283554569874
 20
108.4083839350716
 30
0.0
 10
217.8404567197948
 20
108.181345722173
 30
0.0
  0
CIRCLE
  5
92
330
1F
100
AcDbEntity
  8
0
  6
Continuous
 62
     7
370
    15
100
AcDbCircle
 10
215.2671766815
 20
109.4896129647
 30
0.0
 40
4.50000000000001
  0
ARC
  5
93
330
1F
100
AcDbEntity
  8
0
  6
Continuous
 62
     7
370
    15
100
AcDbCircle
 10
215.2671766815
 20
109.4896129647
 30
0.0
 40
2.50000000000002
100
AcDbArc
 50
3.0510097918
 51
63.0510097918
  0
ARC
  5
94
330
1F
100
AcDbEntity
  8
0
  6
Continuous
 62
     7
370
    15
100
AcDbCircle
 10
215.2671766815
 20
109.4896129647
 30
0.0
 40
2.500000000000004
100
AcDbArc
 50
243.0510097918
 51
303.0510097918
  0
ARC
  5
95
330
1F
100
AcDbEntity
  8
0
  6
Continuous
 62
     7
370
    15
100
AcDbCircle
 10
215.2671766815
 20
109.4896129647
 30
0.0
 40
2.500000000000019
100
AcDbArc
 50
183.0510097918
 51
243.0510097918
  0
ARC
  5
96
330
1F
100
AcDbEntity
  8
0
  6
Continuous
 62
     7
370
    15
100
AcDbCircle
 10
215.2671766815
 20
109.4896129647
 30
0.0
 40
2.50000000000002
100
AcDbArc
 50
303.0510097918
 51
3.0510097918
  0
ARC
  5
97
330
1F
100
AcDbEntity
  8
0
  6
Continuous
 62
     7
370
    15
100
AcDbCircle
 10
215.2671766815
 20
109.4896129647
 30
0.0
 40
2.499999999999991
100
AcDbArc
 50
63.0510097918
 51
123.0510097918
  0
ARC
  5
98
330
1F
100
AcDbEntity
  8
0
  6
Continuous
 62
     7
370
    15
100
AcDbCircle
 10
215.2671766815
 20
109.4896129647
 30
0.0
 40
2.500000000000019
100
AcDbArc
 50
123.0510097918
 51
183.0510097918
  0
SPLINE
  5
99
330
1F
100
AcDbEntity
  8
0
  6
Continuous
 62
     7
370
    15
100
AcDbSpline
210
0.0
220
0.0
230
1.0
 70
     8
 71
     3
 72
    10
 73
     6
 74
     0
 42
0.000000001
 43
0.00000001
 40
0.0
 40
0.0
 40
0.0
 40
0.0
 40
0.5
 40
0.5
 40
1.0
 40
1.0
 40
1.0
 40
1.0
 10
178.7328367126483
 20
62.85615869748761
 30
0.0
 10
178.7814872812279
 20
62.82820170622019
 30
0.0
 10
178.8388724931873
 20
62.80425942119339
 30
0.0
 10
178.9695856013533
 20
62.77014095809768
 30
0.0
 10
179.0423251350919
 20
62.76035362333385
 30
0.0
 10
179.1171766814942
 20
62.76035362333385
 30
0.0
  0
SPLINE
  5
9A
330
1F
100
AcDbEntity
  8
0
  6
Continuous
 62
     7
370
    15
100
AcDbSpline
210
0.0
220
0.0
230
1.0
 70
     8
 71
     3
 72
    10
 73
     6
 74
     0
 42
0.000000001
 43
0.00000001
 40
0.0
 40
0.0
 40
0.0
 40
0.0
 40
0.5
 40
0.5
 40
1.0
 40
1.0
 40
1.0
 40
1.0
 10
178.7328367126483
 20
62.85615869748761
 30
0.0
 10
178.674648706066
 20
62.92374242766643
 30
0.0
 10
178.6222062395398
 20
63.00421866230818
 30
0.0
 10
178.5438539323611
 20
63.18725428529094
 30
0.0
 10
178.5171766814941
 20
63.29312998808656
 30
0.0
 10
178.5171766814941
 20
63.40064329730718
 30
0.0
  0
LINE
  5
9B
330
1F
100
AcDbEntity
  8
0
  6
Continuous
 62
     7
370
    15
100
AcDbLine
 10
178.5171766815
 20
63.4006432973
 30
0.0
 11
178.5171766815
 21
139.3396129647
 31
0.0
  0
SPLINE
  5
9C
330
1F
100
AcDbEntity
  8
0
  6
Continuous
 62
     7
370
    15
100
AcDbSpline
210
0.0
220
0.0
230
1.0
 70
    24
 71
     3
 72
    14
 73
    10
 74
     0
 42
0.000000001
 43
0.00000001
 40
0.0
 40
0.0
 40
0.0
 40
0.0
 40
0.25
 40
0.25
 40
0.5
 40
0.5
 40
0.75
 40
0.75
 40
1.0
 40
1.0
 40
1.0
 40
1.0
 10
179.1171766814942
 20
139.3396129646799
 30
0.0
 10
179.0281547291505
 20
139.3396129646799
 30
0.0
 10
178.938468029877
 20
139.3396129646799
 30
0.0
 10
178.7847412043197
 20
139.3396129646799
 30
0.0
 10
178.7195363096929
 20
139.3396129646799
 30
0.0
 10
178.6169456155224
 20
139.3396129646799
 30
0.0
 10
178.5793081612065
 20
139.3396129646799
 30
0.0
 10
178.5292162458214
 20
139.3396129646799
 30
0.0
 10
178.5171766814942
 20
139.3396129646799
 30
0.0
 10
178.5171766814942
 20
139.3396129646799
 30
0.0
  0
LINE
  5
9D
330
1F
100
AcDbEntity
  8
0
  6
Continuous
 62
     7
370
    15
100
AcDbLine
 10
179.1171766815
 20
62.7603536233
 30
0.0
 11
183.184015174
 21
62.7603536233
 31
0.0
  0
LINE
  5
9E
330
1F
100
AcDbEntity
  8
0
  6
Continuous
 62
     7
370
    15
100
AcDbLine
 10
183.184015174
 20
139.3396129647
 30
0.0
 11
179.1171766815
 21
139.3396129647
 31
0.0
  0
LINE
  5
9F
330
1F
100
AcDbEntity
  8
0
  6
Continuous
 62
     7
370
    15
100
AcDbLine
 10
183.184015174
 20
62.7603536233
 30
0.0
 11
183.184015174
 21
139.3396129647
 31
0.0
  0
SPLINE
  5
A0
330
1F
100
AcDbEntity
  8
0
  6
Continuous
 62
     7
370
    15
100
AcDbSpline
210
0.0
220
0.0
230
1.0
 70
     8
 71
     3
 72
     8
 73
     4
 74
     0
 42
0.000000001
 43
0.00000001
 40
0.0
 40
0.0
 40
0.0
 40
0.0
 40
1.0
 40
1.0
 40
1.0
 40
1.0
 10
184.5071766814942
 20
64.86987355585008
 30
0.0
 10
184.2174482354696
 20
64.34765354568654
 30
0.0
 10
183.9274230852519
 20
63.82560016342656
 30
0.0
 10
183.6371288509901
 20
63.30369789770344
 30
0.0
  0
SPLINE
  5
A1
330
1F
100
AcDbEntity
  8
0
  6
Continuous
 62
     7
370
    15
100
AcDbSpline
210
0.0
220
0.0
230
1.0
 70
     8
 71
     3
 72
     8
 73
     4
 74
     0
 42
0.000000001
 43
0.00000001
 40
0.0
 40
0.0
 40
0.0
 40
0.0
 40
0.0011862984959112
 40
0.0011862984959112
 40
0.0011862984959112
 40
0.0011862984959112
 10
183.1840151740323
 20
62.76035362333385
 30
0.0
 10
183.3360399359031
 20
62.94126547295183
 30
0.0
 10
183.4870973811189
 20
63.12237780339267
 30
0.0
 10
183.6371288509901
 20
63.30369789770346
 30
0.0
  0
SPLINE
  5
A2
330
1F
100
AcDbEntity
  8
0
  6
Continuous
 62
     7
370
    15
100
AcDbSpline
210
0.0
220
0.0
230
1.0
 70
    24
 71
     3
 72
     8
 73
     4
 74
     0
 42
0.000000001
 43
0.00000001
 40
0.0
 40
0.0
 40
0.0
 40
0.0
 40
1.0
 40
1.0
 40
1.0
 40
1.0
 10
184.5071766814942
 20
139.3396129646799
 30
0.0
 10
184.0719765767905
 20
139.3396129646799
 30
0.0
 10
183.6306168940517
 20
139.3396129646799
 30
0.0
 10
183.1840151740323
 20
139.3396129646799
 30
0.0
  0
LINE
  5
A3
330
1F
100
AcDbEntity
  8
0
  6
Continuous
 62
     7
370
    15
100
AcDbLine
 10
184.5071766815
 20
64.8698735559
 30
0.0
 11
184.5071766815
 21
139.3396129647
 31
0.0
  0
SPLINE
  5
A4
330
1F
100
AcDbEntity
  8
0
  6
Continuous
 62
     7
370
    15
100
AcDbSpline
210
0.0
220
0.0
230
1.0
 70
     8
 71
     3
 72
    12
 73
     8
 74
     0
 42
0.000000001
 43
0.00000001
 40
0.0
 40
0.0
 40
0.0
 40
0.0
 40
0.2499999999999972
 40
0.2499999999999972
 40
0.4999999999999944
 40
0.4999999999999944
 40
1.0
 40
1.0
 40
1.0
 40
1.0
 10
193.7671766814942
 20
62.76035362333385
 30
0.0
 10
193.863149434669
 20
62.76035362333385
 30
0.0
 10
193.9555773988235
 20
62.77662694744243
 30
0.0
 10
194.1120074989329
 20
62.83000066943885
 30
0.0
 10
194.1754859237058
 20
62.86612892697319
 30
0.0
 10
194.323765084533
 20
62.98683012325247
 30
0.0
 10
194.3671766814942
 20
63.08067970961764
 30
0.0
 10
194.3671766814942
 20
63.17498398456485
 30
0.0
  0
SPLINE
  5
A5
330
1F
100
AcDbEntity
  8
0
  6
Continuous
 62
     7
370
    15
100
AcDbSpline
210
0.0
220
0.0
230
1.0
 70
    24
 71
     3
 72
    12
 73
     8
 74
     0
 42
0.000000001
 43
0.00000001
 40
0.0
 40
0.0
 40
0.0
 40
0.0
 40
0.4999999999999972
 40
0.4999999999999972
 40
0.7499999999999986
 40
0.7499999999999986
 40
1.0
 40
1.0
 40
1.0
 40
1.0
 10
194.3671766814942
 20
139.3396129646799
 30
0.0
 10
194.3671766814942
 20
139.3396129646799
 30
0.0
 10
194.3190459931088
 20
139.3396129646799
 30
0.0
 10
194.1651489373058
 20
139.3396129646799
 30
0.0
 10
194.099684372299
 20
139.3396129646799
 30
0.0
 10
193.9461550516889
 20
139.3396129646799
 30
0.0
 10
193.857806390953
 20
139.3396129646799
 30
0.0
 10
193.767176681494
 20
139.3396129646799
 30
0.0
  0
LINE
  5
A6
330
1F
100
AcDbEntity
  8
0
  6
Continuous
 62
     7
370
    15
100
AcDbLine
 10
194.3671766815
 20
63.1749839846
 30
0.0
 11
194.3671766815
 21
139.3396129647
 31
0.0
  0
SPLINE
  5
A7
330
1F
100
AcDbEntity
  8
0
  6
Continuous
 62
     7
370
    15
100
AcDbSpline
210
0.0
220
0.0
230
1.0
 70
     8
 71
     3
 72
     8
 73
     4
 74
     0
 42
0.000000001
 43
0.00000001
 40
0.0000000000000004
 40
0.0000000000000004
 40
0.0000000000000004
 40
0.0000000000000004
 40
0.0011862984959127
 40
0.0011862984959127
 40
0.0011862984959127
 40
0.0011862984959127
 10
189.1972245119944
 20
63.30369789770346
 30
0.0
 10
189.3472559818657
 20
63.12237780339243
 30
0.0
 10
189.4983134270851
 20
62.94126547295206
 30
0.0
 10
189.6503381889561
 20
62.76035362333385
 30
0.0
  0
SPLINE
  5
A8
330
1F
100
AcDbEntity
  8
0
  6
Continuous
 62
     7
370
    15
100
AcDbSpline
210
0.0
220
0.0
230
1.0
 70
     8
 71
     3
 72
     8
 73
     4
 74
     0
 42
0.000000001
 43
0.00000001
 40
0.0
 40
0.0
 40
0.0
 40
0.0
 40
1.0
 40
1.0
 40
1.0
 40
1.0
 10
189.1972245119973
 20
63.30369789770513
 30
0.0
 10
188.9069302777359
 20
63.82560016342769
 30
0.0
 10
188.6169051275184
 20
64.34765354568711
 30
0.0
 10
188.3271766814942
 20
64.86987355585008
 30
0.0
  0
LINE
  5
A9
330
1F
100
AcDbEntity
  8
0
  6
Continuous
 62
     7
370
    15
100
AcDbLine
 10
188.3271766815
 20
64.8698735559
 30
0.0
 11
188.3271766815
 21
139.3396129647
 31
0.0
  0
SPLINE
  5
AA
330
1F
100
AcDbEntity
  8
0
  6
Continuous
 62
     7
370
    15
100
AcDbSpline
210
0.0
220
0.0
230
1.0
 70
    24
 71
     3
 72
     8
 73
     4
 74
     0
 42
0.000000001
 43
0.00000001
 40
0.0
 40
0.0
 40
0.0
 40
0.0
 40
1.0
 40
1.0
 40
1.0
 40
1.0
 10
189.6503381889561
 20
139.3396129646799
 30
0.0
 10
189.2037364689367
 20
139.3396129646799
 30
0.0
 10
188.7623767861978
 20
139.3396129646799
 30
0.0
 10
188.3271766814942
 20
139.3396129646799
 30
0.0
  0
LINE
  5
AB
330
1F
100
AcDbEntity
  8
0
  6
Continuous
 62
     7
370
    15
100
AcDbLine
 10
189.650338189
 20
62.7603536233
 30
0.0
 11
189.650338189
 21
139.3396129647
 31
0.0
  0
LINE
  5
AC
330
1F
100
AcDbEntity
  8
0
  6
Continuous
 62
     7
370
    15
100
AcDbLine
 10
189.650338189
 20
62.7603536233
 30
0.0
 11
193.7671766815
 21
62.7603536233
 31
0.0
  0
LINE
  5
AD
330
1F
100
AcDbEntity
  8
0
  6
Continuous
 62
     7
370
    15
100
AcDbLine
 10
193.7671766815
 20
139.3396129647
 30
0.0
 11
189.650338189
 21
139.3396129647
 31
0.0
  0
SPLINE
  5
AE
330
1F
100
AcDbEntity
  8
0
  6
Continuous
 62
     7
370
    15
100
AcDbSpline
210
0.0
220
0.0
230
1.0
 70
     8
 71
     3
 72
    14
 73
    10
 74
     0
 42
0.000000001
 43
0.00000001
 40
0.0
 40
0.0
 40
0.0
 40
0.0
 40
0.25
 40
0.25
 40
0.5
 40
0.5
 40
0.75
 40
0.75
 40
1.0
 40
1.0
 40
1.0
 40
1.0
 10
185.3071766814942
 20
65.84184669881007
 30
0.0
 10
185.2007316735849
 20
65.84184669881007
 30
0.0
 10
185.0938329223114
 20
65.81927714937696
 30
0.0
 10
184.8976146668689
 20
65.73283405813504
 30
0.0
 10
184.8079563534045
 20
65.66853014046791
 30
0.0
 10
184.6625026405234
 20
65.51356062642493
 30
0.0
 10
184.6044668577972
 20
65.4207951401812
 30
0.0
 10
184.5271817034126
 20
65.22232825853783
 30
0.0
 10
184.5071766814942
 20
65.11530383674405
 30
0.0
 10
184.5071766814942
 20
65.00852147627323
 30
0.0
  0
SPLINE
  5
AF
330
1F
100
AcDbEntity
  8
0
  6
Continuous
 62
     7
370
    15
100
AcDbSpline
210
0.0
220
0.0
230
1.0
 70
    24
 71
     3
 72
    14
 73
    10
 74
     0
 42
0.000000001
 43
0.00000001
 40
0.0
 40
0.0
 40
0.0
 40
0.0
 40
0.25
 40
0.25
 40
0.5
 40
0.5
 40
0.75
 40
0.75
 40
1.0
 40
1.0
 40
1.0
 40
1.0
 10
185.3071766814942
 20
139.3396129646799
 30
0.0
 10
185.1841953819479
 20
139.3396129646799
 30
0.0
 10
185.0640054935459
 20
139.3396129646799
 30
0.0
 10
184.8589816638667
 20
139.3396129646799
 30
0.0
 10
184.7723871750646
 20
139.3396129646799
 30
0.0
 10
184.6372792883022
 20
139.3396129646799
 30
0.0
 10
184.588756203274
 20
139.3396129646799
 30
0.0
 10
184.5230736945473
 20
139.3396129646799
 30
0.0
 10
184.5071766814942
 20
139.3396129646799
 30
0.0
 10
184.5071766814942
 20
139.3396129646799
 30
0.0
  0
SPLINE
  5
B0
330
1F
100
AcDbEntity
  8
0
  6
Continuous
 62
     7
370
    15
100
AcDbSpline
210
0.0
220
0.0
230
1.0
 70
     8
 71
     3
 72
    14
 73
    10
 74
     0
 42
0.000000001
 43
0.00000001
 40
0.0
 40
0.0
 40
0.0
 40
0.0
 40
0.25
 40
0.25
 40
0.5
 40
0.5
 40
0.75
 40
0.75
 40
1.0
 40
1.0
 40
1.0
 40
1.0
 10
188.3271766814942
 20
65.00852147627323
 30
0.0
 10
188.3271766814942
 20
65.11558546261404
 30
0.0
 10
188.3071928552542
 20
65.22232478898856
 30
0.0
 10
188.2297577728207
 20
65.42107469117934
 30
0.0
 10
188.1718188506613
 20
65.51362890767187
 30
0.0
 10
188.0261810449005
 20
65.66872585107744
 30
0.0
 10
187.9373920485651
 20
65.73246600799033
 30
0.0
 10
187.7408436883606
 20
65.81921456507791
 30
0.0
 10
187.6347044586612
 20
65.84184669881007
 30
0.0
 10
187.5271766814942
 20
65.84184669881007
 30
0.0
  0
SPLINE
  5
B1
330
1F
100
AcDbEntity
  8
0
  6
Continuous
 62
     7
370
    15
100
AcDbSpline
210
0.0
220
0.0
230
1.0
 70
    24
 71
     3
 72
    14
 73
    10
 74
     0
 42
0.000000001
 43
0.00000001
 40
0.0
 40
0.0
 40
0.0
 40
0.0
 40
0.25
 40
0.25
 40
0.5
 40
0.5
 40
0.75
 40
0.75
 40
1.0
 40
1.0
 40
1.0
 40
1.0
 10
188.3271766814942
 20
139.3396129646799
 30
0.0
 10
188.3271766814942
 20
139.3396129646799
 30
0.0
 10
188.3108956467184
 20
139.3396129646799
 30
0.0
 10
188.2462325841938
 20
139.3396129646799
 30
0.0
 10
188.1967527879051
 20
139.3396129646799
 30
0.0
 10
188.0627830307664
 20
139.3396129646799
 30
0.0
 10
187.9766683041669
 20
139.3396129646799
 30
0.0
 10
187.7712121884539
 20
139.3396129646799
 30
0.0
 10
187.649791651261
 20
139.3396129646799
 30
0.0
 10
187.5271766814942
 20
139.3396129646799
 30
0.0
  0
LINE
  5
B2
330
1F
100
AcDbEntity
  8
0
  6
Continuous
 62
     7
370
    15
100
AcDbLine
 10
187.5271766815
 20
65.8418466988
 30
0.0
 11
185.3071766815
 21
65.8418466988
 31
0.0
  0
LINE
  5
B3
330
1F
100
AcDbEntity
  8
0
  6
Continuous
 62
     7
370
    15
100
AcDbLine
 10
187.5271766815
 20
139.3396129647
 30
0.0
 11
185.3071766815
 21
139.3396129647
 31
0.0
  0
LINE
  5
B4
330
1F
100
AcDbEntity
  8
0
  6
Continuous
 62
     7
370
    15
100
AcDbLine
 10
175.3171766815
 20
74.5646129647
 30
0.0
 11
175.3171766815
 21
144.4146129647
 31
0.0
  0
LINE
  5
B5
330
1F
100
AcDbEntity
  8
0
  6
Continuous
 62
     7
370
    15
100
AcDbLine
 10
187.5271766815
 20
153.1373792305
 30
0.0
 11
185.3071766815
 21
153.1373792305
 31
0.0
  0
LINE
  5
B6
330
1F
100
AcDbEntity
  8
0
  6
Continuous
 62
     7
370
    15
100
AcDbLine
 10
185.3071766815
 20
143.8294950262
 30
0.0
 11
187.5271766815
 21
143.8294950262
 31
0.0
  0
SPLINE
  5
B7
330
1F
100
AcDbEntity
  8
0
  6
Continuous
 62
     7
370
    15
100
AcDbSpline
210
0.0
220
0.0
230
1.0
 70
     8
 71
     3
 72
    12
 73
     8
 74
     0
 42
0.000000001
 43
0.00000001
 40
0.0
 40
0.0
 40
0.0
 40
0.0
 40
0.2500000000000007
 40
0.2500000000000007
 40
0.5000000000000014
 40
0.5000000000000014
 40
1.0
 40
1.0
 40
1.0
 40
1.0
 10
185.3071766814942
 20
153.1373792305496
 30
0.0
 10
185.2008317016182
 20
153.1373792305496
 30
0.0
 10
185.0935553542156
 20
153.1600944684092
 30
0.0
 10
184.8981795648195
 20
153.2461196352915
 30
0.0
 10
184.8096258287426
 20
153.3090983622199
 30
0.0
 10
184.5883679046113
 20
153.544289872657
 30
0.0
 10
184.5071766814942
 20
153.7574660871422
 30
0.0
 10
184.5071766814942
 20
153.9707044530863
 30
0.0
  0
SPLINE
  5
B8
330
1F
100
AcDbEntity
  8
0
  6
Continuous
 62
     7
370
    15
100
AcDbSpline
210
0.0
220
0.0
230
1.0
 70
     8
 71
     3
 72
    12
 73
     8
 74
     0
 42
0.000000001
 43
0.00000001
 40
0.0
 40
0.0
 40
0.0
 40
0.0
 40
0.499999999999994
 40
0.499999999999994
 40
0.749999999999997
 40
0.749999999999997
 40
1.0
 40
1.0
 40
1.0
 40
1.0
 10
184.5071766814942
 20
144.8826560663969
 30
0.0
 10
184.5071766814942
 20
144.6402329704162
 30
0.0
 10
184.570097822936
 20
144.3944624498147
 30
0.0
 10
184.7721267199385
 20
144.0895162703979
 30
0.0
 10
184.8584204445857
 20
143.9989234037994
 30
0.0
 10
185.0638942391524
 20
143.8684898408626
 30
0.0
 10
185.1838447997521
 20
143.8294950262129
 30
0.0
 10
185.3071766814942
 20
143.8294950262129
 30
0.0
  0
SPLINE
  5
B9
330
1F
100
AcDbEntity
  8
0
  6
Continuous
 62
     7
370
    15
100
AcDbSpline
210
0.0
220
0.0
230
1.0
 70
     8
 71
     3
 72
    12
 73
     8
 74
     0
 42
0.000000001
 43
0.00000001
 40
0.0
 40
0.0
 40
0.0
 40
0.0
 40
0.4999999999999927
 40
0.4999999999999927
 40
0.7499999999999963
 40
0.7499999999999963
 40
1.0
 40
1.0
 40
1.0
 40
1.0
 10
194.3671766814942
 20
155.7845999179103
 30
0.0
 10
194.3671766814942
 20
155.9047925245755
 30
0.0
 10
194.3132082512251
 20
156.0226998250905
 30
0.0
 10
194.1521216102922
 20
156.1620793695739
 30
0.0
 10
194.0873591908191
 20
156.2002446671378
 30
0.0
 10
193.9353051892547
 20
156.2548969294712
 30
0.0
 10
193.8525754161055
 20
156.2694576194554
 30
0.0
 10
193.7671766814942
 20
156.2694576194554
 30
0.0
  0
SPLINE
  5
BA
330
1F
100
AcDbEntity
  8
0
  6
Continuous
 62
     7
370
    15
100
AcDbSpline
210
0.0
220
0.0
230
1.0
 70
     8
 71
     3
 72
    12
 73
     8
 74
     0
 42
0.000000001
 43
0.00000001
 40
0.0
 40
0.0
 40
0.0
 40
0.0
 40
0.250000000000004
 40
0.250000000000004
 40
0.500000000000008
 40
0.500000000000008
 40
1.0
 40
1.0
 40
1.0
 40
1.0
 10
193.7671766814947
 20
148.0006909163551
 30
0.0
 10
193.8567137396658
 20
148.000690916355
 30
0.0
 10
193.9466129184544
 20
147.973863617524
 30
0.0
 10
194.1000377774537
 20
147.8821566522645
 30
0.0
 10
194.1650868348314
 20
147.8179017106656
 30
0.0
 10
194.3184060660957
 20
147.598489564604
 30
0.0
 10
194.3671766814942
 20
147.4166742548071
 30
0.0
 10
194.3671766814942
 20
147.2386940793242
 30
0.0
  0
LINE
  5
BB
330
1F
100
AcDbEntity
  8
0
  6
Continuous
 62
     7
370
    15
100
AcDbLine
 10
194.3671766815
 20
147.2386940793
 30
0.0
 11
194.3671766815
 21
155.7845999179
 31
0.0
  0
LINE
  5
BC
330
1F
100
AcDbEntity
  8
0
  6
Continuous
 62
     7
370
    15
100
AcDbLine
 10
183.184015174
 20
156.2694576195
 30
0.0
 11
179.1171766815
 21
156.2694576195
 31
0.0
  0
LINE
  5
BD
330
1F
100
AcDbEntity
  8
0
  6
Continuous
 62
     7
370
    15
100
AcDbLine
 10
183.184015174
 20
148.0006909164
 30
0.0
 11
183.184015174
 21
156.2694576195
 31
0.0
  0
LINE
  5
BE
330
1F
100
AcDbEntity
  8
0
  6
Continuous
 62
     7
370
    15
100
AcDbLine
 10
179.1171766815
 20
148.0006909164
 30
0.0
 11
183.184015174
 21
148.0006909164
 31
0.0
  0
LINE
  5
BF
330
1F
100
AcDbEntity
  8
0
  6
Continuous
 62
     7
370
    15
100
AcDbLine
 10
193.7671766815
 20
156.2694576195
 30
0.0
 11
189.650338189
 21
156.2694576195
 31
0.0
  0
LINE
  5
C0
330
1F
100
AcDbEntity
  8
0
  6
Continuous
 62
     7
370
    15
100
AcDbLine
 10
189.650338189
 20
148.0006909164
 30
0.0
 11
193.7671766815
 21
148.0006909164
 31
0.0
  0
LINE
  5
C1
330
1F
100
AcDbEntity
  8
0
  6
Continuous
 62
     7
370
    15
100
AcDbLine
 10
189.650338189
 20
148.0006909164
 30
0.0
 11
189.650338189
 21
156.2694576195
 31
0.0
  0
SPLINE
  5
C2
330
1F
100
AcDbEntity
  8
0
  6
Continuous
 62
     7
370
    15
100
AcDbSpline
210
0.0
220
0.0
230
1.0
 70
     8
 71
     3
 72
    12
 73
     8
 74
     0
 42
0.000000001
 43
0.00000001
 40
0.0
 40
0.0
 40
0.0
 40
0.0
 40
0.5000000000000003
 40
0.5000000000000003
 40
0.7500000000000001
 40
0.7500000000000001
 40
1.0
 40
1.0
 40
1.0
 40
1.0
 10
178.5171766814942
 20
147.2386940793242
 30
0.0
 10
178.5171766814942
 20
147.4170543465635
 30
0.0
 10
178.5644888028702
 20
147.5958267582675
 30
0.0
 10
178.7188488807516
 20
147.8175886236192
 30
0.0
 10
178.7837344156705
 20
147.8818806622357
 30
0.0
 10
178.9389671148988
 20
147.9745251463953
 30
0.0
 10
179.028042527567
 20
148.0006909163551
 30
0.0
 10
179.1171766814942
 20
148.0006909163551
 30
0.0
  0
SPLINE
  5
C3
330
1F
100
AcDbEntity
  8
0
  6
Continuous
 62
     7
370
    15
100
AcDbSpline
210
0.0
220
0.0
230
1.0
 70
     8
 71
     3
 72
     8
 73
     4
 74
     0
 42
0.000000001
 43
0.00000001
 40
0.0
 40
0.0
 40
0.0
 40
0.0
 40
1.0
 40
1.0
 40
1.0
 40
1.0
 10
183.1840151740323
 20
148.000690916355
 30
0.0
 10
183.63086390196
 20
147.0214550180987
 30
0.0
 10
184.0722302598558
 20
146.0402530253718
 30
0.0
 10
184.5071766814942
 20
145.0567487069895
 30
0.0
  0
SPLINE
  5
C4
330
1F
100
AcDbEntity
  8
0
  6
Continuous
 62
     7
370
    15
100
AcDbSpline
210
0.0
220
0.0
230
1.0
 70
     8
 71
     3
 72
    14
 73
    10
 74
     0
 42
0.000000001
 43
0.00000001
 40
0.0
 40
0.0
 40
0.0
 40
0.0
 40
0.25
 40
0.25
 40
0.5
 40
0.5
 40
0.75
 40
0.75
 40
1.0
 40
1.0
 40
1.0
 40
1.0
 10
187.5271766814942
 20
143.8294950262129
 30
0.0
 10
187.6485032114799
 20
143.8294950262129
 30
0.0
 10
187.7702079200421
 20
143.8682765416461
 30
0.0
 10
187.9766477989282
 20
143.99943116334
 30
0.0
 10
188.0625983373843
 20
144.0900832479271
 30
0.0
 10
188.1965100971326
 20
144.2922002828684
 30
0.0
 10
188.2460745339518
 20
144.4059352264076
 30
0.0
 10
188.3109285619197
 20
144.638894843474
 30
0.0
 10
188.3271766814942
 20
144.7615931098033
 30
0.0
 10
188.3271766814942
 20
144.8826560663969
 30
0.0
  0
SPLINE
  5
C5
330
1F
100
AcDbEntity
  8
0
  6
Continuous
 62
     7
370
    15
100
AcDbSpline
210
0.0
220
0.0
230
1.0
 70
     8
 71
     3
 72
     8
 73
     4
 74
     0
 42
0.000000001
 43
0.00000001
 40
0.0
 40
0.0
 40
0.0
 40
0.0
 40
1.0
 40
1.0
 40
1.0
 40
1.0
 10
188.3271766814942
 20
145.0567487069895
 30
0.0
 10
188.7621231031326
 20
146.0402530253719
 30
0.0
 10
189.2034894610284
 20
147.0214550180987
 30
0.0
 10
189.6503381889561
 20
148.000690916355
 30
0.0
  0
LINE
  5
C6
330
1F
100
AcDbEntity
  8
0
  6
Continuous
 62
     7
370
    15
100
AcDbLine
 10
188.3271766815
 20
144.8826560664
 30
0.0
 11
188.3271766815
 21
145.056748707
 31
0.0
  0
LINE
  5
C7
330
1F
100
AcDbEntity
  8
0
  6
Continuous
 62
     7
370
    15
100
AcDbLine
 10
184.5071766815
 20
145.056748707
 30
0.0
 11
184.5071766815
 21
144.8826560664
 31
0.0
  0
LINE
  5
C8
330
1F
100
AcDbEntity
  8
0
  6
Continuous
 62
     7
370
    15
100
AcDbLine
 10
194.3671766815
 20
147.2386940793
 30
0.0
 11
194.3671766815
 21
139.3396129647
 31
0.0
  0
LINE
  5
C9
330
1F
100
AcDbEntity
  8
0
  6
Continuous
 62
     7
370
    15
100
AcDbLine
 10
178.5171766815
 20
147.2386940793
 30
0.0
 11
178.5171766815
 21
139.3396129647
 31
0.0
  0
SPLINE
  5
CA
330
1F
100
AcDbEntity
  8
0
  6
Continuous
 62
     7
370
    15
100
AcDbSpline
210
0.0
220
0.0
230
1.0
 70
     8
 71
     3
 72
     8
 73
     4
 74
     0
 42
0.000000001
 43
0.00000001
 40
0.0
 40
0.0
 40
0.0
 40
0.0
 40
0.0012352705496723
 40
0.0012352705496723
 40
0.0012352705496723
 40
0.0012352705496723
 10
183.7405056593268
 20
155.489646209349
 30
0.0
 10
183.5554704085249
 20
155.7497477850772
 30
0.0
 10
183.3699635993541
 20
156.0096818637041
 30
0.0
 10
183.1840151740323
 20
156.2694576194554
 30
0.0
  0
SPLINE
  5
CB
330
1F
100
AcDbEntity
  8
0
  6
Continuous
 62
     7
370
    15
100
AcDbSpline
210
0.0
220
0.0
230
1.0
 70
     8
 71
     3
 72
     8
 73
     4
 74
     0
 42
0.000000001
 43
0.00000001
 40
0.0
 40
0.0
 40
0.0
 40
0.0
 40
1.0
 40
1.0
 40
1.0
 40
1.0
 10
184.5071766814942
 20
154.1093523735096
 30
0.0
 10
184.2518453681888
 20
154.5695733937752
 30
0.0
 10
183.9962819700825
 20
155.0296678540836
 30
0.0
 10
183.7405056593268
 20
155.489646209349
 30
0.0
  0
LINE
  5
CC
330
1F
100
AcDbEntity
  8
0
  6
Continuous
 62
     7
370
    15
100
AcDbLine
 10
184.5071766815
 20
145.056748707
 30
0.0
 11
184.5071766815
 21
154.1093523735
 31
0.0
  0
SPLINE
  5
CD
330
1F
100
AcDbEntity
  8
0
  6
Continuous
 62
     7
370
    15
100
AcDbSpline
210
0.0
220
0.0
230
1.0
 70
     8
 71
     3
 72
    14
 73
    10
 74
     0
 42
0.000000001
 43
0.00000001
 40
0.0
 40
0.0
 40
0.0
 40
0.0
 40
0.25
 40
0.25
 40
0.5
 40
0.5
 40
0.75
 40
0.75
 40
1.0
 40
1.0
 40
1.0
 40
1.0
 10
188.3271766814942
 20
153.9707044530865
 30
0.0
 10
188.3271766814942
 20
153.863362080939
 30
0.0
 10
188.30718048943
 20
153.7567330740912
 30
0.0
 10
188.2294824050853
 20
153.55758129494
 30
0.0
 10
188.1714892601917
 20
153.4650983966246
 30
0.0
 10
188.0254427673689
 20
153.3098625615154
 30
0.0
 10
187.9361050282012
 20
153.246128619903
 30
0.0
 10
187.7413500161408
 20
153.1602983535078
 30
0.0
 10
187.6338197449319
 20
153.1373792305494
 30
0.0
 10
187.5271766814921
 20
153.1373792305496
 30
0.0
  0
SPLINE
  5
CE
330
1F
100
AcDbEntity
  8
0
  6
Continuous
 62
     7
370
    15
100
AcDbSpline
210
0.0
220
0.0
230
1.0
 70
     8
 71
     3
 72
    10
 73
     6
 74
     0
 42
0.000000001
 43
0.00000001
 40
0.0
 40
0.0
 40
0.0
 40
0.0
 40
0.5
 40
0.5
 40
1.0
 40
1.0
 40
1.0
 40
1.0
 10
178.8070456004405
 20
156.1997772904026
 30
0.0
 10
178.7305925105217
 20
156.129514519182
 30
0.0
 10
178.6617307882526
 20
156.0424196041403
 30
0.0
 10
178.5552185571797
 20
155.833250475888
 30
0.0
 10
178.5171766814941
 20
155.7079329266485
 30
0.0
 10
178.5171766814941
 20
155.5785826320525
 30
0.0
  0
SPLINE
  5
CF
330
1F
100
AcDbEntity
  8
0
  6
Continuous
 62
     7
370
    15
100
AcDbSpline
210
0.0
220
0.0
230
1.0
 70
     8
 71
     3
 72
     8
 73
     4
 74
     0
 42
0.000000001
 43
0.00000001
 40
0.0
 40
0.0
 40
0.0
 40
0.0
 40
1.0
 40
1.0
 40
1.0
 40
1.0
 10
179.1171766814942
 20
156.2694576194554
 30
0.0
 10
179.0060984961567
 20
156.2694576194554
 30
0.0
 10
178.8984344922545
 20
156.2443084439008
 30
0.0
 10
178.8070456004405
 20
156.1997772904026
 30
0.0
  0
LINE
  5
D0
330
1F
100
AcDbEntity
  8
0
  6
Continuous
 62
     7
370
    15
100
AcDbLine
 10
178.5171766815
 20
147.2386940793
 30
0.0
 11
178.5171766815
 21
155.5785826321
 31
0.0
  0
SPLINE
  5
D1
330
1F
100
AcDbEntity
  8
0
  6
Continuous
 62
     7
370
    15
100
AcDbSpline
210
0.0
220
0.0
230
1.0
 70
     8
 71
     3
 72
     8
 73
     4
 74
     0
 42
0.000000001
 43
0.00000001
 40
0.0
 40
0.0
 40
0.0
 40
0.0
 40
1.0
 40
1.0
 40
1.0
 40
1.0
 10
189.0938477036606
 20
155.4896462093473
 30
0.0
 10
188.8380713929052
 20
155.0296678540825
 30
0.0
 10
188.5825079947992
 20
154.5695733937746
 30
0.0
 10
188.3271766814942
 20
154.1093523735096
 30
0.0
  0
SPLINE
  5
D2
330
1F
100
AcDbEntity
  8
0
  6
Continuous
 62
     7
370
    15
100
AcDbSpline
210
0.0
220
0.0
230
1.0
 70
     8
 71
     3
 72
     8
 73
     4
 74
     0
 42
0.000000001
 43
0.00000001
 40
0.0
 40
0.0
 40
0.0
 40
0.0
 40
0.0012352705496738
 40
0.0012352705496738
 40
0.0012352705496738
 40
0.0012352705496738
 10
189.6503381889561
 20
156.2694576194554
 30
0.0
 10
189.464389763634
 20
156.0096818637037
 30
0.0
 10
189.2788829544629
 20
155.7497477850764
 30
0.0
 10
189.0938477036607
 20
155.4896462093478
 30
0.0
  0
LINE
  5
D3
330
1F
100
AcDbEntity
  8
0
  6
Continuous
 62
     7
370
    15
100
AcDbLine
 10
188.3271766815
 20
145.056748707
 30
0.0
 11
188.3271766815
 21
154.1093523735
 31
0.0
  0
LINE
  5
D4
330
1F
100
AcDbEntity
  8
0
  6
Continuous
 62
     7
370
    15
100
AcDbLine
 10
228.3171766815
 20
109.4896129647
 30
0.0
 11
228.3171766815
 21
84.9896129647
 31
0.0
  0
LINE
  5
D5
330
1F
100
AcDbEntity
  8
0
  6
Continuous
 62
     7
370
    15
100
AcDbLine
 10
228.3171766815
 20
133.9896129647
 30
0.0
 11
228.3171766815
 21
109.4896129647
 31
0.0
  0
LINE
  5
D6
330
1F
100
AcDbEntity
  8
0
  6
Continuous
 62
     7
370
    15
100
AcDbLine
 10
227.8171766815
 20
109.4896129647
 30
0.0
 11
227.8171766815
 21
84.4896129647
 31
0.0
  0
LINE
  5
D7
330
1F
100
AcDbEntity
  8
0
  6
Continuous
 62
     7
370
    15
100
AcDbLine
 10
227.8171766815
 20
134.4896129647
 30
0.0
 11
227.8171766815
 21
109.4896129647
 31
0.0
  0
SPLINE
  5
D8
330
1F
100
AcDbEntity
  8
0
  6
Continuous
 62
     7
370
    15
100
AcDbSpline
210
0.0
220
0.0
230
1.0
 70
    11
 71
     3
 72
    77
 73
    73
 74
     0
 42
0.000000001
 43
0.00000001
 40
0.0
 40
0.0
 40
0.0
 40
0.0
 40
0.0312499999999996
 40
0.0312499999999996
 40
0.0624999999999992
 40
0.0624999999999992
 40
0.0937499999999989
 40
0.0937499999999989
 40
0.1249999999999985
 40
0.1249999999999985
 40
0.1562499999999981
 40
0.1562499999999981
 40
0.1874999999999977
 40
0.1874999999999977
 40
0.2187499999999973
 40
0.2187499999999973
 40
0.2499999999999969
 40
0.2499999999999969
 40
0.2812499999999966
 40
0.2812499999999966
 40
0.3124999999999962
 40
0.3124999999999962
 40
0.3437499999999958
 40
0.3437499999999958
 40
0.3593749999999957
 40
0.3593749999999957
 40
0.3749999999999955
 40
0.3906249999999954
 40
0.3906249999999954
 40
0.4062499999999953
 40
0.4062499999999953
 40
0.4374999999999952
 40
0.4374999999999952
 40
0.4687499999999951
 40
0.4687499999999951
 40
0.499999999999995
 40
0.499999999999995
 40
0.531249999999995
 40
0.531249999999995
 40
0.5624999999999949
 40
0.5624999999999949
 40
0.5937499999999949
 40
0.5937499999999949
 40
0.6249999999999948
 40
0.6249999999999948
 40
0.6562499999999948
 40
0.6562499999999948
 40
0.6874999999999947
 40
0.6874999999999947
 40
0.7187499999999947
 40
0.7187499999999947
 40
0.7499999999999946
 40
0.7499999999999946
 40
0.7656249999999948
 40
0.7656249999999948
 40
0.7812499999999949
 40
0.7812499999999949
 40
0.8124999999999957
 40
0.8124999999999957
 40
0.8437499999999963
 40
0.8437499999999963
 40
0.8749999999999971
 40
0.8749999999999971
 40
0.8906249999999974
 40
0.8906249999999974
 40
0.9062499999999978
 40
0.9062499999999978
 40
0.9374999999999986
 40
0.9374999999999986
 40
0.9687499999999992
 40
0.9687499999999992
 40
1.0
 40
1.0
 40
1.0
 40
1.0
 10
211.2307713317082
 20
113.4841490474638
 30
0.0
 10
211.5210243690037
 20
113.7225794811306
 30
0.0
 10
211.8293197356251
 20
113.9296253568576
 30
0.0
 10
212.4791182665042
 20
114.2866626254762
 30
0.0
 10
212.8231967954442
 20
114.4374174301794
 30
0.0
 10
213.5339159233177
 20
114.6767621136611
 30
0.0
 10
213.8957945613168
 20
114.7642765773474
 30
0.0
 10
214.6321347290402
 20
114.8776535897741
 30
0.0
 10
215.0102578891356
 20
114.9032774750876
 30
0.0
 10
215.7590019212193
 20
114.8899630945526
 30
0.0
 10
216.129080984477
 20
114.8518125403163
 30
0.0
 10
216.8607395812215
 20
114.7129691488527
 30
0.0
 10
217.2257965851451
 20
114.6107058658674
 30
0.0
 10
217.9233879412484
 20
114.3472179068859
 30
0.0
 10
218.2571534604248
 20
114.1865262067101
 30
0.0
 10
218.8940722730236
 20
113.8055402222371
 30
0.0
 10
219.1999285617836
 20
113.5823395408232
 30
0.0
 10
219.7546104959372
 20
113.0890348788738
 30
0.0
 10
220.0058842405114
 20
112.8183395793934
 30
0.0
 10
220.4531437317711
 20
112.2253515159661
 30
0.0
 10
220.6496090112186
 20
111.8999039450451
 30
0.0
 10
220.9616938356527
 20
111.2261963054963
 30
0.0
 10
221.0805957766327
 20
110.8746387094087
 30
0.0
 10
221.1985969916392
 20
110.3232681325579
 30
0.0
 10
221.2275344195697
 20
110.135641908064
 30
0.0
 10
221.2630604651955
 20
109.763068196846
 30
0.0
 10
221.276897164
 20
109.390477711746
 30
0.0
 10
221.247788761244
 20
109.0178540025825
 30
0.0
 10
221.1967371049327
 20
108.6452133294964
 30
0.0
 10
221.1600546634693
 20
108.4589508104348
 30
0.0
 10
221.0202896704132
 20
107.9148738503963
 30
0.0
 10
220.8872789755998
 20
107.5665186204707
 30
0.0
 10
220.5443302698403
 20
106.8973628863891
 30
0.0
 10
220.3378853670454
 20
106.584291600245
 30
0.0
 10
219.8677199715848
 20
106.0072916925787
 30
0.0
 10
219.6000496807854
 20
105.7395929592036
 30
0.0
 10
219.025238194502
 20
105.2654790305121
 30
0.0
 10
218.7173786266143
 20
105.0571479394782
 30
0.0
 10
218.0619819045631
 20
104.6955280235662
 30
0.0
 10
217.7166113320861
 20
104.5441831522205
 30
0.0
 10
217.0114428442185
 20
104.3056447592437
 30
0.0
 10
216.6488886710063
 20
104.2168798706721
 30
0.0
 10
215.9033581972847
 20
104.1014130019524
 30
0.0
 10
215.5299519209523
 20
104.0762889562526
 30
0.0
 10
214.7850979144847
 20
104.0886540950225
 30
0.0
 10
214.4118256909034
 20
104.1263061288389
 30
0.0
 10
213.6716181458211
 20
104.2664999888943
 30
0.0
 10
213.3129658066205
 20
104.367238758595
 30
0.0
 10
212.6180096860013
 20
104.6289695708068
 30
0.0
 10
212.2795568080725
 20
104.7912287518988
 30
0.0
 10
211.6364517456006
 20
105.1760375873582
 30
0.0
 10
211.3372165094314
 20
105.3947979486736
 30
0.0
 10
210.922158278525
 20
105.7633408084846
 30
0.0
 10
210.7894774880409
 20
105.892969405748
 30
0.0
 10
210.536052518918
 20
106.166584684988
 30
0.0
 10
210.4146875397005
 20
106.3115011005013
 30
0.0
 10
210.0774638543803
 20
106.7593284993202
 30
0.0
 10
209.8862212488372
 20
107.0766251376847
 30
0.0
 10
209.573570392996
 20
107.750575670367
 30
0.0
 10
209.4516165548972
 20
108.1124998857923
 30
0.0
 10
209.2961444727138
 20
108.8431719066442
 30
0.0
 10
209.2603509351881
 20
109.2141006207556
 30
0.0
 10
209.272178707561
 20
109.7792453036462
 30
0.0
 10
209.2873079557208
 20
109.968658662431
 30
0.0
 10
209.3386951445142
 20
110.3399594011266
 30
0.0
 10
209.3749471244226
 20
110.52316830161
 30
0.0
 10
209.5145924523375
 20
111.0656651531747
 30
0.0
 10
209.6509930509355
 20
111.4215062316796
 30
0.0
 10
209.9928260039887
 20
112.0861562145831
 30
0.0
 10
210.197955575469
 20
112.3975157396359
 30
0.0
 10
210.6740652748898
 20
112.9802847310458
 30
0.0
 10
210.9405182944126
 20
113.2457186137969
 30
0.0
 10
211.2307713317082
 20
113.4841490474638
 30
0.0
  0
LINE
  5
D9
330
1F
100
AcDbEntity
  8
0
  6
Continuous
 62
     7
370
    15
100
AcDbLine
 10
73.7171766815
 20
91.1107684373
 30
0.0
 11
73.7171766815
 21
127.8684574475
 31
0.0
  0
CIRCLE
  5
DA
330
1F
100
AcDbEntity
  8
0
  6
HIDDEN
 62
     7
370
     0
100
AcDbCircle
 10
215.2671766815
 20
109.4896129647
 30
0.0
 40
4.999999999999995
  0
CIRCLE
  5
DB
330
1F
100
AcDbEntity
  8
0
  6
HIDDEN
 62
     7
370
     0
100
AcDbCircle
 10
215.2671766815
 20
109.4896129647
 30
0.0
 40
3.680384757729338
  0
CIRCLE
  5
DC
330
1F
100
AcDbEntity
  8
0
  6
HIDDEN
 62
     7
370
     0
100
AcDbCircle
 10
215.2671766815
 20
109.4896129647
 30
0.0
 40
3.380384757729339
  0
SPLINE
  5
DD
330
1F
100
AcDbEntity
  8
0
  6
HIDDEN
 62
     7
370
     0
100
AcDbSpline
210
0.0
220
0.0
230
1.0
 70
     8
 71
     3
 72
    16
 73
    12
 74
     0
 42
0.000000001
 43
0.00000001
 40
0.0
 40
0.0
 40
0.0
 40
0.0
 40
0.2499999999999997
 40
0.2499999999999997
 40
0.4999999999999993
 40
0.4999999999999993
 40
0.6249999999999991
 40
0.6249999999999991
 40
0.749999999999999
 40
0.749999999999999
 40
1.0
 40
1.0
 40
1.0
 40
1.0
 10
228.3171766814942
 20
122.5580894223798
 30
0.0
 10
228.3171766814941
 20
122.4685690304769
 30
0.0
 10
228.3119491746182
 20
122.3772659223068
 30
0.0
 10
228.2826773389074
 20
122.1882435877946
 30
0.0
 10
228.2589338153112
 20
122.0883983363586
 30
0.0
 10
228.1906247544735
 20
121.9482110513051
 30
0.0
 10
228.1617539128158
 20
121.9037738223703
 30
0.0
 10
228.0953028692215
 20
121.8338854940528
 30
0.0
 10
228.0574958527067
 20
121.8084853908515
 30
0.0
 10
227.9472736345014
 20
121.7636630093552
 30
0.0
 10
227.8792633853181
 20
121.7695054503199
 30
0.0
 10
227.8171766814772
 20
121.7857105048639
 30
0.0
  0
SPLINE
  5
DE
330
1F
100
AcDbEntity
  8
0
  6
HIDDEN
 62
     7
370
     0
100
AcDbSpline
210
0.0
220
0.0
230
1.0
 70
     8
 71
     3
 72
     8
 73
     4
 74
     0
 42
0.000000001
 43
0.00000001
 40
0.0
 40
0.0
 40
0.0
 40
0.0
 40
1.0
 40
1.0
 40
1.0
 40
1.0
 10
227.8171766814772
 20
121.7857105048639
 30
0.0
 10
227.7309332966699
 20
121.7270536607174
 30
0.0
 10
227.6275539882509
 20
121.6869808247478
 30
0.0
 10
227.5171766814942
 20
121.6869808247478
 30
0.0
  0
SPLINE
  5
DF
330
1F
100
AcDbEntity
  8
0
  6
HIDDEN
 62
     7
370
     0
100
AcDbSpline
210
0.0
220
0.0
230
1.0
 70
     8
 71
     3
 72
     8
 73
     4
 74
     0
 42
0.000000001
 43
0.00000001
 40
0.0
 40
0.0
 40
0.0
 40
0.0
 40
1.0
 40
1.0
 40
1.0
 40
1.0
 10
227.8171766815104
 20
97.19351542447319
 30
0.0
 10
227.7309332966955
 20
97.2521722686323
 30
0.0
 10
227.627553988265
 20
97.2922451046119
 30
0.0
 10
227.5171766814942
 20
97.29224510461188
 30
0.0
  0
SPLINE
  5
E0
330
1F
100
AcDbEntity
  8
0
  6
HIDDEN
 62
     7
370
     0
100
AcDbSpline
210
0.0
220
0.0
230
1.0
 70
     8
 71
     3
 72
    16
 73
    12
 74
     0
 42
0.000000001
 43
0.00000001
 40
0.0
 40
0.0
 40
0.0
 40
0.0
 40
0.2500000000000008
 40
0.2500000000000008
 40
0.3750000000000007
 40
0.3750000000000007
 40
0.5000000000000006
 40
0.5000000000000006
 40
0.7500000000000002
 40
0.7500000000000002
 40
1.0
 40
1.0
 40
1.0
 40
1.0
 10
227.8171766815004
 20
97.19351542447625
 30
0.0
 10
227.8792498308848
 20
97.20971701886516
 30
0.0
 10
227.9473113882794
 20
97.21554484197691
 30
0.0
 10
228.0574580702512
 20
97.17076189574546
 30
0.0
 10
228.0948868371888
 20
97.14566534016674
 30
0.0
 10
228.1612972523222
 20
97.07605309647298
 30
0.0
 10
228.1902912684284
 20
97.03160700111486
 30
0.0
 10
228.258889960751
 20
96.89111406625776
 30
0.0
 10
228.282429031564
 20
96.79207505520199
 30
0.0
 10
228.3118295750826
 20
96.6032412684338
 30
0.0
 10
228.3171766814943
 20
96.51073116263898
 30
0.0
 10
228.3171766814942
 20
96.42113768672465
 30
0.0
  0
LINE
  5
E1
330
1F
100
AcDbEntity
  8
0
  6
HIDDEN
 62
     7
370
     0
100
AcDbLine
 10
197.8171766815
 20
109.4896129647
 30
0.0
 11
197.8171766815
 21
95.9896129647
 31
0.0
  0
LINE
  5
E2
330
1F
100
AcDbEntity
  8
0
  6
HIDDEN
 62
     7
370
     0
100
AcDbLine
 10
197.8171766815
 20
122.9896129647
 30
0.0
 11
197.8171766815
 21
109.4896129647
 31
0.0
  0
LINE
  5
E3
330
1F
100
AcDbEntity
  8
0
  6
HIDDEN
 62
     7
370
     0
100
AcDbLine
 10
202.6832020853
 20
109.4896129647
 30
0.0
 11
202.6832020853
 21
95.4896129647
 31
0.0
  0
LINE
  5
E4
330
1F
100
AcDbEntity
  8
0
  6
HIDDEN
 62
     7
370
     0
100
AcDbLine
 10
202.6832020853
 20
123.4896129647
 30
0.0
 11
202.6832020853
 21
109.4896129647
 31
0.0
  0
LINE
  5
E5
330
1F
100
AcDbEntity
  8
0
  6
HIDDEN
 62
     7
370
     0
100
AcDbLine
 10
214.7171766815
 20
121.6869808247
 30
0.0
 11
227.5171766815
 21
121.6869808247
 31
0.0
  0
LINE
  5
E6
330
1F
100
AcDbEntity
  8
0
  6
HIDDEN
 62
     7
370
     0
100
AcDbLine
 10
214.7171766815
 20
97.2922451046
 30
0.0
 11
227.5171766815
 21
97.2922451046
 31
0.0
  0
LINE
  5
E7
330
1F
100
AcDbEntity
  8
0
  6
HIDDEN
 62
     7
370
     0
100
AcDbLine
 10
178.6887495567
 20
74.1896129647
 30
0.0
 11
178.5171766815
 21
74.1896129647
 31
0.0
  0
ELLIPSE
  5
E8
330
1F
100
AcDbEntity
  8
0
  6
HIDDEN
 62
     7
370
     0
100
AcDbEllipse
 10
178.6887495567
 20
72.1896129647
 30
0.0
 11
0.0
 21
2.0
 31
0.0
210
0.0
220
0.0
230
1.0
 40
0.4142135624
 41
4.712388980384702
 42
6.283185307179586
  0
LINE
  5
E9
330
1F
100
AcDbEntity
  8
0
  6
HIDDEN
 62
     7
370
     0
100
AcDbLine
 10
178.5171766815
 20
146.9896129647
 30
0.0
 11
178.6887495567
 21
146.9896129647
 31
0.0
  0
ELLIPSE
  5
EA
330
1F
100
AcDbEntity
  8
0
  6
HIDDEN
 62
     7
370
     0
100
AcDbEllipse
 10
178.6887495567
 20
148.9896129647
 30
0.0
 11
0.0
 21
2.0
 31
0.0
210
0.0
220
0.0
230
1.0
 40
0.4142135624
 41
3.141592653589793
 42
4.712388980384695
  0
LINE
  5
EB
330
1F
100
AcDbEntity
  8
0
  6
HIDDEN
 62
     7
370
     0
100
AcDbLine
 10
179.5171766815
 20
63.3036978977
 30
0.0
 11
178.7328367126
 21
62.8561586975
 31
0.0
  0
LINE
  5
EC
330
1F
100
AcDbEntity
  8
0
  6
HIDDEN
 62
     7
370
     0
100
AcDbLine
 10
178.8070456004
 20
156.1997772904
 30
0.0
 11
179.5171766815
 21
155.4896462093
 31
0.0
  0
LINE
  5
ED
330
1F
100
AcDbEntity
  8
0
  6
HIDDEN
 62
     7
370
     0
100
AcDbLine
 10
178.6887495567
 20
146.9896129647
 30
0.0
 11
194.3671766815
 21
146.9896129647
 31
0.0
  0
LINE
  5
EE
330
1F
100
AcDbEntity
  8
0
  6
HIDDEN
 62
     7
370
     0
100
AcDbLine
 10
183.637128851
 20
63.3036978977
 30
0.0
 11
179.5171766815
 21
63.3036978977
 31
0.0
  0
LINE
  5
EF
330
1F
100
AcDbEntity
  8
0
  6
HIDDEN
 62
     7
370
     0
100
AcDbLine
 10
194.3671766815
 20
63.3036978977
 30
0.0
 11
189.197224512
 21
63.3036978977
 31
0.0
  0
LINE
  5
F0
330
1F
100
AcDbEntity
  8
0
  6
HIDDEN
 62
     7
370
     0
100
AcDbLine
 10
179.5171766815
 20
63.3036978977
 30
0.0
 11
179.5171766815
 21
72.1896129647
 31
0.0
  0
LINE
  5
F1
330
1F
100
AcDbEntity
  8
0
  6
HIDDEN
 62
     7
370
     0
100
AcDbLine
 10
179.5171766815
 20
155.4896462093
 30
0.0
 11
183.7405056593
 21
155.4896462093
 31
0.0
  0
LINE
  5
F2
330
1F
100
AcDbEntity
  8
0
  6
HIDDEN
 62
     7
370
     0
100
AcDbLine
 10
189.0938477037
 20
155.4896462093
 30
0.0
 11
194.3671766815
 21
155.4896462093
 31
0.0
  0
LINE
  5
F3
330
1F
100
AcDbEntity
  8
0
  6
HIDDEN
 62
     7
370
     0
100
AcDbLine
 10
179.5171766815
 20
155.4896462093
 30
0.0
 11
179.5171766815
 21
148.9896129647
 31
0.0
  0
LINE
  5
F4
330
1F
100
AcDbEntity
  8
0
  6
HIDDEN
 62
     7
370
     0
100
AcDbLine
 10
194.3671766815
 20
74.1896129647
 30
0.0
 11
178.6887495567
 21
74.1896129647
 31
0.0
  0
LINE
  5
F5
330
1F
100
AcDbEntity
  8
0
  6
HIDDEN
 62
     7
370
     0
100
AcDbLine
 10
83.7171766815
 20
96.9896129647
 30
0.0
 11
83.7171766815
 21
121.9896129647
 31
0.0
  0
LINE
  5
F6
330
1F
100
AcDbEntity
  8
0
  6
HIDDEN
 62
     7
370
     0
100
AcDbLine
 10
87.0017810304
 20
98.9896129647
 30
0.0
 11
87.0017810304
 21
119.9896129647
 31
0.0
  0
LINE
  5
F7
330
1F
100
AcDbEntity
  8
0
  6
HIDDEN
 62
     7
370
     0
100
AcDbLine
 10
135.7171766815
 20
98.9896129647
 30
0.0
 11
135.7171766815
 21
119.9896129647
 31
0.0
  0
LINE
  5
F8
330
1F
100
AcDbEntity
  8
0
  6
HIDDEN
 62
     7
370
     0
100
AcDbLine
 10
138.9618240242
 20
104.3896129647
 30
0.0
 11
138.9618240242
 21
114.5896129647
 31
0.0
  0
LINE
  5
F9
330
1F
100
AcDbEntity
  8
0
  6
HIDDEN
 62
     7
370
     0
100
AcDbLine
 10
227.8171766809
 20
91.6896129647
 30
0.0
 11
227.8171766815
 21
97.1935154245
 31
0.0
  0
SPLINE
  5
FA
330
1F
100
AcDbEntity
  8
0
  6
HIDDEN
 62
     7
370
     0
100
AcDbSpline
210
0.0
220
0.0
230
1.0
 70
     8
 71
     3
 72
    14
 73
    10
 74
     0
 42
0.000000001
 43
0.00000001
 40
0.0
 40
0.0
 40
0.0
 40
0.0
 40
0.0746618067438328
 40
0.2406348416956152
 40
0.4015158956302856
 40
0.5670617176462933
 40
0.7280026561325217
 40
0.8935907796937615
 40
0.9999999999999999
 40
0.9999999999999999
 40
0.9999999999999999
 40
0.9999999999999999
 10
227.7581723085469
 20
89.60459105025953
 30
0.0
 10
227.756681313984
 20
89.6032257876199
 30
0.0
 10
227.7518758417316
 20
89.5988255490845
 30
0.0
 10
227.7522867537816
 20
89.71837026438273
 30
0.0
 10
227.7609885756348
 20
89.95599962372236
 30
0.0
 10
227.7783706734604
 20
90.30534688991204
 30
0.0
 10
227.7992872973154
 20
90.75580450253545
 30
0.0
 10
227.814488048495
 20
91.22577797216809
 30
0.0
 10
227.8164206282632
 20
91.55918097808971
 30
0.0
 10
227.81717668089
 20
91.68961296467984
 30
0.0
  0
LINE
  5
FB
330
1F
100
AcDbEntity
  8
0
  6
HIDDEN
 62
     7
370
     0
100
AcDbLine
 10
214.7171766815
 20
127.2896129647
 30
0.0
 11
214.7171766815
 21
121.6869808247
 31
0.0
  0
LINE
  5
FC
330
1F
100
AcDbEntity
  8
0
  6
HIDDEN
 62
     7
370
     0
100
AcDbLine
 10
214.7171766815
 20
91.6896129647
 30
0.0
 11
214.7171766815
 21
97.2922451046
 31
0.0
  0
LINE
  5
FD
330
1F
100
AcDbEntity
  8
0
  6
HIDDEN
 62
     7
370
     0
100
AcDbLine
 10
214.7171766815
 20
129.3896129647
 30
0.0
 11
214.7171766815
 21
127.2896129647
 31
0.0
  0
LINE
  5
FE
330
1F
100
AcDbEntity
  8
0
  6
HIDDEN
 62
     7
370
     0
100
AcDbLine
 10
214.7171766815
 20
89.5896129647
 30
0.0
 11
214.7171766815
 21
91.6896129647
 31
0.0
  0
SPLINE
  5
FF
330
1F
100
AcDbEntity
  8
0
  6
HIDDEN
 62
     7
370
     0
100
AcDbSpline
210
0.0
220
0.0
230
1.0
 70
     8
 71
     3
 72
    16
 73
    12
 74
     0
 42
0.000000001
 43
0.00000001
 40
0.0
 40
0.0
 40
0.0
 40
0.0
 40
0.2499999999999981
 40
0.2499999999999981
 40
0.4999999999999962
 40
0.4999999999999962
 40
0.6249999999999971
 40
0.6249999999999971
 40
0.7499999999999981
 40
0.7499999999999981
 40
1.0
 40
1.0
 40
1.0
 40
1.0
 10
228.3171766814942
 20
96.42100383550476
 30
0.0
 10
228.3171766814942
 20
96.50942346172592
 30
0.0
 10
228.3119444378216
 20
96.60213935978578
 30
0.0
 10
228.2824840007549
 20
96.79184691478733
 30
0.0
 10
228.2587093845671
 20
96.89153986834218
 30
0.0
 10
228.190103033965
 20
97.03185275948933
 30
0.0
 10
228.1611818754658
 20
97.07614534675076
 30
0.0
 10
228.0948233166579
 20
97.14567627321833
 30
0.0
 10
228.0573140894863
 20
97.1708455041445
 30
0.0
 10
227.9467386392179
 20
97.21567823227741
 30
0.0
 10
227.8788919194342
 20
97.20962333470436
 30
0.0
 10
227.8171766814941
 20
97.19351542448425
 30
0.0
  0
LINE
  5
100
330
1F
100
AcDbEntity
  8
0
  6
HIDDEN
 62
     7
370
     0
100
AcDbLine
 10
184.5071766815
 20
144.8826560664
 30
0.0
 11
184.5071766815
 21
139.3396129647
 31
0.0
  0
LINE
  5
101
330
1F
100
AcDbEntity
  8
0
  6
HIDDEN
 62
     7
370
     0
100
AcDbLine
 10
188.3271766815
 20
144.8826560664
 30
0.0
 11
188.3271766815
 21
139.3396129647
 31
0.0
  0
LINE
  5
102
330
1F
100
AcDbEntity
  8
0
  6
HIDDEN
 62
     7
370
     0
100
AcDbLine
 10
183.184015174
 20
148.0006909164
 30
0.0
 11
183.184015174
 21
139.3396129647
 31
0.0
  0
LINE
  5
103
330
1F
100
AcDbEntity
  8
0
  6
HIDDEN
 62
     7
370
     0
100
AcDbLine
 10
189.650338189
 20
148.0006909164
 30
0.0
 11
189.650338189
 21
139.3396129647
 31
0.0
  0
ARC
  5
104
330
1F
100
AcDbEntity
  8
0
  6
HIDDEN
 62
     7
370
     0
100
AcDbCircle
 10
198.8171766815
 20
122.9896129647
 30
0.0
 40
1.0
100
AcDbArc
 50
90.0
 51
180.0
  0
ARC
  5
105
330
1F
100
AcDbEntity
  8
0
  6
HIDDEN
 62
     7
370
     0
100
AcDbCircle
 10
198.8171766815
 20
95.9896129647
 30
0.0
 40
1.0
100
AcDbArc
 50
180.0
 51
270.0
  0
LINE
  5
106
330
1F
100
AcDbEntity
  8
0
  6
HIDDEN
 62
     7
370
     0
100
AcDbLine
 10
200.6855241839
 20
123.9896129647
 30
0.0
 11
198.8171766815
 21
123.9896129647
 31
0.0
  0
LINE
  5
107
330
1F
100
AcDbEntity
  8
0
  6
HIDDEN
 62
     7
370
     0
100
AcDbLine
 10
198.8171766815
 20
94.9896129647
 30
0.0
 11
200.6855241839
 21
94.9896129647
 31
0.0
  0
ARC
  5
108
330
1F
100
AcDbEntity
  8
0
  6
HIDDEN
 62
     7
370
     0
100
AcDbCircle
 10
200.6855241839
 20
122.9896129647
 30
0.0
 40
1.000000000000003
100
AcDbArc
 50
75.0
 51
90.0
  0
ARC
  5
109
330
1F
100
AcDbEntity
  8
0
  6
HIDDEN
 62
     7
370
     0
100
AcDbCircle
 10
200.6855241839
 20
95.9896129647
 30
0.0
 40
1.000000000000003
100
AcDbArc
 50
270.0
 51
285.0
  0
LINE
  5
10A
330
1F
100
AcDbEntity
  8
0
  6
HIDDEN
 62
     7
370
     0
100
AcDbLine
 10
200.944343229
 20
95.0236871384
 30
0.0
 11
202.6832020853
 21
95.4896129647
 31
0.0
  0
LINE
  5
10B
330
1F
100
AcDbEntity
  8
0
  6
HIDDEN
 62
     7
370
     0
100
AcDbLine
 10
202.6832020853
 20
123.4896129647
 30
0.0
 11
200.944343229
 21
123.955538791
 31
0.0
  0
LINE
  5
10C
330
1F
100
AcDbEntity
  8
0
  6
HIDDEN
 62
     7
370
     0
100
AcDbLine
 10
214.7171766815
 20
123.4896129647
 30
0.0
 11
202.6832020853
 21
123.4896129647
 31
0.0
  0
LINE
  5
10D
330
1F
100
AcDbEntity
  8
0
  6
HIDDEN
 62
     7
370
     0
100
AcDbLine
 10
202.6832020853
 20
95.4896129647
 30
0.0
 11
214.7171766815
 21
95.4896129647
 31
0.0
  0
ARC
  5
10E
330
1F
100
AcDbEntity
  8
0
  6
HIDDEN
 62
     7
370
     0
100
AcDbCircle
 10
74.9171766815
 20
95.7896129647
 30
0.0
 40
1.200000000000003
100
AcDbArc
 50
90.0
 51
180.0
  0
ARC
  5
10F
330
1F
100
AcDbEntity
  8
0
  6
HIDDEN
 62
     7
370
     0
100
AcDbCircle
 10
74.9171766815
 20
123.1896129647
 30
0.0
 40
1.200000000000003
100
AcDbArc
 50
180.0
 51
270.0
  0
LINE
  5
110
330
1F
100
AcDbEntity
  8
0
  6
HIDDEN
 62
     7
370
     0
100
AcDbLine
 10
84.6095491122
 20
96.7646129647
 30
0.0
 11
85.4862365738
 21
96.7646129647
 31
0.0
  0
LINE
  5
111
330
1F
100
AcDbEntity
  8
0
  6
HIDDEN
 62
     7
370
     0
100
AcDbLine
 10
85.4862365738
 20
122.2146129647
 30
0.0
 11
84.6095491122
 21
122.2146129647
 31
0.0
  0
ARC
  5
112
330
1F
100
AcDbEntity
  8
0
  6
HIDDEN
 62
     7
370
     0
100
AcDbCircle
 10
84.6095491122
 20
97.1646129647
 30
0.0
 40
0.4000000000000096
100
AcDbArc
 50
255.0
 51
270.0
  0
ARC
  5
113
330
1F
100
AcDbEntity
  8
0
  6
HIDDEN
 62
     7
370
     0
100
AcDbCircle
 10
84.6095491122
 20
121.8146129647
 30
0.0
 40
0.4000000000000234
100
AcDbArc
 50
90.0
 51
105.0
  0
ARC
  5
114
330
1F
100
AcDbEntity
  8
0
  6
HIDDEN
 62
     7
370
     0
100
AcDbCircle
 10
85.4862365738
 20
97.1646129647
 30
0.0
 40
0.4000000000000069
100
AcDbArc
 50
270.0
 51
330.0
  0
ARC
  5
115
330
1F
100
AcDbEntity
  8
0
  6
HIDDEN
 62
     7
370
     0
100
AcDbCircle
 10
85.4862365738
 20
121.8146129647
 30
0.0
 40
0.3999999999999998
100
AcDbArc
 50
30.0
 51
90.0
  0
LINE
  5
116
330
1F
100
AcDbEntity
  8
0
  6
HIDDEN
 62
     7
370
     0
100
AcDbLine
 10
84.5060214942
 20
122.2009832952
 30
0.0
 11
83.7171766815
 21
121.9896129647
 31
0.0
  0
LINE
  5
117
330
1F
100
AcDbEntity
  8
0
  6
HIDDEN
 62
     7
370
     0
100
AcDbLine
 10
83.7171766815
 20
96.9896129647
 30
0.0
 11
84.5060214942
 21
96.7782426342
 31
0.0
  0
LINE
  5
118
330
1F
100
AcDbEntity
  8
0
  6
HIDDEN
 62
     7
370
     0
100
AcDbLine
 10
85.8326467353
 20
96.9646129647
 30
0.0
 11
87.0017810304
 21
98.9896129647
 31
0.0
  0
LINE
  5
119
330
1F
100
AcDbEntity
  8
0
  6
HIDDEN
 62
     7
370
     0
100
AcDbLine
 10
87.0017810304
 20
119.9896129647
 30
0.0
 11
85.8326467353
 21
122.0146129647
 31
0.0
  0
LINE
  5
11A
330
1F
100
AcDbEntity
  8
0
  6
HIDDEN
 62
     7
370
     0
100
AcDbLine
 10
74.9171766815
 20
96.9896129647
 30
0.0
 11
83.7171766815
 21
96.9896129647
 31
0.0
  0
LINE
  5
11B
330
1F
100
AcDbEntity
  8
0
  6
HIDDEN
 62
     7
370
     0
100
AcDbLine
 10
83.7171766815
 20
121.9896129647
 30
0.0
 11
74.9171766815
 21
121.9896129647
 31
0.0
  0
LINE
  5
11C
330
1F
100
AcDbEntity
  8
0
  6
HIDDEN
 62
     7
370
     0
100
AcDbLine
 10
87.0017810304
 20
98.9896129647
 30
0.0
 11
135.7171766815
 21
98.9896129647
 31
0.0
  0
LINE
  5
11D
330
1F
100
AcDbEntity
  8
0
  6
HIDDEN
 62
     7
370
     0
100
AcDbLine
 10
135.7171766815
 20
119.9896129647
 30
0.0
 11
87.0017810304
 21
119.9896129647
 31
0.0
  0
LINE
  5
11E
330
1F
100
AcDbEntity
  8
0
  6
HIDDEN
 62
     7
370
     0
100
AcDbLine
 10
135.7171766815
 20
98.9896129647
 30
0.0
 11
138.9618240242
 21
104.3896129647
 31
0.0
  0
LINE
  5
11F
330
1F
100
AcDbEntity
  8
0
  6
HIDDEN
 62
     7
370
     0
100
AcDbLine
 10
138.9618240242
 20
114.5896129647
 30
0.0
 11
135.7171766815
 21
119.9896129647
 31
0.0
  0
LINE
  5
120
330
1F
100
AcDbEntity
  8
0
  6
HIDDEN
 62
     7
370
     0
100
AcDbLine
 10
228.3171766815
 20
129.9488476328
 30
0.0
 11
227.7472260639
 21
129.3789202369
 31
0.0
  0
LINE
  5
121
330
1F
100
AcDbEntity
  8
0
  6
HIDDEN
 62
     7
370
     0
100
AcDbLine
 10
227.7475376461
 20
89.5999914297
 30
0.0
 11
228.3171766815
 21
89.0303768648
 31
0.0
  0
LINE
  5
122
330
1F
100
AcDbEntity
  8
0
  6
HIDDEN
 62
     7
370
     0
100
AcDbLine
 10
138.9618240242
 20
104.3896129647
 30
0.0
 11
197.8171766815
 21
104.3896129647
 31
0.0
  0
LINE
  5
123
330
1F
100
AcDbEntity
  8
0
  6
HIDDEN
 62
     7
370
     0
100
AcDbLine
 10
197.8171766815
 20
114.5896129647
 30
0.0
 11
138.9618240242
 21
114.5896129647
 31
0.0
  0
LINE
  5
124
330
1F
100
AcDbEntity
  8
0
  6
HIDDEN
 62
     7
370
     0
100
AcDbLine
 10
227.758713561
 20
129.3896129647
 30
0.0
 11
214.7171766815
 21
129.3896129647
 31
0.0
  0
LINE
  5
125
330
1F
100
AcDbEntity
  8
0
  6
HIDDEN
 62
     7
370
     0
100
AcDbLine
 10
214.7171766815
 20
89.5896129647
 30
0.0
 11
227.7590089663
 21
89.5896129647
 31
0.0
  0
DIMENSION
  5
126
330
1F
100
AcDbEntity
  8
VERMASSUNG
100
AcDbDimension
  2
_D
 10
67.6686326974
 20
158.2146129647
 30
0.0
 11
67.6686326974
 21
109.4896129647
 31
0.0
 70
   160
  1
ISO 50 %%c<>
 71
     2
 42
-1.0
  3
SLDDIMSTYLE0
100
AcDbAlignedDimension
 13
193.7671766815
 23
60.7646129647
 33
0.0
 14
193.7671766815
 24
158.2146129647
 34
0.0
 50
90.0
100
AcDbRotatedDimension
  0
DIMENSION
  5
133
330
1F
100
AcDbEntity
  8
VERMASSUNG
100
AcDbDimension
  2
_D_1
 10
235.5175906008
 20
95.4896129647
 30
0.0
 11
235.5175906008
 21
109.4896129647
 31
0.0
 70
   160
  1
%%c<>
 71
     2
 42
-1.0
  3
SLDDIMSTYLE0
100
AcDbAlignedDimension
 13
214.7171766815
 23
123.4896129647
 33
0.0
 14
214.7171766815
 24
95.4896129647
 34
0.0
 50
90.0
100
AcDbRotatedDimension
  0
DIMENSION
  5
13E
330
1F
100
AcDbEntity
  8
VERMASSUNG
100
AcDbDimension
  2
_D_2
 10
228.3171766815
 20
163.5461347434
 30
0.0
 11
211.3421766815
 21
163.5461347434
 31
0.0
 70
   160
  1
(<>)
 71
     2
 42
-1.0
  3
SLDDIMSTYLE0
100
AcDbAlignedDimension
 13
194.3671766815
 23
155.7845999179
 33
0.0
 14
228.3171766815
 24
133.9896129647
 34
0.0
100
AcDbRotatedDimension
  0
DIMENSION
  5
14A
330
1F
100
AcDbEntity
  8
VERMASSUNG
100
AcDbDimension
  2
_D_3
 10
228.3171766815
 20
169.5461347434
 30
0.0
 11
201.8171766815
 21
169.5461347434
 31
0.0
 70
   160
  1
<>
 71
     2
 42
-1.0
  3
SLDDIMSTYLE0
100
AcDbAlignedDimension
 13
175.3171766815
 23
144.4146129647
 33
0.0
 14
228.3171766815
 24
133.9896129647
 34
0.0
100
AcDbRotatedDimension
  0
DIMENSION
  5
154
330
1F
100
AcDbEntity
  8
VERMASSUNG
100
AcDbDimension
  2
_D_4
 10
228.3171766815
 20
175.5461347434
 30
0.0
 11
151.0171766815
 21
175.5461347434
 31
0.0
 70
   160
  1
(<>)
 71
     2
 42
-1.0
  3
SLDDIMSTYLE0
100
AcDbAlignedDimension
 13
73.7171766815
 23
127.8684574921
 33
0.0
 14
228.3171766815
 24
133.9896129647
 34
0.0
100
AcDbRotatedDimension
  0
DIMENSION
  5
160
330
1F
100
AcDbEntity
  8
VERMASSUNG
100
AcDbDimension
  2
_D_5
 10
241.5175906008
 20
84.4896129647
 30
0.0
 11
241.5175906008
 21
109.4896129647
 31
0.0
 70
   160
  1
ST5 %%c<>
 71
     2
 42
-1.0
  3
SLDDIMSTYLE0
100
AcDbAlignedDimension
 13
227.8171766815
 23
134.4896129647
 33
0.0
 14
227.8171766815
 24
84.4896129647
 34
0.0
 50
90.0
100
AcDbRotatedDimension
  0
LINE
  5
16C
330
1F
100
AcDbEntity
  8
VERMASSUNG
  6
CENTERX2
 62
     7
370
     0
100
AcDbLine
 10
71.7171766815
 20
109.4896129647
 30
0.0
 11
230.3171766815
 21
109.4896129647
 31
0.0
  0
LINE
  5
16D
330
1F
100
AcDbEntity
  8
0
  6
Continuous
 62
     7
370
    15
100
AcDbLine
 10
273.6642452579
 20
18.9924696346
 30
0.0
 11
273.840993222
 21
19.0945372347
 31
0.0
  0
LINE
  5
16E
330
1F
100
AcDbEntity
  8
0
  6
Continuous
 62
     7
370
    15
100
AcDbLine
 10
282.5016434635
 20
34.0968490113
 30
0.0
 11
282.5016434635
 21
34.3009510392
 31
0.0
  0
LINE
  5
16F
330
1F
100
AcDbEntity
  8
0
  6
Continuous
 62
     7
370
    15
100
AcDbLine
 10
279.9123007777
 20
40.0240111201
 30
0.0
 11
269.5001534247
 21
46.0348158434
 31
0.0
  0
LINE
  5
170
330
1F
100
AcDbEntity
  8
0
  6
Continuous
 62
     7
370
    15
100
AcDbLine
 10
257.0011692668
 20
24.3835942839
 30
0.0
 11
267.4133166197
 21
18.3727895606
 31
0.0
  0
SPLINE
  5
171
330
1F
100
AcDbEntity
  8
0
  6
Continuous
 62
     7
370
    15
100
AcDbSpline
210
0.0
220
0.0
230
1.0
 70
     8
 71
     3
 72
    28
 73
    24
 74
     0
 42
0.000000001
 43
0.00000001
 40
0.0
 40
0.0
 40
0.0
 40
0.0
 40
0.0451823202715179
 40
0.09313140405783
 40
0.1411284737090579
 40
0.1891517863286381
 40
0.2371854826955268
 40
0.2852169115201761
 40
0.3332408186415857
 40
0.3812548790433857
 40
0.4292585360354703
 40
0.4772523457938185
 40
0.5252375364516716
 40
0.5732157256354415
 40
0.6211887475877269
 40
0.6691585527111427
 40
0.7171271529563966
 40
0.7650965481970107
 40
0.8130681661626223
 40
0.8610440857177686
 40
0.9090263833160764
 40
0.9570171013155002
 40
1.0
 40
1.0
 40
1.0
 40
1.0
 10
261.8875400760018
 20
61.19760327874616
 30
0.0
 10
261.4854604427674
 20
61.11453125299846
 30
0.0
 10
260.6566796151972
 20
60.94330024163563
 30
0.0
 10
259.3696128735832
 20
60.52090673359166
 30
0.0
 10
258.0431005081433
 20
59.97323338382453
 30
0.0
 10
256.7066818690684
 20
59.29796293541983
 30
0.0
 10
255.3693163652694
 20
58.50304126850261
 30
0.0
 10
254.0388027179569
 20
57.59243458653142
 30
0.0
 10
252.7231041033449
 20
56.57202631015944
 30
0.0
 10
251.4299449361495
 20
55.44795291847537
 30
0.0
 10
250.166915429355
 20
54.22701522333888
 30
0.0
 10
248.9414170797793
 20
52.91653025487297
 30
0.0
 10
247.7606351394805
 20
51.52432477889965
 30
0.0
 10
246.6314990270212
 20
50.05868617132385
 30
0.0
 10
245.5606466445065
 20
48.52832040710378
 30
0.0
 10
244.5543787390329
 20
46.94230138715494
 30
0.0
 10
243.6186506123404
 20
45.31002615434472
 30
0.0
 10
242.7589358570198
 20
43.64114388323713
 30
0.0
 10
241.9805803398392
 20
41.94557948259922
 30
0.0
 10
241.2873111395747
 20
40.23314840374496
 30
0.0
 10
240.6866643154639
 20
38.5147051000722
 30
0.0
 10
240.1876254313326
 20
36.85740532416131
 30
0.0
 10
239.9411887686253
 20
35.78572819776686
 30
0.0
 10
239.8247532294942
 20
35.27938590837156
 30
0.0
  0
SPLINE
  5
172
330
1F
100
AcDbEntity
  8
0
  6
Continuous
 62
     7
370
    15
100
AcDbSpline
210
0.0
220
0.0
230
1.0
 70
     8
 71
     3
 72
    21
 73
    17
 74
     0
 42
0.000000001
 43
0.00000001
 40
0.0
 40
0.0
 40
0.0
 40
0.0
 40
0.0149936746554065
 40
0.0927612820079637
 40
0.1706180782897939
 40
0.248484909759986
 40
0.3262975839163044
 40
0.4040020934086457
 40
0.4815494498170075
 40
0.5589005086162618
 40
0.6360458303347291
 40
0.713049548865435
 40
0.7900636057322373
 40
0.8674673969273078
 40
0.9460110652195677
 40
1.0
 40
1.0
 40
1.0
 40
1.0
 10
269.3967408080954
 20
29.50926766703821
 30
0.0
 10
269.41886690249
 20
29.56822909517668
 30
0.0
 10
269.5557542852725
 20
29.93300542845351
 30
0.0
 10
269.8667415632111
 20
30.59918994740157
 30
0.0
 10
270.3569252305986
 20
31.48259975428754
 30
0.0
 10
270.9185349500726
 20
32.31920176647273
 30
0.0
 10
271.5348585779449
 20
33.09118586395478
 30
0.0
 10
272.1934950539707
 20
33.78224199275144
 30
0.0
 10
272.8793549963389
 20
34.37810677433557
 30
0.0
 10
273.5768711962658
 20
34.86687708107387
 30
0.0
 10
274.2700089335939
 20
35.23966867611475
 30
0.0
 10
274.9425294480799
 20
35.49036391745099
 30
0.0
 10
275.5803432834859
 20
35.61836440745036
 30
0.0
 10
276.1682452409964
 20
35.61945968042968
 30
0.0
 10
276.650252297192
 20
35.52866965301733
 30
0.0
 10
276.9060836943364
 20
35.38787088441288
 30
0.0
 10
277.0103000478598
 20
35.3305146161505
 30
0.0
  0
LINE
  5
173
330
1F
100
AcDbEntity
  8
0
  6
Continuous
 62
     7
370
    15
100
AcDbLine
 10
255.0837185146
 20
58.287529249
 30
0.0
 11
224.3223162406
 21
69.3727192887
 31
0.0
  0
LINE
  5
174
330
1F
100
AcDbEntity
  8
0
  6
Continuous
 62
     7
370
    15
100
AcDbLine
 10
214.1984571678
 20
51.8357808422
 30
0.0
 11
243.6659675148
 21
26.9536587096
 31
0.0
  0
LINE
  5
175
330
1F
100
AcDbEntity
  8
0
  6
Continuous
 62
     7
370
    15
100
AcDbLine
 10
269.3195240478
 20
23.9153361989
 30
0.0
 11
269.2476958124
 21
24.0136105621
 31
0.0
  0
SPLINE
  5
176
330
1F
100
AcDbEntity
  8
0
  6
Continuous
 62
     7
370
    15
100
AcDbSpline
210
0.0
220
0.0
230
1.0
 70
     8
 71
     3
 72
    10
 73
     6
 74
     0
 42
0.000000001
 43
0.00000001
 40
0.0
 40
0.0
 40
0.0
 40
0.0
 40
0.1962747554895456
 40
0.8060106442097544
 40
1.0
 40
1.0
 40
1.0
 40
1.0
 10
270.1031926318506
 20
23.18873992728266
 30
0.0
 10
270.0498312428304
 20
23.21348632785929
 30
0.0
 10
269.8307004257626
 20
23.31510847595927
 30
0.0
 10
269.6025328510071
 20
23.51864403414928
 30
0.0
 10
269.450963438441
 20
23.73365878055837
 30
0.0
 10
269.4143802243364
 20
23.78555533653467
 30
0.0
  0
SPLINE
  5
177
330
1F
100
AcDbEntity
  8
0
  6
Continuous
 62
     7
370
    15
100
AcDbSpline
210
0.0
220
0.0
230
1.0
 70
     8
 71
     3
 72
    15
 73
    11
 74
     0
 42
0.000000001
 43
0.00000001
 40
0.0
 40
0.0
 40
0.0
 40
0.0
 40
0.1188151930937129
 40
0.2508838635068502
 40
0.3830994563208381
 40
0.5153988374130419
 40
0.6477348349970795
 40
0.7800707756008698
 40
0.9123882254881978
 40
0.9999999999999999
 40
0.9999999999999999
 40
0.9999999999999999
 40
0.9999999999999999
 10
255.9649356822052
 20
14.05312326118098
 30
0.0
 10
256.3468570118087
 20
14.12412799817176
 30
0.0
 10
257.1533018462755
 20
14.27405783693811
 30
0.0
 10
258.4174232317003
 20
14.66435332258926
 30
0.0
 10
259.7408412821143
 20
15.18456226195656
 30
0.0
 10
261.0759285967035
 20
15.83376410084874
 30
0.0
 10
262.4139343622829
 20
16.60243719676697
 30
0.0
 10
263.7458116048504
 20
17.49192356078848
 30
0.0
 10
264.9194015854926
 20
18.36663622239141
 30
0.0
 10
265.6362362612678
 20
18.98678203839793
 30
0.0
 10
265.9217970281365
 20
19.23382549314952
 30
0.0
  0
LINE
  5
178
330
1F
100
AcDbEntity
  8
0
  6
Continuous
 62
     7
370
    15
100
AcDbLine
 10
247.9885334795
 20
15.8892140676
 30
0.0
 11
249.4440556871
 21
15.0489589825
 31
0.0
  0
LINE
  5
179
330
1F
100
AcDbEntity
  8
0
  6
Continuous
 62
     7
370
    15
100
AcDbLine
 10
244.2644985149
 20
18.039053692
 30
0.0
 11
245.7023430529
 21
17.2090037083
 31
0.0
  0
SPLINE
  5
17A
330
1F
100
AcDbEntity
  8
0
  6
Continuous
 62
     7
370
    15
100
AcDbSpline
210
0.0
220
0.0
230
1.0
 70
     8
 71
     3
 72
     9
 73
     5
 74
     0
 42
0.000000001
 43
0.00000001
 40
0.0
 40
0.0
 40
0.0
 40
0.0
 40
0.671632051358391
 40
1.0
 40
1.0
 40
1.0
 40
1.0
 10
239.8323998004197
 20
24.10434940474002
 30
0.0
 10
239.870621240198
 20
23.96665619818089
 30
0.0
 10
239.9275295424463
 20
23.76164333990434
 30
0.0
 10
240.002625762568
 20
23.57333690245972
 30
0.0
 10
240.0272849543201
 20
23.51150310388002
 30
0.0
  0
SPLINE
  5
17B
330
1F
100
AcDbEntity
  8
0
  6
Continuous
 62
     7
370
    15
100
AcDbSpline
210
0.0
220
0.0
230
1.0
 70
     8
 71
     3
 72
     9
 73
     5
 74
     0
 42
0.000000001
 43
0.00000001
 40
0.0
 40
0.0
 40
0.0
 40
0.0
 40
0.5365142087425564
 40
1.0
 40
1.0
 40
1.0
 40
1.0
 10
278.2511743949624
 20
51.13767379613449
 30
0.0
 10
278.1988182047273
 20
51.31861357793611
 30
0.0
 10
278.1012323637894
 20
51.65586425807319
 30
0.0
 10
277.9735180280363
 20
51.9652491066064
 30
0.0
 10
277.9143242480748
 20
52.10864458793188
 30
0.0
  0
SPLINE
  5
17C
330
1F
100
AcDbEntity
  8
0
  6
Continuous
 62
     7
370
    15
100
AcDbSpline
210
0.0
220
0.0
230
1.0
 70
     8
 71
     3
 72
    26
 73
    22
 74
     0
 42
0.000000001
 43
0.00000001
 40
0.0
 40
0.0
 40
0.0
 40
0.0
 40
0.0465037122421277
 40
0.0971000846652225
 40
0.1486409062200214
 40
0.2013725405879774
 40
0.2551710673299383
 40
0.3096781806689363
 40
0.3645128386643393
 40
0.4193742382717895
 40
0.4741391559439383
 40
0.5287856569736832
 40
0.5833319144884906
 40
0.6378145036847594
 40
0.6922778468217642
 40
0.7467666559530701
 40
0.8013173813193095
 40
0.8559802074460012
 40
0.9108035851252437
 40
0.9658277888052264
 40
1.0
 40
1.0
 40
1.0
 40
1.0
 10
224.3296382357002
 20
69.36490266027798
 30
0.0
 10
224.1024428311278
 20
69.43691606256158
 30
0.0
 10
223.6280571970375
 20
69.5872805629774
 30
0.0
 10
222.8488311297714
 20
69.6510621308428
 30
0.0
 10
222.0170391385897
 20
69.59559778758828
 30
0.0
 10
221.1527453674872
 20
69.40375441208481
 30
0.0
 10
220.2674807424146
 20
69.07960717039879
 30
0.0
 10
219.3740133031514
 20
68.6253022542783
 30
0.0
 10
218.4873789644099
 20
68.04846342599527
 30
0.0
 10
217.6218630316297
 20
67.35933360714616
 30
0.0
 10
216.790203245249
 20
66.56980620817711
 30
0.0
 10
216.0034923635445
 20
65.69224525049992
 30
0.0
 10
215.2718348593447
 20
64.73948353621239
 30
0.0
 10
214.6046340431622
 20
63.72488922053371
 30
0.0
 10
214.0106471101739
 20
62.66234641965278
 30
0.0
 10
213.4978979510868
 20
61.56618071496964
 30
0.0
 10
213.073788293692
 20
60.45102626553776
 30
0.0
 10
212.7441617538012
 20
59.33117125608724
 30
0.0
 10
212.5167077017574
 20
58.22192783518031
 30
0.0
 10
212.4048268817695
 20
57.27252213969351
 30
0.0
 10
212.393698577726
 20
56.70759115585709
 30
0.0
 10
212.3894351916185
 20
56.49115935288343
 30
0.0
  0
SPLINE
  5
17D
330
1F
100
AcDbEntity
  8
0
  6
Continuous
 62
     7
370
    15
100
AcDbSpline
210
0.0
220
0.0
230
1.0
 70
     8
 71
     3
 72
    13
 73
     9
 74
     0
 42
0.000000001
 43
0.00000001
 40
0.0
 40
0.0
 40
0.0
 40
0.0
 40
0.0978124012401448
 40
0.2822186019567937
 40
0.4666364895028891
 40
0.6494597658830552
 40
0.8290122681415781
 40
1.0
 40
1.0
 40
1.0
 40
1.0
 10
212.3894351916185
 20
56.49115935288343
 30
0.0
 10
212.39261293877
 20
56.30823974714354
 30
0.0
 10
212.4017817082421
 20
55.78046090981946
 30
0.0
 10
212.5044122725625
 20
54.95016295763622
 30
0.0
 10
212.7355989597148
 20
54.03441000855721
 30
0.0
 10
213.0855089665343
 20
53.21051150715639
 30
0.0
 10
213.5328481920596
 20
52.48911079578991
 30
0.0
 10
213.9161605466543
 20
52.10734178192313
 30
0.0
 10
214.1031339771667
 20
51.92112116750678
 30
0.0
  0
ARC
  5
17E
330
1F
100
AcDbEntity
  8
0
  6
Continuous
 62
     7
370
    15
100
AcDbCircle
 10
270.5245759564
 20
41.3505352401
 30
0.0
 40
0.9334060332301749
100
AcDbArc
 50
297.0848293624
 51
25.7954831155
  0
LWPOLYLINE
  5
17F
330
1F
100
AcDbEntity
  8
0
  6
Continuous
 62
     7
370
    15
100
AcDbPolyline
 90
       16
 70
   128
 43
0.0
 10
267.6184567813
 20
40.4452637253
 10
267.5413251476
 20
40.4930630348
 10
267.2013159425
 20
40.787341756
 10
267.0114470542
 20
41.1236643803
 10
266.9858001895
 20
41.4770873971
 10
267.126277459
 20
41.8213990383
 10
267.4224603062
 20
42.1310632844
 10
267.8523822044
 20
42.3831137549
 10
268.3841578131
 20
42.5588570195
 10
268.9783477681
 20
42.6452590043
 10
269.5908837187
 20
42.6359116692
 10
270.1763366756
 20
42.5315082634
 10
270.6912862712
 20
42.3397919099
 10
271.0975410499
 20
42.0749813335
 10
271.3649709531
 20
41.7567163233
 10
271.3649709531
 20
41.7567163233
  0
LWPOLYLINE
  5
180
330
1F
100
AcDbEntity
  8
0
  6
Continuous
 62
     7
370
    15
100
AcDbPolyline
 90
       20
 70
   128
 43
0.0
 10
270.6518851843
 20
41.6225559925
 10
270.7255300898
 20
41.3406888955
 10
270.6366466117
 20
41.060289765
 10
270.3948666539
 20
40.8117441976
 10
270.0263908265
 20
40.6219859622
 10
269.5711492029
 20
40.5115783078
 10
269.0784742769
 20
40.492485617
 10
268.6017550211
 20
40.5667768792
 10
268.1926513642
 20
40.7264014833
 10
267.8954960352
 20
40.9540616266
 10
267.7424904249
 20
41.2250868001
 10
267.7502150653
 20
41.5101072208
 10
267.9178328716
 20
41.7782365037
 10
268.2271798538
 20
42.0004186804
 10
268.6447334664
 20
42.1525768647
 10
269.1252452963
 20
42.2182223562
 10
269.6166444309
 20
42.1902414474
 10
270.0656801491
 20
42.0716663038
 10
270.4236924634
 20
41.8753463823
 10
270.6518851843
 20
41.6225559925
  0
SPLINE
  5
181
330
1F
100
AcDbEntity
  8
0
  6
Continuous
 62
     7
370
    15
100
AcDbSpline
210
0.0
220
0.0
230
1.0
 70
     8
 71
     3
 72
    11
 73
     7
 74
     0
 42
0.000000001
 43
0.00000001
 40
0.0
 40
0.0
 40
0.0
 40
0.0
 40
0.1285561766307392
 40
0.4801535797842238
 40
0.8150691831753795
 40
1.0
 40
1.0
 40
1.0
 40
1.0
 10
270.1905651465165
 20
41.92771564403411
 30
0.0
 10
270.2085772044708
 20
41.87331427493805
 30
0.0
 10
270.2758517169271
 20
41.67012674399846
 30
0.0
 10
270.4020064952165
 20
41.36566922591935
 30
0.0
 10
270.5386055091299
 20
41.1898473100296
 30
0.0
 10
270.6117825997243
 20
41.14974870161203
 30
0.0
 10
270.6378147096133
 20
41.13548397241544
 30
0.0
  0
SPLINE
  5
182
330
1F
100
AcDbEntity
  8
0
  6
Continuous
 62
     7
370
    15
100
AcDbSpline
210
0.0
220
0.0
230
1.0
 70
     8
 71
     3
 72
    12
 73
     8
 74
     0
 42
0.000000001
 43
0.00000001
 40
0.0
 40
0.0
 40
0.0
 40
0.0
 40
0.2161846684386953
 40
0.4397605101600227
 40
0.593416492948111
 40
0.752207803435348
 40
1.0
 40
1.0
 40
1.0
 40
1.0
 10
268.7784640836599
 20
42.10023092850585
 30
0.0
 10
268.8751503876047
 20
42.05143915142199
 30
0.0
 10
269.0718286194858
 20
41.95218744714076
 30
0.0
 10
269.3609802701173
 20
41.86749413266104
 30
0.0
 10
269.6253429491373
 20
41.83983015354714
 30
0.0
 10
269.896860421951
 20
41.85249223827173
 30
0.0
 10
270.0793480911777
 20
41.89923082584187
 30
0.0
 10
270.1905651465165
 20
41.9277156440341
 30
0.0
  0
SPLINE
  5
183
330
1F
100
AcDbEntity
  8
0
  6
Continuous
 62
     7
370
    15
100
AcDbSpline
210
0.0
220
0.0
230
1.0
 70
     8
 71
     3
 72
    12
 73
     8
 74
     0
 42
0.000000001
 43
0.00000001
 40
0.0
 40
0.0
 40
0.0
 40
0.0
 40
0.2161846684386932
 40
0.4397605101600224
 40
0.5934164929481065
 40
0.7522078034353499
 40
1.0
 40
1.0
 40
1.0
 40
1.0
 10
267.8136125839
 20
41.48051454135893
 30
0.0
 10
267.8796757912874
 20
41.48596672330301
 30
0.0
 10
268.0140608519548
 20
41.49705749273883
 30
0.0
 10
268.2116305664096
 20
41.57458705419671
 30
0.0
 10
268.3922626288322
 20
41.695238583528
 30
0.0
 10
268.5777833735906
 20
41.86023023376241
 30
0.0
 10
268.7024723961914
 20
42.00934995753025
 30
0.0
 10
268.7784640836598
 20
42.10023092850585
 30
0.0
  0
SPLINE
  5
184
330
1F
100
AcDbEntity
  8
0
  6
Continuous
 62
     7
370
    15
100
AcDbSpline
210
0.0
220
0.0
230
1.0
 70
     8
 71
     3
 72
    11
 73
     7
 74
     0
 42
0.000000001
 43
0.00000001
 40
0.0
 40
0.0
 40
0.0
 40
0.0
 40
0.1305629920380316
 40
0.4878185798370498
 40
0.86286869891288
 40
1.0
 40
1.0
 40
1.0
 40
1.0
 10
268.2340992187308
 20
40.70552552293034
 30
0.0
 10
268.2168144133313
 20
40.71539682595755
 30
0.0
 10
268.152233714842
 20
40.75227867853086
 30
0.0
 10
268.0249020997655
 20
40.91965197035607
 30
0.0
 10
267.8989111431712
 20
41.22283216366397
 30
0.0
 10
267.8316271738362
 20
41.42609343029167
 30
0.0
 10
267.8136125839
 20
41.48051454135893
 30
0.0
  0
SPLINE
  5
185
330
1F
100
AcDbEntity
  8
0
  6
Continuous
 62
     7
370
    15
100
AcDbSpline
210
0.0
220
0.0
230
1.0
 70
     8
 71
     3
 72
    10
 73
     6
 74
     0
 42
0.000000001
 43
0.00000001
 40
0.0
 40
0.0
 40
0.0
 40
0.0
 40
0.4648991263668136
 40
0.9456927656365862
 40
1.0
 40
1.0
 40
1.0
 40
1.0
 10
270.6378147096133
 20
41.13548397241544
 30
0.0
 10
270.5717525379183
 20
41.05695794957951
 30
0.0
 10
270.4373695840451
 20
40.89722116476234
 30
0.0
 10
270.2825382674681
 20
40.74937650673844
 30
0.0
 10
270.1990394205668
 20
40.69875633524843
 30
0.0
 10
270.1905651465165
 20
40.69361890854613
 30
0.0
  0
LINE
  5
186
330
1F
100
AcDbEntity
  8
0
  6
Continuous
 62
     7
370
    15
100
AcDbLine
 10
270.1905651465
 20
40.6912180478
 30
0.0
 11
270.1905651465
 21
41.927715644
 31
0.0
  0
LINE
  5
187
330
1F
100
AcDbEntity
  8
0
  6
Continuous
 62
     7
370
    15
100
AcDbLine
 10
268.7784640837
 20
40.5276916002
 30
0.0
 11
268.7784640837
 21
42.1002309285
 31
0.0
  0
SPLINE
  5
188
330
1F
100
AcDbEntity
  8
0
  6
Continuous
 62
     7
370
    15
100
AcDbSpline
210
0.0
220
0.0
230
1.0
 70
     8
 71
     3
 72
    12
 73
     8
 74
     0
 42
0.000000001
 43
0.00000001
 40
0.0
 40
0.0
 40
0.0
 40
0.0
 40
0.2499999999999972
 40
0.2499999999999972
 40
0.4999999999999944
 40
0.4999999999999944
 40
1.0
 40
1.0
 40
1.0
 40
1.0
 10
245.1030276689559
 20
32.24558565974696
 30
0.0
 10
245.1369591612455
 20
32.22599742619549
 30
0.0
 10
245.1753908702727
 20
32.19881023725908
 30
0.0
 10
245.2495677229377
 20
32.13958630972324
 30
0.0
 10
245.2847840031932
 20
32.10815363070649
 30
0.0
 10
245.3798829204511
 20
32.0161609139045
 30
0.0
 10
245.428412077213
 20
31.95930424837985
 30
0.0
 10
245.461753673368
 20
31.91107544237752
 30
0.0
  0
ARC
  5
189
330
1F
100
AcDbEntity
  8
0
  6
Continuous
 62
     7
370
    15
100
AcDbCircle
 10
269.2354797318
 20
48.0789390355
 30
0.0
 40
10.31316483492126
100
AcDbArc
 50
73.4228773132
 51
101.4415891812
  0
SPLINE
  5
18A
330
1F
100
AcDbEntity
  8
0
  6
Continuous
 62
     7
370
    15
100
AcDbSpline
210
0.0
220
0.0
230
1.0
 70
     8
 71
     3
 72
    12
 73
     8
 74
     0
 42
0.000000001
 43
0.00000001
 40
0.0
 40
0.0
 40
0.0
 40
0.0
 40
0.4999999999999972
 40
0.4999999999999972
 40
0.7499999999999986
 40
0.7499999999999986
 40
1.0
 40
1.0
 40
1.0
 40
1.0
 10
272.3900164925664
 20
57.52989138058885
 30
0.0
 10
272.3900164925664
 20
57.60257437778165
 30
0.0
 10
272.3729997244963
 20
57.68615722452194
 30
0.0
 10
272.3185888986148
 20
57.80760140239763
 30
0.0
 10
272.2954436796929
 20
57.84731628007898
 30
0.0
 10
272.2411628678357
 20
57.91604605194477
 30
0.0
 10
272.2099268992781
 20
57.94495564785043
 30
0.0
 10
272.1778844582104
 20
57.96345335534403
 30
0.0
  0
LWPOLYLINE
  5
18B
330
1F
100
AcDbEntity
  8
0
  6
Continuous
 62
     7
370
    15
100
AcDbPolyline
 90
       16
 70
   128
 43
0.0
 10
245.5857689718
 20
32.4661107263
 10
245.8946138053
 20
33.6892919025
 10
246.4342491581
 20
35.4831565761
 10
247.0770453617
 20
37.2806545156
 10
247.8186970957
 20
39.0697464388
 10
248.6542369248
 20
40.8384493653
 10
249.5780685699
 20
42.574916876
 10
250.5840043914
 20
44.2675184582
 10
251.6653068318
 20
45.9049174046
 10
252.8147335434
 20
47.4761467439
 10
254.0245858955
 20
48.9706826958
 10
255.2867605387
 20
50.3785151569
 10
256.5928036792
 20
51.6902147465
 10
257.933967701
 20
52.8969959626
 10
259.301269755
 20
53.9907760256
 10
260.4805864519
 20
54.828421818
  0
LINE
  5
18C
330
1F
100
AcDbEntity
  8
0
  6
Continuous
 62
     7
370
    15
100
AcDbLine
 10
243.6475054614
 20
33.0858407448
 30
0.0
 11
245.103027669
 21
32.2455856597
 31
0.0
  0
LWPOLYLINE
  5
18D
330
1F
100
AcDbEntity
  8
0
  6
Continuous
 62
     7
370
    15
100
AcDbPolyline
 90
       24
 70
   128
 43
0.0
 10
243.6475054614
 20
33.0858407448
 10
244.1181643013
 20
34.9472009879
 10
244.7032980097
 20
36.8231187858
 10
245.398733348
 20
38.7002148846
 10
246.1995103943
 20
40.5651016269
 10
247.0999179179
 20
42.4044784333
 10
248.0935341123
 20
44.2052266644
 10
249.1732723966
 20
45.9545031842
 10
250.3314319577
 20
47.6398319583
 10
251.5597526729
 20
49.249193035
 10
252.8494740228
 20
50.7711082725
 10
254.1913975716
 20
52.1947232026
 10
255.5759525715
 20
53.5098844454
 10
256.9932642228
 20
54.7072121253
 10
258.4332241015
 20
55.7781667683
 10
259.8855622541
 20
56.7151102071
 10
261.3399204435
 20
57.5113600572
 10
262.785926026
 20
58.1612373762
 10
264.2132659293
 20
58.660107167
 10
265.6117602067
 20
59.004411435
 10
266.9714346421
 20
59.1916945639
 10
268.2825918863
 20
59.2206208297
 10
269.5358806206
 20
59.0909839269
 10
270.7223622506
 20
58.8037084404
  0
LINE
  5
18E
330
1F
100
AcDbEntity
  8
0
  6
Continuous
 62
     7
370
    15
100
AcDbLine
 10
272.1778844582
 20
57.9634533553
 30
0.0
 11
270.7223622506
 21
58.8037084404
 31
0.0
  0
LINE
  5
18F
330
1F
100
AcDbEntity
  8
0
  6
Continuous
 62
     7
370
    15
100
AcDbLine
 10
278.0999155044
 20
50.6605879631
 30
0.0
 11
278.2041973881
 21
50.8412094835
 31
0.0
  0
LINE
  5
190
330
1F
100
AcDbEntity
  8
0
  6
Continuous
 62
     7
370
    15
100
AcDbLine
 10
275.8018067118
 20
49.3339179961
 30
0.0
 11
278.0999155044
 21
50.6605879631
 31
0.0
  0
ARC
  5
191
330
1F
100
AcDbEntity
  8
0
  6
Continuous
 62
     7
370
    15
100
AcDbCircle
 10
276.629916032
 20
48.039312276
 30
0.0
 40
1.536804807572193
100
AcDbArc
 50
122.60547834
 51
177.3945215143
  0
LINE
  5
192
330
1F
100
AcDbEntity
  8
0
  6
Continuous
 62
     7
370
    15
100
AcDbLine
 10
275.0946999306
 20
42.8051528909
 30
0.0
 11
275.0946999306
 21
48.1091731283
 31
0.0
  0
LINE
  5
193
330
1F
100
AcDbEntity
  8
0
  6
Continuous
 62
     7
370
    15
100
AcDbLine
 10
245.5072609138
 20
21.3526995309
 30
0.0
 11
245.4617536734
 21
21.2343315108
 31
0.0
  0
LINE
  5
194
330
1F
100
AcDbEntity
  8
0
  6
Continuous
 62
     7
370
    15
100
AcDbLine
 10
245.5072609138
 20
21.3526995309
 30
0.0
 11
248.6489063142
 21
23.1663328164
 31
0.0
  0
ARC
  5
195
330
1F
100
AcDbEntity
  8
0
  6
Continuous
 62
     7
370
    15
100
AcDbCircle
 10
247.820796994
 20
24.4609385364
 30
0.0
 40
1.536804807571984
100
AcDbArc
 50
302.60547834
 51
357.3945215143
  0
LINE
  5
196
330
1F
100
AcDbEntity
  8
0
  6
Continuous
 62
     7
370
    15
100
AcDbLine
 10
249.3560130954
 20
33.2505454931
 30
0.0
 11
249.3560130954
 21
24.3910776841
 31
0.0
  0
ARC
  5
197
330
1F
100
AcDbEntity
  8
0
  6
Continuous
 62
     7
370
    15
100
AcDbCircle
 10
248.924938728
 20
33.32047269
 30
0.0
 40
0.4367091974284592
100
AcDbArc
 50
350.7859630095
 51
129.2032852357
  0
LINE
  5
198
330
1F
100
AcDbEntity
  8
0
  6
Continuous
 62
     7
370
    15
100
AcDbLine
 10
248.6489063142
 20
33.6588822491
 30
0.0
 11
245.5072609138
 21
31.8452489637
 31
0.0
  0
LINE
  5
199
330
1F
100
AcDbEntity
  8
0
  6
Continuous
 62
     7
370
    15
100
AcDbLine
 10
245.4617536734
 20
31.9110754424
 30
0.0
 11
245.5072609138
 21
31.8452489637
 31
0.0
  0
LINE
  5
19A
330
1F
100
AcDbEntity
  8
0
  6
Continuous
 62
     7
370
    15
100
AcDbLine
 10
272.3900164926
 20
54.3049303273
 30
0.0
 11
272.3900164926
 21
57.5298913806
 31
0.0
  0
LINE
  5
19B
330
1F
100
AcDbEntity
  8
0
  6
Continuous
 62
     7
370
    15
100
AcDbLine
 10
275.1827634032
 20
55.9171488018
 30
0.0
 11
272.3900164926
 21
54.3049303273
 31
0.0
  0
SPLINE
  5
19C
330
1F
100
AcDbEntity
  8
0
  6
Continuous
 62
     7
370
    15
100
AcDbSpline
210
0.0
220
0.0
230
1.0
 70
     8
 71
     3
 72
     8
 73
     4
 74
     0
 42
0.000000001
 43
0.00000001
 40
0.0
 40
0.0
 40
0.0
 40
0.0
 40
1.0
 40
1.0
 40
1.0
 40
1.0
 10
242.5749511967275
 20
34.17735458727846
 30
0.0
 10
242.2878840670552
 20
34.12990258755511
 30
0.0
 10
242.0007709484696
 20
34.08254515485232
 30
0.0
 10
241.713616122072
 20
34.03527348594024
 30
0.0
  0
SPLINE
  5
19D
330
1F
100
AcDbEntity
  8
0
  6
Continuous
 62
     7
370
    15
100
AcDbSpline
210
0.0
220
0.0
230
1.0
 70
     8
 71
     3
 72
     8
 73
     4
 74
     0
 42
0.000000001
 43
0.00000001
 40
0.0
 40
0.0
 40
0.0
 40
0.0
 40
0.0011862984959112
 40
0.0011862984959112
 40
0.0011862984959112
 40
0.0011862984959112
 10
241.3613150347966
 20
34.40563038560241
 30
0.0
 10
241.4790259026411
 20
34.28208043448996
 30
0.0
 10
241.5964656530771
 20
34.15862538537468
 30
0.0
 10
241.713616122072
 20
34.03527348594024
 30
0.0
  0
LWPOLYLINE
  5
19E
330
1F
100
AcDbEntity
  8
0
  6
Continuous
 62
     7
370
    15
100
AcDbPolyline
 90
       24
 70
   128
 43
0.0
 10
241.3613150348
 20
34.4056303856
 10
241.8319738747
 20
36.2669906286
 10
242.4171075831
 20
38.1429084265
 10
243.1125429214
 20
40.0200045254
 10
243.9133199677
 20
41.8848912676
 10
244.8137274913
 20
43.724268074
 10
245.8073436857
 20
45.5250163052
 10
246.88708197
 20
47.274292825
 10
248.0452415311
 20
48.9596215991
 10
249.2735622463
 20
50.5689826758
 10
250.5632835962
 20
52.0908979133
 10
251.905207145
 20
53.5145128433
 10
253.2897621449
 20
54.8296740862
 10
254.7070737962
 20
56.0270017661
 10
256.1470336749
 20
57.0979564091
 10
257.5993718275
 20
58.0348998479
 10
259.0537300169
 20
58.8311496979
 10
260.4997355994
 20
59.481027017
 10
261.9270755027
 20
59.9798968078
 10
263.3255697801
 20
60.3242010758
 10
264.6852442155
 20
60.5114842047
 10
265.9964014597
 20
60.5404104704
 10
267.249690194
 20
60.4107735677
 10
268.4361718241
 20
60.1234980812
  0
LINE
  5
19F
330
1F
100
AcDbEntity
  8
0
  6
Continuous
 62
     7
370
    15
100
AcDbLine
 10
268.7409921404
 20
59.1643641386
 30
0.0
 11
268.4361718241
 21
60.1234980812
 31
0.0
  0
LWPOLYLINE
  5
1A0
330
1F
100
AcDbEntity
  8
0
  6
Continuous
 62
     7
370
    15
100
AcDbPolyline
 90
       23
 70
   128
 43
0.0
 10
242.5749511967
 20
34.1773545873
 10
243.026200449
 20
35.9913621441
 10
243.5919364444
 20
37.820660516
 10
244.2679325857
 20
39.6515830672
 10
245.0491385247
 20
41.4704510272
 10
245.9297178943
 20
43.2636756855
 10
246.9030919109
 20
45.0178599116
 10
247.9619885252
 20
46.7198982451
 10
249.0984967505
 20
48.3570748062
 10
250.3041257663
 20
49.9171582953
 10
251.5698683526
 20
51.3884933731
 10
252.8862681825
 20
52.7600877372
 10
254.2434904705
 20
54.0216942451
 10
255.6313954474
 20
55.1638874706
 10
257.0396141147
 20
56.1781341206
 10
258.4576257108
 20
57.0568567872
 10
259.8748363115
 20
57.7934905585
 10
261.2806579768
 20
58.3825320644
 10
262.6645878529
 20
58.8195805927
 10
264.0162866393
 20
59.1013709663
 10
265.3256558328
 20
59.2257979374
 10
266.5829131734
 20
59.1919319154
 10
266.7659827926
 20
59.1732484764
  0
LINE
  5
1A1
330
1F
100
AcDbEntity
  8
0
  6
Continuous
 62
     7
370
    15
100
AcDbLine
 10
239.9234704968
 20
35.2356803693
 30
0.0
 11
241.3613150348
 21
34.4056303856
 31
0.0
  0
ARC
  5
1A2
330
1F
100
AcDbEntity
  8
0
  6
Continuous
 62
     7
370
    15
100
AcDbCircle
 10
264.0558630537
 20
51.0686803953
 30
0.0
 40
10.31352047580397
100
AcDbArc
 50
73.423120529
 51
101.4471789657
  0
LINE
  5
1A3
330
1F
100
AcDbEntity
  8
0
  6
Continuous
 62
     7
370
    15
100
AcDbLine
 10
268.4361718241
 20
60.1234980812
 30
0.0
 11
266.998327286
 21
60.9535480649
 31
0.0
  0
LWPOLYLINE
  5
1A4
330
1F
100
AcDbEntity
  8
0
  6
Continuous
 62
     7
370
    15
100
AcDbPolyline
 90
       55
 70
   128
 43
0.0
 10
273.839585394
 20
39.098974272
 10
272.8339818304
 20
38.4508175199
 10
271.8419773299
 20
37.676157633
 10
270.8769870516
 20
36.7854705573
 10
269.9520608335
 20
35.7908013075
 10
269.0797067162
 20
34.7056010789
 10
268.2717217925
 20
33.5445453428
 10
267.5390326724
 20
32.3233353865
 10
266.8915477194
 20
31.0584859796
 10
266.3380230567
 20
29.7671020404
 10
265.8859441558
 20
28.4666473215
 10
265.5414246083
 20
27.1747082419
 10
265.3091234501
 20
25.9087560614
 10
265.1921821558
 20
24.6859106116
 10
265.1921821558
 20
23.5227087794
 10
265.3091234501
 20
22.434880874
 10
265.5414246083
 20
21.4371379019
 10
265.8859441558
 20
20.542972625
 10
266.3380230567
 20
19.7644770948
 10
266.8915477194
 20
19.1121791279
 10
267.5390326724
 20
18.5948999352
 10
268.2717217925
 20
18.2196348305
 10
269.0797067162
 20
17.9914586305
 10
269.9520608335
 20
17.9134570269
 10
270.8769870516
 20
17.9866848576
 10
271.8419773299
 20
18.2101518417
 10
272.8339818304
 20
18.5808359718
 10
273.839585394
 20
19.0937243808
 10
274.8451889576
 20
19.7418811328
 10
275.8371934581
 20
20.5165410197
 10
276.8021837364
 20
21.4072280954
 10
277.7271099545
 20
22.4018973453
 10
278.5994640718
 20
23.4870975739
 10
279.4074489955
 20
24.6481533099
 10
280.1401381156
 20
25.8693632662
 10
280.7876230686
 20
27.1342126732
 10
281.3411477313
 20
28.4255966123
 10
281.7932266322
 20
29.7260513313
 10
282.1377461797
 20
31.0179904109
 10
282.3700473379
 20
32.2839425913
 10
282.4869886322
 20
33.5067880411
 10
282.4869886322
 20
34.6699898734
 10
282.3700473379
 20
35.7578177787
 10
282.1377461797
 20
36.7555607508
 10
281.7932266322
 20
37.6497260277
 10
281.3411477313
 20
38.4282215579
 10
280.7876230686
 20
39.0805195249
 10
280.1401381156
 20
39.5977987175
 10
279.4074489955
 20
39.9730638223
 10
278.5994640718
 20
40.2012400223
 10
277.7271099545
 20
40.2792416259
 10
276.8021837364
 20
40.2060137952
 10
275.8371934581
 20
39.982546811
 10
274.8451889576
 20
39.611862681
 10
273.839585394
 20
39.098974272
  0
LWPOLYLINE
  5
1A5
330
1F
100
AcDbEntity
  8
0
  6
Continuous
 62
     7
370
    15
100
AcDbPolyline
 90
       29
 70
   128
 43
0.0
 10
273.6628086987
 20
39.4051604889
 10
272.6552574621
 20
38.7569831768
 10
271.6608411967
 20
37.9841951195
 10
270.6925236392
 20
37.0968707911
 10
269.7629282901
 20
36.1065778212
 10
268.8841738461
 20
35.0262261931
 10
268.0677162154
 20
33.8698999426
 10
267.3241991718
 20
32.6526735506
 10
266.6633155971
 20
31.3904154246
 10
266.0936811193
 20
30.0995810298
 10
265.622721795
 20
28.7969983665
 10
265.2565772992
 20
27.4996485919
 10
265.0000208853
 20
26.2244446441
 10
264.8563971586
 20
24.988010757
 10
264.8275784741
 20
23.806465737
 10
264.9139405272
 20
22.6952128305
 10
265.1143574567
 20
21.6687389185
 10
265.4262165212
 20
20.7404256583
 10
265.845452161
 20
19.9223750328
 10
266.3665989984
 20
19.2252515831
 10
266.9828630874
 20
18.6581433794
 10
267.6862104831
 20
18.2284435445
 10
268.4674719765
 20
17.9417538728
 10
269.3164626293
 20
17.8018118026
 10
270.2221145501
 20
17.8104416928
 10
271.1726211809
 20
17.9675310396
 10
272.1555912143
 20
18.2710319432
 10
273.1582101326
 20
18.7169878051
 10
273.6642452579
 20
18.9924696346
  0
LWPOLYLINE
  5
1A6
330
1F
100
AcDbEntity
  8
0
  6
Continuous
 62
     7
370
    15
100
AcDbPolyline
 90
       15
 70
   128
 43
0.0
 10
282.5016434635
 20
34.3009510392
 10
282.4692202388
 20
35.1556770962
 10
282.3255965121
 20
36.2262865583
 10
282.0690400983
 20
37.2052767757
 10
281.7028956024
 20
38.0798851138
 10
281.2319362781
 20
38.8387097154
 10
280.6623018003
 20
39.4718581414
 10
280.0014182256
 20
39.9710763337
 10
279.257901182
 20
40.3298562198
 10
278.4414435513
 20
40.5435205551
 10
277.5626891073
 20
40.6092838982
 10
276.6330937582
 20
40.5262889235
 10
275.6647762007
 20
40.2956175974
 10
274.6703599353
 20
39.9202770732
 10
273.6628086987
 20
39.4051604889
  0
SPLINE
  5
1A7
330
1F
100
AcDbEntity
  8
0
  6
Continuous
 62
     7
370
    15
100
AcDbSpline
210
0.0
220
0.0
230
1.0
 70
    11
 71
     3
 72
    77
 73
    73
 74
     0
 42
0.000000001
 43
0.00000001
 40
0.0
 40
0.0
 40
0.0
 40
0.0
 40
0.0312499999999996
 40
0.0312499999999996
 40
0.0624999999999992
 40
0.0624999999999992
 40
0.0937499999999989
 40
0.0937499999999989
 40
0.1249999999999985
 40
0.1249999999999985
 40
0.1562499999999981
 40
0.1562499999999981
 40
0.1874999999999977
 40
0.1874999999999977
 40
0.2187499999999973
 40
0.2187499999999973
 40
0.2499999999999969
 40
0.2499999999999969
 40
0.2812499999999966
 40
0.2812499999999966
 40
0.3124999999999962
 40
0.3124999999999962
 40
0.3437499999999958
 40
0.3437499999999958
 40
0.3593749999999957
 40
0.3593749999999957
 40
0.3749999999999955
 40
0.3906249999999954
 40
0.3906249999999954
 40
0.4062499999999953
 40
0.4062499999999953
 40
0.4374999999999952
 40
0.4374999999999952
 40
0.4687499999999951
 40
0.4687499999999951
 40
0.499999999999995
 40
0.499999999999995
 40
0.531249999999995
 40
0.531249999999995
 40
0.5624999999999949
 40
0.5624999999999949
 40
0.5937499999999949
 40
0.5937499999999949
 40
0.6249999999999948
 40
0.6249999999999948
 40
0.6562499999999948
 40
0.6562499999999948
 40
0.6874999999999947
 40
0.6874999999999947
 40
0.7187499999999947
 40
0.7187499999999947
 40
0.7499999999999946
 40
0.7499999999999946
 40
0.7656249999999948
 40
0.7656249999999948
 40
0.7812499999999949
 40
0.7812499999999949
 40
0.8124999999999957
 40
0.8124999999999957
 40
0.8437499999999963
 40
0.8437499999999963
 40
0.8749999999999971
 40
0.8749999999999971
 40
0.8906249999999974
 40
0.8906249999999974
 40
0.9062499999999978
 40
0.9062499999999978
 40
0.9374999999999986
 40
0.9374999999999986
 40
0.9687499999999992
 40
0.9687499999999992
 40
1.0
 40
1.0
 40
1.0
 40
1.0
 10
269.2109106254464
 20
43.47464020817608
 30
0.0
 10
269.3978284591558
 20
43.44830690135059
 30
0.0
 10
269.5800291027006
 20
43.41254357337092
 30
0.0
 10
269.9359993133837
 20
43.32538944350486
 30
0.0
 10
270.1109493162718
 20
43.27355131871245
 30
0.0
 10
270.4468475980564
 20
43.15711572925873
 30
0.0
 10
270.6057320528665
 20
43.09337574726862
 30
0.0
 10
270.906152442954
 20
42.95612408079906
 30
0.0
 10
271.0488985798003
 20
42.88183580570794
 30
0.0
 10
271.3089122266481
 20
42.72750231046975
 30
0.0
 10
271.4262666764472
 20
42.64765678208934
 30
0.0
 10
271.6358585022696
 20
42.48226488687452
 30
0.0
 10
271.7287701133338
 20
42.39582141270746
 30
0.0
 10
271.8822488412544
 20
42.22157297593595
 30
0.0
 10
271.943439676785
 20
42.13358662554457
 30
0.0
 10
272.033925595933
 20
41.9543352164485
 30
0.0
 10
272.0631487661617
 20
41.86210501066206
 30
0.0
 10
272.0848489088549
 20
41.67956635771472
 30
0.0
 10
272.0779823522672
 20
41.5887152572913
 30
0.0
 10
272.0264595214711
 20
41.40598110028325
 30
0.0
 10
271.9808573949941
 20
41.31341042736915
 30
0.0
 10
271.8530044225944
 20
41.1350994136146
 30
0.0
 10
271.7707482268904
 20
41.04822790859095
 30
0.0
 10
271.6175290196311
 20
40.92077678031275
 30
0.0
 10
271.561424057557
 20
40.87885077470988
 30
0.0
 10
271.4422597125953
 20
40.79835453065562
 30
0.0
 10
271.3154210950623
 20
40.72058100020669
 30
0.0
 10
271.173387344783
 20
40.64816520584738
 30
0.0
 10
271.0235894851562
 20
40.57852208825094
 30
0.0
 10
270.9447665384469
 20
40.54512427299959
 30
0.0
 10
270.7029918973004
 20
40.45182162696552
 30
0.0
 10
270.5328033424928
 20
40.3977406085636
 30
0.0
 10
270.1749703861524
 20
40.30638834640948
 30
0.0
 10
269.991293676085
 20
40.27025499751637
 30
0.0
 10
269.6210648326528
 20
40.21810622895374
 30
0.0
 10
269.4317832989374
 20
40.20190174409198
 30
0.0
 10
269.0609321619935
 20
40.19118346248683
 30
0.0
 10
268.8784312043392
 20
40.1963487903679
 30
0.0
 10
268.5188615236975
 20
40.2285892702034
 30
0.0
 10
268.343246094374
 20
40.25576116298341
 30
0.0
 10
268.0095953269253
 20
40.33085386559873
 30
0.0
 10
267.8500299423922
 20
40.37888973533725
 30
0.0
 10
267.5456214126803
 20
40.49719892428079
 30
0.0
 10
267.4047196660716
 20
40.56598566734332
 30
0.0
 10
267.1457457433252
 20
40.7216539809678
 30
0.0
 10
267.0270860872823
 20
40.80895600295936
 30
0.0
 10
266.8149492145387
 20
41.00104753623482
 30
0.0
 10
266.7237629975619
 20
41.10361420872436
 30
0.0
 10
266.5705947208837
 20
41.32064945290232
 30
0.0
 10
266.5083008419659
 20
41.43591835671603
 30
0.0
 10
266.4169793351282
 20
41.67450580581753
 30
0.0
 10
266.3885271702661
 20
41.79566114272402
 30
0.0
 10
266.3720815031006
 20
41.97904160975581
 30
0.0
 10
266.3710023898387
 20
42.04044489873161
 30
0.0
 10
266.3781407424377
 20
42.16362488751157
 30
0.0
 10
266.3864674325934
 20
42.22576113407914
 30
0.0
 10
266.4255717505131
 20
42.40830708268808
 30
0.0
 10
266.470138581215
 20
42.52569270291235
 30
0.0
 10
266.5978773069825
 20
42.74998816804133
 30
0.0
 10
266.6827196475282
 20
42.85813323809568
 30
0.0
 10
266.8860835361135
 20
43.05107994600807
 30
0.0
 10
267.0045717141024
 20
43.13695290410692
 30
0.0
 10
267.2085622819397
 20
43.24895152881246
 30
0.0
 10
267.2808790141458
 20
43.28332613942929
 30
0.0
 10
267.4303217640724
 20
43.34458923797163
 30
0.0
 10
267.5079129024375
 20
43.37174923186417
 30
0.0
 10
267.7490865828592
 20
43.44320056362248
 30
0.0
 10
267.9231202967903
 20
43.47761001007758
 30
0.0
 10
268.278965751372
 20
43.51881974802791
 30
0.0
 10
268.4615722226558
 20
43.52621672536802
 30
0.0
 10
268.8359423740259
 20
43.51728576480693
 30
0.0
 10
269.023992791737
 20
43.50097351500157
 30
0.0
 10
269.2109106254464
 20
43.47464020817608
 30
0.0
  0
LINE
  5
1A8
330
1F
100
AcDbEntity
  8
0
  6
Continuous
 62
     7
370
    15
100
AcDbLine
 10
278.460036462
 20
28.9276993069
 30
0.0
 11
280.2212240942
 21
31.1185999781
 31
0.0
  0
SPLINE
  5
1A9
330
1F
100
AcDbEntity
  8
0
  6
Continuous
 62
     7
370
    15
100
AcDbSpline
210
0.0
220
0.0
230
1.0
 70
     8
 71
     3
 72
    22
 73
    18
 74
     0
 42
0.000000001
 43
0.00000001
 40
0.0
 40
0.0
 40
0.0
 40
0.0
 40
0.0500000000000109
 40
0.0999999999999997
 40
0.1499999999999999
 40
0.2
 40
0.2500000000000001
 40
0.2968749999999668
 40
0.34375
 40
0.3906249999999997
 40
0.4374999999999987
 40
0.5292946909502638
 40
0.5292946909502638
 40
0.53125
 40
0.6250000000000003
 40
0.8125
 40
0.8968030376394989
 40
0.8968030376394989
 40
0.8968030376394989
 40
0.8968030376394989
 10
280.2212240942073
 20
31.11859997811888
 30
0.0
 10
280.3024237762106
 20
31.2196116105801
 30
0.0
 10
280.4620131678337
 20
31.43962496297293
 30
0.0
 10
280.6811889049574
 20
31.81582102561102
 30
0.0
 10
280.868049689162
 20
32.23311093358637
 30
0.0
 10
281.0053845299702
 20
32.67276891299854
 30
0.0
 10
281.0760578416755
 20
33.09992993640898
 30
0.0
 10
281.0755784213169
 20
33.48943472101786
 30
0.0
 10
281.0072562480809
 20
33.82160591030259
 30
0.0
 10
280.8755310357043
 20
34.08860597680493
 30
0.0
 10
280.6355531678607
 20
34.3418228392188
 30
0.0
 10
280.3909940001399
 20
34.42589499763774
 30
0.0
 10
280.2184141160289
 20
34.44239096259288
 30
0.0
 10
280.0543099598875
 20
34.45811400161428
 30
0.0
 10
279.6450959371413
 20
34.49274567937462
 30
0.0
 10
279.2994630884231
 20
34.52466151057895
 30
0.0
 10
278.6683628961656
 20
34.58111662858607
 30
0.0
 10
278.4599895555054
 20
34.59973342259646
 30
0.0
  0
SPLINE
  5
1AA
330
1F
100
AcDbEntity
  8
0
  6
Continuous
 62
     7
370
    15
100
AcDbSpline
210
0.0
220
0.0
230
1.0
 70
     8
 71
     3
 72
    22
 73
    18
 74
     0
 42
0.000000001
 43
0.00000001
 40
0.0
 40
0.0
 40
0.0
 40
0.0
 40
0.0500000000000109
 40
0.0999999999999997
 40
0.1499999999999999
 40
0.2
 40
0.2500000000000001
 40
0.2968749999999668
 40
0.34375
 40
0.3906249999999997
 40
0.4374999999999987
 40
0.5292946909502638
 40
0.5292946909502638
 40
0.53125
 40
0.6250000000000003
 40
0.8125
 40
0.8955927989355191
 40
0.8955927989355191
 40
0.8955927989355191
 40
0.8955927989355191
 10
267.4579466937904
 20
23.75051676891914
 30
0.0
 10
267.3776907652507
 20
23.75769285830775
 30
0.0
 10
267.2167196228953
 20
23.79357177136507
 30
0.0
 10
266.998099243285
 20
23.91666325317258
 30
0.0
 10
266.8110896551253
 20
24.1182216113697
 30
0.0
 10
266.6737946726242
 20
24.3993125422525
 30
0.0
 10
266.6031109530888
 20
24.74487701933332
 30
0.0
 10
266.6035925235007
 20
25.13493446551774
 30
0.0
 10
266.6719158591298
 20
25.545991130483
 30
0.0
 10
266.8036343186214
 20
25.96506924236997
 30
0.0
 10
267.0436462925771
 20
26.49540116103969
 30
0.0
 10
267.2880522848048
 20
26.86164475325312
 30
0.0
 10
267.4607513987116
 20
27.07754552551059
 30
0.0
 10
267.6249821159125
 20
27.28289662469707
 30
0.0
 10
268.0352926390142
 20
27.79136080407099
 30
0.0
 10
268.3712256218086
 20
28.21026593389622
 30
0.0
 10
269.0118920335622
 20
29.00727721802131
 30
0.0
 10
269.2191816495937
 20
29.26512947489874
 30
0.0
  0
LINE
  5
1AB
330
1F
100
AcDbEntity
  8
0
  6
Continuous
 62
     7
370
    15
100
AcDbLine
 10
269.219134326
 20
23.5930400552
 30
0.0
 11
267.4579466938
 21
23.7505167689
 31
0.0
  0
LINE
  5
1AC
330
1F
100
AcDbEntity
  8
0
  6
Continuous
 62
     7
370
    15
100
AcDbLine
 10
243.9863268366
 20
33.7593481524
 30
0.0
 11
243.2014383095
 21
34.2124546545
 31
0.0
  0
SPLINE
  5
1AD
330
1F
100
AcDbEntity
  8
0
  6
Continuous
 62
     7
370
    15
100
AcDbSpline
210
0.0
220
0.0
230
1.0
 70
     8
 71
     3
 72
    14
 73
    10
 74
     0
 42
0.000000001
 43
0.00000001
 40
0.0
 40
0.0
 40
0.0
 40
0.0
 40
0.25
 40
0.25
 40
0.5
 40
0.5
 40
0.75
 40
0.75
 40
1.0
 40
1.0
 40
1.0
 40
1.0
 10
243.2014383094612
 20
34.2124546545105
 30
0.0
 10
243.1638043160031
 20
34.23418029649054
 30
0.0
 10
243.118030359314
 20
34.25139205760205
 30
0.0
 10
243.018094481804
 20
34.27379739123455
 30
0.0
 10
242.9636606129642
 20
34.27897227483437
 30
0.0
 10
242.8574449624722
 20
34.27703008051961
 30
0.0
 10
242.8041286625221
 20
34.26994167760138
 30
0.0
 10
242.7066355952214
 20
34.2452082413167
 30
0.0
 10
242.6617239046918
 20
34.22744740533065
 30
0.0
 10
242.6239706390917
 20
34.20565290900866
 30
0.0
  0
LINE
  5
1AE
330
1F
100
AcDbEntity
  8
0
  6
Continuous
 62
     7
370
    15
100
AcDbLine
 10
242.6239706391
 20
34.205652909
 30
0.0
 11
242.5749511967
 21
34.1773545873
 31
0.0
  0
SPLINE
  5
1AF
330
1F
100
AcDbEntity
  8
0
  6
Continuous
 62
     7
370
    15
100
AcDbSpline
210
0.0
220
0.0
230
1.0
 70
     8
 71
     3
 72
    10
 73
     6
 74
     0
 42
0.000000001
 43
0.00000001
 40
0.0
 40
0.0
 40
0.0
 40
0.0
 40
0.5
 40
0.5
 40
1.0
 40
1.0
 40
1.0
 40
1.0
 10
239.8214580064416
 20
35.26512859618713
 30
0.0
 10
239.8287742908638
 20
35.26949659608031
 30
0.0
 10
239.8405981510722
 20
35.27002864866857
 30
0.0
 10
239.87474951535
 20
35.26079859903027
 30
0.0
 10
239.8970064787428
 20
35.25095772171397
 30
0.0
 10
239.9234704967645
 20
35.23568036929765
 30
0.0
  0
SPLINE
  5
1B0
330
1F
100
AcDbEntity
  8
0
  6
Continuous
 62
     7
370
    15
100
AcDbSpline
210
0.0
220
0.0
230
1.0
 70
     8
 71
     3
 72
    14
 73
    10
 74
     0
 42
0.000000001
 43
0.00000001
 40
0.0
 40
0.0
 40
0.0
 40
0.0
 40
0.1382497790613108
 40
0.2796530602886735
 40
0.4347082022104532
 40
0.5942614193291825
 40
0.7493134370756909
 40
0.9088540791349957
 40
0.9999999999999999
 40
0.9999999999999999
 40
0.9999999999999999
 40
0.9999999999999999
 10
267.3695583461419
 20
24.08037956146542
 30
0.0
 10
267.3076863926877
 20
24.09008246426925
 30
0.0
 10
267.1825311754642
 20
24.10970959482379
 30
0.0
 10
267.012428605656
 20
24.1966601824265
 30
0.0
 10
266.859793926741
 20
24.33185368997577
 30
0.0
 10
266.7357257474688
 20
24.51992619399596
 30
0.0
 10
266.6505761028602
 20
24.75298209251894
 30
0.0
 10
266.6069144693477
 20
24.97966687921587
 30
0.0
 10
266.6102782535627
 20
25.13684518964048
 30
0.0
 10
266.6115012756757
 20
25.19399289503218
 30
0.0
  0
SPLINE
  5
1B1
330
1F
100
AcDbEntity
  8
0
  6
Continuous
 62
     7
370
    15
100
AcDbSpline
210
0.0
220
0.0
230
1.0
 70
     8
 71
     3
 72
    18
 73
    14
 74
     0
 42
0.000000001
 43
0.00000001
 40
0.0
 40
0.0
 40
0.0
 40
0.0
 40
0.0042369794076505
 40
0.0701655645927204
 40
0.1375124000464104
 40
0.2483639127631514
 40
0.362185391485226
 40
0.4665416681353023
 40
0.5717182803996785
 40
0.6787044045394247
 40
0.7860826099023001
 40
0.8929353627310216
 40
1.0
 40
1.0
 40
1.0
 40
1.0
 10
269.3941910277106
 20
29.51022316249449
 30
0.0
 10
269.3941527931084
 20
29.51006599674481
 30
0.0
 10
269.3935196173964
 20
29.50746328795161
 30
0.0
 10
269.3896748025998
 20
29.49964313278553
 30
0.0
 10
269.38172253287
 20
29.48478391141489
 30
0.0
 10
269.3683796825159
 20
29.46342507494973
 30
0.0
 10
269.3504356134907
 20
29.43701045468817
 30
0.0
 10
269.3307924043337
 20
29.4095463006981
 30
0.0
 10
269.3102655128096
 20
29.38179958006034
 30
0.0
 10
269.2885610318315
 20
29.35320321494514
 30
0.0
 10
269.2659865125274
 20
29.32406833987833
 30
0.0
 10
269.2428525390138
 20
29.29467932956443
 30
0.0
 10
269.227077154555
 20
29.27498592853589
 30
0.0
 10
269.2191816495935
 20
29.26512947489857
 30
0.0
  0
SPLINE
  5
1B2
330
1F
100
AcDbEntity
  8
0
  6
Continuous
 62
     7
370
    15
100
AcDbSpline
210
0.0
220
0.0
230
1.0
 70
     8
 71
     3
 72
    16
 73
    12
 74
     0
 42
0.000000001
 43
0.00000001
 40
0.0
 40
0.0
 40
0.0
 40
0.0
 40
0.2499999999999997
 40
0.2499999999999997
 40
0.4999999999999993
 40
0.4999999999999993
 40
0.6249999999999991
 40
0.6249999999999991
 40
0.749999999999999
 40
0.749999999999999
 40
1.0
 40
1.0
 40
1.0
 40
1.0
 10
278.459989555507
 20
34.59973342259632
 30
0.0
 10
278.4283393174225
 20
34.60256116419191
 30
0.0
 10
278.3942105911769
 20
34.60404628168366
 30
0.0
 10
278.3170319471478
 20
34.60218462658165
 30
0.0
 10
278.273336716696
 20
34.59898510804812
 30
0.0
 10
278.1996221266798
 20
34.58514019111142
 30
0.0
 10
278.173703809764
 20
34.57882137758138
 30
0.0
 10
278.1255005625532
 20
34.563256906474
 30
0.0
 10
278.1031534710679
 20
34.55394904745223
 30
0.0
 10
278.0483369271503
 20
34.52589250151962
 30
0.0
 10
278.0263572877688
 20
34.50752589413379
 30
0.0
 10
278.0101356750939
 20
34.49041599219642
 30
0.0
  0
SPLINE
  5
1B3
330
1F
100
AcDbEntity
  8
0
  6
Continuous
 62
     7
370
    15
100
AcDbSpline
210
0.0
220
0.0
230
1.0
 70
     8
 71
     3
 72
     8
 73
     4
 74
     0
 42
0.000000001
 43
0.00000001
 40
0.0
 40
0.0
 40
0.0
 40
0.0
 40
1.0
 40
1.0
 40
1.0
 40
1.0
 10
278.0101356750939
 20
34.49041599219642
 30
0.0
 10
277.9589057078495
 20
34.50987276079531
 30
0.0
 10
277.9081877158131
 20
34.53223950988856
 30
0.0
 10
277.8691634447647
 20
34.55476774203789
 30
0.0
  0
LINE
  5
1B4
330
1F
100
AcDbEntity
  8
0
  6
Continuous
 62
     7
370
    15
100
AcDbLine
 10
277.0564582458
 20
35.3219729854
 30
0.0
 11
277.0136400045
 21
35.3460939425
 31
0.0
  0
LINE
  5
1B5
330
1F
100
AcDbEntity
  8
0
  6
Continuous
 62
     7
370
    15
100
AcDbLine
 10
276.0556294401
 20
35.6016986384
 30
0.0
 11
277.8691634448
 21
34.554767742
 31
0.0
  0
ARC
  5
1B6
330
1F
100
AcDbEntity
  8
0
  6
Continuous
 62
     7
370
    15
100
AcDbCircle
 10
265.267588214
 20
34.8132925577
 30
0.0
 40
8.708221139125524
100
AcDbArc
 50
338.034622817
 51
1.6684117095
  0
LINE
  5
1B7
330
1F
100
AcDbEntity
  8
0
  6
Continuous
 62
     7
370
    15
100
AcDbLine
 10
273.3436800452
 20
31.5560151452
 30
0.0
 11
277.8691634448
 21
28.9435091874
 31
0.0
  0
LINE
  5
1B8
330
1F
100
AcDbEntity
  8
0
  6
Continuous
 62
     7
370
    15
100
AcDbLine
 10
270.0570271173
 20
23.1972889121
 30
0.0
 11
270.0998553378
 21
23.173162471
 31
0.0
  0
LINE
  5
1B9
330
1F
100
AcDbEntity
  8
0
  6
Continuous
 62
     7
370
    15
100
AcDbLine
 10
266.6738728481
 20
25.4483828182
 30
0.0
 11
269.2443219183
 21
23.9644941554
 31
0.0
  0
LINE
  5
1BA
330
1F
100
AcDbEntity
  8
0
  6
Continuous
 62
     7
370
    15
100
AcDbLine
 10
245.5072609138
 20
31.8452489637
 30
0.0
 11
243.679406795
 21
32.9004466859
 31
0.0
  0
SPLINE
  5
1BB
330
1F
100
AcDbEntity
  8
0
  6
Continuous
 62
     7
370
    15
100
AcDbSpline
210
0.0
220
0.0
230
1.0
 70
     8
 71
     3
 72
     8
 73
     4
 74
     0
 42
0.000000001
 43
0.00000001
 40
0.0000000000000004
 40
0.0000000000000004
 40
0.0000000000000004
 40
0.0000000000000004
 40
0.0011862984959127
 40
0.0011862984959127
 40
0.0011862984959127
 40
0.0011862984959127
 10
243.679406795043
 20
32.90044668590171
 30
0.0
 10
243.6683445957854
 20
32.96255513082048
 30
0.0
 10
243.6577185892116
 20
33.0243479181221
 30
0.0
 10
243.6475054613942
 20
33.08584074483998
 30
0.0
  0
LWPOLYLINE
  5
1BC
330
1F
100
AcDbEntity
  8
0
  6
Continuous
 62
     7
370
    15
100
AcDbPolyline
 90
       19
 70
   128
 43
0.0
 10
270.986441891
 20
40.5455510442
 10
271.2576317945
 20
40.7963804239
 10
271.4429975616
 20
41.1335391816
 10
271.4639175242
 20
41.4870659631
 10
271.3188401443
 20
41.8307413043
 10
271.0185251474
 20
42.1390763773
 10
270.5852455232
 20
42.3892033803
 10
270.0511356391
 20
42.5625715377
 10
269.4558079819
 20
42.6463229264
 10
268.8434152804
 20
42.6342460891
 10
268.2593758999
 20
42.5272367095
 10
267.7470053694
 20
42.3332311838
 10
267.3443038672
 20
42.0666180142
 10
267.0811379214
 20
41.74717068
 10
266.9770253464
 20
41.3985811285
 10
267.0396876956
 20
41.046702652
 10
267.2644775892
 20
40.7176324675
 10
267.6347233891
 20
40.435776205
 10
267.6347233891
 20
40.435776205
  0
LINE
  5
1BD
330
1F
100
AcDbEntity
  8
0
  6
Continuous
 62
     7
370
    15
100
AcDbLine
 10
243.7521918545
 20
33.6856217434
 30
0.0
 11
243.7322984551
 21
33.4562759653
 31
0.0
  0
ARC
  5
1BE
330
1F
100
AcDbEntity
  8
0
  6
Continuous
 62
     7
370
    15
100
AcDbCircle
 10
259.7348638838
 20
32.0289773183
 30
0.0
 40
16.06285239186429
100
AcDbArc
 50
176.9224853833
 51
185.7271838377
  0
LWPOLYLINE
  5
1BF
330
1F
100
AcDbEntity
  8
0
  6
Continuous
 62
     7
370
    15
100
AcDbPolyline
 90
        3
 70
   128
 43
0.0
 10
242.7534035261
 20
32.7854934817
 10
242.8110478105
 20
34.1949477539
 10
242.8153499014
 20
34.2477359787
  0
ARC
  5
1C0
330
1F
100
AcDbEntity
  8
0
  6
Continuous
 62
     7
370
    15
100
AcDbCircle
 10
254.4498600095
 20
32.4831890192
 30
0.0
 40
11.70036248393275
100
AcDbArc
 50
178.5194734317
 51
203.8931641993
  0
LINE
  5
1C1
330
1F
100
AcDbEntity
  8
0
  6
Continuous
 62
     7
370
    15
100
AcDbLine
 10
214.1984571678
 20
51.8357808422
 30
0.0
 11
214.1175270433
 21
51.9062615465
 31
0.0
  0
LINE
  5
1C2
330
1F
100
AcDbEntity
  8
0
  6
Continuous
 62
     7
370
    15
100
AcDbLine
 10
240.2569930635
 20
34.8761640788
 30
0.0
 11
239.8214580064
 21
35.2651285962
 31
0.0
  0
LINE
  5
1C3
330
1F
100
AcDbEntity
  8
0
  6
Continuous
 62
     7
370
    15
100
AcDbLine
 10
241.7136161221
 20
34.0352734859
 30
0.0
 11
240.2569930635
 21
34.8761640788
 31
0.0
  0
LINE
  5
1C4
330
1F
100
AcDbEntity
  8
0
  6
Continuous
 62
     7
370
    15
100
AcDbLine
 10
269.3154817223
 20
23.9063846885
 30
0.0
 11
267.3695583461
 21
24.0803795615
 31
0.0
  0
SPLINE
  5
1C5
330
1F
100
AcDbEntity
  8
0
  6
Continuous
 62
     7
370
    15
100
AcDbSpline
210
0.0
220
0.0
230
1.0
 70
     8
 71
     3
 72
    16
 73
    12
 74
     0
 42
0.000000001
 43
0.00000001
 40
0.0
 40
0.0
 40
0.0
 40
0.0
 40
0.2499999999999981
 40
0.2499999999999981
 40
0.4999999999999962
 40
0.4999999999999962
 40
0.6249999999999971
 40
0.6249999999999971
 40
0.7499999999999981
 40
0.7499999999999981
 40
1.0
 40
1.0
 40
1.0
 40
1.0
 10
269.2191343260408
 20
23.59304005524698
 30
0.0
 10
269.2503953846863
 20
23.59024484553095
 30
0.0
 10
269.2813255273164
 20
23.59084836624975
 30
0.0
 10
269.337981439195
 20
23.60475261164985
 30
0.0
 10
269.3648226247793
 20
23.61766153428292
 30
0.0
 10
269.3901747153168
 20
23.65957161384125
 30
0.0
 10
269.3956093360739
 20
23.67770856276001
 30
0.0
 10
269.3967309374162
 20
23.72033781714717
 30
0.0
 10
269.3923680899038
 20
23.74488082868604
 30
0.0
 10
269.3691245275859
 20
23.81816079613996
 30
0.0
 10
269.3429963601991
 20
23.8641848457318
 30
0.0
 10
269.3154817223004
 20
23.90638468850366
 30
0.0
  0
SPLINE
  5
1C6
330
1F
100
AcDbEntity
  8
0
  6
Continuous
 62
     7
370
    15
100
AcDbSpline
210
0.0
220
0.0
230
1.0
 70
     8
 71
     3
 72
     8
 73
     4
 74
     0
 42
0.000000001
 43
0.00000001
 40
0.0
 40
0.0
 40
0.0
 40
0.0
 40
1.0
 40
1.0
 40
1.0
 40
1.0
 10
269.2443219182837
 20
23.96449415543174
 30
0.0
 10
269.2833094089823
 20
23.94198715612641
 30
0.0
 10
269.3057270761058
 20
23.92213496880957
 30
0.0
 10
269.3154817223004
 20
23.90638468850368
 30
0.0
  0
LINE
  5
1C7
330
1F
100
AcDbEntity
  8
0
  6
Continuous
 62
     7
370
    15
100
AcDbLine
 10
243.7521918545
 20
33.6856217434
 30
0.0
 11
243.7521918545
 21
33.5404719762
 31
0.0
  0
LINE
  5
1C8
330
1F
100
AcDbEntity
  8
0
  6
Continuous
 62
     7
370
    15
100
AcDbLine
 10
243.7521918545
 20
32.8584287654
 30
0.0
 11
243.7521918545
 21
30.4260357201
 31
0.0
  0
LINE
  5
1C9
330
1F
100
AcDbEntity
  8
0
  6
Continuous
 62
     7
370
    15
100
AcDbLine
 10
243.7521918545
 20
33.8945114006
 30
0.0
 11
243.7521918545
 21
33.6856217434
 31
0.0
  0
LINE
  5
1CA
330
1F
100
AcDbEntity
  8
0
  6
Continuous
 62
     7
370
    15
100
AcDbLine
 10
243.7521918545
 20
30.4260357201
 30
0.0
 11
243.7521918545
 21
27.5560466998
 31
0.0
  0
SPLINE
  5
1CB
330
1F
100
AcDbEntity
  8
0
  6
Continuous
 62
     7
370
    15
100
AcDbSpline
210
0.0
220
0.0
230
1.0
 70
     8
 71
     3
 72
     8
 73
     4
 74
     0
 42
0.000000001
 43
0.00000001
 40
0.0
 40
0.0
 40
0.0
 40
0.0
 40
1.0
 40
1.0
 40
1.0
 40
1.0
 10
277.8691634447647
 20
28.94350918735428
 30
0.0
 10
277.9081509354633
 20
28.92100218804893
 30
0.0
 10
277.958898715582
 20
28.9175046268462
 30
0.0
 10
278.010135675104
 20
28.92570157629311
 30
0.0
  0
SPLINE
  5
1CC
330
1F
100
AcDbEntity
  8
0
  6
Continuous
 62
     7
370
    15
100
AcDbSpline
210
0.0
220
0.0
230
1.0
 70
     8
 71
     3
 72
    16
 73
    12
 74
     0
 42
0.000000001
 43
0.00000001
 40
0.0
 40
0.0
 40
0.0
 40
0.0
 40
0.25
 40
0.25
 40
0.375
 40
0.375
 40
0.5
 40
0.5
 40
0.75
 40
0.75
 40
1.0
 40
1.0
 40
1.0
 40
1.0
 10
278.010135675104
 20
28.92570157629308
 30
0.0
 10
278.0262648977277
 20
28.87691251301122
 30
0.0
 10
278.0486712064496
 20
28.82778647191373
 30
0.0
 10
278.1029970286816
 20
28.77354688151024
 30
0.0
 10
278.1250635243445
 20
28.75922649769929
 30
0.0
 10
278.1734097135732
 20
28.74489140297502
 30
0.0
 10
278.1994946789673
 20
28.74491073421427
 30
0.0
 10
278.2732323522117
 20
28.76037928667219
 30
0.0
 10
278.3167085102509
 20
28.78807992069625
 30
0.0
 10
278.3940161749657
 20
28.85145510046508
 30
0.0
 10
278.4286695773939
 20
28.88867920069944
 30
0.0
 10
278.4600364619569
 20
28.9276993068964
 30
0.0
  0
LINE
  5
1CD
330
1F
100
AcDbEntity
  8
0
  6
Continuous
 62
     7
370
    15
100
AcDbLine
 10
243.679406795
 20
22.4078972532
 30
0.0
 11
245.5072609138
 21
21.3526995309
 31
0.0
  0
SPLINE
  5
1CE
330
1F
100
AcDbEntity
  8
0
  6
Continuous
 62
     7
370
    15
100
AcDbSpline
210
0.0
220
0.0
230
1.0
 70
     8
 71
     3
 72
    14
 73
    10
 74
     0
 42
0.000000001
 43
0.00000001
 40
0.0
 40
0.0
 40
0.0
 40
0.0
 40
0.25
 40
0.25
 40
0.5
 40
0.5
 40
0.75
 40
0.75
 40
1.0
 40
1.0
 40
1.0
 40
1.0
 10
245.461753673368
 20
21.23433151084106
 30
0.0
 10
245.4450788303017
 20
21.19095889273448
 30
0.0
 10
245.4247835873857
 20
21.15072856328863
 30
0.0
 10
245.3764866083153
 20
21.07695667561649
 30
0.0
 10
245.3482677605102
 20
21.04338706893938
 30
0.0
 10
245.2853424120871
 20
20.98983566327675
 30
0.0
 10
245.2501792360701
 20
20.9693796339171
 30
0.0
 10
245.1754962468616
 20
20.95194734040522
 30
0.0
 10
245.1369713716532
 20
20.95589464939012
 30
0.0
 10
245.1030276689559
 20
20.97548993185994
 30
0.0
  0
LINE
  5
1CF
330
1F
100
AcDbEntity
  8
0
  6
Continuous
 62
     7
370
    15
100
AcDbLine
 10
245.103027669
 20
20.9754899319
 30
0.0
 11
243.6475054614
 21
21.815745017
 31
0.0
  0
SPLINE
  5
1D0
330
1F
100
AcDbEntity
  8
0
  6
Continuous
 62
     7
370
    15
100
AcDbSpline
210
0.0
220
0.0
230
1.0
 70
     8
 71
     3
 72
     8
 73
     4
 74
     0
 42
0.000000001
 43
0.00000001
 40
0.0
 40
0.0
 40
0.0
 40
0.0
 40
0.0011862984959112
 40
0.0011862984959112
 40
0.0011862984959112
 40
0.0011862984959112
 10
243.6475054613942
 20
21.81574501695296
 30
0.0
 10
243.6577185892116
 20
22.01314391884189
 30
0.0
 10
243.6683445957867
 20
22.21052975581868
 30
0.0
 10
243.6794067950444
 20
22.40789725316901
 30
0.0
  0
ARC
  5
1D1
330
1F
100
AcDbEntity
  8
0
  6
Continuous
 62
     7
370
    15
100
AcDbCircle
 10
253.9877570182
 20
22.941276618
 30
0.0
 40
9.061822229857638
100
AcDbArc
 50
196.3075317257
 51
281.7996323489
  0
SPLINE
  5
1D2
330
1F
100
AcDbEntity
  8
0
  6
Continuous
 62
     7
370
    15
100
AcDbSpline
210
0.0
220
0.0
230
1.0
 70
     8
 71
     3
 72
     8
 73
     4
 74
     0
 42
0.000000001
 43
0.00000001
 40
0.0
 40
0.0
 40
0.0
 40
0.0
 40
1.0
 40
1.0
 40
1.0
 40
1.0
 10
243.9255251487937
 20
22.90513540775588
 30
0.0
 10
243.8433269680081
 20
22.73941508125241
 30
0.0
 10
243.7612925998562
 20
22.57366820591444
 30
0.0
 10
243.6794067950444
 20
22.40789725316901
 30
0.0
  0
LINE
  5
1D3
330
1F
100
AcDbEntity
  8
0
  6
Continuous
 62
     7
370
    15
100
AcDbLine
 10
243.9745445912
 20
22.9334337295
 30
0.0
 11
243.9255251488
 21
22.9051354078
 31
0.0
  0
SPLINE
  5
1D4
330
1F
100
AcDbEntity
  8
0
  6
Continuous
 62
     7
370
    15
100
AcDbSpline
210
0.0
220
0.0
230
1.0
 70
     8
 71
     3
 72
    12
 73
     8
 74
     0
 42
0.000000001
 43
0.00000001
 40
0.0
 40
0.0
 40
0.0
 40
0.0
 40
0.249999999999997
 40
0.249999999999997
 40
0.499999999999994
 40
0.499999999999994
 40
1.0
 40
1.0
 40
1.0
 40
1.0
 10
243.9863268365782
 20
23.26679871971701
 30
0.0
 10
244.0239256211529
 20
23.24509340339272
 30
0.0
 10
244.0541031803992
 20
23.21829153281955
 30
0.0
 10
244.0926929150802
 20
23.16066782798956
 30
0.0
 10
244.10155240027
 20
23.12961970241818
 30
0.0
 10
244.0965049664317
 20
23.03743072601288
 30
0.0
 10
244.0498026793564
 20
22.97687929903803
 30
0.0
 10
243.9745445911581
 20
22.93343372948608
 30
0.0
  0
LINE
  5
1D5
330
1F
100
AcDbEntity
  8
0
  6
Continuous
 62
     7
370
    15
100
AcDbLine
 10
243.2014383095
 20
23.7199052218
 30
0.0
 11
243.9863268366
 21
23.2667987197
 31
0.0
  0
SPLINE
  5
1D6
330
1F
100
AcDbEntity
  8
0
  6
Continuous
 62
     7
370
    15
100
AcDbSpline
210
0.0
220
0.0
230
1.0
 70
     8
 71
     3
 72
    10
 73
     6
 74
     0
 42
0.000000001
 43
0.00000001
 40
0.0
 40
0.0
 40
0.0
 40
0.0
 40
0.5
 40
0.5
 40
1.0
 40
1.0
 40
1.0
 40
1.0
 10
242.6239706390917
 20
23.71310347627677
 30
0.0
 10
242.7001080294303
 20
23.75705665614949
 30
0.0
 10
242.8036158101147
 20
23.78354332232827
 30
0.0
 10
243.0181111022005
 20
23.78737139271561
 30
0.0
 10
243.1255413466187
 20
23.76371960581221
 30
0.0
 10
243.2014383094612
 20
23.71990522177862
 30
0.0
  0
LINE
  5
1D7
330
1F
100
AcDbEntity
  8
0
  6
Continuous
 62
     7
370
    15
100
AcDbLine
 10
242.5749511967
 20
23.6848051545
 30
0.0
 11
242.6239706391
 21
23.7131034763
 31
0.0
  0
SPLINE
  5
1D8
330
1F
100
AcDbEntity
  8
0
  6
Continuous
 62
     7
370
    15
100
AcDbSpline
210
0.0
220
0.0
230
1.0
 70
     8
 71
     3
 72
     8
 73
     4
 74
     0
 42
0.000000001
 43
0.00000001
 40
0.0
 40
0.0
 40
0.0
 40
0.0
 40
1.0
 40
1.0
 40
1.0
 40
1.0
 10
241.7136161220729
 20
23.54272405320851
 30
0.0
 10
242.0007709484703
 20
23.58999572212053
 30
0.0
 10
242.2878840670555
 20
23.63735315482327
 30
0.0
 10
242.5749511967275
 20
23.68480515454657
 30
0.0
  0
LINE
  5
1D9
330
1F
100
AcDbEntity
  8
0
  6
Continuous
 62
     7
370
    15
100
AcDbLine
 10
240.2569930635
 20
24.3836146461
 30
0.0
 11
241.7136161221
 21
23.5427240532
 31
0.0
  0
LINE
  5
1DA
330
1F
100
AcDbEntity
  8
0
  6
Continuous
 62
     7
370
    15
100
AcDbLine
 10
240.2569930635
 20
24.3836146461
 30
0.0
 11
243.3986384639
 21
26.1972479315
 31
0.0
  0
ARC
  5
1DB
330
1F
100
AcDbEntity
  8
0
  6
Continuous
 62
     7
370
    15
100
AcDbCircle
 10
253.2289933704
 20
24.2808229722
 30
0.0
 40
9.893508976915838
100
AcDbArc
 50
194.4278782157
 51
238.0157127201
  0
SPLINE
  5
1DC
330
1F
100
AcDbEntity
  8
0
  6
Continuous
 62
     7
370
    15
100
AcDbSpline
210
0.0
220
0.0
230
1.0
 70
     8
 71
     3
 72
    30
 73
    26
 74
     0
 42
0.000000001
 43
0.00000001
 40
0.0
 40
0.0
 40
0.0
 40
0.0
 40
0.1249999999999992
 40
0.1249999999999992
 40
0.1874999999999993
 40
0.1874999999999993
 40
0.2499999999999993
 40
0.2499999999999993
 40
0.3124999999999994
 40
0.3124999999999994
 40
0.3749999999999994
 40
0.3749999999999994
 40
0.4374999999999995
 40
0.4374999999999995
 40
0.4999999999999996
 40
0.4999999999999996
 40
0.6249999999999998
 40
0.6249999999999998
 40
0.6874999999999998
 40
0.6874999999999998
 40
0.7499999999999998
 40
0.7499999999999998
 40
0.8749999999999999
 40
0.8749999999999999
 40
1.0
 40
1.0
 40
1.0
 40
1.0
 10
279.9560590512625
 20
31.34641175668752
 30
0.0
 10
280.0693491416611
 20
31.48734355211471
 30
0.0
 10
280.1716473087878
 20
31.63713397380054
 30
0.0
 10
280.3075219986977
 20
31.87560049755631
 30
0.0
 10
280.3501732989106
 20
31.95802501564274
 30
0.0
 10
280.4276182226929
 20
32.12362332826665
 30
0.0
 10
280.462496775938
 20
32.20689829859723
 30
0.0
 10
280.5247584779614
 20
32.37436555711076
 30
0.0
 10
280.5521625117369
 20
32.45854643750545
 30
0.0
 10
280.5993242222599
 20
32.62781325901676
 30
0.0
 10
280.6188776598631
 20
32.71235742530089
 30
0.0
 10
280.6495546087306
 20
32.87738476215333
 30
0.0
 10
280.6608013921996
 20
32.95844506292685
 30
0.0
 10
280.6752708082365
 20
33.11757117024795
 30
0.0
 10
280.6785216915024
 20
33.19610341495282
 30
0.0
 10
280.6760039844152
 20
33.42319204724443
 30
0.0
 10
280.6585135793975
 20
33.56150716367284
 30
0.0
 10
280.6093072159577
 20
33.74920248294879
 30
0.0
 10
280.5889426216193
 20
33.80843280779551
 30
0.0
 10
280.5414721549541
 20
33.91675011297465
 30
0.0
 10
280.5142511338697
 20
33.96633820979264
 30
0.0
 10
280.422226240401
 20
34.10150078308141
 30
0.0
 10
280.3459875765226
 20
34.17378939797612
 30
0.0
 10
280.1703024031109
 20
34.27541576213018
 30
0.0
 10
280.0693593648392
 20
34.30629036079519
 30
0.0
 10
279.9560590517593
 20
34.31642111894405
 30
0.0
  0
LINE
  5
1DD
330
1F
100
AcDbEntity
  8
0
  6
Continuous
 62
     7
370
    15
100
AcDbLine
 10
279.9560590518
 20
34.3164211189
 30
0.0
 11
278.0101356751
 21
34.4904159922
 31
0.0
  0
ELLIPSE
  5
1DE
330
1F
100
AcDbEntity
  8
0
  6
Continuous
 62
     7
370
    15
100
AcDbEllipse
 10
243.1057452451
 20
27.1828723996
 30
0.0
 11
-7.507462981948265E-5
 21
1.066811201853405
 31
0.0
210
0.0
220
0.0
230
1.0
 40
0.7174342186
 41
3.534193645557444
 42
5.104989972352368
  0
ARC
  5
1DF
330
1F
100
AcDbEntity
  8
0
  6
Continuous
 62
     7
370
    15
100
AcDbCircle
 10
253.0851318894
 20
26.5729300134
 30
0.0
 40
10.89977813506347
100
AcDbArc
 50
195.3652282392
 51
215.9036224404
  0
ARC
  5
1E0
330
1F
100
AcDbEntity
  8
0
  6
Continuous
 62
     7
370
    15
100
AcDbCircle
 10
250.4813418763
 20
25.3054198257
 30
0.0
 40
9.374608857525203
100
AcDbArc
 50
193.3832832944
 51
247.535346068
  0
SPLINE
  5
1E1
330
1F
100
AcDbEntity
  8
0
  6
Continuous
 62
     7
370
    15
100
AcDbSpline
210
0.0
220
0.0
230
1.0
 70
     8
 71
     3
 72
     8
 73
     4
 74
     0
 42
0.000000001
 43
0.00000001
 40
0.0000000000000004
 40
0.0000000000000004
 40
0.0000000000000004
 40
0.0000000000000004
 40
0.0011862984959127
 40
0.0011862984959127
 40
0.0011862984959127
 40
0.0011862984959127
 10
241.7136161220734
 20
23.54272405320755
 30
0.0
 10
241.5964656530784
 20
23.40660001037278
 30
0.0
 10
241.4790259026412
 20
23.27087643520985
 30
0.0
 10
241.3613150347966
 20
23.13553465771538
 30
0.0
  0
LINE
  5
1E2
330
1F
100
AcDbEntity
  8
0
  6
Continuous
 62
     7
370
    15
100
AcDbLine
 10
239.8214580064
 20
24.1321335685
 30
0.0
 11
240.2569930635
 21
24.3836146461
 31
0.0
  0
LINE
  5
1E3
330
1F
100
AcDbEntity
  8
0
  6
Continuous
 62
     7
370
    15
100
AcDbLine
 10
241.3613150348
 20
23.1355346577
 30
0.0
 11
239.9234704968
 21
23.9655846414
 31
0.0
  0
SPLINE
  5
1E4
330
1F
100
AcDbEntity
  8
0
  6
Continuous
 62
     7
370
    15
100
AcDbSpline
210
0.0
220
0.0
230
1.0
 70
     8
 71
     3
 72
    10
 73
     6
 74
     0
 42
0.000000001
 43
0.00000001
 40
0.0
 40
0.0
 40
0.0
 40
0.0
 40
0.5
 40
0.5
 40
1.0
 40
1.0
 40
1.0
 40
1.0
 10
239.9234704967645
 20
23.96558464141062
 30
0.0
 10
239.8970610674838
 20
23.98083048041754
 30
0.0
 10
239.8747776632747
 20
24.0046879028298
 30
0.0
 10
239.8406705284532
 20
24.06261399456408
 30
0.0
 10
239.8287704983983
 20
24.09651252604493
 30
0.0
 10
239.8214580064416
 20
24.13213356849928
 30
0.0
  0
ARC
  5
1E5
330
1F
100
AcDbEntity
  8
0
  6
Continuous
 62
     7
370
    15
100
AcDbCircle
 10
249.3941448293
 20
26.3113632589
 30
0.0
 40
9.733672322459912
100
AcDbArc
 50
197.347557346
 51
238.1970129624
  0
ARC
  5
1E6
330
1F
100
AcDbEntity
  8
0
  6
Continuous
 62
     7
370
    15
100
AcDbCircle
 10
272.7258788387
 20
36.1509050037
 30
0.0
 40
3.360506813820358
100
AcDbArc
 50
320.6498369943
 51
350.7253969509
  0
LINE
  5
1E7
330
1F
100
AcDbEntity
  8
0
  6
Continuous
 62
     7
370
    15
100
AcDbLine
 10
278.0101356751
 20
28.9257015763
 30
0.0
 11
279.9560590513
 21
31.3464117567
 31
0.0
  0
LINE
  5
1E8
330
1F
100
AcDbEntity
  8
0
  6
Continuous
 62
     7
370
    15
100
AcDbLine
 10
273.3436800452
 20
31.5560151452
 30
0.0
 11
275.3245096345
 21
34.0201483229
 31
0.0
  0
ELLIPSE
  5
1E9
330
1F
100
AcDbEntity
  8
0
  6
Continuous
 62
     7
370
    15
100
AcDbEllipse
 10
243.0450850733
 20
27.1478426439
 30
0.0
 11
0.3250094736511642
 21
1.213179526238665
 31
0.0
210
0.0
220
0.0
230
1.0
 40
0.5176380889
 41
3.619174351347722
 42
5.189970678142633
  0
SPLINE
  5
1EA
330
1F
100
AcDbEntity
  8
0
  6
Continuous
 62
     7
370
    15
100
AcDbSpline
210
0.0
220
0.0
230
1.0
 70
     8
 71
     3
 72
    12
 73
     8
 74
     0
 42
0.000000001
 43
0.00000001
 40
0.0
 40
0.0
 40
0.0
 40
0.0
 40
0.5000000000000003
 40
0.5000000000000003
 40
0.7500000000000001
 40
0.7500000000000001
 40
1.0
 40
1.0
 40
1.0
 40
1.0
 10
269.5789421623169
 20
59.15216594492009
 30
0.0
 10
269.6420020395465
 20
59.18856963717035
 30
0.0
 10
269.7219349927776
 20
59.21540094902193
 30
0.0
 10
269.8549141810842
 20
59.22915779053246
 30
0.0
 10
269.9005853501963
 20
59.22903665673354
 30
0.0
 10
269.9882231688338
 20
59.21626227511189
 30
0.0
 10
270.0289670796879
 20
59.20342228945713
 30
0.0
 10
270.0604807620265
 20
59.18522982788049
 30
0.0
  0
LINE
  5
1EB
330
1F
100
AcDbEntity
  8
0
  6
Continuous
 62
     7
370
    15
100
AcDbLine
 10
270.060480762
 20
59.1852298279
 30
0.0
 11
270.7201491735
 21
58.8044113599
 31
0.0
  0
LINE
  5
1EC
330
1F
100
AcDbEntity
  8
0
  6
Continuous
 62
     7
370
    15
100
AcDbLine
 10
272.3900164926
 20
56.7296154311
 30
0.0
 11
273.7845157267
 21
57.0353902034
 31
0.0
  0
LINE
  5
1ED
330
1F
100
AcDbEntity
  8
0
  6
Continuous
 62
     7
370
    15
100
AcDbLine
 10
273.7845157267
 20
57.0353902034
 30
0.0
 11
275.2400379342
 21
56.1951351183
 31
0.0
  0
SPLINE
  5
1EE
330
1F
100
AcDbEntity
  8
0
  6
Continuous
 62
     7
370
    15
100
AcDbSpline
210
0.0
220
0.0
230
1.0
 70
     8
 71
     3
 72
    12
 73
     8
 74
     0
 42
0.000000001
 43
0.00000001
 40
0.0
 40
0.0
 40
0.0
 40
0.0
 40
0.250000000000004
 40
0.250000000000004
 40
0.500000000000008
 40
0.500000000000008
 40
1.0
 40
1.0
 40
1.0
 40
1.0
 10
275.2400379342181
 20
56.19513511832972
 30
0.0
 10
275.2716940647182
 20
56.17686042317978
 30
0.0
 10
275.2939933417283
 20
56.1530363123815
 30
0.0
 10
275.3158139123203
 20
56.1030044099338
 30
0.0
 10
275.3160946746464
 20
56.0766132015199
 30
0.0
 10
275.2927273005257
 20
56.00053797152499
 30
0.0
 10
275.2456888977206
 20
55.95347491657457
 30
0.0
 10
275.1827634032203
 20
55.91714880182259
 30
0.0
  0
LINE
  5
1EF
330
1F
100
AcDbEntity
  8
0
  6
Continuous
 62
     7
370
    15
100
AcDbLine
 10
269.5789421623
 20
59.1521659449
 30
0.0
 11
269.4871517434
 21
59.099176464
 31
0.0
  0
SPLINE
  5
1F0
330
1F
100
AcDbEntity
  8
0
  6
Continuous
 62
     7
370
    15
100
AcDbSpline
210
0.0
220
0.0
230
1.0
 70
     8
 71
     3
 72
    13
 73
     9
 74
     0
 42
0.000000001
 43
0.00000001
 40
0.0
 40
0.0
 40
0.0
 40
0.0
 40
0.1983936611099915
 40
0.4023917230822395
 40
0.6008824859640405
 40
0.806162500490548
 40
0.9877267913658421
 40
1.0
 40
1.0
 40
1.0
 40
1.0
 10
278.2041973881433
 20
50.84120948349611
 30
0.0
 10
278.2141207471296
 20
50.86001793423122
 30
0.0
 10
278.2342477889863
 20
50.89816615357181
 30
0.0
 10
278.253891234318
 20
50.95906653998871
 30
0.0
 10
278.265245289641
 20
51.02169928000487
 30
0.0
 10
278.264856070788
 20
51.0806826200844
 30
0.0
 10
278.2605039342878
 20
51.12055659602179
 30
0.0
 10
278.2537834592873
 20
51.13739912584538
 30
0.0
 10
278.2533579389828
 20
51.1384655442782
 30
0.0
  0
ARC
  5
1F1
330
1F
100
AcDbEntity
  8
0
  6
Continuous
 62
     7
370
    15
100
AcDbCircle
 10
268.1265652985
 20
48.7003614841
 30
0.0
 40
10.33310818524671
100
AcDbArc
 50
19.8793773799
 51
46.4951814277
  0
LWPOLYLINE
  5
1F2
330
1F
100
AcDbEntity
  8
0
  6
Continuous
 62
     7
370
    15
100
AcDbPolyline
 90
        3
 70
   128
 43
0.0
 10
272.3900164926
 20
57.4106059171
 10
272.4284706978
 20
57.3631412357
 10
272.8136014159
 20
56.8498985611
  0
LWPOLYLINE
  5
1F3
330
1F
100
AcDbEntity
  8
0
  6
Continuous
 62
     7
370
     0
100
AcDbPolyline
 90
       21
 70
   128
 43
0.0
 10
245.103027669
 20
32.2455856597
 10
245.5736865089
 20
34.1069459028
 10
246.1588202172
 20
35.9828637007
 10
246.8542555556
 20
37.8599597995
 10
247.6550326019
 20
39.7248465418
 10
248.5554401254
 20
41.5642233482
 10
249.5490563198
 20
43.3649715794
 10
250.6287946042
 20
45.1142480991
 10
251.7869541652
 20
46.7995768732
 10
253.0152748805
 20
48.4089379499
 10
254.3049962304
 20
49.9308531874
 10
255.6469197791
 20
51.3544681175
 10
257.0314747791
 20
52.6696293604
 10
258.4487864304
 20
53.8669570402
 10
259.8887463091
 20
54.9379116832
 10
261.3410844616
 20
55.874855122
 10
262.7954426511
 20
56.6711049721
 10
264.2414482336
 20
57.3209822911
 10
265.6687881368
 20
57.819852082
 10
267.0672824143
 20
58.1641563499
 10
267.1896692295
 20
58.1871549167
  0
LINE
  5
1F4
330
1F
100
AcDbEntity
  8
0
  6
Continuous
 62
     7
370
     0
100
AcDbLine
 10
245.4617536734
 20
31.9110754424
 30
0.0
 11
245.5857689718
 21
32.4661107263
 31
0.0
  0
LWPOLYLINE
  5
1F5
330
1F
100
AcDbEntity
  8
0
  6
Continuous
 62
     7
370
     0
100
AcDbPolyline
 90
       11
 70
   128
 43
0.0
 10
260.4805864519
 20
54.828421818
 10
260.6855519253
 20
54.9642290151
 10
262.0775425662
 20
55.8108349373
 10
263.4679184025
 20
56.5249233948
 10
264.8473669742
 20
57.1017115657
 10
266.2066490105
 20
57.537336238
 10
267.5366603116
 20
57.8288796846
 10
268.8284927273
 20
57.9743892058
 10
270.0734938222
 20
57.9728902078
 10
271.2633248274
 20
57.8243927305
 10
272.3900164926
 20
57.5298913806
  0
LWPOLYLINE
  5
1F6
330
1F
100
AcDbEntity
  8
0
  6
Continuous
 62
     7
370
     0
100
AcDbPolyline
 90
       20
 70
   128
 43
0.0
 10
265.8682811983
 20
19.2647195241
 10
265.3517807901
 20
18.8308752296
 10
263.9503739444
 20
17.7501742684
 10
262.5342223251
 20
16.7969456924
 10
261.1132036825
 20
15.9778383336
 10
259.697229715
 20
15.2985655196
 10
258.2961769339
 20
14.7638652227
 10
256.9198177742
 20
14.3774670127
 10
255.5777524314
 20
14.1420660423
 10
254.2793418993
 20
14.0593042489
 10
253.0336426764
 20
14.1297589013
 10
251.8493435967
 20
14.3529385737
 10
250.7347052239
 20
14.7272865733
 10
249.6975022338
 20
15.2501917982
 10
248.7449691853
 20
15.9180069502
 10
247.8837500588
 20
16.7260739747
 10
247.1198519143
 20
17.6687565513
 10
246.4586029914
 20
18.7394794072
 10
245.9046155449
 20
19.9307741801
 10
245.4617536734
 20
21.2343315108
  0
ARC
  5
1F7
330
1F
100
AcDbEntity
  8
0
  6
Continuous
 62
     7
370
     0
100
AcDbCircle
 10
268.0240610473
 20
48.218739546
 30
0.0
 40
10.51249373319209
100
AcDbArc
 50
14.4456909384
 51
47.0804404646
  0
LWPOLYLINE
  5
1F8
330
1F
100
AcDbEntity
  8
0
  6
Continuous
 62
     7
370
     0
100
AcDbPolyline
 90
       29
 70
   128
 43
0.0
 10
251.5833994562
 20
30.1066543648
 10
251.6414850234
 20
31.3986845005
 10
251.8150835924
 20
32.7431395869
 10
252.102228222
 20
34.1247864107
 10
252.4996654488
 20
35.5279703612
 10
253.0028921503
 20
36.9367928037
 10
253.6062065668
 20
38.335291217
 10
254.302772905
 20
39.7076200551
 10
255.0846987898
 20
41.038230284
 10
255.9431246886
 20
42.3120455581
 10
256.8683242928
 20
43.5146330414
 10
257.8498147214
 20
44.6323669372
 10
258.8764752956
 20
45.6525828737
 10
259.9366735408
 20
46.5637213969
 10
261.0183969873
 20
47.355458943
 10
262.1093892762
 20
48.0188248095
 10
263.1972890289
 20
48.5463027959
 10
264.2697699065
 20
48.9319163659
 10
265.3146802721
 20
49.1712963636
 10
266.3201808739
 20
49.2617305181
 10
267.2748789881
 20
49.2021941741
 10
268.1679575036
 20
48.9933619024
 10
268.9892974841
 20
48.637599856
 10
269.7295928194
 20
48.1389389609
 10
270.3804556674
 20
47.5030292445
 10
270.9345114922
 20
46.7370758179
 10
271.3854826197
 20
45.8497572395
 10
271.7282593668
 20
44.8511271832
 10
271.7604730476
 20
44.7299610997
  0
LWPOLYLINE
  5
1F9
330
1F
100
AcDbEntity
  8
0
  6
Continuous
 62
     7
370
     0
100
AcDbPolyline
 90
       14
 70
   128
 43
0.0
 10
259.2614888897
 20
23.0787395402
 10
258.8764752956
 20
22.9811319866
 10
257.8498147214
 20
22.8159908553
 10
256.8683242928
 20
22.8005200231
 10
255.9431246886
 20
22.9348947809
 10
255.0846987898
 20
23.2175926088
 10
254.302772905
 20
23.6454104276
 10
253.6062065668
 20
24.2135008904
 10
253.0028921503
 20
24.9154273053
 10
252.4996654488
 20
25.7432365654
 10
252.102228222
 20
26.6875492612
 10
251.8150835924
 20
27.7376659525
 10
251.6414850234
 20
28.8816883975
 10
251.5833994562
 20
30.1066543648
  0
LWPOLYLINE
  5
1FA
330
1F
100
AcDbEntity
  8
0
  6
Continuous
 62
     7
370
     0
100
AcDbPolyline
 90
       21
 70
   128
 43
0.0
 10
239.9234704968
 20
35.2356803693
 10
240.3941293367
 20
37.0970406123
 10
240.979263045
 20
38.9729584102
 10
241.6746983834
 20
40.8500545091
 10
242.4754754297
 20
42.7149412513
 10
243.3758829532
 20
44.5543180577
 10
244.3694991476
 20
46.3550662889
 10
245.449237432
 20
48.1043428087
 10
246.607396993
 20
49.7896715828
 10
247.8357177083
 20
51.3990326595
 10
249.1254390582
 20
52.920947897
 10
250.4673626069
 20
54.344562827
 10
251.8519176069
 20
55.6597240699
 10
253.2692292582
 20
56.8570517498
 10
254.7091891369
 20
57.9280063928
 10
256.1615272894
 20
58.8649498316
 10
257.6158854789
 20
59.6611996816
 10
259.0618910614
 20
60.3110770007
 10
260.4892309646
 20
60.8099467915
 10
261.8877252421
 20
61.1542510595
 10
262.00899582
 20
61.1770452053
  0
LWPOLYLINE
  5
1FB
330
1F
100
AcDbEntity
  8
0
  6
Continuous
 62
     7
370
     0
100
AcDbPolyline
 90
        8
 70
   128
 43
0.0
 10
254.4118265809
 20
30.1066543648
 10
254.4694404451
 20
28.9764311609
 10
254.6415309529
 20
27.9274616966
 10
254.9258546413
 20
26.9734208931
 10
255.3187049163
 20
26.1267461313
 10
255.8149603737
 20
25.3984751115
 10
256.4081515647
 20
24.7981019601
 10
257.0011692668
 20
24.3835942839
  0
LWPOLYLINE
  5
1FC
330
1F
100
AcDbEntity
  8
0
  6
Continuous
 62
     7
370
     0
100
AcDbPolyline
 90
       22
 70
   128
 43
0.0
 10
269.5001534247
 20
46.0348158434
 10
269.038867167
 20
46.2644197971
 10
268.2396816914
 20
46.5146988662
 10
267.3754567059
 20
46.6175935341
 10
266.4574587047
 20
46.5717624114
 10
265.4976551959
 20
46.3778029768
 10
264.5085586858
 20
46.0382437883
 10
263.5030635602
 20
45.5575115192
 10
262.4942779858
 20
44.9418732496
 10
261.4953530252
 20
44.1993547661
 10
260.5193111929
 20
43.3396359326
 10
259.578876687
 20
42.3739244988
 10
258.6863095093
 20
41.3148099901
 10
257.8532456381
 20
40.1760995839
 10
257.090545335
 20
38.9726381117
 10
256.4081515647
 20
37.7201145343
 10
255.8149603737
 20
36.434857412
 10
255.3187049163
 20
35.133622037
 10
254.9258546413
 20
33.8333720023
 10
254.6415309529
 20
32.5510580557
 10
254.4694404451
 20
31.3033971204
 10
254.4118265809
 20
30.1066543648
  0
LWPOLYLINE
  5
1FD
330
1F
100
AcDbEntity
  8
0
  6
Continuous
 62
     7
370
     0
100
AcDbPolyline
 90
       15
 70
   128
 43
0.0
 10
269.219134326
 20
23.5930400552
 10
269.6524331427
 20
23.0553801976
 10
270.1856190355
 20
22.6618313506
 10
270.805972529
 20
22.4217818626
 10
271.4986947114
 20
22.3409582608
 10
272.2472602718
 20
22.4212886417
 10
273.0338117212
 20
22.6608566748
 10
273.839585394
 20
23.0539473184
 10
274.6453590668
 20
23.5911831549
 10
275.4319105162
 20
24.2597480951
 10
276.1804760766
 20
25.0436931136
 10
276.873198259
 20
25.924316723
 10
277.4935517525
 20
26.8806111089
 10
278.0267376453
 20
27.8897632842
 10
278.460036462
 20
28.9276993069
  0
LWPOLYLINE
  5
1FE
330
1F
100
AcDbEntity
  8
0
  6
Continuous
 62
     7
370
     0
100
AcDbPolyline
 90
       15
 70
   128
 43
0.0
 10
278.4599895555
 20
34.5997334226
 10
278.0266863096
 20
35.1373679157
 10
277.4935007464
 20
35.5308953172
 10
276.8731518833
 20
35.7709281224
 10
276.180437998
 20
35.8517404047
 10
275.4318836189
 20
35.7714044059
 10
274.6453453365
 20
35.5318365226
 10
273.8395858383
 20
35.1387515908
 10
273.0338263295
 20
34.6015265601
 10
272.2472880156
 20
33.9329768084
 10
271.4987335848
 20
33.1490504344
 10
270.8060196288
 20
32.2684478192
 10
270.1856706777
 20
31.3121755331
 10
269.6524850114
 20
30.3030452289
 10
269.2191816496
 20
29.2651294749
  0
LWPOLYLINE
  5
1FF
330
1F
100
AcDbEntity
  8
0
  6
Continuous
 62
     7
370
     0
100
AcDbPolyline
 90
       20
 70
   128
 43
0.0
 10
243.2014383095
 20
34.2124546545
 10
243.6543169512
 20
36.0017308902
 10
244.2203919559
 20
37.8051618063
 10
244.8953854745
 20
39.6091188112
 10
245.6741965568
 20
41.3999693371
 10
246.5509396998
 20
43.1641798627
 10
247.5189893241
 20
44.8884181861
 10
248.5710298442
 20
46.5596541766
 10
249.6991109522
 20
48.1652582441
 10
250.8947076989
 20
49.6930967813
 10
252.148784917
 20
51.1316238578
 10
253.4518655002
 20
52.4699684731
 10
254.7941020218
 20
53.6980167091
 10
256.1653511526
 20
54.8064881614
 10
257.5552503139
 20
55.7870060717
 10
258.953295988
 20
56.632160631
 10
260.3489230939
 20
57.3355649762
 10
261.7315848277
 20
57.8919034555
 10
263.0908323651
 20
58.2969717991
 10
263.2173148012
 20
58.3272182215
  0
LWPOLYLINE
  5
200
330
1F
100
AcDbEntity
  8
0
  6
Continuous
 62
     7
370
     0
100
AcDbPolyline
 90
       22
 70
   128
 43
0.0
 10
242.6239706391
 20
34.205652909
 10
243.0754432115
 20
36.0161194971
 10
243.6412169098
 20
37.8417160664
 10
244.3170581036
 20
39.6687818524
 10
245.0979095378
 20
41.4836450965
 10
245.9779281758
 20
43.2727253506
 10
246.9505289224
 20
45.0226350983
 10
248.008433899
 20
46.7202799321
 10
249.143726904
 20
48.3529565383
 10
250.3479126483
 20
49.9084477538
 10
251.6119803252
 20
51.3751139866
 10
252.9264710372
 20
52.7419803136
 10
254.2815485758
 20
53.9988186047
 10
255.6670730255
 20
55.1362240593
 10
257.0726766393
 20
56.1456855809
 10
258.4878414198
 20
57.0196494657
 10
259.9019778243
 20
57.7515759254
 10
261.3045040052
 20
58.3359880243
 10
262.6849249932
 20
58.7685126625
 10
264.0329112302
 20
59.0459132996
 10
265.3383758639
 20
59.1661141732
 10
266.463434287
 20
59.1395656723
  0
LINE
  5
201
330
1F
100
AcDbEntity
  8
0
  6
Continuous
 62
     7
370
     0
100
AcDbLine
 10
267.3695583461
 20
24.0803795615
 30
0.0
 11
267.4579466938
 21
23.7505167689
 31
0.0
  0
LWPOLYLINE
  5
202
330
1F
100
AcDbEntity
  8
0
  6
Continuous
 62
     7
370
     0
100
AcDbPolyline
 90
        3
 70
   128
 43
0.0
 10
277.8691634448
 20
34.554767742
 10
277.4185720876
 20
35.0643613753
 10
277.0564582458
 20
35.3219729854
  0
LWPOLYLINE
  5
203
330
1F
100
AcDbEntity
  8
0
  6
Continuous
 62
     7
370
     0
100
AcDbPolyline
 90
       13
 70
   128
 43
0.0
 10
270.0998553378
 20
23.173162471
 10
270.2475404274
 20
23.0986772791
 10
270.8876020688
 20
22.905236422
 10
271.5981867332
 20
22.8796889719
 10
272.3605196216
 20
23.022709934
 10
273.1544586628
 20
23.3305204624
 10
273.9590267002
 20
23.7949877039
 10
274.7529657415
 20
24.4038396808
 10
275.5152986298
 20
25.1409895367
 10
276.2258832942
 20
25.9869605771
 10
276.8659449357
 20
26.9194008753
 10
277.4185720876
 20
27.9136738468
 10
277.8691634448
 20
28.9435091874
  0
LINE
  5
204
330
1F
100
AcDbEntity
  8
0
  6
Continuous
 62
     7
370
     0
100
AcDbLine
 10
266.8325671601
 20
24.3903779747
 30
0.0
 11
267.3695583461
 21
24.0803795615
 31
0.0
  0
LINE
  5
205
330
1F
100
AcDbEntity
  8
0
  6
Continuous
 62
     7
370
     0
100
AcDbLine
 10
243.6726423416
 20
32.254828209
 30
0.0
 11
243.6849069181
 21
32.8972715324
 31
0.0
  0
LWPOLYLINE
  5
206
330
1F
100
AcDbEntity
  8
0
  6
Continuous
 62
     7
370
     0
100
AcDbPolyline
 90
        3
 70
   128
 43
0.0
 10
243.7078752143
 20
33.3515526436
 10
243.730286626
 20
33.6642824812
 10
243.7502374596
 20
33.8956396488
  0
LINE
  5
207
330
1F
100
AcDbEntity
  8
0
  6
Continuous
 62
     7
370
     0
100
AcDbLine
 10
243.6730938763
 20
32.1331491579
 30
0.0
 11
243.6726423416
 21
32.254828209
 31
0.0
  0
LWPOLYLINE
  5
208
330
1F
100
AcDbEntity
  8
0
  6
Continuous
 62
     7
370
     0
100
AcDbPolyline
 90
       19
 70
   128
 43
0.0
 10
212.5876893278
 20
56.1461346356
 10
212.6467815923
 20
57.2431030437
 10
212.8230880924
 20
58.3902857372
 10
213.1137138802
 20
59.568846008
 10
213.5138868884
 20
60.759431929
 10
214.0170362872
 20
61.9424941124
 10
214.6149003774
 20
63.0986067096
 10
215.2976622471
 20
64.208786384
 10
216.0541109654
 20
65.2548040159
 10
216.8718256652
 20
66.2194840246
 10
217.7373794937
 20
67.0869863913
 10
218.636560081
 20
67.8430667509
 10
219.5546029067
 20
68.4753102849
 10
220.476433733
 20
68.9733355719
 10
221.3869161233
 20
69.3289650504
 10
222.2710999818
 20
69.5363592944
 10
223.114467034
 20
69.592112896
 10
223.9031692162
 20
69.4953103825
 10
224.3223162406
 20
69.3727192887
  0
ARC
  5
209
330
1F
100
AcDbEntity
  8
0
  6
Continuous
 62
     7
370
     0
100
AcDbCircle
 10
218.0391813325
 20
55.717214828
 30
0.0
 40
5.468339535747608
100
AcDbArc
 50
175.5012734851
 51
224.1798022584
  0
LINE
  5
20A
330
1F
100
AcDbEntity
  8
0
  6
Continuous
 62
     7
370
     0
100
AcDbLine
 10
249.3560130954
 20
33.2505454931
 30
0.0
 11
248.6487913801
 21
33.6588158991
 31
0.0
  0
LINE
  5
20B
330
1F
100
AcDbEntity
  8
0
  6
Continuous
 62
     7
370
     0
100
AcDbLine
 10
243.8128520263
 20
27.5910764555
 30
0.0
 11
249.3560130954
 21
24.3910776841
 31
0.0
  0
LINE
  5
20C
330
1F
100
AcDbEntity
  8
0
  6
Continuous
 62
     7
370
     0
100
AcDbLine
 10
243.7521918545
 20
27.5560466998
 30
0.0
 11
243.8128520263
 21
27.5910764555
 31
0.0
  0
LINE
  5
20D
330
1F
100
AcDbEntity
  8
0
  6
Continuous
 62
     7
370
     0
100
AcDbLine
 10
245.2905064945
 20
20.3967814906
 30
0.0
 11
245.103027669
 21
20.9754899319
 31
0.0
  0
LINE
  5
20E
330
1F
100
AcDbEntity
  8
0
  6
Continuous
 62
     7
370
     0
100
AcDbLine
 10
248.6489063142
 20
23.1663328164
 30
0.0
 11
243.3986384639
 21
26.1972479315
 31
0.0
  0
LINE
  5
20F
330
1F
100
AcDbEntity
  8
0
  6
Continuous
 62
     7
370
     0
100
AcDbLine
 10
280.2212240942
 20
31.1185999781
 30
0.0
 11
279.9560590513
 21
31.3464117567
 31
0.0
  0
LINE
  5
210
330
1F
100
AcDbEntity
  8
0
  6
Continuous
 62
     7
370
     0
100
AcDbLine
 10
244.0634901062
 20
23.0176560598
 30
0.0
 11
243.9863268366
 21
23.2667987197
 31
0.0
  0
LWPOLYLINE
  5
211
330
1F
100
AcDbEntity
  8
0
  6
Continuous
 62
     7
370
     0
100
AcDbPolyline
 90
        3
 70
   128
 43
0.0
 10
243.6676397159
 20
22.4220498348
 10
243.6465490983
 20
22.4719762842
 10
243.2014383095
 20
23.7199052218
  0
ARC
  5
212
330
1F
100
AcDbEntity
  8
0
  6
Continuous
 62
     7
370
     0
100
AcDbCircle
 10
253.386473029
 20
26.7319970286
 30
0.0
 40
11.17788781356336
100
AcDbArc
 50
195.6688655944
 51
214.1331200111
  0
LINE
  5
213
330
1F
100
AcDbEntity
  8
0
  6
Continuous
 62
     7
370
     0
100
AcDbLine
 10
240.1032218312
 20
23.4091009129
 30
0.0
 11
239.9234704968
 21
23.9655846414
 31
0.0
  0
LINE
  5
214
330
1F
100
AcDbEntity
  8
0
  6
Continuous
 62
     7
370
     0
100
AcDbLine
 10
275.3245096345
 20
34.0201483229
 30
0.0
 11
279.9560590513
 21
31.3464117567
 31
0.0
  0
OLE2FRAME
  5
215
330
1F
100
AcDbEntity
  8
0
100
AcDbOle2Frame
 70
     2
  3
Paintbrush-Bild
 10
13.8511154363
 20
38.264191557
 30
0.0
 11
51.6290888628
 21
31.9806341108
 31
0.0
 71
     2
 72
     0
 73
     1
 90
    12928
310
80552BED0767C5B32B40DDAF6807D121434000000000000000006FFBDDFB85D0
310
4940DDAF6807D121434000000000000000006FFBDDFB85D04940416F4BD60AFB
310
3F4000000000000000002BED0767C5B32B40416F4BD60AFB3F40000000000000
310
0000000000000100000000010000010000000100000000000100000000320000
310
D0CF11E0A1B11AE1000000000000000000000000000000003E000300FEFF0900
310
0600000000000000000000000100000001000000000000000010000002000000
310
01000000FEFFFFFF0000000000000000FFFFFFFFFFFFFFFFFFFFFFFFFFFFFFFF
310
FFFFFFFFFFFFFFFFFFFFFFFFFFFFFFFFFFFFFFFFFFFFFFFFFFFFFFFFFFFFFFFF
310
FFFFFFFFFFFFFFFFFFFFFFFFFFFFFFFFFFFFFFFFFFFFFFFFFFFFFFFFFFFFFFFF
310
FFFFFFFFFFFFFFFFFFFFFFFFFFFFFFFFFFFFFFFFFFFFFFFFFFFFFFFFFFFFFFFF
310
FFFFFFFFFFFFFFFFFFFFFFFFFFFFFFFFFFFFFFFFFFFFFFFFFFFFFFFFFFFFFFFF
310
FFFFFFFFFFFFFFFFFFFFFFFFFFFFFFFFFFFFFFFFFFFFFFFFFFFFFFFFFFFFFFFF
310
FFFFFFFFFFFFFFFFFFFFFFFFFFFFFFFFFFFFFFFFFFFFFFFFFFFFFFFFFFFFFFFF
310
FFFFFFFFFFFFFFFFFFFFFFFFFFFFFFFFFFFFFFFFFFFFFFFFFFFFFFFFFFFFFFFF
310
FFFFFFFFFFFFFFFFFFFFFFFFFFFFFFFFFFFFFFFFFFFFFFFFFFFFFFFFFFFFFFFF
310
FFFFFFFFFFFFFFFFFFFFFFFFFFFFFFFFFFFFFFFFFFFFFFFFFFFFFFFFFFFFFFFF
310
FFFFFFFFFFFFFFFFFFFFFFFFFFFFFFFFFFFFFFFFFFFFFFFFFFFFFFFFFFFFFFFF
310
FFFFFFFFFFFFFFFFFFFFFFFFFFFFFFFFFFFFFFFFFFFFFFFFFFFFFFFFFFFFFFFF
310
FFFFFFFFFFFFFFFFFFFFFFFFFFFFFFFFFFFFFFFFFFFFFFFFFFFFFFFFFFFFFFFF
310
FFFFFFFFFFFFFFFFFFFFFFFFFFFFFFFFFFFFFFFFFFFFFFFFFFFFFFFFFFFFFFFF
310
FDFFFFFFFEFFFFFFFEFFFFFFFEFFFFFF05000000060000000700000008000000
310
090000000A0000000B0000000C0000000D0000000E0000000F00000010000000
310
11000000120000001300000014000000150000001600000017000000FEFFFFFF
310
FFFFFFFFFFFFFFFFFFFFFFFFFFFFFFFFFFFFFFFFFFFFFFFFFFFFFFFFFFFFFFFF
310
FFFFFFFFFFFFFFFFFFFFFFFFFFFFFFFFFFFFFFFFFFFFFFFFFFFFFFFFFFFFFFFF
310
FFFFFFFFFFFFFFFFFFFFFFFFFFFFFFFFFFFFFFFFFFFFFFFFFFFFFFFFFFFFFFFF
310
FFFFFFFFFFFFFFFFFFFFFFFFFFFFFFFFFFFFFFFFFFFFFFFFFFFFFFFFFFFFFFFF
310
FFFFFFFFFFFFFFFFFFFFFFFFFFFFFFFFFFFFFFFFFFFFFFFFFFFFFFFFFFFFFFFF
310
FFFFFFFFFFFFFFFFFFFFFFFFFFFFFFFFFFFFFFFFFFFFFFFFFFFFFFFFFFFFFFFF
310
FFFFFFFFFFFFFFFFFFFFFFFFFFFFFFFFFFFFFFFFFFFFFFFFFFFFFFFFFFFFFFFF
310
FFFFFFFFFFFFFFFFFFFFFFFFFFFFFFFFFFFFFFFFFFFFFFFFFFFFFFFFFFFFFFFF
310
FFFFFFFFFFFFFFFFFFFFFFFFFFFFFFFFFFFFFFFFFFFFFFFFFFFFFFFFFFFFFFFF
310
FFFFFFFFFFFFFFFFFFFFFFFFFFFFFFFFFFFFFFFFFFFFFFFFFFFFFFFFFFFFFFFF
310
FFFFFFFFFFFFFFFFFFFFFFFFFFFFFFFFFFFFFFFFFFFFFFFFFFFFFFFFFFFFFFFF
310
FFFFFFFFFFFFFFFFFFFFFFFFFFFFFFFFFFFFFFFFFFFFFFFFFFFFFFFFFFFFFFFF
310
FFFFFFFFFFFFFFFFFFFFFFFFFFFFFFFFFFFFFFFFFFFFFFFFFFFFFFFFFFFFFFFF
310
52006F006F007400200045006E00740072007900000000000000000000000000
310
0000000000000000000000000000000000000000000000000000000000000000
310
16000500FFFFFFFFFFFFFFFF020000000A00030000000000C000000000000046
310
000000000000000000000000206BC0F0071FD20103000000C000000000000000
310
01004F006C006500000000000000000000000000000000000000000000000000
310
0000000000000000000000000000000000000000000000000000000000000000
310
0A000200FFFFFFFFFFFFFFFFFFFFFFFF00000000000000000000000000000000
310
0000000000000000000000000000000000000000000000001400000000000000
310
010043006F006D0070004F0062006A0000000000000000000000000000000000
310
0000000000000000000000000000000000000000000000000000000000000000
310
120002010100000003000000FFFFFFFF00000000000000000000000000000000
310
0000000000000000000000000000000000000000010000004D00000000000000
310
01004F006C006500310030004E00610074006900760065000000000000000000
310
0000000000000000000000000000000000000000000000000000000000000000
310
1A000200FFFFFFFFFFFFFFFFFFFFFFFF00000000000000000000000000000000
310
0000000000000000000000000000000000000000040000002426000000000000
310
FEFFFFFF02000000FEFFFFFFFFFFFFFFFFFFFFFFFFFFFFFFFFFFFFFFFFFFFFFF
310
FFFFFFFFFFFFFFFFFFFFFFFFFFFFFFFFFFFFFFFFFFFFFFFFFFFFFFFFFFFFFFFF
310
FFFFFFFFFFFFFFFFFFFFFFFFFFFFFFFFFFFFFFFFFFFFFFFFFFFFFFFFFFFFFFFF
310
FFFFFFFFFFFFFFFFFFFFFFFFFFFFFFFFFFFFFFFFFFFFFFFFFFFFFFFFFFFFFFFF
310
FFFFFFFFFFFFFFFFFFFFFFFFFFFFFFFFFFFFFFFFFFFFFFFFFFFFFFFFFFFFFFFF
310
FFFFFFFFFFFFFFFFFFFFFFFFFFFFFFFFFFFFFFFFFFFFFFFFFFFFFFFFFFFFFFFF
310
FFFFFFFFFFFFFFFFFFFFFFFFFFFFFFFFFFFFFFFFFFFFFFFFFFFFFFFFFFFFFFFF
310
FFFFFFFFFFFFFFFFFFFFFFFFFFFFFFFFFFFFFFFFFFFFFFFFFFFFFFFFFFFFFFFF
310
FFFFFFFFFFFFFFFFFFFFFFFFFFFFFFFFFFFFFFFFFFFFFFFFFFFFFFFFFFFFFFFF
310
FFFFFFFFFFFFFFFFFFFFFFFFFFFFFFFFFFFFFFFFFFFFFFFFFFFFFFFFFFFFFFFF
310
FFFFFFFFFFFFFFFFFFFFFFFFFFFFFFFFFFFFFFFFFFFFFFFFFFFFFFFFFFFFFFFF
310
FFFFFFFFFFFFFFFFFFFFFFFFFFFFFFFFFFFFFFFFFFFFFFFFFFFFFFFFFFFFFFFF
310
FFFFFFFFFFFFFFFFFFFFFFFFFFFFFFFFFFFFFFFFFFFFFFFFFFFFFFFFFFFFFFFF
310
FFFFFFFFFFFFFFFFFFFFFFFFFFFFFFFFFFFFFFFFFFFFFFFFFFFFFFFFFFFFFFFF
310
FFFFFFFFFFFFFFFFFFFFFFFFFFFFFFFFFFFFFFFFFFFFFFFFFFFFFFFFFFFFFFFF
310
FFFFFFFFFFFFFFFFFFFFFFFFFFFFFFFFFFFFFFFFFFFFFFFFFFFFFFFFFFFFFFFF
310
0100000200000000000000000000000000000000000000000000000000000000
310
0000000000000000000000000000000000000000000000000000000000000000
310
0100FEFF030A0000FFFFFFFF0A00030000000000C00000000000004607000000
310
5042727573680007000000504272757368000700000050427275736800F439B2
310
7100000000000000000000000000000000000000000000000000000000000000
310
0000000000000000000000000000000000000000000000000000000000000000
310
0000000000000000000000000000000000000000000000000000000000000000
310
0000000000000000000000000000000000000000000000000000000000000000
310
0000000000000000000000000000000000000000000000000000000000000000
310
0000000000000000000000000000000000000000000000000000000000000000
310
0000000000000000000000000000000000000000000000000000000000000000
310
0000000000000000000000000000000000000000000000000000000000000000
310
0000000000000000000000000000000000000000000000000000000000000000
310
0000000000000000000000000000000000000000000000000000000000000000
310
0000000000000000000000000000000000000000000000000000000000000000
310
0000000000000000000000000000000000000000000000000000000000000000
310
20260000424D0E260000000000003E00000028000000B40200006E0000000100
310
01000000000000000000130B0000130B00000200000002000000000000FFFFFF
310
FFFFFFFFFFFFFFFFFFFFFFFFFFFFFFFFFFFFFFFFFFFFFFFFFFFFFFFFFFFFFFFF
310
FFFFFFFFFFFFFFFFFFFFFFFFFFFFFFFFFFFFFFFFFFFFFFFFFFFFFFFFFFFFFFFF
310
FFFFFFFFFFFFFFFFFFFFFFFFFFFFFFFFFFFFFFFFFFFFFFFFF000FFFFFFFFFFFF
310
FFFFFFFFFFFFFFFFFFFFFFFFFFFFFFFFFFFFFFFFFFFFFFFFFFFFFFFFFFFFFFFF
310
FFFFFFFFFFFFFFFFFFFFFFFFFFFFFFFFFFFFFFFFFFFFFFFFFFFFFFFFFFFFFFFF
310
FFFFFFFFFFFFFFFFFFFFFFFFFFFFFFFFF000FFFFFFFFFFFFFFFFFFFFFFFFFFFF
310
FFFFFFFFFFFFFFFFFFFFFFFFFFFFFFFFFFFFFFFFFFFFFFFFFFFFFFFFFFFFFFFF
310
FFFFFFFFFFFFFFFFFFFFFFFFFFFFFFFFFFFFFFFFFFFFFFFFFFFFFFFFFFFFFFFF
310
FFFFFFFFFFFFFFFFF000FFFFFFFFFFFFFFFFFFFFFFFFFFFFFFFFFFFFFFFFFFFF
310
FFFFFFFFFFFFFFFFFFFFFFFFFFFFFFFFFFFFFFFFFFFFFFFFFFFFFFFFFFFFFFFF
310
FFFFFFFFFFFFFFFFFFFFFFFFFFFFFFFFFFFFFFFFFFFFFFFFFFFFFFFFFFFFFFFF
310
F000FFFFFFFFFFFFFFFFFFFFFFFFFFFFFFFFFFFFFFFFFFFFFFFFFFFFFFFFFFFF
310
FFFFFFFFFFFFFFFFFFFFFFFFFFFFFFFFFFFFFFFFFFFFFFFFFFFFFFFFFFFFFFFF
310
FFFFFFFFFFFFFFFFFFFFFFFFFFFFFFFFFFFFFFFFFFFFFFFFF000FFFFFFFFFFFF
310
FFFFFFFFFFFFFFFFFFFFFFFFFFFFFFFFFFFFFFFFFFFFFFFFFFFFFFFFFFFFFFFF
310
FFFFFFFFFFFFFFFFFFFFFFFFFFFFFFFFFFFFFFFFFFFFFFFFFFFFFFFFFFFFFFFF
310
FFFFFFFFFFFFFFFFFFFFFFFFFFFFFFFFF000FFFFFFFFFFFFFFFFFFFFFFFFFFFF
310
FFFFFFFFFFFFFFFFFFFFFFFFFFFFFFFFFFFFFFFFFFFFFFFFFFFFFFFFFFFFFFFF
310
FFFFFFFFFFFFFFFFFFFFFFFFFFFFFFFFFFFFFFFFFFFFFFFFFFFFFFFFFFFFFFFF
310
FFFFFFFFFFFFFFFFF000FFFFFFFFFFFFFFFFFFFFFFFFFFFFFFFFFFFFFFFFFFFF
310
FFFFFFFFFFFFFFFFFFFFFFFFFFFFFFFFFFFFFFFFFFFFFFFFFFFFFFFFFFFFFFFF
310
FFFFFFFFFFFFFFFFFFFFFFFFFFFFFFFFFFFFFFFFFFFFFFFFFFFFFFFFFFFFFFFF
310
F000FFFFFFFFFFFFFFFFFFFFFFFFFFFFFFFFFFFFFFFFFFFFFFFFFFFFFFFFFFFF
310
FFFFFFFFFFFFFFFFFFFFFFFFFFFFFFFFFFFFFFFFFFFFFFFFFFFFFFFFFFFFFFFF
310
FFFFFFFFFFFFFFFFFFFFFFFFFFFFFFFFFFFFFFFFFFFFFFFFF000FFFFFFFFFFFF
310
FFFFFFFFFFFFFFFFFFFFFFFFFFFFFFFFFFFFFFFFFFFFFFFFFFFFFFFFFFFFFFFF
310
FFFFFFFFFFFFFFFFFFFFFFFFFFFFFFFFFFFFFFFFFFFFFFFFFFFFFFFFFFFFFFFF
310
FFFFFFFFFFFFFFFFFFFFFFFFFFFFFFFFF000FFFFFFFFFFFFFFFFFFFFFFFFFFFF
310
FFFFFFFFFFFFFFFFFFFFFFFFFFFFFFFFFFFFFFFFFFFFFFFFFFFFFFFFFFFFFFFF
310
FFFFFFFFFFFFFFFFFFFFFFFFFFFFFFFFFFFFFFFFFFFFFFFFFFFFFFFFFFFFFFFF
310
FFFFFFFFFFFFFFFFF000FFFFFFFFFFFFFFFFFFFFFFFFFFFFFFFFFFFFFFFFFFFF
310
FFFFFFFFFFFFFFFFFFFFFFFFFFFFFFFFFFFFFFFFFFFFFFFFFFFFFFFFFFFFFFFF
310
FFFFFFFFFFFFFFFFFFFFFFFFFFFFFFFFFFFFFFFFFFFFFFFFFFFFFFFFFFFFFFFF
310
F000FFFFFFFFFFFFFFFFFFFFFFFFFFFFFFFFFFFFFFFFFFFFFFFFFFFFFFFFFFFF
310
FFFFFFFFFFFFFFFFFFFFFFFFFFFFFFFFFFFFFFFFFFFFFFFFFFFFFFFFFFFFFFFF
310
FFFFFFFFFFFFFFFFFFFFFFFFFFFFFFFFFFFFFFFFFFFFFFFFF000FFFFFFFFFFFF
310
FFFFFFFFFFFFFFFFFFFFFFFFFFFFFFFFFFFFFFFFFFFFFFFFFFFFFFFFFFFFFFFF
310
FFFFFFFFFFFFFFFFFFFFFFFFFFFFFFFFFFFFFFFFFFFFFFFFFFFFFFFFFFFFFFFF
310
FFFFFFFFFFFFFFFFFFFFFFFFFFFFFFFFF000FFFFFFFFFFFFFFFFFFFFFFFFFFFF
310
FFFFFFFFFFFFFFFFFFFFFFFFFFFFFFFFFFFFFFFFFFFFFFFFFFFFFFFFFFFFFFFF
310
FFFFFFFFFFFFFFFFFFFFFFFFFFFFFFFFFFFFFFFFFFFFFFFFFFFFFFFFFFFFFFFF
310
FFFFFFFFFFFFFFFFF000FFFFFFFFFFFFFFFFFFFFFFFFFFFFFFFFFFFFFFFFFFFF
310
FFFFFFFFFFFFFFFFFFFFFFFFFFFFFFFFFFFFFFFFFFFFFFFFFFFFFFFFFFFFFFFF
310
FFFFFFFFFFFFFFFFFFFFFFFFFFFFFFFFFFFFFFFFFFFFFFFFFFFFFFFFFFFFFFFF
310
F000FFFFFFFFFFFFFFFFFFFFFFFFFFFFFFFFFFFFFFFFFFFFFFFFFFFFFFFFFFFF
310
FFFFFFFFFFFFFFFFFFFFFFFFFFFFFFFFFFFFFFFFFFFFFFFFFFFFFFFFFFFFFFFF
310
FFFFFFFFFFFFFFFFFFFFFFFFFFFFFFFFFFFFFFFFFFFFFFFFF000FFFFFFFFFFFF
310
FFFFFFFFFFFFFFFFFFFFFFFFFFFFFFFFFFFFFFFFFFFFFFFFFFFFFFFFFFFFFFFF
310
FFFFFFFFFFFFFFFFFFFFFFFFFFFFFFFFFFFFFFFFFFFFFFFFFFFFFFFFFFFFFFFF
310
FFFFFFFFFFFFFFFFFFFFFFFFFFFFFFFFF000FFFFFFFFFFFFFFFFFFFFFFFFFFFF
310
FFFFFFFFFFFFFFFFFFFFFFFFFFFFFFFFFFFFFFFFFFFFFFFFFFFFFFFFFFFFFFFF
310
FFFFFFFFFFFFFFFFFFFFFFFFFFFFFFFFFFFFFFFFFFFFFFFFFFFFFFFFFFFFFFFF
310
FFFFFFFFFFFFFFFFF000FFFFF80003FFFFFFFFFFFFFFFFFFFFFFFFFFFFFFFFFF
310
FFFFF00007FFFFFFFFFF00007FFFFFF800000000000000007FFFFFFFFFFFFFFF
310
FFFFFFFC001FFFFFFFFFFFFFFC001FFFFFFFFFFFFFFFFFFFFFFFFFFE0007FFFF
310
F000FFFF8000007FFFFFFFF8000FFFFFC0007FFFFF80007FFFFF0000007FFFFF
310
FFF8000007FFFFF800000000000000007FFFFFF0001FFFFFFFFFFFC00001FFFF
310
FFFFFFFFC00001FFFFFFFF000000000003FFFFE000007FFFF000FFFE0000000F
310
FFFFFFF0000FFFFF80007FFFFF80007FFFFC0000001FFFFFFFC0000001FFFFF8
310
00000000000000007FFFFFF0001FFFFFFFFFFE0000003FFFFFFFFFFE0000003F
310
FFFFFF000000000003FFFF0000000FFFF000FFF800000003FFFFFFF00007FFFF
310
80007FFFFF80007FFFF000000007FFFFFF000000003FFFF80000000000000000
310
7FFFFFF0001FFFFFFFFFF80000000FFFFFFFFFF80000000FFFFFFF0000000000
310
03FFFC00000003FFF000FFE000000000FFFFFFF00007FFFF80003FFFFF80007F
310
FFC000000001FFFFFC000000001FFFF800000000000000007FFFFFF0001FFFFF
310
FFFFE000000003FFFFFFFFE000000003FFFFFF000000000003FFF000000000FF
310
F000FF80000000007FFFFFF00007FFFF80003FFFFF80007FFF8000000000FFFF
310
F80000000007FFF800000000000000007FFFFFF0001FFFFFFFFFC000000001FF
310
FFFFFFC000000001FFFFFF000000000003FFC0000000007FF000FF0000000000
310
3FFFFFE00007FFFF00003FFFFF80007FFE00000000003FFFF00000000003FFF8
310
00000000000000007FFFFFF0001FFFFFFFFF8000000000FFFFFFFF8000000000
310
FFFFFF000000000003FF80000000003FF000FE00000000001FFFFFE00003FFFF
310
00003FFFFF80007FFC00000000001FFFE00000000001FFF8000001FFFE000000
310
7FFFFFF0001FFFFFFFFE00000000003FFFFFFE00000000003FFFFF0000000000
310
03FF00000000001FF000FC00000000000FFFFFE00003FFFF00001FFFFF80007F
310
F800000000001FFFC00000000000FFF8000001FFFE0000007FFFFFF0001FFFFF
310
FFFC00000000001FFFFFFC00000000001FFFFF000000000003FE00000000000F
310
F000F8000000000007FFFFE00003FFFF00001FFFFF80007FF800000000000FFF
310
800000000000FFF8000001FFFE0000007FFFFFF0001FFFFFFFF800000000000F
310
FFFFF800000000000FFFFF000000000003FC000000000007F000F80000000000
310
03FFFFC00003FFFE00001FFFFF80007FF0000000000007FF0000000000007FF8
310
000001FFFE0000007FFFFFF0001FFFFFFFF0000000000007FFFFF00000000000
310
07FFFF000000000003F8000000000003F000F0000000000003FFFFC00001FFFE
310
00001FFFFF80007FE0000000000007FE0000000000003FF8000001FFFE000000
310
7FFFFFF0001FFFFFFFF0000000000007FFFFF0000000000007FFFF0000000000
310
03F800001F800003F000E00001FFF00001FFFFC00001FFFE00000FFFFF80007F
310
E00001FFE00003FE00001FFF00003FF8000001FFFE0000007FFFFFF0001FFFFF
310
FFE000003E000003FFFFE000003E000003FFFF000000000003F00001FFF80001
310
F000E00007FFFC0001FFFFC00001FFFE00000FFFFF80007FC0000FFFFC0003FC
310
0000FFFFC0001FF8000001FFFE0000007FFFFFF0001FFFFFFFC00003FFE00001
310
FFFFC00003FFE00001FFFF0001FFFFFFFFF00007FFFE0001F000E0000FFFFF00
310
00FFFF800001FFFC00000FFFFF80007FC0001FFFFE0001FC0001FFFFE0001FF8
310
000001FFFE0000007FFFFFF0001FFFFFFF80000FFFF80000FFFF80000FFFF800
310
00FFFF0003FFFFFFFFE0000FFFFF8000F000C0003FFFFF8000FFFF800000FFFC
310
000007FFFF80007F80003FFFFF0001FC0003FFFFF0001FF8000001FFFE000000
310
7FFFFFF0001FFFFFFF80003FFFFE0000FFFF80003FFFFE0000FFFF0003FFFFFF
310
FFE0003FFFFF8000F000C0003FFFFF8000FFFF800000FFFC000007FFFF80007F
310
80007FFFFF8001F80007FFFFF8000FF8000001FFFE0000007FFFFFF0001FFFFF
310
FF00007FFFFF00007FFF00007FFFFF00007FFF0003FFFFFFFFE0003FFFFFC000
310
F000C0007FFFFFC000FFFF000000FFFC000007FFFF80007F8000FFFFFF8000F8
310
000FFFFFF8000FF8000001FFFE0000007FFFFFF0001FFFFFFF0000FFFFFF8000
310
7FFF0000FFFFFF80007FFF0003FFFFFFFFC0007FFFFFC00070008000FFFFFFC0
310
00FFFF000000FFF8000007FFFF80007F8000FFFFFF8000F8000FFFFFF8000FF8
310
000001FFFE0000007FFFFFF0001FFFFFFE0001FFFFFFC0003FFE0001FFFFFFC0
310
003FFF0003FFFFFFFFC0007FFFFFE00070008000FFFFFFC0007FFF0000007FF8
310
000003FFFF80007F0001FFFFFF8000F8000FFFFFF8000FF8000001FFFE000000
310
7FFFFFF0001FFFFFFE0001FFFFFFC0003FFE0001FFFFFFC0003FFF0003FFFFFF
310
FFC000FFFFFFE00070008000FFFFFFC0007FFF0000007FF8000003FFFF80007F
310
0001FFFFFF8000F8001FFFFFF8000FF8000001FFFE0000007FFFFFF0001FFFFF
310
FE0003FFFFFFE0003FFE0003FFFFFFE0003FFF0003FFFFFFFFC000FFFFFFE000
310
70008000FFFFFFC0007FFE0000007FF8000003FFFF80007F0001FFFFFF8000F0
310
001FFFFFF8000FF8000001FFFE0000007FFFFFF0001FFFFFFC0003FFFFFFE000
310
1FFC0003FFFFFFE0001FFF0003FFFFFFFFC000FFFFFFC00070008000FFFFFF80
310
007FFE0000007FF0000003FFFF80007F0001FFFFFF0000F0001FFFFFF8000FF8
310
000001FFFE0000007FFFFFF0001FFFFFFC0007FFFFFFF0001FFC0007FFFFFFF0
310
001FFF0003FFFFFFFFC000FFFFFFC00070008001FFFFFF0000FFFE0000003FF0
310
000001FFFF80007F0001FFFFFF0000F8001FFFFFF0000FF8000001FFFE000000
310
7FFFFFF0001FFFFFFC0007FFFFFFF0001FFC0007FFFFFFF0001FFF0003FFFFFF
310
FFC001FFFFFF80007000FFFFFFFFFE0000FFFE0008003FF0008001FFFF80007F
310
FFFFFFFFFC0000FFFFFFFFFFE0000FF8000001FFFE0000007FFFFFF0001FFFFF
310
F8000FFFFFFFF8000FF8000FFFFFFFF8000FFF0003FFFFFFFFFFFFFFFFFF0000
310
7000FFFFFFFFFC0000FFFC0008003FF0008001FFFF80007FFFFFFFFFF80001FF
310
FFFFFFFF80000FF8000001FFFE0000007FFFFFF0001FFFFFF8000FFFFFFFF800
310
0FF8000FFFFFFFF8000FFF0003FFFFFFFFFFFFFFFFFE0000F000FFFFFFFFE000
310
00FFFC000C003FE000C001FFFF80007FFFFFFFFFC00001FFFFFFFFFE00001FF8
310
000001FFFE0000007FFFFFF0001FFFFFF8000FFFFFFFF8000FF8000FFFFFFFF8
310
000FFF0003FFFFFFFFFFFFFFFFF00000F000FFFFFFFE000001FFFC000C001FE0
310
00C000FFFF80007FFFFFFFFE000001FFFFFFFFE000001FF80FFFFFFFFFFFFFC0
310
7FFFFFF0001FFFFFF8000FFFFFFFF8000FF8000FFFFFFFF8000FFF0003FFFFFF
310
FFFFFFFFFF800000F000FFFFFFC0000001FFFC001C001FE001C000FFFF80007F
310
FFFFFF80000003FFFFFFF80000001FF80FFFFFFFFFFFFFC07FFFFFF0001FFFFF
310
F8001FFFFFFFFC000FF8001FFFFFFFFC000FFF0003FFFFFFFFFFFFFFF0000001
310
F000FFFFF800000001FFF8001C001FE001C000FFFF80007FFFFFF800000003FF
310
FFFF800000003FF80FFFFFFFFFFFFFC07FFFFFF0001FFFFFF8001FFFFFFFFC00
310
0FF8001FFFFFFFFC000FFF0003FFFFFFFFFFFFFE00000001F000FFFFC0000000
310
03FFF8001E001FC001E000FFFF80007FFFFF8000000007FFFFFC000000003FF8
310
0FFFFFFFFFFFFFC07FFFFFF0001FFFFFF8001FFFFFFFFC000FF8001FFFFFFFFC
310
000FFF0003FFFFFFFFFFFFE000000003F000FFFE0000000007FFF8001E000FC0
310
01E0007FFF80007FFFFE0000000007FFFFE0000000007FF80FFFFFFFFFFFFFC0
310
7FFFFFF0001FFFFFF0001FFFFFFFFC0007F0001FFFFFFFFC0007FF0003FFFFFF
310
FFFFFF0000000003F000FFF80000000007FFF8001E000FC003E0007FFF80007F
310
FFF0000000000FFFFF8000000000FFF80FFFFFFFFFFFFFC07FFFFFF0001FFFFF
310
F0001FFFFFFFFC0007F0001FFFFFFFFC0007FF0003FFFFFFFFFFFC0000000007
310
F000FFE0000000000FFFF0003E000FC003E0007FFF80007FFFC0000000001FFF
310
FE0000000001FFF80FFFFFFFFFFFFFC07FFFFFF0001FFFFFF0001FFFFFFFFC00
310
07F0001FFFFFFFFC0007FF0003FFFFFFFFFFF0000000000FF000FFC000000000
310
1FFFF0003F000F8003F0003FFF80007FFF80000000003FFFF80000000003FFF8
310
0FFFFFFFFFFFFFC07FFFFFF0001FFFFFF0001FFFFFFFFC0007F0001FFFFFFFFC
310
0007FF0003FFFFFFFFFFE0000000001FF000FF00000000007FFFF0003F000780
310
03F0003FFF80007FFF00000000007FFFF00000000007FFF80FFFFFFFFFFFFFC0
310
7FFFFFF0001FFFFFF0001FFFFFFFFC0007F0001FFFFFFFFC0007FF0003FFFFFF
310
FFFF80000000007FF000FE0000000000FFFFE0003F00078007F0003FFF80007F
310
FE0000000001FFFFE0000000001FFFF80FFFFFFFFFFFFFC07FFFFFF0001FFFFF
310
F0001FFFFFFFFC0007F0001FFFFFFFFC0007FF0003FFFFFFFFFF0000000000FF
310
F000FC0000000003FFFFE0007F00078007F0003FFF80007FFC0000000007FFFF
310
C0000000007FFFF80FFFFFFFFFFFFFC07FFFFFF0001FFFFFF8001FFFFFFFFC00
310
0FF8001FFFFFFFFC000FFF0003FFFFFFFFFE0000000003FFF000FC000000000F
310
FFFFE0007F80070007F8001FFF80007FF8000000001FFFFF8000000001FFFFF8
310
0FFFFFFFFFFFFFC07FFFFFF0001FFFFFF8001FFFFFFFFC000FF8001FFFFFFFFC
310
000FFF0003FFFFFFFFFC000000000FFFF000F8000000007FFFFFE0007F800700
310
07F8001FFF80007FF000000000FFFFFF800000000FFFFFF80FFFFFFFFFFFFFC0
310
7FFFFFF0001FFFFFF8000FFFFFFFF8000FF8000FFFFFFFF8000FFF0003FFFFFF
310
FFFC000000007FFFF000F800000007FFFFFFC0007F8003000FF8001FFF80007F
310
F000000007FFFFFF000000007FFFFFF80FFFFFFFFFFFFFC07FFFFFF0001FFFFF
310
F8000FFFFFFFF8000FF8000FFFFFFFF8000FFF0003FFFFFFFFF80000000FFFFF
310
F000F0000000FFFFFFFFC000FF8003000FF8001FFF80007FE0000000FFFFFFFF
310
0000000FFFFFFFF8000001FFFE0000007FFFFFF0001FFFFFF8000FFFFFFFF800
310
0FF8000FFFFFFFF8000FFF0003FFFFFFFFF8000000FFFFFFF000F000000FFFFF
310
FFFFC000FFC002000FF8000FFF80007FE000001FFFFFFFFE000001FFFFFFFFF8
310
000001FFFE0000007FFFFFF0001FFFFFF8000FFFFFFFF8000FF8000FFFFFFFF8
310
000FFF0003FFFFFFFFF000001FFFFFFFF000E00000FFFFFFFFFFC000FFC00200
310
0FFC000FFF80007FE00001FFFFFFFFFE00001FFFFFFFFFF8000001FFFE000000
310
7FFFFFF0001FFFFFFC000FFFFFFFF8001FFC000FFFFFFFF8001FFF0003FFFFFF
310
FFF00001FFFFFFFFF000E00007FFFFFFFFFF8000FFC000001FFC000FFF80007F
310
C0000FFFFFFFFFFE0000FFFFFFFFFFF8000001FFFE0000007FFFFFF0001FFFFF
310
FC0007FFFFFFF0001FFC0007FFFFFFF0001FFF0003FFFFFFFFF00007FFFFFFFF
310
F000E0001FFFFFFFFFFF8000FFC000001FFC000FFF80007FC0003FFFFFFFFFFE
310
0001FFFFFFFFFFF8000001FFFE0000007FFFFFF0001FFFFFFC0007FFFFFFF000
310
1FFC0007FFFFFFF0001FFF0003FFFFFFFFF0001FFFFFFFFFF000E0003FFFFF00
310
03FF8001FFE000001FFC0007FF80007FC0007FFFFF0007FC0003FFFFF0003FF8
310
000001FFFE0000007FFFFFF0001FFFFFFC0003FFFFFFE0001FFC0003FFFFFFE0
310
001FFF0003FFFFFFFFF0003FFFFFFFFFF000E0003FFFFF0001FF8001FFE00000
310
1FFE0007FF80007FC0007FFFFE0003FC0007FFFFE0003FF8000001FFFE000000
310
7FFFFFF0001FFFFFFE0003FFFFFFE0003FFE0003FFFFFFE0003FFF0003FFFFFF
310
FFF0003FFFFF8001F000E0003FFFFF0001FF0001FFE000001FFE0007FF80007F
310
C0007FFFFE0003FC0007FFFFE0003FF8000001FFFE0000007FFFFFF0001FFFFF
310
FE0001FFFFFFC0003FFE0001FFFFFFC0003FFF0003FFFFFFFFF0003FFFFF0001
310
F000E0003FFFFF0003FF0001FFE000003FFE0007FF80007FC0007FFFFE0003FC
310
0007FFFFE0003FF8000001FFFE0000007FFFFFF0001FFFFFFF0001FFFFFFC000
310
7FFF0001FFFFFFC0007FFF0003FFFFFFFFF0003FFFFF0001F000E0003FFFFE00
310
03FF0003FFF000003FFE0003FF80007FC0007FFFFC0003FE0007FFFFE0003FF8
310
000001FFFE0000007FFFFFF0001FFFFFFF0000FFFFFF80007FFF0000FFFFFF80
310
007FFF0003FFFFFFFFF0003FFFFF0001F000E0003FFFFE0003FF0003FFF00000
310
3FFF0003FF80007FC0007FFFFC0007FE0007FFFFC0003FF8000001FFFE000000
310
7FFFFFF0001FFFFFFF80007FFFFF0000FFFF80007FFFFF0000FFFF0003FFFFFF
310
FFF0003FFFFF0003F000E0003FFFFC0003FE0003FFF000003FFF0003FF80007F
310
E0003FFFF80007FE0003FFFFC0007FF8000001FFFE0000007FFFFFF0001FFFFF
310
FF80003FFFFE0000FFFF80003FFFFE0000FFFF0003FFFFFFFFF0001FFFFE0003
310
F000F0001FFFF80003FE0003FFF000007FFF0001FF80007FE0003FFFF00007FE
310
0001FFFF80007FF8000001FFFE0000007FFFFFF0001FFFFFFFC0000FFFF80001
310
FFFFC0000FFFF80001FFFF0003FFFFFFFFF0001FFFFC0003F000F0000FFFF000
310
07FE0007FFF800007FFF0001FF80007FE0001FFFE00007FF0000FFFE00007FF8
310
000001FFFE0000007FFFFFF0001FFFFFFFC00003FFE00001FFFFC00003FFE000
310
01FFFF0003FFFFFFFFF8000FFFF80003F000F00003FFC00007FC0007FFF80000
310
7FFF8001FF80007FF00007FF80000FFF00007FF80000FFF8000001FFFE000000
310
7F80000000000001FFE000003E000003FFFFE000003E000003FFFF0003FFFFFF
310
FFF80003FFE00007F000F800000000000FFC0007FFF800007FFF8001FF80007F
310
F000000000000FFF000000000000FFF8000001FFFE0000007F80000000000001
310
FFF0000000000007FFFFF0000000000007FFFF0003FFFFFFFFFC00007E000007
310
F000F800000000000FFC0007FFF80000FFFF8000FF80007FF800000000001FFF
310
800000000001FFF8000001FFFE0000007F80000000000001FFF800000000000F
310
FFFFF800000000000FFFFF0003FFFFFFFFFC00000000000FF000FC0000000000
310
1FFC0007FFFC0000FFFF8000FF80007FF800000000003FFFC00000000001FFF8
310
000001FFFE0000007F80000000000001FFF800000000000FFFFFF80000000000
310
0FFFFF0003FFFFFFFFFE00000000001FF000FE00000000003FF8000FFFFC0000
310
FFFF8000FF80007FFC00000000003FFFC00000000003FFF8000001FFFE000000
310
7F80000000000001FFFC00000000001FFFFFFC00000000001FFFFF0003FFFFFF
310
FFFF00000000001FF000FF00000000003FF8000FFFFC0000FFFFC000FF80007F
310
FE00000000007FFFE00000000007FFF8000001FFFE0000007F80000000000001
310
FFFE00000000003FFFFFFE00000000003FFFFF0003FFFFFFFFFF80000000003F
310
F000FF80000000007FF8000FFFFC0001FFFFC0007F80007FFF0000000000FFFF
310
F0000000000FFFF800000000000000007F80000000000001FFFF8000000000FF
310
FFFFFF8000000000FFFFFF0003FFFFFFFFFFC0000000007FF000FFC000000000
310
FFF8000FFFFE0001FFFFC0007F80007FFF8000000001FFFFF8000000001FFFF8
310
00000000000000007F80000000000001FFFFC000000001FFFFFFFFC000000001
310
FFFFFF0003FFFFFFFFFFE000000000FFF000FFE000000003FFF0001FFFFE0001
310
FFFFC0007F80007FFFC000000007FFFFFE000000003FFFF80000000000000000
310
7F80000000000001FFFFE000000003FFFFFFFFE000000003FFFFFF0003FFFFFF
310
FFFFF000000003FFF000FFF80000000FFFF0001FFFFE0001FFFFE0007F80007F
310
FFF00000000FFFFFFF00000000FFFFF800000000000000007F80000000000001
310
FFFFF80000000FFFFFFFFFF80000000FFFFFFF0003FFFFFFFFFFFC0000000FFF
310
F000FFFE0000003FFFF0001FFFFE0003FFFFE0003F80007FFFFC0000003FFFFF
310
FFC0000003FFFFF800000000000000007F80000000000001FFFFFE0000003FFF
310
FFFFFFFE0000003FFFFFFF0003FFFFFFFFFFFF0000003FFFF000FFFF800000FF
310
FFF0001FFFFF0003FFFFE0003F80007FFFFF000001FFFFFFFFF800001FFFFFF8
310
00000000000000007F80000000000001FFFFFFC00001FFFFFFFFFFFFC00001FF
310
FFFFFF0003FFFFFFFFFFFFC00000FFFFF000FFFFF8000FFFFFFFFFFFFFFFFFFF
310
FFFFFFFFFFFFFFFFFFFFF0001FFFFFFFFFFF0000FFFFFFF80000000000000000
310
7FFFFFFFFFFFFFFFFFFFFFFC001FFFFFFFFFFFFFFC001FFFFFFFFFFFFFFFFFFF
310
FFFFFFFC001FFFFFF000FFFFFFFFFFFFFFFFFFFFFFFFFFFFFFFFFFFFFFFFFFFF
310
FFFFFFFFFFFFFFFFFFFFFFFFFFFFFFFFFFFFFFFFFFFFFFFFFFFFFFFFFFFFFFFF
310
FFFFFFFFFFFFFFFFFFFFFFFFFFFFFFFFFFFFFFFFFFFFFFFFFFFFFFFFFFFFFFFF
310
F000FFFFFFFFFFFFFFFFFFFFFFFFFFFFFFFFFFFFFFFFFFFFFFFFFFFFFFFFFFFF
310
FFFFFFFFFFFFFFFFFFFFFFFFFFFFFFFFFFFFFFFFFFFFFFFFFFFFFFFFFFFFFFFF
310
FFFFFFFFFFFFFFFFFFFFFFFFFFFFFFFFFFFFFFFFFFFFFFFFF000FFFFFFFFFFFF
310
FFFFFFFFFFFFFFFFFFFFFFFFFFFFFFFFFFFFFFFFFFFFFFFFFFFFFFFFFFFFFFFF
310
FFFFFFFFFFFFFFFFFFFFFFFFFFFFFFFFFFFFFFFFFFFFFFFFFFFFFFFFFFFFFFFF
310
FFFFFFFFFFFFFFFFFFFFFFFFFFFFFFFFF000FFFFFFFFFFFFFFFFFFFFFFFFFFFF
310
FFFFFFFFFFFFFFFFFFFFFFFFFFFFFFFFFFFFFFFFFFFFFFFFFFFFFFFFFFFFFFFF
310
FFFFFFFFFFFFFFFFFFFFFFFFFFFFFFFFFFFFFFFFFFFFFFFFFFFFFFFFFFFFFFFF
310
FFFFFFFFFFFFFFFFF000FFFFFFFFFFFFFFFFFFFFFFFFFFFFFFFFFFFFFFFFFFFF
310
FFFFFFFFFFFFFFFFFFFFFFFFFFFFFFFFFFFFFFFFFFFFFFFFFFFFFFFFFFFFFFFF
310
FFFFFFFFFFFFFFFFFFFFFFFFFFFFFFFFFFFFFFFFFFFFFFFFFFFFFFFFFFFFFFFF
310
F000FFFFFFFFFFFFFFFFFFFFFFFFFFFFFFFFFFFFFFFFFFFFFFFFFFFFFFFFFFFF
310
FFFFFFFFFFFFFFFFFFFFFFFFFFFFFFFFFFFFFFFFFFFFFFFFFFFFFFFFFFFFFFFF
310
FFFFFFFFFFFFFFFFFFFFFFFFFFFFFFFFFFFFFFFFFFFFFFFFF000FFFFFFFFFFFF
310
FFFFFFFFFFFFFFFFFFFFFFFFFFFFFFFFFFFFFFFFFFFFFFFFFFFFFFFFFFFFFFFF
310
FFFFFFFFFFFFFFFFFFFFFFFFFFFFFFFFFFFFFFFFFFFFFFFFFFFFFFFFFFFFFFFF
310
FFFFFFFFFFFFFFFFFFFFFFFFFFFFFFFFF000FFFFFFFFFFFFFFFFFFFFFFFFFFFF
310
FFFFFFFFFFFFFFFFFFFFFFFFFFFFFFFFFFFFFFFFFFFFFFFFFFFFFFFFFFFFFFFF
310
FFFFFFFFFFFFFFFFFFFFFFFFFFFFFFFFFFFFFFFFFFFFFFFFFFFFFFFFFFFFFFFF
310
FFFFFFFFFFFFFFFFF000FFFFFFFFFFFFFFFFFFFFFFFFFFFFFFFFFFFFFFFFFFFF
310
FFFFFFFFFFFFFFFFFFFFFFFFFFFFFFFFFFFFFFFFFFFFFFFFFFFFFFFFFFFFFFFF
310
FFFFFFFFFFFFFFFFFFFFFFFFFFFFFFFFFFFFFFFFFFFFFFFFFFFFFFFFFFFFFFFF
310
F000FFFFFFFFFFFFFFFFFFFFFFFFFFFFFFFFFFFFFFFFFFFFFFFFFFFFFFFFFFFF
310
FFFFFFFFFFFFFFFFFFFFFFFFFFFFFFFFFFFFFFFFFFFFFFFFFFFFFFFFFFFFFFFF
310
FFFFFFFFFFFFFFFFFFFFFFFFFFFFFFFFFFFFFFFFFFFFFFFFF000FFFFFFFFFFFF
310
FFFFFFFFFFFFFFFFFFFFFFFFFFFFFFFFFFFFFFFFFFFFFFFFFFFFFFFFFFFFFFFF
310
FFFFFFFFFFFFFFFFFFFFFFFFFFFFFFFFFFFFFFFFFFFFFFFFFFFFFFFFFFFFFFFF
310
FFFFFFFFFFFFFFFFFFFFFFFFFFFFFFFFF000FFFFFFFFFFFFFFFFFFFFFFFFFFFF
310
FFFFFFFFFFFFFFFFFFFFFFFFFFFFFFFFFFFFFFFFFFFFFFFFFFFFFFFFFFFFFFFF
310
FFFFFFFFFFFFFFFFFFFFFFFFFFFFFFFFFFFFFFFFFFFFFFFFFFFFFFFFFFFFFFFF
310
FFFFFFFFFFFFFFFFF000FFFFFFFFFFFFFFFFFFFFFFFFFFFFFFFFFFFFFFFFFFFF
310
FFFFFFFFFFFFFFFFFFFFFFFFFFFFFFFFFFFFFFFFFFFFFFFFFFFFFFFFFFFFFFFF
310
FFFFFFFFFFFFFFFFFFFFFFFFFFFFFFFFFFFFFFFFFFFFFFFFFFFFFFFFFFFFFFFF
310
F000FFFFFFFFFFFFFFFFFFFFFFFFFFFFFFFFFFFFFFFFFFFFFFFFFFFFFFFFFFFF
310
FFFFFFFFFFFFFFFFFFFFFFFFFFFFFFFFFFFFFFFFFFFFFFFFFFFFFFFFFFFFFFFF
310
FFFFFFFFFFFFFFFFFFFFFFFFFFFFFFFFFFFFFFFFFFFFFFFFF000FFFFFFFFFFFF
310
FFFFFFFFFFFFFFFFFFFFFFFFFFFFFFFFFFFFFFFFFFFFFFFFFFFFFFFFFFFFFFFF
310
FFFFFFFFFFFFFFFFFFFFFFFFFFFFFFFFFFFFFFFFFFFFFFFFFFFFFFFFFFFFFFFF
310
FFFFFFFFFFFFFFFFFFFFFFFFFFFFFFFFF000FFFFFFFFFFFFFFFFFFFFFFFFFFFF
310
FFFFFFFFFFFFFFFFFFFFFFFFFFFFFFFFFFFFFFFFFFFFFFFFFFFFFFFFFFFFFFFF
310
FFFFFFFFFFFFFFFFFFFFFFFFFFFFFFFFFFFFFFFFFFFFFFFFFFFFFFFFFFFFFFFF
310
FFFFFFFFFFFFFFFFF000FFFFFFFFFFFFFFFFFFFFFFFFFFFFFFFFFFFFFFFFFFFF
310
FFFFFFFFFFFFFFFFFFFFFFFFFFFFFFFFFFFFFFFFFFFFFFFFFFFFFFFFFFFFFFFF
310
FFFFFFFFFFFFFFFFFFFFFFFFFFFFFFFFFFFFFFFFFFFFFFFFFFFFFFFFFFFFFFFF
310
F000FFFFFFFFFFFFFFFFFFFFFFFFFFFFFFFFFFFFFFFFFFFFFFFFFFFFFFFFFFFF
310
FFFFFFFFFFFFFFFFFFFFFFFFFFFFFFFFFFFFFFFFFFFFFFFFFFFFFFFFFFFFFFFF
310
FFFFFFFFFFFFFFFFFFFFFFFFFFFFFFFFFFFFFFFFFFFFFFFFF000FFFFFFFFFFFF
310
FFFFFFFFFFFFFFFFFFFFFFFFFFFFFFFFFFFFFFFFFFFFFFFFFFFFFFFFFFFFFFFF
310
FFFFFFFFFFFFFFFFFFFFFFFFFFFFFFFFFFFFFFFFFFFFFFFFFFFFFFFFFFFFFFFF
310
FFFFFFFFFFFFFFFFFFFFFFFFFFFFFFFFF000FFFFFFFFFFFFFFFFFFFFFFFFFFFF
310
FFFFFFFFFFFFFFFFFFFFFFFFFFFFFFFFFFFFFFFFFFFFFFFFFFFFFFFFFFFFFFFF
310
FFFFFFFFFFFFFFFFFFFFFFFFFFFFFFFFFFFFFFFFFFFFFFFFFFFFFFFFFFFFFFFF
310
FFFFFFFFFFFFFFFFF000FFFFFFFFFFFFFFFFFFFFFFFFFFFFFFFFFFFFFFFFFFFF
310
FFFFFFFFFFFFFFFFFFFFFFFFFFFFFFFFFFFFFFFFFFFFFFFFFFFFFFFFFFFFFFFF
310
FFFFFFFFFFFFFFFFFFFFFFFFFFFFFFFFFFFFFFFFFFFFFFFFFFFFFFFFFFFFFFFF
310
F000FFFFFFFFFFFFFFFFFFFFFFFFFFFFFFFFFFFFFFFFFFFFFFFFFFFFFFFFFFFF
310
FFFFFFFFFFFFFFFFFFFFFFFFFFFFFFFFFFFFFFFFFFFFFFFFFFFFFFFFFFFFFFFF
310
FFFFFFFFFFFFFFFFFFFFFFFFFFFFFFFFFFFFFFFFFFFFFFFFF000FFFFFFFFFFFF
310
FFFFFFFFFFFFFFFFFFFFFFFFFFFFFFFFFFFFFFFFFFFFFFFFFFFFFFFFFFFFFFFF
310
FFFFFFFFFFFFFFFFFFFFFFFFFFFFFFFFFFFFFFFFFFFFFFFFFFFFFFFFFFFFFFFF
310
FFFFFFFFFFFFFFFFFFFFFFFFFFFFFFFFF0000000000000000000000000000000
310
0000000000000000000000000000000000000000000000000000000000000000
310
0000000000000000000000000000000000000000000000000000000000000000
310
0000000000000000000000000000000000000000000000000000000000000000
310
0000000000000000000000000000000000000000000000000000000000000000
310
0000000000000000000000000000000000000000000000000000000000000000
310
0000000000000000000000000000000000000000000000000000000000000000
310
0000000000000000000000000000000000000000000000000000000000000000
310
0000000000000000000000000000000000000000000000000000000000000000
310
0000000000000000000000000000000000000000000000000000000000000000
310
0000000000000000000000000000000000000000000000000000000000000000
310
0000000000000000000000000000000000000000000000000000000000000000
310
0000000000000000000000000000000000000000000000000000000000000000
310
0000000000000000000000000000000000000000000000000000000000000000
310
0000000000000000000000000000000000000000000000000000000000000000
310
0000000000000000000000000000000000000000000000000000000000000000
  1
OLE
  0
ENDSEC
  0
SECTION
  2
OBJECTS
  0
DICTIONARY
  5
C
330
0
100
AcDbDictionary
281
     1
  3
ACAD_GROUP
350
D
  3
ACAD_LAYOUT
350
1A
  3
ACAD_MLINESTYLE
350
17
  3
ACAD_PLOTSETTINGS
350
19
  3
ACAD_PLOTSTYLENAME
350
E
  3
ACAD_SCALELIST
350
47
  0
DICTIONARY
  5
D
102
{ACAD_REACTORS
330
C
102
}
330
C
100
AcDbDictionary
281
     1
  0
DICTIONARY
  5
1A
102
{ACAD_REACTORS
330
C
102
}
330
C
100
AcDbDictionary
281
     1
  3
Layout1
350
1E
  3
Layout2
350
26
  3
Model
350
22
  0
DICTIONARY
  5
17
102
{ACAD_REACTORS
330
C
102
}
330
C
100
AcDbDictionary
281
     1
  3
Standard
350
18
  0
DICTIONARY
  5
19
102
{ACAD_REACTORS
330
C
102
}
330
C
100
AcDbDictionary
281
     1
  0
ACDBDICTIONARYWDFLT
  5
E
102
{ACAD_REACTORS
330
C
102
}
330
C
100
AcDbDictionary
281
     1
  3
Normal
350
F
100
AcDbDictionaryWithDefault
340
F
  0
DICTIONARY
  5
47
102
{ACAD_REACTORS
330
C
102
}
330
C
100
AcDbDictionary
281
     1
  3
A0
350
48
  3
A1
350
49
  3
A2
350
4A
  3
A3
350
4B
  3
A4
350
4C
  3
A5
350
4D
  3
A6
350
4E
  3
A7
350
4F
  3
A8
350
50
  3
A9
350
51
  3
B0
350
52
  3
B1
350
53
  3
B2
350
54
  3
B3
350
55
  3
B4
350
56
  3
B5
350
57
  3
B6
350
58
  3
B7
350
59
  3
B8
350
5A
  3
B9
350
5B
  3
C0
350
5C
  3
C1
350
5D
  3
C2
350
5E
  3
C3
350
5F
  3
C4
350
60
  3
C5
350
61
  3
C6
350
62
  3
C7
350
63
  3
C8
350
64
  3
C9
350
65
  3
D0
350
66
  3
D1
350
67
  3
D2
350
68
  0
LAYOUT
  5
1E
102
{ACAD_REACTORS
330
1A
102
}
330
1A
100
AcDbPlotSettings
  1

  2
none_device
  4

  6

 40
0.0
 41
0.0
 42
0.0
 43
0.0
 44
0.0
 45
0.0
 46
0.0
 47
0.0
 48
0.0
 49
0.0
140
0.0
141
0.0
142
1.0
143
1.0
 70
   688
 72
     1
 73
     0
 74
     5
  7

 75
    16
147
1.0
148
0.0
149
0.0
100
AcDbLayout
  1
Layout1
 70
     1
 71
     1
 10
0.0
 20
0.0
 11
420.0
 21
297.0
 12
0.0
 22
0.0
 32
0.0
 14
1.0000000000E+20
 24
1.0000000000E+20
 34
1.0000000000E+20
 15
-1.0000000000E+20
 25
-1.0000000000E+20
 35
-1.0000000000E+20
146
0.0
 13
0.0
 23
0.0
 33
0.0
 16
1.0
 26
0.0
 36
0.0
 17
0.0
 27
1.0
 37
0.0
 76
     0
330
1B
  0
LAYOUT
  5
26
102
{ACAD_REACTORS
330
1A
102
}
330
1A
100
AcDbPlotSettings
  1

  2
none_device
  4

  6

 40
0.0
 41
0.0
 42
0.0
 43
0.0
 44
0.0
 45
0.0
 46
0.0
 47
0.0
 48
0.0
 49
0.0
140
0.0
141
0.0
142
1.0
143
1.0
 70
   688
 72
     1
 73
     0
 74
     5
  7

 75
    16
147
1.0
148
0.0
149
0.0
100
AcDbLayout
  1
Layout2
 70
     1
 71
     2
 10
0.0
 20
0.0
 11
0.0
 21
0.0
 12
0.0
 22
0.0
 32
0.0
 14
0.0
 24
0.0
 34
0.0
 15
0.0
 25
0.0
 35
0.0
146
0.0
 13
0.0
 23
0.0
 33
0.0
 16
1.0
 26
0.0
 36
0.0
 17
0.0
 27
1.0
 37
0.0
 76
     0
330
23
  0
LAYOUT
  5
22
102
{ACAD_REACTORS
330
1A
102
}
330
1A
100
AcDbPlotSettings
  1

  2
none_device
  4
Letter_(8.50_x_11.00_Inches)
  6

 40
6.35
 41
6.35
 42
6.35000508
 43
6.35000508
 44
215.9
 45
279.4
 46
0.0
 47
0.0
 48
0.0
 49
0.0
140
0.0
141
0.0
142
1.0
143
1.0
 70
  1712
 72
     1
 73
     0
 74
     0
  7

 75
     0
147
1.0
148
0.0
149
0.0
100
AcDbLayout
  1
Model
 70
     1
 71
     0
 10
0.0
 20
0.0
 11
297.0
 21
210.0
 12
0.0
 22
0.0
 32
0.0
 14
0.0
 24
0.0
 34
0.0
 15
297.0
 25
210.0
 35
0.0
146
0.0
 13
0.0
 23
0.0
 33
0.0
 16
1.0
 26
0.0
 36
0.0
 17
0.0
 27
1.0
 37
0.0
 76
     0
330
1F
331
29
  0
MLINESTYLE
  5
18
102
{ACAD_REACTORS
330
17
102
}
330
17
100
AcDbMlineStyle
  2
Standard
 70
     0
  3

 62
   256
 51
90.0
 52
90.0
 71
     2
 49
0.5
 62
   256
  6
BYLAYER
 49
-0.5
 62
   256
  6
BYLAYER
  0
ACDBPLACEHOLDER
  5
F
102
{ACAD_REACTORS
330
E
102
}
330
E
  0
SCALE
  5
48
102
{ACAD_REACTORS
330
47
102
}
330
47
100
AcDbScale
 70
     0
300
1:1
140
1.0
141
1.0
290
     1
  0
SCALE
  5
49
102
{ACAD_REACTORS
330
47
102
}
330
47
100
AcDbScale
 70
     0
300
1:2
140
1.0
141
2.0
290
     0
  0
SCALE
  5
4A
102
{ACAD_REACTORS
330
47
102
}
330
47
100
AcDbScale
 70
     0
300
1:4
140
1.0
141
4.0
290
     0
  0
SCALE
  5
4B
102
{ACAD_REACTORS
330
47
102
}
330
47
100
AcDbScale
 70
     0
300
1:5
140
1.0
141
5.0
290
     0
  0
SCALE
  5
4C
102
{ACAD_REACTORS
330
47
102
}
330
47
100
AcDbScale
 70
     0
300
1:8
140
1.0
141
8.0
290
     0
  0
SCALE
  5
4D
102
{ACAD_REACTORS
330
47
102
}
330
47
100
AcDbScale
 70
     0
300
1:10
140
1.0
141
10.0
290
     0
  0
SCALE
  5
4E
102
{ACAD_REACTORS
330
47
102
}
330
47
100
AcDbScale
 70
     0
300
1:16
140
1.0
141
16.0
290
     0
  0
SCALE
  5
4F
102
{ACAD_REACTORS
330
47
102
}
330
47
100
AcDbScale
 70
     0
300
1:20
140
1.0
141
20.0
290
     0
  0
SCALE
  5
50
102
{ACAD_REACTORS
330
47
102
}
330
47
100
AcDbScale
 70
     0
300
1:30
140
1.0
141
30.0
290
     0
  0
SCALE
  5
51
102
{ACAD_REACTORS
330
47
102
}
330
47
100
AcDbScale
 70
     0
300
1:40
140
1.0
141
40.0
290
     0
  0
SCALE
  5
52
102
{ACAD_REACTORS
330
47
102
}
330
47
100
AcDbScale
 70
     0
300
1:50
140
1.0
141
50.0
290
     0
  0
SCALE
  5
53
102
{ACAD_REACTORS
330
47
102
}
330
47
100
AcDbScale
 70
     0
300
1:100
140
1.0
141
100.0
290
     0
  0
SCALE
  5
54
102
{ACAD_REACTORS
330
47
102
}
330
47
100
AcDbScale
 70
     0
300
2:1
140
2.0
141
1.0
290
     0
  0
SCALE
  5
55
102
{ACAD_REACTORS
330
47
102
}
330
47
100
AcDbScale
 70
     0
300
4:1
140
4.0
141
1.0
290
     0
  0
SCALE
  5
56
102
{ACAD_REACTORS
330
47
102
}
330
47
100
AcDbScale
 70
     0
300
8:1
140
8.0
141
1.0
290
     0
  0
SCALE
  5
57
102
{ACAD_REACTORS
330
47
102
}
330
47
100
AcDbScale
 70
     0
300
10:1
140
10.0
141
1.0
290
     0
  0
SCALE
  5
58
102
{ACAD_REACTORS
330
47
102
}
330
47
100
AcDbScale
 70
     0
300
100:1
140
100.0
141
1.0
290
     0
  0
SCALE
  5
59
102
{ACAD_REACTORS
330
47
102
}
330
47
100
AcDbScale
 70
     0
300
1/128" = 1'-0"
140
0.0078125
141
12.0
290
     0
  0
SCALE
  5
5A
102
{ACAD_REACTORS
330
47
102
}
330
47
100
AcDbScale
 70
     0
300
1/64" = 1'-0"
140
0.015625
141
12.0
290
     0
  0
SCALE
  5
5B
102
{ACAD_REACTORS
330
47
102
}
330
47
100
AcDbScale
 70
     0
300
1/32" = 1'-0"
140
0.03125
141
12.0
290
     0
  0
SCALE
  5
5C
102
{ACAD_REACTORS
330
47
102
}
330
47
100
AcDbScale
 70
     0
300
1/16" = 1'-0"
140
0.0625
141
12.0
290
     0
  0
SCALE
  5
5D
102
{ACAD_REACTORS
330
47
102
}
330
47
100
AcDbScale
 70
     0
300
3/32" = 1'-0"
140
0.09375
141
12.0
290
     0
  0
SCALE
  5
5E
102
{ACAD_REACTORS
330
47
102
}
330
47
100
AcDbScale
 70
     0
300
1/8" = 1'-0"
140
0.125
141
12.0
290
     0
  0
SCALE
  5
5F
102
{ACAD_REACTORS
330
47
102
}
330
47
100
AcDbScale
 70
     0
300
3/16" = 1'-0"
140
0.1875
141
12.0
290
     0
  0
SCALE
  5
60
102
{ACAD_REACTORS
330
47
102
}
330
47
100
AcDbScale
 70
     0
300
1/4" = 1'-0"
140
0.25
141
12.0
290
     0
  0
SCALE
  5
61
102
{ACAD_REACTORS
330
47
102
}
330
47
100
AcDbScale
 70
     0
300
3/8" = 1'-0"
140
0.375
141
12.0
290
     0
  0
SCALE
  5
62
102
{ACAD_REACTORS
330
47
102
}
330
47
100
AcDbScale
 70
     0
300
1/2" = 1'-0"
140
0.5
141
12.0
290
     0
  0
SCALE
  5
63
102
{ACAD_REACTORS
330
47
102
}
330
47
100
AcDbScale
 70
     0
300
3/4" = 1'-0"
140
0.75
141
12.0
290
     0
  0
SCALE
  5
64
102
{ACAD_REACTORS
330
47
102
}
330
47
100
AcDbScale
 70
     0
300
1" = 1'-0"
140
1.0
141
12.0
290
     0
  0
SCALE
  5
65
102
{ACAD_REACTORS
330
47
102
}
330
47
100
AcDbScale
 70
     0
300
1-1/2" = 1'-0"
140
1.5
141
12.0
290
     0
  0
SCALE
  5
66
102
{ACAD_REACTORS
330
47
102
}
330
47
100
AcDbScale
 70
     0
300
3" = 1'-0"
140
3.0
141
12.0
290
     0
  0
SCALE
  5
67
102
{ACAD_REACTORS
330
47
102
}
330
47
100
AcDbScale
 70
     0
300
6" = 1'-0"
140
6.0
141
12.0
290
     0
  0
SCALE
  5
68
102
{ACAD_REACTORS
330
47
102
}
330
47
100
AcDbScale
 70
     0
300
1'-0" = 1'-0"
140
12.0
141
12.0
290
     0
  0
ENDSEC
  0
EOF
