  0
SECTION
  2
HEADER
  9
$ACADVER
  1
AC1015
  9
$ACADMAINTVER
 70
     6
  9
$DWGCODEPAGE
  3
ANSI_1252
  9
$INSBASE
 10
0.0
 20
0.0
 30
0.0
  9
$EXTMIN
 10
0.0
 20
0.0
 30
0.0
  9
$EXTMAX
 10
297.0
 20
210.0
 30
0.0
  9
$LIMMIN
 10
0.0
 20
0.0
  9
$LIMMAX
 10
297.0
 20
210.0
  9
$ORTHOMODE
 70
     0
  9
$REGENMODE
 70
     1
  9
$FILLMODE
 70
     1
  9
$QTEXTMODE
 70
     0
  9
$MIRRTEXT
 70
     1
  9
$LTSCALE
 40
1.0
  9
$ATTMODE
 70
     1
  9
$TEXTSIZE
 40
2.0
  9
$TRACEWID
 40
1.0
  9
$TEXTSTYLE
  7
Standard
  9
$CLAYER
  8
0
  9
$CELTYPE
  6
ByLayer
  9
$CECOLOR
 62
   256
  9
$CELTSCALE
 40
1.0
  9
$DISPSILH
 70
     0
  9
$DIMSCALE
 40
1.0
  9
$DIMASZ
 40
3.0
  9
$DIMEXO
 40
0.0
  9
$DIMDLI
 40
3.75
  9
$DIMRND
 40
0.0
  9
$DIMDLE
 40
0.0
  9
$DIMEXE
 40
1.0
  9
$DIMTP
 40
0.0
  9
$DIMTM
 40
0.0
  9
$DIMTXT
 40
2.0
  9
$DIMCEN
 40
2.5
  9
$DIMTSZ
 40
0.0
  9
$DIMTOL
 70
     0
  9
$DIMLIM
 70
     0
  9
$DIMTIH
 70
     1
  9
$DIMTOH
 70
     1
  9
$DIMSE1
 70
     0
  9
$DIMSE2
 70
     0
  9
$DIMTAD
 70
     1
  9
$DIMZIN
 70
     0
  9
$DIMBLK
  1

  9
$DIMASO
 70
     1
  9
$DIMSHO
 70
     1
  9
$DIMPOST
  1

  9
$DIMAPOST
  1

  9
$DIMALT
 70
     0
  9
$DIMALTD
 70
     3
  9
$DIMALTF
 40
0.0393700787
  9
$DIMLFAC
 40
1.0
  9
$DIMTOFL
 70
     1
  9
$DIMTVP
 40
0.0
  9
$DIMTIX
 70
     0
  9
$DIMSOXD
 70
     0
  9
$DIMSAH
 70
     0
  9
$DIMBLK1
  1

  9
$DIMBLK2
  1

  9
$DIMSTYLE
  2
ISO-25
  9
$DIMCLRD
 70
     0
  9
$DIMCLRE
 70
     0
  9
$DIMCLRT
 70
     0
  9
$DIMTFAC
 40
1.0
  9
$DIMGAP
 40
1.524
  9
$DIMJUST
 70
     0
  9
$DIMSD1
 70
     0
  9
$DIMSD2
 70
     0
  9
$DIMTOLJ
 70
     0
  9
$DIMTZIN
 70
     0
  9
$DIMALTZ
 70
     0
  9
$DIMALTTZ
 70
     0
  9
$DIMUPT
 70
     0
  9
$DIMDEC
 70
     2
  9
$DIMTDEC
 70
     3
  9
$DIMALTU
 70
     2
  9
$DIMALTTD
 70
     3
  9
$DIMTXSTY
  7
Standard
  9
$DIMAUNIT
 70
     0
  9
$DIMADEC
 70
     2
  9
$DIMALTRND
 40
0.0
  9
$DIMAZIN
 70
     0
  9
$DIMDSEP
 70
    44
  9
$DIMATFIT
 70
     3
  9
$DIMFRAC
 70
     0
  9
$DIMLDRBLK
  1

  9
$DIMLUNIT
 70
     2
  9
$DIMLWD
 70
    -2
  9
$DIMLWE
 70
    -2
  9
$DIMTMOVE
 70
     0
  9
$LUNITS
 70
     2
  9
$LUPREC
 70
     2
  9
$SKETCHINC
 40
1.0
  9
$FILLETRAD
 40
10.0
  9
$AUNITS
 70
     0
  9
$AUPREC
 70
     2
  9
$MENU
  1
.
  9
$ELEVATION
 40
0.0
  9
$PELEVATION
 40
0.0
  9
$THICKNESS
 40
0.0
  9
$LIMCHECK
 70
     0
  9
$CHAMFERA
 40
0.0
  9
$CHAMFERB
 40
0.0
  9
$CHAMFERC
 40
0.0
  9
$CHAMFERD
 40
0.0
  9
$SKPOLY
 70
     0
  9
$TDCREATE
 40
2457667.625543299
  9
$TDUCREATE
 40
2457667.542209965
  9
$TDUPDATE
 40
2457667.625544479
  9
$TDUUPDATE
 40
2457667.542211146
  9
$TDINDWG
 40
0.0000000116
  9
$TDUSRTIMER
 40
0.0000000116
  9
$USRTIMER
 70
     1
  9
$ANGBASE
 50
0.0
  9
$ANGDIR
 70
     0
  9
$PDMODE
 70
     0
  9
$PDSIZE
 40
-1.0
  9
$PLINEWID
 40
0.0
  9
$SPLFRAME
 70
     0
  9
$SPLINETYPE
 70
     6
  9
$SPLINESEGS
 70
     8
  9
$HANDSEED
  5
227
  9
$SURFTAB1
 70
     6
  9
$SURFTAB2
 70
     6
  9
$SURFTYPE
 70
     6
  9
$SURFU
 70
     6
  9
$SURFV
 70
     6
  9
$UCSBASE
  2

  9
$UCSNAME
  2

  9
$UCSORG
 10
0.0
 20
0.0
 30
0.0
  9
$UCSXDIR
 10
1.0
 20
0.0
 30
0.0
  9
$UCSYDIR
 10
0.0
 20
1.0
 30
0.0
  9
$UCSORTHOREF
  2

  9
$UCSORTHOVIEW
 70
     0
  9
$UCSORGTOP
 10
0.0
 20
0.0
 30
0.0
  9
$UCSORGBOTTOM
 10
0.0
 20
0.0
 30
0.0
  9
$UCSORGLEFT
 10
0.0
 20
0.0
 30
0.0
  9
$UCSORGRIGHT
 10
0.0
 20
0.0
 30
0.0
  9
$UCSORGFRONT
 10
0.0
 20
0.0
 30
0.0
  9
$UCSORGBACK
 10
0.0
 20
0.0
 30
0.0
  9
$PUCSBASE
  2

  9
$PUCSNAME
  2

  9
$PUCSORG
 10
0.0
 20
0.0
 30
0.0
  9
$PUCSXDIR
 10
1.0
 20
0.0
 30
0.0
  9
$PUCSYDIR
 10
0.0
 20
1.0
 30
0.0
  9
$PUCSORTHOREF
  2

  9
$PUCSORTHOVIEW
 70
     0
  9
$PUCSORGTOP
 10
0.0
 20
0.0
 30
0.0
  9
$PUCSORGBOTTOM
 10
0.0
 20
0.0
 30
0.0
  9
$PUCSORGLEFT
 10
0.0
 20
0.0
 30
0.0
  9
$PUCSORGRIGHT
 10
0.0
 20
0.0
 30
0.0
  9
$PUCSORGFRONT
 10
0.0
 20
0.0
 30
0.0
  9
$PUCSORGBACK
 10
0.0
 20
0.0
 30
0.0
  9
$USERI1
 70
     0
  9
$USERI2
 70
     0
  9
$USERI3
 70
     0
  9
$USERI4
 70
     0
  9
$USERI5
 70
     0
  9
$USERR1
 40
0.0
  9
$USERR2
 40
0.0
  9
$USERR3
 40
0.0
  9
$USERR4
 40
0.0
  9
$USERR5
 40
0.0
  9
$WORLDVIEW
 70
     1
  9
$SHADEDGE
 70
     3
  9
$SHADEDIF
 70
    70
  9
$TILEMODE
 70
     1
  9
$MAXACTVP
 70
    64
  9
$PINSBASE
 10
0.0
 20
0.0
 30
0.0
  9
$PLIMCHECK
 70
     0
  9
$PEXTMIN
 10
1.0000000000E+20
 20
1.0000000000E+20
 30
1.0000000000E+20
  9
$PEXTMAX
 10
-1.0000000000E+20
 20
-1.0000000000E+20
 30
-1.0000000000E+20
  9
$PLIMMIN
 10
0.0
 20
0.0
  9
$PLIMMAX
 10
420.0
 20
297.0
  9
$UNITMODE
 70
     0
  9
$VISRETAIN
 70
     1
  9
$PLINEGEN
 70
     0
  9
$PSLTSCALE
 70
     1
  9
$TREEDEPTH
 70
  3020
  9
$CMLSTYLE
  2
Standard
  9
$CMLJUST
 70
     0
  9
$CMLSCALE
 40
20.0
  9
$PROXYGRAPHICS
 70
     1
  9
$MEASUREMENT
 70
     1
  9
$CELWEIGHT
370
    -1
  9
$ENDCAPS
280
     0
  9
$JOINSTYLE
280
     0
  9
$LWDISPLAY
290
     1
  9
$INSUNITS
 70
     4
  9
$HYPERLINKBASE
  1

  9
$STYLESHEET
  1

  9
$XEDIT
290
     1
  9
$CEPSNTYPE
380
     0
  9
$PSTYLEMODE
290
     1
  9
$FINGERPRINTGUID
  2
{1201B60C-8988-4329-8CBC-E1327101BEAD}
  9
$VERSIONGUID
  2
{FAEB1C32-E019-11D5-929B-00C0DF256EC4}
  9
$EXTNAMES
290
     1
  9
$PSVPSCALE
 40
0.0
  9
$OLESTARTUP
290
     0
  0
ENDSEC
  0
SECTION
  2
CLASSES
  0
CLASS
  1
ACDBDICTIONARYWDFLT
  2
AcDbDictionaryWithDefault
  3
ObjectDBX Classes
 90
        0
280
     0
281
     0
  0
CLASS
  1
VISUALSTYLE
  2
AcDbVisualStyle
  3
ObjectDBX Classes
 90
     4095
280
     0
281
     0
  0
CLASS
  1
MATERIAL
  2
AcDbMaterial
  3
ObjectDBX Classes
 90
     1153
280
     0
281
     0
  0
CLASS
  1
SCALE
  2
AcDbScale
  3
ObjectDBX Classes
 90
     1153
280
     0
281
     0
  0
CLASS
  1
TABLESTYLE
  2
AcDbTableStyle
  3
ObjectDBX Classes
 90
     4095
280
     0
281
     0
  0
CLASS
  1
MLEADERSTYLE
  2
AcDbMLeaderStyle
  3
ACDB_MLEADERSTYLE_CLASS
 90
     4095
280
     0
281
     0
  0
CLASS
  1
SUN
  2
AcDbSun
  3
SCENEOE
 90
     1153
280
     0
281
     0
  0
CLASS
  1
ACDBPLACEHOLDER
  2
AcDbPlaceHolder
  3
ObjectDBX Classes
 90
        0
280
     0
281
     0
  0
CLASS
  1
LAYOUT
  2
AcDbLayout
  3
ObjectDBX Classes
 90
        0
280
     0
281
     0
  0
ENDSEC
  0
SECTION
  2
TABLES
  0
TABLE
  2
VPORT
  5
8
330
0
100
AcDbSymbolTable
 70
     1
  0
VPORT
  5
29
330
8
100
AcDbSymbolTableRecord
100
AcDbViewportTableRecord
  2
*Active
 70
     0
 10
0.0
 20
0.0
 11
1.0
 21
1.0
 12
148.5
 22
105.0
 13
0.0
 23
0.0
 14
10.0
 24
10.0
 15
10.0
 25
10.0
 16
0.0
 26
0.0
 36
1.0
 17
0.0
 27
0.0
 37
0.0
 40
210.0
 41
1.4142857143
 42
50.0
 43
0.0
 44
0.0
 50
0.0
 51
0.0
 71
     0
 72
  2000
 73
     1
 74
     3
 75
     0
 76
     0
 77
     0
 78
     0
281
     0
 65
     1
110
0.0
120
0.0
130
0.0
111
1.0
121
0.0
131
0.0
112
0.0
122
1.0
132
0.0
 79
     0
146
0.0
  0
ENDTAB
  0
TABLE
  2
LTYPE
  5
5
330
0
100
AcDbSymbolTable
 70
     6
  0
LTYPE
  5
14
330
5
100
AcDbSymbolTableRecord
100
AcDbLinetypeTableRecord
  2
ByBlock
 70
     0
  3

 72
    65
 73
     0
 40
0.0
  0
LTYPE
  5
15
330
5
100
AcDbSymbolTableRecord
100
AcDbLinetypeTableRecord
  2
ByLayer
 70
     0
  3

 72
    65
 73
     0
 40
0.0
  0
LTYPE
  5
16
330
5
100
AcDbSymbolTableRecord
100
AcDbLinetypeTableRecord
  2
Continuous
 70
     0
  3
Solid line
 72
    65
 73
     0
 40
0.0
  0
LTYPE
  5
6E
330
5
100
AcDbSymbolTableRecord
100
AcDbLinetypeTableRecord
  2
HIDDEN
 70
     0
  3
Hidden __ __ __ __ __ __ __ __ __ __ __ __ __ __
 72
    65
 73
     2
 40
1.905
 49
1.27
 74
     0
 49
-0.635
 74
     0
  0
LTYPE
  5
6F
330
5
100
AcDbSymbolTableRecord
100
AcDbLinetypeTableRecord
  2
PHANTOM
 70
     0
  3
Phantom ______  __  __  ______  __  __  ______
 72
    65
 73
     6
 40
12.7
 49
6.35
 74
     0
 49
-1.27
 74
     0
 49
1.27
 74
     0
 49
-1.27
 74
     0
 49
1.27
 74
     0
 49
-1.27
 74
     0
  0
LTYPE
  5
70
330
5
100
AcDbSymbolTableRecord
100
AcDbLinetypeTableRecord
  2
CENTER
 70
     0
  3
Center ____ _ ____ _ ____ _ ____ _ ____ _ ____
 72
    65
 73
     4
 40
10.16
 49
6.35
 74
     0
 49
-1.27
 74
     0
 49
1.27
 74
     0
 49
-1.27
 74
     0
  0
LTYPE
  5
71
330
5
100
AcDbSymbolTableRecord
100
AcDbLinetypeTableRecord
  2
CENTERX2
 70
     0
  3
Center (2x) ________  __  ________  __  _____
 72
    65
 73
     4
 40
20.32
 49
12.7
 74
     0
 49
-2.54
 74
     0
 49
2.54
 74
     0
 49
-2.54
 74
     0
  0
LTYPE
  5
72
330
5
100
AcDbSymbolTableRecord
100
AcDbLinetypeTableRecord
  2
DOT2
 70
     0
  3
Dot (.5x) ........................................
 72
    65
 73
     2
 40
0.635
 49
0.0
 74
     0
 49
-0.635
 74
     0
  0
ENDTAB
  0
TABLE
  2
LAYER
  5
2
330
0
100
AcDbSymbolTable
 70
     5
  0
LAYER
  5
10
330
2
100
AcDbSymbolTableRecord
100
AcDbLayerTableRecord
  2
0
 70
     0
 62
     7
  6
Continuous
370
    -3
390
F
  0
LAYER
  5
73
330
2
100
AcDbSymbolTableRecord
100
AcDbLayerTableRecord
  2
FORMAT
 70
     0
 62
     7
  6
Continuous
370
    -3
390
F
  0
LAYER
  5
74
330
2
100
AcDbSymbolTableRecord
100
AcDbLayerTableRecord
  2
VERMASSUNG
 70
     0
 62
     7
  6
Continuous
370
    -3
390
F
  0
LAYER
  5
75
330
2
100
AcDbSymbolTableRecord
100
AcDbLayerTableRecord
  2
KOPF_DÜNN
 70
     0
 62
     7
  6
Continuous
370
    -3
390
F
  0
LAYER
  5
76
330
2
100
AcDbSymbolTableRecord
100
AcDbLayerTableRecord
  2
KOPF_DICK
 70
     0
 62
     7
  6
Continuous
370
    15
390
F
  0
ENDTAB
  0
TABLE
  2
STYLE
  5
3
330
0
100
AcDbSymbolTable
 70
     2
  0
STYLE
  5
11
330
3
100
AcDbSymbolTableRecord
100
AcDbTextStyleTableRecord
  2
Standard
 70
     0
 40
0.0
 41
1.0
 50
0.0
 71
     0
 42
2.0
  3
txt
  4

  0
STYLE
  5
77
330
3
100
AcDbSymbolTableRecord
100
AcDbTextStyleTableRecord
  2
SLDTEXTSTYLE0
 70
     0
 40
0.0
 41
0.7
 50
0.0
 71
     0
 42
2.0
  3
TXT
  4

  0
ENDTAB
  0
TABLE
  2
VIEW
  5
6
330
0
100
AcDbSymbolTable
 70
     0
  0
ENDTAB
  0
TABLE
  2
UCS
  5
7
330
0
100
AcDbSymbolTable
 70
     0
  0
ENDTAB
  0
TABLE
  2
APPID
  5
9
330
0
100
AcDbSymbolTable
 70
     1
  0
APPID
  5
12
330
9
100
AcDbSymbolTableRecord
100
AcDbRegAppTableRecord
  2
ACAD
 70
     0
  0
ENDTAB
  0
TABLE
  2
DIMSTYLE
  5
A
330
0
100
AcDbSymbolTable
 70
     2
100
AcDbDimStyleTable
  0
DIMSTYLE
105
27
330
A
100
AcDbSymbolTableRecord
100
AcDbDimStyleTableRecord
  2
ISO-25
 70
     0
 41
2.5
 42
0.625
 43
3.75
 44
1.25
 73
     0
 74
     0
 77
     1
 78
     8
140
2.5
141
2.5
143
0.0393700787
147
0.625
171
     3
172
     1
178
     0
271
     2
272
     2
274
     3
278
    44
283
     0
284
     8
340
11
  0
DIMSTYLE
105
12A
102
{ACAD_REACTORS
330
129
330
136
330
141
330
14D
330
157
330
163
102
}
330
A
100
AcDbSymbolTableRecord
100
AcDbDimStyleTableRecord
  2
SLDDIMSTYLE0
 70
     0
 41
3.0
 44
0.0
 45
0.000000001
 73
     0
 74
     0
 77
     1
 78
    12
 79
     3
140
2.0
147
0.5
173
     1
178
     0
271
     2
272
     3
276
     2
284
    12
340
77
  0
ENDTAB
  0
TABLE
  2
BLOCK_RECORD
  5
1
330
0
100
AcDbSymbolTable
 70
     7
  0
BLOCK_RECORD
  5
1F
330
1
100
AcDbSymbolTableRecord
100
AcDbBlockTableRecord
  2
*Model_Space
340
22
  0
BLOCK_RECORD
  5
1B
330
1
100
AcDbSymbolTableRecord
100
AcDbBlockTableRecord
  2
*Paper_Space
340
1E
  0
BLOCK_RECORD
  5
23
330
1
100
AcDbSymbolTableRecord
100
AcDbBlockTableRecord
  2
*Paper_Space0
340
26
  0
BLOCK_RECORD
  5
12B
330
1
100
AcDbSymbolTableRecord
100
AcDbBlockTableRecord
  2
_D
340
0
  0
BLOCK_RECORD
  5
137
330
1
100
AcDbSymbolTableRecord
100
AcDbBlockTableRecord
  2
_D_1
340
0
  0
BLOCK_RECORD
  5
142
330
1
100
AcDbSymbolTableRecord
100
AcDbBlockTableRecord
  2
_D_2
340
0
  0
BLOCK_RECORD
  5
14E
330
1
100
AcDbSymbolTableRecord
100
AcDbBlockTableRecord
  2
_D_3
340
0
  0
BLOCK_RECORD
  5
158
330
1
100
AcDbSymbolTableRecord
100
AcDbBlockTableRecord
  2
_D_4
340
0
  0
BLOCK_RECORD
  5
164
330
1
100
AcDbSymbolTableRecord
100
AcDbBlockTableRecord
  2
_D_5
340
0
  0
ENDTAB
  0
ENDSEC
  0
SECTION
  2
BLOCKS
  0
BLOCK
  5
20
330
1F
100
AcDbEntity
  8
0
100
AcDbBlockBegin
  2
*Model_Space
 70
     0
 10
0.0
 20
0.0
 30
0.0
  3
*Model_Space
  1

  0
ENDBLK
  5
21
330
1F
100
AcDbEntity
  8
0
100
AcDbBlockEnd
  0
BLOCK
  5
1C
330
1B
100
AcDbEntity
 67
     1
  8
0
100
AcDbBlockBegin
  2
*Paper_Space
 70
     0
 10
0.0
 20
0.0
 30
0.0
  3
*Paper_Space
  1

  0
ENDBLK
  5
1D
330
1B
100
AcDbEntity
 67
     1
  8
0
100
AcDbBlockEnd
  0
BLOCK
  5
24
330
23
100
AcDbEntity
  8
0
100
AcDbBlockBegin
  2
*Paper_Space0
 70
     0
 10
0.0
 20
0.0
 30
0.0
  3
*Paper_Space0
  1

  0
ENDBLK
  5
25
330
23
100
AcDbEntity
  8
0
100
AcDbBlockEnd
  0
BLOCK
  5
12C
330
12B
100
AcDbEntity
  8
0
100
AcDbBlockBegin
  2
_D
 70
     0
 10
0.0
 20
0.0
 30
0.0
  3
_D
  1

  0
SOLID
  5
12E
330
12B
100
AcDbEntity
  8
VERMASSUNG
100
AcDbTrace
 10
67.8028407631
 20
63.0198811372
 30
0.0
 11
68.2528407631
 21
66.0198811372
 31
0.0
 12
67.3528407631
 22
66.0198811372
 32
0.0
 13
67.3528407631
 23
66.0198811372
 33
0.0
  0
SOLID
  5
12F
330
12B
100
AcDbEntity
  8
VERMASSUNG
100
AcDbTrace
 10
67.8028407631
 20
160.4698811372
 30
0.0
 11
67.3528407631
 21
157.4698811372
 31
0.0
 12
68.2528407631
 22
157.4698811372
 32
0.0
 13
68.2528407631
 23
157.4698811372
 33
0.0
  0
LINE
  5
130
330
12B
100
AcDbEntity
  8
VERMASSUNG
100
AcDbLine
 10
194.5680481845
 20
63.0198811372
 30
0.0
 11
66.8028407631
 21
63.0198811372
 31
0.0
  0
LINE
  5
131
330
12B
100
AcDbEntity
  8
VERMASSUNG
100
AcDbLine
 10
194.5680481845
 20
160.4698811372
 30
0.0
 11
66.8028407631
 21
160.4698811372
 31
0.0
  0
LINE
  5
132
330
12B
100
AcDbEntity
  8
VERMASSUNG
100
AcDbLine
 10
67.8028407631
 20
63.0198811372
 30
0.0
 11
67.8028407631
 21
160.4698811372
 31
0.0
  0
MTEXT
  5
133
330
12B
100
AcDbEntity
  8
VERMASSUNG
100
AcDbMText
 10
65.0247055069
 20
102.2404455038
 30
0.0
 40
2.0
 41
0.0
 71
     1
 72
     1
  1
ISO 50
  7
SLDTEXTSTYLE0
 11
3.391901413832837E-15
 21
1.0
 31
0.0
 73
     1
 44
1.0
  0
MTEXT
  5
134
330
12B
100
AcDbEntity
  8
VERMASSUNG
100
AcDbMText
 10
65.2247054581
 20
111.2404451164
 30
0.0
 40
2.0
 41
0.0
 71
     1
 72
     1
  1
%%c
  7
SLDTEXTSTYLE0
 11
3.391901413832837E-15
 21
1.0
 31
0.0
 73
     1
 44
1.0
  0
MTEXT
  5
135
330
12B
100
AcDbEntity
  8
VERMASSUNG
100
AcDbMText
 10
65.2247051671
 20
114.8497884493
 30
0.0
 40
2.0
 41
0.0
 71
     1
 72
     1
  1
97.45
  7
SLDTEXTSTYLE0
 11
3.391901413832837E-15
 21
1.0
 31
0.0
 73
     1
 44
1.0
  0
ENDBLK
  5
12D
330
12B
100
AcDbEntity
  8
0
100
AcDbBlockEnd
  0
BLOCK
  5
138
330
137
100
AcDbEntity
  8
0
100
AcDbBlockBegin
  2
_D_1
 70
     0
 10
0.0
 20
0.0
 30
0.0
  3
_D_1
  1

  0
SOLID
  5
13A
330
137
100
AcDbEntity
  8
VERMASSUNG
100
AcDbTrace
 10
236.4660834229
 20
122.7448811372
 30
0.0
 11
236.0160834229
 21
119.7448811372
 31
0.0
 12
236.9160834229
 22
119.7448811372
 32
0.0
 13
236.9160834229
 23
119.7448811372
 33
0.0
  0
SOLID
  5
13B
330
137
100
AcDbEntity
  8
VERMASSUNG
100
AcDbTrace
 10
236.4660834229
 20
100.7448811372
 30
0.0
 11
236.9160834229
 21
103.7448811372
 31
0.0
 12
236.0160834229
 22
103.7448811372
 32
0.0
 13
236.0160834229
 23
103.7448811372
 33
0.0
  0
LINE
  5
13C
330
137
100
AcDbEntity
  8
VERMASSUNG
100
AcDbLine
 10
218.5180481845
 20
122.7448811372
 30
0.0
 11
237.4660834229
 21
122.7448811372
 31
0.0
  0
LINE
  5
13D
330
137
100
AcDbEntity
  8
VERMASSUNG
100
AcDbLine
 10
218.5180481845
 20
100.7448811372
 30
0.0
 11
237.4660834229
 21
100.7448811372
 31
0.0
  0
LINE
  5
13E
330
137
100
AcDbEntity
  8
VERMASSUNG
100
AcDbLine
 10
236.4660834229
 20
122.7448811372
 30
0.0
 11
236.4660834229
 21
100.7448811372
 31
0.0
  0
MTEXT
  5
13F
330
137
100
AcDbEntity
  8
VERMASSUNG
100
AcDbMText
 10
233.8879478851
 20
108.5407050301
 30
0.0
 40
2.0
 41
0.0
 71
     1
 72
     1
  1
%%c
  7
SLDTEXTSTYLE0
 11
-7.044195017643634E-15
 21
1.0
 31
0.0
 73
     1
 44
1.0
  0
MTEXT
  5
140
330
137
100
AcDbEntity
  8
VERMASSUNG
100
AcDbMText
 10
233.8879478269
 20
112.1496772237
 30
0.0
 40
2.0
 41
0.0
 71
     1
 72
     1
  1
22
  7
SLDTEXTSTYLE0
 11
-7.044195017643634E-15
 21
1.0
 31
0.0
 73
     1
 44
1.0
  0
ENDBLK
  5
139
330
137
100
AcDbEntity
  8
0
100
AcDbBlockEnd
  0
BLOCK
  5
143
330
142
100
AcDbEntity
  8
0
100
AcDbBlockBegin
  2
_D_2
 70
     0
 10
0.0
 20
0.0
 30
0.0
  3
_D_2
  1

  0
ARC
  5
145
330
142
100
AcDbEntity
  8
VERMASSUNG
100
AcDbCircle
 10
211.2548416963
 20
166.5492873116
 30
0.0
 40
4.24705993853726
100
AcDbArc
 50
153.4349488229
 51
206.5650511771
  0
ARC
  5
146
330
142
100
AcDbEntity
  8
VERMASSUNG
100
AcDbCircle
 10
213.0312546726
 20
166.5492873116
 30
0.0
 40
4.24705993853726
100
AcDbArc
 50
333.4349488229
 51
26.5650511771
  0
SOLID
  5
147
330
142
100
AcDbEntity
  8
VERMASSUNG
100
AcDbTrace
 10
195.1680481845
 20
164.6499443662
 30
0.0
 11
198.1680481845
 21
164.1999443662
 31
0.0
 12
198.1680481845
 22
165.0999443662
 32
0.0
 13
198.1680481845
 23
165.0999443662
 33
0.0
  0
SOLID
  5
148
330
142
100
AcDbEntity
  8
VERMASSUNG
100
AcDbTrace
 10
229.1180481845
 20
164.6499443662
 30
0.0
 11
226.1180481845
 21
165.0999443662
 31
0.0
 12
226.1180481845
 22
164.1999443662
 32
0.0
 13
226.1180481845
 23
164.1999443662
 33
0.0
  0
LINE
  5
149
330
142
100
AcDbEntity
  8
VERMASSUNG
100
AcDbLine
 10
195.1680481845
 20
158.0398680904
 30
0.0
 11
195.1680481845
 21
165.6499443662
 31
0.0
  0
LINE
  5
14A
330
142
100
AcDbEntity
  8
VERMASSUNG
100
AcDbLine
 10
229.1180481845
 20
130.8448811372
 30
0.0
 11
229.1180481845
 21
165.6499443662
 31
0.0
  0
LINE
  5
14B
330
142
100
AcDbEntity
  8
VERMASSUNG
100
AcDbLine
 10
195.1680481845
 20
164.6499443662
 30
0.0
 11
229.1180481845
 21
164.6499443662
 31
0.0
  0
MTEXT
  5
14C
330
142
100
AcDbEntity
  8
VERMASSUNG
100
AcDbMText
 10
209.0436558055
 20
167.2280799622
 30
0.0
 40
2.0
 41
0.0
 71
     1
 72
     1
  1
33.95
  7
SLDTEXTSTYLE0
 73
     1
 44
1.0
  0
ENDBLK
  5
144
330
142
100
AcDbEntity
  8
0
100
AcDbBlockEnd
  0
BLOCK
  5
14F
330
14E
100
AcDbEntity
  8
0
100
AcDbBlockBegin
  2
_D_3
 70
     0
 10
0.0
 20
0.0
 30
0.0
  3
_D_3
  1

  0
SOLID
  5
151
330
14E
100
AcDbEntity
  8
VERMASSUNG
100
AcDbTrace
 10
176.1180481845
 20
170.6499443662
 30
0.0
 11
179.1180481845
 21
170.1999443662
 31
0.0
 12
179.1180481845
 22
171.0999443662
 32
0.0
 13
179.1180481845
 23
171.0999443662
 33
0.0
  0
SOLID
  5
152
330
14E
100
AcDbEntity
  8
VERMASSUNG
100
AcDbTrace
 10
229.1180481845
 20
170.6499443662
 30
0.0
 11
226.1180481845
 21
171.0999443662
 31
0.0
 12
226.1180481845
 22
170.1999443662
 32
0.0
 13
226.1180481845
 23
170.1999443662
 33
0.0
  0
LINE
  5
153
330
14E
100
AcDbEntity
  8
VERMASSUNG
100
AcDbLine
 10
176.1180481845
 20
146.6698811372
 30
0.0
 11
176.1180481845
 21
171.6499443662
 31
0.0
  0
LINE
  5
154
330
14E
100
AcDbEntity
  8
VERMASSUNG
100
AcDbLine
 10
229.1180481845
 20
130.8448811372
 30
0.0
 11
229.1180481845
 21
171.6499443662
 31
0.0
  0
LINE
  5
155
330
14E
100
AcDbEntity
  8
VERMASSUNG
100
AcDbLine
 10
176.1180481845
 20
170.6499443662
 30
0.0
 11
229.1180481845
 21
170.6499443662
 31
0.0
  0
MTEXT
  5
156
330
14E
100
AcDbEntity
  8
VERMASSUNG
100
AcDbMText
 10
201.2183581742
 20
173.2280799622
 30
0.0
 40
2.0
 41
0.0
 71
     1
 72
     1
  1
53
  7
SLDTEXTSTYLE0
 73
     1
 44
1.0
  0
ENDBLK
  5
150
330
14E
100
AcDbEntity
  8
0
100
AcDbBlockEnd
  0
BLOCK
  5
159
330
158
100
AcDbEntity
  8
0
100
AcDbBlockBegin
  2
_D_4
 70
     0
 10
0.0
 20
0.0
 30
0.0
  3
_D_4
  1

  0
ARC
  5
15B
330
158
100
AcDbEntity
  8
VERMASSUNG
100
AcDbCircle
 10
151.030213478
 20
178.5492873116
 30
0.0
 40
4.247059938537272
100
AcDbArc
 50
153.4349488229
 51
206.5650511771
  0
ARC
  5
15C
330
158
100
AcDbEntity
  8
VERMASSUNG
100
AcDbCircle
 10
152.6058828909
 20
178.5492873116
 30
0.0
 40
4.247059938537297
100
AcDbArc
 50
333.4349488229
 51
26.5650511771
  0
SOLID
  5
15D
330
158
100
AcDbEntity
  8
VERMASSUNG
100
AcDbTrace
 10
74.5180481845
 20
176.6499443662
 30
0.0
 11
77.5180481845
 21
176.1999443662
 31
0.0
 12
77.5180481845
 22
177.0999443662
 32
0.0
 13
77.5180481845
 23
177.0999443662
 33
0.0
  0
SOLID
  5
15E
330
158
100
AcDbEntity
  8
VERMASSUNG
100
AcDbTrace
 10
229.1180481845
 20
176.6499443662
 30
0.0
 11
226.1180481845
 21
177.0999443662
 31
0.0
 12
226.1180481845
 22
176.1999443662
 32
0.0
 13
226.1180481845
 23
176.1999443662
 33
0.0
  0
LINE
  5
15F
330
158
100
AcDbEntity
  8
VERMASSUNG
100
AcDbLine
 10
74.5180481845
 20
130.1237256646
 30
0.0
 11
74.5180481845
 21
177.6499443662
 31
0.0
  0
LINE
  5
160
330
158
100
AcDbEntity
  8
VERMASSUNG
100
AcDbLine
 10
229.1180481845
 20
130.8448811372
 30
0.0
 11
229.1180481845
 21
177.6499443662
 31
0.0
  0
LINE
  5
161
330
158
100
AcDbEntity
  8
VERMASSUNG
100
AcDbLine
 10
74.5180481845
 20
176.6499443662
 30
0.0
 11
229.1180481845
 21
176.6499443662
 31
0.0
  0
MTEXT
  5
162
330
158
100
AcDbEntity
  8
VERMASSUNG
100
AcDbMText
 10
148.8190275871
 20
179.2280799622
 30
0.0
 40
2.0
 41
0.0
 71
     1
 72
     1
  1
154.6
  7
SLDTEXTSTYLE0
 73
     1
 44
1.0
  0
ENDBLK
  5
15A
330
158
100
AcDbEntity
  8
0
100
AcDbBlockEnd
  0
BLOCK
  5
165
330
164
100
AcDbEntity
  8
0
100
AcDbBlockBegin
  2
_D_5
 70
     0
 10
0.0
 20
0.0
 30
0.0
  3
_D_5
  1

  0
SOLID
  5
167
330
164
100
AcDbEntity
  8
VERMASSUNG
100
AcDbTrace
 10
242.4660834229
 20
131.2448811372
 30
0.0
 11
242.0160834229
 21
128.2448811372
 31
0.0
 12
242.9160834229
 22
128.2448811372
 32
0.0
 13
242.9160834229
 23
128.2448811372
 33
0.0
  0
SOLID
  5
168
330
164
100
AcDbEntity
  8
VERMASSUNG
100
AcDbTrace
 10
242.4660834229
 20
92.2448811372
 30
0.0
 11
242.9160834229
 21
95.2448811372
 31
0.0
 12
242.0160834229
 22
95.2448811372
 32
0.0
 13
242.0160834229
 23
95.2448811372
 33
0.0
  0
LINE
  5
169
330
164
100
AcDbEntity
  8
VERMASSUNG
100
AcDbLine
 10
228.7180481845
 20
131.2448811372
 30
0.0
 11
243.4660834229
 21
131.2448811372
 31
0.0
  0
LINE
  5
16A
330
164
100
AcDbEntity
  8
VERMASSUNG
100
AcDbLine
 10
228.7180481845
 20
92.2448811372
 30
0.0
 11
243.4660834229
 21
92.2448811372
 31
0.0
  0
LINE
  5
16B
330
164
100
AcDbEntity
  8
VERMASSUNG
100
AcDbLine
 10
242.4660834229
 20
131.2448811372
 30
0.0
 11
242.4660834229
 21
92.2448811372
 31
0.0
  0
MTEXT
  5
16C
330
164
100
AcDbEntity
  8
VERMASSUNG
100
AcDbMText
 10
239.6879481667
 20
105.5398811539
 30
0.0
 40
2.0
 41
0.0
 71
     1
 72
     1
  1
ST4
  7
SLDTEXTSTYLE0
 11
-7.044195017643634E-15
 21
1.0
 31
0.0
 73
     1
 44
1.0
  0
MTEXT
  5
16D
330
164
100
AcDbEntity
  8
VERMASSUNG
100
AcDbMText
 10
239.887948118
 20
111.5398812061
 30
0.0
 40
2.0
 41
0.0
 71
     1
 72
     1
  1
%%c
  7
SLDTEXTSTYLE0
 11
-7.044195017643634E-15
 21
1.0
 31
0.0
 73
     1
 44
1.0
  0
MTEXT
  5
16E
330
164
100
AcDbEntity
  8
VERMASSUNG
100
AcDbMText
 10
239.6879481667
 20
115.1498812204
 30
0.0
 40
2.0
 41
0.0
 71
     1
 72
     1
  1
39
  7
SLDTEXTSTYLE0
 11
-7.044195017643634E-15
 21
1.0
 31
0.0
 73
     1
 44
1.0
  0
ENDBLK
  5
166
330
164
100
AcDbEntity
  8
0
100
AcDbBlockEnd
  0
ENDSEC
  0
SECTION
  2
ENTITIES
  0
MTEXT
  5
78
330
1F
100
AcDbEntity
  8
KOPF_DÜNN
100
AcDbMText
 10
13.8892156294
 20
23.8442973028
 30
0.0
 40
3.0
 41
0.0
 71
     1
 72
     1
  1
114.450.039.053
  7
SLDTEXTSTYLE0
 73
     1
 44
1.0
  0
MTEXT
  5
79
330
1F
100
AcDbEntity
  8
VERMASSUNG
100
AcDbMText
 10
13.9329988022
 20
28.8834360957
 30
0.0
 40
3.0
 41
0.0
 71
     1
 72
     1
  1
Aufnahme_Master shank ST4
  7
SLDTEXTSTYLE0
 73
     1
 44
1.0
  0
MTEXT
  5
7A
330
1F
100
AcDbEntity
  8
VERMASSUNG
100
AcDbMText
 10
98.8601118557
 20
13.8365368761
 30
0.0
 40
2.0
 41
0.0
 71
     1
 72
     1
  1
Datum: 14.05.2008
  7
SLDTEXTSTYLE0
 73
     1
 44
1.0
  0
MTEXT
  5
7B
330
1F
100
AcDbEntity
  8
VERMASSUNG
100
AcDbMText
 10
13.933048693
 20
18.0482802738
 30
0.0
 40
2.0
 41
0.0
 71
     1
 72
     1
  1
DIN 69871 A/D ISO 50
  7
SLDTEXTSTYLE0
 73
     1
 44
1.0
  0
MTEXT
  5
7C
330
1F
100
AcDbEntity
  8
VERMASSUNG
100
AcDbMText
 10
13.9808475933
 20
13.9090974274
 30
0.0
 40
2.0
 41
0.0
 71
     1
 72
     1
  1
Gewicht: 2884g
  7
SLDTEXTSTYLE0
 73
     1
 44
1.0
  0
ARC
  5
7D
330
1F
100
AcDbEntity
  8
0
  6
Continuous
 62
     7
370
    15
100
AcDbCircle
 10
178.7180481845
 20
76.2198811372
 30
0.0
 40
0.5999999999999943
100
AcDbArc
 50
0.0
 51
90.0
  0
ARC
  5
7E
330
1F
100
AcDbEntity
  8
0
  6
Continuous
 62
     7
370
    15
100
AcDbCircle
 10
178.7180481845
 20
147.2698811372
 30
0.0
 40
0.6000000000000227
100
AcDbArc
 50
270.0
 51
0.0
  0
LINE
  5
7F
330
1F
100
AcDbEntity
  8
0
  6
Continuous
 62
     7
370
    15
100
AcDbLine
 10
176.1180481845
 20
146.6698811372
 30
0.0
 11
76.2294343983
 21
132.1027916267
 31
0.0
  0
LINE
  5
80
330
1F
100
AcDbEntity
  8
0
  6
Continuous
 62
     7
370
    15
100
AcDbLine
 10
76.2294343983
 20
91.3869706477
 30
0.0
 11
176.1180481845
 21
76.8198811372
 31
0.0
  0
LINE
  5
81
330
1F
100
AcDbEntity
  8
0
  6
Continuous
 62
     7
370
    15
100
AcDbLine
 10
176.1180481845
 20
76.8198811372
 30
0.0
 11
178.7180481845
 21
76.8198811372
 31
0.0
  0
LINE
  5
82
330
1F
100
AcDbEntity
  8
0
  6
Continuous
 62
     7
370
    15
100
AcDbLine
 10
178.7180481845
 20
146.6698811372
 30
0.0
 11
176.1180481845
 21
146.6698811372
 31
0.0
  0
ARC
  5
83
330
1F
100
AcDbEntity
  8
0
  6
Continuous
 62
     7
370
    15
100
AcDbCircle
 10
199.1680481845
 20
88.2448811372
 30
0.0
 40
4.0
100
AcDbArc
 50
90.0
 51
180.0
  0
ARC
  5
84
330
1F
100
AcDbEntity
  8
0
  6
Continuous
 62
     7
370
    15
100
AcDbCircle
 10
199.1680481845
 20
135.2448811372
 30
0.0
 40
4.000000000000028
100
AcDbArc
 50
180.0
 51
270.0
  0
ARC
  5
85
330
1F
100
AcDbEntity
  8
0
  6
Continuous
 62
     7
370
    15
100
AcDbCircle
 10
76.5180481845
 20
93.3660366098
 30
0.0
 40
2.000000000000006
100
AcDbArc
 50
180.0
 51
261.7028550302
  0
ARC
  5
86
330
1F
100
AcDbEntity
  8
0
  6
Continuous
 62
     7
370
    15
100
AcDbCircle
 10
76.5180481845
 20
130.1237256646
 30
0.0
 40
1.999999999999986
100
AcDbArc
 50
98.2971449698
 51
180.0
  0
LINE
  5
87
330
1F
100
AcDbEntity
  8
0
  6
Continuous
 62
     7
370
    15
100
AcDbLine
 10
228.7180481845
 20
92.2448811372
 30
0.0
 11
229.1180481845
 21
92.6448811372
 31
0.0
  0
LINE
  5
88
330
1F
100
AcDbEntity
  8
0
  6
Continuous
 62
     7
370
    15
100
AcDbLine
 10
229.1180481845
 20
130.8448811372
 30
0.0
 11
228.7180481845
 21
131.2448811372
 31
0.0
  0
LINE
  5
89
330
1F
100
AcDbEntity
  8
0
  6
Continuous
 62
     7
370
    15
100
AcDbLine
 10
228.7180481845
 20
131.2448811372
 30
0.0
 11
199.1680481845
 21
131.2448811372
 31
0.0
  0
LINE
  5
8A
330
1F
100
AcDbEntity
  8
0
  6
Continuous
 62
     7
370
    15
100
AcDbLine
 10
199.1680481845
 20
92.2448811372
 30
0.0
 11
228.7180481845
 21
92.2448811372
 31
0.0
  0
SPLINE
  5
8B
330
1F
100
AcDbEntity
  8
0
  6
Continuous
 62
     7
370
    15
100
AcDbSpline
210
0.0
220
0.0
230
1.0
 70
    24
 71
     3
 72
    11
 73
     7
 74
     0
 42
0.000000001
 43
0.00000001
 40
0.0
 40
0.0
 40
0.0
 40
0.0
 40
0.1285561766307281
 40
0.4801535797842217
 40
0.8150691831753842
 40
1.0
 40
1.0
 40
1.0
 40
1.0
 10
219.2376987058494
 20
114.0480424502626
 30
0.0
 10
219.3146108099333
 20
113.9957479352261
 30
0.0
 10
219.6018752811746
 20
113.8004294429064
 30
0.0
 10
220.1405605032105
 20
113.4341635244367
 30
0.0
 10
220.7238429689057
 20
113.0375747945328
 30
0.0
 10
221.0363116508633
 20
112.8251193119827
 30
0.0
 10
221.1474696512637
 20
112.7495401324424
 30
0.0
  0
SPLINE
  5
8C
330
1F
100
AcDbEntity
  8
0
  6
Continuous
 62
     7
370
    15
100
AcDbSpline
210
0.0
220
0.0
230
1.0
 70
    24
 71
     3
 72
    10
 73
     6
 74
     0
 42
0.000000001
 43
0.00000001
 40
0.0
 40
0.0
 40
0.0
 40
0.0
 40
0.4391222274230464
 40
0.7513714712594591
 40
1.0
 40
1.0
 40
1.0
 40
1.0
 10
217.1582772390369
 20
113.0433834550345
 30
0.0
 10
217.4559666442599
 20
113.1872101604498
 30
0.0
 10
217.9653358185176
 20
113.4333085733869
 30
0.0
 10
218.7057877767842
 20
113.7910531346889
 30
0.0
 10
219.0743297098339
 20
113.9691117793968
 30
0.0
 10
219.2376987058494
 20
114.0480424502626
 30
0.0
  0
SPLINE
  5
8D
330
1F
100
AcDbEntity
  8
0
  6
Continuous
 62
     7
370
    15
100
AcDbSpline
210
0.0
220
0.0
230
1.0
 70
    24
 71
     3
 72
    10
 73
     6
 74
     0
 42
0.000000001
 43
0.00000001
 40
0.0
 40
0.0
 40
0.0
 40
0.0
 40
0.4391222274230475
 40
0.7513714712594555
 40
1.0
 40
1.0
 40
1.0
 40
1.0
 10
216.9886267176388
 20
110.7402221419862
 30
0.0
 10
217.0129138396181
 20
111.0699420820543
 30
0.0
 10
217.0544709493124
 20
111.6341179333348
 30
0.0
 10
217.1148810502924
 20
112.4542404201266
 30
0.0
 10
217.1449487071367
 20
112.8624364188614
 30
0.0
 10
217.1582772390369
 20
113.0433834550345
 30
0.0
  0
SPLINE
  5
8E
330
1F
100
AcDbEntity
  8
0
  6
Continuous
 62
     7
370
    15
100
AcDbSpline
210
0.0
220
0.0
230
1.0
 70
    24
 71
     3
 72
    11
 73
     7
 74
     0
 42
0.000000001
 43
0.00000001
 40
0.0
 40
0.0
 40
0.0
 40
0.0
 40
0.1849308168246117
 40
0.5198464202157816
 40
0.8714438233692688
 40
1.0
 40
1.0
 40
1.0
 40
1.0
 10
218.8983976630532
 20
109.4417198241659
 30
0.0
 10
218.7872396626527
 20
109.5172990037062
 30
0.0
 10
218.4747709806951
 20
109.7297544862563
 30
0.0
 10
217.8914885149998
 20
110.1263432161602
 30
0.0
 10
217.352803292964
 20
110.4926091346299
 30
0.0
 10
217.0655388217227
 20
110.6879276269496
 30
0.0
 10
216.9886267176388
 20
110.7402221419862
 30
0.0
  0
SPLINE
  5
8F
330
1F
100
AcDbEntity
  8
0
  6
Continuous
 62
     7
370
    15
100
AcDbSpline
210
0.0
220
0.0
230
1.0
 70
    24
 71
     3
 72
    10
 73
     6
 74
     0
 42
0.000000001
 43
0.00000001
 40
0.0
 40
0.0
 40
0.0
 40
0.0
 40
0.4391222274230468
 40
0.7513714712594631
 40
1.0
 40
1.0
 40
1.0
 40
1.0
 10
220.9778191298657
 20
110.4463788193941
 30
0.0
 10
220.6801297246427
 20
110.3025521139788
 30
0.0
 10
220.1707605503849
 20
110.0564537010417
 30
0.0
 10
219.4303085921183
 20
109.6987091397397
 30
0.0
 10
219.0617666590687
 20
109.5206504950318
 30
0.0
 10
218.8983976630532
 20
109.4417198241659
 30
0.0
  0
SPLINE
  5
90
330
1F
100
AcDbEntity
  8
0
  6
Continuous
 62
     7
370
    15
100
AcDbSpline
210
0.0
220
0.0
230
1.0
 70
    24
 71
     3
 72
    10
 73
     6
 74
     0
 42
0.000000001
 43
0.00000001
 40
0.0
 40
0.0
 40
0.0
 40
0.0
 40
0.4391222274230478
 40
0.751371471259455
 40
1.0
 40
1.0
 40
1.0
 40
1.0
 10
221.1474696512637
 20
112.7495401324424
 30
0.0
 10
221.1231825292845
 20
112.4198201923743
 30
0.0
 10
221.0816254195902
 20
111.8556443410938
 30
0.0
 10
221.0212153186102
 20
111.035521854302
 30
0.0
 10
220.9911476617658
 20
110.6273258555672
 30
0.0
 10
220.9778191298657
 20
110.4463788193941
 30
0.0
  0
CIRCLE
  5
91
330
1F
100
AcDbEntity
  8
0
  6
Continuous
 62
     7
370
    15
100
AcDbCircle
 10
219.0680481845
 20
111.7448811372
 30
0.0
 40
2.400000000000003
  0
CIRCLE
  5
92
330
1F
100
AcDbEntity
  8
0
  6
Continuous
 62
     7
370
    15
100
AcDbCircle
 10
219.0680481845
 20
111.7448811372
 30
0.0
 40
3.620000000000012
  0
CIRCLE
  5
93
330
1F
100
AcDbEntity
  8
0
  6
Continuous
 62
     7
370
    15
100
AcDbCircle
 10
219.0680481845
 20
111.7448811372
 30
0.0
 40
4.000000000000007
  0
ARC
  5
94
330
1F
100
AcDbEntity
  8
0
  6
Continuous
 62
     7
370
    15
100
AcDbCircle
 10
219.0680481845
 20
111.7448811372
 30
0.0
 40
2.000000000000004
100
AcDbArc
 50
355.7872095853
 51
55.7872095853
  0
ARC
  5
95
330
1F
100
AcDbEntity
  8
0
  6
Continuous
 62
     7
370
    15
100
AcDbCircle
 10
219.0680481845
 20
111.7448811372
 30
0.0
 40
2.0
100
AcDbArc
 50
235.7872095853
 51
295.7872095853
  0
ARC
  5
96
330
1F
100
AcDbEntity
  8
0
  6
Continuous
 62
     7
370
    15
100
AcDbCircle
 10
219.0680481845
 20
111.7448811372
 30
0.0
 40
1.99999999999999
100
AcDbArc
 50
175.7872095853
 51
235.7872095853
  0
ARC
  5
97
330
1F
100
AcDbEntity
  8
0
  6
Continuous
 62
     7
370
    15
100
AcDbCircle
 10
219.0680481845
 20
111.7448811372
 30
0.0
 40
2.000000000000004
100
AcDbArc
 50
295.7872095853
 51
355.7872095853
  0
ARC
  5
98
330
1F
100
AcDbEntity
  8
0
  6
Continuous
 62
     7
370
    15
100
AcDbCircle
 10
219.0680481845
 20
111.7448811372
 30
0.0
 40
2.000000000000001
100
AcDbArc
 50
55.7872095853
 51
115.7872095853
  0
ARC
  5
99
330
1F
100
AcDbEntity
  8
0
  6
Continuous
 62
     7
370
    15
100
AcDbCircle
 10
219.0680481845
 20
111.7448811372
 30
0.0
 40
2.0
100
AcDbArc
 50
115.7872095853
 51
175.7872095853
  0
SPLINE
  5
9A
330
1F
100
AcDbEntity
  8
0
  6
Continuous
 62
     7
370
    15
100
AcDbSpline
210
0.0
220
0.0
230
1.0
 70
     8
 71
     3
 72
    10
 73
     6
 74
     0
 42
0.000000001
 43
0.00000001
 40
0.0
 40
0.0
 40
0.0
 40
0.0
 40
0.5
 40
0.5
 40
1.0
 40
1.0
 40
1.0
 40
1.0
 10
179.5337082156053
 20
65.11142687002203
 30
0.0
 10
179.582358784185
 20
65.08346987875463
 30
0.0
 10
179.6397439961444
 20
65.05952759372782
 30
0.0
 10
179.7704571043105
 20
65.02540913063213
 30
0.0
 10
179.8431966380491
 20
65.01562179586826
 30
0.0
 10
179.9180481844513
 20
65.01562179586826
 30
0.0
  0
SPLINE
  5
9B
330
1F
100
AcDbEntity
  8
0
  6
Continuous
 62
     7
370
    15
100
AcDbSpline
210
0.0
220
0.0
230
1.0
 70
     8
 71
     3
 72
    10
 73
     6
 74
     0
 42
0.000000001
 43
0.00000001
 40
0.0
 40
0.0
 40
0.0
 40
0.0
 40
0.5
 40
0.5
 40
1.0
 40
1.0
 40
1.0
 40
1.0
 10
179.5337082156053
 20
65.11142687002203
 30
0.0
 10
179.4755202090231
 20
65.17901060020085
 30
0.0
 10
179.4230777424968
 20
65.2594868348426
 30
0.0
 10
179.3447254353181
 20
65.44252245782536
 30
0.0
 10
179.3180481844512
 20
65.54839816062096
 30
0.0
 10
179.3180481844512
 20
65.6559114698416
 30
0.0
  0
LINE
  5
9C
330
1F
100
AcDbEntity
  8
0
  6
Continuous
 62
     7
370
    15
100
AcDbLine
 10
179.3180481845
 20
65.6559114698
 30
0.0
 11
179.3180481845
 21
141.5948811372
 31
0.0
  0
SPLINE
  5
9D
330
1F
100
AcDbEntity
  8
0
  6
Continuous
 62
     7
370
    15
100
AcDbSpline
210
0.0
220
0.0
230
1.0
 70
    24
 71
     3
 72
    14
 73
    10
 74
     0
 42
0.000000001
 43
0.00000001
 40
0.0
 40
0.0
 40
0.0
 40
0.0
 40
0.25
 40
0.25
 40
0.5
 40
0.5
 40
0.75
 40
0.75
 40
1.0
 40
1.0
 40
1.0
 40
1.0
 10
179.9180481844513
 20
141.5948811372143
 30
0.0
 10
179.8290262321077
 20
141.5948811372143
 30
0.0
 10
179.7393395328341
 20
141.5948811372143
 30
0.0
 10
179.5856127072768
 20
141.5948811372143
 30
0.0
 10
179.52040781265
 20
141.5948811372143
 30
0.0
 10
179.4178171184795
 20
141.5948811372143
 30
0.0
 10
179.3801796641637
 20
141.5948811372143
 30
0.0
 10
179.3300877487785
 20
141.5948811372143
 30
0.0
 10
179.3180481844513
 20
141.5948811372143
 30
0.0
 10
179.3180481844513
 20
141.5948811372143
 30
0.0
  0
LINE
  5
9E
330
1F
100
AcDbEntity
  8
0
  6
Continuous
 62
     7
370
    15
100
AcDbLine
 10
179.9180481845
 20
65.0156217959
 30
0.0
 11
183.984886677
 21
65.0156217959
 31
0.0
  0
LINE
  5
9F
330
1F
100
AcDbEntity
  8
0
  6
Continuous
 62
     7
370
    15
100
AcDbLine
 10
183.984886677
 20
141.5948811372
 30
0.0
 11
179.9180481845
 21
141.5948811372
 31
0.0
  0
LINE
  5
A0
330
1F
100
AcDbEntity
  8
0
  6
Continuous
 62
     7
370
    15
100
AcDbLine
 10
183.984886677
 20
65.0156217959
 30
0.0
 11
183.984886677
 21
141.5948811372
 31
0.0
  0
SPLINE
  5
A1
330
1F
100
AcDbEntity
  8
0
  6
Continuous
 62
     7
370
    15
100
AcDbSpline
210
0.0
220
0.0
230
1.0
 70
     8
 71
     3
 72
     8
 73
     4
 74
     0
 42
0.000000001
 43
0.00000001
 40
0.0
 40
0.0
 40
0.0
 40
0.0
 40
1.0
 40
1.0
 40
1.0
 40
1.0
 10
185.3080481844513
 20
67.1251417283845
 30
0.0
 10
185.0183197384267
 20
66.60292171822097
 30
0.0
 10
184.728294588209
 20
66.08086833596099
 30
0.0
 10
184.4380003539472
 20
65.55896607023787
 30
0.0
  0
SPLINE
  5
A2
330
1F
100
AcDbEntity
  8
0
  6
Continuous
 62
     7
370
    15
100
AcDbSpline
210
0.0
220
0.0
230
1.0
 70
     8
 71
     3
 72
     8
 73
     4
 74
     0
 42
0.000000001
 43
0.00000001
 40
0.0
 40
0.0
 40
0.0
 40
0.0
 40
0.0011862984959112
 40
0.0011862984959112
 40
0.0011862984959112
 40
0.0011862984959112
 10
183.9848866769894
 20
65.01562179586827
 30
0.0
 10
184.1369114388602
 20
65.19653364548626
 30
0.0
 10
184.287968884076
 20
65.37764597592707
 30
0.0
 10
184.4380003539472
 20
65.55896607023787
 30
0.0
  0
SPLINE
  5
A3
330
1F
100
AcDbEntity
  8
0
  6
Continuous
 62
     7
370
    15
100
AcDbSpline
210
0.0
220
0.0
230
1.0
 70
    24
 71
     3
 72
     8
 73
     4
 74
     0
 42
0.000000001
 43
0.00000001
 40
0.0
 40
0.0
 40
0.0
 40
0.0
 40
1.0
 40
1.0
 40
1.0
 40
1.0
 10
185.3080481844513
 20
141.5948811372143
 30
0.0
 10
184.8728480797476
 20
141.5948811372143
 30
0.0
 10
184.4314883970088
 20
141.5948811372143
 30
0.0
 10
183.9848866769894
 20
141.5948811372143
 30
0.0
  0
LINE
  5
A4
330
1F
100
AcDbEntity
  8
0
  6
Continuous
 62
     7
370
    15
100
AcDbLine
 10
185.3080481845
 20
67.1251417284
 30
0.0
 11
185.3080481845
 21
141.5948811372
 31
0.0
  0
SPLINE
  5
A5
330
1F
100
AcDbEntity
  8
0
  6
Continuous
 62
     7
370
    15
100
AcDbSpline
210
0.0
220
0.0
230
1.0
 70
     8
 71
     3
 72
    12
 73
     8
 74
     0
 42
0.000000001
 43
0.00000001
 40
0.0
 40
0.0
 40
0.0
 40
0.0
 40
0.2499999999999972
 40
0.2499999999999972
 40
0.4999999999999944
 40
0.4999999999999944
 40
1.0
 40
1.0
 40
1.0
 40
1.0
 10
194.5680481844513
 20
65.01562179586827
 30
0.0
 10
194.6640209376262
 20
65.01562179586827
 30
0.0
 10
194.7564489017806
 20
65.03189511997685
 30
0.0
 10
194.9128790018901
 20
65.08526884197327
 30
0.0
 10
194.976357426663
 20
65.12139709950759
 30
0.0
 10
195.1246365874901
 20
65.24209829578689
 30
0.0
 10
195.1680481844513
 20
65.33594788215207
 30
0.0
 10
195.1680481844513
 20
65.43025215709928
 30
0.0
  0
SPLINE
  5
A6
330
1F
100
AcDbEntity
  8
0
  6
Continuous
 62
     7
370
    15
100
AcDbSpline
210
0.0
220
0.0
230
1.0
 70
    24
 71
     3
 72
    12
 73
     8
 74
     0
 42
0.000000001
 43
0.00000001
 40
0.0
 40
0.0
 40
0.0
 40
0.0
 40
0.4999999999999972
 40
0.4999999999999972
 40
0.7499999999999986
 40
0.7499999999999986
 40
1.0
 40
1.0
 40
1.0
 40
1.0
 10
195.1680481844513
 20
141.5948811372143
 30
0.0
 10
195.1680481844513
 20
141.5948811372143
 30
0.0
 10
195.1199174960659
 20
141.5948811372143
 30
0.0
 10
194.9660204402629
 20
141.5948811372143
 30
0.0
 10
194.9005558752561
 20
141.5948811372143
 30
0.0
 10
194.747026554646
 20
141.5948811372143
 30
0.0
 10
194.6586778939102
 20
141.5948811372143
 30
0.0
 10
194.5680481844511
 20
141.5948811372143
 30
0.0
  0
LINE
  5
A7
330
1F
100
AcDbEntity
  8
0
  6
Continuous
 62
     7
370
    15
100
AcDbLine
 10
195.1680481845
 20
65.4302521571
 30
0.0
 11
195.1680481845
 21
141.5948811372
 31
0.0
  0
SPLINE
  5
A8
330
1F
100
AcDbEntity
  8
0
  6
Continuous
 62
     7
370
    15
100
AcDbSpline
210
0.0
220
0.0
230
1.0
 70
     8
 71
     3
 72
     8
 73
     4
 74
     0
 42
0.000000001
 43
0.00000001
 40
0.0000000000000004
 40
0.0000000000000004
 40
0.0000000000000004
 40
0.0000000000000004
 40
0.0011862984959127
 40
0.0011862984959127
 40
0.0011862984959127
 40
0.0011862984959127
 10
189.9980960149515
 20
65.55896607023787
 30
0.0
 10
190.1481274848228
 20
65.37764597592685
 30
0.0
 10
190.2991849300422
 20
65.19653364548647
 30
0.0
 10
190.4512096919132
 20
65.01562179586827
 30
0.0
  0
SPLINE
  5
A9
330
1F
100
AcDbEntity
  8
0
  6
Continuous
 62
     7
370
    15
100
AcDbSpline
210
0.0
220
0.0
230
1.0
 70
     8
 71
     3
 72
     8
 73
     4
 74
     0
 42
0.000000001
 43
0.00000001
 40
0.0
 40
0.0
 40
0.0
 40
0.0
 40
1.0
 40
1.0
 40
1.0
 40
1.0
 10
189.9980960149545
 20
65.55896607023956
 30
0.0
 10
189.707801780693
 20
66.08086833596211
 30
0.0
 10
189.4177766304755
 20
66.60292171822152
 30
0.0
 10
189.1280481844513
 20
67.1251417283845
 30
0.0
  0
LINE
  5
AA
330
1F
100
AcDbEntity
  8
0
  6
Continuous
 62
     7
370
    15
100
AcDbLine
 10
189.1280481845
 20
67.1251417284
 30
0.0
 11
189.1280481845
 21
141.5948811372
 31
0.0
  0
SPLINE
  5
AB
330
1F
100
AcDbEntity
  8
0
  6
Continuous
 62
     7
370
    15
100
AcDbSpline
210
0.0
220
0.0
230
1.0
 70
    24
 71
     3
 72
     8
 73
     4
 74
     0
 42
0.000000001
 43
0.00000001
 40
0.0
 40
0.0
 40
0.0
 40
0.0
 40
1.0
 40
1.0
 40
1.0
 40
1.0
 10
190.4512096919132
 20
141.5948811372143
 30
0.0
 10
190.0046079718938
 20
141.5948811372143
 30
0.0
 10
189.5632482891549
 20
141.5948811372143
 30
0.0
 10
189.1280481844513
 20
141.5948811372143
 30
0.0
  0
LINE
  5
AC
330
1F
100
AcDbEntity
  8
0
  6
Continuous
 62
     7
370
    15
100
AcDbLine
 10
190.4512096919
 20
65.0156217959
 30
0.0
 11
190.4512096919
 21
141.5948811372
 31
0.0
  0
LINE
  5
AD
330
1F
100
AcDbEntity
  8
0
  6
Continuous
 62
     7
370
    15
100
AcDbLine
 10
190.4512096919
 20
65.0156217959
 30
0.0
 11
194.5680481845
 21
65.0156217959
 31
0.0
  0
LINE
  5
AE
330
1F
100
AcDbEntity
  8
0
  6
Continuous
 62
     7
370
    15
100
AcDbLine
 10
194.5680481845
 20
141.5948811372
 30
0.0
 11
190.4512096919
 21
141.5948811372
 31
0.0
  0
SPLINE
  5
AF
330
1F
100
AcDbEntity
  8
0
  6
Continuous
 62
     7
370
    15
100
AcDbSpline
210
0.0
220
0.0
230
1.0
 70
     8
 71
     3
 72
    14
 73
    10
 74
     0
 42
0.000000001
 43
0.00000001
 40
0.0
 40
0.0
 40
0.0
 40
0.0
 40
0.25
 40
0.25
 40
0.5
 40
0.5
 40
0.75
 40
0.75
 40
1.0
 40
1.0
 40
1.0
 40
1.0
 10
186.1080481844513
 20
68.09711487134452
 30
0.0
 10
186.001603176542
 20
68.0971148713445
 30
0.0
 10
185.8947044252685
 20
68.0745453219114
 30
0.0
 10
185.6984861698261
 20
67.98810223066947
 30
0.0
 10
185.6088278563616
 20
67.92379831300232
 30
0.0
 10
185.4633741434805
 20
67.76882879895938
 30
0.0
 10
185.4053383607543
 20
67.67606331271564
 30
0.0
 10
185.3280532063697
 20
67.47759643107224
 30
0.0
 10
185.3080481844513
 20
67.37057200927848
 30
0.0
 10
185.3080481844513
 20
67.26378964880763
 30
0.0
  0
SPLINE
  5
B0
330
1F
100
AcDbEntity
  8
0
  6
Continuous
 62
     7
370
    15
100
AcDbSpline
210
0.0
220
0.0
230
1.0
 70
    24
 71
     3
 72
    14
 73
    10
 74
     0
 42
0.000000001
 43
0.00000001
 40
0.0
 40
0.0
 40
0.0
 40
0.0
 40
0.25
 40
0.25
 40
0.5
 40
0.5
 40
0.75
 40
0.75
 40
1.0
 40
1.0
 40
1.0
 40
1.0
 10
186.1080481844513
 20
141.5948811372143
 30
0.0
 10
185.985066884905
 20
141.5948811372143
 30
0.0
 10
185.864876996503
 20
141.5948811372143
 30
0.0
 10
185.6598531668238
 20
141.5948811372143
 30
0.0
 10
185.5732586780217
 20
141.5948811372143
 30
0.0
 10
185.4381507912593
 20
141.5948811372143
 30
0.0
 10
185.3896277062312
 20
141.5948811372143
 30
0.0
 10
185.3239451975044
 20
141.5948811372143
 30
0.0
 10
185.3080481844513
 20
141.5948811372143
 30
0.0
 10
185.3080481844513
 20
141.5948811372143
 30
0.0
  0
SPLINE
  5
B1
330
1F
100
AcDbEntity
  8
0
  6
Continuous
 62
     7
370
    15
100
AcDbSpline
210
0.0
220
0.0
230
1.0
 70
     8
 71
     3
 72
    14
 73
    10
 74
     0
 42
0.000000001
 43
0.00000001
 40
0.0
 40
0.0
 40
0.0
 40
0.0
 40
0.25
 40
0.25
 40
0.5
 40
0.5
 40
0.75
 40
0.75
 40
1.0
 40
1.0
 40
1.0
 40
1.0
 10
189.1280481844513
 20
67.26378964880766
 30
0.0
 10
189.1280481844513
 20
67.37085363514846
 30
0.0
 10
189.1080643582113
 20
67.47759296152297
 30
0.0
 10
189.0306292757778
 20
67.67634286371377
 30
0.0
 10
188.9726903536184
 20
67.76889708020629
 30
0.0
 10
188.8270525478576
 20
67.92399402361188
 30
0.0
 10
188.7382635515222
 20
67.98773418052473
 30
0.0
 10
188.5417151913177
 20
68.07448273761234
 30
0.0
 10
188.4355759616184
 20
68.0971148713445
 30
0.0
 10
188.3280481844513
 20
68.0971148713445
 30
0.0
  0
SPLINE
  5
B2
330
1F
100
AcDbEntity
  8
0
  6
Continuous
 62
     7
370
    15
100
AcDbSpline
210
0.0
220
0.0
230
1.0
 70
    24
 71
     3
 72
    14
 73
    10
 74
     0
 42
0.000000001
 43
0.00000001
 40
0.0
 40
0.0
 40
0.0
 40
0.0
 40
0.25
 40
0.25
 40
0.5
 40
0.5
 40
0.75
 40
0.75
 40
1.0
 40
1.0
 40
1.0
 40
1.0
 10
189.1280481844513
 20
141.5948811372143
 30
0.0
 10
189.1280481844513
 20
141.5948811372143
 30
0.0
 10
189.1117671496755
 20
141.5948811372143
 30
0.0
 10
189.0471040871509
 20
141.5948811372143
 30
0.0
 10
188.9976242908622
 20
141.5948811372143
 30
0.0
 10
188.8636545337234
 20
141.5948811372143
 30
0.0
 10
188.777539807124
 20
141.5948811372143
 30
0.0
 10
188.572083691411
 20
141.5948811372143
 30
0.0
 10
188.4506631542181
 20
141.5948811372143
 30
0.0
 10
188.3280481844513
 20
141.5948811372143
 30
0.0
  0
LINE
  5
B3
330
1F
100
AcDbEntity
  8
0
  6
Continuous
 62
     7
370
    15
100
AcDbLine
 10
188.3280481845
 20
68.0971148713
 30
0.0
 11
186.1080481845
 21
68.0971148713
 31
0.0
  0
LINE
  5
B4
330
1F
100
AcDbEntity
  8
0
  6
Continuous
 62
     7
370
    15
100
AcDbLine
 10
188.3280481845
 20
141.5948811372
 30
0.0
 11
186.1080481845
 21
141.5948811372
 31
0.0
  0
LINE
  5
B5
330
1F
100
AcDbEntity
  8
0
  6
Continuous
 62
     7
370
    15
100
AcDbLine
 10
176.1180481845
 20
76.8198811372
 30
0.0
 11
176.1180481845
 21
146.6698811372
 31
0.0
  0
LINE
  5
B6
330
1F
100
AcDbEntity
  8
0
  6
Continuous
 62
     7
370
    15
100
AcDbLine
 10
188.3280481844
 20
155.3926474031
 30
0.0
 11
186.1080481845
 21
155.3926474031
 31
0.0
  0
LINE
  5
B7
330
1F
100
AcDbEntity
  8
0
  6
Continuous
 62
     7
370
    15
100
AcDbLine
 10
186.1080481845
 20
146.0847631987
 30
0.0
 11
188.3280481845
 21
146.0847631987
 31
0.0
  0
SPLINE
  5
B8
330
1F
100
AcDbEntity
  8
0
  6
Continuous
 62
     7
370
    15
100
AcDbSpline
210
0.0
220
0.0
230
1.0
 70
     8
 71
     3
 72
    12
 73
     8
 74
     0
 42
0.000000001
 43
0.00000001
 40
0.0
 40
0.0
 40
0.0
 40
0.0
 40
0.2500000000000007
 40
0.2500000000000007
 40
0.5000000000000014
 40
0.5000000000000014
 40
1.0
 40
1.0
 40
1.0
 40
1.0
 10
186.1080481844513
 20
155.3926474030841
 30
0.0
 10
186.0017032045753
 20
155.3926474030841
 30
0.0
 10
185.8944268571728
 20
155.4153626409436
 30
0.0
 10
185.6990510677766
 20
155.5013878078259
 30
0.0
 10
185.6104973316997
 20
155.5643665347543
 30
0.0
 10
185.3892394075684
 20
155.7995580451914
 30
0.0
 10
185.3080481844513
 20
156.0127342596767
 30
0.0
 10
185.3080481844513
 20
156.2259726256207
 30
0.0
  0
SPLINE
  5
B9
330
1F
100
AcDbEntity
  8
0
  6
Continuous
 62
     7
370
    15
100
AcDbSpline
210
0.0
220
0.0
230
1.0
 70
     8
 71
     3
 72
    12
 73
     8
 74
     0
 42
0.000000001
 43
0.00000001
 40
0.0
 40
0.0
 40
0.0
 40
0.0
 40
0.499999999999994
 40
0.499999999999994
 40
0.749999999999997
 40
0.749999999999997
 40
1.0
 40
1.0
 40
1.0
 40
1.0
 10
185.3080481844513
 20
147.1379242389313
 30
0.0
 10
185.3080481844513
 20
146.8955011429506
 30
0.0
 10
185.3709693258931
 20
146.6497306223492
 30
0.0
 10
185.5729982228956
 20
146.3447844429323
 30
0.0
 10
185.6592919475428
 20
146.2541915763339
 30
0.0
 10
185.8647657421095
 20
146.1237580133971
 30
0.0
 10
185.9847163027092
 20
146.0847631987474
 30
0.0
 10
186.1080481844513
 20
146.0847631987473
 30
0.0
  0
SPLINE
  5
BA
330
1F
100
AcDbEntity
  8
0
  6
Continuous
 62
     7
370
    15
100
AcDbSpline
210
0.0
220
0.0
230
1.0
 70
     8
 71
     3
 72
    12
 73
     8
 74
     0
 42
0.000000001
 43
0.00000001
 40
0.0
 40
0.0
 40
0.0
 40
0.0
 40
0.4999999999999927
 40
0.4999999999999927
 40
0.7499999999999963
 40
0.7499999999999963
 40
1.0
 40
1.0
 40
1.0
 40
1.0
 10
195.1680481844513
 20
158.0398680904447
 30
0.0
 10
195.1680481844513
 20
158.1600606971099
 30
0.0
 10
195.1140797541822
 20
158.277967997625
 30
0.0
 10
194.9529931132493
 20
158.4173475421083
 30
0.0
 10
194.8882306937762
 20
158.4555128396722
 30
0.0
 10
194.7361766922118
 20
158.5101651020057
 30
0.0
 10
194.6534469190626
 20
158.5247257919899
 30
0.0
 10
194.5680481844513
 20
158.5247257919899
 30
0.0
  0
SPLINE
  5
BB
330
1F
100
AcDbEntity
  8
0
  6
Continuous
 62
     7
370
    15
100
AcDbSpline
210
0.0
220
0.0
230
1.0
 70
     8
 71
     3
 72
    12
 73
     8
 74
     0
 42
0.000000001
 43
0.00000001
 40
0.0
 40
0.0
 40
0.0
 40
0.0
 40
0.250000000000004
 40
0.250000000000004
 40
0.500000000000008
 40
0.500000000000008
 40
1.0
 40
1.0
 40
1.0
 40
1.0
 10
194.5680481844518
 20
150.2559590888895
 30
0.0
 10
194.6575852426229
 20
150.2559590888894
 30
0.0
 10
194.7474844214115
 20
150.2291317900584
 30
0.0
 10
194.9009092804108
 20
150.1374248247989
 30
0.0
 10
194.9659583377885
 20
150.0731698832
 30
0.0
 10
195.1192775690528
 20
149.8537577371385
 30
0.0
 10
195.1680481844513
 20
149.6719424273416
 30
0.0
 10
195.1680481844513
 20
149.4939622518586
 30
0.0
  0
LINE
  5
BC
330
1F
100
AcDbEntity
  8
0
  6
Continuous
 62
     7
370
    15
100
AcDbLine
 10
195.1680481845
 20
149.4939622519
 30
0.0
 11
195.1680481845
 21
158.0398680904
 31
0.0
  0
LINE
  5
BD
330
1F
100
AcDbEntity
  8
0
  6
Continuous
 62
     7
370
    15
100
AcDbLine
 10
183.984886677
 20
158.524725792
 30
0.0
 11
179.9180481845
 21
158.524725792
 31
0.0
  0
LINE
  5
BE
330
1F
100
AcDbEntity
  8
0
  6
Continuous
 62
     7
370
    15
100
AcDbLine
 10
183.984886677
 20
150.2559590889
 30
0.0
 11
183.984886677
 21
158.524725792
 31
0.0
  0
LINE
  5
BF
330
1F
100
AcDbEntity
  8
0
  6
Continuous
 62
     7
370
    15
100
AcDbLine
 10
179.9180481845
 20
150.2559590889
 30
0.0
 11
183.984886677
 21
150.2559590889
 31
0.0
  0
LINE
  5
C0
330
1F
100
AcDbEntity
  8
0
  6
Continuous
 62
     7
370
    15
100
AcDbLine
 10
194.5680481845
 20
158.524725792
 30
0.0
 11
190.4512096919
 21
158.524725792
 31
0.0
  0
LINE
  5
C1
330
1F
100
AcDbEntity
  8
0
  6
Continuous
 62
     7
370
    15
100
AcDbLine
 10
190.4512096919
 20
150.2559590889
 30
0.0
 11
194.5680481845
 21
150.2559590889
 31
0.0
  0
LINE
  5
C2
330
1F
100
AcDbEntity
  8
0
  6
Continuous
 62
     7
370
    15
100
AcDbLine
 10
190.4512096919
 20
150.2559590889
 30
0.0
 11
190.4512096919
 21
158.524725792
 31
0.0
  0
SPLINE
  5
C3
330
1F
100
AcDbEntity
  8
0
  6
Continuous
 62
     7
370
    15
100
AcDbSpline
210
0.0
220
0.0
230
1.0
 70
     8
 71
     3
 72
    12
 73
     8
 74
     0
 42
0.000000001
 43
0.00000001
 40
0.0
 40
0.0
 40
0.0
 40
0.0
 40
0.5000000000000003
 40
0.5000000000000003
 40
0.7500000000000001
 40
0.7500000000000001
 40
1.0
 40
1.0
 40
1.0
 40
1.0
 10
179.3180481844513
 20
149.4939622518586
 30
0.0
 10
179.3180481844513
 20
149.6723225190979
 30
0.0
 10
179.3653603058273
 20
149.8510949308019
 30
0.0
 10
179.5197203837087
 20
150.0728567961536
 30
0.0
 10
179.5846059186276
 20
150.1371488347701
 30
0.0
 10
179.7398386178559
 20
150.2297933189297
 30
0.0
 10
179.8289140305241
 20
150.2559590888895
 30
0.0
 10
179.9180481844513
 20
150.2559590888895
 30
0.0
  0
SPLINE
  5
C4
330
1F
100
AcDbEntity
  8
0
  6
Continuous
 62
     7
370
    15
100
AcDbSpline
210
0.0
220
0.0
230
1.0
 70
     8
 71
     3
 72
     8
 73
     4
 74
     0
 42
0.000000001
 43
0.00000001
 40
0.0
 40
0.0
 40
0.0
 40
0.0
 40
1.0
 40
1.0
 40
1.0
 40
1.0
 10
183.9848866769894
 20
150.2559590888895
 30
0.0
 10
184.431735404917
 20
149.2767231906331
 30
0.0
 10
184.8731017628129
 20
148.2955211979063
 30
0.0
 10
185.3080481844513
 20
147.3120168795239
 30
0.0
  0
SPLINE
  5
C5
330
1F
100
AcDbEntity
  8
0
  6
Continuous
 62
     7
370
    15
100
AcDbSpline
210
0.0
220
0.0
230
1.0
 70
     8
 71
     3
 72
    14
 73
    10
 74
     0
 42
0.000000001
 43
0.00000001
 40
0.0
 40
0.0
 40
0.0
 40
0.0
 40
0.25
 40
0.25
 40
0.5
 40
0.5
 40
0.75
 40
0.75
 40
1.0
 40
1.0
 40
1.0
 40
1.0
 10
188.3280481844513
 20
146.0847631987473
 30
0.0
 10
188.449374714437
 20
146.0847631987474
 30
0.0
 10
188.5710794229992
 20
146.1235447141805
 30
0.0
 10
188.7775193018854
 20
146.2546993358744
 30
0.0
 10
188.8634698403415
 20
146.3453514204615
 30
0.0
 10
188.9973816000897
 20
146.5474684554028
 30
0.0
 10
189.0469460369089
 20
146.661203398942
 30
0.0
 10
189.1118000648768
 20
146.8941630160085
 30
0.0
 10
189.1280481844513
 20
147.0168612823377
 30
0.0
 10
189.1280481844513
 20
147.1379242389313
 30
0.0
  0
SPLINE
  5
C6
330
1F
100
AcDbEntity
  8
0
  6
Continuous
 62
     7
370
    15
100
AcDbSpline
210
0.0
220
0.0
230
1.0
 70
     8
 71
     3
 72
     8
 73
     4
 74
     0
 42
0.000000001
 43
0.00000001
 40
0.0
 40
0.0
 40
0.0
 40
0.0
 40
1.0
 40
1.0
 40
1.0
 40
1.0
 10
189.1280481844513
 20
147.3120168795239
 30
0.0
 10
189.5629946060897
 20
148.2955211979063
 30
0.0
 10
190.0043609639855
 20
149.2767231906331
 30
0.0
 10
190.4512096919132
 20
150.2559590888894
 30
0.0
  0
LINE
  5
C7
330
1F
100
AcDbEntity
  8
0
  6
Continuous
 62
     7
370
    15
100
AcDbLine
 10
189.1280481845
 20
147.1379242389
 30
0.0
 11
189.1280481845
 21
147.3120168795
 31
0.0
  0
LINE
  5
C8
330
1F
100
AcDbEntity
  8
0
  6
Continuous
 62
     7
370
    15
100
AcDbLine
 10
185.3080481845
 20
147.3120168795
 30
0.0
 11
185.3080481845
 21
147.1379242389
 31
0.0
  0
LINE
  5
C9
330
1F
100
AcDbEntity
  8
0
  6
Continuous
 62
     7
370
    15
100
AcDbLine
 10
195.1680481845
 20
149.4939622519
 30
0.0
 11
195.1680481845
 21
141.5948811372
 31
0.0
  0
LINE
  5
CA
330
1F
100
AcDbEntity
  8
0
  6
Continuous
 62
     7
370
    15
100
AcDbLine
 10
179.3180481845
 20
149.4939622519
 30
0.0
 11
179.3180481845
 21
141.5948811372
 31
0.0
  0
SPLINE
  5
CB
330
1F
100
AcDbEntity
  8
0
  6
Continuous
 62
     7
370
    15
100
AcDbSpline
210
0.0
220
0.0
230
1.0
 70
     8
 71
     3
 72
     8
 73
     4
 74
     0
 42
0.000000001
 43
0.00000001
 40
0.0
 40
0.0
 40
0.0
 40
0.0
 40
0.0012352705496723
 40
0.0012352705496723
 40
0.0012352705496723
 40
0.0012352705496723
 10
184.5413771622839
 20
157.7449143818834
 30
0.0
 10
184.356341911482
 20
158.0050159576116
 30
0.0
 10
184.1708351023112
 20
158.2649500362386
 30
0.0
 10
183.9848866769894
 20
158.5247257919899
 30
0.0
  0
SPLINE
  5
CC
330
1F
100
AcDbEntity
  8
0
  6
Continuous
 62
     7
370
    15
100
AcDbSpline
210
0.0
220
0.0
230
1.0
 70
     8
 71
     3
 72
     8
 73
     4
 74
     0
 42
0.000000001
 43
0.00000001
 40
0.0
 40
0.0
 40
0.0
 40
0.0
 40
1.0
 40
1.0
 40
1.0
 40
1.0
 10
185.3080481844513
 20
156.3646205460441
 30
0.0
 10
185.0527168711459
 20
156.8248415663097
 30
0.0
 10
184.7971534730397
 20
157.2849360266181
 30
0.0
 10
184.5413771622839
 20
157.7449143818834
 30
0.0
  0
LINE
  5
CD
330
1F
100
AcDbEntity
  8
0
  6
Continuous
 62
     7
370
    15
100
AcDbLine
 10
185.3080481845
 20
147.3120168795
 30
0.0
 11
185.3080481845
 21
156.364620546
 31
0.0
  0
SPLINE
  5
CE
330
1F
100
AcDbEntity
  8
0
  6
Continuous
 62
     7
370
    15
100
AcDbSpline
210
0.0
220
0.0
230
1.0
 70
     8
 71
     3
 72
    14
 73
    10
 74
     0
 42
0.000000001
 43
0.00000001
 40
0.0
 40
0.0
 40
0.0
 40
0.0
 40
0.25
 40
0.25
 40
0.5
 40
0.5
 40
0.75
 40
0.75
 40
1.0
 40
1.0
 40
1.0
 40
1.0
 10
189.1280481844513
 20
156.2259726256209
 30
0.0
 10
189.1280481844513
 20
156.1186302534734
 30
0.0
 10
189.1080519923871
 20
156.0120012466257
 30
0.0
 10
189.0303539080424
 20
155.8128494674744
 30
0.0
 10
188.9723607631489
 20
155.720366569159
 30
0.0
 10
188.826314270326
 20
155.5651307340498
 30
0.0
 10
188.7369765311583
 20
155.5013967924374
 30
0.0
 10
188.5422215190979
 20
155.4155665260423
 30
0.0
 10
188.434691247889
 20
155.3926474030837
 30
0.0
 10
188.3280481844492
 20
155.3926474030841
 30
0.0
  0
SPLINE
  5
CF
330
1F
100
AcDbEntity
  8
0
  6
Continuous
 62
     7
370
    15
100
AcDbSpline
210
0.0
220
0.0
230
1.0
 70
     8
 71
     3
 72
    10
 73
     6
 74
     0
 42
0.000000001
 43
0.00000001
 40
0.0
 40
0.0
 40
0.0
 40
0.0
 40
0.5
 40
0.5
 40
1.0
 40
1.0
 40
1.0
 40
1.0
 10
179.6079171033976
 20
158.4550454629371
 30
0.0
 10
179.5314640134788
 20
158.3847826917164
 30
0.0
 10
179.4626022912097
 20
158.2976877766747
 30
0.0
 10
179.3560900601368
 20
158.0885186484225
 30
0.0
 10
179.3180481844512
 20
157.9632010991829
 30
0.0
 10
179.3180481844512
 20
157.8338508045869
 30
0.0
  0
SPLINE
  5
D0
330
1F
100
AcDbEntity
  8
0
  6
Continuous
 62
     7
370
    15
100
AcDbSpline
210
0.0
220
0.0
230
1.0
 70
     8
 71
     3
 72
     8
 73
     4
 74
     0
 42
0.000000001
 43
0.00000001
 40
0.0
 40
0.0
 40
0.0
 40
0.0
 40
1.0
 40
1.0
 40
1.0
 40
1.0
 10
179.9180481844513
 20
158.5247257919899
 30
0.0
 10
179.8069699991138
 20
158.5247257919899
 30
0.0
 10
179.6993059952116
 20
158.4995766164353
 30
0.0
 10
179.6079171033976
 20
158.4550454629371
 30
0.0
  0
LINE
  5
D1
330
1F
100
AcDbEntity
  8
0
  6
Continuous
 62
     7
370
    15
100
AcDbLine
 10
179.3180481845
 20
149.4939622519
 30
0.0
 11
179.3180481845
 21
157.8338508046
 31
0.0
  0
SPLINE
  5
D2
330
1F
100
AcDbEntity
  8
0
  6
Continuous
 62
     7
370
    15
100
AcDbSpline
210
0.0
220
0.0
230
1.0
 70
     8
 71
     3
 72
     8
 73
     4
 74
     0
 42
0.000000001
 43
0.00000001
 40
0.0
 40
0.0
 40
0.0
 40
0.0
 40
1.0
 40
1.0
 40
1.0
 40
1.0
 10
189.8947192066177
 20
157.7449143818817
 30
0.0
 10
189.6389428958623
 20
157.2849360266169
 30
0.0
 10
189.3833794977563
 20
156.8248415663091
 30
0.0
 10
189.1280481844513
 20
156.3646205460441
 30
0.0
  0
SPLINE
  5
D3
330
1F
100
AcDbEntity
  8
0
  6
Continuous
 62
     7
370
    15
100
AcDbSpline
210
0.0
220
0.0
230
1.0
 70
     8
 71
     3
 72
     8
 73
     4
 74
     0
 42
0.000000001
 43
0.00000001
 40
0.0
 40
0.0
 40
0.0
 40
0.0
 40
0.0012352705496738
 40
0.0012352705496738
 40
0.0012352705496738
 40
0.0012352705496738
 10
190.4512096919132
 20
158.5247257919899
 30
0.0
 10
190.2652612665911
 20
158.2649500362382
 30
0.0
 10
190.07975445742
 20
158.0050159576109
 30
0.0
 10
189.8947192066179
 20
157.7449143818822
 30
0.0
  0
LINE
  5
D4
330
1F
100
AcDbEntity
  8
0
  6
Continuous
 62
     7
370
    15
100
AcDbLine
 10
189.1280481845
 20
147.3120168795
 30
0.0
 11
189.1280481845
 21
156.364620546
 31
0.0
  0
LINE
  5
D5
330
1F
100
AcDbEntity
  8
0
  6
Continuous
 62
     7
370
    15
100
AcDbLine
 10
74.5180481845
 20
93.3660366098
 30
0.0
 11
74.5180481845
 21
130.12372562
 31
0.0
  0
LINE
  5
D6
330
1F
100
AcDbEntity
  8
0
  6
Continuous
 62
     7
370
    15
100
AcDbLine
 10
229.1180481845
 20
111.7448811372
 30
0.0
 11
229.1180481845
 21
92.6448811372
 31
0.0
  0
LINE
  5
D7
330
1F
100
AcDbEntity
  8
0
  6
Continuous
 62
     7
370
    15
100
AcDbLine
 10
229.1180481845
 20
130.8448811372
 30
0.0
 11
229.1180481845
 21
111.7448811372
 31
0.0
  0
LINE
  5
D8
330
1F
100
AcDbEntity
  8
0
  6
Continuous
 62
     7
370
    15
100
AcDbLine
 10
228.7180481845
 20
111.7448811372
 30
0.0
 11
228.7180481845
 21
92.2448811372
 31
0.0
  0
LINE
  5
D9
330
1F
100
AcDbEntity
  8
0
  6
Continuous
 62
     7
370
    15
100
AcDbLine
 10
228.7180481845
 20
131.2448811372
 30
0.0
 11
228.7180481845
 21
111.7448811372
 31
0.0
  0
SPLINE
  5
DA
330
1F
100
AcDbEntity
  8
0
  6
Continuous
 62
     7
370
    15
100
AcDbSpline
210
0.0
220
0.0
230
1.0
 70
    11
 71
     3
 72
    77
 73
    73
 74
     0
 42
0.000000001
 43
0.00000001
 40
0.0
 40
0.0
 40
0.0
 40
0.0
 40
0.0312499999999998
 40
0.0312499999999998
 40
0.0624999999999996
 40
0.0624999999999996
 40
0.0937499999999994
 40
0.0937499999999994
 40
0.1249999999999992
 40
0.1249999999999992
 40
0.156249999999999
 40
0.156249999999999
 40
0.1874999999999988
 40
0.1874999999999988
 40
0.2187499999999986
 40
0.2187499999999986
 40
0.2499999999999984
 40
0.2499999999999984
 40
0.2812499999999982
 40
0.2812499999999982
 40
0.3124999999999981
 40
0.3124999999999981
 40
0.3437499999999979
 40
0.3437499999999979
 40
0.3593749999999978
 40
0.3593749999999978
 40
0.3749999999999977
 40
0.3906249999999976
 40
0.3906249999999976
 40
0.4062499999999974
 40
0.4062499999999974
 40
0.4374999999999972
 40
0.4374999999999972
 40
0.468749999999997
 40
0.468749999999997
 40
0.4999999999999967
 40
0.4999999999999967
 40
0.5312499999999964
 40
0.5312499999999964
 40
0.5624999999999963
 40
0.5624999999999963
 40
0.5937499999999961
 40
0.5937499999999961
 40
0.6249999999999959
 40
0.6249999999999959
 40
0.6562499999999957
 40
0.6562499999999957
 40
0.6874999999999956
 40
0.6874999999999956
 40
0.7187499999999953
 40
0.7187499999999953
 40
0.7499999999999951
 40
0.7499999999999951
 40
0.7656249999999952
 40
0.7656249999999952
 40
0.7812499999999953
 40
0.7812499999999953
 40
0.812499999999996
 40
0.812499999999996
 40
0.8437499999999968
 40
0.8437499999999968
 40
0.8749999999999974
 40
0.8749999999999974
 40
0.8906249999999978
 40
0.8906249999999978
 40
0.9062499999999981
 40
0.9062499999999981
 40
0.9374999999999987
 40
0.9374999999999987
 40
0.9687499999999993
 40
0.9687499999999993
 40
1.0
 40
1.0
 40
1.0
 40
1.0
 10
215.717648128921
 20
115.0632403550897
 30
0.0
 10
215.9599947776599
 20
115.2597120745865
 30
0.0
 10
216.2171159324587
 20
115.4301333516477
 30
0.0
 10
216.7585250408638
 20
115.7237376325157
 30
0.0
 10
217.0448455702862
 20
115.8475124476268
 30
0.0
 10
217.6363677040369
 20
116.0439083775101
 30
0.0
 10
217.9373724172864
 20
116.1155445292439
 30
0.0
 10
218.5494975008029
 20
116.2079627175881
 30
0.0
 10
218.8636036971218
 20
116.2285621406115
 30
0.0
 10
219.4861289101424
 20
116.2165468978451
 30
0.0
 10
219.7936874767396
 20
116.1845624726008
 30
0.0
 10
220.4014889514584
 20
116.0691095754924
 30
0.0
 10
220.7046660379899
 20
115.9843654022771
 30
0.0
 10
221.2848433377289
 20
115.7659546665793
 30
0.0
 10
221.5623458411068
 20
115.6328891138185
 30
0.0
 10
222.0917950026724
 20
115.317712570787
 30
0.0
 10
222.3462069731492
 20
115.1331014784235
 30
0.0
 10
222.808390898965
 20
114.724353215964
 30
0.0
 10
223.0176963210461
 20
114.5001340487394
 30
0.0
 10
223.3901875000119
 20
114.0091309349367
 30
0.0
 10
223.5542357027115
 20
113.7390680691035
 30
0.0
 10
223.8147447717149
 20
113.1794488204777
 30
0.0
 10
223.9137826348735
 20
112.8875813167766
 30
0.0
 10
224.0117710909113
 20
112.430120138256
 30
0.0
 10
224.0358263518803
 20
112.2738948611099
 30
0.0
 10
224.0650633327531
 20
111.9638492572647
 30
0.0
 10
224.0760276465204
 20
111.6539927211533
 30
0.0
 10
224.0509304149959
 20
111.3445094499464
 30
0.0
 10
224.0074671083717
 20
111.0352161259746
 30
0.0
 10
223.9763372700485
 20
110.8803882257179
 30
0.0
 10
223.858047954809
 20
110.4284628478502
 30
0.0
 10
223.7458748938556
 20
110.1396047849643
 30
0.0
 10
223.4576555403127
 20
109.5855374829462
 30
0.0
 10
223.2843337006085
 20
109.3263972741063
 30
0.0
 10
222.8905695342761
 20
108.8496136157189
 30
0.0
 10
222.6667798461111
 20
108.628737685562
 30
0.0
 10
222.1868091843389
 20
108.237869175954
 30
0.0
 10
221.9300180123717
 20
108.0663012173785
 30
0.0
 10
221.3838705882048
 20
107.7687754971576
 30
0.0
 10
221.0963249364979
 20
107.6444148394506
 30
0.0
 10
220.5094955609865
 20
107.448628365057
 30
0.0
 10
220.2079394410902
 20
107.3759257509209
 30
0.0
 10
219.5881528394764
 20
107.2817229706664
 30
0.0
 10
219.2775766186084
 20
107.2614869858726
 30
0.0
 10
218.6584945736226
 20
107.2726741920942
 30
0.0
 10
218.3486411928374
 20
107.3041574698425
 30
0.0
 10
217.7331353928839
 20
107.4207918988058
 30
0.0
 10
217.4349701047024
 20
107.5043837549705
 30
0.0
 10
216.8573114160827
 20
107.7212127139245
 30
0.0
 10
216.5763586126159
 20
107.8552903411195
 30
0.0
 10
216.0409604250212
 20
108.1740688276843
 30
0.0
 10
215.7918646262048
 20
108.3552251476133
 30
0.0
 10
215.4463500841904
 20
108.6603287482065
 30
0.0
 10
215.3358998573169
 20
108.767630716958
 30
0.0
 10
215.1249304708277
 20
108.9940966563638
 30
0.0
 10
215.0238243714947
 20
109.1140923906409
 30
0.0
 10
214.7423266114337
 20
109.4857638703569
 30
0.0
 10
214.5827942433287
 20
109.7490503515677
 30
0.0
 10
214.3221800739063
 20
110.3081745446174
 30
0.0
 10
214.2204835584298
 20
110.6086987958384
 30
0.0
 10
214.0911677108607
 20
111.2165019555785
 30
0.0
 10
214.0618320059407
 20
111.5248085764762
 30
0.0
 10
214.0727798424595
 20
111.9941344776294
 30
0.0
 10
214.0858386366867
 20
112.1517534567757
 30
0.0
 10
214.129706910894
 20
112.4604310637696
 30
0.0
 10
214.160500889338
 20
112.6126309350092
 30
0.0
 10
214.2787194464438
 20
113.0630056904673
 30
0.0
 10
214.3937663472467
 20
113.3580532463377
 30
0.0
 10
214.6813278670513
 20
113.9086691186709
 30
0.0
 10
214.8535414145978
 20
114.1662434920485
 30
0.0
 10
215.2524502962911
 20
114.6477911098117
 30
0.0
 10
215.4753014801821
 20
114.8667686355929
 30
0.0
 10
215.717648128921
 20
115.0632403550897
 30
0.0
  0
CIRCLE
  5
DB
330
1F
100
AcDbEntity
  8
0
  6
HIDDEN
 62
     7
370
     0
100
AcDbCircle
 10
219.0680481845
 20
111.7448811372
 30
0.0
 40
2.953589838486214
  0
CIRCLE
  5
DC
330
1F
100
AcDbEntity
  8
0
  6
HIDDEN
 62
     7
370
     0
100
AcDbCircle
 10
219.0680481845
 20
111.7448811372
 30
0.0
 40
2.753589838486229
  0
CIRCLE
  5
DD
330
1F
100
AcDbEntity
  8
0
  6
HIDDEN
 62
     7
370
     0
100
AcDbCircle
 10
219.0680481845
 20
111.7448811372
 30
0.0
 40
3.625
  0
LINE
  5
DE
330
1F
100
AcDbEntity
  8
0
  6
HIDDEN
 62
     7
370
     0
100
AcDbLine
 10
179.4896210597
 20
76.4448811372
 30
0.0
 11
179.3180481845
 21
76.4448811372
 31
0.0
  0
ELLIPSE
  5
DF
330
1F
100
AcDbEntity
  8
0
  6
HIDDEN
 62
     7
370
     0
100
AcDbEllipse
 10
179.4896210597
 20
74.4448811372
 30
0.0
 11
0.0
 21
2.0
 31
0.0
210
0.0
220
0.0
230
1.0
 40
0.4142135624
 41
4.712388980384695
 42
6.283185307179586
  0
LINE
  5
E0
330
1F
100
AcDbEntity
  8
0
  6
HIDDEN
 62
     7
370
     0
100
AcDbLine
 10
179.3180481845
 20
149.2448811372
 30
0.0
 11
179.4896210597
 21
149.2448811372
 31
0.0
  0
ELLIPSE
  5
E1
330
1F
100
AcDbEntity
  8
0
  6
HIDDEN
 62
     7
370
     0
100
AcDbEllipse
 10
179.4896210597
 20
151.2448811372
 30
0.0
 11
0.0
 21
2.0
 31
0.0
210
0.0
220
0.0
230
1.0
 40
0.4142135624
 41
3.141592653589793
 42
4.712388980384681
  0
LINE
  5
E2
330
1F
100
AcDbEntity
  8
0
  6
HIDDEN
 62
     7
370
     0
100
AcDbLine
 10
180.3180481845
 20
65.5589660702
 30
0.0
 11
179.5337082156
 21
65.11142687
 31
0.0
  0
LINE
  5
E3
330
1F
100
AcDbEntity
  8
0
  6
HIDDEN
 62
     7
370
     0
100
AcDbLine
 10
179.6079171034
 20
158.4550454629
 30
0.0
 11
180.3180481845
 21
157.7449143819
 31
0.0
  0
LINE
  5
E4
330
1F
100
AcDbEntity
  8
0
  6
HIDDEN
 62
     7
370
     0
100
AcDbLine
 10
184.4380003539
 20
65.5589660702
 30
0.0
 11
180.3180481845
 21
65.5589660702
 31
0.0
  0
LINE
  5
E5
330
1F
100
AcDbEntity
  8
0
  6
HIDDEN
 62
     7
370
     0
100
AcDbLine
 10
195.1680481845
 20
65.5589660702
 30
0.0
 11
189.998096015
 21
65.5589660702
 31
0.0
  0
LINE
  5
E6
330
1F
100
AcDbEntity
  8
0
  6
HIDDEN
 62
     7
370
     0
100
AcDbLine
 10
180.3180481845
 20
65.5589660702
 30
0.0
 11
180.3180481845
 21
74.4448811372
 31
0.0
  0
LINE
  5
E7
330
1F
100
AcDbEntity
  8
0
  6
HIDDEN
 62
     7
370
     0
100
AcDbLine
 10
195.1680481845
 20
76.4448811372
 30
0.0
 11
179.4896210597
 21
76.4448811372
 31
0.0
  0
LINE
  5
E8
330
1F
100
AcDbEntity
  8
0
  6
HIDDEN
 62
     7
370
     0
100
AcDbLine
 10
180.3180481845
 20
157.7449143819
 30
0.0
 11
184.5413771623
 21
157.7449143819
 31
0.0
  0
LINE
  5
E9
330
1F
100
AcDbEntity
  8
0
  6
HIDDEN
 62
     7
370
     0
100
AcDbLine
 10
189.8947192066
 20
157.7449143819
 30
0.0
 11
195.1680481845
 21
157.7449143819
 31
0.0
  0
LINE
  5
EA
330
1F
100
AcDbEntity
  8
0
  6
HIDDEN
 62
     7
370
     0
100
AcDbLine
 10
180.3180481845
 20
157.7449143819
 30
0.0
 11
180.3180481845
 21
151.2448811372
 31
0.0
  0
LINE
  5
EB
330
1F
100
AcDbEntity
  8
0
  6
HIDDEN
 62
     7
370
     0
100
AcDbLine
 10
179.4896210597
 20
149.2448811372
 30
0.0
 11
195.1680481845
 21
149.2448811372
 31
0.0
  0
LINE
  5
EC
330
1F
100
AcDbEntity
  8
0
  6
HIDDEN
 62
     7
370
     0
100
AcDbLine
 10
84.5180481845
 20
99.2448811372
 30
0.0
 11
84.5180481845
 21
124.2448811372
 31
0.0
  0
LINE
  5
ED
330
1F
100
AcDbEntity
  8
0
  6
HIDDEN
 62
     7
370
     0
100
AcDbLine
 10
87.8026525334
 20
101.2448811372
 30
0.0
 11
87.8026525334
 21
122.2448811372
 31
0.0
  0
SPLINE
  5
EE
330
1F
100
AcDbEntity
  8
0
  6
HIDDEN
 62
     7
370
     0
100
AcDbSpline
210
0.0
220
0.0
230
1.0
 70
     8
 71
     3
 72
    16
 73
    12
 74
     0
 42
0.000000001
 43
0.00000001
 40
0.0
 40
0.0
 40
0.0
 40
0.0
 40
0.2499999999999997
 40
0.2499999999999997
 40
0.4999999999999994
 40
0.4999999999999994
 40
0.6249999999999993
 40
0.6249999999999993
 40
0.7499999999999991
 40
0.7499999999999991
 40
1.0
 40
1.0
 40
1.0
 40
1.0
 10
229.1180481844513
 20
122.2089862522215
 30
0.0
 10
229.1180481844513
 20
122.1199205837154
 30
0.0
 10
229.1127284442641
 20
122.029058210266
 30
0.0
 10
229.0832913196431
 20
121.8409850938438
 30
0.0
 10
229.0599007735796
 20
121.7428839019412
 30
0.0
 10
228.9917733434828
 20
121.6028555534167
 30
0.0
 10
228.9628117968904
 20
121.5581553869662
 30
0.0
 10
228.8962702539337
 20
121.4880849594928
 30
0.0
 10
228.8588241191371
 20
121.4628825679575
 30
0.0
 10
228.7484548352276
 20
121.4177429213167
 30
0.0
 10
228.6804234974245
 20
121.423341256947
 30
0.0
 10
228.6180481844249
 20
121.4390762081507
 30
0.0
  0
SPLINE
  5
EF
330
1F
100
AcDbEntity
  8
0
  6
HIDDEN
 62
     7
370
     0
100
AcDbSpline
210
0.0
220
0.0
230
1.0
 70
     8
 71
     3
 72
     8
 73
     4
 74
     0
 42
0.000000001
 43
0.00000001
 40
0.0
 40
0.0
 40
0.0
 40
0.0
 40
1.0
 40
1.0
 40
1.0
 40
1.0
 10
228.6180481844258
 20
121.4390762081497
 30
0.0
 10
228.5330087873666
 20
121.3816321168571
 30
0.0
 10
228.4279895364225
 20
121.3408748724441
 30
0.0
 10
228.3180481844516
 20
121.340874872444
 30
0.0
  0
SPLINE
  5
F0
330
1F
100
AcDbEntity
  8
0
  6
HIDDEN
 62
     7
370
     0
100
AcDbSpline
210
0.0
220
0.0
230
1.0
 70
     8
 71
     3
 72
     8
 73
     4
 74
     0
 42
0.000000001
 43
0.00000001
 40
0.0
 40
0.0
 40
0.0
 40
0.0
 40
1.0
 40
1.0
 40
1.0
 40
1.0
 10
228.6180481844694
 20
102.0506860662493
 30
0.0
 10
228.5330087874012
 20
102.1081301575576
 30
0.0
 10
228.4279895364414
 20
102.1488874019844
 30
0.0
 10
228.3180481844516
 20
102.1488874019845
 30
0.0
  0
SPLINE
  5
F1
330
1F
100
AcDbEntity
  8
0
  6
HIDDEN
 62
     7
370
     0
100
AcDbSpline
210
0.0
220
0.0
230
1.0
 70
     8
 71
     3
 72
    16
 73
    12
 74
     0
 42
0.000000001
 43
0.00000001
 40
0.0
 40
0.0
 40
0.0
 40
0.0
 40
0.2499999999999922
 40
0.2499999999999922
 40
0.3749999999999934
 40
0.3749999999999934
 40
0.4999999999999948
 40
0.4999999999999948
 40
0.7499999999999973
 40
0.7499999999999973
 40
1.0
 40
1.0
 40
1.0
 40
1.0
 10
228.6180481844686
 20
102.0506860662484
 30
0.0
 10
228.6801212678236
 20
102.0663448391787
 30
0.0
 10
228.747930551704
 20
102.0719457280842
 30
0.0
 10
228.8577863236378
 20
102.0274483890152
 30
0.0
 10
228.8950932414258
 20
102.0025682617122
 30
0.0
 10
228.9614009235902
 20
101.9334326818079
 30
0.0
 10
228.9903671447399
 20
101.8893081825073
 30
0.0
 10
229.0591790948616
 20
101.7493085857461
 30
0.0
 10
229.0828897689723
 20
101.6506012321222
 30
0.0
 10
229.1125907774183
 20
101.4623131948564
 30
0.0
 10
229.1180481844513
 20
101.3700768171177
 30
0.0
 10
229.1180481844513
 20
101.280776198411
 30
0.0
  0
LINE
  5
F2
330
1F
100
AcDbEntity
  8
0
  6
HIDDEN
 62
     7
370
     0
100
AcDbLine
 10
204.6180481845
 20
111.7448811372
 30
0.0
 11
204.6180481845
 21
101.2448811372
 31
0.0
  0
LINE
  5
F3
330
1F
100
AcDbEntity
  8
0
  6
HIDDEN
 62
     7
370
     0
100
AcDbLine
 10
204.6180481845
 20
122.2448811372
 30
0.0
 11
204.6180481845
 21
111.7448811372
 31
0.0
  0
LINE
  5
F4
330
1F
100
AcDbEntity
  8
0
  6
HIDDEN
 62
     7
370
     0
100
AcDbLine
 10
208.4840735882
 20
111.7448811372
 30
0.0
 11
208.4840735882
 21
100.7448811372
 31
0.0
  0
LINE
  5
F5
330
1F
100
AcDbEntity
  8
0
  6
HIDDEN
 62
     7
370
     0
100
AcDbLine
 10
208.4840735882
 20
122.7448811372
 30
0.0
 11
208.4840735882
 21
111.7448811372
 31
0.0
  0
LINE
  5
F6
330
1F
100
AcDbEntity
  8
0
  6
HIDDEN
 62
     7
370
     0
100
AcDbLine
 10
218.5180481845
 20
121.3408748724
 30
0.0
 11
228.3180481845
 21
121.3408748724
 31
0.0
  0
LINE
  5
F7
330
1F
100
AcDbEntity
  8
0
  6
HIDDEN
 62
     7
370
     0
100
AcDbLine
 10
218.5180481845
 20
102.148887402
 30
0.0
 11
228.3180481845
 21
102.148887402
 31
0.0
  0
LINE
  5
F8
330
1F
100
AcDbEntity
  8
0
  6
HIDDEN
 62
     7
370
     0
100
AcDbLine
 10
136.5180481845
 20
101.2448811372
 30
0.0
 11
136.5180481845
 21
122.2448811372
 31
0.0
  0
LINE
  5
F9
330
1F
100
AcDbEntity
  8
0
  6
HIDDEN
 62
     7
370
     0
100
AcDbLine
 10
140.2734270534
 20
107.4948811372
 30
0.0
 11
140.2734270534
 21
115.9948811372
 31
0.0
  0
SPLINE
  5
FA
330
1F
100
AcDbEntity
  8
0
  6
HIDDEN
 62
     7
370
     0
100
AcDbSpline
210
0.0
220
0.0
230
1.0
 70
     8
 71
     3
 72
    11
 73
     7
 74
     0
 42
0.000000001
 43
0.00000001
 40
0.0
 40
0.0
 40
0.0
 40
0.0
 40
0.2778689205739468
 40
0.6036342525923637
 40
0.9297824902414376
 40
1.0
 40
1.0
 40
1.0
 40
1.0
 10
228.572684367398
 20
127.4315415164679
 30
0.0
 10
228.5698008514106
 20
127.4108003137179
 30
0.0
 10
228.563536786274
 20
127.3657427362314
 30
0.0
 10
228.5903114331934
 20
126.8670484658269
 30
0.0
 10
228.6162001192448
 20
126.2923602362842
 30
0.0
 10
228.6177700752287
 20
125.9207186751806
 30
0.0
 10
228.6180481981501
 20
125.8548811372143
 30
0.0
  0
LINE
  5
FB
330
1F
100
AcDbEntity
  8
0
  6
HIDDEN
 62
     7
370
     0
100
AcDbLine
 10
228.6180481982
 20
125.8548811372
 30
0.0
 11
228.6180481844
 21
121.4390762082
 31
0.0
  0
LINE
  5
FC
330
1F
100
AcDbEntity
  8
0
  6
HIDDEN
 62
     7
370
     0
100
AcDbLine
 10
228.6180481786
 20
97.6348811372
 30
0.0
 11
228.6180481845
 21
102.0506860662
 31
0.0
  0
SPLINE
  5
FD
330
1F
100
AcDbEntity
  8
0
  6
HIDDEN
 62
     7
370
     0
100
AcDbSpline
210
0.0
220
0.0
230
1.0
 70
     8
 71
     3
 72
    12
 73
     8
 74
     0
 42
0.000000001
 43
0.00000001
 40
0.0
 40
0.0
 40
0.0
 40
0.0
 40
0.5
 40
0.5
 40
0.75
 40
0.75
 40
1.0
 40
1.0
 40
1.0
 40
1.0
 10
228.6180481844513
 20
97.63488113721428
 30
0.0
 10
228.6180481844513
 20
97.29218906516631
 30
0.0
 10
228.6172025731793
 20
96.9973239768583
 30
0.0
 10
228.6105884448252
 20
96.62556853650314
 30
0.0
 10
228.6074591375474
 20
96.51575085552186
 30
0.0
 10
228.5999930193911
 20
96.32962150671872
 30
0.0
 10
228.5957792410909
 20
96.25222185156221
 30
0.0
 10
228.5913286331313
 20
96.19116185678661
 30
0.0
  0
SPLINE
  5
FE
330
1F
100
AcDbEntity
  8
0
  6
HIDDEN
 62
     7
370
     0
100
AcDbSpline
210
0.0
220
0.0
230
1.0
 70
     8
 71
     3
 72
    11
 73
     7
 74
     0
 42
0.000000001
 43
0.00000001
 40
0.0
 40
0.0
 40
0.0
 40
0.0
 40
0.0070070275333258
 40
0.3341928103826715
 40
0.6604331475445133
 40
1.0
 40
1.0
 40
1.0
 40
1.0
 10
228.5711703635693
 20
96.03908869979101
 30
0.0
 10
228.5710220998968
 20
96.03795442392581
 30
0.0
 10
228.5639508199361
 20
95.98385632921403
 30
0.0
 10
228.5662412643452
 20
96.21246626408403
 30
0.0
 10
228.6000108084178
 20
96.72648975904545
 30
0.0
 10
228.6119560250442
 20
97.32807035020954
 30
0.0
 10
228.618048178561
 20
97.63488113721428
 30
0.0
  0
LINE
  5
FF
330
1F
100
AcDbEntity
  8
0
  6
HIDDEN
 62
     7
370
     0
100
AcDbLine
 10
218.5180481845
 20
125.8548811372
 30
0.0
 11
218.5180481845
 21
121.3408748724
 31
0.0
  0
LINE
  5
100
330
1F
100
AcDbEntity
  8
0
  6
HIDDEN
 62
     7
370
     0
100
AcDbLine
 10
218.5180481845
 20
97.6348811372
 30
0.0
 11
218.5180481845
 21
102.148887402
 31
0.0
  0
LINE
  5
101
330
1F
100
AcDbEntity
  8
0
  6
HIDDEN
 62
     7
370
     0
100
AcDbLine
 10
218.5180481845
 20
127.4548811372
 30
0.0
 11
218.5180481845
 21
125.8548811372
 31
0.0
  0
LINE
  5
102
330
1F
100
AcDbEntity
  8
0
  6
HIDDEN
 62
     7
370
     0
100
AcDbLine
 10
218.5180481845
 20
96.0348811372
 30
0.0
 11
218.5180481845
 21
97.6348811372
 31
0.0
  0
LINE
  5
103
330
1F
100
AcDbEntity
  8
0
  6
HIDDEN
 62
     7
370
     0
100
AcDbLine
 10
185.3080481845
 20
147.1379242389
 30
0.0
 11
185.3080481845
 21
141.5948811372
 31
0.0
  0
LINE
  5
104
330
1F
100
AcDbEntity
  8
0
  6
HIDDEN
 62
     7
370
     0
100
AcDbLine
 10
189.1280481845
 20
147.1379242389
 30
0.0
 11
189.1280481845
 21
141.5948811372
 31
0.0
  0
LINE
  5
105
330
1F
100
AcDbEntity
  8
0
  6
HIDDEN
 62
     7
370
     0
100
AcDbLine
 10
183.984886677
 20
150.2559590889
 30
0.0
 11
183.984886677
 21
141.5948811372
 31
0.0
  0
LINE
  5
106
330
1F
100
AcDbEntity
  8
0
  6
HIDDEN
 62
     7
370
     0
100
AcDbLine
 10
190.4512096919
 20
150.2559590889
 30
0.0
 11
190.4512096919
 21
141.5948811372
 31
0.0
  0
ARC
  5
107
330
1F
100
AcDbEntity
  8
0
  6
HIDDEN
 62
     7
370
     0
100
AcDbCircle
 10
75.7180481845
 20
98.0448811372
 30
0.0
 40
1.200000000000003
100
AcDbArc
 50
90.0
 51
180.0
  0
ARC
  5
108
330
1F
100
AcDbEntity
  8
0
  6
HIDDEN
 62
     7
370
     0
100
AcDbCircle
 10
75.7180481845
 20
125.4448811372
 30
0.0
 40
1.200000000000017
100
AcDbArc
 50
180.0
 51
270.0
  0
LINE
  5
109
330
1F
100
AcDbEntity
  8
0
  6
HIDDEN
 62
     7
370
     0
100
AcDbLine
 10
85.4104206152
 20
99.0198811372
 30
0.0
 11
86.2871080768
 21
99.0198811372
 31
0.0
  0
LINE
  5
10A
330
1F
100
AcDbEntity
  8
0
  6
HIDDEN
 62
     7
370
     0
100
AcDbLine
 10
86.2871080768
 20
124.4698811372
 30
0.0
 11
85.4104206152
 21
124.4698811372
 31
0.0
  0
ARC
  5
10B
330
1F
100
AcDbEntity
  8
0
  6
HIDDEN
 62
     7
370
     0
100
AcDbCircle
 10
85.4104206152
 20
99.4198811372
 30
0.0
 40
0.4000000000000199
100
AcDbArc
 50
255.0
 51
270.0
  0
ARC
  5
10C
330
1F
100
AcDbEntity
  8
0
  6
HIDDEN
 62
     7
370
     0
100
AcDbCircle
 10
85.4104206152
 20
124.0698811372
 30
0.0
 40
0.4000000000000057
100
AcDbArc
 50
90.0
 51
105.0
  0
ARC
  5
10D
330
1F
100
AcDbEntity
  8
0
  6
HIDDEN
 62
     7
370
     0
100
AcDbCircle
 10
86.2871080768
 20
99.4198811372
 30
0.0
 40
0.4000000000000057
100
AcDbArc
 50
270.0
 51
330.0
  0
ARC
  5
10E
330
1F
100
AcDbEntity
  8
0
  6
HIDDEN
 62
     7
370
     0
100
AcDbCircle
 10
86.2871080768
 20
124.0698811372
 30
0.0
 40
0.3999999999999946
100
AcDbArc
 50
30.0
 51
90.0
  0
LINE
  5
10F
330
1F
100
AcDbEntity
  8
0
  6
HIDDEN
 62
     7
370
     0
100
AcDbLine
 10
85.3068929971
 20
124.4562514677
 30
0.0
 11
84.5180481845
 21
124.2448811372
 31
0.0
  0
LINE
  5
110
330
1F
100
AcDbEntity
  8
0
  6
HIDDEN
 62
     7
370
     0
100
AcDbLine
 10
84.5180481845
 20
99.2448811372
 30
0.0
 11
85.3068929971
 21
99.0335108067
 31
0.0
  0
LINE
  5
111
330
1F
100
AcDbEntity
  8
0
  6
HIDDEN
 62
     7
370
     0
100
AcDbLine
 10
86.6335182383
 20
99.2198811372
 30
0.0
 11
87.8026525334
 21
101.2448811372
 31
0.0
  0
LINE
  5
112
330
1F
100
AcDbEntity
  8
0
  6
HIDDEN
 62
     7
370
     0
100
AcDbLine
 10
87.8026525334
 20
122.2448811372
 30
0.0
 11
86.6335182383
 21
124.2698811372
 31
0.0
  0
LINE
  5
113
330
1F
100
AcDbEntity
  8
0
  6
HIDDEN
 62
     7
370
     0
100
AcDbLine
 10
75.7180481845
 20
99.2448811372
 30
0.0
 11
84.5180481845
 21
99.2448811372
 31
0.0
  0
LINE
  5
114
330
1F
100
AcDbEntity
  8
0
  6
HIDDEN
 62
     7
370
     0
100
AcDbLine
 10
84.5180481845
 20
124.2448811372
 30
0.0
 11
75.7180481845
 21
124.2448811372
 31
0.0
  0
LINE
  5
115
330
1F
100
AcDbEntity
  8
0
  6
HIDDEN
 62
     7
370
     0
100
AcDbLine
 10
206.4863956869
 20
123.2448811372
 30
0.0
 11
205.6180481845
 21
123.2448811372
 31
0.0
  0
LINE
  5
116
330
1F
100
AcDbEntity
  8
0
  6
HIDDEN
 62
     7
370
     0
100
AcDbLine
 10
205.6180481845
 20
100.2448811372
 30
0.0
 11
206.4863956869
 21
100.2448811372
 31
0.0
  0
ARC
  5
117
330
1F
100
AcDbEntity
  8
0
  6
HIDDEN
 62
     7
370
     0
100
AcDbCircle
 10
205.6180481845
 20
122.2448811372
 30
0.0
 40
1.0
100
AcDbArc
 50
90.0
 51
180.0
  0
ARC
  5
118
330
1F
100
AcDbEntity
  8
0
  6
HIDDEN
 62
     7
370
     0
100
AcDbCircle
 10
205.6180481845
 20
101.2448811372
 30
0.0
 40
1.0
100
AcDbArc
 50
180.0
 51
270.0
  0
ARC
  5
119
330
1F
100
AcDbEntity
  8
0
  6
HIDDEN
 62
     7
370
     0
100
AcDbCircle
 10
206.4863956869
 20
122.2448811372
 30
0.0
 40
1.000000000000009
100
AcDbArc
 50
75.0
 51
90.0
  0
ARC
  5
11A
330
1F
100
AcDbEntity
  8
0
  6
HIDDEN
 62
     7
370
     0
100
AcDbCircle
 10
206.4863956869
 20
101.2448811372
 30
0.0
 40
1.000000000000009
100
AcDbArc
 50
270.0
 51
285.0
  0
LINE
  5
11B
330
1F
100
AcDbEntity
  8
0
  6
HIDDEN
 62
     7
370
     0
100
AcDbLine
 10
206.745214732
 20
100.2789553109
 30
0.0
 11
208.4840735882
 21
100.7448811372
 31
0.0
  0
LINE
  5
11C
330
1F
100
AcDbEntity
  8
0
  6
HIDDEN
 62
     7
370
     0
100
AcDbLine
 10
208.4840735882
 20
122.7448811372
 30
0.0
 11
206.745214732
 21
123.2108069635
 31
0.0
  0
LINE
  5
11D
330
1F
100
AcDbEntity
  8
0
  6
HIDDEN
 62
     7
370
     0
100
AcDbLine
 10
218.5180481845
 20
122.7448811372
 30
0.0
 11
208.4840735882
 21
122.7448811372
 31
0.0
  0
LINE
  5
11E
330
1F
100
AcDbEntity
  8
0
  6
HIDDEN
 62
     7
370
     0
100
AcDbLine
 10
208.4840735882
 20
100.7448811372
 30
0.0
 11
218.5180481845
 21
100.7448811372
 31
0.0
  0
LINE
  5
11F
330
1F
100
AcDbEntity
  8
0
  6
HIDDEN
 62
     7
370
     0
100
AcDbLine
 10
87.8026525334
 20
101.2448811372
 30
0.0
 11
136.5180481845
 21
101.2448811372
 31
0.0
  0
LINE
  5
120
330
1F
100
AcDbEntity
  8
0
  6
HIDDEN
 62
     7
370
     0
100
AcDbLine
 10
136.5180481845
 20
122.2448811372
 30
0.0
 11
87.8026525334
 21
122.2448811372
 31
0.0
  0
LINE
  5
121
330
1F
100
AcDbEntity
  8
0
  6
HIDDEN
 62
     7
370
     0
100
AcDbLine
 10
136.5180481845
 20
101.2448811372
 30
0.0
 11
140.2734270534
 21
107.4948811372
 31
0.0
  0
LINE
  5
122
330
1F
100
AcDbEntity
  8
0
  6
HIDDEN
 62
     7
370
     0
100
AcDbLine
 10
140.2734270534
 20
115.9948811372
 30
0.0
 11
136.5180481845
 21
122.2448811372
 31
0.0
  0
LINE
  5
123
330
1F
100
AcDbEntity
  8
0
  6
HIDDEN
 62
     7
370
     0
100
AcDbLine
 10
229.1180481845
 20
128.0014847695
 30
0.0
 11
228.5624409255
 21
127.4458865823
 31
0.0
  0
LINE
  5
124
330
1F
100
AcDbEntity
  8
0
  6
HIDDEN
 62
     7
370
     0
100
AcDbLine
 10
228.5628668566
 20
96.0434471931
 30
0.0
 11
229.1180481845
 21
95.4882766963
 31
0.0
  0
LINE
  5
125
330
1F
100
AcDbEntity
  8
0
  6
HIDDEN
 62
     7
370
     0
100
AcDbLine
 10
140.2734270534
 20
107.4948811372
 30
0.0
 11
204.6180481845
 21
107.4948811372
 31
0.0
  0
LINE
  5
126
330
1F
100
AcDbEntity
  8
0
  6
HIDDEN
 62
     7
370
     0
100
AcDbLine
 10
204.6180481845
 20
115.9948811372
 30
0.0
 11
140.2734270534
 21
115.9948811372
 31
0.0
  0
LINE
  5
127
330
1F
100
AcDbEntity
  8
0
  6
HIDDEN
 62
     7
370
     0
100
AcDbLine
 10
228.5728747009
 20
127.4548811372
 30
0.0
 11
218.5180481845
 21
127.4548811372
 31
0.0
  0
LINE
  5
128
330
1F
100
AcDbEntity
  8
0
  6
HIDDEN
 62
     7
370
     0
100
AcDbLine
 10
218.5180481845
 20
96.0348811372
 30
0.0
 11
228.5721502352
 21
96.0348811372
 31
0.0
  0
DIMENSION
  5
129
330
1F
100
AcDbEntity
  8
VERMASSUNG
100
AcDbDimension
  2
_D
 10
67.8028407631
 20
160.4698811372
 30
0.0
 11
67.8028407631
 21
111.7448811372
 31
0.0
 70
   160
  1
ISO 50 %%c<>
 71
     2
 42
-1.0
  3
SLDDIMSTYLE0
100
AcDbAlignedDimension
 13
194.5680481845
 23
63.0198811372
 33
0.0
 14
194.5680481845
 24
160.4698811372
 34
0.0
 50
90.0
100
AcDbRotatedDimension
  0
DIMENSION
  5
136
330
1F
100
AcDbEntity
  8
VERMASSUNG
100
AcDbDimension
  2
_D_1
 10
236.4660834229
 20
100.7448811372
 30
0.0
 11
236.4660834229
 21
111.7448811372
 31
0.0
 70
   160
  1
%%c<>
 71
     2
 42
-1.0
  3
SLDDIMSTYLE0
100
AcDbAlignedDimension
 13
218.5180481845
 23
122.7448811372
 33
0.0
 14
218.5180481845
 24
100.7448811372
 34
0.0
 50
90.0
100
AcDbRotatedDimension
  0
DIMENSION
  5
141
330
1F
100
AcDbEntity
  8
VERMASSUNG
100
AcDbDimension
  2
_D_2
 10
229.1180481845
 20
164.6499443662
 30
0.0
 11
212.1430481845
 21
164.6499443662
 31
0.0
 70
   160
  1
(<>)
 71
     2
 42
-1.0
  3
SLDDIMSTYLE0
100
AcDbAlignedDimension
 13
195.1680481845
 23
158.0398680904
 33
0.0
 14
229.1180481845
 24
130.8448811372
 34
0.0
100
AcDbRotatedDimension
  0
DIMENSION
  5
14D
330
1F
100
AcDbEntity
  8
VERMASSUNG
100
AcDbDimension
  2
_D_3
 10
229.1180481845
 20
170.6499443662
 30
0.0
 11
202.6180481845
 21
170.6499443662
 31
0.0
 70
   160
  1
<>
 71
     2
 42
-1.0
  3
SLDDIMSTYLE0
100
AcDbAlignedDimension
 13
176.1180481845
 23
146.6698811372
 33
0.0
 14
229.1180481845
 24
130.8448811372
 34
0.0
100
AcDbRotatedDimension
  0
DIMENSION
  5
157
330
1F
100
AcDbEntity
  8
VERMASSUNG
100
AcDbDimension
  2
_D_4
 10
229.1180481845
 20
176.6499443662
 30
0.0
 11
151.8180481845
 21
176.6499443662
 31
0.0
 70
   160
  1
(<>)
 71
     2
 42
-1.0
  3
SLDDIMSTYLE0
100
AcDbAlignedDimension
 13
74.5180481845
 23
130.1237256646
 33
0.0
 14
229.1180481845
 24
130.8448811372
 34
0.0
100
AcDbRotatedDimension
  0
DIMENSION
  5
163
330
1F
100
AcDbEntity
  8
VERMASSUNG
100
AcDbDimension
  2
_D_5
 10
242.4660834229
 20
92.2448811372
 30
0.0
 11
242.4660834229
 21
111.7448811372
 31
0.0
 70
   160
  1
ST4 %%c<>
 71
     2
 42
-1.0
  3
SLDDIMSTYLE0
100
AcDbAlignedDimension
 13
228.7180481845
 23
131.2448811372
 33
0.0
 14
228.7180481845
 24
92.2448811372
 34
0.0
 50
90.0
100
AcDbRotatedDimension
  0
LINE
  5
16F
330
1F
100
AcDbEntity
  8
VERMASSUNG
  6
CENTERX2
 62
     7
370
     0
100
AcDbLine
 10
72.5180481845
 20
111.7448811372
 30
0.0
 11
230.8787621259
 21
111.7448811372
 31
0.0
  0
LINE
  5
170
330
1F
100
AcDbEntity
  8
0
  6
Continuous
 62
     7
370
    15
100
AcDbLine
 10
270.0023104166
 20
40.0659279513
 30
0.0
 11
269.8679382978
 21
40.1435245394
 31
0.0
  0
LINE
  5
171
330
1F
100
AcDbEntity
  8
0
  6
Continuous
 62
     7
370
    15
100
AcDbLine
 10
267.3077958238
 20
40.1435245394
 30
0.0
 11
267.173423705
 21
40.0659279513
 31
0.0
  0
LINE
  5
172
330
1F
100
AcDbEntity
  8
0
  6
Continuous
 62
     7
370
    15
100
AcDbLine
 10
270.5878670608
 20
38.9965248663
 30
0.0
 11
270.5878670608
 21
39.249652518
 31
0.0
  0
LINE
  5
173
330
1F
100
AcDbEntity
  8
0
  6
Continuous
 62
     7
370
    15
100
AcDbLine
 10
266.5878670608
 20
39.249652518
 30
0.0
 11
266.5878670608
 21
38.9965248663
 31
0.0
  0
SPLINE
  5
174
330
1F
100
AcDbEntity
  8
0
  6
Continuous
 62
     7
370
    15
100
AcDbSpline
210
0.0
220
0.0
230
1.0
 70
     8
 71
     3
 72
    28
 73
    24
 74
     0
 42
0.000000001
 43
0.00000001
 40
0.0
 40
0.0
 40
0.0
 40
0.0
 40
0.0451823202715179
 40
0.09313140405783
 40
0.1411284737090579
 40
0.1891517863286381
 40
0.2371854826955268
 40
0.2852169115201761
 40
0.3332408186415857
 40
0.3812548790433857
 40
0.4292585360354703
 40
0.4772523457938185
 40
0.5252375364516716
 40
0.5732157256354415
 40
0.6211887475877269
 40
0.6691585527111427
 40
0.7171271529563966
 40
0.7650965481970107
 40
0.8130681661626223
 40
0.8610440857177686
 40
0.9090263833160764
 40
0.9570171013155002
 40
1.0
 40
1.0
 40
1.0
 40
1.0
 10
260.1890333182727
 20
61.49355092775069
 30
0.0
 10
259.7869536850383
 20
61.41047890200301
 30
0.0
 10
258.958172857468
 20
61.23924789064018
 30
0.0
 10
257.6711061158541
 20
60.8168543825962
 30
0.0
 10
256.3445937504142
 20
60.26918103282907
 30
0.0
 10
255.0081751113393
 20
59.59391058442437
 30
0.0
 10
253.6708096075403
 20
58.79898891750715
 30
0.0
 10
252.3402959602277
 20
57.88838223553596
 30
0.0
 10
251.0245973456158
 20
56.86797395916398
 30
0.0
 10
249.7314381784204
 20
55.74390056747991
 30
0.0
 10
248.4684086716259
 20
54.52296287234341
 30
0.0
 10
247.2429103220502
 20
53.21247790387751
 30
0.0
 10
246.0621283817514
 20
51.82027242790419
 30
0.0
 10
244.932992269292
 20
50.35463382032839
 30
0.0
 10
243.8621398867774
 20
48.82426805610832
 30
0.0
 10
242.8558719813038
 20
47.23824903615947
 30
0.0
 10
241.9201438546112
 20
45.60597380334926
 30
0.0
 10
241.0604290992906
 20
43.93709153224168
 30
0.0
 10
240.2820735821101
 20
42.24152713160376
 30
0.0
 10
239.5888043818456
 20
40.52909605274949
 30
0.0
 10
238.9881575577348
 20
38.81065274907674
 30
0.0
 10
238.4891186736035
 20
37.15335297316584
 30
0.0
 10
238.2426820108961
 20
36.0816758467714
 30
0.0
 10
238.1262464717651
 20
35.5753335573761
 30
0.0
  0
LINE
  5
175
330
1F
100
AcDbEntity
  8
0
  6
Continuous
 62
     7
370
    15
100
AcDbLine
 10
272.0007777962
 20
21.5133118361
 30
0.0
 11
272.1421761675
 21
21.5949659162
 31
0.0
  0
LINE
  5
176
330
1F
100
AcDbEntity
  8
0
  6
Continuous
 62
     7
370
    15
100
AcDbLine
 10
278.8939483966
 20
33.2906457093
 30
0.0
 11
278.8939483966
 21
33.4539273317
 31
0.0
  0
LINE
  5
177
330
1F
100
AcDbEntity
  8
0
  6
Continuous
 62
     7
370
    15
100
AcDbLine
 10
276.8742611016
 20
37.9179141948
 30
0.0
 11
266.4267584096
 21
43.9491291209
 31
0.0
  0
LINE
  5
178
330
1F
100
AcDbEntity
  8
0
  6
Continuous
 62
     7
370
    15
100
AcDbLine
 10
256.6775507664
 20
27.0611763044
 30
0.0
 11
267.1250534584
 21
21.0299613783
 31
0.0
  0
SPLINE
  5
179
330
1F
100
AcDbEntity
  8
0
  6
Continuous
 62
     7
370
    15
100
AcDbSpline
210
0.0
220
0.0
230
1.0
 70
     8
 71
     3
 72
    20
 73
    16
 74
     0
 42
0.000000001
 43
0.00000001
 40
0.0
 40
0.0
 40
0.0
 40
0.0
 40
0.0154330374249396
 40
0.1036372863520298
 40
0.1919715495692455
 40
0.2803075764058108
 40
0.3685236518717304
 40
0.4565278463543858
 40
0.5442371930699281
 40
0.6316059273531063
 40
0.7186982955176971
 40
0.8057600304938224
 40
0.8934080546426042
 40
0.9830257250887353
 40
1.0
 40
1.0
 40
1.0
 40
1.0
 10
268.6176487870246
 20
29.72567840229249
 30
0.0
 10
268.6353064761531
 20
29.77309036643429
 30
0.0
 10
268.753882938721
 20
30.09147534594164
 30
0.0
 10
269.0321408227306
 20
30.67698140493838
 30
0.0
 10
269.478579074967
 20
31.45436431312376
 30
0.0
 10
269.9933755477799
 20
32.18063943011938
 30
0.0
 10
270.5573494063108
 20
32.83599547725288
 30
0.0
 10
271.1555284715586
 20
33.40290295058512
 30
0.0
 10
271.769944204724
 20
33.86671158941759
 30
0.0
 10
272.3823778735945
 20
34.21667091696146
 30
0.0
 10
272.9736992780906
 20
34.44518648475785
 30
0.0
 10
273.5284683558622
 20
34.55386615242507
 30
0.0
 10
274.026199416383
 20
34.53310791717347
 30
0.0
 10
274.3589749060543
 20
34.46296961370108
 30
0.0
 10
274.5066037408447
 20
34.36505462715449
 30
0.0
 10
274.5301129508339
 20
34.34946211785182
 30
0.0
  0
LINE
  5
17A
330
1F
100
AcDbEntity
  8
0
  6
Continuous
 62
     7
370
    15
100
AcDbLine
 10
253.3852117569
 20
58.583476898
 30
0.0
 11
222.6238094828
 21
69.6686669377
 31
0.0
  0
LINE
  5
17B
330
1F
100
AcDbEntity
  8
0
  6
Continuous
 62
     7
370
    15
100
AcDbLine
 10
212.4999504101
 20
52.1317284913
 30
0.0
 11
241.9674607571
 21
27.2496063586
 31
0.0
  0
LINE
  5
17C
330
1F
100
AcDbEntity
  8
0
  6
Continuous
 62
     7
370
    15
100
AcDbLine
 10
268.5368259117
 20
25.3457791255
 30
0.0
 11
268.4790280596
 21
25.4368393895
 31
0.0
  0
SPLINE
  5
17D
330
1F
100
AcDbEntity
  8
0
  6
Continuous
 62
     7
370
    15
100
AcDbSpline
210
0.0
220
0.0
230
1.0
 70
     8
 71
     3
 72
    10
 73
     6
 74
     0
 42
0.000000001
 43
0.00000001
 40
0.0
 40
0.0
 40
0.0
 40
0.0
 40
0.4451965344992987
 40
0.9515349959439636
 40
1.0
 40
1.0
 40
1.0
 40
1.0
 10
269.1863597935186
 20
24.7616979756725
 30
0.0
 10
269.0760789932692
 20
24.82347501559582
 30
0.0
 10
268.8403717658173
 20
24.95551336467906
 30
0.0
 10
268.6402944600196
 20
25.18114391426641
 30
0.0
 10
268.5451383030947
 20
25.33255276517216
 30
0.0
 10
268.5368259117379
 20
25.34577912554942
 30
0.0
  0
SPLINE
  5
17E
330
1F
100
AcDbEntity
  8
0
  6
Continuous
 62
     7
370
    15
100
AcDbSpline
210
0.0
220
0.0
230
1.0
 70
     8
 71
     3
 72
    17
 73
    13
 74
     0
 42
0.000000001
 43
0.00000001
 40
0.0
 40
0.0
 40
0.0
 40
0.0
 40
0.097567451764196
 40
0.2060182592289621
 40
0.3145897149364726
 40
0.4232299750500558
 40
0.531900303521967
 40
0.6405705852034184
 40
0.7492256828663992
 40
0.85785923137291
 40
0.9664692584372072
 40
1.0
 40
1.0
 40
1.0
 40
1.0
 10
254.266428924476
 20
14.34907091018552
 30
0.0
 10
254.6483500752069
 20
14.42007644661275
 30
0.0
 10
255.4547945319758
 20
14.57000797342673
 30
0.0
 10
256.7189189941254
 20
14.96028970825465
 30
0.0
 10
258.0423250928919
 20
15.48055206318645
 30
0.0
 10
259.3774570686455
 20
16.12955429768647
 30
0.0
 10
260.7152960874103
 20
16.89897263607884
 30
0.0
 10
262.0477956414292
 20
17.78567770003983
 30
0.0
 10
263.3679154874825
 20
18.78171208109239
 30
0.0
 10
264.664317810926
 20
19.8892133044309
 30
0.0
 10
265.6482445709019
 20
20.79886043386739
 30
0.0
 10
266.1845251985639
 20
21.36607957038197
 30
0.0
 10
266.3110327959616
 20
21.49988550417313
 30
0.0
  0
SPLINE
  5
17F
330
1F
100
AcDbEntity
  8
0
  6
Continuous
 62
     7
370
    15
100
AcDbSpline
210
0.0
220
0.0
230
1.0
 70
     8
 71
     3
 72
    10
 73
     6
 74
     0
 42
0.000000001
 43
0.00000001
 40
0.0
 40
0.0
 40
0.0
 40
0.0
 40
0.0156952419337081
 40
0.8729088146472244
 40
1.0
 40
1.0
 40
1.0
 40
1.0
 10
276.0680365787227
 20
38.38333770502699
 30
0.0
 10
276.0712701686653
 20
38.39380896975926
 30
0.0
 10
276.2511099682509
 20
38.97618032305933
 30
0.0
 10
276.4081600898372
 20
39.63921180628268
 30
0.0
 10
276.5467733455228
 20
40.28561750146523
 30
0.0
 10
276.5646707729469
 20
40.36907993050085
 30
0.0
  0
LINE
  5
180
330
1F
100
AcDbEntity
  8
0
  6
Continuous
 62
     7
370
    15
100
AcDbLine
 10
246.2900267218
 20
16.1851617166
 30
0.0
 11
247.7455489293
 21
15.3449066315
 31
0.0
  0
LINE
  5
181
330
1F
100
AcDbEntity
  8
0
  6
Continuous
 62
     7
370
    15
100
AcDbLine
 10
242.5659917572
 20
18.335001341
 30
0.0
 11
244.0038362952
 21
17.5049513573
 31
0.0
  0
SPLINE
  5
182
330
1F
100
AcDbEntity
  8
0
  6
Continuous
 62
     7
370
    15
100
AcDbSpline
210
0.0
220
0.0
230
1.0
 70
     8
 71
     3
 72
     9
 73
     5
 74
     0
 42
0.000000001
 43
0.00000001
 40
0.0
 40
0.0
 40
0.0
 40
0.0
 40
0.671632051358391
 40
1.0
 40
1.0
 40
1.0
 40
1.0
 10
238.1338930426905
 20
24.40029705374456
 30
0.0
 10
238.1721144824689
 20
24.26260384718543
 30
0.0
 10
238.2290227847172
 20
24.05759098890888
 30
0.0
 10
238.3041190048389
 20
23.86928455146426
 30
0.0
 10
238.3287781965909
 20
23.80745075288456
 30
0.0
  0
SPLINE
  5
183
330
1F
100
AcDbEntity
  8
0
  6
Continuous
 62
     7
370
    15
100
AcDbSpline
210
0.0
220
0.0
230
1.0
 70
     8
 71
     3
 72
     9
 73
     5
 74
     0
 42
0.000000001
 43
0.00000001
 40
0.0
 40
0.0
 40
0.0
 40
0.0
 40
0.5365142087425564
 40
1.0
 40
1.0
 40
1.0
 40
1.0
 10
276.5526676372333
 20
51.43362144513902
 30
0.0
 10
276.5003114469981
 20
51.61456122694066
 30
0.0
 10
276.4027256060603
 20
51.95181190707774
 30
0.0
 10
276.2750112703071
 20
52.26119675561095
 30
0.0
 10
276.2158174903456
 20
52.40459223693642
 30
0.0
  0
SPLINE
  5
184
330
1F
100
AcDbEntity
  8
0
  6
Continuous
 62
     7
370
    15
100
AcDbSpline
210
0.0
220
0.0
230
1.0
 70
     8
 71
     3
 72
    26
 73
    22
 74
     0
 42
0.000000001
 43
0.00000001
 40
0.0
 40
0.0
 40
0.0
 40
0.0
 40
0.0465037122421277
 40
0.0971000846652225
 40
0.1486409062200214
 40
0.2013725405879774
 40
0.2551710673299383
 40
0.3096781806689363
 40
0.3645128386643393
 40
0.4193742382717895
 40
0.4741391559439383
 40
0.5287856569736832
 40
0.5833319144884906
 40
0.6378145036847594
 40
0.6922778468217642
 40
0.7467666559530701
 40
0.8013173813193095
 40
0.8559802074460012
 40
0.9108035851252437
 40
0.9658277888052264
 40
1.0
 40
1.0
 40
1.0
 40
1.0
 10
222.6311314779711
 20
69.66085030928252
 30
0.0
 10
222.4039360733987
 20
69.73286371156611
 30
0.0
 10
221.9295504393083
 20
69.88322821198194
 30
0.0
 10
221.1503243720423
 20
69.94700977984735
 30
0.0
 10
220.3185323808606
 20
69.89154543659282
 30
0.0
 10
219.4542386097581
 20
69.69970206108934
 30
0.0
 10
218.5689739846855
 20
69.37555481940333
 30
0.0
 10
217.6755065454223
 20
68.92124990328283
 30
0.0
 10
216.7888722066808
 20
68.34441107499981
 30
0.0
 10
215.9233562739005
 20
67.6552812561507
 30
0.0
 10
215.0916964875198
 20
66.86575385718166
 30
0.0
 10
214.3049856058154
 20
65.98819289950447
 30
0.0
 10
213.5733281016155
 20
65.03543118521694
 30
0.0
 10
212.9061272854331
 20
64.02083686953824
 30
0.0
 10
212.3121403524448
 20
62.95829406865732
 30
0.0
 10
211.7993911933576
 20
61.86212836397417
 30
0.0
 10
211.3752815359629
 20
60.7469739145423
 30
0.0
 10
211.045654996072
 20
59.62711890509178
 30
0.0
 10
210.8182009440282
 20
58.51787548418484
 30
0.0
 10
210.7063201240404
 20
57.56846978869805
 30
0.0
 10
210.6951918199969
 20
57.00353880486163
 30
0.0
 10
210.6909284338894
 20
56.78710700188797
 30
0.0
  0
SPLINE
  5
185
330
1F
100
AcDbEntity
  8
0
  6
Continuous
 62
     7
370
    15
100
AcDbSpline
210
0.0
220
0.0
230
1.0
 70
     8
 71
     3
 72
    13
 73
     9
 74
     0
 42
0.000000001
 43
0.00000001
 40
0.0
 40
0.0
 40
0.0
 40
0.0
 40
0.0978124012401448
 40
0.2822186019567937
 40
0.4666364895028891
 40
0.6494597658830552
 40
0.8290122681415781
 40
1.0
 40
1.0
 40
1.0
 40
1.0
 10
210.6909284338894
 20
56.78710700188797
 30
0.0
 10
210.6941061810409
 20
56.60418739614807
 30
0.0
 10
210.703274950513
 20
56.07640855882399
 30
0.0
 10
210.8059055148334
 20
55.24611060664077
 30
0.0
 10
211.0370922019857
 20
54.33035765756175
 30
0.0
 10
211.3870022088052
 20
53.50645915616093
 30
0.0
 10
211.8343414343305
 20
52.78505844479445
 30
0.0
 10
212.2176537889252
 20
52.40328943092766
 30
0.0
 10
212.4046272194375
 20
52.21706881651131
 30
0.0
  0
LWPOLYLINE
  5
186
330
1F
100
AcDbEntity
  8
0
  6
Continuous
 62
     7
370
    15
100
AcDbPolyline
 90
       22
 70
   128
 43
0.0
 10
270.3658826527
 20
39.6003591469
 10
270.3867426362
 20
39.289126255
 10
270.2477646307
 20
38.9881710629
 10
269.9612974417
 20
38.72423476
 10
269.5527949361
 20
38.5207692453
 10
269.0585543544
 20
38.3958533226
 10
268.522491141
 20
38.3605863198
 10
267.992236865
 20
38.4181018648
 10
267.5149069457
 20
38.5632894491
 10
267.1329142413
 20
38.7832485186
 10
266.8802004799
 20
39.0584347449
 10
266.7792203882
 20
39.364396624
 10
266.8389464904
 20
39.6739481002
 10
267.0540718603
 20
39.9595841665
 10
267.4054816647
 20
40.195924805
 10
267.8619516004
 20
40.3619701126
 10
268.3829223104
 20
40.4429662351
 10
268.9221032608
 20
40.4317163117
 10
269.4315858581
 20
40.3292199473
 10
269.8661003377
 20
40.1445843938
 10
270.1870381811
 20
39.8942153303
 10
270.3658826527
 20
39.6003591469
  0
LWPOLYLINE
  5
187
330
1F
100
AcDbEntity
  8
0
  6
Continuous
 62
     7
370
    15
100
AcDbPolyline
 90
       16
 70
   128
 43
0.0
 10
270.5525251734
 20
39.4657451972
 10
270.5784019894
 20
39.1374584698
 10
270.4430175037
 20
38.818261037
 10
270.1573397621
 20
38.5340123764
 10
269.7445126763
 20
38.307740624
 10
269.2379810415
 20
38.1577769715
 10
268.6787810384
 20
38.0962705821
 10
268.1122157255
 20
38.1282043377
 10
267.584184855
 20
38.2509911554
 10
267.1374663477
 20
38.4546835774
 10
266.8082506803
 20
38.7227796551
 10
266.6232089482
 20
39.0335598387
 10
266.5973321322
 20
39.3618465661
 10
266.7327166179
 20
39.6810439989
 10
267.0183943595
 20
39.9652926595
 10
267.173423705
 20
40.0659279513
  0
ARC
  5
188
330
1F
100
AcDbEntity
  8
0
  6
Continuous
 62
     7
370
    15
100
AcDbCircle
 10
269.4139133894
 20
38.9742229145
 30
0.0
 40
1.240173757586278
100
AcDbArc
 50
23.3491608233
 51
61.6766334504
  0
LWPOLYLINE
  5
189
330
1F
100
AcDbEntity
  8
0
  6
Continuous
 62
     7
370
    15
100
AcDbPolyline
 90
       18
 70
   128
 43
0.0
 10
269.7666619284
 20
39.5344508797
 10
269.7681934069
 20
39.2798692019
 10
269.610315272
 20
39.0421594821
 10
269.3143498405
 20
38.8534257352
 10
268.9202688841
 20
38.7391574995
 10
268.4812952196
 20
38.7147873335
 10
268.0567146727
 20
38.783606563
 10
267.7038691991
 20
38.9363207698
 10
267.4704125351
 20
39.1523050541
 10
267.3878742968
 20
39.4023895415
 10
267.4674017307
 20
39.6527989361
 10
267.6982542161
 20
39.8697140616
 10
268.0492538458
 20
40.0238393285
 10
268.4729961746
 20
40.0943592653
 10
268.9122524532
 20
40.0717497639
 10
269.3076986871
 20
39.9590643626
 10
269.605927671
 20
39.7715218493
 10
269.7666619284
 20
39.5344508797
  0
SPLINE
  5
18A
330
1F
100
AcDbEntity
  8
0
  6
Continuous
 62
     7
370
    15
100
AcDbSpline
210
0.0
220
0.0
230
1.0
 70
     8
 71
     3
 72
    11
 73
     7
 74
     0
 42
0.000000001
 43
0.00000001
 40
0.0
 40
0.0
 40
0.0
 40
0.0
 40
0.1285561766307277
 40
0.4801535797842235
 40
0.8150691831753857
 40
1.0
 40
1.0
 40
1.0
 40
1.0
 10
269.4621380691751
 20
39.80326029228678
 30
0.0
 10
269.4708417012509
 20
39.75889226732608
 30
0.0
 10
269.5033495138501
 20
39.59317898484391
 30
0.0
 10
269.5643089432297
 20
39.34368115366293
 30
0.0
 10
269.6303151465212
 20
39.19660071469788
 30
0.0
 10
269.6656751522759
 20
39.16108103011831
 30
0.0
 10
269.6782541650243
 20
39.14844521302463
 30
0.0
  0
SPLINE
  5
18B
330
1F
100
AcDbEntity
  8
0
  6
Continuous
 62
     7
370
    15
100
AcDbSpline
210
0.0
220
0.0
230
1.0
 70
     8
 71
     3
 72
    10
 73
     6
 74
     0
 42
0.000000001
 43
0.00000001
 40
0.0
 40
0.0
 40
0.0
 40
0.0
 40
0.4391222274230449
 40
0.7513714712594577
 40
1.0
 40
1.0
 40
1.0
 40
1.0
 10
268.3717509649582
 20
40.0226214923078
 30
0.0
 10
268.5278504828758
 20
39.9352925866986
 30
0.0
 10
268.7949486098119
 20
39.78586619879717
 30
0.0
 10
269.1832197128431
 20
39.75029143122855
 30
0.0
 10
269.3764722004095
 20
39.78699164808656
 30
0.0
 10
269.4621380691751
 20
39.80326029228678
 30
0.0
  0
SPLINE
  5
18C
330
1F
100
AcDbEntity
  8
0
  6
Continuous
 62
     7
370
    15
100
AcDbSpline
210
0.0
220
0.0
230
1.0
 70
     8
 71
     3
 72
    11
 73
     7
 74
     0
 42
0.000000001
 43
0.00000001
 40
0.0
 40
0.0
 40
0.0
 40
0.0
 40
0.2164526859271184
 40
0.4403055508634009
 40
0.7518960204221847
 40
1.0
 40
1.0
 40
1.0
 40
1.0
 10
267.4974799565904
 20
39.58716761306666
 30
0.0
 10
267.5573676084993
 20
39.58742198418623
 30
0.0
 10
267.6791903775294
 20
39.58793942297634
 30
0.0
 10
267.9052622022737
 20
39.6503959542683
 30
0.0
 10
268.1477677282948
 20
39.8014133642713
 30
0.0
 10
268.3029576492007
 20
39.95468051231833
 30
0.0
 10
268.3717509649582
 20
40.0226214923078
 30
0.0
  0
SPLINE
  5
18D
330
1F
100
AcDbEntity
  8
0
  6
Continuous
 62
     7
370
    15
100
AcDbSpline
210
0.0
220
0.0
230
1.0
 70
     8
 71
     3
 72
    13
 73
     9
 74
     0
 42
0.000000001
 43
0.00000001
 40
0.0
 40
0.0
 40
0.0
 40
0.0
 40
0.1844095697098922
 40
0.3495005370884481
 40
0.5197705331556643
 40
0.6927076360809707
 40
0.8718061725834166
 40
0.9999999999999999
 40
0.9999999999999999
 40
0.9999999999999999
 40
0.9999999999999999
 10
267.7135960524396
 20
38.93235253380451
 30
0.0
 10
267.7010002348931
 20
38.94501704987562
 30
0.0
 10
267.6771281277974
 20
38.96901935721672
 30
0.0
 10
267.6391810756095
 20
39.03955635037099
 30
0.0
 10
267.6008347824895
 20
39.14188085189565
 30
0.0
 10
267.561642516136
 20
39.28330086903936
 30
0.0
 10
267.5270813058553
 20
39.43627318379561
 30
0.0
 10
267.5061936892747
 20
39.54274890402615
 30
0.0
 10
267.4974799565904
 20
39.58716761306666
 30
0.0
  0
LINE
  5
18E
330
1F
100
AcDbEntity
  8
0
  6
Continuous
 62
     7
370
    15
100
AcDbLine
 10
267.8022298451
 20
38.8839365216
 30
0.0
 11
267.7135960524
 21
38.9323525338
 31
0.0
  0
LINE
  5
18F
330
1F
100
AcDbEntity
  8
0
  6
Continuous
 62
     7
370
    15
100
AcDbLine
 10
269.678254165
 20
39.148445213
 30
0.0
 11
269.3795103124
 21
38.902594625
 31
0.0
  0
LINE
  5
190
330
1F
100
AcDbEntity
  8
0
  6
Continuous
 62
     7
370
    15
100
AcDbLine
 10
269.4621380692
 20
38.9705929534
 30
0.0
 11
269.4621380692
 21
39.8032602923
 31
0.0
  0
LINE
  5
191
330
1F
100
AcDbEntity
  8
0
  6
Continuous
 62
     7
370
    15
100
AcDbLine
 10
268.371750965
 20
38.7233771634
 30
0.0
 11
268.371750965
 21
40.0226214923
 31
0.0
  0
SPLINE
  5
192
330
1F
100
AcDbEntity
  8
0
  6
Continuous
 62
     7
370
    15
100
AcDbSpline
210
0.0
220
0.0
230
1.0
 70
     8
 71
     3
 72
    12
 73
     8
 74
     0
 42
0.000000001
 43
0.00000001
 40
0.0
 40
0.0
 40
0.0
 40
0.0
 40
0.2499999999999972
 40
0.2499999999999972
 40
0.4999999999999944
 40
0.4999999999999944
 40
1.0
 40
1.0
 40
1.0
 40
1.0
 10
243.4045209112268
 20
32.54153330875151
 30
0.0
 10
243.4384524035164
 20
32.52194507520002
 30
0.0
 10
243.4768841125436
 20
32.49475788626362
 30
0.0
 10
243.5510609652086
 20
32.43553395872779
 30
0.0
 10
243.586277245464
 20
32.40410127971102
 30
0.0
 10
243.681376162722
 20
32.31210856290905
 30
0.0
 10
243.7299053194839
 20
32.2552518973844
 30
0.0
 10
243.7632469156389
 20
32.20702309138206
 30
0.0
  0
ARC
  5
193
330
1F
100
AcDbEntity
  8
0
  6
Continuous
 62
     7
370
    15
100
AcDbCircle
 10
267.5369729741
 20
48.3748866845
 30
0.0
 40
10.31316483492123
100
AcDbArc
 50
73.4228773132
 51
101.4415891812
  0
SPLINE
  5
194
330
1F
100
AcDbEntity
  8
0
  6
Continuous
 62
     7
370
    15
100
AcDbSpline
210
0.0
220
0.0
230
1.0
 70
     8
 71
     3
 72
    12
 73
     8
 74
     0
 42
0.000000001
 43
0.00000001
 40
0.0
 40
0.0
 40
0.0
 40
0.0
 40
0.4999999999999972
 40
0.4999999999999972
 40
0.7499999999999986
 40
0.7499999999999986
 40
1.0
 40
1.0
 40
1.0
 40
1.0
 10
270.6915097348374
 20
57.82583902959339
 30
0.0
 10
270.6915097348374
 20
57.89852202678619
 30
0.0
 10
270.6744929667671
 20
57.98210487352648
 30
0.0
 10
270.6200821408856
 20
58.10354905140216
 30
0.0
 10
270.5969369219637
 20
58.14326392908352
 30
0.0
 10
270.5426561101066
 20
58.21199370094931
 30
0.0
 10
270.511420141549
 20
58.24090329685497
 30
0.0
 10
270.4793777004813
 20
58.25940100434858
 30
0.0
  0
LWPOLYLINE
  5
195
330
1F
100
AcDbEntity
  8
0
  6
Continuous
 62
     7
370
    15
100
AcDbPolyline
 90
       16
 70
   128
 43
0.0
 10
243.8872622141
 20
32.7620583753
 10
244.1961070476
 20
33.9852395515
 10
244.7357424004
 20
35.7791042251
 10
245.378538604
 20
37.5766021646
 10
246.120190338
 20
39.3656940878
 10
246.955730167
 20
41.1343970143
 10
247.8795618122
 20
42.870864525
 10
248.8854976337
 20
44.5634661072
 10
249.9668000741
 20
46.2008650536
 10
251.1162267857
 20
47.7720943929
 10
252.3260791378
 20
49.2666303448
 10
253.588253781
 20
50.6744628059
 10
254.8942969215
 20
51.9861623955
 10
256.2354609432
 20
53.1929436116
 10
257.6027629973
 20
54.2867236746
 10
258.7820796942
 20
55.124369467
  0
LINE
  5
196
330
1F
100
AcDbEntity
  8
0
  6
Continuous
 62
     7
370
    15
100
AcDbLine
 10
241.9489987037
 20
33.3817883938
 30
0.0
 11
243.4045209112
 21
32.5415333088
 31
0.0
  0
LWPOLYLINE
  5
197
330
1F
100
AcDbEntity
  8
0
  6
Continuous
 62
     7
370
    15
100
AcDbPolyline
 90
       24
 70
   128
 43
0.0
 10
241.9489987037
 20
33.3817883938
 10
242.4196575436
 20
35.2431486369
 10
243.0047912519
 20
37.1190664348
 10
243.7002265903
 20
38.9961625336
 10
244.5010036366
 20
40.8610492759
 10
245.4014111601
 20
42.7004260823
 10
246.3950273545
 20
44.5011743135
 10
247.4747656389
 20
46.2504508332
 10
248.6329251999
 20
47.9357796073
 10
249.8612459152
 20
49.545140684
 10
251.1509672651
 20
51.0670559215
 10
252.4928908138
 20
52.4906708516
 10
253.8774458138
 20
53.8058320945
 10
255.2947574651
 20
55.0031597743
 10
256.7347173438
 20
56.0741144173
 10
258.1870554963
 20
57.0110578561
 10
259.6414136858
 20
57.8073077062
 10
261.0874192683
 20
58.4571850252
 10
262.5147591715
 20
58.9560548161
 10
263.913253449
 20
59.300359084
 10
265.2729278843
 20
59.4876422129
 10
266.5840851286
 20
59.5165684787
 10
267.8373738629
 20
59.3869315759
 10
269.0238554929
 20
59.0996560894
  0
LINE
  5
198
330
1F
100
AcDbEntity
  8
0
  6
Continuous
 62
     7
370
    15
100
AcDbLine
 10
270.4793777005
 20
58.2594010043
 30
0.0
 11
269.0238554929
 21
59.0996560894
 31
0.0
  0
LINE
  5
199
330
1F
100
AcDbEntity
  8
0
  6
Continuous
 62
     7
370
    15
100
AcDbLine
 10
276.4014087467
 20
50.9565356121
 30
0.0
 11
276.5056906304
 21
51.1371571325
 31
0.0
  0
LINE
  5
19A
330
1F
100
AcDbEntity
  8
0
  6
Continuous
 62
     7
370
    15
100
AcDbLine
 10
274.1032999541
 20
49.6298656451
 30
0.0
 11
276.4014087467
 21
50.9565356121
 31
0.0
  0
ARC
  5
19B
330
1F
100
AcDbEntity
  8
0
  6
Continuous
 62
     7
370
    15
100
AcDbCircle
 10
274.9314092742
 20
48.335259925
 30
0.0
 40
1.536804807572231
100
AcDbArc
 50
122.60547834
 51
177.3945215143
  0
LINE
  5
19C
330
1F
100
AcDbEntity
  8
0
  6
Continuous
 62
     7
370
    15
100
AcDbLine
 10
273.3961931729
 20
39.9257600718
 30
0.0
 11
273.3961931729
 21
48.4051207773
 31
0.0
  0
LINE
  5
19D
330
1F
100
AcDbEntity
  8
0
  6
Continuous
 62
     7
370
    15
100
AcDbLine
 10
276.4014087467
 20
40.4639861794
 30
0.0
 11
274.4326329674
 21
39.3274361141
 31
0.0
  0
LINE
  5
19E
330
1F
100
AcDbEntity
  8
0
  6
Continuous
 62
     7
370
    15
100
AcDbLine
 10
276.5056906304
 20
40.4037659591
 30
0.0
 11
276.4014087467
 21
40.4639861794
 31
0.0
  0
LINE
  5
19F
330
1F
100
AcDbEntity
  8
0
  6
Continuous
 62
     7
370
    15
100
AcDbLine
 10
243.808754156
 20
21.6486471799
 30
0.0
 11
243.7632469156
 21
21.5302791598
 31
0.0
  0
LINE
  5
1A0
330
1F
100
AcDbEntity
  8
0
  6
Continuous
 62
     7
370
    15
100
AcDbLine
 10
243.808754156
 20
21.6486471799
 30
0.0
 11
246.9503995565
 21
23.4622804654
 31
0.0
  0
ARC
  5
1A1
330
1F
100
AcDbEntity
  8
0
  6
Continuous
 62
     7
370
    15
100
AcDbCircle
 10
246.1222902363
 20
24.7568861854
 30
0.0
 40
1.536804807572055
100
AcDbArc
 50
302.60547834
 51
357.3945215143
  0
LINE
  5
1A2
330
1F
100
AcDbEntity
  8
0
  6
Continuous
 62
     7
370
    15
100
AcDbLine
 10
247.6575063377
 20
33.5464931421
 30
0.0
 11
247.6575063377
 21
24.6870253332
 31
0.0
  0
ARC
  5
1A3
330
1F
100
AcDbEntity
  8
0
  6
Continuous
 62
     7
370
    15
100
AcDbCircle
 10
247.2264319703
 20
33.616420339
 30
0.0
 40
0.4367091974284724
100
AcDbArc
 50
350.7859630095
 51
129.2032852357
  0
LINE
  5
1A4
330
1F
100
AcDbEntity
  8
0
  6
Continuous
 62
     7
370
    15
100
AcDbLine
 10
246.9503995565
 20
33.9548298981
 30
0.0
 11
243.808754156
 21
32.1411966127
 31
0.0
  0
LINE
  5
1A5
330
1F
100
AcDbEntity
  8
0
  6
Continuous
 62
     7
370
    15
100
AcDbLine
 10
243.7632469156
 20
32.2070230914
 30
0.0
 11
243.808754156
 21
32.1411966127
 31
0.0
  0
LINE
  5
1A6
330
1F
100
AcDbEntity
  8
0
  6
Continuous
 62
     7
370
    15
100
AcDbLine
 10
270.6915097348
 20
54.6008779763
 30
0.0
 11
270.6915097348
 21
57.8258390296
 31
0.0
  0
LINE
  5
1A7
330
1F
100
AcDbEntity
  8
0
  6
Continuous
 62
     7
370
    15
100
AcDbLine
 10
273.4842566455
 20
56.2130964508
 30
0.0
 11
270.6915097348
 21
54.6008779763
 31
0.0
  0
SPLINE
  5
1A8
330
1F
100
AcDbEntity
  8
0
  6
Continuous
 62
     7
370
    15
100
AcDbSpline
210
0.0
220
0.0
230
1.0
 70
     8
 71
     3
 72
     8
 73
     4
 74
     0
 42
0.000000001
 43
0.00000001
 40
0.0
 40
0.0
 40
0.0
 40
0.0
 40
1.0
 40
1.0
 40
1.0
 40
1.0
 10
240.8764444389983
 20
34.473302236283
 30
0.0
 10
240.589377309326
 20
34.42585023655964
 30
0.0
 10
240.3022641907405
 20
34.37849280385685
 30
0.0
 10
240.0151093643429
 20
34.33122113494478
 30
0.0
  0
SPLINE
  5
1A9
330
1F
100
AcDbEntity
  8
0
  6
Continuous
 62
     7
370
    15
100
AcDbSpline
210
0.0
220
0.0
230
1.0
 70
     8
 71
     3
 72
     8
 73
     4
 74
     0
 42
0.000000001
 43
0.00000001
 40
0.0
 40
0.0
 40
0.0
 40
0.0
 40
0.0011862984959112
 40
0.0011862984959112
 40
0.0011862984959112
 40
0.0011862984959112
 10
239.6628082770674
 20
34.70157803460695
 30
0.0
 10
239.7805191449119
 20
34.5780280834945
 30
0.0
 10
239.897958895348
 20
34.45457303437922
 30
0.0
 10
240.0151093643429
 20
34.33122113494478
 30
0.0
  0
LWPOLYLINE
  5
1AA
330
1F
100
AcDbEntity
  8
0
  6
Continuous
 62
     7
370
    15
100
AcDbPolyline
 90
       24
 70
   128
 43
0.0
 10
239.6628082771
 20
34.7015780346
 10
240.133467117
 20
36.5629382777
 10
240.7186008254
 20
38.4388560755
 10
241.4140361637
 20
40.3159521744
 10
242.21481321
 20
42.1808389166
 10
243.1152207335
 20
44.020215723
 10
244.1088369279
 20
45.8209639542
 10
245.1885752123
 20
47.570240474
 10
246.3467347733
 20
49.2555692481
 10
247.5750554886
 20
50.8649303248
 10
248.8647768385
 20
52.3868455623
 10
250.2067003872
 20
53.8104604923
 10
251.5912553872
 20
55.1256217352
 10
253.0085670385
 20
56.3229494151
 10
254.4485269172
 20
57.3939040581
 10
255.9008650697
 20
58.3308474969
 10
257.3552232592
 20
59.1270973469
 10
258.8012288417
 20
59.776974666
 10
260.2285687449
 20
60.2758444568
 10
261.6270630224
 20
60.6201487248
 10
262.9867374577
 20
60.8074318537
 10
264.297894702
 20
60.8363581194
 10
265.5511834363
 20
60.7067212167
 10
266.7376650663
 20
60.4194457302
  0
LINE
  5
1AB
330
1F
100
AcDbEntity
  8
0
  6
Continuous
 62
     7
370
    15
100
AcDbLine
 10
267.0424853827
 20
59.4603117876
 30
0.0
 11
266.7376650663
 21
60.4194457302
 31
0.0
  0
LWPOLYLINE
  5
1AC
330
1F
100
AcDbEntity
  8
0
  6
Continuous
 62
     7
370
    15
100
AcDbPolyline
 90
       23
 70
   128
 43
0.0
 10
240.876444439
 20
34.4733022363
 10
241.3276936912
 20
36.2873097931
 10
241.8934296867
 20
38.116608165
 10
242.5694258279
 20
39.9475307162
 10
243.350631767
 20
41.7663986762
 10
244.2312111366
 20
43.5596233345
 10
245.2045851532
 20
45.3138075606
 10
246.2634817674
 20
47.0158458941
 10
247.3999899927
 20
48.6530224552
 10
248.6056190086
 20
50.2131059443
 10
249.8713615948
 20
51.6844410221
 10
251.1877614248
 20
53.0560353862
 10
252.5449837128
 20
54.3176418941
 10
253.9328886897
 20
55.4598351196
 10
255.341107357
 20
56.4740817696
 10
256.7591189531
 20
57.3528044362
 10
258.1763295538
 20
58.0894382075
 10
259.582151219
 20
58.6784797134
 10
260.9660810952
 20
59.1155282417
 10
262.3177798816
 20
59.3973186153
 10
263.6271490751
 20
59.5217455864
 10
264.8844064157
 20
59.4878795644
 10
265.0674760348
 20
59.4691961254
  0
LINE
  5
1AD
330
1F
100
AcDbEntity
  8
0
  6
Continuous
 62
     7
370
    15
100
AcDbLine
 10
238.224963739
 20
35.5316280183
 30
0.0
 11
239.6628082771
 21
34.7015780346
 31
0.0
  0
ARC
  5
1AE
330
1F
100
AcDbEntity
  8
0
  6
Continuous
 62
     7
370
    15
100
AcDbCircle
 10
262.357356296
 20
51.3646280443
 30
0.0
 40
10.31352047580398
100
AcDbArc
 50
73.423120529
 51
101.4471789657
  0
LINE
  5
1AF
330
1F
100
AcDbEntity
  8
0
  6
Continuous
 62
     7
370
    15
100
AcDbLine
 10
266.7376650663
 20
60.4194457302
 30
0.0
 11
265.2998205283
 21
61.2494957139
 31
0.0
  0
LINE
  5
1B0
330
1F
100
AcDbEntity
  8
0
  6
Continuous
 62
     7
370
    15
100
AcDbLine
 10
242.2878200788
 20
34.0552958015
 30
0.0
 11
241.5029315517
 21
34.5084023035
 31
0.0
  0
SPLINE
  5
1B1
330
1F
100
AcDbEntity
  8
0
  6
Continuous
 62
     7
370
    15
100
AcDbSpline
210
0.0
220
0.0
230
1.0
 70
     8
 71
     3
 72
    14
 73
    10
 74
     0
 42
0.000000001
 43
0.00000001
 40
0.0
 40
0.0
 40
0.0
 40
0.0
 40
0.25
 40
0.25
 40
0.5
 40
0.5
 40
0.75
 40
0.75
 40
1.0
 40
1.0
 40
1.0
 40
1.0
 10
241.502931551732
 20
34.50840230351505
 30
0.0
 10
241.465297558274
 20
34.53012794549509
 30
0.0
 10
241.4195236015848
 20
34.54733970660659
 30
0.0
 10
241.3195877240749
 20
34.56974504023909
 30
0.0
 10
241.265153855235
 20
34.57491992383891
 30
0.0
 10
241.158938204743
 20
34.57297772952415
 30
0.0
 10
241.105621904793
 20
34.56588932660593
 30
0.0
 10
241.0081288374923
 20
34.54115589032124
 30
0.0
 10
240.9632171469626
 20
34.52339505433519
 30
0.0
 10
240.9254638813626
 20
34.5016005580132
 30
0.0
  0
LINE
  5
1B2
330
1F
100
AcDbEntity
  8
0
  6
Continuous
 62
     7
370
    15
100
AcDbLine
 10
240.9254638814
 20
34.501600558
 30
0.0
 11
240.876444439
 21
34.4733022363
 31
0.0
  0
SPLINE
  5
1B3
330
1F
100
AcDbEntity
  8
0
  6
Continuous
 62
     7
370
    15
100
AcDbSpline
210
0.0
220
0.0
230
1.0
 70
     8
 71
     3
 72
    10
 73
     6
 74
     0
 42
0.000000001
 43
0.00000001
 40
0.0
 40
0.0
 40
0.0
 40
0.0
 40
0.5
 40
0.5
 40
1.0
 40
1.0
 40
1.0
 40
1.0
 10
238.1229512487125
 20
35.56107624519167
 30
0.0
 10
238.1302675331347
 20
35.56544424508485
 30
0.0
 10
238.1420913933431
 20
35.56597629767311
 30
0.0
 10
238.1762427576209
 20
35.55674624803481
 30
0.0
 10
238.1984997210137
 20
35.54690537071851
 30
0.0
 10
238.2249637390354
 20
35.53162801830219
 30
0.0
  0
LWPOLYLINE
  5
1B4
330
1F
100
AcDbEntity
  8
0
  6
Continuous
 62
     7
370
    15
100
AcDbPolyline
 90
       49
 70
   128
 43
0.0
 10
272.1410786363
 20
37.1902617289
 10
271.2596522599
 20
36.6147124432
 10
270.3933073332
 20
35.9155856265
 10
269.5568672581
 20
35.1048435323
 10
268.7646437561
 20
34.1963581828
 10
268.0301919911
 20
33.205674014
 10
267.3660786363
 20
32.1497419068
 10
266.7836668554
 20
31.0466291524
 10
266.2929218754
 20
29.9152103157
 10
265.902240479
 20
28.7748442868
 10
265.6183073332
 20
27.6450430446
 10
265.4459806129
 20
26.5451378016
 10
265.3882088759
 20
25.4939482414
 10
265.4459806129
 20
24.5094605089
 10
265.6183073332
 20
23.6085194621
 10
265.902240479
 20
22.8065404521
 10
266.2929218754
 20
22.1172455622
 10
266.7836668554
 20
21.552428819
 10
267.3660786363
 20
21.1217543935
 10
268.0301919911
 20
20.8325912446
 10
268.7646437561
 20
20.689887034
 10
269.5568672581
 20
20.6960834703
 10
270.3933073332
 20
20.8510745307
 10
271.2596522599
 20
21.1522082751
 10
272.1410786363
 20
21.5943322219
 10
273.0225050126
 20
22.1698815075
 10
273.8888499393
 20
22.8690083243
 10
274.7252900145
 20
23.6797504184
 10
275.5175135164
 20
24.588235768
 10
276.2519652815
 20
25.5789199368
 10
276.9160786363
 20
26.6348520439
 10
277.4984904172
 20
27.7379647984
 10
277.9892353972
 20
28.869383635
 10
278.3799167936
 20
30.0097496639
 10
278.6638499393
 20
31.1395509061
 10
278.8361766597
 20
32.2394561492
 10
278.8939483966
 20
33.2906457093
 10
278.8361766597
 20
34.2751334418
 10
278.6638499393
 20
35.1760744886
 10
278.3799167936
 20
35.9780534986
 10
277.9892353972
 20
36.6673483885
 10
277.4984904172
 20
37.2321651318
 10
276.9160786363
 20
37.6628395572
 10
276.2519652815
 20
37.9520027061
 10
275.5175135164
 20
38.0947069167
 10
274.7252900145
 20
38.0885104805
 10
273.8888499393
 20
37.9335194201
 10
273.0225050126
 20
37.6323856756
 10
272.1410786363
 20
37.1902617289
  0
LWPOLYLINE
  5
1B5
330
1F
100
AcDbEntity
  8
0
  6
Continuous
 62
     7
370
    15
100
AcDbPolyline
 90
       26
 70
   128
 43
0.0
 10
271.99965728
 20
37.4352107024
 10
271.0997717125
 20
36.8476080286
 10
270.2152834366
 20
36.1338398126
 10
269.3613262918
 20
35.3061188264
 10
268.5525117217
 20
34.3786076056
 10
267.8026787679
 20
33.3671761244
 10
267.12465728
 20
32.2891302558
 10
266.5300483938
 20
31.1629156636
 10
266.029026032
 20
30.0078021916
 10
265.6301628263
 20
28.8435541516
 10
265.3402834366
 20
27.6900921504
 10
265.1643477797
 20
26.5671522426
 10
265.1053661635
 20
25.4939482414
 10
265.1643477797
 20
24.4888429648
 10
265.3402834366
 20
23.5690340427
 10
265.6301628263
 20
22.7502596608
 10
266.029026032
 20
22.0465292757
 10
266.5300483938
 20
21.4698839096
 10
267.12465728
 20
21.0301901244
 10
267.8026787679
 20
20.7349712028
 10
268.5525117217
 20
20.5892784224
 10
269.3613262918
 20
20.5956046269
 10
270.2152834366
 20
20.7538415734
 10
271.0997717125
 20
21.0612817837
 10
271.99965728
 20
21.5126648707
 10
272.0007777962
 20
21.5133118361
  0
LWPOLYLINE
  5
1B6
330
1F
100
AcDbEntity
  8
0
  6
Continuous
 62
     7
370
    15
100
AcDbPolyline
 90
       13
 70
   128
 43
0.0
 10
278.8939483966
 20
33.4539273317
 10
278.8349667804
 20
34.4590326083
 10
278.6590311235
 20
35.3788415305
 10
278.3691517338
 20
36.1976159124
 10
277.9702885281
 20
36.9013462974
 10
277.4692661663
 20
37.4779916635
 10
276.87465728
 20
37.9176854487
 10
276.1966357922
 20
38.2129043703
 10
275.4468028383
 20
38.3585971507
 10
274.6379882682
 20
38.3522709462
 10
273.7840311235
 20
38.1940339997
 10
272.8995428475
 20
37.8865937894
 10
271.99965728
 20
37.4352107024
  0
SPLINE
  5
1B7
330
1F
100
AcDbEntity
  8
0
  6
Continuous
 62
     7
370
    15
100
AcDbSpline
210
0.0
220
0.0
230
1.0
 70
    11
 71
     3
 72
    77
 73
    73
 74
     0
 42
0.000000001
 43
0.00000001
 40
0.0
 40
0.0
 40
0.0
 40
0.0
 40
0.0312499999999998
 40
0.0312499999999998
 40
0.0624999999999996
 40
0.0624999999999996
 40
0.0937499999999994
 40
0.0937499999999994
 40
0.1249999999999992
 40
0.1249999999999992
 40
0.156249999999999
 40
0.156249999999999
 40
0.1874999999999988
 40
0.1874999999999988
 40
0.2187499999999986
 40
0.2187499999999986
 40
0.2499999999999984
 40
0.2499999999999984
 40
0.2812499999999982
 40
0.2812499999999982
 40
0.3124999999999981
 40
0.3124999999999981
 40
0.3437499999999979
 40
0.3437499999999979
 40
0.3593749999999978
 40
0.3593749999999978
 40
0.3749999999999977
 40
0.3906249999999976
 40
0.3906249999999976
 40
0.4062499999999974
 40
0.4062499999999974
 40
0.4374999999999972
 40
0.4374999999999972
 40
0.468749999999997
 40
0.468749999999997
 40
0.4999999999999967
 40
0.4999999999999967
 40
0.5312499999999964
 40
0.5312499999999964
 40
0.5624999999999963
 40
0.5624999999999963
 40
0.5937499999999961
 40
0.5937499999999961
 40
0.6249999999999959
 40
0.6249999999999959
 40
0.6562499999999957
 40
0.6562499999999957
 40
0.6874999999999956
 40
0.6874999999999956
 40
0.7187499999999953
 40
0.7187499999999953
 40
0.7499999999999951
 40
0.7499999999999951
 40
0.7656249999999952
 40
0.7656249999999952
 40
0.7812499999999953
 40
0.7812499999999953
 40
0.812499999999996
 40
0.812499999999996
 40
0.8437499999999968
 40
0.8437499999999968
 40
0.8749999999999974
 40
0.8749999999999974
 40
0.8906249999999978
 40
0.8906249999999978
 40
0.9062499999999981
 40
0.9062499999999981
 40
0.9374999999999987
 40
0.9374999999999987
 40
0.9687499999999993
 40
0.9687499999999993
 40
1.0
 40
1.0
 40
1.0
 40
1.0
 10
268.576538914017
 20
40.64978213710689
 30
0.0
 10
268.7316846359614
 20
40.62656679966692
 30
0.0
 10
268.882843712368
 20
40.59561689026941
 30
0.0
 10
269.1780655273362
 20
40.52101464202307
 30
0.0
 10
269.3230561268626
 20
40.47700346938625
 30
0.0
 10
269.60162722977
 20
40.378668555803
 30
0.0
 10
269.7333756710585
 20
40.32510116503722
 30
0.0
 10
269.9824693336445
 20
40.21025343501597
 30
0.0
 10
270.1008056402137
 20
40.14834213016391
 30
0.0
 10
270.316653510188
 20
40.01998847572744
 30
0.0
 10
270.4140836822231
 20
39.95378923468108
 30
0.0
 10
270.588155191191
 20
39.81704175937428
 30
0.0
 10
270.6653828883112
 20
39.74574978309321
 30
0.0
 10
270.7932866836312
 20
39.60208198370738
 30
0.0
 10
270.8443528572489
 20
39.52967716175366
 30
0.0
 10
270.9201096680429
 20
39.38236695896753
 30
0.0
 10
270.9447880051662
 20
39.30661574266186
 30
0.0
 10
270.9636803651244
 20
39.15647449007929
 30
0.0
 10
270.9584075599626
 20
39.08179362752014
 30
0.0
 10
270.9165072635752
 20
38.931569582915
 30
0.0
 10
270.8790254199717
 20
38.85526295978451
 30
0.0
 10
270.7732740018052
 20
38.7080380626784
 30
0.0
 10
270.7050984285845
 20
38.63629444584387
 30
0.0
 10
270.5780056287249
 20
38.53095706876189
 30
0.0
 10
270.5312764713707
 20
38.49615600906836
 30
0.0
 10
270.431995630611
 20
38.42933591954509
 30
0.0
 10
270.3263212719793
 20
38.3647723530588
 30
0.0
 10
270.2080292008122
 20
38.30463459549775
 30
0.0
 10
270.0833108980107
 20
38.24678258472161
 30
0.0
 10
270.0175649090288
 20
38.21896975714125
 30
0.0
 10
269.8159635709146
 20
38.14125577852952
 30
0.0
 10
269.6741776573478
 20
38.09619271078905
 30
0.0
 10
269.3763843544227
 20
38.01999446660425
 30
0.0
 10
269.2234859308571
 20
37.98976820510226
 30
0.0
 10
268.9157007957538
 20
37.94605212249137
 30
0.0
 10
268.7584877587158
 20
37.93238278883998
 30
0.0
 10
268.4505996170129
 20
37.92306866080276
 30
0.0
 10
268.299151794018
 20
37.92715907921647
 30
0.0
 10
268.0008682932672
 20
37.95358874635858
 30
0.0
 10
267.8552374209671
 20
37.97600894978338
 30
0.0
 10
267.5785409337012
 20
38.03819850825958
 30
0.0
 10
267.4462204893248
 20
38.07806120048526
 30
0.0
 10
267.1937871225177
 20
38.17639173132432
 30
0.0
 10
267.0768273455563
 20
38.23367880745501
 30
0.0
 10
266.8619040641871
 20
38.36339565286902
 30
0.0
 10
266.7634853704187
 20
38.43611870492254
 30
0.0
 10
266.5871077057351
 20
38.59653265543337
 30
0.0
 10
266.5112445413143
 20
38.68222583562694
 30
0.0
 10
266.3836719669642
 20
38.86357682718376
 30
0.0
 10
266.3317437503993
 20
38.95977840359814
 30
0.0
 10
266.2551571206309
 20
39.15948228995853
 30
0.0
 10
266.2311368875151
 20
39.26088426151199
 30
0.0
 10
266.2168494621586
 20
39.41430760358027
 30
0.0
 10
266.2157363848251
 20
39.46567035963281
 30
0.0
 10
266.2212152436513
 20
39.56868043034344
 30
0.0
 10
266.2278937381328
 20
39.62065958988492
 30
0.0
 10
266.2597749624592
 20
39.77364383151116
 30
0.0
 10
266.2964575809358
 20
39.87191117582038
 30
0.0
 10
266.4019968119154
 20
40.05939095586476
 30
0.0
 10
266.4722930320318
 20
40.14974075713382
 30
0.0
 10
266.6414638436057
 20
40.31078912411053
 30
0.0
 10
266.7400949568266
 20
40.38217471400331
 30
0.0
 10
266.9098973651933
 20
40.47481860847246
 30
0.0
 10
266.9702410706685
 20
40.50323423845295
 30
0.0
 10
267.0948848623069
 20
40.55365388124689
 30
0.0
 10
267.1595829583202
 20
40.57589537174292
 30
0.0
 10
267.3606110518458
 20
40.63407800265286
 30
0.0
 10
267.5056013374661
 20
40.66159192358656
 30
0.0
 10
267.8019417963751
 20
40.69340823124875
 30
0.0
 10
267.9538947730539
 20
40.6981977852214
 30
0.0
 10
268.2651831537066
 20
40.68797083251734
 30
0.0
 10
268.4213931920726
 20
40.67299747454686
 30
0.0
 10
268.576538914017
 20
40.64978213710689
 30
0.0
  0
LINE
  5
1B8
330
1F
100
AcDbEntity
  8
0
  6
Continuous
 62
     7
370
    15
100
AcDbLine
 10
275.8407192789
 20
29.3015285401
 30
0.0
 11
277.2181053252
 21
31.0149836871
 31
0.0
  0
SPLINE
  5
1B9
330
1F
100
AcDbEntity
  8
0
  6
Continuous
 62
     7
370
    15
100
AcDbSpline
210
0.0
220
0.0
230
1.0
 70
     8
 71
     3
 72
    22
 73
    18
 74
     0
 42
0.000000001
 43
0.00000001
 40
0.0
 40
0.0
 40
0.0
 40
0.0
 40
0.0500000000000156
 40
0.1
 40
0.15
 40
0.2
 40
0.25
 40
0.2968749999999255
 40
0.34375
 40
0.3906249999999996
 40
0.4374999999999988
 40
0.5153528850584173
 40
0.5153528850584173
 40
0.53125
 40
0.6249999999995612
 40
0.8125
 40
0.8824198414285126
 40
0.8824198414285126
 40
0.8824198414285126
 40
0.8824198414285126
 10
277.2181053251898
 20
31.01498368712572
 30
0.0
 10
277.2838435141243
 20
31.09676136919897
 30
0.0
 10
277.4125982274016
 20
31.2747642602517
 30
0.0
 10
277.5889033169859
 20
31.58012922909989
 30
0.0
 10
277.7376113750113
 20
31.91870024878142
 30
0.0
 10
277.8442989687051
 20
32.27448691421629
 30
0.0
 10
277.8948464616801
 20
32.6180971109504
 30
0.0
 10
277.8859175862517
 20
32.92820640947892
 30
0.0
 10
277.8208889016357
 20
33.18852521361062
 30
0.0
 10
277.704690643139
 20
33.39267017518866
 30
0.0
 10
277.5128431389571
 20
33.5654955240239
 30
0.0
 10
277.3376140277653
 20
33.61973111761101
 30
0.0
 10
277.2006669473203
 20
33.63281694213624
 30
0.0
 10
277.0527263069831
 20
33.64667555772211
 30
0.0
 10
276.7160483945682
 20
33.67590916512391
 30
0.0
 10
276.4881047350638
 20
33.69670225401249
 30
0.0
 10
275.9878882672353
 20
33.74145470156154
 30
0.0
 10
275.8406984792049
 20
33.75461365346493
 30
0.0
  0
SPLINE
  5
1BA
330
1F
100
AcDbEntity
  8
0
  6
Continuous
 62
     7
370
    15
100
AcDbSpline
210
0.0
220
0.0
230
1.0
 70
     8
 71
     3
 72
    22
 73
    18
 74
     0
 42
0.000000001
 43
0.00000001
 40
0.0
 40
0.0
 40
0.0
 40
0.0
 40
0.0500000000000156
 40
0.1
 40
0.15
 40
0.2
 40
0.25
 40
0.2968749999999255
 40
0.34375
 40
0.3906249999999996
 40
0.4374999999999988
 40
0.5153528850584173
 40
0.5153528850584173
 40
0.53125
 40
0.6249999999995612
 40
0.8125
 40
0.8812161579345599
 40
0.8812161579345599
 40
0.8812161579345599
 40
0.8812161579345599
 10
267.0640519473496
 20
25.15317344423793
 30
0.0
 10
266.9992831058598
 20
25.15896475466926
 30
0.0
 10
266.8691091696476
 20
25.18843751879259
 30
0.0
 10
266.6933744986027
 20
25.29019395621194
 30
0.0
 10
266.5445136008217
 20
25.45708398692505
 30
0.0
 10
266.437866947611
 20
25.68968806563996
 30
0.0
 10
266.3873087600046
 20
25.97493851652611
 30
0.0
 10
266.3962398597478
 20
26.29535600617856
 30
0.0
 10
266.4612696795639
 20
26.63075769629666
 30
0.0
 10
266.5774612212997
 20
26.9690537021357
 30
0.0
 10
266.7693401257205
 20
27.3634206021003
 30
0.0
 10
266.9444481640277
 20
27.61982079469655
 30
0.0
 10
267.0814535218543
 20
27.79109484109769
 30
0.0
 10
267.2294979726141
 20
27.97589121429401
 30
0.0
 10
267.5673212073794
 20
28.39526964796266
 30
0.0
 10
267.7863024130111
 20
28.66809026041199
 30
0.0
 10
268.294837785873
 20
29.30073015226327
 30
0.0
 10
268.441458855637
 20
29.48312367803707
 30
0.0
  0
LINE
  5
1BB
330
1F
100
AcDbEntity
  8
0
  6
Continuous
 62
     7
370
    15
100
AcDbLine
 10
268.4414379936
 20
25.0300143759
 30
0.0
 11
267.0640519473
 21
25.1531734442
 31
0.0
  0
LINE
  5
1BC
330
1F
100
AcDbEntity
  8
0
  6
Continuous
 62
     7
370
    15
100
AcDbLine
 10
243.808754156
 20
32.1411966127
 30
0.0
 11
241.9809000373
 21
33.1963943349
 31
0.0
  0
SPLINE
  5
1BD
330
1F
100
AcDbEntity
  8
0
  6
Continuous
 62
     7
370
    15
100
AcDbSpline
210
0.0
220
0.0
230
1.0
 70
     8
 71
     3
 72
     8
 73
     4
 74
     0
 42
0.000000001
 43
0.00000001
 40
0.0000000000000004
 40
0.0000000000000004
 40
0.0000000000000004
 40
0.0000000000000004
 40
0.0011862984959127
 40
0.0011862984959127
 40
0.0011862984959127
 40
0.0011862984959127
 10
241.9809000373139
 20
33.19639433490624
 30
0.0
 10
241.9698378380562
 20
33.25850277982502
 30
0.0
 10
241.9592118314824
 20
33.32029556712664
 30
0.0
 10
241.9489987036651
 20
33.38178839384453
 30
0.0
  0
SPLINE
  5
1BE
330
1F
100
AcDbEntity
  8
0
  6
Continuous
 62
     7
370
    15
100
AcDbSpline
210
0.0
220
0.0
230
1.0
 70
     8
 71
     3
 72
    13
 73
     9
 74
     0
 42
0.000000001
 43
0.00000001
 40
0.0
 40
0.0
 40
0.0
 40
0.0
 40
0.1816492558356106
 40
0.3706247117710422
 40
0.5261459199677893
 40
0.686174896386241
 40
0.8417493105824319
 40
1.0
 40
1.0
 40
1.0
 40
1.0
 10
266.975663599702
 20
25.48303623678632
 30
0.0
 10
266.9143216466371
 20
25.49400840458224
 30
0.0
 10
266.7891637230908
 20
25.51639526495311
 30
0.0
 10
266.6428730383365
 20
25.61644492081098
 30
0.0
 10
266.5293863769846
 20
25.75285015196923
 30
0.0
 10
266.4517246133966
 20
25.91566796229657
 30
0.0
 10
266.4016121725255
 20
26.10719053291231
 30
0.0
 10
266.3963745623803
 20
26.25256728983157
 30
0.0
 10
266.3937334243489
 20
26.32587554893145
 30
0.0
  0
SPLINE
  5
1BF
330
1F
100
AcDbEntity
  8
0
  6
Continuous
 62
     7
370
    15
100
AcDbSpline
210
0.0
220
0.0
230
1.0
 70
     8
 71
     3
 72
    13
 73
     9
 74
     0
 42
0.000000001
 43
0.00000001
 40
0.0
 40
0.0
 40
0.0
 40
0.0
 40
0.0049930824824045
 40
0.1388596692558775
 40
0.3659305670164426
 40
0.5780059692977982
 40
0.7950913004618447
 40
1.0
 40
1.0
 40
1.0
 40
1.0
 10
268.6151589768041
 20
29.72658350231814
 30
0.0
 10
268.615149783434
 20
29.72643792263466
 30
0.0
 10
268.6148941120442
 20
29.72238929200008
 30
0.0
 10
268.600609265073
 20
29.69738409492331
 30
0.0
 10
268.5727277926921
 20
29.65441628723113
 30
0.0
 10
268.5307525742503
 20
29.59718744304464
 30
0.0
 10
268.4871982051769
 20
29.5404141589177
 30
0.0
 10
268.456409166393
 20
29.50184957818965
 30
0.0
 10
268.4414588556345
 20
29.48312367803398
 30
0.0
  0
SPLINE
  5
1C0
330
1F
100
AcDbEntity
  8
0
  6
Continuous
 62
     7
370
    15
100
AcDbSpline
210
0.0
220
0.0
230
1.0
 70
     8
 71
     3
 72
    16
 73
    12
 74
     0
 42
0.000000001
 43
0.00000001
 40
0.0
 40
0.0
 40
0.0
 40
0.0
 40
0.2499999999999997
 40
0.2499999999999997
 40
0.4999999999999994
 40
0.4999999999999994
 40
0.6249999999999993
 40
0.6249999999999993
 40
0.7499999999999991
 40
0.7499999999999991
 40
1.0
 40
1.0
 40
1.0
 40
1.0
 10
275.8406984792049
 20
33.75461365346492
 30
0.0
 10
275.8092090101192
 20
33.75742885154835
 30
0.0
 10
275.7752034977285
 20
33.75887794922584
 30
0.0
 10
275.698302014519
 20
33.75694938181223
 30
0.0
 10
275.6553481986319
 20
33.75379405533523
 30
0.0
 10
275.5817540173288
 20
33.74000097469814
 30
0.0
 10
275.5557106689256
 20
33.73366907433699
 30
0.0
 10
275.5074110435845
 20
33.71809090393626
 30
0.0
 10
275.4852614446841
 20
33.70887515721019
 30
0.0
 10
275.4302807350205
 20
33.68079301145819
 30
0.0
 10
275.4082073354174
 20
33.66242874672573
 30
0.0
 10
275.3917174773659
 20
33.64525658675721
 30
0.0
  0
SPLINE
  5
1C1
330
1F
100
AcDbEntity
  8
0
  6
Continuous
 62
     7
370
    15
100
AcDbSpline
210
0.0
220
0.0
230
1.0
 70
     8
 71
     3
 72
     8
 73
     4
 74
     0
 42
0.000000001
 43
0.00000001
 40
0.0
 40
0.0
 40
0.0
 40
0.0
 40
1.0
 40
1.0
 40
1.0
 40
1.0
 10
275.3917174773659
 20
33.64525658675706
 30
0.0
 10
275.3413419569555
 20
33.66442928025798
 30
0.0
 10
275.2898021827533
 20
33.68715238115098
 30
0.0
 10
275.2509320449975
 20
33.70959163404444
 30
0.0
  0
LINE
  5
1C2
330
1F
100
AcDbEntity
  8
0
  6
Continuous
 62
     7
370
    15
100
AcDbLine
 10
274.6080124385
 20
34.3188473408
 30
0.0
 11
274.5226375987
 21
34.3651640071
 31
0.0
  0
LINE
  5
1C3
330
1F
100
AcDbEntity
  8
0
  6
Continuous
 62
     7
370
    15
100
AcDbLine
 10
242.0536850968
 20
33.9815693924
 30
0.0
 11
242.0337916974
 21
33.7522236143
 31
0.0
  0
ARC
  5
1C4
330
1F
100
AcDbEntity
  8
0
  6
Continuous
 62
     7
370
    15
100
AcDbCircle
 10
258.0363571261
 20
32.3249249673
 30
0.0
 40
16.06285239185859
100
AcDbArc
 50
176.9224853833
 51
185.7271838377
  0
LINE
  5
1C5
330
1F
100
AcDbEntity
  8
0
  6
Continuous
 62
     7
370
    15
100
AcDbLine
 10
273.8384762114
 20
34.5249850306
 30
0.0
 11
275.250932045
 21
33.709591634
 31
0.0
  0
ARC
  5
1C6
330
1F
100
AcDbEntity
  8
0
  6
Continuous
 62
     7
370
    15
100
AcDbCircle
 10
265.4881541363
 20
33.8537468623
 30
0.0
 40
6.788942299887814
100
AcDbArc
 50
338.0757541733
 51
2.3847869699
  0
LINE
  5
1C7
330
1F
100
AcDbEntity
  8
0
  6
Continuous
 62
     7
370
    15
100
AcDbLine
 10
271.7861088172
 20
31.3188889986
 30
0.0
 11
275.250932045
 21
29.3186891247
 31
0.0
  0
LINE
  5
1C8
330
1F
100
AcDbEntity
  8
0
  6
Continuous
 62
     7
370
    15
100
AcDbLine
 10
269.108459409
 20
24.7923098546
 30
0.0
 11
269.1938333492
 21
24.7459936461
 31
0.0
  0
LINE
  5
1C9
330
1F
100
AcDbEntity
  8
0
  6
Continuous
 62
     7
370
    15
100
AcDbLine
 10
266.461522963
 20
26.5584598577
 30
0.0
 11
268.4655398026
 21
25.4015655614
 31
0.0
  0
LWPOLYLINE
  5
1CA
330
1F
100
AcDbEntity
  8
0
  6
Continuous
 62
     7
370
    15
100
AcDbPolyline
 90
        3
 70
   128
 43
0.0
 10
241.0548967684
 20
33.0814411307
 10
241.1125410527
 20
34.4908954029
 10
241.1168431437
 20
34.5436836277
  0
ARC
  5
1CB
330
1F
100
AcDbEntity
  8
0
  6
Continuous
 62
     7
370
    15
100
AcDbCircle
 10
252.7513532517
 20
32.7791366682
 30
0.0
 40
11.70036248393448
100
AcDbArc
 50
178.5194734317
 51
203.8931641993
  0
LINE
  5
1CC
330
1F
100
AcDbEntity
  8
0
  6
Continuous
 62
     7
370
    15
100
AcDbLine
 10
212.4999504101
 20
52.1317284913
 30
0.0
 11
212.4190202855
 21
52.2022091955
 31
0.0
  0
LINE
  5
1CD
330
1F
100
AcDbEntity
  8
0
  6
Continuous
 62
     7
370
    15
100
AcDbLine
 10
238.5584863057
 20
35.1721117278
 30
0.0
 11
238.1229512487
 21
35.5610762452
 31
0.0
  0
LINE
  5
1CE
330
1F
100
AcDbEntity
  8
0
  6
Continuous
 62
     7
370
    15
100
AcDbLine
 10
240.0151093643
 20
34.3312211349
 30
0.0
 11
238.5584863057
 21
35.1721117278
 31
0.0
  0
LINE
  5
1CF
330
1F
100
AcDbEntity
  8
0
  6
Continuous
 62
     7
370
    15
100
AcDbLine
 10
242.0536850968
 20
33.9815693924
 30
0.0
 11
242.0536850968
 21
33.8364196253
 31
0.0
  0
LINE
  5
1D0
330
1F
100
AcDbEntity
  8
0
  6
Continuous
 62
     7
370
    15
100
AcDbLine
 10
242.0536850968
 20
33.1543764145
 30
0.0
 11
242.0536850968
 21
30.7219833691
 31
0.0
  0
LINE
  5
1D1
330
1F
100
AcDbEntity
  8
0
  6
Continuous
 62
     7
370
    15
100
AcDbLine
 10
242.0536850968
 20
34.1904590496
 30
0.0
 11
242.0536850968
 21
33.9815693924
 31
0.0
  0
LINE
  5
1D2
330
1F
100
AcDbEntity
  8
0
  6
Continuous
 62
     7
370
    15
100
AcDbLine
 10
242.0536850968
 20
30.7219833691
 30
0.0
 11
242.0536850968
 21
27.8519943488
 31
0.0
  0
LINE
  5
1D3
330
1F
100
AcDbEntity
  8
0
  6
Continuous
 62
     7
370
    15
100
AcDbLine
 10
268.5368864046
 20
25.343439392
 30
0.0
 11
266.9756635997
 21
25.4830362368
 31
0.0
  0
SPLINE
  5
1D4
330
1F
100
AcDbEntity
  8
0
  6
Continuous
 62
     7
370
    15
100
AcDbSpline
210
0.0
220
0.0
230
1.0
 70
     8
 71
     3
 72
    16
 73
    12
 74
     0
 42
0.000000001
 43
0.00000001
 40
0.0
 40
0.0
 40
0.0
 40
0.0
 40
0.25
 40
0.25
 40
0.5
 40
0.5
 40
0.625
 40
0.625
 40
0.75
 40
0.75
 40
1.0
 40
1.0
 40
1.0
 40
1.0
 10
268.4414379936428
 20
25.0300143758592
 30
0.0
 10
268.472486747717
 20
25.02723814937106
 30
0.0
 10
268.5031604714675
 20
25.02788548610589
 30
0.0
 10
268.559640001437
 20
25.04198632775456
 30
0.0
 10
268.5862073886304
 20
25.05490440851363
 30
0.0
 10
268.611429311556
 20
25.0969603268728
 30
0.0
 10
268.6167999387765
 20
25.11508825381263
 30
0.0
 10
268.6178292124125
 20
25.15775409513973
 30
0.0
 10
268.6134299179371
 20
25.18221597845288
 30
0.0
 10
268.5903031218322
 20
25.25508137537766
 30
0.0
 10
268.5642756728559
 20
25.30115563523804
 30
0.0
 10
268.5368864045646
 20
25.34343939195408
 30
0.0
  0
SPLINE
  5
1D5
330
1F
100
AcDbEntity
  8
0
  6
Continuous
 62
     7
370
    15
100
AcDbSpline
210
0.0
220
0.0
230
1.0
 70
     8
 71
     3
 72
     8
 73
     4
 74
     0
 42
0.000000001
 43
0.00000001
 40
0.0
 40
0.0
 40
0.0
 40
0.0
 40
1.0
 40
1.0
 40
1.0
 40
1.0
 10
268.4655398025918
 20
25.40156556143429
 30
0.0
 10
268.5044958849718
 20
25.37907669376527
 30
0.0
 10
268.5269778587635
 20
25.3592224520944
 30
0.0
 10
268.5368864045646
 20
25.34343939195412
 30
0.0
  0
SPLINE
  5
1D6
330
1F
100
AcDbEntity
  8
0
  6
Continuous
 62
     7
370
    15
100
AcDbSpline
210
0.0
220
0.0
230
1.0
 70
     8
 71
     3
 72
     8
 73
     4
 74
     0
 42
0.000000001
 43
0.00000001
 40
0.0
 40
0.0
 40
0.0
 40
0.0
 40
1.0
 40
1.0
 40
1.0
 40
1.0
 10
275.2509320449985
 20
29.31868912465622
 30
0.0
 10
275.2898881273786
 20
29.29620025698718
 30
0.0
 10
275.3405564508462
 20
29.29261764863275
 30
0.0
 10
275.3917174773815
 20
29.30064913871338
 30
0.0
  0
SPLINE
  5
1D7
330
1F
100
AcDbEntity
  8
0
  6
Continuous
 62
     7
370
    15
100
AcDbSpline
210
0.0
220
0.0
230
1.0
 70
     8
 71
     3
 72
    16
 73
    12
 74
     0
 42
0.000000001
 43
0.00000001
 40
0.0
 40
0.0
 40
0.0
 40
0.0
 40
0.2500000000000033
 40
0.2500000000000033
 40
0.374999999999999
 40
0.374999999999999
 40
0.4999999999999948
 40
0.4999999999999948
 40
0.7499999999999973
 40
0.7499999999999973
 40
1.0
 40
1.0
 40
1.0
 40
1.0
 10
275.3917174773816
 20
29.30064913871331
 30
0.0
 10
275.4080331845271
 20
29.25211038767342
 30
0.0
 10
275.4304080015552
 20
29.20327833433959
 30
0.0
 10
275.4845426388962
 20
29.14907753898532
 30
0.0
 10
275.5064764285774
 20
29.13474950053875
 30
0.0
 10
275.5545914483487
 20
29.12026138637064
 30
0.0
 10
275.5805597620515
 20
29.12014481012579
 30
0.0
 10
275.6542073756562
 20
29.13523574296552
 30
0.0
 10
275.6976278676641
 20
29.16267249263164
 30
0.0
 10
275.7748315147895
 20
29.22558044896325
 30
0.0
 10
275.8094544421639
 20
29.26263538043444
 30
0.0
 10
275.8407192788966
 20
29.30152854010075
 30
0.0
  0
LINE
  5
1D8
330
1F
100
AcDbEntity
  8
0
  6
Continuous
 62
     7
370
    15
100
AcDbLine
 10
241.9809000373
 20
22.7038449022
 30
0.0
 11
243.808754156
 21
21.6486471799
 31
0.0
  0
SPLINE
  5
1D9
330
1F
100
AcDbEntity
  8
0
  6
Continuous
 62
     7
370
    15
100
AcDbSpline
210
0.0
220
0.0
230
1.0
 70
     8
 71
     3
 72
    14
 73
    10
 74
     0
 42
0.000000001
 43
0.00000001
 40
0.0
 40
0.0
 40
0.0
 40
0.0
 40
0.25
 40
0.25
 40
0.5
 40
0.5
 40
0.75
 40
0.75
 40
1.0
 40
1.0
 40
1.0
 40
1.0
 10
243.7632469156389
 20
21.5302791598456
 30
0.0
 10
243.7465720725725
 20
21.48690654173902
 30
0.0
 10
243.7262768296566
 20
21.44667621229317
 30
0.0
 10
243.6779798505862
 20
21.37290432462103
 30
0.0
 10
243.6497610027811
 20
21.33933471794392
 30
0.0
 10
243.5868356543579
 20
21.28578331228129
 30
0.0
 10
243.5516724783409
 20
21.26532728292164
 30
0.0
 10
243.4769894891325
 20
21.24789498940976
 30
0.0
 10
243.4384646139241
 20
21.25184229839466
 30
0.0
 10
243.4045209112268
 20
21.27143758086448
 30
0.0
  0
LINE
  5
1DA
330
1F
100
AcDbEntity
  8
0
  6
Continuous
 62
     7
370
    15
100
AcDbLine
 10
243.4045209112
 20
21.2714375809
 30
0.0
 11
241.9489987037
 21
22.111692666
 31
0.0
  0
SPLINE
  5
1DB
330
1F
100
AcDbEntity
  8
0
  6
Continuous
 62
     7
370
    15
100
AcDbSpline
210
0.0
220
0.0
230
1.0
 70
     8
 71
     3
 72
     8
 73
     4
 74
     0
 42
0.000000001
 43
0.00000001
 40
0.0
 40
0.0
 40
0.0
 40
0.0
 40
0.0011862984959112
 40
0.0011862984959112
 40
0.0011862984959112
 40
0.0011862984959112
 10
241.9489987036651
 20
22.1116926659575
 30
0.0
 10
241.9592118314824
 20
22.30909156784643
 30
0.0
 10
241.9698378380577
 20
22.50647740482322
 30
0.0
 10
241.9809000373153
 20
22.70384490217355
 30
0.0
  0
SPLINE
  5
1DC
330
1F
100
AcDbEntity
  8
0
  6
Continuous
 62
     7
370
    15
100
AcDbSpline
210
0.0
220
0.0
230
1.0
 70
     8
 71
     3
 72
    10
 73
     6
 74
     0
 42
0.000000001
 43
0.00000001
 40
0.0
 40
0.0
 40
0.0
 40
0.0
 40
0.0078069566270912
 40
0.4815006910145673
 40
1.0
 40
1.0
 40
1.0
 40
1.0
 10
276.5661456630734
 20
40.36884595958782
 30
0.0
 10
276.5662158490558
 20
40.36880548237711
 30
0.0
 10
276.5705446292254
 20
40.36630901597363
 30
0.0
 10
276.5539215693749
 20
40.37591224369555
 30
0.0
 10
276.5222444366764
 20
40.39420601649748
 30
0.0
 10
276.5056906304141
 20
40.40376595911136
 30
0.0
  0
ARC
  5
1DD
330
1F
100
AcDbEntity
  8
0
  6
Continuous
 62
     7
370
    15
100
AcDbCircle
 10
252.2892502605
 20
23.237224267
 30
0.0
 40
9.061822229857716
100
AcDbArc
 50
196.3075317257
 51
281.7996323489
  0
SPLINE
  5
1DE
330
1F
100
AcDbEntity
  8
0
  6
Continuous
 62
     7
370
    15
100
AcDbSpline
210
0.0
220
0.0
230
1.0
 70
     8
 71
     3
 72
     8
 73
     4
 74
     0
 42
0.000000001
 43
0.00000001
 40
0.0
 40
0.0
 40
0.0
 40
0.0
 40
1.0
 40
1.0
 40
1.0
 40
1.0
 10
242.2270183910646
 20
23.20108305676042
 30
0.0
 10
242.1448202102789
 20
23.03536273025695
 30
0.0
 10
242.0627858421271
 20
22.86961585491898
 30
0.0
 10
241.9809000373153
 20
22.70384490217355
 30
0.0
  0
LINE
  5
1DF
330
1F
100
AcDbEntity
  8
0
  6
Continuous
 62
     7
370
    15
100
AcDbLine
 10
242.2760378334
 20
23.2293813785
 30
0.0
 11
242.2270183911
 21
23.2010830568
 31
0.0
  0
SPLINE
  5
1E0
330
1F
100
AcDbEntity
  8
0
  6
Continuous
 62
     7
370
    15
100
AcDbSpline
210
0.0
220
0.0
230
1.0
 70
     8
 71
     3
 72
    12
 73
     8
 74
     0
 42
0.000000001
 43
0.00000001
 40
0.0
 40
0.0
 40
0.0
 40
0.0
 40
0.249999999999997
 40
0.249999999999997
 40
0.499999999999994
 40
0.499999999999994
 40
1.0
 40
1.0
 40
1.0
 40
1.0
 10
242.2878200788491
 20
23.56274636872155
 30
0.0
 10
242.3254188634237
 20
23.54104105239726
 30
0.0
 10
242.3555964226701
 20
23.51423918182408
 30
0.0
 10
242.3941861573511
 20
23.4566154769941
 30
0.0
 10
242.4030456425409
 20
23.42556735142272
 30
0.0
 10
242.3979982087025
 20
23.33337837501742
 30
0.0
 10
242.3512959216273
 20
23.27282694804257
 30
0.0
 10
242.2760378334289
 20
23.22938137849062
 30
0.0
  0
LINE
  5
1E1
330
1F
100
AcDbEntity
  8
0
  6
Continuous
 62
     7
370
    15
100
AcDbLine
 10
241.5029315517
 20
24.0158528708
 30
0.0
 11
242.2878200788
 21
23.5627463687
 31
0.0
  0
SPLINE
  5
1E2
330
1F
100
AcDbEntity
  8
0
  6
Continuous
 62
     7
370
    15
100
AcDbSpline
210
0.0
220
0.0
230
1.0
 70
     8
 71
     3
 72
    10
 73
     6
 74
     0
 42
0.000000001
 43
0.00000001
 40
0.0
 40
0.0
 40
0.0
 40
0.0
 40
0.5
 40
0.5
 40
1.0
 40
1.0
 40
1.0
 40
1.0
 10
240.9254638813626
 20
24.00905112528131
 30
0.0
 10
241.0016012717012
 20
24.05300430515403
 30
0.0
 10
241.1051090523855
 20
24.07949097133281
 30
0.0
 10
241.3196043444713
 20
24.08331904172015
 30
0.0
 10
241.4270345888895
 20
24.05966725481674
 30
0.0
 10
241.502931551732
 20
24.01585287078316
 30
0.0
  0
LINE
  5
1E3
330
1F
100
AcDbEntity
  8
0
  6
Continuous
 62
     7
370
    15
100
AcDbLine
 10
240.876444439
 20
23.9807528036
 30
0.0
 11
240.9254638814
 21
24.0090511253
 31
0.0
  0
SPLINE
  5
1E4
330
1F
100
AcDbEntity
  8
0
  6
Continuous
 62
     7
370
    15
100
AcDbSpline
210
0.0
220
0.0
230
1.0
 70
     8
 71
     3
 72
     8
 73
     4
 74
     0
 42
0.000000001
 43
0.00000001
 40
0.0
 40
0.0
 40
0.0
 40
0.0
 40
1.0
 40
1.0
 40
1.0
 40
1.0
 10
240.0151093643438
 20
23.83867170221305
 30
0.0
 10
240.3022641907411
 20
23.88594337112507
 30
0.0
 10
240.5893773093263
 20
23.93330080382781
 30
0.0
 10
240.8764444389983
 20
23.98075280355111
 30
0.0
  0
LINE
  5
1E5
330
1F
100
AcDbEntity
  8
0
  6
Continuous
 62
     7
370
    15
100
AcDbLine
 10
238.5584863057
 20
24.6795622951
 30
0.0
 11
240.0151093643
 21
23.8386717022
 31
0.0
  0
LINE
  5
1E6
330
1F
100
AcDbEntity
  8
0
  6
Continuous
 62
     7
370
    15
100
AcDbLine
 10
238.5584863057
 20
24.6795622951
 30
0.0
 11
241.7001317062
 21
26.4931955805
 31
0.0
  0
ARC
  5
1E7
330
1F
100
AcDbEntity
  8
0
  6
Continuous
 62
     7
370
    15
100
AcDbCircle
 10
251.5304866127
 20
24.5767706212
 30
0.0
 40
9.89350897691535
100
AcDbArc
 50
194.4278782157
 51
238.0157127201
  0
SPLINE
  5
1E8
330
1F
100
AcDbEntity
  8
0
  6
Continuous
 62
     7
370
    15
100
AcDbSpline
210
0.0
220
0.0
230
1.0
 70
     8
 71
     3
 72
    26
 73
    22
 74
     0
 42
0.000000001
 43
0.00000001
 40
0.0
 40
0.0
 40
0.0
 40
0.0
 40
0.1250000000000001
 40
0.1250000000000001
 40
0.1875000000000002
 40
0.1875000000000002
 40
0.2500000000000002
 40
0.2500000000000002
 40
0.3750000000000004
 40
0.3750000000000004
 40
0.5000000000000004
 40
0.5000000000000004
 40
0.6250000000000006
 40
0.6250000000000006
 40
0.6875000000000004
 40
0.6875000000000004
 40
0.7500000000000003
 40
0.7500000000000003
 40
0.8750000000000001
 40
0.8750000000000001
 40
1.0
 40
1.0
 40
1.0
 40
1.0
 10
276.9529402822441
 20
31.24279546569553
 30
0.0
 10
277.0392478113548
 20
31.35016121139885
 30
0.0
 10
277.1172458149095
 20
31.46432147018054
 30
0.0
 10
277.2208316243286
 20
31.6462035316951
 30
0.0
 10
277.2533039264524
 20
31.70906776448611
 30
0.0
 10
277.3121809715677
 20
31.83514127750905
 30
0.0
 10
277.3387203496323
 20
31.89856827720204
 30
0.0
 10
277.4097937652829
 20
32.09000371575782
 30
0.0
 10
277.4460446492094
 20
32.22094300524365
 30
0.0
 10
277.4925855022499
 20
32.47235493771766
 30
0.0
 10
277.5035529514387
 20
32.59494219820441
 30
0.0
 10
277.5009171752023
 20
32.82538386688347
 30
0.0
 10
277.4875792226714
 20
32.93078608402234
 30
0.0
 10
277.4500911932664
 20
33.0738906117338
 30
0.0
 10
277.4345918399908
 20
33.11895543602908
 30
0.0
 10
277.3985293459648
 20
33.20137579370143
 30
0.0
 10
277.3778480031141
 20
33.23912378645328
 30
0.0
 10
277.3077652163892
 20
33.34211258183822
 30
0.0
 10
277.249816126591
 20
33.39709851576185
 30
0.0
 10
277.1162108479514
 20
33.47440789417348
 30
0.0
 10
277.0392562007614
 20
33.49794179217555
 30
0.0
 10
276.9529402870875
 20
33.50565973912303
 30
0.0
  0
LINE
  5
1E9
330
1F
100
AcDbEntity
  8
0
  6
Continuous
 62
     7
370
    15
100
AcDbLine
 10
276.9529402871
 20
33.5056597391
 30
0.0
 11
275.3917174774
 21
33.6452565868
 31
0.0
  0
ELLIPSE
  5
1EA
330
1F
100
AcDbEntity
  8
0
  6
Continuous
 62
     7
370
    15
100
AcDbEllipse
 10
241.4072384874
 20
27.4788200486
 30
0.0
 11
-7.507462981948265E-5
 21
1.066811201853405
 31
0.0
210
0.0
220
0.0
230
1.0
 40
0.7174342186
 41
3.534193645557445
 42
5.104989972352368
  0
SPLINE
  5
1EB
330
1F
100
AcDbEntity
  8
0
  6
Continuous
 62
     7
370
    15
100
AcDbSpline
210
0.0
220
0.0
230
1.0
 70
     8
 71
     3
 72
    10
 73
     6
 74
     0
 42
0.000000001
 43
0.00000001
 40
0.0
 40
0.0
 40
0.0
 40
0.0
 40
0.3482864793192263
 40
0.7262033671299868
 40
1.0
 40
1.0
 40
1.0
 40
1.0
 10
273.3961931728759
 20
41.31557042839714
 30
0.0
 10
273.4388409240225
 20
41.31565823232595
 30
0.0
 10
273.5277646759401
 20
41.31584131008675
 30
0.0
 10
273.6437222679088
 20
41.34406396052417
 30
0.0
 10
273.7037151605881
 20
41.37411735925625
 30
0.0
 10
273.7289192594605
 20
41.3867433354222
 30
0.0
  0
ARC
  5
1EC
330
1F
100
AcDbEntity
  8
0
  6
Continuous
 62
     7
370
    15
100
AcDbCircle
 10
251.3866251317
 20
26.8688776624
 30
0.0
 40
10.89977813506369
100
AcDbArc
 50
195.3652282392
 51
215.9036224404
  0
ARC
  5
1ED
330
1F
100
AcDbEntity
  8
0
  6
Continuous
 62
     7
370
    15
100
AcDbCircle
 10
248.7828351185
 20
25.6013674747
 30
0.0
 40
9.374608857525272
100
AcDbArc
 50
193.3832832944
 51
247.535346068
  0
SPLINE
  5
1EE
330
1F
100
AcDbEntity
  8
0
  6
Continuous
 62
     7
370
    15
100
AcDbSpline
210
0.0
220
0.0
230
1.0
 70
     8
 71
     3
 72
     8
 73
     4
 74
     0
 42
0.000000001
 43
0.00000001
 40
0.0000000000000004
 40
0.0000000000000004
 40
0.0000000000000004
 40
0.0000000000000004
 40
0.0011862984959127
 40
0.0011862984959127
 40
0.0011862984959127
 40
0.0011862984959127
 10
240.0151093643443
 20
23.83867170221209
 30
0.0
 10
239.8979588953492
 20
23.70254765937732
 30
0.0
 10
239.7805191449121
 20
23.56682408421439
 30
0.0
 10
239.6628082770674
 20
23.43148230671992
 30
0.0
  0
LINE
  5
1EF
330
1F
100
AcDbEntity
  8
0
  6
Continuous
 62
     7
370
    15
100
AcDbLine
 10
238.1229512487
 20
24.4280812175
 30
0.0
 11
238.5584863057
 21
24.6795622951
 31
0.0
  0
LINE
  5
1F0
330
1F
100
AcDbEntity
  8
0
  6
Continuous
 62
     7
370
    15
100
AcDbLine
 10
239.6628082771
 20
23.4314823067
 30
0.0
 11
238.224963739
 21
24.2615322904
 31
0.0
  0
SPLINE
  5
1F1
330
1F
100
AcDbEntity
  8
0
  6
Continuous
 62
     7
370
    15
100
AcDbSpline
210
0.0
220
0.0
230
1.0
 70
     8
 71
     3
 72
    10
 73
     6
 74
     0
 42
0.000000001
 43
0.00000001
 40
0.0
 40
0.0
 40
0.0
 40
0.0
 40
0.5
 40
0.5
 40
1.0
 40
1.0
 40
1.0
 40
1.0
 10
238.2249637390354
 20
24.26153229041516
 30
0.0
 10
238.1985543097547
 20
24.27677812942208
 30
0.0
 10
238.1762709055456
 20
24.30063555183434
 30
0.0
 10
238.1421637707241
 20
24.35856164356862
 30
0.0
 10
238.1302637406692
 20
24.39246017504947
 30
0.0
 10
238.1229512487125
 20
24.42808121750382
 30
0.0
  0
ARC
  5
1F2
330
1F
100
AcDbEntity
  8
0
  6
Continuous
 62
     7
370
    15
100
AcDbCircle
 10
271.3899566629
 20
34.9345345171
 30
0.0
 40
2.57416899725237
100
AcDbArc
 50
320.7034755418
 51
349.7435996042
  0
ARC
  5
1F3
330
1F
100
AcDbEntity
  8
0
  6
Continuous
 62
     7
370
    15
100
AcDbCircle
 10
247.6956380715
 20
26.6073109079
 30
0.0
 40
9.733672322459988
100
AcDbArc
 50
197.347557346
 51
238.1970129624
  0
LINE
  5
1F4
330
1F
100
AcDbEntity
  8
0
  6
Continuous
 62
     7
370
    15
100
AcDbLine
 10
275.3917174774
 20
29.3006491387
 30
0.0
 11
276.9529402822
 21
31.2427954657
 31
0.0
  0
LINE
  5
1F5
330
1F
100
AcDbEntity
  8
0
  6
Continuous
 62
     7
370
    15
100
AcDbLine
 10
271.7861088172
 20
31.3188889986
 30
0.0
 11
273.3820510373
 21
33.304225948
 31
0.0
  0
ELLIPSE
  5
1F6
330
1F
100
AcDbEntity
  8
0
  6
Continuous
 62
     7
370
    15
100
AcDbEllipse
 10
241.3465783156
 20
27.4437902929
 30
0.0
 11
0.3250094736511642
 21
1.213179526238669
 31
0.0
210
0.0
220
0.0
230
1.0
 40
0.5176380889
 41
3.619174351347721
 42
5.189970678142632
  0
SPLINE
  5
1F7
330
1F
100
AcDbEntity
  8
0
  6
Continuous
 62
     7
370
    15
100
AcDbSpline
210
0.0
220
0.0
230
1.0
 70
     8
 71
     3
 72
    12
 73
     8
 74
     0
 42
0.000000001
 43
0.00000001
 40
0.0
 40
0.0
 40
0.0
 40
0.0
 40
0.5000000000000003
 40
0.5000000000000003
 40
0.7500000000000001
 40
0.7500000000000001
 40
1.0
 40
1.0
 40
1.0
 40
1.0
 10
267.8804354045878
 20
59.44811359392463
 30
0.0
 10
267.9434952818173
 20
59.48451728617489
 30
0.0
 10
268.0234282350484
 20
59.51134859802647
 30
0.0
 10
268.1564074233551
 20
59.52510543953701
 30
0.0
 10
268.2020785924672
 20
59.52498430573808
 30
0.0
 10
268.2897164111046
 20
59.51220992411643
 30
0.0
 10
268.3304603219588
 20
59.49936993846168
 30
0.0
 10
268.3619740042973
 20
59.48117747688504
 30
0.0
  0
LINE
  5
1F8
330
1F
100
AcDbEntity
  8
0
  6
Continuous
 62
     7
370
    15
100
AcDbLine
 10
268.3619740043
 20
59.4811774769
 30
0.0
 11
269.0216424158
 21
59.1003590089
 31
0.0
  0
LINE
  5
1F9
330
1F
100
AcDbEntity
  8
0
  6
Continuous
 62
     7
370
    15
100
AcDbLine
 10
270.6915097348
 20
57.0255630801
 30
0.0
 11
272.0860089689
 21
57.3313378524
 31
0.0
  0
LINE
  5
1FA
330
1F
100
AcDbEntity
  8
0
  6
Continuous
 62
     7
370
    15
100
AcDbLine
 10
272.0860089689
 20
57.3313378524
 30
0.0
 11
273.5415311765
 21
56.4910827673
 31
0.0
  0
SPLINE
  5
1FB
330
1F
100
AcDbEntity
  8
0
  6
Continuous
 62
     7
370
    15
100
AcDbSpline
210
0.0
220
0.0
230
1.0
 70
     8
 71
     3
 72
    12
 73
     8
 74
     0
 42
0.000000001
 43
0.00000001
 40
0.0
 40
0.0
 40
0.0
 40
0.0
 40
0.250000000000004
 40
0.250000000000004
 40
0.500000000000008
 40
0.500000000000008
 40
1.0
 40
1.0
 40
1.0
 40
1.0
 10
273.541531176489
 20
56.49108276733425
 30
0.0
 10
273.5731873069891
 20
56.47280807218433
 30
0.0
 10
273.5954865839992
 20
56.44898396138603
 30
0.0
 10
273.6173071545912
 20
56.39895205893833
 30
0.0
 10
273.6175879169173
 20
56.37256085052444
 30
0.0
 10
273.5942205427965
 20
56.29648562052952
 30
0.0
 10
273.5471821399915
 20
56.24942256557911
 30
0.0
 10
273.4842566454911
 20
56.21309645082714
 30
0.0
  0
LINE
  5
1FC
330
1F
100
AcDbEntity
  8
0
  6
Continuous
 62
     7
370
    15
100
AcDbLine
 10
267.8804354046
 20
59.4481135939
 30
0.0
 11
267.7886449857
 21
59.395124113
 31
0.0
  0
SPLINE
  5
1FD
330
1F
100
AcDbEntity
  8
0
  6
Continuous
 62
     7
370
    15
100
AcDbSpline
210
0.0
220
0.0
230
1.0
 70
     8
 71
     3
 72
    13
 73
     9
 74
     0
 42
0.000000001
 43
0.00000001
 40
0.0
 40
0.0
 40
0.0
 40
0.0
 40
0.1983936611099915
 40
0.4023917230822395
 40
0.6008824859640405
 40
0.806162500490548
 40
0.9877267913658421
 40
1.0
 40
1.0
 40
1.0
 40
1.0
 10
276.5056906304141
 20
51.13715713250065
 30
0.0
 10
276.5156139894004
 20
51.15596558323575
 30
0.0
 10
276.5357410312571
 20
51.19411380257635
 30
0.0
 10
276.5553844765889
 20
51.25501418899325
 30
0.0
 10
276.5667385319119
 20
51.31764692900941
 30
0.0
 10
276.5663493130589
 20
51.37663026908894
 30
0.0
 10
276.5619971765587
 20
51.41650424502632
 30
0.0
 10
276.5552767015582
 20
51.43334677484991
 30
0.0
 10
276.5548511812538
 20
51.43441319328275
 30
0.0
  0
ARC
  5
1FE
330
1F
100
AcDbEntity
  8
0
  6
Continuous
 62
     7
370
    15
100
AcDbCircle
 10
266.4280585408
 20
48.9963091331
 30
0.0
 40
10.33310818524438
100
AcDbArc
 50
19.8793773798
 51
46.4951814277
  0
LWPOLYLINE
  5
1FF
330
1F
100
AcDbEntity
  8
0
  6
Continuous
 62
     7
370
    15
100
AcDbPolyline
 90
        3
 70
   128
 43
0.0
 10
270.6915097348
 20
57.7065535661
 10
270.72996394
 20
57.6590888847
 10
271.1150946581
 20
57.1458462101
  0
LINE
  5
200
330
1F
100
AcDbEntity
  8
0
  6
Continuous
 62
     7
370
    15
100
AcDbLine
 10
276.4014087467
 20
40.4639861794
 30
0.0
 11
274.5370054069
 21
41.5402833178
 31
0.0
  0
LINE
  5
201
330
1F
100
AcDbEntity
  8
0
  6
Continuous
 62
     7
370
    15
100
AcDbLine
 10
273.7289192595
 20
41.3867433354
 30
0.0
 11
273.7779387018
 21
41.4150416572
 31
0.0
  0
SPLINE
  5
202
330
1F
100
AcDbEntity
  8
0
  6
Continuous
 62
     7
370
    15
100
AcDbSpline
210
0.0
220
0.0
230
1.0
 70
     8
 71
     3
 72
     8
 73
     4
 74
     0
 42
0.000000001
 43
0.00000001
 40
0.0
 40
0.0
 40
0.0
 40
0.0
 40
1.0
 40
1.0
 40
1.0
 40
1.0
 10
273.7779387018249
 20
41.4150416571524
 30
0.0
 10
274.0309246555058
 20
41.45686006185023
 30
0.0
 10
274.283947917853
 20
41.49860526642561
 30
0.0
 10
274.5370054068577
 20
41.54028331782272
 30
0.0
  0
LWPOLYLINE
  5
203
330
1F
100
AcDbEntity
  8
0
  6
Continuous
 62
     7
370
     0
100
AcDbPolyline
 90
       21
 70
   128
 43
0.0
 10
243.4045209112
 20
32.5415333088
 10
243.8751797511
 20
34.4028935518
 10
244.4603134595
 20
36.2788113497
 10
245.1557487978
 20
38.1559074486
 10
245.9565258442
 20
40.0207941908
 10
246.8569333677
 20
41.8601709972
 10
247.8505495621
 20
43.6609192284
 10
248.9302878464
 20
45.4101957481
 10
250.0884474075
 20
47.0955245222
 10
251.3167681228
 20
48.7048855989
 10
252.6064894727
 20
50.2268008364
 10
253.9484130214
 20
51.6504157665
 10
255.3329680214
 20
52.9655770094
 10
256.7502796727
 20
54.1629046892
 10
258.1902395514
 20
55.2338593322
 10
259.6425777039
 20
56.170802771
 10
261.0969358934
 20
56.9670526211
 10
262.5429414758
 20
57.6169299401
 10
263.9702813791
 20
58.115799731
 10
265.3687756566
 20
58.4601039989
 10
265.4911624717
 20
58.4831025657
  0
LINE
  5
204
330
1F
100
AcDbEntity
  8
0
  6
Continuous
 62
     7
370
     0
100
AcDbLine
 10
243.7632469156
 20
32.2070230914
 30
0.0
 11
243.8872622141
 21
32.7620583753
 31
0.0
  0
LWPOLYLINE
  5
205
330
1F
100
AcDbEntity
  8
0
  6
Continuous
 62
     7
370
     0
100
AcDbPolyline
 90
       11
 70
   128
 43
0.0
 10
258.7820796942
 20
55.124369467
 10
258.9870451676
 20
55.2601766641
 10
260.3790358085
 20
56.1067825863
 10
261.7694116447
 20
56.8208710438
 10
263.1488602165
 20
57.3976592147
 10
264.5081422528
 20
57.833283887
 10
265.8381535538
 20
58.1248273336
 10
267.1299859696
 20
58.2703368548
 10
268.3749870644
 20
58.2688378568
 10
269.5648180697
 20
58.1203403795
 10
270.6915097348
 20
57.8258390296
  0
LWPOLYLINE
  5
206
330
1F
100
AcDbEntity
  8
0
  6
Continuous
 62
     7
370
     0
100
AcDbPolyline
 90
        3
 70
   128
 43
0.0
 10
276.5056906304
 20
40.4037659591
 10
276.0608062929
 20
38.588491589
 10
276.0127728033
 20
38.4152408035
  0
LWPOLYLINE
  5
207
330
1F
100
AcDbEntity
  8
0
  6
Continuous
 62
     7
370
     0
100
AcDbPolyline
 90
       21
 70
   128
 43
0.0
 10
266.2635651601
 20
21.5272879871
 10
265.0301611997
 20
20.3274582652
 10
263.6532740323
 20
19.1268228786
 10
262.2518671867
 20
18.0461219174
 10
260.8357155673
 20
17.0928933414
 10
259.4146969248
 20
16.2737859826
 10
257.9987229573
 20
15.5945131686
 10
256.5976701762
 20
15.0598128717
 10
255.2213110165
 20
14.6734146617
 10
253.8792456737
 20
14.4380136913
 10
252.5808351415
 20
14.3552518979
 10
251.3351359187
 20
14.4257065503
 10
250.150836839
 20
14.6488862227
 10
249.0361984662
 20
15.0232342223
 10
247.9989954761
 20
15.5461394472
 10
247.0464624275
 20
16.2139545992
 10
246.185243301
 20
17.0220216237
 10
245.4213451565
 20
17.9647042003
 10
244.7600962337
 20
19.0354270562
 10
244.2061087871
 20
20.2267218291
 10
243.7632469156
 20
21.5302791598
  0
ARC
  5
208
330
1F
100
AcDbEntity
  8
0
  6
Continuous
 62
     7
370
     0
100
AcDbCircle
 10
266.3255542896
 20
48.514687195
 30
0.0
 40
10.512493733192
100
AcDbArc
 50
14.4456909384
 51
47.0804404646
  0
LWPOLYLINE
  5
209
330
1F
100
AcDbEntity
  8
0
  6
Continuous
 62
     7
370
     0
100
AcDbPolyline
 90
       26
 70
   128
 43
0.0
 10
251.8294363467
 20
31.5251631675
 10
251.8877529433
 20
32.6935833565
 10
252.061884096
 20
33.9129323965
 10
252.349385385
 20
35.1660932999
 10
252.7462209224
 20
36.4354744345
 10
253.2468200073
 20
37.7032564717
 10
253.8441553258
 20
38.9516425307
 10
254.5298415993
 20
40.1631080078
 10
255.2942532957
 20
41.3206465832
 10
256.1266597503
 20
42.4080089527
 10
257.0153758012
 20
43.4099309321
 10
257.947925823
 20
44.3123477331
 10
258.9112188578
 20
45.102591402
 10
259.8917323828
 20
45.7695686498
 10
260.8757021374
 20
46.303916578
 10
261.8493153432
 20
46.698134113
 10
262.798904605
 20
46.9466873048
 10
263.711139771
 20
47.0460870113
 10
264.5732150592
 20
46.9949378787
 10
265.3730288222
 20
46.7939579285
 10
266.099353428
 20
46.4459684788
 10
266.7419928712
 20
45.9558545386
 10
267.2919259028
 20
45.3304962333
 10
267.7414326684
 20
44.5786722226
 10
268.0842030784
 20
43.7109364678
 10
268.2915305406
 20
42.8726190838
  0
LWPOLYLINE
  5
20A
330
1F
100
AcDbEntity
  8
0
  6
Continuous
 62
     7
370
     0
100
AcDbPolyline
 90
       13
 70
   128
 43
0.0
 10
258.5423228974
 20
25.9846662674
 10
257.947925823
 20
25.8022361843
 10
257.0153758012
 20
25.6279536483
 10
256.1266597503
 20
25.6037859163
 10
255.2942532957
 20
25.7300722504
 10
254.5298415993
 20
26.0050398672
 10
253.8441553258
 20
26.4248288242
 10
253.2468200073
 20
26.9835462046
 10
252.7462209224
 20
27.673348841
 10
252.349385385
 20
28.4845534166
 10
252.061884096
 20
29.4057723972
 10
251.8877529433
 20
30.4240738878
 10
251.8294363467
 20
31.5251631675
  0
LWPOLYLINE
  5
20B
330
1F
100
AcDbEntity
  8
0
  6
Continuous
 62
     7
370
     0
100
AcDbPolyline
 90
       21
 70
   128
 43
0.0
 10
238.224963739
 20
35.5316280183
 10
238.6956225789
 20
37.3929882613
 10
239.2807562873
 20
39.2689060592
 10
239.9761916257
 20
41.1460021581
 10
240.776968672
 20
43.0108889003
 10
241.6773761955
 20
44.8502657067
 10
242.6709923899
 20
46.6510139379
 10
243.7507306743
 20
48.4002904577
 10
244.9088902353
 20
50.0856192318
 10
246.1372109506
 20
51.6949803085
 10
247.4269323005
 20
53.216895546
 10
248.7688558492
 20
54.640510476
 10
250.1534108492
 20
55.9556717189
 10
251.5707225005
 20
57.1529993988
 10
253.0106823792
 20
58.2239540418
 10
254.4630205317
 20
59.1608974806
 10
255.9173787212
 20
59.9571473306
 10
257.3633843037
 20
60.6070246497
 10
258.7907242069
 20
61.1058944405
 10
260.1892184844
 20
61.4501987085
 10
260.3104890622
 20
61.4729928543
  0
LWPOLYLINE
  5
20C
330
1F
100
AcDbEntity
  8
0
  6
Continuous
 62
     7
370
     0
100
AcDbPolyline
 90
       20
 70
   128
 43
0.0
 10
241.5029315517
 20
34.5084023035
 10
241.9558101935
 20
36.2976785392
 10
242.5218851981
 20
38.1011094553
 10
243.1968787167
 20
39.9050664602
 10
243.9756897991
 20
41.6959169861
 10
244.8524329421
 20
43.4601275117
 10
245.8204825664
 20
45.1843658351
 10
246.8725230865
 20
46.8556018256
 10
248.0006041945
 20
48.4612058931
 10
249.1962009412
 20
49.9890444303
 10
250.4502781593
 20
51.4275715068
 10
251.7533587424
 20
52.7659161221
 10
253.0955952641
 20
53.9939643581
 10
254.4668443949
 20
55.1024358104
 10
255.8567435562
 20
56.0829537207
 10
257.2547892303
 20
56.92810828
 10
258.6504163362
 20
57.6315126252
 10
260.0330780699
 20
58.1878511045
 10
261.3923256074
 20
58.5929194481
 10
261.5188080434
 20
58.6231658705
  0
LWPOLYLINE
  5
20D
330
1F
100
AcDbEntity
  8
0
  6
Continuous
 62
     7
370
     0
100
AcDbPolyline
 90
       22
 70
   128
 43
0.0
 10
240.9254638814
 20
34.501600558
 10
241.3769364537
 20
36.3120671461
 10
241.9427101521
 20
38.1376637154
 10
242.6185513458
 20
39.9647295014
 10
243.3994027801
 20
41.7795927455
 10
244.2794214181
 20
43.5686729996
 10
245.2520221646
 20
45.3185827473
 10
246.3099271413
 20
47.0162275811
 10
247.4452201463
 20
48.6489041873
 10
248.6494058906
 20
50.2043954028
 10
249.9134735675
 20
51.6710616356
 10
251.2279642794
 20
53.0379279626
 10
252.5830418181
 20
54.2947662537
 10
253.9685662678
 20
55.4321717083
 10
255.3741698816
 20
56.4416332299
 10
256.7893346621
 20
57.3155971147
 10
258.2034710665
 20
58.0475235744
 10
259.6059972474
 20
58.6319356733
 10
260.9864182355
 20
59.0644603115
 10
262.3344044725
 20
59.3418609487
 10
263.6398691062
 20
59.4620618222
 10
264.7649275293
 20
59.4355133213
  0
LWPOLYLINE
  5
20E
330
1F
100
AcDbEntity
  8
0
  6
Continuous
 62
     7
370
     0
100
AcDbPolyline
 90
        8
 70
   128
 43
0.0
 10
254.6578634714
 20
31.5251631675
 10
254.7168450877
 20
30.5200578909
 10
254.8927807446
 20
29.6002489688
 10
255.1826601342
 20
28.7814745868
 10
255.58152334
 20
28.0777442018
 10
256.0825457017
 20
27.5010988357
 10
256.677154588
 20
27.0614050505
 10
256.6775507664
 20
27.0611763044
  0
LWPOLYLINE
  5
20F
330
1F
100
AcDbEntity
  8
0
  6
Continuous
 62
     7
370
     0
100
AcDbPolyline
 90
       19
 70
   128
 43
0.0
 10
266.4267584096
 20
43.9491291209
 10
265.7491331001
 20
44.2441192964
 10
264.9993001463
 20
44.3898120768
 10
264.1904855762
 20
44.3834858723
 10
263.3365284315
 20
44.2252489258
 10
262.4520401555
 20
43.9178087155
 10
261.552154588
 20
43.4664256285
 10
260.6522690205
 20
42.8788229547
 10
259.7677807446
 20
42.1650547386
 10
258.9138235998
 20
41.3373337525
 10
258.1050090297
 20
40.4098225317
 10
257.3551760759
 20
39.3983910505
 10
256.677154588
 20
38.3203451819
 10
256.0825457017
 20
37.1941305897
 10
255.58152334
 20
36.0390171177
 10
255.1826601342
 20
34.8747690777
 10
254.8927807446
 20
33.7213070765
 10
254.7168450877
 20
32.5983671687
 10
254.6578634714
 20
31.5251631675
  0
LWPOLYLINE
  5
210
330
1F
100
AcDbEntity
  8
0
  6
Continuous
 62
     7
370
     0
100
AcDbPolyline
 90
       14
 70
   128
 43
0.0
 10
268.4414379936
 20
25.0300143759
 10
268.8152923102
 20
24.5637918333
 10
269.2825127158
 20
24.2331217877
 10
269.8299827508
 20
24.0472872676
 10
270.4423330767
 20
24.0115052774
 10
271.1023729454
 20
24.1267803389
 10
271.7915728017
 20
24.3898762906
 10
272.4905844708
 20
24.7934071378
 10
273.1797843271
 20
25.3260444025
 10
273.8398241958
 20
25.9728351524
 10
274.4521745217
 20
26.7156217798
 10
274.9996445568
 20
27.5335517479
 10
275.4668649624
 20
28.4036629914
 10
275.8407192789
 20
29.3015285401
  0
LWPOLYLINE
  5
211
330
1F
100
AcDbEntity
  8
0
  6
Continuous
 62
     7
370
     0
100
AcDbPolyline
 90
       14
 70
   128
 43
0.0
 10
275.8406984792
 20
33.7546136535
 10
275.4668419777
 20
34.2208238944
 10
274.9996218783
 20
34.5514837068
 10
274.4521543725
 20
34.7373105332
 10
273.8398084242
 20
34.7730876879
 10
273.1797743187
 20
34.6578108051
 10
272.4905810831
 20
34.3947160333
 10
271.7915763238
 20
33.9911891881
 10
271.1023830844
 20
33.4585584111
 10
270.4423489714
 20
32.8117761569
 10
269.8300030122
 20
32.0689994357
 10
269.2825354925
 20
31.251080094
 10
268.8153153762
 20
30.3809794448
 10
268.4414588556
 20
29.483123678
  0
LINE
  5
212
330
1F
100
AcDbEntity
  8
0
  6
Continuous
 62
     7
370
     0
100
AcDbLine
 10
266.9756635997
 20
25.4830362368
 30
0.0
 11
267.0640519473
 21
25.1531734442
 31
0.0
  0
LWPOLYLINE
  5
213
330
1F
100
AcDbEntity
  8
0
  6
Continuous
 62
     7
370
     0
100
AcDbPolyline
 90
        3
 70
   128
 43
0.0
 10
275.250932045
 20
33.709591634
 10
274.8639817338
 20
34.1405895934
 10
274.6080124385
 20
34.3188473408
  0
LINE
  5
214
330
1F
100
AcDbEntity
  8
0
  6
Continuous
 62
     7
370
     0
100
AcDbLine
 10
241.9741355839
 20
32.550775858
 30
0.0
 11
241.9864001604
 21
33.1932191815
 31
0.0
  0
LWPOLYLINE
  5
215
330
1F
100
AcDbEntity
  8
0
  6
Continuous
 62
     7
370
     0
100
AcDbPolyline
 90
        3
 70
   128
 43
0.0
 10
242.0093684566
 20
33.6475002926
 10
242.0317798683
 20
33.9602301302
 10
242.0517307018
 20
34.1915872978
  0
LINE
  5
216
330
1F
100
AcDbEntity
  8
0
  6
Continuous
 62
     7
370
     0
100
AcDbLine
 10
241.9745871186
 20
32.4290968069
 30
0.0
 11
241.9741355839
 21
32.550775858
 31
0.0
  0
LWPOLYLINE
  5
217
330
1F
100
AcDbEntity
  8
0
  6
Continuous
 62
     7
370
     0
100
AcDbPolyline
 90
       12
 70
   128
 43
0.0
 10
269.1938333492
 20
24.7459936461
 10
269.3330120772
 20
24.6823052836
 10
269.8921465989
 20
24.5457524791
 10
270.5124873031
 20
24.5651602039
 10
271.1747224089
 20
24.7399242775
 10
271.8582359238
 20
25.0646041324
 10
272.5417494387
 20
25.5290921838
 10
273.2039845444
 20
26.1189284884
 10
273.8243252487
 20
26.8157508953
 10
274.3834597704
 20
27.5978666774
 10
274.8639817338
 20
28.4409278456
 10
275.250932045
 20
29.3186891247
  0
LINE
  5
218
330
1F
100
AcDbEntity
  8
0
  6
Continuous
 62
     7
370
     0
100
AcDbLine
 10
266.5664100231
 20
25.7192932977
 30
0.0
 11
266.9756635997
 21
25.4830362368
 31
0.0
  0
LWPOLYLINE
  5
219
330
1F
100
AcDbEntity
  8
0
  6
Continuous
 62
     7
370
     0
100
AcDbPolyline
 90
       19
 70
   128
 43
0.0
 10
210.8891825701
 20
56.4420822846
 10
210.9482748346
 20
57.5390506927
 10
211.1245813347
 20
58.6862333862
 10
211.4152071225
 20
59.864793657
 10
211.8153801307
 20
61.055379578
 10
212.3185295294
 20
62.2384417614
 10
212.9163936196
 20
63.3945543586
 10
213.5991554894
 20
64.504734033
 10
214.3556042076
 20
65.5507516649
 10
215.1733189074
 20
66.5154316736
 10
216.0388727359
 20
67.3829340403
 10
216.9380533233
 20
68.1390143999
 10
217.856096149
 20
68.7712579339
 10
218.7779269753
 20
69.2692832209
 10
219.6884093656
 20
69.6249126995
 10
220.572593224
 20
69.8323069434
 10
221.4159602762
 20
69.888060545
 10
222.2046624585
 20
69.7912580315
 10
222.6238094828
 20
69.6686669377
  0
ARC
  5
21A
330
1F
100
AcDbEntity
  8
0
  6
Continuous
 62
     7
370
     0
100
AcDbCircle
 10
216.3406745748
 20
56.013162477
 30
0.0
 40
5.468339535747857
100
AcDbArc
 50
175.5012734851
 51
224.1798022584
  0
LINE
  5
21B
330
1F
100
AcDbEntity
  8
0
  6
Continuous
 62
     7
370
     0
100
AcDbLine
 10
247.6575063377
 20
33.5464931421
 30
0.0
 11
246.9502846224
 21
33.9547635481
 31
0.0
  0
LINE
  5
21C
330
1F
100
AcDbEntity
  8
0
  6
Continuous
 62
     7
370
     0
100
AcDbLine
 10
242.1143452686
 20
27.8870241045
 30
0.0
 11
247.6575063377
 21
24.6870253332
 31
0.0
  0
LINE
  5
21D
330
1F
100
AcDbEntity
  8
0
  6
Continuous
 62
     7
370
     0
100
AcDbLine
 10
242.0536850968
 20
27.8519943488
 30
0.0
 11
242.1143452686
 21
27.8870241045
 31
0.0
  0
LINE
  5
21E
330
1F
100
AcDbEntity
  8
0
  6
Continuous
 62
     7
370
     0
100
AcDbLine
 10
243.5919997368
 20
20.6927291396
 30
0.0
 11
243.4045209112
 21
21.2714375809
 31
0.0
  0
LINE
  5
21F
330
1F
100
AcDbEntity
  8
0
  6
Continuous
 62
     7
370
     0
100
AcDbLine
 10
246.9503995565
 20
23.4622804654
 30
0.0
 11
241.7001317062
 21
26.4931955805
 31
0.0
  0
LINE
  5
220
330
1F
100
AcDbEntity
  8
0
  6
Continuous
 62
     7
370
     0
100
AcDbLine
 10
277.2181053252
 20
31.0149836871
 30
0.0
 11
276.9529402822
 21
31.2427954657
 31
0.0
  0
LINE
  5
221
330
1F
100
AcDbEntity
  8
0
  6
Continuous
 62
     7
370
     0
100
AcDbLine
 10
242.3649833484
 20
23.3136037088
 30
0.0
 11
242.2878200788
 21
23.5627463687
 31
0.0
  0
LWPOLYLINE
  5
222
330
1F
100
AcDbEntity
  8
0
  6
Continuous
 62
     7
370
     0
100
AcDbPolyline
 90
        3
 70
   128
 43
0.0
 10
241.9691329582
 20
22.7179974838
 10
241.9480423406
 20
22.7679239332
 10
241.5029315517
 20
24.0158528708
  0
ARC
  5
223
330
1F
100
AcDbEntity
  8
0
  6
Continuous
 62
     7
370
     0
100
AcDbCircle
 10
251.6879662712
 20
27.0279446776
 30
0.0
 40
11.17788781356339
100
AcDbArc
 50
195.6688655944
 51
214.1331200111
  0
LINE
  5
224
330
1F
100
AcDbEntity
  8
0
  6
Continuous
 62
     7
370
     0
100
AcDbLine
 10
273.3820510373
 20
33.304225948
 30
0.0
 11
276.9529402822
 21
31.2427954657
 31
0.0
  0
LINE
  5
225
330
1F
100
AcDbEntity
  8
0
  6
Continuous
 62
     7
370
     0
100
AcDbLine
 10
238.4047150735
 20
23.7050485619
 30
0.0
 11
238.224963739
 21
24.2615322904
 31
0.0
  0
OLE2FRAME
  5
226
330
1F
100
AcDbEntity
  8
0
100
AcDbOle2Frame
 70
     2
  3
Paintbrush-Bild
 10
13.8511154363
 20
38.264191557
 30
0.0
 11
51.6290888628
 21
31.9806341108
 31
0.0
 71
     2
 72
     0
 73
     1
 90
    12928
310
80552BED0767C5B32B40DDAF6807D121434000000000000000006FFBDDFB85D0
310
4940DDAF6807D121434000000000000000006FFBDDFB85D04940416F4BD60AFB
310
3F4000000000000000002BED0767C5B32B40416F4BD60AFB3F40000000000000
310
0000000000000100000000010000010000000100000000000100000000320000
310
D0CF11E0A1B11AE1000000000000000000000000000000003E000300FEFF0900
310
0600000000000000000000000100000001000000000000000010000002000000
310
01000000FEFFFFFF0000000000000000FFFFFFFFFFFFFFFFFFFFFFFFFFFFFFFF
310
FFFFFFFFFFFFFFFFFFFFFFFFFFFFFFFFFFFFFFFFFFFFFFFFFFFFFFFFFFFFFFFF
310
FFFFFFFFFFFFFFFFFFFFFFFFFFFFFFFFFFFFFFFFFFFFFFFFFFFFFFFFFFFFFFFF
310
FFFFFFFFFFFFFFFFFFFFFFFFFFFFFFFFFFFFFFFFFFFFFFFFFFFFFFFFFFFFFFFF
310
FFFFFFFFFFFFFFFFFFFFFFFFFFFFFFFFFFFFFFFFFFFFFFFFFFFFFFFFFFFFFFFF
310
FFFFFFFFFFFFFFFFFFFFFFFFFFFFFFFFFFFFFFFFFFFFFFFFFFFFFFFFFFFFFFFF
310
FFFFFFFFFFFFFFFFFFFFFFFFFFFFFFFFFFFFFFFFFFFFFFFFFFFFFFFFFFFFFFFF
310
FFFFFFFFFFFFFFFFFFFFFFFFFFFFFFFFFFFFFFFFFFFFFFFFFFFFFFFFFFFFFFFF
310
FFFFFFFFFFFFFFFFFFFFFFFFFFFFFFFFFFFFFFFFFFFFFFFFFFFFFFFFFFFFFFFF
310
FFFFFFFFFFFFFFFFFFFFFFFFFFFFFFFFFFFFFFFFFFFFFFFFFFFFFFFFFFFFFFFF
310
FFFFFFFFFFFFFFFFFFFFFFFFFFFFFFFFFFFFFFFFFFFFFFFFFFFFFFFFFFFFFFFF
310
FFFFFFFFFFFFFFFFFFFFFFFFFFFFFFFFFFFFFFFFFFFFFFFFFFFFFFFFFFFFFFFF
310
FFFFFFFFFFFFFFFFFFFFFFFFFFFFFFFFFFFFFFFFFFFFFFFFFFFFFFFFFFFFFFFF
310
FFFFFFFFFFFFFFFFFFFFFFFFFFFFFFFFFFFFFFFFFFFFFFFFFFFFFFFFFFFFFFFF
310
FDFFFFFFFEFFFFFFFEFFFFFFFEFFFFFF05000000060000000700000008000000
310
090000000A0000000B0000000C0000000D0000000E0000000F00000010000000
310
11000000120000001300000014000000150000001600000017000000FEFFFFFF
310
FFFFFFFFFFFFFFFFFFFFFFFFFFFFFFFFFFFFFFFFFFFFFFFFFFFFFFFFFFFFFFFF
310
FFFFFFFFFFFFFFFFFFFFFFFFFFFFFFFFFFFFFFFFFFFFFFFFFFFFFFFFFFFFFFFF
310
FFFFFFFFFFFFFFFFFFFFFFFFFFFFFFFFFFFFFFFFFFFFFFFFFFFFFFFFFFFFFFFF
310
FFFFFFFFFFFFFFFFFFFFFFFFFFFFFFFFFFFFFFFFFFFFFFFFFFFFFFFFFFFFFFFF
310
FFFFFFFFFFFFFFFFFFFFFFFFFFFFFFFFFFFFFFFFFFFFFFFFFFFFFFFFFFFFFFFF
310
FFFFFFFFFFFFFFFFFFFFFFFFFFFFFFFFFFFFFFFFFFFFFFFFFFFFFFFFFFFFFFFF
310
FFFFFFFFFFFFFFFFFFFFFFFFFFFFFFFFFFFFFFFFFFFFFFFFFFFFFFFFFFFFFFFF
310
FFFFFFFFFFFFFFFFFFFFFFFFFFFFFFFFFFFFFFFFFFFFFFFFFFFFFFFFFFFFFFFF
310
FFFFFFFFFFFFFFFFFFFFFFFFFFFFFFFFFFFFFFFFFFFFFFFFFFFFFFFFFFFFFFFF
310
FFFFFFFFFFFFFFFFFFFFFFFFFFFFFFFFFFFFFFFFFFFFFFFFFFFFFFFFFFFFFFFF
310
FFFFFFFFFFFFFFFFFFFFFFFFFFFFFFFFFFFFFFFFFFFFFFFFFFFFFFFFFFFFFFFF
310
FFFFFFFFFFFFFFFFFFFFFFFFFFFFFFFFFFFFFFFFFFFFFFFFFFFFFFFFFFFFFFFF
310
FFFFFFFFFFFFFFFFFFFFFFFFFFFFFFFFFFFFFFFFFFFFFFFFFFFFFFFFFFFFFFFF
310
52006F006F007400200045006E00740072007900000000000000000000000000
310
0000000000000000000000000000000000000000000000000000000000000000
310
16000500FFFFFFFFFFFFFFFF020000000A00030000000000C000000000000046
310
00000000000000000000000020125A7D081FD20103000000C000000000000000
310
01004F006C006500000000000000000000000000000000000000000000000000
310
0000000000000000000000000000000000000000000000000000000000000000
310
0A000200FFFFFFFFFFFFFFFFFFFFFFFF00000000000000000000000000000000
310
0000000000000000000000000000000000000000000000001400000000000000
310
010043006F006D0070004F0062006A0000000000000000000000000000000000
310
0000000000000000000000000000000000000000000000000000000000000000
310
120002010100000003000000FFFFFFFF00000000000000000000000000000000
310
0000000000000000000000000000000000000000010000004D00000000000000
310
01004F006C006500310030004E00610074006900760065000000000000000000
310
0000000000000000000000000000000000000000000000000000000000000000
310
1A000200FFFFFFFFFFFFFFFFFFFFFFFF00000000000000000000000000000000
310
0000000000000000000000000000000000000000040000002426000000000000
310
FEFFFFFF02000000FEFFFFFFFFFFFFFFFFFFFFFFFFFFFFFFFFFFFFFFFFFFFFFF
310
FFFFFFFFFFFFFFFFFFFFFFFFFFFFFFFFFFFFFFFFFFFFFFFFFFFFFFFFFFFFFFFF
310
FFFFFFFFFFFFFFFFFFFFFFFFFFFFFFFFFFFFFFFFFFFFFFFFFFFFFFFFFFFFFFFF
310
FFFFFFFFFFFFFFFFFFFFFFFFFFFFFFFFFFFFFFFFFFFFFFFFFFFFFFFFFFFFFFFF
310
FFFFFFFFFFFFFFFFFFFFFFFFFFFFFFFFFFFFFFFFFFFFFFFFFFFFFFFFFFFFFFFF
310
FFFFFFFFFFFFFFFFFFFFFFFFFFFFFFFFFFFFFFFFFFFFFFFFFFFFFFFFFFFFFFFF
310
FFFFFFFFFFFFFFFFFFFFFFFFFFFFFFFFFFFFFFFFFFFFFFFFFFFFFFFFFFFFFFFF
310
FFFFFFFFFFFFFFFFFFFFFFFFFFFFFFFFFFFFFFFFFFFFFFFFFFFFFFFFFFFFFFFF
310
FFFFFFFFFFFFFFFFFFFFFFFFFFFFFFFFFFFFFFFFFFFFFFFFFFFFFFFFFFFFFFFF
310
FFFFFFFFFFFFFFFFFFFFFFFFFFFFFFFFFFFFFFFFFFFFFFFFFFFFFFFFFFFFFFFF
310
FFFFFFFFFFFFFFFFFFFFFFFFFFFFFFFFFFFFFFFFFFFFFFFFFFFFFFFFFFFFFFFF
310
FFFFFFFFFFFFFFFFFFFFFFFFFFFFFFFFFFFFFFFFFFFFFFFFFFFFFFFFFFFFFFFF
310
FFFFFFFFFFFFFFFFFFFFFFFFFFFFFFFFFFFFFFFFFFFFFFFFFFFFFFFFFFFFFFFF
310
FFFFFFFFFFFFFFFFFFFFFFFFFFFFFFFFFFFFFFFFFFFFFFFFFFFFFFFFFFFFFFFF
310
FFFFFFFFFFFFFFFFFFFFFFFFFFFFFFFFFFFFFFFFFFFFFFFFFFFFFFFFFFFFFFFF
310
FFFFFFFFFFFFFFFFFFFFFFFFFFFFFFFFFFFFFFFFFFFFFFFFFFFFFFFFFFFFFFFF
310
0100000200000000000000000000000000000000000000000000000000000000
310
0000000000000000000000000000000000000000000000000000000000000000
310
0100FEFF030A0000FFFFFFFF0A00030000000000C00000000000004607000000
310
5042727573680007000000504272757368000700000050427275736800F439B2
310
7100000000000000000000000000000000000000000000000000000000000000
310
0000000000000000000000000000000000000000000000000000000000000000
310
0000000000000000000000000000000000000000000000000000000000000000
310
0000000000000000000000000000000000000000000000000000000000000000
310
0000000000000000000000000000000000000000000000000000000000000000
310
0000000000000000000000000000000000000000000000000000000000000000
310
0000000000000000000000000000000000000000000000000000000000000000
310
0000000000000000000000000000000000000000000000000000000000000000
310
0000000000000000000000000000000000000000000000000000000000000000
310
0000000000000000000000000000000000000000000000000000000000000000
310
0000000000000000000000000000000000000000000000000000000000000000
310
0000000000000000000000000000000000000000000000000000000000000000
310
20260000424D0E260000000000003E00000028000000B40200006E0000000100
310
01000000000000000000130B0000130B00000200000002000000000000FFFFFF
310
FFFFFFFFFFFFFFFFFFFFFFFFFFFFFFFFFFFFFFFFFFFFFFFFFFFFFFFFFFFFFFFF
310
FFFFFFFFFFFFFFFFFFFFFFFFFFFFFFFFFFFFFFFFFFFFFFFFFFFFFFFFFFFFFFFF
310
FFFFFFFFFFFFFFFFFFFFFFFFFFFFFFFFFFFFFFFFFFFFFFFFF000FFFFFFFFFFFF
310
FFFFFFFFFFFFFFFFFFFFFFFFFFFFFFFFFFFFFFFFFFFFFFFFFFFFFFFFFFFFFFFF
310
FFFFFFFFFFFFFFFFFFFFFFFFFFFFFFFFFFFFFFFFFFFFFFFFFFFFFFFFFFFFFFFF
310
FFFFFFFFFFFFFFFFFFFFFFFFFFFFFFFFF000FFFFFFFFFFFFFFFFFFFFFFFFFFFF
310
FFFFFFFFFFFFFFFFFFFFFFFFFFFFFFFFFFFFFFFFFFFFFFFFFFFFFFFFFFFFFFFF
310
FFFFFFFFFFFFFFFFFFFFFFFFFFFFFFFFFFFFFFFFFFFFFFFFFFFFFFFFFFFFFFFF
310
FFFFFFFFFFFFFFFFF000FFFFFFFFFFFFFFFFFFFFFFFFFFFFFFFFFFFFFFFFFFFF
310
FFFFFFFFFFFFFFFFFFFFFFFFFFFFFFFFFFFFFFFFFFFFFFFFFFFFFFFFFFFFFFFF
310
FFFFFFFFFFFFFFFFFFFFFFFFFFFFFFFFFFFFFFFFFFFFFFFFFFFFFFFFFFFFFFFF
310
F000FFFFFFFFFFFFFFFFFFFFFFFFFFFFFFFFFFFFFFFFFFFFFFFFFFFFFFFFFFFF
310
FFFFFFFFFFFFFFFFFFFFFFFFFFFFFFFFFFFFFFFFFFFFFFFFFFFFFFFFFFFFFFFF
310
FFFFFFFFFFFFFFFFFFFFFFFFFFFFFFFFFFFFFFFFFFFFFFFFF000FFFFFFFFFFFF
310
FFFFFFFFFFFFFFFFFFFFFFFFFFFFFFFFFFFFFFFFFFFFFFFFFFFFFFFFFFFFFFFF
310
FFFFFFFFFFFFFFFFFFFFFFFFFFFFFFFFFFFFFFFFFFFFFFFFFFFFFFFFFFFFFFFF
310
FFFFFFFFFFFFFFFFFFFFFFFFFFFFFFFFF000FFFFFFFFFFFFFFFFFFFFFFFFFFFF
310
FFFFFFFFFFFFFFFFFFFFFFFFFFFFFFFFFFFFFFFFFFFFFFFFFFFFFFFFFFFFFFFF
310
FFFFFFFFFFFFFFFFFFFFFFFFFFFFFFFFFFFFFFFFFFFFFFFFFFFFFFFFFFFFFFFF
310
FFFFFFFFFFFFFFFFF000FFFFFFFFFFFFFFFFFFFFFFFFFFFFFFFFFFFFFFFFFFFF
310
FFFFFFFFFFFFFFFFFFFFFFFFFFFFFFFFFFFFFFFFFFFFFFFFFFFFFFFFFFFFFFFF
310
FFFFFFFFFFFFFFFFFFFFFFFFFFFFFFFFFFFFFFFFFFFFFFFFFFFFFFFFFFFFFFFF
310
F000FFFFFFFFFFFFFFFFFFFFFFFFFFFFFFFFFFFFFFFFFFFFFFFFFFFFFFFFFFFF
310
FFFFFFFFFFFFFFFFFFFFFFFFFFFFFFFFFFFFFFFFFFFFFFFFFFFFFFFFFFFFFFFF
310
FFFFFFFFFFFFFFFFFFFFFFFFFFFFFFFFFFFFFFFFFFFFFFFFF000FFFFFFFFFFFF
310
FFFFFFFFFFFFFFFFFFFFFFFFFFFFFFFFFFFFFFFFFFFFFFFFFFFFFFFFFFFFFFFF
310
FFFFFFFFFFFFFFFFFFFFFFFFFFFFFFFFFFFFFFFFFFFFFFFFFFFFFFFFFFFFFFFF
310
FFFFFFFFFFFFFFFFFFFFFFFFFFFFFFFFF000FFFFFFFFFFFFFFFFFFFFFFFFFFFF
310
FFFFFFFFFFFFFFFFFFFFFFFFFFFFFFFFFFFFFFFFFFFFFFFFFFFFFFFFFFFFFFFF
310
FFFFFFFFFFFFFFFFFFFFFFFFFFFFFFFFFFFFFFFFFFFFFFFFFFFFFFFFFFFFFFFF
310
FFFFFFFFFFFFFFFFF000FFFFFFFFFFFFFFFFFFFFFFFFFFFFFFFFFFFFFFFFFFFF
310
FFFFFFFFFFFFFFFFFFFFFFFFFFFFFFFFFFFFFFFFFFFFFFFFFFFFFFFFFFFFFFFF
310
FFFFFFFFFFFFFFFFFFFFFFFFFFFFFFFFFFFFFFFFFFFFFFFFFFFFFFFFFFFFFFFF
310
F000FFFFFFFFFFFFFFFFFFFFFFFFFFFFFFFFFFFFFFFFFFFFFFFFFFFFFFFFFFFF
310
FFFFFFFFFFFFFFFFFFFFFFFFFFFFFFFFFFFFFFFFFFFFFFFFFFFFFFFFFFFFFFFF
310
FFFFFFFFFFFFFFFFFFFFFFFFFFFFFFFFFFFFFFFFFFFFFFFFF000FFFFFFFFFFFF
310
FFFFFFFFFFFFFFFFFFFFFFFFFFFFFFFFFFFFFFFFFFFFFFFFFFFFFFFFFFFFFFFF
310
FFFFFFFFFFFFFFFFFFFFFFFFFFFFFFFFFFFFFFFFFFFFFFFFFFFFFFFFFFFFFFFF
310
FFFFFFFFFFFFFFFFFFFFFFFFFFFFFFFFF000FFFFFFFFFFFFFFFFFFFFFFFFFFFF
310
FFFFFFFFFFFFFFFFFFFFFFFFFFFFFFFFFFFFFFFFFFFFFFFFFFFFFFFFFFFFFFFF
310
FFFFFFFFFFFFFFFFFFFFFFFFFFFFFFFFFFFFFFFFFFFFFFFFFFFFFFFFFFFFFFFF
310
FFFFFFFFFFFFFFFFF000FFFFFFFFFFFFFFFFFFFFFFFFFFFFFFFFFFFFFFFFFFFF
310
FFFFFFFFFFFFFFFFFFFFFFFFFFFFFFFFFFFFFFFFFFFFFFFFFFFFFFFFFFFFFFFF
310
FFFFFFFFFFFFFFFFFFFFFFFFFFFFFFFFFFFFFFFFFFFFFFFFFFFFFFFFFFFFFFFF
310
F000FFFFFFFFFFFFFFFFFFFFFFFFFFFFFFFFFFFFFFFFFFFFFFFFFFFFFFFFFFFF
310
FFFFFFFFFFFFFFFFFFFFFFFFFFFFFFFFFFFFFFFFFFFFFFFFFFFFFFFFFFFFFFFF
310
FFFFFFFFFFFFFFFFFFFFFFFFFFFFFFFFFFFFFFFFFFFFFFFFF000FFFFFFFFFFFF
310
FFFFFFFFFFFFFFFFFFFFFFFFFFFFFFFFFFFFFFFFFFFFFFFFFFFFFFFFFFFFFFFF
310
FFFFFFFFFFFFFFFFFFFFFFFFFFFFFFFFFFFFFFFFFFFFFFFFFFFFFFFFFFFFFFFF
310
FFFFFFFFFFFFFFFFFFFFFFFFFFFFFFFFF000FFFFFFFFFFFFFFFFFFFFFFFFFFFF
310
FFFFFFFFFFFFFFFFFFFFFFFFFFFFFFFFFFFFFFFFFFFFFFFFFFFFFFFFFFFFFFFF
310
FFFFFFFFFFFFFFFFFFFFFFFFFFFFFFFFFFFFFFFFFFFFFFFFFFFFFFFFFFFFFFFF
310
FFFFFFFFFFFFFFFFF000FFFFF80003FFFFFFFFFFFFFFFFFFFFFFFFFFFFFFFFFF
310
FFFFF00007FFFFFFFFFF00007FFFFFF800000000000000007FFFFFFFFFFFFFFF
310
FFFFFFFC001FFFFFFFFFFFFFFC001FFFFFFFFFFFFFFFFFFFFFFFFFFE0007FFFF
310
F000FFFF8000007FFFFFFFF8000FFFFFC0007FFFFF80007FFFFF0000007FFFFF
310
FFF8000007FFFFF800000000000000007FFFFFF0001FFFFFFFFFFFC00001FFFF
310
FFFFFFFFC00001FFFFFFFF000000000003FFFFE000007FFFF000FFFE0000000F
310
FFFFFFF0000FFFFF80007FFFFF80007FFFFC0000001FFFFFFFC0000001FFFFF8
310
00000000000000007FFFFFF0001FFFFFFFFFFE0000003FFFFFFFFFFE0000003F
310
FFFFFF000000000003FFFF0000000FFFF000FFF800000003FFFFFFF00007FFFF
310
80007FFFFF80007FFFF000000007FFFFFF000000003FFFF80000000000000000
310
7FFFFFF0001FFFFFFFFFF80000000FFFFFFFFFF80000000FFFFFFF0000000000
310
03FFFC00000003FFF000FFE000000000FFFFFFF00007FFFF80003FFFFF80007F
310
FFC000000001FFFFFC000000001FFFF800000000000000007FFFFFF0001FFFFF
310
FFFFE000000003FFFFFFFFE000000003FFFFFF000000000003FFF000000000FF
310
F000FF80000000007FFFFFF00007FFFF80003FFFFF80007FFF8000000000FFFF
310
F80000000007FFF800000000000000007FFFFFF0001FFFFFFFFFC000000001FF
310
FFFFFFC000000001FFFFFF000000000003FFC0000000007FF000FF0000000000
310
3FFFFFE00007FFFF00003FFFFF80007FFE00000000003FFFF00000000003FFF8
310
00000000000000007FFFFFF0001FFFFFFFFF8000000000FFFFFFFF8000000000
310
FFFFFF000000000003FF80000000003FF000FE00000000001FFFFFE00003FFFF
310
00003FFFFF80007FFC00000000001FFFE00000000001FFF8000001FFFE000000
310
7FFFFFF0001FFFFFFFFE00000000003FFFFFFE00000000003FFFFF0000000000
310
03FF00000000001FF000FC00000000000FFFFFE00003FFFF00001FFFFF80007F
310
F800000000001FFFC00000000000FFF8000001FFFE0000007FFFFFF0001FFFFF
310
FFFC00000000001FFFFFFC00000000001FFFFF000000000003FE00000000000F
310
F000F8000000000007FFFFE00003FFFF00001FFFFF80007FF800000000000FFF
310
800000000000FFF8000001FFFE0000007FFFFFF0001FFFFFFFF800000000000F
310
FFFFF800000000000FFFFF000000000003FC000000000007F000F80000000000
310
03FFFFC00003FFFE00001FFFFF80007FF0000000000007FF0000000000007FF8
310
000001FFFE0000007FFFFFF0001FFFFFFFF0000000000007FFFFF00000000000
310
07FFFF000000000003F8000000000003F000F0000000000003FFFFC00001FFFE
310
00001FFFFF80007FE0000000000007FE0000000000003FF8000001FFFE000000
310
7FFFFFF0001FFFFFFFF0000000000007FFFFF0000000000007FFFF0000000000
310
03F800001F800003F000E00001FFF00001FFFFC00001FFFE00000FFFFF80007F
310
E00001FFE00003FE00001FFF00003FF8000001FFFE0000007FFFFFF0001FFFFF
310
FFE000003E000003FFFFE000003E000003FFFF000000000003F00001FFF80001
310
F000E00007FFFC0001FFFFC00001FFFE00000FFFFF80007FC0000FFFFC0003FC
310
0000FFFFC0001FF8000001FFFE0000007FFFFFF0001FFFFFFFC00003FFE00001
310
FFFFC00003FFE00001FFFF0001FFFFFFFFF00007FFFE0001F000E0000FFFFF00
310
00FFFF800001FFFC00000FFFFF80007FC0001FFFFE0001FC0001FFFFE0001FF8
310
000001FFFE0000007FFFFFF0001FFFFFFF80000FFFF80000FFFF80000FFFF800
310
00FFFF0003FFFFFFFFE0000FFFFF8000F000C0003FFFFF8000FFFF800000FFFC
310
000007FFFF80007F80003FFFFF0001FC0003FFFFF0001FF8000001FFFE000000
310
7FFFFFF0001FFFFFFF80003FFFFE0000FFFF80003FFFFE0000FFFF0003FFFFFF
310
FFE0003FFFFF8000F000C0003FFFFF8000FFFF800000FFFC000007FFFF80007F
310
80007FFFFF8001F80007FFFFF8000FF8000001FFFE0000007FFFFFF0001FFFFF
310
FF00007FFFFF00007FFF00007FFFFF00007FFF0003FFFFFFFFE0003FFFFFC000
310
F000C0007FFFFFC000FFFF000000FFFC000007FFFF80007F8000FFFFFF8000F8
310
000FFFFFF8000FF8000001FFFE0000007FFFFFF0001FFFFFFF0000FFFFFF8000
310
7FFF0000FFFFFF80007FFF0003FFFFFFFFC0007FFFFFC00070008000FFFFFFC0
310
00FFFF000000FFF8000007FFFF80007F8000FFFFFF8000F8000FFFFFF8000FF8
310
000001FFFE0000007FFFFFF0001FFFFFFE0001FFFFFFC0003FFE0001FFFFFFC0
310
003FFF0003FFFFFFFFC0007FFFFFE00070008000FFFFFFC0007FFF0000007FF8
310
000003FFFF80007F0001FFFFFF8000F8000FFFFFF8000FF8000001FFFE000000
310
7FFFFFF0001FFFFFFE0001FFFFFFC0003FFE0001FFFFFFC0003FFF0003FFFFFF
310
FFC000FFFFFFE00070008000FFFFFFC0007FFF0000007FF8000003FFFF80007F
310
0001FFFFFF8000F8001FFFFFF8000FF8000001FFFE0000007FFFFFF0001FFFFF
310
FE0003FFFFFFE0003FFE0003FFFFFFE0003FFF0003FFFFFFFFC000FFFFFFE000
310
70008000FFFFFFC0007FFE0000007FF8000003FFFF80007F0001FFFFFF8000F0
310
001FFFFFF8000FF8000001FFFE0000007FFFFFF0001FFFFFFC0003FFFFFFE000
310
1FFC0003FFFFFFE0001FFF0003FFFFFFFFC000FFFFFFC00070008000FFFFFF80
310
007FFE0000007FF0000003FFFF80007F0001FFFFFF0000F0001FFFFFF8000FF8
310
000001FFFE0000007FFFFFF0001FFFFFFC0007FFFFFFF0001FFC0007FFFFFFF0
310
001FFF0003FFFFFFFFC000FFFFFFC00070008001FFFFFF0000FFFE0000003FF0
310
000001FFFF80007F0001FFFFFF0000F8001FFFFFF0000FF8000001FFFE000000
310
7FFFFFF0001FFFFFFC0007FFFFFFF0001FFC0007FFFFFFF0001FFF0003FFFFFF
310
FFC001FFFFFF80007000FFFFFFFFFE0000FFFE0008003FF0008001FFFF80007F
310
FFFFFFFFFC0000FFFFFFFFFFE0000FF8000001FFFE0000007FFFFFF0001FFFFF
310
F8000FFFFFFFF8000FF8000FFFFFFFF8000FFF0003FFFFFFFFFFFFFFFFFF0000
310
7000FFFFFFFFFC0000FFFC0008003FF0008001FFFF80007FFFFFFFFFF80001FF
310
FFFFFFFF80000FF8000001FFFE0000007FFFFFF0001FFFFFF8000FFFFFFFF800
310
0FF8000FFFFFFFF8000FFF0003FFFFFFFFFFFFFFFFFE0000F000FFFFFFFFE000
310
00FFFC000C003FE000C001FFFF80007FFFFFFFFFC00001FFFFFFFFFE00001FF8
310
000001FFFE0000007FFFFFF0001FFFFFF8000FFFFFFFF8000FF8000FFFFFFFF8
310
000FFF0003FFFFFFFFFFFFFFFFF00000F000FFFFFFFE000001FFFC000C001FE0
310
00C000FFFF80007FFFFFFFFE000001FFFFFFFFE000001FF80FFFFFFFFFFFFFC0
310
7FFFFFF0001FFFFFF8000FFFFFFFF8000FF8000FFFFFFFF8000FFF0003FFFFFF
310
FFFFFFFFFF800000F000FFFFFFC0000001FFFC001C001FE001C000FFFF80007F
310
FFFFFF80000003FFFFFFF80000001FF80FFFFFFFFFFFFFC07FFFFFF0001FFFFF
310
F8001FFFFFFFFC000FF8001FFFFFFFFC000FFF0003FFFFFFFFFFFFFFF0000001
310
F000FFFFF800000001FFF8001C001FE001C000FFFF80007FFFFFF800000003FF
310
FFFF800000003FF80FFFFFFFFFFFFFC07FFFFFF0001FFFFFF8001FFFFFFFFC00
310
0FF8001FFFFFFFFC000FFF0003FFFFFFFFFFFFFE00000001F000FFFFC0000000
310
03FFF8001E001FC001E000FFFF80007FFFFF8000000007FFFFFC000000003FF8
310
0FFFFFFFFFFFFFC07FFFFFF0001FFFFFF8001FFFFFFFFC000FF8001FFFFFFFFC
310
000FFF0003FFFFFFFFFFFFE000000003F000FFFE0000000007FFF8001E000FC0
310
01E0007FFF80007FFFFE0000000007FFFFE0000000007FF80FFFFFFFFFFFFFC0
310
7FFFFFF0001FFFFFF0001FFFFFFFFC0007F0001FFFFFFFFC0007FF0003FFFFFF
310
FFFFFF0000000003F000FFF80000000007FFF8001E000FC003E0007FFF80007F
310
FFF0000000000FFFFF8000000000FFF80FFFFFFFFFFFFFC07FFFFFF0001FFFFF
310
F0001FFFFFFFFC0007F0001FFFFFFFFC0007FF0003FFFFFFFFFFFC0000000007
310
F000FFE0000000000FFFF0003E000FC003E0007FFF80007FFFC0000000001FFF
310
FE0000000001FFF80FFFFFFFFFFFFFC07FFFFFF0001FFFFFF0001FFFFFFFFC00
310
07F0001FFFFFFFFC0007FF0003FFFFFFFFFFF0000000000FF000FFC000000000
310
1FFFF0003F000F8003F0003FFF80007FFF80000000003FFFF80000000003FFF8
310
0FFFFFFFFFFFFFC07FFFFFF0001FFFFFF0001FFFFFFFFC0007F0001FFFFFFFFC
310
0007FF0003FFFFFFFFFFE0000000001FF000FF00000000007FFFF0003F000780
310
03F0003FFF80007FFF00000000007FFFF00000000007FFF80FFFFFFFFFFFFFC0
310
7FFFFFF0001FFFFFF0001FFFFFFFFC0007F0001FFFFFFFFC0007FF0003FFFFFF
310
FFFF80000000007FF000FE0000000000FFFFE0003F00078007F0003FFF80007F
310
FE0000000001FFFFE0000000001FFFF80FFFFFFFFFFFFFC07FFFFFF0001FFFFF
310
F0001FFFFFFFFC0007F0001FFFFFFFFC0007FF0003FFFFFFFFFF0000000000FF
310
F000FC0000000003FFFFE0007F00078007F0003FFF80007FFC0000000007FFFF
310
C0000000007FFFF80FFFFFFFFFFFFFC07FFFFFF0001FFFFFF8001FFFFFFFFC00
310
0FF8001FFFFFFFFC000FFF0003FFFFFFFFFE0000000003FFF000FC000000000F
310
FFFFE0007F80070007F8001FFF80007FF8000000001FFFFF8000000001FFFFF8
310
0FFFFFFFFFFFFFC07FFFFFF0001FFFFFF8001FFFFFFFFC000FF8001FFFFFFFFC
310
000FFF0003FFFFFFFFFC000000000FFFF000F8000000007FFFFFE0007F800700
310
07F8001FFF80007FF000000000FFFFFF800000000FFFFFF80FFFFFFFFFFFFFC0
310
7FFFFFF0001FFFFFF8000FFFFFFFF8000FF8000FFFFFFFF8000FFF0003FFFFFF
310
FFFC000000007FFFF000F800000007FFFFFFC0007F8003000FF8001FFF80007F
310
F000000007FFFFFF000000007FFFFFF80FFFFFFFFFFFFFC07FFFFFF0001FFFFF
310
F8000FFFFFFFF8000FF8000FFFFFFFF8000FFF0003FFFFFFFFF80000000FFFFF
310
F000F0000000FFFFFFFFC000FF8003000FF8001FFF80007FE0000000FFFFFFFF
310
0000000FFFFFFFF8000001FFFE0000007FFFFFF0001FFFFFF8000FFFFFFFF800
310
0FF8000FFFFFFFF8000FFF0003FFFFFFFFF8000000FFFFFFF000F000000FFFFF
310
FFFFC000FFC002000FF8000FFF80007FE000001FFFFFFFFE000001FFFFFFFFF8
310
000001FFFE0000007FFFFFF0001FFFFFF8000FFFFFFFF8000FF8000FFFFFFFF8
310
000FFF0003FFFFFFFFF000001FFFFFFFF000E00000FFFFFFFFFFC000FFC00200
310
0FFC000FFF80007FE00001FFFFFFFFFE00001FFFFFFFFFF8000001FFFE000000
310
7FFFFFF0001FFFFFFC000FFFFFFFF8001FFC000FFFFFFFF8001FFF0003FFFFFF
310
FFF00001FFFFFFFFF000E00007FFFFFFFFFF8000FFC000001FFC000FFF80007F
310
C0000FFFFFFFFFFE0000FFFFFFFFFFF8000001FFFE0000007FFFFFF0001FFFFF
310
FC0007FFFFFFF0001FFC0007FFFFFFF0001FFF0003FFFFFFFFF00007FFFFFFFF
310
F000E0001FFFFFFFFFFF8000FFC000001FFC000FFF80007FC0003FFFFFFFFFFE
310
0001FFFFFFFFFFF8000001FFFE0000007FFFFFF0001FFFFFFC0007FFFFFFF000
310
1FFC0007FFFFFFF0001FFF0003FFFFFFFFF0001FFFFFFFFFF000E0003FFFFF00
310
03FF8001FFE000001FFC0007FF80007FC0007FFFFF0007FC0003FFFFF0003FF8
310
000001FFFE0000007FFFFFF0001FFFFFFC0003FFFFFFE0001FFC0003FFFFFFE0
310
001FFF0003FFFFFFFFF0003FFFFFFFFFF000E0003FFFFF0001FF8001FFE00000
310
1FFE0007FF80007FC0007FFFFE0003FC0007FFFFE0003FF8000001FFFE000000
310
7FFFFFF0001FFFFFFE0003FFFFFFE0003FFE0003FFFFFFE0003FFF0003FFFFFF
310
FFF0003FFFFF8001F000E0003FFFFF0001FF0001FFE000001FFE0007FF80007F
310
C0007FFFFE0003FC0007FFFFE0003FF8000001FFFE0000007FFFFFF0001FFFFF
310
FE0001FFFFFFC0003FFE0001FFFFFFC0003FFF0003FFFFFFFFF0003FFFFF0001
310
F000E0003FFFFF0003FF0001FFE000003FFE0007FF80007FC0007FFFFE0003FC
310
0007FFFFE0003FF8000001FFFE0000007FFFFFF0001FFFFFFF0001FFFFFFC000
310
7FFF0001FFFFFFC0007FFF0003FFFFFFFFF0003FFFFF0001F000E0003FFFFE00
310
03FF0003FFF000003FFE0003FF80007FC0007FFFFC0003FE0007FFFFE0003FF8
310
000001FFFE0000007FFFFFF0001FFFFFFF0000FFFFFF80007FFF0000FFFFFF80
310
007FFF0003FFFFFFFFF0003FFFFF0001F000E0003FFFFE0003FF0003FFF00000
310
3FFF0003FF80007FC0007FFFFC0007FE0007FFFFC0003FF8000001FFFE000000
310
7FFFFFF0001FFFFFFF80007FFFFF0000FFFF80007FFFFF0000FFFF0003FFFFFF
310
FFF0003FFFFF0003F000E0003FFFFC0003FE0003FFF000003FFF0003FF80007F
310
E0003FFFF80007FE0003FFFFC0007FF8000001FFFE0000007FFFFFF0001FFFFF
310
FF80003FFFFE0000FFFF80003FFFFE0000FFFF0003FFFFFFFFF0001FFFFE0003
310
F000F0001FFFF80003FE0003FFF000007FFF0001FF80007FE0003FFFF00007FE
310
0001FFFF80007FF8000001FFFE0000007FFFFFF0001FFFFFFFC0000FFFF80001
310
FFFFC0000FFFF80001FFFF0003FFFFFFFFF0001FFFFC0003F000F0000FFFF000
310
07FE0007FFF800007FFF0001FF80007FE0001FFFE00007FF0000FFFE00007FF8
310
000001FFFE0000007FFFFFF0001FFFFFFFC00003FFE00001FFFFC00003FFE000
310
01FFFF0003FFFFFFFFF8000FFFF80003F000F00003FFC00007FC0007FFF80000
310
7FFF8001FF80007FF00007FF80000FFF00007FF80000FFF8000001FFFE000000
310
7F80000000000001FFE000003E000003FFFFE000003E000003FFFF0003FFFFFF
310
FFF80003FFE00007F000F800000000000FFC0007FFF800007FFF8001FF80007F
310
F000000000000FFF000000000000FFF8000001FFFE0000007F80000000000001
310
FFF0000000000007FFFFF0000000000007FFFF0003FFFFFFFFFC00007E000007
310
F000F800000000000FFC0007FFF80000FFFF8000FF80007FF800000000001FFF
310
800000000001FFF8000001FFFE0000007F80000000000001FFF800000000000F
310
FFFFF800000000000FFFFF0003FFFFFFFFFC00000000000FF000FC0000000000
310
1FFC0007FFFC0000FFFF8000FF80007FF800000000003FFFC00000000001FFF8
310
000001FFFE0000007F80000000000001FFF800000000000FFFFFF80000000000
310
0FFFFF0003FFFFFFFFFE00000000001FF000FE00000000003FF8000FFFFC0000
310
FFFF8000FF80007FFC00000000003FFFC00000000003FFF8000001FFFE000000
310
7F80000000000001FFFC00000000001FFFFFFC00000000001FFFFF0003FFFFFF
310
FFFF00000000001FF000FF00000000003FF8000FFFFC0000FFFFC000FF80007F
310
FE00000000007FFFE00000000007FFF8000001FFFE0000007F80000000000001
310
FFFE00000000003FFFFFFE00000000003FFFFF0003FFFFFFFFFF80000000003F
310
F000FF80000000007FF8000FFFFC0001FFFFC0007F80007FFF0000000000FFFF
310
F0000000000FFFF800000000000000007F80000000000001FFFF8000000000FF
310
FFFFFF8000000000FFFFFF0003FFFFFFFFFFC0000000007FF000FFC000000000
310
FFF8000FFFFE0001FFFFC0007F80007FFF8000000001FFFFF8000000001FFFF8
310
00000000000000007F80000000000001FFFFC000000001FFFFFFFFC000000001
310
FFFFFF0003FFFFFFFFFFE000000000FFF000FFE000000003FFF0001FFFFE0001
310
FFFFC0007F80007FFFC000000007FFFFFE000000003FFFF80000000000000000
310
7F80000000000001FFFFE000000003FFFFFFFFE000000003FFFFFF0003FFFFFF
310
FFFFF000000003FFF000FFF80000000FFFF0001FFFFE0001FFFFE0007F80007F
310
FFF00000000FFFFFFF00000000FFFFF800000000000000007F80000000000001
310
FFFFF80000000FFFFFFFFFF80000000FFFFFFF0003FFFFFFFFFFFC0000000FFF
310
F000FFFE0000003FFFF0001FFFFE0003FFFFE0003F80007FFFFC0000003FFFFF
310
FFC0000003FFFFF800000000000000007F80000000000001FFFFFE0000003FFF
310
FFFFFFFE0000003FFFFFFF0003FFFFFFFFFFFF0000003FFFF000FFFF800000FF
310
FFF0001FFFFF0003FFFFE0003F80007FFFFF000001FFFFFFFFF800001FFFFFF8
310
00000000000000007F80000000000001FFFFFFC00001FFFFFFFFFFFFC00001FF
310
FFFFFF0003FFFFFFFFFFFFC00000FFFFF000FFFFF8000FFFFFFFFFFFFFFFFFFF
310
FFFFFFFFFFFFFFFFFFFFF0001FFFFFFFFFFF0000FFFFFFF80000000000000000
310
7FFFFFFFFFFFFFFFFFFFFFFC001FFFFFFFFFFFFFFC001FFFFFFFFFFFFFFFFFFF
310
FFFFFFFC001FFFFFF000FFFFFFFFFFFFFFFFFFFFFFFFFFFFFFFFFFFFFFFFFFFF
310
FFFFFFFFFFFFFFFFFFFFFFFFFFFFFFFFFFFFFFFFFFFFFFFFFFFFFFFFFFFFFFFF
310
FFFFFFFFFFFFFFFFFFFFFFFFFFFFFFFFFFFFFFFFFFFFFFFFFFFFFFFFFFFFFFFF
310
F000FFFFFFFFFFFFFFFFFFFFFFFFFFFFFFFFFFFFFFFFFFFFFFFFFFFFFFFFFFFF
310
FFFFFFFFFFFFFFFFFFFFFFFFFFFFFFFFFFFFFFFFFFFFFFFFFFFFFFFFFFFFFFFF
310
FFFFFFFFFFFFFFFFFFFFFFFFFFFFFFFFFFFFFFFFFFFFFFFFF000FFFFFFFFFFFF
310
FFFFFFFFFFFFFFFFFFFFFFFFFFFFFFFFFFFFFFFFFFFFFFFFFFFFFFFFFFFFFFFF
310
FFFFFFFFFFFFFFFFFFFFFFFFFFFFFFFFFFFFFFFFFFFFFFFFFFFFFFFFFFFFFFFF
310
FFFFFFFFFFFFFFFFFFFFFFFFFFFFFFFFF000FFFFFFFFFFFFFFFFFFFFFFFFFFFF
310
FFFFFFFFFFFFFFFFFFFFFFFFFFFFFFFFFFFFFFFFFFFFFFFFFFFFFFFFFFFFFFFF
310
FFFFFFFFFFFFFFFFFFFFFFFFFFFFFFFFFFFFFFFFFFFFFFFFFFFFFFFFFFFFFFFF
310
FFFFFFFFFFFFFFFFF000FFFFFFFFFFFFFFFFFFFFFFFFFFFFFFFFFFFFFFFFFFFF
310
FFFFFFFFFFFFFFFFFFFFFFFFFFFFFFFFFFFFFFFFFFFFFFFFFFFFFFFFFFFFFFFF
310
FFFFFFFFFFFFFFFFFFFFFFFFFFFFFFFFFFFFFFFFFFFFFFFFFFFFFFFFFFFFFFFF
310
F000FFFFFFFFFFFFFFFFFFFFFFFFFFFFFFFFFFFFFFFFFFFFFFFFFFFFFFFFFFFF
310
FFFFFFFFFFFFFFFFFFFFFFFFFFFFFFFFFFFFFFFFFFFFFFFFFFFFFFFFFFFFFFFF
310
FFFFFFFFFFFFFFFFFFFFFFFFFFFFFFFFFFFFFFFFFFFFFFFFF000FFFFFFFFFFFF
310
FFFFFFFFFFFFFFFFFFFFFFFFFFFFFFFFFFFFFFFFFFFFFFFFFFFFFFFFFFFFFFFF
310
FFFFFFFFFFFFFFFFFFFFFFFFFFFFFFFFFFFFFFFFFFFFFFFFFFFFFFFFFFFFFFFF
310
FFFFFFFFFFFFFFFFFFFFFFFFFFFFFFFFF000FFFFFFFFFFFFFFFFFFFFFFFFFFFF
310
FFFFFFFFFFFFFFFFFFFFFFFFFFFFFFFFFFFFFFFFFFFFFFFFFFFFFFFFFFFFFFFF
310
FFFFFFFFFFFFFFFFFFFFFFFFFFFFFFFFFFFFFFFFFFFFFFFFFFFFFFFFFFFFFFFF
310
FFFFFFFFFFFFFFFFF000FFFFFFFFFFFFFFFFFFFFFFFFFFFFFFFFFFFFFFFFFFFF
310
FFFFFFFFFFFFFFFFFFFFFFFFFFFFFFFFFFFFFFFFFFFFFFFFFFFFFFFFFFFFFFFF
310
FFFFFFFFFFFFFFFFFFFFFFFFFFFFFFFFFFFFFFFFFFFFFFFFFFFFFFFFFFFFFFFF
310
F000FFFFFFFFFFFFFFFFFFFFFFFFFFFFFFFFFFFFFFFFFFFFFFFFFFFFFFFFFFFF
310
FFFFFFFFFFFFFFFFFFFFFFFFFFFFFFFFFFFFFFFFFFFFFFFFFFFFFFFFFFFFFFFF
310
FFFFFFFFFFFFFFFFFFFFFFFFFFFFFFFFFFFFFFFFFFFFFFFFF000FFFFFFFFFFFF
310
FFFFFFFFFFFFFFFFFFFFFFFFFFFFFFFFFFFFFFFFFFFFFFFFFFFFFFFFFFFFFFFF
310
FFFFFFFFFFFFFFFFFFFFFFFFFFFFFFFFFFFFFFFFFFFFFFFFFFFFFFFFFFFFFFFF
310
FFFFFFFFFFFFFFFFFFFFFFFFFFFFFFFFF000FFFFFFFFFFFFFFFFFFFFFFFFFFFF
310
FFFFFFFFFFFFFFFFFFFFFFFFFFFFFFFFFFFFFFFFFFFFFFFFFFFFFFFFFFFFFFFF
310
FFFFFFFFFFFFFFFFFFFFFFFFFFFFFFFFFFFFFFFFFFFFFFFFFFFFFFFFFFFFFFFF
310
FFFFFFFFFFFFFFFFF000FFFFFFFFFFFFFFFFFFFFFFFFFFFFFFFFFFFFFFFFFFFF
310
FFFFFFFFFFFFFFFFFFFFFFFFFFFFFFFFFFFFFFFFFFFFFFFFFFFFFFFFFFFFFFFF
310
FFFFFFFFFFFFFFFFFFFFFFFFFFFFFFFFFFFFFFFFFFFFFFFFFFFFFFFFFFFFFFFF
310
F000FFFFFFFFFFFFFFFFFFFFFFFFFFFFFFFFFFFFFFFFFFFFFFFFFFFFFFFFFFFF
310
FFFFFFFFFFFFFFFFFFFFFFFFFFFFFFFFFFFFFFFFFFFFFFFFFFFFFFFFFFFFFFFF
310
FFFFFFFFFFFFFFFFFFFFFFFFFFFFFFFFFFFFFFFFFFFFFFFFF000FFFFFFFFFFFF
310
FFFFFFFFFFFFFFFFFFFFFFFFFFFFFFFFFFFFFFFFFFFFFFFFFFFFFFFFFFFFFFFF
310
FFFFFFFFFFFFFFFFFFFFFFFFFFFFFFFFFFFFFFFFFFFFFFFFFFFFFFFFFFFFFFFF
310
FFFFFFFFFFFFFFFFFFFFFFFFFFFFFFFFF000FFFFFFFFFFFFFFFFFFFFFFFFFFFF
310
FFFFFFFFFFFFFFFFFFFFFFFFFFFFFFFFFFFFFFFFFFFFFFFFFFFFFFFFFFFFFFFF
310
FFFFFFFFFFFFFFFFFFFFFFFFFFFFFFFFFFFFFFFFFFFFFFFFFFFFFFFFFFFFFFFF
310
FFFFFFFFFFFFFFFFF000FFFFFFFFFFFFFFFFFFFFFFFFFFFFFFFFFFFFFFFFFFFF
310
FFFFFFFFFFFFFFFFFFFFFFFFFFFFFFFFFFFFFFFFFFFFFFFFFFFFFFFFFFFFFFFF
310
FFFFFFFFFFFFFFFFFFFFFFFFFFFFFFFFFFFFFFFFFFFFFFFFFFFFFFFFFFFFFFFF
310
F000FFFFFFFFFFFFFFFFFFFFFFFFFFFFFFFFFFFFFFFFFFFFFFFFFFFFFFFFFFFF
310
FFFFFFFFFFFFFFFFFFFFFFFFFFFFFFFFFFFFFFFFFFFFFFFFFFFFFFFFFFFFFFFF
310
FFFFFFFFFFFFFFFFFFFFFFFFFFFFFFFFFFFFFFFFFFFFFFFFF000FFFFFFFFFFFF
310
FFFFFFFFFFFFFFFFFFFFFFFFFFFFFFFFFFFFFFFFFFFFFFFFFFFFFFFFFFFFFFFF
310
FFFFFFFFFFFFFFFFFFFFFFFFFFFFFFFFFFFFFFFFFFFFFFFFFFFFFFFFFFFFFFFF
310
FFFFFFFFFFFFFFFFFFFFFFFFFFFFFFFFF000FFFFFFFFFFFFFFFFFFFFFFFFFFFF
310
FFFFFFFFFFFFFFFFFFFFFFFFFFFFFFFFFFFFFFFFFFFFFFFFFFFFFFFFFFFFFFFF
310
FFFFFFFFFFFFFFFFFFFFFFFFFFFFFFFFFFFFFFFFFFFFFFFFFFFFFFFFFFFFFFFF
310
FFFFFFFFFFFFFFFFF000FFFFFFFFFFFFFFFFFFFFFFFFFFFFFFFFFFFFFFFFFFFF
310
FFFFFFFFFFFFFFFFFFFFFFFFFFFFFFFFFFFFFFFFFFFFFFFFFFFFFFFFFFFFFFFF
310
FFFFFFFFFFFFFFFFFFFFFFFFFFFFFFFFFFFFFFFFFFFFFFFFFFFFFFFFFFFFFFFF
310
F000FFFFFFFFFFFFFFFFFFFFFFFFFFFFFFFFFFFFFFFFFFFFFFFFFFFFFFFFFFFF
310
FFFFFFFFFFFFFFFFFFFFFFFFFFFFFFFFFFFFFFFFFFFFFFFFFFFFFFFFFFFFFFFF
310
FFFFFFFFFFFFFFFFFFFFFFFFFFFFFFFFFFFFFFFFFFFFFFFFF000FFFFFFFFFFFF
310
FFFFFFFFFFFFFFFFFFFFFFFFFFFFFFFFFFFFFFFFFFFFFFFFFFFFFFFFFFFFFFFF
310
FFFFFFFFFFFFFFFFFFFFFFFFFFFFFFFFFFFFFFFFFFFFFFFFFFFFFFFFFFFFFFFF
310
FFFFFFFFFFFFFFFFFFFFFFFFFFFFFFFFF0000000000000000000000000000000
310
0000000000000000000000000000000000000000000000000000000000000000
310
0000000000000000000000000000000000000000000000000000000000000000
310
0000000000000000000000000000000000000000000000000000000000000000
310
0000000000000000000000000000000000000000000000000000000000000000
310
0000000000000000000000000000000000000000000000000000000000000000
310
0000000000000000000000000000000000000000000000000000000000000000
310
0000000000000000000000000000000000000000000000000000000000000000
310
0000000000000000000000000000000000000000000000000000000000000000
310
0000000000000000000000000000000000000000000000000000000000000000
310
0000000000000000000000000000000000000000000000000000000000000000
310
0000000000000000000000000000000000000000000000000000000000000000
310
0000000000000000000000000000000000000000000000000000000000000000
310
0000000000000000000000000000000000000000000000000000000000000000
310
0000000000000000000000000000000000000000000000000000000000000000
310
0000000000000000000000000000000000000000000000000000000000000000
  1
OLE
  0
ENDSEC
  0
SECTION
  2
OBJECTS
  0
DICTIONARY
  5
C
330
0
100
AcDbDictionary
281
     1
  3
ACAD_GROUP
350
D
  3
ACAD_LAYOUT
350
1A
  3
ACAD_MLINESTYLE
350
17
  3
ACAD_PLOTSETTINGS
350
19
  3
ACAD_PLOTSTYLENAME
350
E
  3
ACAD_SCALELIST
350
47
  0
DICTIONARY
  5
D
102
{ACAD_REACTORS
330
C
102
}
330
C
100
AcDbDictionary
281
     1
  0
DICTIONARY
  5
1A
102
{ACAD_REACTORS
330
C
102
}
330
C
100
AcDbDictionary
281
     1
  3
Layout1
350
1E
  3
Layout2
350
26
  3
Model
350
22
  0
DICTIONARY
  5
17
102
{ACAD_REACTORS
330
C
102
}
330
C
100
AcDbDictionary
281
     1
  3
Standard
350
18
  0
DICTIONARY
  5
19
102
{ACAD_REACTORS
330
C
102
}
330
C
100
AcDbDictionary
281
     1
  0
ACDBDICTIONARYWDFLT
  5
E
102
{ACAD_REACTORS
330
C
102
}
330
C
100
AcDbDictionary
281
     1
  3
Normal
350
F
100
AcDbDictionaryWithDefault
340
F
  0
DICTIONARY
  5
47
102
{ACAD_REACTORS
330
C
102
}
330
C
100
AcDbDictionary
281
     1
  3
A0
350
48
  3
A1
350
49
  3
A2
350
4A
  3
A3
350
4B
  3
A4
350
4C
  3
A5
350
4D
  3
A6
350
4E
  3
A7
350
4F
  3
A8
350
50
  3
A9
350
51
  3
B0
350
52
  3
B1
350
53
  3
B2
350
54
  3
B3
350
55
  3
B4
350
56
  3
B5
350
57
  3
B6
350
58
  3
B7
350
59
  3
B8
350
5A
  3
B9
350
5B
  3
C0
350
5C
  3
C1
350
5D
  3
C2
350
5E
  3
C3
350
5F
  3
C4
350
60
  3
C5
350
61
  3
C6
350
62
  3
C7
350
63
  3
C8
350
64
  3
C9
350
65
  3
D0
350
66
  3
D1
350
67
  3
D2
350
68
  0
LAYOUT
  5
1E
102
{ACAD_REACTORS
330
1A
102
}
330
1A
100
AcDbPlotSettings
  1

  2
none_device
  4

  6

 40
0.0
 41
0.0
 42
0.0
 43
0.0
 44
0.0
 45
0.0
 46
0.0
 47
0.0
 48
0.0
 49
0.0
140
0.0
141
0.0
142
1.0
143
1.0
 70
   688
 72
     1
 73
     0
 74
     5
  7

 75
    16
147
1.0
148
0.0
149
0.0
100
AcDbLayout
  1
Layout1
 70
     1
 71
     1
 10
0.0
 20
0.0
 11
420.0
 21
297.0
 12
0.0
 22
0.0
 32
0.0
 14
1.0000000000E+20
 24
1.0000000000E+20
 34
1.0000000000E+20
 15
-1.0000000000E+20
 25
-1.0000000000E+20
 35
-1.0000000000E+20
146
0.0
 13
0.0
 23
0.0
 33
0.0
 16
1.0
 26
0.0
 36
0.0
 17
0.0
 27
1.0
 37
0.0
 76
     0
330
1B
  0
LAYOUT
  5
26
102
{ACAD_REACTORS
330
1A
102
}
330
1A
100
AcDbPlotSettings
  1

  2
none_device
  4

  6

 40
0.0
 41
0.0
 42
0.0
 43
0.0
 44
0.0
 45
0.0
 46
0.0
 47
0.0
 48
0.0
 49
0.0
140
0.0
141
0.0
142
1.0
143
1.0
 70
   688
 72
     1
 73
     0
 74
     5
  7

 75
    16
147
1.0
148
0.0
149
0.0
100
AcDbLayout
  1
Layout2
 70
     1
 71
     2
 10
0.0
 20
0.0
 11
0.0
 21
0.0
 12
0.0
 22
0.0
 32
0.0
 14
0.0
 24
0.0
 34
0.0
 15
0.0
 25
0.0
 35
0.0
146
0.0
 13
0.0
 23
0.0
 33
0.0
 16
1.0
 26
0.0
 36
0.0
 17
0.0
 27
1.0
 37
0.0
 76
     0
330
23
  0
LAYOUT
  5
22
102
{ACAD_REACTORS
330
1A
102
}
330
1A
100
AcDbPlotSettings
  1

  2
none_device
  4
Letter_(8.50_x_11.00_Inches)
  6

 40
6.35
 41
6.35
 42
6.35000508
 43
6.35000508
 44
215.9
 45
279.4
 46
0.0
 47
0.0
 48
0.0
 49
0.0
140
0.0
141
0.0
142
1.0
143
1.0
 70
  1712
 72
     1
 73
     0
 74
     0
  7

 75
     0
147
1.0
148
0.0
149
0.0
100
AcDbLayout
  1
Model
 70
     1
 71
     0
 10
0.0
 20
0.0
 11
297.0
 21
210.0
 12
0.0
 22
0.0
 32
0.0
 14
0.0
 24
0.0
 34
0.0
 15
297.0
 25
210.0
 35
0.0
146
0.0
 13
0.0
 23
0.0
 33
0.0
 16
1.0
 26
0.0
 36
0.0
 17
0.0
 27
1.0
 37
0.0
 76
     0
330
1F
331
29
  0
MLINESTYLE
  5
18
102
{ACAD_REACTORS
330
17
102
}
330
17
100
AcDbMlineStyle
  2
Standard
 70
     0
  3

 62
   256
 51
90.0
 52
90.0
 71
     2
 49
0.5
 62
   256
  6
BYLAYER
 49
-0.5
 62
   256
  6
BYLAYER
  0
ACDBPLACEHOLDER
  5
F
102
{ACAD_REACTORS
330
E
102
}
330
E
  0
SCALE
  5
48
102
{ACAD_REACTORS
330
47
102
}
330
47
100
AcDbScale
 70
     0
300
1:1
140
1.0
141
1.0
290
     1
  0
SCALE
  5
49
102
{ACAD_REACTORS
330
47
102
}
330
47
100
AcDbScale
 70
     0
300
1:2
140
1.0
141
2.0
290
     0
  0
SCALE
  5
4A
102
{ACAD_REACTORS
330
47
102
}
330
47
100
AcDbScale
 70
     0
300
1:4
140
1.0
141
4.0
290
     0
  0
SCALE
  5
4B
102
{ACAD_REACTORS
330
47
102
}
330
47
100
AcDbScale
 70
     0
300
1:5
140
1.0
141
5.0
290
     0
  0
SCALE
  5
4C
102
{ACAD_REACTORS
330
47
102
}
330
47
100
AcDbScale
 70
     0
300
1:8
140
1.0
141
8.0
290
     0
  0
SCALE
  5
4D
102
{ACAD_REACTORS
330
47
102
}
330
47
100
AcDbScale
 70
     0
300
1:10
140
1.0
141
10.0
290
     0
  0
SCALE
  5
4E
102
{ACAD_REACTORS
330
47
102
}
330
47
100
AcDbScale
 70
     0
300
1:16
140
1.0
141
16.0
290
     0
  0
SCALE
  5
4F
102
{ACAD_REACTORS
330
47
102
}
330
47
100
AcDbScale
 70
     0
300
1:20
140
1.0
141
20.0
290
     0
  0
SCALE
  5
50
102
{ACAD_REACTORS
330
47
102
}
330
47
100
AcDbScale
 70
     0
300
1:30
140
1.0
141
30.0
290
     0
  0
SCALE
  5
51
102
{ACAD_REACTORS
330
47
102
}
330
47
100
AcDbScale
 70
     0
300
1:40
140
1.0
141
40.0
290
     0
  0
SCALE
  5
52
102
{ACAD_REACTORS
330
47
102
}
330
47
100
AcDbScale
 70
     0
300
1:50
140
1.0
141
50.0
290
     0
  0
SCALE
  5
53
102
{ACAD_REACTORS
330
47
102
}
330
47
100
AcDbScale
 70
     0
300
1:100
140
1.0
141
100.0
290
     0
  0
SCALE
  5
54
102
{ACAD_REACTORS
330
47
102
}
330
47
100
AcDbScale
 70
     0
300
2:1
140
2.0
141
1.0
290
     0
  0
SCALE
  5
55
102
{ACAD_REACTORS
330
47
102
}
330
47
100
AcDbScale
 70
     0
300
4:1
140
4.0
141
1.0
290
     0
  0
SCALE
  5
56
102
{ACAD_REACTORS
330
47
102
}
330
47
100
AcDbScale
 70
     0
300
8:1
140
8.0
141
1.0
290
     0
  0
SCALE
  5
57
102
{ACAD_REACTORS
330
47
102
}
330
47
100
AcDbScale
 70
     0
300
10:1
140
10.0
141
1.0
290
     0
  0
SCALE
  5
58
102
{ACAD_REACTORS
330
47
102
}
330
47
100
AcDbScale
 70
     0
300
100:1
140
100.0
141
1.0
290
     0
  0
SCALE
  5
59
102
{ACAD_REACTORS
330
47
102
}
330
47
100
AcDbScale
 70
     0
300
1/128" = 1'-0"
140
0.0078125
141
12.0
290
     0
  0
SCALE
  5
5A
102
{ACAD_REACTORS
330
47
102
}
330
47
100
AcDbScale
 70
     0
300
1/64" = 1'-0"
140
0.015625
141
12.0
290
     0
  0
SCALE
  5
5B
102
{ACAD_REACTORS
330
47
102
}
330
47
100
AcDbScale
 70
     0
300
1/32" = 1'-0"
140
0.03125
141
12.0
290
     0
  0
SCALE
  5
5C
102
{ACAD_REACTORS
330
47
102
}
330
47
100
AcDbScale
 70
     0
300
1/16" = 1'-0"
140
0.0625
141
12.0
290
     0
  0
SCALE
  5
5D
102
{ACAD_REACTORS
330
47
102
}
330
47
100
AcDbScale
 70
     0
300
3/32" = 1'-0"
140
0.09375
141
12.0
290
     0
  0
SCALE
  5
5E
102
{ACAD_REACTORS
330
47
102
}
330
47
100
AcDbScale
 70
     0
300
1/8" = 1'-0"
140
0.125
141
12.0
290
     0
  0
SCALE
  5
5F
102
{ACAD_REACTORS
330
47
102
}
330
47
100
AcDbScale
 70
     0
300
3/16" = 1'-0"
140
0.1875
141
12.0
290
     0
  0
SCALE
  5
60
102
{ACAD_REACTORS
330
47
102
}
330
47
100
AcDbScale
 70
     0
300
1/4" = 1'-0"
140
0.25
141
12.0
290
     0
  0
SCALE
  5
61
102
{ACAD_REACTORS
330
47
102
}
330
47
100
AcDbScale
 70
     0
300
3/8" = 1'-0"
140
0.375
141
12.0
290
     0
  0
SCALE
  5
62
102
{ACAD_REACTORS
330
47
102
}
330
47
100
AcDbScale
 70
     0
300
1/2" = 1'-0"
140
0.5
141
12.0
290
     0
  0
SCALE
  5
63
102
{ACAD_REACTORS
330
47
102
}
330
47
100
AcDbScale
 70
     0
300
3/4" = 1'-0"
140
0.75
141
12.0
290
     0
  0
SCALE
  5
64
102
{ACAD_REACTORS
330
47
102
}
330
47
100
AcDbScale
 70
     0
300
1" = 1'-0"
140
1.0
141
12.0
290
     0
  0
SCALE
  5
65
102
{ACAD_REACTORS
330
47
102
}
330
47
100
AcDbScale
 70
     0
300
1-1/2" = 1'-0"
140
1.5
141
12.0
290
     0
  0
SCALE
  5
66
102
{ACAD_REACTORS
330
47
102
}
330
47
100
AcDbScale
 70
     0
300
3" = 1'-0"
140
3.0
141
12.0
290
     0
  0
SCALE
  5
67
102
{ACAD_REACTORS
330
47
102
}
330
47
100
AcDbScale
 70
     0
300
6" = 1'-0"
140
6.0
141
12.0
290
     0
  0
SCALE
  5
68
102
{ACAD_REACTORS
330
47
102
}
330
47
100
AcDbScale
 70
     0
300
1'-0" = 1'-0"
140
12.0
141
12.0
290
     0
  0
ENDSEC
  0
EOF
