  0
SECTION
  2
HEADER
  9
$ACADVER
  1
AC1015
  9
$ACADMAINTVER
 70
     6
  9
$DWGCODEPAGE
  3
ANSI_1252
  9
$INSBASE
 10
0.0
 20
0.0
 30
0.0
  9
$EXTMIN
 10
0.0
 20
0.0
 30
0.0
  9
$EXTMAX
 10
297.0
 20
210.0
 30
0.0
  9
$LIMMIN
 10
0.0
 20
0.0
  9
$LIMMAX
 10
297.0
 20
210.0
  9
$ORTHOMODE
 70
     0
  9
$REGENMODE
 70
     1
  9
$FILLMODE
 70
     1
  9
$QTEXTMODE
 70
     0
  9
$MIRRTEXT
 70
     1
  9
$LTSCALE
 40
1.0
  9
$ATTMODE
 70
     1
  9
$TEXTSIZE
 40
2.0
  9
$TRACEWID
 40
1.0
  9
$TEXTSTYLE
  7
Standard
  9
$CLAYER
  8
0
  9
$CELTYPE
  6
ByLayer
  9
$CECOLOR
 62
   256
  9
$CELTSCALE
 40
1.0
  9
$DISPSILH
 70
     0
  9
$DIMSCALE
 40
1.0
  9
$DIMASZ
 40
3.0
  9
$DIMEXO
 40
0.0
  9
$DIMDLI
 40
3.75
  9
$DIMRND
 40
0.0
  9
$DIMDLE
 40
0.0
  9
$DIMEXE
 40
1.0
  9
$DIMTP
 40
0.0
  9
$DIMTM
 40
0.0
  9
$DIMTXT
 40
2.0
  9
$DIMCEN
 40
2.5
  9
$DIMTSZ
 40
0.0
  9
$DIMTOL
 70
     0
  9
$DIMLIM
 70
     0
  9
$DIMTIH
 70
     1
  9
$DIMTOH
 70
     1
  9
$DIMSE1
 70
     0
  9
$DIMSE2
 70
     0
  9
$DIMTAD
 70
     1
  9
$DIMZIN
 70
     0
  9
$DIMBLK
  1

  9
$DIMASO
 70
     1
  9
$DIMSHO
 70
     1
  9
$DIMPOST
  1

  9
$DIMAPOST
  1

  9
$DIMALT
 70
     0
  9
$DIMALTD
 70
     3
  9
$DIMALTF
 40
0.0393700787
  9
$DIMLFAC
 40
1.0
  9
$DIMTOFL
 70
     1
  9
$DIMTVP
 40
0.0
  9
$DIMTIX
 70
     0
  9
$DIMSOXD
 70
     0
  9
$DIMSAH
 70
     0
  9
$DIMBLK1
  1

  9
$DIMBLK2
  1

  9
$DIMSTYLE
  2
ISO-25
  9
$DIMCLRD
 70
     0
  9
$DIMCLRE
 70
     0
  9
$DIMCLRT
 70
     0
  9
$DIMTFAC
 40
1.0
  9
$DIMGAP
 40
1.524
  9
$DIMJUST
 70
     0
  9
$DIMSD1
 70
     0
  9
$DIMSD2
 70
     0
  9
$DIMTOLJ
 70
     0
  9
$DIMTZIN
 70
     0
  9
$DIMALTZ
 70
     0
  9
$DIMALTTZ
 70
     0
  9
$DIMUPT
 70
     0
  9
$DIMDEC
 70
     2
  9
$DIMTDEC
 70
     3
  9
$DIMALTU
 70
     2
  9
$DIMALTTD
 70
     3
  9
$DIMTXSTY
  7
Standard
  9
$DIMAUNIT
 70
     0
  9
$DIMADEC
 70
     2
  9
$DIMALTRND
 40
0.0
  9
$DIMAZIN
 70
     0
  9
$DIMDSEP
 70
    44
  9
$DIMATFIT
 70
     3
  9
$DIMFRAC
 70
     0
  9
$DIMLDRBLK
  1

  9
$DIMLUNIT
 70
     2
  9
$DIMLWD
 70
    -2
  9
$DIMLWE
 70
    -2
  9
$DIMTMOVE
 70
     0
  9
$LUNITS
 70
     2
  9
$LUPREC
 70
     2
  9
$SKETCHINC
 40
1.0
  9
$FILLETRAD
 40
10.0
  9
$AUNITS
 70
     0
  9
$AUPREC
 70
     2
  9
$MENU
  1
.
  9
$ELEVATION
 40
0.0
  9
$PELEVATION
 40
0.0
  9
$THICKNESS
 40
0.0
  9
$LIMCHECK
 70
     0
  9
$CHAMFERA
 40
0.0
  9
$CHAMFERB
 40
0.0
  9
$CHAMFERC
 40
0.0
  9
$CHAMFERD
 40
0.0
  9
$SKPOLY
 70
     0
  9
$TDCREATE
 40
2457667.627325035
  9
$TDUCREATE
 40
2457667.543991701
  9
$TDUPDATE
 40
2457667.627326134
  9
$TDUUPDATE
 40
2457667.543992801
  9
$TDINDWG
 40
0.0000000116
  9
$TDUSRTIMER
 40
0.0000000116
  9
$USRTIMER
 70
     1
  9
$ANGBASE
 50
0.0
  9
$ANGDIR
 70
     0
  9
$PDMODE
 70
     0
  9
$PDSIZE
 40
-1.0
  9
$PLINEWID
 40
0.0
  9
$SPLFRAME
 70
     0
  9
$SPLINETYPE
 70
     6
  9
$SPLINESEGS
 70
     8
  9
$HANDSEED
  5
225
  9
$SURFTAB1
 70
     6
  9
$SURFTAB2
 70
     6
  9
$SURFTYPE
 70
     6
  9
$SURFU
 70
     6
  9
$SURFV
 70
     6
  9
$UCSBASE
  2

  9
$UCSNAME
  2

  9
$UCSORG
 10
0.0
 20
0.0
 30
0.0
  9
$UCSXDIR
 10
1.0
 20
0.0
 30
0.0
  9
$UCSYDIR
 10
0.0
 20
1.0
 30
0.0
  9
$UCSORTHOREF
  2

  9
$UCSORTHOVIEW
 70
     0
  9
$UCSORGTOP
 10
0.0
 20
0.0
 30
0.0
  9
$UCSORGBOTTOM
 10
0.0
 20
0.0
 30
0.0
  9
$UCSORGLEFT
 10
0.0
 20
0.0
 30
0.0
  9
$UCSORGRIGHT
 10
0.0
 20
0.0
 30
0.0
  9
$UCSORGFRONT
 10
0.0
 20
0.0
 30
0.0
  9
$UCSORGBACK
 10
0.0
 20
0.0
 30
0.0
  9
$PUCSBASE
  2

  9
$PUCSNAME
  2

  9
$PUCSORG
 10
0.0
 20
0.0
 30
0.0
  9
$PUCSXDIR
 10
1.0
 20
0.0
 30
0.0
  9
$PUCSYDIR
 10
0.0
 20
1.0
 30
0.0
  9
$PUCSORTHOREF
  2

  9
$PUCSORTHOVIEW
 70
     0
  9
$PUCSORGTOP
 10
0.0
 20
0.0
 30
0.0
  9
$PUCSORGBOTTOM
 10
0.0
 20
0.0
 30
0.0
  9
$PUCSORGLEFT
 10
0.0
 20
0.0
 30
0.0
  9
$PUCSORGRIGHT
 10
0.0
 20
0.0
 30
0.0
  9
$PUCSORGFRONT
 10
0.0
 20
0.0
 30
0.0
  9
$PUCSORGBACK
 10
0.0
 20
0.0
 30
0.0
  9
$USERI1
 70
     0
  9
$USERI2
 70
     0
  9
$USERI3
 70
     0
  9
$USERI4
 70
     0
  9
$USERI5
 70
     0
  9
$USERR1
 40
0.0
  9
$USERR2
 40
0.0
  9
$USERR3
 40
0.0
  9
$USERR4
 40
0.0
  9
$USERR5
 40
0.0
  9
$WORLDVIEW
 70
     1
  9
$SHADEDGE
 70
     3
  9
$SHADEDIF
 70
    70
  9
$TILEMODE
 70
     1
  9
$MAXACTVP
 70
    64
  9
$PINSBASE
 10
0.0
 20
0.0
 30
0.0
  9
$PLIMCHECK
 70
     0
  9
$PEXTMIN
 10
1.0000000000E+20
 20
1.0000000000E+20
 30
1.0000000000E+20
  9
$PEXTMAX
 10
-1.0000000000E+20
 20
-1.0000000000E+20
 30
-1.0000000000E+20
  9
$PLIMMIN
 10
0.0
 20
0.0
  9
$PLIMMAX
 10
420.0
 20
297.0
  9
$UNITMODE
 70
     0
  9
$VISRETAIN
 70
     1
  9
$PLINEGEN
 70
     0
  9
$PSLTSCALE
 70
     1
  9
$TREEDEPTH
 70
  3020
  9
$CMLSTYLE
  2
Standard
  9
$CMLJUST
 70
     0
  9
$CMLSCALE
 40
20.0
  9
$PROXYGRAPHICS
 70
     1
  9
$MEASUREMENT
 70
     1
  9
$CELWEIGHT
370
    -1
  9
$ENDCAPS
280
     0
  9
$JOINSTYLE
280
     0
  9
$LWDISPLAY
290
     1
  9
$INSUNITS
 70
     4
  9
$HYPERLINKBASE
  1

  9
$STYLESHEET
  1

  9
$XEDIT
290
     1
  9
$CEPSNTYPE
380
     0
  9
$PSTYLEMODE
290
     1
  9
$FINGERPRINTGUID
  2
{3078A042-EB56-4B20-ABD8-E5FA0BC43D8B}
  9
$VERSIONGUID
  2
{FAEB1C32-E019-11D5-929B-00C0DF256EC4}
  9
$EXTNAMES
290
     1
  9
$PSVPSCALE
 40
0.0
  9
$OLESTARTUP
290
     0
  0
ENDSEC
  0
SECTION
  2
CLASSES
  0
CLASS
  1
ACDBDICTIONARYWDFLT
  2
AcDbDictionaryWithDefault
  3
ObjectDBX Classes
 90
        0
280
     0
281
     0
  0
CLASS
  1
VISUALSTYLE
  2
AcDbVisualStyle
  3
ObjectDBX Classes
 90
     4095
280
     0
281
     0
  0
CLASS
  1
MATERIAL
  2
AcDbMaterial
  3
ObjectDBX Classes
 90
     1153
280
     0
281
     0
  0
CLASS
  1
SCALE
  2
AcDbScale
  3
ObjectDBX Classes
 90
     1153
280
     0
281
     0
  0
CLASS
  1
TABLESTYLE
  2
AcDbTableStyle
  3
ObjectDBX Classes
 90
     4095
280
     0
281
     0
  0
CLASS
  1
MLEADERSTYLE
  2
AcDbMLeaderStyle
  3
ACDB_MLEADERSTYLE_CLASS
 90
     4095
280
     0
281
     0
  0
CLASS
  1
SUN
  2
AcDbSun
  3
SCENEOE
 90
     1153
280
     0
281
     0
  0
CLASS
  1
ACDBPLACEHOLDER
  2
AcDbPlaceHolder
  3
ObjectDBX Classes
 90
        0
280
     0
281
     0
  0
CLASS
  1
LAYOUT
  2
AcDbLayout
  3
ObjectDBX Classes
 90
        0
280
     0
281
     0
  0
ENDSEC
  0
SECTION
  2
TABLES
  0
TABLE
  2
VPORT
  5
8
330
0
100
AcDbSymbolTable
 70
     1
  0
VPORT
  5
29
330
8
100
AcDbSymbolTableRecord
100
AcDbViewportTableRecord
  2
*Active
 70
     0
 10
0.0
 20
0.0
 11
1.0
 21
1.0
 12
148.5
 22
105.0
 13
0.0
 23
0.0
 14
10.0
 24
10.0
 15
10.0
 25
10.0
 16
0.0
 26
0.0
 36
1.0
 17
0.0
 27
0.0
 37
0.0
 40
210.0
 41
1.4142857143
 42
50.0
 43
0.0
 44
0.0
 50
0.0
 51
0.0
 71
     0
 72
  2000
 73
     1
 74
     3
 75
     0
 76
     0
 77
     0
 78
     0
281
     0
 65
     1
110
0.0
120
0.0
130
0.0
111
1.0
121
0.0
131
0.0
112
0.0
122
1.0
132
0.0
 79
     0
146
0.0
  0
ENDTAB
  0
TABLE
  2
LTYPE
  5
5
330
0
100
AcDbSymbolTable
 70
     6
  0
LTYPE
  5
14
330
5
100
AcDbSymbolTableRecord
100
AcDbLinetypeTableRecord
  2
ByBlock
 70
     0
  3

 72
    65
 73
     0
 40
0.0
  0
LTYPE
  5
15
330
5
100
AcDbSymbolTableRecord
100
AcDbLinetypeTableRecord
  2
ByLayer
 70
     0
  3

 72
    65
 73
     0
 40
0.0
  0
LTYPE
  5
16
330
5
100
AcDbSymbolTableRecord
100
AcDbLinetypeTableRecord
  2
Continuous
 70
     0
  3
Solid line
 72
    65
 73
     0
 40
0.0
  0
LTYPE
  5
6E
330
5
100
AcDbSymbolTableRecord
100
AcDbLinetypeTableRecord
  2
HIDDEN
 70
     0
  3
Hidden __ __ __ __ __ __ __ __ __ __ __ __ __ __
 72
    65
 73
     2
 40
1.905
 49
1.27
 74
     0
 49
-0.635
 74
     0
  0
LTYPE
  5
6F
330
5
100
AcDbSymbolTableRecord
100
AcDbLinetypeTableRecord
  2
PHANTOM
 70
     0
  3
Phantom ______  __  __  ______  __  __  ______
 72
    65
 73
     6
 40
12.7
 49
6.35
 74
     0
 49
-1.27
 74
     0
 49
1.27
 74
     0
 49
-1.27
 74
     0
 49
1.27
 74
     0
 49
-1.27
 74
     0
  0
LTYPE
  5
70
330
5
100
AcDbSymbolTableRecord
100
AcDbLinetypeTableRecord
  2
CENTER
 70
     0
  3
Center ____ _ ____ _ ____ _ ____ _ ____ _ ____
 72
    65
 73
     4
 40
10.16
 49
6.35
 74
     0
 49
-1.27
 74
     0
 49
1.27
 74
     0
 49
-1.27
 74
     0
  0
LTYPE
  5
71
330
5
100
AcDbSymbolTableRecord
100
AcDbLinetypeTableRecord
  2
CENTERX2
 70
     0
  3
Center (2x) ________  __  ________  __  _____
 72
    65
 73
     4
 40
20.32
 49
12.7
 74
     0
 49
-2.54
 74
     0
 49
2.54
 74
     0
 49
-2.54
 74
     0
  0
LTYPE
  5
72
330
5
100
AcDbSymbolTableRecord
100
AcDbLinetypeTableRecord
  2
DOT2
 70
     0
  3
Dot (.5x) ........................................
 72
    65
 73
     2
 40
0.635
 49
0.0
 74
     0
 49
-0.635
 74
     0
  0
ENDTAB
  0
TABLE
  2
LAYER
  5
2
330
0
100
AcDbSymbolTable
 70
     5
  0
LAYER
  5
10
330
2
100
AcDbSymbolTableRecord
100
AcDbLayerTableRecord
  2
0
 70
     0
 62
     7
  6
Continuous
370
    -3
390
F
  0
LAYER
  5
73
330
2
100
AcDbSymbolTableRecord
100
AcDbLayerTableRecord
  2
FORMAT
 70
     0
 62
     7
  6
Continuous
370
    -3
390
F
  0
LAYER
  5
74
330
2
100
AcDbSymbolTableRecord
100
AcDbLayerTableRecord
  2
VERMASSUNG
 70
     0
 62
     7
  6
Continuous
370
    -3
390
F
  0
LAYER
  5
75
330
2
100
AcDbSymbolTableRecord
100
AcDbLayerTableRecord
  2
KOPF_DÜNN
 70
     0
 62
     7
  6
Continuous
370
    -3
390
F
  0
LAYER
  5
76
330
2
100
AcDbSymbolTableRecord
100
AcDbLayerTableRecord
  2
KOPF_DICK
 70
     0
 62
     7
  6
Continuous
370
    15
390
F
  0
ENDTAB
  0
TABLE
  2
STYLE
  5
3
330
0
100
AcDbSymbolTable
 70
     2
  0
STYLE
  5
11
330
3
100
AcDbSymbolTableRecord
100
AcDbTextStyleTableRecord
  2
Standard
 70
     0
 40
0.0
 41
1.0
 50
0.0
 71
     0
 42
2.0
  3
txt
  4

  0
STYLE
  5
77
330
3
100
AcDbSymbolTableRecord
100
AcDbTextStyleTableRecord
  2
SLDTEXTSTYLE0
 70
     0
 40
0.0
 41
0.7
 50
0.0
 71
     0
 42
2.0
  3
TXT
  4

  0
ENDTAB
  0
TABLE
  2
VIEW
  5
6
330
0
100
AcDbSymbolTable
 70
     0
  0
ENDTAB
  0
TABLE
  2
UCS
  5
7
330
0
100
AcDbSymbolTable
 70
     0
  0
ENDTAB
  0
TABLE
  2
APPID
  5
9
330
0
100
AcDbSymbolTable
 70
     1
  0
APPID
  5
12
330
9
100
AcDbSymbolTableRecord
100
AcDbRegAppTableRecord
  2
ACAD
 70
     0
  0
ENDTAB
  0
TABLE
  2
DIMSTYLE
  5
A
330
0
100
AcDbSymbolTable
 70
     2
100
AcDbDimStyleTable
  0
DIMSTYLE
105
27
330
A
100
AcDbSymbolTableRecord
100
AcDbDimStyleTableRecord
  2
ISO-25
 70
     0
 41
2.5
 42
0.625
 43
3.75
 44
1.25
 73
     0
 74
     0
 77
     1
 78
     8
140
2.5
141
2.5
143
0.0393700787
147
0.625
171
     3
172
     1
178
     0
271
     2
272
     2
274
     3
278
    44
283
     0
284
     8
340
11
  0
DIMSTYLE
105
12A
102
{ACAD_REACTORS
330
129
330
136
330
141
330
14D
330
157
330
163
102
}
330
A
100
AcDbSymbolTableRecord
100
AcDbDimStyleTableRecord
  2
SLDDIMSTYLE0
 70
     0
 41
3.0
 44
0.0
 45
0.000000001
 73
     0
 74
     0
 77
     1
 78
    12
 79
     3
140
2.0
147
0.5
173
     1
178
     0
271
     2
272
     3
276
     2
284
    12
340
77
  0
ENDTAB
  0
TABLE
  2
BLOCK_RECORD
  5
1
330
0
100
AcDbSymbolTable
 70
     7
  0
BLOCK_RECORD
  5
1F
330
1
100
AcDbSymbolTableRecord
100
AcDbBlockTableRecord
  2
*Model_Space
340
22
  0
BLOCK_RECORD
  5
1B
330
1
100
AcDbSymbolTableRecord
100
AcDbBlockTableRecord
  2
*Paper_Space
340
1E
  0
BLOCK_RECORD
  5
23
330
1
100
AcDbSymbolTableRecord
100
AcDbBlockTableRecord
  2
*Paper_Space0
340
26
  0
BLOCK_RECORD
  5
12B
330
1
100
AcDbSymbolTableRecord
100
AcDbBlockTableRecord
  2
_D
340
0
  0
BLOCK_RECORD
  5
137
330
1
100
AcDbSymbolTableRecord
100
AcDbBlockTableRecord
  2
_D_1
340
0
  0
BLOCK_RECORD
  5
142
330
1
100
AcDbSymbolTableRecord
100
AcDbBlockTableRecord
  2
_D_2
340
0
  0
BLOCK_RECORD
  5
14E
330
1
100
AcDbSymbolTableRecord
100
AcDbBlockTableRecord
  2
_D_3
340
0
  0
BLOCK_RECORD
  5
158
330
1
100
AcDbSymbolTableRecord
100
AcDbBlockTableRecord
  2
_D_4
340
0
  0
BLOCK_RECORD
  5
164
330
1
100
AcDbSymbolTableRecord
100
AcDbBlockTableRecord
  2
_D_5
340
0
  0
ENDTAB
  0
ENDSEC
  0
SECTION
  2
BLOCKS
  0
BLOCK
  5
20
330
1F
100
AcDbEntity
  8
0
100
AcDbBlockBegin
  2
*Model_Space
 70
     0
 10
0.0
 20
0.0
 30
0.0
  3
*Model_Space
  1

  0
ENDBLK
  5
21
330
1F
100
AcDbEntity
  8
0
100
AcDbBlockEnd
  0
BLOCK
  5
1C
330
1B
100
AcDbEntity
 67
     1
  8
0
100
AcDbBlockBegin
  2
*Paper_Space
 70
     0
 10
0.0
 20
0.0
 30
0.0
  3
*Paper_Space
  1

  0
ENDBLK
  5
1D
330
1B
100
AcDbEntity
 67
     1
  8
0
100
AcDbBlockEnd
  0
BLOCK
  5
24
330
23
100
AcDbEntity
  8
0
100
AcDbBlockBegin
  2
*Paper_Space0
 70
     0
 10
0.0
 20
0.0
 30
0.0
  3
*Paper_Space0
  1

  0
ENDBLK
  5
25
330
23
100
AcDbEntity
  8
0
100
AcDbBlockEnd
  0
BLOCK
  5
12C
330
12B
100
AcDbEntity
  8
0
100
AcDbBlockBegin
  2
_D
 70
     0
 10
0.0
 20
0.0
 30
0.0
  3
_D
  1

  0
SOLID
  5
12E
330
12B
100
AcDbEntity
  8
VERMASSUNG
100
AcDbTrace
 10
64.5251440383
 20
56.2590402623
 30
0.0
 11
64.9751440383
 21
59.2590402623
 31
0.0
 12
64.0751440383
 22
59.2590402623
 32
0.0
 13
64.0751440383
 23
59.2590402623
 33
0.0
  0
SOLID
  5
12F
330
12B
100
AcDbEntity
  8
VERMASSUNG
100
AcDbTrace
 10
64.5251440383
 20
153.7090402623
 30
0.0
 11
64.0751440383
 21
150.7090402623
 31
0.0
 12
64.9751440383
 22
150.7090402623
 32
0.0
 13
64.9751440383
 23
150.7090402623
 33
0.0
  0
LINE
  5
130
330
12B
100
AcDbEntity
  8
VERMASSUNG
100
AcDbLine
 10
192.7191660417
 20
56.2590402623
 30
0.0
 11
63.5251440383
 21
56.2590402623
 31
0.0
  0
LINE
  5
131
330
12B
100
AcDbEntity
  8
VERMASSUNG
100
AcDbLine
 10
192.7191660417
 20
153.7090402623
 30
0.0
 11
63.5251440383
 21
153.7090402623
 31
0.0
  0
LINE
  5
132
330
12B
100
AcDbEntity
  8
VERMASSUNG
100
AcDbLine
 10
64.5251440383
 20
56.2590402623
 30
0.0
 11
64.5251440383
 21
153.7090402623
 31
0.0
  0
MTEXT
  5
133
330
12B
100
AcDbEntity
  8
VERMASSUNG
100
AcDbMText
 10
61.7470087821
 20
95.4804211423
 30
0.0
 40
2.0
 41
0.0
 71
     1
 72
     1
  1
ISO 50
  7
SLDTEXTSTYLE0
 11
3.391901413832837E-15
 21
1.0
 31
0.0
 73
     1
 44
1.0
  0
MTEXT
  5
134
330
12B
100
AcDbEntity
  8
VERMASSUNG
100
AcDbMText
 10
61.9470087334
 20
104.4804207548
 30
0.0
 40
2.0
 41
0.0
 71
     1
 72
     1
  1
%%c
  7
SLDTEXTSTYLE0
 11
3.391901413832837E-15
 21
1.0
 31
0.0
 73
     1
 44
1.0
  0
MTEXT
  5
135
330
12B
100
AcDbEntity
  8
VERMASSUNG
100
AcDbMText
 10
61.9470084423
 20
108.0884202947
 30
0.0
 40
2.0
 41
0.0
 71
     1
 72
     1
  1
97.45
  7
SLDTEXTSTYLE0
 11
3.391901413832837E-15
 21
1.0
 31
0.0
 73
     1
 44
1.0
  0
ENDBLK
  5
12D
330
12B
100
AcDbEntity
  8
0
100
AcDbBlockEnd
  0
BLOCK
  5
138
330
137
100
AcDbEntity
  8
0
100
AcDbBlockBegin
  2
_D_1
 70
     0
 10
0.0
 20
0.0
 30
0.0
  3
_D_1
  1

  0
SOLID
  5
13A
330
137
100
AcDbEntity
  8
VERMASSUNG
100
AcDbTrace
 10
232.2765507764
 20
113.9840402623
 30
0.0
 11
231.8265507764
 21
110.9840402623
 31
0.0
 12
232.7265507764
 22
110.9840402623
 32
0.0
 13
232.7265507764
 23
110.9840402623
 33
0.0
  0
SOLID
  5
13B
330
137
100
AcDbEntity
  8
VERMASSUNG
100
AcDbTrace
 10
232.2765507764
 20
95.9840402623
 30
0.0
 11
232.7265507764
 21
98.9840402623
 31
0.0
 12
231.8265507764
 22
98.9840402623
 32
0.0
 13
231.8265507764
 23
98.9840402623
 33
0.0
  0
LINE
  5
13C
330
137
100
AcDbEntity
  8
VERMASSUNG
100
AcDbLine
 10
215.3691660417
 20
113.9840402623
 30
0.0
 11
233.2765507764
 21
113.9840402623
 31
0.0
  0
LINE
  5
13D
330
137
100
AcDbEntity
  8
VERMASSUNG
100
AcDbLine
 10
215.3691660417
 20
95.9840402623
 30
0.0
 11
233.2765507764
 21
95.9840402623
 31
0.0
  0
LINE
  5
13E
330
137
100
AcDbEntity
  8
VERMASSUNG
100
AcDbLine
 10
232.2765507764
 20
113.9840402623
 30
0.0
 11
232.2765507764
 21
95.9840402623
 31
0.0
  0
MTEXT
  5
13F
330
137
100
AcDbEntity
  8
VERMASSUNG
100
AcDbMText
 10
229.6984152387
 20
101.9802502758
 30
0.0
 40
2.0
 41
0.0
 71
     1
 72
     1
  1
%%c
  7
SLDTEXTSTYLE0
 11
-7.044195017643634E-15
 21
1.0
 31
0.0
 73
     1
 44
1.0
  0
MTEXT
  5
140
330
137
100
AcDbEntity
  8
VERMASSUNG
100
AcDbMText
 10
229.6984151804
 20
105.5886506443
 30
0.0
 40
2.0
 41
0.0
 71
     1
 72
     1
  1
18
  7
SLDTEXTSTYLE0
 11
-7.044195017643634E-15
 21
1.0
 31
0.0
 73
     1
 44
1.0
  0
ENDBLK
  5
139
330
137
100
AcDbEntity
  8
0
100
AcDbBlockEnd
  0
BLOCK
  5
143
330
142
100
AcDbEntity
  8
0
100
AcDbBlockBegin
  2
_D_2
 70
     0
 10
0.0
 20
0.0
 30
0.0
  3
_D_2
  1

  0
ARC
  5
145
330
142
100
AcDbEntity
  8
VERMASSUNG
100
AcDbCircle
 10
207.9065159352
 20
160.068985103
 30
0.0
 40
4.247276278891423
100
AcDbArc
 50
153.4349488229
 51
206.5650511771
  0
ARC
  5
146
330
142
100
AcDbEntity
  8
VERMASSUNG
100
AcDbCircle
 10
209.6818161481
 20
160.068985103
 30
0.0
 40
4.247276278891423
100
AcDbArc
 50
333.4349488229
 51
26.5650511771
  0
SOLID
  5
147
330
142
100
AcDbEntity
  8
VERMASSUNG
100
AcDbTrace
 10
193.3191660417
 20
158.1695454073
 30
0.0
 11
196.3191660417
 21
157.7195454073
 31
0.0
 12
196.3191660417
 22
158.6195454073
 32
0.0
 13
196.3191660417
 23
158.6195454073
 33
0.0
  0
SOLID
  5
148
330
142
100
AcDbEntity
  8
VERMASSUNG
100
AcDbTrace
 10
224.2691660417
 20
158.1695454073
 30
0.0
 11
221.2691660417
 21
158.6195454073
 31
0.0
 12
221.2691660417
 22
157.7195454073
 32
0.0
 13
221.2691660417
 23
157.7195454073
 33
0.0
  0
LINE
  5
149
330
142
100
AcDbEntity
  8
VERMASSUNG
100
AcDbLine
 10
193.3191660417
 20
142.733121377
 30
0.0
 11
193.3191660417
 21
159.1695454073
 31
0.0
  0
LINE
  5
14A
330
142
100
AcDbEntity
  8
VERMASSUNG
100
AcDbLine
 10
224.2691660417
 20
120.6840402623
 30
0.0
 11
224.2691660417
 21
159.1695454073
 31
0.0
  0
LINE
  5
14B
330
142
100
AcDbEntity
  8
VERMASSUNG
100
AcDbLine
 10
193.3191660417
 20
158.1695454073
 30
0.0
 11
224.2691660417
 21
158.1695454073
 31
0.0
  0
MTEXT
  5
14C
330
142
100
AcDbEntity
  8
VERMASSUNG
100
AcDbMText
 10
205.6951365437
 20
160.7476810032
 30
0.0
 40
2.0
 41
0.0
 71
     1
 72
     1
  1
30.95
  7
SLDTEXTSTYLE0
 73
     1
 44
1.0
  0
ENDBLK
  5
144
330
142
100
AcDbEntity
  8
0
100
AcDbBlockEnd
  0
BLOCK
  5
14F
330
14E
100
AcDbEntity
  8
0
100
AcDbBlockBegin
  2
_D_3
 70
     0
 10
0.0
 20
0.0
 30
0.0
  3
_D_3
  1

  0
SOLID
  5
151
330
14E
100
AcDbEntity
  8
VERMASSUNG
100
AcDbTrace
 10
174.2691660417
 20
164.1695454073
 30
0.0
 11
177.2691660417
 21
163.7195454073
 31
0.0
 12
177.2691660417
 22
164.6195454073
 32
0.0
 13
177.2691660417
 23
164.6195454073
 33
0.0
  0
SOLID
  5
152
330
14E
100
AcDbEntity
  8
VERMASSUNG
100
AcDbTrace
 10
224.2691660417
 20
164.1695454073
 30
0.0
 11
221.2691660417
 21
164.6195454073
 31
0.0
 12
221.2691660417
 22
163.7195454073
 32
0.0
 13
221.2691660417
 23
163.7195454073
 33
0.0
  0
LINE
  5
153
330
14E
100
AcDbEntity
  8
VERMASSUNG
100
AcDbLine
 10
174.2691660417
 20
139.9090402623
 30
0.0
 11
174.2691660417
 21
165.1695454073
 31
0.0
  0
LINE
  5
154
330
14E
100
AcDbEntity
  8
VERMASSUNG
100
AcDbLine
 10
224.2691660417
 20
120.6840402623
 30
0.0
 11
224.2691660417
 21
165.1695454073
 31
0.0
  0
LINE
  5
155
330
14E
100
AcDbEntity
  8
VERMASSUNG
100
AcDbLine
 10
174.2691660417
 20
164.1695454073
 30
0.0
 11
224.2691660417
 21
164.1695454073
 31
0.0
  0
MTEXT
  5
156
330
14E
100
AcDbEntity
  8
VERMASSUNG
100
AcDbMText
 10
197.8694662546
 20
166.7476810032
 30
0.0
 40
2.0
 41
0.0
 71
     1
 72
     1
  1
50
  7
SLDTEXTSTYLE0
 73
     1
 44
1.0
  0
ENDBLK
  5
150
330
14E
100
AcDbEntity
  8
0
100
AcDbBlockEnd
  0
BLOCK
  5
159
330
158
100
AcDbEntity
  8
0
100
AcDbBlockBegin
  2
_D_4
 70
     0
 10
0.0
 20
0.0
 30
0.0
  3
_D_4
  1

  0
ARC
  5
15B
330
158
100
AcDbEntity
  8
VERMASSUNG
100
AcDbCircle
 10
147.980665798
 20
172.068985103
 30
0.0
 40
4.247276278891398
100
AcDbArc
 50
153.4349488229
 51
206.5650511771
  0
ARC
  5
15C
330
158
100
AcDbEntity
  8
VERMASSUNG
100
AcDbCircle
 10
148.9576662853
 20
172.068985103
 30
0.0
 40
4.247276278891423
100
AcDbArc
 50
333.4349488229
 51
26.5650511771
  0
SOLID
  5
15D
330
158
100
AcDbEntity
  8
VERMASSUNG
100
AcDbTrace
 10
72.6691660417
 20
170.1695454073
 30
0.0
 11
75.6691660417
 21
169.7195454073
 31
0.0
 12
75.6691660417
 22
170.6195454073
 32
0.0
 13
75.6691660417
 23
170.6195454073
 33
0.0
  0
SOLID
  5
15E
330
158
100
AcDbEntity
  8
VERMASSUNG
100
AcDbTrace
 10
224.2691660417
 20
170.1695454073
 30
0.0
 11
221.2691660417
 21
170.6195454073
 31
0.0
 12
221.2691660417
 22
169.7195454073
 32
0.0
 13
221.2691660417
 23
169.7195454073
 33
0.0
  0
LINE
  5
15F
330
158
100
AcDbEntity
  8
VERMASSUNG
100
AcDbLine
 10
72.6691660417
 20
123.3628847897
 30
0.0
 11
72.6691660417
 21
171.1695454073
 31
0.0
  0
LINE
  5
160
330
158
100
AcDbEntity
  8
VERMASSUNG
100
AcDbLine
 10
224.2691660417
 20
120.6840402623
 30
0.0
 11
224.2691660417
 21
171.1695454073
 31
0.0
  0
LINE
  5
161
330
158
100
AcDbEntity
  8
VERMASSUNG
100
AcDbLine
 10
72.6691660417
 20
170.1695454073
 30
0.0
 11
224.2691660417
 21
170.1695454073
 31
0.0
  0
MTEXT
  5
162
330
158
100
AcDbEntity
  8
VERMASSUNG
100
AcDbMText
 10
145.7692864065
 20
172.7476810032
 30
0.0
 40
2.0
 41
0.0
 71
     1
 72
     1
  1
151.6
  7
SLDTEXTSTYLE0
 73
     1
 44
1.0
  0
ENDBLK
  5
15A
330
158
100
AcDbEntity
  8
0
100
AcDbBlockEnd
  0
BLOCK
  5
165
330
164
100
AcDbEntity
  8
0
100
AcDbBlockBegin
  2
_D_5
 70
     0
 10
0.0
 20
0.0
 30
0.0
  3
_D_5
  1

  0
SOLID
  5
167
330
164
100
AcDbEntity
  8
VERMASSUNG
100
AcDbTrace
 10
237.6785594012
 20
120.9840402623
 30
0.0
 11
237.2285594012
 21
117.9840402623
 31
0.0
 12
238.1285594012
 22
117.9840402623
 32
0.0
 13
238.1285594012
 23
117.9840402623
 33
0.0
  0
SOLID
  5
168
330
164
100
AcDbEntity
  8
VERMASSUNG
100
AcDbTrace
 10
237.6785594012
 20
88.9840402623
 30
0.0
 11
238.1285594012
 21
91.9840402623
 31
0.0
 12
237.2285594012
 22
91.9840402623
 32
0.0
 13
237.2285594012
 23
91.9840402623
 33
0.0
  0
LINE
  5
169
330
164
100
AcDbEntity
  8
VERMASSUNG
100
AcDbLine
 10
223.9691660417
 20
120.9840402623
 30
0.0
 11
238.6785594012
 21
120.9840402623
 31
0.0
  0
LINE
  5
16A
330
164
100
AcDbEntity
  8
VERMASSUNG
100
AcDbLine
 10
223.9691660417
 20
88.9840402623
 30
0.0
 11
238.6785594012
 21
88.9840402623
 31
0.0
  0
LINE
  5
16B
330
164
100
AcDbEntity
  8
VERMASSUNG
100
AcDbLine
 10
237.6785594012
 20
120.9840402623
 30
0.0
 11
237.6785594012
 21
88.9840402623
 31
0.0
  0
MTEXT
  5
16C
330
164
100
AcDbEntity
  8
VERMASSUNG
100
AcDbMText
 10
234.900424145
 20
98.8790410404
 30
0.0
 40
2.0
 41
0.0
 71
     1
 72
     1
  1
ST3
  7
SLDTEXTSTYLE0
 11
-7.044195017643634E-15
 21
1.0
 31
0.0
 73
     1
 44
1.0
  0
MTEXT
  5
16D
330
164
100
AcDbEntity
  8
VERMASSUNG
100
AcDbMText
 10
235.1004240963
 20
104.6790409667
 30
0.0
 40
2.0
 41
0.0
 71
     1
 72
     1
  1
%%c
  7
SLDTEXTSTYLE0
 11
-7.044195017643634E-15
 21
1.0
 31
0.0
 73
     1
 44
1.0
  0
MTEXT
  5
16E
330
164
100
AcDbEntity
  8
VERMASSUNG
100
AcDbMText
 10
234.900424145
 20
108.2890405153
 30
0.0
 40
2.0
 41
0.0
 71
     1
 72
     1
  1
32
  7
SLDTEXTSTYLE0
 11
-7.044195017643634E-15
 21
1.0
 31
0.0
 73
     1
 44
1.0
  0
ENDBLK
  5
166
330
164
100
AcDbEntity
  8
0
100
AcDbBlockEnd
  0
ENDSEC
  0
SECTION
  2
ENTITIES
  0
MTEXT
  5
78
330
1F
100
AcDbEntity
  8
KOPF_DÜNN
100
AcDbMText
 10
13.8892156294
 20
23.8442973028
 30
0.0
 40
3.0
 41
0.0
 71
     1
 72
     1
  1
114.450.032.050
  7
SLDTEXTSTYLE0
 73
     1
 44
1.0
  0
MTEXT
  5
79
330
1F
100
AcDbEntity
  8
VERMASSUNG
100
AcDbMText
 10
13.9329988022
 20
28.8834360957
 30
0.0
 40
3.0
 41
0.0
 71
     1
 72
     1
  1
Aufnahme_Master shank ST3
  7
SLDTEXTSTYLE0
 73
     1
 44
1.0
  0
MTEXT
  5
7A
330
1F
100
AcDbEntity
  8
VERMASSUNG
100
AcDbMText
 10
98.8601118557
 20
13.8365368761
 30
0.0
 40
2.0
 41
0.0
 71
     1
 72
     1
  1
Datum: 14.05.2008
  7
SLDTEXTSTYLE0
 73
     1
 44
1.0
  0
MTEXT
  5
7B
330
1F
100
AcDbEntity
  8
VERMASSUNG
100
AcDbMText
 10
13.933048693
 20
18.0482802738
 30
0.0
 40
2.0
 41
0.0
 71
     1
 72
     1
  1
DIN 69871 A/D ISO 50
  7
SLDTEXTSTYLE0
 73
     1
 44
1.0
  0
MTEXT
  5
7C
330
1F
100
AcDbEntity
  8
VERMASSUNG
100
AcDbMText
 10
13.9808475933
 20
13.9090974274
 30
0.0
 40
2.0
 41
0.0
 71
     1
 72
     1
  1
Gewicht: 2805g
  7
SLDTEXTSTYLE0
 73
     1
 44
1.0
  0
ARC
  5
7D
330
1F
100
AcDbEntity
  8
0
  6
Continuous
 62
     7
370
    15
100
AcDbCircle
 10
176.8691660417
 20
69.4590402623
 30
0.0
 40
0.6000000000000227
100
AcDbArc
 50
0.0
 51
90.0
  0
ARC
  5
7E
330
1F
100
AcDbEntity
  8
0
  6
Continuous
 62
     7
370
    15
100
AcDbCircle
 10
176.8691660417
 20
140.5090402623
 30
0.0
 40
0.5999999999999943
100
AcDbArc
 50
270.0
 51
0.0
  0
LINE
  5
7F
330
1F
100
AcDbEntity
  8
0
  6
Continuous
 62
     7
370
    15
100
AcDbLine
 10
174.2691660417
 20
139.9090402623
 30
0.0
 11
74.3805522555
 21
125.3419507518
 31
0.0
  0
LINE
  5
80
330
1F
100
AcDbEntity
  8
0
  6
Continuous
 62
     7
370
    15
100
AcDbLine
 10
74.3805522555
 20
84.6261297728
 30
0.0
 11
174.2691660417
 21
70.0590402623
 31
0.0
  0
LINE
  5
81
330
1F
100
AcDbEntity
  8
0
  6
Continuous
 62
     7
370
    15
100
AcDbLine
 10
174.2691660417
 20
70.0590402623
 30
0.0
 11
176.8691660417
 21
70.0590402623
 31
0.0
  0
LINE
  5
82
330
1F
100
AcDbEntity
  8
0
  6
Continuous
 62
     7
370
    15
100
AcDbLine
 10
176.8691660417
 20
139.9090402623
 30
0.0
 11
174.2691660417
 21
139.9090402623
 31
0.0
  0
ARC
  5
83
330
1F
100
AcDbEntity
  8
0
  6
Continuous
 62
     7
370
    15
100
AcDbCircle
 10
74.6691660417
 20
86.6051957349
 30
0.0
 40
1.999999999999986
100
AcDbArc
 50
180.0
 51
261.7028550302
  0
ARC
  5
84
330
1F
100
AcDbEntity
  8
0
  6
Continuous
 62
     7
370
    15
100
AcDbCircle
 10
74.6691660417
 20
123.3628847897
 30
0.0
 40
1.999999999999992
100
AcDbArc
 50
98.2971449698
 51
180.0
  0
ARC
  5
85
330
1F
100
AcDbEntity
  8
0
  6
Continuous
 62
     7
370
    15
100
AcDbCircle
 10
197.3191660417
 20
84.9840402623
 30
0.0
 40
4.0
100
AcDbArc
 50
90.0
 51
180.0
  0
ARC
  5
86
330
1F
100
AcDbEntity
  8
0
  6
Continuous
 62
     7
370
    15
100
AcDbCircle
 10
197.3191660417
 20
124.9840402623
 30
0.0
 40
4.0
100
AcDbArc
 50
180.0
 51
270.0
  0
LINE
  5
87
330
1F
100
AcDbEntity
  8
0
  6
Continuous
 62
     7
370
    15
100
AcDbLine
 10
223.9691660417
 20
120.9840402623
 30
0.0
 11
197.3191660417
 21
120.9840402623
 31
0.0
  0
LINE
  5
88
330
1F
100
AcDbEntity
  8
0
  6
Continuous
 62
     7
370
    15
100
AcDbLine
 10
197.3191660417
 20
88.9840402623
 30
0.0
 11
223.9691660417
 21
88.9840402623
 31
0.0
  0
LINE
  5
89
330
1F
100
AcDbEntity
  8
0
  6
Continuous
 62
     7
370
    15
100
AcDbLine
 10
223.9691660417
 20
88.9840402623
 30
0.0
 11
224.2691660417
 21
89.2840402623
 31
0.0
  0
LINE
  5
8A
330
1F
100
AcDbEntity
  8
0
  6
Continuous
 62
     7
370
    15
100
AcDbLine
 10
224.2691660417
 20
120.6840402623
 30
0.0
 11
223.9691660417
 21
120.9840402623
 31
0.0
  0
SPLINE
  5
8B
330
1F
100
AcDbEntity
  8
0
  6
Continuous
 62
     7
370
    15
100
AcDbSpline
210
0.0
220
0.0
230
1.0
 70
    24
 71
     3
 72
    11
 73
     7
 74
     0
 42
0.000000001
 43
0.00000001
 40
0.0
 40
0.0
 40
0.0
 40
0.0
 40
0.1183358584681323
 40
0.4755396850857818
 40
0.8141708872487137
 40
1.0
 40
1.0
 40
1.0
 40
1.0
 10
215.2531055508587
 20
106.4216518677511
 30
0.0
 10
215.3171062496241
 20
106.4260157859326
 30
0.0
 10
215.5742968639499
 20
106.4435524506818
 30
0.0
 10
216.0602534320309
 20
106.4766876311372
 30
0.0
 10
216.5948683531805
 20
106.5131406046127
 30
0.0
 10
216.8800848048978
 20
106.5325882244562
 30
0.0
 10
216.9811439673501
 20
106.5394789916656
 30
0.0
  0
SPLINE
  5
8C
330
1F
100
AcDbEntity
  8
0
  6
Continuous
 62
     7
370
    15
100
AcDbSpline
210
0.0
220
0.0
230
1.0
 70
    24
 71
     3
 72
    11
 73
     7
 74
     0
 42
0.000000001
 43
0.00000001
 40
0.0
 40
0.0
 40
0.0
 40
0.0
 40
0.2164499953511931
 40
0.4402998152333196
 40
0.7518914760010479
 40
1.0
 40
1.0
 40
1.0
 40
1.0
 10
214.4911276251779
 20
104.8662131383968
 30
0.0
 10
214.5433225282605
 20
104.972759497541
 30
0.0
 10
214.6494967332823
 20
105.189494740103
 30
0.0
 10
214.8465299702228
 20
105.5917020972696
 30
0.0
 10
215.0578885859515
 20
106.0231520981254
 30
0.0
 10
215.1931470575953
 20
106.2992575575847
 30
0.0
 10
215.2531055508587
 20
106.4216518677511
 30
0.0
  0
SPLINE
  5
8D
330
1F
100
AcDbEntity
  8
0
  6
Continuous
 62
     7
370
    15
100
AcDbSpline
210
0.0
220
0.0
230
1.0
 70
    24
 71
     3
 72
    11
 73
     7
 74
     0
 42
0.000000001
 43
0.00000001
 40
0.0
 40
0.0
 40
0.0
 40
0.0
 40
0.2164499953511925
 40
0.4402998152333271
 40
0.7518914760010548
 40
1.0
 40
1.0
 40
1.0
 40
1.0
 10
215.4571881159884
 20
103.4286015329571
 30
0.0
 10
215.3910137138301
 20
103.5270768245468
 30
0.0
 10
215.256402590387
 20
103.7273940046033
 30
0.0
 10
215.0065974199619
 20
104.099133471767
 30
0.0
 10
214.7386300666224
 20
104.4979004027247
 30
0.0
 10
214.5671449604289
 20
104.7530904049749
 30
0.0
 10
214.4911276251779
 20
104.8662131383968
 30
0.0
  0
SPLINE
  5
8E
330
1F
100
AcDbEntity
  8
0
  6
Continuous
 62
     7
370
    15
100
AcDbSpline
210
0.0
220
0.0
230
1.0
 70
    24
 71
     3
 72
    11
 73
     7
 74
     0
 42
0.000000001
 43
0.00000001
 40
0.0
 40
0.0
 40
0.0
 40
0.0
 40
0.1858291127512947
 40
0.5244603149142189
 40
0.8816641415318984
 40
0.9999999999999999
 40
0.9999999999999999
 40
0.9999999999999999
 40
0.9999999999999999
 10
217.1852265324798
 20
103.5464286568717
 30
0.0
 10
217.0841673700275
 20
103.5395378896623
 30
0.0
 10
216.7989509183102
 20
103.5200902698187
 30
0.0
 10
216.2643359971605
 20
103.4836372963433
 30
0.0
 10
215.7783794290796
 20
103.4505021158879
 30
0.0
 10
215.5211888147539
 20
103.4329654511386
 30
0.0
 10
215.4571881159884
 20
103.4286015329571
 30
0.0
  0
SPLINE
  5
8F
330
1F
100
AcDbEntity
  8
0
  6
Continuous
 62
     7
370
    15
100
AcDbSpline
210
0.0
220
0.0
230
1.0
 70
    24
 71
     3
 72
    11
 73
     7
 74
     0
 42
0.000000001
 43
0.00000001
 40
0.0
 40
0.0
 40
0.0
 40
0.0
 40
0.2164499953511922
 40
0.4402998152333287
 40
0.7518914760010564
 40
0.9999999999999999
 40
0.9999999999999999
 40
0.9999999999999999
 40
0.9999999999999999
 10
216.9811439673501
 20
106.5394789916656
 30
0.0
 10
217.0473183695084
 20
106.4410037000759
 30
0.0
 10
217.1819294929516
 20
106.2406865200194
 30
0.0
 10
217.4317346633766
 20
105.8689470528557
 30
0.0
 10
217.6997020167162
 20
105.4701801218981
 30
0.0
 10
217.8711871229096
 20
105.2149901196479
 30
0.0
 10
217.9472044581606
 20
105.1018673862259
 30
0.0
  0
CIRCLE
  5
90
330
1F
100
AcDbEntity
  8
0
  6
Continuous
 62
     7
370
    15
100
AcDbCircle
 10
216.2191660417
 20
104.9840402623
 30
0.0
 40
1.900000000000003
  0
SPLINE
  5
91
330
1F
100
AcDbEntity
  8
0
  6
Continuous
 62
     7
370
    15
100
AcDbSpline
210
0.0
220
0.0
230
1.0
 70
    24
 71
     3
 72
    11
 73
     7
 74
     0
 42
0.000000001
 43
0.00000001
 40
0.0
 40
0.0
 40
0.0
 40
0.0
 40
0.2164499953511973
 40
0.4402998152333173
 40
0.7518914760010444
 40
1.0
 40
1.0
 40
1.0
 40
1.0
 10
217.9472044581606
 20
105.1018673862259
 30
0.0
 10
217.895009555078
 20
104.9953210270817
 30
0.0
 10
217.7888353500562
 20
104.7785857845197
 30
0.0
 10
217.5918021131157
 20
104.3763784273531
 30
0.0
 10
217.3804434973871
 20
103.9449284264973
 30
0.0
 10
217.2451850257432
 20
103.668822967038
 30
0.0
 10
217.1852265324798
 20
103.5464286568717
 30
0.0
  0
CIRCLE
  5
92
330
1F
100
AcDbEntity
  8
0
  6
Continuous
 62
     7
370
    15
100
AcDbCircle
 10
216.2191660417
 20
104.9840402623
 30
0.0
 40
2.599999999999997
  0
ARC
  5
93
330
1F
100
AcDbEntity
  8
0
  6
Continuous
 62
     7
370
    15
100
AcDbCircle
 10
216.2191660417
 20
104.9840402623
 30
0.0
 40
1.499999999999986
100
AcDbArc
 50
93.9007024141
 51
153.9007024141
  0
ARC
  5
94
330
1F
100
AcDbEntity
  8
0
  6
Continuous
 62
     7
370
    15
100
AcDbCircle
 10
216.2191660417
 20
104.9840402623
 30
0.0
 40
1.500000000000002
100
AcDbArc
 50
213.9007024141
 51
273.9007024141
  0
ARC
  5
95
330
1F
100
AcDbEntity
  8
0
  6
Continuous
 62
     7
370
    15
100
AcDbCircle
 10
216.2191660417
 20
104.9840402623
 30
0.0
 40
1.500000000000051
100
AcDbArc
 50
333.9007024141
 51
33.9007024141
  0
ARC
  5
96
330
1F
100
AcDbEntity
  8
0
  6
Continuous
 62
     7
370
    15
100
AcDbCircle
 10
216.2191660417
 20
104.9840402623
 30
0.0
 40
1.500000000000051
100
AcDbArc
 50
273.9007024141
 51
333.9007024141
  0
ARC
  5
97
330
1F
100
AcDbEntity
  8
0
  6
Continuous
 62
     7
370
    15
100
AcDbCircle
 10
216.2191660417
 20
104.9840402623
 30
0.0
 40
1.499999999999982
100
AcDbArc
 50
153.9007024141
 51
213.9007024141
  0
ARC
  5
98
330
1F
100
AcDbEntity
  8
0
  6
Continuous
 62
     7
370
    15
100
AcDbCircle
 10
216.2191660417
 20
104.9840402623
 30
0.0
 40
1.500000000000022
100
AcDbArc
 50
33.9007024141
 51
93.9007024141
  0
SPLINE
  5
99
330
1F
100
AcDbEntity
  8
0
  6
Continuous
 62
     7
370
    15
100
AcDbSpline
210
0.0
220
0.0
230
1.0
 70
     8
 71
     3
 72
    10
 73
     6
 74
     0
 42
0.000000001
 43
0.00000001
 40
0.0
 40
0.0
 40
0.0
 40
0.0
 40
0.5
 40
0.5
 40
1.0
 40
1.0
 40
1.0
 40
1.0
 10
177.6848260728233
 20
58.35058599511913
 30
0.0
 10
177.7334766414029
 20
58.32262900385172
 30
0.0
 10
177.7908618533623
 20
58.29868671882491
 30
0.0
 10
177.9215749615284
 20
58.26456825572921
 30
0.0
 10
177.994314495267
 20
58.25478092096536
 30
0.0
 10
178.0691660416692
 20
58.25478092096536
 30
0.0
  0
SPLINE
  5
9A
330
1F
100
AcDbEntity
  8
0
  6
Continuous
 62
     7
370
    15
100
AcDbSpline
210
0.0
220
0.0
230
1.0
 70
     8
 71
     3
 72
    10
 73
     6
 74
     0
 42
0.000000001
 43
0.00000001
 40
0.0
 40
0.0
 40
0.0
 40
0.0
 40
0.5
 40
0.5
 40
1.0
 40
1.0
 40
1.0
 40
1.0
 10
177.6848260728233
 20
58.35058599511913
 30
0.0
 10
177.6266380662411
 20
58.41816972529795
 30
0.0
 10
177.5741955997148
 20
58.4986459599397
 30
0.0
 10
177.4958432925361
 20
58.68168158292246
 30
0.0
 10
177.4691660416692
 20
58.78755728571807
 30
0.0
 10
177.4691660416692
 20
58.89507059493869
 30
0.0
  0
LINE
  5
9B
330
1F
100
AcDbEntity
  8
0
  6
Continuous
 62
     7
370
    15
100
AcDbLine
 10
177.4691660417
 20
58.8950705949
 30
0.0
 11
177.4691660417
 21
134.8340402623
 31
0.0
  0
SPLINE
  5
9C
330
1F
100
AcDbEntity
  8
0
  6
Continuous
 62
     7
370
    15
100
AcDbSpline
210
0.0
220
0.0
230
1.0
 70
    24
 71
     3
 72
    14
 73
    10
 74
     0
 42
0.000000001
 43
0.00000001
 40
0.0
 40
0.0
 40
0.0
 40
0.0
 40
0.25
 40
0.25
 40
0.5
 40
0.5
 40
0.75
 40
0.75
 40
1.0
 40
1.0
 40
1.0
 40
1.0
 10
178.0691660416693
 20
134.8340402623114
 30
0.0
 10
177.9801440893256
 20
134.8340402623114
 30
0.0
 10
177.890457390052
 20
134.8340402623114
 30
0.0
 10
177.7367305644947
 20
134.8340402623114
 30
0.0
 10
177.6715256698679
 20
134.8340402623114
 30
0.0
 10
177.5689349756975
 20
134.8340402623114
 30
0.0
 10
177.5312975213816
 20
134.8340402623114
 30
0.0
 10
177.4812056059965
 20
134.8340402623114
 30
0.0
 10
177.4691660416692
 20
134.8340402623114
 30
0.0
 10
177.4691660416692
 20
134.8340402623114
 30
0.0
  0
LINE
  5
9D
330
1F
100
AcDbEntity
  8
0
  6
Continuous
 62
     7
370
    15
100
AcDbLine
 10
178.0691660417
 20
58.254780921
 30
0.0
 11
182.1360045342
 21
58.254780921
 31
0.0
  0
LINE
  5
9E
330
1F
100
AcDbEntity
  8
0
  6
Continuous
 62
     7
370
    15
100
AcDbLine
 10
182.1360045342
 20
134.8340402623
 30
0.0
 11
178.0691660417
 21
134.8340402623
 31
0.0
  0
LINE
  5
9F
330
1F
100
AcDbEntity
  8
0
  6
Continuous
 62
     7
370
    15
100
AcDbLine
 10
182.1360045342
 20
58.254780921
 30
0.0
 11
182.1360045342
 21
134.8340402623
 31
0.0
  0
SPLINE
  5
A0
330
1F
100
AcDbEntity
  8
0
  6
Continuous
 62
     7
370
    15
100
AcDbSpline
210
0.0
220
0.0
230
1.0
 70
     8
 71
     3
 72
     8
 73
     4
 74
     0
 42
0.000000001
 43
0.00000001
 40
0.0
 40
0.0
 40
0.0
 40
0.0
 40
1.0
 40
1.0
 40
1.0
 40
1.0
 10
183.4591660416692
 20
60.3643008534816
 30
0.0
 10
183.1694375956447
 20
59.84208084331806
 30
0.0
 10
182.8794124454269
 20
59.32002746105807
 30
0.0
 10
182.5891182111651
 20
58.79812519533496
 30
0.0
  0
SPLINE
  5
A1
330
1F
100
AcDbEntity
  8
0
  6
Continuous
 62
     7
370
    15
100
AcDbSpline
210
0.0
220
0.0
230
1.0
 70
     8
 71
     3
 72
     8
 73
     4
 74
     0
 42
0.000000001
 43
0.00000001
 40
0.0
 40
0.0
 40
0.0
 40
0.0
 40
0.0011862984959112
 40
0.0011862984959112
 40
0.0011862984959112
 40
0.0011862984959112
 10
182.1360045342073
 20
58.25478092096537
 30
0.0
 10
182.2880292960782
 20
58.43569277058334
 30
0.0
 10
182.439086741294
 20
58.61680510102418
 30
0.0
 10
182.5891182111651
 20
58.79812519533497
 30
0.0
  0
SPLINE
  5
A2
330
1F
100
AcDbEntity
  8
0
  6
Continuous
 62
     7
370
    15
100
AcDbSpline
210
0.0
220
0.0
230
1.0
 70
    24
 71
     3
 72
     8
 73
     4
 74
     0
 42
0.000000001
 43
0.00000001
 40
0.0
 40
0.0
 40
0.0
 40
0.0
 40
1.0
 40
1.0
 40
1.0
 40
1.0
 10
183.4591660416692
 20
134.8340402623114
 30
0.0
 10
183.0239659369656
 20
134.8340402623114
 30
0.0
 10
182.5826062542267
 20
134.8340402623114
 30
0.0
 10
182.1360045342073
 20
134.8340402623114
 30
0.0
  0
LINE
  5
A3
330
1F
100
AcDbEntity
  8
0
  6
Continuous
 62
     7
370
    15
100
AcDbLine
 10
183.4591660417
 20
60.3643008535
 30
0.0
 11
183.4591660417
 21
134.8340402623
 31
0.0
  0
SPLINE
  5
A4
330
1F
100
AcDbEntity
  8
0
  6
Continuous
 62
     7
370
    15
100
AcDbSpline
210
0.0
220
0.0
230
1.0
 70
     8
 71
     3
 72
    12
 73
     8
 74
     0
 42
0.000000001
 43
0.00000001
 40
0.0
 40
0.0
 40
0.0
 40
0.0
 40
0.2499999999999972
 40
0.2499999999999972
 40
0.4999999999999944
 40
0.4999999999999944
 40
1.0
 40
1.0
 40
1.0
 40
1.0
 10
192.7191660416692
 20
58.25478092096537
 30
0.0
 10
192.8151387948441
 20
58.25478092096537
 30
0.0
 10
192.9075667589986
 20
58.27105424507395
 30
0.0
 10
193.063996859108
 20
58.32442796707036
 30
0.0
 10
193.1274752838809
 20
58.3605562246047
 30
0.0
 10
193.275754444708
 20
58.48125742088399
 30
0.0
 10
193.3191660416692
 20
58.57510700724916
 30
0.0
 10
193.3191660416693
 20
58.66941128219637
 30
0.0
  0
SPLINE
  5
A5
330
1F
100
AcDbEntity
  8
0
  6
Continuous
 62
     7
370
    15
100
AcDbSpline
210
0.0
220
0.0
230
1.0
 70
    24
 71
     3
 72
    12
 73
     8
 74
     0
 42
0.000000001
 43
0.00000001
 40
0.0
 40
0.0
 40
0.0
 40
0.0
 40
0.4999999999999972
 40
0.4999999999999972
 40
0.7499999999999986
 40
0.7499999999999986
 40
1.0
 40
1.0
 40
1.0
 40
1.0
 10
193.3191660416693
 20
134.8340402623114
 30
0.0
 10
193.3191660416693
 20
134.8340402623114
 30
0.0
 10
193.2710353532839
 20
134.8340402623114
 30
0.0
 10
193.1171382974808
 20
134.8340402623114
 30
0.0
 10
193.051673732474
 20
134.8340402623114
 30
0.0
 10
192.8981444118639
 20
134.8340402623114
 30
0.0
 10
192.8097957511281
 20
134.8340402623114
 30
0.0
 10
192.7191660416691
 20
134.8340402623114
 30
0.0
  0
LINE
  5
A6
330
1F
100
AcDbEntity
  8
0
  6
Continuous
 62
     7
370
    15
100
AcDbLine
 10
193.3191660417
 20
58.6694112822
 30
0.0
 11
193.3191660417
 21
134.8340402623
 31
0.0
  0
SPLINE
  5
A7
330
1F
100
AcDbEntity
  8
0
  6
Continuous
 62
     7
370
    15
100
AcDbSpline
210
0.0
220
0.0
230
1.0
 70
     8
 71
     3
 72
     8
 73
     4
 74
     0
 42
0.000000001
 43
0.00000001
 40
0.0000000000000004
 40
0.0000000000000004
 40
0.0000000000000004
 40
0.0000000000000004
 40
0.0011862984959127
 40
0.0011862984959127
 40
0.0011862984959127
 40
0.0011862984959127
 10
188.1492138721694
 20
58.79812519533497
 30
0.0
 10
188.2992453420407
 20
58.61680510102395
 30
0.0
 10
188.4503027872601
 20
58.43569277058357
 30
0.0
 10
188.6023275491311
 20
58.25478092096537
 30
0.0
  0
SPLINE
  5
A8
330
1F
100
AcDbEntity
  8
0
  6
Continuous
 62
     7
370
    15
100
AcDbSpline
210
0.0
220
0.0
230
1.0
 70
     8
 71
     3
 72
     8
 73
     4
 74
     0
 42
0.000000001
 43
0.00000001
 40
0.0
 40
0.0
 40
0.0
 40
0.0
 40
1.0
 40
1.0
 40
1.0
 40
1.0
 10
188.1492138721724
 20
58.79812519533665
 30
0.0
 10
187.8589196379109
 20
59.3200274610592
 30
0.0
 10
187.5688944876935
 20
59.84208084331862
 30
0.0
 10
187.2791660416692
 20
60.3643008534816
 30
0.0
  0
LINE
  5
A9
330
1F
100
AcDbEntity
  8
0
  6
Continuous
 62
     7
370
    15
100
AcDbLine
 10
187.2791660417
 20
60.3643008535
 30
0.0
 11
187.2791660417
 21
134.8340402623
 31
0.0
  0
SPLINE
  5
AA
330
1F
100
AcDbEntity
  8
0
  6
Continuous
 62
     7
370
    15
100
AcDbSpline
210
0.0
220
0.0
230
1.0
 70
    24
 71
     3
 72
     8
 73
     4
 74
     0
 42
0.000000001
 43
0.00000001
 40
0.0
 40
0.0
 40
0.0
 40
0.0
 40
1.0
 40
1.0
 40
1.0
 40
1.0
 10
188.6023275491311
 20
134.8340402623114
 30
0.0
 10
188.1557258291118
 20
134.8340402623114
 30
0.0
 10
187.7143661463729
 20
134.8340402623114
 30
0.0
 10
187.2791660416692
 20
134.8340402623114
 30
0.0
  0
LINE
  5
AB
330
1F
100
AcDbEntity
  8
0
  6
Continuous
 62
     7
370
    15
100
AcDbLine
 10
188.6023275491
 20
58.254780921
 30
0.0
 11
188.6023275491
 21
134.8340402623
 31
0.0
  0
LINE
  5
AC
330
1F
100
AcDbEntity
  8
0
  6
Continuous
 62
     7
370
    15
100
AcDbLine
 10
188.6023275491
 20
58.254780921
 30
0.0
 11
192.7191660417
 21
58.254780921
 31
0.0
  0
LINE
  5
AD
330
1F
100
AcDbEntity
  8
0
  6
Continuous
 62
     7
370
    15
100
AcDbLine
 10
192.7191660417
 20
134.8340402623
 30
0.0
 11
188.6023275491
 21
134.8340402623
 31
0.0
  0
SPLINE
  5
AE
330
1F
100
AcDbEntity
  8
0
  6
Continuous
 62
     7
370
    15
100
AcDbSpline
210
0.0
220
0.0
230
1.0
 70
     8
 71
     3
 72
    14
 73
    10
 74
     0
 42
0.000000001
 43
0.00000001
 40
0.0
 40
0.0
 40
0.0
 40
0.0
 40
0.25
 40
0.25
 40
0.5
 40
0.5
 40
0.75
 40
0.75
 40
1.0
 40
1.0
 40
1.0
 40
1.0
 10
184.2591660416693
 20
61.3362739964416
 30
0.0
 10
184.1527210337599
 20
61.33627399644159
 30
0.0
 10
184.0458222824865
 20
61.31370444700849
 30
0.0
 10
183.849604027044
 20
61.22726135576656
 30
0.0
 10
183.7599457135796
 20
61.16295743809942
 30
0.0
 10
183.6144920006984
 20
61.00798792405647
 30
0.0
 10
183.5564562179723
 20
60.91522243781273
 30
0.0
 10
183.4791710635877
 20
60.71675555616935
 30
0.0
 10
183.4591660416692
 20
60.60973113437556
 30
0.0
 10
183.4591660416692
 20
60.50294877390474
 30
0.0
  0
SPLINE
  5
AF
330
1F
100
AcDbEntity
  8
0
  6
Continuous
 62
     7
370
    15
100
AcDbSpline
210
0.0
220
0.0
230
1.0
 70
    24
 71
     3
 72
    14
 73
    10
 74
     0
 42
0.000000001
 43
0.00000001
 40
0.0
 40
0.0
 40
0.0
 40
0.0
 40
0.25
 40
0.25
 40
0.5
 40
0.5
 40
0.75
 40
0.75
 40
1.0
 40
1.0
 40
1.0
 40
1.0
 10
184.2591660416693
 20
134.8340402623114
 30
0.0
 10
184.136184742123
 20
134.8340402623114
 30
0.0
 10
184.0159948537209
 20
134.8340402623114
 30
0.0
 10
183.8109710240417
 20
134.8340402623114
 30
0.0
 10
183.7243765352397
 20
134.8340402623114
 30
0.0
 10
183.5892686484772
 20
134.8340402623114
 30
0.0
 10
183.5407455634491
 20
134.8340402623114
 30
0.0
 10
183.4750630547223
 20
134.8340402623114
 30
0.0
 10
183.4591660416692
 20
134.8340402623114
 30
0.0
 10
183.4591660416692
 20
134.8340402623114
 30
0.0
  0
SPLINE
  5
B0
330
1F
100
AcDbEntity
  8
0
  6
Continuous
 62
     7
370
    15
100
AcDbSpline
210
0.0
220
0.0
230
1.0
 70
     8
 71
     3
 72
    14
 73
    10
 74
     0
 42
0.000000001
 43
0.00000001
 40
0.0
 40
0.0
 40
0.0
 40
0.0
 40
0.25
 40
0.25
 40
0.5
 40
0.5
 40
0.75
 40
0.75
 40
1.0
 40
1.0
 40
1.0
 40
1.0
 10
187.2791660416692
 20
60.50294877390476
 30
0.0
 10
187.2791660416692
 20
60.61001276024556
 30
0.0
 10
187.2591822154293
 20
60.71675208662007
 30
0.0
 10
187.1817471329958
 20
60.91550198881087
 30
0.0
 10
187.1238082108363
 20
61.00805620530338
 30
0.0
 10
186.9781704050756
 20
61.16315314870896
 30
0.0
 10
186.8893814087402
 20
61.22689330562183
 30
0.0
 10
186.6928330485357
 20
61.31364186270943
 30
0.0
 10
186.5866938188363
 20
61.33627399644159
 30
0.0
 10
186.4791660416693
 20
61.33627399644159
 30
0.0
  0
SPLINE
  5
B1
330
1F
100
AcDbEntity
  8
0
  6
Continuous
 62
     7
370
    15
100
AcDbSpline
210
0.0
220
0.0
230
1.0
 70
    24
 71
     3
 72
    14
 73
    10
 74
     0
 42
0.000000001
 43
0.00000001
 40
0.0
 40
0.0
 40
0.0
 40
0.0
 40
0.25
 40
0.25
 40
0.5
 40
0.5
 40
0.75
 40
0.75
 40
1.0
 40
1.0
 40
1.0
 40
1.0
 10
187.2791660416692
 20
134.8340402623114
 30
0.0
 10
187.2791660416692
 20
134.8340402623114
 30
0.0
 10
187.2628850068934
 20
134.8340402623114
 30
0.0
 10
187.1982219443688
 20
134.8340402623114
 30
0.0
 10
187.1487421480801
 20
134.8340402623114
 30
0.0
 10
187.0147723909414
 20
134.8340402623114
 30
0.0
 10
186.9286576643419
 20
134.8340402623114
 30
0.0
 10
186.7232015486289
 20
134.8340402623114
 30
0.0
 10
186.6017810114361
 20
134.8340402623114
 30
0.0
 10
186.4791660416693
 20
134.8340402623114
 30
0.0
  0
LINE
  5
B2
330
1F
100
AcDbEntity
  8
0
  6
Continuous
 62
     7
370
    15
100
AcDbLine
 10
186.4791660417
 20
61.3362739964
 30
0.0
 11
184.2591660417
 21
61.3362739964
 31
0.0
  0
LINE
  5
B3
330
1F
100
AcDbEntity
  8
0
  6
Continuous
 62
     7
370
    15
100
AcDbLine
 10
186.4791660417
 20
134.8340402623
 30
0.0
 11
184.2591660417
 21
134.8340402623
 31
0.0
  0
LINE
  5
B4
330
1F
100
AcDbEntity
  8
0
  6
Continuous
 62
     7
370
    15
100
AcDbLine
 10
174.2691660417
 20
70.0590402623
 30
0.0
 11
174.2691660417
 21
139.9090402623
 31
0.0
  0
LINE
  5
B5
330
1F
100
AcDbEntity
  8
0
  6
Continuous
 62
     7
370
    15
100
AcDbLine
 10
186.4791660417
 20
148.6318065282
 30
0.0
 11
184.2591660417
 21
148.6318065282
 31
0.0
  0
LINE
  5
B6
330
1F
100
AcDbEntity
  8
0
  6
Continuous
 62
     7
370
    15
100
AcDbLine
 10
184.2591660417
 20
139.3239223238
 30
0.0
 11
186.4791660417
 21
139.3239223238
 31
0.0
  0
SPLINE
  5
B7
330
1F
100
AcDbEntity
  8
0
  6
Continuous
 62
     7
370
    15
100
AcDbSpline
210
0.0
220
0.0
230
1.0
 70
     8
 71
     3
 72
    12
 73
     8
 74
     0
 42
0.000000001
 43
0.00000001
 40
0.0
 40
0.0
 40
0.0
 40
0.0
 40
0.2500000000000007
 40
0.2500000000000007
 40
0.5000000000000014
 40
0.5000000000000014
 40
1.0
 40
1.0
 40
1.0
 40
1.0
 10
184.2591660416693
 20
148.6318065281811
 30
0.0
 10
184.1528210617932
 20
148.6318065281812
 30
0.0
 10
184.0455447143907
 20
148.6545217660407
 30
0.0
 10
183.8501689249946
 20
148.7405469329231
 30
0.0
 10
183.7616151889177
 20
148.8035256598514
 30
0.0
 10
183.5403572647864
 20
149.0387171702885
 30
0.0
 10
183.4591660416692
 20
149.2518933847738
 30
0.0
 10
183.4591660416692
 20
149.4651317507179
 30
0.0
  0
SPLINE
  5
B8
330
1F
100
AcDbEntity
  8
0
  6
Continuous
 62
     7
370
    15
100
AcDbSpline
210
0.0
220
0.0
230
1.0
 70
     8
 71
     3
 72
    12
 73
     8
 74
     0
 42
0.000000001
 43
0.00000001
 40
0.0
 40
0.0
 40
0.0
 40
0.0
 40
0.499999999999994
 40
0.499999999999994
 40
0.749999999999997
 40
0.749999999999997
 40
1.0
 40
1.0
 40
1.0
 40
1.0
 10
183.4591660416692
 20
140.3770833640284
 30
0.0
 10
183.4591660416692
 20
140.1346602680477
 30
0.0
 10
183.5220871831111
 20
139.8888897474463
 30
0.0
 10
183.7241160801135
 20
139.5839435680294
 30
0.0
 10
183.8104098047607
 20
139.493350701431
 30
0.0
 10
184.0158835993275
 20
139.3629171384941
 30
0.0
 10
184.1358341599271
 20
139.3239223238444
 30
0.0
 10
184.2591660416693
 20
139.3239223238444
 30
0.0
  0
SPLINE
  5
B9
330
1F
100
AcDbEntity
  8
0
  6
Continuous
 62
     7
370
    15
100
AcDbSpline
210
0.0
220
0.0
230
1.0
 70
     8
 71
     3
 72
    12
 73
     8
 74
     0
 42
0.000000001
 43
0.00000001
 40
0.0
 40
0.0
 40
0.0
 40
0.0
 40
0.4999999999999927
 40
0.4999999999999927
 40
0.7499999999999963
 40
0.7499999999999963
 40
1.0
 40
1.0
 40
1.0
 40
1.0
 10
193.3191660416692
 20
151.2790272155418
 30
0.0
 10
193.3191660416692
 20
151.399219822207
 30
0.0
 10
193.2651976114002
 20
151.517127122722
 30
0.0
 10
193.1041109704673
 20
151.6565066672054
 30
0.0
 10
193.0393485509942
 20
151.6946719647693
 30
0.0
 10
192.8872945494297
 20
151.7493242271027
 30
0.0
 10
192.8045647762805
 20
151.7638849170869
 30
0.0
 10
192.7191660416692
 20
151.7638849170869
 30
0.0
  0
SPLINE
  5
BA
330
1F
100
AcDbEntity
  8
0
  6
Continuous
 62
     7
370
    15
100
AcDbSpline
210
0.0
220
0.0
230
1.0
 70
     8
 71
     3
 72
    12
 73
     8
 74
     0
 42
0.000000001
 43
0.00000001
 40
0.0
 40
0.0
 40
0.0
 40
0.0
 40
0.250000000000004
 40
0.250000000000004
 40
0.500000000000008
 40
0.500000000000008
 40
1.0
 40
1.0
 40
1.0
 40
1.0
 10
192.7191660416697
 20
143.4951182139866
 30
0.0
 10
192.8087030998408
 20
143.4951182139865
 30
0.0
 10
192.8986022786295
 20
143.4682909151555
 30
0.0
 10
193.0520271376288
 20
143.3765839498959
 30
0.0
 10
193.1170761950065
 20
143.3123290082971
 30
0.0
 10
193.2703954262707
 20
143.0929168622356
 30
0.0
 10
193.3191660416693
 20
142.9111015524387
 30
0.0
 10
193.3191660416693
 20
142.7331213769557
 30
0.0
  0
LINE
  5
BB
330
1F
100
AcDbEntity
  8
0
  6
Continuous
 62
     7
370
    15
100
AcDbLine
 10
193.3191660417
 20
142.733121377
 30
0.0
 11
193.3191660417
 21
151.2790272155
 31
0.0
  0
LINE
  5
BC
330
1F
100
AcDbEntity
  8
0
  6
Continuous
 62
     7
370
    15
100
AcDbLine
 10
182.1360045342
 20
151.7638849171
 30
0.0
 11
178.0691660417
 21
151.7638849171
 31
0.0
  0
LINE
  5
BD
330
1F
100
AcDbEntity
  8
0
  6
Continuous
 62
     7
370
    15
100
AcDbLine
 10
182.1360045342
 20
143.495118214
 30
0.0
 11
182.1360045342
 21
151.7638849171
 31
0.0
  0
LINE
  5
BE
330
1F
100
AcDbEntity
  8
0
  6
Continuous
 62
     7
370
    15
100
AcDbLine
 10
178.0691660417
 20
143.495118214
 30
0.0
 11
182.1360045342
 21
143.495118214
 31
0.0
  0
LINE
  5
BF
330
1F
100
AcDbEntity
  8
0
  6
Continuous
 62
     7
370
    15
100
AcDbLine
 10
192.7191660417
 20
151.7638849171
 30
0.0
 11
188.6023275491
 21
151.7638849171
 31
0.0
  0
LINE
  5
C0
330
1F
100
AcDbEntity
  8
0
  6
Continuous
 62
     7
370
    15
100
AcDbLine
 10
188.6023275491
 20
143.495118214
 30
0.0
 11
192.7191660417
 21
143.495118214
 31
0.0
  0
LINE
  5
C1
330
1F
100
AcDbEntity
  8
0
  6
Continuous
 62
     7
370
    15
100
AcDbLine
 10
188.6023275491
 20
143.495118214
 30
0.0
 11
188.6023275491
 21
151.7638849171
 31
0.0
  0
SPLINE
  5
C2
330
1F
100
AcDbEntity
  8
0
  6
Continuous
 62
     7
370
    15
100
AcDbSpline
210
0.0
220
0.0
230
1.0
 70
     8
 71
     3
 72
    12
 73
     8
 74
     0
 42
0.000000001
 43
0.00000001
 40
0.0
 40
0.0
 40
0.0
 40
0.0
 40
0.5000000000000003
 40
0.5000000000000003
 40
0.7500000000000001
 40
0.7500000000000001
 40
1.0
 40
1.0
 40
1.0
 40
1.0
 10
177.4691660416692
 20
142.7331213769557
 30
0.0
 10
177.4691660416692
 20
142.911481644195
 30
0.0
 10
177.5164781630452
 20
143.090254055899
 30
0.0
 10
177.6708382409266
 20
143.3120159212507
 30
0.0
 10
177.7357237758456
 20
143.3763079598672
 30
0.0
 10
177.8909564750739
 20
143.4689524440268
 30
0.0
 10
177.9800318877421
 20
143.4951182139866
 30
0.0
 10
178.0691660416693
 20
143.4951182139866
 30
0.0
  0
SPLINE
  5
C3
330
1F
100
AcDbEntity
  8
0
  6
Continuous
 62
     7
370
    15
100
AcDbSpline
210
0.0
220
0.0
230
1.0
 70
     8
 71
     3
 72
     8
 73
     4
 74
     0
 42
0.000000001
 43
0.00000001
 40
0.0
 40
0.0
 40
0.0
 40
0.0
 40
1.0
 40
1.0
 40
1.0
 40
1.0
 10
182.1360045342073
 20
143.4951182139865
 30
0.0
 10
182.582853262135
 20
142.5158823157303
 30
0.0
 10
183.0242196200309
 20
141.5346803230034
 30
0.0
 10
183.4591660416692
 20
140.551176004621
 30
0.0
  0
SPLINE
  5
C4
330
1F
100
AcDbEntity
  8
0
  6
Continuous
 62
     7
370
    15
100
AcDbSpline
210
0.0
220
0.0
230
1.0
 70
     8
 71
     3
 72
    14
 73
    10
 74
     0
 42
0.000000001
 43
0.00000001
 40
0.0
 40
0.0
 40
0.0
 40
0.0
 40
0.25
 40
0.25
 40
0.5
 40
0.5
 40
0.75
 40
0.75
 40
1.0
 40
1.0
 40
1.0
 40
1.0
 10
186.4791660416693
 20
139.3239223238444
 30
0.0
 10
186.600492571655
 20
139.3239223238444
 30
0.0
 10
186.7221972802172
 20
139.3627038392776
 30
0.0
 10
186.9286371591033
 20
139.4938584609715
 30
0.0
 10
187.0145876975594
 20
139.5845105455587
 30
0.0
 10
187.1484994573077
 20
139.7866275804999
 30
0.0
 10
187.1980638941268
 20
139.9003625240391
 30
0.0
 10
187.2629179220948
 20
140.1333221411056
 30
0.0
 10
187.2791660416692
 20
140.2560204074348
 30
0.0
 10
187.2791660416692
 20
140.3770833640284
 30
0.0
  0
SPLINE
  5
C5
330
1F
100
AcDbEntity
  8
0
  6
Continuous
 62
     7
370
    15
100
AcDbSpline
210
0.0
220
0.0
230
1.0
 70
     8
 71
     3
 72
     8
 73
     4
 74
     0
 42
0.000000001
 43
0.00000001
 40
0.0
 40
0.0
 40
0.0
 40
0.0
 40
1.0
 40
1.0
 40
1.0
 40
1.0
 10
187.2791660416692
 20
140.551176004621
 30
0.0
 10
187.7141124633076
 20
141.5346803230034
 30
0.0
 10
188.1554788212035
 20
142.5158823157303
 30
0.0
 10
188.6023275491311
 20
143.4951182139865
 30
0.0
  0
LINE
  5
C6
330
1F
100
AcDbEntity
  8
0
  6
Continuous
 62
     7
370
    15
100
AcDbLine
 10
187.2791660417
 20
140.377083364
 30
0.0
 11
187.2791660417
 21
140.5511760046
 31
0.0
  0
LINE
  5
C7
330
1F
100
AcDbEntity
  8
0
  6
Continuous
 62
     7
370
    15
100
AcDbLine
 10
183.4591660417
 20
140.5511760046
 30
0.0
 11
183.4591660417
 21
140.377083364
 31
0.0
  0
LINE
  5
C8
330
1F
100
AcDbEntity
  8
0
  6
Continuous
 62
     7
370
    15
100
AcDbLine
 10
193.3191660417
 20
142.733121377
 30
0.0
 11
193.3191660417
 21
134.8340402623
 31
0.0
  0
LINE
  5
C9
330
1F
100
AcDbEntity
  8
0
  6
Continuous
 62
     7
370
    15
100
AcDbLine
 10
177.4691660417
 20
142.733121377
 30
0.0
 11
177.4691660417
 21
134.8340402623
 31
0.0
  0
SPLINE
  5
CA
330
1F
100
AcDbEntity
  8
0
  6
Continuous
 62
     7
370
    15
100
AcDbSpline
210
0.0
220
0.0
230
1.0
 70
     8
 71
     3
 72
     8
 73
     4
 74
     0
 42
0.000000001
 43
0.00000001
 40
0.0
 40
0.0
 40
0.0
 40
0.0
 40
0.0012352705496723
 40
0.0012352705496723
 40
0.0012352705496723
 40
0.0012352705496723
 10
182.6924950195018
 20
150.9840735069805
 30
0.0
 10
182.5074597686999
 20
151.2441750827088
 30
0.0
 10
182.3219529595292
 20
151.5041091613356
 30
0.0
 10
182.1360045342073
 20
151.7638849170869
 30
0.0
  0
SPLINE
  5
CB
330
1F
100
AcDbEntity
  8
0
  6
Continuous
 62
     7
370
    15
100
AcDbSpline
210
0.0
220
0.0
230
1.0
 70
     8
 71
     3
 72
     8
 73
     4
 74
     0
 42
0.000000001
 43
0.00000001
 40
0.0
 40
0.0
 40
0.0
 40
0.0
 40
1.0
 40
1.0
 40
1.0
 40
1.0
 10
183.4591660416692
 20
149.6037796711411
 30
0.0
 10
183.2038347283639
 20
150.0640006914067
 30
0.0
 10
182.9482713302576
 20
150.5240951517151
 30
0.0
 10
182.6924950195018
 20
150.9840735069805
 30
0.0
  0
LINE
  5
CC
330
1F
100
AcDbEntity
  8
0
  6
Continuous
 62
     7
370
    15
100
AcDbLine
 10
183.4591660417
 20
140.5511760046
 30
0.0
 11
183.4591660417
 21
149.6037796711
 31
0.0
  0
SPLINE
  5
CD
330
1F
100
AcDbEntity
  8
0
  6
Continuous
 62
     7
370
    15
100
AcDbSpline
210
0.0
220
0.0
230
1.0
 70
     8
 71
     3
 72
    14
 73
    10
 74
     0
 42
0.000000001
 43
0.00000001
 40
0.0
 40
0.0
 40
0.0
 40
0.0
 40
0.25
 40
0.25
 40
0.5
 40
0.5
 40
0.75
 40
0.75
 40
1.0
 40
1.0
 40
1.0
 40
1.0
 10
187.2791660416692
 20
149.465131750718
 30
0.0
 10
187.2791660416692
 20
149.3577893785705
 30
0.0
 10
187.259169849605
 20
149.2511603717227
 30
0.0
 10
187.1814717652604
 20
149.0520085925715
 30
0.0
 10
187.1234786203668
 20
148.9595256942561
 30
0.0
 10
186.977432127544
 20
148.8042898591469
 30
0.0
 10
186.8880943883763
 20
148.7405559175345
 30
0.0
 10
186.6933393763159
 20
148.6547256511393
 30
0.0
 10
186.585809105107
 20
148.6318065281809
 30
0.0
 10
186.4791660416672
 20
148.6318065281811
 30
0.0
  0
SPLINE
  5
CE
330
1F
100
AcDbEntity
  8
0
  6
Continuous
 62
     7
370
    15
100
AcDbSpline
210
0.0
220
0.0
230
1.0
 70
     8
 71
     3
 72
    10
 73
     6
 74
     0
 42
0.000000001
 43
0.00000001
 40
0.0
 40
0.0
 40
0.0
 40
0.0
 40
0.5
 40
0.5
 40
1.0
 40
1.0
 40
1.0
 40
1.0
 10
177.7590349606156
 20
151.6942045880342
 30
0.0
 10
177.6825818706968
 20
151.6239418168136
 30
0.0
 10
177.6137201484277
 20
151.5368469017718
 30
0.0
 10
177.5072079173547
 20
151.3276777735195
 30
0.0
 10
177.4691660416692
 20
151.20236022428
 30
0.0
 10
177.4691660416692
 20
151.073009929684
 30
0.0
  0
SPLINE
  5
CF
330
1F
100
AcDbEntity
  8
0
  6
Continuous
 62
     7
370
    15
100
AcDbSpline
210
0.0
220
0.0
230
1.0
 70
     8
 71
     3
 72
     8
 73
     4
 74
     0
 42
0.000000001
 43
0.00000001
 40
0.0
 40
0.0
 40
0.0
 40
0.0
 40
1.0
 40
1.0
 40
1.0
 40
1.0
 10
178.0691660416692
 20
151.7638849170869
 30
0.0
 10
177.9580878563318
 20
151.7638849170869
 30
0.0
 10
177.8504238524295
 20
151.7387357415323
 30
0.0
 10
177.7590349606156
 20
151.6942045880342
 30
0.0
  0
LINE
  5
D0
330
1F
100
AcDbEntity
  8
0
  6
Continuous
 62
     7
370
    15
100
AcDbLine
 10
177.4691660417
 20
142.733121377
 30
0.0
 11
177.4691660417
 21
151.0730099297
 31
0.0
  0
SPLINE
  5
D1
330
1F
100
AcDbEntity
  8
0
  6
Continuous
 62
     7
370
    15
100
AcDbSpline
210
0.0
220
0.0
230
1.0
 70
     8
 71
     3
 72
     8
 73
     4
 74
     0
 42
0.000000001
 43
0.00000001
 40
0.0
 40
0.0
 40
0.0
 40
0.0
 40
1.0
 40
1.0
 40
1.0
 40
1.0
 10
188.0458370638357
 20
150.9840735069788
 30
0.0
 10
187.7900607530802
 20
150.524095151714
 30
0.0
 10
187.5344973549743
 20
150.0640006914062
 30
0.0
 10
187.2791660416692
 20
149.6037796711411
 30
0.0
  0
SPLINE
  5
D2
330
1F
100
AcDbEntity
  8
0
  6
Continuous
 62
     7
370
    15
100
AcDbSpline
210
0.0
220
0.0
230
1.0
 70
     8
 71
     3
 72
     8
 73
     4
 74
     0
 42
0.000000001
 43
0.00000001
 40
0.0
 40
0.0
 40
0.0
 40
0.0
 40
0.0012352705496738
 40
0.0012352705496738
 40
0.0012352705496738
 40
0.0012352705496738
 10
188.6023275491311
 20
151.7638849170869
 30
0.0
 10
188.416379123809
 20
151.5041091613352
 30
0.0
 10
188.230872314638
 20
151.244175082708
 30
0.0
 10
188.0458370638358
 20
150.9840735069793
 30
0.0
  0
LINE
  5
D3
330
1F
100
AcDbEntity
  8
0
  6
Continuous
 62
     7
370
    15
100
AcDbLine
 10
187.2791660417
 20
140.5511760046
 30
0.0
 11
187.2791660417
 21
149.6037796711
 31
0.0
  0
LINE
  5
D4
330
1F
100
AcDbEntity
  8
0
  6
Continuous
 62
     7
370
    15
100
AcDbLine
 10
72.6691660417
 20
86.6051957349
 30
0.0
 11
72.6691660417
 21
123.3628847746
 31
0.0
  0
CIRCLE
  5
D5
330
1F
100
AcDbEntity
  8
0
  6
Continuous
 62
     7
370
    15
100
AcDbCircle
 10
216.2191660417
 20
104.9840402623
 30
0.0
 40
2.624999999999986
  0
SPLINE
  5
D6
330
1F
100
AcDbEntity
  8
0
  6
Continuous
 62
     7
370
    15
100
AcDbSpline
210
0.0
220
0.0
230
1.0
 70
    11
 71
     3
 72
    66
 73
    62
 74
     0
 42
0.000000001
 43
0.00000001
 40
0.0
 40
0.0
 40
0.0
 40
0.0
 40
0.0312499999999996
 40
0.0312499999999996
 40
0.0624999999999993
 40
0.0624999999999993
 40
0.0937499999999989
 40
0.0937499999999989
 40
0.1249999999999986
 40
0.1249999999999986
 40
0.1562499999999982
 40
0.1562499999999982
 40
0.1874999999999978
 40
0.1874999999999978
 40
0.2187499999999975
 40
0.2187499999999975
 40
0.2499999999999971
 40
0.2499999999999971
 40
0.2812499999999968
 40
0.2812499999999968
 40
0.3124999999999964
 40
0.3124999999999964
 40
0.343749999999996
 40
0.343749999999996
 40
0.3749999999999957
 40
0.3749999999999957
 40
0.4062499999999953
 40
0.4062499999999953
 40
0.4374999999999949
 40
0.4374999999999949
 40
0.4687499999999946
 40
0.4687499999999946
 40
0.4999999999999942
 40
0.4999999999999942
 40
0.5312499999999939
 40
0.5312499999999939
 40
0.5624999999999936
 40
0.5624999999999936
 40
0.6249999999999937
 40
0.6249999999999937
 40
0.6562499999999942
 40
0.6562499999999942
 40
0.6874999999999947
 40
0.6874999999999947
 40
0.7187499999999952
 40
0.7187499999999952
 40
0.7499999999999958
 40
0.7499999999999958
 40
0.7812499999999963
 40
0.7812499999999963
 40
0.8124999999999968
 40
0.8124999999999968
 40
0.8437499999999973
 40
0.8437499999999973
 40
0.8749999999999979
 40
0.8749999999999979
 40
0.9062499999999984
 40
0.9062499999999984
 40
0.9374999999999989
 40
0.9374999999999989
 40
1.0
 40
1.0
 40
1.0
 40
1.0
 10
213.7025064500539
 20
107.4911574206383
 30
0.0
 10
213.8842913549986
 20
107.6401425237469
 30
0.0
 10
214.0773456572398
 20
107.769470349044
 30
0.0
 10
214.4842103718039
 20
107.9923473695473
 30
0.0
 10
214.6996512348165
 20
108.086377730629
 30
0.0
 10
215.14453011126
 20
108.2354063986051
 30
0.0
 10
215.3710227272955
 20
108.2897536451026
 30
0.0
 10
215.8318329924331
 20
108.3597625735297
 30
0.0
 10
216.0684504880115
 20
108.3752657873613
 30
0.0
 10
216.5367858710103
 20
108.3657796791733
 30
0.0
 10
216.7682308428631
 20
108.3412889705725
 30
0.0
 10
217.2257262939857
 20
108.2530654588282
 30
0.0
 10
217.4539368028454
 20
108.1883383792692
 30
0.0
 10
217.8897267593166
 20
108.0219999408645
 30
0.0
 10
218.0981709676277
 20
107.9206917044341
 30
0.0
 10
218.4957907533107
 20
107.6807043405692
 30
0.0
 10
218.6865956623952
 20
107.5402249823547
 30
0.0
 10
219.0322509219297
 20
107.2301093198694
 30
0.0
 10
219.1887270399001
 20
107.0600190023329
 30
0.0
 10
219.4669770742341
 20
106.6875740534806
 30
0.0
 10
219.5889221735311
 20
106.4834209542132
 30
0.0
 10
219.782261942037
 20
106.061098225566
 30
0.0
 10
219.8557239986849
 20
105.8407795014847
 30
0.0
 10
219.9523342500926
 20
105.3801773008276
 30
0.0
 10
219.9738497214599
 20
105.1449146227452
 30
0.0
 10
219.9627654834058
 20
104.6787324872748
 30
0.0
 10
219.9296176121828
 20
104.4425721756777
 30
0.0
 10
219.8119651777444
 20
103.9891614185756
 30
0.0
 10
219.7283247332177
 20
103.7713940843844
 30
0.0
 10
219.5130064410372
 20
103.3530518794976
 30
0.0
 10
219.383614304315
 20
103.1574486417355
 30
0.0
 10
219.0889845628851
 20
102.7968303528353
 30
0.0
 10
218.9213042198985
 20
102.6295271491747
 30
0.0
 10
218.5613093567823
 20
102.3333209536252
 30
0.0
 10
218.3685355471145
 20
102.203210148842
 30
0.0
 10
217.9581852689913
 20
101.9775074663926
 30
0.0
 10
217.7419545169751
 20
101.8831268710211
 30
0.0
 10
217.0798413380415
 20
101.6603562194667
 30
0.0
 10
216.606437785094
 20
101.5885685002589
 30
0.0
 10
215.9075432872192
 20
101.6019109629147
 30
0.0
 10
215.6740525839344
 20
101.6261094264432
 30
0.0
 10
215.2113139035059
 20
101.715184800697
 30
0.0
 10
214.9871641323722
 20
101.7789255544301
 30
0.0
 10
214.5529630264435
 20
101.9441809234038
 30
0.0
 10
214.3415117229272
 20
102.046531780545
 30
0.0
 10
213.9401893570436
 20
102.2888377125252
 30
0.0
 10
213.7535503912364
 20
102.4264796136546
 30
0.0
 10
213.4085975128107
 20
102.7354651860107
 30
0.0
 10
213.2486757959998
 20
102.9090056836921
 30
0.0
 10
212.9691424514187
 20
103.2837710832421
 30
0.0
 10
212.8503930256186
 20
103.4828327601389
 30
0.0
 10
212.6566165686918
 20
103.9054705664652
 30
0.0
 10
212.5813085578679
 20
104.1322473356515
 30
0.0
 10
212.4859031379287
 20
104.5896223928756
 30
0.0
 10
212.4643507023217
 20
104.8217694362587
 30
0.0
 10
212.475759244749
 20
105.2932870389588
 30
0.0
 10
212.5090993593897
 20
105.5273869373971
 30
0.0
 10
212.6266461832006
 20
105.9795978483715
 30
0.0
 10
212.7124129830673
 20
106.2020415857347
 30
0.0
 10
213.0341845324716
 20
106.8251489602819
 30
0.0
 10
213.3389366401646
 20
107.1931872144211
 30
0.0
 10
213.7025064500539
 20
107.4911574206383
 30
0.0
  0
LINE
  5
D7
330
1F
100
AcDbEntity
  8
0
  6
Continuous
 62
     7
370
    15
100
AcDbLine
 10
223.9691660417
 20
104.9840402623
 30
0.0
 11
223.9691660417
 21
88.9840402623
 31
0.0
  0
LINE
  5
D8
330
1F
100
AcDbEntity
  8
0
  6
Continuous
 62
     7
370
    15
100
AcDbLine
 10
223.9691660417
 20
120.9840402623
 30
0.0
 11
223.9691660417
 21
104.9840402623
 31
0.0
  0
LINE
  5
D9
330
1F
100
AcDbEntity
  8
0
  6
Continuous
 62
     7
370
    15
100
AcDbLine
 10
224.2691660417
 20
104.9840402623
 30
0.0
 11
224.2691660417
 21
89.2840402623
 31
0.0
  0
LINE
  5
DA
330
1F
100
AcDbEntity
  8
0
  6
Continuous
 62
     7
370
    15
100
AcDbLine
 10
224.2691660417
 20
120.6840402623
 30
0.0
 11
224.2691660417
 21
104.9840402623
 31
0.0
  0
CIRCLE
  5
DB
330
1F
100
AcDbEntity
  8
0
  6
HIDDEN
 62
     7
370
     0
100
AcDbCircle
 10
216.2191660417
 20
104.9840402623
 30
0.0
 40
3.0
  0
CIRCLE
  5
DC
330
1F
100
AcDbEntity
  8
0
  6
HIDDEN
 62
     7
370
     0
100
AcDbCircle
 10
216.2191660417
 20
104.9840402623
 30
0.0
 40
2.153589838486215
  0
CIRCLE
  5
DD
330
1F
100
AcDbEntity
  8
0
  6
HIDDEN
 62
     7
370
     0
100
AcDbCircle
 10
216.2191660417
 20
104.9840402623
 30
0.0
 40
1.953589838486224
  0
LINE
  5
DE
330
1F
100
AcDbEntity
  8
0
  6
HIDDEN
 62
     7
370
     0
100
AcDbLine
 10
177.6407389169
 20
69.6840402623
 30
0.0
 11
177.4691660417
 21
69.6840402623
 31
0.0
  0
ELLIPSE
  5
DF
330
1F
100
AcDbEntity
  8
0
  6
HIDDEN
 62
     7
370
     0
100
AcDbEllipse
 10
177.6407389169
 20
67.6840402623
 30
0.0
 11
0.0
 21
2.0
 31
0.0
210
0.0
220
0.0
230
1.0
 40
0.4142135624
 41
4.712388980384702
 42
6.283185307179586
  0
LINE
  5
E0
330
1F
100
AcDbEntity
  8
0
  6
HIDDEN
 62
     7
370
     0
100
AcDbLine
 10
177.4691660417
 20
142.4840402623
 30
0.0
 11
177.6407389169
 21
142.4840402623
 31
0.0
  0
ELLIPSE
  5
E1
330
1F
100
AcDbEntity
  8
0
  6
HIDDEN
 62
     7
370
     0
100
AcDbEllipse
 10
177.6407389169
 20
144.4840402623
 30
0.0
 11
0.0
 21
2.0
 31
0.0
210
0.0
220
0.0
230
1.0
 40
0.4142135624
 41
3.141592653589758
 42
4.712388980384695
  0
LINE
  5
E2
330
1F
100
AcDbEntity
  8
0
  6
HIDDEN
 62
     7
370
     0
100
AcDbLine
 10
178.4691660417
 20
58.7981251953
 30
0.0
 11
177.6848260728
 21
58.3505859951
 31
0.0
  0
LINE
  5
E3
330
1F
100
AcDbEntity
  8
0
  6
HIDDEN
 62
     7
370
     0
100
AcDbLine
 10
177.7590349606
 20
151.694204588
 30
0.0
 11
178.4691660417
 21
150.984073507
 31
0.0
  0
LINE
  5
E4
330
1F
100
AcDbEntity
  8
0
  6
HIDDEN
 62
     7
370
     0
100
AcDbLine
 10
193.3191660417
 20
69.6840402623
 30
0.0
 11
177.6407389169
 21
69.6840402623
 31
0.0
  0
LINE
  5
E5
330
1F
100
AcDbEntity
  8
0
  6
HIDDEN
 62
     7
370
     0
100
AcDbLine
 10
182.5891182112
 20
58.7981251953
 30
0.0
 11
178.4691660417
 21
58.7981251953
 31
0.0
  0
LINE
  5
E6
330
1F
100
AcDbEntity
  8
0
  6
HIDDEN
 62
     7
370
     0
100
AcDbLine
 10
193.3191660417
 20
58.7981251953
 30
0.0
 11
188.1492138722
 21
58.7981251953
 31
0.0
  0
LINE
  5
E7
330
1F
100
AcDbEntity
  8
0
  6
HIDDEN
 62
     7
370
     0
100
AcDbLine
 10
178.4691660417
 20
58.7981251953
 30
0.0
 11
178.4691660417
 21
67.6840402623
 31
0.0
  0
LINE
  5
E8
330
1F
100
AcDbEntity
  8
0
  6
HIDDEN
 62
     7
370
     0
100
AcDbLine
 10
177.6407389169
 20
142.4840402623
 30
0.0
 11
193.3191660417
 21
142.4840402623
 31
0.0
  0
LINE
  5
E9
330
1F
100
AcDbEntity
  8
0
  6
HIDDEN
 62
     7
370
     0
100
AcDbLine
 10
178.4691660417
 20
150.984073507
 30
0.0
 11
182.6924950195
 21
150.984073507
 31
0.0
  0
LINE
  5
EA
330
1F
100
AcDbEntity
  8
0
  6
HIDDEN
 62
     7
370
     0
100
AcDbLine
 10
188.0458370638
 20
150.984073507
 30
0.0
 11
193.3191660417
 21
150.984073507
 31
0.0
  0
LINE
  5
EB
330
1F
100
AcDbEntity
  8
0
  6
HIDDEN
 62
     7
370
     0
100
AcDbLine
 10
178.4691660417
 20
150.984073507
 30
0.0
 11
178.4691660417
 21
144.4840402623
 31
0.0
  0
LINE
  5
EC
330
1F
100
AcDbEntity
  8
0
  6
HIDDEN
 62
     7
370
     0
100
AcDbLine
 10
82.6691660417
 20
92.4840402623
 30
0.0
 11
82.6691660417
 21
117.4840402623
 31
0.0
  0
LINE
  5
ED
330
1F
100
AcDbEntity
  8
0
  6
HIDDEN
 62
     7
370
     0
100
AcDbLine
 10
85.9537703906
 20
94.4840402623
 30
0.0
 11
85.9537703906
 21
115.4840402623
 31
0.0
  0
LINE
  5
EE
330
1F
100
AcDbEntity
  8
0
  6
HIDDEN
 62
     7
370
     0
100
AcDbLine
 10
134.6691660417
 20
94.4840402623
 30
0.0
 11
134.6691660417
 21
115.4840402623
 31
0.0
  0
LINE
  5
EF
330
1F
100
AcDbEntity
  8
0
  6
HIDDEN
 62
     7
370
     0
100
AcDbLine
 10
138.9352764368
 20
101.5840402623
 30
0.0
 11
138.9352764368
 21
108.3840402623
 31
0.0
  0
SPLINE
  5
F0
330
1F
100
AcDbEntity
  8
0
  6
HIDDEN
 62
     7
370
     0
100
AcDbSpline
210
0.0
220
0.0
230
1.0
 70
     8
 71
     3
 72
    16
 73
    12
 74
     0
 42
0.000000001
 43
0.00000001
 40
0.0
 40
0.0
 40
0.0
 40
0.0
 40
0.2500000000000008
 40
0.2500000000000008
 40
0.5000000000000016
 40
0.5000000000000016
 40
0.6249999999999979
 40
0.6249999999999979
 40
0.7499999999999943
 40
0.7499999999999943
 40
1.0
 40
1.0
 40
1.0
 40
1.0
 10
224.2691660416693
 20
113.5928035191167
 30
0.0
 10
224.2691660416693
 20
113.5192777085954
 30
0.0
 10
224.2649528916876
 20
113.4443301967145
 30
0.0
 10
224.2424046994492
 20
113.2896724421216
 30
0.0
 10
224.2242563243971
 20
113.2087281880052
 30
0.0
 10
224.1744439447891
 20
113.0922551894866
 30
0.0
 10
224.1534773983673
 20
113.0538304094509
 30
0.0
 10
224.1022940682064
 20
112.9876094154748
 30
0.0
 10
224.0727242266938
 20
112.9611697771405
 30
0.0
 10
223.9821851453514
 20
112.9077130340509
 30
0.0
 10
223.9227256579453
 20
112.9044905091586
 30
0.0
 10
223.869166041629
 20
112.9122460495029
 30
0.0
  0
SPLINE
  5
F1
330
1F
100
AcDbEntity
  8
0
  6
HIDDEN
 62
     7
370
     0
100
AcDbSpline
210
0.0
220
0.0
230
1.0
 70
     8
 71
     3
 72
    10
 73
     6
 74
     0
 42
0.000000001
 43
0.00000001
 40
0.0
 40
0.0
 40
0.0
 40
0.0
 40
0.5
 40
0.5
 40
1.0
 40
1.0
 40
1.0
 40
1.0
 10
223.8691660416373
 20
112.9122460495105
 30
0.0
 10
223.8279699797267
 20
112.8793578052742
 30
0.0
 10
223.7825325153795
 20
112.8508822784386
 30
0.0
 10
223.6808595841122
 20
112.809409958525
 30
0.0
 10
223.625698296114
 20
112.7973562602907
 30
0.0
 10
223.5691660416693
 20
112.7973562602907
 30
0.0
  0
SPLINE
  5
F2
330
1F
100
AcDbEntity
  8
0
  6
HIDDEN
 62
     7
370
     0
100
AcDbSpline
210
0.0
220
0.0
230
1.0
 70
     8
 71
     3
 72
    10
 73
     6
 74
     0
 42
0.000000001
 43
0.00000001
 40
0.0
 40
0.0
 40
0.0
 40
0.0
 40
0.5
 40
0.5
 40
1.0
 40
1.0
 40
1.0
 40
1.0
 10
223.8691660417018
 20
97.05583447506078
 30
0.0
 10
223.8279699797847
 20
97.08872271931062
 30
0.0
 10
223.7825325154309
 20
97.11719824615786
 30
0.0
 10
223.6808595841404
 20
97.15867056609154
 30
0.0
 10
223.6256982961288
 20
97.17072426433202
 30
0.0
 10
223.5691660416693
 20
97.17072426433204
 30
0.0
  0
SPLINE
  5
F3
330
1F
100
AcDbEntity
  8
0
  6
HIDDEN
 62
     7
370
     0
100
AcDbSpline
210
0.0
220
0.0
230
1.0
 70
     8
 71
     3
 72
    16
 73
    12
 74
     0
 42
0.000000001
 43
0.00000001
 40
0.0
 40
0.0
 40
0.0
 40
0.0
 40
0.2499999999999999
 40
0.2499999999999999
 40
0.3749999999999998
 40
0.3749999999999998
 40
0.4999999999999998
 40
0.4999999999999998
 40
0.7499999999999999
 40
0.7499999999999999
 40
1.0
 40
1.0
 40
1.0
 40
1.0
 10
223.8691660416835
 20
97.05583447506866
 30
0.0
 10
223.9224206683262
 20
97.06354600733827
 30
0.0
 10
223.9819574728652
 20
97.06031056608659
 30
0.0
 10
224.0720522868331
 20
97.00741000611708
 30
0.0
 10
224.1017015434356
 20
96.98101617124536
 30
0.0
 10
224.1524853646477
 20
96.91576590324655
 30
0.0
 10
224.1734816989328
 20
96.8778140917615
 30
0.0
 10
224.2242875768804
 20
96.75981473158609
 30
0.0
 10
224.2422783139556
 20
96.67908703272121
 30
0.0
 10
224.2649434605281
 20
96.52401521691814
 30
0.0
 10
224.2691660416693
 20
96.44892269444489
 30
0.0
 10
224.2691660416693
 20
96.3752820482571
 30
0.0
  0
LINE
  5
F4
330
1F
100
AcDbEntity
  8
0
  6
HIDDEN
 62
     7
370
     0
100
AcDbLine
 10
203.7691660417
 20
104.9840402623
 30
0.0
 11
203.7691660417
 21
96.2840402623
 31
0.0
  0
LINE
  5
F5
330
1F
100
AcDbEntity
  8
0
  6
HIDDEN
 62
     7
370
     0
100
AcDbLine
 10
203.7691660417
 20
113.6840402623
 30
0.0
 11
203.7691660417
 21
104.9840402623
 31
0.0
  0
LINE
  5
F6
330
1F
100
AcDbEntity
  8
0
  6
HIDDEN
 62
     7
370
     0
100
AcDbLine
 10
207.1351914455
 20
104.9840402623
 30
0.0
 11
207.1351914455
 21
95.9840402623
 31
0.0
  0
LINE
  5
F7
330
1F
100
AcDbEntity
  8
0
  6
HIDDEN
 62
     7
370
     0
100
AcDbLine
 10
207.1351914455
 20
113.9840402623
 30
0.0
 11
207.1351914455
 21
104.9840402623
 31
0.0
  0
LINE
  5
F8
330
1F
100
AcDbEntity
  8
0
  6
HIDDEN
 62
     7
370
     0
100
AcDbLine
 10
215.3691660417
 20
112.7973562603
 30
0.0
 11
223.5691660417
 21
112.7973562603
 31
0.0
  0
LINE
  5
F9
330
1F
100
AcDbEntity
  8
0
  6
HIDDEN
 62
     7
370
     0
100
AcDbLine
 10
215.3691660417
 20
97.1707242643
 30
0.0
 11
223.5691660417
 21
97.1707242643
 31
0.0
  0
SPLINE
  5
FA
330
1F
100
AcDbEntity
  8
0
  6
HIDDEN
 62
     7
370
     0
100
AcDbSpline
210
0.0
220
0.0
230
1.0
 70
     8
 71
     3
 72
    14
 73
    10
 74
     0
 42
0.000000001
 43
0.00000001
 40
0.0
 40
0.0
 40
0.0
 40
0.0
 40
0.25
 40
0.25
 40
0.5
 40
0.5
 40
0.75
 40
0.75
 40
1.0
 40
1.0
 40
1.0
 40
1.0
 10
223.8691660416693
 20
116.7840402623114
 30
0.0
 10
223.8691660416692
 20
116.9683045630489
 30
0.0
 10
223.8693181111856
 20
117.1352654123317
 30
0.0
 10
223.8660896619143
 20
117.435668542015
 30
0.0
 10
223.8632424614023
 20
117.5684049990457
 30
0.0
 10
223.8555925410442
 20
117.7845639310194
 30
0.0
 10
223.850465006323
 20
117.8710479637738
 30
0.0
 10
223.8404269856062
 20
117.9907043127821
 30
0.0
 10
223.8354903906911
 20
118.024843483851
 30
0.0
 10
223.8318874864258
 20
118.0324442157727
 30
0.0
  0
SPLINE
  5
FB
330
1F
100
AcDbEntity
  8
0
  6
HIDDEN
 62
     7
370
     0
100
AcDbSpline
210
0.0
220
0.0
230
1.0
 70
     8
 71
     3
 72
    21
 73
    17
 74
     0
 42
0.000000001
 43
0.00000001
 40
0.0
 40
0.0
 40
0.0
 40
0.0
 40
0.0114033674989981
 40
0.0718280468334977
 40
0.1535062581328319
 40
0.2363767019470548
 40
0.2780139219817908
 40
0.3582710444843869
 40
0.4390893925050147
 40
0.5005145062890128
 40
0.6036365366245813
 40
0.684030024721913
 40
0.7649831724007212
 40
0.8265110388835901
 40
0.9298109487157061
 40
0.9999999999999999
 40
0.9999999999999999
 40
0.9999999999999999
 40
0.9999999999999999
 10
223.8300001510343
 20
118.0330311244551
 30
0.0
 10
223.8298500693091
 20
118.0331195188948
 30
0.0
 10
223.8289047277527
 20
118.0336763017886
 30
0.0
 10
223.8276557280264
 20
118.0240130033703
 30
0.0
 10
223.8265714493739
 20
117.9996746754955
 30
0.0
 10
223.8269787407977
 20
117.9613485084158
 30
0.0
 10
223.8284399960271
 20
117.9126498634247
 30
0.0
 10
223.8307975601896
 20
117.8538830656979
 30
0.0
 10
223.8347054681768
 20
117.7746359046048
 30
0.0
 10
223.8400976474707
 20
117.6734448175574
 30
0.0
 10
223.8462679949049
 20
117.5569266570399
 30
0.0
 10
223.853388149676
 20
117.4138564205035
 30
0.0
 10
223.8591657807216
 20
117.2812908630595
 30
0.0
 10
223.8646197927143
 20
117.1242206662955
 30
0.0
 10
223.8683424716847
 20
116.963386163544
 30
0.0
 10
223.8689288121221
 20
116.8356990826343
 30
0.0
 10
223.869166029976
 20
116.7840402623114
 30
0.0
  0
LINE
  5
FC
330
1F
100
AcDbEntity
  8
0
  6
HIDDEN
 62
     7
370
     0
100
AcDbLine
 10
223.86916603
 20
116.7840402623
 30
0.0
 11
223.8691660416
 21
112.9122460495
 31
0.0
  0
LINE
  5
FD
330
1F
100
AcDbEntity
  8
0
  6
HIDDEN
 62
     7
370
     0
100
AcDbLine
 10
223.8691660464
 20
93.1840402623
 30
0.0
 11
223.8691660417
 21
97.055834475
 31
0.0
  0
SPLINE
  5
FE
330
1F
100
AcDbEntity
  8
0
  6
HIDDEN
 62
     7
370
     0
100
AcDbSpline
210
0.0
220
0.0
230
1.0
 70
     8
 71
     3
 72
    14
 73
    10
 74
     0
 42
0.000000001
 43
0.00000001
 40
0.0
 40
0.0
 40
0.0
 40
0.0
 40
0.1120447440478539
 40
0.2777995672053086
 40
0.4383129393946469
 40
0.6034689606421727
 40
0.7642534932053742
 40
0.9296888757743105
 40
1.0
 40
1.0
 40
1.0
 40
1.0
 10
223.8304665229734
 20
91.9416234523841
 30
0.0
 10
223.8291643518711
 20
91.94339164944303
 30
0.0
 10
223.8259357973173
 20
91.9477756514047
 30
0.0
 10
223.8272078956336
 20
92.03589054985851
 30
0.0
 10
223.8344803500591
 20
92.19303828581135
 30
0.0
 10
223.846604664567
 20
92.41400248817003
 30
0.0
 10
223.8601578592311
 20
92.6940264544441
 30
0.0
 10
223.8681638996868
 20
92.95912145232157
 30
0.0
 10
223.8689358215595
 20
93.13236929322896
 30
0.0
 10
223.8691660463692
 20
93.18404026231136
 30
0.0
  0
LINE
  5
FF
330
1F
100
AcDbEntity
  8
0
  6
HIDDEN
 62
     7
370
     0
100
AcDbLine
 10
215.3691660417
 20
116.7840402623
 30
0.0
 11
215.3691660417
 21
112.7973562603
 31
0.0
  0
LINE
  5
100
330
1F
100
AcDbEntity
  8
0
  6
HIDDEN
 62
     7
370
     0
100
AcDbLine
 10
215.3691660417
 20
93.1840402623
 30
0.0
 11
215.3691660417
 21
97.1707242643
 31
0.0
  0
LINE
  5
101
330
1F
100
AcDbEntity
  8
0
  6
HIDDEN
 62
     7
370
     0
100
AcDbLine
 10
215.3691660417
 20
118.0340402623
 30
0.0
 11
215.3691660417
 21
116.7840402623
 31
0.0
  0
LINE
  5
102
330
1F
100
AcDbEntity
  8
0
  6
HIDDEN
 62
     7
370
     0
100
AcDbLine
 10
215.3691660417
 20
91.9340402623
 30
0.0
 11
215.3691660417
 21
93.1840402623
 31
0.0
  0
LINE
  5
103
330
1F
100
AcDbEntity
  8
0
  6
HIDDEN
 62
     7
370
     0
100
AcDbLine
 10
183.4591660417
 20
140.377083364
 30
0.0
 11
183.4591660417
 21
134.8340402623
 31
0.0
  0
LINE
  5
104
330
1F
100
AcDbEntity
  8
0
  6
HIDDEN
 62
     7
370
     0
100
AcDbLine
 10
187.2791660417
 20
140.377083364
 30
0.0
 11
187.2791660417
 21
134.8340402623
 31
0.0
  0
LINE
  5
105
330
1F
100
AcDbEntity
  8
0
  6
HIDDEN
 62
     7
370
     0
100
AcDbLine
 10
182.1360045342
 20
143.495118214
 30
0.0
 11
182.1360045342
 21
134.8340402623
 31
0.0
  0
LINE
  5
106
330
1F
100
AcDbEntity
  8
0
  6
HIDDEN
 62
     7
370
     0
100
AcDbLine
 10
188.6023275491
 20
143.495118214
 30
0.0
 11
188.6023275491
 21
134.8340402623
 31
0.0
  0
ARC
  5
107
330
1F
100
AcDbEntity
  8
0
  6
HIDDEN
 62
     7
370
     0
100
AcDbCircle
 10
73.8691660417
 20
91.2840402623
 30
0.0
 40
1.200000000000003
100
AcDbArc
 50
90.0
 51
180.0
  0
ARC
  5
108
330
1F
100
AcDbEntity
  8
0
  6
HIDDEN
 62
     7
370
     0
100
AcDbCircle
 10
73.8691660417
 20
118.6840402623
 30
0.0
 40
1.200000000000003
100
AcDbArc
 50
180.0
 51
270.0
  0
ARC
  5
109
330
1F
100
AcDbEntity
  8
0
  6
HIDDEN
 62
     7
370
     0
100
AcDbCircle
 10
83.5615384724
 20
92.6590402623
 30
0.0
 40
0.400000000000006
100
AcDbArc
 50
255.0
 51
270.0
  0
ARC
  5
10A
330
1F
100
AcDbEntity
  8
0
  6
HIDDEN
 62
     7
370
     0
100
AcDbCircle
 10
83.5615384724
 20
117.3090402623
 30
0.0
 40
0.4000000000000197
100
AcDbArc
 50
90.0
 51
105.0
  0
LINE
  5
10B
330
1F
100
AcDbEntity
  8
0
  6
HIDDEN
 62
     7
370
     0
100
AcDbLine
 10
83.5615384724
 20
92.2590402623
 30
0.0
 11
84.438225934
 21
92.2590402623
 31
0.0
  0
LINE
  5
10C
330
1F
100
AcDbEntity
  8
0
  6
HIDDEN
 62
     7
370
     0
100
AcDbLine
 10
84.438225934
 20
117.7090402623
 30
0.0
 11
83.5615384724
 21
117.7090402623
 31
0.0
  0
ARC
  5
10D
330
1F
100
AcDbEntity
  8
0
  6
HIDDEN
 62
     7
370
     0
100
AcDbCircle
 10
84.438225934
 20
92.6590402623
 30
0.0
 40
0.3999999999999946
100
AcDbArc
 50
270.0
 51
330.0
  0
ARC
  5
10E
330
1F
100
AcDbEntity
  8
0
  6
HIDDEN
 62
     7
370
     0
100
AcDbCircle
 10
84.438225934
 20
117.3090402623
 30
0.0
 40
0.3999999999999915
100
AcDbArc
 50
30.0
 51
90.0
  0
LINE
  5
10F
330
1F
100
AcDbEntity
  8
0
  6
HIDDEN
 62
     7
370
     0
100
AcDbLine
 10
83.4580108544
 20
117.6954105928
 30
0.0
 11
82.6691660417
 21
117.4840402623
 31
0.0
  0
LINE
  5
110
330
1F
100
AcDbEntity
  8
0
  6
HIDDEN
 62
     7
370
     0
100
AcDbLine
 10
82.6691660417
 20
92.4840402623
 30
0.0
 11
83.4580108544
 21
92.2726699318
 31
0.0
  0
LINE
  5
111
330
1F
100
AcDbEntity
  8
0
  6
HIDDEN
 62
     7
370
     0
100
AcDbLine
 10
84.7846360955
 20
92.4590402623
 30
0.0
 11
85.9537703906
 21
94.4840402623
 31
0.0
  0
LINE
  5
112
330
1F
100
AcDbEntity
  8
0
  6
HIDDEN
 62
     7
370
     0
100
AcDbLine
 10
85.9537703906
 20
115.4840402623
 30
0.0
 11
84.7846360955
 21
117.5090402623
 31
0.0
  0
LINE
  5
113
330
1F
100
AcDbEntity
  8
0
  6
HIDDEN
 62
     7
370
     0
100
AcDbLine
 10
73.8691660417
 20
92.4840402623
 30
0.0
 11
82.6691660417
 21
92.4840402623
 31
0.0
  0
LINE
  5
114
330
1F
100
AcDbEntity
  8
0
  6
HIDDEN
 62
     7
370
     0
100
AcDbLine
 10
82.6691660417
 20
117.4840402623
 30
0.0
 11
73.8691660417
 21
117.4840402623
 31
0.0
  0
LINE
  5
115
330
1F
100
AcDbEntity
  8
0
  6
HIDDEN
 62
     7
370
     0
100
AcDbLine
 10
134.6691660417
 20
94.4840402623
 30
0.0
 11
138.9352764368
 21
101.5840402623
 31
0.0
  0
LINE
  5
116
330
1F
100
AcDbEntity
  8
0
  6
HIDDEN
 62
     7
370
     0
100
AcDbLine
 10
138.9352764368
 20
108.3840402623
 30
0.0
 11
134.6691660417
 21
115.4840402623
 31
0.0
  0
LINE
  5
117
330
1F
100
AcDbEntity
  8
0
  6
HIDDEN
 62
     7
370
     0
100
AcDbLine
 10
85.9537703906
 20
94.4840402623
 30
0.0
 11
134.6691660417
 21
94.4840402623
 31
0.0
  0
LINE
  5
118
330
1F
100
AcDbEntity
  8
0
  6
HIDDEN
 62
     7
370
     0
100
AcDbLine
 10
134.6691660417
 20
115.4840402623
 30
0.0
 11
85.9537703906
 21
115.4840402623
 31
0.0
  0
LINE
  5
119
330
1F
100
AcDbEntity
  8
0
  6
HIDDEN
 62
     7
370
     0
100
AcDbLine
 10
205.1638440436
 20
114.4840402623
 30
0.0
 11
204.5691660417
 21
114.4840402623
 31
0.0
  0
LINE
  5
11A
330
1F
100
AcDbEntity
  8
0
  6
HIDDEN
 62
     7
370
     0
100
AcDbLine
 10
204.5691660417
 20
95.4840402623
 30
0.0
 11
205.1638440436
 21
95.4840402623
 31
0.0
  0
ARC
  5
11B
330
1F
100
AcDbEntity
  8
0
  6
HIDDEN
 62
     7
370
     0
100
AcDbCircle
 10
205.1638440436
 20
113.6840402623
 30
0.0
 40
0.7999999999999972
100
AcDbArc
 50
75.0
 51
90.0
  0
ARC
  5
11C
330
1F
100
AcDbEntity
  8
0
  6
HIDDEN
 62
     7
370
     0
100
AcDbCircle
 10
205.1638440436
 20
96.2840402623
 30
0.0
 40
0.8000000000000046
100
AcDbArc
 50
270.0
 51
285.0
  0
ARC
  5
11D
330
1F
100
AcDbEntity
  8
0
  6
HIDDEN
 62
     7
370
     0
100
AcDbCircle
 10
204.5691660417
 20
113.6840402623
 30
0.0
 40
0.7999999999999972
100
AcDbArc
 50
90.0
 51
180.0
  0
ARC
  5
11E
330
1F
100
AcDbEntity
  8
0
  6
HIDDEN
 62
     7
370
     0
100
AcDbCircle
 10
204.5691660417
 20
96.2840402623
 30
0.0
 40
0.7999999999999972
100
AcDbArc
 50
180.0
 51
270.0
  0
LINE
  5
11F
330
1F
100
AcDbEntity
  8
0
  6
HIDDEN
 62
     7
370
     0
100
AcDbLine
 10
205.3708992797
 20
95.5112996013
 30
0.0
 11
207.1351914455
 21
95.9840402623
 31
0.0
  0
LINE
  5
120
330
1F
100
AcDbEntity
  8
0
  6
HIDDEN
 62
     7
370
     0
100
AcDbLine
 10
207.1351914455
 20
113.9840402623
 30
0.0
 11
205.3708992797
 21
114.4567809233
 31
0.0
  0
LINE
  5
121
330
1F
100
AcDbEntity
  8
0
  6
HIDDEN
 62
     7
370
     0
100
AcDbLine
 10
215.3691660417
 20
113.9840402623
 30
0.0
 11
207.1351914455
 21
113.9840402623
 31
0.0
  0
LINE
  5
122
330
1F
100
AcDbEntity
  8
0
  6
HIDDEN
 62
     7
370
     0
100
AcDbLine
 10
207.1351914455
 20
95.9840402623
 30
0.0
 11
215.3691660417
 21
95.9840402623
 31
0.0
  0
LINE
  5
123
330
1F
100
AcDbEntity
  8
0
  6
HIDDEN
 62
     7
370
     0
100
AcDbLine
 10
224.2691660417
 20
118.4729893091
 30
0.0
 11
223.8227432634
 21
118.026566777
 31
0.0
  0
LINE
  5
124
330
1F
100
AcDbEntity
  8
0
  6
HIDDEN
 62
     7
370
     0
100
AcDbLine
 10
223.8227429901
 20
91.9415144875
 30
0.0
 11
224.2691660417
 21
91.4950917183
 31
0.0
  0
LINE
  5
125
330
1F
100
AcDbEntity
  8
0
  6
HIDDEN
 62
     7
370
     0
100
AcDbLine
 10
138.9352764368
 20
101.5840402623
 30
0.0
 11
203.7691660417
 21
101.5840402623
 31
0.0
  0
LINE
  5
126
330
1F
100
AcDbEntity
  8
0
  6
HIDDEN
 62
     7
370
     0
100
AcDbLine
 10
203.7691660417
 20
108.3840402623
 30
0.0
 11
138.9352764368
 21
108.3840402623
 31
0.0
  0
LINE
  5
127
330
1F
100
AcDbEntity
  8
0
  6
HIDDEN
 62
     7
370
     0
100
AcDbLine
 10
223.8305485705
 20
118.0340402623
 30
0.0
 11
215.3691660417
 21
118.0340402623
 31
0.0
  0
LINE
  5
128
330
1F
100
AcDbEntity
  8
0
  6
HIDDEN
 62
     7
370
     0
100
AcDbLine
 10
215.3691660417
 20
91.9340402623
 30
0.0
 11
223.8308836711
 21
91.9340402623
 31
0.0
  0
DIMENSION
  5
129
330
1F
100
AcDbEntity
  8
VERMASSUNG
100
AcDbDimension
  2
_D
 10
64.5251440383
 20
153.7090402623
 30
0.0
 11
64.5251440383
 21
104.9840402623
 31
0.0
 70
   160
  1
ISO 50 %%c<>
 71
     2
 42
-1.0
  3
SLDDIMSTYLE0
100
AcDbAlignedDimension
 13
192.7191660417
 23
56.2590402623
 33
0.0
 14
192.7191660417
 24
153.7090402623
 34
0.0
 50
90.0
100
AcDbRotatedDimension
  0
DIMENSION
  5
136
330
1F
100
AcDbEntity
  8
VERMASSUNG
100
AcDbDimension
  2
_D_1
 10
232.2765507764
 20
95.9840402623
 30
0.0
 11
232.2765507764
 21
104.9840402623
 31
0.0
 70
   160
  1
%%c<>
 71
     2
 42
-1.0
  3
SLDDIMSTYLE0
100
AcDbAlignedDimension
 13
215.3691660417
 23
113.9840402623
 33
0.0
 14
215.3691660417
 24
95.9840402623
 34
0.0
 50
90.0
100
AcDbRotatedDimension
  0
DIMENSION
  5
141
330
1F
100
AcDbEntity
  8
VERMASSUNG
100
AcDbDimension
  2
_D_2
 10
224.2691660417
 20
158.1695454073
 30
0.0
 11
208.7941660417
 21
158.1695454073
 31
0.0
 70
   160
  1
(<>)
 71
     2
 42
-1.0
  3
SLDDIMSTYLE0
100
AcDbAlignedDimension
 13
193.3191660417
 23
142.733121377
 33
0.0
 14
224.2691660417
 24
120.6840402623
 34
0.0
100
AcDbRotatedDimension
  0
DIMENSION
  5
14D
330
1F
100
AcDbEntity
  8
VERMASSUNG
100
AcDbDimension
  2
_D_3
 10
224.2691660417
 20
164.1695454073
 30
0.0
 11
199.2691660417
 21
164.1695454073
 31
0.0
 70
   160
  1
<>
 71
     2
 42
-1.0
  3
SLDDIMSTYLE0
100
AcDbAlignedDimension
 13
174.2691660417
 23
139.9090402623
 33
0.0
 14
224.2691660417
 24
120.6840402623
 34
0.0
100
AcDbRotatedDimension
  0
DIMENSION
  5
157
330
1F
100
AcDbEntity
  8
VERMASSUNG
100
AcDbDimension
  2
_D_4
 10
224.2691660417
 20
170.1695454073
 30
0.0
 11
148.4691660417
 21
170.1695454073
 31
0.0
 70
   160
  1
(<>)
 71
     2
 42
-1.0
  3
SLDDIMSTYLE0
100
AcDbAlignedDimension
 13
72.6691660417
 23
123.3628847897
 33
0.0
 14
224.2691660417
 24
120.6840402623
 34
0.0
100
AcDbRotatedDimension
  0
DIMENSION
  5
163
330
1F
100
AcDbEntity
  8
VERMASSUNG
100
AcDbDimension
  2
_D_5
 10
237.6785594012
 20
88.9840402623
 30
0.0
 11
237.6785594012
 21
104.9840402623
 31
0.0
 70
   160
  1
ST3 %%c<>
 71
     2
 42
-1.0
  3
SLDDIMSTYLE0
100
AcDbAlignedDimension
 13
223.9691660417
 23
120.9840402623
 33
0.0
 14
223.9691660417
 24
88.9840402623
 34
0.0
 50
90.0
100
AcDbRotatedDimension
  0
LINE
  5
16F
330
1F
100
AcDbEntity
  8
VERMASSUNG
  6
CENTERX2
 62
     7
370
     0
100
AcDbLine
 10
70.6691660417
 20
104.9840402623
 30
0.0
 11
225.7229320688
 21
104.9840402623
 31
0.0
  0
LINE
  5
170
330
1F
100
AcDbEntity
  8
0
  6
Continuous
 62
     7
370
    15
100
AcDbLine
 10
269.997455234
 20
37.6545561327
 30
0.0
 11
269.9886149631
 21
37.6596611714
 31
0.0
  0
LINE
  5
171
330
1F
100
AcDbEntity
  8
0
  6
Continuous
 62
     7
370
    15
100
AcDbLine
 10
268.1498386005
 20
37.6596611714
 30
0.0
 11
268.1409983295
 21
37.6545561327
 31
0.0
  0
SPLINE
  5
172
330
1F
100
AcDbEntity
  8
0
  6
Continuous
 62
     7
370
    15
100
AcDbSpline
210
0.0
220
0.0
230
1.0
 70
     8
 71
     3
 72
    30
 73
    26
 74
     0
 42
0.000000001
 43
0.00000001
 40
0.0
 40
0.0
 40
0.0
 40
0.0
 40
0.0042648881104988
 40
0.0515425946111464
 40
0.0988938419379716
 40
0.1462928405737585
 40
0.1937181640911539
 40
0.2411541139705244
 40
0.2885882028906363
 40
0.3360150413408113
 40
0.3834322553545528
 40
0.43083923057087
 40
0.4782364646375812
 40
0.5256251296255233
 40
0.5730067904091303
 40
0.620383231428788
 40
0.6677563553970114
 40
0.7151281277902679
 40
0.7625005487025345
 40
0.8098749815966461
 40
0.8572534470076404
 40
0.9046379779295779
 40
0.9520305781353711
 40
0.9969448839744963
 40
1.0
 40
1.0
 40
1.0
 40
1.0
 10
261.2346544324441
 20
60.93701137799835
 30
0.0
 10
261.1972183681599
 20
60.93247205886306
 30
0.0
 10
260.7447910511362
 20
60.87761287382945
 30
0.0
 10
259.846537511882
 20
60.64906078936358
 30
0.0
 10
258.5461880015908
 20
60.24362862574694
 30
0.0
 10
257.2248809630138
 20
59.69724067672183
 30
0.0
 10
255.8950868080065
 20
59.0309174518173
 30
0.0
 10
254.5636170764587
 20
58.2440770284441
 30
0.0
 10
253.2387115253319
 20
57.34285436848781
 30
0.0
 10
251.9280845720511
 20
56.33242118503107
 30
0.0
 10
250.6394020920658
 20
55.21896330683061
 30
0.0
 10
249.3801492573033
 20
54.00911541821984
 30
0.0
 10
248.1576411263627
 20
52.7100758636124
 30
0.0
 10
246.9789789953196
 20
51.32953115032061
 30
0.0
 10
245.8510169138842
 20
49.87562688459439
 30
0.0
 10
244.7803232508832
 20
48.3569214503657
 30
0.0
 10
243.7731451777202
 20
46.78234009399475
 30
0.0
 10
242.8353670928545
 20
45.16112294260777
 30
0.0
 10
241.9725009458691
 20
43.50278504114561
 30
0.0
 10
241.1895726142374
 20
41.81703390821919
 30
0.0
 10
240.491377889585
 20
40.11378722180257
 30
0.0
 10
239.8813906177611
 20
38.40282500635959
 30
0.0
 10
239.3747421980996
 20
36.72468210357844
 30
0.0
 10
239.0865397494038
 20
35.58613645168002
 30
0.0
 10
238.9630575403797
 20
35.01850367539394
 30
0.0
 10
238.9551931038077
 20
34.98235181189376
 30
0.0
  0
LINE
  5
173
330
1F
100
AcDbEntity
  8
0
  6
Continuous
 62
     7
370
    15
100
AcDbLine
 10
271.8101849568
 20
22.942473483
 30
0.0
 11
271.9162337353
 21
23.0037140431
 31
0.0
  0
LINE
  5
174
330
1F
100
AcDbEntity
  8
0
  6
Continuous
 62
     7
370
    15
100
AcDbLine
 10
277.4661198084
 20
32.6174403652
 30
0.0
 11
277.4661198084
 21
32.739901582
 31
0.0
  0
LINE
  5
175
330
1F
100
AcDbEntity
  8
0
  6
Continuous
 62
     7
370
    15
100
AcDbLine
 10
275.8089404894
 20
36.4026600337
 30
0.0
 11
266.3867426301
 21
41.8419790787
 31
0.0
  0
LINE
  5
176
330
1F
100
AcDbEntity
  8
0
  6
Continuous
 62
     7
370
    15
100
AcDbLine
 10
258.387392769
 20
27.9851972806
 30
0.0
 11
267.8095906283
 21
22.5458782356
 31
0.0
  0
LINE
  5
177
330
1F
100
AcDbEntity
  8
0
  6
Continuous
 62
     7
370
    15
100
AcDbLine
 10
254.2213715446
 20
57.9914631123
 30
0.0
 11
223.4587225944
 21
69.0771024047
 31
0.0
  0
LINE
  5
178
330
1F
100
AcDbEntity
  8
0
  6
Continuous
 62
     7
370
    15
100
AcDbLine
 10
213.3348635217
 20
51.5401639583
 30
0.0
 11
242.8023738687
 21
26.6580418257
 31
0.0
  0
SPLINE
  5
179
330
1F
100
AcDbEntity
  8
0
  6
Continuous
 62
     7
370
    15
100
AcDbSpline
210
0.0
220
0.0
230
1.0
 70
     8
 71
     3
 72
    17
 73
    13
 74
     0
 42
0.000000001
 43
0.00000001
 40
0.0
 40
0.0
 40
0.0
 40
0.0
 40
0.0301374048835956
 40
0.1503953274189546
 40
0.2704149088625946
 40
0.3900369691326438
 40
0.5091345148035341
 40
0.6277052734759555
 40
0.7460705904644125
 40
0.8649821954670202
 40
0.986563527322388
 40
1.0
 40
1.0
 40
1.0
 40
1.0
 10
269.730289975898
 20
31.07075064360191
 30
0.0
 10
269.7644650358401
 20
31.12875071876917
 30
0.0
 10
269.935009558483
 20
31.41818971754144
 30
0.0
 10
270.304914978563
 20
31.88835035779305
 30
0.0
 10
270.8226199829249
 20
32.45272375042433
 30
0.0
 10
271.3714325927716
 20
32.91885334658031
 30
0.0
 10
271.924934050283
 20
33.27764665350972
 30
0.0
 10
272.4638734505536
 20
33.51763250184878
 30
0.0
 10
272.9700506169128
 20
33.63944088823357
 30
0.0
 10
273.4195077941976
 20
33.63164733686519
 30
0.0
 10
273.7076841787547
 20
33.57818421787432
 30
0.0
 10
273.8287560849412
 20
33.49520041220421
 30
0.0
 10
273.8408047133805
 20
33.48694217069726
 30
0.0
  0
SPLINE
  5
17A
330
1F
100
AcDbEntity
  8
0
  6
Continuous
 62
     7
370
    15
100
AcDbSpline
210
0.0
220
0.0
230
1.0
 70
     8
 71
     3
 72
    10
 73
     6
 74
     0
 42
0.000000001
 43
0.00000001
 40
0.0
 40
0.0
 40
0.0
 40
0.0
 40
0.0983219849173456
 40
0.6133602112203678
 40
1.0
 40
1.0
 40
1.0
 40
1.0
 10
269.0258396024235
 20
29.69210628081362
 30
0.0
 10
269.0432457373487
 20
29.73865552592454
 30
0.0
 10
269.1518301053639
 20
30.02904281659391
 30
0.0
 10
269.3753907777151
 20
30.50222822765551
 30
0.0
 10
269.6237804247514
 20
30.90013017545421
 30
0.0
 10
269.730289975898
 20
31.07075064360191
 30
0.0
  0
LINE
  5
17B
330
1F
100
AcDbEntity
  8
0
  6
Continuous
 62
     7
370
    15
100
AcDbLine
 10
268.9732830443
 20
26.0995333388
 30
0.0
 11
268.9062265599
 21
26.184435506
 31
0.0
  0
SPLINE
  5
17C
330
1F
100
AcDbEntity
  8
0
  6
Continuous
 62
     7
370
    15
100
AcDbSpline
210
0.0
220
0.0
230
1.0
 70
     8
 71
     3
 72
     9
 73
     5
 74
     0
 42
0.000000001
 43
0.00000001
 40
0.0
 40
0.0
 40
0.0
 40
0.0
 40
0.6852433803979496
 40
1.0
 40
1.0
 40
1.0
 40
1.0
 10
269.494946303451
 20
25.62486069361836
 30
0.0
 10
269.3851095094223
 20
25.68076609233037
 30
0.0
 10
269.2248207752721
 20
25.76235082603408
 30
0.0
 10
269.10859476342
 20
25.92373361423349
 30
0.0
 10
269.0720118568196
 20
25.97452991510909
 30
0.0
  0
SPLINE
  5
17D
330
1F
100
AcDbEntity
  8
0
  6
Continuous
 62
     7
370
    15
100
AcDbSpline
210
0.0
220
0.0
230
1.0
 70
     8
 71
     3
 72
    18
 73
    14
 74
     0
 42
0.000000001
 43
0.00000001
 40
0.0
 40
0.0
 40
0.0
 40
0.0
 40
0.0800480898094818
 40
0.1769169790498563
 40
0.2738962599751867
 40
0.3709393714580525
 40
0.4680112187643826
 40
0.5650847102129128
 40
0.6621453600543329
 40
0.7591871345551443
 40
0.8562080142429687
 40
0.9532085440890123
 40
1.0
 40
1.0
 40
1.0
 40
1.0
 10
255.1218449919135
 20
13.76423212107425
 30
0.0
 10
255.4706003213404
 20
13.82733484483722
 30
0.0
 10
256.2413962198634
 20
13.96680029972232
 30
0.0
 10
257.46690854763
 20
14.3391540393959
 30
0.0
 10
258.7831459413932
 20
14.84795981552529
 30
0.0
 10
260.111708179238
 20
15.48509581790471
 30
0.0
 10
261.4434548834578
 20
16.24188100948118
 30
0.0
 10
262.7707980601622
 20
17.11478976151611
 30
0.0
 10
264.0856022365603
 20
18.0985207750426
 30
0.0
 10
265.3810390045161
 20
19.18574416046889
 30
0.0
 10
266.646459116353
 20
20.37539853846341
 30
0.0
 10
267.6723049640271
 20
21.42186633676186
 30
0.0
 10
268.257000471071
 20
22.099442313852
 30
0.0
 10
268.4472666663333
 20
22.31993281122875
 30
0.0
  0
SPLINE
  5
17E
330
1F
100
AcDbEntity
  8
0
  6
Continuous
 62
     7
370
    15
100
AcDbSpline
210
0.0
220
0.0
230
1.0
 70
     8
 71
     3
 72
    10
 73
     6
 74
     0
 42
0.000000001
 43
0.00000001
 40
0.0
 40
0.0
 40
0.0
 40
0.0
 40
0.4162462318963427
 40
0.8642259854729457
 40
1.0
 40
1.0
 40
1.0
 40
1.0
 10
276.3381878730764
 20
35.98191629663442
 30
0.0
 10
276.5109819584151
 20
36.51148895038642
 30
0.0
 10
276.8697434972414
 20
37.61100748892861
 30
0.0
 10
277.2034511339059
 20
38.87769142453604
 30
0.0
 10
277.3612087403267
 20
39.6082801817926
 30
0.0
 10
277.3979012376025
 20
39.77820622589044
 30
0.0
  0
LINE
  5
17F
330
1F
100
AcDbEntity
  8
0
  6
Continuous
 62
     7
370
    15
100
AcDbLine
 10
247.1249398334
 20
15.5935971836
 30
0.0
 11
248.5804620409
 21
14.7533420985
 31
0.0
  0
LINE
  5
180
330
1F
100
AcDbEntity
  8
0
  6
Continuous
 62
     7
370
    15
100
AcDbLine
 10
243.4009048687
 20
17.7434368081
 30
0.0
 11
244.8387494068
 21
16.9133868244
 31
0.0
  0
SPLINE
  5
181
330
1F
100
AcDbEntity
  8
0
  6
Continuous
 62
     7
370
    15
100
AcDbSpline
210
0.0
220
0.0
230
1.0
 70
     8
 71
     3
 72
     9
 73
     5
 74
     0
 42
0.000000001
 43
0.00000001
 40
0.0
 40
0.0
 40
0.0
 40
0.0
 40
0.5985422553104718
 40
1.0
 40
1.0
 40
1.0
 40
1.0
 10
238.9687834522967
 20
23.80870259260492
 30
0.0
 10
239.007011205363
 20
23.67231447342684
 30
0.0
 10
239.0708792994318
 20
23.44444732124501
 30
0.0
 10
239.1549119322505
 20
23.23509672787316
 30
0.0
 10
239.1886474835022
 20
23.15105131080867
 30
0.0
  0
SPLINE
  5
182
330
1F
100
AcDbEntity
  8
0
  6
Continuous
 62
     7
370
    15
100
AcDbSpline
210
0.0
220
0.0
230
1.0
 70
     8
 71
     3
 72
     9
 73
     5
 74
     0
 42
0.000000001
 43
0.00000001
 40
0.0
 40
0.0
 40
0.0
 40
0.0
 40
0.5071579315543481
 40
1.0
 40
1.0
 40
1.0
 40
1.0
 10
277.3875926848079
 20
50.8420697589812
 30
0.0
 10
277.3353802171013
 20
51.02184331616681
 30
0.0
 10
277.2324291155646
 20
51.37631585026406
 30
0.0
 10
277.0979283071032
 20
51.70161667949913
 30
0.0
 10
277.0316406504535
 20
51.86193861304643
 30
0.0
  0
SPLINE
  5
183
330
1F
100
AcDbEntity
  8
0
  6
Continuous
 62
     7
370
    15
100
AcDbSpline
210
0.0
220
0.0
230
1.0
 70
     8
 71
     3
 72
    33
 73
    29
 74
     0
 42
0.000000001
 43
0.00000001
 40
0.0
 40
0.0
 40
0.0
 40
0.0
 40
0.0273919626729588
 40
0.0658067980663217
 40
0.1048823257491146
 40
0.1448497233854569
 40
0.1856571679771722
 40
0.2270527901047617
 40
0.2687421181023273
 40
0.31048540236676
 40
0.3521638772833415
 40
0.3937526331212894
 40
0.4352611965552738
 40
0.476715263476518
 40
0.5181475120384333
 40
0.5595936126721008
 40
0.6010786985586041
 40
0.6426403615766926
 40
0.6843156672589066
 40
0.7261370167790696
 40
0.7621259032943591
 40
0.7844639649222176
 40
0.8265766643701684
 40
0.8686925538495612
 40
0.9104487169915241
 40
0.95146598793305
 40
0.9914668956180241
 40
1.0
 40
1.0
 40
1.0
 40
1.0
 10
223.4231087348337
 20
69.07464221922123
 30
0.0
 10
223.249657367184
 20
69.13422566350516
 30
0.0
 10
222.8329556046439
 20
69.27736968472419
 30
0.0
 10
222.1164678540673
 20
69.35114929315185
 30
0.0
 10
221.2946816295862
 20
69.318946479998
 30
0.0
 10
220.4387386571175
 20
69.15004198834595
 30
0.0
 10
219.5602506116915
 20
68.85028323926706
 30
0.0
 10
218.671139472283
 20
68.42054686233588
 30
0.0
 10
217.7861755661381
 20
67.86785805077379
 30
0.0
 10
216.9196579770525
 20
67.20186460772001
 30
0.0
 10
216.0844488974618
 20
66.43411260472399
 30
0.0
 10
215.2917582051493
 20
65.57673624837037
 30
0.0
 10
214.5516964634538
 20
64.6422856043055
 30
0.0
 10
213.8736715281354
 20
63.64384160372431
 30
0.0
 10
213.2664367091195
 20
62.59498159982441
 30
0.0
 10
212.7381048203046
 20
61.50978384090645
 30
0.0
 10
212.2960052245219
 20
60.40258445492906
 30
0.0
 10
211.9466400977
 20
59.28777326661531
 30
0.0
 10
211.6956893465687
 20
58.179519923421
 30
0.0
 10
211.5551864684665
 20
57.14372771272554
 30
0.0
 10
211.5174170948364
 20
56.30387598104249
 30
0.0
 10
211.5409284841893
 20
55.48936831636244
 30
0.0
 10
211.6386265976684
 20
54.66061939305634
 30
0.0
 10
211.8698018546573
 20
53.75009321196323
 30
0.0
 10
212.2128704723848
 20
52.92409037968335
 30
0.0
 10
212.6718518966104
 20
52.21454701335137
 30
0.0
 10
213.0653899609408
 20
51.74555407023224
 30
0.0
 10
213.3280693106592
 20
51.55685900669022
 30
0.0
 10
213.3742528057934
 20
51.52368320677186
 30
0.0
  0
LWPOLYLINE
  5
184
330
1F
100
AcDbEntity
  8
0
  6
Continuous
 62
     7
370
    15
100
AcDbPolyline
 90
        6
 70
   128
 43
0.0
 10
269.9238025915
 20
37.6946179404
 10
270.2199828209
 20
37.4782150088
 10
270.3607470707
 20
37.2146597486
 10
270.3270843489
 20
36.9395467581
 10
270.1235409926
 20
36.6900315712
 10
270.0989757368
 20
36.6710134926
  0
LWPOLYLINE
  5
185
330
1F
100
AcDbEntity
  8
0
  6
Continuous
 62
     7
370
    15
100
AcDbPolyline
 90
       10
 70
   128
 43
0.0
 10
268.0956890183
 20
36.631734713
 10
268.0491928411
 20
36.6638259338
 10
267.8269362609
 20
36.9079619086
 10
267.7724578993
 20
37.1819613959
 10
267.8931153609
 20
37.4488192467
 10
268.1726131869
 20
37.6724948294
 10
268.5732036473
 20
37.8227795172
 10
269.0407847805
 20
37.8793765303
 10
269.5122071636
 20
37.8346421284
 10
269.9238025915
 20
37.6946179404
  0
LWPOLYLINE
  5
186
330
1F
100
AcDbEntity
  8
0
  6
Continuous
 62
     7
370
    15
100
AcDbPolyline
 90
       17
 70
   128
 43
0.0
 10
269.6937244889
 20
37.5423583018
 10
269.9201477755
 20
37.3729364659
 10
270.0170260545
 20
37.1663900195
 10
269.969610486
 20
36.9541637865
 10
269.7851196605
 20
36.7685672872
 10
269.4916406339
 20
36.6378559061
 10
269.1338529274
 20
36.5819292661
 10
268.7662264761
 20
36.6093016911
 10
268.4447290747
 20
36.7158059777
 10
268.2183057881
 20
36.8852278135
 10
268.1214275091
 20
37.09177426
 10
268.1688430776
 20
37.3040004929
 10
268.3533339031
 20
37.4895969923
 10
268.6468129297
 20
37.6203083734
 10
269.0046006362
 20
37.6762350134
 10
269.3722270874
 20
37.6488625883
 10
269.6937244889
 20
37.5423583018
  0
SPLINE
  5
187
330
1F
100
AcDbEntity
  8
0
  6
Continuous
 62
     7
370
    15
100
AcDbSpline
210
0.0
220
0.0
230
1.0
 70
     8
 71
     3
 72
    11
 73
     7
 74
     0
 42
0.000000001
 43
0.00000001
 40
0.0
 40
0.0
 40
0.0
 40
0.0
 40
0.1183358584681288
 40
0.475539685085782
 40
0.8141708872487102
 40
1.0
 40
1.0
 40
1.0
 40
1.0
 10
269.2359452772021
 20
37.55110780413293
 30
0.0
 10
269.2601158193203
 20
37.52647431416309
 30
0.0
 10
269.3572465803258
 20
37.42748316968277
 30
0.0
 10
269.5407732280498
 20
37.28471849607029
 30
0.0
 10
269.7426762184534
 20
37.22255345185518
 30
0.0
 10
269.8503912339457
 20
37.2224847548939
 30
0.0
 10
269.8885572975919
 20
37.22246041388086
 30
0.0
  0
SPLINE
  5
188
330
1F
100
AcDbEntity
  8
0
  6
Continuous
 62
     7
370
    15
100
AcDbSpline
210
0.0
220
0.0
230
1.0
 70
     8
 71
     3
 72
    11
 73
     7
 74
     0
 42
0.000000001
 43
0.00000001
 40
0.0
 40
0.0
 40
0.0
 40
0.0
 40
0.2164499953511926
 40
0.4402998152333206
 40
0.7518914760010482
 40
0.9999999999999999
 40
0.9999999999999999
 40
0.9999999999999999
 40
0.9999999999999999
 10
268.4166147613971
 20
37.38916084499984
 30
0.0
 10
268.4727382728845
 20
37.37807364987149
 30
0.0
 10
268.5869040029323
 20
37.35552021918857
 30
0.0
 10
268.79876754676
 20
37.35978767488328
 30
0.0
 10
269.026034712656
 20
37.42738091636659
 30
0.0
 10
269.1714738252653
 20
37.51310661007599
 30
0.0
 10
269.2359452772021
 20
37.55110780413293
 30
0.0
  0
SPLINE
  5
189
330
1F
100
AcDbEntity
  8
0
  6
Continuous
 62
     7
370
    15
100
AcDbSpline
210
0.0
220
0.0
230
1.0
 70
     8
 71
     3
 72
    11
 73
     7
 74
     0
 42
0.000000001
 43
0.00000001
 40
0.0
 40
0.0
 40
0.0
 40
0.0
 40
0.2164499953511925
 40
0.4402998152333253
 40
0.751891476001053
 40
1.0
 40
1.0
 40
1.0
 40
1.0
 10
268.2498962659819
 20
36.89856649561469
 30
0.0
 10
268.2613163549596
 20
36.90999139447807
 30
0.0
 10
268.2845469540578
 20
36.93323177778435
 30
0.0
 10
268.3276572380993
 20
37.02248130045373
 30
0.0
 10
268.3739018722544
 20
37.18123526342968
 30
0.0
 10
268.4034960220645
 20
37.32529905620603
 30
0.0
 10
268.4166147613971
 20
37.38916084499984
 30
0.0
  0
SPLINE
  5
18A
330
1F
100
AcDbEntity
  8
0
  6
Continuous
 62
     7
370
    15
100
AcDbSpline
210
0.0
220
0.0
230
1.0
 70
     8
 71
     3
 72
     9
 73
     5
 74
     0
 42
0.000000001
 43
0.00000001
 40
0.0
 40
0.0
 40
0.0
 40
0.0
 40
0.7327518062647297
 40
1.0
 40
1.0
 40
1.0
 40
1.0
 10
268.5378844569074
 20
36.6644158072632
 30
0.0
 10
268.4645166541076
 20
36.71342143602032
 30
0.0
 10
268.3643902509076
 20
36.78030032780624
 30
0.0
 10
268.2740417418376
 20
36.87362550940296
 30
0.0
 10
268.2498962659819
 20
36.89856649561469
 30
0.0
  0
SPLINE
  5
18B
330
1F
100
AcDbEntity
  8
0
  6
Continuous
 62
     7
370
    15
100
AcDbSpline
210
0.0
220
0.0
230
1.0
 70
     8
 71
     3
 72
    11
 73
     7
 74
     0
 42
0.000000001
 43
0.00000001
 40
0.0
 40
0.0
 40
0.0
 40
0.0
 40
0.2164499953511922
 40
0.4402998152333268
 40
0.7518914760010544
 40
1.0
 40
1.0
 40
1.0
 40
1.0
 10
269.8885572975919
 20
37.22246041388086
 30
0.0
 10
269.8771372086143
 20
37.16667463995173
 30
0.0
 10
269.8539066095161
 20
37.05319593132994
 30
0.0
 10
269.8107963254745
 20
36.88872841200567
 30
0.0
 10
269.7645516913195
 20
36.77531873591633
 30
0.0
 10
269.7349575415094
 20
36.74521201886956
 30
0.0
 10
269.7218388021767
 20
36.73186606449572
 30
0.0
  0
LINE
  5
18C
330
1F
100
AcDbEntity
  8
0
  6
Continuous
 62
     7
370
    15
100
AcDbLine
 10
268.4166147614
 20
36.7554112623
 30
0.0
 11
268.4166147614
 21
37.389160845
 31
0.0
  0
LINE
  5
18D
330
1F
100
AcDbEntity
  8
0
  6
Continuous
 62
     7
370
    15
100
AcDbLine
 10
269.2359452772
 20
36.589169986
 30
0.0
 11
269.2359452772
 21
37.5511078041
 31
0.0
  0
SPLINE
  5
18E
330
1F
100
AcDbEntity
  8
0
  6
Continuous
 62
     7
370
    15
100
AcDbSpline
210
0.0
220
0.0
230
1.0
 70
     8
 71
     3
 72
    12
 73
     8
 74
     0
 42
0.000000001
 43
0.00000001
 40
0.0
 40
0.0
 40
0.0
 40
0.0
 40
0.2499999999999972
 40
0.2499999999999972
 40
0.4999999999999944
 40
0.4999999999999944
 40
1.0
 40
1.0
 40
1.0
 40
1.0
 10
244.2394340227997
 20
31.9499687757856
 30
0.0
 10
244.2733655150892
 20
31.93038054223413
 30
0.0
 10
244.3117972241165
 20
31.90319335329772
 30
0.0
 10
244.3859740767815
 20
31.84396942576188
 30
0.0
 10
244.4211903570369
 20
31.81253674674513
 30
0.0
 10
244.5162892742948
 20
31.72054402994314
 30
0.0
 10
244.5648184310568
 20
31.66368736441849
 30
0.0
 10
244.5981600272118
 20
31.61545855841616
 30
0.0
  0
ARC
  5
18F
330
1F
100
AcDbEntity
  8
0
  6
Continuous
 62
     7
370
    15
100
AcDbCircle
 10
268.3849989445
 20
47.8847193616
 30
0.0
 40
10.21225397394519
100
AcDbArc
 50
73.3310819855
 51
100.4212884338
  0
SPLINE
  5
190
330
1F
100
AcDbEntity
  8
0
  6
Continuous
 62
     7
370
    15
100
AcDbSpline
210
0.0
220
0.0
230
1.0
 70
     8
 71
     3
 72
    12
 73
     8
 74
     0
 42
0.000000001
 43
0.00000001
 40
0.0
 40
0.0
 40
0.0
 40
0.0
 40
0.4999999999999972
 40
0.4999999999999972
 40
0.7499999999999986
 40
0.7499999999999986
 40
1.0
 40
1.0
 40
1.0
 40
1.0
 10
271.5264228464102
 20
57.23427449662749
 30
0.0
 10
271.5264228464102
 20
57.30695749382029
 30
0.0
 10
271.50940607834
 20
57.39054034056058
 30
0.0
 10
271.4549952524585
 20
57.51198451843627
 30
0.0
 10
271.4318500335366
 20
57.55169939611761
 30
0.0
 10
271.3775692216794
 20
57.6204291679834
 30
0.0
 10
271.3463332531219
 20
57.64933876388907
 30
0.0
 10
271.3142908120541
 20
57.66783647138267
 30
0.0
  0
LWPOLYLINE
  5
191
330
1F
100
AcDbEntity
  8
0
  6
Continuous
 62
     7
370
    15
100
AcDbPolyline
 90
       16
 70
   128
 43
0.0
 10
244.7269599837
 20
32.1910356173
 10
245.0310201592
 20
33.3936750186
 10
245.5706555119
 20
35.1875396921
 10
246.2134517156
 20
36.9850376316
 10
246.9551034496
 20
38.7741295549
 10
247.7906432786
 20
40.5428324813
 10
248.7144749238
 20
42.279299992
 10
249.7204107452
 20
43.9719015743
 10
250.8017131857
 20
45.6093005206
 10
251.9511398972
 20
47.18052986
 10
253.1609922494
 20
48.6750658119
 10
254.4231668926
 20
50.082898273
 10
255.7292100331
 20
51.3945978625
 10
257.0703740548
 20
52.6013790786
 10
258.4376761089
 20
53.6951591416
 10
259.4463357647
 20
54.417534144
  0
LINE
  5
192
330
1F
100
AcDbEntity
  8
0
  6
Continuous
 62
     7
370
    15
100
AcDbLine
 10
242.7839118152
 20
32.7902238609
 30
0.0
 11
244.2394340228
 21
31.9499687758
 31
0.0
  0
LWPOLYLINE
  5
193
330
1F
100
AcDbEntity
  8
0
  6
Continuous
 62
     7
370
    15
100
AcDbPolyline
 90
       25
 70
   128
 43
0.0
 10
242.7839118152
 20
32.7902238609
 10
243.2326482688
 20
34.5736442668
 10
243.7866674638
 20
36.3709455628
 10
244.4423403152
 20
38.1703545836
 10
245.1953718584
 20
39.9600843572
 10
246.0408293844
 20
41.7284113153
 10
246.9731747501
 20
43.4637520881
 10
247.9863006569
 20
45.1547393807
 10
249.0735706554
 20
46.7902964342
 10
250.2278626179
 20
48.3597095839
 10
251.4416153913
 20
49.8526984385
 10
252.7068783266
 20
51.2594832217
 10
254.0153633587
 20
52.5708488343
 10
255.3584992979
 20
53.7782052172
 10
256.7274879747
 20
54.8736436206
 10
258.1133618719
 20
55.84998841
 10
259.5070428664
 20
56.7008440695
 10
260.8994016949
 20
57.4206370961
 10
262.2813177549
 20
58.0046525082
 10
263.6437388489
 20
58.4490647315
 10
264.9777404807
 20
58.7509626577
 10
266.2745843145
 20
58.908368714
 10
267.525775416
 20
58.9202518169
 10
268.7231178974
 20
58.7865341265
 10
269.8587686045
 20
58.5080915565
  0
LINE
  5
194
330
1F
100
AcDbEntity
  8
0
  6
Continuous
 62
     7
370
    15
100
AcDbLine
 10
271.3142908121
 20
57.6678364714
 30
0.0
 11
269.8587686045
 21
58.5080915565
 31
0.0
  0
LINE
  5
195
330
1F
100
AcDbEntity
  8
0
  6
Continuous
 62
     7
370
    15
100
AcDbLine
 10
277.2363218583
 20
50.3649710791
 30
0.0
 11
277.340603742
 21
50.5455925995
 31
0.0
  0
LINE
  5
196
330
1F
100
AcDbEntity
  8
0
  6
Continuous
 62
     7
370
    15
100
AcDbLine
 10
274.9382130656
 20
49.0383011121
 30
0.0
 11
277.2363218583
 21
50.3649710791
 31
0.0
  0
ARC
  5
197
330
1F
100
AcDbEntity
  8
0
  6
Continuous
 62
     7
370
    15
100
AcDbCircle
 10
275.7663223858
 20
47.7436953921
 30
0.0
 40
1.536804807572231
100
AcDbArc
 50
122.60547834
 51
177.3945215143
  0
LINE
  5
198
330
1F
100
AcDbEntity
  8
0
  6
Continuous
 62
     7
370
    15
100
AcDbLine
 10
274.2311062844
 20
38.9540884354
 30
0.0
 11
274.2311062844
 21
47.8135562443
 31
0.0
  0
ARC
  5
199
330
1F
100
AcDbEntity
  8
0
  6
Continuous
 62
     7
370
    15
100
AcDbCircle
 10
274.6621806519
 20
38.8841612385
 30
0.0
 40
0.4367091974284936
100
AcDbArc
 50
170.7859630095
 51
309.2032852357
  0
LINE
  5
19A
330
1F
100
AcDbEntity
  8
0
  6
Continuous
 62
     7
370
    15
100
AcDbLine
 10
277.2363218583
 20
39.8724216464
 30
0.0
 11
274.9382130656
 21
38.5457516794
 31
0.0
  0
LINE
  5
19B
330
1F
100
AcDbEntity
  8
0
  6
Continuous
 62
     7
370
    15
100
AcDbLine
 10
277.340603742
 20
39.8122014261
 30
0.0
 11
277.2363218583
 21
39.8724216464
 31
0.0
  0
LINE
  5
19C
330
1F
100
AcDbEntity
  8
0
  6
Continuous
 62
     7
370
    15
100
AcDbLine
 10
244.6436672676
 20
21.057082647
 30
0.0
 11
244.5981600272
 21
20.9387146269
 31
0.0
  0
LINE
  5
19D
330
1F
100
AcDbEntity
  8
0
  6
Continuous
 62
     7
370
    15
100
AcDbLine
 10
244.6436672676
 20
21.057082647
 30
0.0
 11
247.7853126681
 21
22.8707159324
 31
0.0
  0
ARC
  5
19E
330
1F
100
AcDbEntity
  8
0
  6
Continuous
 62
     7
370
    15
100
AcDbCircle
 10
246.9572033479
 20
24.1653216524
 30
0.0
 40
1.536804807571956
100
AcDbArc
 50
302.60547834
 51
357.3945215144
  0
LINE
  5
19F
330
1F
100
AcDbEntity
  8
0
  6
Continuous
 62
     7
370
    15
100
AcDbLine
 10
248.4924194493
 20
32.9549286091
 30
0.0
 11
248.4924194493
 21
24.0954608002
 31
0.0
  0
ARC
  5
1A0
330
1F
100
AcDbEntity
  8
0
  6
Continuous
 62
     7
370
    15
100
AcDbCircle
 10
248.0613450818
 20
33.024855806
 30
0.0
 40
0.4367091974284724
100
AcDbArc
 50
350.7859630095
 51
129.2032852357
  0
LINE
  5
1A1
330
1F
100
AcDbEntity
  8
0
  6
Continuous
 62
     7
370
    15
100
AcDbLine
 10
247.7853126681
 20
33.3632653651
 30
0.0
 11
244.6436672676
 21
31.5496320797
 31
0.0
  0
LINE
  5
1A2
330
1F
100
AcDbEntity
  8
0
  6
Continuous
 62
     7
370
    15
100
AcDbLine
 10
244.5981600272
 20
31.6154585584
 30
0.0
 11
244.6436672676
 21
31.5496320797
 31
0.0
  0
LINE
  5
1A3
330
1F
100
AcDbEntity
  8
0
  6
Continuous
 62
     7
370
    15
100
AcDbLine
 10
271.5264228464
 20
54.0093134434
 30
0.0
 11
271.5264228464
 21
57.2342744966
 31
0.0
  0
LINE
  5
1A4
330
1F
100
AcDbEntity
  8
0
  6
Continuous
 62
     7
370
    15
100
AcDbLine
 10
274.3191697571
 20
55.6215319179
 30
0.0
 11
271.5264228464
 21
54.0093134434
 31
0.0
  0
SPLINE
  5
1A5
330
1F
100
AcDbEntity
  8
0
  6
Continuous
 62
     7
370
    15
100
AcDbSpline
210
0.0
220
0.0
230
1.0
 70
     8
 71
     3
 72
     8
 73
     4
 74
     0
 42
0.000000001
 43
0.00000001
 40
0.0
 40
0.0
 40
0.0
 40
0.0
 40
1.0
 40
1.0
 40
1.0
 40
1.0
 10
241.7113575505712
 20
33.88173770331709
 30
0.0
 10
241.4242904208989
 20
33.83428570359374
 30
0.0
 10
241.1371773023134
 20
33.78692827089095
 30
0.0
 10
240.8500224759157
 20
33.73965660197888
 30
0.0
  0
SPLINE
  5
1A6
330
1F
100
AcDbEntity
  8
0
  6
Continuous
 62
     7
370
    15
100
AcDbSpline
210
0.0
220
0.0
230
1.0
 70
     8
 71
     3
 72
     8
 73
     4
 74
     0
 42
0.000000001
 43
0.00000001
 40
0.0
 40
0.0
 40
0.0
 40
0.0
 40
0.0011862984959112
 40
0.0011862984959112
 40
0.0011862984959112
 40
0.0011862984959112
 10
240.4977213886403
 20
34.11001350164105
 30
0.0
 10
240.6154322564848
 20
33.9864635505286
 30
0.0
 10
240.7328720069208
 20
33.86300850141332
 30
0.0
 10
240.8500224759158
 20
33.73965660197889
 30
0.0
  0
LWPOLYLINE
  5
1A7
330
1F
100
AcDbEntity
  8
0
  6
Continuous
 62
     7
370
    15
100
AcDbPolyline
 90
       25
 70
   128
 43
0.0
 10
240.4977213886
 20
34.1100135016
 10
240.9464578422
 20
35.8934339075
 10
241.5004770372
 20
37.6907352035
 10
242.1561498886
 20
39.4901442243
 10
242.9091814318
 20
41.2798739979
 10
243.7546389578
 20
43.0482009561
 10
244.6869843235
 20
44.7835417289
 10
245.7001102303
 20
46.4745290214
 10
246.7873802288
 20
48.1100860749
 10
247.9416721913
 20
49.6794992246
 10
249.1554249647
 20
51.1724880792
 10
250.4206879
 20
52.5792728625
 10
251.7291729321
 20
53.890638475
 10
253.0723088713
 20
55.097994858
 10
254.4412975481
 20
56.1934332614
 10
255.8271714453
 20
57.1697780507
 10
257.2208524398
 20
58.0206337102
 10
258.6132112683
 20
58.7404267368
 10
259.9951273283
 20
59.324442149
 10
261.3575484223
 20
59.7688543723
 10
262.6915500541
 20
60.0707522985
 10
263.988393888
 20
60.2281583547
 10
265.2395849894
 20
60.2400414576
 10
266.4369274708
 20
60.1063237673
 10
267.5725781779
 20
59.8278811972
  0
LINE
  5
1A8
330
1F
100
AcDbEntity
  8
0
  6
Continuous
 62
     7
370
    15
100
AcDbLine
 10
267.8816885225
 20
58.8552484442
 30
0.0
 11
267.5725781779
 21
59.8278811972
 31
0.0
  0
LWPOLYLINE
  5
1A9
330
1F
100
AcDbEntity
  8
0
  6
Continuous
 62
     7
370
    15
100
AcDbPolyline
 90
       24
 70
   128
 43
0.0
 10
241.7113575506
 20
33.8817377033
 10
242.1414926777
 20
35.6197618472
 10
242.6769229725
 20
37.3723512083
 10
243.3139744675
 20
39.127480027
 10
244.0482759003
 20
40.8731051186
 10
244.8747887075
 20
42.5972485103
 10
245.787841598
 20
44.2880796304
 10
246.7811694679
 20
45.9339964865
 10
247.8479563895
 20
47.5237052745
 10
248.9808823806
 20
49.0462978742
 10
250.1721736317
 20
50.4913266969
 10
251.4136558479
 20
51.8488763741
 10
252.6968103386
 20
53.1096317939
 10
254.0128324699
 20
54.2649420183
 10
255.3526920798
 20
55.306879644
 10
256.7071954406
 20
56.2282951972
 10
258.067048343
 20
57.0228661918
 10
259.4229198713
 20
57.6851405122
 10
260.7655064282
 20
58.2105738241
 10
262.0855955745
 20
58.5955607567
 10
263.3741292416
 20
58.8374596413
 10
264.6222658852
 20
58.934610638
 10
265.8214411538
 20
58.8863471248
 10
265.9023891464
 20
58.8776315924
  0
LINE
  5
1AA
330
1F
100
AcDbEntity
  8
0
  6
Continuous
 62
     7
370
    15
100
AcDbLine
 10
239.0598768506
 20
34.9400634853
 30
0.0
 11
240.4977213886
 21
34.1100135016
 31
0.0
  0
ARC
  5
1AB
330
1F
100
AcDbEntity
  8
0
  6
Continuous
 62
     7
370
    15
100
AcDbCircle
 10
263.2054565951
 20
50.8748991119
 30
0.0
 40
10.21216825503814
100
AcDbArc
 50
73.3310247954
 51
100.4198993616
  0
LINE
  5
1AC
330
1F
100
AcDbEntity
  8
0
  6
Continuous
 62
     7
370
    15
100
AcDbLine
 10
267.5725781779
 20
59.8278811972
 30
0.0
 11
266.1347336399
 21
60.6579311809
 31
0.0
  0
LINE
  5
1AD
330
1F
100
AcDbEntity
  8
0
  6
Continuous
 62
     7
370
    15
100
AcDbLine
 10
242.9639483436
 20
33.5553958094
 30
0.0
 11
242.3378446633
 21
33.9168377705
 31
0.0
  0
SPLINE
  5
1AE
330
1F
100
AcDbEntity
  8
0
  6
Continuous
 62
     7
370
    15
100
AcDbSpline
210
0.0
220
0.0
230
1.0
 70
     8
 71
     3
 72
    14
 73
    10
 74
     0
 42
0.000000001
 43
0.00000001
 40
0.0
 40
0.0
 40
0.0
 40
0.0
 40
0.25
 40
0.25
 40
0.5
 40
0.5
 40
0.75
 40
0.75
 40
1.0
 40
1.0
 40
1.0
 40
1.0
 10
242.3378446633049
 20
33.91683777054914
 30
0.0
 10
242.3002106698468
 20
33.93856341252918
 30
0.0
 10
242.2544367131577
 20
33.9557751736407
 30
0.0
 10
242.1545008356478
 20
33.97818050727319
 30
0.0
 10
242.1000669668079
 20
33.98335539087301
 30
0.0
 10
241.9938513163159
 20
33.98141319655825
 30
0.0
 10
241.9405350163658
 20
33.97432479364002
 30
0.0
 10
241.8430419490651
 20
33.94959135735533
 30
0.0
 10
241.7981302585355
 20
33.93183052136929
 30
0.0
 10
241.7603769929355
 20
33.9100360250473
 30
0.0
  0
LINE
  5
1AF
330
1F
100
AcDbEntity
  8
0
  6
Continuous
 62
     7
370
    15
100
AcDbLine
 10
241.7603769929
 20
33.910036025
 30
0.0
 11
241.7113575506
 21
33.8817377033
 31
0.0
  0
SPLINE
  5
1B0
330
1F
100
AcDbEntity
  8
0
  6
Continuous
 62
     7
370
    15
100
AcDbSpline
210
0.0
220
0.0
230
1.0
 70
     8
 71
     3
 72
    10
 73
     6
 74
     0
 42
0.000000001
 43
0.00000001
 40
0.0
 40
0.0
 40
0.0
 40
0.0
 40
0.5
 40
0.5
 40
1.0
 40
1.0
 40
1.0
 40
1.0
 10
238.9578643602854
 20
34.96951171222577
 30
0.0
 10
238.9651806447076
 20
34.97387971211894
 30
0.0
 10
238.977004504916
 20
34.97441176470721
 30
0.0
 10
239.0111558691937
 20
34.96518171506891
 30
0.0
 10
239.0334128325865
 20
34.95534083775261
 30
0.0
 10
239.0598768506082
 20
34.9400634853363
 30
0.0
  0
LWPOLYLINE
  5
1B1
330
1F
100
AcDbEntity
  8
0
  6
Continuous
 62
     7
370
    15
100
AcDbPolyline
 90
       45
 70
   128
 43
0.0
 10
271.9153315761
 20
35.8228838996
 10
271.1253720465
 20
35.3016069864
 10
270.3514938149
 20
34.6604558007
 10
269.6094508104
 20
33.9124823315
 10
268.9143488886
 20
33.0729131618
 10
268.2803383203
 20
32.1588394987
 10
267.7203257322
 20
31.1888692461
 10
267.2457113656
 20
30.1827482011
 10
266.8661570005
 20
29.1609580867
 10
266.5893892691
 20
28.1442996032
 10
266.4210423644
 20
27.1534689854
 10
266.3645433437
 20
26.2086366874
 10
266.4210423644
 20
25.3290367701
 10
266.5893892691
 20
24.5325753512
 10
266.8661570005
 20
23.8354660885
 10
267.2457113656
 20
23.2519001163
 10
267.7203257322
 20
22.7937571548
 10
268.2803383203
 20
22.4703636736
 10
268.9143488886
 20
22.2883030314
 10
269.6094508104
 20
22.2512814579
 10
270.3514938149
 20
22.3600526054
 10
271.1253720465
 20
22.6124022072
 10
271.9153315761
 20
23.003193153
 10
272.7052911056
 20
23.5244700661
 10
273.4791693372
 20
24.1656212519
 10
274.2212123418
 20
24.913594721
 10
274.9163142635
 20
25.7531638907
 10
275.5503248319
 20
26.6672375538
 10
276.11033742
 20
27.6372078065
 10
276.5849517865
 20
28.6433288515
 10
276.9645061516
 20
29.6651189658
 10
277.241273883
 20
30.6817774494
 10
277.4096207877
 20
31.6726080672
 10
277.4661198084
 20
32.6174403652
 10
277.4096207877
 20
33.4970402825
 10
277.241273883
 20
34.2935017013
 10
276.9645061516
 20
34.990610964
 10
276.5849517865
 20
35.5741769363
 10
276.11033742
 20
36.0323198977
 10
275.5503248319
 20
36.3557133789
 10
274.9163142635
 20
36.5377740211
 10
274.2212123418
 20
36.5747955947
 10
273.4791693372
 20
36.4660244471
 10
272.7052911056
 20
36.2136748454
 10
271.9153315761
 20
35.8228838996
  0
LWPOLYLINE
  5
1B2
330
1F
100
AcDbEntity
  8
0
  6
Continuous
 62
     7
370
    15
100
AcDbPolyline
 90
       24
 70
   128
 43
0.0
 10
271.8092655589
 20
36.0065956297
 10
271.0042112612
 20
35.4753580113
 10
270.2155455475
 20
34.821955529
 10
269.4593233773
 20
34.0596895731
 10
268.7509392532
 20
33.2040776804
 10
268.1048138332
 20
32.2725376416
 10
267.5341003676
 20
31.2840329256
 10
267.0504169368
 20
30.2586866376
 10
266.6636099405
 20
29.2173718714
 10
266.3815536537
 20
28.1812867927
 10
266.2099899291
 20
27.1715231057
 10
266.1524113094
 20
26.2086366874
 10
266.2099899291
 20
25.3122291283
 10
266.3815536537
 20
24.5005487015
 10
266.6636099405
 20
23.7901188797
 10
267.0504169368
 20
23.1954019653
 10
267.5341003676
 20
22.7285046797
 10
268.1048138332
 20
22.3989317052
 10
268.7509392532
 20
22.2133921973
 10
269.4593233773
 20
22.1756632051
 10
270.2155455475
 20
22.2865127822
 10
271.0042112612
 20
22.5436843509
 10
271.8092655589
 20
22.9419426396
 10
271.8101849568
 20
22.942473483
  0
LWPOLYLINE
  5
1B3
330
1F
100
AcDbEntity
  8
0
  6
Continuous
 62
     7
370
    15
100
AcDbPolyline
 90
       12
 70
   128
 43
0.0
 10
277.4661198084
 20
32.739901582
 10
277.4085411886
 20
33.636309141
 10
277.236977464
 20
34.4479895678
 10
276.9549211773
 20
35.1584193897
 10
276.568114181
 20
35.7531363041
 10
276.0844307501
 20
36.2200335896
 10
275.5137172845
 20
36.5496065641
 10
274.8675918646
 20
36.7351460721
 10
274.1592077405
 20
36.7728750642
 10
273.4029855703
 20
36.6620254871
 10
272.6143198565
 20
36.4048539185
 10
271.8092655589
 20
36.0065956297
  0
SPLINE
  5
1B4
330
1F
100
AcDbEntity
  8
0
  6
Continuous
 62
     7
370
    15
100
AcDbSpline
210
0.0
220
0.0
230
1.0
 70
    11
 71
     3
 72
    66
 73
    62
 74
     0
 42
0.000000001
 43
0.00000001
 40
0.0
 40
0.0
 40
0.0
 40
0.0
 40
0.0312499999999996
 40
0.0312499999999996
 40
0.0624999999999993
 40
0.0624999999999993
 40
0.0937499999999989
 40
0.0937499999999989
 40
0.1249999999999986
 40
0.1249999999999986
 40
0.1562499999999982
 40
0.1562499999999982
 40
0.1874999999999978
 40
0.1874999999999978
 40
0.2187499999999975
 40
0.2187499999999975
 40
0.2499999999999971
 40
0.2499999999999971
 40
0.2812499999999968
 40
0.2812499999999968
 40
0.3124999999999964
 40
0.3124999999999964
 40
0.343749999999996
 40
0.343749999999996
 40
0.3749999999999957
 40
0.3749999999999957
 40
0.4062499999999953
 40
0.4062499999999953
 40
0.4374999999999949
 40
0.4374999999999949
 40
0.4687499999999946
 40
0.4687499999999946
 40
0.4999999999999942
 40
0.4999999999999942
 40
0.5312499999999939
 40
0.5312499999999939
 40
0.5624999999999936
 40
0.5624999999999936
 40
0.6249999999999937
 40
0.6249999999999937
 40
0.6562499999999942
 40
0.6562499999999942
 40
0.6874999999999947
 40
0.6874999999999947
 40
0.7187499999999952
 40
0.7187499999999952
 40
0.7499999999999958
 40
0.7499999999999958
 40
0.7812499999999963
 40
0.7812499999999963
 40
0.8124999999999968
 40
0.8124999999999968
 40
0.8437499999999973
 40
0.8437499999999973
 40
0.8749999999999979
 40
0.8749999999999979
 40
0.9062499999999984
 40
0.9062499999999984
 40
0.9374999999999989
 40
0.9374999999999989
 40
1.0
 40
1.0
 40
1.0
 40
1.0
 10
269.0658530221433
 20
38.5330560786886
 30
0.0
 10
269.1827978799971
 20
38.51671121054878
 30
0.0
 10
269.2967771742549
 20
38.49446493727135
 30
0.0
 10
269.5194244998861
 20
38.44016095136584
 30
0.0
 10
269.6288391004557
 20
38.40782091967483
 30
0.0
 10
269.8388171264842
 20
38.33511110693573
 30
0.0
 10
269.9381090120964
 20
38.29527211194196
 30
0.0
 10
270.1257819377732
 20
38.20940637189875
 30
0.0
 10
270.214920069424
 20
38.16289063194104
 30
0.0
 10
270.3771477863046
 20
38.06620501695748
 30
0.0
 10
270.450317167775
 20
38.0161482412446
 30
0.0
 10
270.5808745139931
 20
37.91238963453137
 30
0.0
 10
270.6386746347283
 20
37.85812626995061
 30
0.0
 10
270.7339401325411
 20
37.74873757077109
 30
0.0
 10
270.7718184186541
 20
37.69347654361682
 30
0.0
 10
270.8275498958553
 20
37.5808617392642
 30
0.0
 10
270.8453426649989
 20
37.52291575324168
 30
0.0
 10
270.857907810036
 20
37.40828979293153
 30
0.0
 10
270.8530944636192
 20
37.35123859333786
 30
0.0
 10
270.8197915322146
 20
37.23651658540124
 30
0.0
 10
270.7907266150911
 20
37.17846796816318
 30
0.0
 10
270.7097689131451
 20
37.06673754393456
 30
0.0
 10
270.6578472404428
 20
37.01232692451391
 30
0.0
 10
270.529156652637
 20
36.90596699809018
 30
0.0
 10
270.4535856029731
 20
36.85524556948672
 30
0.0
 10
270.2848464583973
 20
36.76150010144485
 30
0.0
 10
270.1896316372467
 20
36.71747681280804
 30
0.0
 10
269.9877303096346
 20
36.64005010926086
 30
0.0
 10
269.8811665675177
 20
36.60643219525677
 30
0.0
 10
269.6571337502945
 20
36.54975670895658
 30
0.0
 10
269.5422305337185
 20
36.52742179751927
 30
0.0
 10
269.3105653709157
 20
36.49533916991327
 30
0.0
 10
269.1921308022056
 20
36.48548703638861
 30
0.0
 10
268.9601286930035
 20
36.47935527990992
 30
0.0
 10
268.8459717427939
 20
36.48287533939025
 30
0.0
 10
268.6210930619866
 20
36.50361747872293
 30
0.0
 10
268.5112753669609
 20
36.52089893288713
 30
0.0
 10
268.1984216884107
 20
36.592154389698
 30
0.0
 10
268.0056674656184
 20
36.66753219734008
 30
0.0
 10
267.7632882191385
 20
36.81408092219916
 30
0.0
 10
267.6892922381479
 20
36.86883122263009
 30
0.0
 10
267.5571823093096
 20
36.98915556521863
 30
0.0
 10
267.5004691573258
 20
37.05335605047807
 30
0.0
 10
267.4053824801397
 20
37.18913138340545
 30
0.0
 10
267.3668096474086
 20
37.26122876440765
 30
0.0
 10
267.310588848042
 20
37.41028403881265
 30
0.0
 10
267.293265769696
 20
37.4859412614656
 30
0.0
 10
267.2805494066846
 20
37.63857544291084
 30
0.0
 10
267.2853643728371
 20
37.71644092933746
 30
0.0
 10
267.3190339887645
 20
37.86816291813356
 30
0.0
 10
267.3474286574459
 20
37.94131992658371
 30
0.0
 10
267.4283433635019
 20
38.08108743732667
 30
0.0
 10
267.4818956565899
 20
38.14843346498392
 30
0.0
 10
267.6098712491437
 20
38.26853473687621
 30
0.0
 10
267.6843276867637
 20
38.32200516105139
 30
0.0
 10
267.8550678627796
 20
38.41503016110941
 30
0.0
 10
267.949622186184
 20
38.45340304598589
 30
0.0
 10
268.151061965134
 20
38.5128196559008
 30
0.0
 10
268.2600308455883
 20
38.53431968757484
 30
0.0
 10
268.5940959928515
 20
38.57306404760008
 30
0.0
 10
268.8319633064357
 20
38.56574581496823
 30
0.0
 10
269.0658530221434
 20
38.5330560786886
 30
0.0
  0
LINE
  5
1B5
330
1F
100
AcDbEntity
  8
0
  6
Continuous
 62
     7
370
    15
100
AcDbLine
 10
274.9590949617
 20
29.345510521
 30
0.0
 11
276.1579722632
 21
30.8369024866
 31
0.0
  0
SPLINE
  5
1B6
330
1F
100
AcDbEntity
  8
0
  6
Continuous
 62
     7
370
    15
100
AcDbSpline
210
0.0
220
0.0
230
1.0
 70
     8
 71
     3
 72
    22
 73
    18
 74
     0
 42
0.000000001
 43
0.00000001
 40
0.0
 40
0.0
 40
0.0
 40
0.0
 40
0.0416666666666666
 40
0.0833333333333333
 40
0.1250000000000034
 40
0.166666666666668
 40
0.2083333333333338
 40
0.2499999999998967
 40
0.2968749999997767
 40
0.34375
 40
0.3906250000000001
 40
0.4374999999999999
 40
0.4847037825276523
 40
0.4847037825276523
 40
0.53125
 40
0.624999999999985
 40
0.8414337678077826
 40
0.8414337678077826
 40
0.8414337678077826
 40
0.8414337678077826
 10
276.1579722631809
 20
30.83690248658198
 30
0.0
 10
276.203451590994
 20
30.89347833801767
 30
0.0
 10
276.2927220009357
 20
31.01539894661075
 30
0.0
 10
276.4172147104524
 20
31.22230661895191
 30
0.0
 10
276.5268563585077
 20
31.4512789911366
 30
0.0
 10
276.6138619542828
 20
31.69468336027058
 30
0.0
 10
276.6705375609363
 20
31.9416522253443
 30
0.0
 10
276.691807004914
 20
32.18969856086299
 30
0.0
 10
276.6685734723162
 20
32.42206141389191
 30
0.0
 10
276.5954883485649
 20
32.62019206120695
 30
0.0
 10
276.4806217861753
 20
32.76552994775106
 30
0.0
 10
276.3313181859376
 20
32.85616957844334
 30
0.0
 10
276.2203948063309
 20
32.88197317862521
 30
0.0
 10
276.1099130227985
 20
32.89238266006987
 30
0.0
 10
275.96167935336
 20
32.90474239409413
 30
0.0
 10
275.6805839583008
 20
32.93063715116565
 30
0.0
 10
275.263585788295
 20
32.9678550344633
 30
0.0
 10
274.95898901432
 20
32.99499542303124
 30
0.0
  0
SPLINE
  5
1B7
330
1F
100
AcDbEntity
  8
0
  6
Continuous
 62
     7
370
    15
100
AcDbSpline
210
0.0
220
0.0
230
1.0
 70
     8
 71
     3
 72
    22
 73
    18
 74
     0
 42
0.000000001
 43
0.00000001
 40
0.0
 40
0.0
 40
0.0
 40
0.0
 40
0.0416666666666666
 40
0.0833333333333333
 40
0.1250000000000034
 40
0.166666666666668
 40
0.2083333333333338
 40
0.2499999999998967
 40
0.2968749999997767
 40
0.34375
 40
0.3906250000000001
 40
0.4374999999999999
 40
0.4847037825276523
 40
0.4847037825276523
 40
0.53125
 40
0.624999999999985
 40
0.8393173095866466
 40
0.8393173095866466
 40
0.8393173095866466
 40
0.8393173095866466
 10
267.6726908889447
 20
25.93845381564708
 30
0.0
 10
267.6280182321041
 20
25.94244822434121
 30
0.0
 10
267.5375667740789
 20
25.96140501519964
 30
0.0
 10
267.4135487551023
 20
26.02453401928484
 30
0.0
 10
267.3037799170119
 20
26.12692821506277
 30
0.0
 10
267.2168083908373
 20
26.26987500329493
 30
0.0
 10
267.1601236958168
 20
26.45140846289105
 30
0.0
 10
267.1388566308678
 20
26.67489723547877
 30
0.0
 10
267.1620899546108
 20
26.93408569723122
 30
0.0
 10
267.2351732126655
 20
27.21659603248403
 30
0.0
 10
267.3500474547296
 20
27.49456565674922
 30
0.0
 10
267.4993221345075
 20
27.75755155996548
 30
0.0
 10
267.6103179080045
 20
27.91151462464794
 30
0.0
 10
267.7208284287378
 20
28.04951940819056
 30
0.0
 10
267.8690410546996
 20
28.23299992096948
 30
0.0
 10
268.1469381727649
 20
28.5794573701786
 30
0.0
 10
268.5688815965562
 20
29.10428834858498
 30
0.0
 10
268.8716759206863
 20
29.48086833967211
 30
0.0
  0
LINE
  5
1B8
330
1F
100
AcDbEntity
  8
0
  6
Continuous
 62
     7
370
    15
100
AcDbLine
 10
268.8715681905
 20
25.831256119
 30
0.0
 11
267.6726908889
 21
25.9384538156
 31
0.0
  0
LINE
  5
1B9
330
1F
100
AcDbEntity
  8
0
  6
Continuous
 62
     7
370
    15
100
AcDbLine
 10
244.6436672676
 20
31.5496320797
 30
0.0
 11
242.8158131489
 21
32.6048298019
 31
0.0
  0
SPLINE
  5
1BA
330
1F
100
AcDbEntity
  8
0
  6
Continuous
 62
     7
370
    15
100
AcDbSpline
210
0.0
220
0.0
230
1.0
 70
     8
 71
     3
 72
     8
 73
     4
 74
     0
 42
0.000000001
 43
0.00000001
 40
0.0000000000000004
 40
0.0000000000000004
 40
0.0000000000000004
 40
0.0000000000000004
 40
0.0011862984959127
 40
0.0011862984959127
 40
0.0011862984959127
 40
0.0011862984959127
 10
242.8158131488867
 20
32.60482980194034
 30
0.0
 10
242.8047509496291
 20
32.66693824685913
 30
0.0
 10
242.7941249430553
 20
32.72873103416073
 30
0.0
 10
242.783911815238
 20
32.79022386087863
 30
0.0
  0
LINE
  5
1BB
330
1F
100
AcDbEntity
  8
0
  6
Continuous
 62
     7
370
    15
100
AcDbLine
 10
242.8885982084
 20
33.3900048594
 30
0.0
 11
242.868704809
 21
33.1606590813
 31
0.0
  0
ARC
  5
1BC
330
1F
100
AcDbEntity
  8
0
  6
Continuous
 62
     7
370
    15
100
AcDbCircle
 10
258.8712702376
 20
31.7333604343
 30
0.0
 40
16.06285239185688
100
AcDbArc
 50
176.9224853833
 51
185.7271838377
  0
LWPOLYLINE
  5
1BD
330
1F
100
AcDbEntity
  8
0
  6
Continuous
 62
     7
370
    15
100
AcDbPolyline
 90
        3
 70
   128
 43
0.0
 10
241.8898098799
 20
32.4898765977
 10
241.9474541643
 20
33.8993308699
 10
241.9517746997
 20
33.9523415587
  0
ARC
  5
1BE
330
1F
100
AcDbEntity
  8
0
  6
Continuous
 62
     7
370
    15
100
AcDbCircle
 10
253.5862663633
 20
32.1875721352
 30
0.0
 40
11.70036248393278
100
AcDbArc
 50
178.5194734317
 51
203.8931641993
  0
SPLINE
  5
1BF
330
1F
100
AcDbEntity
  8
0
  6
Continuous
 62
     7
370
    15
100
AcDbSpline
210
0.0
220
0.0
230
1.0
 70
     8
 71
     3
 72
    14
 73
    10
 74
     0
 42
0.000000001
 43
0.00000001
 40
0.0
 40
0.0
 40
0.0
 40
0.0
 40
0.1563848029040019
 40
0.3173031759754172
 40
0.4736891181010204
 40
0.6346099158987978
 40
0.7910227059004641
 40
0.9519634369072034
 40
1.0
 40
1.0
 40
1.0
 40
1.0
 10
267.6019802108248
 20
26.20234404968144
 30
0.0
 10
267.5607763246325
 20
26.20916707474317
 30
0.0
 10
267.4771740582448
 20
26.2230109232607
 30
0.0
 10
267.3704778021825
 20
26.28438089855817
 30
0.0
 10
267.2800439032485
 20
26.37482561876672
 30
0.0
 10
267.2105653873842
 20
26.49274830475643
 30
0.0
 10
267.1654617481714
 20
26.63696334971836
 30
0.0
 10
267.144698243877
 20
26.75990217991507
 30
0.0
 10
267.1482374723501
 20
26.83808619605983
 30
0.0
 10
267.1490510170588
 20
26.85605796395246
 30
0.0
  0
SPLINE
  5
1C0
330
1F
100
AcDbEntity
  8
0
  6
Continuous
 62
     7
370
    15
100
AcDbSpline
210
0.0
220
0.0
230
1.0
 70
     8
 71
     3
 72
    12
 73
     8
 74
     0
 42
0.000000001
 43
0.00000001
 40
0.0
 40
0.0
 40
0.0
 40
0.0
 40
0.0255657195080925
 40
0.1915523108005575
 40
0.4550472023764245
 40
0.7242505814702955
 40
1.0
 40
1.0
 40
1.0
 40
1.0
 10
269.0229986731506
 20
29.69316175807103
 30
0.0
 10
269.0228874283918
 20
29.69243293347846
 30
0.0
 10
269.0220539220004
 20
29.68697218222405
 30
0.0
 10
269.0050097159806
 20
29.65842708999413
 30
0.0
 10
268.9715273256216
 20
29.60954461636922
 30
0.0
 10
268.9238324087208
 20
29.5463575967763
 30
0.0
 10
268.8892000859255
 20
29.50287220929858
 30
0.0
 10
268.8716759206862
 20
29.48086833967205
 30
0.0
  0
LINE
  5
1C1
330
1F
100
AcDbEntity
  8
0
  6
Continuous
 62
     7
370
    15
100
AcDbLine
 10
239.3933994173
 20
34.5805471949
 30
0.0
 11
238.9578643603
 21
34.9695117122
 31
0.0
  0
LINE
  5
1C2
330
1F
100
AcDbEntity
  8
0
  6
Continuous
 62
     7
370
    15
100
AcDbLine
 10
240.8500224759
 20
33.739656602
 30
0.0
 11
239.3933994173
 21
34.5805471949
 31
0.0
  0
SPLINE
  5
1C3
330
1F
100
AcDbEntity
  8
0
  6
Continuous
 62
     7
370
    15
100
AcDbSpline
210
0.0
220
0.0
230
1.0
 70
     8
 71
     3
 72
    16
 73
    12
 74
     0
 42
0.000000001
 43
0.00000001
 40
0.0
 40
0.0
 40
0.0
 40
0.0
 40
0.2500000000000008
 40
0.2500000000000008
 40
0.5000000000000016
 40
0.5000000000000016
 40
0.6249999999999979
 40
0.6249999999999979
 40
0.7499999999999943
 40
0.7499999999999943
 40
1.0
 40
1.0
 40
1.0
 40
1.0
 10
274.9589890143211
 20
32.99499542303113
 30
0.0
 10
274.9329937147152
 20
32.99731167386675
 30
0.0
 10
274.9050061943121
 20
32.99854332264663
 30
0.0
 10
274.8423544309766
 20
32.99737404916937
 30
0.0
 10
274.8073198959513
 20
32.99506148490195
 30
0.0
 10
274.7485291367085
 20
32.98539411864259
 30
0.0
 10
274.7275311318676
 20
32.98099219143818
 30
0.0
 10
274.6860224349987
 20
32.96938199514165
 30
0.0
 10
274.6662200934935
 20
32.96230427713193
 30
0.0
 10
274.6153098815342
 20
32.93977240737507
 30
0.0
 10
274.5931484435569
 20
32.92397709130737
 30
0.0
 10
274.576954257194
 20
32.90941365885882
 30
0.0
  0
SPLINE
  5
1C4
330
1F
100
AcDbEntity
  8
0
  6
Continuous
 62
     7
370
    15
100
AcDbSpline
210
0.0
220
0.0
230
1.0
 70
     8
 71
     3
 72
    10
 73
     6
 74
     0
 42
0.000000001
 43
0.00000001
 40
0.0
 40
0.0
 40
0.0
 40
0.0
 40
0.5
 40
0.5
 40
1.0
 40
1.0
 40
1.0
 40
1.0
 10
274.5769542571996
 20
32.90941365885635
 30
0.0
 10
274.5507614995716
 20
32.91886155472802
 30
0.0
 10
274.5246293109301
 20
32.92903563019959
 30
0.0
 10
274.4740198220277
 20
32.95109834614279
 30
0.0
 10
274.4502557357466
 20
32.96273793046
 30
0.0
 10
274.4302685655098
 20
32.97427627823706
 30
0.0
  0
LINE
  5
1C5
330
1F
100
AcDbEntity
  8
0
  6
Continuous
 62
     7
370
    15
100
AcDbLine
 10
273.9176613511
 20
33.4531298266
 30
0.0
 11
273.8296480995
 21
33.500111005
 31
0.0
  0
LINE
  5
1C6
330
1F
100
AcDbEntity
  8
0
  6
Continuous
 62
     7
370
    15
100
AcDbLine
 10
273.3117434965
 20
33.6199870563
 30
0.0
 11
274.4302685655
 21
32.9742762782
 31
0.0
  0
ARC
  5
1C7
330
1F
100
AcDbEntity
  8
0
  6
Continuous
 62
     7
370
    15
100
AcDbCircle
 10
266.3241005375
 20
33.1243224679
 30
0.0
 40
5.623462361597226
100
AcDbArc
 50
337.8116477182
 51
1.4783127627
  0
LINE
  5
1C8
330
1F
100
AcDbEntity
  8
0
  6
Continuous
 62
     7
370
    15
100
AcDbLine
 10
271.5311307626
 20
31.0006075232
 30
0.0
 11
274.4302685655
 21
29.3269708939
 31
0.0
  0
LINE
  5
1C9
330
1F
100
AcDbEntity
  8
0
  6
Continuous
 62
     7
370
    15
100
AcDbLine
 10
269.4180270542
 20
25.6586900651
 30
0.0
 11
269.5061063662
 21
25.6116763947
 31
0.0
  0
LINE
  5
1CA
330
1F
100
AcDbEntity
  8
0
  6
Continuous
 62
     7
370
    15
100
AcDbLine
 10
267.2233107836
 20
27.108604502
 30
0.0
 11
268.9054198398
 21
26.1375436135
 31
0.0
  0
LINE
  5
1CB
330
1F
100
AcDbEntity
  8
0
  6
Continuous
 62
     7
370
    15
100
AcDbLine
 10
242.8885982084
 20
33.3900048594
 30
0.0
 11
242.8885982084
 21
33.2448550923
 31
0.0
  0
LINE
  5
1CC
330
1F
100
AcDbEntity
  8
0
  6
Continuous
 62
     7
370
    15
100
AcDbLine
 10
242.8885982084
 20
32.5628118815
 30
0.0
 11
242.8885982084
 21
30.1304188361
 31
0.0
  0
LINE
  5
1CD
330
1F
100
AcDbEntity
  8
0
  6
Continuous
 62
     7
370
    15
100
AcDbLine
 10
242.8885982084
 20
33.5988945166
 30
0.0
 11
242.8885982084
 21
33.3900048594
 31
0.0
  0
LINE
  5
1CE
330
1F
100
AcDbEntity
  8
0
  6
Continuous
 62
     7
370
    15
100
AcDbLine
 10
242.8885982084
 20
30.1304188361
 30
0.0
 11
242.8885982084
 21
27.2604298159
 31
0.0
  0
LWPOLYLINE
  5
1CF
330
1F
100
AcDbEntity
  8
0
  6
Continuous
 62
     7
370
    15
100
AcDbPolyline
 90
       14
 70
   128
 43
0.0
 10
270.1258256706
 20
36.6795921816
 10
270.2158561695
 20
36.7603867329
 10
270.3691404723
 20
37.0244024343
 10
270.3468642281
 20
37.3025557099
 10
270.1520359672
 20
37.5572804186
 10
269.8109683257
 20
37.754174577
 10
269.3697243786
 20
37.866646538
 10
268.8878965659
 20
37.87950634
 10
268.4305584037
 20
37.7910171956
 10
268.0594759449
 20
37.6131300539
 10
267.8247659318
 20
37.3698695592
 10
267.7581272524
 20
37.0940893893
 10
267.8685598294
 20
36.8230351842
 10
268.0431694067
 20
36.6566002675
  0
LINE
  5
1D0
330
1F
100
AcDbEntity
  8
0
  6
Continuous
 62
     7
370
    15
100
AcDbLine
 10
268.9708661824
 20
26.0799450161
 30
0.0
 11
267.6019802108
 21
26.2023440497
 31
0.0
  0
SPLINE
  5
1D1
330
1F
100
AcDbEntity
  8
0
  6
Continuous
 62
     7
370
    15
100
AcDbSpline
210
0.0
220
0.0
230
1.0
 70
     8
 71
     3
 72
    16
 73
    12
 74
     0
 42
0.000000001
 43
0.00000001
 40
0.0
 40
0.0
 40
0.0
 40
0.0
 40
0.2500000000000018
 40
0.2500000000000018
 40
0.5000000000000036
 40
0.5000000000000036
 40
0.6250000000000068
 40
0.6250000000000068
 40
0.75000000000001
 40
0.75000000000001
 40
1.0
 40
1.0
 40
1.0
 40
1.0
 10
268.8715681904542
 20
25.83125611900154
 30
0.0
 10
268.8971256758168
 20
25.8289708946842
 30
0.0
 10
268.9221252130027
 20
25.82932547661484
 30
0.0
 10
268.9695236315805
 20
25.83977978929967
 30
0.0
 10
268.9917756466594
 20
25.84955364404052
 30
0.0
 10
269.0153750905075
 20
25.87986603932839
 30
0.0
 10
269.0214477421602
 20
25.89287145396369
 30
0.0
 10
269.0266145923509
 20
25.92525874668333
 30
0.0
 10
269.0254603039044
 20
25.9444685824317
 30
0.0
 10
269.0122407082661
 20
26.00387851276925
 30
0.0
 10
268.9925305229551
 20
26.04354155479832
 30
0.0
 10
268.9708661824308
 20
26.0799450160678
 30
0.0
  0
SPLINE
  5
1D2
330
1F
100
AcDbEntity
  8
0
  6
Continuous
 62
     7
370
    15
100
AcDbSpline
210
0.0
220
0.0
230
1.0
 70
     8
 71
     3
 72
     8
 73
     4
 74
     0
 42
0.000000001
 43
0.00000001
 40
0.0
 40
0.0
 40
0.0
 40
0.0
 40
1.0
 40
1.0
 40
1.0
 40
1.0
 10
268.9054198397848
 20
26.1375436134528
 30
0.0
 10
268.9454541394938
 20
26.1144323041688
 30
0.0
 10
268.9650175801849
 20
26.09461701979761
 30
0.0
 10
268.9708661824304
 20
26.07994501606904
 30
0.0
  0
SPLINE
  5
1D3
330
1F
100
AcDbEntity
  8
0
  6
Continuous
 62
     7
370
    15
100
AcDbSpline
210
0.0
220
0.0
230
1.0
 70
     8
 71
     3
 72
     8
 73
     4
 74
     0
 42
0.000000001
 43
0.00000001
 40
0.0
 40
0.0
 40
0.0
 40
0.0
 40
1.0
 40
1.0
 40
1.0
 40
1.0
 10
274.4302685655102
 20
29.32697089394552
 30
0.0
 10
274.47030286522
 20
29.3038595846611
 30
0.0
 10
274.5247998098708
 20
29.3042109828657
 30
0.0
 10
274.576954257217
 20
29.31627077451165
 30
0.0
  0
SPLINE
  5
1D4
330
1F
100
AcDbEntity
  8
0
  6
Continuous
 62
     7
370
    15
100
AcDbSpline
210
0.0
220
0.0
230
1.0
 70
     8
 71
     3
 72
    16
 73
    12
 74
     0
 42
0.000000001
 43
0.00000001
 40
0.0
 40
0.0
 40
0.0
 40
0.0
 40
0.2500000000000053
 40
0.2500000000000053
 40
0.3750000000000087
 40
0.3750000000000087
 40
0.500000000000012
 40
0.500000000000012
 40
0.750000000000006
 40
0.750000000000006
 40
1.0
 40
1.0
 40
1.0
 40
1.0
 10
274.5769542572203
 20
29.31627077451018
 30
0.0
 10
274.5930223238511
 20
29.27698755793038
 30
0.0
 10
274.6152778910431
 20
29.23809672193543
 30
0.0
 10
274.6657943035593
 20
29.20055373100277
 30
0.0
 10
274.6854075129667
 20
29.19217134482127
 30
0.0
 10
274.7267340109415
 20
29.18651138815874
 30
0.0
 10
274.7477278809456
 20
29.18911187578177
 30
0.0
 10
274.8068043959373
 20
29.20652681521003
 30
0.0
 10
274.8419658121118
 20
29.22989288509914
 30
0.0
 10
274.9048566293982
 20
29.2827848371909
 30
0.0
 10
274.933312621231
 20
29.3134375346116
 30
0.0
 10
274.9590949616742
 20
29.34551052101499
 30
0.0
  0
LINE
  5
1D5
330
1F
100
AcDbEntity
  8
0
  6
Continuous
 62
     7
370
    15
100
AcDbLine
 10
242.8158131489
 20
22.1122803692
 30
0.0
 11
244.6436672676
 21
21.057082647
 31
0.0
  0
SPLINE
  5
1D6
330
1F
100
AcDbEntity
  8
0
  6
Continuous
 62
     7
370
    15
100
AcDbSpline
210
0.0
220
0.0
230
1.0
 70
     8
 71
     3
 72
    14
 73
    10
 74
     0
 42
0.000000001
 43
0.00000001
 40
0.0
 40
0.0
 40
0.0
 40
0.0
 40
0.25
 40
0.25
 40
0.5
 40
0.5
 40
0.75
 40
0.75
 40
1.0
 40
1.0
 40
1.0
 40
1.0
 10
244.5981600272118
 20
20.9387146268797
 30
0.0
 10
244.5814851841454
 20
20.89534200877312
 30
0.0
 10
244.5611899412294
 20
20.85511167932727
 30
0.0
 10
244.512892962159
 20
20.78133979165513
 30
0.0
 10
244.484674114354
 20
20.74777018497802
 30
0.0
 10
244.4217487659308
 20
20.6942187793154
 30
0.0
 10
244.3865855899138
 20
20.67376274995574
 30
0.0
 10
244.3119026007054
 20
20.65633045644386
 30
0.0
 10
244.2733777254969
 20
20.66027776542876
 30
0.0
 10
244.2394340227997
 20
20.67987304789858
 30
0.0
  0
LINE
  5
1D7
330
1F
100
AcDbEntity
  8
0
  6
Continuous
 62
     7
370
    15
100
AcDbLine
 10
244.2394340228
 20
20.6798730479
 30
0.0
 11
242.7839118152
 21
21.520128133
 31
0.0
  0
SPLINE
  5
1D8
330
1F
100
AcDbEntity
  8
0
  6
Continuous
 62
     7
370
    15
100
AcDbSpline
210
0.0
220
0.0
230
1.0
 70
     8
 71
     3
 72
     8
 73
     4
 74
     0
 42
0.000000001
 43
0.00000001
 40
0.0
 40
0.0
 40
0.0
 40
0.0
 40
0.0011862984959112
 40
0.0011862984959112
 40
0.0011862984959112
 40
0.0011862984959112
 10
242.783911815238
 20
21.5201281329916
 30
0.0
 10
242.7941249430553
 20
21.71752703488053
 30
0.0
 10
242.8047509496305
 20
21.91491287185731
 30
0.0
 10
242.8158131488881
 20
22.11228036920765
 30
0.0
  0
SPLINE
  5
1D9
330
1F
100
AcDbEntity
  8
0
  6
Continuous
 62
     7
370
    15
100
AcDbSpline
210
0.0
220
0.0
230
1.0
 70
     8
 71
     3
 72
     9
 73
     5
 74
     0
 42
0.000000001
 43
0.00000001
 40
0.0
 40
0.0
 40
0.0
 40
0.0
 40
0.4738950795845458
 40
0.9999999999999999
 40
0.9999999999999999
 40
0.9999999999999999
 40
0.9999999999999999
 10
277.4010534571702
 20
39.77728474446251
 30
0.0
 10
277.3981337166446
 20
39.77897317902591
 30
0.0
 10
277.3919725627281
 20
39.78253606590982
 30
0.0
 10
277.3583124781206
 20
39.80197467713424
 30
0.0
 10
277.340603741987
 20
39.81220142614546
 30
0.0
  0
ARC
  5
1DA
330
1F
100
AcDbEntity
  8
0
  6
Continuous
 62
     7
370
    15
100
AcDbCircle
 10
253.124296923
 20
22.6406506828
 30
0.0
 40
9.057731376289553
100
AcDbArc
 50
196.6295517786
 51
281.9312226683
  0
SPLINE
  5
1DB
330
1F
100
AcDbEntity
  8
0
  6
Continuous
 62
     7
370
    15
100
AcDbSpline
210
0.0
220
0.0
230
1.0
 70
     8
 71
     3
 72
     8
 73
     4
 74
     0
 42
0.000000001
 43
0.00000001
 40
0.0
 40
0.0
 40
0.0
 40
0.0
 40
1.0
 40
1.0
 40
1.0
 40
1.0
 10
243.0619315026375
 20
22.60951852379452
 30
0.0
 10
242.9797333218518
 20
22.44379819729104
 30
0.0
 10
242.8976989536999
 20
22.27805132195308
 30
0.0
 10
242.8158131488881
 20
22.11228036920765
 30
0.0
  0
LINE
  5
1DC
330
1F
100
AcDbEntity
  8
0
  6
Continuous
 62
     7
370
    15
100
AcDbLine
 10
243.110950945
 20
22.6378168455
 30
0.0
 11
243.0619315026
 21
22.6095185238
 31
0.0
  0
SPLINE
  5
1DD
330
1F
100
AcDbEntity
  8
0
  6
Continuous
 62
     7
370
    15
100
AcDbSpline
210
0.0
220
0.0
230
1.0
 70
     8
 71
     3
 72
    12
 73
     8
 74
     0
 42
0.000000001
 43
0.00000001
 40
0.0
 40
0.0
 40
0.0
 40
0.0
 40
0.249999999999997
 40
0.249999999999997
 40
0.499999999999994
 40
0.499999999999994
 40
1.0
 40
1.0
 40
1.0
 40
1.0
 10
243.122733190422
 20
22.97118183575565
 30
0.0
 10
243.1603319749966
 20
22.94947651943136
 30
0.0
 10
243.190509534243
 20
22.92267464885819
 30
0.0
 10
243.2290992689239
 20
22.8650509440282
 30
0.0
 10
243.2379587541137
 20
22.83400281845682
 30
0.0
 10
243.2329113202754
 20
22.74181384205152
 30
0.0
 10
243.1862090332001
 20
22.68126241507667
 30
0.0
 10
243.1109509450018
 20
22.63781684552472
 30
0.0
  0
LINE
  5
1DE
330
1F
100
AcDbEntity
  8
0
  6
Continuous
 62
     7
370
    15
100
AcDbLine
 10
242.3378446633
 20
23.4242883378
 30
0.0
 11
243.1227331904
 21
22.9711818358
 31
0.0
  0
SPLINE
  5
1DF
330
1F
100
AcDbEntity
  8
0
  6
Continuous
 62
     7
370
    15
100
AcDbSpline
210
0.0
220
0.0
230
1.0
 70
     8
 71
     3
 72
    10
 73
     6
 74
     0
 42
0.000000001
 43
0.00000001
 40
0.0
 40
0.0
 40
0.0
 40
0.0
 40
0.5
 40
0.5
 40
1.0
 40
1.0
 40
1.0
 40
1.0
 10
241.7603769929355
 20
23.41748659231541
 30
0.0
 10
241.8365143832741
 20
23.46143977218813
 30
0.0
 10
241.9400221639584
 20
23.48792643836691
 30
0.0
 10
242.1545174560442
 20
23.49175450875425
 30
0.0
 10
242.2619477004624
 20
23.46810272185084
 30
0.0
 10
242.3378446633049
 20
23.42428833781726
 30
0.0
  0
LINE
  5
1E0
330
1F
100
AcDbEntity
  8
0
  6
Continuous
 62
     7
370
    15
100
AcDbLine
 10
241.7113575506
 20
23.3891882706
 30
0.0
 11
241.7603769929
 21
23.4174865923
 31
0.0
  0
SPLINE
  5
1E1
330
1F
100
AcDbEntity
  8
0
  6
Continuous
 62
     7
370
    15
100
AcDbSpline
210
0.0
220
0.0
230
1.0
 70
     8
 71
     3
 72
     8
 73
     4
 74
     0
 42
0.000000001
 43
0.00000001
 40
0.0
 40
0.0
 40
0.0
 40
0.0
 40
1.0
 40
1.0
 40
1.0
 40
1.0
 10
240.8500224759167
 20
23.24710716924715
 30
0.0
 10
241.137177302314
 20
23.29437883815917
 30
0.0
 10
241.4242904208992
 20
23.34173627086191
 30
0.0
 10
241.7113575505712
 20
23.38918827058521
 30
0.0
  0
LINE
  5
1E2
330
1F
100
AcDbEntity
  8
0
  6
Continuous
 62
     7
370
    15
100
AcDbLine
 10
239.3933994173
 20
24.0879977621
 30
0.0
 11
240.8500224759
 21
23.2471071692
 31
0.0
  0
LINE
  5
1E3
330
1F
100
AcDbEntity
  8
0
  6
Continuous
 62
     7
370
    15
100
AcDbLine
 10
239.3933994173
 20
24.0879977621
 30
0.0
 11
242.5350448178
 21
25.9016310475
 31
0.0
  0
ARC
  5
1E4
330
1F
100
AcDbEntity
  8
0
  6
Continuous
 62
     7
370
    15
100
AcDbCircle
 10
252.3653997243
 20
23.9852060882
 30
0.0
 40
9.893508976915506
100
AcDbArc
 50
194.4278782157
 51
238.0157127201
  0
SPLINE
  5
1E5
330
1F
100
AcDbEntity
  8
0
  6
Continuous
 62
     7
370
    15
100
AcDbSpline
210
0.0
220
0.0
230
1.0
 70
     8
 71
     3
 72
    22
 73
    18
 74
     0
 42
0.000000001
 43
0.00000001
 40
0.0
 40
0.0
 40
0.0
 40
0.0
 40
0.125
 40
0.125
 40
0.25
 40
0.25
 40
0.375
 40
0.375
 40
0.5
 40
0.5
 40
0.625
 40
0.625
 40
0.75
 40
0.75
 40
0.875
 40
0.875
 40
1.0
 40
1.0
 40
1.0
 40
1.0
 10
275.9458402288261
 20
31.01915190943541
 30
0.0
 10
276.0132695867542
 20
31.10303338965916
 30
0.0
 10
276.0742023409791
 20
31.1922260584313
 30
0.0
 10
276.1819996105445
 20
31.38175228657015
 30
0.0
 10
276.228607640277
 20
31.48170058030254
 30
0.0
 10
276.3024805445202
 20
31.68120546119672
 30
0.0
 10
276.3306652572256
 20
31.78357784878835
 30
0.0
 10
276.3667876077979
 20
31.98012643376207
 30
0.0
 10
276.3752375970153
 20
32.07596722276698
 30
0.0
 10
276.3729650883807
 20
32.25611885339082
 30
0.0
 10
276.3625119358252
 20
32.33848321027477
 30
0.0
 10
276.3235573509992
 20
32.48749648880592
 30
0.0
 10
276.2952191910056
 20
32.55244586544205
 30
0.0
 10
276.2225420155181
 20
32.65953592246176
 30
0.0
 10
276.1773304125759
 20
32.70245718602862
 30
0.0
 10
276.0732577651644
 20
32.7626788828287
 30
0.0
 10
276.01327664467
 20
32.78098479600509
 30
0.0
 10
275.945840224692
 20
32.78701462762162
 30
0.0
  0
LINE
  5
1E6
330
1F
100
AcDbEntity
  8
0
  6
Continuous
 62
     7
370
    15
100
AcDbLine
 10
275.9458402247
 20
32.7870146276
 30
0.0
 11
274.5769542572
 21
32.9094136589
 31
0.0
  0
ELLIPSE
  5
1E7
330
1F
100
AcDbEntity
  8
0
  6
Continuous
 62
     7
370
    15
100
AcDbEllipse
 10
242.2421515989
 20
26.8872555156
 30
0.0
 11
-7.507462979106094E-5
 21
1.066811201853401
 31
0.0
210
0.0
220
0.0
230
1.0
 40
0.7174342186
 41
3.534193645557477
 42
5.104989972352388
  0
SPLINE
  5
1E8
330
1F
100
AcDbEntity
  8
0
  6
Continuous
 62
     7
370
    15
100
AcDbSpline
210
0.0
220
0.0
230
1.0
 70
     8
 71
     3
 72
    10
 73
     6
 74
     0
 42
0.000000001
 43
0.00000001
 40
0.0
 40
0.0
 40
0.0
 40
0.0
 40
0.3482864793192263
 40
0.7262033671299868
 40
1.0
 40
1.0
 40
1.0
 40
1.0
 10
274.2311062844487
 20
40.72400589543123
 30
0.0
 10
274.2737540355954
 20
40.72409369936005
 30
0.0
 10
274.362677787513
 20
40.72427677712084
 30
0.0
 10
274.4786353794817
 20
40.75249942755828
 30
0.0
 10
274.538628272161
 20
40.78255282629036
 30
0.0
 10
274.5638323710334
 20
40.7951788024563
 30
0.0
  0
ARC
  5
1E9
330
1F
100
AcDbEntity
  8
0
  6
Continuous
 62
     7
370
    15
100
AcDbCircle
 10
252.2215382433
 20
26.2773131294
 30
0.0
 40
10.89977813506385
100
AcDbArc
 50
195.3652282392
 51
215.9036224404
  0
ARC
  5
1EA
330
1F
100
AcDbEntity
  8
0
  6
Continuous
 62
     7
370
    15
100
AcDbCircle
 10
249.6177482301
 20
25.0098029418
 30
0.0
 40
9.374608857525239
100
AcDbArc
 50
193.3832832944
 51
247.535346068
  0
SPLINE
  5
1EB
330
1F
100
AcDbEntity
  8
0
  6
Continuous
 62
     7
370
    15
100
AcDbSpline
210
0.0
220
0.0
230
1.0
 70
     8
 71
     3
 72
     8
 73
     4
 74
     0
 42
0.000000001
 43
0.00000001
 40
0.0000000000000004
 40
0.0000000000000004
 40
0.0000000000000004
 40
0.0000000000000004
 40
0.0011862984959127
 40
0.0011862984959127
 40
0.0011862984959127
 40
0.0011862984959127
 10
240.8500224759171
 20
23.24710716924618
 30
0.0
 10
240.7328720069221
 20
23.11098312641142
 30
0.0
 10
240.615432256485
 20
22.97525955124849
 30
0.0
 10
240.4977213886403
 20
22.83991777375402
 30
0.0
  0
LINE
  5
1EC
330
1F
100
AcDbEntity
  8
0
  6
Continuous
 62
     7
370
    15
100
AcDbLine
 10
238.9578643603
 20
23.8365166845
 30
0.0
 11
239.3933994173
 21
24.0879977621
 31
0.0
  0
LINE
  5
1ED
330
1F
100
AcDbEntity
  8
0
  6
Continuous
 62
     7
370
    15
100
AcDbLine
 10
240.4977213886
 20
22.8399177738
 30
0.0
 11
239.0598768506
 21
23.6699677574
 31
0.0
  0
SPLINE
  5
1EE
330
1F
100
AcDbEntity
  8
0
  6
Continuous
 62
     7
370
    15
100
AcDbSpline
210
0.0
220
0.0
230
1.0
 70
     8
 71
     3
 72
    10
 73
     6
 74
     0
 42
0.000000001
 43
0.00000001
 40
0.0
 40
0.0
 40
0.0
 40
0.0
 40
0.5
 40
0.5
 40
1.0
 40
1.0
 40
1.0
 40
1.0
 10
239.0598768506082
 20
23.66996775744926
 30
0.0
 10
239.0334674213275
 20
23.68521359645618
 30
0.0
 10
239.0111840171184
 20
23.70907101886844
 30
0.0
 10
238.9770768822969
 20
23.76699711060272
 30
0.0
 10
238.9651768522421
 20
23.80089564208357
 30
0.0
 10
238.9578643602853
 20
23.83651668453793
 30
0.0
  0
ARC
  5
1EF
330
1F
100
AcDbEntity
  8
0
  6
Continuous
 62
     7
370
    15
100
AcDbCircle
 10
248.5175598207
 20
26.0017735276
 30
0.0
 40
9.714951532054576
100
AcDbArc
 50
197.7027870557
 51
238.2187000398
  0
ARC
  5
1F0
330
1F
100
AcDbEntity
  8
0
  6
Continuous
 62
     7
370
    15
100
AcDbCircle
 10
271.3287368887
 20
34.0562446764
 30
0.0
 40
2.07219965065186
100
AcDbArc
 50
321.0658596266
 51
347.226892773
  0
LINE
  5
1F1
330
1F
100
AcDbEntity
  8
0
  6
Continuous
 62
     7
370
    15
100
AcDbLine
 10
274.5769542572
 20
29.3162707745
 30
0.0
 11
275.9458402288
 21
31.0191519094
 31
0.0
  0
LINE
  5
1F2
330
1F
100
AcDbEntity
  8
0
  6
Continuous
 62
     7
370
    15
100
AcDbLine
 10
271.5311307626
 20
31.0006075232
 30
0.0
 11
272.9406364088
 21
32.7540191471
 31
0.0
  0
ELLIPSE
  5
1F3
330
1F
100
AcDbEntity
  8
0
  6
Continuous
 62
     7
370
    15
100
AcDbEllipse
 10
242.1814914272
 20
26.8522257599
 30
0.0
 11
0.3250094736511642
 21
1.213179526238665
 31
0.0
210
0.0
220
0.0
230
1.0
 40
0.5176380889
 41
3.619174351347722
 42
5.189970678142622
  0
SPLINE
  5
1F4
330
1F
100
AcDbEntity
  8
0
  6
Continuous
 62
     7
370
    15
100
AcDbSpline
210
0.0
220
0.0
230
1.0
 70
     8
 71
     3
 72
    12
 73
     8
 74
     0
 42
0.000000001
 43
0.00000001
 40
0.0
 40
0.0
 40
0.0
 40
0.0
 40
0.5000000000000003
 40
0.5000000000000003
 40
0.7500000000000001
 40
0.7500000000000001
 40
1.0
 40
1.0
 40
1.0
 40
1.0
 10
268.7153485161606
 20
58.85654906095873
 30
0.0
 10
268.7784083933902
 20
58.89295275320899
 30
0.0
 10
268.8583413466213
 20
58.91978406506057
 30
0.0
 10
268.9913205349279
 20
58.9335409065711
 30
0.0
 10
269.03699170404
 20
58.93341977277218
 30
0.0
 10
269.1246295226775
 20
58.92064539115054
 30
0.0
 10
269.1653734335316
 20
58.90780540549577
 30
0.0
 10
269.1968871158702
 20
58.88961294391913
 30
0.0
  0
LINE
  5
1F5
330
1F
100
AcDbEntity
  8
0
  6
Continuous
 62
     7
370
    15
100
AcDbLine
 10
269.1968871159
 20
58.8896129439
 30
0.0
 11
269.8565555273
 21
58.5087944759
 31
0.0
  0
LINE
  5
1F6
330
1F
100
AcDbEntity
  8
0
  6
Continuous
 62
     7
370
    15
100
AcDbLine
 10
271.5264228464
 20
56.4339985471
 30
0.0
 11
272.9209220805
 21
56.7397733195
 31
0.0
  0
LINE
  5
1F7
330
1F
100
AcDbEntity
  8
0
  6
Continuous
 62
     7
370
    15
100
AcDbLine
 10
272.9209220805
 20
56.7397733195
 30
0.0
 11
274.3764442881
 21
55.8995182344
 31
0.0
  0
SPLINE
  5
1F8
330
1F
100
AcDbEntity
  8
0
  6
Continuous
 62
     7
370
    15
100
AcDbSpline
210
0.0
220
0.0
230
1.0
 70
     8
 71
     3
 72
    12
 73
     8
 74
     0
 42
0.000000001
 43
0.00000001
 40
0.0
 40
0.0
 40
0.0
 40
0.0
 40
0.250000000000004
 40
0.250000000000004
 40
0.500000000000008
 40
0.500000000000008
 40
1.0
 40
1.0
 40
1.0
 40
1.0
 10
274.3764442880619
 20
55.89951823436835
 30
0.0
 10
274.408100418562
 20
55.88124353921842
 30
0.0
 10
274.430399695572
 20
55.85741942842014
 30
0.0
 10
274.452220266164
 20
55.80738752597243
 30
0.0
 10
274.4525010284902
 20
55.78099631755854
 30
0.0
 10
274.4291336543694
 20
55.70492108756363
 30
0.0
 10
274.3820952515644
 20
55.65785803261321
 30
0.0
 10
274.3191697570641
 20
55.62153191786123
 30
0.0
  0
LINE
  5
1F9
330
1F
100
AcDbEntity
  8
0
  6
Continuous
 62
     7
370
    15
100
AcDbLine
 10
268.7153485162
 20
58.856549061
 30
0.0
 11
268.6235580973
 21
58.80355958
 31
0.0
  0
SPLINE
  5
1FA
330
1F
100
AcDbEntity
  8
0
  6
Continuous
 62
     7
370
    15
100
AcDbSpline
210
0.0
220
0.0
230
1.0
 70
     8
 71
     3
 72
    13
 73
     9
 74
     0
 42
0.000000001
 43
0.00000001
 40
0.0
 40
0.0
 40
0.0
 40
0.0
 40
0.1983880690811324
 40
0.402380381055909
 40
0.600865549171889
 40
0.8061397775671312
 40
0.9876989507751133
 40
0.9999999999999999
 40
0.9999999999999999
 40
0.9999999999999999
 40
0.9999999999999999
 10
277.340603741987
 20
50.54559259953475
 30
0.0
 10
277.3505270997551
 20
50.56440104960271
 30
0.0
 10
277.370654139141
 20
50.60254926759016
 30
0.0
 10
277.3902976032338
 20
50.66344966428142
 30
0.0
 10
277.4016515879267
 20
50.72608236561758
 30
0.0
 10
277.4012626295952
 20
50.78506584836965
 30
0.0
 10
277.3969095736859
 20
50.82494230519098
 30
0.0
 10
277.3901879141522
 20
50.84178717070547
 30
0.0
 10
277.3897614034233
 20
50.84285603113118
 30
0.0
  0
ARC
  5
1FB
330
1F
100
AcDbEntity
  8
0
  6
Continuous
 62
     7
370
    15
100
AcDbCircle
 10
267.2758662058
 20
48.4150578086
 30
0.0
 40
10.31675127969026
100
AcDbArc
 50
20.1389534596
 51
46.5076930503
  0
LWPOLYLINE
  5
1FC
330
1F
100
AcDbEntity
  8
0
  6
Continuous
 62
     7
370
    15
100
AcDbPolyline
 90
        3
 70
   128
 43
0.0
 10
271.5264228464
 20
57.1149890332
 10
271.5648770516
 20
57.0675243517
 10
271.9505228281
 20
56.5535454225
  0
LINE
  5
1FD
330
1F
100
AcDbEntity
  8
0
  6
Continuous
 62
     7
370
    15
100
AcDbLine
 10
277.2363218583
 20
39.8724216464
 30
0.0
 11
275.3719185184
 21
40.9487187849
 31
0.0
  0
LINE
  5
1FE
330
1F
100
AcDbEntity
  8
0
  6
Continuous
 62
     7
370
    15
100
AcDbLine
 10
274.563832371
 20
40.7951788025
 30
0.0
 11
274.6128518134
 21
40.8234771242
 31
0.0
  0
SPLINE
  5
1FF
330
1F
100
AcDbEntity
  8
0
  6
Continuous
 62
     7
370
    15
100
AcDbSpline
210
0.0
220
0.0
230
1.0
 70
     8
 71
     3
 72
     8
 73
     4
 74
     0
 42
0.000000001
 43
0.00000001
 40
0.0
 40
0.0
 40
0.0
 40
0.0
 40
1.0
 40
1.0
 40
1.0
 40
1.0
 10
274.6128518133978
 20
40.8234771241865
 30
0.0
 10
274.8658377670786
 20
40.86529552888433
 30
0.0
 10
275.1188610294259
 20
40.90704073345972
 30
0.0
 10
275.3719185184306
 20
40.94871878485682
 30
0.0
  0
LWPOLYLINE
  5
200
330
1F
100
AcDbEntity
  8
0
  6
Continuous
 62
     7
370
     0
100
AcDbPolyline
 90
       22
 70
   128
 43
0.0
 10
244.2394340228
 20
31.9499687758
 10
244.6881704764
 20
33.7333891817
 10
245.2421896714
 20
35.5306904777
 10
245.8978625227
 20
37.3300994985
 10
246.650894066
 20
39.1198292721
 10
247.4963515919
 20
40.8881562302
 10
248.4286969577
 20
42.623497003
 10
249.4418228644
 20
44.3144842956
 10
250.5290928629
 20
45.9500413491
 10
251.6833848254
 20
47.5194544988
 10
252.8971375989
 20
49.0124433534
 10
254.1624005341
 20
50.4192281366
 10
255.4708855663
 20
51.7305937492
 10
256.8140215055
 20
52.9379501321
 10
258.1830101822
 20
54.0333885356
 10
259.5688840794
 20
55.0097333249
 10
260.9625650739
 20
55.8605889844
 10
262.3549239025
 20
56.580382011
 10
263.7368399625
 20
57.1643974232
 10
265.0992610565
 20
57.6088096465
 10
266.4332626882
 20
57.9107075726
 10
266.5377596535
 20
57.9285153686
  0
LINE
  5
201
330
1F
100
AcDbEntity
  8
0
  6
Continuous
 62
     7
370
     0
100
AcDbLine
 10
244.5981600272
 20
31.6154585584
 30
0.0
 11
244.7269599837
 21
32.1910356173
 31
0.0
  0
LWPOLYLINE
  5
202
330
1F
100
AcDbEntity
  8
0
  6
Continuous
 62
     7
370
     0
100
AcDbPolyline
 90
       11
 70
   128
 43
0.0
 10
259.4463357647
 20
54.417534144
 10
259.8219582792
 20
54.6686121311
 10
261.2139489201
 20
55.5152180533
 10
262.6043247563
 20
56.2293065108
 10
263.9837733281
 20
56.8060946817
 10
265.3430553643
 20
57.241719354
 10
266.6730666654
 20
57.5332628007
 10
267.9648990812
 20
57.6787723218
 10
269.209900176
 20
57.6772733238
 10
270.3997311813
 20
57.5287758466
 10
271.5264228464
 20
57.2342744966
  0
ARC
  5
203
330
1F
100
AcDbEntity
  8
0
  6
Continuous
 62
     7
370
     0
100
AcDbCircle
 10
242.9458698048
 20
47.2913781583
 30
0.0
 40
35.19851995754096
100
AcDbArc
 50
341.3595410622
 51
347.7319485111
  0
LWPOLYLINE
  5
204
330
1F
100
AcDbEntity
  8
0
  6
Continuous
 62
     7
370
     0
100
AcDbPolyline
 90
       22
 70
   128
 43
0.0
 10
268.3674014141
 20
22.3032766046
 10
267.2078379219
 20
21.0480890333
 10
265.8650743112
 20
19.7358937322
 10
264.4881871439
 20
18.5352583457
 10
263.0867802982
 20
17.4545573844
 10
261.6706286789
 20
16.5013288084
 10
260.2496100364
 20
15.6822214497
 10
258.8336360689
 20
15.0029486356
 10
257.4325832878
 20
14.4682483387
 10
256.0562241281
 20
14.0818501287
 10
254.7141587853
 20
13.8464491584
 10
253.4157482531
 20
13.7636873649
 10
252.1700490303
 20
13.8341420173
 10
250.9857499506
 20
14.0573216898
 10
249.8711115778
 20
14.4316696894
 10
248.8339085877
 20
14.9545749143
 10
247.8813755391
 20
15.6223900662
 10
247.0201564126
 20
16.4304570908
 10
246.2562582681
 20
17.3731396674
 10
245.5950093453
 20
18.4438625232
 10
245.0410218987
 20
19.6351572961
 10
244.5981600272
 20
20.9387146269
  0
ARC
  5
205
330
1F
100
AcDbEntity
  8
0
  6
Continuous
 62
     7
370
     0
100
AcDbCircle
 10
267.1604674012
 20
47.923122662
 30
0.0
 40
10.51249373319204
100
AcDbArc
 50
14.4456909384
 51
47.0804404646
  0
LWPOLYLINE
  5
206
330
1F
100
AcDbEntity
  8
0
  6
Continuous
 62
     7
370
     0
100
AcDbPolyline
 90
       25
 70
   128
 43
0.0
 10
253.9017863253
 20
31.6479557324
 10
253.9598396943
 20
32.7256384432
 10
254.1330465666
 20
33.8526526268
 10
254.4185628901
 20
35.0104927415
 10
254.8117004946
 20
36.1801470846
 10
255.3060040716
 20
37.3424099641
 10
255.8933571701
 20
38.4781970556
 10
256.5641154683
 20
39.5688587666
 10
257.3072651335
 20
40.5964864619
 10
258.1106036689
 20
41.5442065232
 10
258.9609402778
 20
42.3964574132
 10
259.8443124567
 20
43.1392451958
 10
260.7462152587
 20
43.7603733163
 10
261.6518394649
 20
44.2496428681
 10
262.5463147508
 20
44.5990200586
 10
263.4149538569
 20
44.802768124
 10
264.2434937531
 20
44.8575415268
 10
265.0183298372
 20
44.7624408892
 10
265.7267393222
 20
44.519027761
 10
266.3570901439
 20
44.1312989791
 10
266.8990319592
 20
43.6056210392
 10
267.3436660985
 20
42.9506255588
 10
267.6836916816
 20
42.1770675454
 10
267.9135254976
 20
41.2976488003
 10
267.97277285
 20
40.9263833218
  0
LWPOLYLINE
  5
207
330
1F
100
AcDbEntity
  8
0
  6
Continuous
 62
     7
370
     0
100
AcDbPolyline
 90
       13
 70
   128
 43
0.0
 10
259.9734229889
 20
27.0696015237
 10
259.8443124567
 20
27.0177608977
 10
258.9609402778
 20
26.7406288722
 10
258.1106036689
 20
26.6111020113
 10
257.3072651335
 20
26.6313071423
 10
256.5641154683
 20
26.8009124976
 10
255.8933571701
 20
27.1171331619
 10
255.3060040716
 20
27.5747768008
 10
254.8117004946
 20
28.1663289182
 10
254.4185628901
 20
28.8820762447
 10
254.1330465666
 20
29.7102662291
 10
253.9598396943
 20
30.6373000147
 10
253.9017863253
 20
31.6479557324
  0
LWPOLYLINE
  5
208
330
1F
100
AcDbEntity
  8
0
  6
Continuous
 62
     7
370
     0
100
AcDbPolyline
 90
       22
 70
   128
 43
0.0
 10
239.0598768506
 20
34.9400634853
 10
239.5086133042
 20
36.7234838912
 10
240.0626324992
 20
38.5207851872
 10
240.7183053505
 20
40.320194208
 10
241.4713368938
 20
42.1099239816
 10
242.3167944197
 20
43.8782509398
 10
243.2491397855
 20
45.6135917125
 10
244.2622656922
 20
47.3045790051
 10
245.3495356907
 20
48.9401360586
 10
246.5038276532
 20
50.5095492083
 10
247.7175804267
 20
52.0025380629
 10
248.9828433619
 20
53.4093228462
 10
250.2913283941
 20
54.7206884587
 10
251.6344643333
 20
55.9280448417
 10
253.00345301
 20
57.0234832451
 10
254.3893269072
 20
57.9998280344
 10
255.7830079018
 20
58.8506836939
 10
257.1753667303
 20
59.5704767205
 10
258.5572827903
 20
60.1544921327
 10
259.9197038843
 20
60.598904356
 10
261.253705516
 20
60.9008022822
 10
261.3584763084
 20
60.9186555949
  0
LWPOLYLINE
  5
209
330
1F
100
AcDbEntity
  8
0
  6
Continuous
 62
     7
370
     0
100
AcDbPolyline
 90
       20
 70
   128
 43
0.0
 10
242.3378446633
 20
33.9168377705
 10
242.790723305
 20
35.7061140062
 10
243.3567983097
 20
37.5095449224
 10
244.0317918283
 20
39.3135019272
 10
244.8106029107
 20
41.1043524531
 10
245.6873460536
 20
42.8685629788
 10
246.655395678
 20
44.5928013021
 10
247.707436198
 20
46.2640372926
 10
248.835517306
 20
47.8696413601
 10
250.0311140528
 20
49.3974798973
 10
251.2851912709
 20
50.8360069738
 10
252.588271854
 20
52.1743515891
 10
253.9305083757
 20
53.4023998252
 10
255.3017575065
 20
54.5108712775
 10
256.6916566677
 20
55.4913891877
 10
258.0897023419
 20
56.3365437471
 10
259.4853294478
 20
57.0399480923
 10
260.8679911815
 20
57.5962865715
 10
262.227238719
 20
58.0013549151
 10
262.353721155
 20
58.0316013376
  0
LWPOLYLINE
  5
20A
330
1F
100
AcDbEntity
  8
0
  6
Continuous
 62
     7
370
     0
100
AcDbPolyline
 90
       22
 70
   128
 43
0.0
 10
241.7603769929
 20
33.910036025
 10
242.2118495653
 20
35.7205026131
 10
242.7776232636
 20
37.5460991824
 10
243.4534644574
 20
39.3731649684
 10
244.2343158916
 20
41.1880282125
 10
245.1143345297
 20
42.9771084666
 10
246.0869352762
 20
44.7270182143
 10
247.1448402529
 20
46.4246630482
 10
248.2801332578
 20
48.0573396543
 10
249.4843190022
 20
49.6128308698
 10
250.7483866791
 20
51.0794971027
 10
252.062877391
 20
52.4463634296
 10
253.4179549297
 20
53.7032017208
 10
254.8034793794
 20
54.8406071753
 10
256.2090829932
 20
55.850068697
 10
257.6242477737
 20
56.7240325817
 10
259.0383841781
 20
57.4559590414
 10
260.440910359
 20
58.0403711403
 10
261.8213313471
 20
58.4728957786
 10
263.169317584
 20
58.7502964157
 10
264.4747822178
 20
58.8704972892
 10
265.5998406409
 20
58.8439487883
  0
ARC
  5
20B
330
1F
100
AcDbEntity
  8
0
  6
Continuous
 62
     7
370
     0
100
AcDbCircle
 10
260.6964299839
 20
31.2361651677
 30
0.0
 40
3.987536214561513
100
AcDbArc
 50
174.0725302334
 51
234.6152893732
  0
LWPOLYLINE
  5
20C
330
1F
100
AcDbEntity
  8
0
  6
Continuous
 62
     7
370
     0
100
AcDbPolyline
 90
       18
 70
   128
 43
0.0
 10
266.3867426301
 20
41.8419790787
 10
266.0915194252
 20
41.9889256091
 10
265.4453940052
 20
42.1744651171
 10
264.7370098812
 20
42.2121941093
 10
263.980787711
 20
42.1013445322
 10
263.1921219972
 20
41.8441729635
 10
262.3870676996
 20
41.4459146748
 10
261.5820134019
 20
40.9146770563
 10
260.7933476882
 20
40.261274574
 10
260.037125518
 20
39.4990086182
 10
259.3287413939
 20
38.6433967255
 10
258.6826159739
 20
37.7118566867
 10
258.1119025083
 20
36.7233519706
 10
257.6282190775
 20
35.6980056827
 10
257.2414120812
 20
34.6566909164
 10
256.9593557944
 20
33.6206058377
 10
256.7877920698
 20
32.6108421507
 10
256.7302134501
 20
31.6479557324
  0
LWPOLYLINE
  5
20D
330
1F
100
AcDbEntity
  8
0
  6
Continuous
 62
     7
370
     0
100
AcDbPolyline
 90
       13
 70
   128
 43
0.0
 10
268.8715681905
 20
25.831256119
 10
269.2078218154
 20
25.4193554642
 10
269.6335053813
 20
25.1393674789
 10
270.1345584194
 20
25.0005402587
 10
270.6944309825
 20
25.0074593125
 10
271.2946302952
 20
25.1598961016
 10
271.9153315761
 20
25.4528155886
 10
272.5360328569
 20
25.8765425462
 10
273.1362321696
 20
26.4170811331
 10
273.6961047328
 20
27.0565771815
 10
274.1971577709
 20
27.7739079257
 10
274.6228413367
 20
28.5453796946
 10
274.9590949617
 20
29.345510521
  0
LWPOLYLINE
  5
20E
330
1F
100
AcDbEntity
  8
0
  6
Continuous
 62
     7
370
     0
100
AcDbPolyline
 90
       13
 70
   128
 43
0.0
 10
274.9589890143
 20
32.994995423
 10
274.6227239253
 20
33.4068281955
 10
274.1970438165
 20
33.6867610672
 10
273.696007306
 20
33.8255489046
 10
273.1361617516
 20
33.8186080659
 10
272.5359967531
 20
33.6661677809
 10
271.9153335106
 20
33.3732625807
 10
271.2946702042
 20
32.9495660261
 10
270.6945050161
 20
32.4090712259
 10
270.1346591527
 20
31.7696286971
 10
269.6336222241
 20
31.0523568294
 10
269.2079416017
 20
30.2809444236
 10
268.8716759207
 20
29.4808683397
  0
LINE
  5
20F
330
1F
100
AcDbEntity
  8
0
  6
Continuous
 62
     7
370
     0
100
AcDbLine
 10
242.8090486955
 20
31.959211325
 30
0.0
 11
242.8213132719
 21
32.6016546485
 31
0.0
  0
LWPOLYLINE
  5
210
330
1F
100
AcDbEntity
  8
0
  6
Continuous
 62
     7
370
     0
100
AcDbPolyline
 90
        3
 70
   128
 43
0.0
 10
242.8442815681
 20
33.0559357597
 10
242.8666929798
 20
33.3686655972
 10
242.8885982084
 20
33.621061379
  0
LINE
  5
211
330
1F
100
AcDbEntity
  8
0
  6
Continuous
 62
     7
370
     0
100
AcDbLine
 10
242.8095002301
 20
31.837532274
 30
0.0
 11
242.8090486955
 21
31.959211325
 31
0.0
  0
LWPOLYLINE
  5
212
330
1F
100
AcDbEntity
  8
0
  6
Continuous
 62
     7
370
     0
100
AcDbPolyline
 90
       19
 70
   128
 43
0.0
 10
211.7240956817
 20
55.8505177516
 10
211.7808509728
 20
56.9249931128
 10
211.9502217812
 20
58.04805162
 10
212.2295370282
 20
59.2019819696
 10
212.6143917455
 20
60.3685859907
 10
213.0987165441
 20
61.529465641
 10
213.6748733328
 20
62.666313155
 10
214.3337757748
 20
63.7611997682
 10
215.065032585
 20
64.7968584647
 10
215.8571114067
 20
65.7569562881
 10
216.6975206836
 20
66.6263519223
 10
217.5730066595
 20
67.3913344788
 10
218.4697623974
 20
68.0398397256
 10
219.3736455239
 20
68.5616403477
 10
220.2704012618
 20
68.9485072374
 10
221.1458872377
 20
69.1943392729
 10
221.9862965146
 20
69.2952595361
 10
222.7783753363
 20
69.2496764541
 10
223.4587225944
 20
69.0771024047
  0
ARC
  5
213
330
1F
100
AcDbEntity
  8
0
  6
Continuous
 62
     7
370
     0
100
AcDbCircle
 10
217.1448385193
 20
55.4200883052
 30
0.0
 40
5.43780492658555
100
AcDbArc
 50
175.4600032532
 51
225.5211631236
  0
LINE
  5
214
330
1F
100
AcDbEntity
  8
0
  6
Continuous
 62
     7
370
     0
100
AcDbLine
 10
248.4924194493
 20
32.9549286091
 30
0.0
 11
247.785197734
 21
33.3631990151
 31
0.0
  0
LINE
  5
215
330
1F
100
AcDbEntity
  8
0
  6
Continuous
 62
     7
370
     0
100
AcDbLine
 10
267.6019802108
 20
26.2023440497
 30
0.0
 11
267.6726908889
 21
25.9384538156
 31
0.0
  0
LWPOLYLINE
  5
216
330
1F
100
AcDbEntity
  8
0
  6
Continuous
 62
     7
370
     0
100
AcDbPolyline
 90
        3
 70
   128
 43
0.0
 10
274.4302685655
 20
32.9742762782
 10
274.0798683245
 20
33.3448966649
 10
273.9176613511
 20
33.4531298266
  0
LWPOLYLINE
  5
217
330
1F
100
AcDbEntity
  8
0
  6
Continuous
 62
     7
370
     0
100
AcDbPolyline
 90
       11
 70
   128
 43
0.0
 10
269.5061063662
 20
25.6116763947
 10
269.6941052633
 20
25.5343590367
 10
270.2043059502
 20
25.4483247935
 10
270.7678323781
 20
25.5119552562
 10
271.3641517976
 20
25.7229319739
 10
271.9715366077
 20
26.0735677613
 10
272.5678560272
 20
26.5510867902
 10
273.1313824551
 20
27.1380900921
 10
273.641583142
 20
27.8131895098
 10
274.0798683245
 20
28.5517870004
 10
274.4302685655
 20
29.3269708939
  0
LINE
  5
218
330
1F
100
AcDbEntity
  8
0
  6
Continuous
 62
     7
370
     0
100
AcDbLine
 10
242.9492583801
 20
27.2954595715
 30
0.0
 11
248.4924194493
 21
24.0954608002
 31
0.0
  0
LINE
  5
219
330
1F
100
AcDbEntity
  8
0
  6
Continuous
 62
     7
370
     0
100
AcDbLine
 10
242.8885982084
 20
27.2604298159
 30
0.0
 11
242.9492583801
 21
27.2954595715
 31
0.0
  0
LINE
  5
21A
330
1F
100
AcDbEntity
  8
0
  6
Continuous
 62
     7
370
     0
100
AcDbLine
 10
267.2777779489
 20
26.3895020317
 30
0.0
 11
267.6019802108
 21
26.2023440497
 31
0.0
  0
LINE
  5
21B
330
1F
100
AcDbEntity
  8
0
  6
Continuous
 62
     7
370
     0
100
AcDbLine
 10
244.4454042934
 20
20.0484854858
 30
0.0
 11
244.2394340228
 21
20.6798730479
 31
0.0
  0
LINE
  5
21C
330
1F
100
AcDbEntity
  8
0
  6
Continuous
 62
     7
370
     0
100
AcDbLine
 10
247.7853126681
 20
22.8707159324
 30
0.0
 11
242.5350448178
 21
25.9016310475
 31
0.0
  0
LINE
  5
21D
330
1F
100
AcDbEntity
  8
0
  6
Continuous
 62
     7
370
     0
100
AcDbLine
 10
276.1579722632
 20
30.8369024866
 30
0.0
 11
275.9458402288
 21
31.0191519094
 31
0.0
  0
LINE
  5
21E
330
1F
100
AcDbEntity
  8
0
  6
Continuous
 62
     7
370
     0
100
AcDbLine
 10
243.1997743122
 20
22.7224201263
 30
0.0
 11
243.1227331904
 21
22.9711818358
 31
0.0
  0
LWPOLYLINE
  5
21F
330
1F
100
AcDbEntity
  8
0
  6
Continuous
 62
     7
370
     0
100
AcDbPolyline
 90
        3
 70
   128
 43
0.0
 10
242.8058768293
 20
22.1221298951
 10
242.7829554522
 20
22.1763594002
 10
242.3378446633
 20
23.4242883378
  0
ARC
  5
220
330
1F
100
AcDbEntity
  8
0
  6
Continuous
 62
     7
370
     0
100
AcDbCircle
 10
252.5453090459
 20
26.44679212
 30
0.0
 40
11.20229670055941
100
AcDbArc
 50
195.6891569794
 51
214.1128286261
  0
LINE
  5
221
330
1F
100
AcDbEntity
  8
0
  6
Continuous
 62
     7
370
     0
100
AcDbLine
 10
239.2626433909
 20
23.0476568834
 30
0.0
 11
239.0598768506
 21
23.6699677574
 31
0.0
  0
LINE
  5
222
330
1F
100
AcDbEntity
  8
0
  6
Continuous
 62
     7
370
     0
100
AcDbLine
 10
272.9406364088
 20
32.7540191471
 30
0.0
 11
275.9458402288
 21
31.0191519094
 31
0.0
  0
LINE
  5
223
330
1F
100
AcDbEntity
  8
0
  6
Continuous
 62
     7
370
     0
100
AcDbLine
 10
274.2311062938
 20
38.9539557299
 30
0.0
 11
274.9382130656
 21
38.5457516794
 31
0.0
  0
OLE2FRAME
  5
224
330
1F
100
AcDbEntity
  8
0
100
AcDbOle2Frame
 70
     2
  3
Paintbrush-Bild
 10
13.8511154363
 20
38.264191557
 30
0.0
 11
51.6290888628
 21
31.9806341108
 31
0.0
 71
     2
 72
     0
 73
     1
 90
    12928
310
80552BED0767C5B32B40DDAF6807D121434000000000000000006FFBDDFB85D0
310
4940DDAF6807D121434000000000000000006FFBDDFB85D04940416F4BD60AFB
310
3F4000000000000000002BED0767C5B32B40416F4BD60AFB3F40000000000000
310
0000000000000100000000010000010000000100000000000100000000320000
310
D0CF11E0A1B11AE1000000000000000000000000000000003E000300FEFF0900
310
0600000000000000000000000100000001000000000000000010000002000000
310
01000000FEFFFFFF0000000000000000FFFFFFFFFFFFFFFFFFFFFFFFFFFFFFFF
310
FFFFFFFFFFFFFFFFFFFFFFFFFFFFFFFFFFFFFFFFFFFFFFFFFFFFFFFFFFFFFFFF
310
FFFFFFFFFFFFFFFFFFFFFFFFFFFFFFFFFFFFFFFFFFFFFFFFFFFFFFFFFFFFFFFF
310
FFFFFFFFFFFFFFFFFFFFFFFFFFFFFFFFFFFFFFFFFFFFFFFFFFFFFFFFFFFFFFFF
310
FFFFFFFFFFFFFFFFFFFFFFFFFFFFFFFFFFFFFFFFFFFFFFFFFFFFFFFFFFFFFFFF
310
FFFFFFFFFFFFFFFFFFFFFFFFFFFFFFFFFFFFFFFFFFFFFFFFFFFFFFFFFFFFFFFF
310
FFFFFFFFFFFFFFFFFFFFFFFFFFFFFFFFFFFFFFFFFFFFFFFFFFFFFFFFFFFFFFFF
310
FFFFFFFFFFFFFFFFFFFFFFFFFFFFFFFFFFFFFFFFFFFFFFFFFFFFFFFFFFFFFFFF
310
FFFFFFFFFFFFFFFFFFFFFFFFFFFFFFFFFFFFFFFFFFFFFFFFFFFFFFFFFFFFFFFF
310
FFFFFFFFFFFFFFFFFFFFFFFFFFFFFFFFFFFFFFFFFFFFFFFFFFFFFFFFFFFFFFFF
310
FFFFFFFFFFFFFFFFFFFFFFFFFFFFFFFFFFFFFFFFFFFFFFFFFFFFFFFFFFFFFFFF
310
FFFFFFFFFFFFFFFFFFFFFFFFFFFFFFFFFFFFFFFFFFFFFFFFFFFFFFFFFFFFFFFF
310
FFFFFFFFFFFFFFFFFFFFFFFFFFFFFFFFFFFFFFFFFFFFFFFFFFFFFFFFFFFFFFFF
310
FFFFFFFFFFFFFFFFFFFFFFFFFFFFFFFFFFFFFFFFFFFFFFFFFFFFFFFFFFFFFFFF
310
FDFFFFFFFEFFFFFFFEFFFFFFFEFFFFFF05000000060000000700000008000000
310
090000000A0000000B0000000C0000000D0000000E0000000F00000010000000
310
11000000120000001300000014000000150000001600000017000000FEFFFFFF
310
FFFFFFFFFFFFFFFFFFFFFFFFFFFFFFFFFFFFFFFFFFFFFFFFFFFFFFFFFFFFFFFF
310
FFFFFFFFFFFFFFFFFFFFFFFFFFFFFFFFFFFFFFFFFFFFFFFFFFFFFFFFFFFFFFFF
310
FFFFFFFFFFFFFFFFFFFFFFFFFFFFFFFFFFFFFFFFFFFFFFFFFFFFFFFFFFFFFFFF
310
FFFFFFFFFFFFFFFFFFFFFFFFFFFFFFFFFFFFFFFFFFFFFFFFFFFFFFFFFFFFFFFF
310
FFFFFFFFFFFFFFFFFFFFFFFFFFFFFFFFFFFFFFFFFFFFFFFFFFFFFFFFFFFFFFFF
310
FFFFFFFFFFFFFFFFFFFFFFFFFFFFFFFFFFFFFFFFFFFFFFFFFFFFFFFFFFFFFFFF
310
FFFFFFFFFFFFFFFFFFFFFFFFFFFFFFFFFFFFFFFFFFFFFFFFFFFFFFFFFFFFFFFF
310
FFFFFFFFFFFFFFFFFFFFFFFFFFFFFFFFFFFFFFFFFFFFFFFFFFFFFFFFFFFFFFFF
310
FFFFFFFFFFFFFFFFFFFFFFFFFFFFFFFFFFFFFFFFFFFFFFFFFFFFFFFFFFFFFFFF
310
FFFFFFFFFFFFFFFFFFFFFFFFFFFFFFFFFFFFFFFFFFFFFFFFFFFFFFFFFFFFFFFF
310
FFFFFFFFFFFFFFFFFFFFFFFFFFFFFFFFFFFFFFFFFFFFFFFFFFFFFFFFFFFFFFFF
310
FFFFFFFFFFFFFFFFFFFFFFFFFFFFFFFFFFFFFFFFFFFFFFFFFFFFFFFFFFFFFFFF
310
FFFFFFFFFFFFFFFFFFFFFFFFFFFFFFFFFFFFFFFFFFFFFFFFFFFFFFFFFFFFFFFF
310
52006F006F007400200045006E00740072007900000000000000000000000000
310
0000000000000000000000000000000000000000000000000000000000000000
310
16000500FFFFFFFFFFFFFFFF020000000A00030000000000C000000000000046
310
00000000000000000000000000891AD9081FD20103000000C000000000000000
310
01004F006C006500000000000000000000000000000000000000000000000000
310
0000000000000000000000000000000000000000000000000000000000000000
310
0A000200FFFFFFFFFFFFFFFFFFFFFFFF00000000000000000000000000000000
310
0000000000000000000000000000000000000000000000001400000000000000
310
010043006F006D0070004F0062006A0000000000000000000000000000000000
310
0000000000000000000000000000000000000000000000000000000000000000
310
120002010100000003000000FFFFFFFF00000000000000000000000000000000
310
0000000000000000000000000000000000000000010000004D00000000000000
310
01004F006C006500310030004E00610074006900760065000000000000000000
310
0000000000000000000000000000000000000000000000000000000000000000
310
1A000200FFFFFFFFFFFFFFFFFFFFFFFF00000000000000000000000000000000
310
0000000000000000000000000000000000000000040000002426000000000000
310
FEFFFFFF02000000FEFFFFFFFFFFFFFFFFFFFFFFFFFFFFFFFFFFFFFFFFFFFFFF
310
FFFFFFFFFFFFFFFFFFFFFFFFFFFFFFFFFFFFFFFFFFFFFFFFFFFFFFFFFFFFFFFF
310
FFFFFFFFFFFFFFFFFFFFFFFFFFFFFFFFFFFFFFFFFFFFFFFFFFFFFFFFFFFFFFFF
310
FFFFFFFFFFFFFFFFFFFFFFFFFFFFFFFFFFFFFFFFFFFFFFFFFFFFFFFFFFFFFFFF
310
FFFFFFFFFFFFFFFFFFFFFFFFFFFFFFFFFFFFFFFFFFFFFFFFFFFFFFFFFFFFFFFF
310
FFFFFFFFFFFFFFFFFFFFFFFFFFFFFFFFFFFFFFFFFFFFFFFFFFFFFFFFFFFFFFFF
310
FFFFFFFFFFFFFFFFFFFFFFFFFFFFFFFFFFFFFFFFFFFFFFFFFFFFFFFFFFFFFFFF
310
FFFFFFFFFFFFFFFFFFFFFFFFFFFFFFFFFFFFFFFFFFFFFFFFFFFFFFFFFFFFFFFF
310
FFFFFFFFFFFFFFFFFFFFFFFFFFFFFFFFFFFFFFFFFFFFFFFFFFFFFFFFFFFFFFFF
310
FFFFFFFFFFFFFFFFFFFFFFFFFFFFFFFFFFFFFFFFFFFFFFFFFFFFFFFFFFFFFFFF
310
FFFFFFFFFFFFFFFFFFFFFFFFFFFFFFFFFFFFFFFFFFFFFFFFFFFFFFFFFFFFFFFF
310
FFFFFFFFFFFFFFFFFFFFFFFFFFFFFFFFFFFFFFFFFFFFFFFFFFFFFFFFFFFFFFFF
310
FFFFFFFFFFFFFFFFFFFFFFFFFFFFFFFFFFFFFFFFFFFFFFFFFFFFFFFFFFFFFFFF
310
FFFFFFFFFFFFFFFFFFFFFFFFFFFFFFFFFFFFFFFFFFFFFFFFFFFFFFFFFFFFFFFF
310
FFFFFFFFFFFFFFFFFFFFFFFFFFFFFFFFFFFFFFFFFFFFFFFFFFFFFFFFFFFFFFFF
310
FFFFFFFFFFFFFFFFFFFFFFFFFFFFFFFFFFFFFFFFFFFFFFFFFFFFFFFFFFFFFFFF
310
0100000200000000000000000000000000000000000000000000000000000000
310
0000000000000000000000000000000000000000000000000000000000000000
310
0100FEFF030A0000FFFFFFFF0A00030000000000C00000000000004607000000
310
5042727573680007000000504272757368000700000050427275736800F439B2
310
7100000000000000000000000000000000000000000000000000000000000000
310
0000000000000000000000000000000000000000000000000000000000000000
310
0000000000000000000000000000000000000000000000000000000000000000
310
0000000000000000000000000000000000000000000000000000000000000000
310
0000000000000000000000000000000000000000000000000000000000000000
310
0000000000000000000000000000000000000000000000000000000000000000
310
0000000000000000000000000000000000000000000000000000000000000000
310
0000000000000000000000000000000000000000000000000000000000000000
310
0000000000000000000000000000000000000000000000000000000000000000
310
0000000000000000000000000000000000000000000000000000000000000000
310
0000000000000000000000000000000000000000000000000000000000000000
310
0000000000000000000000000000000000000000000000000000000000000000
310
20260000424D0E260000000000003E00000028000000B40200006E0000000100
310
01000000000000000000130B0000130B00000200000002000000000000FFFFFF
310
FFFFFFFFFFFFFFFFFFFFFFFFFFFFFFFFFFFFFFFFFFFFFFFFFFFFFFFFFFFFFFFF
310
FFFFFFFFFFFFFFFFFFFFFFFFFFFFFFFFFFFFFFFFFFFFFFFFFFFFFFFFFFFFFFFF
310
FFFFFFFFFFFFFFFFFFFFFFFFFFFFFFFFFFFFFFFFFFFFFFFFF000FFFFFFFFFFFF
310
FFFFFFFFFFFFFFFFFFFFFFFFFFFFFFFFFFFFFFFFFFFFFFFFFFFFFFFFFFFFFFFF
310
FFFFFFFFFFFFFFFFFFFFFFFFFFFFFFFFFFFFFFFFFFFFFFFFFFFFFFFFFFFFFFFF
310
FFFFFFFFFFFFFFFFFFFFFFFFFFFFFFFFF000FFFFFFFFFFFFFFFFFFFFFFFFFFFF
310
FFFFFFFFFFFFFFFFFFFFFFFFFFFFFFFFFFFFFFFFFFFFFFFFFFFFFFFFFFFFFFFF
310
FFFFFFFFFFFFFFFFFFFFFFFFFFFFFFFFFFFFFFFFFFFFFFFFFFFFFFFFFFFFFFFF
310
FFFFFFFFFFFFFFFFF000FFFFFFFFFFFFFFFFFFFFFFFFFFFFFFFFFFFFFFFFFFFF
310
FFFFFFFFFFFFFFFFFFFFFFFFFFFFFFFFFFFFFFFFFFFFFFFFFFFFFFFFFFFFFFFF
310
FFFFFFFFFFFFFFFFFFFFFFFFFFFFFFFFFFFFFFFFFFFFFFFFFFFFFFFFFFFFFFFF
310
F000FFFFFFFFFFFFFFFFFFFFFFFFFFFFFFFFFFFFFFFFFFFFFFFFFFFFFFFFFFFF
310
FFFFFFFFFFFFFFFFFFFFFFFFFFFFFFFFFFFFFFFFFFFFFFFFFFFFFFFFFFFFFFFF
310
FFFFFFFFFFFFFFFFFFFFFFFFFFFFFFFFFFFFFFFFFFFFFFFFF000FFFFFFFFFFFF
310
FFFFFFFFFFFFFFFFFFFFFFFFFFFFFFFFFFFFFFFFFFFFFFFFFFFFFFFFFFFFFFFF
310
FFFFFFFFFFFFFFFFFFFFFFFFFFFFFFFFFFFFFFFFFFFFFFFFFFFFFFFFFFFFFFFF
310
FFFFFFFFFFFFFFFFFFFFFFFFFFFFFFFFF000FFFFFFFFFFFFFFFFFFFFFFFFFFFF
310
FFFFFFFFFFFFFFFFFFFFFFFFFFFFFFFFFFFFFFFFFFFFFFFFFFFFFFFFFFFFFFFF
310
FFFFFFFFFFFFFFFFFFFFFFFFFFFFFFFFFFFFFFFFFFFFFFFFFFFFFFFFFFFFFFFF
310
FFFFFFFFFFFFFFFFF000FFFFFFFFFFFFFFFFFFFFFFFFFFFFFFFFFFFFFFFFFFFF
310
FFFFFFFFFFFFFFFFFFFFFFFFFFFFFFFFFFFFFFFFFFFFFFFFFFFFFFFFFFFFFFFF
310
FFFFFFFFFFFFFFFFFFFFFFFFFFFFFFFFFFFFFFFFFFFFFFFFFFFFFFFFFFFFFFFF
310
F000FFFFFFFFFFFFFFFFFFFFFFFFFFFFFFFFFFFFFFFFFFFFFFFFFFFFFFFFFFFF
310
FFFFFFFFFFFFFFFFFFFFFFFFFFFFFFFFFFFFFFFFFFFFFFFFFFFFFFFFFFFFFFFF
310
FFFFFFFFFFFFFFFFFFFFFFFFFFFFFFFFFFFFFFFFFFFFFFFFF000FFFFFFFFFFFF
310
FFFFFFFFFFFFFFFFFFFFFFFFFFFFFFFFFFFFFFFFFFFFFFFFFFFFFFFFFFFFFFFF
310
FFFFFFFFFFFFFFFFFFFFFFFFFFFFFFFFFFFFFFFFFFFFFFFFFFFFFFFFFFFFFFFF
310
FFFFFFFFFFFFFFFFFFFFFFFFFFFFFFFFF000FFFFFFFFFFFFFFFFFFFFFFFFFFFF
310
FFFFFFFFFFFFFFFFFFFFFFFFFFFFFFFFFFFFFFFFFFFFFFFFFFFFFFFFFFFFFFFF
310
FFFFFFFFFFFFFFFFFFFFFFFFFFFFFFFFFFFFFFFFFFFFFFFFFFFFFFFFFFFFFFFF
310
FFFFFFFFFFFFFFFFF000FFFFFFFFFFFFFFFFFFFFFFFFFFFFFFFFFFFFFFFFFFFF
310
FFFFFFFFFFFFFFFFFFFFFFFFFFFFFFFFFFFFFFFFFFFFFFFFFFFFFFFFFFFFFFFF
310
FFFFFFFFFFFFFFFFFFFFFFFFFFFFFFFFFFFFFFFFFFFFFFFFFFFFFFFFFFFFFFFF
310
F000FFFFFFFFFFFFFFFFFFFFFFFFFFFFFFFFFFFFFFFFFFFFFFFFFFFFFFFFFFFF
310
FFFFFFFFFFFFFFFFFFFFFFFFFFFFFFFFFFFFFFFFFFFFFFFFFFFFFFFFFFFFFFFF
310
FFFFFFFFFFFFFFFFFFFFFFFFFFFFFFFFFFFFFFFFFFFFFFFFF000FFFFFFFFFFFF
310
FFFFFFFFFFFFFFFFFFFFFFFFFFFFFFFFFFFFFFFFFFFFFFFFFFFFFFFFFFFFFFFF
310
FFFFFFFFFFFFFFFFFFFFFFFFFFFFFFFFFFFFFFFFFFFFFFFFFFFFFFFFFFFFFFFF
310
FFFFFFFFFFFFFFFFFFFFFFFFFFFFFFFFF000FFFFFFFFFFFFFFFFFFFFFFFFFFFF
310
FFFFFFFFFFFFFFFFFFFFFFFFFFFFFFFFFFFFFFFFFFFFFFFFFFFFFFFFFFFFFFFF
310
FFFFFFFFFFFFFFFFFFFFFFFFFFFFFFFFFFFFFFFFFFFFFFFFFFFFFFFFFFFFFFFF
310
FFFFFFFFFFFFFFFFF000FFFFFFFFFFFFFFFFFFFFFFFFFFFFFFFFFFFFFFFFFFFF
310
FFFFFFFFFFFFFFFFFFFFFFFFFFFFFFFFFFFFFFFFFFFFFFFFFFFFFFFFFFFFFFFF
310
FFFFFFFFFFFFFFFFFFFFFFFFFFFFFFFFFFFFFFFFFFFFFFFFFFFFFFFFFFFFFFFF
310
F000FFFFFFFFFFFFFFFFFFFFFFFFFFFFFFFFFFFFFFFFFFFFFFFFFFFFFFFFFFFF
310
FFFFFFFFFFFFFFFFFFFFFFFFFFFFFFFFFFFFFFFFFFFFFFFFFFFFFFFFFFFFFFFF
310
FFFFFFFFFFFFFFFFFFFFFFFFFFFFFFFFFFFFFFFFFFFFFFFFF000FFFFFFFFFFFF
310
FFFFFFFFFFFFFFFFFFFFFFFFFFFFFFFFFFFFFFFFFFFFFFFFFFFFFFFFFFFFFFFF
310
FFFFFFFFFFFFFFFFFFFFFFFFFFFFFFFFFFFFFFFFFFFFFFFFFFFFFFFFFFFFFFFF
310
FFFFFFFFFFFFFFFFFFFFFFFFFFFFFFFFF000FFFFFFFFFFFFFFFFFFFFFFFFFFFF
310
FFFFFFFFFFFFFFFFFFFFFFFFFFFFFFFFFFFFFFFFFFFFFFFFFFFFFFFFFFFFFFFF
310
FFFFFFFFFFFFFFFFFFFFFFFFFFFFFFFFFFFFFFFFFFFFFFFFFFFFFFFFFFFFFFFF
310
FFFFFFFFFFFFFFFFF000FFFFF80003FFFFFFFFFFFFFFFFFFFFFFFFFFFFFFFFFF
310
FFFFF00007FFFFFFFFFF00007FFFFFF800000000000000007FFFFFFFFFFFFFFF
310
FFFFFFFC001FFFFFFFFFFFFFFC001FFFFFFFFFFFFFFFFFFFFFFFFFFE0007FFFF
310
F000FFFF8000007FFFFFFFF8000FFFFFC0007FFFFF80007FFFFF0000007FFFFF
310
FFF8000007FFFFF800000000000000007FFFFFF0001FFFFFFFFFFFC00001FFFF
310
FFFFFFFFC00001FFFFFFFF000000000003FFFFE000007FFFF000FFFE0000000F
310
FFFFFFF0000FFFFF80007FFFFF80007FFFFC0000001FFFFFFFC0000001FFFFF8
310
00000000000000007FFFFFF0001FFFFFFFFFFE0000003FFFFFFFFFFE0000003F
310
FFFFFF000000000003FFFF0000000FFFF000FFF800000003FFFFFFF00007FFFF
310
80007FFFFF80007FFFF000000007FFFFFF000000003FFFF80000000000000000
310
7FFFFFF0001FFFFFFFFFF80000000FFFFFFFFFF80000000FFFFFFF0000000000
310
03FFFC00000003FFF000FFE000000000FFFFFFF00007FFFF80003FFFFF80007F
310
FFC000000001FFFFFC000000001FFFF800000000000000007FFFFFF0001FFFFF
310
FFFFE000000003FFFFFFFFE000000003FFFFFF000000000003FFF000000000FF
310
F000FF80000000007FFFFFF00007FFFF80003FFFFF80007FFF8000000000FFFF
310
F80000000007FFF800000000000000007FFFFFF0001FFFFFFFFFC000000001FF
310
FFFFFFC000000001FFFFFF000000000003FFC0000000007FF000FF0000000000
310
3FFFFFE00007FFFF00003FFFFF80007FFE00000000003FFFF00000000003FFF8
310
00000000000000007FFFFFF0001FFFFFFFFF8000000000FFFFFFFF8000000000
310
FFFFFF000000000003FF80000000003FF000FE00000000001FFFFFE00003FFFF
310
00003FFFFF80007FFC00000000001FFFE00000000001FFF8000001FFFE000000
310
7FFFFFF0001FFFFFFFFE00000000003FFFFFFE00000000003FFFFF0000000000
310
03FF00000000001FF000FC00000000000FFFFFE00003FFFF00001FFFFF80007F
310
F800000000001FFFC00000000000FFF8000001FFFE0000007FFFFFF0001FFFFF
310
FFFC00000000001FFFFFFC00000000001FFFFF000000000003FE00000000000F
310
F000F8000000000007FFFFE00003FFFF00001FFFFF80007FF800000000000FFF
310
800000000000FFF8000001FFFE0000007FFFFFF0001FFFFFFFF800000000000F
310
FFFFF800000000000FFFFF000000000003FC000000000007F000F80000000000
310
03FFFFC00003FFFE00001FFFFF80007FF0000000000007FF0000000000007FF8
310
000001FFFE0000007FFFFFF0001FFFFFFFF0000000000007FFFFF00000000000
310
07FFFF000000000003F8000000000003F000F0000000000003FFFFC00001FFFE
310
00001FFFFF80007FE0000000000007FE0000000000003FF8000001FFFE000000
310
7FFFFFF0001FFFFFFFF0000000000007FFFFF0000000000007FFFF0000000000
310
03F800001F800003F000E00001FFF00001FFFFC00001FFFE00000FFFFF80007F
310
E00001FFE00003FE00001FFF00003FF8000001FFFE0000007FFFFFF0001FFFFF
310
FFE000003E000003FFFFE000003E000003FFFF000000000003F00001FFF80001
310
F000E00007FFFC0001FFFFC00001FFFE00000FFFFF80007FC0000FFFFC0003FC
310
0000FFFFC0001FF8000001FFFE0000007FFFFFF0001FFFFFFFC00003FFE00001
310
FFFFC00003FFE00001FFFF0001FFFFFFFFF00007FFFE0001F000E0000FFFFF00
310
00FFFF800001FFFC00000FFFFF80007FC0001FFFFE0001FC0001FFFFE0001FF8
310
000001FFFE0000007FFFFFF0001FFFFFFF80000FFFF80000FFFF80000FFFF800
310
00FFFF0003FFFFFFFFE0000FFFFF8000F000C0003FFFFF8000FFFF800000FFFC
310
000007FFFF80007F80003FFFFF0001FC0003FFFFF0001FF8000001FFFE000000
310
7FFFFFF0001FFFFFFF80003FFFFE0000FFFF80003FFFFE0000FFFF0003FFFFFF
310
FFE0003FFFFF8000F000C0003FFFFF8000FFFF800000FFFC000007FFFF80007F
310
80007FFFFF8001F80007FFFFF8000FF8000001FFFE0000007FFFFFF0001FFFFF
310
FF00007FFFFF00007FFF00007FFFFF00007FFF0003FFFFFFFFE0003FFFFFC000
310
F000C0007FFFFFC000FFFF000000FFFC000007FFFF80007F8000FFFFFF8000F8
310
000FFFFFF8000FF8000001FFFE0000007FFFFFF0001FFFFFFF0000FFFFFF8000
310
7FFF0000FFFFFF80007FFF0003FFFFFFFFC0007FFFFFC00070008000FFFFFFC0
310
00FFFF000000FFF8000007FFFF80007F8000FFFFFF8000F8000FFFFFF8000FF8
310
000001FFFE0000007FFFFFF0001FFFFFFE0001FFFFFFC0003FFE0001FFFFFFC0
310
003FFF0003FFFFFFFFC0007FFFFFE00070008000FFFFFFC0007FFF0000007FF8
310
000003FFFF80007F0001FFFFFF8000F8000FFFFFF8000FF8000001FFFE000000
310
7FFFFFF0001FFFFFFE0001FFFFFFC0003FFE0001FFFFFFC0003FFF0003FFFFFF
310
FFC000FFFFFFE00070008000FFFFFFC0007FFF0000007FF8000003FFFF80007F
310
0001FFFFFF8000F8001FFFFFF8000FF8000001FFFE0000007FFFFFF0001FFFFF
310
FE0003FFFFFFE0003FFE0003FFFFFFE0003FFF0003FFFFFFFFC000FFFFFFE000
310
70008000FFFFFFC0007FFE0000007FF8000003FFFF80007F0001FFFFFF8000F0
310
001FFFFFF8000FF8000001FFFE0000007FFFFFF0001FFFFFFC0003FFFFFFE000
310
1FFC0003FFFFFFE0001FFF0003FFFFFFFFC000FFFFFFC00070008000FFFFFF80
310
007FFE0000007FF0000003FFFF80007F0001FFFFFF0000F0001FFFFFF8000FF8
310
000001FFFE0000007FFFFFF0001FFFFFFC0007FFFFFFF0001FFC0007FFFFFFF0
310
001FFF0003FFFFFFFFC000FFFFFFC00070008001FFFFFF0000FFFE0000003FF0
310
000001FFFF80007F0001FFFFFF0000F8001FFFFFF0000FF8000001FFFE000000
310
7FFFFFF0001FFFFFFC0007FFFFFFF0001FFC0007FFFFFFF0001FFF0003FFFFFF
310
FFC001FFFFFF80007000FFFFFFFFFE0000FFFE0008003FF0008001FFFF80007F
310
FFFFFFFFFC0000FFFFFFFFFFE0000FF8000001FFFE0000007FFFFFF0001FFFFF
310
F8000FFFFFFFF8000FF8000FFFFFFFF8000FFF0003FFFFFFFFFFFFFFFFFF0000
310
7000FFFFFFFFFC0000FFFC0008003FF0008001FFFF80007FFFFFFFFFF80001FF
310
FFFFFFFF80000FF8000001FFFE0000007FFFFFF0001FFFFFF8000FFFFFFFF800
310
0FF8000FFFFFFFF8000FFF0003FFFFFFFFFFFFFFFFFE0000F000FFFFFFFFE000
310
00FFFC000C003FE000C001FFFF80007FFFFFFFFFC00001FFFFFFFFFE00001FF8
310
000001FFFE0000007FFFFFF0001FFFFFF8000FFFFFFFF8000FF8000FFFFFFFF8
310
000FFF0003FFFFFFFFFFFFFFFFF00000F000FFFFFFFE000001FFFC000C001FE0
310
00C000FFFF80007FFFFFFFFE000001FFFFFFFFE000001FF80FFFFFFFFFFFFFC0
310
7FFFFFF0001FFFFFF8000FFFFFFFF8000FF8000FFFFFFFF8000FFF0003FFFFFF
310
FFFFFFFFFF800000F000FFFFFFC0000001FFFC001C001FE001C000FFFF80007F
310
FFFFFF80000003FFFFFFF80000001FF80FFFFFFFFFFFFFC07FFFFFF0001FFFFF
310
F8001FFFFFFFFC000FF8001FFFFFFFFC000FFF0003FFFFFFFFFFFFFFF0000001
310
F000FFFFF800000001FFF8001C001FE001C000FFFF80007FFFFFF800000003FF
310
FFFF800000003FF80FFFFFFFFFFFFFC07FFFFFF0001FFFFFF8001FFFFFFFFC00
310
0FF8001FFFFFFFFC000FFF0003FFFFFFFFFFFFFE00000001F000FFFFC0000000
310
03FFF8001E001FC001E000FFFF80007FFFFF8000000007FFFFFC000000003FF8
310
0FFFFFFFFFFFFFC07FFFFFF0001FFFFFF8001FFFFFFFFC000FF8001FFFFFFFFC
310
000FFF0003FFFFFFFFFFFFE000000003F000FFFE0000000007FFF8001E000FC0
310
01E0007FFF80007FFFFE0000000007FFFFE0000000007FF80FFFFFFFFFFFFFC0
310
7FFFFFF0001FFFFFF0001FFFFFFFFC0007F0001FFFFFFFFC0007FF0003FFFFFF
310
FFFFFF0000000003F000FFF80000000007FFF8001E000FC003E0007FFF80007F
310
FFF0000000000FFFFF8000000000FFF80FFFFFFFFFFFFFC07FFFFFF0001FFFFF
310
F0001FFFFFFFFC0007F0001FFFFFFFFC0007FF0003FFFFFFFFFFFC0000000007
310
F000FFE0000000000FFFF0003E000FC003E0007FFF80007FFFC0000000001FFF
310
FE0000000001FFF80FFFFFFFFFFFFFC07FFFFFF0001FFFFFF0001FFFFFFFFC00
310
07F0001FFFFFFFFC0007FF0003FFFFFFFFFFF0000000000FF000FFC000000000
310
1FFFF0003F000F8003F0003FFF80007FFF80000000003FFFF80000000003FFF8
310
0FFFFFFFFFFFFFC07FFFFFF0001FFFFFF0001FFFFFFFFC0007F0001FFFFFFFFC
310
0007FF0003FFFFFFFFFFE0000000001FF000FF00000000007FFFF0003F000780
310
03F0003FFF80007FFF00000000007FFFF00000000007FFF80FFFFFFFFFFFFFC0
310
7FFFFFF0001FFFFFF0001FFFFFFFFC0007F0001FFFFFFFFC0007FF0003FFFFFF
310
FFFF80000000007FF000FE0000000000FFFFE0003F00078007F0003FFF80007F
310
FE0000000001FFFFE0000000001FFFF80FFFFFFFFFFFFFC07FFFFFF0001FFFFF
310
F0001FFFFFFFFC0007F0001FFFFFFFFC0007FF0003FFFFFFFFFF0000000000FF
310
F000FC0000000003FFFFE0007F00078007F0003FFF80007FFC0000000007FFFF
310
C0000000007FFFF80FFFFFFFFFFFFFC07FFFFFF0001FFFFFF8001FFFFFFFFC00
310
0FF8001FFFFFFFFC000FFF0003FFFFFFFFFE0000000003FFF000FC000000000F
310
FFFFE0007F80070007F8001FFF80007FF8000000001FFFFF8000000001FFFFF8
310
0FFFFFFFFFFFFFC07FFFFFF0001FFFFFF8001FFFFFFFFC000FF8001FFFFFFFFC
310
000FFF0003FFFFFFFFFC000000000FFFF000F8000000007FFFFFE0007F800700
310
07F8001FFF80007FF000000000FFFFFF800000000FFFFFF80FFFFFFFFFFFFFC0
310
7FFFFFF0001FFFFFF8000FFFFFFFF8000FF8000FFFFFFFF8000FFF0003FFFFFF
310
FFFC000000007FFFF000F800000007FFFFFFC0007F8003000FF8001FFF80007F
310
F000000007FFFFFF000000007FFFFFF80FFFFFFFFFFFFFC07FFFFFF0001FFFFF
310
F8000FFFFFFFF8000FF8000FFFFFFFF8000FFF0003FFFFFFFFF80000000FFFFF
310
F000F0000000FFFFFFFFC000FF8003000FF8001FFF80007FE0000000FFFFFFFF
310
0000000FFFFFFFF8000001FFFE0000007FFFFFF0001FFFFFF8000FFFFFFFF800
310
0FF8000FFFFFFFF8000FFF0003FFFFFFFFF8000000FFFFFFF000F000000FFFFF
310
FFFFC000FFC002000FF8000FFF80007FE000001FFFFFFFFE000001FFFFFFFFF8
310
000001FFFE0000007FFFFFF0001FFFFFF8000FFFFFFFF8000FF8000FFFFFFFF8
310
000FFF0003FFFFFFFFF000001FFFFFFFF000E00000FFFFFFFFFFC000FFC00200
310
0FFC000FFF80007FE00001FFFFFFFFFE00001FFFFFFFFFF8000001FFFE000000
310
7FFFFFF0001FFFFFFC000FFFFFFFF8001FFC000FFFFFFFF8001FFF0003FFFFFF
310
FFF00001FFFFFFFFF000E00007FFFFFFFFFF8000FFC000001FFC000FFF80007F
310
C0000FFFFFFFFFFE0000FFFFFFFFFFF8000001FFFE0000007FFFFFF0001FFFFF
310
FC0007FFFFFFF0001FFC0007FFFFFFF0001FFF0003FFFFFFFFF00007FFFFFFFF
310
F000E0001FFFFFFFFFFF8000FFC000001FFC000FFF80007FC0003FFFFFFFFFFE
310
0001FFFFFFFFFFF8000001FFFE0000007FFFFFF0001FFFFFFC0007FFFFFFF000
310
1FFC0007FFFFFFF0001FFF0003FFFFFFFFF0001FFFFFFFFFF000E0003FFFFF00
310
03FF8001FFE000001FFC0007FF80007FC0007FFFFF0007FC0003FFFFF0003FF8
310
000001FFFE0000007FFFFFF0001FFFFFFC0003FFFFFFE0001FFC0003FFFFFFE0
310
001FFF0003FFFFFFFFF0003FFFFFFFFFF000E0003FFFFF0001FF8001FFE00000
310
1FFE0007FF80007FC0007FFFFE0003FC0007FFFFE0003FF8000001FFFE000000
310
7FFFFFF0001FFFFFFE0003FFFFFFE0003FFE0003FFFFFFE0003FFF0003FFFFFF
310
FFF0003FFFFF8001F000E0003FFFFF0001FF0001FFE000001FFE0007FF80007F
310
C0007FFFFE0003FC0007FFFFE0003FF8000001FFFE0000007FFFFFF0001FFFFF
310
FE0001FFFFFFC0003FFE0001FFFFFFC0003FFF0003FFFFFFFFF0003FFFFF0001
310
F000E0003FFFFF0003FF0001FFE000003FFE0007FF80007FC0007FFFFE0003FC
310
0007FFFFE0003FF8000001FFFE0000007FFFFFF0001FFFFFFF0001FFFFFFC000
310
7FFF0001FFFFFFC0007FFF0003FFFFFFFFF0003FFFFF0001F000E0003FFFFE00
310
03FF0003FFF000003FFE0003FF80007FC0007FFFFC0003FE0007FFFFE0003FF8
310
000001FFFE0000007FFFFFF0001FFFFFFF0000FFFFFF80007FFF0000FFFFFF80
310
007FFF0003FFFFFFFFF0003FFFFF0001F000E0003FFFFE0003FF0003FFF00000
310
3FFF0003FF80007FC0007FFFFC0007FE0007FFFFC0003FF8000001FFFE000000
310
7FFFFFF0001FFFFFFF80007FFFFF0000FFFF80007FFFFF0000FFFF0003FFFFFF
310
FFF0003FFFFF0003F000E0003FFFFC0003FE0003FFF000003FFF0003FF80007F
310
E0003FFFF80007FE0003FFFFC0007FF8000001FFFE0000007FFFFFF0001FFFFF
310
FF80003FFFFE0000FFFF80003FFFFE0000FFFF0003FFFFFFFFF0001FFFFE0003
310
F000F0001FFFF80003FE0003FFF000007FFF0001FF80007FE0003FFFF00007FE
310
0001FFFF80007FF8000001FFFE0000007FFFFFF0001FFFFFFFC0000FFFF80001
310
FFFFC0000FFFF80001FFFF0003FFFFFFFFF0001FFFFC0003F000F0000FFFF000
310
07FE0007FFF800007FFF0001FF80007FE0001FFFE00007FF0000FFFE00007FF8
310
000001FFFE0000007FFFFFF0001FFFFFFFC00003FFE00001FFFFC00003FFE000
310
01FFFF0003FFFFFFFFF8000FFFF80003F000F00003FFC00007FC0007FFF80000
310
7FFF8001FF80007FF00007FF80000FFF00007FF80000FFF8000001FFFE000000
310
7F80000000000001FFE000003E000003FFFFE000003E000003FFFF0003FFFFFF
310
FFF80003FFE00007F000F800000000000FFC0007FFF800007FFF8001FF80007F
310
F000000000000FFF000000000000FFF8000001FFFE0000007F80000000000001
310
FFF0000000000007FFFFF0000000000007FFFF0003FFFFFFFFFC00007E000007
310
F000F800000000000FFC0007FFF80000FFFF8000FF80007FF800000000001FFF
310
800000000001FFF8000001FFFE0000007F80000000000001FFF800000000000F
310
FFFFF800000000000FFFFF0003FFFFFFFFFC00000000000FF000FC0000000000
310
1FFC0007FFFC0000FFFF8000FF80007FF800000000003FFFC00000000001FFF8
310
000001FFFE0000007F80000000000001FFF800000000000FFFFFF80000000000
310
0FFFFF0003FFFFFFFFFE00000000001FF000FE00000000003FF8000FFFFC0000
310
FFFF8000FF80007FFC00000000003FFFC00000000003FFF8000001FFFE000000
310
7F80000000000001FFFC00000000001FFFFFFC00000000001FFFFF0003FFFFFF
310
FFFF00000000001FF000FF00000000003FF8000FFFFC0000FFFFC000FF80007F
310
FE00000000007FFFE00000000007FFF8000001FFFE0000007F80000000000001
310
FFFE00000000003FFFFFFE00000000003FFFFF0003FFFFFFFFFF80000000003F
310
F000FF80000000007FF8000FFFFC0001FFFFC0007F80007FFF0000000000FFFF
310
F0000000000FFFF800000000000000007F80000000000001FFFF8000000000FF
310
FFFFFF8000000000FFFFFF0003FFFFFFFFFFC0000000007FF000FFC000000000
310
FFF8000FFFFE0001FFFFC0007F80007FFF8000000001FFFFF8000000001FFFF8
310
00000000000000007F80000000000001FFFFC000000001FFFFFFFFC000000001
310
FFFFFF0003FFFFFFFFFFE000000000FFF000FFE000000003FFF0001FFFFE0001
310
FFFFC0007F80007FFFC000000007FFFFFE000000003FFFF80000000000000000
310
7F80000000000001FFFFE000000003FFFFFFFFE000000003FFFFFF0003FFFFFF
310
FFFFF000000003FFF000FFF80000000FFFF0001FFFFE0001FFFFE0007F80007F
310
FFF00000000FFFFFFF00000000FFFFF800000000000000007F80000000000001
310
FFFFF80000000FFFFFFFFFF80000000FFFFFFF0003FFFFFFFFFFFC0000000FFF
310
F000FFFE0000003FFFF0001FFFFE0003FFFFE0003F80007FFFFC0000003FFFFF
310
FFC0000003FFFFF800000000000000007F80000000000001FFFFFE0000003FFF
310
FFFFFFFE0000003FFFFFFF0003FFFFFFFFFFFF0000003FFFF000FFFF800000FF
310
FFF0001FFFFF0003FFFFE0003F80007FFFFF000001FFFFFFFFF800001FFFFFF8
310
00000000000000007F80000000000001FFFFFFC00001FFFFFFFFFFFFC00001FF
310
FFFFFF0003FFFFFFFFFFFFC00000FFFFF000FFFFF8000FFFFFFFFFFFFFFFFFFF
310
FFFFFFFFFFFFFFFFFFFFF0001FFFFFFFFFFF0000FFFFFFF80000000000000000
310
7FFFFFFFFFFFFFFFFFFFFFFC001FFFFFFFFFFFFFFC001FFFFFFFFFFFFFFFFFFF
310
FFFFFFFC001FFFFFF000FFFFFFFFFFFFFFFFFFFFFFFFFFFFFFFFFFFFFFFFFFFF
310
FFFFFFFFFFFFFFFFFFFFFFFFFFFFFFFFFFFFFFFFFFFFFFFFFFFFFFFFFFFFFFFF
310
FFFFFFFFFFFFFFFFFFFFFFFFFFFFFFFFFFFFFFFFFFFFFFFFFFFFFFFFFFFFFFFF
310
F000FFFFFFFFFFFFFFFFFFFFFFFFFFFFFFFFFFFFFFFFFFFFFFFFFFFFFFFFFFFF
310
FFFFFFFFFFFFFFFFFFFFFFFFFFFFFFFFFFFFFFFFFFFFFFFFFFFFFFFFFFFFFFFF
310
FFFFFFFFFFFFFFFFFFFFFFFFFFFFFFFFFFFFFFFFFFFFFFFFF000FFFFFFFFFFFF
310
FFFFFFFFFFFFFFFFFFFFFFFFFFFFFFFFFFFFFFFFFFFFFFFFFFFFFFFFFFFFFFFF
310
FFFFFFFFFFFFFFFFFFFFFFFFFFFFFFFFFFFFFFFFFFFFFFFFFFFFFFFFFFFFFFFF
310
FFFFFFFFFFFFFFFFFFFFFFFFFFFFFFFFF000FFFFFFFFFFFFFFFFFFFFFFFFFFFF
310
FFFFFFFFFFFFFFFFFFFFFFFFFFFFFFFFFFFFFFFFFFFFFFFFFFFFFFFFFFFFFFFF
310
FFFFFFFFFFFFFFFFFFFFFFFFFFFFFFFFFFFFFFFFFFFFFFFFFFFFFFFFFFFFFFFF
310
FFFFFFFFFFFFFFFFF000FFFFFFFFFFFFFFFFFFFFFFFFFFFFFFFFFFFFFFFFFFFF
310
FFFFFFFFFFFFFFFFFFFFFFFFFFFFFFFFFFFFFFFFFFFFFFFFFFFFFFFFFFFFFFFF
310
FFFFFFFFFFFFFFFFFFFFFFFFFFFFFFFFFFFFFFFFFFFFFFFFFFFFFFFFFFFFFFFF
310
F000FFFFFFFFFFFFFFFFFFFFFFFFFFFFFFFFFFFFFFFFFFFFFFFFFFFFFFFFFFFF
310
FFFFFFFFFFFFFFFFFFFFFFFFFFFFFFFFFFFFFFFFFFFFFFFFFFFFFFFFFFFFFFFF
310
FFFFFFFFFFFFFFFFFFFFFFFFFFFFFFFFFFFFFFFFFFFFFFFFF000FFFFFFFFFFFF
310
FFFFFFFFFFFFFFFFFFFFFFFFFFFFFFFFFFFFFFFFFFFFFFFFFFFFFFFFFFFFFFFF
310
FFFFFFFFFFFFFFFFFFFFFFFFFFFFFFFFFFFFFFFFFFFFFFFFFFFFFFFFFFFFFFFF
310
FFFFFFFFFFFFFFFFFFFFFFFFFFFFFFFFF000FFFFFFFFFFFFFFFFFFFFFFFFFFFF
310
FFFFFFFFFFFFFFFFFFFFFFFFFFFFFFFFFFFFFFFFFFFFFFFFFFFFFFFFFFFFFFFF
310
FFFFFFFFFFFFFFFFFFFFFFFFFFFFFFFFFFFFFFFFFFFFFFFFFFFFFFFFFFFFFFFF
310
FFFFFFFFFFFFFFFFF000FFFFFFFFFFFFFFFFFFFFFFFFFFFFFFFFFFFFFFFFFFFF
310
FFFFFFFFFFFFFFFFFFFFFFFFFFFFFFFFFFFFFFFFFFFFFFFFFFFFFFFFFFFFFFFF
310
FFFFFFFFFFFFFFFFFFFFFFFFFFFFFFFFFFFFFFFFFFFFFFFFFFFFFFFFFFFFFFFF
310
F000FFFFFFFFFFFFFFFFFFFFFFFFFFFFFFFFFFFFFFFFFFFFFFFFFFFFFFFFFFFF
310
FFFFFFFFFFFFFFFFFFFFFFFFFFFFFFFFFFFFFFFFFFFFFFFFFFFFFFFFFFFFFFFF
310
FFFFFFFFFFFFFFFFFFFFFFFFFFFFFFFFFFFFFFFFFFFFFFFFF000FFFFFFFFFFFF
310
FFFFFFFFFFFFFFFFFFFFFFFFFFFFFFFFFFFFFFFFFFFFFFFFFFFFFFFFFFFFFFFF
310
FFFFFFFFFFFFFFFFFFFFFFFFFFFFFFFFFFFFFFFFFFFFFFFFFFFFFFFFFFFFFFFF
310
FFFFFFFFFFFFFFFFFFFFFFFFFFFFFFFFF000FFFFFFFFFFFFFFFFFFFFFFFFFFFF
310
FFFFFFFFFFFFFFFFFFFFFFFFFFFFFFFFFFFFFFFFFFFFFFFFFFFFFFFFFFFFFFFF
310
FFFFFFFFFFFFFFFFFFFFFFFFFFFFFFFFFFFFFFFFFFFFFFFFFFFFFFFFFFFFFFFF
310
FFFFFFFFFFFFFFFFF000FFFFFFFFFFFFFFFFFFFFFFFFFFFFFFFFFFFFFFFFFFFF
310
FFFFFFFFFFFFFFFFFFFFFFFFFFFFFFFFFFFFFFFFFFFFFFFFFFFFFFFFFFFFFFFF
310
FFFFFFFFFFFFFFFFFFFFFFFFFFFFFFFFFFFFFFFFFFFFFFFFFFFFFFFFFFFFFFFF
310
F000FFFFFFFFFFFFFFFFFFFFFFFFFFFFFFFFFFFFFFFFFFFFFFFFFFFFFFFFFFFF
310
FFFFFFFFFFFFFFFFFFFFFFFFFFFFFFFFFFFFFFFFFFFFFFFFFFFFFFFFFFFFFFFF
310
FFFFFFFFFFFFFFFFFFFFFFFFFFFFFFFFFFFFFFFFFFFFFFFFF000FFFFFFFFFFFF
310
FFFFFFFFFFFFFFFFFFFFFFFFFFFFFFFFFFFFFFFFFFFFFFFFFFFFFFFFFFFFFFFF
310
FFFFFFFFFFFFFFFFFFFFFFFFFFFFFFFFFFFFFFFFFFFFFFFFFFFFFFFFFFFFFFFF
310
FFFFFFFFFFFFFFFFFFFFFFFFFFFFFFFFF000FFFFFFFFFFFFFFFFFFFFFFFFFFFF
310
FFFFFFFFFFFFFFFFFFFFFFFFFFFFFFFFFFFFFFFFFFFFFFFFFFFFFFFFFFFFFFFF
310
FFFFFFFFFFFFFFFFFFFFFFFFFFFFFFFFFFFFFFFFFFFFFFFFFFFFFFFFFFFFFFFF
310
FFFFFFFFFFFFFFFFF000FFFFFFFFFFFFFFFFFFFFFFFFFFFFFFFFFFFFFFFFFFFF
310
FFFFFFFFFFFFFFFFFFFFFFFFFFFFFFFFFFFFFFFFFFFFFFFFFFFFFFFFFFFFFFFF
310
FFFFFFFFFFFFFFFFFFFFFFFFFFFFFFFFFFFFFFFFFFFFFFFFFFFFFFFFFFFFFFFF
310
F000FFFFFFFFFFFFFFFFFFFFFFFFFFFFFFFFFFFFFFFFFFFFFFFFFFFFFFFFFFFF
310
FFFFFFFFFFFFFFFFFFFFFFFFFFFFFFFFFFFFFFFFFFFFFFFFFFFFFFFFFFFFFFFF
310
FFFFFFFFFFFFFFFFFFFFFFFFFFFFFFFFFFFFFFFFFFFFFFFFF000FFFFFFFFFFFF
310
FFFFFFFFFFFFFFFFFFFFFFFFFFFFFFFFFFFFFFFFFFFFFFFFFFFFFFFFFFFFFFFF
310
FFFFFFFFFFFFFFFFFFFFFFFFFFFFFFFFFFFFFFFFFFFFFFFFFFFFFFFFFFFFFFFF
310
FFFFFFFFFFFFFFFFFFFFFFFFFFFFFFFFF000FFFFFFFFFFFFFFFFFFFFFFFFFFFF
310
FFFFFFFFFFFFFFFFFFFFFFFFFFFFFFFFFFFFFFFFFFFFFFFFFFFFFFFFFFFFFFFF
310
FFFFFFFFFFFFFFFFFFFFFFFFFFFFFFFFFFFFFFFFFFFFFFFFFFFFFFFFFFFFFFFF
310
FFFFFFFFFFFFFFFFF000FFFFFFFFFFFFFFFFFFFFFFFFFFFFFFFFFFFFFFFFFFFF
310
FFFFFFFFFFFFFFFFFFFFFFFFFFFFFFFFFFFFFFFFFFFFFFFFFFFFFFFFFFFFFFFF
310
FFFFFFFFFFFFFFFFFFFFFFFFFFFFFFFFFFFFFFFFFFFFFFFFFFFFFFFFFFFFFFFF
310
F000FFFFFFFFFFFFFFFFFFFFFFFFFFFFFFFFFFFFFFFFFFFFFFFFFFFFFFFFFFFF
310
FFFFFFFFFFFFFFFFFFFFFFFFFFFFFFFFFFFFFFFFFFFFFFFFFFFFFFFFFFFFFFFF
310
FFFFFFFFFFFFFFFFFFFFFFFFFFFFFFFFFFFFFFFFFFFFFFFFF000FFFFFFFFFFFF
310
FFFFFFFFFFFFFFFFFFFFFFFFFFFFFFFFFFFFFFFFFFFFFFFFFFFFFFFFFFFFFFFF
310
FFFFFFFFFFFFFFFFFFFFFFFFFFFFFFFFFFFFFFFFFFFFFFFFFFFFFFFFFFFFFFFF
310
FFFFFFFFFFFFFFFFFFFFFFFFFFFFFFFFF0000000000000000000000000000000
310
0000000000000000000000000000000000000000000000000000000000000000
310
0000000000000000000000000000000000000000000000000000000000000000
310
0000000000000000000000000000000000000000000000000000000000000000
310
0000000000000000000000000000000000000000000000000000000000000000
310
0000000000000000000000000000000000000000000000000000000000000000
310
0000000000000000000000000000000000000000000000000000000000000000
310
0000000000000000000000000000000000000000000000000000000000000000
310
0000000000000000000000000000000000000000000000000000000000000000
310
0000000000000000000000000000000000000000000000000000000000000000
310
0000000000000000000000000000000000000000000000000000000000000000
310
0000000000000000000000000000000000000000000000000000000000000000
310
0000000000000000000000000000000000000000000000000000000000000000
310
0000000000000000000000000000000000000000000000000000000000000000
310
0000000000000000000000000000000000000000000000000000000000000000
310
0000000000000000000000000000000000000000000000000000000000000000
  1
OLE
  0
ENDSEC
  0
SECTION
  2
OBJECTS
  0
DICTIONARY
  5
C
330
0
100
AcDbDictionary
281
     1
  3
ACAD_GROUP
350
D
  3
ACAD_LAYOUT
350
1A
  3
ACAD_MLINESTYLE
350
17
  3
ACAD_PLOTSETTINGS
350
19
  3
ACAD_PLOTSTYLENAME
350
E
  3
ACAD_SCALELIST
350
47
  0
DICTIONARY
  5
D
102
{ACAD_REACTORS
330
C
102
}
330
C
100
AcDbDictionary
281
     1
  0
DICTIONARY
  5
1A
102
{ACAD_REACTORS
330
C
102
}
330
C
100
AcDbDictionary
281
     1
  3
Layout1
350
1E
  3
Layout2
350
26
  3
Model
350
22
  0
DICTIONARY
  5
17
102
{ACAD_REACTORS
330
C
102
}
330
C
100
AcDbDictionary
281
     1
  3
Standard
350
18
  0
DICTIONARY
  5
19
102
{ACAD_REACTORS
330
C
102
}
330
C
100
AcDbDictionary
281
     1
  0
ACDBDICTIONARYWDFLT
  5
E
102
{ACAD_REACTORS
330
C
102
}
330
C
100
AcDbDictionary
281
     1
  3
Normal
350
F
100
AcDbDictionaryWithDefault
340
F
  0
DICTIONARY
  5
47
102
{ACAD_REACTORS
330
C
102
}
330
C
100
AcDbDictionary
281
     1
  3
A0
350
48
  3
A1
350
49
  3
A2
350
4A
  3
A3
350
4B
  3
A4
350
4C
  3
A5
350
4D
  3
A6
350
4E
  3
A7
350
4F
  3
A8
350
50
  3
A9
350
51
  3
B0
350
52
  3
B1
350
53
  3
B2
350
54
  3
B3
350
55
  3
B4
350
56
  3
B5
350
57
  3
B6
350
58
  3
B7
350
59
  3
B8
350
5A
  3
B9
350
5B
  3
C0
350
5C
  3
C1
350
5D
  3
C2
350
5E
  3
C3
350
5F
  3
C4
350
60
  3
C5
350
61
  3
C6
350
62
  3
C7
350
63
  3
C8
350
64
  3
C9
350
65
  3
D0
350
66
  3
D1
350
67
  3
D2
350
68
  0
LAYOUT
  5
1E
102
{ACAD_REACTORS
330
1A
102
}
330
1A
100
AcDbPlotSettings
  1

  2
none_device
  4

  6

 40
0.0
 41
0.0
 42
0.0
 43
0.0
 44
0.0
 45
0.0
 46
0.0
 47
0.0
 48
0.0
 49
0.0
140
0.0
141
0.0
142
1.0
143
1.0
 70
   688
 72
     1
 73
     0
 74
     5
  7

 75
    16
147
1.0
148
0.0
149
0.0
100
AcDbLayout
  1
Layout1
 70
     1
 71
     1
 10
0.0
 20
0.0
 11
420.0
 21
297.0
 12
0.0
 22
0.0
 32
0.0
 14
1.0000000000E+20
 24
1.0000000000E+20
 34
1.0000000000E+20
 15
-1.0000000000E+20
 25
-1.0000000000E+20
 35
-1.0000000000E+20
146
0.0
 13
0.0
 23
0.0
 33
0.0
 16
1.0
 26
0.0
 36
0.0
 17
0.0
 27
1.0
 37
0.0
 76
     0
330
1B
  0
LAYOUT
  5
26
102
{ACAD_REACTORS
330
1A
102
}
330
1A
100
AcDbPlotSettings
  1

  2
none_device
  4

  6

 40
0.0
 41
0.0
 42
0.0
 43
0.0
 44
0.0
 45
0.0
 46
0.0
 47
0.0
 48
0.0
 49
0.0
140
0.0
141
0.0
142
1.0
143
1.0
 70
   688
 72
     1
 73
     0
 74
     5
  7

 75
    16
147
1.0
148
0.0
149
0.0
100
AcDbLayout
  1
Layout2
 70
     1
 71
     2
 10
0.0
 20
0.0
 11
0.0
 21
0.0
 12
0.0
 22
0.0
 32
0.0
 14
0.0
 24
0.0
 34
0.0
 15
0.0
 25
0.0
 35
0.0
146
0.0
 13
0.0
 23
0.0
 33
0.0
 16
1.0
 26
0.0
 36
0.0
 17
0.0
 27
1.0
 37
0.0
 76
     0
330
23
  0
LAYOUT
  5
22
102
{ACAD_REACTORS
330
1A
102
}
330
1A
100
AcDbPlotSettings
  1

  2
none_device
  4
Letter_(8.50_x_11.00_Inches)
  6

 40
6.35
 41
6.35
 42
6.35000508
 43
6.35000508
 44
215.9
 45
279.4
 46
0.0
 47
0.0
 48
0.0
 49
0.0
140
0.0
141
0.0
142
1.0
143
1.0
 70
  1712
 72
     1
 73
     0
 74
     0
  7

 75
     0
147
1.0
148
0.0
149
0.0
100
AcDbLayout
  1
Model
 70
     1
 71
     0
 10
0.0
 20
0.0
 11
297.0
 21
210.0
 12
0.0
 22
0.0
 32
0.0
 14
0.0
 24
0.0
 34
0.0
 15
297.0
 25
210.0
 35
0.0
146
0.0
 13
0.0
 23
0.0
 33
0.0
 16
1.0
 26
0.0
 36
0.0
 17
0.0
 27
1.0
 37
0.0
 76
     0
330
1F
331
29
  0
MLINESTYLE
  5
18
102
{ACAD_REACTORS
330
17
102
}
330
17
100
AcDbMlineStyle
  2
Standard
 70
     0
  3

 62
   256
 51
90.0
 52
90.0
 71
     2
 49
0.5
 62
   256
  6
BYLAYER
 49
-0.5
 62
   256
  6
BYLAYER
  0
ACDBPLACEHOLDER
  5
F
102
{ACAD_REACTORS
330
E
102
}
330
E
  0
SCALE
  5
48
102
{ACAD_REACTORS
330
47
102
}
330
47
100
AcDbScale
 70
     0
300
1:1
140
1.0
141
1.0
290
     1
  0
SCALE
  5
49
102
{ACAD_REACTORS
330
47
102
}
330
47
100
AcDbScale
 70
     0
300
1:2
140
1.0
141
2.0
290
     0
  0
SCALE
  5
4A
102
{ACAD_REACTORS
330
47
102
}
330
47
100
AcDbScale
 70
     0
300
1:4
140
1.0
141
4.0
290
     0
  0
SCALE
  5
4B
102
{ACAD_REACTORS
330
47
102
}
330
47
100
AcDbScale
 70
     0
300
1:5
140
1.0
141
5.0
290
     0
  0
SCALE
  5
4C
102
{ACAD_REACTORS
330
47
102
}
330
47
100
AcDbScale
 70
     0
300
1:8
140
1.0
141
8.0
290
     0
  0
SCALE
  5
4D
102
{ACAD_REACTORS
330
47
102
}
330
47
100
AcDbScale
 70
     0
300
1:10
140
1.0
141
10.0
290
     0
  0
SCALE
  5
4E
102
{ACAD_REACTORS
330
47
102
}
330
47
100
AcDbScale
 70
     0
300
1:16
140
1.0
141
16.0
290
     0
  0
SCALE
  5
4F
102
{ACAD_REACTORS
330
47
102
}
330
47
100
AcDbScale
 70
     0
300
1:20
140
1.0
141
20.0
290
     0
  0
SCALE
  5
50
102
{ACAD_REACTORS
330
47
102
}
330
47
100
AcDbScale
 70
     0
300
1:30
140
1.0
141
30.0
290
     0
  0
SCALE
  5
51
102
{ACAD_REACTORS
330
47
102
}
330
47
100
AcDbScale
 70
     0
300
1:40
140
1.0
141
40.0
290
     0
  0
SCALE
  5
52
102
{ACAD_REACTORS
330
47
102
}
330
47
100
AcDbScale
 70
     0
300
1:50
140
1.0
141
50.0
290
     0
  0
SCALE
  5
53
102
{ACAD_REACTORS
330
47
102
}
330
47
100
AcDbScale
 70
     0
300
1:100
140
1.0
141
100.0
290
     0
  0
SCALE
  5
54
102
{ACAD_REACTORS
330
47
102
}
330
47
100
AcDbScale
 70
     0
300
2:1
140
2.0
141
1.0
290
     0
  0
SCALE
  5
55
102
{ACAD_REACTORS
330
47
102
}
330
47
100
AcDbScale
 70
     0
300
4:1
140
4.0
141
1.0
290
     0
  0
SCALE
  5
56
102
{ACAD_REACTORS
330
47
102
}
330
47
100
AcDbScale
 70
     0
300
8:1
140
8.0
141
1.0
290
     0
  0
SCALE
  5
57
102
{ACAD_REACTORS
330
47
102
}
330
47
100
AcDbScale
 70
     0
300
10:1
140
10.0
141
1.0
290
     0
  0
SCALE
  5
58
102
{ACAD_REACTORS
330
47
102
}
330
47
100
AcDbScale
 70
     0
300
100:1
140
100.0
141
1.0
290
     0
  0
SCALE
  5
59
102
{ACAD_REACTORS
330
47
102
}
330
47
100
AcDbScale
 70
     0
300
1/128" = 1'-0"
140
0.0078125
141
12.0
290
     0
  0
SCALE
  5
5A
102
{ACAD_REACTORS
330
47
102
}
330
47
100
AcDbScale
 70
     0
300
1/64" = 1'-0"
140
0.015625
141
12.0
290
     0
  0
SCALE
  5
5B
102
{ACAD_REACTORS
330
47
102
}
330
47
100
AcDbScale
 70
     0
300
1/32" = 1'-0"
140
0.03125
141
12.0
290
     0
  0
SCALE
  5
5C
102
{ACAD_REACTORS
330
47
102
}
330
47
100
AcDbScale
 70
     0
300
1/16" = 1'-0"
140
0.0625
141
12.0
290
     0
  0
SCALE
  5
5D
102
{ACAD_REACTORS
330
47
102
}
330
47
100
AcDbScale
 70
     0
300
3/32" = 1'-0"
140
0.09375
141
12.0
290
     0
  0
SCALE
  5
5E
102
{ACAD_REACTORS
330
47
102
}
330
47
100
AcDbScale
 70
     0
300
1/8" = 1'-0"
140
0.125
141
12.0
290
     0
  0
SCALE
  5
5F
102
{ACAD_REACTORS
330
47
102
}
330
47
100
AcDbScale
 70
     0
300
3/16" = 1'-0"
140
0.1875
141
12.0
290
     0
  0
SCALE
  5
60
102
{ACAD_REACTORS
330
47
102
}
330
47
100
AcDbScale
 70
     0
300
1/4" = 1'-0"
140
0.25
141
12.0
290
     0
  0
SCALE
  5
61
102
{ACAD_REACTORS
330
47
102
}
330
47
100
AcDbScale
 70
     0
300
3/8" = 1'-0"
140
0.375
141
12.0
290
     0
  0
SCALE
  5
62
102
{ACAD_REACTORS
330
47
102
}
330
47
100
AcDbScale
 70
     0
300
1/2" = 1'-0"
140
0.5
141
12.0
290
     0
  0
SCALE
  5
63
102
{ACAD_REACTORS
330
47
102
}
330
47
100
AcDbScale
 70
     0
300
3/4" = 1'-0"
140
0.75
141
12.0
290
     0
  0
SCALE
  5
64
102
{ACAD_REACTORS
330
47
102
}
330
47
100
AcDbScale
 70
     0
300
1" = 1'-0"
140
1.0
141
12.0
290
     0
  0
SCALE
  5
65
102
{ACAD_REACTORS
330
47
102
}
330
47
100
AcDbScale
 70
     0
300
1-1/2" = 1'-0"
140
1.5
141
12.0
290
     0
  0
SCALE
  5
66
102
{ACAD_REACTORS
330
47
102
}
330
47
100
AcDbScale
 70
     0
300
3" = 1'-0"
140
3.0
141
12.0
290
     0
  0
SCALE
  5
67
102
{ACAD_REACTORS
330
47
102
}
330
47
100
AcDbScale
 70
     0
300
6" = 1'-0"
140
6.0
141
12.0
290
     0
  0
SCALE
  5
68
102
{ACAD_REACTORS
330
47
102
}
330
47
100
AcDbScale
 70
     0
300
1'-0" = 1'-0"
140
12.0
141
12.0
290
     0
  0
ENDSEC
  0
EOF
