  0
SECTION
  2
HEADER
  9
$ACADVER
  1
AC1015
  9
$ACADMAINTVER
 70
     6
  9
$DWGCODEPAGE
  3
ANSI_1252
  9
$INSBASE
 10
0.0
 20
0.0
 30
0.0
  9
$EXTMIN
 10
0.0
 20
0.0
 30
0.0
  9
$EXTMAX
 10
297.0
 20
210.0
 30
0.0
  9
$LIMMIN
 10
0.0
 20
0.0
  9
$LIMMAX
 10
297.0
 20
210.0
  9
$ORTHOMODE
 70
     0
  9
$REGENMODE
 70
     1
  9
$FILLMODE
 70
     1
  9
$QTEXTMODE
 70
     0
  9
$MIRRTEXT
 70
     1
  9
$LTSCALE
 40
1.0
  9
$ATTMODE
 70
     1
  9
$TEXTSIZE
 40
2.0
  9
$TRACEWID
 40
1.0
  9
$TEXTSTYLE
  7
Standard
  9
$CLAYER
  8
0
  9
$CELTYPE
  6
ByLayer
  9
$CECOLOR
 62
   256
  9
$CELTSCALE
 40
1.0
  9
$DISPSILH
 70
     0
  9
$DIMSCALE
 40
1.0
  9
$DIMASZ
 40
3.0
  9
$DIMEXO
 40
0.0
  9
$DIMDLI
 40
3.75
  9
$DIMRND
 40
0.0
  9
$DIMDLE
 40
0.0
  9
$DIMEXE
 40
1.0
  9
$DIMTP
 40
0.0
  9
$DIMTM
 40
0.0
  9
$DIMTXT
 40
2.0
  9
$DIMCEN
 40
2.5
  9
$DIMTSZ
 40
0.0
  9
$DIMTOL
 70
     0
  9
$DIMLIM
 70
     0
  9
$DIMTIH
 70
     1
  9
$DIMTOH
 70
     1
  9
$DIMSE1
 70
     0
  9
$DIMSE2
 70
     0
  9
$DIMTAD
 70
     1
  9
$DIMZIN
 70
     0
  9
$DIMBLK
  1

  9
$DIMASO
 70
     1
  9
$DIMSHO
 70
     1
  9
$DIMPOST
  1

  9
$DIMAPOST
  1

  9
$DIMALT
 70
     0
  9
$DIMALTD
 70
     3
  9
$DIMALTF
 40
0.0393700787
  9
$DIMLFAC
 40
1.0
  9
$DIMTOFL
 70
     1
  9
$DIMTVP
 40
0.0
  9
$DIMTIX
 70
     0
  9
$DIMSOXD
 70
     0
  9
$DIMSAH
 70
     0
  9
$DIMBLK1
  1

  9
$DIMBLK2
  1

  9
$DIMSTYLE
  2
ISO-25
  9
$DIMCLRD
 70
     0
  9
$DIMCLRE
 70
     0
  9
$DIMCLRT
 70
     0
  9
$DIMTFAC
 40
1.0
  9
$DIMGAP
 40
1.524
  9
$DIMJUST
 70
     0
  9
$DIMSD1
 70
     0
  9
$DIMSD2
 70
     0
  9
$DIMTOLJ
 70
     0
  9
$DIMTZIN
 70
     0
  9
$DIMALTZ
 70
     0
  9
$DIMALTTZ
 70
     0
  9
$DIMUPT
 70
     0
  9
$DIMDEC
 70
     2
  9
$DIMTDEC
 70
     3
  9
$DIMALTU
 70
     2
  9
$DIMALTTD
 70
     3
  9
$DIMTXSTY
  7
Standard
  9
$DIMAUNIT
 70
     0
  9
$DIMADEC
 70
     2
  9
$DIMALTRND
 40
0.0
  9
$DIMAZIN
 70
     0
  9
$DIMDSEP
 70
    44
  9
$DIMATFIT
 70
     3
  9
$DIMFRAC
 70
     0
  9
$DIMLDRBLK
  1

  9
$DIMLUNIT
 70
     2
  9
$DIMLWD
 70
    -2
  9
$DIMLWE
 70
    -2
  9
$DIMTMOVE
 70
     0
  9
$LUNITS
 70
     2
  9
$LUPREC
 70
     2
  9
$SKETCHINC
 40
1.0
  9
$FILLETRAD
 40
10.0
  9
$AUNITS
 70
     0
  9
$AUPREC
 70
     2
  9
$MENU
  1
.
  9
$ELEVATION
 40
0.0
  9
$PELEVATION
 40
0.0
  9
$THICKNESS
 40
0.0
  9
$LIMCHECK
 70
     0
  9
$CHAMFERA
 40
0.0
  9
$CHAMFERB
 40
0.0
  9
$CHAMFERC
 40
0.0
  9
$CHAMFERD
 40
0.0
  9
$SKPOLY
 70
     0
  9
$TDCREATE
 40
2457667.629098206
  9
$TDUCREATE
 40
2457667.545764873
  9
$TDUPDATE
 40
2457667.62909941
  9
$TDUUPDATE
 40
2457667.545766077
  9
$TDINDWG
 40
0.0000000116
  9
$TDUSRTIMER
 40
0.0000000116
  9
$USRTIMER
 70
     1
  9
$ANGBASE
 50
0.0
  9
$ANGDIR
 70
     0
  9
$PDMODE
 70
     0
  9
$PDSIZE
 40
-1.0
  9
$PLINEWID
 40
0.0
  9
$SPLFRAME
 70
     0
  9
$SPLINETYPE
 70
     6
  9
$SPLINESEGS
 70
     8
  9
$HANDSEED
  5
221
  9
$SURFTAB1
 70
     6
  9
$SURFTAB2
 70
     6
  9
$SURFTYPE
 70
     6
  9
$SURFU
 70
     6
  9
$SURFV
 70
     6
  9
$UCSBASE
  2

  9
$UCSNAME
  2

  9
$UCSORG
 10
0.0
 20
0.0
 30
0.0
  9
$UCSXDIR
 10
1.0
 20
0.0
 30
0.0
  9
$UCSYDIR
 10
0.0
 20
1.0
 30
0.0
  9
$UCSORTHOREF
  2

  9
$UCSORTHOVIEW
 70
     0
  9
$UCSORGTOP
 10
0.0
 20
0.0
 30
0.0
  9
$UCSORGBOTTOM
 10
0.0
 20
0.0
 30
0.0
  9
$UCSORGLEFT
 10
0.0
 20
0.0
 30
0.0
  9
$UCSORGRIGHT
 10
0.0
 20
0.0
 30
0.0
  9
$UCSORGFRONT
 10
0.0
 20
0.0
 30
0.0
  9
$UCSORGBACK
 10
0.0
 20
0.0
 30
0.0
  9
$PUCSBASE
  2

  9
$PUCSNAME
  2

  9
$PUCSORG
 10
0.0
 20
0.0
 30
0.0
  9
$PUCSXDIR
 10
1.0
 20
0.0
 30
0.0
  9
$PUCSYDIR
 10
0.0
 20
1.0
 30
0.0
  9
$PUCSORTHOREF
  2

  9
$PUCSORTHOVIEW
 70
     0
  9
$PUCSORGTOP
 10
0.0
 20
0.0
 30
0.0
  9
$PUCSORGBOTTOM
 10
0.0
 20
0.0
 30
0.0
  9
$PUCSORGLEFT
 10
0.0
 20
0.0
 30
0.0
  9
$PUCSORGRIGHT
 10
0.0
 20
0.0
 30
0.0
  9
$PUCSORGFRONT
 10
0.0
 20
0.0
 30
0.0
  9
$PUCSORGBACK
 10
0.0
 20
0.0
 30
0.0
  9
$USERI1
 70
     0
  9
$USERI2
 70
     0
  9
$USERI3
 70
     0
  9
$USERI4
 70
     0
  9
$USERI5
 70
     0
  9
$USERR1
 40
0.0
  9
$USERR2
 40
0.0
  9
$USERR3
 40
0.0
  9
$USERR4
 40
0.0
  9
$USERR5
 40
0.0
  9
$WORLDVIEW
 70
     1
  9
$SHADEDGE
 70
     3
  9
$SHADEDIF
 70
    70
  9
$TILEMODE
 70
     1
  9
$MAXACTVP
 70
    64
  9
$PINSBASE
 10
0.0
 20
0.0
 30
0.0
  9
$PLIMCHECK
 70
     0
  9
$PEXTMIN
 10
1.0000000000E+20
 20
1.0000000000E+20
 30
1.0000000000E+20
  9
$PEXTMAX
 10
-1.0000000000E+20
 20
-1.0000000000E+20
 30
-1.0000000000E+20
  9
$PLIMMIN
 10
0.0
 20
0.0
  9
$PLIMMAX
 10
420.0
 20
297.0
  9
$UNITMODE
 70
     0
  9
$VISRETAIN
 70
     1
  9
$PLINEGEN
 70
     0
  9
$PSLTSCALE
 70
     1
  9
$TREEDEPTH
 70
  3020
  9
$CMLSTYLE
  2
Standard
  9
$CMLJUST
 70
     0
  9
$CMLSCALE
 40
20.0
  9
$PROXYGRAPHICS
 70
     1
  9
$MEASUREMENT
 70
     1
  9
$CELWEIGHT
370
    -1
  9
$ENDCAPS
280
     0
  9
$JOINSTYLE
280
     0
  9
$LWDISPLAY
290
     1
  9
$INSUNITS
 70
     4
  9
$HYPERLINKBASE
  1

  9
$STYLESHEET
  1

  9
$XEDIT
290
     1
  9
$CEPSNTYPE
380
     0
  9
$PSTYLEMODE
290
     1
  9
$FINGERPRINTGUID
  2
{3B36BB32-4A61-4175-8014-70C162DCD0FE}
  9
$VERSIONGUID
  2
{FAEB1C32-E019-11D5-929B-00C0DF256EC4}
  9
$EXTNAMES
290
     1
  9
$PSVPSCALE
 40
0.0
  9
$OLESTARTUP
290
     0
  0
ENDSEC
  0
SECTION
  2
CLASSES
  0
CLASS
  1
ACDBDICTIONARYWDFLT
  2
AcDbDictionaryWithDefault
  3
ObjectDBX Classes
 90
        0
280
     0
281
     0
  0
CLASS
  1
VISUALSTYLE
  2
AcDbVisualStyle
  3
ObjectDBX Classes
 90
     4095
280
     0
281
     0
  0
CLASS
  1
MATERIAL
  2
AcDbMaterial
  3
ObjectDBX Classes
 90
     1153
280
     0
281
     0
  0
CLASS
  1
SCALE
  2
AcDbScale
  3
ObjectDBX Classes
 90
     1153
280
     0
281
     0
  0
CLASS
  1
TABLESTYLE
  2
AcDbTableStyle
  3
ObjectDBX Classes
 90
     4095
280
     0
281
     0
  0
CLASS
  1
MLEADERSTYLE
  2
AcDbMLeaderStyle
  3
ACDB_MLEADERSTYLE_CLASS
 90
     4095
280
     0
281
     0
  0
CLASS
  1
SUN
  2
AcDbSun
  3
SCENEOE
 90
     1153
280
     0
281
     0
  0
CLASS
  1
ACDBPLACEHOLDER
  2
AcDbPlaceHolder
  3
ObjectDBX Classes
 90
        0
280
     0
281
     0
  0
CLASS
  1
LAYOUT
  2
AcDbLayout
  3
ObjectDBX Classes
 90
        0
280
     0
281
     0
  0
ENDSEC
  0
SECTION
  2
TABLES
  0
TABLE
  2
VPORT
  5
8
330
0
100
AcDbSymbolTable
 70
     1
  0
VPORT
  5
29
330
8
100
AcDbSymbolTableRecord
100
AcDbViewportTableRecord
  2
*Active
 70
     0
 10
0.0
 20
0.0
 11
1.0
 21
1.0
 12
148.5
 22
105.0
 13
0.0
 23
0.0
 14
10.0
 24
10.0
 15
10.0
 25
10.0
 16
0.0
 26
0.0
 36
1.0
 17
0.0
 27
0.0
 37
0.0
 40
210.0
 41
1.4142857143
 42
50.0
 43
0.0
 44
0.0
 50
0.0
 51
0.0
 71
     0
 72
  2000
 73
     1
 74
     3
 75
     0
 76
     0
 77
     0
 78
     0
281
     0
 65
     1
110
0.0
120
0.0
130
0.0
111
1.0
121
0.0
131
0.0
112
0.0
122
1.0
132
0.0
 79
     0
146
0.0
  0
ENDTAB
  0
TABLE
  2
LTYPE
  5
5
330
0
100
AcDbSymbolTable
 70
     6
  0
LTYPE
  5
14
330
5
100
AcDbSymbolTableRecord
100
AcDbLinetypeTableRecord
  2
ByBlock
 70
     0
  3

 72
    65
 73
     0
 40
0.0
  0
LTYPE
  5
15
330
5
100
AcDbSymbolTableRecord
100
AcDbLinetypeTableRecord
  2
ByLayer
 70
     0
  3

 72
    65
 73
     0
 40
0.0
  0
LTYPE
  5
16
330
5
100
AcDbSymbolTableRecord
100
AcDbLinetypeTableRecord
  2
Continuous
 70
     0
  3
Solid line
 72
    65
 73
     0
 40
0.0
  0
LTYPE
  5
6E
330
5
100
AcDbSymbolTableRecord
100
AcDbLinetypeTableRecord
  2
HIDDEN
 70
     0
  3
Hidden __ __ __ __ __ __ __ __ __ __ __ __ __ __
 72
    65
 73
     2
 40
1.905
 49
1.27
 74
     0
 49
-0.635
 74
     0
  0
LTYPE
  5
6F
330
5
100
AcDbSymbolTableRecord
100
AcDbLinetypeTableRecord
  2
PHANTOM
 70
     0
  3
Phantom ______  __  __  ______  __  __  ______
 72
    65
 73
     6
 40
12.7
 49
6.35
 74
     0
 49
-1.27
 74
     0
 49
1.27
 74
     0
 49
-1.27
 74
     0
 49
1.27
 74
     0
 49
-1.27
 74
     0
  0
LTYPE
  5
70
330
5
100
AcDbSymbolTableRecord
100
AcDbLinetypeTableRecord
  2
CENTER
 70
     0
  3
Center ____ _ ____ _ ____ _ ____ _ ____ _ ____
 72
    65
 73
     4
 40
10.16
 49
6.35
 74
     0
 49
-1.27
 74
     0
 49
1.27
 74
     0
 49
-1.27
 74
     0
  0
LTYPE
  5
71
330
5
100
AcDbSymbolTableRecord
100
AcDbLinetypeTableRecord
  2
CENTERX2
 70
     0
  3
Center (2x) ________  __  ________  __  _____
 72
    65
 73
     4
 40
20.32
 49
12.7
 74
     0
 49
-2.54
 74
     0
 49
2.54
 74
     0
 49
-2.54
 74
     0
  0
LTYPE
  5
72
330
5
100
AcDbSymbolTableRecord
100
AcDbLinetypeTableRecord
  2
DOT2
 70
     0
  3
Dot (.5x) ........................................
 72
    65
 73
     2
 40
0.635
 49
0.0
 74
     0
 49
-0.635
 74
     0
  0
ENDTAB
  0
TABLE
  2
LAYER
  5
2
330
0
100
AcDbSymbolTable
 70
     5
  0
LAYER
  5
10
330
2
100
AcDbSymbolTableRecord
100
AcDbLayerTableRecord
  2
0
 70
     0
 62
     7
  6
Continuous
370
    -3
390
F
  0
LAYER
  5
73
330
2
100
AcDbSymbolTableRecord
100
AcDbLayerTableRecord
  2
FORMAT
 70
     0
 62
     7
  6
Continuous
370
    -3
390
F
  0
LAYER
  5
74
330
2
100
AcDbSymbolTableRecord
100
AcDbLayerTableRecord
  2
VERMASSUNG
 70
     0
 62
     7
  6
Continuous
370
    -3
390
F
  0
LAYER
  5
75
330
2
100
AcDbSymbolTableRecord
100
AcDbLayerTableRecord
  2
KOPF_DÜNN
 70
     0
 62
     7
  6
Continuous
370
    -3
390
F
  0
LAYER
  5
76
330
2
100
AcDbSymbolTableRecord
100
AcDbLayerTableRecord
  2
KOPF_DICK
 70
     0
 62
     7
  6
Continuous
370
    15
390
F
  0
ENDTAB
  0
TABLE
  2
STYLE
  5
3
330
0
100
AcDbSymbolTable
 70
     2
  0
STYLE
  5
11
330
3
100
AcDbSymbolTableRecord
100
AcDbTextStyleTableRecord
  2
Standard
 70
     0
 40
0.0
 41
1.0
 50
0.0
 71
     0
 42
2.0
  3
txt
  4

  0
STYLE
  5
77
330
3
100
AcDbSymbolTableRecord
100
AcDbTextStyleTableRecord
  2
SLDTEXTSTYLE0
 70
     0
 40
0.0
 41
0.7
 50
0.0
 71
     0
 42
2.0
  3
TXT
  4

  0
ENDTAB
  0
TABLE
  2
VIEW
  5
6
330
0
100
AcDbSymbolTable
 70
     0
  0
ENDTAB
  0
TABLE
  2
UCS
  5
7
330
0
100
AcDbSymbolTable
 70
     0
  0
ENDTAB
  0
TABLE
  2
APPID
  5
9
330
0
100
AcDbSymbolTable
 70
     1
  0
APPID
  5
12
330
9
100
AcDbSymbolTableRecord
100
AcDbRegAppTableRecord
  2
ACAD
 70
     0
  0
ENDTAB
  0
TABLE
  2
DIMSTYLE
  5
A
330
0
100
AcDbSymbolTable
 70
     2
100
AcDbDimStyleTable
  0
DIMSTYLE
105
27
330
A
100
AcDbSymbolTableRecord
100
AcDbDimStyleTableRecord
  2
ISO-25
 70
     0
 41
2.5
 42
0.625
 43
3.75
 44
1.25
 73
     0
 74
     0
 77
     1
 78
     8
140
2.5
141
2.5
143
0.0393700787
147
0.625
171
     3
172
     1
178
     0
271
     2
272
     2
274
     3
278
    44
283
     0
284
     8
340
11
  0
DIMSTYLE
105
129
102
{ACAD_REACTORS
330
128
330
135
330
140
330
14C
330
156
330
162
102
}
330
A
100
AcDbSymbolTableRecord
100
AcDbDimStyleTableRecord
  2
SLDDIMSTYLE0
 70
     0
 41
3.0
 44
0.0
 45
0.000000001
 73
     0
 74
     0
 77
     1
 78
    12
 79
     3
140
2.0
147
0.5
173
     1
178
     0
271
     2
272
     3
276
     2
284
    12
340
77
  0
ENDTAB
  0
TABLE
  2
BLOCK_RECORD
  5
1
330
0
100
AcDbSymbolTable
 70
     7
  0
BLOCK_RECORD
  5
1F
330
1
100
AcDbSymbolTableRecord
100
AcDbBlockTableRecord
  2
*Model_Space
340
22
  0
BLOCK_RECORD
  5
1B
330
1
100
AcDbSymbolTableRecord
100
AcDbBlockTableRecord
  2
*Paper_Space
340
1E
  0
BLOCK_RECORD
  5
23
330
1
100
AcDbSymbolTableRecord
100
AcDbBlockTableRecord
  2
*Paper_Space0
340
26
  0
BLOCK_RECORD
  5
12A
330
1
100
AcDbSymbolTableRecord
100
AcDbBlockTableRecord
  2
_D
340
0
  0
BLOCK_RECORD
  5
136
330
1
100
AcDbSymbolTableRecord
100
AcDbBlockTableRecord
  2
_D_1
340
0
  0
BLOCK_RECORD
  5
141
330
1
100
AcDbSymbolTableRecord
100
AcDbBlockTableRecord
  2
_D_2
340
0
  0
BLOCK_RECORD
  5
14D
330
1
100
AcDbSymbolTableRecord
100
AcDbBlockTableRecord
  2
_D_3
340
0
  0
BLOCK_RECORD
  5
157
330
1
100
AcDbSymbolTableRecord
100
AcDbBlockTableRecord
  2
_D_4
340
0
  0
BLOCK_RECORD
  5
163
330
1
100
AcDbSymbolTableRecord
100
AcDbBlockTableRecord
  2
_D_5
340
0
  0
ENDTAB
  0
ENDSEC
  0
SECTION
  2
BLOCKS
  0
BLOCK
  5
20
330
1F
100
AcDbEntity
  8
0
100
AcDbBlockBegin
  2
*Model_Space
 70
     0
 10
0.0
 20
0.0
 30
0.0
  3
*Model_Space
  1

  0
ENDBLK
  5
21
330
1F
100
AcDbEntity
  8
0
100
AcDbBlockEnd
  0
BLOCK
  5
1C
330
1B
100
AcDbEntity
 67
     1
  8
0
100
AcDbBlockBegin
  2
*Paper_Space
 70
     0
 10
0.0
 20
0.0
 30
0.0
  3
*Paper_Space
  1

  0
ENDBLK
  5
1D
330
1B
100
AcDbEntity
 67
     1
  8
0
100
AcDbBlockEnd
  0
BLOCK
  5
24
330
23
100
AcDbEntity
  8
0
100
AcDbBlockBegin
  2
*Paper_Space0
 70
     0
 10
0.0
 20
0.0
 30
0.0
  3
*Paper_Space0
  1

  0
ENDBLK
  5
25
330
23
100
AcDbEntity
  8
0
100
AcDbBlockEnd
  0
BLOCK
  5
12B
330
12A
100
AcDbEntity
  8
0
100
AcDbBlockBegin
  2
_D
 70
     0
 10
0.0
 20
0.0
 30
0.0
  3
_D
  1

  0
SOLID
  5
12D
330
12A
100
AcDbEntity
  8
VERMASSUNG
100
AcDbTrace
 10
64.5809722485
 20
63.4126542254
 30
0.0
 11
65.0309722485
 21
66.4126542254
 31
0.0
 12
64.1309722485
 22
66.4126542254
 32
0.0
 13
64.1309722485
 23
66.4126542254
 33
0.0
  0
SOLID
  5
12E
330
12A
100
AcDbEntity
  8
VERMASSUNG
100
AcDbTrace
 10
64.5809722485
 20
160.8626542254
 30
0.0
 11
64.1309722485
 21
157.8626542254
 31
0.0
 12
65.0309722485
 22
157.8626542254
 32
0.0
 13
65.0309722485
 23
157.8626542254
 33
0.0
  0
LINE
  5
12F
330
12A
100
AcDbEntity
  8
VERMASSUNG
100
AcDbLine
 10
192.7205892055
 20
63.4126542254
 30
0.0
 11
63.5809722485
 21
63.4126542254
 31
0.0
  0
LINE
  5
130
330
12A
100
AcDbEntity
  8
VERMASSUNG
100
AcDbLine
 10
192.7205892055
 20
160.8626542254
 30
0.0
 11
63.5809722485
 21
160.8626542254
 31
0.0
  0
LINE
  5
131
330
12A
100
AcDbEntity
  8
VERMASSUNG
100
AcDbLine
 10
64.5809722485
 20
63.4126542254
 30
0.0
 11
64.5809722485
 21
160.8626542254
 31
0.0
  0
MTEXT
  5
132
330
12A
100
AcDbEntity
  8
VERMASSUNG
100
AcDbMText
 10
61.8028369923
 20
102.633218592
 30
0.0
 40
2.0
 41
0.0
 71
     1
 72
     1
  1
ISO 50
  7
SLDTEXTSTYLE0
 11
3.391901413832837E-15
 21
1.0
 31
0.0
 73
     1
 44
1.0
  0
MTEXT
  5
133
330
12A
100
AcDbEntity
  8
VERMASSUNG
100
AcDbMText
 10
62.0028369436
 20
111.6332182046
 30
0.0
 40
2.0
 41
0.0
 71
     1
 72
     1
  1
%%c
  7
SLDTEXTSTYLE0
 11
3.391901413832837E-15
 21
1.0
 31
0.0
 73
     1
 44
1.0
  0
MTEXT
  5
134
330
12A
100
AcDbEntity
  8
VERMASSUNG
100
AcDbMText
 10
62.0028366526
 20
115.2425615374
 30
0.0
 40
2.0
 41
0.0
 71
     1
 72
     1
  1
97.45
  7
SLDTEXTSTYLE0
 11
3.391901413832837E-15
 21
1.0
 31
0.0
 73
     1
 44
1.0
  0
ENDBLK
  5
12C
330
12A
100
AcDbEntity
  8
0
100
AcDbBlockEnd
  0
BLOCK
  5
137
330
136
100
AcDbEntity
  8
0
100
AcDbBlockBegin
  2
_D_1
 70
     0
 10
0.0
 20
0.0
 30
0.0
  3
_D_1
  1

  0
SOLID
  5
139
330
136
100
AcDbEntity
  8
VERMASSUNG
100
AcDbTrace
 10
230.3239444788
 20
119.1376542254
 30
0.0
 11
229.8739444788
 21
116.1376542254
 31
0.0
 12
230.7739444788
 22
116.1376542254
 32
0.0
 13
230.7739444788
 23
116.1376542254
 33
0.0
  0
SOLID
  5
13A
330
136
100
AcDbEntity
  8
VERMASSUNG
100
AcDbTrace
 10
230.3239444788
 20
105.1376542254
 30
0.0
 11
230.7739444788
 21
108.1376542254
 31
0.0
 12
229.8739444788
 22
108.1376542254
 32
0.0
 13
229.8739444788
 23
108.1376542254
 33
0.0
  0
LINE
  5
13B
330
136
100
AcDbEntity
  8
VERMASSUNG
100
AcDbLine
 10
217.3705892055
 20
119.1376542254
 30
0.0
 11
231.3239444788
 21
119.1376542254
 31
0.0
  0
LINE
  5
13C
330
136
100
AcDbEntity
  8
VERMASSUNG
100
AcDbLine
 10
217.3705892055
 20
105.1376542254
 30
0.0
 11
231.3239444788
 21
105.1376542254
 31
0.0
  0
LINE
  5
13D
330
136
100
AcDbEntity
  8
VERMASSUNG
100
AcDbLine
 10
230.3239444788
 20
119.1376542254
 30
0.0
 11
230.3239444788
 21
105.1376542254
 31
0.0
  0
MTEXT
  5
13E
330
136
100
AcDbEntity
  8
VERMASSUNG
100
AcDbMText
 10
227.7458089411
 20
109.0338498999
 30
0.0
 40
2.0
 41
0.0
 71
     1
 72
     1
  1
%%c
  7
SLDTEXTSTYLE0
 11
-7.044195017643634E-15
 21
1.0
 31
0.0
 73
     1
 44
1.0
  0
MTEXT
  5
13F
330
136
100
AcDbEntity
  8
VERMASSUNG
100
AcDbMText
 10
227.7458088829
 20
112.6428220935
 30
0.0
 40
2.0
 41
0.0
 71
     1
 72
     1
  1
14
  7
SLDTEXTSTYLE0
 11
-7.044195017643634E-15
 21
1.0
 31
0.0
 73
     1
 44
1.0
  0
ENDBLK
  5
138
330
136
100
AcDbEntity
  8
0
100
AcDbBlockEnd
  0
BLOCK
  5
142
330
141
100
AcDbEntity
  8
0
100
AcDbBlockBegin
  2
_D_2
 70
     0
 10
0.0
 20
0.0
 30
0.0
  3
_D_2
  1

  0
ARC
  5
144
330
141
100
AcDbEntity
  8
VERMASSUNG
100
AcDbCircle
 10
207.9073827174
 20
166.5338937539
 30
0.0
 40
4.247059938537297
100
AcDbArc
 50
153.4349488229
 51
206.5650511771
  0
ARC
  5
145
330
141
100
AcDbEntity
  8
VERMASSUNG
100
AcDbCircle
 10
209.6837956937
 20
166.5338937539
 30
0.0
 40
4.247059938537297
100
AcDbArc
 50
333.4349488229
 51
26.5650511771
  0
SOLID
  5
146
330
141
100
AcDbEntity
  8
VERMASSUNG
100
AcDbTrace
 10
193.3205892055
 20
164.6345508085
 30
0.0
 11
196.3205892055
 21
164.1845508085
 31
0.0
 12
196.3205892055
 22
165.0845508085
 32
0.0
 13
196.3205892055
 23
165.0845508085
 33
0.0
  0
SOLID
  5
147
330
141
100
AcDbEntity
  8
VERMASSUNG
100
AcDbTrace
 10
224.2705892055
 20
164.6345508085
 30
0.0
 11
221.2705892055
 21
165.0845508085
 31
0.0
 12
221.2705892055
 22
164.1845508085
 32
0.0
 13
221.2705892055
 23
164.1845508085
 33
0.0
  0
LINE
  5
148
330
141
100
AcDbEntity
  8
VERMASSUNG
100
AcDbLine
 10
193.3205892055
 20
158.4326411786
 30
0.0
 11
193.3205892055
 21
165.6345508085
 31
0.0
  0
LINE
  5
149
330
141
100
AcDbEntity
  8
VERMASSUNG
100
AcDbLine
 10
224.2705892055
 20
124.4376542254
 30
0.0
 11
224.2705892055
 21
165.6345508085
 31
0.0
  0
LINE
  5
14A
330
141
100
AcDbEntity
  8
VERMASSUNG
100
AcDbLine
 10
193.3205892055
 20
164.6345508085
 30
0.0
 11
224.2705892055
 21
164.6345508085
 31
0.0
  0
MTEXT
  5
14B
330
141
100
AcDbEntity
  8
VERMASSUNG
100
AcDbMText
 10
205.6961968265
 20
167.2126864045
 30
0.0
 40
2.0
 41
0.0
 71
     1
 72
     1
  1
30.95
  7
SLDTEXTSTYLE0
 73
     1
 44
1.0
  0
ENDBLK
  5
143
330
141
100
AcDbEntity
  8
0
100
AcDbBlockEnd
  0
BLOCK
  5
14E
330
14D
100
AcDbEntity
  8
0
100
AcDbBlockBegin
  2
_D_3
 70
     0
 10
0.0
 20
0.0
 30
0.0
  3
_D_3
  1

  0
SOLID
  5
150
330
14D
100
AcDbEntity
  8
VERMASSUNG
100
AcDbTrace
 10
174.2705892055
 20
170.6345508085
 30
0.0
 11
177.2705892055
 21
170.1845508085
 31
0.0
 12
177.2705892055
 22
171.0845508085
 32
0.0
 13
177.2705892055
 23
171.0845508085
 33
0.0
  0
SOLID
  5
151
330
14D
100
AcDbEntity
  8
VERMASSUNG
100
AcDbTrace
 10
224.2705892055
 20
170.6345508085
 30
0.0
 11
221.2705892055
 21
171.0845508085
 31
0.0
 12
221.2705892055
 22
170.1845508085
 32
0.0
 13
221.2705892055
 23
170.1845508085
 33
0.0
  0
LINE
  5
152
330
14D
100
AcDbEntity
  8
VERMASSUNG
100
AcDbLine
 10
174.2705892055
 20
147.0626542254
 30
0.0
 11
174.2705892055
 21
171.6345508085
 31
0.0
  0
LINE
  5
153
330
14D
100
AcDbEntity
  8
VERMASSUNG
100
AcDbLine
 10
224.2705892055
 20
124.4376542254
 30
0.0
 11
224.2705892055
 21
171.6345508085
 31
0.0
  0
LINE
  5
154
330
14D
100
AcDbEntity
  8
VERMASSUNG
100
AcDbLine
 10
174.2705892055
 20
170.6345508085
 30
0.0
 11
224.2705892055
 21
170.6345508085
 31
0.0
  0
MTEXT
  5
155
330
14D
100
AcDbEntity
  8
VERMASSUNG
100
AcDbMText
 10
197.8708991952
 20
173.2126864045
 30
0.0
 40
2.0
 41
0.0
 71
     1
 72
     1
  1
50
  7
SLDTEXTSTYLE0
 73
     1
 44
1.0
  0
ENDBLK
  5
14F
330
14D
100
AcDbEntity
  8
0
100
AcDbBlockEnd
  0
BLOCK
  5
158
330
157
100
AcDbEntity
  8
0
100
AcDbBlockBegin
  2
_D_4
 70
     0
 10
0.0
 20
0.0
 30
0.0
  3
_D_4
  1

  0
ARC
  5
15A
330
157
100
AcDbEntity
  8
VERMASSUNG
100
AcDbCircle
 10
147.9827668574
 20
178.5338937539
 30
0.0
 40
4.247059938537297
100
AcDbArc
 50
153.4349488229
 51
206.5650511771
  0
ARC
  5
15B
330
157
100
AcDbEntity
  8
VERMASSUNG
100
AcDbCircle
 10
148.9584115536
 20
178.5338937539
 30
0.0
 40
4.247059938537297
100
AcDbArc
 50
333.4349488229
 51
26.5650511771
  0
SOLID
  5
15C
330
157
100
AcDbEntity
  8
VERMASSUNG
100
AcDbTrace
 10
72.6705892055
 20
176.6345508085
 30
0.0
 11
75.6705892055
 21
176.1845508085
 31
0.0
 12
75.6705892055
 22
177.0845508085
 32
0.0
 13
75.6705892055
 23
177.0845508085
 33
0.0
  0
SOLID
  5
15D
330
157
100
AcDbEntity
  8
VERMASSUNG
100
AcDbTrace
 10
224.2705892055
 20
176.6345508085
 30
0.0
 11
221.2705892055
 21
177.0845508085
 31
0.0
 12
221.2705892055
 22
176.1845508085
 32
0.0
 13
221.2705892055
 23
176.1845508085
 33
0.0
  0
LINE
  5
15E
330
157
100
AcDbEntity
  8
VERMASSUNG
100
AcDbLine
 10
72.6705892055
 20
130.5164987527
 30
0.0
 11
72.6705892055
 21
177.6345508085
 31
0.0
  0
LINE
  5
15F
330
157
100
AcDbEntity
  8
VERMASSUNG
100
AcDbLine
 10
224.2705892055
 20
122.5406033457
 30
0.0
 11
224.2705892055
 21
177.6345508085
 31
0.0
  0
LINE
  5
160
330
157
100
AcDbEntity
  8
VERMASSUNG
100
AcDbLine
 10
72.6705892055
 20
176.6345508085
 30
0.0
 11
224.2705892055
 21
176.6345508085
 31
0.0
  0
MTEXT
  5
161
330
157
100
AcDbEntity
  8
VERMASSUNG
100
AcDbMText
 10
145.7715809666
 20
179.2126864045
 30
0.0
 40
2.0
 41
0.0
 71
     1
 72
     1
  1
151.6
  7
SLDTEXTSTYLE0
 73
     1
 44
1.0
  0
ENDBLK
  5
159
330
157
100
AcDbEntity
  8
0
100
AcDbBlockEnd
  0
BLOCK
  5
164
330
163
100
AcDbEntity
  8
0
100
AcDbBlockBegin
  2
_D_5
 70
     0
 10
0.0
 20
0.0
 30
0.0
  3
_D_5
  1

  0
SOLID
  5
166
330
163
100
AcDbEntity
  8
VERMASSUNG
100
AcDbTrace
 10
236.3239444788
 20
124.6376542254
 30
0.0
 11
235.8739444788
 21
121.6376542254
 31
0.0
 12
236.7739444788
 22
121.6376542254
 32
0.0
 13
236.7739444788
 23
121.6376542254
 33
0.0
  0
SOLID
  5
167
330
163
100
AcDbEntity
  8
VERMASSUNG
100
AcDbTrace
 10
236.3239444788
 20
99.6376542254
 30
0.0
 11
236.7739444788
 21
102.6376542254
 31
0.0
 12
235.8739444788
 22
102.6376542254
 32
0.0
 13
235.8739444788
 23
102.6376542254
 33
0.0
  0
LINE
  5
168
330
163
100
AcDbEntity
  8
VERMASSUNG
100
AcDbLine
 10
224.0705892055
 20
124.6376542254
 30
0.0
 11
237.3239444788
 21
124.6376542254
 31
0.0
  0
LINE
  5
169
330
163
100
AcDbEntity
  8
VERMASSUNG
100
AcDbLine
 10
224.0705892055
 20
99.6376542254
 30
0.0
 11
237.3239444788
 21
99.6376542254
 31
0.0
  0
LINE
  5
16A
330
163
100
AcDbEntity
  8
VERMASSUNG
100
AcDbLine
 10
236.3239444788
 20
124.6376542254
 30
0.0
 11
236.3239444788
 21
99.6376542254
 31
0.0
  0
MTEXT
  5
16B
330
163
100
AcDbEntity
  8
VERMASSUNG
100
AcDbMText
 10
233.5458092226
 20
106.0326550035
 30
0.0
 40
2.0
 41
0.0
 71
     1
 72
     1
  1
ST2
  7
SLDTEXTSTYLE0
 11
-7.044195017643634E-15
 21
1.0
 31
0.0
 73
     1
 44
1.0
  0
MTEXT
  5
16C
330
163
100
AcDbEntity
  8
VERMASSUNG
100
AcDbMText
 10
233.7458091739
 20
111.8326549297
 30
0.0
 40
2.0
 41
0.0
 71
     1
 72
     1
  1
%%c
  7
SLDTEXTSTYLE0
 11
-7.044195017643634E-15
 21
1.0
 31
0.0
 73
     1
 44
1.0
  0
MTEXT
  5
16D
330
163
100
AcDbEntity
  8
VERMASSUNG
100
AcDbMText
 10
233.5458092226
 20
115.4426544784
 30
0.0
 40
2.0
 41
0.0
 71
     1
 72
     1
  1
25
  7
SLDTEXTSTYLE0
 11
-7.044195017643634E-15
 21
1.0
 31
0.0
 73
     1
 44
1.0
  0
ENDBLK
  5
165
330
163
100
AcDbEntity
  8
0
100
AcDbBlockEnd
  0
ENDSEC
  0
SECTION
  2
ENTITIES
  0
MTEXT
  5
78
330
1F
100
AcDbEntity
  8
KOPF_DÜNN
100
AcDbMText
 10
13.8892156294
 20
23.8442973028
 30
0.0
 40
3.0
 41
0.0
 71
     1
 72
     1
  1
114.450.025.050
  7
SLDTEXTSTYLE0
 73
     1
 44
1.0
  0
MTEXT
  5
79
330
1F
100
AcDbEntity
  8
VERMASSUNG
100
AcDbMText
 10
13.9329988022
 20
28.8834360957
 30
0.0
 40
3.0
 41
0.0
 71
     1
 72
     1
  1
Aufnahme_Master shank ST2
  7
SLDTEXTSTYLE0
 73
     1
 44
1.0
  0
MTEXT
  5
7A
330
1F
100
AcDbEntity
  8
VERMASSUNG
100
AcDbMText
 10
98.8601118557
 20
13.8365368761
 30
0.0
 40
2.0
 41
0.0
 71
     1
 72
     1
  1
Datum: 14.05.2008
  7
SLDTEXTSTYLE0
 73
     1
 44
1.0
  0
MTEXT
  5
7B
330
1F
100
AcDbEntity
  8
VERMASSUNG
100
AcDbMText
 10
13.933048693
 20
18.0482802738
 30
0.0
 40
2.0
 41
0.0
 71
     1
 72
     1
  1
DIN 69871 A/D ISO 50
  7
SLDTEXTSTYLE0
 73
     1
 44
1.0
  0
MTEXT
  5
7C
330
1F
100
AcDbEntity
  8
VERMASSUNG
100
AcDbMText
 10
13.9808475933
 20
13.9090974274
 30
0.0
 40
2.0
 41
0.0
 71
     1
 72
     1
  1
Gewicht: 2759g
  7
SLDTEXTSTYLE0
 73
     1
 44
1.0
  0
ARC
  5
7D
330
1F
100
AcDbEntity
  8
0
  6
Continuous
 62
     7
370
    15
100
AcDbCircle
 10
176.8705892055
 20
76.6126542254
 30
0.0
 40
0.6000000000000085
100
AcDbArc
 50
0.0
 51
90.0
  0
ARC
  5
7E
330
1F
100
AcDbEntity
  8
0
  6
Continuous
 62
     7
370
    15
100
AcDbCircle
 10
176.8705892055
 20
147.6626542254
 30
0.0
 40
0.5999999999999943
100
AcDbArc
 50
270.0
 51
0.0
  0
LINE
  5
7F
330
1F
100
AcDbEntity
  8
0
  6
Continuous
 62
     7
370
    15
100
AcDbLine
 10
174.2705892055
 20
147.0626542254
 30
0.0
 11
74.3819754194
 21
132.4955647149
 31
0.0
  0
LINE
  5
80
330
1F
100
AcDbEntity
  8
0
  6
Continuous
 62
     7
370
    15
100
AcDbLine
 10
74.3819754194
 20
91.7797437358
 30
0.0
 11
174.2705892055
 21
77.2126542254
 31
0.0
  0
LINE
  5
81
330
1F
100
AcDbEntity
  8
0
  6
Continuous
 62
     7
370
    15
100
AcDbLine
 10
174.2705892055
 20
77.2126542254
 30
0.0
 11
176.8705892055
 21
77.2126542254
 31
0.0
  0
LINE
  5
82
330
1F
100
AcDbEntity
  8
0
  6
Continuous
 62
     7
370
    15
100
AcDbLine
 10
176.8705892055
 20
147.0626542254
 30
0.0
 11
174.2705892055
 21
147.0626542254
 31
0.0
  0
ARC
  5
83
330
1F
100
AcDbEntity
  8
0
  6
Continuous
 62
     7
370
    15
100
AcDbCircle
 10
74.6705892055
 20
93.758809698
 30
0.0
 40
1.999999999999992
100
AcDbArc
 50
180.0
 51
261.7028550302
  0
ARC
  5
84
330
1F
100
AcDbEntity
  8
0
  6
Continuous
 62
     7
370
    15
100
AcDbCircle
 10
74.6705892055
 20
130.5164987527
 30
0.0
 40
1.999999999999992
100
AcDbArc
 50
98.2971449698
 51
180.0
  0
ARC
  5
85
330
1F
100
AcDbEntity
  8
0
  6
Continuous
 62
     7
370
    15
100
AcDbCircle
 10
197.3205892055
 20
95.6376542254
 30
0.0
 40
4.0
100
AcDbArc
 50
90.0
 51
180.0
  0
ARC
  5
86
330
1F
100
AcDbEntity
  8
0
  6
Continuous
 62
     7
370
    15
100
AcDbCircle
 10
197.3205892055
 20
128.6376542254
 30
0.0
 40
4.0
100
AcDbArc
 50
180.0
 51
270.0
  0
LINE
  5
87
330
1F
100
AcDbEntity
  8
0
  6
Continuous
 62
     7
370
    15
100
AcDbLine
 10
224.0705892055
 20
124.6376542254
 30
0.0
 11
197.3205892055
 21
124.6376542254
 31
0.0
  0
LINE
  5
88
330
1F
100
AcDbEntity
  8
0
  6
Continuous
 62
     7
370
    15
100
AcDbLine
 10
197.3205892055
 20
99.6376542254
 30
0.0
 11
224.0705892055
 21
99.6376542254
 31
0.0
  0
LINE
  5
89
330
1F
100
AcDbEntity
  8
0
  6
Continuous
 62
     7
370
    15
100
AcDbLine
 10
224.0705892055
 20
99.6376542254
 30
0.0
 11
224.2705892055
 21
99.8376542254
 31
0.0
  0
LINE
  5
8A
330
1F
100
AcDbEntity
  8
0
  6
Continuous
 62
     7
370
    15
100
AcDbLine
 10
224.2705892055
 20
124.4376542254
 30
0.0
 11
224.0705892055
 21
124.6376542254
 31
0.0
  0
SPLINE
  5
8B
330
1F
100
AcDbEntity
  8
0
  6
Continuous
 62
     7
370
    15
100
AcDbSpline
210
0.0
220
0.0
230
1.0
 70
    24
 71
     3
 72
    11
 73
     7
 74
     0
 42
0.000000001
 43
0.00000001
 40
0.0
 40
0.0
 40
0.0
 40
0.0
 40
0.1285561766306648
 40
0.4801535797842856
 40
0.8150691831754799
 40
1.0
 40
1.0
 40
1.0
 40
1.0
 10
217.4473925943118
 20
113.5549392866379
 30
0.0
 10
217.5023250218217
 20
113.5359285497286
 30
0.0
 10
217.7074960404878
 20
113.4649240004291
 30
0.0
 10
218.0922376525218
 20
113.3317745676445
 30
0.0
 10
218.5088316613098
 20
113.1876018183588
 30
0.0
 10
218.732004118041
 20
113.1103674223448
 30
0.0
 10
218.8113957674033
 20
113.0828919615425
 30
0.0
  0
SPLINE
  5
8C
330
1F
100
AcDbEntity
  8
0
  6
Continuous
 62
     7
370
    15
100
AcDbSpline
210
0.0
220
0.0
230
1.0
 70
    24
 71
     3
 72
    11
 73
     7
 74
     0
 42
0.000000001
 43
0.00000001
 40
0.0
 40
0.0
 40
0.0
 40
0.0
 40
0.2164478439282607
 40
0.4402952289510116
 40
0.751887843315856
 40
1.0
 40
1.0
 40
1.0
 40
1.0
 10
216.356586032445
 20
112.6097015504457
 30
0.0
 10
216.431304687654
 20
112.6744489538536
 30
0.0
 10
216.5832963490406
 20
112.8061572318852
 30
0.0
 10
216.8653568268144
 20
113.0505765604818
 30
0.0
 10
217.1679275543896
 20
113.3127690330699
 30
0.0
 10
217.361557956051
 20
113.480559335148
 30
0.0
 10
217.4473925943118
 20
113.5549392866379
 30
0.0
  0
SPLINE
  5
8D
330
1F
100
AcDbEntity
  8
0
  6
Continuous
 62
     7
370
    15
100
AcDbSpline
210
0.0
220
0.0
230
1.0
 70
    24
 71
     3
 72
    11
 73
     7
 74
     0
 42
0.000000001
 43
0.00000001
 40
0.0
 40
0.0
 40
0.0
 40
0.0
 40
0.2164478439282622
 40
0.4402952289510162
 40
0.7518878433158677
 40
1.0
 40
1.0
 40
1.0
 40
1.0
 10
216.6297826436697
 20
111.1924164891582
 30
0.0
 10
216.6110690750939
 20
111.2894984444098
 30
0.0
 10
216.5730021911231
 20
111.4869812233497
 30
0.0
 10
216.5023590822694
 20
111.8534624268038
 30
0.0
 10
216.4265791041147
 20
112.2465925996195
 30
0.0
 10
216.3780836408371
 20
112.4981765974423
 30
0.0
 10
216.356586032445
 20
112.6097015504457
 30
0.0
  0
SPLINE
  5
8E
330
1F
100
AcDbEntity
  8
0
  6
Continuous
 62
     7
370
    15
100
AcDbSpline
210
0.0
220
0.0
230
1.0
 70
    24
 71
     3
 72
    11
 73
     7
 74
     0
 42
0.000000001
 43
0.00000001
 40
0.0
 40
0.0
 40
0.0
 40
0.0
 40
0.184930816824504
 40
0.5198464202157127
 40
0.8714438233693323
 40
1.0
 40
1.0
 40
1.0
 40
1.0
 10
217.9937858167612
 20
110.7203691640629
 30
0.0
 10
217.9143941673989
 20
110.7478446248651
 30
0.0
 10
217.6912217106678
 20
110.8250790208791
 30
0.0
 10
217.2746277018798
 20
110.9692517701649
 30
0.0
 10
216.8898860898457
 20
111.1024012029495
 30
0.0
 10
216.6847150711796
 20
111.173405752249
 30
0.0
 10
216.6297826436697
 20
111.1924164891582
 30
0.0
  0
SPLINE
  5
8F
330
1F
100
AcDbEntity
  8
0
  6
Continuous
 62
     7
370
    15
100
AcDbSpline
210
0.0
220
0.0
230
1.0
 70
    24
 71
     3
 72
    11
 73
     7
 74
     0
 42
0.000000001
 43
0.00000001
 40
0.0
 40
0.0
 40
0.0
 40
0.0
 40
0.2164478439282591
 40
0.4402952289510092
 40
0.751887843315864
 40
1.0
 40
1.0
 40
1.0
 40
1.0
 10
218.8113957674033
 20
113.0828919615425
 30
0.0
 10
218.830109335979
 20
112.985810006291
 30
0.0
 10
218.8681762199499
 20
112.788327227351
 30
0.0
 10
218.9388193288035
 20
112.421846023897
 30
0.0
 10
219.0145993069583
 20
112.0287158510813
 30
0.0
 10
219.0630947702359
 20
111.7771318532585
 30
0.0
 10
219.084592378628
 20
111.6656069002551
 30
0.0
  0
CIRCLE
  5
90
330
1F
100
AcDbEntity
  8
0
  6
Continuous
 62
     7
370
    15
100
AcDbCircle
 10
217.7205892055
 20
112.1376542254
 30
0.0
 40
1.500000000000001
  0
SPLINE
  5
91
330
1F
100
AcDbEntity
  8
0
  6
Continuous
 62
     7
370
    15
100
AcDbSpline
210
0.0
220
0.0
230
1.0
 70
    24
 71
     3
 72
    11
 73
     7
 74
     0
 42
0.000000001
 43
0.00000001
 40
0.0
 40
0.0
 40
0.0
 40
0.0
 40
0.2164478439282634
 40
0.4402952289510144
 40
0.751887843315859
 40
1.0
 40
1.0
 40
1.0
 40
1.0
 10
219.084592378628
 20
111.6656069002551
 30
0.0
 10
219.0098737234189
 20
111.6008594968472
 30
0.0
 10
218.8578820620324
 20
111.4691512188156
 30
0.0
 10
218.5758215842586
 20
111.224731890219
 30
0.0
 10
218.2732508566833
 20
110.9625394176309
 30
0.0
 10
218.079620455022
 20
110.7947491155528
 30
0.0
 10
217.9937858167612
 20
110.7203691640629
 30
0.0
  0
CIRCLE
  5
92
330
1F
100
AcDbEntity
  8
0
  6
Continuous
 62
     7
370
    15
100
AcDbCircle
 10
217.7205892055
 20
112.1376542254
 30
0.0
 40
2.250000000000012
  0
ARC
  5
93
330
1F
100
AcDbEntity
  8
0
  6
Continuous
 62
     7
370
    15
100
AcDbCircle
 10
217.7205892055
 20
112.1376542254
 30
0.0
 40
1.250000000000009
100
AcDbArc
 50
70.9105450053
 51
130.9105450053
  0
ARC
  5
94
330
1F
100
AcDbEntity
  8
0
  6
Continuous
 62
     7
370
    15
100
AcDbCircle
 10
217.7205892055
 20
112.1376542254
 30
0.0
 40
1.250000000000009
100
AcDbArc
 50
10.9105450053
 51
70.9105450053
  0
ARC
  5
95
330
1F
100
AcDbEntity
  8
0
  6
Continuous
 62
     7
370
    15
100
AcDbCircle
 10
217.7205892055
 20
112.1376542254
 30
0.0
 40
1.250000000000004
100
AcDbArc
 50
190.9105450053
 51
250.9105450053
  0
ARC
  5
96
330
1F
100
AcDbEntity
  8
0
  6
Continuous
 62
     7
370
    15
100
AcDbCircle
 10
217.7205892055
 20
112.1376542254
 30
0.0
 40
1.249999999999976
100
AcDbArc
 50
310.9105450053
 51
10.9105450053
  0
ARC
  5
97
330
1F
100
AcDbEntity
  8
0
  6
Continuous
 62
     7
370
    15
100
AcDbCircle
 10
217.7205892055
 20
112.1376542254
 30
0.0
 40
1.250000000000004
100
AcDbArc
 50
250.9105450053
 51
310.9105450053
  0
ARC
  5
98
330
1F
100
AcDbEntity
  8
0
  6
Continuous
 62
     7
370
    15
100
AcDbCircle
 10
217.7205892055
 20
112.1376542254
 30
0.0
 40
1.250000000000005
100
AcDbArc
 50
130.9105450053
 51
190.9105450053
  0
SPLINE
  5
99
330
1F
100
AcDbEntity
  8
0
  6
Continuous
 62
     7
370
    15
100
AcDbSpline
210
0.0
220
0.0
230
1.0
 70
     8
 71
     3
 72
    10
 73
     6
 74
     0
 42
0.000000001
 43
0.00000001
 40
0.0
 40
0.0
 40
0.0
 40
0.0
 40
0.5
 40
0.5
 40
1.0
 40
1.0
 40
1.0
 40
1.0
 10
177.6862492366905
 20
65.50419995815815
 30
0.0
 10
177.7348998052701
 20
65.47624296689072
 30
0.0
 10
177.7922850172296
 20
65.45230068186392
 30
0.0
 10
177.9229981253957
 20
65.41818221876822
 30
0.0
 10
177.9957376591342
 20
65.40839488400438
 30
0.0
 10
178.0705892055365
 20
65.40839488400438
 30
0.0
  0
SPLINE
  5
9A
330
1F
100
AcDbEntity
  8
0
  6
Continuous
 62
     7
370
    15
100
AcDbSpline
210
0.0
220
0.0
230
1.0
 70
     8
 71
     3
 72
    10
 73
     6
 74
     0
 42
0.000000001
 43
0.00000001
 40
0.0
 40
0.0
 40
0.0
 40
0.0
 40
0.5
 40
0.5
 40
1.0
 40
1.0
 40
1.0
 40
1.0
 10
177.6862492366905
 20
65.50419995815814
 30
0.0
 10
177.6280612301083
 20
65.57178368833696
 30
0.0
 10
177.575618763582
 20
65.65225992297871
 30
0.0
 10
177.4972664564033
 20
65.83529554596147
 30
0.0
 10
177.4705892055364
 20
65.94117124875709
 30
0.0
 10
177.4705892055364
 20
66.04868455797772
 30
0.0
  0
LINE
  5
9B
330
1F
100
AcDbEntity
  8
0
  6
Continuous
 62
     7
370
    15
100
AcDbLine
 10
177.4705892055
 20
66.048684558
 30
0.0
 11
177.4705892055
 21
141.9876542254
 31
0.0
  0
SPLINE
  5
9C
330
1F
100
AcDbEntity
  8
0
  6
Continuous
 62
     7
370
    15
100
AcDbSpline
210
0.0
220
0.0
230
1.0
 70
    24
 71
     3
 72
    14
 73
    10
 74
     0
 42
0.000000001
 43
0.00000001
 40
0.0
 40
0.0
 40
0.0
 40
0.0
 40
0.25
 40
0.25
 40
0.5
 40
0.5
 40
0.75
 40
0.75
 40
1.0
 40
1.0
 40
1.0
 40
1.0
 10
178.0705892055365
 20
141.9876542253504
 30
0.0
 10
177.9815672531928
 20
141.9876542253504
 30
0.0
 10
177.8918805539192
 20
141.9876542253504
 30
0.0
 10
177.738153728362
 20
141.9876542253504
 30
0.0
 10
177.6729488337351
 20
141.9876542253504
 30
0.0
 10
177.5703581395647
 20
141.9876542253504
 30
0.0
 10
177.5327206852488
 20
141.9876542253504
 30
0.0
 10
177.4826287698637
 20
141.9876542253504
 30
0.0
 10
177.4705892055365
 20
141.9876542253504
 30
0.0
 10
177.4705892055365
 20
141.9876542253504
 30
0.0
  0
LINE
  5
9D
330
1F
100
AcDbEntity
  8
0
  6
Continuous
 62
     7
370
    15
100
AcDbLine
 10
178.0705892055
 20
65.408394884
 30
0.0
 11
182.1374276981
 21
65.408394884
 31
0.0
  0
LINE
  5
9E
330
1F
100
AcDbEntity
  8
0
  6
Continuous
 62
     7
370
    15
100
AcDbLine
 10
182.1374276981
 20
141.9876542254
 30
0.0
 11
178.0705892055
 21
141.9876542254
 31
0.0
  0
LINE
  5
9F
330
1F
100
AcDbEntity
  8
0
  6
Continuous
 62
     7
370
    15
100
AcDbLine
 10
182.1374276981
 20
65.408394884
 30
0.0
 11
182.1374276981
 21
141.9876542254
 31
0.0
  0
SPLINE
  5
A0
330
1F
100
AcDbEntity
  8
0
  6
Continuous
 62
     7
370
    15
100
AcDbSpline
210
0.0
220
0.0
230
1.0
 70
     8
 71
     3
 72
     8
 73
     4
 74
     0
 42
0.000000001
 43
0.00000001
 40
0.0
 40
0.0
 40
0.0
 40
0.0
 40
1.0
 40
1.0
 40
1.0
 40
1.0
 10
183.4605892055365
 20
67.51791481652062
 30
0.0
 10
183.1708607595119
 20
66.99569480635708
 30
0.0
 10
182.8808356092942
 20
66.4736414240971
 30
0.0
 10
182.5905413750323
 20
65.95173915837398
 30
0.0
  0
SPLINE
  5
A1
330
1F
100
AcDbEntity
  8
0
  6
Continuous
 62
     7
370
    15
100
AcDbSpline
210
0.0
220
0.0
230
1.0
 70
     8
 71
     3
 72
     8
 73
     4
 74
     0
 42
0.000000001
 43
0.00000001
 40
0.0
 40
0.0
 40
0.0
 40
0.0
 40
0.0011862984959112
 40
0.0011862984959112
 40
0.0011862984959112
 40
0.0011862984959112
 10
182.1374276980746
 20
65.40839488400438
 30
0.0
 10
182.2894524599454
 20
65.58930673362235
 30
0.0
 10
182.4405099051612
 20
65.77041906406319
 30
0.0
 10
182.5905413750323
 20
65.951739158374
 30
0.0
  0
SPLINE
  5
A2
330
1F
100
AcDbEntity
  8
0
  6
Continuous
 62
     7
370
    15
100
AcDbSpline
210
0.0
220
0.0
230
1.0
 70
    24
 71
     3
 72
     8
 73
     4
 74
     0
 42
0.000000001
 43
0.00000001
 40
0.0
 40
0.0
 40
0.0
 40
0.0
 40
1.0
 40
1.0
 40
1.0
 40
1.0
 10
183.4605892055365
 20
141.9876542253504
 30
0.0
 10
183.0253891008328
 20
141.9876542253504
 30
0.0
 10
182.5840294180939
 20
141.9876542253504
 30
0.0
 10
182.1374276980746
 20
141.9876542253504
 30
0.0
  0
LINE
  5
A3
330
1F
100
AcDbEntity
  8
0
  6
Continuous
 62
     7
370
    15
100
AcDbLine
 10
183.4605892055
 20
67.5179148165
 30
0.0
 11
183.4605892055
 21
141.9876542254
 31
0.0
  0
SPLINE
  5
A4
330
1F
100
AcDbEntity
  8
0
  6
Continuous
 62
     7
370
    15
100
AcDbSpline
210
0.0
220
0.0
230
1.0
 70
     8
 71
     3
 72
    12
 73
     8
 74
     0
 42
0.000000001
 43
0.00000001
 40
0.0
 40
0.0
 40
0.0
 40
0.0
 40
0.2499999999999972
 40
0.2499999999999972
 40
0.4999999999999944
 40
0.4999999999999944
 40
1.0
 40
1.0
 40
1.0
 40
1.0
 10
192.7205892055365
 20
65.40839488400438
 30
0.0
 10
192.8165619587113
 20
65.40839488400438
 30
0.0
 10
192.9089899228658
 20
65.42466820811296
 30
0.0
 10
193.0654200229752
 20
65.47804193010938
 30
0.0
 10
193.1288984477481
 20
65.51417018764371
 30
0.0
 10
193.2771776085753
 20
65.634871383923
 30
0.0
 10
193.3205892055365
 20
65.72872097028818
 30
0.0
 10
193.3205892055365
 20
65.82302524523539
 30
0.0
  0
SPLINE
  5
A5
330
1F
100
AcDbEntity
  8
0
  6
Continuous
 62
     7
370
    15
100
AcDbSpline
210
0.0
220
0.0
230
1.0
 70
    24
 71
     3
 72
    12
 73
     8
 74
     0
 42
0.000000001
 43
0.00000001
 40
0.0
 40
0.0
 40
0.0
 40
0.0
 40
0.4999999999999972
 40
0.4999999999999972
 40
0.7499999999999986
 40
0.7499999999999986
 40
1.0
 40
1.0
 40
1.0
 40
1.0
 10
193.3205892055365
 20
141.9876542253504
 30
0.0
 10
193.3205892055365
 20
141.9876542253504
 30
0.0
 10
193.2724585171511
 20
141.9876542253504
 30
0.0
 10
193.1185614613481
 20
141.9876542253504
 30
0.0
 10
193.0530968963413
 20
141.9876542253504
 30
0.0
 10
192.8995675757311
 20
141.9876542253504
 30
0.0
 10
192.8112189149953
 20
141.9876542253504
 30
0.0
 10
192.7205892055363
 20
141.9876542253504
 30
0.0
  0
LINE
  5
A6
330
1F
100
AcDbEntity
  8
0
  6
Continuous
 62
     7
370
    15
100
AcDbLine
 10
193.3205892055
 20
65.8230252452
 30
0.0
 11
193.3205892055
 21
141.9876542254
 31
0.0
  0
SPLINE
  5
A7
330
1F
100
AcDbEntity
  8
0
  6
Continuous
 62
     7
370
    15
100
AcDbSpline
210
0.0
220
0.0
230
1.0
 70
     8
 71
     3
 72
     8
 73
     4
 74
     0
 42
0.000000001
 43
0.00000001
 40
0.0000000000000004
 40
0.0000000000000004
 40
0.0000000000000004
 40
0.0000000000000004
 40
0.0011862984959127
 40
0.0011862984959127
 40
0.0011862984959127
 40
0.0011862984959127
 10
188.1506370360366
 20
65.951739158374
 30
0.0
 10
188.300668505908
 20
65.77041906406296
 30
0.0
 10
188.4517259511273
 20
65.58930673362259
 30
0.0
 10
188.6037507129984
 20
65.40839488400438
 30
0.0
  0
SPLINE
  5
A8
330
1F
100
AcDbEntity
  8
0
  6
Continuous
 62
     7
370
    15
100
AcDbSpline
210
0.0
220
0.0
230
1.0
 70
     8
 71
     3
 72
     8
 73
     4
 74
     0
 42
0.000000001
 43
0.00000001
 40
0.0
 40
0.0
 40
0.0
 40
0.0
 40
1.0
 40
1.0
 40
1.0
 40
1.0
 10
188.1506370360397
 20
65.95173915837566
 30
0.0
 10
187.8603428017782
 20
66.47364142409822
 30
0.0
 10
187.5703176515607
 20
66.99569480635765
 30
0.0
 10
187.2805892055365
 20
67.51791481652062
 30
0.0
  0
LINE
  5
A9
330
1F
100
AcDbEntity
  8
0
  6
Continuous
 62
     7
370
    15
100
AcDbLine
 10
187.2805892055
 20
67.5179148165
 30
0.0
 11
187.2805892055
 21
141.9876542254
 31
0.0
  0
SPLINE
  5
AA
330
1F
100
AcDbEntity
  8
0
  6
Continuous
 62
     7
370
    15
100
AcDbSpline
210
0.0
220
0.0
230
1.0
 70
    24
 71
     3
 72
     8
 73
     4
 74
     0
 42
0.000000001
 43
0.00000001
 40
0.0
 40
0.0
 40
0.0
 40
0.0
 40
1.0
 40
1.0
 40
1.0
 40
1.0
 10
188.6037507129984
 20
141.9876542253504
 30
0.0
 10
188.157148992979
 20
141.9876542253504
 30
0.0
 10
187.7157893102401
 20
141.9876542253504
 30
0.0
 10
187.2805892055365
 20
141.9876542253504
 30
0.0
  0
LINE
  5
AB
330
1F
100
AcDbEntity
  8
0
  6
Continuous
 62
     7
370
    15
100
AcDbLine
 10
188.603750713
 20
65.408394884
 30
0.0
 11
188.603750713
 21
141.9876542254
 31
0.0
  0
LINE
  5
AC
330
1F
100
AcDbEntity
  8
0
  6
Continuous
 62
     7
370
    15
100
AcDbLine
 10
188.603750713
 20
65.408394884
 30
0.0
 11
192.7205892055
 21
65.408394884
 31
0.0
  0
LINE
  5
AD
330
1F
100
AcDbEntity
  8
0
  6
Continuous
 62
     7
370
    15
100
AcDbLine
 10
192.7205892055
 20
141.9876542254
 30
0.0
 11
188.603750713
 21
141.9876542254
 31
0.0
  0
SPLINE
  5
AE
330
1F
100
AcDbEntity
  8
0
  6
Continuous
 62
     7
370
    15
100
AcDbSpline
210
0.0
220
0.0
230
1.0
 70
     8
 71
     3
 72
    14
 73
    10
 74
     0
 42
0.000000001
 43
0.00000001
 40
0.0
 40
0.0
 40
0.0
 40
0.0
 40
0.25
 40
0.25
 40
0.5
 40
0.5
 40
0.75
 40
0.75
 40
1.0
 40
1.0
 40
1.0
 40
1.0
 10
184.2605892055365
 20
68.48988795948061
 30
0.0
 10
184.1541441976272
 20
68.48988795948061
 30
0.0
 10
184.0472454463537
 20
68.4673184100475
 30
0.0
 10
183.8510271909112
 20
68.38087531880558
 30
0.0
 10
183.7613688774468
 20
68.31657140113843
 30
0.0
 10
183.6159151645657
 20
68.16160188709547
 30
0.0
 10
183.5578793818395
 20
68.06883640085174
 30
0.0
 10
183.4805942274549
 20
67.87036951920835
 30
0.0
 10
183.4605892055365
 20
67.76334509741459
 30
0.0
 10
183.4605892055365
 20
67.65656273694375
 30
0.0
  0
SPLINE
  5
AF
330
1F
100
AcDbEntity
  8
0
  6
Continuous
 62
     7
370
    15
100
AcDbSpline
210
0.0
220
0.0
230
1.0
 70
    24
 71
     3
 72
    14
 73
    10
 74
     0
 42
0.000000001
 43
0.00000001
 40
0.0
 40
0.0
 40
0.0
 40
0.0
 40
0.25
 40
0.25
 40
0.5
 40
0.5
 40
0.75
 40
0.75
 40
1.0
 40
1.0
 40
1.0
 40
1.0
 10
184.2605892055365
 20
141.9876542253504
 30
0.0
 10
184.1376079059902
 20
141.9876542253504
 30
0.0
 10
184.0174180175881
 20
141.9876542253504
 30
0.0
 10
183.812394187909
 20
141.9876542253504
 30
0.0
 10
183.7257996991069
 20
141.9876542253504
 30
0.0
 10
183.5906918123444
 20
141.9876542253504
 30
0.0
 10
183.5421687273163
 20
141.9876542253504
 30
0.0
 10
183.4764862185895
 20
141.9876542253504
 30
0.0
 10
183.4605892055365
 20
141.9876542253504
 30
0.0
 10
183.4605892055365
 20
141.9876542253504
 30
0.0
  0
SPLINE
  5
B0
330
1F
100
AcDbEntity
  8
0
  6
Continuous
 62
     7
370
    15
100
AcDbSpline
210
0.0
220
0.0
230
1.0
 70
     8
 71
     3
 72
    14
 73
    10
 74
     0
 42
0.000000001
 43
0.00000001
 40
0.0
 40
0.0
 40
0.0
 40
0.0
 40
0.25
 40
0.25
 40
0.5
 40
0.5
 40
0.75
 40
0.75
 40
1.0
 40
1.0
 40
1.0
 40
1.0
 10
187.2805892055365
 20
67.65656273694375
 30
0.0
 10
187.2805892055365
 20
67.76362672328456
 30
0.0
 10
187.2606053792965
 20
67.87036604965908
 30
0.0
 10
187.183170296863
 20
68.06911595184988
 30
0.0
 10
187.1252313747036
 20
68.1616701683424
 30
0.0
 10
186.9795935689428
 20
68.31676711174798
 30
0.0
 10
186.8908045726074
 20
68.38050726866085
 30
0.0
 10
186.6942562124029
 20
68.46725582574845
 30
0.0
 10
186.5881169827035
 20
68.48988795948061
 30
0.0
 10
186.4805892055365
 20
68.48988795948061
 30
0.0
  0
SPLINE
  5
B1
330
1F
100
AcDbEntity
  8
0
  6
Continuous
 62
     7
370
    15
100
AcDbSpline
210
0.0
220
0.0
230
1.0
 70
    24
 71
     3
 72
    14
 73
    10
 74
     0
 42
0.000000001
 43
0.00000001
 40
0.0
 40
0.0
 40
0.0
 40
0.0
 40
0.25
 40
0.25
 40
0.5
 40
0.5
 40
0.75
 40
0.75
 40
1.0
 40
1.0
 40
1.0
 40
1.0
 10
187.2805892055365
 20
141.9876542253504
 30
0.0
 10
187.2805892055365
 20
141.9876542253504
 30
0.0
 10
187.2643081707607
 20
141.9876542253504
 30
0.0
 10
187.1996451082361
 20
141.9876542253504
 30
0.0
 10
187.1501653119474
 20
141.9876542253504
 30
0.0
 10
187.0161955548086
 20
141.9876542253504
 30
0.0
 10
186.9300808282092
 20
141.9876542253504
 30
0.0
 10
186.7246247124962
 20
141.9876542253504
 30
0.0
 10
186.6032041753033
 20
141.9876542253504
 30
0.0
 10
186.4805892055365
 20
141.9876542253504
 30
0.0
  0
LINE
  5
B2
330
1F
100
AcDbEntity
  8
0
  6
Continuous
 62
     7
370
    15
100
AcDbLine
 10
186.4805892055
 20
68.4898879595
 30
0.0
 11
184.2605892055
 21
68.4898879595
 31
0.0
  0
LINE
  5
B3
330
1F
100
AcDbEntity
  8
0
  6
Continuous
 62
     7
370
    15
100
AcDbLine
 10
186.4805892055
 20
141.9876542254
 30
0.0
 11
184.2605892055
 21
141.9876542254
 31
0.0
  0
LINE
  5
B4
330
1F
100
AcDbEntity
  8
0
  6
Continuous
 62
     7
370
    15
100
AcDbLine
 10
174.2705892055
 20
77.2126542254
 30
0.0
 11
174.2705892055
 21
147.0626542254
 31
0.0
  0
LINE
  5
B5
330
1F
100
AcDbEntity
  8
0
  6
Continuous
 62
     7
370
    15
100
AcDbLine
 10
186.4805892055
 20
155.7854204912
 30
0.0
 11
184.2605892055
 21
155.7854204912
 31
0.0
  0
LINE
  5
B6
330
1F
100
AcDbEntity
  8
0
  6
Continuous
 62
     7
370
    15
100
AcDbLine
 10
184.2605892055
 20
146.4775362869
 30
0.0
 11
186.4805892055
 21
146.4775362869
 31
0.0
  0
SPLINE
  5
B7
330
1F
100
AcDbEntity
  8
0
  6
Continuous
 62
     7
370
    15
100
AcDbSpline
210
0.0
220
0.0
230
1.0
 70
     8
 71
     3
 72
    12
 73
     8
 74
     0
 42
0.000000001
 43
0.00000001
 40
0.0
 40
0.0
 40
0.0
 40
0.0
 40
0.2500000000000007
 40
0.2500000000000007
 40
0.5000000000000014
 40
0.5000000000000014
 40
1.0
 40
1.0
 40
1.0
 40
1.0
 10
184.2605892055365
 20
155.7854204912202
 30
0.0
 10
184.1542442256605
 20
155.7854204912202
 30
0.0
 10
184.0469678782579
 20
155.8081357290797
 30
0.0
 10
183.8515920888618
 20
155.894160895962
 30
0.0
 10
183.7630383527849
 20
155.9571396228904
 30
0.0
 10
183.5417804286536
 20
156.1923311333275
 30
0.0
 10
183.4605892055365
 20
156.4055073478128
 30
0.0
 10
183.4605892055365
 20
156.6187457137569
 30
0.0
  0
SPLINE
  5
B8
330
1F
100
AcDbEntity
  8
0
  6
Continuous
 62
     7
370
    15
100
AcDbSpline
210
0.0
220
0.0
230
1.0
 70
     8
 71
     3
 72
    12
 73
     8
 74
     0
 42
0.000000001
 43
0.00000001
 40
0.0
 40
0.0
 40
0.0
 40
0.0
 40
0.499999999999994
 40
0.499999999999994
 40
0.749999999999997
 40
0.749999999999997
 40
1.0
 40
1.0
 40
1.0
 40
1.0
 10
183.4605892055365
 20
147.5306973270674
 30
0.0
 10
183.4605892055365
 20
147.2882742310867
 30
0.0
 10
183.5235103469783
 20
147.0425037104853
 30
0.0
 10
183.7255392439807
 20
146.7375575310684
 30
0.0
 10
183.8118329686279
 20
146.64696466447
 30
0.0
 10
184.0173067631947
 20
146.5165311015332
 30
0.0
 10
184.1372573237944
 20
146.4775362868835
 30
0.0
 10
184.2605892055365
 20
146.4775362868835
 30
0.0
  0
SPLINE
  5
B9
330
1F
100
AcDbEntity
  8
0
  6
Continuous
 62
     7
370
    15
100
AcDbSpline
210
0.0
220
0.0
230
1.0
 70
     8
 71
     3
 72
    12
 73
     8
 74
     0
 42
0.000000001
 43
0.00000001
 40
0.0
 40
0.0
 40
0.0
 40
0.0
 40
0.4999999999999927
 40
0.4999999999999927
 40
0.7499999999999963
 40
0.7499999999999963
 40
1.0
 40
1.0
 40
1.0
 40
1.0
 10
193.3205892055365
 20
158.4326411785809
 30
0.0
 10
193.3205892055365
 20
158.552833785246
 30
0.0
 10
193.2666207752674
 20
158.6707410857611
 30
0.0
 10
193.1055341343345
 20
158.8101206302444
 30
0.0
 10
193.0407717148614
 20
158.8482859278083
 30
0.0
 10
192.8887177132969
 20
158.9029381901418
 30
0.0
 10
192.8059879401478
 20
158.9174988801259
 30
0.0
 10
192.7205892055365
 20
158.9174988801259
 30
0.0
  0
SPLINE
  5
BA
330
1F
100
AcDbEntity
  8
0
  6
Continuous
 62
     7
370
    15
100
AcDbSpline
210
0.0
220
0.0
230
1.0
 70
     8
 71
     3
 72
    12
 73
     8
 74
     0
 42
0.000000001
 43
0.00000001
 40
0.0
 40
0.0
 40
0.0
 40
0.0
 40
0.250000000000004
 40
0.250000000000004
 40
0.500000000000008
 40
0.500000000000008
 40
1.0
 40
1.0
 40
1.0
 40
1.0
 10
192.720589205537
 20
150.6487321770256
 30
0.0
 10
192.810126263708
 20
150.6487321770255
 30
0.0
 10
192.9000254424967
 20
150.6219048781945
 30
0.0
 10
193.053450301496
 20
150.530197912935
 30
0.0
 10
193.1184993588737
 20
150.4659429713361
 30
0.0
 10
193.271818590138
 20
150.2465308252746
 30
0.0
 10
193.3205892055365
 20
150.0647155154777
 30
0.0
 10
193.3205892055365
 20
149.8867353399947
 30
0.0
  0
LINE
  5
BB
330
1F
100
AcDbEntity
  8
0
  6
Continuous
 62
     7
370
    15
100
AcDbLine
 10
193.3205892055
 20
149.88673534
 30
0.0
 11
193.3205892055
 21
158.4326411786
 31
0.0
  0
LINE
  5
BC
330
1F
100
AcDbEntity
  8
0
  6
Continuous
 62
     7
370
    15
100
AcDbLine
 10
182.1374276981
 20
158.9174988801
 30
0.0
 11
178.0705892055
 21
158.9174988801
 31
0.0
  0
LINE
  5
BD
330
1F
100
AcDbEntity
  8
0
  6
Continuous
 62
     7
370
    15
100
AcDbLine
 10
182.1374276981
 20
150.648732177
 30
0.0
 11
182.1374276981
 21
158.9174988801
 31
0.0
  0
LINE
  5
BE
330
1F
100
AcDbEntity
  8
0
  6
Continuous
 62
     7
370
    15
100
AcDbLine
 10
178.0705892055
 20
150.648732177
 30
0.0
 11
182.1374276981
 21
150.648732177
 31
0.0
  0
LINE
  5
BF
330
1F
100
AcDbEntity
  8
0
  6
Continuous
 62
     7
370
    15
100
AcDbLine
 10
192.7205892055
 20
158.9174988801
 30
0.0
 11
188.603750713
 21
158.9174988801
 31
0.0
  0
LINE
  5
C0
330
1F
100
AcDbEntity
  8
0
  6
Continuous
 62
     7
370
    15
100
AcDbLine
 10
188.603750713
 20
150.648732177
 30
0.0
 11
192.7205892055
 21
150.648732177
 31
0.0
  0
LINE
  5
C1
330
1F
100
AcDbEntity
  8
0
  6
Continuous
 62
     7
370
    15
100
AcDbLine
 10
188.603750713
 20
150.648732177
 30
0.0
 11
188.603750713
 21
158.9174988801
 31
0.0
  0
SPLINE
  5
C2
330
1F
100
AcDbEntity
  8
0
  6
Continuous
 62
     7
370
    15
100
AcDbSpline
210
0.0
220
0.0
230
1.0
 70
     8
 71
     3
 72
    12
 73
     8
 74
     0
 42
0.000000001
 43
0.00000001
 40
0.0
 40
0.0
 40
0.0
 40
0.0
 40
0.5000000000000003
 40
0.5000000000000003
 40
0.7500000000000001
 40
0.7500000000000001
 40
1.0
 40
1.0
 40
1.0
 40
1.0
 10
177.4705892055365
 20
149.8867353399947
 30
0.0
 10
177.4705892055365
 20
150.065095607234
 30
0.0
 10
177.5179013269124
 20
150.243868018938
 30
0.0
 10
177.6722614047938
 20
150.4656298842897
 30
0.0
 10
177.7371469397128
 20
150.5299219229062
 30
0.0
 10
177.8923796389411
 20
150.6225664070658
 30
0.0
 10
177.9814550516093
 20
150.6487321770256
 30
0.0
 10
178.0705892055365
 20
150.6487321770256
 30
0.0
  0
SPLINE
  5
C3
330
1F
100
AcDbEntity
  8
0
  6
Continuous
 62
     7
370
    15
100
AcDbSpline
210
0.0
220
0.0
230
1.0
 70
     8
 71
     3
 72
     8
 73
     4
 74
     0
 42
0.000000001
 43
0.00000001
 40
0.0
 40
0.0
 40
0.0
 40
0.0
 40
1.0
 40
1.0
 40
1.0
 40
1.0
 10
182.1374276980746
 20
150.6487321770256
 30
0.0
 10
182.5842764260022
 20
149.6694962787692
 30
0.0
 10
183.0256427838981
 20
148.6882942860424
 30
0.0
 10
183.4605892055365
 20
147.70478996766
 30
0.0
  0
SPLINE
  5
C4
330
1F
100
AcDbEntity
  8
0
  6
Continuous
 62
     7
370
    15
100
AcDbSpline
210
0.0
220
0.0
230
1.0
 70
     8
 71
     3
 72
    14
 73
    10
 74
     0
 42
0.000000001
 43
0.00000001
 40
0.0
 40
0.0
 40
0.0
 40
0.0
 40
0.25
 40
0.25
 40
0.5
 40
0.5
 40
0.75
 40
0.75
 40
1.0
 40
1.0
 40
1.0
 40
1.0
 10
186.4805892055365
 20
146.4775362868835
 30
0.0
 10
186.6019157355222
 20
146.4775362868835
 30
0.0
 10
186.7236204440844
 20
146.5163178023166
 30
0.0
 10
186.9300603229705
 20
146.6474724240105
 30
0.0
 10
187.0160108614266
 20
146.7381245085976
 30
0.0
 10
187.1499226211749
 20
146.9402415435389
 30
0.0
 10
187.199487057994
 20
147.0539764870781
 30
0.0
 10
187.264341085962
 20
147.2869361041446
 30
0.0
 10
187.2805892055365
 20
147.4096343704738
 30
0.0
 10
187.2805892055365
 20
147.5306973270674
 30
0.0
  0
SPLINE
  5
C5
330
1F
100
AcDbEntity
  8
0
  6
Continuous
 62
     7
370
    15
100
AcDbSpline
210
0.0
220
0.0
230
1.0
 70
     8
 71
     3
 72
     8
 73
     4
 74
     0
 42
0.000000001
 43
0.00000001
 40
0.0
 40
0.0
 40
0.0
 40
0.0
 40
1.0
 40
1.0
 40
1.0
 40
1.0
 10
187.2805892055365
 20
147.70478996766
 30
0.0
 10
187.7155356271748
 20
148.6882942860424
 30
0.0
 10
188.1569019850707
 20
149.6694962787692
 30
0.0
 10
188.6037507129984
 20
150.6487321770256
 30
0.0
  0
LINE
  5
C6
330
1F
100
AcDbEntity
  8
0
  6
Continuous
 62
     7
370
    15
100
AcDbLine
 10
187.2805892055
 20
147.5306973271
 30
0.0
 11
187.2805892055
 21
147.7047899677
 31
0.0
  0
LINE
  5
C7
330
1F
100
AcDbEntity
  8
0
  6
Continuous
 62
     7
370
    15
100
AcDbLine
 10
183.4605892055
 20
147.7047899677
 30
0.0
 11
183.4605892055
 21
147.5306973271
 31
0.0
  0
LINE
  5
C8
330
1F
100
AcDbEntity
  8
0
  6
Continuous
 62
     7
370
    15
100
AcDbLine
 10
193.3205892055
 20
149.88673534
 30
0.0
 11
193.3205892055
 21
141.9876542254
 31
0.0
  0
LINE
  5
C9
330
1F
100
AcDbEntity
  8
0
  6
Continuous
 62
     7
370
    15
100
AcDbLine
 10
177.4705892055
 20
149.88673534
 30
0.0
 11
177.4705892055
 21
141.9876542254
 31
0.0
  0
SPLINE
  5
CA
330
1F
100
AcDbEntity
  8
0
  6
Continuous
 62
     7
370
    15
100
AcDbSpline
210
0.0
220
0.0
230
1.0
 70
     8
 71
     3
 72
     8
 73
     4
 74
     0
 42
0.000000001
 43
0.00000001
 40
0.0
 40
0.0
 40
0.0
 40
0.0
 40
0.0012352705496723
 40
0.0012352705496723
 40
0.0012352705496723
 40
0.0012352705496723
 10
182.6939181833691
 20
158.1376874700195
 30
0.0
 10
182.5088829325671
 20
158.3977890457477
 30
0.0
 10
182.3233761233964
 20
158.6577231243747
 30
0.0
 10
182.1374276980746
 20
158.9174988801259
 30
0.0
  0
SPLINE
  5
CB
330
1F
100
AcDbEntity
  8
0
  6
Continuous
 62
     7
370
    15
100
AcDbSpline
210
0.0
220
0.0
230
1.0
 70
     8
 71
     3
 72
     8
 73
     4
 74
     0
 42
0.000000001
 43
0.00000001
 40
0.0
 40
0.0
 40
0.0
 40
0.0
 40
1.0
 40
1.0
 40
1.0
 40
1.0
 10
183.4605892055365
 20
156.7573936341802
 30
0.0
 10
183.2052578922311
 20
157.2176146544458
 30
0.0
 10
182.9496944941248
 20
157.6777091147542
 30
0.0
 10
182.6939181833691
 20
158.1376874700195
 30
0.0
  0
LINE
  5
CC
330
1F
100
AcDbEntity
  8
0
  6
Continuous
 62
     7
370
    15
100
AcDbLine
 10
183.4605892055
 20
147.7047899677
 30
0.0
 11
183.4605892055
 21
156.7573936342
 31
0.0
  0
SPLINE
  5
CD
330
1F
100
AcDbEntity
  8
0
  6
Continuous
 62
     7
370
    15
100
AcDbSpline
210
0.0
220
0.0
230
1.0
 70
     8
 71
     3
 72
    14
 73
    10
 74
     0
 42
0.000000001
 43
0.00000001
 40
0.0
 40
0.0
 40
0.0
 40
0.0
 40
0.25
 40
0.25
 40
0.5
 40
0.5
 40
0.75
 40
0.75
 40
1.0
 40
1.0
 40
1.0
 40
1.0
 10
187.2805892055365
 20
156.618745713757
 30
0.0
 10
187.2805892055365
 20
156.5114033416095
 30
0.0
 10
187.2605930134723
 20
156.4047743347618
 30
0.0
 10
187.1828949291276
 20
156.2056225556105
 30
0.0
 10
187.1249017842341
 20
156.1131396572951
 30
0.0
 10
186.9788552914112
 20
155.9579038221859
 30
0.0
 10
186.8895175522435
 20
155.8941698805735
 30
0.0
 10
186.6947625401831
 20
155.8083396141784
 30
0.0
 10
186.5872322689742
 20
155.7854204912199
 30
0.0
 10
186.4805892055344
 20
155.7854204912202
 30
0.0
  0
SPLINE
  5
CE
330
1F
100
AcDbEntity
  8
0
  6
Continuous
 62
     7
370
    15
100
AcDbSpline
210
0.0
220
0.0
230
1.0
 70
     8
 71
     3
 72
    10
 73
     6
 74
     0
 42
0.000000001
 43
0.00000001
 40
0.0
 40
0.0
 40
0.0
 40
0.0
 40
0.5
 40
0.5
 40
1.0
 40
1.0
 40
1.0
 40
1.0
 10
177.7604581244828
 20
158.8478185510732
 30
0.0
 10
177.684005034564
 20
158.7775557798525
 30
0.0
 10
177.6151433122949
 20
158.6904608648108
 30
0.0
 10
177.508631081222
 20
158.4812917365585
 30
0.0
 10
177.4705892055364
 20
158.355974187319
 30
0.0
 10
177.4705892055364
 20
158.2266238927231
 30
0.0
  0
SPLINE
  5
CF
330
1F
100
AcDbEntity
  8
0
  6
Continuous
 62
     7
370
    15
100
AcDbSpline
210
0.0
220
0.0
230
1.0
 70
     8
 71
     3
 72
     8
 73
     4
 74
     0
 42
0.000000001
 43
0.00000001
 40
0.0
 40
0.0
 40
0.0
 40
0.0
 40
1.0
 40
1.0
 40
1.0
 40
1.0
 10
178.0705892055365
 20
158.9174988801259
 30
0.0
 10
177.959511020199
 20
158.9174988801259
 30
0.0
 10
177.8518470162967
 20
158.8923497045714
 30
0.0
 10
177.7604581244828
 20
158.8478185510732
 30
0.0
  0
LINE
  5
D0
330
1F
100
AcDbEntity
  8
0
  6
Continuous
 62
     7
370
    15
100
AcDbLine
 10
177.4705892055
 20
149.88673534
 30
0.0
 11
177.4705892055
 21
158.2266238927
 31
0.0
  0
SPLINE
  5
D1
330
1F
100
AcDbEntity
  8
0
  6
Continuous
 62
     7
370
    15
100
AcDbSpline
210
0.0
220
0.0
230
1.0
 70
     8
 71
     3
 72
     8
 73
     4
 74
     0
 42
0.000000001
 43
0.00000001
 40
0.0
 40
0.0
 40
0.0
 40
0.0
 40
1.0
 40
1.0
 40
1.0
 40
1.0
 10
188.0472602277029
 20
158.1376874700178
 30
0.0
 10
187.7914839169475
 20
157.677709114753
 30
0.0
 10
187.5359205188415
 20
157.2176146544452
 30
0.0
 10
187.2805892055365
 20
156.7573936341802
 30
0.0
  0
SPLINE
  5
D2
330
1F
100
AcDbEntity
  8
0
  6
Continuous
 62
     7
370
    15
100
AcDbSpline
210
0.0
220
0.0
230
1.0
 70
     8
 71
     3
 72
     8
 73
     4
 74
     0
 42
0.000000001
 43
0.00000001
 40
0.0
 40
0.0
 40
0.0
 40
0.0
 40
0.0012352705496738
 40
0.0012352705496738
 40
0.0012352705496738
 40
0.0012352705496738
 10
188.6037507129984
 20
158.9174988801259
 30
0.0
 10
188.4178022876763
 20
158.6577231243743
 30
0.0
 10
188.2322954785052
 20
158.397789045747
 30
0.0
 10
188.047260227703
 20
158.1376874700183
 30
0.0
  0
LINE
  5
D3
330
1F
100
AcDbEntity
  8
0
  6
Continuous
 62
     7
370
    15
100
AcDbLine
 10
187.2805892055
 20
147.7047899677
 30
0.0
 11
187.2805892055
 21
156.7573936342
 31
0.0
  0
LINE
  5
D4
330
1F
100
AcDbEntity
  8
0
  6
Continuous
 62
     7
370
    15
100
AcDbLine
 10
72.6705892055
 20
93.758809698
 30
0.0
 11
72.6705892055
 21
130.5164987377
 31
0.0
  0
SPLINE
  5
D5
330
1F
100
AcDbEntity
  8
0
  6
Continuous
 62
     7
370
    15
100
AcDbSpline
210
0.0
220
0.0
230
1.0
 70
    11
 71
     3
 72
    64
 73
    60
 74
     0
 42
0.000000001
 43
0.00000001
 40
0.0
 40
0.0
 40
0.0
 40
0.0
 40
0.0312499999999998
 40
0.0312499999999998
 40
0.0624999999999996
 40
0.0624999999999996
 40
0.0937499999999994
 40
0.0937499999999994
 40
0.1249999999999992
 40
0.1249999999999992
 40
0.156249999999999
 40
0.156249999999999
 40
0.1874999999999988
 40
0.1874999999999988
 40
0.2187499999999986
 40
0.2187499999999986
 40
0.2499999999999984
 40
0.2499999999999984
 40
0.2812499999999982
 40
0.2812499999999982
 40
0.312499999999998
 40
0.312499999999998
 40
0.3437499999999978
 40
0.3437499999999978
 40
0.3749999999999976
 40
0.3749999999999976
 40
0.4062499999999974
 40
0.4062499999999974
 40
0.4374999999999973
 40
0.4374999999999973
 40
0.4687499999999972
 40
0.4687499999999972
 40
0.499999999999997
 40
0.499999999999997
 40
0.5312499999999968
 40
0.5312499999999968
 40
0.5624999999999966
 40
0.5624999999999966
 40
0.6249999999999962
 40
0.6249999999999962
 40
0.6874999999999958
 40
0.6874999999999958
 40
0.7187499999999961
 40
0.7187499999999961
 40
0.7499999999999964
 40
0.7499999999999964
 40
0.7812499999999969
 40
0.7812499999999969
 40
0.8124999999999972
 40
0.8124999999999972
 40
0.8437499999999976
 40
0.8437499999999976
 40
0.8749999999999979
 40
0.8749999999999979
 40
0.9062499999999982
 40
0.9062499999999982
 40
0.9374999999999987
 40
0.9374999999999987
 40
1.0
 40
1.0
 40
1.0
 40
1.0
 10
215.7023865306434
 20
114.1349222667424
 30
0.0
 10
215.8475130492913
 20
114.2541374835758
 30
0.0
 10
216.001660732602
 20
114.3576604214393
 30
0.0
 10
216.3265599980415
 20
114.5361790557485
 30
0.0
 10
216.4985992625115
 20
114.6115564581002
 30
0.0
 10
216.8539588264483
 20
114.731228799841
 30
0.0
 10
217.0348981454478
 20
114.7749860316842
 30
0.0
 10
217.4030682293096
 20
114.8316745378975
 30
0.0
 10
217.5921298093572
 20
114.8444864805543
 30
0.0
 10
217.9665018253991
 20
114.8378292902867
 30
0.0
 10
218.1515413570279
 20
114.8187540131686
 30
0.0
 10
218.5173706554002
 20
114.7493323174368
 30
0.0
 10
218.699899157362
 20
114.6982006759441
 30
0.0
 10
219.0486948354136
 20
114.5664566964534
 30
0.0
 10
219.2155775950018
 20
114.4861108463655
 30
0.0
 10
219.5340370013012
 20
114.295617854129
 30
0.0
 10
219.6869651456812
 20
114.184017513422
 30
0.0
 10
219.964306112758
 20
113.9373651824474
 30
0.0
 10
220.0899429850451
 20
113.8020175327072
 30
0.0
 10
220.313572730675
 20
113.5055235009935
 30
0.0
 10
220.4118053703987
 20
113.342799715533
 30
0.0
 10
220.5678477826158
 20
113.0059458957586
 30
0.0
 10
220.6272987531059
 20
112.8301670977148
 30
0.0
 10
220.7059662297768
 20
112.4625867131476
 30
0.0
 10
220.7238992350822
 20
112.2743859944414
 30
0.0
 10
220.7162633831064
 20
111.9017788973096
 30
0.0
 10
220.6903223620336
 20
111.7130026415676
 30
0.0
 10
220.5971456999961
 20
111.3502846682085
 30
0.0
 10
220.5306403525893
 20
111.1761070532458
 30
0.0
 10
220.3591659997095
 20
110.841529186205
 30
0.0
 10
220.2559435483121
 20
110.6849935431329
 30
0.0
 10
220.0208608505818
 20
110.3964935892998
 30
0.0
 10
219.8870257051821
 20
110.2626442226122
 30
0.0
 10
219.5996199620404
 20
110.0255872582665
 30
0.0
 10
219.4456901780966
 20
109.9214217127495
 30
0.0
 10
219.1179918170709
 20
109.7406117547935
 30
0.0
 10
218.9453065308325
 20
109.6649393191207
 30
0.0
 10
218.4164301649318
 20
109.4860355243881
 30
0.0
 10
218.0381903268825
 20
109.4279009364443
 30
0.0
 10
217.2933363204148
 20
109.4402660752142
 30
0.0
 10
216.9172227982544
 20
109.511034419255
 30
0.0
 10
216.39600570779
 20
109.7073325284139
 30
0.0
 10
216.2267792688256
 20
109.7884621189597
 30
0.0
 10
215.9052267375896
 20
109.9808665366894
 30
0.0
 10
215.7556091195051
 20
110.0902467173473
 30
0.0
 10
215.4789036322342
 20
110.3359419572212
 30
0.0
 10
215.3505485821929
 20
110.4739603934579
 30
0.0
 10
215.1257327919795
 20
110.7725119926705
 30
0.0
 10
215.0301114892079
 20
110.9311603118528
 30
0.0
 10
214.8737860612874
 20
111.268135578194
 30
0.0
 10
214.812809142238
 20
111.4490976859066
 30
0.0
 10
214.7350731011463
 20
111.8144336963326
 30
0.0
 10
214.7171763323835
 20
111.9998980533883
 30
0.0
 10
214.7250615139654
 20
112.3766611753153
 30
0.0
 10
214.7512002056816
 20
112.564015751888
 30
0.0
 10
214.8442970909582
 20
112.9256803195978
 30
0.0
 10
214.9124973902571
 20
113.1036008588503
 30
0.0
 10
215.168872105047
 20
113.6020883460279
 30
0.0
 10
215.4121334933479
 20
113.8964918330755
 30
0.0
 10
215.7023865306435
 20
114.1349222667424
 30
0.0
  0
LINE
  5
D6
330
1F
100
AcDbEntity
  8
0
  6
Continuous
 62
     7
370
    15
100
AcDbLine
 10
224.0705892055
 20
112.1376542254
 30
0.0
 11
224.0705892055
 21
99.6376542254
 31
0.0
  0
LINE
  5
D7
330
1F
100
AcDbEntity
  8
0
  6
Continuous
 62
     7
370
    15
100
AcDbLine
 10
224.0705892055
 20
124.6376542254
 30
0.0
 11
224.0705892055
 21
112.1376542254
 31
0.0
  0
LINE
  5
D8
330
1F
100
AcDbEntity
  8
0
  6
Continuous
 62
     7
370
    15
100
AcDbLine
 10
224.2705892055
 20
112.1376542254
 30
0.0
 11
224.2705892055
 21
99.8376542254
 31
0.0
  0
LINE
  5
D9
330
1F
100
AcDbEntity
  8
0
  6
Continuous
 62
     7
370
    15
100
AcDbLine
 10
224.2705892055
 20
124.4376542254
 30
0.0
 11
224.2705892055
 21
112.1376542254
 31
0.0
  0
CIRCLE
  5
DA
330
1F
100
AcDbEntity
  8
0
  6
HIDDEN
 62
     7
370
     0
100
AcDbCircle
 10
217.7205892055
 20
112.1376542254
 30
0.0
 40
2.500000000000017
  0
CIRCLE
  5
DB
330
1F
100
AcDbEntity
  8
0
  6
HIDDEN
 62
     7
370
     0
100
AcDbCircle
 10
217.7205892055
 20
112.1376542254
 30
0.0
 40
1.776794919243109
  0
CIRCLE
  5
DC
330
1F
100
AcDbEntity
  8
0
  6
HIDDEN
 62
     7
370
     0
100
AcDbCircle
 10
217.7205892055
 20
112.1376542254
 30
0.0
 40
1.676794919243118
  0
LINE
  5
DD
330
1F
100
AcDbEntity
  8
0
  6
HIDDEN
 62
     7
370
     0
100
AcDbLine
 10
177.6421620808
 20
76.8376542254
 30
0.0
 11
177.4705892055
 21
76.8376542254
 31
0.0
  0
ELLIPSE
  5
DE
330
1F
100
AcDbEntity
  8
0
  6
HIDDEN
 62
     7
370
     0
100
AcDbEllipse
 10
177.6421620808
 20
74.8376542254
 30
0.0
 11
0.0
 21
2.0
 31
0.0
210
0.0
220
0.0
230
1.0
 40
0.4142135624
 41
4.712388980384702
 42
6.283185307179586
  0
LINE
  5
DF
330
1F
100
AcDbEntity
  8
0
  6
HIDDEN
 62
     7
370
     0
100
AcDbLine
 10
177.4705892055
 20
149.6376542254
 30
0.0
 11
177.6421620808
 21
149.6376542254
 31
0.0
  0
ELLIPSE
  5
E0
330
1F
100
AcDbEntity
  8
0
  6
HIDDEN
 62
     7
370
     0
100
AcDbEllipse
 10
177.6421620808
 20
151.6376542254
 30
0.0
 11
0.0
 21
2.0
 31
0.0
210
0.0
220
0.0
230
1.0
 40
0.4142135624
 41
3.141592653589793
 42
4.712388980384695
  0
LINE
  5
E1
330
1F
100
AcDbEntity
  8
0
  6
HIDDEN
 62
     7
370
     0
100
AcDbLine
 10
178.4705892055
 20
65.9517391584
 30
0.0
 11
177.6862492367
 21
65.5041999582
 31
0.0
  0
LINE
  5
E2
330
1F
100
AcDbEntity
  8
0
  6
HIDDEN
 62
     7
370
     0
100
AcDbLine
 10
177.7604581245
 20
158.8478185511
 30
0.0
 11
178.4705892055
 21
158.13768747
 31
0.0
  0
LINE
  5
E3
330
1F
100
AcDbEntity
  8
0
  6
HIDDEN
 62
     7
370
     0
100
AcDbLine
 10
182.590541375
 20
65.9517391584
 30
0.0
 11
178.4705892055
 21
65.9517391584
 31
0.0
  0
LINE
  5
E4
330
1F
100
AcDbEntity
  8
0
  6
HIDDEN
 62
     7
370
     0
100
AcDbLine
 10
193.3205892055
 20
65.9517391584
 30
0.0
 11
188.150637036
 21
65.9517391584
 31
0.0
  0
LINE
  5
E5
330
1F
100
AcDbEntity
  8
0
  6
HIDDEN
 62
     7
370
     0
100
AcDbLine
 10
178.4705892055
 20
65.9517391584
 30
0.0
 11
178.4705892055
 21
74.8376542254
 31
0.0
  0
LINE
  5
E6
330
1F
100
AcDbEntity
  8
0
  6
HIDDEN
 62
     7
370
     0
100
AcDbLine
 10
193.3205892055
 20
76.8376542254
 30
0.0
 11
177.6421620808
 21
76.8376542254
 31
0.0
  0
LINE
  5
E7
330
1F
100
AcDbEntity
  8
0
  6
HIDDEN
 62
     7
370
     0
100
AcDbLine
 10
178.4705892055
 20
158.13768747
 30
0.0
 11
182.6939181834
 21
158.13768747
 31
0.0
  0
LINE
  5
E8
330
1F
100
AcDbEntity
  8
0
  6
HIDDEN
 62
     7
370
     0
100
AcDbLine
 10
188.0472602277
 20
158.13768747
 30
0.0
 11
193.3205892055
 21
158.13768747
 31
0.0
  0
LINE
  5
E9
330
1F
100
AcDbEntity
  8
0
  6
HIDDEN
 62
     7
370
     0
100
AcDbLine
 10
178.4705892055
 20
158.13768747
 30
0.0
 11
178.4705892055
 21
151.6376542254
 31
0.0
  0
LINE
  5
EA
330
1F
100
AcDbEntity
  8
0
  6
HIDDEN
 62
     7
370
     0
100
AcDbLine
 10
177.6421620808
 20
149.6376542254
 30
0.0
 11
193.3205892055
 21
149.6376542254
 31
0.0
  0
LINE
  5
EB
330
1F
100
AcDbEntity
  8
0
  6
HIDDEN
 62
     7
370
     0
100
AcDbLine
 10
82.6705892055
 20
99.6376542254
 30
0.0
 11
82.6705892055
 21
124.6376542254
 31
0.0
  0
LINE
  5
EC
330
1F
100
AcDbEntity
  8
0
  6
HIDDEN
 62
     7
370
     0
100
AcDbLine
 10
85.9551935545
 20
101.6376542254
 30
0.0
 11
85.9551935545
 21
122.6376542254
 31
0.0
  0
LINE
  5
ED
330
1F
100
AcDbEntity
  8
0
  6
HIDDEN
 62
     7
370
     0
100
AcDbLine
 10
134.6705892055
 20
101.6376542254
 30
0.0
 11
134.6705892055
 21
122.6376542254
 31
0.0
  0
LINE
  5
EE
330
1F
100
AcDbEntity
  8
0
  6
HIDDEN
 62
     7
370
     0
100
AcDbLine
 10
139.4774741578
 20
109.6376542254
 30
0.0
 11
139.4774741578
 21
114.6376542254
 31
0.0
  0
SPLINE
  5
EF
330
1F
100
AcDbEntity
  8
0
  6
HIDDEN
 62
     7
370
     0
100
AcDbSpline
210
0.0
220
0.0
230
1.0
 70
     8
 71
     3
 72
    16
 73
    12
 74
     0
 42
0.000000001
 43
0.00000001
 40
0.0
 40
0.0
 40
0.0
 40
0.0
 40
0.2500000000000013
 40
0.2500000000000013
 40
0.5000000000000027
 40
0.5000000000000027
 40
0.6250000000000021
 40
0.6250000000000021
 40
0.7500000000000016
 40
0.7500000000000016
 40
1.0
 40
1.0
 40
1.0
 40
1.0
 10
224.2705892055365
 20
118.9784913407281
 30
0.0
 10
224.2705892055365
 20
118.9100204185443
 30
0.0
 10
224.2660439953612
 20
118.8400921768934
 30
0.0
 10
224.2403740302376
 20
118.6949229468061
 30
0.0
 10
224.2186471503552
 20
118.6165722247352
 30
0.0
 10
224.1596877198957
 20
118.5144006758745
 30
0.0
 10
224.1350375929122
 20
118.4832123466068
 30
0.0
 10
224.0807206001153
 20
118.4370044295072
 30
0.0
 10
224.0519506684003
 20
118.4222674130333
 30
0.0
 10
223.9692482983896
 20
118.3970697643188
 30
0.0
 10
223.9179588217828
 20
118.4026466018961
 30
0.0
 10
223.8705892055289
 20
118.4151999551451
 30
0.0
  0
SPLINE
  5
F0
330
1F
100
AcDbEntity
  8
0
  6
HIDDEN
 62
     7
370
     0
100
AcDbSpline
210
0.0
220
0.0
230
1.0
 70
     8
 71
     3
 72
     8
 73
     4
 74
     0
 42
0.000000001
 43
0.00000001
 40
0.0
 40
0.0
 40
0.0
 40
0.0
 40
1.0
 40
1.0
 40
1.0
 40
1.0
 10
223.8705892055314
 20
118.4151999551544
 30
0.0
 10
223.8116938809032
 20
118.3822480984821
 30
0.0
 10
223.7420842516237
 20
118.3605821425257
 30
0.0
 10
223.6705892055366
 20
118.3605821425257
 30
0.0
  0
SPLINE
  5
F1
330
1F
100
AcDbEntity
  8
0
  6
HIDDEN
 62
     7
370
     0
100
AcDbSpline
210
0.0
220
0.0
230
1.0
 70
     8
 71
     3
 72
     8
 73
     4
 74
     0
 42
0.000000001
 43
0.00000001
 40
0.0
 40
0.0
 40
0.0
 40
0.0
 40
1.0
 40
1.0
 40
1.0
 40
1.0
 10
223.8705892055462
 20
105.8601084955381
 30
0.0
 10
223.8116938809148
 20
105.8930603522149
 30
0.0
 10
223.7420842516298
 20
105.9147263081751
 30
0.0
 10
223.6705892055366
 20
105.9147263081751
 30
0.0
  0
SPLINE
  5
F2
330
1F
100
AcDbEntity
  8
0
  6
HIDDEN
 62
     7
370
     0
100
AcDbSpline
210
0.0
220
0.0
230
1.0
 70
     8
 71
     3
 72
    16
 73
    12
 74
     0
 42
0.000000001
 43
0.00000001
 40
0.0
 40
0.0
 40
0.0
 40
0.0
 40
0.2499999999999984
 40
0.2499999999999984
 40
0.3749999999999979
 40
0.3749999999999979
 40
0.4999999999999974
 40
0.4999999999999974
 40
0.7499999999999987
 40
0.7499999999999987
 40
1.0
 40
1.0
 40
1.0
 40
1.0
 10
223.8705892055462
 20
105.8601084955379
 30
0.0
 10
223.9179711703131
 20
105.8726651862201
 30
0.0
 10
223.9691523888434
 20
105.8782899439838
 30
0.0
 10
224.0521074507604
 20
105.8529892933282
 30
0.0
 10
224.0807898119222
 20
105.8382447365888
 30
0.0
 10
224.1348976168262
 20
105.7922331692146
 30
0.0
 10
224.1592933709444
 20
105.7615003536686
 30
0.0
 10
224.2186049336819
 20
105.6590184131637
 30
0.0
 10
224.2401324875819
 20
105.5813608543532
 30
0.0
 10
224.2659627423297
 20
105.4360747338052
 30
0.0
 10
224.2705892055365
 20
105.3653424669921
 30
0.0
 10
224.2705892055365
 20
105.2968215937876
 30
0.0
  0
LINE
  5
F3
330
1F
100
AcDbEntity
  8
0
  6
HIDDEN
 62
     7
370
     0
100
AcDbLine
 10
207.7705892055
 20
112.1376542254
 30
0.0
 11
207.7705892055
 21
105.4376542254
 31
0.0
  0
LINE
  5
F4
330
1F
100
AcDbEntity
  8
0
  6
HIDDEN
 62
     7
370
     0
100
AcDbLine
 10
207.7705892055
 20
118.8376542254
 30
0.0
 11
207.7705892055
 21
112.1376542254
 31
0.0
  0
LINE
  5
F5
330
1F
100
AcDbEntity
  8
0
  6
HIDDEN
 62
     7
370
     0
100
AcDbLine
 10
211.1366146093
 20
112.1376542254
 30
0.0
 11
211.1366146093
 21
105.1376542254
 31
0.0
  0
LINE
  5
F6
330
1F
100
AcDbEntity
  8
0
  6
HIDDEN
 62
     7
370
     0
100
AcDbLine
 10
211.1366146093
 20
119.1376542254
 30
0.0
 11
211.1366146093
 21
112.1376542254
 31
0.0
  0
LINE
  5
F7
330
1F
100
AcDbEntity
  8
0
  6
HIDDEN
 62
     7
370
     0
100
AcDbLine
 10
217.3705892055
 20
118.3605821425
 30
0.0
 11
223.6705892055
 21
118.3605821425
 31
0.0
  0
LINE
  5
F8
330
1F
100
AcDbEntity
  8
0
  6
HIDDEN
 62
     7
370
     0
100
AcDbLine
 10
217.3705892055
 20
105.9147263082
 30
0.0
 11
223.6705892055
 21
105.9147263082
 31
0.0
  0
SPLINE
  5
F9
330
1F
100
AcDbEntity
  8
0
  6
HIDDEN
 62
     7
370
     0
100
AcDbSpline
210
0.0
220
0.0
230
1.0
 70
     8
 71
     3
 72
    14
 73
    10
 74
     0
 42
0.000000001
 43
0.00000001
 40
0.0
 40
0.0
 40
0.0
 40
0.0
 40
0.25
 40
0.25
 40
0.5
 40
0.5
 40
0.75
 40
0.75
 40
1.0
 40
1.0
 40
1.0
 40
1.0
 10
223.8705892055365
 20
121.2126542253504
 30
0.0
 10
223.8705892055365
 20
121.3453267892872
 30
0.0
 10
223.8707568745614
 20
121.4655405880442
 30
0.0
 10
223.8683918371333
 20
121.6818334389728
 30
0.0
 10
223.8663249041443
 20
121.7774048060223
 30
0.0
 10
223.8608644130533
 20
121.9330403619222
 30
0.0
 10
223.8571664431175
 20
121.9953084421574
 30
0.0
 10
223.8499618475285
 20
122.081458600094
 30
0.0
 10
223.846422762008
 20
122.1060367654283
 30
0.0
 10
223.8438371621407
 20
122.1115063541965
 30
0.0
  0
SPLINE
  5
FA
330
1F
100
AcDbEntity
  8
0
  6
HIDDEN
 62
     7
370
     0
100
AcDbSpline
210
0.0
220
0.0
230
1.0
 70
     8
 71
     3
 72
    18
 73
    14
 74
     0
 42
0.000000001
 43
0.00000001
 40
0.0
 40
0.0
 40
0.0
 40
0.0
 40
0.0720026303620971
 40
0.1536964735258202
 40
0.2365827485132971
 40
0.2782279037630842
 40
0.4391983709927223
 40
0.5622623472563664
 40
0.6037544258300978
 40
0.7649928110340884
 40
0.8882614472440451
 40
0.9298257719615675
 40
1.0
 40
1.0
 40
1.0
 40
1.0
 10
223.8426894608717
 20
122.1091099984233
 30
0.0
 10
223.8420528691089
 20
122.1088986403436
 30
0.0
 10
223.8406940033492
 20
122.1084474763882
 30
0.0
 10
223.8400652317474
 20
122.0872871607979
 30
0.0
 10
223.8403170770732
 20
122.0603790357686
 30
0.0
 10
223.8417802654998
 20
122.0113688641289
 30
0.0
 10
223.8452673366743
 20
121.9352994755863
 30
0.0
 10
223.8508237585092
 20
121.8328096198297
 30
0.0
 10
223.8568339012701
 20
121.7161729433818
 30
0.0
 10
223.8633948903737
 20
121.5822458420844
 30
0.0
 10
223.8681696453033
 20
121.4276120687811
 30
0.0
 10
223.8701550774683
 20
121.3091139225522
 30
0.0
 10
223.8704217303531
 20
121.2498642815015
 30
0.0
 10
223.8705891941325
 20
121.2126542253504
 30
0.0
  0
LWPOLYLINE
  5
FB
330
1F
100
AcDbEntity
  8
0
  6
HIDDEN
 62
     7
370
     0
100
AcDbPolyline
 90
        4
 70
   128
 43
0.0
 10
223.8705891941
 20
121.2126542254
 10
223.8705892093
 20
120.7319941177
 10
223.8705892045
 20
118.8093536869
 10
223.8705892055
 20
118.4151999551
  0
LINE
  5
FC
330
1F
100
AcDbEntity
  8
0
  6
HIDDEN
 62
     7
370
     0
100
AcDbLine
 10
223.8705892101
 20
103.0626542254
 30
0.0
 11
223.8705892055
 21
105.8601084955
 31
0.0
  0
SPLINE
  5
FD
330
1F
100
AcDbEntity
  8
0
  6
HIDDEN
 62
     7
370
     0
100
AcDbSpline
210
0.0
220
0.0
230
1.0
 70
     8
 71
     3
 72
    18
 73
    14
 74
     0
 42
0.000000001
 43
0.00000001
 40
0.0
 40
0.0
 40
0.0
 40
0.0
 40
0.0315138355789722
 40
0.1123261892414592
 40
0.1949075900478497
 40
0.2781017266672099
 40
0.3580883358224013
 40
0.5207747800955443
 40
0.6036652321017048
 40
0.6837861884635272
 40
0.846739918919571
 40
0.9297730588989955
 40
1.0
 40
1.0
 40
1.0
 40
1.0
 10
223.8425533175156
 20
102.1643179062204
 30
0.0
 10
223.8422626097149
 20
102.1642298756826
 30
0.0
 10
223.8412264267545
 20
102.163916104456
 30
0.0
 10
223.8403534228005
 20
102.1764914597008
 30
0.0
 10
223.8400266622533
 20
102.2021978758893
 30
0.0
 10
223.8410213114845
 20
102.241370780202
 30
0.0
 10
223.8437161716969
 20
102.3092319679013
 30
0.0
 10
223.8486170327374
 20
102.4007587999405
 30
0.0
 10
223.8545372360664
 20
102.513936034766
 30
0.0
 10
223.8608263310779
 20
102.6407798212203
 30
0.0
 10
223.8667833379244
 20
102.7872741220459
 30
0.0
 10
223.8700692697633
 20
102.9442232460496
 30
0.0
 10
223.870425827834
 20
103.0254393332877
 30
0.0
 10
223.8705892101216
 20
103.0626542253504
 30
0.0
  0
LINE
  5
FE
330
1F
100
AcDbEntity
  8
0
  6
HIDDEN
 62
     7
370
     0
100
AcDbLine
 10
217.3705892055
 20
121.2126542254
 30
0.0
 11
217.3705892055
 21
118.3605821425
 31
0.0
  0
LINE
  5
FF
330
1F
100
AcDbEntity
  8
0
  6
HIDDEN
 62
     7
370
     0
100
AcDbLine
 10
217.3705892055
 20
103.0626542254
 30
0.0
 11
217.3705892055
 21
105.9147263082
 31
0.0
  0
LINE
  5
100
330
1F
100
AcDbEntity
  8
0
  6
HIDDEN
 62
     7
370
     0
100
AcDbLine
 10
217.3705892055
 20
122.1126542254
 30
0.0
 11
217.3705892055
 21
121.2126542254
 31
0.0
  0
LINE
  5
101
330
1F
100
AcDbEntity
  8
0
  6
HIDDEN
 62
     7
370
     0
100
AcDbLine
 10
217.3705892055
 20
102.1626542254
 30
0.0
 11
217.3705892055
 21
103.0626542254
 31
0.0
  0
LINE
  5
102
330
1F
100
AcDbEntity
  8
0
  6
HIDDEN
 62
     7
370
     0
100
AcDbLine
 10
183.4605892055
 20
147.5306973271
 30
0.0
 11
183.4605892055
 21
141.9876542254
 31
0.0
  0
LINE
  5
103
330
1F
100
AcDbEntity
  8
0
  6
HIDDEN
 62
     7
370
     0
100
AcDbLine
 10
187.2805892055
 20
147.5306973271
 30
0.0
 11
187.2805892055
 21
141.9876542254
 31
0.0
  0
LINE
  5
104
330
1F
100
AcDbEntity
  8
0
  6
HIDDEN
 62
     7
370
     0
100
AcDbLine
 10
182.1374276981
 20
150.648732177
 30
0.0
 11
182.1374276981
 21
141.9876542254
 31
0.0
  0
LINE
  5
105
330
1F
100
AcDbEntity
  8
0
  6
HIDDEN
 62
     7
370
     0
100
AcDbLine
 10
188.603750713
 20
150.648732177
 30
0.0
 11
188.603750713
 21
141.9876542254
 31
0.0
  0
ARC
  5
106
330
1F
100
AcDbEntity
  8
0
  6
HIDDEN
 62
     7
370
     0
100
AcDbCircle
 10
73.8705892055
 20
98.4376542254
 30
0.0
 40
1.200000000000017
100
AcDbArc
 50
90.0
 51
180.0
  0
ARC
  5
107
330
1F
100
AcDbEntity
  8
0
  6
HIDDEN
 62
     7
370
     0
100
AcDbCircle
 10
73.8705892055
 20
125.8376542254
 30
0.0
 40
1.200000000000003
100
AcDbArc
 50
180.0
 51
270.0
  0
ARC
  5
108
330
1F
100
AcDbEntity
  8
0
  6
HIDDEN
 62
     7
370
     0
100
AcDbCircle
 10
83.5629616363
 20
99.8126542254
 30
0.0
 40
0.4000000000000057
100
AcDbArc
 50
255.0
 51
270.0
  0
ARC
  5
109
330
1F
100
AcDbEntity
  8
0
  6
HIDDEN
 62
     7
370
     0
100
AcDbCircle
 10
83.5629616363
 20
124.4626542254
 30
0.0
 40
0.4000000000000199
100
AcDbArc
 50
90.0
 51
105.0
  0
LINE
  5
10A
330
1F
100
AcDbEntity
  8
0
  6
HIDDEN
 62
     7
370
     0
100
AcDbLine
 10
83.5629616363
 20
99.4126542254
 30
0.0
 11
84.4396490979
 21
99.4126542254
 31
0.0
  0
LINE
  5
10B
330
1F
100
AcDbEntity
  8
0
  6
HIDDEN
 62
     7
370
     0
100
AcDbLine
 10
84.4396490979
 20
124.8626542254
 30
0.0
 11
83.5629616363
 21
124.8626542254
 31
0.0
  0
ARC
  5
10C
330
1F
100
AcDbEntity
  8
0
  6
HIDDEN
 62
     7
370
     0
100
AcDbCircle
 10
84.4396490979
 20
99.8126542254
 30
0.0
 40
0.4000000000000069
100
AcDbArc
 50
270.0
 51
330.0
  0
ARC
  5
10D
330
1F
100
AcDbEntity
  8
0
  6
HIDDEN
 62
     7
370
     0
100
AcDbCircle
 10
84.4396490979
 20
124.4626542254
 30
0.0
 40
0.4000000000000069
100
AcDbArc
 50
30.0
 51
90.0
  0
LINE
  5
10E
330
1F
100
AcDbEntity
  8
0
  6
HIDDEN
 62
     7
370
     0
100
AcDbLine
 10
83.4594340182
 20
124.8490245559
 30
0.0
 11
82.6705892055
 21
124.6376542254
 31
0.0
  0
LINE
  5
10F
330
1F
100
AcDbEntity
  8
0
  6
HIDDEN
 62
     7
370
     0
100
AcDbLine
 10
82.6705892055
 20
99.6376542254
 30
0.0
 11
83.4594340182
 21
99.4262838948
 31
0.0
  0
LINE
  5
110
330
1F
100
AcDbEntity
  8
0
  6
HIDDEN
 62
     7
370
     0
100
AcDbLine
 10
84.7860592594
 20
99.6126542254
 30
0.0
 11
85.9551935545
 21
101.6376542254
 31
0.0
  0
LINE
  5
111
330
1F
100
AcDbEntity
  8
0
  6
HIDDEN
 62
     7
370
     0
100
AcDbLine
 10
85.9551935545
 20
122.6376542254
 30
0.0
 11
84.7860592594
 21
124.6626542254
 31
0.0
  0
LINE
  5
112
330
1F
100
AcDbEntity
  8
0
  6
HIDDEN
 62
     7
370
     0
100
AcDbLine
 10
73.8705892055
 20
99.6376542254
 30
0.0
 11
82.6705892055
 21
99.6376542254
 31
0.0
  0
LINE
  5
113
330
1F
100
AcDbEntity
  8
0
  6
HIDDEN
 62
     7
370
     0
100
AcDbLine
 10
82.6705892055
 20
124.6376542254
 30
0.0
 11
73.8705892055
 21
124.6376542254
 31
0.0
  0
LINE
  5
114
330
1F
100
AcDbEntity
  8
0
  6
HIDDEN
 62
     7
370
     0
100
AcDbLine
 10
134.6705892055
 20
101.6376542254
 30
0.0
 11
139.4774741578
 21
109.6376542254
 31
0.0
  0
LINE
  5
115
330
1F
100
AcDbEntity
  8
0
  6
HIDDEN
 62
     7
370
     0
100
AcDbLine
 10
139.4774741578
 20
114.6376542254
 30
0.0
 11
134.6705892055
 21
122.6376542254
 31
0.0
  0
LINE
  5
116
330
1F
100
AcDbEntity
  8
0
  6
HIDDEN
 62
     7
370
     0
100
AcDbLine
 10
85.9551935545
 20
101.6376542254
 30
0.0
 11
134.6705892055
 21
101.6376542254
 31
0.0
  0
LINE
  5
117
330
1F
100
AcDbEntity
  8
0
  6
HIDDEN
 62
     7
370
     0
100
AcDbLine
 10
134.6705892055
 20
122.6376542254
 30
0.0
 11
85.9551935545
 21
122.6376542254
 31
0.0
  0
LINE
  5
118
330
1F
100
AcDbEntity
  8
0
  6
HIDDEN
 62
     7
370
     0
100
AcDbLine
 10
209.1652672075
 20
119.6376542254
 30
0.0
 11
208.5705892055
 21
119.6376542254
 31
0.0
  0
LINE
  5
119
330
1F
100
AcDbEntity
  8
0
  6
HIDDEN
 62
     7
370
     0
100
AcDbLine
 10
208.5705892055
 20
104.6376542254
 30
0.0
 11
209.1652672075
 21
104.6376542254
 31
0.0
  0
ARC
  5
11A
330
1F
100
AcDbEntity
  8
0
  6
HIDDEN
 62
     7
370
     0
100
AcDbCircle
 10
209.1652672075
 20
118.8376542254
 30
0.0
 40
0.7999999999999982
100
AcDbArc
 50
75.0
 51
90.0
  0
ARC
  5
11B
330
1F
100
AcDbEntity
  8
0
  6
HIDDEN
 62
     7
370
     0
100
AcDbCircle
 10
209.1652672075
 20
105.4376542254
 30
0.0
 40
0.8000000000000114
100
AcDbArc
 50
270.0
 51
285.0
  0
ARC
  5
11C
330
1F
100
AcDbEntity
  8
0
  6
HIDDEN
 62
     7
370
     0
100
AcDbCircle
 10
208.5705892055
 20
118.8376542254
 30
0.0
 40
0.8000000000000114
100
AcDbArc
 50
90.0
 51
180.0
  0
ARC
  5
11D
330
1F
100
AcDbEntity
  8
0
  6
HIDDEN
 62
     7
370
     0
100
AcDbCircle
 10
208.5705892055
 20
105.4376542254
 30
0.0
 40
0.8000000000000114
100
AcDbArc
 50
180.0
 51
270.0
  0
LINE
  5
11E
330
1F
100
AcDbEntity
  8
0
  6
HIDDEN
 62
     7
370
     0
100
AcDbLine
 10
209.3723224435
 20
104.6649135643
 30
0.0
 11
211.1366146093
 21
105.1376542254
 31
0.0
  0
LINE
  5
11F
330
1F
100
AcDbEntity
  8
0
  6
HIDDEN
 62
     7
370
     0
100
AcDbLine
 10
211.1366146093
 20
119.1376542254
 30
0.0
 11
209.3723224435
 21
119.6103948864
 31
0.0
  0
LINE
  5
120
330
1F
100
AcDbEntity
  8
0
  6
HIDDEN
 62
     7
370
     0
100
AcDbLine
 10
217.3705892055
 20
119.1376542254
 30
0.0
 11
211.1366146093
 21
119.1376542254
 31
0.0
  0
LINE
  5
121
330
1F
100
AcDbEntity
  8
0
  6
HIDDEN
 62
     7
370
     0
100
AcDbLine
 10
211.1366146093
 20
105.1376542254
 30
0.0
 11
217.3705892055
 21
105.1376542254
 31
0.0
  0
LINE
  5
122
330
1F
100
AcDbEntity
  8
0
  6
HIDDEN
 62
     7
370
     0
100
AcDbLine
 10
224.2705892055
 20
122.5406026403
 30
0.0
 11
223.8366054752
 21
122.1066190582
 31
0.0
  0
LINE
  5
123
330
1F
100
AcDbEntity
  8
0
  6
HIDDEN
 62
     7
370
     0
100
AcDbLine
 10
223.8366049409
 20
102.1686903504
 30
0.0
 11
224.2705892055
 21
101.7347061778
 31
0.0
  0
LINE
  5
124
330
1F
100
AcDbEntity
  8
0
  6
HIDDEN
 62
     7
370
     0
100
AcDbLine
 10
139.4774741578
 20
109.6376542254
 30
0.0
 11
207.7705892055
 21
109.6376542254
 31
0.0
  0
LINE
  5
125
330
1F
100
AcDbEntity
  8
0
  6
HIDDEN
 62
     7
370
     0
100
AcDbLine
 10
207.7705892055
 20
114.6376542254
 30
0.0
 11
139.4774741578
 21
114.6376542254
 31
0.0
  0
LINE
  5
126
330
1F
100
AcDbEntity
  8
0
  6
HIDDEN
 62
     7
370
     0
100
AcDbLine
 10
223.843020494
 20
122.1126542254
 30
0.0
 11
217.3705892055
 21
122.1126542254
 31
0.0
  0
LINE
  5
127
330
1F
100
AcDbEntity
  8
0
  6
HIDDEN
 62
     7
370
     0
100
AcDbLine
 10
217.3705892055
 20
102.1626542254
 30
0.0
 11
223.8429244986
 21
102.1626542254
 31
0.0
  0
DIMENSION
  5
128
330
1F
100
AcDbEntity
  8
VERMASSUNG
100
AcDbDimension
  2
_D
 10
64.5809722485
 20
160.8626542254
 30
0.0
 11
64.5809722485
 21
112.1376542254
 31
0.0
 70
   160
  1
ISO 50 %%c<>
 71
     2
 42
-1.0
  3
SLDDIMSTYLE0
100
AcDbAlignedDimension
 13
192.7205892055
 23
63.4126542254
 33
0.0
 14
192.7205892055
 24
160.8626542254
 34
0.0
 50
90.0
100
AcDbRotatedDimension
  0
DIMENSION
  5
135
330
1F
100
AcDbEntity
  8
VERMASSUNG
100
AcDbDimension
  2
_D_1
 10
230.3239444788
 20
105.1376542254
 30
0.0
 11
230.3239444788
 21
112.1376542254
 31
0.0
 70
   160
  1
%%c<>
 71
     2
 42
-1.0
  3
SLDDIMSTYLE0
100
AcDbAlignedDimension
 13
217.3705892055
 23
119.1376542254
 33
0.0
 14
217.3705892055
 24
105.1376542254
 34
0.0
 50
90.0
100
AcDbRotatedDimension
  0
DIMENSION
  5
140
330
1F
100
AcDbEntity
  8
VERMASSUNG
100
AcDbDimension
  2
_D_2
 10
224.2705892055
 20
164.6345508085
 30
0.0
 11
208.7955892055
 21
164.6345508085
 31
0.0
 70
   160
  1
(<>)
 71
     2
 42
-1.0
  3
SLDDIMSTYLE0
100
AcDbAlignedDimension
 13
193.3205892055
 23
158.4326411786
 33
0.0
 14
224.2705892055
 24
124.4376542254
 34
0.0
100
AcDbRotatedDimension
  0
DIMENSION
  5
14C
330
1F
100
AcDbEntity
  8
VERMASSUNG
100
AcDbDimension
  2
_D_3
 10
224.2705892055
 20
170.6345508085
 30
0.0
 11
199.2705892055
 21
170.6345508085
 31
0.0
 70
   160
  1
<>
 71
     2
 42
-1.0
  3
SLDDIMSTYLE0
100
AcDbAlignedDimension
 13
174.2705892055
 23
147.0626542254
 33
0.0
 14
224.2705892055
 24
124.4376542254
 34
0.0
100
AcDbRotatedDimension
  0
DIMENSION
  5
156
330
1F
100
AcDbEntity
  8
VERMASSUNG
100
AcDbDimension
  2
_D_4
 10
224.2705892055
 20
176.6345508085
 30
0.0
 11
148.4705892055
 21
176.6345508085
 31
0.0
 70
   160
  1
(<>)
 71
     2
 42
-1.0
  3
SLDDIMSTYLE0
100
AcDbAlignedDimension
 13
72.6705892055
 23
130.5164987527
 33
0.0
 14
224.2705892055
 24
122.5406033457
 34
0.0
100
AcDbRotatedDimension
  0
DIMENSION
  5
162
330
1F
100
AcDbEntity
  8
VERMASSUNG
100
AcDbDimension
  2
_D_5
 10
236.3239444788
 20
99.6376542254
 30
0.0
 11
236.3239444788
 21
112.1376542254
 31
0.0
 70
   160
  1
ST2 %%c<>
 71
     2
 42
-1.0
  3
SLDDIMSTYLE0
100
AcDbAlignedDimension
 13
224.0705892055
 23
124.6376542254
 33
0.0
 14
224.0705892055
 24
99.6376542254
 34
0.0
 50
90.0
100
AcDbRotatedDimension
  0
LINE
  5
16E
330
1F
100
AcDbEntity
  8
VERMASSUNG
  6
CENTERX2
 62
     7
370
     0
100
AcDbLine
 10
68.6705892055
 20
112.1376542254
 30
0.0
 11
225.6885333472
 21
112.1376542254
 31
0.0
  0
SPLINE
  5
16F
330
1F
100
AcDbEntity
  8
0
  6
Continuous
 62
     7
370
    15
100
AcDbSpline
210
0.0
220
0.0
230
1.0
 70
     8
 71
     3
 72
    30
 73
    26
 74
     0
 42
0.000000001
 43
0.00000001
 40
0.0
 40
0.0
 40
0.0
 40
0.0
 40
0.0042648881104988
 40
0.0515425946111464
 40
0.0988938419379716
 40
0.1462928405737585
 40
0.1937181640911539
 40
0.2411541139705244
 40
0.2885882028906363
 40
0.3360150413408113
 40
0.3834322553545528
 40
0.43083923057087
 40
0.4782364646375812
 40
0.5256251296255233
 40
0.5730067904091303
 40
0.620383231428788
 40
0.6677563553970114
 40
0.7151281277902679
 40
0.7625005487025345
 40
0.8098749815966461
 40
0.8572534470076404
 40
0.9046379779295779
 40
0.9520305781353711
 40
0.9969448839744963
 40
1.0
 40
1.0
 40
1.0
 40
1.0
 10
261.2346544324441
 20
65.05245721328357
 30
0.0
 10
261.1972183681599
 20
65.04791789414828
 30
0.0
 10
260.7447910511362
 20
64.99305870911468
 30
0.0
 10
259.846537511882
 20
64.7645066246488
 30
0.0
 10
258.5461880015908
 20
64.35907446103217
 30
0.0
 10
257.2248809630138
 20
63.81268651200705
 30
0.0
 10
255.8950868080065
 20
63.14636328710252
 30
0.0
 10
254.5636170764587
 20
62.35952286372932
 30
0.0
 10
253.2387115253319
 20
61.45830020377304
 30
0.0
 10
251.9280845720511
 20
60.44786702031629
 30
0.0
 10
250.6394020920658
 20
59.33440914211584
 30
0.0
 10
249.3801492573033
 20
58.12456125350507
 30
0.0
 10
248.1576411263627
 20
56.82552169889763
 30
0.0
 10
246.9789789953196
 20
55.44497698560583
 30
0.0
 10
245.8510169138842
 20
53.99107271987962
 30
0.0
 10
244.7803232508832
 20
52.47236728565093
 30
0.0
 10
243.7731451777202
 20
50.89778592927998
 30
0.0
 10
242.8353670928545
 20
49.27656877789299
 30
0.0
 10
241.9725009458691
 20
47.61823087643084
 30
0.0
 10
241.1895726142374
 20
45.93247974350442
 30
0.0
 10
240.491377889585
 20
44.2292330570878
 30
0.0
 10
239.8813906177611
 20
42.51827084164482
 30
0.0
 10
239.3747421980996
 20
40.84012793886367
 30
0.0
 10
239.0865397494038
 20
39.70158228696524
 30
0.0
 10
238.9630575403797
 20
39.13394951067917
 30
0.0
 10
238.9551931038077
 20
39.09779764717898
 30
0.0
  0
LINE
  5
170
330
1F
100
AcDbEntity
  8
0
  6
Continuous
 62
     7
370
    15
100
AcDbLine
 10
271.8453391776
 20
28.4663394143
 30
0.0
 11
271.9160383632
 21
28.5071664543
 31
0.0
  0
LINE
  5
171
330
1F
100
AcDbEntity
  8
0
  6
Continuous
 62
     7
370
    15
100
AcDbLine
 10
276.2640382804
 20
36.0389393054
 30
0.0
 11
276.2640382804
 21
36.1205801166
 31
0.0
  0
LINE
  5
172
330
1F
100
AcDbEntity
  8
0
  6
Continuous
 62
     7
370
    15
100
AcDbLine
 10
274.9693669374
 20
38.982110157
 30
0.0
 11
265.5118137391
 21
44.4418394048
 31
0.0
  0
LINE
  5
173
330
1F
100
AcDbEntity
  8
0
  6
Continuous
 62
     7
370
    15
100
AcDbLine
 10
259.2623216601
 20
33.6162286251
 30
0.0
 11
268.7198748585
 21
28.1564993773
 31
0.0
  0
LINE
  5
174
330
1F
100
AcDbEntity
  8
0
  6
Continuous
 62
     7
370
    15
100
AcDbLine
 10
254.2213715446
 20
62.1069089476
 30
0.0
 11
223.4587225944
 21
73.19254824
 31
0.0
  0
LINE
  5
175
330
1F
100
AcDbEntity
  8
0
  6
Continuous
 62
     7
370
    15
100
AcDbLine
 10
213.3348635217
 20
55.6556097936
 30
0.0
 11
242.8023738687
 21
30.773487661
 31
0.0
  0
SPLINE
  5
176
330
1F
100
AcDbEntity
  8
0
  6
Continuous
 62
     7
370
    15
100
AcDbSpline
210
0.0
220
0.0
230
1.0
 70
     8
 71
     3
 72
    15
 73
    11
 74
     0
 42
0.000000001
 43
0.00000001
 40
0.0
 40
0.0
 40
0.0
 40
0.0
 40
0.0652009085875057
 40
0.2206085871723699
 40
0.3752802156285091
 40
0.5290494598866521
 40
0.682196001529462
 40
0.8356982440949271
 40
0.9926764979310783
 40
1.0
 40
1.0
 40
1.0
 40
1.0
 10
270.5954466800385
 20
35.36098037870851
 30
0.0
 10
270.6545264581794
 20
35.43849088800426
 30
0.0
 10
270.8544240772231
 20
35.70074925705442
 30
0.0
 10
271.2404736518761
 20
36.06681118691055
 30
0.0
 10
271.7259285643883
 20
36.43623148103656
 30
0.0
 10
272.2074289185475
 20
36.68607931185979
 30
0.0
 10
272.6602381509989
 20
36.81967517095079
 30
0.0
 10
273.0563754758734
 20
36.82218989905862
 30
0.0
 10
273.2995842233208
 20
36.78215088932451
 30
0.0
 10
273.3956476448705
 20
36.71063971226376
 30
0.0
 10
273.3999295264766
 20
36.70745220979143
 30
0.0
  0
SPLINE
  5
177
330
1F
100
AcDbEntity
  8
0
  6
Continuous
 62
     7
370
    15
100
AcDbSpline
210
0.0
220
0.0
230
1.0
 70
     8
 71
     3
 72
    11
 73
     7
 74
     0
 42
0.000000001
 43
0.00000001
 40
0.0
 40
0.0
 40
0.0
 40
0.0
 40
0.0791104743454747
 40
0.4353974192859327
 40
0.7924343483546493
 40
1.0
 40
1.0
 40
1.0
 40
1.0
 10
269.6239866454716
 20
33.65855805496986
 30
0.0
 10
269.6409683684475
 20
33.70632258324207
 30
0.0
 10
269.7344300550311
 20
33.96920246754552
 30
0.0
 10
269.9654868448217
 20
34.44276541542455
 30
0.0
 10
270.2792631182817
 20
34.97437412437093
 30
0.0
 10
270.5104537416019
 20
35.25705719753004
 30
0.0
 10
270.5954466800385
 20
35.36098037870851
 30
0.0
  0
SPLINE
  5
178
330
1F
100
AcDbEntity
  8
0
  6
Continuous
 62
     7
370
    15
100
AcDbSpline
210
0.0
220
0.0
230
1.0
 70
     8
 71
     3
 72
     9
 73
     5
 74
     0
 42
0.000000001
 43
0.00000001
 40
0.0
 40
0.0
 40
0.0
 40
0.0
 40
0.5340518433920298
 40
1.0
 40
1.0
 40
1.0
 40
1.0
 10
270.0065017263996
 20
30.59444740727309
 30
0.0
 10
269.9082124463691
 20
30.65308805181851
 30
0.0
 10
269.7241679921711
 20
30.76289133266288
 30
0.0
 10
269.5946187172524
 20
30.97369684018778
 30
0.0
 10
269.5342554714142
 20
31.07192127782182
 30
0.0
  0
SPLINE
  5
179
330
1F
100
AcDbEntity
  8
0
  6
Continuous
 62
     7
370
    15
100
AcDbSpline
210
0.0
220
0.0
230
1.0
 70
     8
 71
     3
 72
    19
 73
    15
 74
     0
 42
0.000000001
 43
0.00000001
 40
0.0
 40
0.0
 40
0.0
 40
0.0
 40
0.072571200231435
 40
0.1603920535958487
 40
0.2483129875129887
 40
0.3362917898962322
 40
0.4242966440341572
 40
0.5123029887432264
 40
0.6002976913151364
 40
0.6882752815970967
 40
0.7762339287454896
 40
0.864174126828501
 40
0.9520977943723867
 40
0.9999999999999999
 40
0.9999999999999999
 40
0.9999999999999999
 40
0.9999999999999999
 10
255.1218449919135
 20
17.87967795635947
 30
0.0
 10
255.4706003333874
 20
17.94278065994904
 30
0.0
 10
256.2413962585358
 20
18.08224607024823
 30
0.0
 10
257.4669083542142
 20
18.45460019856723
 30
0.0
 10
258.7831466632193
 20
18.96340444207021
 30
0.0
 10
260.1117054834397
 20
19.60054616746276
 30
0.0
 10
261.4434649473735
 20
20.35730999214762
 30
0.0
 10
262.7707605029681
 20
21.23029848853207
 30
0.0
 10
264.0857423695546
 20
22.21373194938623
 30
0.0
 10
265.3805161796146
 20
23.30206549680453
 30
0.0
 10
266.6484096980593
 20
24.48757800994749
 30
0.0
 10
267.8788369611654
 20
25.76760621167613
 30
0.0
 10
268.8949949330456
 20
26.91334801836847
 30
0.0
 10
269.4782912728197
 20
27.65809108494273
 30
0.0
 10
269.6840045184427
 20
27.9207423360025
 30
0.0
  0
SPLINE
  5
17A
330
1F
100
AcDbEntity
  8
0
  6
Continuous
 62
     7
370
    15
100
AcDbSpline
210
0.0
220
0.0
230
1.0
 70
     8
 71
     3
 72
    12
 73
     8
 74
     0
 42
0.000000001
 43
0.00000001
 40
0.0
 40
0.0
 40
0.0
 40
0.0
 40
0.0056410259049254
 40
0.3066235143876513
 40
0.6076540897382848
 40
0.9087451212648187
 40
1.0
 40
1.0
 40
1.0
 40
1.0
 10
275.6549032547869
 20
38.23665535669786
 30
0.0
 10
275.6594018974672
 20
38.24726461524867
 30
0.0
 10
275.9039300474614
 20
38.82394130433408
 30
0.0
 10
276.3094180219608
 20
39.97792923787041
 30
0.0
 10
276.8558540600013
 20
41.6859974163028
 30
0.0
 10
277.203658469985
 20
42.99316051718007
 30
0.0
 10
277.3612478643918
 20
43.72373040571306
 30
0.0
 10
277.3979012376025
 20
43.89365206117566
 30
0.0
  0
LINE
  5
17B
330
1F
100
AcDbEntity
  8
0
  6
Continuous
 62
     7
370
    15
100
AcDbLine
 10
247.1249398334
 20
19.7090430189
 30
0.0
 11
248.5804620409
 21
18.8687879338
 31
0.0
  0
LINE
  5
17C
330
1F
100
AcDbEntity
  8
0
  6
Continuous
 62
     7
370
    15
100
AcDbLine
 10
243.4009048687
 20
21.8588826434
 30
0.0
 11
244.8387494068
 21
21.0288326597
 31
0.0
  0
SPLINE
  5
17D
330
1F
100
AcDbEntity
  8
0
  6
Continuous
 62
     7
370
    15
100
AcDbSpline
210
0.0
220
0.0
230
1.0
 70
     8
 71
     3
 72
     9
 73
     5
 74
     0
 42
0.000000001
 43
0.00000001
 40
0.0
 40
0.0
 40
0.0
 40
0.0
 40
0.5985422553104718
 40
1.0
 40
1.0
 40
1.0
 40
1.0
 10
238.9687834522967
 20
27.92414842789015
 30
0.0
 10
239.007011205363
 20
27.78776030871207
 30
0.0
 10
239.0708792994318
 20
27.55989315653024
 30
0.0
 10
239.1549119322505
 20
27.35054256315838
 30
0.0
 10
239.1886474835022
 20
27.2664971460939
 30
0.0
  0
SPLINE
  5
17E
330
1F
100
AcDbEntity
  8
0
  6
Continuous
 62
     7
370
    15
100
AcDbSpline
210
0.0
220
0.0
230
1.0
 70
     8
 71
     3
 72
     9
 73
     5
 74
     0
 42
0.000000001
 43
0.00000001
 40
0.0
 40
0.0
 40
0.0
 40
0.0
 40
0.5071579315543481
 40
1.0
 40
1.0
 40
1.0
 40
1.0
 10
277.3875926848079
 20
54.95751559426643
 30
0.0
 10
277.3353802171013
 20
55.13728915145203
 30
0.0
 10
277.2324291155646
 20
55.49176168554929
 30
0.0
 10
277.0979283071032
 20
55.81706251478435
 30
0.0
 10
277.0316406504535
 20
55.97738444833166
 30
0.0
  0
SPLINE
  5
17F
330
1F
100
AcDbEntity
  8
0
  6
Continuous
 62
     7
370
    15
100
AcDbSpline
210
0.0
220
0.0
230
1.0
 70
     8
 71
     3
 72
    33
 73
    29
 74
     0
 42
0.000000001
 43
0.00000001
 40
0.0
 40
0.0
 40
0.0
 40
0.0
 40
0.0273919626729588
 40
0.0658067980663217
 40
0.1048823257491146
 40
0.1448497233854569
 40
0.1856571679771722
 40
0.2270527901047617
 40
0.2687421181023273
 40
0.31048540236676
 40
0.3521638772833415
 40
0.3937526331212894
 40
0.4352611965552738
 40
0.476715263476518
 40
0.5181475120384333
 40
0.5595936126721008
 40
0.6010786985586041
 40
0.6426403615766926
 40
0.6843156672589066
 40
0.7261370167790696
 40
0.7621259032943591
 40
0.7844639649222176
 40
0.8265766643701684
 40
0.8686925538495612
 40
0.9104487169915241
 40
0.95146598793305
 40
0.9914668956180241
 40
1.0
 40
1.0
 40
1.0
 40
1.0
 10
223.4231087348337
 20
73.19008805450646
 30
0.0
 10
223.249657367184
 20
73.24967149879039
 30
0.0
 10
222.8329556046439
 20
73.3928155200094
 30
0.0
 10
222.1164678540673
 20
73.46659512843708
 30
0.0
 10
221.2946816295862
 20
73.43439231528323
 30
0.0
 10
220.4387386571175
 20
73.26548782363116
 30
0.0
 10
219.5602506116915
 20
72.96572907455229
 30
0.0
 10
218.671139472283
 20
72.53599269762111
 30
0.0
 10
217.7861755661381
 20
71.98330388605902
 30
0.0
 10
216.9196579770525
 20
71.31731044300524
 30
0.0
 10
216.0844488974618
 20
70.54955844000922
 30
0.0
 10
215.2917582051493
 20
69.69218208365558
 30
0.0
 10
214.5516964634538
 20
68.75773143959073
 30
0.0
 10
213.8736715281354
 20
67.75928743900954
 30
0.0
 10
213.2664367091195
 20
66.71042743510964
 30
0.0
 10
212.7381048203046
 20
65.62522967619168
 30
0.0
 10
212.2960052245219
 20
64.51803029021428
 30
0.0
 10
211.9466400977
 20
63.40321910190053
 30
0.0
 10
211.6956893465687
 20
62.29496575870623
 30
0.0
 10
211.5551864684665
 20
61.25917354801076
 30
0.0
 10
211.5174170948364
 20
60.41932181632771
 30
0.0
 10
211.5409284841893
 20
59.60481415164767
 30
0.0
 10
211.6386265976684
 20
58.77606522834157
 30
0.0
 10
211.8698018546573
 20
57.86553904724845
 30
0.0
 10
212.2128704723848
 20
57.03953621496857
 30
0.0
 10
212.6718518966104
 20
56.32999284863659
 30
0.0
 10
213.0653899609408
 20
55.86099990551746
 30
0.0
 10
213.3280693106592
 20
55.67230484197544
 30
0.0
 10
213.3742528057934
 20
55.63912904205709
 30
0.0
  0
ARC
  5
180
330
1F
100
AcDbEntity
  8
0
  6
Continuous
 62
     7
370
    15
100
AcDbCircle
 10
270.2699911026
 20
39.6551672028
 30
0.0
 40
0.4487490945480598
100
AcDbArc
 50
298.1606283012
 51
40.4515503755
  0
LWPOLYLINE
  5
181
330
1F
100
AcDbEntity
  8
0
  6
Continuous
 62
     7
370
    15
100
AcDbPolyline
 90
       11
 70
   128
 43
0.0
 10
268.7640307608
 20
39.2276360013
 10
268.5876448236
 20
39.378742054
 10
268.4765493597
 20
39.6238941519
 10
268.5364216088
 20
39.8749281945
 10
268.7581465637
 20
40.0936265244
 10
269.10796861
 20
40.2466943033
 10
269.5326305123
 20
40.3108283494
 10
269.9674813455
 20
40.2762648357
 10
270.3463190121
 20
40.1482657438
 10
270.6114689117
 20
39.946317775
 10
270.6114689117
 20
39.946317775
  0
LWPOLYLINE
  5
182
330
1F
100
AcDbEntity
  8
0
  6
Continuous
 62
     7
370
    15
100
AcDbPolyline
 90
       17
 70
   128
 43
0.0
 10
270.2741648971
 20
39.8517218215
 10
270.3482285397
 20
39.6882870896
 10
270.3083137069
 20
39.5209310612
 10
270.1604970703
 20
39.3751321746
 10
269.9272823728
 20
39.2730869887
 10
269.6441744379
 20
39.2303309579
 10
269.3542738825
 20
39.2533733003
 10
269.101715438
 20
39.3387060283
 10
268.9249488383
 20
39.4733380075
 10
268.8508851957
 20
39.6367727394
 10
268.8908000284
 20
39.8041287678
 10
269.038616665
 20
39.9499276544
 10
269.2718313626
 20
40.0519728403
 10
269.5549392974
 20
40.0947288711
 10
269.8448398529
 20
40.0716865287
 10
270.0973982973
 20
39.9863538007
 10
270.2741648971
 20
39.8517218215
  0
SPLINE
  5
183
330
1F
100
AcDbEntity
  8
0
  6
Continuous
 62
     7
370
    15
100
AcDbSpline
210
0.0
220
0.0
230
1.0
 70
     8
 71
     3
 72
    11
 73
     7
 74
     0
 42
0.000000001
 43
0.00000001
 40
0.0
 40
0.0
 40
0.0
 40
0.0
 40
0.1285561766306689
 40
0.4801535797842853
 40
0.815069183175484
 40
1.0
 40
1.0
 40
1.0
 40
1.0
 10
270.0040532183352
 20
39.98444261510015
 30
0.0
 10
270.0167534538429
 20
39.95810273280566
 30
0.0
 10
270.0641884639913
 20
39.85972403871049
 30
0.0
 10
270.1531397320117
 20
39.71352425857605
 30
0.0
 10
270.2494551919785
 20
39.63214141303815
 30
0.0
 10
270.3010520881616
 20
39.6155892663807
 30
0.0
 10
270.3194072326537
 20
39.60970098499119
 30
0.0
  0
SPLINE
  5
184
330
1F
100
AcDbEntity
  8
0
  6
Continuous
 62
     7
370
    15
100
AcDbSpline
210
0.0
220
0.0
230
1.0
 70
     8
 71
     3
 72
    11
 73
     7
 74
     0
 42
0.000000001
 43
0.00000001
 40
0.0
 40
0.0
 40
0.0
 40
0.0
 40
0.2164478439282602
 40
0.4402952289510113
 40
0.7518878433158559
 40
1.0
 40
1.0
 40
1.0
 40
1.0
 10
269.2842028533583
 20
40.01415350762747
 30
0.0
 10
269.333511551255
 20
39.99363483020991
 30
0.0
 10
269.4338146267474
 20
39.95189601864507
 30
0.0
 10
269.6199533473686
 20
39.91287215695681
 30
0.0
 10
269.8196272916686
 20
39.92352354060066
 30
0.0
 10
269.9474088069063
 20
39.96573198594847
 30
0.0
 10
270.0040532183352
 20
39.98444261510015
 30
0.0
  0
SPLINE
  5
185
330
1F
100
AcDbEntity
  8
0
  6
Continuous
 62
     7
370
    15
100
AcDbSpline
210
0.0
220
0.0
230
1.0
 70
     8
 71
     3
 72
    11
 73
     7
 74
     0
 42
0.000000001
 43
0.00000001
 40
0.0
 40
0.0
 40
0.0
 40
0.0
 40
0.2164478439282613
 40
0.4402952289510153
 40
0.7518878433158677
 40
1.0
 40
1.0
 40
1.0
 40
1.0
 10
268.8797065027
 20
39.66912277004582
 30
0.0
 10
268.9074139115245
 20
39.6742733465835
 30
0.0
 10
268.9637759417054
 20
39.68475057857956
 30
0.0
 10
269.0683705031179
 20
39.74262731038368
 30
0.0
 10
269.1805707404458
 20
39.8572254904978
 30
0.0
 10
269.2523733804248
 20
39.96595477913156
 30
0.0
 10
269.2842028533583
 20
40.01415350762747
 30
0.0
  0
SPLINE
  5
186
330
1F
100
AcDbEntity
  8
0
  6
Continuous
 62
     7
370
    15
100
AcDbSpline
210
0.0
220
0.0
230
1.0
 70
     8
 71
     3
 72
    10
 73
     6
 74
     0
 42
0.000000001
 43
0.00000001
 40
0.0
 40
0.0
 40
0.0
 40
0.0
 40
0.3941477440584874
 40
0.8377892972038256
 40
1.0
 40
1.0
 40
1.0
 40
1.0
 10
269.1319579047641
 20
39.32246264896477
 30
0.0
 10
269.0983884925437
 20
39.34657116093609
 30
0.0
 10
269.027034299362
 20
39.39781553212825
 30
0.0
 10
268.9397846524228
 20
39.54476495378437
 30
0.0
 10
268.8923946798584
 20
39.64285907832045
 30
0.0
 10
268.8797065027
 20
39.66912277004582
 30
0.0
  0
SPLINE
  5
187
330
1F
100
AcDbEntity
  8
0
  6
Continuous
 62
     7
370
    15
100
AcDbSpline
210
0.0
220
0.0
230
1.0
 70
     8
 71
     3
 72
    10
 73
     6
 74
     0
 42
0.000000001
 43
0.00000001
 40
0.0
 40
0.0
 40
0.0
 40
0.0
 40
0.326731957861273
 40
0.6646336576114019
 40
1.0
 40
1.0
 40
1.0
 40
1.0
 10
270.3194072326537
 20
39.60970098499119
 30
0.0
 10
270.2917327878745
 20
39.5678766359495
 30
0.0
 10
270.2354378127017
 20
39.48279812002239
 30
0.0
 10
270.1427682723456
 20
39.37199739303332
 30
0.0
 10
270.080510992084
 20
39.33524520169408
 30
0.0
 10
270.0494995745481
 20
39.31693830575846
 30
0.0
  0
LINE
  5
188
330
1F
100
AcDbEntity
  8
0
  6
Continuous
 62
     7
370
    15
100
AcDbLine
 10
270.0040532183
 20
39.297931383
 30
0.0
 11
270.0040532183
 21
39.9844426151
 31
0.0
  0
LINE
  5
189
330
1F
100
AcDbEntity
  8
0
  6
Continuous
 62
     7
370
    15
100
AcDbLine
 10
269.2842028534
 20
39.2696976747
 30
0.0
 11
269.2842028534
 21
40.0141535076
 31
0.0
  0
SPLINE
  5
18A
330
1F
100
AcDbEntity
  8
0
  6
Continuous
 62
     7
370
    15
100
AcDbSpline
210
0.0
220
0.0
230
1.0
 70
     8
 71
     3
 72
    12
 73
     8
 74
     0
 42
0.000000001
 43
0.00000001
 40
0.0
 40
0.0
 40
0.0
 40
0.0
 40
0.2499999999999972
 40
0.2499999999999972
 40
0.4999999999999944
 40
0.4999999999999944
 40
1.0
 40
1.0
 40
1.0
 40
1.0
 10
244.2394340227997
 20
36.06541461107083
 30
0.0
 10
244.2733655150892
 20
36.04582637751935
 30
0.0
 10
244.3117972241165
 20
36.01863918858295
 30
0.0
 10
244.3859740767815
 20
35.95941526104711
 30
0.0
 10
244.4211903570369
 20
35.92798258203035
 30
0.0
 10
244.5162892742948
 20
35.83598986522836
 30
0.0
 10
244.5648184310568
 20
35.77913319970371
 30
0.0
 10
244.5981600272118
 20
35.73090439370139
 30
0.0
  0
ARC
  5
18B
330
1F
100
AcDbEntity
  8
0
  6
Continuous
 62
     7
370
    15
100
AcDbCircle
 10
268.3849989445
 20
52.0001651969
 30
0.0
 40
10.21225397394511
100
AcDbArc
 50
73.3310819855
 51
100.4212884338
  0
SPLINE
  5
18C
330
1F
100
AcDbEntity
  8
0
  6
Continuous
 62
     7
370
    15
100
AcDbSpline
210
0.0
220
0.0
230
1.0
 70
     8
 71
     3
 72
    12
 73
     8
 74
     0
 42
0.000000001
 43
0.00000001
 40
0.0
 40
0.0
 40
0.0
 40
0.0
 40
0.4999999999999972
 40
0.4999999999999972
 40
0.7499999999999986
 40
0.7499999999999986
 40
1.0
 40
1.0
 40
1.0
 40
1.0
 10
271.5264228464102
 20
61.34972033191271
 30
0.0
 10
271.5264228464102
 20
61.42240332910551
 30
0.0
 10
271.50940607834
 20
61.50598617584581
 30
0.0
 10
271.4549952524585
 20
61.62743035372149
 30
0.0
 10
271.4318500335366
 20
61.66714523140284
 30
0.0
 10
271.3775692216794
 20
61.73587500326863
 30
0.0
 10
271.3463332531219
 20
61.7647845991743
 30
0.0
 10
271.3142908120541
 20
61.78328230666789
 30
0.0
  0
LWPOLYLINE
  5
18D
330
1F
100
AcDbEntity
  8
0
  6
Continuous
 62
     7
370
    15
100
AcDbPolyline
 90
       16
 70
   128
 43
0.0
 10
244.7269599837
 20
36.3064814526
 10
245.0310201592
 20
37.5091208539
 10
245.5706555119
 20
39.3029855274
 10
246.2134517156
 20
41.1004834669
 10
246.9551034496
 20
42.8895753901
 10
247.7906432786
 20
44.6582783166
 10
248.7144749238
 20
46.3947458273
 10
249.7204107452
 20
48.0873474095
 10
250.8017131857
 20
49.7247463559
 10
251.9511398972
 20
51.2959756953
 10
253.1609922494
 20
52.7905116472
 10
254.4231668926
 20
54.1983441082
 10
255.7292100331
 20
55.5100436978
 10
257.0703740548
 20
56.7168249139
 10
258.4376761089
 20
57.8106049769
 10
259.4463357647
 20
58.5329799793
  0
LINE
  5
18E
330
1F
100
AcDbEntity
  8
0
  6
Continuous
 62
     7
370
    15
100
AcDbLine
 10
242.7839118152
 20
36.9056696962
 30
0.0
 11
244.2394340228
 21
36.0654146111
 31
0.0
  0
LWPOLYLINE
  5
18F
330
1F
100
AcDbEntity
  8
0
  6
Continuous
 62
     7
370
    15
100
AcDbPolyline
 90
       25
 70
   128
 43
0.0
 10
242.7839118152
 20
36.9056696962
 10
243.2326482688
 20
38.6890901021
 10
243.7866674638
 20
40.4863913981
 10
244.4423403152
 20
42.2858004188
 10
245.1953718584
 20
44.0755301924
 10
246.0408293844
 20
45.8438571506
 10
246.9731747501
 20
47.5791979234
 10
247.9863006569
 20
49.2701852159
 10
249.0735706554
 20
50.9057422695
 10
250.2278626179
 20
52.4751554192
 10
251.4416153913
 20
53.9681442738
 10
252.7068783266
 20
55.374929057
 10
254.0153633587
 20
56.6862946696
 10
255.3584992979
 20
57.8936510525
 10
256.7274879747
 20
58.9890894559
 10
258.1133618719
 20
59.9654342452
 10
259.5070428664
 20
60.8162899048
 10
260.8994016949
 20
61.5360829313
 10
262.2813177549
 20
62.1200983435
 10
263.6437388489
 20
62.5645105668
 10
264.9777404807
 20
62.866408493
 10
266.2745843145
 20
63.0238145493
 10
267.525775416
 20
63.0356976521
 10
268.7231178974
 20
62.9019799618
 10
269.8587686045
 20
62.6235373918
  0
LINE
  5
190
330
1F
100
AcDbEntity
  8
0
  6
Continuous
 62
     7
370
    15
100
AcDbLine
 10
271.3142908121
 20
61.7832823067
 30
0.0
 11
269.8587686045
 21
62.6235373918
 31
0.0
  0
LINE
  5
191
330
1F
100
AcDbEntity
  8
0
  6
Continuous
 62
     7
370
    15
100
AcDbLine
 10
277.2363218583
 20
54.4804169144
 30
0.0
 11
277.340603742
 21
54.6610384348
 31
0.0
  0
LINE
  5
192
330
1F
100
AcDbEntity
  8
0
  6
Continuous
 62
     7
370
    15
100
AcDbLine
 10
274.9382130656
 20
53.1537469474
 30
0.0
 11
277.2363218583
 21
54.4804169144
 31
0.0
  0
ARC
  5
193
330
1F
100
AcDbEntity
  8
0
  6
Continuous
 62
     7
370
    15
100
AcDbCircle
 10
275.7663223858
 20
51.8591412273
 30
0.0
 40
1.536804807572231
100
AcDbArc
 50
122.60547834
 51
177.3945215143
  0
LINE
  5
194
330
1F
100
AcDbEntity
  8
0
  6
Continuous
 62
     7
370
    15
100
AcDbLine
 10
274.2311062844
 20
43.0695342706
 30
0.0
 11
274.2311062844
 21
51.9290020796
 31
0.0
  0
ARC
  5
195
330
1F
100
AcDbEntity
  8
0
  6
Continuous
 62
     7
370
    15
100
AcDbCircle
 10
274.6621806519
 20
42.9996070737
 30
0.0
 40
0.4367091974284947
100
AcDbArc
 50
170.7859630095
 51
309.2032852357
  0
LINE
  5
196
330
1F
100
AcDbEntity
  8
0
  6
Continuous
 62
     7
370
    15
100
AcDbLine
 10
277.2363218583
 20
43.9878674817
 30
0.0
 11
274.9382130656
 21
42.6611975147
 31
0.0
  0
LINE
  5
197
330
1F
100
AcDbEntity
  8
0
  6
Continuous
 62
     7
370
    15
100
AcDbLine
 10
277.340603742
 20
43.9276472614
 30
0.0
 11
277.2363218583
 21
43.9878674817
 31
0.0
  0
LINE
  5
198
330
1F
100
AcDbEntity
  8
0
  6
Continuous
 62
     7
370
    15
100
AcDbLine
 10
244.6436672676
 20
25.1725284823
 30
0.0
 11
244.5981600272
 21
25.0541604622
 31
0.0
  0
LINE
  5
199
330
1F
100
AcDbEntity
  8
0
  6
Continuous
 62
     7
370
    15
100
AcDbLine
 10
244.6436672676
 20
25.1725284823
 30
0.0
 11
247.7853126681
 21
26.9861617677
 31
0.0
  0
ARC
  5
19A
330
1F
100
AcDbEntity
  8
0
  6
Continuous
 62
     7
370
    15
100
AcDbCircle
 10
246.9572033479
 20
28.2807674877
 30
0.0
 40
1.536804807571954
100
AcDbArc
 50
302.60547834
 51
357.3945215144
  0
LINE
  5
19B
330
1F
100
AcDbEntity
  8
0
  6
Continuous
 62
     7
370
    15
100
AcDbLine
 10
248.4924194493
 20
37.0703744444
 30
0.0
 11
248.4924194493
 21
28.2109066355
 31
0.0
  0
ARC
  5
19C
330
1F
100
AcDbEntity
  8
0
  6
Continuous
 62
     7
370
    15
100
AcDbCircle
 10
248.0613450818
 20
37.1403016413
 30
0.0
 40
0.4367091974284746
100
AcDbArc
 50
350.7859630095
 51
129.2032852357
  0
LINE
  5
19D
330
1F
100
AcDbEntity
  8
0
  6
Continuous
 62
     7
370
    15
100
AcDbLine
 10
247.7853126681
 20
37.4787112004
 30
0.0
 11
244.6436672676
 21
35.665077915
 31
0.0
  0
LINE
  5
19E
330
1F
100
AcDbEntity
  8
0
  6
Continuous
 62
     7
370
    15
100
AcDbLine
 10
244.5981600272
 20
35.7309043937
 30
0.0
 11
244.6436672676
 21
35.665077915
 31
0.0
  0
LINE
  5
19F
330
1F
100
AcDbEntity
  8
0
  6
Continuous
 62
     7
370
    15
100
AcDbLine
 10
271.5264228464
 20
58.1247592787
 30
0.0
 11
271.5264228464
 21
61.3497203319
 31
0.0
  0
LINE
  5
1A0
330
1F
100
AcDbEntity
  8
0
  6
Continuous
 62
     7
370
    15
100
AcDbLine
 10
274.3191697571
 20
59.7369777531
 30
0.0
 11
271.5264228464
 21
58.1247592787
 31
0.0
  0
SPLINE
  5
1A1
330
1F
100
AcDbEntity
  8
0
  6
Continuous
 62
     7
370
    15
100
AcDbSpline
210
0.0
220
0.0
230
1.0
 70
     8
 71
     3
 72
     8
 73
     4
 74
     0
 42
0.000000001
 43
0.00000001
 40
0.0
 40
0.0
 40
0.0
 40
0.0
 40
1.0
 40
1.0
 40
1.0
 40
1.0
 10
241.7113575505712
 20
37.99718353860232
 30
0.0
 10
241.4242904208989
 20
37.94973153887897
 30
0.0
 10
241.1371773023134
 20
37.90237410617618
 30
0.0
 10
240.8500224759157
 20
37.8551024372641
 30
0.0
  0
SPLINE
  5
1A2
330
1F
100
AcDbEntity
  8
0
  6
Continuous
 62
     7
370
    15
100
AcDbSpline
210
0.0
220
0.0
230
1.0
 70
     8
 71
     3
 72
     8
 73
     4
 74
     0
 42
0.000000001
 43
0.00000001
 40
0.0
 40
0.0
 40
0.0
 40
0.0
 40
0.0011862984959112
 40
0.0011862984959112
 40
0.0011862984959112
 40
0.0011862984959112
 10
240.4977213886403
 20
38.22545933692628
 30
0.0
 10
240.6154322564848
 20
38.10190938581383
 30
0.0
 10
240.7328720069208
 20
37.97845433669855
 30
0.0
 10
240.8500224759158
 20
37.85510243726411
 30
0.0
  0
LWPOLYLINE
  5
1A3
330
1F
100
AcDbEntity
  8
0
  6
Continuous
 62
     7
370
    15
100
AcDbPolyline
 90
       25
 70
   128
 43
0.0
 10
240.4977213886
 20
38.2254593369
 10
240.9464578422
 20
40.0088797428
 10
241.5004770372
 20
41.8061810388
 10
242.1561498886
 20
43.6055900596
 10
242.9091814318
 20
45.3953198332
 10
243.7546389578
 20
47.1636467913
 10
244.6869843235
 20
48.8989875641
 10
245.7001102303
 20
50.5899748567
 10
246.7873802288
 20
52.2255319102
 10
247.9416721913
 20
53.7949450599
 10
249.1554249647
 20
55.2879339145
 10
250.4206879
 20
56.6947186978
 10
251.7291729321
 20
58.0060843103
 10
253.0723088713
 20
59.2134406933
 10
254.4412975481
 20
60.3088790967
 10
255.8271714453
 20
61.285223886
 10
257.2208524398
 20
62.1360795455
 10
258.6132112683
 20
62.8558725721
 10
259.9951273283
 20
63.4398879843
 10
261.3575484223
 20
63.8843002076
 10
262.6915500541
 20
64.1861981338
 10
263.988393888
 20
64.34360419
 10
265.2395849894
 20
64.3554872929
 10
266.4369274708
 20
64.2217696026
 10
267.5725781779
 20
63.9433270325
  0
LINE
  5
1A4
330
1F
100
AcDbEntity
  8
0
  6
Continuous
 62
     7
370
    15
100
AcDbLine
 10
267.8816885225
 20
62.9706942795
 30
0.0
 11
267.5725781779
 21
63.9433270325
 31
0.0
  0
LWPOLYLINE
  5
1A5
330
1F
100
AcDbEntity
  8
0
  6
Continuous
 62
     7
370
    15
100
AcDbPolyline
 90
       24
 70
   128
 43
0.0
 10
241.7113575506
 20
37.9971835386
 10
242.1414926777
 20
39.7352076825
 10
242.6769229725
 20
41.4877970436
 10
243.3139744675
 20
43.2429258623
 10
244.0482759003
 20
44.9885509539
 10
244.8747887075
 20
46.7126943456
 10
245.787841598
 20
48.4035254657
 10
246.7811694679
 20
50.0494423218
 10
247.8479563895
 20
51.6391511098
 10
248.9808823806
 20
53.1617437095
 10
250.1721736317
 20
54.6067725322
 10
251.4136558479
 20
55.9643222094
 10
252.6968103386
 20
57.2250776291
 10
254.0128324699
 20
58.3803878536
 10
255.3526920798
 20
59.4223254793
 10
256.7071954406
 20
60.3437410325
 10
258.067048343
 20
61.1383120271
 10
259.4229198713
 20
61.8005863475
 10
260.7655064282
 20
62.3260196594
 10
262.0855955745
 20
62.711006592
 10
263.3741292416
 20
62.9529054766
 10
264.6222658852
 20
63.0500564733
 10
265.8214411538
 20
63.00179296
 10
265.9023891464
 20
62.9930774277
  0
LINE
  5
1A6
330
1F
100
AcDbEntity
  8
0
  6
Continuous
 62
     7
370
    15
100
AcDbLine
 10
239.0598768506
 20
39.0555093206
 30
0.0
 11
240.4977213886
 21
38.2254593369
 31
0.0
  0
ARC
  5
1A7
330
1F
100
AcDbEntity
  8
0
  6
Continuous
 62
     7
370
    15
100
AcDbCircle
 10
263.2054565951
 20
54.9903449472
 30
0.0
 40
10.2121682550383
100
AcDbArc
 50
73.3310247954
 51
100.4198993616
  0
LINE
  5
1A8
330
1F
100
AcDbEntity
  8
0
  6
Continuous
 62
     7
370
    15
100
AcDbLine
 10
267.5725781779
 20
63.9433270325
 30
0.0
 11
266.1347336399
 21
64.7733770162
 31
0.0
  0
LINE
  5
1A9
330
1F
100
AcDbEntity
  8
0
  6
Continuous
 62
     7
370
    15
100
AcDbLine
 10
242.9639483436
 20
37.6708416447
 30
0.0
 11
242.3378446633
 21
38.0322836058
 31
0.0
  0
SPLINE
  5
1AA
330
1F
100
AcDbEntity
  8
0
  6
Continuous
 62
     7
370
    15
100
AcDbSpline
210
0.0
220
0.0
230
1.0
 70
     8
 71
     3
 72
    14
 73
    10
 74
     0
 42
0.000000001
 43
0.00000001
 40
0.0
 40
0.0
 40
0.0
 40
0.0
 40
0.25
 40
0.25
 40
0.5
 40
0.5
 40
0.75
 40
0.75
 40
1.0
 40
1.0
 40
1.0
 40
1.0
 10
242.3378446633049
 20
38.03228360583437
 30
0.0
 10
242.3002106698468
 20
38.05400924781441
 30
0.0
 10
242.2544367131577
 20
38.07122100892592
 30
0.0
 10
242.1545008356478
 20
38.09362634255841
 30
0.0
 10
242.1000669668079
 20
38.09880122615823
 30
0.0
 10
241.9938513163159
 20
38.09685903184348
 30
0.0
 10
241.9405350163658
 20
38.08977062892524
 30
0.0
 10
241.8430419490651
 20
38.06503719264056
 30
0.0
 10
241.7981302585355
 20
38.04727635665451
 30
0.0
 10
241.7603769929355
 20
38.02548186033253
 30
0.0
  0
LINE
  5
1AB
330
1F
100
AcDbEntity
  8
0
  6
Continuous
 62
     7
370
    15
100
AcDbLine
 10
241.7603769929
 20
38.0254818603
 30
0.0
 11
241.7113575506
 21
37.9971835386
 31
0.0
  0
SPLINE
  5
1AC
330
1F
100
AcDbEntity
  8
0
  6
Continuous
 62
     7
370
    15
100
AcDbSpline
210
0.0
220
0.0
230
1.0
 70
     8
 71
     3
 72
    10
 73
     6
 74
     0
 42
0.000000001
 43
0.00000001
 40
0.0
 40
0.0
 40
0.0
 40
0.0
 40
0.5
 40
0.5
 40
1.0
 40
1.0
 40
1.0
 40
1.0
 10
238.9578643602854
 20
39.084957547511
 30
0.0
 10
238.9651806447076
 20
39.08932554740417
 30
0.0
 10
238.977004504916
 20
39.08985759999243
 30
0.0
 10
239.0111558691937
 20
39.08062755035414
 30
0.0
 10
239.0334128325865
 20
39.07078667303783
 30
0.0
 10
239.0598768506082
 20
39.05550932062152
 30
0.0
  0
LINE
  5
1AD
330
1F
100
AcDbEntity
  8
0
  6
Continuous
 62
     7
370
    15
100
AcDbLine
 10
244.6436672676
 20
35.665077915
 30
0.0
 11
242.8158131489
 21
36.7202756372
 31
0.0
  0
SPLINE
  5
1AE
330
1F
100
AcDbEntity
  8
0
  6
Continuous
 62
     7
370
    15
100
AcDbSpline
210
0.0
220
0.0
230
1.0
 70
     8
 71
     3
 72
     8
 73
     4
 74
     0
 42
0.000000001
 43
0.00000001
 40
0.0000000000000004
 40
0.0000000000000004
 40
0.0000000000000004
 40
0.0000000000000004
 40
0.0011862984959127
 40
0.0011862984959127
 40
0.0011862984959127
 40
0.0011862984959127
 10
242.8158131488867
 20
36.72027563722557
 30
0.0
 10
242.8047509496291
 20
36.78238408214435
 30
0.0
 10
242.7941249430553
 20
36.84417686944596
 30
0.0
 10
242.783911815238
 20
36.90566969616385
 30
0.0
  0
LWPOLYLINE
  5
1AF
330
1F
100
AcDbEntity
  8
0
  6
Continuous
 62
     7
370
    15
100
AcDbPolyline
 90
       39
 70
   128
 43
0.0
 10
271.9153315761
 20
38.5502103547
 10
271.1995579778
 20
38.0685132545
 10
270.5033088175
 20
37.4629760012
 10
269.8455759571
 20
36.7501160724
 10
269.2443006345
 20
35.9493784287
 10
268.7158840732
 20
35.0826051056
 10
268.2747400994
 20
34.1734394199
 10
267.9329019708
 20
33.2466810415
 10
267.6996941404
 20
32.3276095231
 10
267.5814779099
 20
31.4412947398
 10
267.5814779099
 20
30.6119130485
 10
267.6996941404
 20
29.8620878197
 10
267.9329019708
 20
29.2122723309
 10
268.2747400994
 20
28.6801918549
 10
268.7158840732
 20
28.2803601598
 10
269.2443006345
 20
28.0236836122
 10
269.8455759571
 20
27.917163679
 10
270.5033088175
 20
27.9637059465
 10
271.1995579778
 20
28.1620408628
 10
271.9153315761
 20
28.5067583685
 10
272.6311051743
 20
28.9884554686
 10
273.3273543347
 20
29.5939927219
 10
273.9850871951
 20
30.3068526507
 10
274.5863625176
 20
31.1075902945
 10
275.1147790789
 20
31.9743636175
 10
275.5559230527
 20
32.8835293032
 10
275.8977611813
 20
33.8102876816
 10
276.1309690117
 20
34.7293592001
 10
276.2491852422
 20
35.6156739833
 10
276.2491852422
 20
36.4450556747
 10
276.1309690117
 20
37.1948809035
 10
275.8977611813
 20
37.8446963922
 10
275.5559230527
 20
38.3767768683
 10
275.1147790789
 20
38.7766085633
 10
274.5863625176
 20
39.033285111
 10
273.9850871951
 20
39.1398050441
 10
273.3273543347
 20
39.0932627767
 10
272.6311051743
 20
38.8949278603
 10
271.9153315761
 20
38.5502103547
  0
LWPOLYLINE
  5
1B0
330
1F
100
AcDbEntity
  8
0
  6
Continuous
 62
     7
370
    15
100
AcDbPolyline
 90
       21
 70
   128
 43
0.0
 10
271.8446208979
 20
38.6726848414
 10
271.135696495
 20
38.1973440632
 10
270.4451328617
 20
37.6021394982
 10
269.7908152334
 20
36.902486632
 10
269.189690093
 20
36.1165061063
 10
268.6573262659
 20
35.264554404
 10
268.2075116956
 20
34.3686966265
 10
267.8518963431
 20
33.4521350197
 10
267.5996904593
 20
32.5386080479
 10
267.4574260441
 20
31.6517755797
 10
267.4287876711
 20
30.8146061103
 10
267.5145170592
 20
30.048781889
 10
267.7123938622
 20
29.3741373611
 10
268.0172931748
 20
28.8081454653
 10
268.4213182651
 20
28.3654650946
 10
268.9140050954
 20
28.0575614379
 10
269.4825933356
 20
27.8924090383
 10
270.112356849
 20
27.8742852561
 10
270.7869850913
 20
28.0036594878
 10
271.4890055455
 20
28.2771810087
 10
271.8453391776
 20
28.4663394143
  0
LWPOLYLINE
  5
1B1
330
1F
100
AcDbEntity
  8
0
  6
Continuous
 62
     7
370
    15
100
AcDbPolyline
 90
       11
 70
   128
 43
0.0
 10
276.2640382804
 20
36.1205801166
 10
276.2318157518
 20
36.7171229391
 10
276.0895513366
 20
37.4397004097
 10
275.8373454528
 20
38.0620366663
 10
275.4817301003
 20
38.5680135266
 10
275.03191553
 20
38.9445264557
 10
274.4995517029
 20
39.1818239666
 10
273.8984265625
 20
39.2737601783
 10
273.2441089342
 20
39.2179539913
 10
272.5535453009
 20
39.0158507564
 10
271.8446208979
 20
38.6726848414
  0
SPLINE
  5
1B2
330
1F
100
AcDbEntity
  8
0
  6
Continuous
 62
     7
370
    15
100
AcDbSpline
210
0.0
220
0.0
230
1.0
 70
    11
 71
     3
 72
    64
 73
    60
 74
     0
 42
0.000000001
 43
0.00000001
 40
0.0
 40
0.0
 40
0.0
 40
0.0
 40
0.0312499999999998
 40
0.0312499999999998
 40
0.0624999999999996
 40
0.0624999999999996
 40
0.0937499999999994
 40
0.0937499999999994
 40
0.1249999999999992
 40
0.1249999999999992
 40
0.156249999999999
 40
0.156249999999999
 40
0.1874999999999988
 40
0.1874999999999988
 40
0.2187499999999986
 40
0.2187499999999986
 40
0.2499999999999984
 40
0.2499999999999984
 40
0.2812499999999982
 40
0.2812499999999982
 40
0.312499999999998
 40
0.312499999999998
 40
0.3437499999999978
 40
0.3437499999999978
 40
0.3749999999999976
 40
0.3749999999999976
 40
0.4062499999999974
 40
0.4062499999999974
 40
0.4374999999999973
 40
0.4374999999999973
 40
0.4687499999999972
 40
0.4687499999999972
 40
0.499999999999997
 40
0.499999999999997
 40
0.5312499999999968
 40
0.5312499999999968
 40
0.5624999999999966
 40
0.5624999999999966
 40
0.6249999999999962
 40
0.6249999999999962
 40
0.6874999999999958
 40
0.6874999999999958
 40
0.7187499999999961
 40
0.7187499999999961
 40
0.7499999999999964
 40
0.7499999999999964
 40
0.7812499999999969
 40
0.7812499999999969
 40
0.8124999999999972
 40
0.8124999999999972
 40
0.8437499999999976
 40
0.8437499999999976
 40
0.8749999999999979
 40
0.8749999999999979
 40
0.9062499999999982
 40
0.9062499999999982
 40
0.9374999999999987
 40
0.9374999999999987
 40
1.0
 40
1.0
 40
1.0
 40
1.0
 10
269.5921553570217
 20
40.72273235316296
 30
0.0
 10
269.6856142738764
 20
40.70956569975022
 30
0.0
 10
269.7767145956489
 20
40.69168403576037
 30
0.0
 10
269.9546997009904
 20
40.64810697082735
 30
0.0
 10
270.0421747024344
 20
40.62218790843114
 30
0.0
 10
270.2101238433267
 20
40.56397011370429
 30
0.0
 10
270.2895660707318
 20
40.53210012270923
 30
0.0
 10
270.4397762657755
 20
40.46347428947445
 30
0.0
 10
270.5111493341986
 20
40.42633015192889
 30
0.0
 10
270.6411561576226
 20
40.34916340430979
 30
0.0
 10
270.6998333825221
 20
40.30924064011959
 30
0.0
 10
270.8046292954333
 20
40.22654469251218
 30
0.0
 10
270.8510851009655
 20
40.18332295542864
 30
0.0
 10
270.9278244649257
 20
40.09619873704289
 30
0.0
 10
270.958419882691
 20
40.0522055618472
 30
0.0
 10
271.003662842265
 20
39.96257985729917
 30
0.0
 10
271.0182744273794
 20
39.91646475440595
 30
0.0
 10
271.0291244987259
 20
39.82519542793228
 30
0.0
 10
271.0256912204321
 20
39.77976987772057
 30
0.0
 10
270.9999298050341
 20
39.68840279921655
 30
0.0
 10
270.9771287417956
 20
39.64211746275949
 30
0.0
 10
270.9132022555957
 20
39.55296195588222
 30
0.0
 10
270.8720741577438
 20
39.50952620337039
 30
0.0
 10
270.7699280195709
 20
39.42455878451826
 30
0.0
 10
270.7097292921894
 20
39.38391979739153
 30
0.0
 10
270.5752931082833
 20
39.30882513498742
 30
0.0
 10
270.4993790870464
 20
39.27352482658038
 30
0.0
 10
270.3381959929487
 20
39.21132306255767
 30
0.0
 10
270.253101715545
 20
39.18428255335672
 30
0.0
 10
270.0741852373748
 20
39.13860642227966
 30
0.0
 10
269.982346882341
 20
39.12053974783311
 30
0.0
 10
269.7972324606249
 20
39.0944653635518
 30
0.0
 10
269.7025916937672
 20
39.0863631211209
 30
0.0
 10
269.5171661252953
 20
39.08100398031834
 30
0.0
 10
269.4259156464681
 20
39.08358664425887
 30
0.0
 10
269.2461308061473
 20
39.09970688417662
 30
0.0
 10
269.1583230914855
 20
39.11329283056663
 30
0.0
 10
268.908085015899
 20
39.16961235752811
 30
0.0
 10
268.7538033580209
 20
39.22948800434045
 30
0.0
 10
268.4948294352745
 20
39.38515631796495
 30
0.0
 10
268.3868736122491
 20
39.48296054239261
 30
0.0
 10
268.2719974047404
 20
39.64573697552608
 30
0.0
 10
268.2408504652814
 20
39.70337142743298
 30
0.0
 10
268.1951897118626
 20
39.82266515198373
 30
0.0
 10
268.1809636294316
 20
39.88324282043694
 30
0.0
 10
268.1699998513212
 20
40.00549646512479
 30
0.0
 10
268.1734163742752
 20
40.06786849134637
 30
0.0
 10
268.199485919555
 20
40.189565790419
 30
0.0
 10
268.2217693349061
 20
40.24825860053111
 30
0.0
 10
268.2856386977898
 20
40.3604063330956
 30
0.0
 10
268.3280598680626
 20
40.41447886812276
 30
0.0
 10
268.4297418123553
 20
40.51095222207896
 30
0.0
 10
268.4889859013497
 20
40.55388870112839
 30
0.0
 10
268.6249796132413
 20
40.62855445093207
 30
0.0
 10
268.7004608821136
 20
40.65937830971396
 30
0.0
 10
268.8612433357281
 20
40.70701253088617
 30
0.0
 10
268.9482601926936
 20
40.72421725411371
 30
0.0
 10
269.21514428363
 20
40.75512455757646
 30
0.0
 10
269.4052375233123
 20
40.74906565998845
 30
0.0
 10
269.5921553570217
 20
40.72273235316296
 30
0.0
  0
LINE
  5
1B3
330
1F
100
AcDbEntity
  8
0
  6
Continuous
 62
     7
370
    15
100
AcDbLine
 10
274.3340309735
 20
33.573206931
 30
0.0
 11
275.1945392738
 21
34.6436710759
 31
0.0
  0
SPLINE
  5
1B4
330
1F
100
AcDbEntity
  8
0
  6
Continuous
 62
     7
370
    15
100
AcDbSpline
210
0.0
220
0.0
230
1.0
 70
     8
 71
     3
 72
    22
 73
    18
 74
     0
 42
0.000000001
 43
0.00000001
 40
0.0
 40
0.0
 40
0.0
 40
0.0
 40
0.0416666666666669
 40
0.0833333333333333
 40
0.1250000000000032
 40
0.166666666666668
 40
0.2083333333333338
 40
0.2499999999999221
 40
0.2968749999997848
 40
0.34375
 40
0.3906249999999997
 40
0.4374999999999997
 40
0.4863049253904977
 40
0.4863049253904977
 40
0.53125
 40
0.6249999999999818
 40
0.8289791339914696
 40
0.8289791339914696
 40
0.8289791339914696
 40
0.8289791339914696
 10
275.1945392738152
 20
34.64367107589854
 30
0.0
 10
275.228950952408
 20
34.68647887692224
 30
0.0
 10
275.2962125877097
 20
34.77831130426593
 30
0.0
 10
275.3902518179793
 20
34.93440297284587
 30
0.0
 10
275.4730976172714
 20
35.10703889029935
 30
0.0
 10
275.5390400123313
 20
35.29075329918015
 30
0.0
 10
275.5822772206309
 20
35.47752273348549
 30
0.0
 10
275.5989330185253
 20
35.66560265023706
 30
0.0
 10
275.582012644226
 20
35.84234827449188
 30
0.0
 10
275.5273042916434
 20
35.99349107317971
 30
0.0
 10
275.441053536312
 20
36.10461478390205
 30
0.0
 10
275.3273255424774
 20
36.1750138422637
 30
0.0
 10
275.2434938863922
 20
36.19490839070869
 30
0.0
 10
275.1620963493281
 20
36.20270378272912
 30
0.0
 10
275.0548114639473
 20
36.21148351320672
 30
0.0
 10
274.8673602603745
 20
36.22892664611972
 30
0.0
 10
274.5592044731989
 20
36.25644568949465
 30
0.0
 10
274.333932732701
 20
36.27651037203093
 30
0.0
  0
SPLINE
  5
1B5
330
1F
100
AcDbEntity
  8
0
  6
Continuous
 62
     7
370
    15
100
AcDbSpline
210
0.0
220
0.0
230
1.0
 70
     8
 71
     3
 72
    22
 73
    18
 74
     0
 42
0.000000001
 43
0.00000001
 40
0.0
 40
0.0
 40
0.0
 40
0.0
 40
0.0416666666666669
 40
0.0833333333333333
 40
0.1250000000000032
 40
0.166666666666668
 40
0.2083333333333338
 40
0.2499999999999221
 40
0.2968749999997848
 40
0.34375
 40
0.3906249999999997
 40
0.4374999999999997
 40
0.4863049253904977
 40
0.4863049253904977
 40
0.53125
 40
0.6249999999999818
 40
0.826582907656825
 40
0.826582907656825
 40
0.826582907656825
 40
0.826582907656825
 10
268.6361238783104
 20
30.85757845732095
 30
0.0
 10
268.6025162093021
 20
30.8605834893645
 30
0.0
 10
268.5340774224477
 20
30.87486254086481
 30
0.0
 10
268.4405113166582
 20
30.92233652000732
 30
0.0
 10
268.3575387467747
 20
30.99933205174462
 30
0.0
 10
268.2916303096
 20
31.10690794456937
 30
0.0
 10
268.2483840403512
 20
31.24375761185583
 30
0.0
 10
268.2317306236148
 20
31.41260678174511
 30
0.0
 10
268.2486507479508
 20
31.60888894285607
 30
0.0
 10
268.3033574006489
 20
31.82319426830371
 30
0.0
 10
268.3896152150954
 20
32.03390983695988
 30
0.0
 10
268.5033163081683
 20
32.23558295933111
 30
0.0
 10
268.5872171417843
 20
32.35235353316306
 30
0.0
 10
268.668638307241
 20
32.45415791590203
 30
0.0
 10
268.7758979931903
 20
32.58677479529872
 30
0.0
 10
268.9606875794263
 20
32.81732868025609
 30
0.0
 10
269.2727286281039
 20
33.20547533945175
 30
0.0
 10
269.4967320046927
 20
33.48405761302546
 30
0.0
  0
LINE
  5
1B6
330
1F
100
AcDbEntity
  8
0
  6
Continuous
 62
     7
370
    15
100
AcDbLine
 10
269.4966321786
 20
30.7806360483
 30
0.0
 11
268.6361238783
 21
30.8575784573
 31
0.0
  0
LINE
  5
1B7
330
1F
100
AcDbEntity
  8
0
  6
Continuous
 62
     7
370
    15
100
AcDbLine
 10
242.8885982084
 20
37.5054506947
 30
0.0
 11
242.868704809
 21
37.2761049166
 31
0.0
  0
ARC
  5
1B8
330
1F
100
AcDbEntity
  8
0
  6
Continuous
 62
     7
370
    15
100
AcDbCircle
 10
258.8712702376
 20
35.8488062696
 30
0.0
 40
16.06285239185682
100
AcDbArc
 50
176.9224853833
 51
185.7271838377
  0
LWPOLYLINE
  5
1B9
330
1F
100
AcDbEntity
  8
0
  6
Continuous
 62
     7
370
    15
100
AcDbPolyline
 90
        3
 70
   128
 43
0.0
 10
241.8898098799
 20
36.605322433
 10
241.9474541643
 20
38.0147767052
 10
241.9519301773
 20
38.0696613979
  0
ARC
  5
1BA
330
1F
100
AcDbEntity
  8
0
  6
Continuous
 62
     7
370
    15
100
AcDbCircle
 10
253.5862663633
 20
36.3030179705
 30
0.0
 40
11.70036248393272
100
AcDbArc
 50
178.5194734317
 51
203.8931641993
  0
LINE
  5
1BB
330
1F
100
AcDbEntity
  8
0
  6
Continuous
 62
     7
370
    15
100
AcDbLine
 10
239.3933994173
 20
38.6959930301
 30
0.0
 11
238.9578643603
 21
39.0849575475
 31
0.0
  0
LINE
  5
1BC
330
1F
100
AcDbEntity
  8
0
  6
Continuous
 62
     7
370
    15
100
AcDbLine
 10
240.8500224759
 20
37.8551024373
 30
0.0
 11
239.3933994173
 21
38.6959930301
 31
0.0
  0
LINE
  5
1BD
330
1F
100
AcDbEntity
  8
0
  6
Continuous
 62
     7
370
    15
100
AcDbLine
 10
242.8885982084
 20
37.5054506947
 30
0.0
 11
242.8885982084
 21
37.3603009276
 31
0.0
  0
LINE
  5
1BE
330
1F
100
AcDbEntity
  8
0
  6
Continuous
 62
     7
370
    15
100
AcDbLine
 10
242.8885982084
 20
36.6782577168
 30
0.0
 11
242.8885982084
 21
34.2458646714
 31
0.0
  0
LINE
  5
1BF
330
1F
100
AcDbEntity
  8
0
  6
Continuous
 62
     7
370
    15
100
AcDbLine
 10
242.8885982084
 20
37.7143403519
 30
0.0
 11
242.8885982084
 21
37.5054506947
 31
0.0
  0
LINE
  5
1C0
330
1F
100
AcDbEntity
  8
0
  6
Continuous
 62
     7
370
    15
100
AcDbLine
 10
242.8885982084
 20
34.2458646714
 30
0.0
 11
242.8885982084
 21
31.3758756511
 31
0.0
  0
SPLINE
  5
1C1
330
1F
100
AcDbEntity
  8
0
  6
Continuous
 62
     7
370
    15
100
AcDbSpline
210
0.0
220
0.0
230
1.0
 70
     8
 71
     3
 72
    20
 73
    16
 74
     0
 42
0.000000001
 43
0.00000001
 40
0.0
 40
0.0
 40
0.0
 40
0.0
 40
0.0779484437350905
 40
0.1564377142038691
 40
0.2366334572792933
 40
0.3174188750552776
 40
0.3953674785162618
 40
0.4738578699459505
 40
0.5540550871941052
 40
0.6348414904023839
 40
0.7128013042226429
 40
0.7913013401283743
 40
0.8715053557178657
 40
0.9522988461984069
 40
1.0
 40
1.0
 40
1.0
 40
1.0
 10
268.5654132001915
 20
31.12146869135783
 30
0.0
 10
268.5504347505002
 20
31.12335746368258
 30
0.0
 10
268.5203739267077
 20
31.12714811312954
 30
0.0
 10
268.4778096048661
 20
31.1401929972063
 30
0.0
 10
268.4372907732572
 20
31.15880752078668
 30
0.0
 10
268.400013323889
 20
31.1832201695531
 30
0.0
 10
268.3661703466565
 20
31.21293412099198
 30
0.0
 10
268.3357682634702
 20
31.24779145673602
 30
0.0
 10
268.3087441169254
 20
31.2881167215489
 30
0.0
 10
268.2857555506773
 20
31.33317358676412
 30
0.0
 10
268.2670958121155
 20
31.38226208808479
 30
0.0
 10
268.2526524670909
 20
31.43513060902978
 30
0.0
 10
268.2427999864071
 20
31.49232671472044
 30
0.0
 10
268.2376629344138
 20
31.5446248490384
 30
0.0
 10
268.2378280158697
 20
31.57859710669436
 30
0.0
 10
268.2378892991704
 20
31.59120865090686
 30
0.0
  0
SPLINE
  5
1C2
330
1F
100
AcDbEntity
  8
0
  6
Continuous
 62
     7
370
    15
100
AcDbSpline
210
0.0
220
0.0
230
1.0
 70
     8
 71
     3
 72
    13
 73
     9
 74
     0
 42
0.000000001
 43
0.00000001
 40
0.0
 40
0.0
 40
0.0
 40
0.0
 40
0.0277911082421174
 40
0.1713018452314239
 40
0.4137745416025231
 40
0.6366705769582525
 40
0.8649099948600432
 40
1.0
 40
1.0
 40
1.0
 40
1.0
 10
269.620994748849
 20
33.65962657269341
 30
0.0
 10
269.6209554421254
 20
33.65903138427816
 30
0.0
 10
269.6207131590824
 20
33.65536269741237
 30
0.0
 10
269.6089312126215
 20
33.63479873497945
 30
0.0
 10
269.5862858084526
 20
33.60054574093973
 30
0.0
 10
269.5533228906385
 20
33.55601941366953
 30
0.0
 10
269.5233935233135
 20
33.51738199232937
 30
0.0
 10
269.5039582572901
 20
33.49308974603816
 30
0.0
 10
269.4967320046927
 20
33.48405761302546
 30
0.0
  0
SPLINE
  5
1C3
330
1F
100
AcDbEntity
  8
0
  6
Continuous
 62
     7
370
    15
100
AcDbSpline
210
0.0
220
0.0
230
1.0
 70
     8
 71
     3
 72
    16
 73
    12
 74
     0
 42
0.000000001
 43
0.00000001
 40
0.0
 40
0.0
 40
0.0
 40
0.0
 40
0.2500000000000013
 40
0.2500000000000013
 40
0.5000000000000027
 40
0.5000000000000027
 40
0.6250000000000021
 40
0.6250000000000021
 40
0.7500000000000016
 40
0.7500000000000016
 40
1.0
 40
1.0
 40
1.0
 40
1.0
 10
274.3339327327009
 20
36.27651037203094
 30
0.0
 10
274.3097246060057
 20
36.27866656071161
 30
0.0
 10
274.2833942646034
 20
36.27965003290436
 30
0.0
 10
274.2229934878904
 20
36.27734274528478
 30
0.0
 10
274.1876107123973
 20
36.27398784833321
 30
0.0
 10
274.1306423083291
 20
36.26141942083173
 30
0.0
 10
274.110900432796
 20
36.25580339737359
 30
0.0
 10
274.075359510063
 20
36.24272424971407
 30
0.0
 10
274.0599774810164
 20
36.23549215934471
 30
0.0
 10
274.021829063551
 20
36.21416616196709
 30
0.0
 10
274.0056672050292
 20
36.20027774751498
 30
0.0
 10
273.993357797196
 20
36.18721757826643
 30
0.0
  0
SPLINE
  5
1C4
330
1F
100
AcDbEntity
  8
0
  6
Continuous
 62
     7
370
    15
100
AcDbSpline
210
0.0
220
0.0
230
1.0
 70
     8
 71
     3
 72
     8
 73
     4
 74
     0
 42
0.000000001
 43
0.00000001
 40
0.0
 40
0.0
 40
0.0
 40
0.0
 40
1.0
 40
1.0
 40
1.0
 40
1.0
 10
273.9933577972002
 20
36.18721757826101
 30
0.0
 10
273.960884914835
 20
36.20027994052663
 30
0.0
 10
273.9286141221965
 20
36.21517233291118
 30
0.0
 10
273.9033368062417
 20
36.22976461680635
 30
0.0
  0
LINE
  5
1C5
330
1F
100
AcDbEntity
  8
0
  6
Continuous
 62
     7
370
    15
100
AcDbLine
 10
273.4530573238
 20
36.6821165967
 30
0.0
 11
273.389901367
 21
36.716034502
 31
0.0
  0
LINE
  5
1C6
330
1F
100
AcDbEntity
  8
0
  6
Continuous
 62
     7
370
    15
100
AcDbLine
 10
272.9034323296
 20
36.8069971844
 30
0.0
 11
273.9033368062
 21
36.2297646168
 31
0.0
  0
ARC
  5
1C7
330
1F
100
AcDbEntity
  8
0
  6
Continuous
 62
     7
370
    15
100
AcDbCircle
 10
267.670012576
 20
36.4004732214
 30
0.0
 40
4.278362055816395
100
AcDbArc
 50
339.4432928433
 51
1.7638870135
  0
LINE
  5
1C8
330
1F
100
AcDbEntity
  8
0
  6
Continuous
 62
     7
370
    15
100
AcDbLine
 10
271.6759504455
 20
34.8981937314
 30
0.0
 11
273.9033368062
 21
33.6123509553
 31
0.0
  0
LINE
  5
1C9
330
1F
100
AcDbEntity
  8
0
  6
Continuous
 62
     7
370
    15
100
AcDbLine
 10
269.9533417596
 20
30.61977456
 30
0.0
 11
270.0165223065
 21
30.585844405
 31
0.0
  0
LINE
  5
1CA
330
1F
100
AcDbEntity
  8
0
  6
Continuous
 62
     7
370
    15
100
AcDbLine
 10
268.2990707642
 20
31.7671760458
 30
0.0
 11
269.5030622772
 21
31.0721265399
 31
0.0
  0
LWPOLYLINE
  5
1CB
330
1F
100
AcDbEntity
  8
0
  6
Continuous
 62
     7
370
    15
100
AcDbPolyline
 90
       14
 70
   128
 43
0.0
 10
270.4810723713
 20
39.2590246272
 10
270.6389213418
 20
39.413996666
 10
270.7245568677
 20
39.6625299145
 10
270.6389213418
 20
39.911063163
 10
270.3950519965
 20
40.1217594774
 10
270.0300757291
 20
40.2625422538
 10
269.5995568677
 20
40.3119785906
 10
269.1690380063
 20
40.2625422538
 10
268.8040617388
 20
40.1217594774
 10
268.5601923936
 20
39.911063163
 10
268.4745568677
 20
39.6625299145
 10
268.5601923936
 20
39.413996666
 10
268.8040617388
 20
39.2033003516
 10
268.8040617388
 20
39.2033003516
  0
LINE
  5
1CC
330
1F
100
AcDbEntity
  8
0
  6
Continuous
 62
     7
370
    15
100
AcDbLine
 10
269.5544626424
 20
31.0330327672
 30
0.0
 11
268.5654132002
 21
31.1214686914
 31
0.0
  0
SPLINE
  5
1CD
330
1F
100
AcDbEntity
  8
0
  6
Continuous
 62
     7
370
    15
100
AcDbSpline
210
0.0
220
0.0
230
1.0
 70
     8
 71
     3
 72
    16
 73
    12
 74
     0
 42
0.000000001
 43
0.00000001
 40
0.0
 40
0.0
 40
0.0
 40
0.0
 40
0.2500000000000017
 40
0.2500000000000017
 40
0.5000000000000033
 40
0.5000000000000033
 40
0.6249999999999986
 40
0.6249999999999986
 40
0.7499999999999939
 40
0.7499999999999939
 40
1.0
 40
1.0
 40
1.0
 40
1.0
 10
269.4966321786241
 20
30.7806360482672
 30
0.0
 10
269.5206850010078
 20
30.77848536349394
 30
0.0
 10
269.5441861811159
 20
30.77935392033708
 30
0.0
 10
269.5864356977273
 20
30.79218751094426
 30
0.0
 10
269.6063934752992
 20
30.80448025984985
 30
0.0
 10
269.6215687776624
 20
30.84094195842625
 30
0.0
 10
269.6238801601147
 20
30.85655285906567
 30
0.0
 10
269.6210411763471
 20
30.89169978378108
 30
0.0
 10
269.6160671643842
 20
30.91077386276341
 30
0.0
 10
269.5957022673126
 20
30.96592726542091
 30
0.0
 10
269.5755684545112
 20
31.00075871123893
 30
0.0
 10
269.554462642448
 20
31.03303276722686
 30
0.0
  0
SPLINE
  5
1CE
330
1F
100
AcDbEntity
  8
0
  6
Continuous
 62
     7
370
    15
100
AcDbSpline
210
0.0
220
0.0
230
1.0
 70
     8
 71
     3
 72
     8
 73
     4
 74
     0
 42
0.000000001
 43
0.00000001
 40
0.0
 40
0.0
 40
0.0
 40
0.0
 40
1.0
 40
1.0
 40
1.0
 40
1.0
 10
269.5030622771714
 20
31.07212653986282
 30
0.0
 10
269.5284142060406
 20
31.05749118284894
 30
0.0
 10
269.545219005269
 20
31.0440969817542
 30
0.0
 10
269.5544626424485
 20
31.03303276722665
 30
0.0
  0
SPLINE
  5
1CF
330
1F
100
AcDbEntity
  8
0
  6
Continuous
 62
     7
370
    15
100
AcDbSpline
210
0.0
220
0.0
230
1.0
 70
     8
 71
     3
 72
     8
 73
     4
 74
     0
 42
0.000000001
 43
0.00000001
 40
0.0
 40
0.0
 40
0.0
 40
0.0
 40
1.0
 40
1.0
 40
1.0
 40
1.0
 10
273.9033368062422
 20
33.6123509552984
 30
0.0
 10
273.9286887351113
 20
33.59771559828459
 30
0.0
 10
273.9606327189138
 20
33.59306106241562
 30
0.0
 10
273.9933577972031
 20
33.59555239530283
 30
0.0
  0
SPLINE
  5
1D0
330
1F
100
AcDbEntity
  8
0
  6
Continuous
 62
     7
370
    15
100
AcDbSpline
210
0.0
220
0.0
230
1.0
 70
     8
 71
     3
 72
    16
 73
    12
 74
     0
 42
0.000000001
 43
0.00000001
 40
0.0
 40
0.0
 40
0.0
 40
0.0
 40
0.2500000000000176
 40
0.2500000000000176
 40
0.3750000000000183
 40
0.3750000000000183
 40
0.500000000000019
 40
0.500000000000019
 40
0.7500000000000094
 40
0.7500000000000094
 40
1.0
 40
1.0
 40
1.0
 40
1.0
 10
273.993357797203
 20
33.59555239530342
 30
0.0
 10
274.0055770157066
 20
33.55830667843313
 30
0.0
 10
274.0216457203219
 20
33.52119577068289
 30
0.0
 10
274.059940808483
 20
33.47618879917353
 30
0.0
 10
274.075397903837
 20
33.46322096135985
 30
0.0
 10
274.1107057336188
 20
33.44693860361394
 30
0.0
 10
274.1302890954642
 20
33.44394198510095
 30
0.0
 10
274.187589870935
 20
33.44897574506236
 30
0.0
 10
274.2226601682874
 20
33.46861929081255
 30
0.0
 10
274.283180926839
 20
33.51510205078682
 30
0.0
 10
274.3100060309004
 20
33.54332013081195
 30
0.0
 10
274.3340309735016
 20
33.57320693100713
 30
0.0
  0
LINE
  5
1D1
330
1F
100
AcDbEntity
  8
0
  6
Continuous
 62
     7
370
    15
100
AcDbLine
 10
242.8158131489
 20
26.2277262045
 30
0.0
 11
244.6436672676
 21
25.1725284823
 31
0.0
  0
SPLINE
  5
1D2
330
1F
100
AcDbEntity
  8
0
  6
Continuous
 62
     7
370
    15
100
AcDbSpline
210
0.0
220
0.0
230
1.0
 70
     8
 71
     3
 72
    14
 73
    10
 74
     0
 42
0.000000001
 43
0.00000001
 40
0.0
 40
0.0
 40
0.0
 40
0.0
 40
0.25
 40
0.25
 40
0.5
 40
0.5
 40
0.75
 40
0.75
 40
1.0
 40
1.0
 40
1.0
 40
1.0
 10
244.5981600272118
 20
25.05416046216493
 30
0.0
 10
244.5814851841454
 20
25.01078784405834
 30
0.0
 10
244.5611899412294
 20
24.97055751461249
 30
0.0
 10
244.512892962159
 20
24.89678562694035
 30
0.0
 10
244.484674114354
 20
24.86321602026324
 30
0.0
 10
244.4217487659308
 20
24.80966461460062
 30
0.0
 10
244.3865855899138
 20
24.78920858524096
 30
0.0
 10
244.3119026007054
 20
24.77177629172908
 30
0.0
 10
244.2733777254969
 20
24.77572360071398
 30
0.0
 10
244.2394340227997
 20
24.7953188831838
 30
0.0
  0
LINE
  5
1D3
330
1F
100
AcDbEntity
  8
0
  6
Continuous
 62
     7
370
    15
100
AcDbLine
 10
244.2394340228
 20
24.7953188832
 30
0.0
 11
242.7839118152
 21
25.6355739683
 31
0.0
  0
SPLINE
  5
1D4
330
1F
100
AcDbEntity
  8
0
  6
Continuous
 62
     7
370
    15
100
AcDbSpline
210
0.0
220
0.0
230
1.0
 70
     8
 71
     3
 72
     8
 73
     4
 74
     0
 42
0.000000001
 43
0.00000001
 40
0.0
 40
0.0
 40
0.0
 40
0.0
 40
0.0011862984959112
 40
0.0011862984959112
 40
0.0011862984959112
 40
0.0011862984959112
 10
242.783911815238
 20
25.63557396827683
 30
0.0
 10
242.7941249430553
 20
25.83297287016576
 30
0.0
 10
242.8047509496305
 20
26.03035870714254
 30
0.0
 10
242.8158131488881
 20
26.22772620449287
 30
0.0
  0
SPLINE
  5
1D5
330
1F
100
AcDbEntity
  8
0
  6
Continuous
 62
     7
370
    15
100
AcDbSpline
210
0.0
220
0.0
230
1.0
 70
     8
 71
     3
 72
     9
 73
     5
 74
     0
 42
0.000000001
 43
0.00000001
 40
0.0
 40
0.0
 40
0.0
 40
0.0
 40
0.4738950795845458
 40
0.9999999999999999
 40
0.9999999999999999
 40
0.9999999999999999
 40
0.9999999999999999
 10
277.4010534571702
 20
43.89273057974774
 30
0.0
 10
277.3981337166446
 20
43.89441901431114
 30
0.0
 10
277.3919725627281
 20
43.89798190119505
 30
0.0
 10
277.3583124781206
 20
43.91742051241947
 30
0.0
 10
277.340603741987
 20
43.92764726143069
 30
0.0
  0
ARC
  5
1D6
330
1F
100
AcDbEntity
  8
0
  6
Continuous
 62
     7
370
    15
100
AcDbCircle
 10
253.124296923
 20
26.756096518
 30
0.0
 40
9.057731376289556
100
AcDbArc
 50
196.6295517786
 51
281.9312226683
  0
SPLINE
  5
1D7
330
1F
100
AcDbEntity
  8
0
  6
Continuous
 62
     7
370
    15
100
AcDbSpline
210
0.0
220
0.0
230
1.0
 70
     8
 71
     3
 72
     8
 73
     4
 74
     0
 42
0.000000001
 43
0.00000001
 40
0.0
 40
0.0
 40
0.0
 40
0.0
 40
1.0
 40
1.0
 40
1.0
 40
1.0
 10
243.0619315026375
 20
26.72496435907975
 30
0.0
 10
242.9797333218518
 20
26.55924403257627
 30
0.0
 10
242.8976989536999
 20
26.3934971572383
 30
0.0
 10
242.8158131488881
 20
26.22772620449288
 30
0.0
  0
LINE
  5
1D8
330
1F
100
AcDbEntity
  8
0
  6
Continuous
 62
     7
370
    15
100
AcDbLine
 10
243.110950945
 20
26.7532626808
 30
0.0
 11
243.0619315026
 21
26.7249643591
 31
0.0
  0
SPLINE
  5
1D9
330
1F
100
AcDbEntity
  8
0
  6
Continuous
 62
     7
370
    15
100
AcDbSpline
210
0.0
220
0.0
230
1.0
 70
     8
 71
     3
 72
    12
 73
     8
 74
     0
 42
0.000000001
 43
0.00000001
 40
0.0
 40
0.0
 40
0.0
 40
0.0
 40
0.249999999999997
 40
0.249999999999997
 40
0.499999999999994
 40
0.499999999999994
 40
1.0
 40
1.0
 40
1.0
 40
1.0
 10
243.122733190422
 20
27.08662767104088
 30
0.0
 10
243.1603319749966
 20
27.06492235471659
 30
0.0
 10
243.190509534243
 20
27.03812048414341
 30
0.0
 10
243.2290992689239
 20
26.98049677931342
 30
0.0
 10
243.2379587541137
 20
26.94944865374205
 30
0.0
 10
243.2329113202754
 20
26.85725967733675
 30
0.0
 10
243.1862090332001
 20
26.79670825036189
 30
0.0
 10
243.1109509450018
 20
26.75326268080995
 30
0.0
  0
LINE
  5
1DA
330
1F
100
AcDbEntity
  8
0
  6
Continuous
 62
     7
370
    15
100
AcDbLine
 10
242.3378446633
 20
27.5397341731
 30
0.0
 11
243.1227331904
 21
27.086627671
 31
0.0
  0
SPLINE
  5
1DB
330
1F
100
AcDbEntity
  8
0
  6
Continuous
 62
     7
370
    15
100
AcDbSpline
210
0.0
220
0.0
230
1.0
 70
     8
 71
     3
 72
    10
 73
     6
 74
     0
 42
0.000000001
 43
0.00000001
 40
0.0
 40
0.0
 40
0.0
 40
0.0
 40
0.5
 40
0.5
 40
1.0
 40
1.0
 40
1.0
 40
1.0
 10
241.7603769929355
 20
27.53293242760064
 30
0.0
 10
241.8365143832741
 20
27.57688560747335
 30
0.0
 10
241.9400221639584
 20
27.60337227365214
 30
0.0
 10
242.1545174560442
 20
27.60720034403947
 30
0.0
 10
242.2619477004624
 20
27.58354855713607
 30
0.0
 10
242.3378446633049
 20
27.53973417310248
 30
0.0
  0
LINE
  5
1DC
330
1F
100
AcDbEntity
  8
0
  6
Continuous
 62
     7
370
    15
100
AcDbLine
 10
241.7113575506
 20
27.5046341059
 30
0.0
 11
241.7603769929
 21
27.5329324276
 31
0.0
  0
SPLINE
  5
1DD
330
1F
100
AcDbEntity
  8
0
  6
Continuous
 62
     7
370
    15
100
AcDbSpline
210
0.0
220
0.0
230
1.0
 70
     8
 71
     3
 72
     8
 73
     4
 74
     0
 42
0.000000001
 43
0.00000001
 40
0.0
 40
0.0
 40
0.0
 40
0.0
 40
1.0
 40
1.0
 40
1.0
 40
1.0
 10
240.8500224759167
 20
27.36255300453237
 30
0.0
 10
241.137177302314
 20
27.4098246734444
 30
0.0
 10
241.4242904208992
 20
27.45718210614714
 30
0.0
 10
241.7113575505712
 20
27.50463410587043
 30
0.0
  0
LINE
  5
1DE
330
1F
100
AcDbEntity
  8
0
  6
Continuous
 62
     7
370
    15
100
AcDbLine
 10
239.3933994173
 20
28.2034435974
 30
0.0
 11
240.8500224759
 21
27.3625530045
 31
0.0
  0
LINE
  5
1DF
330
1F
100
AcDbEntity
  8
0
  6
Continuous
 62
     7
370
    15
100
AcDbLine
 10
239.3933994173
 20
28.2034435974
 30
0.0
 11
242.5350448178
 21
30.0170768828
 31
0.0
  0
ARC
  5
1E0
330
1F
100
AcDbEntity
  8
0
  6
Continuous
 62
     7
370
    15
100
AcDbCircle
 10
252.3653997243
 20
28.1006519235
 30
0.0
 40
9.89350897691546
100
AcDbArc
 50
194.4278782157
 51
238.0157127201
  0
SPLINE
  5
1E1
330
1F
100
AcDbEntity
  8
0
  6
Continuous
 62
     7
370
    15
100
AcDbSpline
210
0.0
220
0.0
230
1.0
 70
     8
 71
     3
 72
    22
 73
    18
 74
     0
 42
0.000000001
 43
0.00000001
 40
0.0
 40
0.0
 40
0.0
 40
0.0
 40
0.1250000000000001
 40
0.1250000000000001
 40
0.2500000000000002
 40
0.2500000000000002
 40
0.3750000000000002
 40
0.3750000000000002
 40
0.5000000000000002
 40
0.5000000000000002
 40
0.6250000000000002
 40
0.6250000000000002
 40
0.7500000000000001
 40
0.7500000000000001
 40
0.8750000000000001
 40
0.8750000000000001
 40
1.0
 40
1.0
 40
1.0
 40
1.0
 10
274.9824072394595
 20
34.82592049875336
 30
0.0
 10
275.0309562181511
 20
34.88631496669933
 30
0.0
 10
275.0748503905404
 20
34.95052047525623
 30
0.0
 10
275.1524438536105
 20
35.08699036769072
 30
0.0
 10
275.1860027375182
 20
35.15895265449228
 30
0.0
 10
275.2392053243448
 20
35.30258833784454
 30
0.0
 10
275.2594968683194
 20
35.37629727387612
 30
0.0
 10
275.2855143798239
 20
35.51780717987656
 30
0.0
 10
275.2916021116975
 20
35.58681012248908
 30
0.0
 10
275.2899742842667
 20
35.71651499997694
 30
0.0
 10
275.2824487401459
 20
35.77581692606126
 30
0.0
 10
275.2543998371955
 20
35.8831072608213
 30
0.0
 10
275.2339929736111
 20
35.92987300322402
 30
0.0
 10
275.1816513750396
 20
36.00698604886495
 30
0.0
 10
275.1490970765395
 20
36.03789055166574
 30
0.0
 10
275.0741536924165
 20
36.08125654333929
 30
0.0
 10
275.0309613998487
 20
36.0944401830811
 30
0.0
 10
274.9824072354276
 20
36.09878165645664
 30
0.0
  0
LINE
  5
1E2
330
1F
100
AcDbEntity
  8
0
  6
Continuous
 62
     7
370
    15
100
AcDbLine
 10
274.9824072354
 20
36.0987816565
 30
0.0
 11
273.9933577972
 21
36.1872175783
 31
0.0
  0
ELLIPSE
  5
1E3
330
1F
100
AcDbEntity
  8
0
  6
Continuous
 62
     7
370
    15
100
AcDbEllipse
 10
242.2421515989
 20
31.0027013509
 30
0.0
 11
-7.507462979106096E-5
 21
1.066811201853405
 31
0.0
210
0.0
220
0.0
230
1.0
 40
0.7174342186
 41
3.534193645557478
 42
5.104989972352387
  0
SPLINE
  5
1E4
330
1F
100
AcDbEntity
  8
0
  6
Continuous
 62
     7
370
    15
100
AcDbSpline
210
0.0
220
0.0
230
1.0
 70
     8
 71
     3
 72
    10
 73
     6
 74
     0
 42
0.000000001
 43
0.00000001
 40
0.0
 40
0.0
 40
0.0
 40
0.0
 40
0.3482864793192263
 40
0.7262033671299868
 40
1.0
 40
1.0
 40
1.0
 40
1.0
 10
274.2311062844487
 20
44.83945173071646
 30
0.0
 10
274.2737540355954
 20
44.83953953464528
 30
0.0
 10
274.362677787513
 20
44.83972261240607
 30
0.0
 10
274.4786353794817
 20
44.86794526284351
 30
0.0
 10
274.538628272161
 20
44.89799866157558
 30
0.0
 10
274.5638323710334
 20
44.91062463774152
 30
0.0
  0
ARC
  5
1E5
330
1F
100
AcDbEntity
  8
0
  6
Continuous
 62
     7
370
    15
100
AcDbCircle
 10
252.2215382433
 20
30.3927589647
 30
0.0
 40
10.89977813506385
100
AcDbArc
 50
195.3652282392
 51
215.9036224404
  0
ARC
  5
1E6
330
1F
100
AcDbEntity
  8
0
  6
Continuous
 62
     7
370
    15
100
AcDbCircle
 10
249.6177482301
 20
29.125248777
 30
0.0
 40
9.374608857525239
100
AcDbArc
 50
193.3832832944
 51
247.535346068
  0
SPLINE
  5
1E7
330
1F
100
AcDbEntity
  8
0
  6
Continuous
 62
     7
370
    15
100
AcDbSpline
210
0.0
220
0.0
230
1.0
 70
     8
 71
     3
 72
     8
 73
     4
 74
     0
 42
0.000000001
 43
0.00000001
 40
0.0000000000000004
 40
0.0000000000000004
 40
0.0000000000000004
 40
0.0000000000000004
 40
0.0011862984959127
 40
0.0011862984959127
 40
0.0011862984959127
 40
0.0011862984959127
 10
240.8500224759171
 20
27.36255300453141
 30
0.0
 10
240.7328720069221
 20
27.22642896169665
 30
0.0
 10
240.615432256485
 20
27.09070538653372
 30
0.0
 10
240.4977213886403
 20
26.95536360903925
 30
0.0
  0
LINE
  5
1E8
330
1F
100
AcDbEntity
  8
0
  6
Continuous
 62
     7
370
    15
100
AcDbLine
 10
238.9578643603
 20
27.9519625198
 30
0.0
 11
239.3933994173
 21
28.2034435974
 31
0.0
  0
LINE
  5
1E9
330
1F
100
AcDbEntity
  8
0
  6
Continuous
 62
     7
370
    15
100
AcDbLine
 10
240.4977213886
 20
26.955363609
 30
0.0
 11
239.0598768506
 21
27.7854135927
 31
0.0
  0
SPLINE
  5
1EA
330
1F
100
AcDbEntity
  8
0
  6
Continuous
 62
     7
370
    15
100
AcDbSpline
210
0.0
220
0.0
230
1.0
 70
     8
 71
     3
 72
    10
 73
     6
 74
     0
 42
0.000000001
 43
0.00000001
 40
0.0
 40
0.0
 40
0.0
 40
0.0
 40
0.5
 40
0.5
 40
1.0
 40
1.0
 40
1.0
 40
1.0
 10
239.0598768506082
 20
27.78541359273449
 30
0.0
 10
239.0334674213275
 20
27.80065943174141
 30
0.0
 10
239.0111840171184
 20
27.82451685415366
 30
0.0
 10
238.9770768822969
 20
27.88244294588795
 30
0.0
 10
238.9651768522421
 20
27.9163414773688
 30
0.0
 10
238.9578643602853
 20
27.95196251982315
 30
0.0
  0
LINE
  5
1EB
330
1F
100
AcDbEntity
  8
0
  6
Continuous
 62
     7
370
    15
100
AcDbLine
 10
273.9933577972
 20
33.5955523953
 30
0.0
 11
274.9824072395
 21
34.8259204988
 31
0.0
  0
ARC
  5
1EC
330
1F
100
AcDbEntity
  8
0
  6
Continuous
 62
     7
370
    15
100
AcDbCircle
 10
271.5244065346
 20
37.0897732375
 30
0.0
 40
1.491207826002684
100
AcDbArc
 50
321.062165503
 51
347.3474134538
  0
LINE
  5
1ED
330
1F
100
AcDbEntity
  8
0
  6
Continuous
 62
     7
370
    15
100
AcDbLine
 10
271.6759504455
 20
34.8981937314
 30
0.0
 11
272.6843102006
 21
36.1525836805
 31
0.0
  0
ARC
  5
1EE
330
1F
100
AcDbEntity
  8
0
  6
Continuous
 62
     7
370
    15
100
AcDbCircle
 10
248.5175598207
 20
30.1172193628
 30
0.0
 40
9.714951532054576
100
AcDbArc
 50
197.7027870557
 51
238.2187000398
  0
ELLIPSE
  5
1EF
330
1F
100
AcDbEntity
  8
0
  6
Continuous
 62
     7
370
    15
100
AcDbEllipse
 10
242.1814914272
 20
30.9676715952
 30
0.0
 11
0.3250094736511642
 21
1.213179526238665
 31
0.0
210
0.0
220
0.0
230
1.0
 40
0.5176380889
 41
3.619174351347722
 42
5.189970678142619
  0
SPLINE
  5
1F0
330
1F
100
AcDbEntity
  8
0
  6
Continuous
 62
     7
370
    15
100
AcDbSpline
210
0.0
220
0.0
230
1.0
 70
     8
 71
     3
 72
    12
 73
     8
 74
     0
 42
0.000000001
 43
0.00000001
 40
0.0
 40
0.0
 40
0.0
 40
0.0
 40
0.5000000000000003
 40
0.5000000000000003
 40
0.7500000000000001
 40
0.7500000000000001
 40
1.0
 40
1.0
 40
1.0
 40
1.0
 10
268.7153485161606
 20
62.97199489624396
 30
0.0
 10
268.7784083933902
 20
63.00839858849422
 30
0.0
 10
268.8583413466213
 20
63.0352299003458
 30
0.0
 10
268.9913205349279
 20
63.04898674185633
 30
0.0
 10
269.03699170404
 20
63.0488656080574
 30
0.0
 10
269.1246295226775
 20
63.03609122643576
 30
0.0
 10
269.1653734335316
 20
63.02325124078099
 30
0.0
 10
269.1968871158702
 20
63.00505877920435
 30
0.0
  0
LINE
  5
1F1
330
1F
100
AcDbEntity
  8
0
  6
Continuous
 62
     7
370
    15
100
AcDbLine
 10
269.1968871159
 20
63.0050587792
 30
0.0
 11
269.8565555273
 21
62.6242403112
 31
0.0
  0
LINE
  5
1F2
330
1F
100
AcDbEntity
  8
0
  6
Continuous
 62
     7
370
    15
100
AcDbLine
 10
271.5264228464
 20
60.5494443824
 30
0.0
 11
272.9209220805
 21
60.8552191547
 31
0.0
  0
LINE
  5
1F3
330
1F
100
AcDbEntity
  8
0
  6
Continuous
 62
     7
370
    15
100
AcDbLine
 10
272.9209220805
 20
60.8552191547
 30
0.0
 11
274.3764442881
 21
60.0149640697
 31
0.0
  0
SPLINE
  5
1F4
330
1F
100
AcDbEntity
  8
0
  6
Continuous
 62
     7
370
    15
100
AcDbSpline
210
0.0
220
0.0
230
1.0
 70
     8
 71
     3
 72
    12
 73
     8
 74
     0
 42
0.000000001
 43
0.00000001
 40
0.0
 40
0.0
 40
0.0
 40
0.0
 40
0.250000000000004
 40
0.250000000000004
 40
0.500000000000008
 40
0.500000000000008
 40
1.0
 40
1.0
 40
1.0
 40
1.0
 10
274.3764442880619
 20
60.01496406965358
 30
0.0
 10
274.408100418562
 20
59.99668937450365
 30
0.0
 10
274.430399695572
 20
59.97286526370537
 30
0.0
 10
274.452220266164
 20
59.92283336125766
 30
0.0
 10
274.4525010284902
 20
59.89644215284377
 30
0.0
 10
274.4291336543694
 20
59.82036692284886
 30
0.0
 10
274.3820952515644
 20
59.77330386789843
 30
0.0
 10
274.3191697570641
 20
59.73697775314646
 30
0.0
  0
LINE
  5
1F5
330
1F
100
AcDbEntity
  8
0
  6
Continuous
 62
     7
370
    15
100
AcDbLine
 10
268.7153485162
 20
62.9719948962
 30
0.0
 11
268.6235580973
 21
62.9190054153
 31
0.0
  0
SPLINE
  5
1F6
330
1F
100
AcDbEntity
  8
0
  6
Continuous
 62
     7
370
    15
100
AcDbSpline
210
0.0
220
0.0
230
1.0
 70
     8
 71
     3
 72
    13
 73
     9
 74
     0
 42
0.000000001
 43
0.00000001
 40
0.0
 40
0.0
 40
0.0
 40
0.0
 40
0.1983880690811324
 40
0.402380381055909
 40
0.600865549171889
 40
0.8061397775671312
 40
0.9876989507751133
 40
0.9999999999999999
 40
0.9999999999999999
 40
0.9999999999999999
 40
0.9999999999999999
 10
277.340603741987
 20
54.66103843481997
 30
0.0
 10
277.3505270997551
 20
54.67984688488793
 30
0.0
 10
277.370654139141
 20
54.71799510287538
 30
0.0
 10
277.3902976032338
 20
54.77889549956664
 30
0.0
 10
277.4016515879267
 20
54.8415282009028
 30
0.0
 10
277.4012626295952
 20
54.90051168365488
 30
0.0
 10
277.3969095736859
 20
54.94038814047621
 30
0.0
 10
277.3901879141522
 20
54.95723300599069
 30
0.0
 10
277.3897614034233
 20
54.95830186641641
 30
0.0
  0
ARC
  5
1F7
330
1F
100
AcDbEntity
  8
0
  6
Continuous
 62
     7
370
    15
100
AcDbCircle
 10
267.2758662058
 20
52.5305036439
 30
0.0
 40
10.31675127969027
100
AcDbArc
 50
20.1389534596
 51
46.5076930503
  0
LWPOLYLINE
  5
1F8
330
1F
100
AcDbEntity
  8
0
  6
Continuous
 62
     7
370
    15
100
AcDbPolyline
 90
        3
 70
   128
 43
0.0
 10
271.5264228464
 20
61.2304348685
 10
271.5648770516
 20
61.182970187
 10
271.9505228281
 20
60.6689912578
  0
LINE
  5
1F9
330
1F
100
AcDbEntity
  8
0
  6
Continuous
 62
     7
370
    15
100
AcDbLine
 10
277.2363218583
 20
43.9878674817
 30
0.0
 11
275.3719185184
 21
45.0641646201
 31
0.0
  0
LINE
  5
1FA
330
1F
100
AcDbEntity
  8
0
  6
Continuous
 62
     7
370
    15
100
AcDbLine
 10
274.563832371
 20
44.9106246377
 30
0.0
 11
274.6128518134
 21
44.9389229595
 31
0.0
  0
SPLINE
  5
1FB
330
1F
100
AcDbEntity
  8
0
  6
Continuous
 62
     7
370
    15
100
AcDbSpline
210
0.0
220
0.0
230
1.0
 70
     8
 71
     3
 72
     8
 73
     4
 74
     0
 42
0.000000001
 43
0.00000001
 40
0.0
 40
0.0
 40
0.0
 40
0.0
 40
1.0
 40
1.0
 40
1.0
 40
1.0
 10
274.6128518133978
 20
44.93892295947173
 30
0.0
 10
274.8658377670786
 20
44.98074136416956
 30
0.0
 10
275.1188610294259
 20
45.02248656874494
 30
0.0
 10
275.3719185184306
 20
45.06416462014204
 30
0.0
  0
LWPOLYLINE
  5
1FC
330
1F
100
AcDbEntity
  8
0
  6
Continuous
 62
     7
370
     0
100
AcDbPolyline
 90
       22
 70
   128
 43
0.0
 10
244.2394340228
 20
36.0654146111
 10
244.6881704764
 20
37.848835017
 10
245.2421896714
 20
39.646136313
 10
245.8978625227
 20
41.4455453337
 10
246.650894066
 20
43.2352751074
 10
247.4963515919
 20
45.0036020655
 10
248.4286969577
 20
46.7389428383
 10
249.4418228644
 20
48.4299301308
 10
250.5290928629
 20
50.0654871844
 10
251.6833848254
 20
51.6349003341
 10
252.8971375989
 20
53.1278891887
 10
254.1624005341
 20
54.5346739719
 10
255.4708855663
 20
55.8460395845
 10
256.8140215055
 20
57.0533959674
 10
258.1830101822
 20
58.1488343708
 10
259.5688840794
 20
59.1251791602
 10
260.9625650739
 20
59.9760348197
 10
262.3549239025
 20
60.6958278462
 10
263.7368399625
 20
61.2798432584
 10
265.0992610565
 20
61.7242554817
 10
266.4332626882
 20
62.0261534079
 10
266.5377596535
 20
62.0439612039
  0
LINE
  5
1FD
330
1F
100
AcDbEntity
  8
0
  6
Continuous
 62
     7
370
     0
100
AcDbLine
 10
244.5981600272
 20
35.7309043937
 30
0.0
 11
244.7269599837
 21
36.3064814526
 31
0.0
  0
LWPOLYLINE
  5
1FE
330
1F
100
AcDbEntity
  8
0
  6
Continuous
 62
     7
370
     0
100
AcDbPolyline
 90
       11
 70
   128
 43
0.0
 10
259.4463357647
 20
58.5329799793
 10
259.8219582792
 20
58.7840579664
 10
261.2139489201
 20
59.6306638886
 10
262.6043247563
 20
60.3447523461
 10
263.9837733281
 20
60.921540517
 10
265.3430553643
 20
61.3571651893
 10
266.6730666654
 20
61.6487086359
 10
267.9648990812
 20
61.7942181571
 10
269.209900176
 20
61.7927191591
 10
270.3997311813
 20
61.6442216819
 10
271.5264228464
 20
61.3497203319
  0
ARC
  5
1FF
330
1F
100
AcDbEntity
  8
0
  6
Continuous
 62
     7
370
     0
100
AcDbCircle
 10
241.9101741295
 20
51.6911812524
 30
0.0
 40
36.27103255433173
100
AcDbArc
 50
338.4485185012
 51
347.6406547806
  0
LWPOLYLINE
  5
200
330
1F
100
AcDbEntity
  8
0
  6
Continuous
 62
     7
370
     0
100
AcDbPolyline
 90
       23
 70
   128
 43
0.0
 10
269.5902085435
 20
27.8784122005
 10
268.5071121116
 20
26.5781374361
 10
267.2078379219
 20
25.1635348686
 10
265.8650743112
 20
23.8513395675
 10
264.4881871439
 20
22.650704181
 10
263.0867802982
 20
21.5700032197
 10
261.6706286789
 20
20.6167746437
 10
260.2496100364
 20
19.7976672849
 10
258.8336360689
 20
19.1183944709
 10
257.4325832878
 20
18.583694174
 10
256.0562241281
 20
18.197295964
 10
254.7141587853
 20
17.9618949937
 10
253.4157482531
 20
17.8791332002
 10
252.1700490303
 20
17.9495878526
 10
250.9857499506
 20
18.1727675251
 10
249.8711115778
 20
18.5471155247
 10
248.8339085877
 20
19.0700207496
 10
247.8813755391
 20
19.7378359015
 10
247.0201564126
 20
20.5459029261
 10
246.2562582681
 20
21.4885855027
 10
245.5950093453
 20
22.5593083585
 10
245.0410218987
 20
23.7506031314
 10
244.5981600272
 20
25.0541604622
  0
ARC
  5
201
330
1F
100
AcDbEntity
  8
0
  6
Continuous
 62
     7
370
     0
100
AcDbCircle
 10
267.1604674012
 20
52.0385684973
 30
0.0
 40
10.51249373319194
100
AcDbArc
 50
14.4456909384
 51
47.0804404646
  0
LWPOLYLINE
  5
202
330
1F
100
AcDbEntity
  8
0
  6
Continuous
 62
     7
370
     0
100
AcDbPolyline
 90
       23
 70
   128
 43
0.0
 10
255.1392231924
 20
36.4777586655
 10
255.1959956878
 20
37.4480669935
 10
255.3652081617
 20
38.4650375014
 10
255.643567086
 20
39.5088760152
 10
256.0256545208
 20
40.5592654056
 10
256.5040335687
 20
41.5957610377
 10
257.0693931258
 20
42.5981887033
 10
257.7107291114
 20
43.5470372879
 10
258.41555865
 20
44.4238385332
 10
259.1701630363
 20
45.2115265003
 10
259.9598547545
 20
45.8947697389
 10
260.7692633533
 20
46.4602696965
 10
261.5826346151
 20
46.8970195598
 10
262.3841371936
 20
47.1965184894
 10
263.1581707527
 20
47.3529370793
 10
263.8896696096
 20
47.3632308196
 10
264.5643959712
 20
47.2271993543
 10
265.1692170563
 20
46.9474903813
 10
265.6923607104
 20
46.5295481174
 10
266.1236445375
 20
45.9815073335
 10
266.4546740884
 20
45.31403502
 10
266.6790062494
 20
44.5401227662
 10
266.7904013815
 20
43.70372647
  0
LWPOLYLINE
  5
203
330
1F
100
AcDbEntity
  8
0
  6
Continuous
 62
     7
370
     0
100
AcDbPolyline
 90
       12
 70
   128
 43
0.0
 10
260.5409093026
 20
32.8781156903
 10
259.9598547545
 20
32.6265303227
 10
259.1701630363
 20
32.3980149109
 10
258.41555865
 20
32.3144551985
 10
257.7107291114
 20
32.3774775803
 10
257.0693931258
 20
32.5858553974
 10
256.5040335687
 20
32.9355328125
 10
256.0256545208
 20
33.4197037524
 10
255.643567086
 20
34.0289443807
 10
255.3652081617
 20
34.7513965214
 10
255.1959956878
 20
35.5729984654
 10
255.1392231924
 20
36.4777586655
  0
LWPOLYLINE
  5
204
330
1F
100
AcDbEntity
  8
0
  6
Continuous
 62
     7
370
     0
100
AcDbPolyline
 90
       22
 70
   128
 43
0.0
 10
239.0598768506
 20
39.0555093206
 10
239.5086133042
 20
40.8389297265
 10
240.0626324992
 20
42.6362310225
 10
240.7183053505
 20
44.4356400433
 10
241.4713368938
 20
46.2253698169
 10
242.3167944197
 20
47.993696775
 10
243.2491397855
 20
49.7290375478
 10
244.2622656922
 20
51.4200248404
 10
245.3495356907
 20
53.0555818939
 10
246.5038276532
 20
54.6249950436
 10
247.7175804267
 20
56.1179838982
 10
248.9828433619
 20
57.5247686814
 10
250.2913283941
 20
58.836134294
 10
251.6344643333
 20
60.0434906769
 10
253.00345301
 20
61.1389290804
 10
254.3893269072
 20
62.1152738697
 10
255.7830079018
 20
62.9661295292
 10
257.1753667303
 20
63.6859225558
 10
258.5572827903
 20
64.269937968
 10
259.9197038843
 20
64.7143501913
 10
261.253705516
 20
65.0162481175
 10
261.3584763084
 20
65.0341014302
  0
LWPOLYLINE
  5
205
330
1F
100
AcDbEntity
  8
0
  6
Continuous
 62
     7
370
     0
100
AcDbPolyline
 90
       20
 70
   128
 43
0.0
 10
242.3378446633
 20
38.0322836058
 10
242.790723305
 20
39.8215598415
 10
243.3567983097
 20
41.6249907577
 10
244.0317918283
 20
43.4289477625
 10
244.8106029107
 20
45.2197982884
 10
245.6873460536
 20
46.9840088141
 10
246.655395678
 20
48.7082471374
 10
247.707436198
 20
50.3794831279
 10
248.835517306
 20
51.9850871954
 10
250.0311140528
 20
53.5129257326
 10
251.2851912709
 20
54.9514528091
 10
252.588271854
 20
56.2897974244
 10
253.9305083757
 20
57.5178456604
 10
255.3017575065
 20
58.6263171128
 10
256.6916566677
 20
59.606835023
 10
258.0897023419
 20
60.4519895824
 10
259.4853294478
 20
61.1553939275
 10
260.8679911815
 20
61.7117324068
 10
262.227238719
 20
62.1168007504
 10
262.353721155
 20
62.1470471728
  0
LWPOLYLINE
  5
206
330
1F
100
AcDbEntity
  8
0
  6
Continuous
 62
     7
370
     0
100
AcDbPolyline
 90
       22
 70
   128
 43
0.0
 10
241.7603769929
 20
38.0254818603
 10
242.2118495653
 20
39.8359484484
 10
242.7776232636
 20
41.6615450177
 10
243.4534644574
 20
43.4886108037
 10
244.2343158916
 20
45.3034740478
 10
245.1143345297
 20
47.0925543019
 10
246.0869352762
 20
48.8424640496
 10
247.1448402529
 20
50.5401088835
 10
248.2801332578
 20
52.1727854896
 10
249.4843190022
 20
53.7282767051
 10
250.7483866791
 20
55.1949429379
 10
252.062877391
 20
56.5618092649
 10
253.4179549297
 20
57.8186475561
 10
254.8034793794
 20
58.9560530106
 10
256.2090829932
 20
59.9655145323
 10
257.6242477737
 20
60.839478417
 10
259.0383841781
 20
61.5714048767
 10
260.440910359
 20
62.1558169756
 10
261.8213313471
 20
62.5883416139
 10
263.169317584
 20
62.865742251
 10
264.4747822178
 20
62.9859431245
 10
265.5998406409
 20
62.9593946236
  0
ARC
  5
207
330
1F
100
AcDbEntity
  8
0
  6
Continuous
 62
     7
370
     0
100
AcDbCircle
 10
261.0528176006
 20
36.1499667689
 30
0.0
 40
3.102531981178153
100
AcDbArc
 50
173.9352084392
 51
234.7526111674
  0
LWPOLYLINE
  5
208
330
1F
100
AcDbEntity
  8
0
  6
Continuous
 62
     7
370
     0
100
AcDbPolyline
 90
       16
 70
   128
 43
0.0
 10
265.5118137391
 20
44.4418394048
 10
265.1821077859
 20
44.5956798392
 10
264.5967763908
 20
44.7243284792
 10
263.9542147013
 20
44.7054719841
 10
263.2710647276
 20
44.5395987274
 10
262.5650196952
 20
44.2310047391
 10
261.8543657996
 20
43.7876824416
 10
261.1575086034
 20
43.2211136494
 10
260.492496342
 20
42.5459721967
 10
259.8765524835
 20
41.7797438924
 10
259.3256296505
 20
40.9422736472
 10
258.8539964547
 20
40.0552515005
 10
258.4738679484
 20
39.14165086
 10
258.1950892602
 20
38.2251335023
 10
258.0248806116
 20
37.3294367457
 10
257.9676503172
 20
36.4777586655
  0
LWPOLYLINE
  5
209
330
1F
100
AcDbEntity
  8
0
  6
Continuous
 62
     7
370
     0
100
AcDbPolyline
 90
       11
 70
   128
 43
0.0
 10
269.4966321786
 20
30.7806360483
 10
269.8170829324
 20
30.3789246648
 10
270.2423957288
 20
30.1346156292
 10
270.7513151419
 20
30.0599185262
 10
271.3184074227
 20
30.1585664171
 10
271.9153315761
 20
30.4256292764
 10
272.5122557294
 20
30.8477603746
 10
273.0793480102
 20
31.4038632944
 10
273.5882674233
 20
32.0661462446
 10
274.0135802197
 20
32.8015109825
 10
274.3340309735
 20
33.573206931
  0
LWPOLYLINE
  5
20A
330
1F
100
AcDbEntity
  8
0
  6
Continuous
 62
     7
370
     0
100
AcDbPolyline
 90
       11
 70
   128
 43
0.0
 10
274.3339327327
 20
36.276510372
 10
274.0134677429
 20
36.6781414806
 10
273.5881621052
 20
36.9223890512
 10
273.0792676903
 20
36.9970484072
 10
272.5122131721
 20
36.8983889349
 10
271.9153333954
 20
36.631340497
 10
271.3184535279
 20
36.2092470946
 10
270.7513987415
 20
35.6532000878
 10
270.2425038945
 20
34.9909842933
 10
269.8171976824
 20
34.2556896191
 10
269.4967320047
 20
33.484057613
  0
LINE
  5
20B
330
1F
100
AcDbEntity
  8
0
  6
Continuous
 62
     7
370
     0
100
AcDbLine
 10
242.8090486955
 20
36.0746571603
 30
0.0
 11
242.8213132719
 21
36.7171004838
 31
0.0
  0
LWPOLYLINE
  5
20C
330
1F
100
AcDbEntity
  8
0
  6
Continuous
 62
     7
370
     0
100
AcDbPolyline
 90
        3
 70
   128
 43
0.0
 10
242.8442815681
 20
37.171381595
 10
242.8666929798
 20
37.4841114325
 10
242.8885982084
 20
37.7365072143
  0
LINE
  5
20D
330
1F
100
AcDbEntity
  8
0
  6
Continuous
 62
     7
370
     0
100
AcDbLine
 10
242.8095002301
 20
35.9529781092
 30
0.0
 11
242.8090486955
 21
36.0746571603
 31
0.0
  0
LWPOLYLINE
  5
20E
330
1F
100
AcDbEntity
  8
0
  6
Continuous
 62
     7
370
     0
100
AcDbPolyline
 90
       19
 70
   128
 43
0.0
 10
211.7240956817
 20
59.9659635869
 10
211.7808509728
 20
61.0404389481
 10
211.9502217812
 20
62.1634974553
 10
212.2295370282
 20
63.3174278049
 10
212.6143917455
 20
64.484031826
 10
213.0987165441
 20
65.6449114763
 10
213.6748733328
 20
66.7817589903
 10
214.3337757748
 20
67.8766456035
 10
215.065032585
 20
68.9123043
 10
215.8571114067
 20
69.8724021234
 10
216.6975206836
 20
70.7417977576
 10
217.5730066595
 20
71.5067803141
 10
218.4697623974
 20
72.1552855609
 10
219.3736455239
 20
72.6770861829
 10
220.2704012618
 20
73.0639530727
 10
221.1458872377
 20
73.3097851082
 10
221.9862965146
 20
73.4107053713
 10
222.7783753363
 20
73.3651222894
 10
223.4587225944
 20
73.19254824
  0
ARC
  5
20F
330
1F
100
AcDbEntity
  8
0
  6
Continuous
 62
     7
370
     0
100
AcDbCircle
 10
217.1448385193
 20
59.5355341404
 30
0.0
 40
5.437804926585556
100
AcDbArc
 50
175.4600032532
 51
225.5211631236
  0
LINE
  5
210
330
1F
100
AcDbEntity
  8
0
  6
Continuous
 62
     7
370
     0
100
AcDbLine
 10
248.4924194493
 20
37.0703744444
 30
0.0
 11
247.785197734
 21
37.4786448504
 31
0.0
  0
LINE
  5
211
330
1F
100
AcDbEntity
  8
0
  6
Continuous
 62
     7
370
     0
100
AcDbLine
 10
242.9492583801
 20
31.4109054068
 30
0.0
 11
248.4924194493
 21
28.2109066355
 31
0.0
  0
LINE
  5
212
330
1F
100
AcDbEntity
  8
0
  6
Continuous
 62
     7
370
     0
100
AcDbLine
 10
242.8885982084
 20
31.3758756511
 30
0.0
 11
242.9492583801
 21
31.4109054068
 31
0.0
  0
LINE
  5
213
330
1F
100
AcDbEntity
  8
0
  6
Continuous
 62
     7
370
     0
100
AcDbLine
 10
268.5654132002
 20
31.1214686914
 30
0.0
 11
268.6361238783
 21
30.8575784573
 31
0.0
  0
LWPOLYLINE
  5
214
330
1F
100
AcDbEntity
  8
0
  6
Continuous
 62
     7
370
     0
100
AcDbPolyline
 90
        3
 70
   128
 43
0.0
 10
273.9033368062
 20
36.2297646168
 10
273.6045283082
 20
36.5780294957
 10
273.4530573238
 20
36.6821165967
  0
LWPOLYLINE
  5
215
330
1F
100
AcDbEntity
  8
0
  6
Continuous
 62
     7
370
     0
100
AcDbPolyline
 90
       10
 70
   128
 43
0.0
 10
270.0165223065
 20
30.585844405
 10
270.1915271943
 20
30.5154565964
 10
270.6534132521
 20
30.456869207
 10
271.1654594419
 20
30.550898873
 10
271.7031995417
 20
30.7930527367
 10
272.2409396415
 20
31.1717603768
 10
272.7529858313
 20
31.6689266576
 10
273.2148718891
 20
32.2607963382
 10
273.6045283082
 20
32.919089128
 10
273.9033368062
 20
33.6123509553
  0
LINE
  5
216
330
1F
100
AcDbEntity
  8
0
  6
Continuous
 62
     7
370
     0
100
AcDbLine
 10
268.3309054904
 20
31.2568471106
 30
0.0
 11
268.5654132002
 21
31.1214686914
 31
0.0
  0
LINE
  5
217
330
1F
100
AcDbEntity
  8
0
  6
Continuous
 62
     7
370
     0
100
AcDbLine
 10
244.4454042934
 20
24.1639313211
 30
0.0
 11
244.2394340228
 21
24.7953188832
 31
0.0
  0
LINE
  5
218
330
1F
100
AcDbEntity
  8
0
  6
Continuous
 62
     7
370
     0
100
AcDbLine
 10
247.7853126681
 20
26.9861617677
 30
0.0
 11
242.5350448178
 21
30.0170768828
 31
0.0
  0
LINE
  5
219
330
1F
100
AcDbEntity
  8
0
  6
Continuous
 62
     7
370
     0
100
AcDbLine
 10
275.1945392738
 20
34.6436710759
 30
0.0
 11
274.9824072395
 21
34.8259204988
 31
0.0
  0
LINE
  5
21A
330
1F
100
AcDbEntity
  8
0
  6
Continuous
 62
     7
370
     0
100
AcDbLine
 10
243.1997743122
 20
26.8378659616
 30
0.0
 11
243.1227331904
 21
27.086627671
 31
0.0
  0
LWPOLYLINE
  5
21B
330
1F
100
AcDbEntity
  8
0
  6
Continuous
 62
     7
370
     0
100
AcDbPolyline
 90
        3
 70
   128
 43
0.0
 10
242.8058768293
 20
26.2375757304
 10
242.7829554522
 20
26.2918052355
 10
242.3378446633
 20
27.5397341731
  0
LINE
  5
21C
330
1F
100
AcDbEntity
  8
0
  6
Continuous
 62
     7
370
     0
100
AcDbLine
 10
272.6843102006
 20
36.1525836805
 30
0.0
 11
274.9824072395
 21
34.8259204988
 31
0.0
  0
ARC
  5
21D
330
1F
100
AcDbEntity
  8
0
  6
Continuous
 62
     7
370
     0
100
AcDbCircle
 10
252.5453090459
 20
30.5622379553
 30
0.0
 40
11.20229670055936
100
AcDbArc
 50
195.6891569794
 51
214.1128286261
  0
LINE
  5
21E
330
1F
100
AcDbEntity
  8
0
  6
Continuous
 62
     7
370
     0
100
AcDbLine
 10
239.2626433909
 20
27.1631027187
 30
0.0
 11
239.0598768506
 21
27.7854135927
 31
0.0
  0
LINE
  5
21F
330
1F
100
AcDbEntity
  8
0
  6
Continuous
 62
     7
370
     0
100
AcDbLine
 10
274.2311062938
 20
43.0694015652
 30
0.0
 11
274.9382130656
 21
42.6611975147
 31
0.0
  0
OLE2FRAME
  5
220
330
1F
100
AcDbEntity
  8
0
100
AcDbOle2Frame
 70
     2
  3
Paintbrush-Bild
 10
13.8511154363
 20
38.264191557
 30
0.0
 11
51.6290888628
 21
31.9806341108
 31
0.0
 71
     2
 72
     0
 73
     1
 90
    12928
310
80552BED0767C5B32B40DDAF6807D121434000000000000000006FFBDDFB85D0
310
4940DDAF6807D121434000000000000000006FFBDDFB85D04940416F4BD60AFB
310
3F4000000000000000002BED0767C5B32B40416F4BD60AFB3F40000000000000
310
0000000000000100000000010000010000000100000000000100000000320000
310
D0CF11E0A1B11AE1000000000000000000000000000000003E000300FEFF0900
310
0600000000000000000000000100000001000000000000000010000002000000
310
01000000FEFFFFFF0000000000000000FFFFFFFFFFFFFFFFFFFFFFFFFFFFFFFF
310
FFFFFFFFFFFFFFFFFFFFFFFFFFFFFFFFFFFFFFFFFFFFFFFFFFFFFFFFFFFFFFFF
310
FFFFFFFFFFFFFFFFFFFFFFFFFFFFFFFFFFFFFFFFFFFFFFFFFFFFFFFFFFFFFFFF
310
FFFFFFFFFFFFFFFFFFFFFFFFFFFFFFFFFFFFFFFFFFFFFFFFFFFFFFFFFFFFFFFF
310
FFFFFFFFFFFFFFFFFFFFFFFFFFFFFFFFFFFFFFFFFFFFFFFFFFFFFFFFFFFFFFFF
310
FFFFFFFFFFFFFFFFFFFFFFFFFFFFFFFFFFFFFFFFFFFFFFFFFFFFFFFFFFFFFFFF
310
FFFFFFFFFFFFFFFFFFFFFFFFFFFFFFFFFFFFFFFFFFFFFFFFFFFFFFFFFFFFFFFF
310
FFFFFFFFFFFFFFFFFFFFFFFFFFFFFFFFFFFFFFFFFFFFFFFFFFFFFFFFFFFFFFFF
310
FFFFFFFFFFFFFFFFFFFFFFFFFFFFFFFFFFFFFFFFFFFFFFFFFFFFFFFFFFFFFFFF
310
FFFFFFFFFFFFFFFFFFFFFFFFFFFFFFFFFFFFFFFFFFFFFFFFFFFFFFFFFFFFFFFF
310
FFFFFFFFFFFFFFFFFFFFFFFFFFFFFFFFFFFFFFFFFFFFFFFFFFFFFFFFFFFFFFFF
310
FFFFFFFFFFFFFFFFFFFFFFFFFFFFFFFFFFFFFFFFFFFFFFFFFFFFFFFFFFFFFFFF
310
FFFFFFFFFFFFFFFFFFFFFFFFFFFFFFFFFFFFFFFFFFFFFFFFFFFFFFFFFFFFFFFF
310
FFFFFFFFFFFFFFFFFFFFFFFFFFFFFFFFFFFFFFFFFFFFFFFFFFFFFFFFFFFFFFFF
310
FDFFFFFFFEFFFFFFFEFFFFFFFEFFFFFF05000000060000000700000008000000
310
090000000A0000000B0000000C0000000D0000000E0000000F00000010000000
310
11000000120000001300000014000000150000001600000017000000FEFFFFFF
310
FFFFFFFFFFFFFFFFFFFFFFFFFFFFFFFFFFFFFFFFFFFFFFFFFFFFFFFFFFFFFFFF
310
FFFFFFFFFFFFFFFFFFFFFFFFFFFFFFFFFFFFFFFFFFFFFFFFFFFFFFFFFFFFFFFF
310
FFFFFFFFFFFFFFFFFFFFFFFFFFFFFFFFFFFFFFFFFFFFFFFFFFFFFFFFFFFFFFFF
310
FFFFFFFFFFFFFFFFFFFFFFFFFFFFFFFFFFFFFFFFFFFFFFFFFFFFFFFFFFFFFFFF
310
FFFFFFFFFFFFFFFFFFFFFFFFFFFFFFFFFFFFFFFFFFFFFFFFFFFFFFFFFFFFFFFF
310
FFFFFFFFFFFFFFFFFFFFFFFFFFFFFFFFFFFFFFFFFFFFFFFFFFFFFFFFFFFFFFFF
310
FFFFFFFFFFFFFFFFFFFFFFFFFFFFFFFFFFFFFFFFFFFFFFFFFFFFFFFFFFFFFFFF
310
FFFFFFFFFFFFFFFFFFFFFFFFFFFFFFFFFFFFFFFFFFFFFFFFFFFFFFFFFFFFFFFF
310
FFFFFFFFFFFFFFFFFFFFFFFFFFFFFFFFFFFFFFFFFFFFFFFFFFFFFFFFFFFFFFFF
310
FFFFFFFFFFFFFFFFFFFFFFFFFFFFFFFFFFFFFFFFFFFFFFFFFFFFFFFFFFFFFFFF
310
FFFFFFFFFFFFFFFFFFFFFFFFFFFFFFFFFFFFFFFFFFFFFFFFFFFFFFFFFFFFFFFF
310
FFFFFFFFFFFFFFFFFFFFFFFFFFFFFFFFFFFFFFFFFFFFFFFFFFFFFFFFFFFFFFFF
310
FFFFFFFFFFFFFFFFFFFFFFFFFFFFFFFFFFFFFFFFFFFFFFFFFFFFFFFFFFFFFFFF
310
52006F006F007400200045006E00740072007900000000000000000000000000
310
0000000000000000000000000000000000000000000000000000000000000000
310
16000500FFFFFFFFFFFFFFFF020000000A00030000000000C000000000000046
310
000000000000000000000000C0D46C34091FD20103000000C000000000000000
310
01004F006C006500000000000000000000000000000000000000000000000000
310
0000000000000000000000000000000000000000000000000000000000000000
310
0A000200FFFFFFFFFFFFFFFFFFFFFFFF00000000000000000000000000000000
310
0000000000000000000000000000000000000000000000001400000000000000
310
010043006F006D0070004F0062006A0000000000000000000000000000000000
310
0000000000000000000000000000000000000000000000000000000000000000
310
120002010100000003000000FFFFFFFF00000000000000000000000000000000
310
0000000000000000000000000000000000000000010000004D00000000000000
310
01004F006C006500310030004E00610074006900760065000000000000000000
310
0000000000000000000000000000000000000000000000000000000000000000
310
1A000200FFFFFFFFFFFFFFFFFFFFFFFF00000000000000000000000000000000
310
0000000000000000000000000000000000000000040000002426000000000000
310
FEFFFFFF02000000FEFFFFFFFFFFFFFFFFFFFFFFFFFFFFFFFFFFFFFFFFFFFFFF
310
FFFFFFFFFFFFFFFFFFFFFFFFFFFFFFFFFFFFFFFFFFFFFFFFFFFFFFFFFFFFFFFF
310
FFFFFFFFFFFFFFFFFFFFFFFFFFFFFFFFFFFFFFFFFFFFFFFFFFFFFFFFFFFFFFFF
310
FFFFFFFFFFFFFFFFFFFFFFFFFFFFFFFFFFFFFFFFFFFFFFFFFFFFFFFFFFFFFFFF
310
FFFFFFFFFFFFFFFFFFFFFFFFFFFFFFFFFFFFFFFFFFFFFFFFFFFFFFFFFFFFFFFF
310
FFFFFFFFFFFFFFFFFFFFFFFFFFFFFFFFFFFFFFFFFFFFFFFFFFFFFFFFFFFFFFFF
310
FFFFFFFFFFFFFFFFFFFFFFFFFFFFFFFFFFFFFFFFFFFFFFFFFFFFFFFFFFFFFFFF
310
FFFFFFFFFFFFFFFFFFFFFFFFFFFFFFFFFFFFFFFFFFFFFFFFFFFFFFFFFFFFFFFF
310
FFFFFFFFFFFFFFFFFFFFFFFFFFFFFFFFFFFFFFFFFFFFFFFFFFFFFFFFFFFFFFFF
310
FFFFFFFFFFFFFFFFFFFFFFFFFFFFFFFFFFFFFFFFFFFFFFFFFFFFFFFFFFFFFFFF
310
FFFFFFFFFFFFFFFFFFFFFFFFFFFFFFFFFFFFFFFFFFFFFFFFFFFFFFFFFFFFFFFF
310
FFFFFFFFFFFFFFFFFFFFFFFFFFFFFFFFFFFFFFFFFFFFFFFFFFFFFFFFFFFFFFFF
310
FFFFFFFFFFFFFFFFFFFFFFFFFFFFFFFFFFFFFFFFFFFFFFFFFFFFFFFFFFFFFFFF
310
FFFFFFFFFFFFFFFFFFFFFFFFFFFFFFFFFFFFFFFFFFFFFFFFFFFFFFFFFFFFFFFF
310
FFFFFFFFFFFFFFFFFFFFFFFFFFFFFFFFFFFFFFFFFFFFFFFFFFFFFFFFFFFFFFFF
310
FFFFFFFFFFFFFFFFFFFFFFFFFFFFFFFFFFFFFFFFFFFFFFFFFFFFFFFFFFFFFFFF
310
0100000200000000000000000000000000000000000000000000000000000000
310
0000000000000000000000000000000000000000000000000000000000000000
310
0100FEFF030A0000FFFFFFFF0A00030000000000C00000000000004607000000
310
5042727573680007000000504272757368000700000050427275736800F439B2
310
7100000000000000000000000000000000000000000000000000000000000000
310
0000000000000000000000000000000000000000000000000000000000000000
310
0000000000000000000000000000000000000000000000000000000000000000
310
0000000000000000000000000000000000000000000000000000000000000000
310
0000000000000000000000000000000000000000000000000000000000000000
310
0000000000000000000000000000000000000000000000000000000000000000
310
0000000000000000000000000000000000000000000000000000000000000000
310
0000000000000000000000000000000000000000000000000000000000000000
310
0000000000000000000000000000000000000000000000000000000000000000
310
0000000000000000000000000000000000000000000000000000000000000000
310
0000000000000000000000000000000000000000000000000000000000000000
310
0000000000000000000000000000000000000000000000000000000000000000
310
20260000424D0E260000000000003E00000028000000B40200006E0000000100
310
01000000000000000000130B0000130B00000200000002000000000000FFFFFF
310
FFFFFFFFFFFFFFFFFFFFFFFFFFFFFFFFFFFFFFFFFFFFFFFFFFFFFFFFFFFFFFFF
310
FFFFFFFFFFFFFFFFFFFFFFFFFFFFFFFFFFFFFFFFFFFFFFFFFFFFFFFFFFFFFFFF
310
FFFFFFFFFFFFFFFFFFFFFFFFFFFFFFFFFFFFFFFFFFFFFFFFF000FFFFFFFFFFFF
310
FFFFFFFFFFFFFFFFFFFFFFFFFFFFFFFFFFFFFFFFFFFFFFFFFFFFFFFFFFFFFFFF
310
FFFFFFFFFFFFFFFFFFFFFFFFFFFFFFFFFFFFFFFFFFFFFFFFFFFFFFFFFFFFFFFF
310
FFFFFFFFFFFFFFFFFFFFFFFFFFFFFFFFF000FFFFFFFFFFFFFFFFFFFFFFFFFFFF
310
FFFFFFFFFFFFFFFFFFFFFFFFFFFFFFFFFFFFFFFFFFFFFFFFFFFFFFFFFFFFFFFF
310
FFFFFFFFFFFFFFFFFFFFFFFFFFFFFFFFFFFFFFFFFFFFFFFFFFFFFFFFFFFFFFFF
310
FFFFFFFFFFFFFFFFF000FFFFFFFFFFFFFFFFFFFFFFFFFFFFFFFFFFFFFFFFFFFF
310
FFFFFFFFFFFFFFFFFFFFFFFFFFFFFFFFFFFFFFFFFFFFFFFFFFFFFFFFFFFFFFFF
310
FFFFFFFFFFFFFFFFFFFFFFFFFFFFFFFFFFFFFFFFFFFFFFFFFFFFFFFFFFFFFFFF
310
F000FFFFFFFFFFFFFFFFFFFFFFFFFFFFFFFFFFFFFFFFFFFFFFFFFFFFFFFFFFFF
310
FFFFFFFFFFFFFFFFFFFFFFFFFFFFFFFFFFFFFFFFFFFFFFFFFFFFFFFFFFFFFFFF
310
FFFFFFFFFFFFFFFFFFFFFFFFFFFFFFFFFFFFFFFFFFFFFFFFF000FFFFFFFFFFFF
310
FFFFFFFFFFFFFFFFFFFFFFFFFFFFFFFFFFFFFFFFFFFFFFFFFFFFFFFFFFFFFFFF
310
FFFFFFFFFFFFFFFFFFFFFFFFFFFFFFFFFFFFFFFFFFFFFFFFFFFFFFFFFFFFFFFF
310
FFFFFFFFFFFFFFFFFFFFFFFFFFFFFFFFF000FFFFFFFFFFFFFFFFFFFFFFFFFFFF
310
FFFFFFFFFFFFFFFFFFFFFFFFFFFFFFFFFFFFFFFFFFFFFFFFFFFFFFFFFFFFFFFF
310
FFFFFFFFFFFFFFFFFFFFFFFFFFFFFFFFFFFFFFFFFFFFFFFFFFFFFFFFFFFFFFFF
310
FFFFFFFFFFFFFFFFF000FFFFFFFFFFFFFFFFFFFFFFFFFFFFFFFFFFFFFFFFFFFF
310
FFFFFFFFFFFFFFFFFFFFFFFFFFFFFFFFFFFFFFFFFFFFFFFFFFFFFFFFFFFFFFFF
310
FFFFFFFFFFFFFFFFFFFFFFFFFFFFFFFFFFFFFFFFFFFFFFFFFFFFFFFFFFFFFFFF
310
F000FFFFFFFFFFFFFFFFFFFFFFFFFFFFFFFFFFFFFFFFFFFFFFFFFFFFFFFFFFFF
310
FFFFFFFFFFFFFFFFFFFFFFFFFFFFFFFFFFFFFFFFFFFFFFFFFFFFFFFFFFFFFFFF
310
FFFFFFFFFFFFFFFFFFFFFFFFFFFFFFFFFFFFFFFFFFFFFFFFF000FFFFFFFFFFFF
310
FFFFFFFFFFFFFFFFFFFFFFFFFFFFFFFFFFFFFFFFFFFFFFFFFFFFFFFFFFFFFFFF
310
FFFFFFFFFFFFFFFFFFFFFFFFFFFFFFFFFFFFFFFFFFFFFFFFFFFFFFFFFFFFFFFF
310
FFFFFFFFFFFFFFFFFFFFFFFFFFFFFFFFF000FFFFFFFFFFFFFFFFFFFFFFFFFFFF
310
FFFFFFFFFFFFFFFFFFFFFFFFFFFFFFFFFFFFFFFFFFFFFFFFFFFFFFFFFFFFFFFF
310
FFFFFFFFFFFFFFFFFFFFFFFFFFFFFFFFFFFFFFFFFFFFFFFFFFFFFFFFFFFFFFFF
310
FFFFFFFFFFFFFFFFF000FFFFFFFFFFFFFFFFFFFFFFFFFFFFFFFFFFFFFFFFFFFF
310
FFFFFFFFFFFFFFFFFFFFFFFFFFFFFFFFFFFFFFFFFFFFFFFFFFFFFFFFFFFFFFFF
310
FFFFFFFFFFFFFFFFFFFFFFFFFFFFFFFFFFFFFFFFFFFFFFFFFFFFFFFFFFFFFFFF
310
F000FFFFFFFFFFFFFFFFFFFFFFFFFFFFFFFFFFFFFFFFFFFFFFFFFFFFFFFFFFFF
310
FFFFFFFFFFFFFFFFFFFFFFFFFFFFFFFFFFFFFFFFFFFFFFFFFFFFFFFFFFFFFFFF
310
FFFFFFFFFFFFFFFFFFFFFFFFFFFFFFFFFFFFFFFFFFFFFFFFF000FFFFFFFFFFFF
310
FFFFFFFFFFFFFFFFFFFFFFFFFFFFFFFFFFFFFFFFFFFFFFFFFFFFFFFFFFFFFFFF
310
FFFFFFFFFFFFFFFFFFFFFFFFFFFFFFFFFFFFFFFFFFFFFFFFFFFFFFFFFFFFFFFF
310
FFFFFFFFFFFFFFFFFFFFFFFFFFFFFFFFF000FFFFFFFFFFFFFFFFFFFFFFFFFFFF
310
FFFFFFFFFFFFFFFFFFFFFFFFFFFFFFFFFFFFFFFFFFFFFFFFFFFFFFFFFFFFFFFF
310
FFFFFFFFFFFFFFFFFFFFFFFFFFFFFFFFFFFFFFFFFFFFFFFFFFFFFFFFFFFFFFFF
310
FFFFFFFFFFFFFFFFF000FFFFFFFFFFFFFFFFFFFFFFFFFFFFFFFFFFFFFFFFFFFF
310
FFFFFFFFFFFFFFFFFFFFFFFFFFFFFFFFFFFFFFFFFFFFFFFFFFFFFFFFFFFFFFFF
310
FFFFFFFFFFFFFFFFFFFFFFFFFFFFFFFFFFFFFFFFFFFFFFFFFFFFFFFFFFFFFFFF
310
F000FFFFFFFFFFFFFFFFFFFFFFFFFFFFFFFFFFFFFFFFFFFFFFFFFFFFFFFFFFFF
310
FFFFFFFFFFFFFFFFFFFFFFFFFFFFFFFFFFFFFFFFFFFFFFFFFFFFFFFFFFFFFFFF
310
FFFFFFFFFFFFFFFFFFFFFFFFFFFFFFFFFFFFFFFFFFFFFFFFF000FFFFFFFFFFFF
310
FFFFFFFFFFFFFFFFFFFFFFFFFFFFFFFFFFFFFFFFFFFFFFFFFFFFFFFFFFFFFFFF
310
FFFFFFFFFFFFFFFFFFFFFFFFFFFFFFFFFFFFFFFFFFFFFFFFFFFFFFFFFFFFFFFF
310
FFFFFFFFFFFFFFFFFFFFFFFFFFFFFFFFF000FFFFFFFFFFFFFFFFFFFFFFFFFFFF
310
FFFFFFFFFFFFFFFFFFFFFFFFFFFFFFFFFFFFFFFFFFFFFFFFFFFFFFFFFFFFFFFF
310
FFFFFFFFFFFFFFFFFFFFFFFFFFFFFFFFFFFFFFFFFFFFFFFFFFFFFFFFFFFFFFFF
310
FFFFFFFFFFFFFFFFF000FFFFF80003FFFFFFFFFFFFFFFFFFFFFFFFFFFFFFFFFF
310
FFFFF00007FFFFFFFFFF00007FFFFFF800000000000000007FFFFFFFFFFFFFFF
310
FFFFFFFC001FFFFFFFFFFFFFFC001FFFFFFFFFFFFFFFFFFFFFFFFFFE0007FFFF
310
F000FFFF8000007FFFFFFFF8000FFFFFC0007FFFFF80007FFFFF0000007FFFFF
310
FFF8000007FFFFF800000000000000007FFFFFF0001FFFFFFFFFFFC00001FFFF
310
FFFFFFFFC00001FFFFFFFF000000000003FFFFE000007FFFF000FFFE0000000F
310
FFFFFFF0000FFFFF80007FFFFF80007FFFFC0000001FFFFFFFC0000001FFFFF8
310
00000000000000007FFFFFF0001FFFFFFFFFFE0000003FFFFFFFFFFE0000003F
310
FFFFFF000000000003FFFF0000000FFFF000FFF800000003FFFFFFF00007FFFF
310
80007FFFFF80007FFFF000000007FFFFFF000000003FFFF80000000000000000
310
7FFFFFF0001FFFFFFFFFF80000000FFFFFFFFFF80000000FFFFFFF0000000000
310
03FFFC00000003FFF000FFE000000000FFFFFFF00007FFFF80003FFFFF80007F
310
FFC000000001FFFFFC000000001FFFF800000000000000007FFFFFF0001FFFFF
310
FFFFE000000003FFFFFFFFE000000003FFFFFF000000000003FFF000000000FF
310
F000FF80000000007FFFFFF00007FFFF80003FFFFF80007FFF8000000000FFFF
310
F80000000007FFF800000000000000007FFFFFF0001FFFFFFFFFC000000001FF
310
FFFFFFC000000001FFFFFF000000000003FFC0000000007FF000FF0000000000
310
3FFFFFE00007FFFF00003FFFFF80007FFE00000000003FFFF00000000003FFF8
310
00000000000000007FFFFFF0001FFFFFFFFF8000000000FFFFFFFF8000000000
310
FFFFFF000000000003FF80000000003FF000FE00000000001FFFFFE00003FFFF
310
00003FFFFF80007FFC00000000001FFFE00000000001FFF8000001FFFE000000
310
7FFFFFF0001FFFFFFFFE00000000003FFFFFFE00000000003FFFFF0000000000
310
03FF00000000001FF000FC00000000000FFFFFE00003FFFF00001FFFFF80007F
310
F800000000001FFFC00000000000FFF8000001FFFE0000007FFFFFF0001FFFFF
310
FFFC00000000001FFFFFFC00000000001FFFFF000000000003FE00000000000F
310
F000F8000000000007FFFFE00003FFFF00001FFFFF80007FF800000000000FFF
310
800000000000FFF8000001FFFE0000007FFFFFF0001FFFFFFFF800000000000F
310
FFFFF800000000000FFFFF000000000003FC000000000007F000F80000000000
310
03FFFFC00003FFFE00001FFFFF80007FF0000000000007FF0000000000007FF8
310
000001FFFE0000007FFFFFF0001FFFFFFFF0000000000007FFFFF00000000000
310
07FFFF000000000003F8000000000003F000F0000000000003FFFFC00001FFFE
310
00001FFFFF80007FE0000000000007FE0000000000003FF8000001FFFE000000
310
7FFFFFF0001FFFFFFFF0000000000007FFFFF0000000000007FFFF0000000000
310
03F800001F800003F000E00001FFF00001FFFFC00001FFFE00000FFFFF80007F
310
E00001FFE00003FE00001FFF00003FF8000001FFFE0000007FFFFFF0001FFFFF
310
FFE000003E000003FFFFE000003E000003FFFF000000000003F00001FFF80001
310
F000E00007FFFC0001FFFFC00001FFFE00000FFFFF80007FC0000FFFFC0003FC
310
0000FFFFC0001FF8000001FFFE0000007FFFFFF0001FFFFFFFC00003FFE00001
310
FFFFC00003FFE00001FFFF0001FFFFFFFFF00007FFFE0001F000E0000FFFFF00
310
00FFFF800001FFFC00000FFFFF80007FC0001FFFFE0001FC0001FFFFE0001FF8
310
000001FFFE0000007FFFFFF0001FFFFFFF80000FFFF80000FFFF80000FFFF800
310
00FFFF0003FFFFFFFFE0000FFFFF8000F000C0003FFFFF8000FFFF800000FFFC
310
000007FFFF80007F80003FFFFF0001FC0003FFFFF0001FF8000001FFFE000000
310
7FFFFFF0001FFFFFFF80003FFFFE0000FFFF80003FFFFE0000FFFF0003FFFFFF
310
FFE0003FFFFF8000F000C0003FFFFF8000FFFF800000FFFC000007FFFF80007F
310
80007FFFFF8001F80007FFFFF8000FF8000001FFFE0000007FFFFFF0001FFFFF
310
FF00007FFFFF00007FFF00007FFFFF00007FFF0003FFFFFFFFE0003FFFFFC000
310
F000C0007FFFFFC000FFFF000000FFFC000007FFFF80007F8000FFFFFF8000F8
310
000FFFFFF8000FF8000001FFFE0000007FFFFFF0001FFFFFFF0000FFFFFF8000
310
7FFF0000FFFFFF80007FFF0003FFFFFFFFC0007FFFFFC00070008000FFFFFFC0
310
00FFFF000000FFF8000007FFFF80007F8000FFFFFF8000F8000FFFFFF8000FF8
310
000001FFFE0000007FFFFFF0001FFFFFFE0001FFFFFFC0003FFE0001FFFFFFC0
310
003FFF0003FFFFFFFFC0007FFFFFE00070008000FFFFFFC0007FFF0000007FF8
310
000003FFFF80007F0001FFFFFF8000F8000FFFFFF8000FF8000001FFFE000000
310
7FFFFFF0001FFFFFFE0001FFFFFFC0003FFE0001FFFFFFC0003FFF0003FFFFFF
310
FFC000FFFFFFE00070008000FFFFFFC0007FFF0000007FF8000003FFFF80007F
310
0001FFFFFF8000F8001FFFFFF8000FF8000001FFFE0000007FFFFFF0001FFFFF
310
FE0003FFFFFFE0003FFE0003FFFFFFE0003FFF0003FFFFFFFFC000FFFFFFE000
310
70008000FFFFFFC0007FFE0000007FF8000003FFFF80007F0001FFFFFF8000F0
310
001FFFFFF8000FF8000001FFFE0000007FFFFFF0001FFFFFFC0003FFFFFFE000
310
1FFC0003FFFFFFE0001FFF0003FFFFFFFFC000FFFFFFC00070008000FFFFFF80
310
007FFE0000007FF0000003FFFF80007F0001FFFFFF0000F0001FFFFFF8000FF8
310
000001FFFE0000007FFFFFF0001FFFFFFC0007FFFFFFF0001FFC0007FFFFFFF0
310
001FFF0003FFFFFFFFC000FFFFFFC00070008001FFFFFF0000FFFE0000003FF0
310
000001FFFF80007F0001FFFFFF0000F8001FFFFFF0000FF8000001FFFE000000
310
7FFFFFF0001FFFFFFC0007FFFFFFF0001FFC0007FFFFFFF0001FFF0003FFFFFF
310
FFC001FFFFFF80007000FFFFFFFFFE0000FFFE0008003FF0008001FFFF80007F
310
FFFFFFFFFC0000FFFFFFFFFFE0000FF8000001FFFE0000007FFFFFF0001FFFFF
310
F8000FFFFFFFF8000FF8000FFFFFFFF8000FFF0003FFFFFFFFFFFFFFFFFF0000
310
7000FFFFFFFFFC0000FFFC0008003FF0008001FFFF80007FFFFFFFFFF80001FF
310
FFFFFFFF80000FF8000001FFFE0000007FFFFFF0001FFFFFF8000FFFFFFFF800
310
0FF8000FFFFFFFF8000FFF0003FFFFFFFFFFFFFFFFFE0000F000FFFFFFFFE000
310
00FFFC000C003FE000C001FFFF80007FFFFFFFFFC00001FFFFFFFFFE00001FF8
310
000001FFFE0000007FFFFFF0001FFFFFF8000FFFFFFFF8000FF8000FFFFFFFF8
310
000FFF0003FFFFFFFFFFFFFFFFF00000F000FFFFFFFE000001FFFC000C001FE0
310
00C000FFFF80007FFFFFFFFE000001FFFFFFFFE000001FF80FFFFFFFFFFFFFC0
310
7FFFFFF0001FFFFFF8000FFFFFFFF8000FF8000FFFFFFFF8000FFF0003FFFFFF
310
FFFFFFFFFF800000F000FFFFFFC0000001FFFC001C001FE001C000FFFF80007F
310
FFFFFF80000003FFFFFFF80000001FF80FFFFFFFFFFFFFC07FFFFFF0001FFFFF
310
F8001FFFFFFFFC000FF8001FFFFFFFFC000FFF0003FFFFFFFFFFFFFFF0000001
310
F000FFFFF800000001FFF8001C001FE001C000FFFF80007FFFFFF800000003FF
310
FFFF800000003FF80FFFFFFFFFFFFFC07FFFFFF0001FFFFFF8001FFFFFFFFC00
310
0FF8001FFFFFFFFC000FFF0003FFFFFFFFFFFFFE00000001F000FFFFC0000000
310
03FFF8001E001FC001E000FFFF80007FFFFF8000000007FFFFFC000000003FF8
310
0FFFFFFFFFFFFFC07FFFFFF0001FFFFFF8001FFFFFFFFC000FF8001FFFFFFFFC
310
000FFF0003FFFFFFFFFFFFE000000003F000FFFE0000000007FFF8001E000FC0
310
01E0007FFF80007FFFFE0000000007FFFFE0000000007FF80FFFFFFFFFFFFFC0
310
7FFFFFF0001FFFFFF0001FFFFFFFFC0007F0001FFFFFFFFC0007FF0003FFFFFF
310
FFFFFF0000000003F000FFF80000000007FFF8001E000FC003E0007FFF80007F
310
FFF0000000000FFFFF8000000000FFF80FFFFFFFFFFFFFC07FFFFFF0001FFFFF
310
F0001FFFFFFFFC0007F0001FFFFFFFFC0007FF0003FFFFFFFFFFFC0000000007
310
F000FFE0000000000FFFF0003E000FC003E0007FFF80007FFFC0000000001FFF
310
FE0000000001FFF80FFFFFFFFFFFFFC07FFFFFF0001FFFFFF0001FFFFFFFFC00
310
07F0001FFFFFFFFC0007FF0003FFFFFFFFFFF0000000000FF000FFC000000000
310
1FFFF0003F000F8003F0003FFF80007FFF80000000003FFFF80000000003FFF8
310
0FFFFFFFFFFFFFC07FFFFFF0001FFFFFF0001FFFFFFFFC0007F0001FFFFFFFFC
310
0007FF0003FFFFFFFFFFE0000000001FF000FF00000000007FFFF0003F000780
310
03F0003FFF80007FFF00000000007FFFF00000000007FFF80FFFFFFFFFFFFFC0
310
7FFFFFF0001FFFFFF0001FFFFFFFFC0007F0001FFFFFFFFC0007FF0003FFFFFF
310
FFFF80000000007FF000FE0000000000FFFFE0003F00078007F0003FFF80007F
310
FE0000000001FFFFE0000000001FFFF80FFFFFFFFFFFFFC07FFFFFF0001FFFFF
310
F0001FFFFFFFFC0007F0001FFFFFFFFC0007FF0003FFFFFFFFFF0000000000FF
310
F000FC0000000003FFFFE0007F00078007F0003FFF80007FFC0000000007FFFF
310
C0000000007FFFF80FFFFFFFFFFFFFC07FFFFFF0001FFFFFF8001FFFFFFFFC00
310
0FF8001FFFFFFFFC000FFF0003FFFFFFFFFE0000000003FFF000FC000000000F
310
FFFFE0007F80070007F8001FFF80007FF8000000001FFFFF8000000001FFFFF8
310
0FFFFFFFFFFFFFC07FFFFFF0001FFFFFF8001FFFFFFFFC000FF8001FFFFFFFFC
310
000FFF0003FFFFFFFFFC000000000FFFF000F8000000007FFFFFE0007F800700
310
07F8001FFF80007FF000000000FFFFFF800000000FFFFFF80FFFFFFFFFFFFFC0
310
7FFFFFF0001FFFFFF8000FFFFFFFF8000FF8000FFFFFFFF8000FFF0003FFFFFF
310
FFFC000000007FFFF000F800000007FFFFFFC0007F8003000FF8001FFF80007F
310
F000000007FFFFFF000000007FFFFFF80FFFFFFFFFFFFFC07FFFFFF0001FFFFF
310
F8000FFFFFFFF8000FF8000FFFFFFFF8000FFF0003FFFFFFFFF80000000FFFFF
310
F000F0000000FFFFFFFFC000FF8003000FF8001FFF80007FE0000000FFFFFFFF
310
0000000FFFFFFFF8000001FFFE0000007FFFFFF0001FFFFFF8000FFFFFFFF800
310
0FF8000FFFFFFFF8000FFF0003FFFFFFFFF8000000FFFFFFF000F000000FFFFF
310
FFFFC000FFC002000FF8000FFF80007FE000001FFFFFFFFE000001FFFFFFFFF8
310
000001FFFE0000007FFFFFF0001FFFFFF8000FFFFFFFF8000FF8000FFFFFFFF8
310
000FFF0003FFFFFFFFF000001FFFFFFFF000E00000FFFFFFFFFFC000FFC00200
310
0FFC000FFF80007FE00001FFFFFFFFFE00001FFFFFFFFFF8000001FFFE000000
310
7FFFFFF0001FFFFFFC000FFFFFFFF8001FFC000FFFFFFFF8001FFF0003FFFFFF
310
FFF00001FFFFFFFFF000E00007FFFFFFFFFF8000FFC000001FFC000FFF80007F
310
C0000FFFFFFFFFFE0000FFFFFFFFFFF8000001FFFE0000007FFFFFF0001FFFFF
310
FC0007FFFFFFF0001FFC0007FFFFFFF0001FFF0003FFFFFFFFF00007FFFFFFFF
310
F000E0001FFFFFFFFFFF8000FFC000001FFC000FFF80007FC0003FFFFFFFFFFE
310
0001FFFFFFFFFFF8000001FFFE0000007FFFFFF0001FFFFFFC0007FFFFFFF000
310
1FFC0007FFFFFFF0001FFF0003FFFFFFFFF0001FFFFFFFFFF000E0003FFFFF00
310
03FF8001FFE000001FFC0007FF80007FC0007FFFFF0007FC0003FFFFF0003FF8
310
000001FFFE0000007FFFFFF0001FFFFFFC0003FFFFFFE0001FFC0003FFFFFFE0
310
001FFF0003FFFFFFFFF0003FFFFFFFFFF000E0003FFFFF0001FF8001FFE00000
310
1FFE0007FF80007FC0007FFFFE0003FC0007FFFFE0003FF8000001FFFE000000
310
7FFFFFF0001FFFFFFE0003FFFFFFE0003FFE0003FFFFFFE0003FFF0003FFFFFF
310
FFF0003FFFFF8001F000E0003FFFFF0001FF0001FFE000001FFE0007FF80007F
310
C0007FFFFE0003FC0007FFFFE0003FF8000001FFFE0000007FFFFFF0001FFFFF
310
FE0001FFFFFFC0003FFE0001FFFFFFC0003FFF0003FFFFFFFFF0003FFFFF0001
310
F000E0003FFFFF0003FF0001FFE000003FFE0007FF80007FC0007FFFFE0003FC
310
0007FFFFE0003FF8000001FFFE0000007FFFFFF0001FFFFFFF0001FFFFFFC000
310
7FFF0001FFFFFFC0007FFF0003FFFFFFFFF0003FFFFF0001F000E0003FFFFE00
310
03FF0003FFF000003FFE0003FF80007FC0007FFFFC0003FE0007FFFFE0003FF8
310
000001FFFE0000007FFFFFF0001FFFFFFF0000FFFFFF80007FFF0000FFFFFF80
310
007FFF0003FFFFFFFFF0003FFFFF0001F000E0003FFFFE0003FF0003FFF00000
310
3FFF0003FF80007FC0007FFFFC0007FE0007FFFFC0003FF8000001FFFE000000
310
7FFFFFF0001FFFFFFF80007FFFFF0000FFFF80007FFFFF0000FFFF0003FFFFFF
310
FFF0003FFFFF0003F000E0003FFFFC0003FE0003FFF000003FFF0003FF80007F
310
E0003FFFF80007FE0003FFFFC0007FF8000001FFFE0000007FFFFFF0001FFFFF
310
FF80003FFFFE0000FFFF80003FFFFE0000FFFF0003FFFFFFFFF0001FFFFE0003
310
F000F0001FFFF80003FE0003FFF000007FFF0001FF80007FE0003FFFF00007FE
310
0001FFFF80007FF8000001FFFE0000007FFFFFF0001FFFFFFFC0000FFFF80001
310
FFFFC0000FFFF80001FFFF0003FFFFFFFFF0001FFFFC0003F000F0000FFFF000
310
07FE0007FFF800007FFF0001FF80007FE0001FFFE00007FF0000FFFE00007FF8
310
000001FFFE0000007FFFFFF0001FFFFFFFC00003FFE00001FFFFC00003FFE000
310
01FFFF0003FFFFFFFFF8000FFFF80003F000F00003FFC00007FC0007FFF80000
310
7FFF8001FF80007FF00007FF80000FFF00007FF80000FFF8000001FFFE000000
310
7F80000000000001FFE000003E000003FFFFE000003E000003FFFF0003FFFFFF
310
FFF80003FFE00007F000F800000000000FFC0007FFF800007FFF8001FF80007F
310
F000000000000FFF000000000000FFF8000001FFFE0000007F80000000000001
310
FFF0000000000007FFFFF0000000000007FFFF0003FFFFFFFFFC00007E000007
310
F000F800000000000FFC0007FFF80000FFFF8000FF80007FF800000000001FFF
310
800000000001FFF8000001FFFE0000007F80000000000001FFF800000000000F
310
FFFFF800000000000FFFFF0003FFFFFFFFFC00000000000FF000FC0000000000
310
1FFC0007FFFC0000FFFF8000FF80007FF800000000003FFFC00000000001FFF8
310
000001FFFE0000007F80000000000001FFF800000000000FFFFFF80000000000
310
0FFFFF0003FFFFFFFFFE00000000001FF000FE00000000003FF8000FFFFC0000
310
FFFF8000FF80007FFC00000000003FFFC00000000003FFF8000001FFFE000000
310
7F80000000000001FFFC00000000001FFFFFFC00000000001FFFFF0003FFFFFF
310
FFFF00000000001FF000FF00000000003FF8000FFFFC0000FFFFC000FF80007F
310
FE00000000007FFFE00000000007FFF8000001FFFE0000007F80000000000001
310
FFFE00000000003FFFFFFE00000000003FFFFF0003FFFFFFFFFF80000000003F
310
F000FF80000000007FF8000FFFFC0001FFFFC0007F80007FFF0000000000FFFF
310
F0000000000FFFF800000000000000007F80000000000001FFFF8000000000FF
310
FFFFFF8000000000FFFFFF0003FFFFFFFFFFC0000000007FF000FFC000000000
310
FFF8000FFFFE0001FFFFC0007F80007FFF8000000001FFFFF8000000001FFFF8
310
00000000000000007F80000000000001FFFFC000000001FFFFFFFFC000000001
310
FFFFFF0003FFFFFFFFFFE000000000FFF000FFE000000003FFF0001FFFFE0001
310
FFFFC0007F80007FFFC000000007FFFFFE000000003FFFF80000000000000000
310
7F80000000000001FFFFE000000003FFFFFFFFE000000003FFFFFF0003FFFFFF
310
FFFFF000000003FFF000FFF80000000FFFF0001FFFFE0001FFFFE0007F80007F
310
FFF00000000FFFFFFF00000000FFFFF800000000000000007F80000000000001
310
FFFFF80000000FFFFFFFFFF80000000FFFFFFF0003FFFFFFFFFFFC0000000FFF
310
F000FFFE0000003FFFF0001FFFFE0003FFFFE0003F80007FFFFC0000003FFFFF
310
FFC0000003FFFFF800000000000000007F80000000000001FFFFFE0000003FFF
310
FFFFFFFE0000003FFFFFFF0003FFFFFFFFFFFF0000003FFFF000FFFF800000FF
310
FFF0001FFFFF0003FFFFE0003F80007FFFFF000001FFFFFFFFF800001FFFFFF8
310
00000000000000007F80000000000001FFFFFFC00001FFFFFFFFFFFFC00001FF
310
FFFFFF0003FFFFFFFFFFFFC00000FFFFF000FFFFF8000FFFFFFFFFFFFFFFFFFF
310
FFFFFFFFFFFFFFFFFFFFF0001FFFFFFFFFFF0000FFFFFFF80000000000000000
310
7FFFFFFFFFFFFFFFFFFFFFFC001FFFFFFFFFFFFFFC001FFFFFFFFFFFFFFFFFFF
310
FFFFFFFC001FFFFFF000FFFFFFFFFFFFFFFFFFFFFFFFFFFFFFFFFFFFFFFFFFFF
310
FFFFFFFFFFFFFFFFFFFFFFFFFFFFFFFFFFFFFFFFFFFFFFFFFFFFFFFFFFFFFFFF
310
FFFFFFFFFFFFFFFFFFFFFFFFFFFFFFFFFFFFFFFFFFFFFFFFFFFFFFFFFFFFFFFF
310
F000FFFFFFFFFFFFFFFFFFFFFFFFFFFFFFFFFFFFFFFFFFFFFFFFFFFFFFFFFFFF
310
FFFFFFFFFFFFFFFFFFFFFFFFFFFFFFFFFFFFFFFFFFFFFFFFFFFFFFFFFFFFFFFF
310
FFFFFFFFFFFFFFFFFFFFFFFFFFFFFFFFFFFFFFFFFFFFFFFFF000FFFFFFFFFFFF
310
FFFFFFFFFFFFFFFFFFFFFFFFFFFFFFFFFFFFFFFFFFFFFFFFFFFFFFFFFFFFFFFF
310
FFFFFFFFFFFFFFFFFFFFFFFFFFFFFFFFFFFFFFFFFFFFFFFFFFFFFFFFFFFFFFFF
310
FFFFFFFFFFFFFFFFFFFFFFFFFFFFFFFFF000FFFFFFFFFFFFFFFFFFFFFFFFFFFF
310
FFFFFFFFFFFFFFFFFFFFFFFFFFFFFFFFFFFFFFFFFFFFFFFFFFFFFFFFFFFFFFFF
310
FFFFFFFFFFFFFFFFFFFFFFFFFFFFFFFFFFFFFFFFFFFFFFFFFFFFFFFFFFFFFFFF
310
FFFFFFFFFFFFFFFFF000FFFFFFFFFFFFFFFFFFFFFFFFFFFFFFFFFFFFFFFFFFFF
310
FFFFFFFFFFFFFFFFFFFFFFFFFFFFFFFFFFFFFFFFFFFFFFFFFFFFFFFFFFFFFFFF
310
FFFFFFFFFFFFFFFFFFFFFFFFFFFFFFFFFFFFFFFFFFFFFFFFFFFFFFFFFFFFFFFF
310
F000FFFFFFFFFFFFFFFFFFFFFFFFFFFFFFFFFFFFFFFFFFFFFFFFFFFFFFFFFFFF
310
FFFFFFFFFFFFFFFFFFFFFFFFFFFFFFFFFFFFFFFFFFFFFFFFFFFFFFFFFFFFFFFF
310
FFFFFFFFFFFFFFFFFFFFFFFFFFFFFFFFFFFFFFFFFFFFFFFFF000FFFFFFFFFFFF
310
FFFFFFFFFFFFFFFFFFFFFFFFFFFFFFFFFFFFFFFFFFFFFFFFFFFFFFFFFFFFFFFF
310
FFFFFFFFFFFFFFFFFFFFFFFFFFFFFFFFFFFFFFFFFFFFFFFFFFFFFFFFFFFFFFFF
310
FFFFFFFFFFFFFFFFFFFFFFFFFFFFFFFFF000FFFFFFFFFFFFFFFFFFFFFFFFFFFF
310
FFFFFFFFFFFFFFFFFFFFFFFFFFFFFFFFFFFFFFFFFFFFFFFFFFFFFFFFFFFFFFFF
310
FFFFFFFFFFFFFFFFFFFFFFFFFFFFFFFFFFFFFFFFFFFFFFFFFFFFFFFFFFFFFFFF
310
FFFFFFFFFFFFFFFFF000FFFFFFFFFFFFFFFFFFFFFFFFFFFFFFFFFFFFFFFFFFFF
310
FFFFFFFFFFFFFFFFFFFFFFFFFFFFFFFFFFFFFFFFFFFFFFFFFFFFFFFFFFFFFFFF
310
FFFFFFFFFFFFFFFFFFFFFFFFFFFFFFFFFFFFFFFFFFFFFFFFFFFFFFFFFFFFFFFF
310
F000FFFFFFFFFFFFFFFFFFFFFFFFFFFFFFFFFFFFFFFFFFFFFFFFFFFFFFFFFFFF
310
FFFFFFFFFFFFFFFFFFFFFFFFFFFFFFFFFFFFFFFFFFFFFFFFFFFFFFFFFFFFFFFF
310
FFFFFFFFFFFFFFFFFFFFFFFFFFFFFFFFFFFFFFFFFFFFFFFFF000FFFFFFFFFFFF
310
FFFFFFFFFFFFFFFFFFFFFFFFFFFFFFFFFFFFFFFFFFFFFFFFFFFFFFFFFFFFFFFF
310
FFFFFFFFFFFFFFFFFFFFFFFFFFFFFFFFFFFFFFFFFFFFFFFFFFFFFFFFFFFFFFFF
310
FFFFFFFFFFFFFFFFFFFFFFFFFFFFFFFFF000FFFFFFFFFFFFFFFFFFFFFFFFFFFF
310
FFFFFFFFFFFFFFFFFFFFFFFFFFFFFFFFFFFFFFFFFFFFFFFFFFFFFFFFFFFFFFFF
310
FFFFFFFFFFFFFFFFFFFFFFFFFFFFFFFFFFFFFFFFFFFFFFFFFFFFFFFFFFFFFFFF
310
FFFFFFFFFFFFFFFFF000FFFFFFFFFFFFFFFFFFFFFFFFFFFFFFFFFFFFFFFFFFFF
310
FFFFFFFFFFFFFFFFFFFFFFFFFFFFFFFFFFFFFFFFFFFFFFFFFFFFFFFFFFFFFFFF
310
FFFFFFFFFFFFFFFFFFFFFFFFFFFFFFFFFFFFFFFFFFFFFFFFFFFFFFFFFFFFFFFF
310
F000FFFFFFFFFFFFFFFFFFFFFFFFFFFFFFFFFFFFFFFFFFFFFFFFFFFFFFFFFFFF
310
FFFFFFFFFFFFFFFFFFFFFFFFFFFFFFFFFFFFFFFFFFFFFFFFFFFFFFFFFFFFFFFF
310
FFFFFFFFFFFFFFFFFFFFFFFFFFFFFFFFFFFFFFFFFFFFFFFFF000FFFFFFFFFFFF
310
FFFFFFFFFFFFFFFFFFFFFFFFFFFFFFFFFFFFFFFFFFFFFFFFFFFFFFFFFFFFFFFF
310
FFFFFFFFFFFFFFFFFFFFFFFFFFFFFFFFFFFFFFFFFFFFFFFFFFFFFFFFFFFFFFFF
310
FFFFFFFFFFFFFFFFFFFFFFFFFFFFFFFFF000FFFFFFFFFFFFFFFFFFFFFFFFFFFF
310
FFFFFFFFFFFFFFFFFFFFFFFFFFFFFFFFFFFFFFFFFFFFFFFFFFFFFFFFFFFFFFFF
310
FFFFFFFFFFFFFFFFFFFFFFFFFFFFFFFFFFFFFFFFFFFFFFFFFFFFFFFFFFFFFFFF
310
FFFFFFFFFFFFFFFFF000FFFFFFFFFFFFFFFFFFFFFFFFFFFFFFFFFFFFFFFFFFFF
310
FFFFFFFFFFFFFFFFFFFFFFFFFFFFFFFFFFFFFFFFFFFFFFFFFFFFFFFFFFFFFFFF
310
FFFFFFFFFFFFFFFFFFFFFFFFFFFFFFFFFFFFFFFFFFFFFFFFFFFFFFFFFFFFFFFF
310
F000FFFFFFFFFFFFFFFFFFFFFFFFFFFFFFFFFFFFFFFFFFFFFFFFFFFFFFFFFFFF
310
FFFFFFFFFFFFFFFFFFFFFFFFFFFFFFFFFFFFFFFFFFFFFFFFFFFFFFFFFFFFFFFF
310
FFFFFFFFFFFFFFFFFFFFFFFFFFFFFFFFFFFFFFFFFFFFFFFFF000FFFFFFFFFFFF
310
FFFFFFFFFFFFFFFFFFFFFFFFFFFFFFFFFFFFFFFFFFFFFFFFFFFFFFFFFFFFFFFF
310
FFFFFFFFFFFFFFFFFFFFFFFFFFFFFFFFFFFFFFFFFFFFFFFFFFFFFFFFFFFFFFFF
310
FFFFFFFFFFFFFFFFFFFFFFFFFFFFFFFFF000FFFFFFFFFFFFFFFFFFFFFFFFFFFF
310
FFFFFFFFFFFFFFFFFFFFFFFFFFFFFFFFFFFFFFFFFFFFFFFFFFFFFFFFFFFFFFFF
310
FFFFFFFFFFFFFFFFFFFFFFFFFFFFFFFFFFFFFFFFFFFFFFFFFFFFFFFFFFFFFFFF
310
FFFFFFFFFFFFFFFFF000FFFFFFFFFFFFFFFFFFFFFFFFFFFFFFFFFFFFFFFFFFFF
310
FFFFFFFFFFFFFFFFFFFFFFFFFFFFFFFFFFFFFFFFFFFFFFFFFFFFFFFFFFFFFFFF
310
FFFFFFFFFFFFFFFFFFFFFFFFFFFFFFFFFFFFFFFFFFFFFFFFFFFFFFFFFFFFFFFF
310
F000FFFFFFFFFFFFFFFFFFFFFFFFFFFFFFFFFFFFFFFFFFFFFFFFFFFFFFFFFFFF
310
FFFFFFFFFFFFFFFFFFFFFFFFFFFFFFFFFFFFFFFFFFFFFFFFFFFFFFFFFFFFFFFF
310
FFFFFFFFFFFFFFFFFFFFFFFFFFFFFFFFFFFFFFFFFFFFFFFFF000FFFFFFFFFFFF
310
FFFFFFFFFFFFFFFFFFFFFFFFFFFFFFFFFFFFFFFFFFFFFFFFFFFFFFFFFFFFFFFF
310
FFFFFFFFFFFFFFFFFFFFFFFFFFFFFFFFFFFFFFFFFFFFFFFFFFFFFFFFFFFFFFFF
310
FFFFFFFFFFFFFFFFFFFFFFFFFFFFFFFFF0000000000000000000000000000000
310
0000000000000000000000000000000000000000000000000000000000000000
310
0000000000000000000000000000000000000000000000000000000000000000
310
0000000000000000000000000000000000000000000000000000000000000000
310
0000000000000000000000000000000000000000000000000000000000000000
310
0000000000000000000000000000000000000000000000000000000000000000
310
0000000000000000000000000000000000000000000000000000000000000000
310
0000000000000000000000000000000000000000000000000000000000000000
310
0000000000000000000000000000000000000000000000000000000000000000
310
0000000000000000000000000000000000000000000000000000000000000000
310
0000000000000000000000000000000000000000000000000000000000000000
310
0000000000000000000000000000000000000000000000000000000000000000
310
0000000000000000000000000000000000000000000000000000000000000000
310
0000000000000000000000000000000000000000000000000000000000000000
310
0000000000000000000000000000000000000000000000000000000000000000
310
0000000000000000000000000000000000000000000000000000000000000000
  1
OLE
  0
ENDSEC
  0
SECTION
  2
OBJECTS
  0
DICTIONARY
  5
C
330
0
100
AcDbDictionary
281
     1
  3
ACAD_GROUP
350
D
  3
ACAD_LAYOUT
350
1A
  3
ACAD_MLINESTYLE
350
17
  3
ACAD_PLOTSETTINGS
350
19
  3
ACAD_PLOTSTYLENAME
350
E
  3
ACAD_SCALELIST
350
47
  0
DICTIONARY
  5
D
102
{ACAD_REACTORS
330
C
102
}
330
C
100
AcDbDictionary
281
     1
  0
DICTIONARY
  5
1A
102
{ACAD_REACTORS
330
C
102
}
330
C
100
AcDbDictionary
281
     1
  3
Layout1
350
1E
  3
Layout2
350
26
  3
Model
350
22
  0
DICTIONARY
  5
17
102
{ACAD_REACTORS
330
C
102
}
330
C
100
AcDbDictionary
281
     1
  3
Standard
350
18
  0
DICTIONARY
  5
19
102
{ACAD_REACTORS
330
C
102
}
330
C
100
AcDbDictionary
281
     1
  0
ACDBDICTIONARYWDFLT
  5
E
102
{ACAD_REACTORS
330
C
102
}
330
C
100
AcDbDictionary
281
     1
  3
Normal
350
F
100
AcDbDictionaryWithDefault
340
F
  0
DICTIONARY
  5
47
102
{ACAD_REACTORS
330
C
102
}
330
C
100
AcDbDictionary
281
     1
  3
A0
350
48
  3
A1
350
49
  3
A2
350
4A
  3
A3
350
4B
  3
A4
350
4C
  3
A5
350
4D
  3
A6
350
4E
  3
A7
350
4F
  3
A8
350
50
  3
A9
350
51
  3
B0
350
52
  3
B1
350
53
  3
B2
350
54
  3
B3
350
55
  3
B4
350
56
  3
B5
350
57
  3
B6
350
58
  3
B7
350
59
  3
B8
350
5A
  3
B9
350
5B
  3
C0
350
5C
  3
C1
350
5D
  3
C2
350
5E
  3
C3
350
5F
  3
C4
350
60
  3
C5
350
61
  3
C6
350
62
  3
C7
350
63
  3
C8
350
64
  3
C9
350
65
  3
D0
350
66
  3
D1
350
67
  3
D2
350
68
  0
LAYOUT
  5
1E
102
{ACAD_REACTORS
330
1A
102
}
330
1A
100
AcDbPlotSettings
  1

  2
none_device
  4

  6

 40
0.0
 41
0.0
 42
0.0
 43
0.0
 44
0.0
 45
0.0
 46
0.0
 47
0.0
 48
0.0
 49
0.0
140
0.0
141
0.0
142
1.0
143
1.0
 70
   688
 72
     1
 73
     0
 74
     5
  7

 75
    16
147
1.0
148
0.0
149
0.0
100
AcDbLayout
  1
Layout1
 70
     1
 71
     1
 10
0.0
 20
0.0
 11
420.0
 21
297.0
 12
0.0
 22
0.0
 32
0.0
 14
1.0000000000E+20
 24
1.0000000000E+20
 34
1.0000000000E+20
 15
-1.0000000000E+20
 25
-1.0000000000E+20
 35
-1.0000000000E+20
146
0.0
 13
0.0
 23
0.0
 33
0.0
 16
1.0
 26
0.0
 36
0.0
 17
0.0
 27
1.0
 37
0.0
 76
     0
330
1B
  0
LAYOUT
  5
26
102
{ACAD_REACTORS
330
1A
102
}
330
1A
100
AcDbPlotSettings
  1

  2
none_device
  4

  6

 40
0.0
 41
0.0
 42
0.0
 43
0.0
 44
0.0
 45
0.0
 46
0.0
 47
0.0
 48
0.0
 49
0.0
140
0.0
141
0.0
142
1.0
143
1.0
 70
   688
 72
     1
 73
     0
 74
     5
  7

 75
    16
147
1.0
148
0.0
149
0.0
100
AcDbLayout
  1
Layout2
 70
     1
 71
     2
 10
0.0
 20
0.0
 11
0.0
 21
0.0
 12
0.0
 22
0.0
 32
0.0
 14
0.0
 24
0.0
 34
0.0
 15
0.0
 25
0.0
 35
0.0
146
0.0
 13
0.0
 23
0.0
 33
0.0
 16
1.0
 26
0.0
 36
0.0
 17
0.0
 27
1.0
 37
0.0
 76
     0
330
23
  0
LAYOUT
  5
22
102
{ACAD_REACTORS
330
1A
102
}
330
1A
100
AcDbPlotSettings
  1

  2
none_device
  4
Letter_(8.50_x_11.00_Inches)
  6

 40
6.35
 41
6.35
 42
6.35000508
 43
6.35000508
 44
215.9
 45
279.4
 46
0.0
 47
0.0
 48
0.0
 49
0.0
140
0.0
141
0.0
142
1.0
143
1.0
 70
  1712
 72
     1
 73
     0
 74
     0
  7

 75
     0
147
1.0
148
0.0
149
0.0
100
AcDbLayout
  1
Model
 70
     1
 71
     0
 10
0.0
 20
0.0
 11
297.0
 21
210.0
 12
0.0
 22
0.0
 32
0.0
 14
0.0
 24
0.0
 34
0.0
 15
297.0
 25
210.0
 35
0.0
146
0.0
 13
0.0
 23
0.0
 33
0.0
 16
1.0
 26
0.0
 36
0.0
 17
0.0
 27
1.0
 37
0.0
 76
     0
330
1F
331
29
  0
MLINESTYLE
  5
18
102
{ACAD_REACTORS
330
17
102
}
330
17
100
AcDbMlineStyle
  2
Standard
 70
     0
  3

 62
   256
 51
90.0
 52
90.0
 71
     2
 49
0.5
 62
   256
  6
BYLAYER
 49
-0.5
 62
   256
  6
BYLAYER
  0
ACDBPLACEHOLDER
  5
F
102
{ACAD_REACTORS
330
E
102
}
330
E
  0
SCALE
  5
48
102
{ACAD_REACTORS
330
47
102
}
330
47
100
AcDbScale
 70
     0
300
1:1
140
1.0
141
1.0
290
     1
  0
SCALE
  5
49
102
{ACAD_REACTORS
330
47
102
}
330
47
100
AcDbScale
 70
     0
300
1:2
140
1.0
141
2.0
290
     0
  0
SCALE
  5
4A
102
{ACAD_REACTORS
330
47
102
}
330
47
100
AcDbScale
 70
     0
300
1:4
140
1.0
141
4.0
290
     0
  0
SCALE
  5
4B
102
{ACAD_REACTORS
330
47
102
}
330
47
100
AcDbScale
 70
     0
300
1:5
140
1.0
141
5.0
290
     0
  0
SCALE
  5
4C
102
{ACAD_REACTORS
330
47
102
}
330
47
100
AcDbScale
 70
     0
300
1:8
140
1.0
141
8.0
290
     0
  0
SCALE
  5
4D
102
{ACAD_REACTORS
330
47
102
}
330
47
100
AcDbScale
 70
     0
300
1:10
140
1.0
141
10.0
290
     0
  0
SCALE
  5
4E
102
{ACAD_REACTORS
330
47
102
}
330
47
100
AcDbScale
 70
     0
300
1:16
140
1.0
141
16.0
290
     0
  0
SCALE
  5
4F
102
{ACAD_REACTORS
330
47
102
}
330
47
100
AcDbScale
 70
     0
300
1:20
140
1.0
141
20.0
290
     0
  0
SCALE
  5
50
102
{ACAD_REACTORS
330
47
102
}
330
47
100
AcDbScale
 70
     0
300
1:30
140
1.0
141
30.0
290
     0
  0
SCALE
  5
51
102
{ACAD_REACTORS
330
47
102
}
330
47
100
AcDbScale
 70
     0
300
1:40
140
1.0
141
40.0
290
     0
  0
SCALE
  5
52
102
{ACAD_REACTORS
330
47
102
}
330
47
100
AcDbScale
 70
     0
300
1:50
140
1.0
141
50.0
290
     0
  0
SCALE
  5
53
102
{ACAD_REACTORS
330
47
102
}
330
47
100
AcDbScale
 70
     0
300
1:100
140
1.0
141
100.0
290
     0
  0
SCALE
  5
54
102
{ACAD_REACTORS
330
47
102
}
330
47
100
AcDbScale
 70
     0
300
2:1
140
2.0
141
1.0
290
     0
  0
SCALE
  5
55
102
{ACAD_REACTORS
330
47
102
}
330
47
100
AcDbScale
 70
     0
300
4:1
140
4.0
141
1.0
290
     0
  0
SCALE
  5
56
102
{ACAD_REACTORS
330
47
102
}
330
47
100
AcDbScale
 70
     0
300
8:1
140
8.0
141
1.0
290
     0
  0
SCALE
  5
57
102
{ACAD_REACTORS
330
47
102
}
330
47
100
AcDbScale
 70
     0
300
10:1
140
10.0
141
1.0
290
     0
  0
SCALE
  5
58
102
{ACAD_REACTORS
330
47
102
}
330
47
100
AcDbScale
 70
     0
300
100:1
140
100.0
141
1.0
290
     0
  0
SCALE
  5
59
102
{ACAD_REACTORS
330
47
102
}
330
47
100
AcDbScale
 70
     0
300
1/128" = 1'-0"
140
0.0078125
141
12.0
290
     0
  0
SCALE
  5
5A
102
{ACAD_REACTORS
330
47
102
}
330
47
100
AcDbScale
 70
     0
300
1/64" = 1'-0"
140
0.015625
141
12.0
290
     0
  0
SCALE
  5
5B
102
{ACAD_REACTORS
330
47
102
}
330
47
100
AcDbScale
 70
     0
300
1/32" = 1'-0"
140
0.03125
141
12.0
290
     0
  0
SCALE
  5
5C
102
{ACAD_REACTORS
330
47
102
}
330
47
100
AcDbScale
 70
     0
300
1/16" = 1'-0"
140
0.0625
141
12.0
290
     0
  0
SCALE
  5
5D
102
{ACAD_REACTORS
330
47
102
}
330
47
100
AcDbScale
 70
     0
300
3/32" = 1'-0"
140
0.09375
141
12.0
290
     0
  0
SCALE
  5
5E
102
{ACAD_REACTORS
330
47
102
}
330
47
100
AcDbScale
 70
     0
300
1/8" = 1'-0"
140
0.125
141
12.0
290
     0
  0
SCALE
  5
5F
102
{ACAD_REACTORS
330
47
102
}
330
47
100
AcDbScale
 70
     0
300
3/16" = 1'-0"
140
0.1875
141
12.0
290
     0
  0
SCALE
  5
60
102
{ACAD_REACTORS
330
47
102
}
330
47
100
AcDbScale
 70
     0
300
1/4" = 1'-0"
140
0.25
141
12.0
290
     0
  0
SCALE
  5
61
102
{ACAD_REACTORS
330
47
102
}
330
47
100
AcDbScale
 70
     0
300
3/8" = 1'-0"
140
0.375
141
12.0
290
     0
  0
SCALE
  5
62
102
{ACAD_REACTORS
330
47
102
}
330
47
100
AcDbScale
 70
     0
300
1/2" = 1'-0"
140
0.5
141
12.0
290
     0
  0
SCALE
  5
63
102
{ACAD_REACTORS
330
47
102
}
330
47
100
AcDbScale
 70
     0
300
3/4" = 1'-0"
140
0.75
141
12.0
290
     0
  0
SCALE
  5
64
102
{ACAD_REACTORS
330
47
102
}
330
47
100
AcDbScale
 70
     0
300
1" = 1'-0"
140
1.0
141
12.0
290
     0
  0
SCALE
  5
65
102
{ACAD_REACTORS
330
47
102
}
330
47
100
AcDbScale
 70
     0
300
1-1/2" = 1'-0"
140
1.5
141
12.0
290
     0
  0
SCALE
  5
66
102
{ACAD_REACTORS
330
47
102
}
330
47
100
AcDbScale
 70
     0
300
3" = 1'-0"
140
3.0
141
12.0
290
     0
  0
SCALE
  5
67
102
{ACAD_REACTORS
330
47
102
}
330
47
100
AcDbScale
 70
     0
300
6" = 1'-0"
140
6.0
141
12.0
290
     0
  0
SCALE
  5
68
102
{ACAD_REACTORS
330
47
102
}
330
47
100
AcDbScale
 70
     0
300
1'-0" = 1'-0"
140
12.0
141
12.0
290
     0
  0
ENDSEC
  0
EOF
