  0
SECTION
  2
HEADER
  9
$ACADVER
  1
AC1015
  9
$ACADMAINTVER
 70
     6
  9
$DWGCODEPAGE
  3
ANSI_1252
  9
$INSBASE
 10
0.0
 20
0.0
 30
0.0
  9
$EXTMIN
 10
0.0
 20
0.0
 30
0.0
  9
$EXTMAX
 10
297.0
 20
210.0
 30
0.0
  9
$LIMMIN
 10
0.0
 20
0.0
  9
$LIMMAX
 10
297.0
 20
210.0
  9
$ORTHOMODE
 70
     0
  9
$REGENMODE
 70
     1
  9
$FILLMODE
 70
     1
  9
$QTEXTMODE
 70
     0
  9
$MIRRTEXT
 70
     1
  9
$LTSCALE
 40
1.0
  9
$ATTMODE
 70
     1
  9
$TEXTSIZE
 40
2.0
  9
$TRACEWID
 40
1.0
  9
$TEXTSTYLE
  7
Standard
  9
$CLAYER
  8
0
  9
$CELTYPE
  6
ByLayer
  9
$CECOLOR
 62
   256
  9
$CELTSCALE
 40
1.0
  9
$DISPSILH
 70
     0
  9
$DIMSCALE
 40
1.0
  9
$DIMASZ
 40
3.0
  9
$DIMEXO
 40
0.0
  9
$DIMDLI
 40
3.75
  9
$DIMRND
 40
0.0
  9
$DIMDLE
 40
0.0
  9
$DIMEXE
 40
1.0
  9
$DIMTP
 40
0.0
  9
$DIMTM
 40
0.0
  9
$DIMTXT
 40
2.0
  9
$DIMCEN
 40
2.5
  9
$DIMTSZ
 40
0.0
  9
$DIMTOL
 70
     0
  9
$DIMLIM
 70
     0
  9
$DIMTIH
 70
     1
  9
$DIMTOH
 70
     1
  9
$DIMSE1
 70
     0
  9
$DIMSE2
 70
     0
  9
$DIMTAD
 70
     1
  9
$DIMZIN
 70
     0
  9
$DIMBLK
  1

  9
$DIMASO
 70
     1
  9
$DIMSHO
 70
     1
  9
$DIMPOST
  1

  9
$DIMAPOST
  1

  9
$DIMALT
 70
     0
  9
$DIMALTD
 70
     3
  9
$DIMALTF
 40
0.0393700787
  9
$DIMLFAC
 40
1.0
  9
$DIMTOFL
 70
     1
  9
$DIMTVP
 40
0.0
  9
$DIMTIX
 70
     0
  9
$DIMSOXD
 70
     0
  9
$DIMSAH
 70
     0
  9
$DIMBLK1
  1

  9
$DIMBLK2
  1

  9
$DIMSTYLE
  2
ISO-25
  9
$DIMCLRD
 70
     0
  9
$DIMCLRE
 70
     0
  9
$DIMCLRT
 70
     0
  9
$DIMTFAC
 40
1.0
  9
$DIMGAP
 40
1.524
  9
$DIMJUST
 70
     0
  9
$DIMSD1
 70
     0
  9
$DIMSD2
 70
     0
  9
$DIMTOLJ
 70
     0
  9
$DIMTZIN
 70
     0
  9
$DIMALTZ
 70
     0
  9
$DIMALTTZ
 70
     0
  9
$DIMUPT
 70
     0
  9
$DIMDEC
 70
     2
  9
$DIMTDEC
 70
     3
  9
$DIMALTU
 70
     2
  9
$DIMALTTD
 70
     3
  9
$DIMTXSTY
  7
Standard
  9
$DIMAUNIT
 70
     0
  9
$DIMADEC
 70
     2
  9
$DIMALTRND
 40
0.0
  9
$DIMAZIN
 70
     0
  9
$DIMDSEP
 70
    44
  9
$DIMATFIT
 70
     3
  9
$DIMFRAC
 70
     0
  9
$DIMLDRBLK
  1

  9
$DIMLUNIT
 70
     2
  9
$DIMLWD
 70
    -2
  9
$DIMLWE
 70
    -2
  9
$DIMTMOVE
 70
     0
  9
$LUNITS
 70
     2
  9
$LUPREC
 70
     2
  9
$SKETCHINC
 40
1.0
  9
$FILLETRAD
 40
10.0
  9
$AUNITS
 70
     0
  9
$AUPREC
 70
     2
  9
$MENU
  1
.
  9
$ELEVATION
 40
0.0
  9
$PELEVATION
 40
0.0
  9
$THICKNESS
 40
0.0
  9
$LIMCHECK
 70
     0
  9
$CHAMFERA
 40
0.0
  9
$CHAMFERB
 40
0.0
  9
$CHAMFERC
 40
0.0
  9
$CHAMFERD
 40
0.0
  9
$SKPOLY
 70
     0
  9
$TDCREATE
 40
2457667.63074044
  9
$TDUCREATE
 40
2457667.547407106
  9
$TDUPDATE
 40
2457667.630741597
  9
$TDUUPDATE
 40
2457667.547408264
  9
$TDINDWG
 40
0.0000000116
  9
$TDUSRTIMER
 40
0.0000000116
  9
$USRTIMER
 70
     1
  9
$ANGBASE
 50
0.0
  9
$ANGDIR
 70
     0
  9
$PDMODE
 70
     0
  9
$PDSIZE
 40
-1.0
  9
$PLINEWID
 40
0.0
  9
$SPLFRAME
 70
     0
  9
$SPLINETYPE
 70
     6
  9
$SPLINESEGS
 70
     8
  9
$HANDSEED
  5
21D
  9
$SURFTAB1
 70
     6
  9
$SURFTAB2
 70
     6
  9
$SURFTYPE
 70
     6
  9
$SURFU
 70
     6
  9
$SURFV
 70
     6
  9
$UCSBASE
  2

  9
$UCSNAME
  2

  9
$UCSORG
 10
0.0
 20
0.0
 30
0.0
  9
$UCSXDIR
 10
1.0
 20
0.0
 30
0.0
  9
$UCSYDIR
 10
0.0
 20
1.0
 30
0.0
  9
$UCSORTHOREF
  2

  9
$UCSORTHOVIEW
 70
     0
  9
$UCSORGTOP
 10
0.0
 20
0.0
 30
0.0
  9
$UCSORGBOTTOM
 10
0.0
 20
0.0
 30
0.0
  9
$UCSORGLEFT
 10
0.0
 20
0.0
 30
0.0
  9
$UCSORGRIGHT
 10
0.0
 20
0.0
 30
0.0
  9
$UCSORGFRONT
 10
0.0
 20
0.0
 30
0.0
  9
$UCSORGBACK
 10
0.0
 20
0.0
 30
0.0
  9
$PUCSBASE
  2

  9
$PUCSNAME
  2

  9
$PUCSORG
 10
0.0
 20
0.0
 30
0.0
  9
$PUCSXDIR
 10
1.0
 20
0.0
 30
0.0
  9
$PUCSYDIR
 10
0.0
 20
1.0
 30
0.0
  9
$PUCSORTHOREF
  2

  9
$PUCSORTHOVIEW
 70
     0
  9
$PUCSORGTOP
 10
0.0
 20
0.0
 30
0.0
  9
$PUCSORGBOTTOM
 10
0.0
 20
0.0
 30
0.0
  9
$PUCSORGLEFT
 10
0.0
 20
0.0
 30
0.0
  9
$PUCSORGRIGHT
 10
0.0
 20
0.0
 30
0.0
  9
$PUCSORGFRONT
 10
0.0
 20
0.0
 30
0.0
  9
$PUCSORGBACK
 10
0.0
 20
0.0
 30
0.0
  9
$USERI1
 70
     0
  9
$USERI2
 70
     0
  9
$USERI3
 70
     0
  9
$USERI4
 70
     0
  9
$USERI5
 70
     0
  9
$USERR1
 40
0.0
  9
$USERR2
 40
0.0
  9
$USERR3
 40
0.0
  9
$USERR4
 40
0.0
  9
$USERR5
 40
0.0
  9
$WORLDVIEW
 70
     1
  9
$SHADEDGE
 70
     3
  9
$SHADEDIF
 70
    70
  9
$TILEMODE
 70
     1
  9
$MAXACTVP
 70
    64
  9
$PINSBASE
 10
0.0
 20
0.0
 30
0.0
  9
$PLIMCHECK
 70
     0
  9
$PEXTMIN
 10
1.0000000000E+20
 20
1.0000000000E+20
 30
1.0000000000E+20
  9
$PEXTMAX
 10
-1.0000000000E+20
 20
-1.0000000000E+20
 30
-1.0000000000E+20
  9
$PLIMMIN
 10
0.0
 20
0.0
  9
$PLIMMAX
 10
420.0
 20
297.0
  9
$UNITMODE
 70
     0
  9
$VISRETAIN
 70
     1
  9
$PLINEGEN
 70
     0
  9
$PSLTSCALE
 70
     1
  9
$TREEDEPTH
 70
  3020
  9
$CMLSTYLE
  2
Standard
  9
$CMLJUST
 70
     0
  9
$CMLSCALE
 40
20.0
  9
$PROXYGRAPHICS
 70
     1
  9
$MEASUREMENT
 70
     1
  9
$CELWEIGHT
370
    -1
  9
$ENDCAPS
280
     0
  9
$JOINSTYLE
280
     0
  9
$LWDISPLAY
290
     1
  9
$INSUNITS
 70
     4
  9
$HYPERLINKBASE
  1

  9
$STYLESHEET
  1

  9
$XEDIT
290
     1
  9
$CEPSNTYPE
380
     0
  9
$PSTYLEMODE
290
     1
  9
$FINGERPRINTGUID
  2
{36AC13AC-DBF5-430B-8F5D-BC89BA90736E}
  9
$VERSIONGUID
  2
{FAEB1C32-E019-11D5-929B-00C0DF256EC4}
  9
$EXTNAMES
290
     1
  9
$PSVPSCALE
 40
0.0
  9
$OLESTARTUP
290
     0
  0
ENDSEC
  0
SECTION
  2
CLASSES
  0
CLASS
  1
ACDBDICTIONARYWDFLT
  2
AcDbDictionaryWithDefault
  3
ObjectDBX Classes
 90
        0
280
     0
281
     0
  0
CLASS
  1
VISUALSTYLE
  2
AcDbVisualStyle
  3
ObjectDBX Classes
 90
     4095
280
     0
281
     0
  0
CLASS
  1
MATERIAL
  2
AcDbMaterial
  3
ObjectDBX Classes
 90
     1153
280
     0
281
     0
  0
CLASS
  1
SCALE
  2
AcDbScale
  3
ObjectDBX Classes
 90
     1153
280
     0
281
     0
  0
CLASS
  1
TABLESTYLE
  2
AcDbTableStyle
  3
ObjectDBX Classes
 90
     4095
280
     0
281
     0
  0
CLASS
  1
MLEADERSTYLE
  2
AcDbMLeaderStyle
  3
ACDB_MLEADERSTYLE_CLASS
 90
     4095
280
     0
281
     0
  0
CLASS
  1
SUN
  2
AcDbSun
  3
SCENEOE
 90
     1153
280
     0
281
     0
  0
CLASS
  1
ACDBPLACEHOLDER
  2
AcDbPlaceHolder
  3
ObjectDBX Classes
 90
        0
280
     0
281
     0
  0
CLASS
  1
LAYOUT
  2
AcDbLayout
  3
ObjectDBX Classes
 90
        0
280
     0
281
     0
  0
ENDSEC
  0
SECTION
  2
TABLES
  0
TABLE
  2
VPORT
  5
8
330
0
100
AcDbSymbolTable
 70
     1
  0
VPORT
  5
29
330
8
100
AcDbSymbolTableRecord
100
AcDbViewportTableRecord
  2
*Active
 70
     0
 10
0.0
 20
0.0
 11
1.0
 21
1.0
 12
148.5
 22
105.0
 13
0.0
 23
0.0
 14
10.0
 24
10.0
 15
10.0
 25
10.0
 16
0.0
 26
0.0
 36
1.0
 17
0.0
 27
0.0
 37
0.0
 40
210.0
 41
1.4142857143
 42
50.0
 43
0.0
 44
0.0
 50
0.0
 51
0.0
 71
     0
 72
  2000
 73
     1
 74
     3
 75
     0
 76
     0
 77
     0
 78
     0
281
     0
 65
     1
110
0.0
120
0.0
130
0.0
111
1.0
121
0.0
131
0.0
112
0.0
122
1.0
132
0.0
 79
     0
146
0.0
  0
ENDTAB
  0
TABLE
  2
LTYPE
  5
5
330
0
100
AcDbSymbolTable
 70
     6
  0
LTYPE
  5
14
330
5
100
AcDbSymbolTableRecord
100
AcDbLinetypeTableRecord
  2
ByBlock
 70
     0
  3

 72
    65
 73
     0
 40
0.0
  0
LTYPE
  5
15
330
5
100
AcDbSymbolTableRecord
100
AcDbLinetypeTableRecord
  2
ByLayer
 70
     0
  3

 72
    65
 73
     0
 40
0.0
  0
LTYPE
  5
16
330
5
100
AcDbSymbolTableRecord
100
AcDbLinetypeTableRecord
  2
Continuous
 70
     0
  3
Solid line
 72
    65
 73
     0
 40
0.0
  0
LTYPE
  5
6E
330
5
100
AcDbSymbolTableRecord
100
AcDbLinetypeTableRecord
  2
HIDDEN
 70
     0
  3
Hidden __ __ __ __ __ __ __ __ __ __ __ __ __ __
 72
    65
 73
     2
 40
1.905
 49
1.27
 74
     0
 49
-0.635
 74
     0
  0
LTYPE
  5
6F
330
5
100
AcDbSymbolTableRecord
100
AcDbLinetypeTableRecord
  2
PHANTOM
 70
     0
  3
Phantom ______  __  __  ______  __  __  ______
 72
    65
 73
     6
 40
12.7
 49
6.35
 74
     0
 49
-1.27
 74
     0
 49
1.27
 74
     0
 49
-1.27
 74
     0
 49
1.27
 74
     0
 49
-1.27
 74
     0
  0
LTYPE
  5
70
330
5
100
AcDbSymbolTableRecord
100
AcDbLinetypeTableRecord
  2
CENTER
 70
     0
  3
Center ____ _ ____ _ ____ _ ____ _ ____ _ ____
 72
    65
 73
     4
 40
10.16
 49
6.35
 74
     0
 49
-1.27
 74
     0
 49
1.27
 74
     0
 49
-1.27
 74
     0
  0
LTYPE
  5
71
330
5
100
AcDbSymbolTableRecord
100
AcDbLinetypeTableRecord
  2
CENTERX2
 70
     0
  3
Center (2x) ________  __  ________  __  _____
 72
    65
 73
     4
 40
20.32
 49
12.7
 74
     0
 49
-2.54
 74
     0
 49
2.54
 74
     0
 49
-2.54
 74
     0
  0
LTYPE
  5
72
330
5
100
AcDbSymbolTableRecord
100
AcDbLinetypeTableRecord
  2
DOT2
 70
     0
  3
Dot (.5x) ........................................
 72
    65
 73
     2
 40
0.635
 49
0.0
 74
     0
 49
-0.635
 74
     0
  0
ENDTAB
  0
TABLE
  2
LAYER
  5
2
330
0
100
AcDbSymbolTable
 70
     5
  0
LAYER
  5
10
330
2
100
AcDbSymbolTableRecord
100
AcDbLayerTableRecord
  2
0
 70
     0
 62
     7
  6
Continuous
370
    -3
390
F
  0
LAYER
  5
73
330
2
100
AcDbSymbolTableRecord
100
AcDbLayerTableRecord
  2
FORMAT
 70
     0
 62
     7
  6
Continuous
370
    -3
390
F
  0
LAYER
  5
74
330
2
100
AcDbSymbolTableRecord
100
AcDbLayerTableRecord
  2
VERMASSUNG
 70
     0
 62
     7
  6
Continuous
370
    -3
390
F
  0
LAYER
  5
75
330
2
100
AcDbSymbolTableRecord
100
AcDbLayerTableRecord
  2
KOPF_DÜNN
 70
     0
 62
     7
  6
Continuous
370
    -3
390
F
  0
LAYER
  5
76
330
2
100
AcDbSymbolTableRecord
100
AcDbLayerTableRecord
  2
KOPF_DICK
 70
     0
 62
     7
  6
Continuous
370
    15
390
F
  0
ENDTAB
  0
TABLE
  2
STYLE
  5
3
330
0
100
AcDbSymbolTable
 70
     2
  0
STYLE
  5
11
330
3
100
AcDbSymbolTableRecord
100
AcDbTextStyleTableRecord
  2
Standard
 70
     0
 40
0.0
 41
1.0
 50
0.0
 71
     0
 42
2.0
  3
txt
  4

  0
STYLE
  5
77
330
3
100
AcDbSymbolTableRecord
100
AcDbTextStyleTableRecord
  2
SLDTEXTSTYLE0
 70
     0
 40
0.0
 41
0.7
 50
0.0
 71
     0
 42
2.0
  3
TXT
  4

  0
ENDTAB
  0
TABLE
  2
VIEW
  5
6
330
0
100
AcDbSymbolTable
 70
     0
  0
ENDTAB
  0
TABLE
  2
UCS
  5
7
330
0
100
AcDbSymbolTable
 70
     0
  0
ENDTAB
  0
TABLE
  2
APPID
  5
9
330
0
100
AcDbSymbolTable
 70
     1
  0
APPID
  5
12
330
9
100
AcDbSymbolTableRecord
100
AcDbRegAppTableRecord
  2
ACAD
 70
     0
  0
ENDTAB
  0
TABLE
  2
DIMSTYLE
  5
A
330
0
100
AcDbSymbolTable
 70
     2
100
AcDbDimStyleTable
  0
DIMSTYLE
105
27
330
A
100
AcDbSymbolTableRecord
100
AcDbDimStyleTableRecord
  2
ISO-25
 70
     0
 41
2.5
 42
0.625
 43
3.75
 44
1.25
 73
     0
 74
     0
 77
     1
 78
     8
140
2.5
141
2.5
143
0.0393700787
147
0.625
171
     3
172
     1
178
     0
271
     2
272
     2
274
     3
278
    44
283
     0
284
     8
340
11
  0
DIMSTYLE
105
128
102
{ACAD_REACTORS
330
127
330
134
330
13F
330
14B
330
155
330
161
102
}
330
A
100
AcDbSymbolTableRecord
100
AcDbDimStyleTableRecord
  2
SLDDIMSTYLE0
 70
     0
 41
3.0
 44
0.0
 45
0.000000001
 73
     0
 74
     0
 77
     1
 78
    12
 79
     3
140
2.0
147
0.5
173
     1
178
     0
271
     2
272
     3
276
     2
284
    12
340
77
  0
ENDTAB
  0
TABLE
  2
BLOCK_RECORD
  5
1
330
0
100
AcDbSymbolTable
 70
     7
  0
BLOCK_RECORD
  5
1F
330
1
100
AcDbSymbolTableRecord
100
AcDbBlockTableRecord
  2
*Model_Space
340
22
  0
BLOCK_RECORD
  5
1B
330
1
100
AcDbSymbolTableRecord
100
AcDbBlockTableRecord
  2
*Paper_Space
340
1E
  0
BLOCK_RECORD
  5
23
330
1
100
AcDbSymbolTableRecord
100
AcDbBlockTableRecord
  2
*Paper_Space0
340
26
  0
BLOCK_RECORD
  5
129
330
1
100
AcDbSymbolTableRecord
100
AcDbBlockTableRecord
  2
_D
340
0
  0
BLOCK_RECORD
  5
135
330
1
100
AcDbSymbolTableRecord
100
AcDbBlockTableRecord
  2
_D_1
340
0
  0
BLOCK_RECORD
  5
140
330
1
100
AcDbSymbolTableRecord
100
AcDbBlockTableRecord
  2
_D_2
340
0
  0
BLOCK_RECORD
  5
14C
330
1
100
AcDbSymbolTableRecord
100
AcDbBlockTableRecord
  2
_D_3
340
0
  0
BLOCK_RECORD
  5
156
330
1
100
AcDbSymbolTableRecord
100
AcDbBlockTableRecord
  2
_D_4
340
0
  0
BLOCK_RECORD
  5
162
330
1
100
AcDbSymbolTableRecord
100
AcDbBlockTableRecord
  2
_D_5
340
0
  0
ENDTAB
  0
ENDSEC
  0
SECTION
  2
BLOCKS
  0
BLOCK
  5
20
330
1F
100
AcDbEntity
  8
0
100
AcDbBlockBegin
  2
*Model_Space
 70
     0
 10
0.0
 20
0.0
 30
0.0
  3
*Model_Space
  1

  0
ENDBLK
  5
21
330
1F
100
AcDbEntity
  8
0
100
AcDbBlockEnd
  0
BLOCK
  5
1C
330
1B
100
AcDbEntity
 67
     1
  8
0
100
AcDbBlockBegin
  2
*Paper_Space
 70
     0
 10
0.0
 20
0.0
 30
0.0
  3
*Paper_Space
  1

  0
ENDBLK
  5
1D
330
1B
100
AcDbEntity
 67
     1
  8
0
100
AcDbBlockEnd
  0
BLOCK
  5
24
330
23
100
AcDbEntity
  8
0
100
AcDbBlockBegin
  2
*Paper_Space0
 70
     0
 10
0.0
 20
0.0
 30
0.0
  3
*Paper_Space0
  1

  0
ENDBLK
  5
25
330
23
100
AcDbEntity
  8
0
100
AcDbBlockEnd
  0
BLOCK
  5
12A
330
129
100
AcDbEntity
  8
0
100
AcDbBlockBegin
  2
_D
 70
     0
 10
0.0
 20
0.0
 30
0.0
  3
_D
  1

  0
SOLID
  5
12C
330
129
100
AcDbEntity
  8
VERMASSUNG
100
AcDbTrace
 10
73.4199693103
 20
57.4345280364
 30
0.0
 11
73.8699693103
 21
60.4345280364
 31
0.0
 12
72.9699693103
 22
60.4345280364
 32
0.0
 13
72.9699693103
 23
60.4345280364
 33
0.0
  0
SOLID
  5
12D
330
129
100
AcDbEntity
  8
VERMASSUNG
100
AcDbTrace
 10
73.4199693103
 20
154.8845280364
 30
0.0
 11
72.9699693103
 21
151.8845280364
 31
0.0
 12
73.8699693103
 22
151.8845280364
 32
0.0
 13
73.8699693103
 23
151.8845280364
 33
0.0
  0
LINE
  5
12E
330
129
100
AcDbEntity
  8
VERMASSUNG
100
AcDbLine
 10
200.0879638421
 20
57.4345280364
 30
0.0
 11
72.4199693103
 21
57.4345280364
 31
0.0
  0
LINE
  5
12F
330
129
100
AcDbEntity
  8
VERMASSUNG
100
AcDbLine
 10
200.0879638421
 20
154.8845280364
 30
0.0
 11
72.4199693103
 21
154.8845280364
 31
0.0
  0
LINE
  5
130
330
129
100
AcDbEntity
  8
VERMASSUNG
100
AcDbLine
 10
73.4199693103
 20
57.4345280364
 30
0.0
 11
73.4199693103
 21
154.8845280364
 31
0.0
  0
MTEXT
  5
131
330
129
100
AcDbEntity
  8
VERMASSUNG
100
AcDbMText
 10
70.6418340541
 20
96.655092403
 30
0.0
 40
2.0
 41
0.0
 71
     1
 72
     1
  1
ISO 50
  7
SLDTEXTSTYLE0
 11
3.391901413832837E-15
 21
1.0
 31
0.0
 73
     1
 44
1.0
  0
MTEXT
  5
132
330
129
100
AcDbEntity
  8
VERMASSUNG
100
AcDbMText
 10
70.8418340054
 20
105.6550920156
 30
0.0
 40
2.0
 41
0.0
 71
     1
 72
     1
  1
%%c
  7
SLDTEXTSTYLE0
 11
3.391901413832837E-15
 21
1.0
 31
0.0
 73
     1
 44
1.0
  0
MTEXT
  5
133
330
129
100
AcDbEntity
  8
VERMASSUNG
100
AcDbMText
 10
70.8418337143
 20
109.2644353485
 30
0.0
 40
2.0
 41
0.0
 71
     1
 72
     1
  1
97.45
  7
SLDTEXTSTYLE0
 11
3.391901413832837E-15
 21
1.0
 31
0.0
 73
     1
 44
1.0
  0
ENDBLK
  5
12B
330
129
100
AcDbEntity
  8
0
100
AcDbBlockEnd
  0
BLOCK
  5
136
330
135
100
AcDbEntity
  8
0
100
AcDbBlockBegin
  2
_D_1
 70
     0
 10
0.0
 20
0.0
 30
0.0
  3
_D_1
  1

  0
SOLID
  5
138
330
135
100
AcDbEntity
  8
VERMASSUNG
100
AcDbTrace
 10
233.7863602603
 20
111.6595280364
 30
0.0
 11
233.3363602603
 21
108.6595280364
 31
0.0
 12
234.2363602603
 22
108.6595280364
 32
0.0
 13
234.2363602603
 23
108.6595280364
 33
0.0
  0
SOLID
  5
139
330
135
100
AcDbEntity
  8
VERMASSUNG
100
AcDbTrace
 10
233.7863602603
 20
100.6595280364
 30
0.0
 11
234.2363602603
 21
103.6595280364
 31
0.0
 12
233.3363602603
 22
103.6595280364
 32
0.0
 13
233.3363602603
 23
103.6595280364
 33
0.0
  0
LINE
  5
13A
330
135
100
AcDbEntity
  8
VERMASSUNG
100
AcDbLine
 10
220.7379638421
 20
111.6595280364
 30
0.0
 11
234.7863602603
 21
111.6595280364
 31
0.0
  0
LINE
  5
13B
330
135
100
AcDbEntity
  8
VERMASSUNG
100
AcDbLine
 10
220.7379638421
 20
100.6595280364
 30
0.0
 11
234.7863602603
 21
100.6595280364
 31
0.0
  0
LINE
  5
13C
330
135
100
AcDbEntity
  8
VERMASSUNG
100
AcDbLine
 10
233.7863602603
 20
111.6595280364
 30
0.0
 11
233.7863602603
 21
100.6595280364
 31
0.0
  0
MTEXT
  5
13D
330
135
100
AcDbEntity
  8
VERMASSUNG
100
AcDbMText
 10
231.2082247226
 20
103.3557360694
 30
0.0
 40
2.0
 41
0.0
 71
     1
 72
     1
  1
%%c
  7
SLDTEXTSTYLE0
 11
-7.044195017643634E-15
 21
1.0
 31
0.0
 73
     1
 44
1.0
  0
MTEXT
  5
13E
330
135
100
AcDbEntity
  8
VERMASSUNG
100
AcDbMText
 10
231.2082246644
 20
106.964708263
 30
0.0
 40
2.0
 41
0.0
 71
     1
 72
     1
  1
11
  7
SLDTEXTSTYLE0
 11
-7.044195017643634E-15
 21
1.0
 31
0.0
 73
     1
 44
1.0
  0
ENDBLK
  5
137
330
135
100
AcDbEntity
  8
0
100
AcDbBlockEnd
  0
BLOCK
  5
141
330
140
100
AcDbEntity
  8
0
100
AcDbBlockBegin
  2
_D_2
 70
     0
 10
0.0
 20
0.0
 30
0.0
  3
_D_2
  1

  0
ARC
  5
143
330
140
100
AcDbEntity
  8
VERMASSUNG
100
AcDbCircle
 10
212.7747573539
 20
160.2692252927
 30
0.0
 40
4.247059938537348
100
AcDbArc
 50
153.4349488229
 51
206.5650511771
  0
ARC
  5
144
330
140
100
AcDbEntity
  8
VERMASSUNG
100
AcDbCircle
 10
214.5511703302
 20
160.2692252927
 30
0.0
 40
4.247059938537323
100
AcDbArc
 50
333.4349488229
 51
26.5650511771
  0
SOLID
  5
145
330
140
100
AcDbEntity
  8
VERMASSUNG
100
AcDbTrace
 10
200.6879638421
 20
158.3698823473
 30
0.0
 11
203.6879638421
 21
157.9198823473
 31
0.0
 12
203.6879638421
 22
158.8198823473
 32
0.0
 13
203.6879638421
 23
158.8198823473
 33
0.0
  0
SOLID
  5
146
330
140
100
AcDbEntity
  8
VERMASSUNG
100
AcDbTrace
 10
226.6379638421
 20
158.3698823473
 30
0.0
 11
223.6379638421
 21
158.8198823473
 31
0.0
 12
223.6379638421
 22
157.9198823473
 32
0.0
 13
223.6379638421
 23
157.9198823473
 33
0.0
  0
LINE
  5
147
330
140
100
AcDbEntity
  8
VERMASSUNG
100
AcDbLine
 10
200.6879638421
 20
152.4545149896
 30
0.0
 11
200.6879638421
 21
159.3698823473
 31
0.0
  0
LINE
  5
148
330
140
100
AcDbEntity
  8
VERMASSUNG
100
AcDbLine
 10
226.6379638421
 20
115.9595280364
 30
0.0
 11
226.6379638421
 21
159.3698823473
 31
0.0
  0
LINE
  5
149
330
140
100
AcDbEntity
  8
VERMASSUNG
100
AcDbLine
 10
200.6879638421
 20
158.3698823473
 30
0.0
 11
226.6379638421
 21
158.3698823473
 31
0.0
  0
MTEXT
  5
14A
330
140
100
AcDbEntity
  8
VERMASSUNG
100
AcDbMText
 10
210.5635714631
 20
160.9480179433
 30
0.0
 40
2.0
 41
0.0
 71
     1
 72
     1
  1
25.95
  7
SLDTEXTSTYLE0
 73
     1
 44
1.0
  0
ENDBLK
  5
142
330
140
100
AcDbEntity
  8
0
100
AcDbBlockEnd
  0
BLOCK
  5
14D
330
14C
100
AcDbEntity
  8
0
100
AcDbBlockBegin
  2
_D_3
 70
     0
 10
0.0
 20
0.0
 30
0.0
  3
_D_3
  1

  0
SOLID
  5
14F
330
14C
100
AcDbEntity
  8
VERMASSUNG
100
AcDbTrace
 10
181.6379638421
 20
164.3698823473
 30
0.0
 11
184.6379638421
 21
163.9198823473
 31
0.0
 12
184.6379638421
 22
164.8198823473
 32
0.0
 13
184.6379638421
 23
164.8198823473
 33
0.0
  0
SOLID
  5
150
330
14C
100
AcDbEntity
  8
VERMASSUNG
100
AcDbTrace
 10
226.6379638421
 20
164.3698823473
 30
0.0
 11
223.6379638421
 21
164.8198823473
 31
0.0
 12
223.6379638421
 22
163.9198823473
 32
0.0
 13
223.6379638421
 23
163.9198823473
 33
0.0
  0
LINE
  5
151
330
14C
100
AcDbEntity
  8
VERMASSUNG
100
AcDbLine
 10
181.6379638421
 20
141.0845280364
 30
0.0
 11
181.6379638421
 21
165.3698823473
 31
0.0
  0
LINE
  5
152
330
14C
100
AcDbEntity
  8
VERMASSUNG
100
AcDbLine
 10
226.6379638421
 20
115.9595280364
 30
0.0
 11
226.6379638421
 21
165.3698823473
 31
0.0
  0
LINE
  5
153
330
14C
100
AcDbEntity
  8
VERMASSUNG
100
AcDbLine
 10
181.6379638421
 20
164.3698823473
 30
0.0
 11
226.6379638421
 21
164.3698823473
 31
0.0
  0
MTEXT
  5
154
330
14C
100
AcDbEntity
  8
VERMASSUNG
100
AcDbMText
 10
202.6390050367
 20
166.9480179433
 30
0.0
 40
2.0
 41
0.0
 71
     1
 72
     1
  1
45
  7
SLDTEXTSTYLE0
 73
     1
 44
1.0
  0
ENDBLK
  5
14E
330
14C
100
AcDbEntity
  8
0
100
AcDbBlockEnd
  0
BLOCK
  5
157
330
156
100
AcDbEntity
  8
0
100
AcDbBlockBegin
  2
_D_4
 70
     0
 10
0.0
 20
0.0
 30
0.0
  3
_D_4
  1

  0
ARC
  5
159
330
156
100
AcDbEntity
  8
VERMASSUNG
100
AcDbCircle
 10
152.5501291356
 20
172.2692252927
 30
0.0
 40
4.247059938537323
100
AcDbArc
 50
153.4349488229
 51
206.5650511771
  0
ARC
  5
15A
330
156
100
AcDbEntity
  8
VERMASSUNG
100
AcDbCircle
 10
154.1257985486
 20
172.2692252927
 30
0.0
 40
4.247059938537297
100
AcDbArc
 50
333.4349488229
 51
26.5650511771
  0
SOLID
  5
15B
330
156
100
AcDbEntity
  8
VERMASSUNG
100
AcDbTrace
 10
80.0379638421
 20
170.3698823473
 30
0.0
 11
83.0379638421
 21
169.9198823473
 31
0.0
 12
83.0379638421
 22
170.8198823473
 32
0.0
 13
83.0379638421
 23
170.8198823473
 33
0.0
  0
SOLID
  5
15C
330
156
100
AcDbEntity
  8
VERMASSUNG
100
AcDbTrace
 10
226.6379638421
 20
170.3698823473
 30
0.0
 11
223.6379638421
 21
170.8198823473
 31
0.0
 12
223.6379638421
 22
169.9198823473
 32
0.0
 13
223.6379638421
 23
169.9198823473
 33
0.0
  0
LINE
  5
15D
330
156
100
AcDbEntity
  8
VERMASSUNG
100
AcDbLine
 10
80.0379638421
 20
124.5383725638
 30
0.0
 11
80.0379638421
 21
171.3698823473
 31
0.0
  0
LINE
  5
15E
330
156
100
AcDbEntity
  8
VERMASSUNG
100
AcDbLine
 10
226.6379638421
 20
115.9595280364
 30
0.0
 11
226.6379638421
 21
171.3698823473
 31
0.0
  0
LINE
  5
15F
330
156
100
AcDbEntity
  8
VERMASSUNG
100
AcDbLine
 10
80.0379638421
 20
170.3698823473
 30
0.0
 11
226.6379638421
 21
170.3698823473
 31
0.0
  0
MTEXT
  5
160
330
156
100
AcDbEntity
  8
VERMASSUNG
100
AcDbMText
 10
150.3389432448
 20
172.9480179433
 30
0.0
 40
2.0
 41
0.0
 71
     1
 72
     1
  1
146.6
  7
SLDTEXTSTYLE0
 73
     1
 44
1.0
  0
ENDBLK
  5
158
330
156
100
AcDbEntity
  8
0
100
AcDbBlockEnd
  0
BLOCK
  5
163
330
162
100
AcDbEntity
  8
0
100
AcDbBlockBegin
  2
_D_5
 70
     0
 10
0.0
 20
0.0
 30
0.0
  3
_D_5
  1

  0
SOLID
  5
165
330
162
100
AcDbEntity
  8
VERMASSUNG
100
AcDbTrace
 10
239.7863602603
 20
116.1595280364
 30
0.0
 11
239.3363602603
 21
113.1595280364
 31
0.0
 12
240.2363602603
 22
113.1595280364
 32
0.0
 13
240.2363602603
 23
113.1595280364
 33
0.0
  0
SOLID
  5
166
330
162
100
AcDbEntity
  8
VERMASSUNG
100
AcDbTrace
 10
239.7863602603
 20
96.1595280364
 30
0.0
 11
240.2363602603
 21
99.1595280364
 31
0.0
 12
239.3363602603
 22
99.1595280364
 32
0.0
 13
239.3363602603
 23
99.1595280364
 33
0.0
  0
LINE
  5
167
330
162
100
AcDbEntity
  8
VERMASSUNG
100
AcDbLine
 10
226.4379638421
 20
116.1595280364
 30
0.0
 11
240.7863602603
 21
116.1595280364
 31
0.0
  0
LINE
  5
168
330
162
100
AcDbEntity
  8
VERMASSUNG
100
AcDbLine
 10
226.4379638421
 20
96.1595280364
 30
0.0
 11
240.7863602603
 21
96.1595280364
 31
0.0
  0
LINE
  5
169
330
162
100
AcDbEntity
  8
VERMASSUNG
100
AcDbLine
 10
239.7863602603
 20
116.1595280364
 30
0.0
 11
239.7863602603
 21
96.1595280364
 31
0.0
  0
MTEXT
  5
16A
330
162
100
AcDbEntity
  8
VERMASSUNG
100
AcDbMText
 10
237.0082250041
 20
100.2545284748
 30
0.0
 40
2.0
 41
0.0
 71
     1
 72
     1
  1
ST1
  7
SLDTEXTSTYLE0
 11
-7.044195017643634E-15
 21
1.0
 31
0.0
 73
     1
 44
1.0
  0
MTEXT
  5
16B
330
162
100
AcDbEntity
  8
VERMASSUNG
100
AcDbMText
 10
237.2082249554
 20
105.6545286149
 30
0.0
 40
2.0
 41
0.0
 71
     1
 72
     1
  1
%%c
  7
SLDTEXTSTYLE0
 11
-7.044195017643634E-15
 21
1.0
 31
0.0
 73
     1
 44
1.0
  0
MTEXT
  5
16C
330
162
100
AcDbEntity
  8
VERMASSUNG
100
AcDbMText
 10
237.0082250041
 20
109.2645286292
 30
0.0
 40
2.0
 41
0.0
 71
     1
 72
     1
  1
20
  7
SLDTEXTSTYLE0
 11
-7.044195017643634E-15
 21
1.0
 31
0.0
 73
     1
 44
1.0
  0
ENDBLK
  5
164
330
162
100
AcDbEntity
  8
0
100
AcDbBlockEnd
  0
ENDSEC
  0
SECTION
  2
ENTITIES
  0
MTEXT
  5
78
330
1F
100
AcDbEntity
  8
KOPF_DÜNN
100
AcDbMText
 10
13.8892156294
 20
23.8442973028
 30
0.0
 40
3.0
 41
0.0
 71
     1
 72
     1
  1
114.450.020.045
  7
SLDTEXTSTYLE0
 73
     1
 44
1.0
  0
MTEXT
  5
79
330
1F
100
AcDbEntity
  8
VERMASSUNG
100
AcDbMText
 10
13.9329988022
 20
28.8834360957
 30
0.0
 40
3.0
 41
0.0
 71
     1
 72
     1
  1
Aufnahme_Master shank ST1
  7
SLDTEXTSTYLE0
 73
     1
 44
1.0
  0
MTEXT
  5
7A
330
1F
100
AcDbEntity
  8
VERMASSUNG
100
AcDbMText
 10
98.8601118557
 20
13.8365368761
 30
0.0
 40
2.0
 41
0.0
 71
     1
 72
     1
  1
Datum: 14.05.2008
  7
SLDTEXTSTYLE0
 73
     1
 44
1.0
  0
MTEXT
  5
7B
330
1F
100
AcDbEntity
  8
VERMASSUNG
100
AcDbMText
 10
13.933048693
 20
18.0482802738
 30
0.0
 40
2.0
 41
0.0
 71
     1
 72
     1
  1
DIN 69871 A/D ISO 50
  7
SLDTEXTSTYLE0
 73
     1
 44
1.0
  0
MTEXT
  5
7C
330
1F
100
AcDbEntity
  8
VERMASSUNG
100
AcDbMText
 10
13.9808475933
 20
13.9090974274
 30
0.0
 40
2.0
 41
0.0
 71
     1
 72
     1
  1
Gewicht: 2717g
  7
SLDTEXTSTYLE0
 73
     1
 44
1.0
  0
ARC
  5
7D
330
1F
100
AcDbEntity
  8
0
  6
Continuous
 62
     7
370
    15
100
AcDbCircle
 10
184.2379638421
 20
70.6345280364
 30
0.0
 40
0.5999999999999943
100
AcDbArc
 50
0.0
 51
90.0
  0
ARC
  5
7E
330
1F
100
AcDbEntity
  8
0
  6
Continuous
 62
     7
370
    15
100
AcDbCircle
 10
184.2379638421
 20
141.6845280364
 30
0.0
 40
0.6000000000000227
100
AcDbArc
 50
270.0
 51
0.0
  0
LINE
  5
7F
330
1F
100
AcDbEntity
  8
0
  6
Continuous
 62
     7
370
    15
100
AcDbLine
 10
181.6379638421
 20
141.0845280364
 30
0.0
 11
81.7493500559
 21
126.5174385259
 31
0.0
  0
LINE
  5
80
330
1F
100
AcDbEntity
  8
0
  6
Continuous
 62
     7
370
    15
100
AcDbLine
 10
81.7493500559
 20
85.8016175469
 30
0.0
 11
181.6379638421
 21
71.2345280364
 31
0.0
  0
LINE
  5
81
330
1F
100
AcDbEntity
  8
0
  6
Continuous
 62
     7
370
    15
100
AcDbLine
 10
181.6379638421
 20
71.2345280364
 30
0.0
 11
184.2379638421
 21
71.2345280364
 31
0.0
  0
LINE
  5
82
330
1F
100
AcDbEntity
  8
0
  6
Continuous
 62
     7
370
    15
100
AcDbLine
 10
184.2379638421
 20
141.0845280364
 30
0.0
 11
181.6379638421
 21
141.0845280364
 31
0.0
  0
ARC
  5
83
330
1F
100
AcDbEntity
  8
0
  6
Continuous
 62
     7
370
    15
100
AcDbCircle
 10
82.0379638421
 20
87.780683509
 30
0.0
 40
1.999999999999992
100
AcDbArc
 50
180.0
 51
261.7028550302
  0
ARC
  5
84
330
1F
100
AcDbEntity
  8
0
  6
Continuous
 62
     7
370
    15
100
AcDbCircle
 10
82.0379638421
 20
124.5383725638
 30
0.0
 40
1.999999999999986
100
AcDbArc
 50
98.2971449698
 51
180.0
  0
ARC
  5
85
330
1F
100
AcDbEntity
  8
0
  6
Continuous
 62
     7
370
    15
100
AcDbCircle
 10
204.6879638421
 20
92.1595280364
 30
0.0
 40
4.0
100
AcDbArc
 50
90.0
 51
180.0
  0
ARC
  5
86
330
1F
100
AcDbEntity
  8
0
  6
Continuous
 62
     7
370
    15
100
AcDbCircle
 10
204.6879638421
 20
120.1595280364
 30
0.0
 40
4.0
100
AcDbArc
 50
180.0
 51
270.0
  0
LINE
  5
87
330
1F
100
AcDbEntity
  8
0
  6
Continuous
 62
     7
370
    15
100
AcDbLine
 10
226.4379638421
 20
96.1595280364
 30
0.0
 11
226.6379638421
 21
96.3595280364
 31
0.0
  0
LINE
  5
88
330
1F
100
AcDbEntity
  8
0
  6
Continuous
 62
     7
370
    15
100
AcDbLine
 10
226.6379638421
 20
115.9595280364
 30
0.0
 11
226.4379638421
 21
116.1595280364
 31
0.0
  0
LINE
  5
89
330
1F
100
AcDbEntity
  8
0
  6
Continuous
 62
     7
370
    15
100
AcDbLine
 10
226.4379638421
 20
116.1595280364
 30
0.0
 11
204.6879638421
 21
116.1595280364
 31
0.0
  0
LINE
  5
8A
330
1F
100
AcDbEntity
  8
0
  6
Continuous
 62
     7
370
    15
100
AcDbLine
 10
204.6879638421
 20
96.1595280364
 30
0.0
 11
226.4379638421
 21
96.1595280364
 31
0.0
  0
SPLINE
  5
8B
330
1F
100
AcDbEntity
  8
0
  6
Continuous
 62
     7
370
    15
100
AcDbSpline
210
0.0
220
0.0
230
1.0
 70
    24
 71
     3
 72
    11
 73
     7
 74
     0
 42
0.000000001
 43
0.00000001
 40
0.0
 40
0.0
 40
0.0
 40
0.0
 40
0.1208913875340444
 40
0.4766714197330086
 40
0.8143663490172377
 40
1.0
 40
1.0
 40
1.0
 40
1.0
 10
220.7641537769289
 20
105.3504110424518
 30
0.0
 10
220.753223658834
 20
105.3927219907114
 30
0.0
 10
220.7101265034746
 20
105.5595528972678
 30
0.0
 10
220.6288491134934
 20
105.874181102773
 30
0.0
 10
220.5397831457404
 20
106.2189592214132
 30
0.0
 10
220.4922158693934
 20
106.4030941548956
 30
0.0
 10
220.475342938106
 20
106.4684099837356
 30
0.0
  0
SPLINE
  5
8C
330
1F
100
AcDbEntity
  8
0
  6
Continuous
 62
     7
370
    15
100
AcDbSpline
210
0.0
220
0.0
230
1.0
 70
    24
 71
     3
 72
    12
 73
     8
 74
     0
 42
0.000000001
 43
0.00000001
 40
0.0
 40
0.0
 40
0.0
 40
0.0
 40
0.2161749794961621
 40
0.4397398576192409
 40
0.5933978550174082
 40
0.7521914951466021
 40
1.0
 40
1.0
 40
1.0
 40
1.0
 10
221.8767746808963
 20
105.0415290951188
 30
0.0
 10
221.8005972053643
 20
105.062677221045
 30
0.0
 10
221.6456381424685
 20
105.105696417371
 30
0.0
 10
221.4178184368836
 20
105.1689429320203
 30
0.0
 10
221.2095245468616
 20
105.2267687576345
 30
0.0
 10
220.9955820007528
 20
105.286162743514
 30
0.0
 10
220.8517897011625
 20
105.3260818618324
 30
0.0
 10
220.7641537769289
 20
105.3504110424518
 30
0.0
  0
SPLINE
  5
8D
330
1F
100
AcDbEntity
  8
0
  6
Continuous
 62
     7
370
    15
100
AcDbSpline
210
0.0
220
0.0
230
1.0
 70
    24
 71
     3
 72
    12
 73
     8
 74
     0
 42
0.000000001
 43
0.00000001
 40
0.0
 40
0.0
 40
0.0
 40
0.0
 40
0.216174979496156
 40
0.4397398576192395
 40
0.5933978550174155
 40
0.7521914951466041
 40
1.0
 40
1.0
 40
1.0
 40
1.0
 10
222.7005847460407
 20
105.8506460890697
 30
0.0
 10
222.6441811939802
 20
105.7952485230259
 30
0.0
 10
222.5294459456636
 20
105.6825596361745
 30
0.0
 10
222.360763004484
 20
105.5168852409799
 30
0.0
 10
222.2065374254964
 20
105.365410353575
 30
0.0
 10
222.0481294518383
 20
105.2098276666342
 30
0.0
 10
221.9416623314828
 20
105.1052594414795
 30
0.0
 10
221.8767746808963
 20
105.0415290951188
 30
0.0
  0
SPLINE
  5
8E
330
1F
100
AcDbEntity
  8
0
  6
Continuous
 62
     7
370
    15
100
AcDbSpline
210
0.0
220
0.0
230
1.0
 70
    24
 71
     3
 72
    13
 73
     9
 74
     0
 42
0.000000001
 43
0.00000001
 40
0.0
 40
0.0
 40
0.0
 40
0.0
 40
0.1850976431720925
 40
0.3515068187791739
 40
0.523247680792568
 40
0.6982027647879832
 40
0.8794576802541327
 40
1.0
 40
1.0
 40
1.0
 40
1.0
 10
222.4117739072178
 20
106.9686450303535
 30
0.0
 10
222.4286701123403
 20
106.9032391075159
 30
0.0
 10
222.4607565895654
 20
106.77903100053
 30
0.0
 10
222.5118286651595
 20
106.5813288413035
 30
0.0
 10
222.5635782440326
 20
106.3810040383015
 30
0.0
 10
222.6164869495085
 20
106.1761922073195
 30
0.0
 10
222.6622454838615
 20
105.9990589904024
 30
0.0
 10
222.6896421205012
 20
105.8930054541749
 30
0.0
 10
222.7005847460407
 20
105.8506460890697
 30
0.0
  0
CIRCLE
  5
8F
330
1F
100
AcDbEntity
  8
0
  6
Continuous
 62
     7
370
    15
100
AcDbCircle
 10
221.5879638421
 20
106.1595280364
 30
0.0
 40
1.249999999999969
  0
SPLINE
  5
90
330
1F
100
AcDbEntity
  8
0
  6
Continuous
 62
     7
370
    15
100
AcDbSpline
210
0.0
220
0.0
230
1.0
 70
    24
 71
     3
 72
    12
 73
     8
 74
     0
 42
0.000000001
 43
0.00000001
 40
0.0
 40
0.0
 40
0.0
 40
0.0
 40
0.2161749794961652
 40
0.4397398576192385
 40
0.5933978550174117
 40
0.7521914951465957
 40
1.0
 40
1.0
 40
1.0
 40
1.0
 10
220.475342938106
 20
106.4684099837356
 30
0.0
 10
220.5317464901665
 20
106.5238075497794
 30
0.0
 10
220.6464817384831
 20
106.6364964366308
 30
0.0
 10
220.8151646796627
 20
106.8021708318254
 30
0.0
 10
220.9693902586504
 20
106.9536457192304
 30
0.0
 10
221.1277982323084
 20
107.1092284061712
 30
0.0
 10
221.234265352664
 20
107.2137966313258
 30
0.0
 10
221.2991530032505
 20
107.2775269776865
 30
0.0
  0
SPLINE
  5
91
330
1F
100
AcDbEntity
  8
0
  6
Continuous
 62
     7
370
    15
100
AcDbSpline
210
0.0
220
0.0
230
1.0
 70
    24
 71
     3
 72
    10
 73
     6
 74
     0
 42
0.000000001
 43
0.00000001
 40
0.0
 40
0.0
 40
0.0
 40
0.0
 40
0.439105167106173
 40
0.7513578980692709
 40
1.0
 40
1.0
 40
1.0
 40
1.0
 10
221.2991530032505
 20
107.2775269776865
 30
0.0
 10
221.4584287812532
 20
107.2333093899196
 30
0.0
 10
221.7309673955495
 20
107.1576481672991
 30
0.0
 10
222.1271569288515
 20
107.0476594064167
 30
0.0
 10
222.3243563222975
 20
106.9929135963719
 30
0.0
 10
222.4117739072178
 20
106.9686450303535
 30
0.0
  0
CIRCLE
  5
92
330
1F
100
AcDbEntity
  8
0
  6
Continuous
 62
     7
370
    15
100
AcDbCircle
 10
221.5879638421
 20
106.1595280364
 30
0.0
 40
1.750000000000006
  0
ARC
  5
93
330
1F
100
AcDbEntity
  8
0
  6
Continuous
 62
     7
370
    15
100
AcDbCircle
 10
221.5879638421
 20
106.1595280364
 30
0.0
 40
0.9999999999999952
100
AcDbArc
 50
194.4844667164
 51
254.4844667164
  0
ARC
  5
94
330
1F
100
AcDbEntity
  8
0
  6
Continuous
 62
     7
370
    15
100
AcDbCircle
 10
221.5879638421
 20
106.1595280364
 30
0.0
 40
1.000000000000006
100
AcDbArc
 50
134.4844667164
 51
194.4844667164
  0
ARC
  5
95
330
1F
100
AcDbEntity
  8
0
  6
Continuous
 62
     7
370
    15
100
AcDbCircle
 10
221.5879638421
 20
106.1595280364
 30
0.0
 40
1.000000000000016
100
AcDbArc
 50
314.4844667164
 51
14.4844667164
  0
ARC
  5
96
330
1F
100
AcDbEntity
  8
0
  6
Continuous
 62
     7
370
    15
100
AcDbCircle
 10
221.5879638421
 20
106.1595280364
 30
0.0
 40
1.000000000000006
100
AcDbArc
 50
74.4844667164
 51
134.4844667164
  0
ARC
  5
97
330
1F
100
AcDbEntity
  8
0
  6
Continuous
 62
     7
370
    15
100
AcDbCircle
 10
221.5879638421
 20
106.1595280364
 30
0.0
 40
0.9999999999999968
100
AcDbArc
 50
14.4844667164
 51
74.4844667164
  0
ARC
  5
98
330
1F
100
AcDbEntity
  8
0
  6
Continuous
 62
     7
370
    15
100
AcDbCircle
 10
221.5879638421
 20
106.1595280364
 30
0.0
 40
1.000000000000016
100
AcDbArc
 50
254.4844667164
 51
314.4844667164
  0
SPLINE
  5
99
330
1F
100
AcDbEntity
  8
0
  6
Continuous
 62
     7
370
    15
100
AcDbSpline
210
0.0
220
0.0
230
1.0
 70
     8
 71
     3
 72
    10
 73
     6
 74
     0
 42
0.000000001
 43
0.00000001
 40
0.0
 40
0.0
 40
0.0
 40
0.0
 40
0.5
 40
0.5
 40
1.0
 40
1.0
 40
1.0
 40
1.0
 10
185.0536238732275
 20
59.52607376921038
 30
0.0
 10
185.1022744418071
 20
59.49811677794297
 30
0.0
 10
185.1596596537665
 20
59.47417449291616
 30
0.0
 10
185.2903727619326
 20
59.44005602982046
 30
0.0
 10
185.3631122956712
 20
59.43026869505661
 30
0.0
 10
185.4379638420734
 20
59.43026869505661
 30
0.0
  0
SPLINE
  5
9A
330
1F
100
AcDbEntity
  8
0
  6
Continuous
 62
     7
370
    15
100
AcDbSpline
210
0.0
220
0.0
230
1.0
 70
     8
 71
     3
 72
    10
 73
     6
 74
     0
 42
0.000000001
 43
0.00000001
 40
0.0
 40
0.0
 40
0.0
 40
0.0
 40
0.5
 40
0.5
 40
1.0
 40
1.0
 40
1.0
 40
1.0
 10
185.0536238732275
 20
59.52607376921038
 30
0.0
 10
184.9954358666452
 20
59.5936574993892
 30
0.0
 10
184.942993400119
 20
59.67413373403095
 30
0.0
 10
184.8646410929403
 20
59.85716935701371
 30
0.0
 10
184.8379638420733
 20
59.96304505980932
 30
0.0
 10
184.8379638420733
 20
60.07055836902995
 30
0.0
  0
LINE
  5
9B
330
1F
100
AcDbEntity
  8
0
  6
Continuous
 62
     7
370
    15
100
AcDbLine
 10
184.8379638421
 20
60.070558369
 30
0.0
 11
184.8379638421
 21
136.0095280364
 31
0.0
  0
SPLINE
  5
9C
330
1F
100
AcDbEntity
  8
0
  6
Continuous
 62
     7
370
    15
100
AcDbSpline
210
0.0
220
0.0
230
1.0
 70
    24
 71
     3
 72
    14
 73
    10
 74
     0
 42
0.000000001
 43
0.00000001
 40
0.0
 40
0.0
 40
0.0
 40
0.0
 40
0.25
 40
0.25
 40
0.5
 40
0.5
 40
0.75
 40
0.75
 40
1.0
 40
1.0
 40
1.0
 40
1.0
 10
185.4379638420734
 20
136.0095280364026
 30
0.0
 10
185.3489418897298
 20
136.0095280364026
 30
0.0
 10
185.2592551904562
 20
136.0095280364026
 30
0.0
 10
185.1055283648989
 20
136.0095280364026
 30
0.0
 10
185.0403234702721
 20
136.0095280364026
 30
0.0
 10
184.9377327761017
 20
136.0095280364026
 30
0.0
 10
184.9000953217858
 20
136.0095280364026
 30
0.0
 10
184.8500034064006
 20
136.0095280364026
 30
0.0
 10
184.8379638420734
 20
136.0095280364026
 30
0.0
 10
184.8379638420734
 20
136.0095280364026
 30
0.0
  0
LINE
  5
9D
330
1F
100
AcDbEntity
  8
0
  6
Continuous
 62
     7
370
    15
100
AcDbLine
 10
185.4379638421
 20
59.4302686951
 30
0.0
 11
189.5048023346
 21
59.4302686951
 31
0.0
  0
LINE
  5
9E
330
1F
100
AcDbEntity
  8
0
  6
Continuous
 62
     7
370
    15
100
AcDbLine
 10
189.5048023346
 20
136.0095280364
 30
0.0
 11
185.4379638421
 21
136.0095280364
 31
0.0
  0
LINE
  5
9F
330
1F
100
AcDbEntity
  8
0
  6
Continuous
 62
     7
370
    15
100
AcDbLine
 10
189.5048023346
 20
59.4302686951
 30
0.0
 11
189.5048023346
 21
136.0095280364
 31
0.0
  0
SPLINE
  5
A0
330
1F
100
AcDbEntity
  8
0
  6
Continuous
 62
     7
370
    15
100
AcDbSpline
210
0.0
220
0.0
230
1.0
 70
     8
 71
     3
 72
     8
 73
     4
 74
     0
 42
0.000000001
 43
0.00000001
 40
0.0
 40
0.0
 40
0.0
 40
0.0
 40
1.0
 40
1.0
 40
1.0
 40
1.0
 10
190.8279638420734
 20
61.53978862757285
 30
0.0
 10
190.5382353960488
 20
61.01756861740931
 30
0.0
 10
190.2482102458311
 20
60.49551523514933
 30
0.0
 10
189.9579160115693
 20
59.97361296942621
 30
0.0
  0
SPLINE
  5
A1
330
1F
100
AcDbEntity
  8
0
  6
Continuous
 62
     7
370
    15
100
AcDbSpline
210
0.0
220
0.0
230
1.0
 70
     8
 71
     3
 72
     8
 73
     4
 74
     0
 42
0.000000001
 43
0.00000001
 40
0.0
 40
0.0
 40
0.0
 40
0.0
 40
0.0011862984959112
 40
0.0011862984959112
 40
0.0011862984959112
 40
0.0011862984959112
 10
189.5048023346115
 20
59.43026869505662
 30
0.0
 10
189.6568270964823
 20
59.6111805446746
 30
0.0
 10
189.8078845416981
 20
59.79229287511543
 30
0.0
 10
189.9579160115693
 20
59.97361296942622
 30
0.0
  0
SPLINE
  5
A2
330
1F
100
AcDbEntity
  8
0
  6
Continuous
 62
     7
370
    15
100
AcDbSpline
210
0.0
220
0.0
230
1.0
 70
    24
 71
     3
 72
     8
 73
     4
 74
     0
 42
0.000000001
 43
0.00000001
 40
0.0
 40
0.0
 40
0.0
 40
0.0
 40
1.0
 40
1.0
 40
1.0
 40
1.0
 10
190.8279638420734
 20
136.0095280364026
 30
0.0
 10
190.3927637373697
 20
136.0095280364026
 30
0.0
 10
189.9514040546309
 20
136.0095280364026
 30
0.0
 10
189.5048023346115
 20
136.0095280364026
 30
0.0
  0
LINE
  5
A3
330
1F
100
AcDbEntity
  8
0
  6
Continuous
 62
     7
370
    15
100
AcDbLine
 10
190.8279638421
 20
61.5397886276
 30
0.0
 11
190.8279638421
 21
136.0095280364
 31
0.0
  0
SPLINE
  5
A4
330
1F
100
AcDbEntity
  8
0
  6
Continuous
 62
     7
370
    15
100
AcDbSpline
210
0.0
220
0.0
230
1.0
 70
     8
 71
     3
 72
    12
 73
     8
 74
     0
 42
0.000000001
 43
0.00000001
 40
0.0
 40
0.0
 40
0.0
 40
0.0
 40
0.2499999999999972
 40
0.2499999999999972
 40
0.4999999999999944
 40
0.4999999999999944
 40
1.0
 40
1.0
 40
1.0
 40
1.0
 10
200.0879638420734
 20
59.43026869505662
 30
0.0
 10
200.1839365952483
 20
59.43026869505662
 30
0.0
 10
200.2763645594027
 20
59.4465420191652
 30
0.0
 10
200.4327946595122
 20
59.49991574116162
 30
0.0
 10
200.4962730842851
 20
59.53604399869595
 30
0.0
 10
200.6445522451122
 20
59.65674519497524
 30
0.0
 10
200.6879638420734
 20
59.75059478134041
 30
0.0
 10
200.6879638420734
 20
59.84489905628762
 30
0.0
  0
SPLINE
  5
A5
330
1F
100
AcDbEntity
  8
0
  6
Continuous
 62
     7
370
    15
100
AcDbSpline
210
0.0
220
0.0
230
1.0
 70
    24
 71
     3
 72
    12
 73
     8
 74
     0
 42
0.000000001
 43
0.00000001
 40
0.0
 40
0.0
 40
0.0
 40
0.0
 40
0.4999999999999972
 40
0.4999999999999972
 40
0.7499999999999986
 40
0.7499999999999986
 40
1.0
 40
1.0
 40
1.0
 40
1.0
 10
200.6879638420734
 20
136.0095280364026
 30
0.0
 10
200.6879638420734
 20
136.0095280364026
 30
0.0
 10
200.639833153688
 20
136.0095280364026
 30
0.0
 10
200.485936097885
 20
136.0095280364027
 30
0.0
 10
200.4204715328782
 20
136.0095280364026
 30
0.0
 10
200.2669422122681
 20
136.0095280364026
 30
0.0
 10
200.1785935515323
 20
136.0095280364026
 30
0.0
 10
200.0879638420732
 20
136.0095280364026
 30
0.0
  0
LINE
  5
A6
330
1F
100
AcDbEntity
  8
0
  6
Continuous
 62
     7
370
    15
100
AcDbLine
 10
200.6879638421
 20
59.8448990563
 30
0.0
 11
200.6879638421
 21
136.0095280364
 31
0.0
  0
SPLINE
  5
A7
330
1F
100
AcDbEntity
  8
0
  6
Continuous
 62
     7
370
    15
100
AcDbSpline
210
0.0
220
0.0
230
1.0
 70
     8
 71
     3
 72
     8
 73
     4
 74
     0
 42
0.000000001
 43
0.00000001
 40
0.0000000000000004
 40
0.0000000000000004
 40
0.0000000000000004
 40
0.0000000000000004
 40
0.0011862984959127
 40
0.0011862984959127
 40
0.0011862984959127
 40
0.0011862984959127
 10
195.5180116725736
 20
59.97361296942622
 30
0.0
 10
195.6680431424449
 20
59.7922928751152
 30
0.0
 10
195.8191005876643
 20
59.61118054467482
 30
0.0
 10
195.9711253495353
 20
59.43026869505662
 30
0.0
  0
SPLINE
  5
A8
330
1F
100
AcDbEntity
  8
0
  6
Continuous
 62
     7
370
    15
100
AcDbSpline
210
0.0
220
0.0
230
1.0
 70
     8
 71
     3
 72
     8
 73
     4
 74
     0
 42
0.000000001
 43
0.00000001
 40
0.0
 40
0.0
 40
0.0
 40
0.0
 40
1.0
 40
1.0
 40
1.0
 40
1.0
 10
195.5180116725766
 20
59.9736129694279
 30
0.0
 10
195.2277174383151
 20
60.49551523515046
 30
0.0
 10
194.9376922880977
 20
61.01756861740987
 30
0.0
 10
194.6479638420734
 20
61.53978862757285
 30
0.0
  0
LINE
  5
A9
330
1F
100
AcDbEntity
  8
0
  6
Continuous
 62
     7
370
    15
100
AcDbLine
 10
194.6479638421
 20
61.5397886276
 30
0.0
 11
194.6479638421
 21
136.0095280364
 31
0.0
  0
SPLINE
  5
AA
330
1F
100
AcDbEntity
  8
0
  6
Continuous
 62
     7
370
    15
100
AcDbSpline
210
0.0
220
0.0
230
1.0
 70
    24
 71
     3
 72
     8
 73
     4
 74
     0
 42
0.000000001
 43
0.00000001
 40
0.0
 40
0.0
 40
0.0
 40
0.0
 40
1.0
 40
1.0
 40
1.0
 40
1.0
 10
195.9711253495353
 20
136.0095280364026
 30
0.0
 10
195.5245236295159
 20
136.0095280364026
 30
0.0
 10
195.0831639467771
 20
136.0095280364026
 30
0.0
 10
194.6479638420734
 20
136.0095280364026
 30
0.0
  0
LINE
  5
AB
330
1F
100
AcDbEntity
  8
0
  6
Continuous
 62
     7
370
    15
100
AcDbLine
 10
195.9711253495
 20
59.4302686951
 30
0.0
 11
195.9711253495
 21
136.0095280364
 31
0.0
  0
LINE
  5
AC
330
1F
100
AcDbEntity
  8
0
  6
Continuous
 62
     7
370
    15
100
AcDbLine
 10
195.9711253495
 20
59.4302686951
 30
0.0
 11
200.0879638421
 21
59.4302686951
 31
0.0
  0
LINE
  5
AD
330
1F
100
AcDbEntity
  8
0
  6
Continuous
 62
     7
370
    15
100
AcDbLine
 10
200.0879638421
 20
136.0095280364
 30
0.0
 11
195.9711253495
 21
136.0095280364
 31
0.0
  0
SPLINE
  5
AE
330
1F
100
AcDbEntity
  8
0
  6
Continuous
 62
     7
370
    15
100
AcDbSpline
210
0.0
220
0.0
230
1.0
 70
     8
 71
     3
 72
    14
 73
    10
 74
     0
 42
0.000000001
 43
0.00000001
 40
0.0
 40
0.0
 40
0.0
 40
0.0
 40
0.25
 40
0.25
 40
0.5
 40
0.5
 40
0.75
 40
0.75
 40
1.0
 40
1.0
 40
1.0
 40
1.0
 10
191.6279638420734
 20
62.51176177053286
 30
0.0
 10
191.5215188341641
 20
62.51176177053284
 30
0.0
 10
191.4146200828907
 20
62.48919222109974
 30
0.0
 10
191.2184018274482
 20
62.40274912985781
 30
0.0
 10
191.1287435139837
 20
62.33844521219068
 30
0.0
 10
190.9832898011026
 20
62.18347569814772
 30
0.0
 10
190.9252540183764
 20
62.09071021190398
 30
0.0
 10
190.8479688639918
 20
61.8922433302606
 30
0.0
 10
190.8279638420734
 20
61.78521890846682
 30
0.0
 10
190.8279638420734
 20
61.67843654799599
 30
0.0
  0
SPLINE
  5
AF
330
1F
100
AcDbEntity
  8
0
  6
Continuous
 62
     7
370
    15
100
AcDbSpline
210
0.0
220
0.0
230
1.0
 70
    24
 71
     3
 72
    14
 73
    10
 74
     0
 42
0.000000001
 43
0.00000001
 40
0.0
 40
0.0
 40
0.0
 40
0.0
 40
0.25
 40
0.25
 40
0.5
 40
0.5
 40
0.75
 40
0.75
 40
1.0
 40
1.0
 40
1.0
 40
1.0
 10
191.6279638420734
 20
136.0095280364026
 30
0.0
 10
191.5049825425271
 20
136.0095280364026
 30
0.0
 10
191.3847926541251
 20
136.0095280364026
 30
0.0
 10
191.1797688244459
 20
136.0095280364026
 30
0.0
 10
191.0931743356438
 20
136.0095280364026
 30
0.0
 10
190.9580664488814
 20
136.0095280364026
 30
0.0
 10
190.9095433638533
 20
136.0095280364026
 30
0.0
 10
190.8438608551265
 20
136.0095280364026
 30
0.0
 10
190.8279638420734
 20
136.0095280364026
 30
0.0
 10
190.8279638420734
 20
136.0095280364026
 30
0.0
  0
SPLINE
  5
B0
330
1F
100
AcDbEntity
  8
0
  6
Continuous
 62
     7
370
    15
100
AcDbSpline
210
0.0
220
0.0
230
1.0
 70
     8
 71
     3
 72
    14
 73
    10
 74
     0
 42
0.000000001
 43
0.00000001
 40
0.0
 40
0.0
 40
0.0
 40
0.0
 40
0.25
 40
0.25
 40
0.5
 40
0.5
 40
0.75
 40
0.75
 40
1.0
 40
1.0
 40
1.0
 40
1.0
 10
194.6479638420734
 20
61.67843654799601
 30
0.0
 10
194.6479638420734
 20
61.78550053433681
 30
0.0
 10
194.6279800158334
 20
61.89223986071132
 30
0.0
 10
194.5505449333999
 20
62.09098976290212
 30
0.0
 10
194.4926060112405
 20
62.18354397939463
 30
0.0
 10
194.3469682054797
 20
62.33864092280022
 30
0.0
 10
194.2581792091443
 20
62.40238107971308
 30
0.0
 10
194.0616308489398
 20
62.48912963680068
 30
0.0
 10
193.9554916192405
 20
62.51176177053284
 30
0.0
 10
193.8479638420734
 20
62.51176177053284
 30
0.0
  0
SPLINE
  5
B1
330
1F
100
AcDbEntity
  8
0
  6
Continuous
 62
     7
370
    15
100
AcDbSpline
210
0.0
220
0.0
230
1.0
 70
    24
 71
     3
 72
    14
 73
    10
 74
     0
 42
0.000000001
 43
0.00000001
 40
0.0
 40
0.0
 40
0.0
 40
0.0
 40
0.25
 40
0.25
 40
0.5
 40
0.5
 40
0.75
 40
0.75
 40
1.0
 40
1.0
 40
1.0
 40
1.0
 10
194.6479638420734
 20
136.0095280364026
 30
0.0
 10
194.6479638420734
 20
136.0095280364026
 30
0.0
 10
194.6316828072976
 20
136.0095280364026
 30
0.0
 10
194.567019744773
 20
136.0095280364026
 30
0.0
 10
194.5175399484843
 20
136.0095280364026
 30
0.0
 10
194.3835701913456
 20
136.0095280364026
 30
0.0
 10
194.2974554647461
 20
136.0095280364026
 30
0.0
 10
194.0919993490331
 20
136.0095280364026
 30
0.0
 10
193.9705788118402
 20
136.0095280364026
 30
0.0
 10
193.8479638420734
 20
136.0095280364026
 30
0.0
  0
LINE
  5
B2
330
1F
100
AcDbEntity
  8
0
  6
Continuous
 62
     7
370
    15
100
AcDbLine
 10
193.8479638421
 20
62.5117617705
 30
0.0
 11
191.6279638421
 21
62.5117617705
 31
0.0
  0
LINE
  5
B3
330
1F
100
AcDbEntity
  8
0
  6
Continuous
 62
     7
370
    15
100
AcDbLine
 10
193.8479638421
 20
136.0095280364
 30
0.0
 11
191.6279638421
 21
136.0095280364
 31
0.0
  0
LINE
  5
B4
330
1F
100
AcDbEntity
  8
0
  6
Continuous
 62
     7
370
    15
100
AcDbLine
 10
181.6379638421
 20
71.2345280364
 30
0.0
 11
181.6379638421
 21
141.0845280364
 31
0.0
  0
LINE
  5
B5
330
1F
100
AcDbEntity
  8
0
  6
Continuous
 62
     7
370
    15
100
AcDbLine
 10
193.8479638421
 20
149.8072943023
 30
0.0
 11
191.6279638421
 21
149.8072943023
 31
0.0
  0
LINE
  5
B6
330
1F
100
AcDbEntity
  8
0
  6
Continuous
 62
     7
370
    15
100
AcDbLine
 10
191.6279638421
 20
140.4994100979
 30
0.0
 11
193.8479638421
 21
140.4994100979
 31
0.0
  0
SPLINE
  5
B7
330
1F
100
AcDbEntity
  8
0
  6
Continuous
 62
     7
370
    15
100
AcDbSpline
210
0.0
220
0.0
230
1.0
 70
     8
 71
     3
 72
    12
 73
     8
 74
     0
 42
0.000000001
 43
0.00000001
 40
0.0
 40
0.0
 40
0.0
 40
0.0
 40
0.2500000000000007
 40
0.2500000000000007
 40
0.5000000000000014
 40
0.5000000000000014
 40
1.0
 40
1.0
 40
1.0
 40
1.0
 10
191.6279638420734
 20
149.8072943022724
 30
0.0
 10
191.5216188621974
 20
149.8072943022724
 30
0.0
 10
191.4143425147949
 20
149.830009540132
 30
0.0
 10
191.2189667253987
 20
149.9160347070143
 30
0.0
 10
191.1304129893218
 20
149.9790134339426
 30
0.0
 10
190.9091550651905
 20
150.2142049443797
 30
0.0
 10
190.8279638420734
 20
150.427381158865
 30
0.0
 10
190.8279638420734
 20
150.6406195248091
 30
0.0
  0
SPLINE
  5
B8
330
1F
100
AcDbEntity
  8
0
  6
Continuous
 62
     7
370
    15
100
AcDbSpline
210
0.0
220
0.0
230
1.0
 70
     8
 71
     3
 72
    12
 73
     8
 74
     0
 42
0.000000001
 43
0.00000001
 40
0.0
 40
0.0
 40
0.0
 40
0.0
 40
0.499999999999994
 40
0.499999999999994
 40
0.749999999999997
 40
0.749999999999997
 40
1.0
 40
1.0
 40
1.0
 40
1.0
 10
190.8279638420734
 20
141.5525711381197
 30
0.0
 10
190.8279638420734
 20
141.3101480421389
 30
0.0
 10
190.8908849835152
 20
141.0643775215375
 30
0.0
 10
191.0929138805177
 20
140.7594313421206
 30
0.0
 10
191.1792076051649
 20
140.6688384755222
 30
0.0
 10
191.3846813997316
 20
140.5384049125854
 30
0.0
 10
191.5046319603313
 20
140.4994100979357
 30
0.0
 10
191.6279638420734
 20
140.4994100979357
 30
0.0
  0
SPLINE
  5
B9
330
1F
100
AcDbEntity
  8
0
  6
Continuous
 62
     7
370
    15
100
AcDbSpline
210
0.0
220
0.0
230
1.0
 70
     8
 71
     3
 72
    12
 73
     8
 74
     0
 42
0.000000001
 43
0.00000001
 40
0.0
 40
0.0
 40
0.0
 40
0.0
 40
0.4999999999999927
 40
0.4999999999999927
 40
0.7499999999999963
 40
0.7499999999999963
 40
1.0
 40
1.0
 40
1.0
 40
1.0
 10
200.6879638420734
 20
152.4545149896331
 30
0.0
 10
200.6879638420734
 20
152.5747075962983
 30
0.0
 10
200.6339954118044
 20
152.6926148968133
 30
0.0
 10
200.4729087708714
 20
152.8319944412966
 30
0.0
 10
200.4081463513983
 20
152.8701597388606
 30
0.0
 10
200.2560923498339
 20
152.924812001194
 30
0.0
 10
200.1733625766847
 20
152.9393726911782
 30
0.0
 10
200.0879638420734
 20
152.9393726911782
 30
0.0
  0
SPLINE
  5
BA
330
1F
100
AcDbEntity
  8
0
  6
Continuous
 62
     7
370
    15
100
AcDbSpline
210
0.0
220
0.0
230
1.0
 70
     8
 71
     3
 72
    12
 73
     8
 74
     0
 42
0.000000001
 43
0.00000001
 40
0.0
 40
0.0
 40
0.0
 40
0.0
 40
0.250000000000004
 40
0.250000000000004
 40
0.500000000000008
 40
0.500000000000008
 40
1.0
 40
1.0
 40
1.0
 40
1.0
 10
200.0879638420739
 20
144.6706059880779
 30
0.0
 10
200.177500900245
 20
144.6706059880777
 30
0.0
 10
200.2674000790336
 20
144.6437786892467
 30
0.0
 10
200.4208249380329
 20
144.5520717239872
 30
0.0
 10
200.4858739954106
 20
144.4878167823884
 30
0.0
 10
200.6391932266749
 20
144.2684046363268
 30
0.0
 10
200.6879638420734
 20
144.0865893265299
 30
0.0
 10
200.6879638420734
 20
143.908609151047
 30
0.0
  0
LINE
  5
BB
330
1F
100
AcDbEntity
  8
0
  6
Continuous
 62
     7
370
    15
100
AcDbLine
 10
200.6879638421
 20
143.908609151
 30
0.0
 11
200.6879638421
 21
152.4545149896
 31
0.0
  0
LINE
  5
BC
330
1F
100
AcDbEntity
  8
0
  6
Continuous
 62
     7
370
    15
100
AcDbLine
 10
189.5048023346
 20
152.9393726912
 30
0.0
 11
185.4379638421
 21
152.9393726912
 31
0.0
  0
LINE
  5
BD
330
1F
100
AcDbEntity
  8
0
  6
Continuous
 62
     7
370
    15
100
AcDbLine
 10
189.5048023346
 20
144.6706059881
 30
0.0
 11
189.5048023346
 21
152.9393726912
 31
0.0
  0
LINE
  5
BE
330
1F
100
AcDbEntity
  8
0
  6
Continuous
 62
     7
370
    15
100
AcDbLine
 10
185.4379638421
 20
144.6706059881
 30
0.0
 11
189.5048023346
 21
144.6706059881
 31
0.0
  0
LINE
  5
BF
330
1F
100
AcDbEntity
  8
0
  6
Continuous
 62
     7
370
    15
100
AcDbLine
 10
200.0879638421
 20
152.9393726912
 30
0.0
 11
195.9711253495
 21
152.9393726912
 31
0.0
  0
LINE
  5
C0
330
1F
100
AcDbEntity
  8
0
  6
Continuous
 62
     7
370
    15
100
AcDbLine
 10
195.9711253495
 20
144.6706059881
 30
0.0
 11
200.0879638421
 21
144.6706059881
 31
0.0
  0
LINE
  5
C1
330
1F
100
AcDbEntity
  8
0
  6
Continuous
 62
     7
370
    15
100
AcDbLine
 10
195.9711253495
 20
144.6706059881
 30
0.0
 11
195.9711253495
 21
152.9393726912
 31
0.0
  0
SPLINE
  5
C2
330
1F
100
AcDbEntity
  8
0
  6
Continuous
 62
     7
370
    15
100
AcDbSpline
210
0.0
220
0.0
230
1.0
 70
     8
 71
     3
 72
    12
 73
     8
 74
     0
 42
0.000000001
 43
0.00000001
 40
0.0
 40
0.0
 40
0.0
 40
0.0
 40
0.5000000000000003
 40
0.5000000000000003
 40
0.7500000000000001
 40
0.7500000000000001
 40
1.0
 40
1.0
 40
1.0
 40
1.0
 10
184.8379638420734
 20
143.908609151047
 30
0.0
 10
184.8379638420734
 20
144.0869694182863
 30
0.0
 10
184.8852759634494
 20
144.2657418299902
 30
0.0
 10
185.0396360413308
 20
144.487503695342
 30
0.0
 10
185.1045215762497
 20
144.5517957339584
 30
0.0
 10
185.259754275478
 20
144.644440218118
 30
0.0
 10
185.3488296881463
 20
144.6706059880779
 30
0.0
 10
185.4379638420734
 20
144.6706059880779
 30
0.0
  0
SPLINE
  5
C3
330
1F
100
AcDbEntity
  8
0
  6
Continuous
 62
     7
370
    15
100
AcDbSpline
210
0.0
220
0.0
230
1.0
 70
     8
 71
     3
 72
     8
 73
     4
 74
     0
 42
0.000000001
 43
0.00000001
 40
0.0
 40
0.0
 40
0.0
 40
0.0
 40
1.0
 40
1.0
 40
1.0
 40
1.0
 10
189.5048023346115
 20
144.6706059880778
 30
0.0
 10
189.9516510625392
 20
143.6913700898215
 30
0.0
 10
190.3930174204351
 20
142.7101680970946
 30
0.0
 10
190.8279638420734
 20
141.7266637787122
 30
0.0
  0
SPLINE
  5
C4
330
1F
100
AcDbEntity
  8
0
  6
Continuous
 62
     7
370
    15
100
AcDbSpline
210
0.0
220
0.0
230
1.0
 70
     8
 71
     3
 72
    14
 73
    10
 74
     0
 42
0.000000001
 43
0.00000001
 40
0.0
 40
0.0
 40
0.0
 40
0.0
 40
0.25
 40
0.25
 40
0.5
 40
0.5
 40
0.75
 40
0.75
 40
1.0
 40
1.0
 40
1.0
 40
1.0
 10
193.8479638420734
 20
140.4994100979357
 30
0.0
 10
193.9692903720592
 20
140.4994100979357
 30
0.0
 10
194.0909950806214
 20
140.5381916133689
 30
0.0
 10
194.2974349595075
 20
140.6693462350628
 30
0.0
 10
194.3833854979636
 20
140.7599983196499
 30
0.0
 10
194.5172972577118
 20
140.9621153545912
 30
0.0
 10
194.566861694531
 20
141.0758502981303
 30
0.0
 10
194.6317157224989
 20
141.3088099151968
 30
0.0
 10
194.6479638420734
 20
141.431508181526
 30
0.0
 10
194.6479638420734
 20
141.5525711381197
 30
0.0
  0
SPLINE
  5
C5
330
1F
100
AcDbEntity
  8
0
  6
Continuous
 62
     7
370
    15
100
AcDbSpline
210
0.0
220
0.0
230
1.0
 70
     8
 71
     3
 72
     8
 73
     4
 74
     0
 42
0.000000001
 43
0.00000001
 40
0.0
 40
0.0
 40
0.0
 40
0.0
 40
1.0
 40
1.0
 40
1.0
 40
1.0
 10
194.6479638420734
 20
141.7266637787122
 30
0.0
 10
195.0829102637118
 20
142.7101680970946
 30
0.0
 10
195.5242766216076
 20
143.6913700898215
 30
0.0
 10
195.9711253495353
 20
144.6706059880778
 30
0.0
  0
LINE
  5
C6
330
1F
100
AcDbEntity
  8
0
  6
Continuous
 62
     7
370
    15
100
AcDbLine
 10
194.6479638421
 20
141.5525711381
 30
0.0
 11
194.6479638421
 21
141.7266637787
 31
0.0
  0
LINE
  5
C7
330
1F
100
AcDbEntity
  8
0
  6
Continuous
 62
     7
370
    15
100
AcDbLine
 10
190.8279638421
 20
141.7266637787
 30
0.0
 11
190.8279638421
 21
141.5525711381
 31
0.0
  0
LINE
  5
C8
330
1F
100
AcDbEntity
  8
0
  6
Continuous
 62
     7
370
    15
100
AcDbLine
 10
200.6879638421
 20
143.908609151
 30
0.0
 11
200.6879638421
 21
136.0095280364
 31
0.0
  0
LINE
  5
C9
330
1F
100
AcDbEntity
  8
0
  6
Continuous
 62
     7
370
    15
100
AcDbLine
 10
184.8379638421
 20
143.908609151
 30
0.0
 11
184.8379638421
 21
136.0095280364
 31
0.0
  0
SPLINE
  5
CA
330
1F
100
AcDbEntity
  8
0
  6
Continuous
 62
     7
370
    15
100
AcDbSpline
210
0.0
220
0.0
230
1.0
 70
     8
 71
     3
 72
     8
 73
     4
 74
     0
 42
0.000000001
 43
0.00000001
 40
0.0
 40
0.0
 40
0.0
 40
0.0
 40
0.0012352705496723
 40
0.0012352705496723
 40
0.0012352705496723
 40
0.0012352705496723
 10
190.061292819906
 20
152.1595612810717
 30
0.0
 10
189.8762575691041
 20
152.4196628568
 30
0.0
 10
189.6907507599333
 20
152.6795969354269
 30
0.0
 10
189.5048023346115
 20
152.9393726911782
 30
0.0
  0
SPLINE
  5
CB
330
1F
100
AcDbEntity
  8
0
  6
Continuous
 62
     7
370
    15
100
AcDbSpline
210
0.0
220
0.0
230
1.0
 70
     8
 71
     3
 72
     8
 73
     4
 74
     0
 42
0.000000001
 43
0.00000001
 40
0.0
 40
0.0
 40
0.0
 40
0.0
 40
1.0
 40
1.0
 40
1.0
 40
1.0
 10
190.8279638420734
 20
150.7792674452324
 30
0.0
 10
190.5726325287681
 20
151.239488465498
 30
0.0
 10
190.3170691306618
 20
151.6995829258064
 30
0.0
 10
190.061292819906
 20
152.1595612810717
 30
0.0
  0
LINE
  5
CC
330
1F
100
AcDbEntity
  8
0
  6
Continuous
 62
     7
370
    15
100
AcDbLine
 10
190.8279638421
 20
141.7266637787
 30
0.0
 11
190.8279638421
 21
150.7792674452
 31
0.0
  0
SPLINE
  5
CD
330
1F
100
AcDbEntity
  8
0
  6
Continuous
 62
     7
370
    15
100
AcDbSpline
210
0.0
220
0.0
230
1.0
 70
     8
 71
     3
 72
    14
 73
    10
 74
     0
 42
0.000000001
 43
0.00000001
 40
0.0
 40
0.0
 40
0.0
 40
0.0
 40
0.25
 40
0.25
 40
0.5
 40
0.5
 40
0.75
 40
0.75
 40
1.0
 40
1.0
 40
1.0
 40
1.0
 10
194.6479638420734
 20
150.6406195248093
 30
0.0
 10
194.6479638420734
 20
150.5332771526618
 30
0.0
 10
194.6279676500092
 20
150.426648145814
 30
0.0
 10
194.5502695656645
 20
150.2274963666628
 30
0.0
 10
194.492276420771
 20
150.1350134683474
 30
0.0
 10
194.3462299279481
 20
149.9797776332382
 30
0.0
 10
194.2568921887805
 20
149.9160436916258
 30
0.0
 10
194.06213717672
 20
149.8302134252306
 30
0.0
 10
193.9546069055111
 20
149.8072943022721
 30
0.0
 10
193.8479638420713
 20
149.8072943022724
 30
0.0
  0
SPLINE
  5
CE
330
1F
100
AcDbEntity
  8
0
  6
Continuous
 62
     7
370
    15
100
AcDbSpline
210
0.0
220
0.0
230
1.0
 70
     8
 71
     3
 72
    10
 73
     6
 74
     0
 42
0.000000001
 43
0.00000001
 40
0.0
 40
0.0
 40
0.0
 40
0.0
 40
0.5
 40
0.5
 40
1.0
 40
1.0
 40
1.0
 40
1.0
 10
185.1278327610197
 20
152.8696923621254
 30
0.0
 10
185.0513796711009
 20
152.7994295909048
 30
0.0
 10
184.9825179488318
 20
152.712334675863
 30
0.0
 10
184.8760057177589
 20
152.5031655476108
 30
0.0
 10
184.8379638420733
 20
152.3778479983712
 30
0.0
 10
184.8379638420733
 20
152.2484977037753
 30
0.0
  0
SPLINE
  5
CF
330
1F
100
AcDbEntity
  8
0
  6
Continuous
 62
     7
370
    15
100
AcDbSpline
210
0.0
220
0.0
230
1.0
 70
     8
 71
     3
 72
     8
 73
     4
 74
     0
 42
0.000000001
 43
0.00000001
 40
0.0
 40
0.0
 40
0.0
 40
0.0
 40
1.0
 40
1.0
 40
1.0
 40
1.0
 10
185.4379638420734
 20
152.9393726911782
 30
0.0
 10
185.326885656736
 20
152.9393726911782
 30
0.0
 10
185.2192216528337
 20
152.9142235156236
 30
0.0
 10
185.1278327610197
 20
152.8696923621254
 30
0.0
  0
LINE
  5
D0
330
1F
100
AcDbEntity
  8
0
  6
Continuous
 62
     7
370
    15
100
AcDbLine
 10
184.8379638421
 20
143.908609151
 30
0.0
 11
184.8379638421
 21
152.2484977038
 31
0.0
  0
SPLINE
  5
D1
330
1F
100
AcDbEntity
  8
0
  6
Continuous
 62
     7
370
    15
100
AcDbSpline
210
0.0
220
0.0
230
1.0
 70
     8
 71
     3
 72
     8
 73
     4
 74
     0
 42
0.000000001
 43
0.00000001
 40
0.0
 40
0.0
 40
0.0
 40
0.0
 40
1.0
 40
1.0
 40
1.0
 40
1.0
 10
195.4146348642398
 20
152.15956128107
 30
0.0
 10
195.1588585534844
 20
151.6995829258053
 30
0.0
 10
194.9032951553784
 20
151.2394884654974
 30
0.0
 10
194.6479638420734
 20
150.7792674452324
 30
0.0
  0
SPLINE
  5
D2
330
1F
100
AcDbEntity
  8
0
  6
Continuous
 62
     7
370
    15
100
AcDbSpline
210
0.0
220
0.0
230
1.0
 70
     8
 71
     3
 72
     8
 73
     4
 74
     0
 42
0.000000001
 43
0.00000001
 40
0.0
 40
0.0
 40
0.0
 40
0.0
 40
0.0012352705496738
 40
0.0012352705496738
 40
0.0012352705496738
 40
0.0012352705496738
 10
195.9711253495353
 20
152.9393726911782
 30
0.0
 10
195.7851769242132
 20
152.6795969354265
 30
0.0
 10
195.5996701150422
 20
152.4196628567992
 30
0.0
 10
195.41463486424
 20
152.1595612810706
 30
0.0
  0
LINE
  5
D3
330
1F
100
AcDbEntity
  8
0
  6
Continuous
 62
     7
370
    15
100
AcDbLine
 10
194.6479638421
 20
141.7266637787
 30
0.0
 11
194.6479638421
 21
150.7792674452
 31
0.0
  0
LINE
  5
D4
330
1F
100
AcDbEntity
  8
0
  6
Continuous
 62
     7
370
    15
100
AcDbLine
 10
80.0379638421
 20
87.780683509
 30
0.0
 11
80.0379638421
 21
124.5383725458
 31
0.0
  0
SPLINE
  5
D5
330
1F
100
AcDbEntity
  8
0
  6
Continuous
 62
     7
370
    15
100
AcDbSpline
210
0.0
220
0.0
230
1.0
 70
    11
 71
     3
 72
    60
 73
    56
 74
     0
 42
0.000000001
 43
0.00000001
 40
0.0
 40
0.0
 40
0.0
 40
0.0
 40
0.0624999999999983
 40
0.0624999999999983
 40
0.0937499999999981
 40
0.0937499999999981
 40
0.1249999999999979
 40
0.1249999999999979
 40
0.1562499999999977
 40
0.1562499999999977
 40
0.1874999999999975
 40
0.1874999999999975
 40
0.2187499999999974
 40
0.2187499999999974
 40
0.2499999999999972
 40
0.2499999999999972
 40
0.2812499999999969
 40
0.2812499999999969
 40
0.3124999999999967
 40
0.3124999999999967
 40
0.3437499999999964
 40
0.3437499999999964
 40
0.3749999999999962
 40
0.3749999999999962
 40
0.4062499999999959
 40
0.4062499999999959
 40
0.4374999999999957
 40
0.4374999999999957
 40
0.4687499999999954
 40
0.4687499999999954
 40
0.4999999999999952
 40
0.4999999999999952
 40
0.531249999999995
 40
0.531249999999995
 40
0.5624999999999948
 40
0.5624999999999948
 40
0.6249999999999956
 40
0.6249999999999956
 40
0.6874999999999963
 40
0.6874999999999963
 40
0.749999999999997
 40
0.749999999999997
 40
0.7812499999999974
 40
0.7812499999999974
 40
0.8124999999999978
 40
0.8124999999999978
 40
0.8437499999999981
 40
0.8437499999999981
 40
0.8749999999999986
 40
0.8749999999999986
 40
0.9062499999999989
 40
0.9062499999999989
 40
0.9374999999999992
 40
0.9374999999999992
 40
1.0
 40
1.0
 40
1.0
 40
1.0
 10
219.9141429106479
 20
107.8239597564136
 30
0.0
 10
220.1567213706154
 20
108.020787882927
 30
0.0
 10
220.430453267403
 20
108.167618653537
 30
0.0
 10
220.8746117562822
 20
108.3149627002887
 30
0.0
 10
221.025293713448
 20
108.3507478900838
 30
0.0
 10
221.3317305663541
 20
108.3967834428584
 30
0.0
 10
221.4889907774773
 20
108.4069373986591
 30
0.0
 10
221.8005270792852
 20
108.4005294118633
 30
0.0
 10
221.9544379626846
 20
108.3842877729655
 30
0.0
 10
222.2585883315443
 20
108.325945395605
 30
0.0
 10
222.4102919984545
 20
108.2831969903825
 30
0.0
 10
222.7003949867591
 20
108.1732086545539
 30
0.0
 10
222.8391353544966
 20
108.1062425610232
 30
0.0
 10
223.1037860926455
 20
107.9476850500794
 30
0.0
 10
223.2308958811089
 20
107.8548489751432
 30
0.0
 10
223.4615696093265
 20
107.649528443151
 30
0.0
 10
223.5659938287693
 20
107.5369269632119
 30
0.0
 10
223.7517249575043
 20
107.2903982886157
 30
0.0
 10
223.8333788430448
 20
107.1549399832428
 30
0.0
 10
223.9628774732931
 20
106.8744585719277
 30
0.0
 10
224.0120444006914
 20
106.7281857952767
 30
0.0
 10
224.0766906729365
 20
106.4225182708026
 30
0.0
 10
224.0911584971003
 20
106.2655774623304
 30
0.0
 10
224.0835714653893
 20
105.955597764295
 30
0.0
 10
224.0612626273019
 20
105.7987135326237
 30
0.0
 10
223.9821227072077
 20
105.4972608250676
 30
0.0
 10
223.9259411281241
 20
105.3526907041783
 30
0.0
 10
223.7816391723342
 20
105.0753029847132
 30
0.0
 10
223.6949371822536
 20
104.9456060995305
 30
0.0
 10
223.4979028682579
 20
104.7068673231651
 30
0.0
 10
223.3859109768977
 20
104.5962424035557
 30
0.0
 10
223.1457019463094
 20
104.4004906341225
 30
0.0
 10
223.0171770689801
 20
104.314570540518
 30
0.0
 10
222.7438009944281
 20
104.1656068644063
 30
0.0
 10
222.5998502756992
 20
104.1033618525657
 30
0.0
 10
222.1592031494577
 20
103.9564908451339
 30
0.0
 10
221.8443504545713
 20
103.9092576789535
 30
0.0
 10
221.2246645374951
 20
103.9212543461053
 30
0.0
 10
220.911869786239
 20
103.9807349387466
 30
0.0
 10
220.3340791150174
 20
104.1991617218878
 30
0.0
 10
220.0610828665109
 20
104.3612291531837
 30
0.0
 10
219.7160800187077
 20
104.6678373652011
 30
0.0
 10
219.6094924506884
 20
104.7825121910801
 30
0.0
 10
219.4225005530209
 20
105.0311223006282
 30
0.0
 10
219.3430722637174
 20
105.1631743723784
 30
0.0
 10
219.2134508991869
 20
105.4435390483285
 30
0.0
 10
219.162985294897
 20
105.5941468289548
 30
0.0
 10
219.0990458073205
 20
105.8984278918503
 30
0.0
 10
219.0846771756783
 20
106.0527779198723
 30
0.0
 10
219.0924955870176
 20
106.3660750737961
 30
0.0
 10
219.1150112266035
 20
106.5220352691725
 30
0.0
 10
219.1940968396946
 20
106.8225298209822
 30
0.0
 10
219.2517140086588
 20
106.9701991081962
 30
0.0
 10
219.4675725221479
 20
107.3835821762453
 30
0.0
 10
219.6715644506803
 20
107.6271316299002
 30
0.0
 10
219.9141429106479
 20
107.8239597564136
 30
0.0
  0
LINE
  5
D6
330
1F
100
AcDbEntity
  8
0
  6
Continuous
 62
     7
370
    15
100
AcDbLine
 10
226.6379638421
 20
106.1595280364
 30
0.0
 11
226.6379638421
 21
96.3595280364
 31
0.0
  0
LINE
  5
D7
330
1F
100
AcDbEntity
  8
0
  6
Continuous
 62
     7
370
    15
100
AcDbLine
 10
226.6379638421
 20
115.9595280364
 30
0.0
 11
226.6379638421
 21
106.1595280364
 31
0.0
  0
LINE
  5
D8
330
1F
100
AcDbEntity
  8
0
  6
Continuous
 62
     7
370
    15
100
AcDbLine
 10
226.4379638421
 20
106.1595280364
 30
0.0
 11
226.4379638421
 21
96.1595280364
 31
0.0
  0
LINE
  5
D9
330
1F
100
AcDbEntity
  8
0
  6
Continuous
 62
     7
370
    15
100
AcDbLine
 10
226.4379638421
 20
116.1595280364
 30
0.0
 11
226.4379638421
 21
106.1595280364
 31
0.0
  0
CIRCLE
  5
DA
330
1F
100
AcDbEntity
  8
0
  6
HIDDEN
 62
     7
370
     0
100
AcDbCircle
 10
221.5879638421
 20
106.1595280364
 30
0.0
 40
1.999999999999982
  0
CIRCLE
  5
DB
330
1F
100
AcDbEntity
  8
0
  6
HIDDEN
 62
     7
370
     0
100
AcDbCircle
 10
221.5879638421
 20
106.1595280364
 30
0.0
 40
1.426794919243121
  0
CIRCLE
  5
DC
330
1F
100
AcDbEntity
  8
0
  6
HIDDEN
 62
     7
370
     0
100
AcDbCircle
 10
221.5879638421
 20
106.1595280364
 30
0.0
 40
1.326794919243102
  0
LINE
  5
DD
330
1F
100
AcDbEntity
  8
0
  6
HIDDEN
 62
     7
370
     0
100
AcDbLine
 10
185.0095367173
 20
70.8595280364
 30
0.0
 11
184.8379638421
 21
70.8595280364
 31
0.0
  0
ELLIPSE
  5
DE
330
1F
100
AcDbEntity
  8
0
  6
HIDDEN
 62
     7
370
     0
100
AcDbEllipse
 10
185.0095367173
 20
68.8595280364
 30
0.0
 11
0.0
 21
2.0
 31
0.0
210
0.0
220
0.0
230
1.0
 40
0.4142135624
 41
4.712388980384695
 42
6.283185307179586
  0
LINE
  5
DF
330
1F
100
AcDbEntity
  8
0
  6
HIDDEN
 62
     7
370
     0
100
AcDbLine
 10
184.8379638421
 20
143.6595280364
 30
0.0
 11
185.0095367173
 21
143.6595280364
 31
0.0
  0
ELLIPSE
  5
E0
330
1F
100
AcDbEntity
  8
0
  6
HIDDEN
 62
     7
370
     0
100
AcDbEllipse
 10
185.0095367173
 20
145.6595280364
 30
0.0
 11
0.0
 21
2.0
 31
0.0
210
0.0
220
0.0
230
1.0
 40
0.4142135624
 41
3.141592653589793
 42
4.712388980384681
  0
LINE
  5
E1
330
1F
100
AcDbEntity
  8
0
  6
HIDDEN
 62
     7
370
     0
100
AcDbLine
 10
185.8379638421
 20
59.9736129694
 30
0.0
 11
185.0536238732
 21
59.5260737692
 31
0.0
  0
LINE
  5
E2
330
1F
100
AcDbEntity
  8
0
  6
HIDDEN
 62
     7
370
     0
100
AcDbLine
 10
185.127832761
 20
152.8696923621
 30
0.0
 11
185.8379638421
 21
152.1595612811
 31
0.0
  0
LINE
  5
E3
330
1F
100
AcDbEntity
  8
0
  6
HIDDEN
 62
     7
370
     0
100
AcDbLine
 10
189.9579160116
 20
59.9736129694
 30
0.0
 11
185.8379638421
 21
59.9736129694
 31
0.0
  0
LINE
  5
E4
330
1F
100
AcDbEntity
  8
0
  6
HIDDEN
 62
     7
370
     0
100
AcDbLine
 10
200.6879638421
 20
59.9736129694
 30
0.0
 11
195.5180116726
 21
59.9736129694
 31
0.0
  0
LINE
  5
E5
330
1F
100
AcDbEntity
  8
0
  6
HIDDEN
 62
     7
370
     0
100
AcDbLine
 10
185.8379638421
 20
59.9736129694
 30
0.0
 11
185.8379638421
 21
68.8595280364
 31
0.0
  0
LINE
  5
E6
330
1F
100
AcDbEntity
  8
0
  6
HIDDEN
 62
     7
370
     0
100
AcDbLine
 10
200.6879638421
 20
70.8595280364
 30
0.0
 11
185.0095367173
 21
70.8595280364
 31
0.0
  0
LINE
  5
E7
330
1F
100
AcDbEntity
  8
0
  6
HIDDEN
 62
     7
370
     0
100
AcDbLine
 10
185.8379638421
 20
152.1595612811
 30
0.0
 11
190.0612928199
 21
152.1595612811
 31
0.0
  0
LINE
  5
E8
330
1F
100
AcDbEntity
  8
0
  6
HIDDEN
 62
     7
370
     0
100
AcDbLine
 10
195.4146348642
 20
152.1595612811
 30
0.0
 11
200.6879638421
 21
152.1595612811
 31
0.0
  0
LINE
  5
E9
330
1F
100
AcDbEntity
  8
0
  6
HIDDEN
 62
     7
370
     0
100
AcDbLine
 10
185.8379638421
 20
152.1595612811
 30
0.0
 11
185.8379638421
 21
145.6595280364
 31
0.0
  0
LINE
  5
EA
330
1F
100
AcDbEntity
  8
0
  6
HIDDEN
 62
     7
370
     0
100
AcDbLine
 10
185.0095367173
 20
143.6595280364
 30
0.0
 11
200.6879638421
 21
143.6595280364
 31
0.0
  0
LINE
  5
EB
330
1F
100
AcDbEntity
  8
0
  6
HIDDEN
 62
     7
370
     0
100
AcDbLine
 10
90.0379638421
 20
93.6595280364
 30
0.0
 11
90.0379638421
 21
118.6595280364
 31
0.0
  0
LINE
  5
EC
330
1F
100
AcDbEntity
  8
0
  6
HIDDEN
 62
     7
370
     0
100
AcDbLine
 10
93.322568191
 20
95.6595280364
 30
0.0
 11
93.322568191
 21
116.6595280364
 31
0.0
  0
LINE
  5
ED
330
1F
100
AcDbEntity
  8
0
  6
HIDDEN
 62
     7
370
     0
100
AcDbLine
 10
142.0379638421
 20
95.6595280364
 30
0.0
 11
142.0379638421
 21
116.6595280364
 31
0.0
  0
LINE
  5
EE
330
1F
100
AcDbEntity
  8
0
  6
HIDDEN
 62
     7
370
     0
100
AcDbLine
 10
147.0851930419
 20
104.0595280364
 30
0.0
 11
147.0851930419
 21
108.2595280364
 31
0.0
  0
SPLINE
  5
EF
330
1F
100
AcDbEntity
  8
0
  6
HIDDEN
 62
     7
370
     0
100
AcDbSpline
210
0.0
220
0.0
230
1.0
 70
     8
 71
     3
 72
    16
 73
    12
 74
     0
 42
0.000000001
 43
0.00000001
 40
0.0
 40
0.0
 40
0.0
 40
0.0
 40
0.2499999999999952
 40
0.2499999999999952
 40
0.4999999999999903
 40
0.4999999999999903
 40
0.6249999999999931
 40
0.6249999999999931
 40
0.7499999999999959
 40
0.7499999999999959
 40
1.0
 40
1.0
 40
1.0
 40
1.0
 10
226.6379638420734
 20
111.6281641178364
 30
0.0
 10
226.6379638420734
 20
111.5590302164973
 30
0.0
 10
226.6334300328535
 20
111.4884090690625
 30
0.0
 10
226.6082661858725
 20
111.3418855827062
 30
0.0
 10
226.5879790433357
 20
111.2644437075556
 30
0.0
 10
226.5293696665653
 20
111.1587952436016
 30
0.0
 10
226.5048413699791
 20
111.1267149635315
 30
0.0
 10
226.4504954641375
 20
111.0795892401753
 30
0.0
 10
226.4208956393696
 20
111.0645358917179
 30
0.0
 10
226.3369460811776
 20
111.0405304573467
 30
0.0
 10
226.2855876824464
 20
111.0480928920899
 30
0.0
 10
226.2379638421865
 20
111.0621322471598
 30
0.0
  0
SPLINE
  5
F0
330
1F
100
AcDbEntity
  8
0
  6
HIDDEN
 62
     7
370
     0
100
AcDbSpline
210
0.0
220
0.0
230
1.0
 70
     8
 71
     3
 72
     8
 73
     4
 74
     0
 42
0.000000001
 43
0.00000001
 40
0.0
 40
0.0
 40
0.0
 40
0.0
 40
1.0
 40
1.0
 40
1.0
 40
1.0
 10
226.237963842186
 20
111.06213224716
 30
0.0
 10
226.1787975332939
 20
111.0282829563315
 30
0.0
 10
226.1100145477696
 20
111.0061675801507
 30
0.0
 10
226.0379638420734
 20
111.0061675801507
 30
0.0
  0
SPLINE
  5
F1
330
1F
100
AcDbEntity
  8
0
  6
HIDDEN
 62
     7
370
     0
100
AcDbSpline
210
0.0
220
0.0
230
1.0
 70
     8
 71
     3
 72
     8
 73
     4
 74
     0
 42
0.000000001
 43
0.00000001
 40
0.0
 40
0.0
 40
0.0
 40
0.0
 40
1.0
 40
1.0
 40
1.0
 40
1.0
 10
226.2379638420086
 20
101.2569238257468
 30
0.0
 10
226.1787975331588
 20
101.2907731165182
 30
0.0
 10
226.1100145476975
 20
101.3128884926546
 30
0.0
 10
226.0379638420734
 20
101.3128884926546
 30
0.0
  0
SPLINE
  5
F2
330
1F
100
AcDbEntity
  8
0
  6
HIDDEN
 62
     7
370
     0
100
AcDbSpline
210
0.0
220
0.0
230
1.0
 70
     8
 71
     3
 72
    16
 73
    12
 74
     0
 42
0.000000001
 43
0.00000001
 40
0.0
 40
0.0
 40
0.0
 40
0.0
 40
0.2499999999999875
 40
0.2499999999999875
 40
0.3749999999999888
 40
0.3749999999999888
 40
0.4999999999999901
 40
0.4999999999999901
 40
0.749999999999995
 40
0.749999999999995
 40
1.0
 40
1.0
 40
1.0
 40
1.0
 10
226.2379638419962
 20
101.2569238257466
 30
0.0
 10
226.2852684298594
 20
101.2708689945374
 30
0.0
 10
226.3362665690131
 20
101.2784499819371
 30
0.0
 10
226.4198655752818
 20
101.2549411489761
 30
0.0
 10
226.4490029171168
 20
101.2403768813855
 30
0.0
 10
226.5033265890567
 20
101.1940071947576
 30
0.0
 10
226.5278097359727
 20
101.1624827313686
 30
0.0
 10
226.5866502922653
 20
101.0581076321467
 30
0.0
 10
226.6075316699206
 20
100.9803418069441
 30
0.0
 10
226.633302380477
 20
100.8324542724741
 30
0.0
 10
226.6379635347003
 20
100.7603436205516
 30
0.0
 10
226.6379638420591
 20
100.6908972704135
 30
0.0
  0
LINE
  5
F3
330
1F
100
AcDbEntity
  8
0
  6
HIDDEN
 62
     7
370
     0
100
AcDbLine
 10
213.1379638421
 20
106.1595280364
 30
0.0
 11
213.1379638421
 21
100.9595280364
 31
0.0
  0
LINE
  5
F4
330
1F
100
AcDbEntity
  8
0
  6
HIDDEN
 62
     7
370
     0
100
AcDbLine
 10
213.1379638421
 20
111.3595280364
 30
0.0
 11
213.1379638421
 21
106.1595280364
 31
0.0
  0
LINE
  5
F5
330
1F
100
AcDbEntity
  8
0
  6
HIDDEN
 62
     7
370
     0
100
AcDbLine
 10
216.5039892459
 20
106.1595280364
 30
0.0
 11
216.5039892459
 21
100.6595280364
 31
0.0
  0
LINE
  5
F6
330
1F
100
AcDbEntity
  8
0
  6
HIDDEN
 62
     7
370
     0
100
AcDbLine
 10
216.5039892459
 20
111.6595280364
 30
0.0
 11
216.5039892459
 21
106.1595280364
 31
0.0
  0
LINE
  5
F7
330
1F
100
AcDbEntity
  8
0
  6
HIDDEN
 62
     7
370
     0
100
AcDbLine
 10
220.7379638421
 20
111.0061675802
 30
0.0
 11
226.0379638421
 21
111.0061675802
 31
0.0
  0
LINE
  5
F8
330
1F
100
AcDbEntity
  8
0
  6
HIDDEN
 62
     7
370
     0
100
AcDbLine
 10
220.7379638421
 20
101.3128884927
 30
0.0
 11
226.0379638421
 21
101.3128884927
 31
0.0
  0
SPLINE
  5
F9
330
1F
100
AcDbEntity
  8
0
  6
HIDDEN
 62
     7
370
     0
100
AcDbSpline
210
0.0
220
0.0
230
1.0
 70
    11
 71
     3
 72
    20
 73
    16
 74
     0
 42
0.000000001
 43
0.00000001
 40
0.0
 40
0.0
 40
0.0
 40
0.0
 40
0.125
 40
0.125
 40
0.2500000000000001
 40
0.2500000000000001
 40
0.5
 40
0.5
 40
0.625
 40
0.625
 40
0.75
 40
0.75
 40
0.8750000000000001
 40
0.8750000000000001
 40
1.0
 40
1.0
 40
1.0
 40
1.0
 10
226.2379638420734
 20
113.5595280364026
 30
0.0
 10
226.2379638420734
 20
113.6587027177131
 30
0.0
 10
226.2381302847303
 20
113.7482493353922
 30
0.0
 10
226.2361699454272
 20
113.9086460120505
 30
0.0
 10
226.2341815785256
 20
113.978775879641
 30
0.0
 10
226.2271779277131
 20
114.1481661549908
 30
0.0
 10
226.2194491047629
 20
114.2095115772629
 30
0.0
 10
226.2137675132465
 20
114.2095362608832
 30
0.0
 10
226.2127740704616
 20
114.1948338727908
 30
0.0
 10
226.2143575703184
 20
114.1360500369256
 30
0.0
 10
226.2166869853216
 20
114.0922346252824
 30
0.0
 10
226.2233567848294
 20
113.979345549817
 30
0.0
 10
226.22795057937
 20
113.9089983580949
 30
0.0
 10
226.2352279998513
 20
113.74945363583
 30
0.0
 10
226.2379638113011
 20
113.6587196025047
 30
0.0
 10
226.2379637171233
 20
113.5595280364047
 30
0.0
  0
LWPOLYLINE
  5
FA
330
1F
100
AcDbEntity
  8
0
  6
HIDDEN
 62
     7
370
     0
100
AcDbPolyline
 90
        4
 70
   128
 43
0.0
 10
226.2379637171
 20
113.5595280364
 10
226.2379638409
 20
112.8174173358
 10
226.2379638587
 20
112.0753066353
 10
226.2379638422
 20
111.0621322472
  0
LWPOLYLINE
  5
FB
330
1F
100
AcDbEntity
  8
0
  6
HIDDEN
 62
     7
370
     0
100
AcDbPolyline
 90
        3
 70
   128
 43
0.0
 10
226.2379638923
 20
98.7595280364
 10
226.2379638376
 20
100.0362082645
 10
226.237963842
 20
101.2569238257
  0
SPLINE
  5
FC
330
1F
100
AcDbEntity
  8
0
  6
HIDDEN
 62
     7
370
     0
100
AcDbSpline
210
0.0
220
0.0
230
1.0
 70
     8
 71
     3
 72
    11
 73
     7
 74
     0
 42
0.000000001
 43
0.00000001
 40
0.0
 40
0.0
 40
0.0
 40
0.0
 40
0.2832653816796342
 40
0.606053564399928
 40
0.9293812402115739
 40
1.0
 40
1.0
 40
1.0
 40
1.0
 10
226.2161728732845
 20
98.11765687412066
 30
0.0
 10
226.2145901908366
 20
98.12616436576162
 30
0.0
 10
226.2112040010624
 20
98.14436636278131
 30
0.0
 10
226.2243420153216
 20
98.34774438691247
 30
0.0
 10
226.237100525497
 20
98.58118682913734
 30
0.0
 10
226.2378326515192
 20
98.73241831100336
 30
0.0
 10
226.2379638922845
 20
98.7595280364006
 30
0.0
  0
LINE
  5
FD
330
1F
100
AcDbEntity
  8
0
  6
HIDDEN
 62
     7
370
     0
100
AcDbLine
 10
220.7379638421
 20
113.5595280364
 30
0.0
 11
220.7379638421
 21
111.0061675802
 31
0.0
  0
LINE
  5
FE
330
1F
100
AcDbEntity
  8
0
  6
HIDDEN
 62
     7
370
     0
100
AcDbLine
 10
220.7379638421
 20
98.7595280364
 30
0.0
 11
220.7379638421
 21
101.3128884927
 31
0.0
  0
LINE
  5
FF
330
1F
100
AcDbEntity
  8
0
  6
HIDDEN
 62
     7
370
     0
100
AcDbLine
 10
220.7379638421
 20
114.2095280364
 30
0.0
 11
220.7379638421
 21
113.5595280364
 31
0.0
  0
LINE
  5
100
330
1F
100
AcDbEntity
  8
0
  6
HIDDEN
 62
     7
370
     0
100
AcDbLine
 10
220.7379638421
 20
98.1095280364
 30
0.0
 11
220.7379638421
 21
98.7595280364
 31
0.0
  0
LINE
  5
101
330
1F
100
AcDbEntity
  8
0
  6
HIDDEN
 62
     7
370
     0
100
AcDbLine
 10
190.8279638421
 20
141.5525711381
 30
0.0
 11
190.8279638421
 21
136.0095280364
 31
0.0
  0
LINE
  5
102
330
1F
100
AcDbEntity
  8
0
  6
HIDDEN
 62
     7
370
     0
100
AcDbLine
 10
194.6479638421
 20
141.5525711381
 30
0.0
 11
194.6479638421
 21
136.0095280364
 31
0.0
  0
LINE
  5
103
330
1F
100
AcDbEntity
  8
0
  6
HIDDEN
 62
     7
370
     0
100
AcDbLine
 10
189.5048023346
 20
144.6706059881
 30
0.0
 11
189.5048023346
 21
136.0095280364
 31
0.0
  0
LINE
  5
104
330
1F
100
AcDbEntity
  8
0
  6
HIDDEN
 62
     7
370
     0
100
AcDbLine
 10
195.9711253495
 20
144.6706059881
 30
0.0
 11
195.9711253495
 21
136.0095280364
 31
0.0
  0
ARC
  5
105
330
1F
100
AcDbEntity
  8
0
  6
HIDDEN
 62
     7
370
     0
100
AcDbCircle
 10
81.2379638421
 20
92.4595280364
 30
0.0
 40
1.200000000000017
100
AcDbArc
 50
90.0
 51
180.0
  0
ARC
  5
106
330
1F
100
AcDbEntity
  8
0
  6
HIDDEN
 62
     7
370
     0
100
AcDbCircle
 10
81.2379638421
 20
119.8595280364
 30
0.0
 40
1.200000000000017
100
AcDbArc
 50
180.0
 51
270.0
  0
ARC
  5
107
330
1F
100
AcDbEntity
  8
0
  6
HIDDEN
 62
     7
370
     0
100
AcDbCircle
 10
90.9303362728
 20
93.8345280364
 30
0.0
 40
0.4000000000000197
100
AcDbArc
 50
255.0
 51
270.0
  0
ARC
  5
108
330
1F
100
AcDbEntity
  8
0
  6
HIDDEN
 62
     7
370
     0
100
AcDbCircle
 10
90.9303362728
 20
118.4845280364
 30
0.0
 40
0.400000000000006
100
AcDbArc
 50
90.0
 51
105.0
  0
LINE
  5
109
330
1F
100
AcDbEntity
  8
0
  6
HIDDEN
 62
     7
370
     0
100
AcDbLine
 10
90.9303362728
 20
93.4345280364
 30
0.0
 11
91.8070237344
 21
93.4345280364
 31
0.0
  0
LINE
  5
10A
330
1F
100
AcDbEntity
  8
0
  6
HIDDEN
 62
     7
370
     0
100
AcDbLine
 10
91.8070237344
 20
118.8845280364
 30
0.0
 11
90.9303362728
 21
118.8845280364
 31
0.0
  0
ARC
  5
10B
330
1F
100
AcDbEntity
  8
0
  6
HIDDEN
 62
     7
370
     0
100
AcDbCircle
 10
91.8070237344
 20
93.8345280364
 30
0.0
 40
0.3999999999999915
100
AcDbArc
 50
270.0
 51
330.0
  0
ARC
  5
10C
330
1F
100
AcDbEntity
  8
0
  6
HIDDEN
 62
     7
370
     0
100
AcDbCircle
 10
91.8070237344
 20
118.4845280364
 30
0.0
 40
0.3999999999999946
100
AcDbArc
 50
30.0
 51
90.0
  0
LINE
  5
10D
330
1F
100
AcDbEntity
  8
0
  6
HIDDEN
 62
     7
370
     0
100
AcDbLine
 10
90.8268086548
 20
118.8708983669
 30
0.0
 11
90.0379638421
 21
118.6595280364
 31
0.0
  0
LINE
  5
10E
330
1F
100
AcDbEntity
  8
0
  6
HIDDEN
 62
     7
370
     0
100
AcDbLine
 10
90.0379638421
 20
93.6595280364
 30
0.0
 11
90.8268086548
 21
93.4481577059
 31
0.0
  0
LINE
  5
10F
330
1F
100
AcDbEntity
  8
0
  6
HIDDEN
 62
     7
370
     0
100
AcDbLine
 10
92.1534338959
 20
93.6345280364
 30
0.0
 11
93.322568191
 21
95.6595280364
 31
0.0
  0
LINE
  5
110
330
1F
100
AcDbEntity
  8
0
  6
HIDDEN
 62
     7
370
     0
100
AcDbLine
 10
93.322568191
 20
116.6595280364
 30
0.0
 11
92.1534338959
 21
118.6845280364
 31
0.0
  0
LINE
  5
111
330
1F
100
AcDbEntity
  8
0
  6
HIDDEN
 62
     7
370
     0
100
AcDbLine
 10
81.2379638421
 20
93.6595280364
 30
0.0
 11
90.0379638421
 21
93.6595280364
 31
0.0
  0
LINE
  5
112
330
1F
100
AcDbEntity
  8
0
  6
HIDDEN
 62
     7
370
     0
100
AcDbLine
 10
90.0379638421
 20
118.6595280364
 30
0.0
 11
81.2379638421
 21
118.6595280364
 31
0.0
  0
LINE
  5
113
330
1F
100
AcDbEntity
  8
0
  6
HIDDEN
 62
     7
370
     0
100
AcDbLine
 10
142.0379638421
 20
95.6595280364
 30
0.0
 11
147.0851930419
 21
104.0595280364
 31
0.0
  0
LINE
  5
114
330
1F
100
AcDbEntity
  8
0
  6
HIDDEN
 62
     7
370
     0
100
AcDbLine
 10
147.0851930419
 20
108.2595280364
 30
0.0
 11
142.0379638421
 21
116.6595280364
 31
0.0
  0
LINE
  5
115
330
1F
100
AcDbEntity
  8
0
  6
HIDDEN
 62
     7
370
     0
100
AcDbLine
 10
93.322568191
 20
95.6595280364
 30
0.0
 11
142.0379638421
 21
95.6595280364
 31
0.0
  0
LINE
  5
116
330
1F
100
AcDbEntity
  8
0
  6
HIDDEN
 62
     7
370
     0
100
AcDbLine
 10
142.0379638421
 20
116.6595280364
 30
0.0
 11
93.322568191
 21
116.6595280364
 31
0.0
  0
LINE
  5
117
330
1F
100
AcDbEntity
  8
0
  6
HIDDEN
 62
     7
370
     0
100
AcDbLine
 10
214.532641844
 20
112.1595280364
 30
0.0
 11
213.9379638421
 21
112.1595280364
 31
0.0
  0
LINE
  5
118
330
1F
100
AcDbEntity
  8
0
  6
HIDDEN
 62
     7
370
     0
100
AcDbLine
 10
213.9379638421
 20
100.1595280364
 30
0.0
 11
214.532641844
 21
100.1595280364
 31
0.0
  0
ARC
  5
119
330
1F
100
AcDbEntity
  8
0
  6
HIDDEN
 62
     7
370
     0
100
AcDbCircle
 10
213.9379638421
 20
111.3595280364
 30
0.0
 40
0.8000000000000398
100
AcDbArc
 50
90.0
 51
180.0
  0
ARC
  5
11A
330
1F
100
AcDbEntity
  8
0
  6
HIDDEN
 62
     7
370
     0
100
AcDbCircle
 10
213.9379638421
 20
100.9595280364
 30
0.0
 40
0.8000000000000398
100
AcDbArc
 50
180.0
 51
270.0
  0
ARC
  5
11B
330
1F
100
AcDbEntity
  8
0
  6
HIDDEN
 62
     7
370
     0
100
AcDbCircle
 10
214.532641844
 20
111.3595280364
 30
0.0
 40
0.8000000000000056
100
AcDbArc
 50
75.0
 51
90.0
  0
ARC
  5
11C
330
1F
100
AcDbEntity
  8
0
  6
HIDDEN
 62
     7
370
     0
100
AcDbCircle
 10
214.532641844
 20
100.9595280364
 30
0.0
 40
0.8000000000000056
100
AcDbArc
 50
270.0
 51
285.0
  0
LINE
  5
11D
330
1F
100
AcDbEntity
  8
0
  6
HIDDEN
 62
     7
370
     0
100
AcDbLine
 10
214.7396970801
 20
100.1867873754
 30
0.0
 11
216.5039892459
 21
100.6595280364
 31
0.0
  0
LINE
  5
11E
330
1F
100
AcDbEntity
  8
0
  6
HIDDEN
 62
     7
370
     0
100
AcDbLine
 10
216.5039892459
 20
111.6595280364
 30
0.0
 11
214.7396970801
 21
112.1322686974
 31
0.0
  0
LINE
  5
11F
330
1F
100
AcDbEntity
  8
0
  6
HIDDEN
 62
     7
370
     0
100
AcDbLine
 10
220.7379638421
 20
111.6595280364
 30
0.0
 11
216.5039892459
 21
111.6595280364
 31
0.0
  0
LINE
  5
120
330
1F
100
AcDbEntity
  8
0
  6
HIDDEN
 62
     7
370
     0
100
AcDbLine
 10
216.5039892459
 20
100.6595280364
 30
0.0
 11
220.7379638421
 21
100.6595280364
 31
0.0
  0
LINE
  5
121
330
1F
100
AcDbEntity
  8
0
  6
HIDDEN
 62
     7
370
     0
100
AcDbLine
 10
226.6379638421
 20
114.6318307685
 30
0.0
 11
226.2098829212
 21
114.2038578489
 31
0.0
  0
LINE
  5
122
330
1F
100
AcDbEntity
  8
0
  6
HIDDEN
 62
     7
370
     0
100
AcDbLine
 10
226.2098841214
 20
98.11518788
 30
0.0
 11
226.6379638421
 21
97.6872198813
 31
0.0
  0
LINE
  5
123
330
1F
100
AcDbEntity
  8
0
  6
HIDDEN
 62
     7
370
     0
100
AcDbLine
 10
147.0851930419
 20
104.0595280364
 30
0.0
 11
213.1379638421
 21
104.0595280364
 31
0.0
  0
LINE
  5
124
330
1F
100
AcDbEntity
  8
0
  6
HIDDEN
 62
     7
370
     0
100
AcDbLine
 10
213.1379638421
 20
108.2595280364
 30
0.0
 11
147.0851930419
 21
108.2595280364
 31
0.0
  0
LINE
  5
125
330
1F
100
AcDbEntity
  8
0
  6
HIDDEN
 62
     7
370
     0
100
AcDbLine
 10
226.2162226073
 20
114.2095280364
 30
0.0
 11
220.7379638421
 21
114.2095280364
 31
0.0
  0
LINE
  5
126
330
1F
100
AcDbEntity
  8
0
  6
HIDDEN
 62
     7
370
     0
100
AcDbLine
 10
220.7379638421
 20
98.1095280364
 30
0.0
 11
226.2162222986
 21
98.1095280364
 31
0.0
  0
DIMENSION
  5
127
330
1F
100
AcDbEntity
  8
VERMASSUNG
100
AcDbDimension
  2
_D
 10
73.4199693103
 20
154.8845280364
 30
0.0
 11
73.4199693103
 21
106.1595280364
 31
0.0
 70
   160
  1
ISO 50 %%c<>
 71
     2
 42
-1.0
  3
SLDDIMSTYLE0
100
AcDbAlignedDimension
 13
200.0879638421
 23
57.4345280364
 33
0.0
 14
200.0879638421
 24
154.8845280364
 34
0.0
 50
90.0
100
AcDbRotatedDimension
  0
DIMENSION
  5
134
330
1F
100
AcDbEntity
  8
VERMASSUNG
100
AcDbDimension
  2
_D_1
 10
233.7863602603
 20
100.6595280364
 30
0.0
 11
233.7863602603
 21
106.1595280364
 31
0.0
 70
   160
  1
%%c<>
 71
     2
 42
-1.0
  3
SLDDIMSTYLE0
100
AcDbAlignedDimension
 13
220.7379638421
 23
111.6595280364
 33
0.0
 14
220.7379638421
 24
100.6595280364
 34
0.0
 50
90.0
100
AcDbRotatedDimension
  0
DIMENSION
  5
13F
330
1F
100
AcDbEntity
  8
VERMASSUNG
100
AcDbDimension
  2
_D_2
 10
226.6379638421
 20
158.3698823473
 30
0.0
 11
213.6629638421
 21
158.3698823473
 31
0.0
 70
   160
  1
(<>)
 71
     2
 42
-1.0
  3
SLDDIMSTYLE0
100
AcDbAlignedDimension
 13
200.6879638421
 23
152.4545149896
 33
0.0
 14
226.6379638421
 24
115.9595280364
 34
0.0
100
AcDbRotatedDimension
  0
DIMENSION
  5
14B
330
1F
100
AcDbEntity
  8
VERMASSUNG
100
AcDbDimension
  2
_D_3
 10
226.6379638421
 20
164.3698823473
 30
0.0
 11
204.1379638421
 21
164.3698823473
 31
0.0
 70
   160
  1
<>
 71
     2
 42
-1.0
  3
SLDDIMSTYLE0
100
AcDbAlignedDimension
 13
181.6379638421
 23
141.0845280364
 33
0.0
 14
226.6379638421
 24
115.9595280364
 34
0.0
100
AcDbRotatedDimension
  0
DIMENSION
  5
155
330
1F
100
AcDbEntity
  8
VERMASSUNG
100
AcDbDimension
  2
_D_4
 10
226.6379638421
 20
170.3698823473
 30
0.0
 11
153.3379638421
 21
170.3698823473
 31
0.0
 70
   160
  1
(<>)
 71
     2
 42
-1.0
  3
SLDDIMSTYLE0
100
AcDbAlignedDimension
 13
80.0379638421
 23
124.5383725638
 33
0.0
 14
226.6379638421
 24
115.9595280364
 34
0.0
100
AcDbRotatedDimension
  0
DIMENSION
  5
161
330
1F
100
AcDbEntity
  8
VERMASSUNG
100
AcDbDimension
  2
_D_5
 10
239.7863602603
 20
96.1595280364
 30
0.0
 11
239.7863602603
 21
106.1595280364
 31
0.0
 70
   160
  1
ST1 %%c<>
 71
     2
 42
-1.0
  3
SLDDIMSTYLE0
100
AcDbAlignedDimension
 13
226.4379638421
 23
116.1595280364
 33
0.0
 14
226.4379638421
 24
96.1595280364
 34
0.0
 50
90.0
100
AcDbRotatedDimension
  0
LINE
  5
16D
330
1F
100
AcDbEntity
  8
VERMASSUNG
  6
CENTERX2
 62
     7
370
     0
100
AcDbLine
 10
78.0379638421
 20
106.1595280364
 30
0.0
 11
228.6379638421
 21
106.1595280364
 31
0.0
  0
SPLINE
  5
16E
330
1F
100
AcDbEntity
  8
0
  6
Continuous
 62
     7
370
    15
100
AcDbSpline
210
0.0
220
0.0
230
1.0
 70
     8
 71
     3
 72
    30
 73
    26
 74
     0
 42
0.000000001
 43
0.00000001
 40
0.0
 40
0.0
 40
0.0
 40
0.0
 40
0.001081732616039
 40
0.0480679609919754
 40
0.0951275970895255
 40
0.1422352910658063
 40
0.1893698296574089
 40
0.2365155538108807
 40
0.2836600688566298
 40
0.3307976820356016
 40
0.3779259037128651
 40
0.4250440147989422
 40
0.4721524229667347
 40
0.5192522243327404
 40
0.5663449192053356
 40
0.6134322357519472
 40
0.660516025837606
 40
0.7075982071935326
 40
0.7546807336705564
 40
0.8017650336696701
 40
0.8488529866540765
 40
0.8959465834328347
 40
0.9430477923917252
 40
0.9901585108780872
 40
1.0
 40
1.0
 40
1.0
 40
1.0
 10
265.2918813329654
 20
64.78351436729888
 30
0.0
 10
265.2824024570219
 20
64.78236871234495
 30
0.0
 10
264.8611983328719
 20
64.73146029300116
 30
0.0
 10
263.998371993111
 20
64.5120712032594
 30
0.0
 10
262.7093137286417
 20
64.11692422518097
 30
0.0
 10
261.39877821684
 20
63.58108896404871
 30
0.0
 10
260.0795575073194
 20
62.92740713568952
 30
0.0
 10
258.7581459675529
 20
62.15463695210882
 30
0.0
 10
257.4426448226835
 20
61.26889643828349
 30
0.0
 10
256.1405891108287
 20
60.27514712439631
 30
0.0
 10
254.8594850461991
 20
59.17939846815179
 30
0.0
 10
253.606660064671
 20
57.98808057023115
 30
0.0
 10
252.3892808712708
 20
56.70817767528925
 30
0.0
 10
251.2143102225441
 20
55.34715002057217
 30
0.0
 10
250.0884752819176
 20
53.91290781367584
 30
0.0
 10
249.0182305115408
 20
52.41376665145945
 30
0.0
 10
248.0097236110121
 20
50.85840390629029
 30
0.0
 10
247.0687546443564
 20
49.25580889522168
 30
0.0
 10
246.2007684156998
 20
47.61524434591806
 30
0.0
 10
245.4107368330936
 20
45.94616718752299
 30
0.0
 10
244.7034382740999
 20
44.25825323282803
 30
0.0
 10
244.0822787169628
 20
42.56103208301557
 30
0.0
 10
243.5535730678862
 20
40.86496497445487
 30
0.0
 10
243.2273552729678
 20
39.62237467800192
 30
0.0
 10
243.0793906719316
 20
38.9491125081442
 30
0.0
 10
243.0538220052779
 20
38.83277105977709
 30
0.0
  0
LINE
  5
16F
330
1F
100
AcDbEntity
  8
0
  6
Continuous
 62
     7
370
    15
100
AcDbLine
 10
258.3203958485
 20
61.8403952219
 30
0.0
 11
227.5561778
 21
72.9265999551
 31
0.0
  0
LINE
  5
170
330
1F
100
AcDbEntity
  8
0
  6
Continuous
 62
     7
370
    15
100
AcDbLine
 10
217.4323187273
 20
55.3896615087
 30
0.0
 11
246.8998290743
 21
30.5075393761
 31
0.0
  0
LINE
  5
171
330
1F
100
AcDbEntity
  8
0
  6
Continuous
 62
     7
370
    15
100
AcDbLine
 10
274.1748837743
 20
30.2414943397
 30
0.0
 11
274.2455829599
 21
30.2823213798
 31
0.0
  0
LINE
  5
172
330
1F
100
AcDbEntity
  8
0
  6
Continuous
 62
     7
370
    15
100
AcDbLine
 10
277.7098430565
 20
36.2832460904
 30
0.0
 11
277.7098430565
 21
36.3648869016
 31
0.0
  0
LINE
  5
173
330
1F
100
AcDbEntity
  8
0
  6
Continuous
 62
     7
370
    15
100
AcDbLine
 10
276.6741059822
 20
38.654110934
 30
0.0
 11
268.9843197368
 21
43.093330042
 31
0.0
  0
LINE
  5
174
330
1F
100
AcDbEntity
  8
0
  6
Continuous
 62
     7
370
    15
100
AcDbLine
 10
263.9847260736
 20
34.4328414182
 30
0.0
 11
271.674512319
 21
29.9936223102
 31
0.0
  0
SPLINE
  5
175
330
1F
100
AcDbEntity
  8
0
  6
Continuous
 62
     7
370
    15
100
AcDbSpline
210
0.0
220
0.0
230
1.0
 70
     8
 71
     3
 72
    15
 73
    11
 74
     0
 42
0.000000001
 43
0.00000001
 40
0.0
 40
0.0
 40
0.0
 40
0.0
 40
0.138056751744515
 40
0.2795984266232195
 40
0.4204140077894333
 40
0.560148331687226
 40
0.698811617840916
 40
0.8373804520778956
 40
0.9789718960777413
 40
1.0
 40
1.0
 40
1.0
 40
1.0
 10
272.7626844712631
 20
35.12544684791402
 30
0.0
 10
272.8698973143352
 20
35.29847762533848
 30
0.0
 10
273.0870293405342
 20
35.64890694164458
 30
0.0
 10
273.4826960365945
 20
36.10125863469801
 30
0.0
 10
273.9045037830572
 20
36.47093162946763
 30
0.0
 10
274.3293707869616
 20
36.73134372503789
 30
0.0
 10
274.7305408684902
 20
36.87749979602821
 30
0.0
 10
275.076775588917
 20
36.89810112811774
 30
0.0
 10
275.2896483270605
 20
36.86684584293403
 30
0.0
 10
275.3747896056445
 20
36.799450357085
 30
0.0
 10
275.3857991040536
 20
36.79073554205548
 30
0.0
  0
SPLINE
  5
176
330
1F
100
AcDbEntity
  8
0
  6
Continuous
 62
     7
370
    15
100
AcDbSpline
210
0.0
220
0.0
230
1.0
 70
     8
 71
     3
 72
    10
 73
     6
 74
     0
 42
0.000000001
 43
0.00000001
 40
0.0
 40
0.0
 40
0.0
 40
0.0
 40
0.1533599256108409
 40
0.9783064411013179
 40
1.0
 40
1.0
 40
1.0
 40
1.0
 10
272.4417548716636
 20
34.44915825615605
 30
0.0
 10
272.4546874833704
 20
34.48423343041972
 30
0.0
 10
272.5371865931118
 20
34.70798333619351
 30
0.0
 10
272.6427991694354
 20
34.94339657171459
 30
0.0
 10
272.759689379565
 20
35.1208986901117
 30
0.0
 10
272.7626844712631
 20
35.12544684791402
 30
0.0
  0
SPLINE
  5
177
330
1F
100
AcDbEntity
  8
0
  6
Continuous
 62
     7
370
    15
100
AcDbSpline
210
0.0
220
0.0
230
1.0
 70
     8
 71
     3
 72
    29
 73
    25
 74
     0
 42
0.000000001
 43
0.00000001
 40
0.0
 40
0.0
 40
0.0
 40
0.0
 40
0.0339097930634982
 40
0.0808222551878875
 40
0.1277903140304916
 40
0.1747912415998747
 40
0.2218076517449645
 40
0.2688262825047487
 40
0.3158393147160126
 40
0.3628435365138574
 40
0.4098377540491649
 40
0.4568220752715976
 40
0.5037974136180078
 40
0.5507651614535829
 40
0.5977269846216077
 40
0.6446846990671744
 40
0.6916402008568912
 40
0.7385954292861197
 40
0.7855520096130151
 40
0.8325116064459259
 40
0.8794762063878406
 40
0.9264477833857265
 40
0.973428259342828
 40
1.0
 40
1.0
 40
1.0
 40
1.0
 10
259.2271170630453
 20
17.61844083987123
 30
0.0
 10
259.5291646324282
 20
17.67053146227546
 30
0.0
 10
260.2490795456756
 20
17.79468679312535
 30
0.0
 10
261.4188878731243
 20
18.14031769523695
 30
0.0
 10
262.7230645066776
 20
18.63011560944776
 30
0.0
 10
264.0405053249193
 20
19.24754450380332
 30
0.0
 10
265.3620344377226
 20
19.98308010324576
 30
0.0
 10
266.6802366168689
 20
20.83376533788014
 30
0.0
 10
267.9873466524394
 20
21.79404160599772
 30
0.0
 10
269.2758602524871
 20
22.85828601219717
 30
0.0
 10
270.5383888062391
 20
24.02018247435629
 30
0.0
 10
271.7677125346284
 20
25.27292231999289
 30
0.0
 10
272.95680044767
 20
26.60919040613129
 30
0.0
 10
274.0988472129216
 20
28.02121448841154
 30
0.0
 10
275.1873086715631
 20
29.50080214956185
 30
0.0
 10
276.2159355963836
 20
31.03938492308583
 30
0.0
 10
277.1788180307659
 20
32.62806729275875
 30
0.0
 10
278.0703829056069
 20
34.25766476450232
 30
0.0
 10
278.8855537764376
 20
35.91878598900884
 30
0.0
 10
279.6193087524303
 20
37.60177882657359
 30
0.0
 10
280.2684766594957
 20
39.29720796390615
 30
0.0
 10
280.8251562931825
 20
40.99435210177858
 30
0.0
 10
281.2323852326402
 20
42.44183827258105
 30
0.0
 10
281.4234923822338
 20
43.31375366948831
 30
0.0
 10
281.4925324445254
 20
43.62874498950679
 30
0.0
  0
LINE
  5
178
330
1F
100
AcDbEntity
  8
0
  6
Continuous
 62
     7
370
    15
100
AcDbLine
 10
251.222395039
 20
19.443094734
 30
0.0
 11
252.6779172465
 21
18.6028396489
 31
0.0
  0
SPLINE
  5
179
330
1F
100
AcDbEntity
  8
0
  6
Continuous
 62
     7
370
    15
100
AcDbSpline
210
0.0
220
0.0
230
1.0
 70
     8
 71
     3
 72
     9
 73
     5
 74
     0
 42
0.000000001
 43
0.00000001
 40
0.0
 40
0.0
 40
0.0
 40
0.0
 40
0.5825906740709564
 40
1.0
 40
1.0
 40
1.0
 40
1.0
 10
272.6799565578069
 20
32.02028213477863
 30
0.0
 10
272.6062141096874
 20
32.06471762192993
 30
0.0
 10
272.4796373356305
 20
32.14098984723145
 30
0.0
 10
272.3885161877167
 20
32.28969778972563
 30
0.0
 10
272.3504813707881
 20
32.35176987176243
 30
0.0
  0
LINE
  5
17A
330
1F
100
AcDbEntity
  8
0
  6
Continuous
 62
     7
370
    15
100
AcDbLine
 10
247.4983600744
 20
21.5929343585
 30
0.0
 11
248.9362046124
 21
20.7628843748
 31
0.0
  0
SPLINE
  5
17B
330
1F
100
AcDbEntity
  8
0
  6
Continuous
 62
     7
370
    15
100
AcDbSpline
210
0.0
220
0.0
230
1.0
 70
     8
 71
     3
 72
     9
 73
     5
 74
     0
 42
0.000000001
 43
0.00000001
 40
0.0
 40
0.0
 40
0.0
 40
0.0
 40
0.4810281320068783
 40
1.0
 40
1.0
 40
1.0
 40
1.0
 10
243.0662006080925
 20
27.65814999382128
 30
0.0
 10
243.1044035055558
 20
27.52391604320879
 30
0.0
 10
243.1838227638513
 20
27.24485970184169
 30
0.0
 10
243.2878269827039
 20
26.98836788688194
 30
0.0
 10
243.341802246441
 20
26.85525585054732
 30
0.0
  0
SPLINE
  5
17C
330
1F
100
AcDbEntity
  8
0
  6
Continuous
 62
     7
370
    15
100
AcDbSpline
210
0.0
220
0.0
230
1.0
 70
     8
 71
     3
 72
     9
 73
     5
 74
     0
 42
0.000000001
 43
0.00000001
 40
0.0
 40
0.0
 40
0.0
 40
0.0
 40
0.4642827215457758
 40
0.9999999999999999
 40
0.9999999999999999
 40
0.9999999999999999
 40
0.9999999999999999
 10
281.4850678948397
 20
54.6915888350028
 30
0.0
 10
281.4331364488292
 20
54.86944535953074
 30
0.0
 10
281.321283382582
 20
55.2525234201051
 30
0.0
 10
281.1755539611689
 20
55.60429397441262
 30
0.0
 10
281.0974841921388
 20
55.79274353840658
 30
0.0
  0
SPLINE
  5
17D
330
1F
100
AcDbEntity
  8
0
  6
Continuous
 62
     7
370
    15
100
AcDbSpline
210
0.0
220
0.0
230
1.0
 70
     8
 71
     3
 72
    27
 73
    23
 74
     0
 42
0.000000001
 43
0.00000001
 40
0.0
 40
0.0
 40
0.0
 40
0.0
 40
0.0240343336528391
 40
0.0738503862721692
 40
0.1243834515257308
 40
0.1760235071039362
 40
0.2287999824332934
 40
0.2824432842366899
 40
0.3365714612951997
 40
0.3908550203047932
 40
0.4450792692693392
 40
0.499191251477428
 40
0.5531922575315912
 40
0.6071101518880669
 40
0.6609845883724681
 40
0.714860247626193
 40
0.768774321365306
 40
0.8227691821739027
 40
0.8768929626045366
 40
0.9311902789815385
 40
0.9856935676112197
 40
1.0
 40
1.0
 40
1.0
 40
1.0
 10
227.5396853040068
 20
72.91405027593827
 30
0.0
 10
227.4255484412716
 20
72.95861724284788
 30
0.0
 10
227.0748396792714
 20
73.09555832758083
 30
0.0
 10
226.4315042462916
 20
73.18591548616865
 30
0.0
 10
225.6267582712821
 20
73.19186976735942
 30
0.0
 10
224.7853034202689
 20
73.06102057992963
 30
0.0
 10
223.9189550931243
 20
72.8018057204775
 30
0.0
 10
223.0381445794431
 20
72.41323320389169
 30
0.0
 10
222.157053742219
 20
71.90126598076803
 30
0.0
 10
221.2899260846514
 20
71.27448987365082
 30
0.0
 10
220.4498225272907
 20
70.54381400734917
 30
0.0
 10
219.6481830147875
 20
69.72098808835355
 30
0.0
 10
218.8951383249485
 20
68.81809727694538
 30
0.0
 10
218.200096668591
 20
67.8477459808623
 30
0.0
 10
217.5718296550087
 20
66.823039021922
 30
0.0
 10
217.0184978470132
 20
65.75757535935972
 30
0.0
 10
216.5475235222912
 20
64.66528089598457
 30
0.0
 10
216.1656408129809
 20
63.56026529588774
 30
0.0
 10
215.8783880483815
 20
62.45629665805825
 30
0.0
 10
215.6920287687302
 20
61.36772403044083
 30
0.0
 10
215.6278476360239
 20
60.56810378601406
 30
0.0
 10
215.6240800756856
 20
60.13507277597814
 30
0.0
 10
215.6232967510847
 20
60.04504001933228
 30
0.0
  0
SPLINE
  5
17E
330
1F
100
AcDbEntity
  8
0
  6
Continuous
 62
     7
370
    15
100
AcDbSpline
210
0.0
220
0.0
230
1.0
 70
     8
 71
     3
 72
    14
 73
    10
 74
     0
 42
0.000000001
 43
0.00000001
 40
0.0
 40
0.0
 40
0.0
 40
0.0
 40
0.0937485682519563
 40
0.2704779906375095
 40
0.4472243957148914
 40
0.622492044188908
 40
0.7947152021034141
 40
0.9627256466259113
 40
1.0
 40
1.0
 40
1.0
 40
1.0
 10
215.6232967510847
 20
60.04504001933228
 30
0.0
 10
215.6264036454157
 20
59.86433345636345
 30
0.0
 10
215.6353674786927
 20
59.3429692482674
 30
0.0
 10
215.7352827590894
 20
58.521886242305
 30
0.0
 10
215.9617112290538
 20
57.61663556666607
 30
0.0
 10
216.2998570777723
 20
56.7950339080157
 30
0.0
 10
216.7518744463452
 20
56.08730696481771
 30
0.0
 10
217.141403228422
 20
55.61721765420045
 30
0.0
 10
217.4025568342065
 20
55.42619765096312
 30
0.0
 10
217.4499755027425
 20
55.39151341143275
 30
0.0
  0
LWPOLYLINE
  5
17F
330
1F
100
AcDbEntity
  8
0
  6
Continuous
 62
     7
370
    15
100
AcDbPolyline
 90
       10
 70
   128
 43
0.0
 10
271.7057701161
 20
39.3467519004
 10
271.9331765315
 20
39.4937572704
 10
272.2407223733
 20
39.5793342518
 10
272.5815865751
 20
39.5904545247
 10
272.9038756519
 20
39.5254251285
 10
273.1585240135
 20
39.3941461992
 10
273.3067637552
 20
39.2166037638
 10
273.3260267201
 20
39.0198270486
 10
273.2133802964
 20
38.8337735248
 10
273.1865138325
 20
38.8091139753
  0
LWPOLYLINE
  5
180
330
1F
100
AcDbEntity
  8
0
  6
Continuous
 62
     7
370
    15
100
AcDbPolyline
 90
        5
 70
   128
 43
0.0
 10
271.8075142304
 20
38.7534305523
 10
271.7606263989
 20
38.786379226
 10
271.6123866572
 20
38.9639216614
 10
271.5931236924
 20
39.1606983766
 10
271.7057701161
 20
39.3467519004
  0
LWPOLYLINE
  5
181
330
1F
100
AcDbEntity
  8
0
  6
Continuous
 62
     7
370
    15
100
AcDbPolyline
 90
       17
 70
   128
 43
0.0
 10
271.921142999
 20
39.2734692753
 10
272.0835761528
 20
39.3784731111
 10
272.3032517542
 20
39.4395995263
 10
272.546726184
 20
39.4475425784
 10
272.7769326674
 20
39.4010930097
 10
272.9588243543
 20
39.3073223459
 10
273.0647098841
 20
39.1805063206
 10
273.0784691447
 20
39.0399515241
 10
272.9980074135
 20
38.9070561499
 10
272.8355742596
 20
38.8020523142
 10
272.6158986583
 20
38.7409258989
 10
272.3724242285
 20
38.7329828468
 10
272.142217745
 20
38.7794324156
 10
271.9603260581
 20
38.8732030793
 10
271.8544405284
 20
39.0000191046
 10
271.8406812678
 20
39.1405739012
 10
271.921142999
 20
39.2734692753
  0
SPLINE
  5
182
330
1F
100
AcDbEntity
  8
0
  6
Continuous
 62
     7
370
    15
100
AcDbSpline
210
0.0
220
0.0
230
1.0
 70
     8
 71
     3
 72
    11
 73
     7
 74
     0
 42
0.000000001
 43
0.00000001
 40
0.0
 40
0.0
 40
0.0
 40
0.0
 40
0.1208913875340443
 40
0.476671419733008
 40
0.8143663490172367
 40
1.0
 40
1.0
 40
1.0
 40
1.0
 10
271.8822483078882
 20
39.0543536483578
 30
0.0
 10
271.8933431067925
 20
39.05673954105747
 30
0.0
 10
271.9370895940591
 20
39.06614705042337
 30
0.0
 10
272.0195915660853
 20
39.11368029298644
 30
0.0
 10
272.1099994640473
 20
39.22859500388206
 30
0.0
 10
272.158283422273
 20
39.31192706254014
 30
0.0
 10
272.1754105729528
 20
39.34148637742548
 30
0.0
  0
SPLINE
  5
183
330
1F
100
AcDbEntity
  8
0
  6
Continuous
 62
     7
370
    15
100
AcDbSpline
210
0.0
220
0.0
230
1.0
 70
     8
 71
     3
 72
    10
 73
     6
 74
     0
 42
0.000000001
 43
0.00000001
 40
0.0
 40
0.0
 40
0.0
 40
0.0
 40
0.2650123302123455
 40
0.5520530381275849
 40
1.0
 40
1.0
 40
1.0
 40
1.0
 10
272.0400923043563
 20
38.83117732210525
 30
0.0
 10
272.0255725360522
 20
38.84560809520679
 30
0.0
 10
271.9953260860143
 20
38.87566915737262
 30
0.0
 10
271.9413479012782
 20
38.94986530883317
 30
0.0
 10
271.9046278059589
 20
39.01478659791524
 30
0.0
 10
271.8822483078882
 20
39.0543536483578
 30
0.0
  0
SPLINE
  5
184
330
1F
100
AcDbEntity
  8
0
  6
Continuous
 62
     7
370
    15
100
AcDbSpline
210
0.0
220
0.0
230
1.0
 70
     8
 71
     3
 72
    11
 73
     7
 74
     0
 42
0.000000001
 43
0.00000001
 40
0.0
 40
0.0
 40
0.0
 40
0.0
 40
0.2651058582220009
 40
0.503445183128018
 40
0.7494208089414498
 40
1.0
 40
1.0
 40
1.0
 40
1.0
 10
273.0369021045575
 20
39.04835587710279
 30
0.0
 10
273.0197489506097
 20
39.01874544256023
 30
0.0
 10
272.9871745186887
 20
38.96251420443991
 30
0.0
 10
272.9353645410885
 20
38.88971315571565
 30
0.0
 10
272.882713562825
 20
38.83061690162825
 30
0.0
 10
272.8477558906042
 20
38.80627058950429
 30
0.0
 10
272.8301150080093
 20
38.79398457597669
 30
0.0
  0
SPLINE
  5
185
330
1F
100
AcDbEntity
  8
0
  6
Continuous
 62
     7
370
    15
100
AcDbSpline
210
0.0
220
0.0
230
1.0
 70
     8
 71
     3
 72
    10
 73
     6
 74
     0
 42
0.000000001
 43
0.00000001
 40
0.0
 40
0.0
 40
0.0
 40
0.0
 40
0.4391051671061728
 40
0.7513578980692657
 40
1.0
 40
1.0
 40
1.0
 40
1.0
 10
272.7527374712875
 20
39.33848749179796
 30
0.0
 10
272.7934166845609
 20
39.26899235483194
 30
0.0
 10
272.8630233539191
 20
39.15007842726205
 30
0.0
 10
272.9642106073984
 20
39.06803140790552
 30
0.0
 10
273.014575554812
 20
39.05439904218265
 30
0.0
 10
273.0369021045575
 20
39.04835587710279
 30
0.0
  0
SPLINE
  5
186
330
1F
100
AcDbEntity
  8
0
  6
Continuous
 62
     7
370
    15
100
AcDbSpline
210
0.0
220
0.0
230
1.0
 70
     8
 71
     3
 72
    12
 73
     8
 74
     0
 42
0.000000001
 43
0.00000001
 40
0.0
 40
0.0
 40
0.0
 40
0.0
 40
0.2161749794961683
 40
0.4397398576192367
 40
0.5933978550174085
 40
0.7521914951465918
 40
1.0
 40
1.0
 40
1.0
 40
1.0
 10
272.1754105729528
 20
39.34148637742548
 30
0.0
 10
272.2149382373308
 20
39.32648980111912
 30
0.0
 10
272.2953448114221
 20
39.29598399353164
 30
0.0
 10
272.413557981367
 20
39.27562187844171
 30
0.0
 10
272.521639417766
 20
39.27691146972928
 30
0.0
 10
272.6326518804353
 20
39.29466706081767
 30
0.0
 10
272.7072641423755
 20
39.32189382009353
 30
0.0
 10
272.7527374712875
 20
39.33848749179796
 30
0.0
  0
LINE
  5
187
330
1F
100
AcDbEntity
  8
0
  6
Continuous
 62
     7
370
    15
100
AcDbLine
 10
272.7527374713
 20
38.771611982
 30
0.0
 11
272.7527374713
 21
39.3384874918
 31
0.0
  0
LINE
  5
188
330
1F
100
AcDbEntity
  8
0
  6
Continuous
 62
     7
370
    15
100
AcDbLine
 10
272.175410573
 20
38.7689070874
 30
0.0
 11
272.175410573
 21
39.3414863774
 31
0.0
  0
SPLINE
  5
189
330
1F
100
AcDbEntity
  8
0
  6
Continuous
 62
     7
370
    15
100
AcDbSpline
210
0.0
220
0.0
230
1.0
 70
     8
 71
     3
 72
    12
 73
     8
 74
     0
 42
0.000000001
 43
0.00000001
 40
0.0
 40
0.0
 40
0.0
 40
0.0
 40
0.2499999999999972
 40
0.2499999999999972
 40
0.4999999999999944
 40
0.4999999999999944
 40
1.0
 40
1.0
 40
1.0
 40
1.0
 10
248.3368892284221
 20
35.79946632619583
 30
0.0
 10
248.3708207207117
 20
35.77987809264435
 30
0.0
 10
248.4092524297389
 20
35.75269090370794
 30
0.0
 10
248.4834292824039
 20
35.69346697617211
 30
0.0
 10
248.5186455626594
 20
35.66203429715535
 30
0.0
 10
248.6137444799173
 20
35.57004158035337
 30
0.0
 10
248.6622736366792
 20
35.51318491482871
 30
0.0
 10
248.6956152328342
 20
35.46495610882638
 30
0.0
  0
ARC
  5
18A
330
1F
100
AcDbEntity
  8
0
  6
Continuous
 62
     7
370
    15
100
AcDbCircle
 10
272.4802132943
 20
51.7213611559
 30
0.0
 40
10.22521239378029
100
AcDbArc
 50
73.3397160432
 51
100.6307911184
  0
SPLINE
  5
18B
330
1F
100
AcDbEntity
  8
0
  6
Continuous
 62
     7
370
    15
100
AcDbSpline
210
0.0
220
0.0
230
1.0
 70
     8
 71
     3
 72
    12
 73
     8
 74
     0
 42
0.000000001
 43
0.00000001
 40
0.0
 40
0.0
 40
0.0
 40
0.0
 40
0.4999999999999972
 40
0.4999999999999972
 40
0.7499999999999986
 40
0.7499999999999986
 40
1.0
 40
1.0
 40
1.0
 40
1.0
 10
275.6238780520327
 20
61.08377204703771
 30
0.0
 10
275.6238780520327
 20
61.15645504423051
 30
0.0
 10
275.6068612839625
 20
61.2400378909708
 30
0.0
 10
275.552450458081
 20
61.36148206884648
 30
0.0
 10
275.5293052391591
 20
61.40119694652784
 30
0.0
 10
275.4750244273019
 20
61.46992671839363
 30
0.0
 10
275.4437884587444
 20
61.4988363142993
 30
0.0
 10
275.4117460176766
 20
61.51733402179289
 30
0.0
  0
ARC
  5
18C
330
1F
100
AcDbEntity
  8
0
  6
Continuous
 62
     7
370
    15
100
AcDbCircle
 10
286.2523315334
 20
27.2605726856
 30
0.0
 40
38.4439832841956
100
AcDbArc
 50
126.7424105021
 51
166.7450593408
  0
LINE
  5
18D
330
1F
100
AcDbEntity
  8
0
  6
Continuous
 62
     7
370
    15
100
AcDbLine
 10
246.8813670209
 20
36.6397214113
 30
0.0
 11
248.3368892284
 21
35.7994663262
 31
0.0
  0
LWPOLYLINE
  5
18E
330
1F
100
AcDbEntity
  8
0
  6
Continuous
 62
     7
370
    15
100
AcDbPolyline
 90
       25
 70
   128
 43
0.0
 10
246.8813670209
 20
36.6397214113
 10
247.3301034744
 20
38.4231418172
 10
247.8841226695
 20
40.2204431132
 10
248.5397955208
 20
42.019852134
 10
249.2928270641
 20
43.8095819076
 10
250.13828459
 20
45.5779088657
 10
251.0706299557
 20
47.3132496385
 10
252.0837558625
 20
49.0042369311
 10
253.171025861
 20
50.6397939846
 10
254.3253178235
 20
52.2092071343
 10
255.5390705969
 20
53.7021959889
 10
256.8043335322
 20
55.1089807721
 10
258.1128185643
 20
56.4203463847
 10
259.4559545035
 20
57.6277027676
 10
260.8249431803
 20
58.7231411711
 10
262.2108170775
 20
59.6994859604
 10
263.604498072
 20
60.5503416199
 10
264.9968569005
 20
61.2701346465
 10
266.3787729605
 20
61.8541500587
 10
267.7411940546
 20
62.298562282
 10
269.0751956863
 20
62.6004602081
 10
270.3720395202
 20
62.7578662644
 10
271.6232306217
 20
62.7697493673
 10
272.820573103
 20
62.6360316769
 10
273.9562238101
 20
62.3575891069
  0
LINE
  5
18F
330
1F
100
AcDbEntity
  8
0
  6
Continuous
 62
     7
370
    15
100
AcDbLine
 10
275.4117460177
 20
61.5173340218
 30
0.0
 11
273.9562238101
 21
62.3575891069
 31
0.0
  0
LINE
  5
190
330
1F
100
AcDbEntity
  8
0
  6
Continuous
 62
     7
370
    15
100
AcDbLine
 10
281.3337770639
 20
54.2144686295
 30
0.0
 11
281.4380589476
 21
54.3950901499
 31
0.0
  0
LINE
  5
191
330
1F
100
AcDbEntity
  8
0
  6
Continuous
 62
     7
370
    15
100
AcDbLine
 10
279.0356682713
 20
52.8877986625
 30
0.0
 11
281.3337770639
 21
54.2144686295
 31
0.0
  0
ARC
  5
192
330
1F
100
AcDbEntity
  8
0
  6
Continuous
 62
     7
370
    15
100
AcDbCircle
 10
279.8637775914
 20
51.5931929425
 30
0.0
 40
1.536804807571763
100
AcDbArc
 50
122.60547834
 51
177.3945215144
  0
LINE
  5
193
330
1F
100
AcDbEntity
  8
0
  6
Continuous
 62
     7
370
    15
100
AcDbLine
 10
278.3285614901
 20
42.8035859858
 30
0.0
 11
278.3285614901
 21
51.6630537947
 31
0.0
  0
ARC
  5
194
330
1F
100
AcDbEntity
  8
0
  6
Continuous
 62
     7
370
    15
100
AcDbCircle
 10
278.7596358575
 20
42.7336587889
 30
0.0
 40
0.4367091974284523
100
AcDbArc
 50
170.7859630095
 51
309.2032852357
  0
LINE
  5
195
330
1F
100
AcDbEntity
  8
0
  6
Continuous
 62
     7
370
    15
100
AcDbLine
 10
281.3337770639
 20
43.7219191968
 30
0.0
 11
279.0356682713
 21
42.3952492298
 31
0.0
  0
LINE
  5
196
330
1F
100
AcDbEntity
  8
0
  6
Continuous
 62
     7
370
    15
100
AcDbLine
 10
281.4380589476
 20
43.6616989766
 30
0.0
 11
281.3337770639
 21
43.7219191968
 31
0.0
  0
LINE
  5
197
330
1F
100
AcDbEntity
  8
0
  6
Continuous
 62
     7
370
    15
100
AcDbLine
 10
248.7411224732
 20
24.9065801974
 30
0.0
 11
248.6956152328
 21
24.7882121773
 31
0.0
  0
LINE
  5
198
330
1F
100
AcDbEntity
  8
0
  6
Continuous
 62
     7
370
    15
100
AcDbLine
 10
248.7411224732
 20
24.9065801974
 30
0.0
 11
251.8827678737
 21
26.7202134828
 31
0.0
  0
ARC
  5
199
330
1F
100
AcDbEntity
  8
0
  6
Continuous
 62
     7
370
    15
100
AcDbCircle
 10
251.0546585535
 20
28.0148192029
 30
0.0
 40
1.536804807572116
100
AcDbArc
 50
302.60547834
 51
357.3945215143
  0
LINE
  5
19A
330
1F
100
AcDbEntity
  8
0
  6
Continuous
 62
     7
370
    15
100
AcDbLine
 10
252.5898746549
 20
36.8044261596
 30
0.0
 11
252.5898746549
 21
27.9449583506
 31
0.0
  0
ARC
  5
19B
330
1F
100
AcDbEntity
  8
0
  6
Continuous
 62
     7
370
    15
100
AcDbCircle
 10
252.1588002875
 20
36.8743533565
 30
0.0
 40
0.4367091974285047
100
AcDbArc
 50
350.7859630095
 51
129.2032852357
  0
LINE
  5
19C
330
1F
100
AcDbEntity
  8
0
  6
Continuous
 62
     7
370
    15
100
AcDbLine
 10
251.8827678737
 20
37.2127629155
 30
0.0
 11
248.7411224732
 21
35.3991296301
 31
0.0
  0
LINE
  5
19D
330
1F
100
AcDbEntity
  8
0
  6
Continuous
 62
     7
370
    15
100
AcDbLine
 10
248.6956152328
 20
35.4649561088
 30
0.0
 11
248.7411224732
 21
35.3991296301
 31
0.0
  0
LINE
  5
19E
330
1F
100
AcDbEntity
  8
0
  6
Continuous
 62
     7
370
    15
100
AcDbLine
 10
275.623878052
 20
57.8588109938
 30
0.0
 11
275.623878052
 21
61.083772047
 31
0.0
  0
LINE
  5
19F
330
1F
100
AcDbEntity
  8
0
  6
Continuous
 62
     7
370
    15
100
AcDbLine
 10
278.4166249627
 20
59.4710294683
 30
0.0
 11
275.623878052
 21
57.8588109938
 31
0.0
  0
SPLINE
  5
1A0
330
1F
100
AcDbEntity
  8
0
  6
Continuous
 62
     7
370
    15
100
AcDbSpline
210
0.0
220
0.0
230
1.0
 70
     8
 71
     3
 72
     8
 73
     4
 74
     0
 42
0.000000001
 43
0.00000001
 40
0.0
 40
0.0
 40
0.0
 40
0.0
 40
1.0
 40
1.0
 40
1.0
 40
1.0
 10
245.8088127561936
 20
37.73123525372732
 30
0.0
 10
245.5217456265214
 20
37.68378325400397
 30
0.0
 10
245.2346325079358
 20
37.63642582130118
 30
0.0
 10
244.9474776815382
 20
37.5891541523891
 30
0.0
  0
SPLINE
  5
1A1
330
1F
100
AcDbEntity
  8
0
  6
Continuous
 62
     7
370
    15
100
AcDbSpline
210
0.0
220
0.0
230
1.0
 70
     8
 71
     3
 72
     8
 73
     4
 74
     0
 42
0.000000001
 43
0.00000001
 40
0.0
 40
0.0
 40
0.0
 40
0.0
 40
0.0011862984959112
 40
0.0011862984959112
 40
0.0011862984959112
 40
0.0011862984959112
 10
244.5951765942628
 20
37.95951105205127
 30
0.0
 10
244.7128874621073
 20
37.83596110093882
 30
0.0
 10
244.8303272125433
 20
37.71250605182355
 30
0.0
 10
244.9474776815382
 20
37.5891541523891
 30
0.0
  0
LWPOLYLINE
  5
1A2
330
1F
100
AcDbEntity
  8
0
  6
Continuous
 62
     7
370
    15
100
AcDbPolyline
 90
       25
 70
   128
 43
0.0
 10
244.5951765943
 20
37.9595110521
 10
245.0439130478
 20
39.742931458
 10
245.5979322429
 20
41.540232754
 10
246.2536050942
 20
43.3396417747
 10
247.0066366375
 20
45.1293715483
 10
247.8520941634
 20
46.8976985065
 10
248.7844395291
 20
48.6330392793
 10
249.7975654359
 20
50.3240265718
 10
250.8848354344
 20
51.9595836254
 10
252.0391273969
 20
53.528996775
 10
253.2528801703
 20
55.0219856296
 10
254.5181431056
 20
56.4287704129
 10
255.8266281377
 20
57.7401360255
 10
257.1697640769
 20
58.9474924084
 10
258.5387527537
 20
60.0429308118
 10
259.9246266509
 20
61.0192756011
 10
261.3183076454
 20
61.8701312606
 10
262.7106664739
 20
62.5899242872
 10
264.0925825339
 20
63.1739396994
 10
265.455003628
 20
63.6183519227
 10
266.7890052597
 20
63.9202498489
 10
268.0858490936
 20
64.0776559051
 10
269.3370401951
 20
64.089539008
 10
270.5343826764
 20
63.9558213177
 10
271.6700333835
 20
63.6773787476
  0
LINE
  5
1A3
330
1F
100
AcDbEntity
  8
0
  6
Continuous
 62
     7
370
    15
100
AcDbLine
 10
271.9840495714
 20
62.6893094881
 30
0.0
 11
271.6700333835
 21
63.6773787476
 31
0.0
  0
LWPOLYLINE
  5
1A4
330
1F
100
AcDbEntity
  8
0
  6
Continuous
 62
     7
370
    15
100
AcDbPolyline
 90
       24
 70
   128
 43
0.0
 10
245.8088127562
 20
37.7312352537
 10
246.2389478834
 20
39.4692593976
 10
246.7743781781
 20
41.2218487587
 10
247.4114296731
 20
42.9769775774
 10
248.1457311059
 20
44.722602669
 10
248.9722439131
 20
46.4467460607
 10
249.8852968036
 20
48.1375771809
 10
250.8786246735
 20
49.7834940369
 10
251.9454115951
 20
51.3732028249
 10
253.0783375862
 20
52.8957954246
 10
254.2696288373
 20
54.3408242473
 10
255.5111110536
 20
55.6983739245
 10
256.7942655442
 20
56.9591293443
 10
258.1102876755
 20
58.1144395688
 10
259.4501472855
 20
59.1563771944
 10
260.8046506462
 20
60.0777927476
 10
262.1645035487
 20
60.8723637422
 10
263.5203750769
 20
61.5346380626
 10
264.8629616338
 20
62.0600713745
 10
266.1830507802
 20
62.4450583071
 10
267.4715844472
 20
62.6869571917
 10
268.7197210908
 20
62.7841081884
 10
269.9188963595
 20
62.7358446752
 10
269.999844352
 20
62.7271291428
  0
LINE
  5
1A5
330
1F
100
AcDbEntity
  8
0
  6
Continuous
 62
     7
370
    15
100
AcDbLine
 10
243.1573320562
 20
38.7895610357
 30
0.0
 11
244.5951765943
 21
37.9595110521
 31
0.0
  0
ARC
  5
1A6
330
1F
100
AcDbEntity
  8
0
  6
Continuous
 62
     7
370
    15
100
AcDbCircle
 10
267.3006656534
 20
54.711510544
 30
0.0
 40
10.22515727798691
100
AcDbArc
 50
73.3396793687
 51
100.6299020907
  0
LINE
  5
1A7
330
1F
100
AcDbEntity
  8
0
  6
Continuous
 62
     7
370
    15
100
AcDbLine
 10
271.6700333835
 20
63.6773787476
 30
0.0
 11
270.2321888455
 21
64.5074287313
 31
0.0
  0
LINE
  5
1A8
330
1F
100
AcDbEntity
  8
0
  6
Continuous
 62
     7
370
    15
100
AcDbLine
 10
247.220188396
 20
37.3132288189
 30
0.0
 11
246.4352998689
 21
37.766335321
 31
0.0
  0
SPLINE
  5
1A9
330
1F
100
AcDbEntity
  8
0
  6
Continuous
 62
     7
370
    15
100
AcDbSpline
210
0.0
220
0.0
230
1.0
 70
     8
 71
     3
 72
    14
 73
    10
 74
     0
 42
0.000000001
 43
0.00000001
 40
0.0
 40
0.0
 40
0.0
 40
0.0
 40
0.25
 40
0.25
 40
0.5
 40
0.5
 40
0.75
 40
0.75
 40
1.0
 40
1.0
 40
1.0
 40
1.0
 10
246.4352998689274
 20
37.76633532095937
 30
0.0
 10
246.3976658754693
 20
37.7880609629394
 30
0.0
 10
246.3518919187802
 20
37.80527272405091
 30
0.0
 10
246.2519560412702
 20
37.82767805768341
 30
0.0
 10
246.1975221724304
 20
37.83285294128324
 30
0.0
 10
246.0913065219383
 20
37.83091074696848
 30
0.0
 10
246.0379902219883
 20
37.82382234405025
 30
0.0
 10
245.9404971546876
 20
37.79908890776556
 30
0.0
 10
245.895585464158
 20
37.78132807177951
 30
0.0
 10
245.857832198558
 20
37.75953357545752
 30
0.0
  0
LINE
  5
1AA
330
1F
100
AcDbEntity
  8
0
  6
Continuous
 62
     7
370
    15
100
AcDbLine
 10
245.8578321986
 20
37.7595335755
 30
0.0
 11
245.8088127562
 21
37.7312352537
 31
0.0
  0
SPLINE
  5
1AB
330
1F
100
AcDbEntity
  8
0
  6
Continuous
 62
     7
370
    15
100
AcDbSpline
210
0.0
220
0.0
230
1.0
 70
     8
 71
     3
 72
    10
 73
     6
 74
     0
 42
0.000000001
 43
0.00000001
 40
0.0
 40
0.0
 40
0.0
 40
0.0
 40
0.5
 40
0.5
 40
1.0
 40
1.0
 40
1.0
 40
1.0
 10
243.0553195659078
 20
38.81900926263599
 30
0.0
 10
243.06263585033
 20
38.82337726252917
 30
0.0
 10
243.0744597105384
 20
38.82390931511743
 30
0.0
 10
243.1086110748162
 20
38.81467926547913
 30
0.0
 10
243.130868038209
 20
38.80483838816283
 30
0.0
 10
243.1573320562307
 20
38.78956103574651
 30
0.0
  0
LINE
  5
1AC
330
1F
100
AcDbEntity
  8
0
  6
Continuous
 62
     7
370
    15
100
AcDbLine
 10
248.7411224732
 20
35.3991296301
 30
0.0
 11
246.9132683545
 21
36.4543273524
 31
0.0
  0
SPLINE
  5
1AD
330
1F
100
AcDbEntity
  8
0
  6
Continuous
 62
     7
370
    15
100
AcDbSpline
210
0.0
220
0.0
230
1.0
 70
     8
 71
     3
 72
     8
 73
     4
 74
     0
 42
0.000000001
 43
0.00000001
 40
0.0000000000000004
 40
0.0000000000000004
 40
0.0000000000000004
 40
0.0000000000000004
 40
0.0011862984959127
 40
0.0011862984959127
 40
0.0011862984959127
 40
0.0011862984959127
 10
246.9132683545092
 20
36.45432735235056
 30
0.0
 10
246.9022061552515
 20
36.51643579726935
 30
0.0
 10
246.8915801486778
 20
36.57822858457096
 30
0.0
 10
246.8813670208604
 20
36.63972141128885
 30
0.0
  0
LINE
  5
1AE
330
1F
100
AcDbEntity
  8
0
  6
Continuous
 62
     7
370
    15
100
AcDbLine
 10
246.986053414
 20
37.2395024098
 30
0.0
 11
246.9661600146
 21
37.0101566317
 31
0.0
  0
ARC
  5
1AF
330
1F
100
AcDbEntity
  8
0
  6
Continuous
 62
     7
370
    15
100
AcDbCircle
 10
262.9687254432
 20
35.5828579847
 30
0.0
 40
16.06285239184922
100
AcDbArc
 50
176.9224853833
 51
185.7271838377
  0
LWPOLYLINE
  5
1B0
330
1F
100
AcDbEntity
  8
0
  6
Continuous
 62
     7
370
    15
100
AcDbPolyline
 90
        3
 70
   128
 43
0.0
 10
245.9872650856
 20
36.3393741481
 10
246.0431771162
 20
37.7270407622
 10
246.0492609042
 20
37.8022129251
  0
ARC
  5
1B1
330
1F
100
AcDbEntity
  8
0
  6
Continuous
 62
     7
370
    15
100
AcDbCircle
 10
257.7053934277
 20
36.0413633131
 30
0.0
 40
11.72191717679912
100
AcDbArc
 50
178.5431902691
 51
203.8694473619
  0
LINE
  5
1B2
330
1F
100
AcDbEntity
  8
0
  6
Continuous
 62
     7
370
    15
100
AcDbLine
 10
243.4908546229
 20
38.4300447453
 30
0.0
 11
243.0553195659
 21
38.8190092626
 31
0.0
  0
LINE
  5
1B3
330
1F
100
AcDbEntity
  8
0
  6
Continuous
 62
     7
370
    15
100
AcDbLine
 10
244.9474776815
 20
37.5891541524
 30
0.0
 11
243.4908546229
 21
38.4300447453
 31
0.0
  0
LINE
  5
1B4
330
1F
100
AcDbEntity
  8
0
  6
Continuous
 62
     7
370
    15
100
AcDbLine
 10
246.986053414
 20
37.2395024098
 30
0.0
 11
246.986053414
 21
37.0943526427
 31
0.0
  0
LINE
  5
1B5
330
1F
100
AcDbEntity
  8
0
  6
Continuous
 62
     7
370
    15
100
AcDbLine
 10
246.986053414
 20
36.4123094319
 30
0.0
 11
246.986053414
 21
33.9799163865
 31
0.0
  0
LINE
  5
1B6
330
1F
100
AcDbEntity
  8
0
  6
Continuous
 62
     7
370
    15
100
AcDbLine
 10
246.986053414
 20
37.448392067
 30
0.0
 11
246.986053414
 21
37.2395024098
 31
0.0
  0
LINE
  5
1B7
330
1F
100
AcDbEntity
  8
0
  6
Continuous
 62
     7
370
    15
100
AcDbLine
 10
246.986053414
 20
33.9799163865
 30
0.0
 11
246.986053414
 21
31.1099273663
 31
0.0
  0
LWPOLYLINE
  5
1B8
330
1F
100
AcDbEntity
  8
0
  6
Continuous
 62
     7
370
    15
100
AcDbPolyline
 90
       36
 70
   128
 43
0.0
 10
274.2450198287
 20
38.2840961947
 10
273.6263517521
 20
37.862648197
 10
273.0275681766
 20
37.3261488464
 10
272.4679144988
 20
36.6918416734
 10
271.9653784486
 20
35.9801138324
 10
271.536111948
 20
35.2138408419
 10
271.1939119756
 20
34.4176513463
 10
270.9497771201
 20
33.6171355311
 10
270.8115540765
 20
32.8380226331
 10
270.7836854473
 20
32.1053539822
 10
270.8670669531
 20
31.4426781514
 10
271.0590186438
 20
30.8712940874
 10
271.3533710339
 20
30.4095665439
 10
271.7406633956
 20
30.0723358242
 10
272.2084478336
 20
29.8704408012
 10
272.7416893713
 20
29.8103705468
 10
273.3232491867
 20
29.8940557687
 10
273.9344354691
 20
30.1188067548
 10
274.5556041883
 20
30.4773998235
 10
275.1667904707
 20
30.9583094986
 10
275.7483502862
 20
31.5460789474
 10
276.2815918238
 20
32.2218167763
 10
276.7493762619
 20
32.9638042153
 10
277.1366686235
 20
33.7481931777
 10
277.4310210137
 20
34.5497727569
 10
277.6229727043
 20
35.3427795256
 10
277.7063542101
 20
36.1017255938
 10
277.6784855809
 20
36.8022178103
 10
277.5402625373
 20
37.4217417791
 10
277.2961276818
 20
37.94038549
 10
276.9539277094
 20
38.3414793073
 10
276.5246612088
 20
38.6121317458
 10
276.0221251586
 20
38.7436438134
 10
275.4624714809
 20
38.7317886041
 10
274.8636879053
 20
38.576947154
 10
274.2450198287
 20
38.2840961947
  0
LWPOLYLINE
  5
1B9
330
1F
100
AcDbEntity
  8
0
  6
Continuous
 62
     7
370
    15
100
AcDbPolyline
 90
       19
 70
   128
 43
0.0
 10
274.1743091506
 20
38.4065706815
 10
273.5430151949
 20
37.9765217043
 10
272.9320115464
 20
37.4290733873
 10
272.360936365
 20
36.78182117
 10
271.848144477
 20
36.055568271
 10
271.4101174356
 20
35.2736570562
 10
271.0609337903
 20
34.4612187954
 10
270.8118165908
 20
33.6443659227
 10
270.6707726688
 20
32.8493527615
 10
270.6423352921
 20
32.1017316891
 10
270.7274184612
 20
31.4255318618
 10
270.9232875333
 20
30.8424868985
 10
271.2236471151
 20
30.3713363439
 10
271.6188434025
 20
30.0272233647
 10
272.0961744617
 20
29.821208035
 10
272.6402984797
 20
29.7599118571
 10
273.2337268629
 20
29.8453049406
 10
273.8573863347
 20
30.0746426816
 10
274.1748837743
 20
30.2414943397
  0
LWPOLYLINE
  5
1BA
330
1F
100
AcDbEntity
  8
0
  6
Continuous
 62
     7
370
    15
100
AcDbPolyline
 90
       10
 70
   128
 43
0.0
 10
277.7098430565
 20
36.3648869016
 10
277.6778456324
 20
36.8944498811
 10
277.5368017104
 20
37.5266171962
 10
277.2876845109
 20
38.0558454726
 10
276.9385008656
 20
38.465124878
 10
276.5004738242
 20
38.7413008357
 10
275.9876819362
 20
38.8754968231
 10
275.4166067548
 20
38.8633996707
 10
274.8056031063
 20
38.705398191
 10
274.1743091506
 20
38.4065706815
  0
SPLINE
  5
1BB
330
1F
100
AcDbEntity
  8
0
  6
Continuous
 62
     7
370
    15
100
AcDbSpline
210
0.0
220
0.0
230
1.0
 70
    11
 71
     3
 72
    60
 73
    56
 74
     0
 42
0.000000001
 43
0.00000001
 40
0.0
 40
0.0
 40
0.0
 40
0.0
 40
0.0624999999999983
 40
0.0624999999999983
 40
0.0937499999999981
 40
0.0937499999999981
 40
0.1249999999999979
 40
0.1249999999999979
 40
0.1562499999999977
 40
0.1562499999999977
 40
0.1874999999999975
 40
0.1874999999999975
 40
0.2187499999999974
 40
0.2187499999999974
 40
0.2499999999999972
 40
0.2499999999999972
 40
0.2812499999999969
 40
0.2812499999999969
 40
0.3124999999999967
 40
0.3124999999999967
 40
0.3437499999999964
 40
0.3437499999999964
 40
0.3749999999999962
 40
0.3749999999999962
 40
0.4062499999999959
 40
0.4062499999999959
 40
0.4374999999999957
 40
0.4374999999999957
 40
0.4687499999999954
 40
0.4687499999999954
 40
0.4999999999999952
 40
0.4999999999999952
 40
0.531249999999995
 40
0.531249999999995
 40
0.5624999999999948
 40
0.5624999999999948
 40
0.6249999999999956
 40
0.6249999999999956
 40
0.6874999999999963
 40
0.6874999999999963
 40
0.749999999999997
 40
0.749999999999997
 40
0.7812499999999974
 40
0.7812499999999974
 40
0.8124999999999978
 40
0.8124999999999978
 40
0.8437499999999981
 40
0.8437499999999981
 40
0.8749999999999986
 40
0.8749999999999986
 40
0.9062499999999989
 40
0.9062499999999989
 40
0.9374999999999992
 40
0.9374999999999992
 40
1.0
 40
1.0
 40
1.0
 40
1.0
 10
272.4562556186922
 20
40.02086027724154
 30
0.0
 10
272.6116093071916
 20
39.99795810865013
 30
0.0
 10
272.760300664207
 20
39.95961848658784
 30
0.0
 10
272.9694283912237
 20
39.88607644526943
 30
0.0
 10
273.035354483266
 20
39.85933167101997
 30
0.0
 10
273.159972297385
 20
39.80191565694964
 30
0.0
 10
273.2191621437343
 20
39.77092566754794
 30
0.0
 10
273.3270412940728
 20
39.70663508875231
 30
0.0
 10
273.3757147222468
 20
39.67344407688979
 30
0.0
 10
273.4626209710763
 20
39.60481914902152
 30
0.0
 10
273.5011424732689
 20
39.56901134803677
 30
0.0
 10
273.5648226193474
 20
39.49684665938153
 30
0.0
 10
273.5901986573506
 20
39.46045455519967
 30
0.0
 10
273.6277082775479
 20
39.38638207972775
 30
0.0
 10
273.6398258651736
 20
39.34828367264577
 30
0.0
 10
273.6487895736615
 20
39.27281966012039
 30
0.0
 10
273.6458984754873
 20
39.2352790845086
 30
0.0
 10
273.6244032970083
 20
39.15977734863167
 30
0.0
 10
273.6053805619476
 20
39.12146681009079
 30
0.0
 10
273.5520000877803
 20
39.04761781701423
 30
0.0
 10
273.5176679855306
 20
39.01164185628554
 30
0.0
 10
273.4324541046
 20
38.94125382734435
 30
0.0
 10
273.3820822979298
 20
38.90746410824909
 30
0.0
 10
273.2698055038883
 20
38.84512577624256
 30
0.0
 10
273.2064511865044
 20
38.8158240610547
 30
0.0
 10
273.0718913725638
 20
38.76414556775345
 30
0.0
 10
273.000914928371
 20
38.7416893453104
 30
0.0
 10
272.8518251139064
 20
38.70377001626449
 30
0.0
 10
272.7753165578365
 20
38.68876924899903
 30
0.0
 10
272.62124750421
 20
38.66714462390454
 30
0.0
 10
272.5425405758887
 20
38.66043828990201
 30
0.0
 10
272.3884051568753
 20
38.65604910933711
 30
0.0
 10
272.312587410306
 20
38.65823375284052
 30
0.0
 10
272.1632677594765
 20
38.67173186148383
 30
0.0
 10
272.0903665598078
 20
38.68308538274927
 30
0.0
 10
271.8826475316126
 20
38.73013336665071
 30
0.0
 10
271.7546308477465
 20
38.78014146909985
 30
0.0
 10
271.5397802530087
 20
38.91019715812988
 30
0.0
 10
271.4502201733451
 20
38.99193820270345
 30
0.0
 10
271.3231658522575
 20
39.17331214662652
 30
0.0
 10
271.2839465928182
 20
39.2754007485441
 30
0.0
 10
271.2703720391556
 20
39.42860647114728
 30
0.0
 10
271.2732313165924
 20
39.48065452653306
 30
0.0
 10
271.2950166443251
 20
39.58237777025481
 30
0.0
 10
271.313621961035
 20
39.63138528077641
 30
0.0
 10
271.3669177698966
 20
39.7249005115175
 30
0.0
 10
271.4023233758818
 20
39.76995662539352
 30
0.0
 10
271.4872969547364
 20
39.85024922106459
 30
0.0
 10
271.5367878520464
 20
39.88587178938458
 30
0.0
 10
271.6503193489174
 20
39.94758236130862
 30
0.0
 10
271.7134200855074
 20
39.97296748144952
 30
0.0
 10
271.84762193981
 20
40.01185858112331
 30
0.0
 10
271.9202016624346
 20
40.02571321788104
 30
0.0
 10
272.1426721570897
 20
40.04994844251282
 30
0.0
 10
272.3009019301929
 20
40.04376244583294
 30
0.0
 10
272.4562556186922
 20
40.02086027724154
 30
0.0
  0
LINE
  5
1BC
330
1F
100
AcDbEntity
  8
0
  6
Continuous
 62
     7
370
    15
100
AcDbLine
 10
276.1784277665
 20
34.2956797685
 30
0.0
 11
276.9320255972
 21
35.2331483056
 31
0.0
  0
SPLINE
  5
1BD
330
1F
100
AcDbEntity
  8
0
  6
Continuous
 62
     7
370
    15
100
AcDbSpline
210
0.0
220
0.0
230
1.0
 70
     8
 71
     3
 72
    21
 73
    17
 74
     0
 42
0.000000001
 43
0.00000001
 40
0.0
 40
0.0
 40
0.0
 40
0.0
 40
0.0416666666666668
 40
0.0833333333333333
 40
0.1250000000000027
 40
0.1666666666666666
 40
0.2083333333333333
 40
0.2499999999976954
 40
0.3339999999999607
 40
0.4180000000000001
 40
0.4330099753158395
 40
0.4330099753158395
 40
0.501999999999741
 40
0.5859999999988207
 40
0.6699999999999805
 40
0.8156536847925685
 40
0.8156536847925685
 40
0.8156536847925685
 40
0.8156536847925685
 10
276.9320255972272
 20
35.23314830555663
 30
0.0
 10
276.9620020643222
 20
35.27043874564189
 30
0.0
 10
277.0201490126828
 20
35.35075175270134
 30
0.0
 10
277.1002152151023
 20
35.48870120214511
 30
0.0
 10
277.1680486828854
 20
35.64130815002073
 30
0.0
 10
277.2175826691595
 20
35.8022091256051
 30
0.0
 10
277.2430036391151
 20
35.96215524398811
 30
0.0
 10
277.2388794118243
 20
36.16173624455163
 30
0.0
 10
277.1630159227519
 20
36.35195776063255
 30
0.0
 10
277.0204584538328
 20
36.42283292263245
 30
0.0
 10
276.9465903455082
 20
36.43424178246298
 30
0.0
 10
276.8874629136284
 20
36.44050183538651
 30
0.0
 10
276.7992298431813
 20
36.44647447068315
 30
0.0
 10
276.6660033676255
 20
36.45927515707656
 30
0.0
 10
276.5337595510155
 20
36.47082795903053
 30
0.0
 10
276.326124520039
 20
36.48937819813065
 30
0.0
 10
276.1784746572304
 20
36.50259546402383
 30
0.0
  0
SPLINE
  5
1BE
330
1F
100
AcDbEntity
  8
0
  6
Continuous
 62
     7
370
    15
100
AcDbSpline
210
0.0
220
0.0
230
1.0
 70
     8
 71
     3
 72
    21
 73
    17
 74
     0
 42
0.000000001
 43
0.00000001
 40
0.0
 40
0.0
 40
0.0
 40
0.0
 40
0.0416666666666668
 40
0.0833333333333333
 40
0.1250000000000027
 40
0.1666666666666666
 40
0.2083333333333333
 40
0.2499999999976954
 40
0.3339999999999607
 40
0.4180000000000001
 40
0.4330099753158395
 40
0.4330099753158395
 40
0.501999999999741
 40
0.5859999999988207
 40
0.6699999999999805
 40
0.8133971939531328
 40
0.8133971939531328
 40
0.8133971939531328
 40
0.8133971939531328
 10
271.5580140602105
 20
32.13079748063097
 30
0.0
 10
271.5289408136803
 20
32.13339706697572
 30
0.0
 10
271.4694714582932
 20
32.14669327874631
 30
0.0
 10
271.3899367641043
 20
32.19215273749001
 30
0.0
 10
271.3219608739386
 20
32.26645355142789
 30
0.0
 10
271.2724650689642
 20
32.37016044127495
 30
0.0
 10
271.2470337961928
 20
32.50075686168394
 30
0.0
 10
271.2511620795947
 20
32.70510019042235
 30
0.0
 10
271.3270183908297
 20
32.98290509244426
 30
0.0
 10
271.4695928797044
 20
33.21839426390034
 30
0.0
 10
271.5434450603121
 20
33.31506954208023
 30
0.0
 10
271.6025584640348
 20
33.38957918491978
 30
0.0
 10
271.6907616728963
 20
33.49738650934327
 30
0.0
 10
271.8242862971221
 20
33.66437805714358
 30
0.0
 10
271.954116872535
 20
33.82561624029542
 30
0.0
 10
272.1644036574709
 20
34.08719390723973
 30
0.0
 10
272.3115645921323
 20
34.27027484617985
 30
0.0
  0
LINE
  5
1BF
330
1F
100
AcDbEntity
  8
0
  6
Continuous
 62
     7
370
    15
100
AcDbLine
 10
272.3116118909
 20
32.0634144786
 30
0.0
 11
271.5580140602
 21
32.1307974806
 31
0.0
  0
SPLINE
  5
1C0
330
1F
100
AcDbEntity
  8
0
  6
Continuous
 62
     7
370
    15
100
AcDbSpline
210
0.0
220
0.0
230
1.0
 70
     8
 71
     3
 72
    11
 73
     7
 74
     0
 42
0.000000001
 43
0.00000001
 40
0.0
 40
0.0
 40
0.0
 40
0.0
 40
0.3176374646798115
 40
0.6352804794092023
 40
0.9529670978539354
 40
1.0
 40
1.0
 40
1.0
 40
1.0
 10
271.4873033820913
 20
32.39468771466694
 30
0.0
 10
271.4447779947997
 20
32.40514693984863
 30
0.0
 10
271.3597264771742
 20
32.42606557296508
 30
0.0
 10
271.280940581174
 20
32.54234915619781
 30
0.0
 10
271.2432411675621
 20
32.65284482858532
 30
0.0
 10
271.2519656216858
 20
32.7256963846535
 30
0.0
 10
271.2530906955411
 20
32.73509105621426
 30
0.0
  0
ARC
  5
1C1
330
1F
100
AcDbEntity
  8
0
  6
Continuous
 62
     7
370
    15
100
AcDbCircle
 10
271.0626599168
 20
35.2932243517
 30
0.0
 40
1.614369405998063
100
AcDbArc
 50
320.6798720337
 51
328.5140283567
  0
SPLINE
  5
1C2
330
1F
100
AcDbEntity
  8
0
  6
Continuous
 62
     7
370
    15
100
AcDbSpline
210
0.0
220
0.0
230
1.0
 70
     8
 71
     3
 72
    16
 73
    12
 74
     0
 42
0.000000001
 43
0.00000001
 40
0.0
 40
0.0
 40
0.0
 40
0.0
 40
0.2499999999999952
 40
0.2499999999999952
 40
0.4999999999999903
 40
0.4999999999999903
 40
0.6249999999999931
 40
0.6249999999999931
 40
0.7499999999999959
 40
0.7499999999999959
 40
1.0
 40
1.0
 40
1.0
 40
1.0
 10
276.1784746572305
 20
36.50259546402383
 30
0.0
 10
276.1540321320071
 20
36.50478350097038
 30
0.0
 10
276.1274608422619
 20
36.50580834181021
 30
0.0
 10
276.0667602034387
 20
36.5037271815441
 30
0.0
 10
276.0322077778759
 20
36.50076192930556
 30
0.0
 10
275.9741338613562
 20
36.48845189274235
 30
0.0
 10
275.9541197071428
 20
36.48291525565256
 30
0.0
 10
275.9182440685908
 20
36.4698872627847
 30
0.0
 10
275.9024567877963
 20
36.46245431748684
 30
0.0
 10
275.8642889341442
 20
36.44077923192575
 30
0.0
 10
275.8488047225819
 20
36.42681146207802
 30
0.0
 10
275.8369308139716
 20
36.41363651573096
 30
0.0
  0
SPLINE
  5
1C3
330
1F
100
AcDbEntity
  8
0
  6
Continuous
 62
     7
370
    15
100
AcDbSpline
210
0.0
220
0.0
230
1.0
 70
     8
 71
     3
 72
     8
 73
     4
 74
     0
 42
0.000000001
 43
0.00000001
 40
0.0
 40
0.0
 40
0.0
 40
0.0
 40
1.0
 40
1.0
 40
1.0
 40
1.0
 10
275.8369308139715
 20
36.41363651573093
 30
0.0
 10
275.8040448333122
 20
36.42678255702111
 30
0.0
 10
275.771907409332
 20
36.44152043726076
 30
0.0
 10
275.7464336380385
 20
36.45622613240898
 30
0.0
  0
LINE
  5
1C4
330
1F
100
AcDbEntity
  8
0
  6
Continuous
 62
     7
370
    15
100
AcDbLine
 10
275.0083565381
 20
36.8823089728
 30
0.0
 11
275.746433638
 21
36.4562261324
 31
0.0
  0
ARC
  5
1C5
330
1F
100
AcDbEntity
  8
0
  6
Continuous
 62
     7
370
    15
100
AcDbCircle
 10
270.5542332573
 20
36.6782210862
 30
0.0
 40
3.550693266719307
100
AcDbArc
 50
339.158604933
 51
358.272950968
  0
LINE
  5
1C6
330
1F
100
AcDbEntity
  8
0
  6
Continuous
 62
     7
370
    15
100
AcDbLine
 10
273.8726006679
 20
35.4149474015
 30
0.0
 11
275.746433638
 21
34.3332066534
 31
0.0
  0
LINE
  5
1C7
330
1F
100
AcDbEntity
  8
0
  6
Continuous
 62
     7
370
    15
100
AcDbLine
 10
271.3387428555
 20
32.9208765422
 30
0.0
 11
272.3193419507
 21
32.3547887341
 31
0.0
  0
LWPOLYLINE
  5
1C8
330
1F
100
AcDbEntity
  8
0
  6
Continuous
 62
     7
370
    15
100
AcDbPolyline
 90
       13
 70
   128
 43
0.0
 10
273.1666997674
 20
38.7927495188
 10
273.2679697972
 20
38.8969590749
 10
273.3345752062
 20
39.0902627126
 10
273.2679697972
 20
39.2835663503
 10
273.0782936398
 20
39.4474412615
 10
272.7944232095
 20
39.5569389765
 10
272.4595752062
 20
39.5953894607
 10
272.1247272029
 20
39.5569389765
 10
271.8408567727
 20
39.4474412615
 10
271.6511806153
 20
39.2835663503
 10
271.5845752062
 20
39.0902627126
 10
271.6511806153
 20
38.8969590749
 10
271.7806218776
 20
38.7716295051
  0
LINE
  5
1C9
330
1F
100
AcDbEntity
  8
0
  6
Continuous
 62
     7
370
    15
100
AcDbLine
 10
246.9132683545
 20
25.9617779196
 30
0.0
 11
248.7411224732
 21
24.9065801974
 31
0.0
  0
SPLINE
  5
1CA
330
1F
100
AcDbEntity
  8
0
  6
Continuous
 62
     7
370
    15
100
AcDbSpline
210
0.0
220
0.0
230
1.0
 70
     8
 71
     3
 72
    14
 73
    10
 74
     0
 42
0.000000001
 43
0.00000001
 40
0.0
 40
0.0
 40
0.0
 40
0.0
 40
0.25
 40
0.25
 40
0.5
 40
0.5
 40
0.75
 40
0.75
 40
1.0
 40
1.0
 40
1.0
 40
1.0
 10
248.6956152328342
 20
24.78821217728992
 30
0.0
 10
248.6789403897679
 20
24.74483955918334
 30
0.0
 10
248.6586451468519
 20
24.70460922973749
 30
0.0
 10
248.6103481677815
 20
24.63083734206535
 30
0.0
 10
248.5821293199764
 20
24.59726773538824
 30
0.0
 10
248.5192039715533
 20
24.54371632972562
 30
0.0
 10
248.4840407955363
 20
24.52326030036596
 30
0.0
 10
248.4093578063278
 20
24.50582800685408
 30
0.0
 10
248.3708329311194
 20
24.50977531583898
 30
0.0
 10
248.3368892284221
 20
24.5293705983088
 30
0.0
  0
LINE
  5
1CB
330
1F
100
AcDbEntity
  8
0
  6
Continuous
 62
     7
370
    15
100
AcDbLine
 10
248.3368892284
 20
24.5293705983
 30
0.0
 11
246.8813670209
 21
25.3696256834
 31
0.0
  0
SPLINE
  5
1CC
330
1F
100
AcDbEntity
  8
0
  6
Continuous
 62
     7
370
    15
100
AcDbSpline
210
0.0
220
0.0
230
1.0
 70
     8
 71
     3
 72
     8
 73
     4
 74
     0
 42
0.000000001
 43
0.00000001
 40
0.0
 40
0.0
 40
0.0
 40
0.0
 40
0.0011862984959112
 40
0.0011862984959112
 40
0.0011862984959112
 40
0.0011862984959112
 10
246.8813670208604
 20
25.36962568340182
 30
0.0
 10
246.8915801486778
 20
25.56702458529075
 30
0.0
 10
246.902206155253
 20
25.76441042226753
 30
0.0
 10
246.9132683545106
 20
25.96177791961787
 30
0.0
  0
SPLINE
  5
1CD
330
1F
100
AcDbEntity
  8
0
  6
Continuous
 62
     7
370
    15
100
AcDbSpline
210
0.0
220
0.0
230
1.0
 70
     8
 71
     3
 72
     9
 73
     5
 74
     0
 42
0.000000001
 43
0.00000001
 40
0.0
 40
0.0
 40
0.0
 40
0.0
 40
0.4628886336087525
 40
0.9999999999999999
 40
0.9999999999999999
 40
0.9999999999999999
 40
0.9999999999999999
 10
281.4978628583399
 20
43.62715549562502
 30
0.0
 10
281.4950236285565
 20
43.6287973282891
 30
0.0
 10
281.4888899074468
 20
43.63234425630778
 30
0.0
 10
281.4558207616785
 20
43.65144158451037
 30
0.0
 10
281.4380589476095
 20
43.66169897655568
 30
0.0
  0
ARC
  5
1CE
330
1F
100
AcDbEntity
  8
0
  6
Continuous
 62
     7
370
    15
100
AcDbCircle
 10
257.2143214199
 20
26.4671490285
 30
0.0
 40
9.03710149297939
100
AcDbArc
 50
197.3988762735
 51
282.0547991729
  0
SPLINE
  5
1CF
330
1F
100
AcDbEntity
  8
0
  6
Continuous
 62
     7
370
    15
100
AcDbSpline
210
0.0
220
0.0
230
1.0
 70
     8
 71
     3
 72
     8
 73
     4
 74
     0
 42
0.000000001
 43
0.00000001
 40
0.0
 40
0.0
 40
0.0
 40
0.0
 40
1.0
 40
1.0
 40
1.0
 40
1.0
 10
247.15938670826
 20
26.45901607420474
 30
0.0
 10
247.0771885274743
 20
26.29329574770127
 30
0.0
 10
246.9951541593224
 20
26.1275488723633
 30
0.0
 10
246.9132683545106
 20
25.96177791961787
 30
0.0
  0
LINE
  5
1D0
330
1F
100
AcDbEntity
  8
0
  6
Continuous
 62
     7
370
    15
100
AcDbLine
 10
247.2084061506
 20
26.4873143959
 30
0.0
 11
247.1593867083
 21
26.4590160742
 31
0.0
  0
SPLINE
  5
1D1
330
1F
100
AcDbEntity
  8
0
  6
Continuous
 62
     7
370
    15
100
AcDbSpline
210
0.0
220
0.0
230
1.0
 70
     8
 71
     3
 72
    12
 73
     8
 74
     0
 42
0.000000001
 43
0.00000001
 40
0.0
 40
0.0
 40
0.0
 40
0.0
 40
0.249999999999997
 40
0.249999999999997
 40
0.499999999999994
 40
0.499999999999994
 40
1.0
 40
1.0
 40
1.0
 40
1.0
 10
247.2201883960444
 20
26.82067938616588
 30
0.0
 10
247.2577871806191
 20
26.79897406984159
 30
0.0
 10
247.2879647398655
 20
26.77217219926841
 30
0.0
 10
247.3265544745464
 20
26.71454849443842
 30
0.0
 10
247.3354139597362
 20
26.68350036886705
 30
0.0
 10
247.3303665258979
 20
26.59131139246174
 30
0.0
 10
247.2836642388226
 20
26.53075996548689
 30
0.0
 10
247.2084061506243
 20
26.48731439593494
 30
0.0
  0
LINE
  5
1D2
330
1F
100
AcDbEntity
  8
0
  6
Continuous
 62
     7
370
    15
100
AcDbLine
 10
246.4352998689
 20
27.2737858882
 30
0.0
 11
247.220188396
 21
26.8206793862
 31
0.0
  0
SPLINE
  5
1D3
330
1F
100
AcDbEntity
  8
0
  6
Continuous
 62
     7
370
    15
100
AcDbSpline
210
0.0
220
0.0
230
1.0
 70
     8
 71
     3
 72
    10
 73
     6
 74
     0
 42
0.000000001
 43
0.00000001
 40
0.0
 40
0.0
 40
0.0
 40
0.0
 40
0.5
 40
0.5
 40
1.0
 40
1.0
 40
1.0
 40
1.0
 10
245.857832198558
 20
27.26698414272564
 30
0.0
 10
245.9339695888965
 20
27.31093732259835
 30
0.0
 10
246.0374773695809
 20
27.33742398877714
 30
0.0
 10
246.2519726616667
 20
27.34125205916447
 30
0.0
 10
246.3594029060849
 20
27.31760027226106
 30
0.0
 10
246.4352998689274
 20
27.27378588822748
 30
0.0
  0
LINE
  5
1D4
330
1F
100
AcDbEntity
  8
0
  6
Continuous
 62
     7
370
    15
100
AcDbLine
 10
245.8088127562
 20
27.238685821
 30
0.0
 11
245.8578321986
 21
27.2669841427
 31
0.0
  0
SPLINE
  5
1D5
330
1F
100
AcDbEntity
  8
0
  6
Continuous
 62
     7
370
    15
100
AcDbSpline
210
0.0
220
0.0
230
1.0
 70
     8
 71
     3
 72
     8
 73
     4
 74
     0
 42
0.000000001
 43
0.00000001
 40
0.0
 40
0.0
 40
0.0
 40
0.0
 40
1.0
 40
1.0
 40
1.0
 40
1.0
 10
244.9474776815391
 20
27.09660471965737
 30
0.0
 10
245.2346325079365
 20
27.1438763885694
 30
0.0
 10
245.5217456265217
 20
27.19123382127214
 30
0.0
 10
245.8088127561936
 20
27.23868582099543
 30
0.0
  0
LINE
  5
1D6
330
1F
100
AcDbEntity
  8
0
  6
Continuous
 62
     7
370
    15
100
AcDbLine
 10
243.4908546229
 20
27.9374953125
 30
0.0
 11
244.9474776815
 21
27.0966047197
 31
0.0
  0
LINE
  5
1D7
330
1F
100
AcDbEntity
  8
0
  6
Continuous
 62
     7
370
    15
100
AcDbLine
 10
243.4908546229
 20
27.9374953125
 30
0.0
 11
246.6325000234
 21
29.7511285979
 31
0.0
  0
ARC
  5
1D8
330
1F
100
AcDbEntity
  8
0
  6
Continuous
 62
     7
370
    15
100
AcDbCircle
 10
256.4851885977
 20
27.8510624628
 30
0.0
 40
9.919219594844286
100
AcDbArc
 50
194.4872476674
 51
237.9563432684
  0
LINE
  5
1D9
330
1F
100
AcDbEntity
  8
0
  6
Continuous
 62
     7
370
    15
100
AcDbLine
 10
272.3702661311
 20
32.3157375395
 30
0.0
 11
271.4873033821
 21
32.3946877147
 31
0.0
  0
SPLINE
  5
1DA
330
1F
100
AcDbEntity
  8
0
  6
Continuous
 62
     7
370
    15
100
AcDbSpline
210
0.0
220
0.0
230
1.0
 70
     8
 71
     3
 72
    16
 73
    12
 74
     0
 42
0.000000001
 43
0.00000001
 40
0.0
 40
0.0
 40
0.0
 40
0.0
 40
0.249999999999992
 40
0.249999999999992
 40
0.499999999999984
 40
0.499999999999984
 40
0.6249999999999841
 40
0.6249999999999841
 40
0.7499999999999842
 40
0.7499999999999842
 40
1.0
 40
1.0
 40
1.0
 40
1.0
 10
272.311611890926
 20
32.06341447859389
 30
0.0
 10
272.3359379027067
 20
32.06123936657185
 30
0.0
 10
272.3597494919145
 20
32.06208630211407
 30
0.0
 10
272.4026875020297
 20
32.07460181955999
 30
0.0
 10
272.4231516285815
 20
32.08644229433737
 30
0.0
 10
272.4392578894389
 20
32.12251481921394
 30
0.0
 10
272.4418642399863
 20
32.13810189779258
 30
0.0
 10
272.4390675099834
 20
32.17367715190878
 30
0.0
 10
272.4338502527181
 20
32.19302606241921
 30
0.0
 10
272.4126115439748
 20
32.24867581445763
 30
0.0
 10
272.3918062729181
 20
32.28351293985965
 30
0.0
 10
272.3702661310543
 20
32.31573753953757
 30
0.0
  0
SPLINE
  5
1DB
330
1F
100
AcDbEntity
  8
0
  6
Continuous
 62
     7
370
    15
100
AcDbSpline
210
0.0
220
0.0
230
1.0
 70
     8
 71
     3
 72
     8
 73
     4
 74
     0
 42
0.000000001
 43
0.00000001
 40
0.0
 40
0.0
 40
0.0
 40
0.0
 40
1.0
 40
1.0
 40
1.0
 40
1.0
 10
272.3193419506874
 20
32.35478873406694
 30
0.0
 10
272.3447680090723
 20
32.34011058299456
 30
0.0
 10
272.3613161055039
 20
32.32674232868369
 30
0.0
 10
272.3702661310546
 20
32.31573753953742
 30
0.0
  0
SPLINE
  5
1DC
330
1F
100
AcDbEntity
  8
0
  6
Continuous
 62
     7
370
    15
100
AcDbSpline
210
0.0
220
0.0
230
1.0
 70
     8
 71
     3
 72
     8
 73
     4
 74
     0
 42
0.000000001
 43
0.00000001
 40
0.0
 40
0.0
 40
0.0
 40
0.0
 40
1.0
 40
1.0
 40
1.0
 40
1.0
 10
275.7464336380385
 20
34.33320665336525
 30
0.0
 10
275.7718596964232
 20
34.31852850229293
 30
0.0
 10
275.8040481106163
 20
34.31418921123893
 30
0.0
 10
275.836930813909
 20
34.31700046287047
 30
0.0
  0
SPLINE
  5
1DD
330
1F
100
AcDbEntity
  8
0
  6
Continuous
 62
     7
370
    15
100
AcDbSpline
210
0.0
220
0.0
230
1.0
 70
     8
 71
     3
 72
    16
 73
    12
 74
     0
 42
0.000000001
 43
0.00000001
 40
0.0
 40
0.0
 40
0.0
 40
0.0
 40
0.2500000000000015
 40
0.2500000000000015
 40
0.375000000000002
 40
0.375000000000002
 40
0.5000000000000026
 40
0.5000000000000026
 40
0.7500000000000012
 40
0.7500000000000012
 40
1.0
 40
1.0
 40
1.0
 40
1.0
 10
275.8369308139088
 20
34.31700046287084
 30
0.0
 10
275.8486429704898
 20
34.27917646007661
 30
0.0
 10
275.8641012356684
 20
34.24124264912186
 30
0.0
 10
275.9015161123749
 20
34.19541938866777
 30
0.0
 10
275.9169289213273
 20
34.18196163742933
 30
0.0
 10
275.952966443655
 20
34.1653394664386
 30
0.0
 10
275.9729840542361
 20
34.16269575554961
 30
0.0
 10
276.0307182033188
 20
34.16894619362527
 30
0.0
 10
276.0659280410046
 20
34.18930849246016
 30
0.0
 10
276.1271893785218
 20
34.23701428796071
 30
0.0
 10
276.1538940691051
 20
34.26516008213058
 30
0.0
 10
276.1784277665117
 20
34.29567976846683
 30
0.0
  0
ELLIPSE
  5
1DE
330
1F
100
AcDbEntity
  8
0
  6
Continuous
 62
     7
370
    15
100
AcDbEllipse
 10
246.3396068046
 20
30.736753066
 30
0.0
 11
-7.507462981948265E-5
 21
1.066811201853401
 31
0.0
210
0.0
220
0.0
230
1.0
 40
0.7174342186
 41
3.534193645557443
 42
5.104989972352355
  0
SPLINE
  5
1DF
330
1F
100
AcDbEntity
  8
0
  6
Continuous
 62
     7
370
    15
100
AcDbSpline
210
0.0
220
0.0
230
1.0
 70
     8
 71
     3
 72
    20
 73
    16
 74
     0
 42
0.000000001
 43
0.00000001
 40
0.0
 40
0.0
 40
0.0
 40
0.0
 40
0.125
 40
0.125
 40
0.2500000000000001
 40
0.2500000000000001
 40
0.5
 40
0.5
 40
0.625
 40
0.625
 40
0.75
 40
0.75
 40
0.8750000000000001
 40
0.8750000000000001
 40
1.0
 40
1.0
 40
1.0
 40
1.0
 10
276.7198935628718
 20
35.41539772841095
 30
0.0
 10
276.7549571077101
 20
35.45901644484696
 30
0.0
 10
276.7866754643724
 20
35.50537831071066
 30
0.0
 10
276.8426911686375
 20
35.60395547130996
 30
0.0
 10
276.8667828272462
 20
35.65601092282655
 30
0.0
 10
276.9241951689384
 20
35.81174498958898
 30
0.0
 10
276.9431514994207
 20
35.91845488538989
 30
0.0
 10
276.9411514804538
 20
36.05910553414935
 30
0.0
 10
276.9356021662289
 20
36.10200179775639
 30
0.0
 10
276.91537879349
 20
36.17947356836811
 30
0.0
 10
276.9007112787158
 20
36.21320790420501
 30
0.0
 10
276.8631570935547
 20
36.2687565425769
 30
0.0
 10
276.8399097570381
 20
36.29092256474846
 30
0.0
 10
276.7860751362161
 20
36.32207633458997
 30
0.0
 10
276.7549630665058
 20
36.33155060384829
 30
0.0
 10
276.719893518696
 20
36.33468636613043
 30
0.0
  0
LWPOLYLINE
  5
1E0
330
1F
100
AcDbEntity
  8
0
  6
Continuous
 62
     7
370
    15
100
AcDbPolyline
 90
        4
 70
   128
 43
0.0
 10
276.7198935187
 20
36.3346863661
 10
276.4575178081
 20
36.3581466871
 10
276.19514206
 20
36.3816070296
 10
275.836930814
 20
36.4136365157
  0
SPLINE
  5
1E1
330
1F
100
AcDbEntity
  8
0
  6
Continuous
 62
     7
370
    15
100
AcDbSpline
210
0.0
220
0.0
230
1.0
 70
     8
 71
     3
 72
    10
 73
     6
 74
     0
 42
0.000000001
 43
0.00000001
 40
0.0
 40
0.0
 40
0.0
 40
0.0
 40
0.3482864793192263
 40
0.7262033671299868
 40
1.0
 40
1.0
 40
1.0
 40
1.0
 10
278.3285614900713
 20
44.57350344584146
 30
0.0
 10
278.3712092412179
 20
44.57359124977027
 30
0.0
 10
278.4601329931355
 20
44.57377432753107
 30
0.0
 10
278.5760905851041
 20
44.6019969779685
 30
0.0
 10
278.6360834777835
 20
44.63205037670058
 30
0.0
 10
278.6612875766559
 20
44.64467635286652
 30
0.0
  0
ARC
  5
1E2
330
1F
100
AcDbEntity
  8
0
  6
Continuous
 62
     7
370
    15
100
AcDbCircle
 10
256.3189934489
 20
30.1268106798
 30
0.0
 40
10.89977813506342
100
AcDbArc
 50
195.3652282392
 51
215.9036224404
  0
ARC
  5
1E3
330
1F
100
AcDbEntity
  8
0
  6
Continuous
 62
     7
370
    15
100
AcDbCircle
 10
253.7359474605
 20
28.8769921033
 30
0.0
 40
9.398892711071438
100
AcDbArc
 50
193.4589328453
 51
247.459696517
  0
SPLINE
  5
1E4
330
1F
100
AcDbEntity
  8
0
  6
Continuous
 62
     7
370
    15
100
AcDbSpline
210
0.0
220
0.0
230
1.0
 70
     8
 71
     3
 72
     8
 73
     4
 74
     0
 42
0.000000001
 43
0.00000001
 40
0.0000000000000004
 40
0.0000000000000004
 40
0.0000000000000004
 40
0.0000000000000004
 40
0.0011862984959127
 40
0.0011862984959127
 40
0.0011862984959127
 40
0.0011862984959127
 10
244.9474776815396
 20
27.09660471965641
 30
0.0
 10
244.8303272125445
 20
26.96048067682164
 30
0.0
 10
244.7128874621074
 20
26.82475710165872
 30
0.0
 10
244.5951765942628
 20
26.68941532416424
 30
0.0
  0
LINE
  5
1E5
330
1F
100
AcDbEntity
  8
0
  6
Continuous
 62
     7
370
    15
100
AcDbLine
 10
243.0553195659
 20
27.6860142349
 30
0.0
 11
243.4908546229
 21
27.9374953125
 31
0.0
  0
LINE
  5
1E6
330
1F
100
AcDbEntity
  8
0
  6
Continuous
 62
     7
370
    15
100
AcDbLine
 10
244.5951765943
 20
26.6894153242
 30
0.0
 11
243.1573320562
 21
27.5194653079
 31
0.0
  0
SPLINE
  5
1E7
330
1F
100
AcDbEntity
  8
0
  6
Continuous
 62
     7
370
    15
100
AcDbSpline
210
0.0
220
0.0
230
1.0
 70
     8
 71
     3
 72
    10
 73
     6
 74
     0
 42
0.000000001
 43
0.00000001
 40
0.0
 40
0.0
 40
0.0
 40
0.0
 40
0.5
 40
0.5
 40
1.0
 40
1.0
 40
1.0
 40
1.0
 10
243.1573320562307
 20
27.51946530785948
 30
0.0
 10
243.13092262695
 20
27.5347111468664
 30
0.0
 10
243.1086392227409
 20
27.55856856927867
 30
0.0
 10
243.0745320879194
 20
27.61649466101294
 30
0.0
 10
243.0626320578645
 20
27.65039319249379
 30
0.0
 10
243.0553195659078
 20
27.68601423494815
 30
0.0
  0
ARC
  5
1E8
330
1F
100
AcDbEntity
  8
0
  6
Continuous
 62
     7
370
    15
100
AcDbCircle
 10
252.6065767998
 20
29.8364396011
 30
0.0
 40
9.697899607617781
100
AcDbArc
 50
198.5524398359
 51
238.2149284504
  0
LINE
  5
1E9
330
1F
100
AcDbEntity
  8
0
  6
Continuous
 62
     7
370
    15
100
AcDbLine
 10
275.8369308139
 20
34.3170004629
 30
0.0
 11
276.7198935629
 21
35.4153977284
 31
0.0
  0
LINE
  5
1EA
330
1F
100
AcDbEntity
  8
0
  6
Continuous
 62
     7
370
    15
100
AcDbLine
 10
273.8726006679
 20
35.4149474015
 30
0.0
 11
274.7753499146
 21
36.5379588822
 31
0.0
  0
ARC
  5
1EB
330
1F
100
AcDbEntity
  8
0
  6
Continuous
 62
     7
370
    15
100
AcDbCircle
 10
273.9182600709
 20
37.2268317366
 30
0.0
 40
1.099613027285574
100
AcDbArc
 50
321.2099518319
 51
341.4795528601
  0
ELLIPSE
  5
1EC
330
1F
100
AcDbEntity
  8
0
  6
Continuous
 62
     7
370
    15
100
AcDbEllipse
 10
246.2789466328
 20
30.7017233104
 30
0.0
 11
0.3250094736511925
 21
1.213179526238665
 31
0.0
210
0.0
220
0.0
230
1.0
 40
0.5176380889
 41
3.619174351347777
 42
5.189970678142607
  0
SPLINE
  5
1ED
330
1F
100
AcDbEntity
  8
0
  6
Continuous
 62
     7
370
    15
100
AcDbSpline
210
0.0
220
0.0
230
1.0
 70
     8
 71
     3
 72
    12
 73
     8
 74
     0
 42
0.000000001
 43
0.00000001
 40
0.0
 40
0.0
 40
0.0
 40
0.0
 40
0.5000000000000003
 40
0.5000000000000003
 40
0.7500000000000001
 40
0.7500000000000001
 40
1.0
 40
1.0
 40
1.0
 40
1.0
 10
272.8128037217831
 20
62.70604661136895
 30
0.0
 10
272.8758635990127
 20
62.74245030361921
 30
0.0
 10
272.9557965522438
 20
62.7692816154708
 30
0.0
 10
273.0887757405504
 20
62.78303845698133
 30
0.0
 10
273.1344469096624
 20
62.7829173231824
 30
0.0
 10
273.2220847282999
 20
62.77014294156076
 30
0.0
 10
273.2628286391541
 20
62.75730295590599
 30
0.0
 10
273.2943423214927
 20
62.73911049432935
 30
0.0
  0
LINE
  5
1EE
330
1F
100
AcDbEntity
  8
0
  6
Continuous
 62
     7
370
    15
100
AcDbLine
 10
273.2943423215
 20
62.7391104943
 30
0.0
 11
273.9540107329
 21
62.3582920263
 31
0.0
  0
LINE
  5
1EF
330
1F
100
AcDbEntity
  8
0
  6
Continuous
 62
     7
370
    15
100
AcDbLine
 10
275.623878052
 20
60.2834960975
 30
0.0
 11
277.0183772861
 21
60.5892708699
 31
0.0
  0
LINE
  5
1F0
330
1F
100
AcDbEntity
  8
0
  6
Continuous
 62
     7
370
    15
100
AcDbLine
 10
277.0183772861
 20
60.5892708699
 30
0.0
 11
278.4738994937
 21
59.7490157848
 31
0.0
  0
SPLINE
  5
1F1
330
1F
100
AcDbEntity
  8
0
  6
Continuous
 62
     7
370
    15
100
AcDbSpline
210
0.0
220
0.0
230
1.0
 70
     8
 71
     3
 72
    12
 73
     8
 74
     0
 42
0.000000001
 43
0.00000001
 40
0.0
 40
0.0
 40
0.0
 40
0.0
 40
0.250000000000004
 40
0.250000000000004
 40
0.500000000000008
 40
0.500000000000008
 40
1.0
 40
1.0
 40
1.0
 40
1.0
 10
278.4738994936843
 20
59.74901578477857
 30
0.0
 10
278.5055556241844
 20
59.73074108962865
 30
0.0
 10
278.5278549011945
 20
59.70691697883036
 30
0.0
 10
278.5496754717865
 20
59.65688507638266
 30
0.0
 10
278.5499562341126
 20
59.63049386796877
 30
0.0
 10
278.5265888599919
 20
59.55441863797385
 30
0.0
 10
278.4795504571869
 20
59.50735558302343
 30
0.0
 10
278.4166249626865
 20
59.47102946827146
 30
0.0
  0
LINE
  5
1F2
330
1F
100
AcDbEntity
  8
0
  6
Continuous
 62
     7
370
    15
100
AcDbLine
 10
272.8128037218
 20
62.7060466114
 30
0.0
 11
272.7210133029
 21
62.6530571305
 31
0.0
  0
SPLINE
  5
1F3
330
1F
100
AcDbEntity
  8
0
  6
Continuous
 62
     7
370
    15
100
AcDbSpline
210
0.0
220
0.0
230
1.0
 70
     8
 71
     3
 72
    13
 73
     9
 74
     0
 42
0.000000001
 43
0.00000001
 40
0.0
 40
0.0
 40
0.0
 40
0.0
 40
0.1983786991582754
 40
0.4023613765202677
 40
0.6008371701273765
 40
0.8061017033645707
 40
0.9876523014830586
 40
1.0
 40
1.0
 40
1.0
 40
1.0
 10
281.4380589476095
 20
54.39509014994497
 30
0.0
 10
281.4479823033371
 20
54.41389859889547
 30
0.0
 10
281.4681093385843
 20
54.45204681461643
 30
0.0
 10
281.4877528341015
 20
54.51294722851697
 30
0.0
 10
281.4991067004909
 20
54.57557986506519
 30
0.0
 10
281.4987181785258
 20
54.63456358678987
 30
0.0
 10
281.4943635822105
 20
54.67444420099977
 30
0.0
 10
281.4876399377588
 20
54.69129298046932
 30
0.0
 10
281.4872117672381
 20
54.69236593290303
 30
0.0
  0
ARC
  5
1F4
330
1F
100
AcDbEntity
  8
0
  6
Continuous
 62
     7
370
    15
100
AcDbCircle
 10
271.3946129777
 20
52.2815836777
 30
0.0
 40
10.289744401547
100
AcDbArc
 50
20.5708034
 51
46.5284428885
  0
LWPOLYLINE
  5
1F5
330
1F
100
AcDbEntity
  8
0
  6
Continuous
 62
     7
370
    15
100
AcDbPolyline
 90
        3
 70
   128
 43
0.0
 10
275.623878052
 20
60.9644865836
 10
275.6623322572
 20
60.9170219021
 10
276.0488425445
 20
60.4018068682
  0
LINE
  5
1F6
330
1F
100
AcDbEntity
  8
0
  6
Continuous
 62
     7
370
    15
100
AcDbLine
 10
281.3337770639
 20
43.7219191968
 30
0.0
 11
279.4693737241
 21
44.7982163353
 31
0.0
  0
LINE
  5
1F7
330
1F
100
AcDbEntity
  8
0
  6
Continuous
 62
     7
370
    15
100
AcDbLine
 10
278.6612875767
 20
44.6446763529
 30
0.0
 11
278.710307019
 21
44.6729746746
 31
0.0
  0
SPLINE
  5
1F8
330
1F
100
AcDbEntity
  8
0
  6
Continuous
 62
     7
370
    15
100
AcDbSpline
210
0.0
220
0.0
230
1.0
 70
     8
 71
     3
 72
     8
 73
     4
 74
     0
 42
0.000000001
 43
0.00000001
 40
0.0
 40
0.0
 40
0.0
 40
0.0
 40
1.0
 40
1.0
 40
1.0
 40
1.0
 10
278.7103070190201
 20
44.67297467459672
 30
0.0
 10
278.9632929727011
 20
44.71479307929456
 30
0.0
 10
279.2163162350483
 20
44.75653828386994
 30
0.0
 10
279.4693737240531
 20
44.79821633526704
 30
0.0
  0
LWPOLYLINE
  5
1F9
330
1F
100
AcDbEntity
  8
0
  6
Continuous
 62
     7
370
     0
100
AcDbPolyline
 90
       22
 70
   128
 43
0.0
 10
248.3368892284
 20
35.7994663262
 10
248.785625682
 20
37.5828867321
 10
249.339644877
 20
39.3801880281
 10
249.9953177283
 20
41.1795970489
 10
250.7483492716
 20
42.9693268225
 10
251.5938067975
 20
44.7376537806
 10
252.5261521633
 20
46.4729945534
 10
253.5392780701
 20
48.163981846
 10
254.6265480686
 20
49.7995388995
 10
255.780840031
 20
51.3689520492
 10
256.9945928045
 20
52.8619409038
 10
258.2598557397
 20
54.268725687
 10
259.5683407719
 20
55.5800912996
 10
260.9114767111
 20
56.7874476825
 10
262.2804653878
 20
57.882886086
 10
263.6663392851
 20
58.8592308753
 10
265.0600202796
 20
59.7100865348
 10
266.4523791081
 20
60.4298795614
 10
267.8342951681
 20
61.0138949736
 10
269.1967162621
 20
61.4583071969
 10
270.5307178938
 20
61.760205123
 10
270.5938706134
 20
61.7710715889
  0
LINE
  5
1FA
330
1F
100
AcDbEntity
  8
0
  6
Continuous
 62
     7
370
     0
100
AcDbLine
 10
248.6956152328
 20
35.4649561088
 30
0.0
 11
248.8325155428
 21
36.0751754553
 31
0.0
  0
LWPOLYLINE
  5
1FB
330
1F
100
AcDbEntity
  8
0
  6
Continuous
 62
     7
370
     0
100
AcDbPolyline
 90
       11
 70
   128
 43
0.0
 10
263.2544310623
 20
58.0670074789
 10
263.9194134848
 20
58.5181096815
 10
265.3114041257
 20
59.3647156038
 10
266.7017799619
 20
60.0788040613
 10
268.0812285337
 20
60.6555922321
 10
269.44051057
 20
61.0912169044
 10
270.770521871
 20
61.3827603511
 10
272.0623542868
 20
61.5282698722
 10
273.3073553816
 20
61.5267708742
 10
274.4971863869
 20
61.378273397
 10
275.623878052
 20
61.083772047
  0
LWPOLYLINE
  5
1FC
330
1F
100
AcDbEntity
  8
0
  6
Continuous
 62
     7
370
     0
100
AcDbPolyline
 90
       33
 70
   128
 43
0.0
 10
281.4380589476
 20
43.6616989766
 10
281.0087765309
 20
41.9034575288
 10
280.475158201
 20
40.1300030201
 10
279.8406971139
 20
38.3529447847
 10
279.1095465598
 20
36.5839157478
 10
278.2864927744
 20
34.8344962739
 10
277.3769236075
 20
33.1161383601
 10
276.3867932534
 20
31.4400906689
 10
275.3225832736
 20
29.8173248934
 10
274.1912601673
 20
28.2584639339
 10
273.0002297677
 20
26.773712359
 10
271.7572887622
 20
25.3727896047
 10
270.4705736536
 20
24.0648663493
 10
269.1485074976
 20
22.8585044806
 10
267.7997447639
 20
21.7616010482
 10
266.4331146823
 20
20.7813365684
 10
265.0575634455
 20
19.9241280189
 10
263.6820956455
 20
19.1955868324
 10
262.3157153281
 20
18.6004821634
 10
260.967367051
 20
18.142709668
 10
259.645877331
 20
17.8252660028
 10
258.3598968643
 20
17.6502292078
 10
257.1178438974
 20
17.6187451038
 10
255.92784912
 20
17.731019791
 10
254.7977024401
 20
17.9863183002
 10
253.7348019897
 20
18.382969404
 10
252.7461056957
 20
18.918376557
 10
251.838085732
 20
19.5890348929
 10
251.0166861516
 20
20.3905541684
 10
250.2872839755
 20
21.3176875021
 10
249.6546539942
 20
22.3643657219
 10
249.1229375112
 20
23.5237370942
 10
248.6956152328
 20
24.7882121773
  0
ARC
  5
1FD
330
1F
100
AcDbEntity
  8
0
  6
Continuous
 62
     7
370
     0
100
AcDbCircle
 10
271.2579226068
 20
51.7726202124
 30
0.0
 40
10.51249373319325
100
AcDbArc
 50
14.4456909384
 51
47.0804404646
  0
LWPOLYLINE
  5
1FE
330
1F
100
AcDbEntity
  8
0
  6
Continuous
 62
     7
370
     0
100
AcDbPolyline
 90
       22
 70
   128
 43
0.0
 10
260.1205618745
 20
36.7220654505
 10
260.1785708172
 20
37.6280638936
 10
260.351237965
 20
38.5798022008
 10
260.6345161461
 20
39.5549724327
 10
261.0217655601
 20
40.5307174257
 10
261.503909409
 20
41.4841665441
 10
262.0696466497
 20
42.3929717486
 10
262.7057168806
 20
43.2358314156
 10
263.3972111547
 20
43.9929896289
 10
264.1279214322
 20
44.6466992416
 10
264.8807204837
 20
45.1816378546
 10
265.6379633373
 20
45.58526696
 10
266.3819008625
 20
45.8481258338
 10
267.095095794
 20
45.9640532867
 10
267.7608314473
 20
45.9303320776
 10
268.3635035428
 20
45.7477526029
 10
268.8889859575
 20
45.4205943709
 10
269.3249618288
 20
44.9565256931
 10
269.661212252
 20
44.3664239461
 10
269.8898558021
 20
43.6641206147
 10
270.005533268
 20
42.8660770937
 10
270.0197949646
 20
42.4955629168
  0
LWPOLYLINE
  5
1FF
330
1F
100
AcDbEntity
  8
0
  6
Continuous
 62
     7
370
     0
100
AcDbPolyline
 90
       12
 70
   128
 43
0.0
 10
265.0202013014
 20
33.835074293
 10
264.8807204837
 20
33.7584551918
 10
264.1279214322
 20
33.4242305206
 10
263.3972111547
 20
33.2342800047
 10
262.7057168806
 20
33.1930559231
 10
262.0696466497
 20
33.3015245335
 10
261.503909409
 20
33.5571434235
 10
261.0217655601
 20
33.953921103
 10
260.6345161461
 20
34.4825574394
 10
260.351237965
 20
35.1306616452
 10
260.1785708172
 20
35.8830427071
 10
260.1205618745
 20
36.7220654505
  0
LWPOLYLINE
  5
200
330
1F
100
AcDbEntity
  8
0
  6
Continuous
 62
     7
370
     0
100
AcDbPolyline
 90
       22
 70
   128
 43
0.0
 10
243.1573320562
 20
38.7895610357
 10
243.6060685098
 20
40.5729814416
 10
244.1600877048
 20
42.3702827377
 10
244.8157605561
 20
44.1696917584
 10
245.5687920994
 20
45.959421532
 10
246.4142496253
 20
47.7277484902
 10
247.3465949911
 20
49.463089263
 10
248.3597208979
 20
51.1540765555
 10
249.4469908964
 20
52.789633609
 10
250.6012828589
 20
54.3590467587
 10
251.8150356323
 20
55.8520356133
 10
253.0802985675
 20
57.2588203966
 10
254.3887835997
 20
58.5701860091
 10
255.7319195389
 20
59.7775423921
 10
257.1009082156
 20
60.8729807955
 10
258.4867821129
 20
61.8493255848
 10
259.8804631074
 20
62.7001812443
 10
261.2728219359
 20
63.4199742709
 10
262.6547379959
 20
64.0039896831
 10
264.0171590899
 20
64.4484019064
 10
265.3511607217
 20
64.7502998326
 10
265.4144890755
 20
64.7611960752
  0
LWPOLYLINE
  5
201
330
1F
100
AcDbEntity
  8
0
  6
Continuous
 62
     7
370
     0
100
AcDbPolyline
 90
       20
 70
   128
 43
0.0
 10
246.4352998689
 20
37.766335321
 10
246.8670219012
 20
39.4806815354
 10
247.4028559769
 20
41.2085481875
 10
248.0390830004
 20
42.9379425704
 10
248.7712870731
 20
44.6568613736
 10
249.5943861425
 20
46.3533739949
 10
250.5026672759
 20
48.0157053483
 10
251.4898263124
 20
49.6323175916
 10
252.5490116185
 20
51.1919902079
 10
253.6728716437
 20
52.6838978847
 10
254.8536059459
 20
54.0976856497
 10
256.0830193321
 20
55.4235407418
 10
257.3525787398
 20
56.6522607197
 10
258.6534724623
 20
57.7753173336
 10
259.9766713092
 20
58.7849157175
 10
261.3129912755
 20
59.6740484919
 10
262.6531572856
 20
60.4365444
 10
263.9878675696
 20
61.067111141
 10
265.3078582244
 20
61.5613721029
 10
266.4511763606
 20
61.881098888
  0
LWPOLYLINE
  5
202
330
1F
100
AcDbEntity
  8
0
  6
Continuous
 62
     7
370
     0
100
AcDbPolyline
 90
       23
 70
   128
 43
0.0
 10
245.8578321986
 20
37.7595335755
 10
246.2881849978
 20
39.494167539
 10
246.8236627633
 20
41.2432187995
 10
247.4605853329
 20
42.9946667047
 10
248.1945753481
 20
44.7364741309
 10
249.0205883375
 20
46.4566702102
 10
249.9329473863
 20
48.1434326025
 10
250.9253821518
 20
49.7851687463
 10
251.9910719573
 20
51.3705955306
 10
253.1226926683
 20
52.8888168402
 10
254.3124670289
 20
54.3293984409
 10
255.5522181124
 20
55.6824396906
 10
256.8334255186
 20
56.9386415831
 10
258.1472839318
 20
58.0893706571
 10
259.4847636364
 20
59.1267183315
 10
260.8366725756
 20
60.0435552578
 10
262.1937195253
 20
60.8335803183
 10
263.5465779495
 20
61.4913639314
 10
264.8859500985
 20
62.0123853673
 10
266.2026309093
 20
62.3930638175
 10
267.4875712692
 20
62.6307830047
 10
268.7319402069
 20
62.7239091632
 10
269.6972958465
 20
62.6934463388
  0
LINE
  5
203
330
1F
100
AcDbEntity
  8
0
  6
Continuous
 62
     7
370
     0
100
AcDbLine
 10
246.9065039011
 20
35.8087088754
 30
0.0
 11
246.9187684776
 21
36.4511521989
 31
0.0
  0
LWPOLYLINE
  5
204
330
1F
100
AcDbEntity
  8
0
  6
Continuous
 62
     7
370
     0
100
AcDbPolyline
 90
        3
 70
   128
 43
0.0
 10
246.9417367738
 20
36.9054333101
 10
246.9624159318
 20
37.1963754895
 10
246.986053414
 20
37.4705589295
  0
LINE
  5
205
330
1F
100
AcDbEntity
  8
0
  6
Continuous
 62
     7
370
     0
100
AcDbLine
 10
246.9069554358
 20
35.6870298244
 30
0.0
 11
246.9065039011
 21
35.8087088754
 31
0.0
  0
LWPOLYLINE
  5
206
330
1F
100
AcDbEntity
  8
0
  6
Continuous
 62
     7
370
     0
100
AcDbPolyline
 90
       19
 70
   128
 43
0.0
 10
215.8215508873
 20
59.7000153021
 10
215.8783061784
 20
60.7744906632
 10
216.0476769869
 20
61.8975491704
 10
216.3269922339
 20
63.05147952
 10
216.7118469511
 20
64.2180835411
 10
217.1961717497
 20
65.3789631915
 10
217.7723285384
 20
66.5158107054
 10
218.4312309804
 20
67.6106973186
 10
219.1624877906
 20
68.6463560151
 10
219.9545666123
 20
69.6064538385
 10
220.7949758892
 20
70.4758494728
 10
221.6704618651
 20
71.2408320292
 10
222.5672176031
 20
71.889337276
 10
223.4711007295
 20
72.4111378981
 10
224.3678564675
 20
72.7980047878
 10
225.2433424433
 20
73.0438368233
 10
226.0837517202
 20
73.1447570865
 10
226.8758305419
 20
73.0991740045
 10
227.5561778
 20
72.9265999551
  0
ARC
  5
207
330
1F
100
AcDbEntity
  8
0
  6
Continuous
 62
     7
370
     0
100
AcDbCircle
 10
221.2422937249
 20
59.2695858556
 30
0.0
 40
5.437804926586246
100
AcDbArc
 50
175.4600032533
 51
225.5211631235
  0
LINE
  5
208
330
1F
100
AcDbEntity
  8
0
  6
Continuous
 62
     7
370
     0
100
AcDbLine
 10
252.5898746549
 20
36.8044261596
 30
0.0
 11
251.8826529396
 21
37.2126965655
 31
0.0
  0
LINE
  5
209
330
1F
100
AcDbEntity
  8
0
  6
Continuous
 62
     7
370
     0
100
AcDbLine
 10
247.0467135858
 20
31.1449571219
 30
0.0
 11
252.5898746549
 21
27.9449583506
 31
0.0
  0
LINE
  5
20A
330
1F
100
AcDbEntity
  8
0
  6
Continuous
 62
     7
370
     0
100
AcDbLine
 10
246.986053414
 20
31.1099273663
 30
0.0
 11
247.0467135858
 21
31.1449571219
 31
0.0
  0
ARC
  5
20B
330
1F
100
AcDbEntity
  8
0
  6
Continuous
 62
     7
370
     0
100
AcDbCircle
 10
265.3682883907
 20
36.4377372695
 30
0.0
 40
2.435949929696658
100
AcDbArc
 50
173.2970608034
 51
235.3907588032
  0
LWPOLYLINE
  5
20C
330
1F
100
AcDbEntity
  8
0
  6
Continuous
 62
     7
370
     0
100
AcDbPolyline
 90
       15
 70
   128
 43
0.0
 10
268.9843197368
 20
43.093330042
 10
268.9277983318
 20
43.1245161358
 10
268.4322378618
 20
43.294793252
 10
267.8740762305
 20
43.3194175598
 10
267.271253212
 20
43.1975976136
 10
266.6431440341
 20
42.9332488068
 10
266.0099366426
 20
42.5348675274
 10
265.3919828441
 20
42.0152580777
 10
264.8091441821
 20
41.3911211328
 10
264.2801535707
 20
40.6825169677
 10
263.8220132036
 20
39.9122207033
 10
263.4494480889
 20
39.1049902953
 10
263.1744327761
 20
38.2867707933
 10
263.0058064837
 20
37.4838604453
 10
262.9489889993
 20
36.7220654505
  0
LWPOLYLINE
  5
20D
330
1F
100
AcDbEntity
  8
0
  6
Continuous
 62
     7
370
     0
100
AcDbPolyline
 90
       10
 70
   128
 43
0.0
 10
272.3116118909
 20
32.0634144786
 10
272.6040104619
 20
31.7197288203
 10
272.9960621956
 20
31.5317050924
 10
273.4639590651
 20
31.5107613644
 10
273.979287215
 20
31.6581694808
 10
274.5107524424
 20
31.964977826
 10
275.0260805924
 20
32.4125549269
 10
275.4939774619
 20
32.9737208815
 10
275.8860291956
 20
33.6143979062
 10
276.1784277665
 20
34.2956797685
  0
LWPOLYLINE
  5
20E
330
1F
100
AcDbEntity
  8
0
  6
Continuous
 62
     7
370
     0
100
AcDbPolyline
 90
       10
 70
   128
 43
0.0
 10
276.1784746572
 20
36.502595464
 10
275.8860825387
 20
36.8463221706
 10
275.4940252272
 20
37.0343757324
 10
275.0261131884
 20
37.0553352608
 10
274.5107637056
 20
36.9079278394
 10
273.9792750378
 20
36.6011058312
 10
273.4639256105
 20
36.1535031828
 10
272.9960136794
 20
35.5923037452
 10
272.6039565211
 20
34.9515903418
 10
272.3115645921
 20
34.2702748462
  0
LINE
  5
20F
330
1F
100
AcDbEntity
  8
0
  6
Continuous
 62
     7
370
     0
100
AcDbLine
 10
271.4873033821
 20
32.3946877147
 30
0.0
 11
271.5580140602
 21
32.1307974806
 31
0.0
  0
LWPOLYLINE
  5
210
330
1F
100
AcDbEntity
  8
0
  6
Continuous
 62
     7
370
     0
100
AcDbPolyline
 90
        3
 70
   128
 43
0.0
 10
275.746433638
 20
36.4562261324
 10
275.4792724604
 20
36.7413336975
 10
275.3838009983
 20
36.8005078898
  0
LWPOLYLINE
  5
211
330
1F
100
AcDbEntity
  8
0
  6
Continuous
 62
     7
370
     0
100
AcDbPolyline
 90
        9
 70
   128
 43
0.0
 10
272.657999537
 20
32.0238730617
 10
272.9363341208
 20
31.9180804983
 10
273.3488399268
 20
31.9086516364
 10
273.8004432923
 20
32.0419335011
 10
274.2653322964
 20
32.3103082106
 10
274.7169356619
 20
32.6984364933
 10
275.1294414679
 20
33.1841344211
 10
275.4792724604
 20
33.7396413583
 10
275.746433638
 20
34.3332066534
  0
LINE
  5
212
330
1F
100
AcDbEntity
  8
0
  6
Continuous
 62
     7
370
     0
100
AcDbLine
 10
271.3360526286
 20
32.4820029161
 30
0.0
 11
271.4873033821
 21
32.3946877147
 31
0.0
  0
LINE
  5
213
330
1F
100
AcDbEntity
  8
0
  6
Continuous
 62
     7
370
     0
100
AcDbLine
 10
248.5907017214
 20
23.7648561705
 30
0.0
 11
248.3368892284
 21
24.5293705983
 31
0.0
  0
LINE
  5
214
330
1F
100
AcDbEntity
  8
0
  6
Continuous
 62
     7
370
     0
100
AcDbLine
 10
251.8827678737
 20
26.7202134828
 30
0.0
 11
246.6325000234
 21
29.7511285979
 31
0.0
  0
LINE
  5
215
330
1F
100
AcDbEntity
  8
0
  6
Continuous
 62
     7
370
     0
100
AcDbLine
 10
276.9320255972
 20
35.2331483056
 30
0.0
 11
276.7198935629
 21
35.4153977284
 31
0.0
  0
LINE
  5
216
330
1F
100
AcDbEntity
  8
0
  6
Continuous
 62
     7
370
     0
100
AcDbLine
 10
247.2970334996
 20
26.5725290962
 30
0.0
 11
247.220188396
 21
26.8206793862
 31
0.0
  0
LWPOLYLINE
  5
217
330
1F
100
AcDbEntity
  8
0
  6
Continuous
 62
     7
370
     0
100
AcDbPolyline
 90
        3
 70
   128
 43
0.0
 10
246.9070885132
 20
25.9628133599
 10
246.8804106578
 20
26.0258569506
 10
246.4352998689
 20
27.2737858882
  0
ARC
  5
218
330
1F
100
AcDbEntity
  8
0
  6
Continuous
 62
     7
370
     0
100
AcDbCircle
 10
256.6427642515
 20
30.2962896704
 30
0.0
 40
11.20229670055806
100
AcDbArc
 50
195.6891569794
 51
214.1128286261
  0
LINE
  5
219
330
1F
100
AcDbEntity
  8
0
  6
Continuous
 62
     7
370
     0
100
AcDbLine
 10
243.4126494378
 20
26.7508348853
 30
0.0
 11
243.1573320562
 21
27.5194653079
 31
0.0
  0
LINE
  5
21A
330
1F
100
AcDbEntity
  8
0
  6
Continuous
 62
     7
370
     0
100
AcDbLine
 10
274.7753499146
 20
36.5379588822
 30
0.0
 11
276.7198935629
 21
35.4153977284
 31
0.0
  0
LINE
  5
21B
330
1F
100
AcDbEntity
  8
0
  6
Continuous
 62
     7
370
     0
100
AcDbLine
 10
278.3285614994
 20
42.8034532803
 30
0.0
 11
279.0356682713
 21
42.3952492298
 31
0.0
  0
OLE2FRAME
  5
21C
330
1F
100
AcDbEntity
  8
0
100
AcDbOle2Frame
 70
     2
  3
Paintbrush-Bild
 10
13.8511154363
 20
38.264191557
 30
0.0
 11
51.6290888628
 21
31.9806341108
 31
0.0
 71
     2
 72
     0
 73
     1
 90
    12928
310
80552BED0767C5B32B40DDAF6807D121434000000000000000006FFBDDFB85D0
310
4940DDAF6807D121434000000000000000006FFBDDFB85D04940416F4BD60AFB
310
3F4000000000000000002BED0767C5B32B40416F4BD60AFB3F40000000000000
310
0000000000000100000000010000010000000100000000000100000000320000
310
D0CF11E0A1B11AE1000000000000000000000000000000003E000300FEFF0900
310
0600000000000000000000000100000001000000000000000010000002000000
310
01000000FEFFFFFF0000000000000000FFFFFFFFFFFFFFFFFFFFFFFFFFFFFFFF
310
FFFFFFFFFFFFFFFFFFFFFFFFFFFFFFFFFFFFFFFFFFFFFFFFFFFFFFFFFFFFFFFF
310
FFFFFFFFFFFFFFFFFFFFFFFFFFFFFFFFFFFFFFFFFFFFFFFFFFFFFFFFFFFFFFFF
310
FFFFFFFFFFFFFFFFFFFFFFFFFFFFFFFFFFFFFFFFFFFFFFFFFFFFFFFFFFFFFFFF
310
FFFFFFFFFFFFFFFFFFFFFFFFFFFFFFFFFFFFFFFFFFFFFFFFFFFFFFFFFFFFFFFF
310
FFFFFFFFFFFFFFFFFFFFFFFFFFFFFFFFFFFFFFFFFFFFFFFFFFFFFFFFFFFFFFFF
310
FFFFFFFFFFFFFFFFFFFFFFFFFFFFFFFFFFFFFFFFFFFFFFFFFFFFFFFFFFFFFFFF
310
FFFFFFFFFFFFFFFFFFFFFFFFFFFFFFFFFFFFFFFFFFFFFFFFFFFFFFFFFFFFFFFF
310
FFFFFFFFFFFFFFFFFFFFFFFFFFFFFFFFFFFFFFFFFFFFFFFFFFFFFFFFFFFFFFFF
310
FFFFFFFFFFFFFFFFFFFFFFFFFFFFFFFFFFFFFFFFFFFFFFFFFFFFFFFFFFFFFFFF
310
FFFFFFFFFFFFFFFFFFFFFFFFFFFFFFFFFFFFFFFFFFFFFFFFFFFFFFFFFFFFFFFF
310
FFFFFFFFFFFFFFFFFFFFFFFFFFFFFFFFFFFFFFFFFFFFFFFFFFFFFFFFFFFFFFFF
310
FFFFFFFFFFFFFFFFFFFFFFFFFFFFFFFFFFFFFFFFFFFFFFFFFFFFFFFFFFFFFFFF
310
FFFFFFFFFFFFFFFFFFFFFFFFFFFFFFFFFFFFFFFFFFFFFFFFFFFFFFFFFFFFFFFF
310
FDFFFFFFFEFFFFFFFEFFFFFFFEFFFFFF05000000060000000700000008000000
310
090000000A0000000B0000000C0000000D0000000E0000000F00000010000000
310
11000000120000001300000014000000150000001600000017000000FEFFFFFF
310
FFFFFFFFFFFFFFFFFFFFFFFFFFFFFFFFFFFFFFFFFFFFFFFFFFFFFFFFFFFFFFFF
310
FFFFFFFFFFFFFFFFFFFFFFFFFFFFFFFFFFFFFFFFFFFFFFFFFFFFFFFFFFFFFFFF
310
FFFFFFFFFFFFFFFFFFFFFFFFFFFFFFFFFFFFFFFFFFFFFFFFFFFFFFFFFFFFFFFF
310
FFFFFFFFFFFFFFFFFFFFFFFFFFFFFFFFFFFFFFFFFFFFFFFFFFFFFFFFFFFFFFFF
310
FFFFFFFFFFFFFFFFFFFFFFFFFFFFFFFFFFFFFFFFFFFFFFFFFFFFFFFFFFFFFFFF
310
FFFFFFFFFFFFFFFFFFFFFFFFFFFFFFFFFFFFFFFFFFFFFFFFFFFFFFFFFFFFFFFF
310
FFFFFFFFFFFFFFFFFFFFFFFFFFFFFFFFFFFFFFFFFFFFFFFFFFFFFFFFFFFFFFFF
310
FFFFFFFFFFFFFFFFFFFFFFFFFFFFFFFFFFFFFFFFFFFFFFFFFFFFFFFFFFFFFFFF
310
FFFFFFFFFFFFFFFFFFFFFFFFFFFFFFFFFFFFFFFFFFFFFFFFFFFFFFFFFFFFFFFF
310
FFFFFFFFFFFFFFFFFFFFFFFFFFFFFFFFFFFFFFFFFFFFFFFFFFFFFFFFFFFFFFFF
310
FFFFFFFFFFFFFFFFFFFFFFFFFFFFFFFFFFFFFFFFFFFFFFFFFFFFFFFFFFFFFFFF
310
FFFFFFFFFFFFFFFFFFFFFFFFFFFFFFFFFFFFFFFFFFFFFFFFFFFFFFFFFFFFFFFF
310
FFFFFFFFFFFFFFFFFFFFFFFFFFFFFFFFFFFFFFFFFFFFFFFFFFFFFFFFFFFFFFFF
310
52006F006F007400200045006E00740072007900000000000000000000000000
310
0000000000000000000000000000000000000000000000000000000000000000
310
16000500FFFFFFFFFFFFFFFF020000000A00030000000000C000000000000046
310
000000000000000000000000809CFE88091FD20103000000C000000000000000
310
01004F006C006500000000000000000000000000000000000000000000000000
310
0000000000000000000000000000000000000000000000000000000000000000
310
0A000200FFFFFFFFFFFFFFFFFFFFFFFF00000000000000000000000000000000
310
0000000000000000000000000000000000000000000000001400000000000000
310
010043006F006D0070004F0062006A0000000000000000000000000000000000
310
0000000000000000000000000000000000000000000000000000000000000000
310
120002010100000003000000FFFFFFFF00000000000000000000000000000000
310
0000000000000000000000000000000000000000010000004D00000000000000
310
01004F006C006500310030004E00610074006900760065000000000000000000
310
0000000000000000000000000000000000000000000000000000000000000000
310
1A000200FFFFFFFFFFFFFFFFFFFFFFFF00000000000000000000000000000000
310
0000000000000000000000000000000000000000040000002426000000000000
310
FEFFFFFF02000000FEFFFFFFFFFFFFFFFFFFFFFFFFFFFFFFFFFFFFFFFFFFFFFF
310
FFFFFFFFFFFFFFFFFFFFFFFFFFFFFFFFFFFFFFFFFFFFFFFFFFFFFFFFFFFFFFFF
310
FFFFFFFFFFFFFFFFFFFFFFFFFFFFFFFFFFFFFFFFFFFFFFFFFFFFFFFFFFFFFFFF
310
FFFFFFFFFFFFFFFFFFFFFFFFFFFFFFFFFFFFFFFFFFFFFFFFFFFFFFFFFFFFFFFF
310
FFFFFFFFFFFFFFFFFFFFFFFFFFFFFFFFFFFFFFFFFFFFFFFFFFFFFFFFFFFFFFFF
310
FFFFFFFFFFFFFFFFFFFFFFFFFFFFFFFFFFFFFFFFFFFFFFFFFFFFFFFFFFFFFFFF
310
FFFFFFFFFFFFFFFFFFFFFFFFFFFFFFFFFFFFFFFFFFFFFFFFFFFFFFFFFFFFFFFF
310
FFFFFFFFFFFFFFFFFFFFFFFFFFFFFFFFFFFFFFFFFFFFFFFFFFFFFFFFFFFFFFFF
310
FFFFFFFFFFFFFFFFFFFFFFFFFFFFFFFFFFFFFFFFFFFFFFFFFFFFFFFFFFFFFFFF
310
FFFFFFFFFFFFFFFFFFFFFFFFFFFFFFFFFFFFFFFFFFFFFFFFFFFFFFFFFFFFFFFF
310
FFFFFFFFFFFFFFFFFFFFFFFFFFFFFFFFFFFFFFFFFFFFFFFFFFFFFFFFFFFFFFFF
310
FFFFFFFFFFFFFFFFFFFFFFFFFFFFFFFFFFFFFFFFFFFFFFFFFFFFFFFFFFFFFFFF
310
FFFFFFFFFFFFFFFFFFFFFFFFFFFFFFFFFFFFFFFFFFFFFFFFFFFFFFFFFFFFFFFF
310
FFFFFFFFFFFFFFFFFFFFFFFFFFFFFFFFFFFFFFFFFFFFFFFFFFFFFFFFFFFFFFFF
310
FFFFFFFFFFFFFFFFFFFFFFFFFFFFFFFFFFFFFFFFFFFFFFFFFFFFFFFFFFFFFFFF
310
FFFFFFFFFFFFFFFFFFFFFFFFFFFFFFFFFFFFFFFFFFFFFFFFFFFFFFFFFFFFFFFF
310
0100000200000000000000000000000000000000000000000000000000000000
310
0000000000000000000000000000000000000000000000000000000000000000
310
0100FEFF030A0000FFFFFFFF0A00030000000000C00000000000004607000000
310
5042727573680007000000504272757368000700000050427275736800F439B2
310
7100000000000000000000000000000000000000000000000000000000000000
310
0000000000000000000000000000000000000000000000000000000000000000
310
0000000000000000000000000000000000000000000000000000000000000000
310
0000000000000000000000000000000000000000000000000000000000000000
310
0000000000000000000000000000000000000000000000000000000000000000
310
0000000000000000000000000000000000000000000000000000000000000000
310
0000000000000000000000000000000000000000000000000000000000000000
310
0000000000000000000000000000000000000000000000000000000000000000
310
0000000000000000000000000000000000000000000000000000000000000000
310
0000000000000000000000000000000000000000000000000000000000000000
310
0000000000000000000000000000000000000000000000000000000000000000
310
0000000000000000000000000000000000000000000000000000000000000000
310
20260000424D0E260000000000003E00000028000000B40200006E0000000100
310
01000000000000000000130B0000130B00000200000002000000000000FFFFFF
310
FFFFFFFFFFFFFFFFFFFFFFFFFFFFFFFFFFFFFFFFFFFFFFFFFFFFFFFFFFFFFFFF
310
FFFFFFFFFFFFFFFFFFFFFFFFFFFFFFFFFFFFFFFFFFFFFFFFFFFFFFFFFFFFFFFF
310
FFFFFFFFFFFFFFFFFFFFFFFFFFFFFFFFFFFFFFFFFFFFFFFFF000FFFFFFFFFFFF
310
FFFFFFFFFFFFFFFFFFFFFFFFFFFFFFFFFFFFFFFFFFFFFFFFFFFFFFFFFFFFFFFF
310
FFFFFFFFFFFFFFFFFFFFFFFFFFFFFFFFFFFFFFFFFFFFFFFFFFFFFFFFFFFFFFFF
310
FFFFFFFFFFFFFFFFFFFFFFFFFFFFFFFFF000FFFFFFFFFFFFFFFFFFFFFFFFFFFF
310
FFFFFFFFFFFFFFFFFFFFFFFFFFFFFFFFFFFFFFFFFFFFFFFFFFFFFFFFFFFFFFFF
310
FFFFFFFFFFFFFFFFFFFFFFFFFFFFFFFFFFFFFFFFFFFFFFFFFFFFFFFFFFFFFFFF
310
FFFFFFFFFFFFFFFFF000FFFFFFFFFFFFFFFFFFFFFFFFFFFFFFFFFFFFFFFFFFFF
310
FFFFFFFFFFFFFFFFFFFFFFFFFFFFFFFFFFFFFFFFFFFFFFFFFFFFFFFFFFFFFFFF
310
FFFFFFFFFFFFFFFFFFFFFFFFFFFFFFFFFFFFFFFFFFFFFFFFFFFFFFFFFFFFFFFF
310
F000FFFFFFFFFFFFFFFFFFFFFFFFFFFFFFFFFFFFFFFFFFFFFFFFFFFFFFFFFFFF
310
FFFFFFFFFFFFFFFFFFFFFFFFFFFFFFFFFFFFFFFFFFFFFFFFFFFFFFFFFFFFFFFF
310
FFFFFFFFFFFFFFFFFFFFFFFFFFFFFFFFFFFFFFFFFFFFFFFFF000FFFFFFFFFFFF
310
FFFFFFFFFFFFFFFFFFFFFFFFFFFFFFFFFFFFFFFFFFFFFFFFFFFFFFFFFFFFFFFF
310
FFFFFFFFFFFFFFFFFFFFFFFFFFFFFFFFFFFFFFFFFFFFFFFFFFFFFFFFFFFFFFFF
310
FFFFFFFFFFFFFFFFFFFFFFFFFFFFFFFFF000FFFFFFFFFFFFFFFFFFFFFFFFFFFF
310
FFFFFFFFFFFFFFFFFFFFFFFFFFFFFFFFFFFFFFFFFFFFFFFFFFFFFFFFFFFFFFFF
310
FFFFFFFFFFFFFFFFFFFFFFFFFFFFFFFFFFFFFFFFFFFFFFFFFFFFFFFFFFFFFFFF
310
FFFFFFFFFFFFFFFFF000FFFFFFFFFFFFFFFFFFFFFFFFFFFFFFFFFFFFFFFFFFFF
310
FFFFFFFFFFFFFFFFFFFFFFFFFFFFFFFFFFFFFFFFFFFFFFFFFFFFFFFFFFFFFFFF
310
FFFFFFFFFFFFFFFFFFFFFFFFFFFFFFFFFFFFFFFFFFFFFFFFFFFFFFFFFFFFFFFF
310
F000FFFFFFFFFFFFFFFFFFFFFFFFFFFFFFFFFFFFFFFFFFFFFFFFFFFFFFFFFFFF
310
FFFFFFFFFFFFFFFFFFFFFFFFFFFFFFFFFFFFFFFFFFFFFFFFFFFFFFFFFFFFFFFF
310
FFFFFFFFFFFFFFFFFFFFFFFFFFFFFFFFFFFFFFFFFFFFFFFFF000FFFFFFFFFFFF
310
FFFFFFFFFFFFFFFFFFFFFFFFFFFFFFFFFFFFFFFFFFFFFFFFFFFFFFFFFFFFFFFF
310
FFFFFFFFFFFFFFFFFFFFFFFFFFFFFFFFFFFFFFFFFFFFFFFFFFFFFFFFFFFFFFFF
310
FFFFFFFFFFFFFFFFFFFFFFFFFFFFFFFFF000FFFFFFFFFFFFFFFFFFFFFFFFFFFF
310
FFFFFFFFFFFFFFFFFFFFFFFFFFFFFFFFFFFFFFFFFFFFFFFFFFFFFFFFFFFFFFFF
310
FFFFFFFFFFFFFFFFFFFFFFFFFFFFFFFFFFFFFFFFFFFFFFFFFFFFFFFFFFFFFFFF
310
FFFFFFFFFFFFFFFFF000FFFFFFFFFFFFFFFFFFFFFFFFFFFFFFFFFFFFFFFFFFFF
310
FFFFFFFFFFFFFFFFFFFFFFFFFFFFFFFFFFFFFFFFFFFFFFFFFFFFFFFFFFFFFFFF
310
FFFFFFFFFFFFFFFFFFFFFFFFFFFFFFFFFFFFFFFFFFFFFFFFFFFFFFFFFFFFFFFF
310
F000FFFFFFFFFFFFFFFFFFFFFFFFFFFFFFFFFFFFFFFFFFFFFFFFFFFFFFFFFFFF
310
FFFFFFFFFFFFFFFFFFFFFFFFFFFFFFFFFFFFFFFFFFFFFFFFFFFFFFFFFFFFFFFF
310
FFFFFFFFFFFFFFFFFFFFFFFFFFFFFFFFFFFFFFFFFFFFFFFFF000FFFFFFFFFFFF
310
FFFFFFFFFFFFFFFFFFFFFFFFFFFFFFFFFFFFFFFFFFFFFFFFFFFFFFFFFFFFFFFF
310
FFFFFFFFFFFFFFFFFFFFFFFFFFFFFFFFFFFFFFFFFFFFFFFFFFFFFFFFFFFFFFFF
310
FFFFFFFFFFFFFFFFFFFFFFFFFFFFFFFFF000FFFFFFFFFFFFFFFFFFFFFFFFFFFF
310
FFFFFFFFFFFFFFFFFFFFFFFFFFFFFFFFFFFFFFFFFFFFFFFFFFFFFFFFFFFFFFFF
310
FFFFFFFFFFFFFFFFFFFFFFFFFFFFFFFFFFFFFFFFFFFFFFFFFFFFFFFFFFFFFFFF
310
FFFFFFFFFFFFFFFFF000FFFFFFFFFFFFFFFFFFFFFFFFFFFFFFFFFFFFFFFFFFFF
310
FFFFFFFFFFFFFFFFFFFFFFFFFFFFFFFFFFFFFFFFFFFFFFFFFFFFFFFFFFFFFFFF
310
FFFFFFFFFFFFFFFFFFFFFFFFFFFFFFFFFFFFFFFFFFFFFFFFFFFFFFFFFFFFFFFF
310
F000FFFFFFFFFFFFFFFFFFFFFFFFFFFFFFFFFFFFFFFFFFFFFFFFFFFFFFFFFFFF
310
FFFFFFFFFFFFFFFFFFFFFFFFFFFFFFFFFFFFFFFFFFFFFFFFFFFFFFFFFFFFFFFF
310
FFFFFFFFFFFFFFFFFFFFFFFFFFFFFFFFFFFFFFFFFFFFFFFFF000FFFFFFFFFFFF
310
FFFFFFFFFFFFFFFFFFFFFFFFFFFFFFFFFFFFFFFFFFFFFFFFFFFFFFFFFFFFFFFF
310
FFFFFFFFFFFFFFFFFFFFFFFFFFFFFFFFFFFFFFFFFFFFFFFFFFFFFFFFFFFFFFFF
310
FFFFFFFFFFFFFFFFFFFFFFFFFFFFFFFFF000FFFFFFFFFFFFFFFFFFFFFFFFFFFF
310
FFFFFFFFFFFFFFFFFFFFFFFFFFFFFFFFFFFFFFFFFFFFFFFFFFFFFFFFFFFFFFFF
310
FFFFFFFFFFFFFFFFFFFFFFFFFFFFFFFFFFFFFFFFFFFFFFFFFFFFFFFFFFFFFFFF
310
FFFFFFFFFFFFFFFFF000FFFFF80003FFFFFFFFFFFFFFFFFFFFFFFFFFFFFFFFFF
310
FFFFF00007FFFFFFFFFF00007FFFFFF800000000000000007FFFFFFFFFFFFFFF
310
FFFFFFFC001FFFFFFFFFFFFFFC001FFFFFFFFFFFFFFFFFFFFFFFFFFE0007FFFF
310
F000FFFF8000007FFFFFFFF8000FFFFFC0007FFFFF80007FFFFF0000007FFFFF
310
FFF8000007FFFFF800000000000000007FFFFFF0001FFFFFFFFFFFC00001FFFF
310
FFFFFFFFC00001FFFFFFFF000000000003FFFFE000007FFFF000FFFE0000000F
310
FFFFFFF0000FFFFF80007FFFFF80007FFFFC0000001FFFFFFFC0000001FFFFF8
310
00000000000000007FFFFFF0001FFFFFFFFFFE0000003FFFFFFFFFFE0000003F
310
FFFFFF000000000003FFFF0000000FFFF000FFF800000003FFFFFFF00007FFFF
310
80007FFFFF80007FFFF000000007FFFFFF000000003FFFF80000000000000000
310
7FFFFFF0001FFFFFFFFFF80000000FFFFFFFFFF80000000FFFFFFF0000000000
310
03FFFC00000003FFF000FFE000000000FFFFFFF00007FFFF80003FFFFF80007F
310
FFC000000001FFFFFC000000001FFFF800000000000000007FFFFFF0001FFFFF
310
FFFFE000000003FFFFFFFFE000000003FFFFFF000000000003FFF000000000FF
310
F000FF80000000007FFFFFF00007FFFF80003FFFFF80007FFF8000000000FFFF
310
F80000000007FFF800000000000000007FFFFFF0001FFFFFFFFFC000000001FF
310
FFFFFFC000000001FFFFFF000000000003FFC0000000007FF000FF0000000000
310
3FFFFFE00007FFFF00003FFFFF80007FFE00000000003FFFF00000000003FFF8
310
00000000000000007FFFFFF0001FFFFFFFFF8000000000FFFFFFFF8000000000
310
FFFFFF000000000003FF80000000003FF000FE00000000001FFFFFE00003FFFF
310
00003FFFFF80007FFC00000000001FFFE00000000001FFF8000001FFFE000000
310
7FFFFFF0001FFFFFFFFE00000000003FFFFFFE00000000003FFFFF0000000000
310
03FF00000000001FF000FC00000000000FFFFFE00003FFFF00001FFFFF80007F
310
F800000000001FFFC00000000000FFF8000001FFFE0000007FFFFFF0001FFFFF
310
FFFC00000000001FFFFFFC00000000001FFFFF000000000003FE00000000000F
310
F000F8000000000007FFFFE00003FFFF00001FFFFF80007FF800000000000FFF
310
800000000000FFF8000001FFFE0000007FFFFFF0001FFFFFFFF800000000000F
310
FFFFF800000000000FFFFF000000000003FC000000000007F000F80000000000
310
03FFFFC00003FFFE00001FFFFF80007FF0000000000007FF0000000000007FF8
310
000001FFFE0000007FFFFFF0001FFFFFFFF0000000000007FFFFF00000000000
310
07FFFF000000000003F8000000000003F000F0000000000003FFFFC00001FFFE
310
00001FFFFF80007FE0000000000007FE0000000000003FF8000001FFFE000000
310
7FFFFFF0001FFFFFFFF0000000000007FFFFF0000000000007FFFF0000000000
310
03F800001F800003F000E00001FFF00001FFFFC00001FFFE00000FFFFF80007F
310
E00001FFE00003FE00001FFF00003FF8000001FFFE0000007FFFFFF0001FFFFF
310
FFE000003E000003FFFFE000003E000003FFFF000000000003F00001FFF80001
310
F000E00007FFFC0001FFFFC00001FFFE00000FFFFF80007FC0000FFFFC0003FC
310
0000FFFFC0001FF8000001FFFE0000007FFFFFF0001FFFFFFFC00003FFE00001
310
FFFFC00003FFE00001FFFF0001FFFFFFFFF00007FFFE0001F000E0000FFFFF00
310
00FFFF800001FFFC00000FFFFF80007FC0001FFFFE0001FC0001FFFFE0001FF8
310
000001FFFE0000007FFFFFF0001FFFFFFF80000FFFF80000FFFF80000FFFF800
310
00FFFF0003FFFFFFFFE0000FFFFF8000F000C0003FFFFF8000FFFF800000FFFC
310
000007FFFF80007F80003FFFFF0001FC0003FFFFF0001FF8000001FFFE000000
310
7FFFFFF0001FFFFFFF80003FFFFE0000FFFF80003FFFFE0000FFFF0003FFFFFF
310
FFE0003FFFFF8000F000C0003FFFFF8000FFFF800000FFFC000007FFFF80007F
310
80007FFFFF8001F80007FFFFF8000FF8000001FFFE0000007FFFFFF0001FFFFF
310
FF00007FFFFF00007FFF00007FFFFF00007FFF0003FFFFFFFFE0003FFFFFC000
310
F000C0007FFFFFC000FFFF000000FFFC000007FFFF80007F8000FFFFFF8000F8
310
000FFFFFF8000FF8000001FFFE0000007FFFFFF0001FFFFFFF0000FFFFFF8000
310
7FFF0000FFFFFF80007FFF0003FFFFFFFFC0007FFFFFC00070008000FFFFFFC0
310
00FFFF000000FFF8000007FFFF80007F8000FFFFFF8000F8000FFFFFF8000FF8
310
000001FFFE0000007FFFFFF0001FFFFFFE0001FFFFFFC0003FFE0001FFFFFFC0
310
003FFF0003FFFFFFFFC0007FFFFFE00070008000FFFFFFC0007FFF0000007FF8
310
000003FFFF80007F0001FFFFFF8000F8000FFFFFF8000FF8000001FFFE000000
310
7FFFFFF0001FFFFFFE0001FFFFFFC0003FFE0001FFFFFFC0003FFF0003FFFFFF
310
FFC000FFFFFFE00070008000FFFFFFC0007FFF0000007FF8000003FFFF80007F
310
0001FFFFFF8000F8001FFFFFF8000FF8000001FFFE0000007FFFFFF0001FFFFF
310
FE0003FFFFFFE0003FFE0003FFFFFFE0003FFF0003FFFFFFFFC000FFFFFFE000
310
70008000FFFFFFC0007FFE0000007FF8000003FFFF80007F0001FFFFFF8000F0
310
001FFFFFF8000FF8000001FFFE0000007FFFFFF0001FFFFFFC0003FFFFFFE000
310
1FFC0003FFFFFFE0001FFF0003FFFFFFFFC000FFFFFFC00070008000FFFFFF80
310
007FFE0000007FF0000003FFFF80007F0001FFFFFF0000F0001FFFFFF8000FF8
310
000001FFFE0000007FFFFFF0001FFFFFFC0007FFFFFFF0001FFC0007FFFFFFF0
310
001FFF0003FFFFFFFFC000FFFFFFC00070008001FFFFFF0000FFFE0000003FF0
310
000001FFFF80007F0001FFFFFF0000F8001FFFFFF0000FF8000001FFFE000000
310
7FFFFFF0001FFFFFFC0007FFFFFFF0001FFC0007FFFFFFF0001FFF0003FFFFFF
310
FFC001FFFFFF80007000FFFFFFFFFE0000FFFE0008003FF0008001FFFF80007F
310
FFFFFFFFFC0000FFFFFFFFFFE0000FF8000001FFFE0000007FFFFFF0001FFFFF
310
F8000FFFFFFFF8000FF8000FFFFFFFF8000FFF0003FFFFFFFFFFFFFFFFFF0000
310
7000FFFFFFFFFC0000FFFC0008003FF0008001FFFF80007FFFFFFFFFF80001FF
310
FFFFFFFF80000FF8000001FFFE0000007FFFFFF0001FFFFFF8000FFFFFFFF800
310
0FF8000FFFFFFFF8000FFF0003FFFFFFFFFFFFFFFFFE0000F000FFFFFFFFE000
310
00FFFC000C003FE000C001FFFF80007FFFFFFFFFC00001FFFFFFFFFE00001FF8
310
000001FFFE0000007FFFFFF0001FFFFFF8000FFFFFFFF8000FF8000FFFFFFFF8
310
000FFF0003FFFFFFFFFFFFFFFFF00000F000FFFFFFFE000001FFFC000C001FE0
310
00C000FFFF80007FFFFFFFFE000001FFFFFFFFE000001FF80FFFFFFFFFFFFFC0
310
7FFFFFF0001FFFFFF8000FFFFFFFF8000FF8000FFFFFFFF8000FFF0003FFFFFF
310
FFFFFFFFFF800000F000FFFFFFC0000001FFFC001C001FE001C000FFFF80007F
310
FFFFFF80000003FFFFFFF80000001FF80FFFFFFFFFFFFFC07FFFFFF0001FFFFF
310
F8001FFFFFFFFC000FF8001FFFFFFFFC000FFF0003FFFFFFFFFFFFFFF0000001
310
F000FFFFF800000001FFF8001C001FE001C000FFFF80007FFFFFF800000003FF
310
FFFF800000003FF80FFFFFFFFFFFFFC07FFFFFF0001FFFFFF8001FFFFFFFFC00
310
0FF8001FFFFFFFFC000FFF0003FFFFFFFFFFFFFE00000001F000FFFFC0000000
310
03FFF8001E001FC001E000FFFF80007FFFFF8000000007FFFFFC000000003FF8
310
0FFFFFFFFFFFFFC07FFFFFF0001FFFFFF8001FFFFFFFFC000FF8001FFFFFFFFC
310
000FFF0003FFFFFFFFFFFFE000000003F000FFFE0000000007FFF8001E000FC0
310
01E0007FFF80007FFFFE0000000007FFFFE0000000007FF80FFFFFFFFFFFFFC0
310
7FFFFFF0001FFFFFF0001FFFFFFFFC0007F0001FFFFFFFFC0007FF0003FFFFFF
310
FFFFFF0000000003F000FFF80000000007FFF8001E000FC003E0007FFF80007F
310
FFF0000000000FFFFF8000000000FFF80FFFFFFFFFFFFFC07FFFFFF0001FFFFF
310
F0001FFFFFFFFC0007F0001FFFFFFFFC0007FF0003FFFFFFFFFFFC0000000007
310
F000FFE0000000000FFFF0003E000FC003E0007FFF80007FFFC0000000001FFF
310
FE0000000001FFF80FFFFFFFFFFFFFC07FFFFFF0001FFFFFF0001FFFFFFFFC00
310
07F0001FFFFFFFFC0007FF0003FFFFFFFFFFF0000000000FF000FFC000000000
310
1FFFF0003F000F8003F0003FFF80007FFF80000000003FFFF80000000003FFF8
310
0FFFFFFFFFFFFFC07FFFFFF0001FFFFFF0001FFFFFFFFC0007F0001FFFFFFFFC
310
0007FF0003FFFFFFFFFFE0000000001FF000FF00000000007FFFF0003F000780
310
03F0003FFF80007FFF00000000007FFFF00000000007FFF80FFFFFFFFFFFFFC0
310
7FFFFFF0001FFFFFF0001FFFFFFFFC0007F0001FFFFFFFFC0007FF0003FFFFFF
310
FFFF80000000007FF000FE0000000000FFFFE0003F00078007F0003FFF80007F
310
FE0000000001FFFFE0000000001FFFF80FFFFFFFFFFFFFC07FFFFFF0001FFFFF
310
F0001FFFFFFFFC0007F0001FFFFFFFFC0007FF0003FFFFFFFFFF0000000000FF
310
F000FC0000000003FFFFE0007F00078007F0003FFF80007FFC0000000007FFFF
310
C0000000007FFFF80FFFFFFFFFFFFFC07FFFFFF0001FFFFFF8001FFFFFFFFC00
310
0FF8001FFFFFFFFC000FFF0003FFFFFFFFFE0000000003FFF000FC000000000F
310
FFFFE0007F80070007F8001FFF80007FF8000000001FFFFF8000000001FFFFF8
310
0FFFFFFFFFFFFFC07FFFFFF0001FFFFFF8001FFFFFFFFC000FF8001FFFFFFFFC
310
000FFF0003FFFFFFFFFC000000000FFFF000F8000000007FFFFFE0007F800700
310
07F8001FFF80007FF000000000FFFFFF800000000FFFFFF80FFFFFFFFFFFFFC0
310
7FFFFFF0001FFFFFF8000FFFFFFFF8000FF8000FFFFFFFF8000FFF0003FFFFFF
310
FFFC000000007FFFF000F800000007FFFFFFC0007F8003000FF8001FFF80007F
310
F000000007FFFFFF000000007FFFFFF80FFFFFFFFFFFFFC07FFFFFF0001FFFFF
310
F8000FFFFFFFF8000FF8000FFFFFFFF8000FFF0003FFFFFFFFF80000000FFFFF
310
F000F0000000FFFFFFFFC000FF8003000FF8001FFF80007FE0000000FFFFFFFF
310
0000000FFFFFFFF8000001FFFE0000007FFFFFF0001FFFFFF8000FFFFFFFF800
310
0FF8000FFFFFFFF8000FFF0003FFFFFFFFF8000000FFFFFFF000F000000FFFFF
310
FFFFC000FFC002000FF8000FFF80007FE000001FFFFFFFFE000001FFFFFFFFF8
310
000001FFFE0000007FFFFFF0001FFFFFF8000FFFFFFFF8000FF8000FFFFFFFF8
310
000FFF0003FFFFFFFFF000001FFFFFFFF000E00000FFFFFFFFFFC000FFC00200
310
0FFC000FFF80007FE00001FFFFFFFFFE00001FFFFFFFFFF8000001FFFE000000
310
7FFFFFF0001FFFFFFC000FFFFFFFF8001FFC000FFFFFFFF8001FFF0003FFFFFF
310
FFF00001FFFFFFFFF000E00007FFFFFFFFFF8000FFC000001FFC000FFF80007F
310
C0000FFFFFFFFFFE0000FFFFFFFFFFF8000001FFFE0000007FFFFFF0001FFFFF
310
FC0007FFFFFFF0001FFC0007FFFFFFF0001FFF0003FFFFFFFFF00007FFFFFFFF
310
F000E0001FFFFFFFFFFF8000FFC000001FFC000FFF80007FC0003FFFFFFFFFFE
310
0001FFFFFFFFFFF8000001FFFE0000007FFFFFF0001FFFFFFC0007FFFFFFF000
310
1FFC0007FFFFFFF0001FFF0003FFFFFFFFF0001FFFFFFFFFF000E0003FFFFF00
310
03FF8001FFE000001FFC0007FF80007FC0007FFFFF0007FC0003FFFFF0003FF8
310
000001FFFE0000007FFFFFF0001FFFFFFC0003FFFFFFE0001FFC0003FFFFFFE0
310
001FFF0003FFFFFFFFF0003FFFFFFFFFF000E0003FFFFF0001FF8001FFE00000
310
1FFE0007FF80007FC0007FFFFE0003FC0007FFFFE0003FF8000001FFFE000000
310
7FFFFFF0001FFFFFFE0003FFFFFFE0003FFE0003FFFFFFE0003FFF0003FFFFFF
310
FFF0003FFFFF8001F000E0003FFFFF0001FF0001FFE000001FFE0007FF80007F
310
C0007FFFFE0003FC0007FFFFE0003FF8000001FFFE0000007FFFFFF0001FFFFF
310
FE0001FFFFFFC0003FFE0001FFFFFFC0003FFF0003FFFFFFFFF0003FFFFF0001
310
F000E0003FFFFF0003FF0001FFE000003FFE0007FF80007FC0007FFFFE0003FC
310
0007FFFFE0003FF8000001FFFE0000007FFFFFF0001FFFFFFF0001FFFFFFC000
310
7FFF0001FFFFFFC0007FFF0003FFFFFFFFF0003FFFFF0001F000E0003FFFFE00
310
03FF0003FFF000003FFE0003FF80007FC0007FFFFC0003FE0007FFFFE0003FF8
310
000001FFFE0000007FFFFFF0001FFFFFFF0000FFFFFF80007FFF0000FFFFFF80
310
007FFF0003FFFFFFFFF0003FFFFF0001F000E0003FFFFE0003FF0003FFF00000
310
3FFF0003FF80007FC0007FFFFC0007FE0007FFFFC0003FF8000001FFFE000000
310
7FFFFFF0001FFFFFFF80007FFFFF0000FFFF80007FFFFF0000FFFF0003FFFFFF
310
FFF0003FFFFF0003F000E0003FFFFC0003FE0003FFF000003FFF0003FF80007F
310
E0003FFFF80007FE0003FFFFC0007FF8000001FFFE0000007FFFFFF0001FFFFF
310
FF80003FFFFE0000FFFF80003FFFFE0000FFFF0003FFFFFFFFF0001FFFFE0003
310
F000F0001FFFF80003FE0003FFF000007FFF0001FF80007FE0003FFFF00007FE
310
0001FFFF80007FF8000001FFFE0000007FFFFFF0001FFFFFFFC0000FFFF80001
310
FFFFC0000FFFF80001FFFF0003FFFFFFFFF0001FFFFC0003F000F0000FFFF000
310
07FE0007FFF800007FFF0001FF80007FE0001FFFE00007FF0000FFFE00007FF8
310
000001FFFE0000007FFFFFF0001FFFFFFFC00003FFE00001FFFFC00003FFE000
310
01FFFF0003FFFFFFFFF8000FFFF80003F000F00003FFC00007FC0007FFF80000
310
7FFF8001FF80007FF00007FF80000FFF00007FF80000FFF8000001FFFE000000
310
7F80000000000001FFE000003E000003FFFFE000003E000003FFFF0003FFFFFF
310
FFF80003FFE00007F000F800000000000FFC0007FFF800007FFF8001FF80007F
310
F000000000000FFF000000000000FFF8000001FFFE0000007F80000000000001
310
FFF0000000000007FFFFF0000000000007FFFF0003FFFFFFFFFC00007E000007
310
F000F800000000000FFC0007FFF80000FFFF8000FF80007FF800000000001FFF
310
800000000001FFF8000001FFFE0000007F80000000000001FFF800000000000F
310
FFFFF800000000000FFFFF0003FFFFFFFFFC00000000000FF000FC0000000000
310
1FFC0007FFFC0000FFFF8000FF80007FF800000000003FFFC00000000001FFF8
310
000001FFFE0000007F80000000000001FFF800000000000FFFFFF80000000000
310
0FFFFF0003FFFFFFFFFE00000000001FF000FE00000000003FF8000FFFFC0000
310
FFFF8000FF80007FFC00000000003FFFC00000000003FFF8000001FFFE000000
310
7F80000000000001FFFC00000000001FFFFFFC00000000001FFFFF0003FFFFFF
310
FFFF00000000001FF000FF00000000003FF8000FFFFC0000FFFFC000FF80007F
310
FE00000000007FFFE00000000007FFF8000001FFFE0000007F80000000000001
310
FFFE00000000003FFFFFFE00000000003FFFFF0003FFFFFFFFFF80000000003F
310
F000FF80000000007FF8000FFFFC0001FFFFC0007F80007FFF0000000000FFFF
310
F0000000000FFFF800000000000000007F80000000000001FFFF8000000000FF
310
FFFFFF8000000000FFFFFF0003FFFFFFFFFFC0000000007FF000FFC000000000
310
FFF8000FFFFE0001FFFFC0007F80007FFF8000000001FFFFF8000000001FFFF8
310
00000000000000007F80000000000001FFFFC000000001FFFFFFFFC000000001
310
FFFFFF0003FFFFFFFFFFE000000000FFF000FFE000000003FFF0001FFFFE0001
310
FFFFC0007F80007FFFC000000007FFFFFE000000003FFFF80000000000000000
310
7F80000000000001FFFFE000000003FFFFFFFFE000000003FFFFFF0003FFFFFF
310
FFFFF000000003FFF000FFF80000000FFFF0001FFFFE0001FFFFE0007F80007F
310
FFF00000000FFFFFFF00000000FFFFF800000000000000007F80000000000001
310
FFFFF80000000FFFFFFFFFF80000000FFFFFFF0003FFFFFFFFFFFC0000000FFF
310
F000FFFE0000003FFFF0001FFFFE0003FFFFE0003F80007FFFFC0000003FFFFF
310
FFC0000003FFFFF800000000000000007F80000000000001FFFFFE0000003FFF
310
FFFFFFFE0000003FFFFFFF0003FFFFFFFFFFFF0000003FFFF000FFFF800000FF
310
FFF0001FFFFF0003FFFFE0003F80007FFFFF000001FFFFFFFFF800001FFFFFF8
310
00000000000000007F80000000000001FFFFFFC00001FFFFFFFFFFFFC00001FF
310
FFFFFF0003FFFFFFFFFFFFC00000FFFFF000FFFFF8000FFFFFFFFFFFFFFFFFFF
310
FFFFFFFFFFFFFFFFFFFFF0001FFFFFFFFFFF0000FFFFFFF80000000000000000
310
7FFFFFFFFFFFFFFFFFFFFFFC001FFFFFFFFFFFFFFC001FFFFFFFFFFFFFFFFFFF
310
FFFFFFFC001FFFFFF000FFFFFFFFFFFFFFFFFFFFFFFFFFFFFFFFFFFFFFFFFFFF
310
FFFFFFFFFFFFFFFFFFFFFFFFFFFFFFFFFFFFFFFFFFFFFFFFFFFFFFFFFFFFFFFF
310
FFFFFFFFFFFFFFFFFFFFFFFFFFFFFFFFFFFFFFFFFFFFFFFFFFFFFFFFFFFFFFFF
310
F000FFFFFFFFFFFFFFFFFFFFFFFFFFFFFFFFFFFFFFFFFFFFFFFFFFFFFFFFFFFF
310
FFFFFFFFFFFFFFFFFFFFFFFFFFFFFFFFFFFFFFFFFFFFFFFFFFFFFFFFFFFFFFFF
310
FFFFFFFFFFFFFFFFFFFFFFFFFFFFFFFFFFFFFFFFFFFFFFFFF000FFFFFFFFFFFF
310
FFFFFFFFFFFFFFFFFFFFFFFFFFFFFFFFFFFFFFFFFFFFFFFFFFFFFFFFFFFFFFFF
310
FFFFFFFFFFFFFFFFFFFFFFFFFFFFFFFFFFFFFFFFFFFFFFFFFFFFFFFFFFFFFFFF
310
FFFFFFFFFFFFFFFFFFFFFFFFFFFFFFFFF000FFFFFFFFFFFFFFFFFFFFFFFFFFFF
310
FFFFFFFFFFFFFFFFFFFFFFFFFFFFFFFFFFFFFFFFFFFFFFFFFFFFFFFFFFFFFFFF
310
FFFFFFFFFFFFFFFFFFFFFFFFFFFFFFFFFFFFFFFFFFFFFFFFFFFFFFFFFFFFFFFF
310
FFFFFFFFFFFFFFFFF000FFFFFFFFFFFFFFFFFFFFFFFFFFFFFFFFFFFFFFFFFFFF
310
FFFFFFFFFFFFFFFFFFFFFFFFFFFFFFFFFFFFFFFFFFFFFFFFFFFFFFFFFFFFFFFF
310
FFFFFFFFFFFFFFFFFFFFFFFFFFFFFFFFFFFFFFFFFFFFFFFFFFFFFFFFFFFFFFFF
310
F000FFFFFFFFFFFFFFFFFFFFFFFFFFFFFFFFFFFFFFFFFFFFFFFFFFFFFFFFFFFF
310
FFFFFFFFFFFFFFFFFFFFFFFFFFFFFFFFFFFFFFFFFFFFFFFFFFFFFFFFFFFFFFFF
310
FFFFFFFFFFFFFFFFFFFFFFFFFFFFFFFFFFFFFFFFFFFFFFFFF000FFFFFFFFFFFF
310
FFFFFFFFFFFFFFFFFFFFFFFFFFFFFFFFFFFFFFFFFFFFFFFFFFFFFFFFFFFFFFFF
310
FFFFFFFFFFFFFFFFFFFFFFFFFFFFFFFFFFFFFFFFFFFFFFFFFFFFFFFFFFFFFFFF
310
FFFFFFFFFFFFFFFFFFFFFFFFFFFFFFFFF000FFFFFFFFFFFFFFFFFFFFFFFFFFFF
310
FFFFFFFFFFFFFFFFFFFFFFFFFFFFFFFFFFFFFFFFFFFFFFFFFFFFFFFFFFFFFFFF
310
FFFFFFFFFFFFFFFFFFFFFFFFFFFFFFFFFFFFFFFFFFFFFFFFFFFFFFFFFFFFFFFF
310
FFFFFFFFFFFFFFFFF000FFFFFFFFFFFFFFFFFFFFFFFFFFFFFFFFFFFFFFFFFFFF
310
FFFFFFFFFFFFFFFFFFFFFFFFFFFFFFFFFFFFFFFFFFFFFFFFFFFFFFFFFFFFFFFF
310
FFFFFFFFFFFFFFFFFFFFFFFFFFFFFFFFFFFFFFFFFFFFFFFFFFFFFFFFFFFFFFFF
310
F000FFFFFFFFFFFFFFFFFFFFFFFFFFFFFFFFFFFFFFFFFFFFFFFFFFFFFFFFFFFF
310
FFFFFFFFFFFFFFFFFFFFFFFFFFFFFFFFFFFFFFFFFFFFFFFFFFFFFFFFFFFFFFFF
310
FFFFFFFFFFFFFFFFFFFFFFFFFFFFFFFFFFFFFFFFFFFFFFFFF000FFFFFFFFFFFF
310
FFFFFFFFFFFFFFFFFFFFFFFFFFFFFFFFFFFFFFFFFFFFFFFFFFFFFFFFFFFFFFFF
310
FFFFFFFFFFFFFFFFFFFFFFFFFFFFFFFFFFFFFFFFFFFFFFFFFFFFFFFFFFFFFFFF
310
FFFFFFFFFFFFFFFFFFFFFFFFFFFFFFFFF000FFFFFFFFFFFFFFFFFFFFFFFFFFFF
310
FFFFFFFFFFFFFFFFFFFFFFFFFFFFFFFFFFFFFFFFFFFFFFFFFFFFFFFFFFFFFFFF
310
FFFFFFFFFFFFFFFFFFFFFFFFFFFFFFFFFFFFFFFFFFFFFFFFFFFFFFFFFFFFFFFF
310
FFFFFFFFFFFFFFFFF000FFFFFFFFFFFFFFFFFFFFFFFFFFFFFFFFFFFFFFFFFFFF
310
FFFFFFFFFFFFFFFFFFFFFFFFFFFFFFFFFFFFFFFFFFFFFFFFFFFFFFFFFFFFFFFF
310
FFFFFFFFFFFFFFFFFFFFFFFFFFFFFFFFFFFFFFFFFFFFFFFFFFFFFFFFFFFFFFFF
310
F000FFFFFFFFFFFFFFFFFFFFFFFFFFFFFFFFFFFFFFFFFFFFFFFFFFFFFFFFFFFF
310
FFFFFFFFFFFFFFFFFFFFFFFFFFFFFFFFFFFFFFFFFFFFFFFFFFFFFFFFFFFFFFFF
310
FFFFFFFFFFFFFFFFFFFFFFFFFFFFFFFFFFFFFFFFFFFFFFFFF000FFFFFFFFFFFF
310
FFFFFFFFFFFFFFFFFFFFFFFFFFFFFFFFFFFFFFFFFFFFFFFFFFFFFFFFFFFFFFFF
310
FFFFFFFFFFFFFFFFFFFFFFFFFFFFFFFFFFFFFFFFFFFFFFFFFFFFFFFFFFFFFFFF
310
FFFFFFFFFFFFFFFFFFFFFFFFFFFFFFFFF000FFFFFFFFFFFFFFFFFFFFFFFFFFFF
310
FFFFFFFFFFFFFFFFFFFFFFFFFFFFFFFFFFFFFFFFFFFFFFFFFFFFFFFFFFFFFFFF
310
FFFFFFFFFFFFFFFFFFFFFFFFFFFFFFFFFFFFFFFFFFFFFFFFFFFFFFFFFFFFFFFF
310
FFFFFFFFFFFFFFFFF000FFFFFFFFFFFFFFFFFFFFFFFFFFFFFFFFFFFFFFFFFFFF
310
FFFFFFFFFFFFFFFFFFFFFFFFFFFFFFFFFFFFFFFFFFFFFFFFFFFFFFFFFFFFFFFF
310
FFFFFFFFFFFFFFFFFFFFFFFFFFFFFFFFFFFFFFFFFFFFFFFFFFFFFFFFFFFFFFFF
310
F000FFFFFFFFFFFFFFFFFFFFFFFFFFFFFFFFFFFFFFFFFFFFFFFFFFFFFFFFFFFF
310
FFFFFFFFFFFFFFFFFFFFFFFFFFFFFFFFFFFFFFFFFFFFFFFFFFFFFFFFFFFFFFFF
310
FFFFFFFFFFFFFFFFFFFFFFFFFFFFFFFFFFFFFFFFFFFFFFFFF000FFFFFFFFFFFF
310
FFFFFFFFFFFFFFFFFFFFFFFFFFFFFFFFFFFFFFFFFFFFFFFFFFFFFFFFFFFFFFFF
310
FFFFFFFFFFFFFFFFFFFFFFFFFFFFFFFFFFFFFFFFFFFFFFFFFFFFFFFFFFFFFFFF
310
FFFFFFFFFFFFFFFFFFFFFFFFFFFFFFFFF000FFFFFFFFFFFFFFFFFFFFFFFFFFFF
310
FFFFFFFFFFFFFFFFFFFFFFFFFFFFFFFFFFFFFFFFFFFFFFFFFFFFFFFFFFFFFFFF
310
FFFFFFFFFFFFFFFFFFFFFFFFFFFFFFFFFFFFFFFFFFFFFFFFFFFFFFFFFFFFFFFF
310
FFFFFFFFFFFFFFFFF000FFFFFFFFFFFFFFFFFFFFFFFFFFFFFFFFFFFFFFFFFFFF
310
FFFFFFFFFFFFFFFFFFFFFFFFFFFFFFFFFFFFFFFFFFFFFFFFFFFFFFFFFFFFFFFF
310
FFFFFFFFFFFFFFFFFFFFFFFFFFFFFFFFFFFFFFFFFFFFFFFFFFFFFFFFFFFFFFFF
310
F000FFFFFFFFFFFFFFFFFFFFFFFFFFFFFFFFFFFFFFFFFFFFFFFFFFFFFFFFFFFF
310
FFFFFFFFFFFFFFFFFFFFFFFFFFFFFFFFFFFFFFFFFFFFFFFFFFFFFFFFFFFFFFFF
310
FFFFFFFFFFFFFFFFFFFFFFFFFFFFFFFFFFFFFFFFFFFFFFFFF000FFFFFFFFFFFF
310
FFFFFFFFFFFFFFFFFFFFFFFFFFFFFFFFFFFFFFFFFFFFFFFFFFFFFFFFFFFFFFFF
310
FFFFFFFFFFFFFFFFFFFFFFFFFFFFFFFFFFFFFFFFFFFFFFFFFFFFFFFFFFFFFFFF
310
FFFFFFFFFFFFFFFFFFFFFFFFFFFFFFFFF0000000000000000000000000000000
310
0000000000000000000000000000000000000000000000000000000000000000
310
0000000000000000000000000000000000000000000000000000000000000000
310
0000000000000000000000000000000000000000000000000000000000000000
310
0000000000000000000000000000000000000000000000000000000000000000
310
0000000000000000000000000000000000000000000000000000000000000000
310
0000000000000000000000000000000000000000000000000000000000000000
310
0000000000000000000000000000000000000000000000000000000000000000
310
0000000000000000000000000000000000000000000000000000000000000000
310
0000000000000000000000000000000000000000000000000000000000000000
310
0000000000000000000000000000000000000000000000000000000000000000
310
0000000000000000000000000000000000000000000000000000000000000000
310
0000000000000000000000000000000000000000000000000000000000000000
310
0000000000000000000000000000000000000000000000000000000000000000
310
0000000000000000000000000000000000000000000000000000000000000000
310
0000000000000000000000000000000000000000000000000000000000000000
  1
OLE
  0
ENDSEC
  0
SECTION
  2
OBJECTS
  0
DICTIONARY
  5
C
330
0
100
AcDbDictionary
281
     1
  3
ACAD_GROUP
350
D
  3
ACAD_LAYOUT
350
1A
  3
ACAD_MLINESTYLE
350
17
  3
ACAD_PLOTSETTINGS
350
19
  3
ACAD_PLOTSTYLENAME
350
E
  3
ACAD_SCALELIST
350
47
  0
DICTIONARY
  5
D
102
{ACAD_REACTORS
330
C
102
}
330
C
100
AcDbDictionary
281
     1
  0
DICTIONARY
  5
1A
102
{ACAD_REACTORS
330
C
102
}
330
C
100
AcDbDictionary
281
     1
  3
Layout1
350
1E
  3
Layout2
350
26
  3
Model
350
22
  0
DICTIONARY
  5
17
102
{ACAD_REACTORS
330
C
102
}
330
C
100
AcDbDictionary
281
     1
  3
Standard
350
18
  0
DICTIONARY
  5
19
102
{ACAD_REACTORS
330
C
102
}
330
C
100
AcDbDictionary
281
     1
  0
ACDBDICTIONARYWDFLT
  5
E
102
{ACAD_REACTORS
330
C
102
}
330
C
100
AcDbDictionary
281
     1
  3
Normal
350
F
100
AcDbDictionaryWithDefault
340
F
  0
DICTIONARY
  5
47
102
{ACAD_REACTORS
330
C
102
}
330
C
100
AcDbDictionary
281
     1
  3
A0
350
48
  3
A1
350
49
  3
A2
350
4A
  3
A3
350
4B
  3
A4
350
4C
  3
A5
350
4D
  3
A6
350
4E
  3
A7
350
4F
  3
A8
350
50
  3
A9
350
51
  3
B0
350
52
  3
B1
350
53
  3
B2
350
54
  3
B3
350
55
  3
B4
350
56
  3
B5
350
57
  3
B6
350
58
  3
B7
350
59
  3
B8
350
5A
  3
B9
350
5B
  3
C0
350
5C
  3
C1
350
5D
  3
C2
350
5E
  3
C3
350
5F
  3
C4
350
60
  3
C5
350
61
  3
C6
350
62
  3
C7
350
63
  3
C8
350
64
  3
C9
350
65
  3
D0
350
66
  3
D1
350
67
  3
D2
350
68
  0
LAYOUT
  5
1E
102
{ACAD_REACTORS
330
1A
102
}
330
1A
100
AcDbPlotSettings
  1

  2
none_device
  4

  6

 40
0.0
 41
0.0
 42
0.0
 43
0.0
 44
0.0
 45
0.0
 46
0.0
 47
0.0
 48
0.0
 49
0.0
140
0.0
141
0.0
142
1.0
143
1.0
 70
   688
 72
     1
 73
     0
 74
     5
  7

 75
    16
147
1.0
148
0.0
149
0.0
100
AcDbLayout
  1
Layout1
 70
     1
 71
     1
 10
0.0
 20
0.0
 11
420.0
 21
297.0
 12
0.0
 22
0.0
 32
0.0
 14
1.0000000000E+20
 24
1.0000000000E+20
 34
1.0000000000E+20
 15
-1.0000000000E+20
 25
-1.0000000000E+20
 35
-1.0000000000E+20
146
0.0
 13
0.0
 23
0.0
 33
0.0
 16
1.0
 26
0.0
 36
0.0
 17
0.0
 27
1.0
 37
0.0
 76
     0
330
1B
  0
LAYOUT
  5
26
102
{ACAD_REACTORS
330
1A
102
}
330
1A
100
AcDbPlotSettings
  1

  2
none_device
  4

  6

 40
0.0
 41
0.0
 42
0.0
 43
0.0
 44
0.0
 45
0.0
 46
0.0
 47
0.0
 48
0.0
 49
0.0
140
0.0
141
0.0
142
1.0
143
1.0
 70
   688
 72
     1
 73
     0
 74
     5
  7

 75
    16
147
1.0
148
0.0
149
0.0
100
AcDbLayout
  1
Layout2
 70
     1
 71
     2
 10
0.0
 20
0.0
 11
0.0
 21
0.0
 12
0.0
 22
0.0
 32
0.0
 14
0.0
 24
0.0
 34
0.0
 15
0.0
 25
0.0
 35
0.0
146
0.0
 13
0.0
 23
0.0
 33
0.0
 16
1.0
 26
0.0
 36
0.0
 17
0.0
 27
1.0
 37
0.0
 76
     0
330
23
  0
LAYOUT
  5
22
102
{ACAD_REACTORS
330
1A
102
}
330
1A
100
AcDbPlotSettings
  1

  2
none_device
  4
Letter_(8.50_x_11.00_Inches)
  6

 40
6.35
 41
6.35
 42
6.35000508
 43
6.35000508
 44
215.9
 45
279.4
 46
0.0
 47
0.0
 48
0.0
 49
0.0
140
0.0
141
0.0
142
1.0
143
1.0
 70
  1712
 72
     1
 73
     0
 74
     0
  7

 75
     0
147
1.0
148
0.0
149
0.0
100
AcDbLayout
  1
Model
 70
     1
 71
     0
 10
0.0
 20
0.0
 11
297.0
 21
210.0
 12
0.0
 22
0.0
 32
0.0
 14
0.0
 24
0.0
 34
0.0
 15
297.0
 25
210.0
 35
0.0
146
0.0
 13
0.0
 23
0.0
 33
0.0
 16
1.0
 26
0.0
 36
0.0
 17
0.0
 27
1.0
 37
0.0
 76
     0
330
1F
331
29
  0
MLINESTYLE
  5
18
102
{ACAD_REACTORS
330
17
102
}
330
17
100
AcDbMlineStyle
  2
Standard
 70
     0
  3

 62
   256
 51
90.0
 52
90.0
 71
     2
 49
0.5
 62
   256
  6
BYLAYER
 49
-0.5
 62
   256
  6
BYLAYER
  0
ACDBPLACEHOLDER
  5
F
102
{ACAD_REACTORS
330
E
102
}
330
E
  0
SCALE
  5
48
102
{ACAD_REACTORS
330
47
102
}
330
47
100
AcDbScale
 70
     0
300
1:1
140
1.0
141
1.0
290
     1
  0
SCALE
  5
49
102
{ACAD_REACTORS
330
47
102
}
330
47
100
AcDbScale
 70
     0
300
1:2
140
1.0
141
2.0
290
     0
  0
SCALE
  5
4A
102
{ACAD_REACTORS
330
47
102
}
330
47
100
AcDbScale
 70
     0
300
1:4
140
1.0
141
4.0
290
     0
  0
SCALE
  5
4B
102
{ACAD_REACTORS
330
47
102
}
330
47
100
AcDbScale
 70
     0
300
1:5
140
1.0
141
5.0
290
     0
  0
SCALE
  5
4C
102
{ACAD_REACTORS
330
47
102
}
330
47
100
AcDbScale
 70
     0
300
1:8
140
1.0
141
8.0
290
     0
  0
SCALE
  5
4D
102
{ACAD_REACTORS
330
47
102
}
330
47
100
AcDbScale
 70
     0
300
1:10
140
1.0
141
10.0
290
     0
  0
SCALE
  5
4E
102
{ACAD_REACTORS
330
47
102
}
330
47
100
AcDbScale
 70
     0
300
1:16
140
1.0
141
16.0
290
     0
  0
SCALE
  5
4F
102
{ACAD_REACTORS
330
47
102
}
330
47
100
AcDbScale
 70
     0
300
1:20
140
1.0
141
20.0
290
     0
  0
SCALE
  5
50
102
{ACAD_REACTORS
330
47
102
}
330
47
100
AcDbScale
 70
     0
300
1:30
140
1.0
141
30.0
290
     0
  0
SCALE
  5
51
102
{ACAD_REACTORS
330
47
102
}
330
47
100
AcDbScale
 70
     0
300
1:40
140
1.0
141
40.0
290
     0
  0
SCALE
  5
52
102
{ACAD_REACTORS
330
47
102
}
330
47
100
AcDbScale
 70
     0
300
1:50
140
1.0
141
50.0
290
     0
  0
SCALE
  5
53
102
{ACAD_REACTORS
330
47
102
}
330
47
100
AcDbScale
 70
     0
300
1:100
140
1.0
141
100.0
290
     0
  0
SCALE
  5
54
102
{ACAD_REACTORS
330
47
102
}
330
47
100
AcDbScale
 70
     0
300
2:1
140
2.0
141
1.0
290
     0
  0
SCALE
  5
55
102
{ACAD_REACTORS
330
47
102
}
330
47
100
AcDbScale
 70
     0
300
4:1
140
4.0
141
1.0
290
     0
  0
SCALE
  5
56
102
{ACAD_REACTORS
330
47
102
}
330
47
100
AcDbScale
 70
     0
300
8:1
140
8.0
141
1.0
290
     0
  0
SCALE
  5
57
102
{ACAD_REACTORS
330
47
102
}
330
47
100
AcDbScale
 70
     0
300
10:1
140
10.0
141
1.0
290
     0
  0
SCALE
  5
58
102
{ACAD_REACTORS
330
47
102
}
330
47
100
AcDbScale
 70
     0
300
100:1
140
100.0
141
1.0
290
     0
  0
SCALE
  5
59
102
{ACAD_REACTORS
330
47
102
}
330
47
100
AcDbScale
 70
     0
300
1/128" = 1'-0"
140
0.0078125
141
12.0
290
     0
  0
SCALE
  5
5A
102
{ACAD_REACTORS
330
47
102
}
330
47
100
AcDbScale
 70
     0
300
1/64" = 1'-0"
140
0.015625
141
12.0
290
     0
  0
SCALE
  5
5B
102
{ACAD_REACTORS
330
47
102
}
330
47
100
AcDbScale
 70
     0
300
1/32" = 1'-0"
140
0.03125
141
12.0
290
     0
  0
SCALE
  5
5C
102
{ACAD_REACTORS
330
47
102
}
330
47
100
AcDbScale
 70
     0
300
1/16" = 1'-0"
140
0.0625
141
12.0
290
     0
  0
SCALE
  5
5D
102
{ACAD_REACTORS
330
47
102
}
330
47
100
AcDbScale
 70
     0
300
3/32" = 1'-0"
140
0.09375
141
12.0
290
     0
  0
SCALE
  5
5E
102
{ACAD_REACTORS
330
47
102
}
330
47
100
AcDbScale
 70
     0
300
1/8" = 1'-0"
140
0.125
141
12.0
290
     0
  0
SCALE
  5
5F
102
{ACAD_REACTORS
330
47
102
}
330
47
100
AcDbScale
 70
     0
300
3/16" = 1'-0"
140
0.1875
141
12.0
290
     0
  0
SCALE
  5
60
102
{ACAD_REACTORS
330
47
102
}
330
47
100
AcDbScale
 70
     0
300
1/4" = 1'-0"
140
0.25
141
12.0
290
     0
  0
SCALE
  5
61
102
{ACAD_REACTORS
330
47
102
}
330
47
100
AcDbScale
 70
     0
300
3/8" = 1'-0"
140
0.375
141
12.0
290
     0
  0
SCALE
  5
62
102
{ACAD_REACTORS
330
47
102
}
330
47
100
AcDbScale
 70
     0
300
1/2" = 1'-0"
140
0.5
141
12.0
290
     0
  0
SCALE
  5
63
102
{ACAD_REACTORS
330
47
102
}
330
47
100
AcDbScale
 70
     0
300
3/4" = 1'-0"
140
0.75
141
12.0
290
     0
  0
SCALE
  5
64
102
{ACAD_REACTORS
330
47
102
}
330
47
100
AcDbScale
 70
     0
300
1" = 1'-0"
140
1.0
141
12.0
290
     0
  0
SCALE
  5
65
102
{ACAD_REACTORS
330
47
102
}
330
47
100
AcDbScale
 70
     0
300
1-1/2" = 1'-0"
140
1.5
141
12.0
290
     0
  0
SCALE
  5
66
102
{ACAD_REACTORS
330
47
102
}
330
47
100
AcDbScale
 70
     0
300
3" = 1'-0"
140
3.0
141
12.0
290
     0
  0
SCALE
  5
67
102
{ACAD_REACTORS
330
47
102
}
330
47
100
AcDbScale
 70
     0
300
6" = 1'-0"
140
6.0
141
12.0
290
     0
  0
SCALE
  5
68
102
{ACAD_REACTORS
330
47
102
}
330
47
100
AcDbScale
 70
     0
300
1'-0" = 1'-0"
140
12.0
141
12.0
290
     0
  0
ENDSEC
  0
EOF
