  0
SECTION
  2
HEADER
  9
$ACADVER
  1
AC1015
  9
$ACADMAINTVER
 70
     6
  9
$DWGCODEPAGE
  3
ANSI_1252
  9
$INSBASE
 10
0.0
 20
0.0
 30
0.0
  9
$EXTMIN
 10
0.0
 20
0.0
 30
0.0
  9
$EXTMAX
 10
297.0
 20
210.0
 30
0.0
  9
$LIMMIN
 10
0.0
 20
0.0
  9
$LIMMAX
 10
297.0
 20
210.0
  9
$ORTHOMODE
 70
     0
  9
$REGENMODE
 70
     1
  9
$FILLMODE
 70
     1
  9
$QTEXTMODE
 70
     0
  9
$MIRRTEXT
 70
     1
  9
$LTSCALE
 40
1.0
  9
$ATTMODE
 70
     1
  9
$TEXTSIZE
 40
2.0
  9
$TRACEWID
 40
1.0
  9
$TEXTSTYLE
  7
Standard
  9
$CLAYER
  8
0
  9
$CELTYPE
  6
ByLayer
  9
$CECOLOR
 62
   256
  9
$CELTSCALE
 40
1.0
  9
$DISPSILH
 70
     0
  9
$DIMSCALE
 40
1.0
  9
$DIMASZ
 40
3.0
  9
$DIMEXO
 40
0.0
  9
$DIMDLI
 40
3.75
  9
$DIMRND
 40
0.0
  9
$DIMDLE
 40
0.0
  9
$DIMEXE
 40
1.0
  9
$DIMTP
 40
0.0
  9
$DIMTM
 40
0.0
  9
$DIMTXT
 40
2.0
  9
$DIMCEN
 40
2.5
  9
$DIMTSZ
 40
0.0
  9
$DIMTOL
 70
     0
  9
$DIMLIM
 70
     0
  9
$DIMTIH
 70
     1
  9
$DIMTOH
 70
     1
  9
$DIMSE1
 70
     0
  9
$DIMSE2
 70
     0
  9
$DIMTAD
 70
     1
  9
$DIMZIN
 70
     0
  9
$DIMBLK
  1

  9
$DIMASO
 70
     1
  9
$DIMSHO
 70
     1
  9
$DIMPOST
  1

  9
$DIMAPOST
  1

  9
$DIMALT
 70
     0
  9
$DIMALTD
 70
     3
  9
$DIMALTF
 40
0.0393700787
  9
$DIMLFAC
 40
1.0
  9
$DIMTOFL
 70
     1
  9
$DIMTVP
 40
0.0
  9
$DIMTIX
 70
     0
  9
$DIMSOXD
 70
     0
  9
$DIMSAH
 70
     0
  9
$DIMBLK1
  1

  9
$DIMBLK2
  1

  9
$DIMSTYLE
  2
ISO-25
  9
$DIMCLRD
 70
     0
  9
$DIMCLRE
 70
     0
  9
$DIMCLRT
 70
     0
  9
$DIMTFAC
 40
1.0
  9
$DIMGAP
 40
1.524
  9
$DIMJUST
 70
     0
  9
$DIMSD1
 70
     0
  9
$DIMSD2
 70
     0
  9
$DIMTOLJ
 70
     0
  9
$DIMTZIN
 70
     0
  9
$DIMALTZ
 70
     0
  9
$DIMALTTZ
 70
     0
  9
$DIMUPT
 70
     0
  9
$DIMDEC
 70
     2
  9
$DIMTDEC
 70
     3
  9
$DIMALTU
 70
     2
  9
$DIMALTTD
 70
     3
  9
$DIMTXSTY
  7
Standard
  9
$DIMAUNIT
 70
     0
  9
$DIMADEC
 70
     2
  9
$DIMALTRND
 40
0.0
  9
$DIMAZIN
 70
     0
  9
$DIMDSEP
 70
    44
  9
$DIMATFIT
 70
     3
  9
$DIMFRAC
 70
     0
  9
$DIMLDRBLK
  1

  9
$DIMLUNIT
 70
     2
  9
$DIMLWD
 70
    -2
  9
$DIMLWE
 70
    -2
  9
$DIMTMOVE
 70
     0
  9
$LUNITS
 70
     2
  9
$LUPREC
 70
     2
  9
$SKETCHINC
 40
1.0
  9
$FILLETRAD
 40
10.0
  9
$AUNITS
 70
     0
  9
$AUPREC
 70
     2
  9
$MENU
  1
.
  9
$ELEVATION
 40
0.0
  9
$PELEVATION
 40
0.0
  9
$THICKNESS
 40
0.0
  9
$LIMCHECK
 70
     0
  9
$CHAMFERA
 40
0.0
  9
$CHAMFERB
 40
0.0
  9
$CHAMFERC
 40
0.0
  9
$CHAMFERD
 40
0.0
  9
$SKPOLY
 70
     0
  9
$TDCREATE
 40
2457667.456527905
  9
$TDUCREATE
 40
2457667.373194572
  9
$TDUPDATE
 40
2457667.456529271
  9
$TDUUPDATE
 40
2457667.373195937
  9
$TDINDWG
 40
0.0000000116
  9
$TDUSRTIMER
 40
0.0000000116
  9
$USRTIMER
 70
     1
  9
$ANGBASE
 50
0.0
  9
$ANGDIR
 70
     0
  9
$PDMODE
 70
     0
  9
$PDSIZE
 40
-1.0
  9
$PLINEWID
 40
0.0
  9
$SPLFRAME
 70
     0
  9
$SPLINETYPE
 70
     6
  9
$SPLINESEGS
 70
     8
  9
$HANDSEED
  5
254
  9
$SURFTAB1
 70
     6
  9
$SURFTAB2
 70
     6
  9
$SURFTYPE
 70
     6
  9
$SURFU
 70
     6
  9
$SURFV
 70
     6
  9
$UCSBASE
  2

  9
$UCSNAME
  2

  9
$UCSORG
 10
0.0
 20
0.0
 30
0.0
  9
$UCSXDIR
 10
1.0
 20
0.0
 30
0.0
  9
$UCSYDIR
 10
0.0
 20
1.0
 30
0.0
  9
$UCSORTHOREF
  2

  9
$UCSORTHOVIEW
 70
     0
  9
$UCSORGTOP
 10
0.0
 20
0.0
 30
0.0
  9
$UCSORGBOTTOM
 10
0.0
 20
0.0
 30
0.0
  9
$UCSORGLEFT
 10
0.0
 20
0.0
 30
0.0
  9
$UCSORGRIGHT
 10
0.0
 20
0.0
 30
0.0
  9
$UCSORGFRONT
 10
0.0
 20
0.0
 30
0.0
  9
$UCSORGBACK
 10
0.0
 20
0.0
 30
0.0
  9
$PUCSBASE
  2

  9
$PUCSNAME
  2

  9
$PUCSORG
 10
0.0
 20
0.0
 30
0.0
  9
$PUCSXDIR
 10
1.0
 20
0.0
 30
0.0
  9
$PUCSYDIR
 10
0.0
 20
1.0
 30
0.0
  9
$PUCSORTHOREF
  2

  9
$PUCSORTHOVIEW
 70
     0
  9
$PUCSORGTOP
 10
0.0
 20
0.0
 30
0.0
  9
$PUCSORGBOTTOM
 10
0.0
 20
0.0
 30
0.0
  9
$PUCSORGLEFT
 10
0.0
 20
0.0
 30
0.0
  9
$PUCSORGRIGHT
 10
0.0
 20
0.0
 30
0.0
  9
$PUCSORGFRONT
 10
0.0
 20
0.0
 30
0.0
  9
$PUCSORGBACK
 10
0.0
 20
0.0
 30
0.0
  9
$USERI1
 70
     0
  9
$USERI2
 70
     0
  9
$USERI3
 70
     0
  9
$USERI4
 70
     0
  9
$USERI5
 70
     0
  9
$USERR1
 40
0.0
  9
$USERR2
 40
0.0
  9
$USERR3
 40
0.0
  9
$USERR4
 40
0.0
  9
$USERR5
 40
0.0
  9
$WORLDVIEW
 70
     1
  9
$SHADEDGE
 70
     3
  9
$SHADEDIF
 70
    70
  9
$TILEMODE
 70
     1
  9
$MAXACTVP
 70
    64
  9
$PINSBASE
 10
0.0
 20
0.0
 30
0.0
  9
$PLIMCHECK
 70
     0
  9
$PEXTMIN
 10
1.0000000000E+20
 20
1.0000000000E+20
 30
1.0000000000E+20
  9
$PEXTMAX
 10
-1.0000000000E+20
 20
-1.0000000000E+20
 30
-1.0000000000E+20
  9
$PLIMMIN
 10
0.0
 20
0.0
  9
$PLIMMAX
 10
420.0
 20
297.0
  9
$UNITMODE
 70
     0
  9
$VISRETAIN
 70
     1
  9
$PLINEGEN
 70
     0
  9
$PSLTSCALE
 70
     1
  9
$TREEDEPTH
 70
  3020
  9
$CMLSTYLE
  2
Standard
  9
$CMLJUST
 70
     0
  9
$CMLSCALE
 40
20.0
  9
$PROXYGRAPHICS
 70
     1
  9
$MEASUREMENT
 70
     1
  9
$CELWEIGHT
370
    -1
  9
$ENDCAPS
280
     0
  9
$JOINSTYLE
280
     0
  9
$LWDISPLAY
290
     1
  9
$INSUNITS
 70
     4
  9
$HYPERLINKBASE
  1

  9
$STYLESHEET
  1

  9
$XEDIT
290
     1
  9
$CEPSNTYPE
380
     0
  9
$PSTYLEMODE
290
     1
  9
$FINGERPRINTGUID
  2
{960780F3-8289-4B94-9B54-52927869B907}
  9
$VERSIONGUID
  2
{FAEB1C32-E019-11D5-929B-00C0DF256EC4}
  9
$EXTNAMES
290
     1
  9
$PSVPSCALE
 40
0.0
  9
$OLESTARTUP
290
     0
  0
ENDSEC
  0
SECTION
  2
CLASSES
  0
CLASS
  1
ACDBDICTIONARYWDFLT
  2
AcDbDictionaryWithDefault
  3
ObjectDBX Classes
 90
        0
280
     0
281
     0
  0
CLASS
  1
VISUALSTYLE
  2
AcDbVisualStyle
  3
ObjectDBX Classes
 90
     4095
280
     0
281
     0
  0
CLASS
  1
MATERIAL
  2
AcDbMaterial
  3
ObjectDBX Classes
 90
     1153
280
     0
281
     0
  0
CLASS
  1
SCALE
  2
AcDbScale
  3
ObjectDBX Classes
 90
     1153
280
     0
281
     0
  0
CLASS
  1
TABLESTYLE
  2
AcDbTableStyle
  3
ObjectDBX Classes
 90
     4095
280
     0
281
     0
  0
CLASS
  1
MLEADERSTYLE
  2
AcDbMLeaderStyle
  3
ACDB_MLEADERSTYLE_CLASS
 90
     4095
280
     0
281
     0
  0
CLASS
  1
SUN
  2
AcDbSun
  3
SCENEOE
 90
     1153
280
     0
281
     0
  0
CLASS
  1
ACDBPLACEHOLDER
  2
AcDbPlaceHolder
  3
ObjectDBX Classes
 90
        0
280
     0
281
     0
  0
CLASS
  1
LAYOUT
  2
AcDbLayout
  3
ObjectDBX Classes
 90
        0
280
     0
281
     0
  0
ENDSEC
  0
SECTION
  2
TABLES
  0
TABLE
  2
VPORT
  5
8
330
0
100
AcDbSymbolTable
 70
     1
  0
VPORT
  5
29
330
8
100
AcDbSymbolTableRecord
100
AcDbViewportTableRecord
  2
*Active
 70
     0
 10
0.0
 20
0.0
 11
1.0
 21
1.0
 12
148.5
 22
105.0
 13
0.0
 23
0.0
 14
10.0
 24
10.0
 15
10.0
 25
10.0
 16
0.0
 26
0.0
 36
1.0
 17
0.0
 27
0.0
 37
0.0
 40
210.0
 41
1.4142857143
 42
50.0
 43
0.0
 44
0.0
 50
0.0
 51
0.0
 71
     0
 72
  2000
 73
     1
 74
     3
 75
     0
 76
     0
 77
     0
 78
     0
281
     0
 65
     1
110
0.0
120
0.0
130
0.0
111
1.0
121
0.0
131
0.0
112
0.0
122
1.0
132
0.0
 79
     0
146
0.0
  0
ENDTAB
  0
TABLE
  2
LTYPE
  5
5
330
0
100
AcDbSymbolTable
 70
     6
  0
LTYPE
  5
14
330
5
100
AcDbSymbolTableRecord
100
AcDbLinetypeTableRecord
  2
ByBlock
 70
     0
  3

 72
    65
 73
     0
 40
0.0
  0
LTYPE
  5
15
330
5
100
AcDbSymbolTableRecord
100
AcDbLinetypeTableRecord
  2
ByLayer
 70
     0
  3

 72
    65
 73
     0
 40
0.0
  0
LTYPE
  5
16
330
5
100
AcDbSymbolTableRecord
100
AcDbLinetypeTableRecord
  2
Continuous
 70
     0
  3
Solid line
 72
    65
 73
     0
 40
0.0
  0
LTYPE
  5
6E
330
5
100
AcDbSymbolTableRecord
100
AcDbLinetypeTableRecord
  2
HIDDEN
 70
     0
  3
Hidden __ __ __ __ __ __ __ __ __ __ __ __ __ __
 72
    65
 73
     2
 40
1.905
 49
1.27
 74
     0
 49
-0.635
 74
     0
  0
LTYPE
  5
6F
330
5
100
AcDbSymbolTableRecord
100
AcDbLinetypeTableRecord
  2
PHANTOM
 70
     0
  3
Phantom ______  __  __  ______  __  __  ______
 72
    65
 73
     6
 40
12.7
 49
6.35
 74
     0
 49
-1.27
 74
     0
 49
1.27
 74
     0
 49
-1.27
 74
     0
 49
1.27
 74
     0
 49
-1.27
 74
     0
  0
LTYPE
  5
70
330
5
100
AcDbSymbolTableRecord
100
AcDbLinetypeTableRecord
  2
CENTER
 70
     0
  3
Center ____ _ ____ _ ____ _ ____ _ ____ _ ____
 72
    65
 73
     4
 40
10.16
 49
6.35
 74
     0
 49
-1.27
 74
     0
 49
1.27
 74
     0
 49
-1.27
 74
     0
  0
LTYPE
  5
71
330
5
100
AcDbSymbolTableRecord
100
AcDbLinetypeTableRecord
  2
CENTERX2
 70
     0
  3
Center (2x) ________  __  ________  __  _____
 72
    65
 73
     4
 40
20.32
 49
12.7
 74
     0
 49
-2.54
 74
     0
 49
2.54
 74
     0
 49
-2.54
 74
     0
  0
LTYPE
  5
72
330
5
100
AcDbSymbolTableRecord
100
AcDbLinetypeTableRecord
  2
DOT2
 70
     0
  3
Dot (.5x) ........................................
 72
    65
 73
     2
 40
0.635
 49
0.0
 74
     0
 49
-0.635
 74
     0
  0
ENDTAB
  0
TABLE
  2
LAYER
  5
2
330
0
100
AcDbSymbolTable
 70
     5
  0
LAYER
  5
10
330
2
100
AcDbSymbolTableRecord
100
AcDbLayerTableRecord
  2
0
 70
     0
 62
     7
  6
Continuous
370
    -3
390
F
  0
LAYER
  5
73
330
2
100
AcDbSymbolTableRecord
100
AcDbLayerTableRecord
  2
FORMAT
 70
     0
 62
     7
  6
Continuous
370
    -3
390
F
  0
LAYER
  5
74
330
2
100
AcDbSymbolTableRecord
100
AcDbLayerTableRecord
  2
VERMASSUNG
 70
     0
 62
     7
  6
Continuous
370
    -3
390
F
  0
LAYER
  5
75
330
2
100
AcDbSymbolTableRecord
100
AcDbLayerTableRecord
  2
KOPF_DÜNN
 70
     0
 62
     7
  6
Continuous
370
    -3
390
F
  0
LAYER
  5
76
330
2
100
AcDbSymbolTableRecord
100
AcDbLayerTableRecord
  2
KOPF_DICK
 70
     0
 62
     7
  6
Continuous
370
    15
390
F
  0
ENDTAB
  0
TABLE
  2
STYLE
  5
3
330
0
100
AcDbSymbolTable
 70
     2
  0
STYLE
  5
11
330
3
100
AcDbSymbolTableRecord
100
AcDbTextStyleTableRecord
  2
Standard
 70
     0
 40
0.0
 41
1.0
 50
0.0
 71
     0
 42
2.0
  3
txt
  4

  0
STYLE
  5
77
330
3
100
AcDbSymbolTableRecord
100
AcDbTextStyleTableRecord
  2
SLDTEXTSTYLE0
 70
     0
 40
0.0
 41
0.7
 50
0.0
 71
     0
 42
2.0
  3
TXT
  4

  0
ENDTAB
  0
TABLE
  2
VIEW
  5
6
330
0
100
AcDbSymbolTable
 70
     0
  0
ENDTAB
  0
TABLE
  2
UCS
  5
7
330
0
100
AcDbSymbolTable
 70
     0
  0
ENDTAB
  0
TABLE
  2
APPID
  5
9
330
0
100
AcDbSymbolTable
 70
     1
  0
APPID
  5
12
330
9
100
AcDbSymbolTableRecord
100
AcDbRegAppTableRecord
  2
ACAD
 70
     0
  0
ENDTAB
  0
TABLE
  2
DIMSTYLE
  5
A
330
0
100
AcDbSymbolTable
 70
     2
100
AcDbDimStyleTable
  0
DIMSTYLE
105
27
330
A
100
AcDbSymbolTableRecord
100
AcDbDimStyleTableRecord
  2
ISO-25
 70
     0
 41
2.5
 42
0.625
 43
3.75
 44
1.25
 73
     0
 74
     0
 77
     1
 78
     8
140
2.5
141
2.5
143
0.0393700787
147
0.625
171
     3
172
     1
178
     0
271
     2
272
     2
274
     3
278
    44
283
     0
284
     8
340
11
  0
DIMSTYLE
105
14D
102
{ACAD_REACTORS
330
14C
330
159
330
165
330
16F
330
17B
330
186
102
}
330
A
100
AcDbSymbolTableRecord
100
AcDbDimStyleTableRecord
  2
SLDDIMSTYLE0
 70
     0
 41
3.0
 44
0.0
 45
0.000000001
 73
     0
 74
     0
 77
     1
 78
    12
 79
     3
140
2.0
147
0.5
173
     1
178
     0
271
     2
272
     3
276
     2
284
    12
340
77
  0
ENDTAB
  0
TABLE
  2
BLOCK_RECORD
  5
1
330
0
100
AcDbSymbolTable
 70
     7
  0
BLOCK_RECORD
  5
1F
330
1
100
AcDbSymbolTableRecord
100
AcDbBlockTableRecord
  2
*Model_Space
340
22
  0
BLOCK_RECORD
  5
1B
330
1
100
AcDbSymbolTableRecord
100
AcDbBlockTableRecord
  2
*Paper_Space
340
1E
  0
BLOCK_RECORD
  5
23
330
1
100
AcDbSymbolTableRecord
100
AcDbBlockTableRecord
  2
*Paper_Space0
340
26
  0
BLOCK_RECORD
  5
14E
330
1
100
AcDbSymbolTableRecord
100
AcDbBlockTableRecord
  2
_D
340
0
  0
BLOCK_RECORD
  5
15A
330
1
100
AcDbSymbolTableRecord
100
AcDbBlockTableRecord
  2
_D_1
340
0
  0
BLOCK_RECORD
  5
166
330
1
100
AcDbSymbolTableRecord
100
AcDbBlockTableRecord
  2
_D_2
340
0
  0
BLOCK_RECORD
  5
170
330
1
100
AcDbSymbolTableRecord
100
AcDbBlockTableRecord
  2
_D_3
340
0
  0
BLOCK_RECORD
  5
17C
330
1
100
AcDbSymbolTableRecord
100
AcDbBlockTableRecord
  2
_D_4
340
0
  0
BLOCK_RECORD
  5
187
330
1
100
AcDbSymbolTableRecord
100
AcDbBlockTableRecord
  2
_D_5
340
0
  0
ENDTAB
  0
ENDSEC
  0
SECTION
  2
BLOCKS
  0
BLOCK
  5
20
330
1F
100
AcDbEntity
  8
0
100
AcDbBlockBegin
  2
*Model_Space
 70
     0
 10
0.0
 20
0.0
 30
0.0
  3
*Model_Space
  1

  0
ENDBLK
  5
21
330
1F
100
AcDbEntity
  8
0
100
AcDbBlockEnd
  0
BLOCK
  5
1C
330
1B
100
AcDbEntity
 67
     1
  8
0
100
AcDbBlockBegin
  2
*Paper_Space
 70
     0
 10
0.0
 20
0.0
 30
0.0
  3
*Paper_Space
  1

  0
ENDBLK
  5
1D
330
1B
100
AcDbEntity
 67
     1
  8
0
100
AcDbBlockEnd
  0
BLOCK
  5
24
330
23
100
AcDbEntity
  8
0
100
AcDbBlockBegin
  2
*Paper_Space0
 70
     0
 10
0.0
 20
0.0
 30
0.0
  3
*Paper_Space0
  1

  0
ENDBLK
  5
25
330
23
100
AcDbEntity
  8
0
100
AcDbBlockEnd
  0
BLOCK
  5
14F
330
14E
100
AcDbEntity
  8
0
100
AcDbBlockBegin
  2
_D
 70
     0
 10
0.0
 20
0.0
 30
0.0
  3
_D
  1

  0
SOLID
  5
151
330
14E
100
AcDbEntity
  8
VERMASSUNG
100
AcDbTrace
 10
76.3767438252
 20
73.2794875286
 30
0.0
 11
76.8267438252
 21
76.2794875286
 31
0.0
 12
75.9267438252
 22
76.2794875286
 32
0.0
 13
75.9267438252
 23
76.2794875286
 33
0.0
  0
SOLID
  5
152
330
14E
100
AcDbEntity
  8
VERMASSUNG
100
AcDbTrace
 10
76.3767438252
 20
136.7794875286
 30
0.0
 11
75.9267438252
 21
133.7794875286
 31
0.0
 12
76.8267438252
 22
133.7794875286
 32
0.0
 13
76.8267438252
 23
133.7794875286
 33
0.0
  0
LINE
  5
153
330
14E
100
AcDbEntity
  8
VERMASSUNG
100
AcDbLine
 10
169.3996878051
 20
73.2794875286
 30
0.0
 11
75.3767438252
 21
73.2794875286
 31
0.0
  0
LINE
  5
154
330
14E
100
AcDbEntity
  8
VERMASSUNG
100
AcDbLine
 10
169.3996878051
 20
136.7794875286
 30
0.0
 11
75.3767438252
 21
136.7794875286
 31
0.0
  0
LINE
  5
155
330
14E
100
AcDbEntity
  8
VERMASSUNG
100
AcDbLine
 10
76.3767438252
 20
73.2794875286
 30
0.0
 11
76.3767438252
 21
136.7794875286
 31
0.0
  0
MTEXT
  5
156
330
14E
100
AcDbEntity
  8
VERMASSUNG
100
AcDbMText
 10
73.598608569
 20
96.2265513803
 30
0.0
 40
2.0
 41
0.0
 71
     1
 72
     1
  1
ISO 40
  7
SLDTEXTSTYLE0
 11
3.391901413832837E-15
 21
1.0
 31
0.0
 73
     1
 44
1.0
  0
MTEXT
  5
157
330
14E
100
AcDbEntity
  8
VERMASSUNG
100
AcDbMText
 10
73.7986085203
 20
105.4265515845
 30
0.0
 40
2.0
 41
0.0
 71
     1
 72
     1
  1
%%c
  7
SLDTEXTSTYLE0
 11
3.391901413832837E-15
 21
1.0
 31
0.0
 73
     1
 44
1.0
  0
MTEXT
  5
158
330
14E
100
AcDbEntity
  8
VERMASSUNG
100
AcDbMText
 10
73.7986082292
 20
109.0344319158
 30
0.0
 40
2.0
 41
0.0
 71
     1
 72
     1
  1
63.5
  7
SLDTEXTSTYLE0
 11
3.391901413832837E-15
 21
1.0
 31
0.0
 73
     1
 44
1.0
  0
ENDBLK
  5
150
330
14E
100
AcDbEntity
  8
0
100
AcDbBlockEnd
  0
BLOCK
  5
15B
330
15A
100
AcDbEntity
  8
0
100
AcDbBlockBegin
  2
_D_1
 70
     0
 10
0.0
 20
0.0
 30
0.0
  3
_D_1
  1

  0
ARC
  5
15D
330
15A
100
AcDbEntity
  8
VERMASSUNG
100
AcDbCircle
 10
144.9368283819
 20
158.5266030202
 30
0.0
 40
4.247059938537348
100
AcDbArc
 50
153.4349488229
 51
206.5650511771
  0
ARC
  5
15E
330
15A
100
AcDbEntity
  8
VERMASSUNG
100
AcDbCircle
 10
147.7125472284
 20
158.5266030202
 30
0.0
 40
4.247059938537297
100
AcDbArc
 50
333.4349488229
 51
26.5650511771
  0
SOLID
  5
15F
330
15A
100
AcDbEntity
  8
VERMASSUNG
100
AcDbTrace
 10
82.6996878051
 20
156.6272600748
 30
0.0
 11
85.6996878051
 21
156.1772600748
 31
0.0
 12
85.6996878051
 22
157.0772600748
 32
0.0
 13
85.6996878051
 23
157.0772600748
 33
0.0
  0
SOLID
  5
160
330
15A
100
AcDbEntity
  8
VERMASSUNG
100
AcDbTrace
 10
209.9496878051
 20
156.6272600748
 30
0.0
 11
206.9496878051
 21
157.0772600748
 31
0.0
 12
206.9496878051
 22
156.1772600748
 32
0.0
 13
206.9496878051
 23
156.1772600748
 33
0.0
  0
LINE
  5
161
330
15A
100
AcDbEntity
  8
VERMASSUNG
100
AcDbLine
 10
82.6996878051
 20
116.4366181256
 30
0.0
 11
82.6996878051
 21
157.6272600748
 31
0.0
  0
LINE
  5
162
330
15A
100
AcDbEntity
  8
VERMASSUNG
100
AcDbLine
 10
209.9496878051
 20
136.4294875286
 30
0.0
 11
209.9496878051
 21
157.6272600748
 31
0.0
  0
LINE
  5
163
330
15A
100
AcDbEntity
  8
VERMASSUNG
100
AcDbLine
 10
82.6996878051
 20
156.6272600748
 30
0.0
 11
209.9496878051
 21
156.6272600748
 31
0.0
  0
MTEXT
  5
164
330
15A
100
AcDbEntity
  8
VERMASSUNG
100
AcDbMText
 10
142.725642491
 20
159.2053956707
 30
0.0
 40
2.0
 41
0.0
 71
     1
 72
     1
  1
127.25
  7
SLDTEXTSTYLE0
 73
     1
 44
1.0
  0
ENDBLK
  5
15C
330
15A
100
AcDbEntity
  8
0
100
AcDbBlockEnd
  0
BLOCK
  5
167
330
166
100
AcDbEntity
  8
0
100
AcDbBlockBegin
  2
_D_2
 70
     0
 10
0.0
 20
0.0
 30
0.0
  3
_D_2
  1

  0
SOLID
  5
169
330
166
100
AcDbEntity
  8
VERMASSUNG
100
AcDbTrace
 10
150.9496878051
 20
150.6272600748
 30
0.0
 11
153.9496878051
 21
150.1772600748
 31
0.0
 12
153.9496878051
 22
151.0772600748
 32
0.0
 13
153.9496878051
 23
151.0772600748
 33
0.0
  0
SOLID
  5
16A
330
166
100
AcDbEntity
  8
VERMASSUNG
100
AcDbTrace
 10
209.949687805
 20
150.6272600748
 30
0.0
 11
206.949687805
 21
151.0772600748
 31
0.0
 12
206.949687805
 22
150.1772600748
 32
0.0
 13
206.949687805
 23
150.1772600748
 33
0.0
  0
LINE
  5
16B
330
166
100
AcDbEntity
  8
VERMASSUNG
100
AcDbLine
 10
150.9496878051
 20
127.2544875286
 30
0.0
 11
150.9496878051
 21
151.6272600748
 31
0.0
  0
LINE
  5
16C
330
166
100
AcDbEntity
  8
VERMASSUNG
100
AcDbLine
 10
209.949687805
 20
131.1035718428
 30
0.0
 11
209.949687805
 21
151.6272600748
 31
0.0
  0
LINE
  5
16D
330
166
100
AcDbEntity
  8
VERMASSUNG
100
AcDbLine
 10
150.9496878051
 20
150.6272600748
 30
0.0
 11
209.949687805
 21
150.6272600748
 31
0.0
  0
MTEXT
  5
16E
330
166
100
AcDbEntity
  8
VERMASSUNG
100
AcDbMText
 10
179.0499977948
 20
153.2053956707
 30
0.0
 40
2.0
 41
0.0
 71
     1
 72
     1
  1
59
  7
SLDTEXTSTYLE0
 73
     1
 44
1.0
  0
ENDBLK
  5
168
330
166
100
AcDbEntity
  8
0
100
AcDbBlockEnd
  0
BLOCK
  5
171
330
170
100
AcDbEntity
  8
0
100
AcDbBlockBegin
  2
_D_3
 70
     0
 10
0.0
 20
0.0
 30
0.0
  3
_D_3
  1

  0
ARC
  5
173
330
170
100
AcDbEntity
  8
VERMASSUNG
100
AcDbCircle
 10
189.0864813169
 20
146.5266030202
 30
0.0
 40
4.247059938537348
100
AcDbArc
 50
153.4349488229
 51
206.5650511771
  0
ARC
  5
174
330
170
100
AcDbEntity
  8
VERMASSUNG
100
AcDbCircle
 10
190.8628942932
 20
146.5266030202
 30
0.0
 40
4.247059938537297
100
AcDbArc
 50
333.4349488229
 51
26.5650511771
  0
SOLID
  5
175
330
170
100
AcDbEntity
  8
VERMASSUNG
100
AcDbTrace
 10
169.9996878051
 20
144.6272600748
 30
0.0
 11
172.9996878051
 21
144.1772600748
 31
0.0
 12
172.9996878051
 22
145.0772600748
 32
0.0
 13
172.9996878051
 23
145.0772600748
 33
0.0
  0
SOLID
  5
176
330
170
100
AcDbEntity
  8
VERMASSUNG
100
AcDbTrace
 10
209.949687805
 20
144.6272600748
 30
0.0
 11
206.949687805
 21
145.0772600748
 31
0.0
 12
206.949687805
 22
144.1772600748
 32
0.0
 13
206.949687805
 23
144.1772600748
 33
0.0
  0
LINE
  5
177
330
170
100
AcDbEntity
  8
VERMASSUNG
100
AcDbLine
 10
169.9996878051
 20
135.0400386621
 30
0.0
 11
169.9996878051
 21
145.6272600748
 31
0.0
  0
LINE
  5
178
330
170
100
AcDbEntity
  8
VERMASSUNG
100
AcDbLine
 10
209.949687805
 20
131.1035718428
 30
0.0
 11
209.949687805
 21
145.6272600748
 31
0.0
  0
LINE
  5
179
330
170
100
AcDbEntity
  8
VERMASSUNG
100
AcDbLine
 10
169.9996878051
 20
144.6272600748
 30
0.0
 11
209.949687805
 21
144.6272600748
 31
0.0
  0
MTEXT
  5
17A
330
170
100
AcDbEntity
  8
VERMASSUNG
100
AcDbMText
 10
186.8752954261
 20
147.2053956707
 30
0.0
 40
2.0
 41
0.0
 71
     1
 72
     1
  1
39.95
  7
SLDTEXTSTYLE0
 73
     1
 44
1.0
  0
ENDBLK
  5
172
330
170
100
AcDbEntity
  8
0
100
AcDbBlockEnd
  0
BLOCK
  5
17D
330
17C
100
AcDbEntity
  8
0
100
AcDbBlockBegin
  2
_D_4
 70
     0
 10
0.0
 20
0.0
 30
0.0
  3
_D_4
  1

  0
SOLID
  5
17F
330
17C
100
AcDbEntity
  8
VERMASSUNG
100
AcDbTrace
 10
219.1024315137
 20
123.0294875286
 30
0.0
 11
218.6524315137
 21
120.0294875286
 31
0.0
 12
219.5524315137
 22
120.0294875286
 32
0.0
 13
219.5524315137
 23
120.0294875286
 33
0.0
  0
SOLID
  5
180
330
17C
100
AcDbEntity
  8
VERMASSUNG
100
AcDbTrace
 10
219.1024315137
 20
87.0294875286
 30
0.0
 11
219.5524315137
 21
90.0294875286
 31
0.0
 12
218.6524315137
 22
90.0294875286
 32
0.0
 13
218.6524315137
 23
90.0294875286
 33
0.0
  0
LINE
  5
181
330
17C
100
AcDbEntity
  8
VERMASSUNG
100
AcDbLine
 10
193.349687805
 20
123.0294875286
 30
0.0
 11
220.1024315137
 21
123.0294875286
 31
0.0
  0
LINE
  5
182
330
17C
100
AcDbEntity
  8
VERMASSUNG
100
AcDbLine
 10
193.349687805
 20
87.0294875286
 30
0.0
 11
220.1024315137
 21
87.0294875286
 31
0.0
  0
LINE
  5
183
330
17C
100
AcDbEntity
  8
VERMASSUNG
100
AcDbLine
 10
219.1024315137
 20
123.0294875286
 30
0.0
 11
219.1024315137
 21
87.0294875286
 31
0.0
  0
MTEXT
  5
184
330
17C
100
AcDbEntity
  8
VERMASSUNG
100
AcDbMText
 10
216.5242959759
 20
101.8253114215
 30
0.0
 40
2.0
 41
0.0
 71
     1
 72
     1
  1
%%c
  7
SLDTEXTSTYLE0
 11
-7.044195017643634E-15
 21
1.0
 31
0.0
 73
     1
 44
1.0
  0
MTEXT
  5
185
330
17C
100
AcDbEntity
  8
VERMASSUNG
100
AcDbMText
 10
216.5242959177
 20
105.4342836151
 30
0.0
 40
2.0
 41
0.0
 71
     1
 72
     1
  1
36
  7
SLDTEXTSTYLE0
 11
-7.044195017643634E-15
 21
1.0
 31
0.0
 73
     1
 44
1.0
  0
ENDBLK
  5
17E
330
17C
100
AcDbEntity
  8
0
100
AcDbBlockEnd
  0
BLOCK
  5
188
330
187
100
AcDbEntity
  8
0
100
AcDbBlockBegin
  2
_D_5
 70
     0
 10
0.0
 20
0.0
 30
0.0
  3
_D_5
  1

  0
SOLID
  5
18A
330
187
100
AcDbEntity
  8
VERMASSUNG
100
AcDbTrace
 10
225.1024315137
 20
137.0294875286
 30
0.0
 11
224.6524315137
 21
134.0294875286
 31
0.0
 12
225.5524315137
 22
134.0294875286
 32
0.0
 13
225.5524315137
 23
134.0294875286
 33
0.0
  0
SOLID
  5
18B
330
187
100
AcDbEntity
  8
VERMASSUNG
100
AcDbTrace
 10
225.1024315137
 20
73.0294875286
 30
0.0
 11
225.5524315137
 21
76.0294875286
 31
0.0
 12
224.6524315137
 22
76.0294875286
 32
0.0
 13
224.6524315137
 23
76.0294875286
 33
0.0
  0
LINE
  5
18C
330
187
100
AcDbEntity
  8
VERMASSUNG
100
AcDbLine
 10
209.3496878051
 20
137.0294875286
 30
0.0
 11
226.1024315137
 21
137.0294875286
 31
0.0
  0
LINE
  5
18D
330
187
100
AcDbEntity
  8
VERMASSUNG
100
AcDbLine
 10
209.3496878051
 20
73.0294875286
 30
0.0
 11
226.1024315137
 21
73.0294875286
 31
0.0
  0
LINE
  5
18E
330
187
100
AcDbEntity
  8
VERMASSUNG
100
AcDbLine
 10
225.1024315137
 20
137.0294875286
 30
0.0
 11
225.1024315137
 21
73.0294875286
 31
0.0
  0
MTEXT
  5
18F
330
187
100
AcDbEntity
  8
VERMASSUNG
100
AcDbMText
 10
222.3242962575
 20
98.824488011
 30
0.0
 40
2.0
 41
0.0
 71
     1
 72
     1
  1
ST6
  7
SLDTEXTSTYLE0
 11
-7.044195017643634E-15
 21
1.0
 31
0.0
 73
     1
 44
1.0
  0
MTEXT
  5
190
330
187
100
AcDbEntity
  8
VERMASSUNG
100
AcDbMText
 10
222.5242962088
 20
104.6244879372
 30
0.0
 40
2.0
 41
0.0
 71
     1
 72
     1
  1
%%c
  7
SLDTEXTSTYLE0
 11
-7.044195017643634E-15
 21
1.0
 31
0.0
 73
     1
 44
1.0
  0
MTEXT
  5
191
330
187
100
AcDbEntity
  8
VERMASSUNG
100
AcDbMText
 10
222.3242962575
 20
108.2344874859
 30
0.0
 40
2.0
 41
0.0
 71
     1
 72
     1
  1
64
  7
SLDTEXTSTYLE0
 11
-7.044195017643634E-15
 21
1.0
 31
0.0
 73
     1
 44
1.0
  0
ENDBLK
  5
189
330
187
100
AcDbEntity
  8
0
100
AcDbBlockEnd
  0
ENDSEC
  0
SECTION
  2
ENTITIES
  0
MTEXT
  5
78
330
1F
100
AcDbEntity
  8
KOPF_DÜNN
100
AcDbMText
 10
13.8892156294
 20
23.8442973028
 30
0.0
 40
3.0
 41
0.0
 71
     1
 72
     1
  1
114.440.064.059
  7
SLDTEXTSTYLE0
 73
     1
 44
1.0
  0
MTEXT
  5
79
330
1F
100
AcDbEntity
  8
VERMASSUNG
100
AcDbMText
 10
13.9329988022
 20
28.8834360957
 30
0.0
 40
3.0
 41
0.0
 71
     1
 72
     1
  1
Aufnahme_Master shank ST6+
  7
SLDTEXTSTYLE0
 73
     1
 44
1.0
  0
MTEXT
  5
7A
330
1F
100
AcDbEntity
  8
VERMASSUNG
100
AcDbMText
 10
98.8601118557
 20
13.8365368761
 30
0.0
 40
2.0
 41
0.0
 71
     1
 72
     1
  1
Datum: 14.05.2008
  7
SLDTEXTSTYLE0
 73
     1
 44
1.0
  0
MTEXT
  5
7B
330
1F
100
AcDbEntity
  8
VERMASSUNG
100
AcDbMText
 10
13.933048693
 20
18.0482802738
 30
0.0
 40
2.0
 41
0.0
 71
     1
 72
     1
  1
DIN 69871 A/D ISO 40
  7
SLDTEXTSTYLE0
 73
     1
 44
1.0
  0
MTEXT
  5
7C
330
1F
100
AcDbEntity
  8
VERMASSUNG
100
AcDbMText
 10
13.9808475933
 20
13.9090974274
 30
0.0
 40
2.0
 41
0.0
 71
     1
 72
     1
  1
Gewicht: 1138g
  7
SLDTEXTSTYLE0
 73
     1
 44
1.0
  0
ARC
  5
7D
330
1F
100
AcDbEntity
  8
0
  6
Continuous
 62
     7
370
    15
100
AcDbCircle
 10
186.9496878051
 20
136.0294875286
 30
0.0
 40
1.0
100
AcDbArc
 50
90.0
 51
180.0
  0
ARC
  5
7E
330
1F
100
AcDbEntity
  8
0
  6
Continuous
 62
     7
370
    15
100
AcDbCircle
 10
186.9496878051
 20
74.0294875286
 30
0.0
 40
1.0
100
AcDbArc
 50
180.0
 51
270.0
  0
LINE
  5
7F
330
1F
100
AcDbEntity
  8
0
  6
Continuous
 62
     7
370
    15
100
AcDbLine
 10
209.3496878051
 20
137.0294875286
 30
0.0
 11
186.9496878051
 21
137.0294875286
 31
0.0
  0
LINE
  5
80
330
1F
100
AcDbEntity
  8
0
  6
Continuous
 62
     7
370
    15
100
AcDbLine
 10
186.9496878051
 20
73.0294875286
 30
0.0
 11
209.3496878051
 21
73.0294875286
 31
0.0
  0
LINE
  5
81
330
1F
100
AcDbEntity
  8
0
  6
Continuous
 62
     7
370
    15
100
AcDbLine
 10
209.3496878051
 20
73.0294875286
 30
0.0
 11
209.9496878051
 21
73.6294875286
 31
0.0
  0
LINE
  5
82
330
1F
100
AcDbEntity
  8
0
  6
Continuous
 62
     7
370
    15
100
AcDbLine
 10
209.9496878051
 20
136.4294875286
 30
0.0
 11
209.3496878051
 21
137.0294875286
 31
0.0
  0
ARC
  5
83
330
1F
100
AcDbEntity
  8
0
  6
Continuous
 62
     7
370
    15
100
AcDbCircle
 10
184.9496878051
 20
79.0294875286
 30
0.0
 40
1.000000000000014
100
AcDbArc
 50
0.0
 51
90.0
  0
ARC
  5
84
330
1F
100
AcDbEntity
  8
0
  6
Continuous
 62
     7
370
    15
100
AcDbCircle
 10
184.9496878051
 20
131.0294875286
 30
0.0
 40
1.0
100
AcDbArc
 50
270.0
 51
0.0
  0
LINE
  5
85
330
1F
100
AcDbEntity
  8
0
  6
Continuous
 62
     7
370
    15
100
AcDbLine
 10
178.0256916295
 20
80.0294875286
 30
0.0
 11
184.9496878051
 21
80.0294875286
 31
0.0
  0
LINE
  5
86
330
1F
100
AcDbEntity
  8
0
  6
Continuous
 62
     7
370
    15
100
AcDbLine
 10
184.9496878051
 20
130.0294875286
 30
0.0
 11
178.0239262752
 21
130.0294875286
 31
0.0
  0
ARC
  5
87
330
1F
100
AcDbEntity
  8
0
  6
Continuous
 62
     7
370
    15
100
AcDbCircle
 10
153.5496878051
 20
82.2044875286
 30
0.0
 40
0.6000000000000085
100
AcDbArc
 50
0.0
 51
90.0
  0
ARC
  5
88
330
1F
100
AcDbEntity
  8
0
  6
Continuous
 62
     7
370
    15
100
AcDbCircle
 10
153.5496878051
 20
127.8544875286
 30
0.0
 40
0.6000000000000227
100
AcDbArc
 50
270.0
 51
0.0
  0
LINE
  5
89
330
1F
100
AcDbEntity
  8
0
  6
Continuous
 62
     7
370
    15
100
AcDbLine
 10
150.9496878051
 20
82.8044875286
 30
0.0
 11
153.5496878051
 21
82.8044875286
 31
0.0
  0
LINE
  5
8A
330
1F
100
AcDbEntity
  8
0
  6
Continuous
 62
     7
370
    15
100
AcDbLine
 10
153.5496878051
 20
127.2544875286
 30
0.0
 11
150.9496878051
 21
127.2544875286
 31
0.0
  0
LINE
  5
8B
330
1F
100
AcDbEntity
  8
0
  6
Continuous
 62
     7
370
    15
100
AcDbLine
 10
150.9496878051
 20
127.2544875286
 30
0.0
 11
83.5553809121
 21
117.4261511067
 31
0.0
  0
LINE
  5
8C
330
1F
100
AcDbEntity
  8
0
  6
Continuous
 62
     7
370
    15
100
AcDbLine
 10
83.5553809121
 20
92.6328239505
 30
0.0
 11
150.9496878051
 21
82.8044875286
 31
0.0
  0
ARC
  5
8D
330
1F
100
AcDbEntity
  8
0
  6
Continuous
 62
     7
370
    15
100
AcDbCircle
 10
83.6996878051
 20
93.6223569316
 30
0.0
 40
0.9999999999999858
100
AcDbArc
 50
180.0
 51
261.7028550302
  0
ARC
  5
8E
330
1F
100
AcDbEntity
  8
0
  6
Continuous
 62
     7
370
    15
100
AcDbCircle
 10
83.6996878051
 20
116.4366181256
 30
0.0
 40
0.9999999999999938
100
AcDbArc
 50
98.2971449698
 51
180.0
  0
SPLINE
  5
8F
330
1F
100
AcDbEntity
  8
0
  6
Continuous
 62
     7
370
    15
100
AcDbSpline
210
0.0
220
0.0
230
1.0
 70
    24
 71
     3
 72
    11
 73
     7
 74
     0
 42
0.000000001
 43
0.00000001
 40
0.0
 40
0.0
 40
0.0
 40
0.0
 40
0.1336647920874044
 40
0.482547360825975
 40
0.815635656150379
 40
0.9999999999999999
 40
0.9999999999999999
 40
0.9999999999999999
 40
0.9999999999999999
 10
195.631738612697
 20
102.0294875286171
 30
0.0
 10
195.4866169344691
 20
102.0294875286171
 30
0.0
 10
194.9627087179979
 20
102.0294875286171
 30
0.0
 10
193.9839847636282
 20
102.0294875286171
 30
0.0
 10
192.9328456149117
 20
102.0294875286171
 30
0.0
 10
192.3686540547961
 20
102.0294875286171
 30
0.0
 10
192.1676369975593
 20
102.0294875286171
 30
0.0
  0
SPLINE
  5
90
330
1F
100
AcDbEntity
  8
0
  6
Continuous
 62
     7
370
    15
100
AcDbSpline
210
0.0
220
0.0
230
1.0
 70
    24
 71
     3
 72
    11
 73
     7
 74
     0
 42
0.000000001
 43
0.00000001
 40
0.0
 40
0.0
 40
0.0
 40
0.0
 40
0.2164553779443433
 40
0.4403112895790528
 40
0.7519005688038674
 40
1.0
 40
1.0
 40
1.0
 40
1.0
 10
197.3637894202659
 20
105.0294875286171
 30
0.0
 10
197.2451422617458
 20
104.8239846218866
 30
0.0
 10
197.0037914398397
 20
104.4059527358967
 30
0.0
 10
196.5559087751873
 20
103.6301972048894
 30
0.0
 10
196.0754742766044
 20
102.7980602436349
 30
0.0
 10
195.7680250474006
 20
102.2655425579062
 30
0.0
 10
195.631738612697
 20
102.0294875286171
 30
0.0
  0
SPLINE
  5
91
330
1F
100
AcDbEntity
  8
0
  6
Continuous
 62
     7
370
    15
100
AcDbSpline
210
0.0
220
0.0
230
1.0
 70
    24
 71
     3
 72
    11
 73
     7
 74
     0
 42
0.000000001
 43
0.00000001
 40
0.0
 40
0.0
 40
0.0
 40
0.0
 40
0.2164553779443424
 40
0.4403112895790517
 40
0.7519005688038665
 40
1.0
 40
1.0
 40
1.0
 40
1.0
 10
195.6317386126971
 20
108.0294875286171
 30
0.0
 10
195.7503857712171
 20
107.8239846218866
 30
0.0
 10
195.9917365931233
 20
107.4059527358967
 30
0.0
 10
196.4396192577757
 20
106.6301972048894
 30
0.0
 10
196.9200537563586
 20
105.7980602436349
 30
0.0
 10
197.2275029855623
 20
105.2655425579062
 30
0.0
 10
197.3637894202659
 20
105.0294875286171
 30
0.0
  0
SPLINE
  5
92
330
1F
100
AcDbEntity
  8
0
  6
Continuous
 62
     7
370
    15
100
AcDbSpline
210
0.0
220
0.0
230
1.0
 70
    24
 71
     3
 72
    11
 73
     7
 74
     0
 42
0.000000001
 43
0.00000001
 40
0.0
 40
0.0
 40
0.0
 40
0.0
 40
0.1843643438496206
 40
0.517452639174024
 40
0.866335207912594
 40
1.0
 40
1.0
 40
1.0
 40
1.0
 10
192.1676369975593
 20
108.0294875286171
 30
0.0
 10
192.3686540547961
 20
108.0294875286171
 30
0.0
 10
192.9328456149117
 20
108.0294875286171
 30
0.0
 10
193.9839847636281
 20
108.0294875286171
 30
0.0
 10
194.9627087179979
 20
108.0294875286171
 30
0.0
 10
195.4866169344691
 20
108.0294875286171
 30
0.0
 10
195.631738612697
 20
108.0294875286171
 30
0.0
  0
SPLINE
  5
93
330
1F
100
AcDbEntity
  8
0
  6
Continuous
 62
     7
370
    15
100
AcDbSpline
210
0.0
220
0.0
230
1.0
 70
    24
 71
     3
 72
    11
 73
     7
 74
     0
 42
0.000000001
 43
0.00000001
 40
0.0
 40
0.0
 40
0.0
 40
0.0
 40
0.2164553779443429
 40
0.4403112895790531
 40
0.751900568803868
 40
1.0
 40
1.0
 40
1.0
 40
1.0
 10
190.4355861899904
 20
105.0294875286171
 30
0.0
 10
190.5542333485105
 20
105.2349904353476
 30
0.0
 10
190.7955841704167
 20
105.6530223213376
 30
0.0
 10
191.243466835069
 20
106.4287778523448
 30
0.0
 10
191.723901333652
 20
107.2609148135993
 30
0.0
 10
192.0313505628557
 20
107.793432499328
 30
0.0
 10
192.1676369975593
 20
108.0294875286171
 30
0.0
  0
SPLINE
  5
94
330
1F
100
AcDbEntity
  8
0
  6
Continuous
 62
     7
370
    15
100
AcDbSpline
210
0.0
220
0.0
230
1.0
 70
    24
 71
     3
 72
    11
 73
     7
 74
     0
 42
0.000000001
 43
0.00000001
 40
0.0
 40
0.0
 40
0.0
 40
0.0
 40
0.2164553779443428
 40
0.4403112895790515
 40
0.7519005688038668
 40
1.0
 40
1.0
 40
1.0
 40
1.0
 10
192.1676369975593
 20
102.0294875286171
 30
0.0
 10
192.0489898390392
 20
102.2349904353476
 30
0.0
 10
191.807639017133
 20
102.6530223213376
 30
0.0
 10
191.3597563524806
 20
103.4287778523449
 30
0.0
 10
190.8793218538977
 20
104.2609148135993
 30
0.0
 10
190.571872624694
 20
104.793432499328
 30
0.0
 10
190.4355861899904
 20
105.0294875286171
 30
0.0
  0
CIRCLE
  5
95
330
1F
100
AcDbEntity
  8
0
  6
Continuous
 62
     7
370
    15
100
AcDbCircle
 10
193.8996878051
 20
105.0294875286
 30
0.0
 40
3.5
  0
CIRCLE
  5
96
330
1F
100
AcDbEntity
  8
0
  6
Continuous
 62
     7
370
    15
100
AcDbCircle
 10
193.8996878051
 20
105.0294875286
 30
0.0
 40
5.5
  0
CIRCLE
  5
97
330
1F
100
AcDbEntity
  8
0
  6
Continuous
 62
     7
370
    15
100
AcDbCircle
 10
193.8996878051
 20
105.0294875286
 30
0.0
 40
6.0
  0
ARC
  5
98
330
1F
100
AcDbEntity
  8
0
  6
Continuous
 62
     7
370
    15
100
AcDbCircle
 10
193.8996878051
 20
105.0294875286
 30
0.0
 40
3.0
100
AcDbArc
 50
210.0
 51
270.0
  0
ARC
  5
99
330
1F
100
AcDbEntity
  8
0
  6
Continuous
 62
     7
370
    15
100
AcDbCircle
 10
193.8996878051
 20
105.0294875286
 30
0.0
 40
3.0
100
AcDbArc
 50
30.0
 51
90.0
  0
ARC
  5
9A
330
1F
100
AcDbEntity
  8
0
  6
Continuous
 62
     7
370
    15
100
AcDbCircle
 10
193.8996878051
 20
105.0294875286
 30
0.0
 40
3.0
100
AcDbArc
 50
330.0
 51
30.0
  0
ARC
  5
9B
330
1F
100
AcDbEntity
  8
0
  6
Continuous
 62
     7
370
    15
100
AcDbCircle
 10
193.8996878051
 20
105.0294875286
 30
0.0
 40
3.0
100
AcDbArc
 50
270.0
 51
330.0
  0
ARC
  5
9C
330
1F
100
AcDbEntity
  8
0
  6
Continuous
 62
     7
370
    15
100
AcDbCircle
 10
193.8996878051
 20
105.0294875286
 30
0.0
 40
3.0
100
AcDbArc
 50
90.0
 51
150.0
  0
ARC
  5
9D
330
1F
100
AcDbEntity
  8
0
  6
Continuous
 62
     7
370
    15
100
AcDbCircle
 10
193.8996878051
 20
105.0294875286
 30
0.0
 40
3.0
100
AcDbArc
 50
150.0
 51
210.0
  0
SPLINE
  5
9E
330
1F
100
AcDbEntity
  8
0
  6
Continuous
 62
     7
370
    15
100
AcDbSpline
210
0.0
220
0.0
230
1.0
 70
     8
 71
     3
 72
    14
 73
    10
 74
     0
 42
0.000000001
 43
0.00000001
 40
0.0
 40
0.0
 40
0.0
 40
0.0
 40
0.25
 40
0.25
 40
0.5
 40
0.5
 40
0.75
 40
0.75
 40
1.0
 40
1.0
 40
1.0
 40
1.0
 10
186.9496878051282
 20
103.165356849975
 30
0.0
 10
186.8503097216017
 20
103.4677524648993
 30
0.0
 10
186.7877540984025
 20
103.7761713817452
 30
0.0
 10
186.7046025725443
 20
104.399679357195
 30
0.0
 10
186.6851542765538
 20
104.7166751992698
 30
0.0
 10
186.6854019141992
 20
105.3481816738204
 30
0.0
 10
186.7048485330692
 20
105.6615169330373
 30
0.0
 10
186.787779392408
 20
106.2826151968852
 30
0.0
 10
186.8500842263349
 20
106.5905364372316
 30
0.0
 10
186.9496878051364
 20
106.8936182072842
 30
0.0
  0
LINE
  5
9F
330
1F
100
AcDbEntity
  8
0
  6
Continuous
 62
     7
370
    15
100
AcDbLine
 10
185.9496878051
 20
105.0294875286
 30
0.0
 11
185.9496878051
 21
74.0294875286
 31
0.0
  0
LINE
  5
A0
330
1F
100
AcDbEntity
  8
0
  6
Continuous
 62
     7
370
    15
100
AcDbLine
 10
185.9496878051
 20
136.0294875286
 30
0.0
 11
185.9496878051
 21
105.0294875286
 31
0.0
  0
SPLINE
  5
A1
330
1F
100
AcDbEntity
  8
0
  6
Continuous
 62
     7
370
    15
100
AcDbSpline
210
0.0
220
0.0
230
1.0
 70
     8
 71
     3
 72
    72
 73
    68
 74
     0
 42
0.000000001
 43
0.00000001
 40
0.0
 40
0.0
 40
0.0
 40
0.0
 40
0.0312500000000004
 40
0.0312500000000004
 40
0.0625000000000009
 40
0.0625000000000009
 40
0.0937500000000013
 40
0.0937500000000013
 40
0.1250000000000018
 40
0.1250000000000018
 40
0.1562500000000023
 40
0.1562500000000023
 40
0.1875000000000027
 40
0.1875000000000027
 40
0.2187500000000032
 40
0.2187500000000032
 40
0.2500000000000037
 40
0.2500000000000037
 40
0.2812500000000041
 40
0.2812500000000041
 40
0.2968750000000043
 40
0.2968750000000043
 40
0.3125000000000046
 40
0.3125000000000046
 40
0.3437500000000046
 40
0.3437500000000046
 40
0.3750000000000045
 40
0.3750000000000045
 40
0.4062500000000045
 40
0.4062500000000045
 40
0.4375000000000045
 40
0.4375000000000045
 40
0.4687500000000045
 40
0.4687500000000045
 40
0.4843750000000044
 40
0.4843750000000044
 40
0.5000000000000043
 40
0.5000000000000043
 40
0.5312500000000043
 40
0.5312500000000043
 40
0.5625000000000042
 40
0.5625000000000042
 40
0.5937500000000041
 40
0.5937500000000041
 40
0.625000000000004
 40
0.625000000000004
 40
0.6562500000000039
 40
0.6562500000000039
 40
0.6875000000000038
 40
0.6875000000000038
 40
0.750000000000003
 40
0.750000000000003
 40
0.8125000000000023
 40
0.8125000000000023
 40
0.8750000000000017
 40
0.8750000000000017
 40
0.8906250000000014
 40
0.8906250000000014
 40
0.9062500000000012
 40
0.9062500000000012
 40
0.9375000000000008
 40
0.9375000000000008
 40
0.9531250000000006
 40
0.9531250000000006
 40
0.9687500000000003
 40
0.9687500000000003
 40
1.0
 40
1.0
 40
1.0
 40
1.0
 10
186.9496878051361
 20
106.8936182072833
 30
0.0
 10
187.0788436634452
 20
107.2866240271581
 30
0.0
 10
187.2504499747117
 20
107.6708422821355
 30
0.0
 10
187.6586329972584
 20
108.3878300058813
 30
0.0
 10
187.8962035361049
 20
108.7249147351647
 30
0.0
 10
188.4365994579465
 20
109.3577156344007
 30
0.0
 10
188.7341018460246
 20
109.6470432273589
 30
0.0
 10
189.3784751729355
 20
110.172350244065
 30
0.0
 10
189.7201414059108
 20
110.4039865183835
 30
0.0
 10
190.4342369387176
 20
110.8070419832438
 30
0.0
 10
190.807546274198
 20
110.9791111583804
 30
0.0
 10
191.586967714439
 20
111.2643395304366
 30
0.0
 10
191.9873903132204
 20
111.3750103092943
 30
0.0
 10
192.7952930501199
 20
111.5317219705711
 30
0.0
 10
193.2048925212329
 20
111.5785405954248
 30
0.0
 10
194.0356572919506
 20
111.607773935804
 30
0.0
 10
194.4516556254381
 20
111.5895708934065
 30
0.0
 10
195.2683416015738
 20
111.490015370202
 30
0.0
 10
195.6716259164507
 20
111.4087892924723
 30
0.0
 10
196.2687252328793
 20
111.2380623805893
 30
0.0
 10
196.467149711557
 20
111.1726384784345
 30
0.0
 10
196.8544886169024
 20
111.0273070324579
 30
0.0
 10
197.044095526199
 20
110.947264489452
 30
0.0
 10
197.6008782282314
 20
110.6851880256689
 30
0.0
 10
197.9561156235912
 20
110.4813924855055
 30
0.0
 10
198.6332140189133
 20
110.012368202796
 30
0.0
 10
198.9552346027912
 20
109.7457909024163
 30
0.0
 10
199.537327975504
 20
109.1692393755639
 30
0.0
 10
199.8011470888339
 20
108.8570639639963
 30
0.0
 10
200.2707487893869
 20
108.1812870753596
 30
0.0
 10
200.4766191176172
 20
107.8151070485486
 30
0.0
 10
200.8059894686026
 20
107.0623418671767
 30
0.0
 10
200.9326937526638
 20
106.6720264569572
 30
0.0
 10
201.0621997826429
 20
106.0642350429696
 30
0.0
 10
201.0952462846375
 20
105.8566852308919
 30
0.0
 10
201.1388070447798
 20
105.4436792343371
 30
0.0
 10
201.1496222570713
 20
105.2374064283429
 30
0.0
 10
201.1498180120615
 20
104.6192653111277
 30
0.0
 10
201.1068172110043
 20
104.2061633436781
 30
0.0
 10
200.9337489599016
 20
103.3899029142647
 30
0.0
 10
200.8063877106333
 20
102.9973834957843
 30
0.0
 10
200.4754464161423
 20
102.2413480758045
 30
0.0
 10
200.2694288277334
 20
101.875413309474
 30
0.0
 10
199.7985753046631
 20
101.1985884924945
 30
0.0
 10
199.5329180631815
 20
100.8844106282026
 30
0.0
 10
198.9433032476011
 20
100.3023504429227
 30
0.0
 10
198.6225627883135
 20
100.038372042104
 30
0.0
 10
197.9459785727981
 20
99.57144414866004
 30
0.0
 10
197.5876049899249
 20
99.36629606813332
 30
0.0
 10
196.4568600293741
 20
98.83788310468394
 30
0.0
 10
195.662626469948
 20
98.61434988408594
 30
0.0
 10
194.0065534961678
 20
98.41790259520378
 30
0.0
 10
193.1836553135291
 20
98.44916873652443
 30
0.0
 10
191.5481687444127
 20
98.77200136239502
 30
0.0
 10
190.7758133121349
 20
99.0559849300998
 30
0.0
 10
189.8753445555039
 20
99.56823611440456
 30
0.0
 10
189.6986426629249
 20
99.67883676285487
 30
0.0
 10
189.3587999838579
 20
99.91223109661577
 30
0.0
 10
189.1947456114035
 20
100.0355156769601
 30
0.0
 10
188.7201848340947
 20
100.4252333006378
 30
0.0
 10
188.427110212729
 20
100.7113346132081
 30
0.0
 10
188.0252378812505
 20
101.1835012637265
 30
0.0
 10
187.8972340443316
 20
101.3488157491318
 30
0.0
 10
187.6601074090717
 20
101.6871026350818
 30
0.0
 10
187.5502636767271
 20
101.860810239589
 30
0.0
 10
187.2469518608078
 20
102.3957123950169
 30
0.0
 10
187.0794364415788
 20
102.7705472771519
 30
0.0
 10
186.9496878051282
 20
103.165356849975
 30
0.0
  0
LINE
  5
A2
330
1F
100
AcDbEntity
  8
0
  6
Continuous
 62
     7
370
    15
100
AcDbLine
 10
209.3496878051
 20
105.0294875286
 30
0.0
 11
209.3496878051
 21
73.0294875286
 31
0.0
  0
LINE
  5
A3
330
1F
100
AcDbEntity
  8
0
  6
Continuous
 62
     7
370
    15
100
AcDbLine
 10
209.3496878051
 20
137.0294875286
 30
0.0
 11
209.3496878051
 21
105.0294875286
 31
0.0
  0
LINE
  5
A4
330
1F
100
AcDbEntity
  8
0
  6
Continuous
 62
     7
370
    15
100
AcDbLine
 10
209.9496878051
 20
105.0294875286
 30
0.0
 11
209.9496878051
 21
73.6294875286
 31
0.0
  0
LINE
  5
A5
330
1F
100
AcDbEntity
  8
0
  6
Continuous
 62
     7
370
    15
100
AcDbLine
 10
209.9496878051
 20
136.4294875286
 30
0.0
 11
209.9496878051
 21
105.0294875286
 31
0.0
  0
SPLINE
  5
A6
330
1F
100
AcDbEntity
  8
0
  6
Continuous
 62
     7
370
    15
100
AcDbSpline
210
0.0
220
0.0
230
1.0
 70
     8
 71
     3
 72
     8
 73
     4
 74
     0
 42
0.000000001
 43
0.00000001
 40
0.0
 40
0.0
 40
0.0
 40
0.0
 40
1.0
 40
1.0
 40
1.0
 40
1.0
 10
160.1396878051281
 20
77.21266106911567
 30
0.0
 10
159.7555530565438
 20
76.52001964717148
 30
0.0
 10
159.3705667800509
 20
75.82783347284777
 30
0.0
 10
158.9848982014245
 20
75.13603918200359
 30
0.0
  0
SPLINE
  5
A7
330
1F
100
AcDbEntity
  8
0
  6
Continuous
 62
     7
370
    15
100
AcDbSpline
210
0.0
220
0.0
230
1.0
 70
     8
 71
     3
 72
     8
 73
     4
 74
     0
 42
0.000000001
 43
0.00000001
 40
0.0
 40
0.0
 40
0.0
 40
0.0
 40
0.0011901715795577
 40
0.0011901715795577
 40
0.0011901715795577
 40
0.0011901715795577
 10
158.5278511630714
 20
74.58139517998046
 30
0.0
 10
158.6816973525674
 20
74.76596041766403
 30
0.0
 10
158.83409262024
 20
74.95083577819265
 30
0.0
 10
158.9848982014245
 20
75.13603918200359
 30
0.0
  0
LINE
  5
A8
330
1F
100
AcDbEntity
  8
0
  6
Continuous
 62
     7
370
    15
100
AcDbLine
 10
158.5278511631
 20
74.58139518
 30
0.0
 11
158.5278511631
 21
123.3794875286
 31
0.0
  0
SPLINE
  5
A9
330
1F
100
AcDbEntity
  8
0
  6
Continuous
 62
     7
370
    15
100
AcDbSpline
210
0.0
220
0.0
230
1.0
 70
    24
 71
     3
 72
     8
 73
     4
 74
     0
 42
0.000000001
 43
0.00000001
 40
0.0
 40
0.0
 40
0.0
 40
0.0
 40
1.0
 40
1.0
 40
1.0
 40
1.0
 10
160.1396878051281
 20
123.3794875286171
 30
0.0
 10
159.6149553167663
 20
123.3794875286171
 30
0.0
 10
159.0762798325475
 20
123.3794875286171
 30
0.0
 10
158.5278511630715
 20
123.3794875286171
 30
0.0
  0
LINE
  5
AA
330
1F
100
AcDbEntity
  8
0
  6
Continuous
 62
     7
370
    15
100
AcDbLine
 10
160.1396878051
 20
77.2126610691
 30
0.0
 11
160.1396878051
 21
123.3794875286
 31
0.0
  0
LINE
  5
AB
330
1F
100
AcDbEntity
  8
0
  6
Continuous
 62
     7
370
    15
100
AcDbLine
 10
154.7496878051
 20
74.58139518
 30
0.0
 11
158.5278511631
 21
74.58139518
 31
0.0
  0
LINE
  5
AC
330
1F
100
AcDbEntity
  8
0
  6
Continuous
 62
     7
370
    15
100
AcDbLine
 10
158.5278511631
 20
123.3794875286
 30
0.0
 11
154.7496878051
 21
123.3794875286
 31
0.0
  0
SPLINE
  5
AD
330
1F
100
AcDbEntity
  8
0
  6
Continuous
 62
     7
370
    15
100
AcDbSpline
210
0.0
220
0.0
230
1.0
 70
     8
 71
     3
 72
    12
 73
     8
 74
     0
 42
0.000000001
 43
0.00000001
 40
0.0
 40
0.0
 40
0.0
 40
0.0
 40
0.2500000000000008
 40
0.2500000000000008
 40
0.5000000000000017
 40
0.5000000000000017
 40
1.0
 40
1.0
 40
1.0
 40
1.0
 10
169.3996878051282
 20
74.58139517998046
 30
0.0
 10
169.4952297152642
 20
74.58139517998046
 30
0.0
 10
169.5873746571269
 20
74.59764884917665
 30
0.0
 10
169.7437009337368
 20
74.65125727009014
 30
0.0
 10
169.8073690763568
 20
74.68766839537182
 30
0.0
 10
169.9562369217872
 20
74.80979203505831
 30
0.0
 10
169.9996878051282
 20
74.90494471049534
 30
0.0
 10
169.9996878051282
 20
75.00057116611502
 30
0.0
  0
SPLINE
  5
AE
330
1F
100
AcDbEntity
  8
0
  6
Continuous
 62
     7
370
    15
100
AcDbSpline
210
0.0
220
0.0
230
1.0
 70
    24
 71
     3
 72
    12
 73
     8
 74
     0
 42
0.000000001
 43
0.00000001
 40
0.0
 40
0.0
 40
0.0
 40
0.0
 40
0.4999999999999931
 40
0.4999999999999931
 40
0.7499999999999966
 40
0.7499999999999966
 40
1.0
 40
1.0
 40
1.0
 40
1.0
 10
169.9996878051282
 20
123.3794875286171
 30
0.0
 10
169.9996878051282
 20
123.3794875286171
 30
0.0
 10
169.9500078101731
 20
123.3794875286171
 30
0.0
 10
169.7940892531556
 20
123.3794875286171
 30
0.0
 10
169.7282081885795
 20
123.3794875286171
 30
0.0
 10
169.5755625330907
 20
123.3794875286171
 30
0.0
 10
169.4883126252298
 20
123.3794875286171
 30
0.0
 10
169.3996878051281
 20
123.3794875286171
 30
0.0
  0
LINE
  5
AF
330
1F
100
AcDbEntity
  8
0
  6
Continuous
 62
     7
370
    15
100
AcDbLine
 10
169.9996878051
 20
75.0005711661
 30
0.0
 11
169.9996878051
 21
123.3794875286
 31
0.0
  0
LINE
  5
B0
330
1F
100
AcDbEntity
  8
0
  6
Continuous
 62
     7
370
    15
100
AcDbLine
 10
165.5715244472
 20
74.58139518
 30
0.0
 11
169.3996878051
 21
74.58139518
 31
0.0
  0
LINE
  5
B1
330
1F
100
AcDbEntity
  8
0
  6
Continuous
 62
     7
370
    15
100
AcDbLine
 10
165.5715244472
 20
74.58139518
 30
0.0
 11
165.5715244472
 21
123.3794875286
 31
0.0
  0
LINE
  5
B2
330
1F
100
AcDbEntity
  8
0
  6
Continuous
 62
     7
370
    15
100
AcDbLine
 10
169.3996878051
 20
123.3794875286
 30
0.0
 11
165.5715244472
 21
123.3794875286
 31
0.0
  0
SPLINE
  5
B3
330
1F
100
AcDbEntity
  8
0
  6
Continuous
 62
     7
370
    15
100
AcDbSpline
210
0.0
220
0.0
230
1.0
 70
     8
 71
     3
 72
    10
 73
     6
 74
     0
 42
0.000000001
 43
0.00000001
 40
0.0
 40
0.0
 40
0.0
 40
0.0
 40
0.5
 40
0.5
 40
1.0
 40
1.0
 40
1.0
 40
1.0
 10
154.3658323464754
 20
74.67775767914891
 30
0.0
 10
154.4146023194567
 20
74.6495296719409
 30
0.0
 10
154.4720544427591
 20
74.62543506769931
 30
0.0
 10
154.6026513457478
 20
74.59117159460675
 30
0.0
 10
154.67514102559
 20
74.58139517998045
 30
0.0
 10
154.7496878051282
 20
74.58139517998045
 30
0.0
  0
SPLINE
  5
B4
330
1F
100
AcDbEntity
  8
0
  6
Continuous
 62
     7
370
    15
100
AcDbSpline
210
0.0
220
0.0
230
1.0
 70
     8
 71
     3
 72
    10
 73
     6
 74
     0
 42
0.000000001
 43
0.00000001
 40
0.0
 40
0.0
 40
0.0
 40
0.0
 40
0.5
 40
0.5
 40
1.0
 40
1.0
 40
1.0
 40
1.0
 10
154.3658323464754
 20
74.67775767914891
 30
0.0
 10
154.3077096863992
 20
74.74506283901073
 30
0.0
 10
154.2553065203958
 20
74.82514822604436
 30
0.0
 10
154.1764034988494
 20
75.00916766773314
 30
0.0
 10
154.1496878051282
 20
75.11437902515358
 30
0.0
 10
154.1496878051282
 20
75.22311237161422
 30
0.0
  0
LINE
  5
B5
330
1F
100
AcDbEntity
  8
0
  6
Continuous
 62
     7
370
    15
100
AcDbLine
 10
154.1496878051
 20
75.2231123716
 30
0.0
 11
154.1496878051
 21
123.3794875286
 31
0.0
  0
SPLINE
  5
B6
330
1F
100
AcDbEntity
  8
0
  6
Continuous
 62
     7
370
    15
100
AcDbSpline
210
0.0
220
0.0
230
1.0
 70
    24
 71
     3
 72
    12
 73
     8
 74
     0
 42
0.000000001
 43
0.00000001
 40
0.0
 40
0.0
 40
0.0
 40
0.0
 40
0.2499999999999998
 40
0.2499999999999998
 40
0.4999999999999997
 40
0.4999999999999997
 40
1.0
 40
1.0
 40
1.0
 40
1.0
 10
154.7496878051282
 20
123.3794875286171
 30
0.0
 10
154.6612724278177
 20
123.3794875286171
 30
0.0
 10
154.5740019906471
 20
123.3794875286171
 30
0.0
 10
154.4215382658752
 20
123.3794875286171
 30
0.0
 10
154.3558996536528
 20
123.3794875286171
 30
0.0
 10
154.1992412523689
 20
123.3794875286171
 30
0.0
 10
154.1496878051282
 20
123.3794875286171
 30
0.0
 10
154.1496878051282
 20
123.3794875286171
 30
0.0
  0
SPLINE
  5
B7
330
1F
100
AcDbEntity
  8
0
  6
Continuous
 62
     7
370
    15
100
AcDbSpline
210
0.0
220
0.0
230
1.0
 70
     8
 71
     3
 72
     8
 73
     4
 74
     0
 42
0.000000001
 43
0.00000001
 40
0.0
 40
0.0
 40
0.0
 40
0.0
 40
0.0011901715795577
 40
0.0011901715795577
 40
0.0011901715795577
 40
0.0011901715795577
 10
165.1144774088318
 20
75.1360391820036
 30
0.0
 10
165.2652829900163
 20
74.95083577819265
 30
0.0
 10
165.417678257689
 20
74.76596041766403
 30
0.0
 10
165.5715244471849
 20
74.58139517998046
 30
0.0
  0
SPLINE
  5
B8
330
1F
100
AcDbEntity
  8
0
  6
Continuous
 62
     7
370
    15
100
AcDbSpline
210
0.0
220
0.0
230
1.0
 70
     8
 71
     3
 72
     8
 73
     4
 74
     0
 42
0.000000001
 43
0.00000001
 40
0.0
 40
0.0
 40
0.0
 40
0.0
 40
1.0
 40
1.0
 40
1.0
 40
1.0
 10
165.1144774088318
 20
75.1360391820036
 30
0.0
 10
164.7288088302055
 20
75.82783347284777
 30
0.0
 10
164.3438225537125
 20
76.52001964717148
 30
0.0
 10
163.9596878051282
 20
77.21266106911565
 30
0.0
  0
LINE
  5
B9
330
1F
100
AcDbEntity
  8
0
  6
Continuous
 62
     7
370
    15
100
AcDbLine
 10
163.9596878051
 20
77.2126610691
 30
0.0
 11
163.9596878051
 21
123.3794875286
 31
0.0
  0
SPLINE
  5
BA
330
1F
100
AcDbEntity
  8
0
  6
Continuous
 62
     7
370
    15
100
AcDbSpline
210
0.0
220
0.0
230
1.0
 70
    24
 71
     3
 72
     8
 73
     4
 74
     0
 42
0.000000001
 43
0.00000001
 40
0.0
 40
0.0
 40
0.0
 40
0.0
 40
1.0
 40
1.0
 40
1.0
 40
1.0
 10
165.5715244471849
 20
123.3794875286171
 30
0.0
 10
165.0230957777089
 20
123.3794875286171
 30
0.0
 10
164.48442029349
 20
123.3794875286171
 30
0.0
 10
163.9596878051282
 20
123.3794875286171
 30
0.0
  0
SPLINE
  5
BB
330
1F
100
AcDbEntity
  8
0
  6
Continuous
 62
     7
370
    15
100
AcDbSpline
210
0.0
220
0.0
230
1.0
 70
     8
 71
     3
 72
    12
 73
     8
 74
     0
 42
0.000000001
 43
0.00000001
 40
0.0
 40
0.0
 40
0.0
 40
0.0
 40
0.2500000000000015
 40
0.2500000000000015
 40
0.500000000000003
 40
0.500000000000003
 40
1.0
 40
1.0
 40
1.0
 40
1.0
 10
160.9396878051282
 20
78.21162967233039
 30
0.0
 10
160.8332859547707
 20
78.2116296723304
 30
0.0
 10
160.7259705433742
 20
78.1888589083119
 30
0.0
 10
160.5304989523469
 20
78.1026159616598
 30
0.0
 10
160.4403168364094
 20
78.03793964118925
 30
0.0
 10
160.2220953496886
 20
77.80501031713246
 30
0.0
 10
160.1396878051278
 20
77.59042507924144
 30
0.0
 10
160.1396878051281
 20
77.37740804080872
 30
0.0
  0
SPLINE
  5
BC
330
1F
100
AcDbEntity
  8
0
  6
Continuous
 62
     7
370
    15
100
AcDbSpline
210
0.0
220
0.0
230
1.0
 70
    24
 71
     3
 72
    14
 73
    10
 74
     0
 42
0.000000001
 43
0.00000001
 40
0.0
 40
0.0
 40
0.0
 40
0.0
 40
0.1250000000000018
 40
0.1250000000000018
 40
0.2500000000000037
 40
0.2500000000000037
 40
0.5000000000000004
 40
0.5000000000000004
 40
1.0
 40
1.0
 40
1.0
 40
1.0
 10
160.9396878051282
 20
123.3794875286171
 30
0.0
 10
160.8790704817106
 20
123.3794875286171
 30
0.0
 10
160.8169453335755
 20
123.3794875286171
 30
0.0
 10
160.7007276705541
 20
123.3794875286171
 30
0.0
 10
160.6461110308617
 20
123.3794875286171
 30
0.0
 10
160.4914346923536
 20
123.3794875286171
 30
0.0
 10
160.4053179435695
 20
123.3794875286171
 30
0.0
 10
160.2040103630289
 20
123.3794875286171
 30
0.0
 10
160.1396878051281
 20
123.3794875286171
 30
0.0
 10
160.1396878051281
 20
123.3794875286171
 30
0.0
  0
SPLINE
  5
BD
330
1F
100
AcDbEntity
  8
0
  6
Continuous
 62
     7
370
    15
100
AcDbSpline
210
0.0
220
0.0
230
1.0
 70
     8
 71
     3
 72
    12
 73
     8
 74
     0
 42
0.000000001
 43
0.00000001
 40
0.0
 40
0.0
 40
0.0
 40
0.0
 40
0.5
 40
0.5
 40
0.75
 40
0.75
 40
1.0
 40
1.0
 40
1.0
 40
1.0
 10
163.9596878051282
 20
77.37740804081007
 30
0.0
 10
163.9596878051282
 20
77.59023059974297
 30
0.0
 10
163.8777624473084
 20
77.80448710638092
 30
0.0
 10
163.6588406438401
 20
78.03817673483081
 30
0.0
 10
163.568793352349
 20
78.10266155967479
 30
0.0
 10
163.3733798843292
 20
78.18886117083036
 30
0.0
 10
163.2660969173454
 20
78.21162967233039
 30
0.0
 10
163.1596878051282
 20
78.21162967233039
 30
0.0
  0
SPLINE
  5
BE
330
1F
100
AcDbEntity
  8
0
  6
Continuous
 62
     7
370
    15
100
AcDbSpline
210
0.0
220
0.0
230
1.0
 70
    24
 71
     3
 72
    14
 73
    10
 74
     0
 42
0.000000001
 43
0.00000001
 40
0.0
 40
0.0
 40
0.0
 40
0.0
 40
0.25
 40
0.25
 40
0.5
 40
0.5
 40
0.75
 40
0.75
 40
1.0
 40
1.0
 40
1.0
 40
1.0
 10
163.9596878051282
 20
123.3794875286171
 30
0.0
 10
163.9596878051281
 20
123.3794875286171
 30
0.0
 10
163.9436062036684
 20
123.3794875286171
 30
0.0
 10
163.8781146904015
 20
123.3794875286171
 30
0.0
 10
163.8288067172741
 20
123.3794875286171
 30
0.0
 10
163.6942371955772
 20
123.3794875286171
 30
0.0
 10
163.6087141194919
 20
123.3794875286171
 30
0.0
 10
163.4017186239369
 20
123.3794875286171
 30
0.0
 10
163.2810249899933
 20
123.3794875286171
 30
0.0
 10
163.1596878051282
 20
123.3794875286171
 30
0.0
  0
LINE
  5
BF
330
1F
100
AcDbEntity
  8
0
  6
Continuous
 62
     7
370
    15
100
AcDbLine
 10
163.1596878051
 20
78.2116296723
 30
0.0
 11
160.9396878051
 21
78.2116296723
 31
0.0
  0
LINE
  5
C0
330
1F
100
AcDbEntity
  8
0
  6
Continuous
 62
     7
370
    15
100
AcDbLine
 10
163.1596878051
 20
123.3794875286
 30
0.0
 11
160.9396878051
 21
123.3794875286
 31
0.0
  0
SPLINE
  5
C1
330
1F
100
AcDbEntity
  8
0
  6
Continuous
 62
     7
370
    15
100
AcDbSpline
210
0.0
220
0.0
230
1.0
 70
    24
 71
     3
 72
    18
 73
    14
 74
     0
 42
0.000000001
 43
0.00000001
 40
0.0
 40
0.0
 40
0.0
 40
0.0
 40
0.0312500000000002
 40
0.0312500000000002
 40
0.0625000000000005
 40
0.0625000000000005
 40
0.1250000000000013
 40
0.1250000000000013
 40
0.2500000000000016
 40
0.2500000000000016
 40
0.500000000000001
 40
0.500000000000001
 40
1.0
 40
1.0
 40
1.0
 40
1.0
 10
170.9996878051282
 20
129.8294875286171
 30
0.0
 10
170.9628336993697
 20
129.8294875286171
 30
0.0
 10
170.9274312114096
 20
129.8294875286171
 30
0.0
 10
170.8694138177816
 20
129.8294875286171
 30
0.0
 10
170.8453398139932
 20
129.8294875286171
 30
0.0
 10
170.7803206888444
 20
129.8294875286171
 30
0.0
 10
170.7458961794323
 20
129.8294875286171
 30
0.0
 10
170.6533178824459
 20
129.8294875286171
 30
0.0
 10
170.6051082020651
 20
129.8294875286171
 30
0.0
 10
170.4727333782984
 20
129.8294875286171
 30
0.0
 10
170.4038357489679
 20
129.8294875286171
 30
0.0
 10
170.2205260721309
 20
129.8294875286171
 30
0.0
 10
170.1317672325096
 20
129.8294875286171
 30
0.0
 10
170.0726481955826
 20
129.8294875286171
 30
0.0
  0
SPLINE
  5
C2
330
1F
100
AcDbEntity
  8
0
  6
Continuous
 62
     7
370
    15
100
AcDbSpline
210
0.0
220
0.0
230
1.0
 70
     8
 71
     3
 72
    10
 73
     6
 74
     0
 42
0.000000001
 43
0.00000001
 40
0.0
 40
0.0
 40
0.0
 40
0.0
 40
0.5
 40
0.5
 40
1.0
 40
1.0
 40
1.0
 40
1.0
 10
170.9996878051282
 20
81.33988010257478
 30
0.0
 10
170.8222470532149
 20
81.34737033864
 30
0.0
 10
170.6456278897023
 20
81.30158191408754
 30
0.0
 10
170.3421766653879
 20
81.12011163431369
 30
0.0
 10
170.2161536826673
 20
80.9846218814801
 30
0.0
 10
170.1316896257589
 20
80.82948752861732
 30
0.0
  0
SPLINE
  5
C3
330
1F
100
AcDbEntity
  8
0
  6
Continuous
 62
     7
370
    15
100
AcDbSpline
210
0.0
220
0.0
230
1.0
 70
     8
 71
     3
 72
     8
 73
     4
 74
     0
 42
0.000000001
 43
0.00000001
 40
0.0
 40
0.0
 40
0.0
 40
0.0
 40
1.0
 40
1.0
 40
1.0
 40
1.0
 10
169.9996878051282
 20
123.4489744921566
 30
0.0
 10
169.9996878051282
 20
123.4258356525697
 30
0.0
 10
170.0000906365468
 20
123.4026733629574
 30
0.0
 10
170.0008979259371
 20
123.3794875286172
 30
0.0
  0
SPLINE
  5
C4
330
1F
100
AcDbEntity
  8
0
  6
Continuous
 62
     7
370
    15
100
AcDbSpline
210
0.0
220
0.0
230
1.0
 70
     8
 71
     3
 72
    14
 73
    10
 74
     0
 42
0.000000001
 43
0.00000001
 40
0.0
 40
0.0
 40
0.0
 40
0.0
 40
0.0632946075515505
 40
0.2483034310787082
 40
0.4246496472194877
 40
0.6058174326334265
 40
0.7878172321983874
 40
0.9747087674420185
 40
0.9999999999999999
 40
0.9999999999999999
 40
0.9999999999999999
 40
0.9999999999999999
 10
178.0256916295346
 20
80.03720001986518
 30
0.0
 10
178.0321357262042
 20
80.03512919728445
 30
0.0
 10
178.0574157836243
 20
80.02700540330197
 30
0.0
 10
177.8799838820234
 20
80.08413215447474
 30
0.0
 10
177.5006825725814
 20
80.2021438068815
 30
0.0
 10
176.91897655138
 20
80.37320182832404
 30
0.0
 10
176.1495392247403
 20
80.57959398184347
 30
0.0
 10
175.481977552009
 20
80.73735660328474
 30
0.0
 10
175.0904160808543
 20
80.81967548748909
 30
0.0
 10
175.0437437128278
 20
80.82948752861712
 30
0.0
  0
SPLINE
  5
C5
330
1F
100
AcDbEntity
  8
0
  6
Continuous
 62
     7
370
    15
100
AcDbSpline
210
0.0
220
0.0
230
1.0
 70
     8
 71
     3
 72
    12
 73
     8
 74
     0
 42
0.000000001
 43
0.00000001
 40
0.0
 40
0.0
 40
0.0
 40
0.0
 40
0.4999999999999991
 40
0.4999999999999991
 40
0.7499999999999996
 40
0.7499999999999996
 40
1.0
 40
1.0
 40
1.0
 40
1.0
 10
175.0437437128278
 20
80.82948752861712
 30
0.0
 10
174.4668610602668
 20
80.94972836959644
 30
0.0
 10
173.837980164053
 20
81.06134605310072
 30
0.0
 10
172.8136592688302
 20
81.19670779590493
 30
0.0
 10
172.4584313660656
 20
81.23632407403217
 30
0.0
 10
171.739260006745
 20
81.29985797561348
 30
0.0
 10
171.3729616155705
 20
81.3241232433019
 30
0.0
 10
170.9996878051282
 20
81.3398801025748
 30
0.0
  0
LINE
  5
C6
330
1F
100
AcDbEntity
  8
0
  6
Continuous
 62
     7
370
    15
100
AcDbLine
 10
177.4052600315
 20
129.8294875286
 30
0.0
 11
170.9996878051
 21
129.8294875286
 31
0.0
  0
SPLINE
  5
C7
330
1F
100
AcDbEntity
  8
0
  6
Continuous
 62
     7
370
    15
100
AcDbSpline
210
0.0
220
0.0
230
1.0
 70
     8
 71
     3
 72
    10
 73
     6
 74
     0
 42
0.000000001
 43
0.00000001
 40
0.0
 40
0.0
 40
0.0
 40
0.0
 40
0.2002212848416877
 40
0.6082979976457554
 40
1.0
 40
1.0
 40
1.0
 40
1.0
 10
178.0239262752421
 20
130.0212042219115
 30
0.0
 10
178.0285017358716
 20
130.0226900467414
 30
0.0
 10
178.0424025733448
 20
130.0272041735467
 30
0.0
 10
177.8488360416183
 20
129.9643756077735
 30
0.0
 10
177.5510866561405
 20
129.8738322921728
 30
0.0
 10
177.4052600314993
 20
129.8294875286171
 30
0.0
  0
LINE
  5
C8
330
1F
100
AcDbEntity
  8
0
  6
Continuous
 62
     7
370
    15
100
AcDbLine
 10
150.9496878051
 20
82.8044875286
 30
0.0
 11
150.9496878051
 21
127.2544875286
 31
0.0
  0
LINE
  5
C9
330
1F
100
AcDbEntity
  8
0
  6
Continuous
 62
     7
370
    15
100
AcDbLine
 10
163.1596878051
 20
131.8473453849
 30
0.0
 11
160.9396878051
 21
131.8473453849
 31
0.0
  0
LINE
  5
CA
330
1F
100
AcDbEntity
  8
0
  6
Continuous
 62
     7
370
    15
100
AcDbLine
 10
160.9396878051
 20
126.1784236721
 30
0.0
 11
163.1596878051
 21
126.1784236721
 31
0.0
  0
SPLINE
  5
CB
330
1F
100
AcDbEntity
  8
0
  6
Continuous
 62
     7
370
    15
100
AcDbSpline
210
0.0
220
0.0
230
1.0
 70
     8
 71
     3
 72
    12
 73
     8
 74
     0
 42
0.000000001
 43
0.00000001
 40
0.0
 40
0.0
 40
0.0
 40
0.0
 40
0.5
 40
0.5
 40
0.75
 40
0.75
 40
1.0
 40
1.0
 40
1.0
 40
1.0
 10
163.9596878051282
 20
132.6815670164242
 30
0.0
 10
163.9596878051282
 20
132.4684296147727
 30
0.0
 10
163.8770453899802
 20
132.253450090035
 30
0.0
 10
163.6584619791699
 20
132.0205310211493
 30
0.0
 10
163.5693720261891
 20
131.9566641113287
 30
0.0
 10
163.3739667082916
 20
131.870277956947
 30
0.0
 10
163.2674426613483
 20
131.8473453849039
 30
0.0
 10
163.1596878051282
 20
131.8473453849039
 30
0.0
  0
SPLINE
  5
CC
330
1F
100
AcDbEntity
  8
0
  6
Continuous
 62
     7
370
    15
100
AcDbSpline
210
0.0
220
0.0
230
1.0
 70
     8
 71
     3
 72
    12
 73
     8
 74
     0
 42
0.000000001
 43
0.00000001
 40
0.0
 40
0.0
 40
0.0
 40
0.0
 40
0.2499999999999986
 40
0.2499999999999986
 40
0.4999999999999971
 40
0.4999999999999971
 40
1.0
 40
1.0
 40
1.0
 40
1.0
 10
163.1596878051282
 20
126.1784236720736
 30
0.0
 10
163.2817698026165
 20
126.1784236720736
 30
0.0
 10
163.4023603451022
 20
126.2171500282473
 30
0.0
 10
163.607855628802
 20
126.3471136159936
 30
0.0
 10
163.6933721117545
 20
126.4363198525404
 30
0.0
 10
163.8967664632987
 20
126.741196390086
 30
0.0
 10
163.9596878051282
 20
126.983967004188
 30
0.0
 10
163.9596878051282
 20
127.2267283481424
 30
0.0
  0
LINE
  5
CD
330
1F
100
AcDbEntity
  8
0
  6
Continuous
 62
     7
370
    15
100
AcDbLine
 10
169.3996878051
 20
135.5258236078
 30
0.0
 11
165.5715244472
 21
135.5258236078
 31
0.0
  0
LINE
  5
CE
330
1F
100
AcDbEntity
  8
0
  6
Continuous
 62
     7
370
    15
100
AcDbLine
 10
165.5715244472
 20
130.9397171687
 30
0.0
 11
169.3996878051
 21
130.9397171687
 31
0.0
  0
LINE
  5
CF
330
1F
100
AcDbEntity
  8
0
  6
Continuous
 62
     7
370
    15
100
AcDbLine
 10
165.5715244472
 20
130.9397171687
 30
0.0
 11
165.5715244472
 21
135.5258236078
 31
0.0
  0
SPLINE
  5
D0
330
1F
100
AcDbEntity
  8
0
  6
Continuous
 62
     7
370
    15
100
AcDbSpline
210
0.0
220
0.0
230
1.0
 70
     8
 71
     3
 72
    12
 73
     8
 74
     0
 42
0.000000001
 43
0.00000001
 40
0.0
 40
0.0
 40
0.0
 40
0.0
 40
0.5000000000000004
 40
0.5000000000000004
 40
0.7500000000000002
 40
0.7500000000000002
 40
1.0
 40
1.0
 40
1.0
 40
1.0
 10
169.9996878051282
 20
135.0400386620583
 30
0.0
 10
169.9996878051282
 20
135.1603656951114
 30
0.0
 10
169.9458929935352
 20
135.2784632685932
 30
0.0
 10
169.7849694235689
 20
135.4181060110323
 30
0.0
 10
169.7202179624664
 20
135.4563819644267
 30
0.0
 10
169.5679977791487
 20
135.5112217940611
 30
0.0
 10
169.4851902636237
 20
135.5258236078327
 30
0.0
 10
169.3996878051282
 20
135.5258236078327
 30
0.0
  0
LINE
  5
D1
330
1F
100
AcDbEntity
  8
0
  6
Continuous
 62
     7
370
    15
100
AcDbLine
 10
169.9996878051
 20
130.2008998847
 30
0.0
 11
169.9996878051
 21
135.0400386621
 31
0.0
  0
SPLINE
  5
D2
330
1F
100
AcDbEntity
  8
0
  6
Continuous
 62
     7
370
    15
100
AcDbSpline
210
0.0
220
0.0
230
1.0
 70
     8
 71
     3
 72
    14
 73
    10
 74
     0
 42
0.000000001
 43
0.00000001
 40
0.0
 40
0.0
 40
0.0
 40
0.0
 40
0.25
 40
0.25
 40
0.5
 40
0.5
 40
0.75
 40
0.75
 40
1.0
 40
1.0
 40
1.0
 40
1.0
 10
169.3996878051282
 20
130.9397171686647
 30
0.0
 10
169.4881103432507
 20
130.9397171686647
 30
0.0
 10
169.5761643329437
 20
130.9146448182053
 30
0.0
 10
169.7279940968151
 20
130.828302753234
 30
0.0
 10
169.7938370413789
 20
130.7667594987211
 30
0.0
 10
169.8976361019243
 20
130.6249317524702
 30
0.0
 10
169.936108211399
 20
130.5448831625001
 30
0.0
 10
169.9873308746736
 20
130.3758706658265
 30
0.0
 10
169.9996878051282
 20
130.2890913589568
 30
0.0
 10
169.9996878051282
 20
130.2008998847008
 30
0.0
  0
SPLINE
  5
D3
330
1F
100
AcDbEntity
  8
0
  6
Continuous
 62
     7
370
    15
100
AcDbSpline
210
0.0
220
0.0
230
1.0
 70
     8
 71
     3
 72
     8
 73
     4
 74
     0
 42
0.000000001
 43
0.00000001
 40
0.0
 40
0.0
 40
0.0
 40
0.0
 40
0.0012409313617635
 40
0.0012409313617635
 40
0.0012409313617635
 40
0.0012409313617635
 10
159.0857331188321
 20
134.7420256848816
 30
0.0
 10
158.9005092792762
 20
135.0035532283588
 30
0.0
 10
158.7145240913036
 20
135.2648117301341
 30
0.0
 10
158.5278511630715
 20
135.5258236078327
 30
0.0
  0
SPLINE
  5
D4
330
1F
100
AcDbEntity
  8
0
  6
Continuous
 62
     7
370
    15
100
AcDbSpline
210
0.0
220
0.0
230
1.0
 70
     8
 71
     3
 72
     8
 73
     4
 74
     0
 42
0.000000001
 43
0.00000001
 40
0.0
 40
0.0
 40
0.0
 40
0.0
 40
1.0
 40
1.0
 40
1.0
 40
1.0
 10
160.1396878051281
 20
132.8463139881186
 30
0.0
 10
159.7890355648006
 20
133.478582397169
 30
0.0
 10
159.4376771417404
 20
134.1104642968678
 30
0.0
 10
159.0857331188321
 20
134.7420256848816
 30
0.0
  0
SPLINE
  5
D5
330
1F
100
AcDbEntity
  8
0
  6
Continuous
 62
     7
370
    15
100
AcDbSpline
210
0.0
220
0.0
230
1.0
 70
     8
 71
     3
 72
     8
 73
     4
 74
     0
 42
0.000000001
 43
0.00000001
 40
0.0
 40
0.0
 40
0.0
 40
0.0
 40
1.0
 40
1.0
 40
1.0
 40
1.0
 10
158.5278511630714
 20
130.9397171686647
 30
0.0
 10
159.0767959412683
 20
129.774621056351
 30
0.0
 10
159.6154063157851
 20
128.6054627395265
 30
0.0
 10
160.1396878051281
 20
127.4316265844756
 30
0.0
  0
LINE
  5
D6
330
1F
100
AcDbEntity
  8
0
  6
Continuous
 62
     7
370
    15
100
AcDbLine
 10
158.5278511631
 20
130.9397171687
 30
0.0
 11
158.5278511631
 21
135.5258236078
 31
0.0
  0
LINE
  5
D7
330
1F
100
AcDbEntity
  8
0
  6
Continuous
 62
     7
370
    15
100
AcDbLine
 10
160.1396878051
 20
127.4316265845
 30
0.0
 11
160.1396878051
 21
132.8463139881
 31
0.0
  0
SPLINE
  5
D8
330
1F
100
AcDbEntity
  8
0
  6
Continuous
 62
     7
370
    15
100
AcDbSpline
210
0.0
220
0.0
230
1.0
 70
     8
 71
     3
 72
    12
 73
     8
 74
     0
 42
0.000000001
 43
0.00000001
 40
0.0
 40
0.0
 40
0.0
 40
0.0
 40
0.5
 40
0.5
 40
0.75
 40
0.75
 40
1.0
 40
1.0
 40
1.0
 40
1.0
 10
154.1496878051282
 20
130.2008998847008
 30
0.0
 10
154.1496878051282
 20
130.3775162812225
 30
0.0
 10
154.19902843995
 20
130.5525734525962
 30
0.0
 10
154.3552439982381
 20
130.7665236650889
 30
0.0
 10
154.4205465781388
 20
130.8278563079358
 30
0.0
 10
154.5743155960992
 20
130.9152444059071
 30
0.0
 10
154.6613287027097
 20
130.9397171686647
 30
0.0
 10
154.7496878051282
 20
130.9397171686647
 30
0.0
  0
LINE
  5
D9
330
1F
100
AcDbEntity
  8
0
  6
Continuous
 62
     7
370
    15
100
AcDbLine
 10
154.7496878051
 20
130.9397171687
 30
0.0
 11
158.5278511631
 21
130.9397171687
 31
0.0
  0
SPLINE
  5
DA
330
1F
100
AcDbEntity
  8
0
  6
Continuous
 62
     7
370
    15
100
AcDbSpline
210
0.0
220
0.0
230
1.0
 70
     8
 71
     3
 72
    14
 73
    10
 74
     0
 42
0.000000001
 43
0.00000001
 40
0.0
 40
0.0
 40
0.0
 40
0.0
 40
0.25
 40
0.25
 40
0.5
 40
0.5
 40
0.75
 40
0.75
 40
1.0
 40
1.0
 40
1.0
 40
1.0
 10
160.1396878051281
 20
127.2267283481424
 30
0.0
 10
160.1396878051281
 20
127.1047930129609
 30
0.0
 10
160.1557321726681
 20
126.9852387724595
 30
0.0
 10
160.2214615148474
 20
126.7511227893162
 30
0.0
 10
160.2706688850958
 20
126.6391902491815
 30
0.0
 10
160.4056818659946
 20
126.4367904399446
 30
0.0
 10
160.4916019346009
 20
126.3469252463817
 30
0.0
 10
160.6981167366064
 20
126.2165907367714
 30
0.0
 10
160.8182554489774
 20
126.1784236720736
 30
0.0
 10
160.9396878051282
 20
126.1784236720736
 30
0.0
  0
SPLINE
  5
DB
330
1F
100
AcDbEntity
  8
0
  6
Continuous
 62
     7
370
    15
100
AcDbSpline
210
0.0
220
0.0
230
1.0
 70
     8
 71
     3
 72
     8
 73
     4
 74
     0
 42
0.000000001
 43
0.00000001
 40
0.0
 40
0.0
 40
0.0
 40
0.0
 40
1.0
 40
1.0
 40
1.0
 40
1.0
 10
163.9596878051282
 20
127.4316265844756
 30
0.0
 10
164.4844789246241
 20
128.6066037721804
 30
0.0
 10
165.0229951758069
 20
129.7755029399185
 30
0.0
 10
165.5715244471849
 20
130.9397171686647
 30
0.0
  0
LINE
  5
DC
330
1F
100
AcDbEntity
  8
0
  6
Continuous
 62
     7
370
    15
100
AcDbLine
 10
169.9996878051
 20
130.2008998847
 30
0.0
 11
169.9996878051
 21
123.4489744922
 31
0.0
  0
LINE
  5
DD
330
1F
100
AcDbEntity
  8
0
  6
Continuous
 62
     7
370
    15
100
AcDbLine
 10
160.1396878051
 20
127.4316265845
 30
0.0
 11
160.1396878051
 21
127.2267283481
 31
0.0
  0
LINE
  5
DE
330
1F
100
AcDbEntity
  8
0
  6
Continuous
 62
     7
370
    15
100
AcDbLine
 10
163.9596878051
 20
127.2267283481
 30
0.0
 11
163.9596878051
 21
127.4316265845
 31
0.0
  0
LINE
  5
DF
330
1F
100
AcDbEntity
  8
0
  6
Continuous
 62
     7
370
    15
100
AcDbLine
 10
154.1496878051
 20
130.2008998847
 30
0.0
 11
154.1496878051
 21
123.3794875286
 31
0.0
  0
SPLINE
  5
E0
330
1F
100
AcDbEntity
  8
0
  6
Continuous
 62
     7
370
    15
100
AcDbSpline
210
0.0
220
0.0
230
1.0
 70
     8
 71
     3
 72
     8
 73
     4
 74
     0
 42
0.000000001
 43
0.00000001
 40
0.0
 40
0.0
 40
0.0
 40
0.0
 40
1.0
 40
1.0
 40
1.0
 40
1.0
 10
165.0136424914242
 20
134.7420256848816
 30
0.0
 10
164.6616984685159
 20
134.1104642968678
 30
0.0
 10
164.3103400454557
 20
133.478582397169
 30
0.0
 10
163.9596878051282
 20
132.8463139881186
 30
0.0
  0
SPLINE
  5
E1
330
1F
100
AcDbEntity
  8
0
  6
Continuous
 62
     7
370
    15
100
AcDbSpline
210
0.0
220
0.0
230
1.0
 70
     8
 71
     3
 72
     8
 73
     4
 74
     0
 42
0.000000001
 43
0.00000001
 40
0.0
 40
0.0
 40
0.0
 40
0.0
 40
0.0012409313617635
 40
0.0012409313617635
 40
0.0012409313617635
 40
0.0012409313617635
 10
165.5715244471849
 20
135.5258236078327
 30
0.0
 10
165.3848515189527
 20
135.2648117301341
 30
0.0
 10
165.1988663309802
 20
135.0035532283588
 30
0.0
 10
165.0136424914242
 20
134.7420256848816
 30
0.0
  0
LINE
  5
E2
330
1F
100
AcDbEntity
  8
0
  6
Continuous
 62
     7
370
    15
100
AcDbLine
 10
163.9596878051
 20
127.4316265845
 30
0.0
 11
163.9596878051
 21
132.8463139881
 31
0.0
  0
SPLINE
  5
E3
330
1F
100
AcDbEntity
  8
0
  6
Continuous
 62
     7
370
    15
100
AcDbSpline
210
0.0
220
0.0
230
1.0
 70
     8
 71
     3
 72
    14
 73
    10
 74
     0
 42
0.000000001
 43
0.00000001
 40
0.0
 40
0.0
 40
0.0
 40
0.0
 40
0.25
 40
0.25
 40
0.5
 40
0.5
 40
0.75
 40
0.75
 40
1.0
 40
1.0
 40
1.0
 40
1.0
 10
160.9396878051282
 20
131.8473453849039
 30
0.0
 10
160.8323187606138
 20
131.8473453849039
 30
0.0
 10
160.725513268851
 20
131.8702703803089
 30
0.0
 10
160.5303719003342
 20
131.956462814183
 30
0.0
 10
160.4411621827442
 20
132.020306810847
 30
0.0
 10
160.2952353899279
 20
132.1757229187884
 30
0.0
 10
160.2372456461298
 20
132.2683774969961
 30
0.0
 10
160.1596518046072
 20
132.4676108370457
 30
0.0
 10
160.1396878051281
 20
132.5742159321009
 30
0.0
 10
160.1396878051281
 20
132.6815670164242
 30
0.0
  0
SPLINE
  5
E4
330
1F
100
AcDbEntity
  8
0
  6
Continuous
 62
     7
370
    15
100
AcDbSpline
210
0.0
220
0.0
230
1.0
 70
     8
 71
     3
 72
    10
 73
     6
 74
     0
 42
0.000000001
 43
0.00000001
 40
0.0
 40
0.0
 40
0.0
 40
0.0
 40
0.5
 40
0.5
 40
1.0
 40
1.0
 40
1.0
 40
1.0
 10
154.4369294064357
 20
135.4547840835741
 30
0.0
 10
154.3610898124322
 20
135.3847348972454
 30
0.0
 10
154.2937662947062
 20
135.2995161236718
 30
0.0
 10
154.1871226564011
 20
135.08928999701
 30
0.0
 10
154.1496878051282
 20
134.9657808061427
 30
0.0
 10
154.1496878051282
 20
134.83586268562
 30
0.0
  0
SPLINE
  5
E5
330
1F
100
AcDbEntity
  8
0
  6
Continuous
 62
     7
370
    15
100
AcDbSpline
210
0.0
220
0.0
230
1.0
 70
     8
 71
     3
 72
     8
 73
     4
 74
     0
 42
0.000000001
 43
0.00000001
 40
0.0
 40
0.0
 40
0.0
 40
0.0
 40
1.0
 40
1.0
 40
1.0
 40
1.0
 10
154.7496878051282
 20
135.5258236078327
 30
0.0
 10
154.6375095509485
 20
135.5258236078327
 30
0.0
 10
154.5288400382201
 20
135.5001425425717
 30
0.0
 10
154.4369294064357
 20
135.4547840835741
 30
0.0
  0
LINE
  5
E6
330
1F
100
AcDbEntity
  8
0
  6
Continuous
 62
     7
370
    15
100
AcDbLine
 10
154.1496878051
 20
130.2008998847
 30
0.0
 11
154.1496878051
 21
134.8358626856
 31
0.0
  0
LINE
  5
E7
330
1F
100
AcDbEntity
  8
0
  6
Continuous
 62
     7
370
    15
100
AcDbLine
 10
158.5278511631
 20
135.5258236078
 30
0.0
 11
154.7496878051
 21
135.5258236078
 31
0.0
  0
LINE
  5
E8
330
1F
100
AcDbEntity
  8
0
  6
Continuous
 62
     7
370
    15
100
AcDbLine
 10
82.6996878051
 20
93.6223569316
 30
0.0
 11
82.6996878051
 21
116.4366181138
 31
0.0
  0
CIRCLE
  5
E9
330
1F
100
AcDbEntity
  8
0
  6
HIDDEN
 62
     7
370
     0
100
AcDbCircle
 10
193.8996878051
 20
105.0294875286
 30
0.0
 40
4.080384757729348
  0
CIRCLE
  5
EA
330
1F
100
AcDbEntity
  8
0
  6
HIDDEN
 62
     7
370
     0
100
AcDbCircle
 10
193.8996878051
 20
105.0294875286
 30
0.0
 40
3.780384757729337
  0
SPLINE
  5
EB
330
1F
100
AcDbEntity
  8
0
  6
HIDDEN
 62
     7
370
     0
100
AcDbSpline
210
0.0
220
0.0
230
1.0
 70
     8
 71
     3
 72
    18
 73
    14
 74
     0
 42
0.000000001
 43
0.00000001
 40
0.0
 40
0.0
 40
0.0
 40
0.0
 40
0.2499999999999991
 40
0.2499999999999991
 40
0.4999999999999982
 40
0.4999999999999982
 40
0.6249999999999987
 40
0.6249999999999987
 40
0.7499999999999991
 40
0.7499999999999991
 40
0.8749999999999996
 40
0.8749999999999996
 40
1.0
 40
1.0
 40
1.0
 40
1.0
 10
209.9496878051282
 20
122.0271887727263
 30
0.0
 10
209.9496878051282
 20
121.9318691077086
 30
0.0
 10
209.9444297419651
 20
121.8348397215408
 30
0.0
 10
209.9169247520982
 20
121.6352555810158
 30
0.0
 10
209.8944412586246
 20
121.5302514113129
 30
0.0
 10
209.8361429065041
 20
121.3782426627285
 30
0.0
 10
209.8118161127965
 20
121.3271907625548
 30
0.0
 10
209.7529727536131
 20
121.2346398714767
 30
0.0
 10
209.7178500331601
 20
121.1928178948439
 30
0.0
 10
209.6428713611679
 20
121.1283456382406
 30
0.0
 10
209.6028845435139
 20
121.1051877524864
 30
0.0
 10
209.5242766989668
 20
121.0752009066898
 30
0.0
 10
209.486427355964
 20
121.0681629502042
 30
0.0
 10
209.4496482251138
 20
121.0659036432284
 30
0.0
  0
SPLINE
  5
EC
330
1F
100
AcDbEntity
  8
0
  6
HIDDEN
 62
     7
370
     0
100
AcDbSpline
210
0.0
220
0.0
230
1.0
 70
     8
 71
     3
 72
    10
 73
     6
 74
     0
 42
0.000000001
 43
0.00000001
 40
0.0
 40
0.0
 40
0.0
 40
0.0
 40
0.5
 40
0.5
 40
1.0
 40
1.0
 40
1.0
 40
1.0
 10
209.4496482251138
 20
121.0659036432287
 30
0.0
 10
209.384826767381
 20
121.0050360388542
 30
0.0
 10
209.3099833710787
 20
120.9500642072339
 30
0.0
 10
209.1413727152275
 20
120.8702391989756
 30
0.0
 10
209.0470821631917
 20
120.8459324249485
 30
0.0
 10
208.9496878051282
 20
120.8459324249485
 30
0.0
  0
SPLINE
  5
ED
330
1F
100
AcDbEntity
  8
0
  6
HIDDEN
 62
     7
370
     0
100
AcDbSpline
210
0.0
220
0.0
230
1.0
 70
     8
 71
     3
 72
    10
 73
     6
 74
     0
 42
0.000000001
 43
0.00000001
 40
0.0
 40
0.0
 40
0.0
 40
0.0
 40
0.5
 40
0.5
 40
1.0
 40
1.0
 40
1.0
 40
1.0
 10
209.4496379988234
 20
88.99308101640565
 30
0.0
 10
209.3848173126566
 20
89.05394628648757
 30
0.0
 10
209.3099750299991
 20
89.10891582873758
 30
0.0
 10
209.1413677562783
 20
89.18873717604646
 30
0.0
 10
209.0470796023735
 20
89.21304263228578
 30
0.0
 10
208.9496878051282
 20
89.21304263228578
 30
0.0
  0
SPLINE
  5
EE
330
1F
100
AcDbEntity
  8
0
  6
HIDDEN
 62
     7
370
     0
100
AcDbSpline
210
0.0
220
0.0
230
1.0
 70
     8
 71
     3
 72
    18
 73
    14
 74
     0
 42
0.000000001
 43
0.00000001
 40
0.0
 40
0.0
 40
0.0
 40
0.0
 40
0.1250000000000001
 40
0.1250000000000001
 40
0.2500000000000002
 40
0.2500000000000002
 40
0.3750000000000003
 40
0.3750000000000003
 40
0.5000000000000004
 40
0.5000000000000004
 40
0.7500000000000002
 40
0.7500000000000002
 40
1.0
 40
1.0
 40
1.0
 40
1.0
 10
209.4496379988233
 20
88.99308101640558
 30
0.0
 10
209.4861248789194
 20
88.9908469801192
 30
0.0
 10
209.5243805709474
 20
88.98370348966752
 30
0.0
 10
209.6019276079364
 20
88.95424160893525
 30
0.0
 10
209.6418750231438
 20
88.93126852785387
 30
0.0
 10
209.7162199333791
 20
88.86784359199478
 30
0.0
 10
209.7513631783805
 20
88.82645359367196
 30
0.0
 10
209.8103461389515
 20
88.73454631843147
 30
0.0
 10
209.8347637614592
 20
88.68386979369377
 30
0.0
 10
209.8938400765188
 20
88.53121877733429
 30
0.0
 10
209.9163289451059
 20
88.42699957577406
 30
0.0
 10
209.9443332065761
 20
88.22585833500817
 30
0.0
 10
209.9496878051282
 20
88.12736407630156
 30
0.0
 10
209.9496878051282
 20
88.0317862845079
 30
0.0
  0
LINE
  5
EF
330
1F
100
AcDbEntity
  8
0
  6
HIDDEN
 62
     7
370
     0
100
AcDbLine
 10
169.4496878051
 20
105.0294875286
 30
0.0
 11
169.4496878051
 21
87.5294875286
 31
0.0
  0
LINE
  5
F0
330
1F
100
AcDbEntity
  8
0
  6
HIDDEN
 62
     7
370
     0
100
AcDbLine
 10
169.4496878051
 20
122.5294875286
 30
0.0
 11
169.4496878051
 21
105.0294875286
 31
0.0
  0
LINE
  5
F1
330
1F
100
AcDbEntity
  8
0
  6
HIDDEN
 62
     7
370
     0
100
AcDbLine
 10
174.3157132089
 20
105.0294875286
 30
0.0
 11
174.3157132089
 21
87.0294875286
 31
0.0
  0
LINE
  5
F2
330
1F
100
AcDbEntity
  8
0
  6
HIDDEN
 62
     7
370
     0
100
AcDbLine
 10
174.3157132089
 20
123.0294875286
 30
0.0
 11
174.3157132089
 21
105.0294875286
 31
0.0
  0
LINE
  5
F3
330
1F
100
AcDbEntity
  8
0
  6
HIDDEN
 62
     7
370
     0
100
AcDbLine
 10
193.349687805
 20
120.8459324249
 30
0.0
 11
208.9496878051
 21
120.8459324249
 31
0.0
  0
LINE
  5
F4
330
1F
100
AcDbEntity
  8
0
  6
HIDDEN
 62
     7
370
     0
100
AcDbLine
 10
193.349687805
 20
89.2130426323
 30
0.0
 11
208.9496878051
 21
89.2130426323
 31
0.0
  0
LINE
  5
F5
330
1F
100
AcDbEntity
  8
0
  6
HIDDEN
 62
     7
370
     0
100
AcDbLine
 10
165.4496878051
 20
105.0294875286
 30
0.0
 11
165.4496878051
 21
88.4294875286
 31
0.0
  0
LINE
  5
F6
330
1F
100
AcDbEntity
  8
0
  6
HIDDEN
 62
     7
370
     0
100
AcDbLine
 10
165.4496878051
 20
121.6294875286
 30
0.0
 11
165.4496878051
 21
105.0294875286
 31
0.0
  0
LINE
  5
F7
330
1F
100
AcDbEntity
  8
0
  6
HIDDEN
 62
     7
370
     0
100
AcDbLine
 10
164.4496878051
 20
105.0294875286
 30
0.0
 11
164.4496878051
 21
91.0294875286
 31
0.0
  0
LINE
  5
F8
330
1F
100
AcDbEntity
  8
0
  6
HIDDEN
 62
     7
370
     0
100
AcDbLine
 10
164.4496878051
 20
119.0294875286
 30
0.0
 11
164.4496878051
 21
105.0294875286
 31
0.0
  0
LINE
  5
F9
330
1F
100
AcDbEntity
  8
0
  6
HIDDEN
 62
     7
370
     0
100
AcDbLine
 10
133.4496878051
 20
105.0294875286
 30
0.0
 11
133.4496878051
 21
91.0294875286
 31
0.0
  0
LINE
  5
FA
330
1F
100
AcDbEntity
  8
0
  6
HIDDEN
 62
     7
370
     0
100
AcDbLine
 10
133.4496878051
 20
119.0294875286
 30
0.0
 11
133.4496878051
 21
105.0294875286
 31
0.0
  0
LINE
  5
FB
330
1F
100
AcDbEntity
  8
0
  6
HIDDEN
 62
     7
370
     0
100
AcDbLine
 10
129.2436634719
 20
105.0294875286
 30
0.0
 11
129.2436634719
 21
98.0294875286
 31
0.0
  0
LINE
  5
FC
330
1F
100
AcDbEntity
  8
0
  6
HIDDEN
 62
     7
370
     0
100
AcDbLine
 10
129.2436634719
 20
112.0294875286
 30
0.0
 11
129.2436634719
 21
105.0294875286
 31
0.0
  0
SPLINE
  5
FD
330
1F
100
AcDbEntity
  8
0
  6
HIDDEN
 62
     7
370
     0
100
AcDbSpline
210
0.0
220
0.0
230
1.0
 70
     8
 71
     3
 72
     9
 73
     5
 74
     0
 42
0.000000001
 43
0.00000001
 40
0.0
 40
0.0
 40
0.0
 40
0.0
 40
0.3794529432969911
 40
1.0
 40
1.0
 40
1.0
 40
1.0
 10
209.4496878050145
 20
127.9294875286172
 30
0.0
 10
209.4495721599641
 20
128.0450493423621
 30
0.0
 10
209.4492673921333
 20
128.349597813487
 30
0.0
 10
209.4483793207477
 20
128.6177409448668
 30
0.0
 10
209.4478282306633
 20
128.7841363758196
 30
0.0
  0
SPLINE
  5
FE
330
1F
100
AcDbEntity
  8
0
  6
HIDDEN
 62
     7
370
     0
100
AcDbSpline
210
0.0
220
0.0
230
1.0
 70
     8
 71
     3
 72
    19
 73
    15
 74
     0
 42
0.000000001
 43
0.00000001
 40
0.0
 40
0.0
 40
0.0
 40
0.0
 40
0.0115752053731616
 40
0.092286743225249
 40
0.1747625053765415
 40
0.2578491256007795
 40
0.3377924573508962
 40
0.5003919716378206
 40
0.5832383784199452
 40
0.6632717637453149
 40
0.74386787773654
 40
0.8261921145125032
 40
0.9091396238156204
 40
1.0
 40
1.0
 40
1.0
 40
1.0
 10
209.3752472353559
 20
130.5268103966085
 30
0.0
 10
209.3749509251412
 20
130.5272383671826
 30
0.0
 10
209.3725885044482
 20
130.5306504889727
 30
0.0
 10
209.3700482569307
 20
130.5022801619371
 30
0.0
 10
209.3685611669933
 20
130.4384187896219
 30
0.0
 10
209.3701582208982
 20
130.3342116064757
 30
0.0
 10
209.3769124979123
 20
130.1500810264454
 30
0.0
 10
209.3891086444155
 20
129.8967224007469
 30
0.0
 10
209.401991130799
 20
129.5800085481928
 30
0.0
 10
209.4151372059332
 20
129.3130730399295
 30
0.0
 10
209.434999530127
 20
129.0193466418519
 30
0.0
 10
209.4541662688658
 20
128.6954395510213
 30
0.0
 10
209.4671242978218
 20
128.3338221114074
 30
0.0
 10
209.4592177748212
 20
128.068295227223
 30
0.0
 10
209.4550845351116
 20
127.9294875286172
 30
0.0
  0
SPLINE
  5
FF
330
1F
100
AcDbEntity
  8
0
  6
HIDDEN
 62
     7
370
     0
100
AcDbSpline
210
0.0
220
0.0
230
1.0
 70
     8
 71
     3
 72
    14
 73
    10
 74
     0
 42
0.000000001
 43
0.00000001
 40
0.0
 40
0.0
 40
0.0
 40
0.0
 40
0.25
 40
0.25
 40
0.5
 40
0.5
 40
0.75
 40
0.75
 40
1.0
 40
1.0
 40
1.0
 40
1.0
 10
209.4550845351116
 20
127.9294875286172
 30
0.0
 10
209.4272665943923
 20
127.3577047344089
 30
0.0
 10
209.4443660377062
 20
126.78572978592
 30
0.0
 10
209.457062119355
 20
125.641813541501
 30
0.0
 10
209.4559586713072
 20
125.0698150879656
 30
0.0
 10
209.4512112428218
 20
123.9258430393219
 30
0.0
 10
209.4484584143122
 20
123.353857604232
 30
0.0
 10
209.4482994341019
 20
122.209881234413
 30
0.0
 10
209.4494465931122
 20
121.6378924596786
 30
0.0
 10
209.4496482251137
 20
121.0659036432286
 30
0.0
  0
SPLINE
  5
100
330
1F
100
AcDbEntity
  8
0
  6
HIDDEN
 62
     7
370
     0
100
AcDbSpline
210
0.0
220
0.0
230
1.0
 70
     8
 71
     3
 72
    14
 73
    10
 74
     0
 42
0.000000001
 43
0.00000001
 40
0.0
 40
0.0
 40
0.0
 40
0.0
 40
0.25
 40
0.25
 40
0.5
 40
0.5
 40
0.75
 40
0.75
 40
1.0
 40
1.0
 40
1.0
 40
1.0
 10
209.4550735610946
 20
82.1294875286171
 30
0.0
 10
209.427314937357
 20
82.70119530580654
 30
0.0
 10
209.444323184297
 20
83.27318909968034
 30
0.0
 10
209.4571194518128
 20
84.41711069919566
 30
0.0
 10
209.4559079873437
 20
84.98912300400363
 30
0.0
 10
209.4511221957461
 20
86.13310612479185
 30
0.0
 10
209.4485257517758
 20
86.70509736350523
 30
0.0
 10
209.4482480713957
 20
87.84908865493075
 30
0.0
 10
209.4493890944638
 20
88.42108487369174
 30
0.0
 10
209.4496379988233
 20
88.9930810164056
 30
0.0
  0
SPLINE
  5
101
330
1F
100
AcDbEntity
  8
0
  6
HIDDEN
 62
     7
370
     0
100
AcDbSpline
210
0.0
220
0.0
230
1.0
 70
     8
 71
     3
 72
     9
 73
     5
 74
     0
 42
0.000000001
 43
0.00000001
 40
0.0
 40
0.0
 40
0.0
 40
0.0
 40
0.8088999496120173
 40
1.0
 40
1.0
 40
1.0
 40
1.0
 10
209.4496878050145
 20
82.1294875286171
 30
0.0
 10
209.449988392609
 20
81.88058950055904
 30
0.0
 10
209.4503599930703
 20
81.57289010191592
 30
0.0
 10
209.4479060668786
 20
81.32247488529624
 30
0.0
 10
209.4474371214597
 20
81.2746205247823
 30
0.0
  0
SPLINE
  5
102
330
1F
100
AcDbEntity
  8
0
  6
HIDDEN
 62
     7
370
     0
100
AcDbSpline
210
0.0
220
0.0
230
1.0
 70
     8
 71
     3
 72
    16
 73
    12
 74
     0
 42
0.000000001
 43
0.00000001
 40
0.0
 40
0.0
 40
0.0
 40
0.0
 40
0.1133223592958392
 40
0.2787840145303166
 40
0.4391166506373909
 40
0.6040827621535173
 40
0.6841511312749867
 40
0.7647806363003005
 40
0.8471350469407217
 40
0.93012659871629
 40
1.0
 40
1.0
 40
1.0
 40
1.0
 10
209.3760303580983
 20
79.5448975566013
 30
0.0
 10
209.3735486939331
 20
79.54861795262855
 30
0.0
 10
209.3674435589627
 20
79.5577704883379
 30
0.0
 10
209.3693588881323
 20
79.74161264060535
 30
0.0
 10
209.3852927247817
 20
80.06867348840352
 30
0.0
 10
209.4000925588613
 20
80.4529697779194
 30
0.0
 10
209.4197139672551
 20
80.81956352877965
 30
0.0
 10
209.4403389660118
 20
81.12022242769457
 30
0.0
 10
209.4580542701253
 20
81.45055888470786
 30
0.0
 10
209.4666184819609
 20
81.78828992482775
 30
0.0
 10
209.4586952224418
 20
82.02245325893806
 30
0.0
 10
209.4550735610946
 20
82.1294875286171
 30
0.0
  0
LINE
  5
103
330
1F
100
AcDbEntity
  8
0
  6
HIDDEN
 62
     7
370
     0
100
AcDbLine
 10
154.1496878051
 20
129.8294875286
 30
0.0
 11
154.4869461053
 21
129.8294875286
 31
0.0
  0
ELLIPSE
  5
104
330
1F
100
AcDbEntity
  8
0
  6
HIDDEN
 62
     7
370
     0
100
AcDbEllipse
 10
154.4869461053
 20
131.4294875286
 30
0.0
 11
0.0
 21
1.599999999999994
 31
0.0
210
0.0
220
0.0
230
1.0
 40
0.4142135624
 41
3.141592653589793
 42
4.712388980384695
  0
ELLIPSE
  5
105
330
1F
100
AcDbEntity
  8
0
  6
HIDDEN
 62
     7
370
     0
100
AcDbEllipse
 10
154.4869461053
 20
80.8294875286
 30
0.0
 11
0.0
 21
1.599999999999994
 31
0.0
210
0.0
220
0.0
230
1.0
 40
0.4142135624
 41
4.712388980384695
 42
6.283185307179586
  0
LINE
  5
106
330
1F
100
AcDbEntity
  8
0
  6
HIDDEN
 62
     7
370
     0
100
AcDbLine
 10
154.4869461053
 20
82.4294875286
 30
0.0
 11
154.1496878051
 21
82.4294875286
 31
0.0
  0
LINE
  5
107
330
1F
100
AcDbEntity
  8
0
  6
HIDDEN
 62
     7
370
     0
100
AcDbLine
 10
155.1496878051
 20
75.136039182
 30
0.0
 11
154.3658323465
 21
74.6777576791
 31
0.0
  0
LINE
  5
108
330
1F
100
AcDbEntity
  8
0
  6
HIDDEN
 62
     7
370
     0
100
AcDbLine
 10
154.4369294064
 20
135.4547840836
 30
0.0
 11
155.1496878051
 21
134.7420256849
 31
0.0
  0
LINE
  5
109
330
1F
100
AcDbEntity
  8
0
  6
HIDDEN
 62
     7
370
     0
100
AcDbLine
 10
89.6996878051
 20
96.5294875286
 30
0.0
 11
89.6996878051
 21
113.5294875286
 31
0.0
  0
LINE
  5
10A
330
1F
100
AcDbEntity
  8
0
  6
HIDDEN
 62
     7
370
     0
100
AcDbLine
 10
193.349687805
 20
127.9294875286
 30
0.0
 11
193.349687805
 21
120.8459324249
 31
0.0
  0
LINE
  5
10B
330
1F
100
AcDbEntity
  8
0
  6
HIDDEN
 62
     7
370
     0
100
AcDbLine
 10
193.349687805
 20
82.1294875286
 30
0.0
 11
193.349687805
 21
89.2130426323
 31
0.0
  0
LINE
  5
10C
330
1F
100
AcDbEntity
  8
0
  6
HIDDEN
 62
     7
370
     0
100
AcDbLine
 10
92.6956170195
 20
98.0294875286
 30
0.0
 11
92.6956170195
 21
112.0294875286
 31
0.0
  0
LINE
  5
10D
330
1F
100
AcDbEntity
  8
0
  6
HIDDEN
 62
     7
370
     0
100
AcDbLine
 10
158.9848982014
 20
75.136039182
 30
0.0
 11
155.1496878051
 21
75.136039182
 31
0.0
  0
LINE
  5
10E
330
1F
100
AcDbEntity
  8
0
  6
HIDDEN
 62
     7
370
     0
100
AcDbLine
 10
169.9996878051
 20
75.136039182
 30
0.0
 11
165.1144774088
 21
75.136039182
 31
0.0
  0
LINE
  5
10F
330
1F
100
AcDbEntity
  8
0
  6
HIDDEN
 62
     7
370
     0
100
AcDbLine
 10
155.1496878051
 20
75.136039182
 30
0.0
 11
155.1496878051
 21
80.8294875286
 31
0.0
  0
LINE
  5
110
330
1F
100
AcDbEntity
  8
0
  6
HIDDEN
 62
     7
370
     0
100
AcDbLine
 10
169.9996878051
 20
82.4294875286
 30
0.0
 11
154.4869461053
 21
82.4294875286
 31
0.0
  0
SPLINE
  5
111
330
1F
100
AcDbEntity
  8
0
  6
HIDDEN
 62
     7
370
     0
100
AcDbSpline
210
0.0
220
0.0
230
1.0
 70
    24
 71
     3
 72
    12
 73
     8
 74
     0
 42
0.000000001
 43
0.00000001
 40
0.0
 40
0.0
 40
0.0
 40
0.0
 40
0.25
 40
0.25
 40
0.5
 40
0.5
 40
1.0
 40
1.0
 40
1.0
 40
1.0
 10
170.7901200796764
 20
82.42948752861712
 30
0.0
 10
170.7333588303309
 20
82.42948752861713
 30
0.0
 10
170.6759440183882
 20
82.42948752861712
 30
0.0
 10
170.5619774065458
 20
82.42948752861713
 30
0.0
 10
170.5051384863745
 20
82.42948752861712
 30
0.0
 10
170.3343928810094
 20
82.42948752861712
 30
0.0
 10
170.2202743779058
 20
82.42948752861712
 30
0.0
 10
170.10545323905
 20
82.42948752861712
 30
0.0
  0
LINE
  5
112
330
1F
100
AcDbEntity
  8
0
  6
HIDDEN
 62
     7
370
     0
100
AcDbLine
 10
170.1054532391
 20
82.4294875286
 30
0.0
 11
169.9996878051
 21
82.4294875286
 31
0.0
  0
LINE
  5
113
330
1F
100
AcDbEntity
  8
0
  6
HIDDEN
 62
     7
370
     0
100
AcDbLine
 10
155.1496878051
 20
134.7420256849
 30
0.0
 11
159.0857331188
 21
134.7420256849
 31
0.0
  0
LINE
  5
114
330
1F
100
AcDbEntity
  8
0
  6
HIDDEN
 62
     7
370
     0
100
AcDbLine
 10
165.0136424914
 20
134.7420256849
 30
0.0
 11
169.9996878051
 21
134.7420256849
 31
0.0
  0
LINE
  5
115
330
1F
100
AcDbEntity
  8
0
  6
HIDDEN
 62
     7
370
     0
100
AcDbLine
 10
155.1496878051
 20
134.7420256849
 30
0.0
 11
155.1496878051
 21
131.4294875286
 31
0.0
  0
LINE
  5
116
330
1F
100
AcDbEntity
  8
0
  6
HIDDEN
 62
     7
370
     0
100
AcDbLine
 10
154.4869461053
 20
129.8294875286
 30
0.0
 11
170.0726481956
 21
129.8294875286
 31
0.0
  0
SPLINE
  5
117
330
1F
100
AcDbEntity
  8
0
  6
HIDDEN
 62
     7
370
     0
100
AcDbSpline
210
0.0
220
0.0
230
1.0
 70
    24
 71
     3
 72
    12
 73
     8
 74
     0
 42
0.000000001
 43
0.00000001
 40
0.0
 40
0.0
 40
0.0
 40
0.0
 40
0.4999999999999989
 40
0.4999999999999989
 40
0.7499999999999994
 40
0.7499999999999994
 40
1.0
 40
1.0
 40
1.0
 40
1.0
 10
174.0411984392478
 20
82.42948752861712
 30
0.0
 10
173.5696073026631
 20
82.42948752861712
 30
0.0
 10
173.0636818454155
 20
82.42948752861712
 30
0.0
 10
172.2480828296592
 20
82.42948752861713
 30
0.0
 10
171.9647498478317
 20
82.42948752861712
 30
0.0
 10
171.385318091666
 20
82.42948752861712
 30
0.0
 10
171.0904801765138
 20
82.42948752861713
 30
0.0
 10
170.7901200796764
 20
82.42948752861712
 30
0.0
  0
LINE
  5
118
330
1F
100
AcDbEntity
  8
0
  6
HIDDEN
 62
     7
370
     0
100
AcDbLine
 10
176.4496878051
 20
82.4294875286
 30
0.0
 11
174.0411984392
 21
82.4294875286
 31
0.0
  0
LINE
  5
119
330
1F
100
AcDbEntity
  8
0
  6
HIDDEN
 62
     7
370
     0
100
AcDbLine
 10
193.349687805
 20
130.5294875286
 30
0.0
 11
193.349687805
 21
127.9294875286
 31
0.0
  0
LINE
  5
11A
330
1F
100
AcDbEntity
  8
0
  6
HIDDEN
 62
     7
370
     0
100
AcDbLine
 10
193.349687805
 20
79.5294875286
 30
0.0
 11
193.349687805
 21
82.1294875286
 31
0.0
  0
LINE
  5
11B
330
1F
100
AcDbEntity
  8
0
  6
HIDDEN
 62
     7
370
     0
100
AcDbLine
 10
178.0496878051
 20
129.8294875286
 30
0.0
 11
177.4052600315
 21
129.8294875286
 31
0.0
  0
LINE
  5
11C
330
1F
100
AcDbEntity
  8
0
  6
HIDDEN
 62
     7
370
     0
100
AcDbLine
 10
169.9996878051
 20
123.4489744922
 30
0.0
 11
169.9996878051
 21
123.3794875286
 31
0.0
  0
LINE
  5
11D
330
1F
100
AcDbEntity
  8
0
  6
HIDDEN
 62
     7
370
     0
100
AcDbLine
 10
160.1396878051
 20
127.2267283481
 30
0.0
 11
160.1396878051
 21
123.3794875286
 31
0.0
  0
LINE
  5
11E
330
1F
100
AcDbEntity
  8
0
  6
HIDDEN
 62
     7
370
     0
100
AcDbLine
 10
163.9596878051
 20
127.2267283481
 30
0.0
 11
163.9596878051
 21
123.3794875286
 31
0.0
  0
LINE
  5
11F
330
1F
100
AcDbEntity
  8
0
  6
HIDDEN
 62
     7
370
     0
100
AcDbLine
 10
158.5278511631
 20
130.9397171687
 30
0.0
 11
158.5278511631
 21
123.3794875286
 31
0.0
  0
LINE
  5
120
330
1F
100
AcDbEntity
  8
0
  6
HIDDEN
 62
     7
370
     0
100
AcDbLine
 10
165.5715244472
 20
130.9397171687
 30
0.0
 11
165.5715244472
 21
123.3794875286
 31
0.0
  0
ARC
  5
121
330
1F
100
AcDbEntity
  8
0
  6
HIDDEN
 62
     7
370
     0
100
AcDbCircle
 10
172.3180353075
 20
122.5294875286
 30
0.0
 40
1.000000000000017
100
AcDbArc
 50
75.0
 51
90.0
  0
ARC
  5
122
330
1F
100
AcDbEntity
  8
0
  6
HIDDEN
 62
     7
370
     0
100
AcDbCircle
 10
172.3180353075
 20
87.5294875286
 30
0.0
 40
1.000000000000014
100
AcDbArc
 50
270.0
 51
285.0
  0
LINE
  5
123
330
1F
100
AcDbEntity
  8
0
  6
HIDDEN
 62
     7
370
     0
100
AcDbLine
 10
172.3180353075
 20
123.5294875286
 30
0.0
 11
170.4496878051
 21
123.5294875286
 31
0.0
  0
LINE
  5
124
330
1F
100
AcDbEntity
  8
0
  6
HIDDEN
 62
     7
370
     0
100
AcDbLine
 10
170.4496878051
 20
86.5294875286
 30
0.0
 11
172.3180353075
 21
86.5294875286
 31
0.0
  0
ARC
  5
125
330
1F
100
AcDbEntity
  8
0
  6
HIDDEN
 62
     7
370
     0
100
AcDbCircle
 10
170.4496878051
 20
122.5294875286
 30
0.0
 40
1.0
100
AcDbArc
 50
90.0
 51
180.0
  0
ARC
  5
126
330
1F
100
AcDbEntity
  8
0
  6
HIDDEN
 62
     7
370
     0
100
AcDbCircle
 10
170.4496878051
 20
87.5294875286
 30
0.0
 40
1.0
100
AcDbArc
 50
180.0
 51
270.0
  0
LINE
  5
127
330
1F
100
AcDbEntity
  8
0
  6
HIDDEN
 62
     7
370
     0
100
AcDbLine
 10
172.5768543526
 20
86.5635617023
 30
0.0
 11
174.3157132089
 21
87.0294875286
 31
0.0
  0
LINE
  5
128
330
1F
100
AcDbEntity
  8
0
  6
HIDDEN
 62
     7
370
     0
100
AcDbLine
 10
174.3157132089
 20
123.0294875286
 30
0.0
 11
172.5768543526
 21
123.4954133549
 31
0.0
  0
LINE
  5
129
330
1F
100
AcDbEntity
  8
0
  6
HIDDEN
 62
     7
370
     0
100
AcDbLine
 10
193.349687805
 20
123.0294875286
 30
0.0
 11
174.3157132089
 21
123.0294875286
 31
0.0
  0
LINE
  5
12A
330
1F
100
AcDbEntity
  8
0
  6
HIDDEN
 62
     7
370
     0
100
AcDbLine
 10
174.3157132089
 20
87.0294875286
 30
0.0
 11
193.349687805
 21
87.0294875286
 31
0.0
  0
LINE
  5
12B
330
1F
100
AcDbEntity
  8
0
  6
HIDDEN
 62
     7
370
     0
100
AcDbLine
 10
169.4496878051
 20
122.0294875286
 30
0.0
 11
165.8496878051
 21
122.0294875286
 31
0.0
  0
LINE
  5
12C
330
1F
100
AcDbEntity
  8
0
  6
HIDDEN
 62
     7
370
     0
100
AcDbLine
 10
165.8496878051
 20
88.0294875286
 30
0.0
 11
169.4496878051
 21
88.0294875286
 31
0.0
  0
ARC
  5
12D
330
1F
100
AcDbEntity
  8
0
  6
HIDDEN
 62
     7
370
     0
100
AcDbCircle
 10
165.8496878051
 20
121.6294875286
 30
0.0
 40
0.3999999999999915
100
AcDbArc
 50
90.0
 51
180.0
  0
ARC
  5
12E
330
1F
100
AcDbEntity
  8
0
  6
HIDDEN
 62
     7
370
     0
100
AcDbCircle
 10
165.8496878051
 20
88.4294875286
 30
0.0
 40
0.4000000000000057
100
AcDbArc
 50
180.0
 51
270.0
  0
LINE
  5
12F
330
1F
100
AcDbEntity
  8
0
  6
HIDDEN
 62
     7
370
     0
100
AcDbLine
 10
165.4496878051
 20
120.0294875286
 30
0.0
 11
164.4496878051
 21
119.0294875286
 31
0.0
  0
LINE
  5
130
330
1F
100
AcDbEntity
  8
0
  6
HIDDEN
 62
     7
370
     0
100
AcDbLine
 10
164.4496878051
 20
91.0294875286
 30
0.0
 11
165.4496878051
 21
90.0294875286
 31
0.0
  0
LINE
  5
131
330
1F
100
AcDbEntity
  8
0
  6
HIDDEN
 62
     7
370
     0
100
AcDbLine
 10
164.4496878051
 20
119.0294875286
 30
0.0
 11
133.4496878051
 21
119.0294875286
 31
0.0
  0
LINE
  5
132
330
1F
100
AcDbEntity
  8
0
  6
HIDDEN
 62
     7
370
     0
100
AcDbLine
 10
133.4496878051
 20
91.0294875286
 30
0.0
 11
164.4496878051
 21
91.0294875286
 31
0.0
  0
LINE
  5
133
330
1F
100
AcDbEntity
  8
0
  6
HIDDEN
 62
     7
370
     0
100
AcDbLine
 10
133.4496878051
 20
119.0294875286
 30
0.0
 11
129.2436634719
 21
112.0294875286
 31
0.0
  0
LINE
  5
134
330
1F
100
AcDbEntity
  8
0
  6
HIDDEN
 62
     7
370
     0
100
AcDbLine
 10
129.2436634719
 20
98.0294875286
 30
0.0
 11
133.4496878051
 21
91.0294875286
 31
0.0
  0
LINE
  5
135
330
1F
100
AcDbEntity
  8
0
  6
HIDDEN
 62
     7
370
     0
100
AcDbLine
 10
209.949687805
 20
131.1035690544
 30
0.0
 11
209.3629293357
 21
130.5168180648
 31
0.0
  0
LINE
  5
136
330
1F
100
AcDbEntity
  8
0
  6
HIDDEN
 62
     7
370
     0
100
AcDbLine
 10
209.3627282392
 20
79.5423532922
 30
0.0
 11
209.949687805
 21
78.9554057686
 31
0.0
  0
ARC
  5
137
330
1F
100
AcDbEntity
  8
0
  6
HIDDEN
 62
     7
370
     0
100
AcDbCircle
 10
83.4996878051
 20
95.7294875286
 30
0.0
 40
0.7999999999999972
100
AcDbArc
 50
90.0
 51
180.0
  0
ARC
  5
138
330
1F
100
AcDbEntity
  8
0
  6
HIDDEN
 62
     7
370
     0
100
AcDbCircle
 10
83.4996878051
 20
114.3294875286
 30
0.0
 40
0.7999999999999972
100
AcDbArc
 50
180.0
 51
270.0
  0
LINE
  5
139
330
1F
100
AcDbEntity
  8
0
  6
HIDDEN
 62
     7
370
     0
100
AcDbLine
 10
90.5920602359
 20
96.3044875286
 30
0.0
 11
91.4687476975
 21
96.3044875286
 31
0.0
  0
LINE
  5
13A
330
1F
100
AcDbEntity
  8
0
  6
HIDDEN
 62
     7
370
     0
100
AcDbLine
 10
91.4687476975
 20
113.7544875286
 30
0.0
 11
90.5920602359
 21
113.7544875286
 31
0.0
  0
ARC
  5
13B
330
1F
100
AcDbEntity
  8
0
  6
HIDDEN
 62
     7
370
     0
100
AcDbCircle
 10
91.4687476975
 20
96.7044875286
 30
0.0
 40
0.4000000000000057
100
AcDbArc
 50
270.0
 51
330.0
  0
ARC
  5
13C
330
1F
100
AcDbEntity
  8
0
  6
HIDDEN
 62
     7
370
     0
100
AcDbCircle
 10
91.4687476975
 20
113.3544875286
 30
0.0
 40
0.4000000000000057
100
AcDbArc
 50
30.0
 51
90.0
  0
ARC
  5
13D
330
1F
100
AcDbEntity
  8
0
  6
HIDDEN
 62
     7
370
     0
100
AcDbCircle
 10
90.5920602359
 20
96.7044875286
 30
0.0
 40
0.3999999999999915
100
AcDbArc
 50
255.0
 51
270.0
  0
ARC
  5
13E
330
1F
100
AcDbEntity
  8
0
  6
HIDDEN
 62
     7
370
     0
100
AcDbCircle
 10
90.5920602359
 20
113.3544875286
 30
0.0
 40
0.3999999999999915
100
AcDbArc
 50
90.0
 51
105.0
  0
LINE
  5
13F
330
1F
100
AcDbEntity
  8
0
  6
HIDDEN
 62
     7
370
     0
100
AcDbLine
 10
90.4885326178
 20
113.7408578591
 30
0.0
 11
89.6996878051
 21
113.5294875286
 31
0.0
  0
LINE
  5
140
330
1F
100
AcDbEntity
  8
0
  6
HIDDEN
 62
     7
370
     0
100
AcDbLine
 10
89.6996878051
 20
96.5294875286
 30
0.0
 11
90.4885326178
 21
96.3181171981
 31
0.0
  0
LINE
  5
141
330
1F
100
AcDbEntity
  8
0
  6
HIDDEN
 62
     7
370
     0
100
AcDbLine
 10
91.815157859
 20
96.5044875286
 30
0.0
 11
92.6956170195
 21
98.0294875286
 31
0.0
  0
LINE
  5
142
330
1F
100
AcDbEntity
  8
0
  6
HIDDEN
 62
     7
370
     0
100
AcDbLine
 10
92.6956170195
 20
112.0294875286
 30
0.0
 11
91.815157859
 21
113.5544875286
 31
0.0
  0
LINE
  5
143
330
1F
100
AcDbEntity
  8
0
  6
HIDDEN
 62
     7
370
     0
100
AcDbLine
 10
83.4996878051
 20
96.5294875286
 30
0.0
 11
89.6996878051
 21
96.5294875286
 31
0.0
  0
LINE
  5
144
330
1F
100
AcDbEntity
  8
0
  6
HIDDEN
 62
     7
370
     0
100
AcDbLine
 10
89.6996878051
 20
113.5294875286
 30
0.0
 11
83.4996878051
 21
113.5294875286
 31
0.0
  0
LINE
  5
145
330
1F
100
AcDbEntity
  8
0
  6
HIDDEN
 62
     7
370
     0
100
AcDbLine
 10
92.6956170195
 20
98.0294875286
 30
0.0
 11
129.2436634719
 21
98.0294875286
 31
0.0
  0
LINE
  5
146
330
1F
100
AcDbEntity
  8
0
  6
HIDDEN
 62
     7
370
     0
100
AcDbLine
 10
129.2436634719
 20
112.0294875286
 30
0.0
 11
92.6956170195
 21
112.0294875286
 31
0.0
  0
ARC
  5
147
330
1F
100
AcDbEntity
  8
0
  6
HIDDEN
 62
     7
370
     0
100
AcDbCircle
 10
176.4496878051
 20
80.8294875286
 30
0.0
 40
1.599999999999994
100
AcDbArc
 50
0.0
 51
90.0
  0
LINE
  5
148
330
1F
100
AcDbEntity
  8
0
  6
HIDDEN
 62
     7
370
     0
100
AcDbLine
 10
178.0496878051
 20
80.0294875286
 30
0.0
 11
178.0496878051
 21
80.8294875286
 31
0.0
  0
LINE
  5
149
330
1F
100
AcDbEntity
  8
0
  6
HIDDEN
 62
     7
370
     0
100
AcDbLine
 10
209.3762298394
 20
130.5294875286
 30
0.0
 11
193.349687805
 21
130.5294875286
 31
0.0
  0
LINE
  5
14A
330
1F
100
AcDbEntity
  8
0
  6
HIDDEN
 62
     7
370
     0
100
AcDbLine
 10
193.349687805
 20
79.5294875286
 30
0.0
 11
209.3767495396
 21
79.5294875286
 31
0.0
  0
LINE
  5
14B
330
1F
100
AcDbEntity
  8
0
  6
HIDDEN
 62
     7
370
     0
100
AcDbLine
 10
178.0496878051
 20
129.8294875286
 30
0.0
 11
178.0496878051
 21
130.0294875286
 31
0.0
  0
DIMENSION
  5
14C
330
1F
100
AcDbEntity
  8
VERMASSUNG
100
AcDbDimension
  2
_D
 10
76.3767438252
 20
136.7794875286
 30
0.0
 11
76.3767438252
 21
105.0294875286
 31
0.0
 70
   160
  1
ISO 40 %%c<>
 71
     2
 42
-1.0
  3
SLDDIMSTYLE0
100
AcDbAlignedDimension
 13
169.3996878051
 23
73.2794875286
 33
0.0
 14
169.3996878051
 24
136.7794875286
 34
0.0
 50
90.0
100
AcDbRotatedDimension
  0
DIMENSION
  5
159
330
1F
100
AcDbEntity
  8
VERMASSUNG
100
AcDbDimension
  2
_D_1
 10
209.9496878051
 20
156.6272600748
 30
0.0
 11
146.3246878051
 21
156.6272600748
 31
0.0
 70
   160
  1
(<>)
 71
     2
 42
-1.0
  3
SLDDIMSTYLE0
100
AcDbAlignedDimension
 13
82.6996878051
 23
116.4366181256
 33
0.0
 14
209.9496878051
 24
136.4294875286
 34
0.0
100
AcDbRotatedDimension
  0
DIMENSION
  5
165
330
1F
100
AcDbEntity
  8
VERMASSUNG
100
AcDbDimension
  2
_D_2
 10
209.949687805
 20
150.6272600748
 30
0.0
 11
180.4496878051
 21
150.6272600748
 31
0.0
 70
   160
  1
<>
 71
     2
 42
-1.0
  3
SLDDIMSTYLE0
100
AcDbAlignedDimension
 13
150.9496878051
 23
127.2544875286
 33
0.0
 14
209.949687805
 24
131.1035718428
 34
0.0
100
AcDbRotatedDimension
  0
DIMENSION
  5
16F
330
1F
100
AcDbEntity
  8
VERMASSUNG
100
AcDbDimension
  2
_D_3
 10
209.949687805
 20
144.6272600748
 30
0.0
 11
189.9746878051
 21
144.6272600748
 31
0.0
 70
   160
  1
(<>)
 71
     2
 42
-1.0
  3
SLDDIMSTYLE0
100
AcDbAlignedDimension
 13
169.9996878051
 23
135.0400386621
 33
0.0
 14
209.949687805
 24
131.1035718428
 34
0.0
100
AcDbRotatedDimension
  0
DIMENSION
  5
17B
330
1F
100
AcDbEntity
  8
VERMASSUNG
100
AcDbDimension
  2
_D_4
 10
219.1024315137
 20
87.0294875286
 30
0.0
 11
219.1024315137
 21
105.0294875286
 31
0.0
 70
   160
  1
%%c<>
 71
     2
 42
-1.0
  3
SLDDIMSTYLE0
100
AcDbAlignedDimension
 13
193.349687805
 23
123.0294875286
 33
0.0
 14
193.349687805
 24
87.0294875286
 34
0.0
 50
90.0
100
AcDbRotatedDimension
  0
DIMENSION
  5
186
330
1F
100
AcDbEntity
  8
VERMASSUNG
100
AcDbDimension
  2
_D_5
 10
225.1024315137
 20
73.0294875286
 30
0.0
 11
225.1024315137
 21
105.0294875286
 31
0.0
 70
   160
  1
ST6 %%c<>
 71
     2
 42
-1.0
  3
SLDDIMSTYLE0
100
AcDbAlignedDimension
 13
209.3496878051
 23
137.0294875286
 33
0.0
 14
209.3496878051
 24
73.0294875286
 34
0.0
 50
90.0
100
AcDbRotatedDimension
  0
LINE
  5
192
330
1F
100
AcDbEntity
  8
VERMASSUNG
  6
CENTERX2
 62
     7
370
     0
100
AcDbLine
 10
211.9496878051
 20
105.0294875286
 30
0.0
 11
80.6996878051
 21
105.0294875286
 31
0.0
  0
LINE
  5
193
330
1F
100
AcDbEntity
  8
0
  6
Continuous
 62
     7
370
    15
100
AcDbLine
 10
272.2256957066
 20
43.4632166719
 30
0.0
 11
272.0488902871
 21
43.5653174457
 31
0.0
  0
LINE
  5
194
330
1F
100
AcDbEntity
  8
0
  6
Continuous
 62
     7
370
    15
100
AcDbLine
 10
268.1591710586
 20
43.5653174457
 30
0.0
 11
267.9823656391
 21
43.4632166719
 31
0.0
  0
LINE
  5
195
330
1F
100
AcDbEntity
  8
0
  6
Continuous
 62
     7
370
    15
100
AcDbLine
 10
273.1040306728
 20
41.9326007174
 30
0.0
 11
273.1040306728
 21
42.2388035219
 31
0.0
  0
LINE
  5
196
330
1F
100
AcDbEntity
  8
0
  6
Continuous
 62
     7
370
    15
100
AcDbLine
 10
267.1040306728
 20
42.2388035219
 30
0.0
 11
267.1040306728
 21
41.9326007174
 31
0.0
  0
LINE
  5
197
330
1F
100
AcDbEntity
  8
0
  6
Continuous
 62
     7
370
    15
100
AcDbLine
 10
275.5682693533
 20
13.1613180994
 30
0.0
 11
275.7803669102
 21
13.2837992195
 31
0.0
  0
LINE
  5
198
330
1F
100
AcDbEntity
  8
0
  6
Continuous
 62
     7
370
    15
100
AcDbLine
 10
286.8801390565
 20
32.5112518638
 30
0.0
 11
286.8801390565
 21
32.7561742973
 31
0.0
  0
LINE
  5
199
330
1F
100
AcDbEntity
  8
0
  6
Continuous
 62
     7
370
    15
100
AcDbLine
 10
283.5657804186
 20
40.0816912008
 30
0.0
 11
275.6461844693
 21
44.6535766271
 31
0.0
  0
LINE
  5
19A
330
1F
100
AcDbEntity
  8
0
  6
Continuous
 62
     7
370
    15
100
AcDbLine
 10
259.6474847471
 20
16.9400130309
 30
0.0
 11
267.5670806964
 21
12.3681276047
 31
0.0
  0
SPLINE
  5
19B
330
1F
100
AcDbEntity
  8
0
  6
Continuous
 62
     7
370
    15
100
AcDbSpline
210
0.0
220
0.0
230
1.0
 70
     8
 71
     3
 72
    15
 73
    11
 74
     0
 42
0.000000001
 43
0.00000001
 40
0.0
 40
0.0
 40
0.0
 40
0.0
 40
0.1124954014549829
 40
0.242561266912701
 40
0.3734469123566948
 40
0.5051520901873074
 40
0.637543907557766
 40
0.7704298277868292
 40
0.9036195541246388
 40
1.0
 40
1.0
 40
1.0
 40
1.0
 10
274.134906581319
 20
45.25315064716923
 30
0.0
 10
273.9079231121803
 20
45.30392818071413
 30
0.0
 10
273.4185040147735
 20
45.41341410376569
 30
0.0
 10
272.6209080992639
 20
45.46117695302296
 30
0.0
 10
271.7573323464204
 20
45.42165748786658
 30
0.0
 10
270.8642716043027
 20
45.28004096236444
 30
0.0
 10
269.9490638557894
 20
45.04062386751354
 30
0.0
 10
269.0179650398607
 20
44.70215080599892
 30
0.0
 10
268.164543228981
 20
44.31366828592894
 30
0.0
 10
267.6238529330834
 20
44.01259953761365
 30
0.0
 10
267.3968549250376
 20
43.88620184438536
 30
0.0
  0
SPLINE
  5
19C
330
1F
100
AcDbEntity
  8
0
  6
Continuous
 62
     7
370
    15
100
AcDbSpline
210
0.0
220
0.0
230
1.0
 70
     8
 71
     3
 72
    34
 73
    30
 74
     0
 42
0.000000001
 43
0.00000001
 40
0.0
 40
0.0
 40
0.0
 40
0.0
 40
0.020073985195944
 40
0.0581061610397084
 40
0.0961256401593595
 40
0.1341251435955414
 40
0.1721029933693584
 40
0.2100603714420828
 40
0.2480001342084177
 40
0.2859260739443661
 40
0.3238424834833219
 40
0.3617539150076948
 40
0.3996650562606886
 40
0.4375797423331588
 40
0.4755021265233442
 40
0.5134370343341824
 40
0.5513892375147209
 40
0.5893633101463057
 40
0.6273633509433642
 40
0.6653924843056596
 40
0.7034520152732038
 40
0.7415400733320129
 40
0.7796495653590696
 40
0.8177608012815083
 40
0.8558401137980077
 40
0.8938418003867915
 40
0.931707069775444
 40
0.9693733640788006
 40
1.0
 40
1.0
 40
1.0
 40
1.0
 10
267.3968549250376
 20
43.88620184438536
 30
0.0
 10
267.2312725075346
 20
43.78808235977483
 30
0.0
 10
266.7519776130301
 20
43.50406568255498
 30
0.0
 10
265.9630698925625
 20
42.96753303758393
 30
0.0
 10
265.0389385676758
 20
42.25331028130138
 30
0.0
 10
264.1330829199329
 20
41.46094448175558
 30
0.0
 10
263.2513845101211
 20
40.59750844894086
 30
0.0
 10
262.399559274514
 20
39.66850923278382
 30
0.0
 10
261.5831270378009
 20
38.68035549891864
 30
0.0
 10
260.8073940126355
 20
37.63966251696458
 30
0.0
 10
260.0774226323464
 20
36.55339610784087
 30
0.0
 10
259.398001514307
 20
35.42878540308087
 30
0.0
 10
258.7736202193018
 20
34.27330101861037
 30
0.0
 10
258.2084369307741
 20
33.09460224887544
 30
0.0
 10
257.7062477781738
 20
31.90048045956609
 30
0.0
 10
257.2704622302932
 20
30.69879606703692
 30
0.0
 10
256.9040899381131
 20
29.49742916928004
 30
0.0
 10
256.6097325080406
 20
28.30423665222175
 30
0.0
 10
256.3895772763344
 20
27.1270067921809
 30
0.0
 10
256.2453949861626
 20
25.97342031570863
 30
0.0
 10
256.178541640477
 20
24.85102481527124
 30
0.0
 10
256.1899507486322
 20
23.76721525202364
 30
0.0
 10
256.2801375505599
 20
22.72930811668638
 30
0.0
 10
256.4490608915739
 20
21.74447535895322
 30
0.0
 10
256.6963139155873
 20
20.82010450517782
 30
0.0
 10
257.0198959202712
 20
19.96234942212113
 30
0.0
 10
257.4201251515892
 20
19.18117742378458
 30
0.0
 10
257.8564970338945
 20
18.51368744139258
 30
0.0
 10
258.1910892984603
 20
18.14848256011796
 30
0.0
 10
258.3411404887549
 20
17.98470284091914
 30
0.0
  0
SPLINE
  5
19D
330
1F
100
AcDbEntity
  8
0
  6
Continuous
 62
     7
370
    15
100
AcDbSpline
210
0.0
220
0.0
230
1.0
 70
     8
 71
     3
 72
    26
 73
    22
 74
     0
 42
0.000000001
 43
0.00000001
 40
0.0
 40
0.0
 40
0.0
 40
0.0
 40
0.0067361008441198
 40
0.0637648676556299
 40
0.1208467354914716
 40
0.1779517705212818
 40
0.235059552957718
 40
0.2921431379549903
 40
0.3491808120808664
 40
0.4061518843052072
 40
0.463036986155158
 40
0.5198204591095541
 40
0.5764951619198985
 40
0.6330714063456095
 40
0.6895923969947805
 40
0.7461251395221304
 40
0.802820829928944
 40
0.8599469224149102
 40
0.9178794703051564
 40
0.9769820913242998
 40
1.0
 40
1.0
 40
1.0
 40
1.0
 10
269.9793122326793
 20
26.39181333253098
 30
0.0
 10
269.9918107918311
 20
26.42713507377866
 30
0.0
 10
270.1101238914476
 20
26.76149559006924
 30
0.0
 10
270.3781703071825
 20
27.39430161893879
 30
0.0
 10
270.8072051816578
 20
28.2770712365806
 30
0.0
 10
271.2960545113872
 20
29.1360590831408
 30
0.0
 10
271.8345803917465
 20
29.960539795886
 30
0.0
 10
272.417167952163
 20
30.74037881273994
 30
0.0
 10
273.0361427314879
 20
31.46603507758555
 30
0.0
 10
273.6836593184359
 20
32.12874461669598
 30
0.0
 10
274.3512989149214
 20
32.72062676300371
 30
0.0
 10
275.0303018793818
 20
33.23483136661577
 30
0.0
 10
275.7116698067947
 20
33.6656905621452
 30
0.0
 10
276.3863777136937
 20
34.00889090348065
 30
0.0
 10
277.0454934207217
 20
34.2614949870965
 30
0.0
 10
277.680715912844
 20
34.4222784861788
 30
0.0
 10
278.2845128683248
 20
34.49084575332257
 30
0.0
 10
278.8526014137468
 20
34.47006248103349
 30
0.0
 10
279.3777036108023
 20
34.35350845688642
 30
0.0
 10
279.7693922629796
 20
34.20644163860422
 30
0.0
 10
279.9676022888079
 20
34.06576081622291
 30
0.0
 10
280.0231594106394
 20
34.0263287967994
 30
0.0
  0
LINE
  5
19E
330
1F
100
AcDbEntity
  8
0
  6
Continuous
 62
     7
370
    15
100
AcDbLine
 10
255.7581659493
 20
23.2266113951
 30
0.0
 11
256.2768208399
 21
22.9271982999
 31
0.0
  0
LINE
  5
19F
330
1F
100
AcDbEntity
  8
0
  6
Continuous
 62
     7
370
    15
100
AcDbLine
 10
268.7776066379
 20
44.5773797948
 30
0.0
 11
268.2571501072
 21
44.8778329546
 31
0.0
  0
SPLINE
  5
1A0
330
1F
100
AcDbEntity
  8
0
  6
Continuous
 62
     7
370
    15
100
AcDbSpline
210
0.0
220
0.0
230
1.0
 70
     8
 71
     3
 72
    10
 73
     6
 74
     0
 42
0.000000001
 43
0.00000001
 40
0.0
 40
0.0
 40
0.0
 40
0.0
 40
0.2596151864240375
 40
0.6822530575408859
 40
1.0
 40
1.0
 40
1.0
 40
1.0
 10
270.8269602001927
 20
18.58672052375383
 30
0.0
 10
270.7341922011904
 20
18.64521001920617
 30
0.0
 10
270.4904034928601
 20
18.79891688688227
 30
0.0
 10
270.1831768570131
 20
19.11232588852089
 30
0.0
 10
269.992852567711
 20
19.40309864047498
 30
0.0
 10
269.9111721227687
 20
19.52788800836814
 30
0.0
  0
SPLINE
  5
1A1
330
1F
100
AcDbEntity
  8
0
  6
Continuous
 62
     7
370
    15
100
AcDbSpline
210
0.0
220
0.0
230
1.0
 70
     8
 71
     3
 72
    29
 73
    25
 74
     0
 42
0.000000001
 43
0.00000001
 40
0.0
 40
0.0
 40
0.0
 40
0.0
 40
0.0451785152752325
 40
0.0908087441015959
 40
0.1366060513729027
 40
0.1825310884043065
 40
0.2285401155575977
 40
0.2745954542357677
 40
0.3206693936225051
 40
0.3667403810105418
 40
0.4127995020246547
 40
0.458843182707975
 40
0.504870856696251
 40
0.5508837798261971
 40
0.5968842609470143
 40
0.6428751899965576
 40
0.6888597638101579
 40
0.734841336828061
 40
0.7808233462237901
 40
0.8268083739573613
 40
0.8727996790290797
 40
0.9188007796873036
 40
0.9648151426130928
 40
0.9999999999999999
 40
0.9999999999999999
 40
0.9999999999999999
 40
0.9999999999999999
 10
261.7187068497326
 20
51.86649815976359
 30
0.0
 10
261.4443966455494
 20
51.87822683656199
 30
0.0
 10
260.8930335698843
 20
51.90180145833846
 30
0.0
 10
260.0258148277491
 20
51.811717041264
 30
0.0
 10
259.133359815658
 20
51.6299471991173
 30
0.0
 10
258.2203790322251
 20
51.34847788087033
 30
0.0
 10
257.294222720002
 20
50.97170714594647
 30
0.0
 10
256.3612327532514
 20
50.50168860287291
 30
0.0
 10
255.4280203017972
 20
49.94205155621485
 30
0.0
 10
254.5009959012584
 20
49.29681910840745
 30
0.0
 10
253.5864433719596
 20
48.57062032920101
 30
0.0
 10
252.6904634001016
 20
47.76853823979325
 30
0.0
 10
251.8190055723741
 20
46.89611952111363
 30
0.0
 10
250.9778495908531
 20
45.9593419346719
 30
0.0
 10
250.1725781555896
 20
44.96458378898879
 30
0.0
 10
249.4085471665442
 20
43.91858814228916
 30
0.0
 10
248.6908475507266
 20
42.82842171625801
 30
0.0
 10
248.0242924596263
 20
41.70143539599615
 30
0.0
 10
247.4133148913416
 20
40.5452075108849
 30
0.0
 10
246.8622129459773
 20
39.36755189032557
 30
0.0
 10
246.374079265821
 20
38.17622805775559
 30
0.0
 10
245.9546671120708
 20
36.97975631608007
 30
0.0
 10
245.6258830440603
 20
35.87803707813382
 30
0.0
 10
245.4673213343163
 20
35.18346644235066
 30
0.0
 10
245.3986141333989
 20
34.88249841986162
 30
0.0
  0
SPLINE
  5
1A2
330
1F
100
AcDbEntity
  8
0
  6
Continuous
 62
     7
370
    15
100
AcDbSpline
210
0.0
220
0.0
230
1.0
 70
     8
 71
     3
 72
    10
 73
     6
 74
     0
 42
0.000000001
 43
0.00000001
 40
0.0
 40
0.0
 40
0.0
 40
0.0
 40
0.1886025468979287
 40
0.995261944416088
 40
0.9999999999999999
 40
0.9999999999999999
 40
0.9999999999999999
 40
0.9999999999999999
 10
262.700490314461
 20
51.7089918027805
 30
0.0
 10
262.6408270986799
 20
51.72396695520079
 30
0.0
 10
262.3259823146356
 20
51.80299133509851
 30
0.0
 10
261.9992494091672
 20
51.86166669974151
 30
0.0
 10
261.7203355329918
 20
51.86647011083557
 30
0.0
 10
261.7187068497326
 20
51.86649815976359
 30
0.0
  0
LINE
  5
1A3
330
1F
100
AcDbEntity
  8
0
  6
Continuous
 62
     7
370
    15
100
AcDbLine
 10
255.165149497
 20
49.7441128136
 30
0.0
 11
233.8541805932
 21
57.4237412689
 31
0.0
  0
LINE
  5
1A4
330
1F
100
AcDbEntity
  8
0
  6
Continuous
 62
     7
370
    15
100
AcDbLine
 10
227.689398844
 20
46.7448689838
 30
0.0
 11
247.9856360092
 21
29.6068941081
 31
0.0
  0
SPLINE
  5
1A5
330
1F
100
AcDbEntity
  8
0
  6
Continuous
 62
     7
370
    15
100
AcDbSpline
210
0.0
220
0.0
230
1.0
 70
     8
 71
     3
 72
     9
 73
     5
 74
     0
 42
0.000000001
 43
0.00000001
 40
0.0
 40
0.0
 40
0.0
 40
0.0
 40
0.2443247050750231
 40
1.0
 40
1.0
 40
1.0
 40
1.0
 10
256.4291660201009
 20
19.86856824826707
 30
0.0
 10
256.480055228416
 20
19.86523486063836
 30
0.0
 10
256.6883403803392
 20
19.85159159182653
 30
0.0
 10
256.9080724014018
 20
19.87549786767567
 30
0.0
 10
257.0741184612227
 20
19.89356324972854
 30
0.0
  0
LINE
  5
1A6
330
1F
100
AcDbEntity
  8
0
  6
Continuous
 62
     7
370
    15
100
AcDbLine
 10
252.151657528
 20
21.411595634
 30
0.0
 11
253.505117663
 21
20.6302597293
 31
0.0
  0
LINE
  5
1A7
330
1F
100
AcDbEntity
  8
0
  6
Continuous
 62
     7
370
    15
100
AcDbLine
 10
248.3255604908
 20
23.6203544388
 30
0.0
 11
249.6613429562
 21
22.8492236355
 31
0.0
  0
SPLINE
  5
1A8
330
1F
100
AcDbEntity
  8
0
  6
Continuous
 62
     7
370
    15
100
AcDbSpline
210
0.0
220
0.0
230
1.0
 70
     8
 71
     3
 72
    11
 73
     7
 74
     0
 42
0.000000001
 43
0.00000001
 40
0.0
 40
0.0
 40
0.0
 40
0.0
 40
0.1393333884295723
 40
0.5605932372651522
 40
0.9811736202611644
 40
1.0
 40
1.0
 40
1.0
 40
1.0
 10
245.4056975001958
 20
27.61766384684219
 30
0.0
 10
245.4346166752552
 20
27.51932700636918
 30
0.0
 10
245.5509699352189
 20
27.12367906896864
 30
0.0
 10
245.8148731207387
 20
26.48556999329571
 30
0.0
 10
246.0696433204863
 20
25.94646023973621
 30
0.0
 10
246.2339666668196
 20
25.70944651142445
 30
0.0
 10
246.2410070994674
 20
25.69929165985879
 30
0.0
  0
SPLINE
  5
1A9
330
1F
100
AcDbEntity
  8
0
  6
Continuous
 62
     7
370
    15
100
AcDbSpline
210
0.0
220
0.0
230
1.0
 70
     8
 71
     3
 72
    10
 73
     6
 74
     0
 42
0.000000001
 43
0.00000001
 40
0.0
 40
0.0
 40
0.0
 40
0.0
 40
0.3279096349309917
 40
0.7262845921864852
 40
1.0
 40
1.0
 40
1.0
 40
1.0
 10
271.8055523464173
 20
45.40733061070043
 30
0.0
 10
271.6995693302366
 20
45.61859606601052
 30
0.0
 10
271.4648283422148
 20
46.0865263391947
 30
0.0
 10
271.0705330469602
 20
46.65579436180408
 30
0.0
 10
270.7647517367626
 20
46.98639497520637
 30
0.0
 10
270.6402192923586
 20
47.12103532481399
 30
0.0
  0
SPLINE
  5
1AA
330
1F
100
AcDbEntity
  8
0
  6
Continuous
 62
     7
370
    15
100
AcDbSpline
210
0.0
220
0.0
230
1.0
 70
     8
 71
     3
 72
    24
 73
    20
 74
     0
 42
0.000000001
 43
0.00000001
 40
0.0
 40
0.0
 40
0.0
 40
0.0
 40
0.0540767813882904
 40
0.1110217421624768
 40
0.1691236788875005
 40
0.2284693135607884
 40
0.2887225267503842
 40
0.3494260304692645
 40
0.4102104481186656
 40
0.4709049687375138
 40
0.5314826100685369
 40
0.5919645374001158
 40
0.6523923507452891
 40
0.7128156922678405
 40
0.773278294527913
 40
0.8338264559823418
 40
0.8945149376243392
 40
0.9553935366151395
 40
1.0
 40
1.0
 40
1.0
 40
1.0
 10
233.783617131677
 20
57.44580318452162
 30
0.0
 10
233.62484150283
 20
57.48873939683409
 30
0.0
 10
233.2988689416865
 20
57.57688911600027
 30
0.0
 10
232.7646548829244
 20
57.58644404279063
 30
0.0
 10
232.1999697521171
 20
57.5058657456108
 30
0.0
 10
231.6145184666871
 20
57.32459264265352
 30
0.0
 10
231.0188754932819
 20
57.04695502346451
 30
0.0
 10
230.4242781300925
 20
56.67695394167076
 30
0.0
 10
229.8424851673599
 20
56.22245003192378
 30
0.0
 10
229.28406526379
 20
55.69268975193531
 30
0.0
 10
228.7583592531841
 20
55.09772145912832
 30
0.0
 10
228.2738052802846
 20
54.44809398517502
 30
0.0
 10
227.8382059190619
 20
53.75493957538885
 30
0.0
 10
227.4586771922312
 20
53.02988945850581
 30
0.0
 10
227.1417603111633
 20
52.28502834766393
 30
0.0
 10
226.8926057524904
 20
51.53231304892536
 30
0.0
 10
226.7176577604472
 20
50.7846599715694
 30
0.0
 10
226.623868731358
 20
50.11707922598181
 30
0.0
 10
226.6137122153635
 20
49.71298853777218
 30
0.0
 10
226.6094173299208
 20
49.54211072738045
 30
0.0
  0
SPLINE
  5
1AB
330
1F
100
AcDbEntity
  8
0
  6
Continuous
 62
     7
370
    15
100
AcDbSpline
210
0.0
220
0.0
230
1.0
 70
     8
 71
     3
 72
    13
 73
     9
 74
     0
 42
0.000000001
 43
0.00000001
 40
0.0
 40
0.0
 40
0.0
 40
0.0
 40
0.1028639574128846
 40
0.29737648719775
 40
0.4918969528157759
 40
0.6846708723222166
 40
0.873841521660429
 40
1.0
 40
1.0
 40
1.0
 40
1.0
 10
226.6094173299208
 20
49.54211072738045
 30
0.0
 10
226.6117276662338
 20
49.42057916407039
 30
0.0
 10
226.6184067763351
 20
49.06923521143855
 30
0.0
 10
226.6933564957644
 20
48.52092139450688
 30
0.0
 10
226.8616208251532
 20
47.92371801188806
 30
0.0
 10
227.1167317122217
 20
47.39982291467504
 30
0.0
 10
227.4058940193055
 20
46.99214049487727
 30
0.0
 10
227.6380077051171
 20
46.80224183553307
 30
0.0
 10
227.7308729269868
 20
46.72626621577977
 30
0.0
  0
LWPOLYLINE
  5
1AC
330
1F
100
AcDbEntity
  8
0
  6
Continuous
 62
     7
370
    15
100
AcDbPolyline
 90
       31
 70
   128
 43
0.0
 10
268.1594870246
 20
41.3203775711
 10
267.797686611
 20
41.5783018131
 10
267.5366845
 20
41.8740148372
 10
267.3878877362
 20
42.1945925652
 10
267.3577994522
 20
42.5260242121
 10
267.4477346505
 20
42.8538246244
 10
267.6537627313
 20
43.1636673513
 10
267.9668792788
 20
43.4420107788
 10
268.3733995974
 20
43.6766899635
 10
268.8555567985
 20
43.8574482988
 10
269.3922782988
 20
43.9763857782
 10
269.9601067932
 20
44.028304263
 10
270.5342254517
 20
44.0109346664
 10
271.0895425341
 20
43.9250361231
 10
271.6017880191
 20
43.7743628116
 10
272.0485743211
 20
43.5654998786
 10
272.4103747347
 20
43.3075756365
 10
272.6713768457
 20
43.0118626125
 10
272.8201736095
 20
42.6912848845
 10
272.8502618934
 20
42.3598532376
 10
272.7603266951
 20
42.0320528253
 10
272.5542986143
 20
41.7222100984
 10
272.2411820668
 20
41.4438666709
 10
271.8346617482
 20
41.2091874862
 10
271.3525045471
 20
41.0284291509
 10
270.8157830469
 20
40.9094916715
 10
270.2479545525
 20
40.8575731867
 10
269.673835894
 20
40.8749427833
 10
269.1185188116
 20
40.9608413266
 10
268.6062733265
 20
41.1115146381
 10
268.1594870246
 20
41.3203775711
  0
ARC
  5
1AD
330
1F
100
AcDbEntity
  8
0
  6
Continuous
 62
     7
370
    15
100
AcDbCircle
 10
268.4510171354
 20
42.2387699495
 30
0.0
 40
1.311069792532507
100
AcDbArc
 50
110.944123305
 51
249.0720049829
  0
LWPOLYLINE
  5
1AE
330
1F
100
AcDbEntity
  8
0
  6
Continuous
 62
     7
370
    15
100
AcDbPolyline
 90
       17
 70
   128
 43
0.0
 10
272.2256957066
 20
43.4632166719
 10
272.4290776273
 20
43.3332406425
 10
272.7631107709
 20
43.040650342
 10
272.9882808629
 20
42.7152323385
 10
273.0953694132
 20
42.3703092832
 10
273.079992204
 20
42.0200023666
 10
272.94277878
 20
41.6786531951
 10
272.6893466751
 20
41.3602366437
 10
272.3300714292
 20
41.0777887235
 10
271.8796618132
 20
40.8428728856
 10
271.3565576497
 20
40.665106612
 10
270.7821748846
 20
40.5517676747
 10
270.1800288158
 20
40.5074961833
 10
269.574771374
 20
40.5341046177
 10
268.9911818702
 20
40.6305036255
 10
268.4531525271
 20
40.7927466201
 10
267.9827103293
 20
41.0141913541
  0
LWPOLYLINE
  5
1AF
330
1F
100
AcDbEntity
  8
0
  6
Continuous
 62
     7
370
    15
100
AcDbPolyline
 90
       24
 70
   128
 43
0.0
 10
268.8665938057
 20
41.728581627
 10
268.5786248503
 20
41.9478031644
 10
268.4037882664
 20
42.2037466413
 10
268.3550508837
 20
42.4774299008
 10
268.4360273309
 20
42.7485551075
 10
268.6407119554
 20
42.9970141452
 10
268.9539242349
 20
43.2043799438
 10
269.3524346475
 20
43.3552731305
 10
269.806687499
 20
43.4385026479
 10
270.2829929335
 20
43.4478957436
 10
270.7460255557
 20
43.3827557746
 10
271.1614443545
 20
43.2479138744
 10
271.4984396178
 20
43.0533706499
 10
271.7320179487
 20
42.813554482
 10
271.8448559108
 20
42.5462514388
 10
271.8285848288
 20
42.2712861643
 10
271.6844114544
 20
42.009051575
 10
271.4230284671
 20
41.7789964106
 10
271.0638214475
 20
41.5981828104
 10
270.6334311369
 20
41.4800208918
 10
270.1637776156
 20
41.4332741839
 10
269.689692937
 20
41.461409676
 10
269.2463377928
 20
41.5623406875
 10
268.8665938057
 20
41.728581627
  0
SPLINE
  5
1B0
330
1F
100
AcDbEntity
  8
0
  6
Continuous
 62
     7
370
    15
100
AcDbSpline
210
0.0
220
0.0
230
1.0
 70
     8
 71
     3
 72
     9
 73
     5
 74
     0
 42
0.000000001
 43
0.00000001
 40
0.0
 40
0.0
 40
0.0
 40
0.0
 40
0.631177599967678
 40
1.0
 40
1.0
 40
1.0
 40
1.0
 10
269.0435390192154
 20
41.63102054472716
 30
0.0
 10
268.9085711750629
 20
41.72395547590293
 30
0.0
 10
268.6947362034805
 20
41.87119601672781
 30
0.0
 10
268.5020609973105
 20
42.08911724480731
 30
0.0
 10
268.4309980653442
 20
42.16949147516559
 30
0.0
  0
SPLINE
  5
1B1
330
1F
100
AcDbEntity
  8
0
  6
Continuous
 62
     7
370
    15
100
AcDbSpline
210
0.0
220
0.0
230
1.0
 70
     8
 71
     3
 72
    11
 73
     7
 74
     0
 42
0.000000001
 43
0.00000001
 40
0.0
 40
0.0
 40
0.0
 40
0.0
 40
0.2164553779443424
 40
0.4403112895790517
 40
0.7519005688038665
 40
1.0
 40
1.0
 40
1.0
 40
1.0
 10
271.7770632802955
 20
42.6870734782055
 30
0.0
 10
271.7463551360232
 20
42.57655187724279
 30
0.0
 10
271.6838889467627
 20
42.35172998042329
 30
0.0
 10
271.5679683831794
 20
42.02676731717639
 30
0.0
 10
271.4436227850219
 20
41.80421782484393
 30
0.0
 10
271.3640490691019
 20
41.74673386524421
 30
0.0
 10
271.3287755442114
 20
41.72125231199139
 30
0.0
  0
SPLINE
  5
1B2
330
1F
100
AcDbEntity
  8
0
  6
Continuous
 62
     7
370
    15
100
AcDbSpline
210
0.0
220
0.0
230
1.0
 70
     8
 71
     3
 72
    11
 73
     7
 74
     0
 42
0.000000001
 43
0.00000001
 40
0.0
 40
0.0
 40
0.0
 40
0.0
 40
0.1843643438496206
 40
0.517452639174024
 40
0.866335207912594
 40
1.0
 40
1.0
 40
1.0
 40
1.0
 10
270.5523184089039
 20
43.39410364289964
 30
0.0
 10
270.6233886710571
 20
43.31496973033649
 30
0.0
 10
270.82286051008
 20
43.09286576462949
 30
0.0
 10
271.194494320094
 20
42.79874330688001
 30
0.0
 10
271.5405254926163
 20
42.6944175160996
 30
0.0
 10
271.7257550189094
 20
42.68866649985162
 30
0.0
 10
271.7770632802955
 20
42.6870734782055
 30
0.0
  0
SPLINE
  5
1B3
330
1F
100
AcDbEntity
  8
0
  6
Continuous
 62
     7
370
    15
100
AcDbSpline
210
0.0
220
0.0
230
1.0
 70
     8
 71
     3
 72
    11
 73
     7
 74
     0
 42
0.000000001
 43
0.00000001
 40
0.0
 40
0.0
 40
0.0
 40
0.0
 40
0.2164553779443429
 40
0.4403112895790531
 40
0.751900568803868
 40
1.0
 40
1.0
 40
1.0
 40
1.0
 10
268.8792858014283
 20
43.13531264137969
 30
0.0
 10
268.9938901560586
 20
43.10867816044595
 30
0.0
 10
269.2270171481339
 20
43.05449857498783
 30
0.0
 10
269.6596385810688
 20
43.04620246589376
 30
0.0
 10
270.1237026710903
 20
43.16333465621912
 30
0.0
 10
270.4206758218508
 20
43.32322657577839
 30
0.0
 10
270.5523184089039
 20
43.39410364289964
 30
0.0
  0
SPLINE
  5
1B4
330
1F
100
AcDbEntity
  8
0
  6
Continuous
 62
     7
370
    15
100
AcDbSpline
210
0.0
220
0.0
230
1.0
 70
     8
 71
     3
 72
    11
 73
     7
 74
     0
 42
0.000000001
 43
0.00000001
 40
0.0
 40
0.0
 40
0.0
 40
0.0
 40
0.2164553779443428
 40
0.4403112895790515
 40
0.7519005688038668
 40
1.0
 40
1.0
 40
1.0
 40
1.0
 10
268.4309980653443
 20
42.16949147516559
 30
0.0
 10
268.4617062096165
 20
42.1912892455621
 30
0.0
 10
268.524172398877
 20
42.23563004450362
 30
0.0
 10
268.6400929624603
 20
42.41016145569304
 30
0.0
 10
268.7644385606178
 20
42.72340895693967
 30
0.0
 10
268.8440122765379
 20
43.00880289884673
 30
0.0
 10
268.8792858014283
 20
43.13531264137969
 30
0.0
  0
LINE
  5
1B5
330
1F
100
AcDbEntity
  8
0
  6
Continuous
 62
     7
370
    15
100
AcDbLine
 10
268.8792858014
 20
41.7213290847
 30
0.0
 11
268.8792858014
 21
43.1353126414
 31
0.0
  0
LINE
  5
1B6
330
1F
100
AcDbEntity
  8
0
  6
Continuous
 62
     7
370
    15
100
AcDbLine
 10
270.5523184089
 20
41.4663941309
 30
0.0
 11
270.5523184089
 21
43.3941036429
 31
0.0
  0
LWPOLYLINE
  5
1B7
330
1F
100
AcDbEntity
  8
0
  6
Continuous
 62
     7
370
    15
100
AcDbPolyline
 90
       72
 70
   128
 43
0.0
 10
275.7785625918
 20
38.9221389326
 10
274.7974041027
 20
38.3055624624
 10
273.823924509
 20
37.5934800773
 10
272.8657426086
 20
36.7914647876
 10
271.9303574738
 20
35.9057934503
 10
271.0250897617
 20
34.9433976445
 10
270.1570244195
 20
33.9118094221
 10
269.3329552355
 20
32.8191023597
 10
268.5593316682
 20
31.6738283716
 10
267.8422083712
 20
30.4849507797
 10
267.1871978064
 20
29.2617741629
 10
266.5994263197
 20
28.0138715367
 10
266.0834940199
 20
26.7510094313
 10
265.6434387767
 20
25.4830714547
 10
265.282704619
 20
24.2199809409
 10
265.0041147808
 20
22.9716232856
 10
264.8098496053
 20
21.7477685801
 10
264.7014294808
 20
20.5579951467
 10
264.6797029418
 20
19.4116145759
 10
264.744840028
 20
18.3175988498
 10
264.8963309533
 20
17.2845101249
 10
265.1329900959
 20
16.3204337211
 10
265.452965277
 20
15.4329148434
 10
265.8537522571
 20
14.6288995304
 10
266.3322143346
 20
13.9146802921
 10
266.8846068951
 20
13.2958468623
 10
267.5066067178
 20
12.7772424517
 10
268.1933458107
 20
12.362925843
 10
268.9394495093
 20
12.0561396253
 10
269.7390785407
 20
11.8592848168
 10
270.5859747233
 20
11.7739020733
 10
271.4735099464
 20
11.8006596305
 10
272.3947380435
 20
11.9393480741
 10
273.3424491556
 20
12.1888819792
 10
274.3092261583
 20
12.5473084046
 10
275.2875027109
 20
13.0118221775
 10
276.2696224728
 20
13.5787878479
 10
277.2478990253
 20
14.2437681406
 10
278.2146760281
 20
15.0015586832
 10
279.1623871402
 20
15.8462287374
 10
280.0836152373
 20
16.7711676146
 10
280.9711504604
 20
17.7691364141
 10
281.818046643
 20
18.832324677
 10
282.6176756744
 20
19.9524115135
 10
283.363779373
 20
21.1206307255
 10
284.0505184659
 20
22.3278394137
 10
284.6725182886
 20
23.5645895334
 10
285.224910849
 20
24.821201838
 10
285.7033729266
 20
26.0878416325
 10
286.1041599067
 20
27.354595743
 10
286.4241350878
 20
28.6115501011
 10
286.6607942304
 20
29.8488673349
 10
286.8122851557
 20
31.0568637592
 10
286.8774222419
 20
32.2260851641
 10
286.8556957029
 20
33.347380807
 10
286.7472755784
 20
34.4119750291
 10
286.5530104029
 20
35.4115359372
 10
286.2744205647
 20
36.3382406119
 10
285.913686407
 20
37.1848363327
 10
285.4736311638
 20
37.9446973401
 10
284.957698864
 20
38.6118766916
 10
284.3699273772
 20
39.1811528042
 10
283.7149168125
 20
39.6480703203
 10
282.9977935154
 20
40.0089749774
 10
282.2241699482
 20
40.2610422072
 10
281.4001007642
 20
40.4022992419
 10
280.532035422
 20
40.4316405536
 10
279.6267677099
 20
40.3488365068
 10
278.6913825751
 20
40.1545351553
 10
277.7332006746
 20
39.8502571709
 10
276.759721081
 20
39.4383839411
 10
275.7785625918
 20
38.9221389326
  0
LWPOLYLINE
  5
1B8
330
1F
100
AcDbEntity
  8
0
  6
Continuous
 62
     7
370
    15
100
AcDbPolyline
 90
       38
 70
   128
 43
0.0
 10
275.5664305575
 20
39.2895623929
 10
274.58037589
 20
38.670610201
 10
273.601825694
 20
37.9569387111
 10
272.6382273272
 20
37.1539793941
 10
271.6969143551
 20
36.2678432554
 10
270.7850507378
 20
35.305274326
 10
269.909576308
 20
34.2735983366
 10
269.0771539547
 20
33.1806669645
 10
268.2941189147
 20
32.0347980773
 10
267.5664305575
 20
30.8447124293
 10
266.8996270308
 20
29.6194672907
 10
266.2987831121
 20
28.3683875168
 10
265.7684715864
 20
27.1009945803
 10
265.3127284446
 20
25.8269341066
 10
264.9350221673
 20
24.5559024651
 10
264.6382273272
 20
23.2975729743
 10
264.4246027124
 20
22.0615222812
 10
264.295774135
 20
20.857157478
 10
264.2527220585
 20
19.6936445082
 10
264.295774135
 20
18.5798384078
 10
264.4246027124
 20
17.524215914
 10
264.6382273272
 20
16.5348109512
 10
264.9350221673
 20
15.6191534887
 10
265.3127284446
 20
14.7842122326
 10
265.7684715864
 20
14.0363415901
 10
266.2987831121
 20
13.3812333083
 10
266.8996270308
 20
12.8238731568
 10
267.5664305575
 20
12.3685029829
 10
268.2941189147
 20
12.0185884285
 10
269.0771539547
 20
11.7767925548
 10
269.909576308
 20
11.6449555744
 10
270.7850507378
 20
11.6240808461
 10
271.6969143551
 20
11.7143272394
 10
272.6382273272
 20
11.9150079247
 10
273.601825694
 20
12.2245956008
 10
274.58037589
 20
12.6407341186
 10
275.5664305575
 20
13.1602564126
 10
275.5682693533
 20
13.1613180994
  0
LWPOLYLINE
  5
1B9
330
1F
100
AcDbEntity
  8
0
  6
Continuous
 62
     7
370
    15
100
AcDbPolyline
 90
       19
 70
   128
 43
0.0
 10
286.8801390565
 20
32.7561742973
 10
286.8370869799
 20
33.8699803977
 10
286.7082584026
 20
34.9256028915
 10
286.4946337878
 20
35.9150078543
 10
286.1978389477
 20
36.8306653168
 10
285.8201326704
 20
37.6656065729
 10
285.3643895286
 20
38.4134772154
 10
284.8340780029
 20
39.0685854972
 10
284.2332340842
 20
39.6259456487
 10
283.5664305575
 20
40.0813158226
 10
282.8387422002
 20
40.431230377
 10
282.0557071602
 20
40.6730262507
 10
281.223284807
 20
40.8048632312
 10
280.3478103772
 20
40.8257379594
 10
279.4359467599
 20
40.7354915661
 10
278.4946337878
 20
40.5348108808
 10
277.531035421
 20
40.2252232047
 10
276.5524852249
 20
39.8090846869
 10
275.5664305575
 20
39.2895623929
  0
ARC
  5
1BA
330
1F
100
AcDbEntity
  8
0
  6
Continuous
 62
     7
370
    15
100
AcDbCircle
 10
262.3906769156
 20
21.6739750154
 30
0.0
 40
5.47133432938849
100
AcDbArc
 50
223.3266339014
 51
239.9089657349
  0
ARC
  5
1BB
330
1F
100
AcDbEntity
  8
0
  6
Continuous
 62
     7
370
    15
100
AcDbCircle
 10
272.9231975355
 20
39.9214668551
 30
0.0
 40
5.459626428178246
100
AcDbArc
 50
60.0826860898
 51
76.2316190623
  0
SPLINE
  5
1BC
330
1F
100
AcDbEntity
  8
0
  6
Continuous
 62
     7
370
    15
100
AcDbSpline
210
0.0
220
0.0
230
1.0
 70
     8
 71
     3
 72
    72
 73
    68
 74
     0
 42
0.000000001
 43
0.00000001
 40
0.0
 40
0.0
 40
0.0
 40
0.0
 40
0.0312500000000004
 40
0.0312500000000004
 40
0.0625000000000009
 40
0.0625000000000009
 40
0.0937500000000013
 40
0.0937500000000013
 40
0.1250000000000018
 40
0.1250000000000018
 40
0.1562500000000023
 40
0.1562500000000023
 40
0.1875000000000027
 40
0.1875000000000027
 40
0.2187500000000032
 40
0.2187500000000032
 40
0.2500000000000037
 40
0.2500000000000037
 40
0.2812500000000041
 40
0.2812500000000041
 40
0.2968750000000043
 40
0.2968750000000043
 40
0.3125000000000046
 40
0.3125000000000046
 40
0.3437500000000046
 40
0.3437500000000046
 40
0.3750000000000045
 40
0.3750000000000045
 40
0.4062500000000045
 40
0.4062500000000045
 40
0.4375000000000045
 40
0.4375000000000045
 40
0.4687500000000045
 40
0.4687500000000045
 40
0.4843750000000044
 40
0.4843750000000044
 40
0.5000000000000043
 40
0.5000000000000043
 40
0.5312500000000043
 40
0.5312500000000043
 40
0.5625000000000042
 40
0.5625000000000042
 40
0.5937500000000041
 40
0.5937500000000041
 40
0.625000000000004
 40
0.625000000000004
 40
0.6562500000000039
 40
0.6562500000000039
 40
0.6875000000000038
 40
0.6875000000000038
 40
0.750000000000003
 40
0.750000000000003
 40
0.8125000000000023
 40
0.8125000000000023
 40
0.8750000000000017
 40
0.8750000000000017
 40
0.8906250000000014
 40
0.8906250000000014
 40
0.9062500000000012
 40
0.9062500000000012
 40
0.9375000000000008
 40
0.9375000000000008
 40
0.9531250000000006
 40
0.9531250000000006
 40
0.9687500000000003
 40
0.9687500000000003
 40
1.0
 40
1.0
 40
1.0
 40
1.0
 10
268.3059043301508
 20
44.2197341323687
 30
0.0
 10
268.4905163619106
 20
44.26422352253308
 30
0.0
 10
268.6870300218812
 20
44.29541507345492
 30
0.0
 10
269.0848379542292
 20
44.33087978625156
 30
0.0
 10
269.2880092726988
 20
44.33575113664468
 30
0.0
 10
269.7027969866241
 20
44.32196386978639
 30
0.0
 10
269.9102727161212
 20
44.30342089643427
 30
0.0
 10
270.3238171675173
 20
44.24602442669489
 30
0.0
 10
270.5265102128067
 20
44.20762625417326
 30
0.0
 10
270.9214827358365
 20
44.11502290194665
 30
0.0
 10
271.1143031574218
 20
44.06072043311885
 30
0.0
 10
271.4907137083541
 20
43.93727148827215
 30
0.0
 10
271.6714125049281
 20
43.86897852708695
 30
0.0
 10
272.0124551960185
 20
43.72295832591759
 30
0.0
 10
272.1738233613756
 20
43.64489213915083
 30
0.0
 10
272.4778786094577
 20
43.47879670129489
 30
0.0
 10
272.6185204833847
 20
43.39174955830887
 30
0.0
 10
272.8720643865161
 20
43.21318866942111
 30
0.0
 10
272.985929168228
 20
43.12116113210379
 30
0.0
 10
273.1366745775106
 20
42.97836315407886
 30
0.0
 10
273.183697382291
 20
42.9297786851432
 30
0.0
 10
273.2692599400997
 20
42.83252367393437
 30
0.0
 10
273.30799679329
 20
42.7836958343462
 30
0.0
 10
273.4121911830521
 20
42.63639200218665
 30
0.0
 10
273.4657339644345
 20
42.53711649422104
 30
0.0
 10
273.5392992724434
 20
42.33483496777013
 30
0.0
 10
273.5589014333098
 20
42.2315694266672
 30
0.0
 10
273.5608607717039
 20
42.02797619350494
 30
0.0
 10
273.5437642385054
 20
41.92660289848442
 30
0.0
 10
273.4708703017022
 20
41.72309694737913
 30
0.0
 10
273.414192264224
 20
41.62044173373157
 30
0.0
 10
273.2644995863812
 20
41.422780129874
 30
0.0
 10
273.1712989789298
 20
41.32656166129975
 30
0.0
 10
273.0021995597423
 20
41.18567989873253
 30
0.0
 10
272.9405033227928
 20
41.13904984565374
 30
0.0
 10
272.8098847068206
 20
41.04913489695197
 30
0.0
 10
272.7407800118498
 20
41.0056441265672
 30
0.0
 10
272.5223033338337
 20
40.87945507946178
 30
0.0
 10
272.3610466535692
 20
40.80064638109615
 30
0.0
 10
272.0112661441616
 20
40.65653541172789
 30
0.0
 10
271.8274605713751
 20
40.59306002825418
 30
0.0
 10
271.443156268478
 20
40.48298358733788
 30
0.0
 10
271.2409405742021
 20
40.43623509923819
 30
0.0
 10
270.835175005767
 20
40.36385625701897
 30
0.0
 10
270.6301723381359
 20
40.33765261224955
 30
0.0
 10
270.2159226689083
 20
40.30592998594502
 30
0.0
 10
270.0091933333738
 20
40.30076241798636
 30
0.0
 10
269.6049007500668
 20
40.31200612176281
 30
0.0
 10
269.405665755299
 20
40.32834611130908
 30
0.0
 10
268.819064845739
 20
40.41124383770345
 30
0.0
 10
268.4592299498283
 20
40.50861961550525
 30
0.0
 10
267.8042651298213
 20
40.78985828079761
 30
0.0
 10
267.5243809375111
 20
40.96699520762568
 30
0.0
 10
267.0602876852008
 20
41.39367909091772
 30
0.0
 10
266.8876221566107
 20
41.63280175084326
 30
0.0
 10
266.7503665176269
 20
41.95806487893582
 30
0.0
 10
266.7269961986428
 20
42.02446392597641
 30
0.0
 10
266.6893610252368
 20
42.15726091839887
 30
0.0
 10
266.6749467270025
 20
42.22398175498709
 30
0.0
 10
266.6449501423676
 20
42.42485213376729
 30
0.0
 10
266.6424847053992
 20
42.55971083364207
 30
0.0
 10
266.6673375002352
 20
42.76241172866157
 30
0.0
 10
266.6805288065128
 20
42.83029579584031
 30
0.0
 10
266.7162943561376
 20
42.96298676059614
 30
0.0
 10
266.7388736446771
 20
43.02813271156429
 30
0.0
 10
266.820753194439
 20
43.21971147175281
 30
0.0
 10
266.8940516934854
 20
43.34231913984757
 30
0.0
 10
266.9877648862537
 20
43.45878842859546
 30
0.0
  0
LINE
  5
1BD
330
1F
100
AcDbEntity
  8
0
  6
Continuous
 62
     7
370
    15
100
AcDbLine
 10
281.7885319126
 20
26.1066264732
 30
0.0
 11
283.963323584
 21
28.8120466372
 31
0.0
  0
SPLINE
  5
1BE
330
1F
100
AcDbEntity
  8
0
  6
Continuous
 62
     7
370
    15
100
AcDbSpline
210
0.0
220
0.0
230
1.0
 70
     8
 71
     3
 72
    20
 73
    16
 74
     0
 42
0.000000001
 43
0.00000001
 40
0.0
 40
0.0
 40
0.0
 40
0.0
 40
0.0469163091108923
 40
0.0977062414429336
 40
0.1516689633031498
 40
0.207846338321852
 40
0.2651938476233404
 40
0.3192095203174468
 40
0.372895306812377
 40
0.4259306594990976
 40
0.4781535685998834
 40
0.5793596734499727
 40
0.6698058354121763
 40
0.8327057026614966
 40
0.9074992363786953
 40
0.9074992363786953
 40
0.9074992363786953
 40
0.9074992363786953
 10
283.9633235840366
 20
28.81204663717013
 30
0.0
 10
284.0636549283759
 20
28.93685787569605
 30
0.0
 10
284.2627076154081
 20
29.21235992132722
 30
0.0
 10
284.5286667387576
 20
29.67192924300096
 30
0.0
 10
284.755080943082
 20
30.18197130153744
 30
0.0
 10
284.9201080216921
 20
30.71850724572234
 30
0.0
 10
285.0030427659843
 20
31.23956395847783
 30
0.0
 10
284.9980051081923
 20
31.71331106700092
 30
0.0
 10
284.9092716344725
 20
32.1159883281394
 30
0.0
 10
284.7420006848102
 20
32.43601707396081
 30
0.0
 10
284.4394193989656
 20
32.74332351129422
 30
0.0
 10
283.9384075217335
 20
32.8615934517963
 30
0.0
 10
283.2264689472007
 20
32.90048934396038
 30
0.0
 10
282.7257741489349
 20
32.95394611870409
 30
0.0
 10
282.0210602054922
 20
33.01718413676467
 30
0.0
 10
281.7881574989781
 20
33.03788239851192
 30
0.0
  0
SPLINE
  5
1BF
330
1F
100
AcDbEntity
  8
0
  6
Continuous
 62
     7
370
    15
100
AcDbSpline
210
0.0
220
0.0
230
1.0
 70
     8
 71
     3
 72
    20
 73
    16
 74
     0
 42
0.000000001
 43
0.00000001
 40
0.0
 40
0.0
 40
0.0
 40
0.0
 40
0.0469163091108923
 40
0.0977062414429336
 40
0.1516689633031497
 40
0.2078463383218518
 40
0.2651938476233403
 40
0.3192095203174467
 40
0.3728953068123768
 40
0.4259306594990975
 40
0.4781535685998833
 40
0.5793596734499726
 40
0.6698058354121761
 40
0.8327057026614962
 40
0.9074992363786957
 40
0.9074992363786957
 40
0.9074992363786957
 40
0.9074992363786957
 10
267.5938015995668
 20
19.36212274282164
 30
0.0
 10
267.4934702552275
 20
19.37109387689932
 30
0.0
 10
267.2944175681953
 20
19.41677458196792
 30
0.0
 10
267.0284584448458
 20
19.56927403598819
 30
0.0
 10
266.8020442405214
 20
19.81790381852849
 30
0.0
 10
266.6370171619113
 20
20.16390355342748
 30
0.0
 10
266.5540824176192
 20
20.58920584861329
 30
0.0
 10
266.559120075411
 20
21.06876931301831
 30
0.0
 10
266.647853549131
 20
21.57389606221509
 30
0.0
 10
266.8151244987932
 20
22.08705173569431
 30
0.0
 10
267.1177057846377
 20
22.74371108947789
 30
0.0
 10
267.6187176618698
 20
23.44043703065001
 30
0.0
 10
268.3306562364027
 20
24.30131970448916
 30
0.0
 10
268.8313510346686
 20
24.93286638832085
 30
0.0
 10
269.5360649781111
 20
25.809749806551
 30
0.0
 10
269.7689676846252
 20
26.0993518094623
 30
0.0
  0
LINE
  5
1C0
330
1F
100
AcDbEntity
  8
0
  6
Continuous
 62
     7
370
    15
100
AcDbLine
 10
269.768593271
 20
19.1676635954
 30
0.0
 11
267.5938015996
 21
19.3621227428
 31
0.0
  0
SPLINE
  5
1C1
330
1F
100
AcDbEntity
  8
0
  6
Continuous
 62
     7
370
    15
100
AcDbSpline
210
0.0
220
0.0
230
1.0
 70
     8
 71
     3
 72
    14
 73
    10
 74
     0
 42
0.000000001
 43
0.00000001
 40
0.0
 40
0.0
 40
0.0
 40
0.0
 40
0.25
 40
0.25
 40
0.5
 40
0.5
 40
0.75
 40
0.75
 40
1.0
 40
1.0
 40
1.0
 40
1.0
 10
266.9877648862537
 20
43.45878842859546
 30
0.0
 10
267.0595424228293
 20
43.54799549097463
 30
0.0
 10
267.1464682239206
 20
43.62427083358684
 30
0.0
 10
267.3375130788026
 20
43.76894021233052
 30
0.0
 10
267.4427120225834
 20
43.83706180159487
 30
0.0
 10
267.6660708309716
 20
43.96590700812531
 30
0.0
 10
267.7837269922972
 20
44.02643425410874
 30
0.0
 10
268.0326388758763
 20
44.13583386443537
 30
0.0
 10
268.1635335597215
 20
44.18542440351116
 30
0.0
 10
268.3059043301512
 20
44.2197341323688
 30
0.0
  0
SPLINE
  5
1C2
330
1F
100
AcDbEntity
  8
0
  6
Continuous
 62
     7
370
    15
100
AcDbSpline
210
0.0
220
0.0
230
1.0
 70
     8
 71
     3
 72
    18
 73
    14
 74
     0
 42
0.000000001
 43
0.00000001
 40
0.0
 40
0.0
 40
0.0
 40
0.0
 40
0.2499999999999991
 40
0.2499999999999991
 40
0.4999999999999982
 40
0.4999999999999982
 40
0.6249999999999987
 40
0.6249999999999987
 40
0.7499999999999991
 40
0.7499999999999991
 40
0.8749999999999996
 40
0.8749999999999996
 40
1.0
 40
1.0
 40
1.0
 40
1.0
 10
281.7881574989882
 20
33.03788239854503
 30
0.0
 10
281.754456908231
 20
33.04087739872759
 30
0.0
 10
281.7182928337049
 20
33.04251474036466
 30
0.0
 10
281.638004701688
 20
33.04140143285188
 30
0.0
 10
281.5929310061131
 20
33.03866355125721
 30
0.0
 10
281.5185762175931
 20
33.02779067944393
 30
0.0
 10
281.4919258247928
 20
33.02286533688235
 30
0.0
 10
281.4383998742966
 20
33.00998493945631
 30
0.0
 10
281.4111958157537
 20
33.00187770485781
 30
0.0
 10
281.3618924671274
 20
32.9837996704637
 30
0.0
 10
281.3395674431393
 20
32.97380964373066
 30
0.0
 10
281.3011734221679
 20
32.95369045974616
 30
0.0
 10
281.2853033652393
 20
32.94377422972637
 30
0.0
 10
281.2715011931824
 20
32.93399942592135
 30
0.0
  0
SPLINE
  5
1C3
330
1F
100
AcDbEntity
  8
0
  6
Continuous
 62
     7
370
    15
100
AcDbSpline
210
0.0
220
0.0
230
1.0
 70
     8
 71
     3
 72
    10
 73
     6
 74
     0
 42
0.000000001
 43
0.00000001
 40
0.0
 40
0.0
 40
0.0
 40
0.0
 40
0.5
 40
0.5
 40
1.0
 40
1.0
 40
1.0
 40
1.0
 10
281.2715011931825
 20
32.93399942592136
 30
0.0
 10
281.2270633991139
 20
32.94915382452653
 30
0.0
 10
281.1811667851313
 20
32.96616733804886
 30
0.0
 10
281.0933315137411
 20
33.00310462289438
 30
0.0
 10
281.0514010269962
 20
33.02311792584912
 30
0.0
 10
281.0169669214783
 20
33.04299631184134
 30
0.0
  0
LINE
  5
1C4
330
1F
100
AcDbEntity
  8
0
  6
Continuous
 62
     7
370
    15
100
AcDbLine
 10
280.0423823842
 20
34.0293674866
 30
0.0
 11
279.9246434981
 21
34.1009899754
 31
0.0
  0
SPLINE
  5
1C5
330
1F
100
AcDbEntity
  8
0
  6
Continuous
 62
     7
370
    15
100
AcDbSpline
210
0.0
220
0.0
230
1.0
 70
     8
 71
     3
 72
    11
 73
     7
 74
     0
 42
0.000000001
 43
0.00000001
 40
0.0
 40
0.0
 40
0.0
 40
0.0
 40
0.1175680289008631
 40
0.3320385844908647
 40
0.7098274815147438
 40
0.9999999999999999
 40
0.9999999999999999
 40
0.9999999999999999
 40
0.9999999999999999
 10
269.9773221780505
 20
26.3925462283436
 30
0.0
 10
269.9746021000238
 20
26.38577945072697
 30
0.0
 10
269.9669199872405
 20
26.36666854717268
 30
0.0
 10
269.9230387078843
 20
26.29945924542103
 30
0.0
 10
269.8535538340048
 20
26.20557565664077
 30
0.0
 10
269.7945847462599
 20
26.13152188528437
 30
0.0
 10
269.7689676846956
 20
26.09935180953017
 30
0.0
  0
SPLINE
  5
1C6
330
1F
100
AcDbEntity
  8
0
  6
Continuous
 62
     7
370
    15
100
AcDbSpline
210
0.0
220
0.0
230
1.0
 70
     8
 71
     3
 72
    14
 73
    10
 74
     0
 42
0.000000001
 43
0.00000001
 40
0.0
 40
0.0
 40
0.0
 40
0.0
 40
0.1544296596783247
 40
0.313337468508458
 40
0.4677552653456414
 40
0.6266509538731946
 40
0.7810900577354573
 40
0.9400017620944344
 40
1.0
 40
1.0
 40
1.0
 40
1.0
 10
267.5054132519191
 20
19.6919855353698
 30
0.0
 10
267.4196507411558
 20
19.70620418636443
 30
0.0
 10
267.2456387795193
 20
19.73505380060008
 30
0.0
 10
267.024025805117
 20
19.86256079478085
 30
0.0
 10
266.8362040465253
 20
20.05055508304041
 30
0.0
 10
266.6923849219395
 20
20.29563864269513
 30
0.0
 10
266.5988101612683
 20
20.59514374102536
 30
0.0
 10
266.5558772376574
 20
20.86016143597937
 30
0.0
 10
266.5643259689938
 20
21.03289629088187
 30
0.0
 10
266.5666415741576
 20
21.08023898720627
 30
0.0
  0
LINE
  5
1C7
330
1F
100
AcDbEntity
  8
0
  6
Continuous
 62
     7
370
    15
100
AcDbLine
 10
278.5528885345
 20
34.4654784863
 30
0.0
 11
281.0169669215
 21
33.0429963118
 31
0.0
  0
ARC
  5
1C8
330
1F
100
AcDbEntity
  8
0
  6
Continuous
 62
     7
370
    15
100
AcDbCircle
 10
265.3635890595
 20
33.207471338
 30
0.0
 40
10.89744217655005
100
AcDbArc
 50
338.4824092588
 51
3.7871745343
  0
LINE
  5
1C9
330
1F
100
AcDbEntity
  8
0
  6
Continuous
 62
     7
370
    15
100
AcDbLine
 10
275.5015340282
 20
29.210432709
 30
0.0
 11
281.0169669215
 21
26.0264410728
 31
0.0
  0
LINE
  5
1CA
330
1F
100
AcDbEntity
  8
0
  6
Continuous
 62
     7
370
    15
100
AcDbLine
 10
270.8077432138
 20
18.5836643177
 30
0.0
 11
270.9253749044
 21
18.5121104525
 31
0.0
  0
LINE
  5
1CB
330
1F
100
AcDbEntity
  8
0
  6
Continuous
 62
     7
370
    15
100
AcDbLine
 10
266.6372248133
 20
21.4150155813
 30
0.0
 11
269.833051481
 21
19.570104116
 31
0.0
  0
LINE
  5
1CC
330
1F
100
AcDbEntity
  8
0
  6
Continuous
 62
     7
370
    15
100
AcDbLine
 10
255.7581659493
 20
23.2266113951
 30
0.0
 11
255.5282252686
 21
23.369500166
 31
0.0
  0
SPLINE
  5
1CD
330
1F
100
AcDbEntity
  8
0
  6
Continuous
 62
     7
370
    15
100
AcDbSpline
210
0.0
220
0.0
230
1.0
 70
     8
 71
     3
 72
    12
 73
     8
 74
     0
 42
0.000000001
 43
0.00000001
 40
0.0
 40
0.0
 40
0.0
 40
0.0
 40
0.4999999999999998
 40
0.4999999999999998
 40
0.7499999999999999
 40
0.7499999999999999
 40
1.0
 40
1.0
 40
1.0
 40
1.0
 10
253.632117000933
 20
25.95600549198407
 30
0.0
 10
253.8854058369974
 20
25.83512766041509
 30
0.0
 10
254.1149715640288
 20
25.75512019126779
 30
0.0
 10
254.4297520255579
 20
25.69601964787187
 30
0.0
 10
254.5298505325016
 20
25.68683164409326
 30
0.0
 10
254.7151683895437
 20
25.69032249917526
 30
0.0
 10
254.8012418615627
 20
25.70277557737547
 30
0.0
 10
254.8814556537926
 20
25.72616464433694
 30
0.0
  0
SPLINE
  5
1CE
330
1F
100
AcDbEntity
  8
0
  6
Continuous
 62
     7
370
    15
100
AcDbSpline
210
0.0
220
0.0
230
1.0
 70
     8
 71
     3
 72
    28
 73
    24
 74
     0
 42
0.000000001
 43
0.00000001
 40
0.0
 40
0.0
 40
0.0
 40
0.0
 40
0.1249999999999998
 40
0.1249999999999998
 40
0.2499999999999996
 40
0.2499999999999996
 40
0.3749999999999994
 40
0.3749999999999994
 40
0.4374999999999993
 40
0.4374999999999993
 40
0.4999999999999992
 40
0.4999999999999992
 40
0.6249999999999991
 40
0.6249999999999991
 40
0.749999999999999
 40
0.749999999999999
 40
0.8124999999999993
 40
0.8124999999999993
 40
0.8749999999999996
 40
0.8749999999999996
 40
0.9374999999999998
 40
0.9374999999999998
 40
1.0
 40
1.0
 40
1.0
 40
1.0
 10
254.8814556537926
 20
25.72616464433694
 30
0.0
 10
255.0111231006456
 20
25.76397361101031
 30
0.0
 10
255.1261434749076
 20
25.83148717875016
 30
0.0
 10
255.3201451994273
 20
26.02176183360986
 30
0.0
 10
255.4006732788807
 20
26.14441928867705
 30
0.0
 10
255.5317847956482
 20
26.45069977065891
 30
0.0
 10
255.5798883789248
 20
26.62861609132274
 30
0.0
 10
255.6285685739979
 20
26.93259160885432
 30
0.0
 10
255.6408404356703
 20
27.04017637435058
 30
0.0
 10
255.6573152856231
 20
27.26856802664092
 30
0.0
 10
255.6613700607166
 20
27.38766226504546
 30
0.0
 10
255.6613838680425
 20
27.75630306984595
 30
0.0
 10
255.6454883307608
 20
28.01843203773099
 30
0.0
 10
255.579880926695
 20
28.57521381615713
 30
0.0
 10
255.5314405593168
 20
28.85908000830301
 30
0.0
 10
255.4342565137085
 20
29.29176015362121
 30
0.0
 10
255.3975451779346
 20
29.43777035626874
 30
0.0
 10
255.3158424345266
 20
29.72907006008565
 30
0.0
 10
255.2712337919273
 20
29.87312433828976
 30
0.0
 10
255.1741570758991
 20
30.15794700301255
 30
0.0
 10
255.1216898229784
 20
30.29871560914846
 30
0.0
 10
255.0081949165592
 20
30.57672552911567
 30
0.0
 10
254.9468232259686
 20
30.71466381404315
 30
0.0
 10
254.8814556537926
 20
30.84894152847093
 30
0.0
  0
SPLINE
  5
1CF
330
1F
100
AcDbEntity
  8
0
  6
Continuous
 62
     7
370
    15
100
AcDbSpline
210
0.0
220
0.0
230
1.0
 70
     8
 71
     3
 72
    12
 73
     8
 74
     0
 42
0.000000001
 43
0.00000001
 40
0.0
 40
0.0
 40
0.0
 40
0.0
 40
0.4999999999999991
 40
0.4999999999999991
 40
0.7499999999999996
 40
0.7499999999999996
 40
1.0
 40
1.0
 40
1.0
 40
1.0
 10
254.8814556537926
 20
30.84894152847093
 30
0.0
 10
254.7200083930213
 20
31.18058562133468
 30
0.0
 10
254.5371282303387
 20
31.48575458551199
 30
0.0
 10
254.2228337079021
 20
31.90063186729502
 30
0.0
 10
254.1112481479009
 20
32.03147119750982
 30
0.0
 10
253.8794453017173
 20
32.27053169036181
 30
0.0
 10
253.7585183312135
 20
32.37976403247264
 30
0.0
 10
253.632117000933
 20
32.47824502347563
 30
0.0
  0
SPLINE
  5
1D0
330
1F
100
AcDbEntity
  8
0
  6
Continuous
 62
     7
370
    15
100
AcDbSpline
210
0.0
220
0.0
230
1.0
 70
     8
 71
     3
 72
    12
 73
     8
 74
     0
 42
0.000000001
 43
0.00000001
 40
0.0
 40
0.0
 40
0.0
 40
0.0
 40
0.2500000000000008
 40
0.2500000000000008
 40
0.5000000000000017
 40
0.5000000000000017
 40
1.0
 40
1.0
 40
1.0
 40
1.0
 10
250.676946316327
 20
31.83816118575271
 30
0.0
 10
250.7107254825994
 20
31.81866088813919
 30
0.0
 10
250.7490501790749
 20
31.79182113956202
 30
0.0
 10
250.8232733031874
 20
31.73342063623938
 30
0.0
 10
250.8586566676821
 20
31.70243097775848
 30
0.0
 10
250.9544666260671
 20
31.61169162473772
 30
0.0
 10
251.0034703842214
 20
31.55579749602019
 30
0.0
 10
251.0372794418362
 20
31.50853763225353
 30
0.0
  0
SPLINE
  5
1D1
330
1F
100
AcDbEntity
  8
0
  6
Continuous
 62
     7
370
    15
100
AcDbSpline
210
0.0
220
0.0
230
1.0
 70
     8
 71
     3
 72
    12
 73
     8
 74
     0
 42
0.000000001
 43
0.00000001
 40
0.0
 40
0.0
 40
0.0
 40
0.0
 40
0.4999999999999931
 40
0.4999999999999931
 40
0.7499999999999966
 40
0.7499999999999966
 40
1.0
 40
1.0
 40
1.0
 40
1.0
 10
268.1418093550272
 20
48.27833915657506
 30
0.0
 10
268.1418093550272
 20
48.34975818829974
 30
0.0
 10
268.1242448243662
 20
48.43228794749294
 30
0.0
 10
268.0691192898763
 20
48.5512326635258
 30
0.0
 10
268.0458268161194
 20
48.5898655507504
 30
0.0
 10
267.9918584270621
 20
48.65642806202745
 30
0.0
 10
267.9610109263089
 20
48.68434910028011
 30
0.0
 10
267.9296773206712
 20
48.70243760579007
 30
0.0
  0
LINE
  5
1D2
330
1F
100
AcDbEntity
  8
0
  6
Continuous
 62
     7
370
    15
100
AcDbLine
 10
249.3234861814
 20
32.6194970905
 30
0.0
 11
250.6769463163
 21
31.8381611858
 31
0.0
  0
LWPOLYLINE
  5
1D3
330
1F
100
AcDbEntity
  8
0
  6
Continuous
 62
     7
370
    15
100
AcDbPolyline
 90
       22
 70
   128
 43
0.0
 10
249.3234861814
 20
32.6194970905
 10
249.6549071406
 20
33.9187768317
 10
250.0716475491
 20
35.2282075059
 10
250.5702995664
 20
36.5370814142
 10
251.1467855305
 20
37.8346954107
 10
251.7963913026
 20
39.1104384257
 10
252.513804816
 20
40.353878237
 10
253.2931595151
 20
41.5548467772
 10
254.1280823283
 20
42.7035232826
 10
255.011745783
 20
43.7905146005
 10
255.9369238363
 20
44.8069320009
 10
256.8960509652
 20
45.744463863
 10
257.8812840325
 20
46.5954436418
 10
258.8845664229
 20
47.3529125612
 10
259.8976939253
 20
48.0106765175
 10
260.9123818216
 20
48.5633567318
 10
261.9203326334
 20
49.0064337334
 10
262.9133039744
 20
49.3362843179
 10
263.8831759505
 20
49.550211175
 10
264.8220175601
 20
49.6464649459
 10
265.722151548
 20
49.6242585276
 10
266.5762171857
 20
49.4837735105
  0
LINE
  5
1D4
330
1F
100
AcDbEntity
  8
0
  6
Continuous
 62
     7
370
    15
100
AcDbLine
 10
267.9296773207
 20
48.7024376058
 30
0.0
 11
266.5762171857
 21
49.4837735105
 31
0.0
  0
LINE
  5
1D5
330
1F
100
AcDbEntity
  8
0
  6
Continuous
 62
     7
370
    15
100
AcDbLine
 10
251.0851746182
 20
31.4415875405
 30
0.0
 11
252.9134131604
 21
32.4970071857
 31
0.0
  0
LINE
  5
1D6
330
1F
100
AcDbEntity
  8
0
  6
Continuous
 62
     7
370
    15
100
AcDbLine
 10
251.0372794418
 20
31.5085376323
 30
0.0
 11
251.0851746182
 21
31.4415875405
 31
0.0
  0
LINE
  5
1D7
330
1F
100
AcDbEntity
  8
0
  6
Continuous
 62
     7
370
    15
100
AcDbLine
 10
268.141809355
 20
45.5217278357
 30
0.0
 11
268.141809355
 21
48.2783391566
 31
0.0
  0
LINE
  5
1D8
330
1F
100
AcDbEntity
  8
0
  6
Continuous
 62
     7
370
    15
100
AcDbLine
 10
269.9320434655
 20
19.4750082274
 30
0.0
 11
267.5054132519
 21
19.6919855354
 31
0.0
  0
SPLINE
  5
1D9
330
1F
100
AcDbEntity
  8
0
  6
Continuous
 62
     7
370
    15
100
AcDbSpline
210
0.0
220
0.0
230
1.0
 70
     8
 71
     3
 72
    18
 73
    14
 74
     0
 42
0.000000001
 43
0.00000001
 40
0.0
 40
0.0
 40
0.0
 40
0.0
 40
0.2500000000000028
 40
0.2500000000000028
 40
0.5000000000000056
 40
0.5000000000000056
 40
0.6250000000000041
 40
0.6250000000000041
 40
0.7500000000000028
 40
0.7500000000000028
 40
0.8750000000000013
 40
0.8750000000000013
 40
1.0
 40
1.0
 40
1.0
 40
1.0
 10
269.7685932710531
 20
19.16766359536555
 30
0.0
 10
269.8021159971362
 20
19.16466615849922
 30
0.0
 10
269.8351381051805
 20
19.16514201353915
 30
0.0
 10
269.8962424611549
 20
19.17759585903308
 30
0.0
 10
269.9252747917398
 20
19.1894292830176
 30
0.0
 10
269.9585757230221
 20
19.22457854297565
 30
0.0
 10
269.9678481667647
 20
19.23943127847533
 30
0.0
 10
269.9795279529982
 20
19.27603837595603
 30
0.0
 10
269.981855919666
 20
19.29845695134539
 30
0.0
 10
269.9781140204936
 20
19.34682031402186
 30
0.0
 10
269.9721508469013
 20
19.37310771694795
 30
0.0
 10
269.9551747781409
 20
19.4246936261975
 30
0.0
 10
269.9441696818084
 20
19.45037277778329
 30
0.0
 10
269.9320434654938
 20
19.47500822736825
 30
0.0
  0
SPLINE
  5
1DA
330
1F
100
AcDbEntity
  8
0
  6
Continuous
 62
     7
370
    15
100
AcDbSpline
210
0.0
220
0.0
230
1.0
 70
     8
 71
     3
 72
    10
 73
     6
 74
     0
 42
0.000000001
 43
0.00000001
 40
0.0
 40
0.0
 40
0.0
 40
0.0
 40
0.5
 40
0.5
 40
1.0
 40
1.0
 40
1.0
 40
1.0
 10
269.833051481019
 20
19.57010411604065
 30
0.0
 10
269.8674897221522
 20
19.55022334260859
 30
0.0
 10
269.8923289895329
 20
19.5316593317052
 30
0.0
 10
269.9236076691675
 20
19.49985842740078
 30
0.0
 10
269.93064843634
 20
19.48630861759001
 30
0.0
 10
269.9320434654938
 20
19.47500822736825
 30
0.0
  0
SPLINE
  5
1DB
330
1F
100
AcDbEntity
  8
0
  6
Continuous
 62
     7
370
    15
100
AcDbSpline
210
0.0
220
0.0
230
1.0
 70
     8
 71
     3
 72
     8
 73
     4
 74
     0
 42
0.000000001
 43
0.00000001
 40
0.0
 40
0.0
 40
0.0
 40
0.0
 40
1.0
 40
1.0
 40
1.0
 40
1.0
 10
248.3333348960895
 20
33.87787627462237
 30
0.0
 10
247.9526370300891
 20
33.81490943695177
 30
0.0
 10
247.5717990578492
 20
33.75220931481674
 30
0.0
 10
247.1908584071095
 20
33.68972843614371
 30
0.0
  0
SPLINE
  5
1DC
330
1F
100
AcDbEntity
  8
0
  6
Continuous
 62
     7
370
    15
100
AcDbSpline
210
0.0
220
0.0
230
1.0
 70
     8
 71
     3
 72
     8
 73
     4
 74
     0
 42
0.000000001
 43
0.00000001
 40
0.0
 40
0.0
 40
0.0
 40
0.0
 40
0.0011901715795577
 40
0.0011901715795577
 40
0.0011901715795577
 40
0.0011901715795577
 10
246.8331716095517
 20
34.05712509199933
 30
0.0
 10
246.9528181170465
 20
33.93451018224385
 30
0.0
 10
247.0720612911946
 20
33.81203814174813
 30
0.0
 10
247.1908584071095
 20
33.68972843614371
 30
0.0
  0
LWPOLYLINE
  5
1DD
330
1F
100
AcDbEntity
  8
0
  6
Continuous
 62
     7
370
    15
100
AcDbPolyline
 90
       22
 70
   128
 43
0.0
 10
246.8331716096
 20
34.057125092
 10
247.1645925688
 20
35.3564048332
 10
247.5813329773
 20
36.6658355074
 10
248.0799849946
 20
37.9747094158
 10
248.6564709587
 20
39.2723234122
 10
249.3060767308
 20
40.5480664273
 10
250.0234902442
 20
41.7915062385
 10
250.8028449433
 20
42.9924747788
 10
251.6377677565
 20
44.1411512841
 10
252.5214312112
 20
45.228142602
 10
253.4466092645
 20
46.2445600025
 10
254.4057363934
 20
47.1820918645
 10
255.3909694606
 20
48.0330716434
 10
256.394251851
 20
48.7905405627
 10
257.4073793535
 20
49.4483045191
 10
258.4220672497
 20
50.0009847333
 10
259.4300180616
 20
50.4440617349
 10
260.4229894025
 20
50.7739123194
 10
261.3928613787
 20
50.9878391766
 10
262.3317029882
 20
51.0840929474
 10
263.2318369761
 20
51.0618865292
 10
264.0859026139
 20
50.921401512
  0
SPLINE
  5
1DE
330
1F
100
AcDbEntity
  8
0
  6
Continuous
 62
     7
370
    15
100
AcDbSpline
210
0.0
220
0.0
230
1.0
 70
     8
 71
     3
 72
     9
 73
     5
 74
     0
 42
0.000000001
 43
0.00000001
 40
0.0
 40
0.0
 40
0.0
 40
0.0
 40
0.0030611179232719
 40
1.0
 40
1.0
 40
1.0
 40
1.0
 10
264.5199385711871
 20
49.58714935931076
 30
0.0
 10
264.5195056314793
 20
49.58851029265594
 30
0.0
 10
264.3780737367544
 20
50.03309732892497
 30
0.0
 10
264.2317642400138
 20
50.47793026351528
 30
0.0
 10
264.0859026138959
 20
50.92140151203666
 30
0.0
  0
LWPOLYLINE
  5
1DF
330
1F
100
AcDbEntity
  8
0
  6
Continuous
 62
     7
370
    15
100
AcDbPolyline
 90
       21
 70
   128
 43
0.0
 10
248.3333348961
 20
33.8778762746
 10
248.6441412778
 20
35.1094855063
 10
249.0391574181
 20
36.3513450355
 10
249.5148906178
 20
37.5924744449
 10
250.0671344838
 20
38.8218997731
 10
250.6910061227
 20
40.0287505448
 10
251.3809893138
 20
41.2023558875
 10
252.1309832841
 20
42.3323388815
 10
252.9343566502
 20
43.4087083127
 10
253.7840060524
 20
44.4219470132
 10
254.6724189624
 20
45.363096012
 10
255.5917401083
 20
46.2238337489
 10
256.5338409299
 20
46.9965496535
 10
257.4903914512
 20
47.674411437
 10
258.4529339333
 20
48.2514255025
 10
259.4129576566
 20
48.7224899404
 10
260.3619741724
 20
49.0834396388
 10
261.2915923567
 20
49.3310831106
 10
262.1935926039
 20
49.4632307134
 10
263.0599995038
 20
49.4787140091
 10
263.3821129986
 20
49.4535429977
  0
SPLINE
  5
1E0
330
1F
100
AcDbEntity
  8
0
  6
Continuous
 62
     7
370
    15
100
AcDbSpline
210
0.0
220
0.0
230
1.0
 70
     8
 71
     3
 72
    10
 73
     6
 74
     0
 42
0.000000001
 43
0.00000001
 40
0.0
 40
0.0
 40
0.0
 40
0.0
 40
0.5
 40
0.5
 40
1.0
 40
1.0
 40
1.0
 40
1.0
 10
253.632117000933
 20
32.47824502347563
 30
0.0
 10
253.5720304198219
 20
32.5250592938688
 30
0.0
 10
253.4933974629678
 20
32.55813985978858
 30
0.0
 10
253.3219518210258
 20
32.59065679344148
 30
0.0
 10
253.2294931066873
 20
32.59010658009894
 30
0.0
 10
253.1447822765319
 20
32.57624816800714
 30
0.0
  0
SPLINE
  5
1E1
330
1F
100
AcDbEntity
  8
0
  6
Continuous
 62
     7
370
    15
100
AcDbSpline
210
0.0
220
0.0
230
1.0
 70
     8
 71
     3
 72
    10
 73
     6
 74
     0
 42
0.000000001
 43
0.00000001
 40
0.0
 40
0.0
 40
0.0
 40
0.0
 40
0.5
 40
0.5
 40
1.0
 40
1.0
 40
1.0
 40
1.0
 10
253.1447822765319
 20
32.57624816800714
 30
0.0
 10
253.1013918499455
 20
32.56914963749609
 30
0.0
 10
253.0592475767781
 20
32.55852248841858
 30
0.0
 10
252.9813946100242
 20
32.5317113878381
 30
0.0
 10
252.9457413514204
 20
32.51566985314298
 30
0.0
 10
252.9134131604175
 20
32.49700718572308
 30
0.0
  0
SPLINE
  5
1E2
330
1F
100
AcDbEntity
  8
0
  6
Continuous
 62
     7
370
    15
100
AcDbSpline
210
0.0
220
0.0
230
1.0
 70
     8
 71
     3
 72
     9
 73
     5
 74
     0
 42
0.000000001
 43
0.00000001
 40
0.0
 40
0.0
 40
0.0
 40
0.0
 40
0.5
 40
1.0
 40
1.0
 40
1.0
 40
1.0
 10
268.1422371973425
 20
45.4931114141085
 30
0.0
 10
268.1420945623309
 20
45.49792429022124
 30
0.0
 10
268.1418806733084
 20
45.50750653759925
 30
0.0
 10
268.1418093550272
 20
45.51700189185033
 30
0.0
 10
268.1418093550272
 20
45.52172783566505
 30
0.0
  0
SPLINE
  5
1E3
330
1F
100
AcDbEntity
  8
0
  6
Continuous
 62
     7
370
    15
100
AcDbSpline
210
0.0
220
0.0
230
1.0
 70
     8
 71
     3
 72
     8
 73
     4
 74
     0
 42
0.000000001
 43
0.00000001
 40
0.0
 40
0.0
 40
0.0
 40
0.0
 40
1.0
 40
1.0
 40
1.0
 40
1.0
 10
268.1663767065886
 20
45.50754079502794
 30
0.0
 10
268.1581958913983
 20
45.50281811094373
 30
0.0
 10
268.1501492077858
 20
45.49800840946321
 30
0.0
 10
268.1422371973422
 20
45.49311141410865
 30
0.0
  0
LINE
  5
1E4
330
1F
100
AcDbEntity
  8
0
  6
Continuous
 62
     7
370
    15
100
AcDbLine
 10
245.4973891441
 20
34.8282558953
 30
0.0
 11
246.8331716096
 21
34.057125092
 31
0.0
  0
LINE
  5
1E5
330
1F
100
AcDbEntity
  8
0
  6
Continuous
 62
     7
370
    15
100
AcDbLine
 10
264.0859026139
 20
50.921401512
 30
0.0
 11
262.7501201485
 21
51.6925323153
 31
0.0
  0
SPLINE
  5
1E6
330
1F
100
AcDbEntity
  8
0
  6
Continuous
 62
     7
370
    15
100
AcDbSpline
210
0.0
220
0.0
230
1.0
 70
     8
 71
     3
 72
    10
 73
     6
 74
     0
 42
0.000000001
 43
0.00000001
 40
0.0
 40
0.0
 40
0.0
 40
0.0
 40
0.5
 40
0.5
 40
1.0
 40
1.0
 40
1.0
 40
1.0
 10
281.0169669214783
 20
26.02644107282154
 30
0.0
 10
281.0514051626115
 20
26.00656029938949
 30
0.0
 10
281.0935629131137
 20
25.99799403598411
 30
0.0
 10
281.1811846039669
 20
25.99871925971807
 30
0.0
 10
281.2271095413137
 20
26.00761680354359
 30
0.0
 10
281.2715283275164
 20
26.02115349959389
 30
0.0
  0
SPLINE
  5
1E7
330
1F
100
AcDbEntity
  8
0
  6
Continuous
 62
     7
370
    15
100
AcDbSpline
210
0.0
220
0.0
230
1.0
 70
     8
 71
     3
 72
    16
 73
    12
 74
     0
 42
0.000000001
 43
0.00000001
 40
0.0
 40
0.0
 40
0.0
 40
0.0
 40
0.2499999999999998
 40
0.2499999999999998
 40
0.3749999999999974
 40
0.3749999999999974
 40
0.499999999999995
 40
0.499999999999995
 40
0.7499999999999976
 40
0.7499999999999976
 40
1.0
 40
1.0
 40
1.0
 40
1.0
 10
281.2715283275164
 20
26.02115349959389
 30
0.0
 10
281.299253003194
 20
25.97330533150186
 30
0.0
 10
281.3367662708175
 20
25.92972457677952
 30
0.0
 10
281.4109872504445
 20
25.89606706911048
 30
0.0
 10
281.4377532553829
 20
25.89078291244047
 30
0.0
 10
281.491281091886
 20
25.89157144612547
 30
0.0
 10
281.51787099402
 20
25.89748204221987
 30
0.0
 10
281.5926547006723
 20
25.92491557826952
 30
0.0
 10
281.6376077916102
 20
25.95577380166589
 30
0.0
 10
281.718271009572
 20
26.02515729357109
 30
0.0
 10
281.754986431961
 20
26.06489621412842
 30
0.0
 10
281.7885319126316
 20
26.10662647317235
 30
0.0
  0
LINE
  5
1E8
330
1F
100
AcDbEntity
  8
0
  6
Continuous
 62
     7
370
    15
100
AcDbLine
 10
249.5598770012
 20
33.5775916246
 30
0.0
 11
248.9693663453
 21
33.91848617
 31
0.0
  0
SPLINE
  5
1E9
330
1F
100
AcDbEntity
  8
0
  6
Continuous
 62
     7
370
    15
100
AcDbSpline
210
0.0
220
0.0
230
1.0
 70
     8
 71
     3
 72
    12
 73
     8
 74
     0
 42
0.000000001
 43
0.00000001
 40
0.0
 40
0.0
 40
0.0
 40
0.0
 40
0.2500000000000015
 40
0.2500000000000015
 40
0.500000000000003
 40
0.500000000000003
 40
1.0
 40
1.0
 40
1.0
 40
1.0
 10
248.9693663453269
 20
33.91848617003801
 30
0.0
 10
248.9317476103676
 20
33.94020300347421
 30
0.0
 10
248.8857552019803
 20
33.95745873745685
 30
0.0
 10
248.7861540720044
 20
33.97975252528468
 30
0.0
 10
248.7314033467503
 20
33.98495830986412
 30
0.0
 10
248.571897447931
 20
33.98195641043699
 30
0.0
 10
248.4668946427135
 20
33.95497867517778
 30
0.0
 10
248.3915817465216
 20
33.91150146564449
 30
0.0
  0
SPLINE
  5
1EA
330
1F
100
AcDbEntity
  8
0
  6
Continuous
 62
     7
370
    15
100
AcDbSpline
210
0.0
220
0.0
230
1.0
 70
     8
 71
     3
 72
    10
 73
     6
 74
     0
 42
0.000000001
 43
0.00000001
 40
0.0
 40
0.0
 40
0.0
 40
0.0
 40
0.5
 40
0.5
 40
1.0
 40
1.0
 40
1.0
 40
1.0
 10
245.3957450335382
 20
34.85897794659716
 30
0.0
 10
245.4030077151868
 20
34.86297455208498
 30
0.0
 10
245.4148013791525
 20
34.86315633047015
 30
0.0
 10
245.4488603899198
 20
34.85343470096041
 30
0.0
 10
245.4710328774721
 20
34.8434710441847
 30
0.0
 10
245.4973891441356
 20
34.82825589530339
 30
0.0
  0
LINE
  5
1EB
330
1F
100
AcDbEntity
  8
0
  6
Continuous
 62
     7
370
    15
100
AcDbLine
 10
248.3915817465
 20
33.9115014656
 30
0.0
 11
248.3333348961
 21
33.8778762746
 31
0.0
  0
LINE
  5
1EC
330
1F
100
AcDbEntity
  8
0
  6
Continuous
 62
     7
370
    15
100
AcDbLine
 10
251.0851746182
 20
31.4415875405
 30
0.0
 11
249.3579919188
 21
32.4386688894
 31
0.0
  0
SPLINE
  5
1ED
330
1F
100
AcDbEntity
  8
0
  6
Continuous
 62
     7
370
    15
100
AcDbSpline
210
0.0
220
0.0
230
1.0
 70
     8
 71
     3
 72
     8
 73
     4
 74
     0
 42
0.000000001
 43
0.00000001
 40
0.0
 40
0.0
 40
0.0
 40
0.0
 40
0.0011901715795577
 40
0.0011901715795577
 40
0.0011901715795577
 40
0.0011901715795577
 10
249.3579919187984
 20
32.43866888939692
 30
0.0
 10
249.3458304519798
 20
32.49941914510775
 30
0.0
 10
249.3343470050238
 20
32.55968281923781
 30
0.0
 10
249.3234861813812
 20
32.61949709045455
 30
0.0
  0
LINE
  5
1EE
330
1F
100
AcDbEntity
  8
0
  6
Continuous
 62
     7
370
    15
100
AcDbLine
 10
248.0599767693
 20
33.8327345327
 30
0.0
 11
248.0599767693
 21
31.5734067752
 31
0.0
  0
LINE
  5
1EF
330
1F
100
AcDbEntity
  8
0
  6
Continuous
 62
     7
370
    15
100
AcDbLine
 10
248.0599767693
 20
31.5734067752
 30
0.0
 11
248.0599767693
 21
30.1075988127
 31
0.0
  0
SPLINE
  5
1F0
330
1F
100
AcDbEntity
  8
0
  6
Continuous
 62
     7
370
    15
100
AcDbSpline
210
0.0
220
0.0
230
1.0
 70
     8
 71
     3
 72
    32
 73
    28
 74
     0
 42
0.000000001
 43
0.00000001
 40
0.0
 40
0.0
 40
0.0
 40
0.0
 40
0.125
 40
0.125
 40
0.1875
 40
0.1875
 40
0.25
 40
0.25
 40
0.375
 40
0.375
 40
0.4375
 40
0.4375
 40
0.5
 40
0.5
 40
0.625
 40
0.625
 40
0.6875
 40
0.6875
 40
0.75
 40
0.75
 40
0.8125
 40
0.8125
 40
0.875
 40
0.875
 40
0.9375
 40
0.9375
 40
1.0
 40
1.0
 40
1.0
 40
1.0
 10
283.6981585410911
 20
29.0398584157398
 30
0.0
 10
283.8383779281691
 20
29.21429000022424
 30
0.0
 10
283.9652143897363
 20
29.40006174285012
 30
0.0
 10
284.1340940214447
 20
29.6963572012457
 30
0.0
 10
284.1868115328147
 20
29.79845639308003
 30
0.0
 10
284.2822432192702
 20
30.00281322544535
 30
0.0
 10
284.3253546965744
 20
30.10576065639831
 30
0.0
 10
284.4409936248887
 20
30.41689929968986
 30
0.0
 10
284.4999175210107
 20
30.6297125010456
 30
0.0
 10
284.5566575798187
 20
30.93566926016703
 30
0.0
 10
284.5705625894686
 20
31.03605744364513
 30
0.0
 10
284.5884557156101
 20
31.23348163434605
 30
0.0
 10
284.592421056633
 20
31.33112085321519
 30
0.0
 10
284.5892091573953
 20
31.61109647652068
 30
0.0
 10
284.5676016821041
 20
31.78244327080584
 30
0.0
 10
284.5064407034593
 20
32.01562568596323
 30
0.0
 10
284.4814388056665
 20
32.08837616417195
 30
0.0
 10
284.4229926301648
 20
32.22204836219478
 30
0.0
 10
284.3893884806084
 20
32.28340067564977
 30
0.0
 10
284.3128570733133
 20
32.39541092445028
 30
0.0
 10
284.2696101246605
 20
32.44635172893836
 30
0.0
 10
284.1766073467635
 20
32.53442352282017
 30
0.0
 10
284.1274006527341
 20
32.57135465297538
 30
0.0
 10
284.0218769728107
 20
32.63245927517669
 30
0.0
 10
283.9653566462668
 20
32.65675198064203
 30
0.0
 10
283.8411928471238
 20
32.69440934601603
 30
0.0
 10
283.7735548757545
 20
32.70767705462859
 30
0.0
 10
283.7000665733152
 20
32.71591138104591
 30
0.0
  0
SPLINE
  5
1F1
330
1F
100
AcDbEntity
  8
0
  6
Continuous
 62
     7
370
    15
100
AcDbSpline
210
0.0
220
0.0
230
1.0
 70
     8
 71
     3
 72
    14
 73
    10
 74
     0
 42
0.000000001
 43
0.00000001
 40
0.0
 40
0.0
 40
0.0
 40
0.0
 40
0.25
 40
0.25
 40
0.5
 40
0.5
 40
0.75
 40
0.75
 40
1.0
 40
1.0
 40
1.0
 40
1.0
 10
283.700066573315
 20
32.71591138104577
 30
0.0
 10
283.4880757004791
 20
32.73966484910093
 30
0.0
 10
283.2918975842674
 20
32.75425666255786
 30
0.0
 10
282.8919508602125
 20
32.78782799171633
 30
0.0
 10
282.6893287397523
 20
32.80613579527993
 30
0.0
 10
282.2831950737728
 20
32.84326914437044
 30
0.0
 10
282.0799944119735
 20
32.86191317827902
 30
0.0
 10
281.675481479673
 20
32.89811015237676
 30
0.0
 10
281.4736584909419
 20
32.9159582964997
 30
0.0
 10
281.2715011931825
 20
32.93399942592137
 30
0.0
  0
ARC
  5
1F2
330
1F
100
AcDbEntity
  8
0
  6
Continuous
 62
     7
370
    15
100
AcDbCircle
 10
258.3356081791
 20
32.8634249198
 30
0.0
 40
10.35629024716617
100
AcDbArc
 50
174.7108714669
 51
187.1555624593
  0
LINE
  5
1F3
330
1F
100
AcDbEntity
  8
0
  6
Continuous
 62
     7
370
    15
100
AcDbLine
 10
245.8349067679
 20
34.4725026557
 30
0.0
 11
245.3957450335
 21
34.8589779466
 31
0.0
  0
LINE
  5
1F4
330
1F
100
AcDbEntity
  8
0
  6
Continuous
 62
     7
370
    15
100
AcDbLine
 10
247.1908584071
 20
33.6897284361
 30
0.0
 11
245.8349067679
 21
34.4725026557
 31
0.0
  0
LINE
  5
1F5
330
1F
100
AcDbEntity
  8
0
  6
Continuous
 62
     7
370
    15
100
AcDbLine
 10
247.0611884409
 20
33.6083002641
 30
0.0
 11
247.0618792703
 21
33.7290174944
 31
0.0
  0
ARC
  5
1F6
330
1F
100
AcDbEntity
  8
0
  6
Continuous
 62
     7
370
    15
100
AcDbCircle
 10
254.032338823
 20
33.3571930051
 30
0.0
 40
6.975671473390721
100
AcDbArc
 50
177.9370451624
 51
210.6523151249
  0
LINE
  5
1F7
330
1F
100
AcDbEntity
  8
0
  6
Continuous
 62
     7
370
    15
100
AcDbLine
 10
233.7937132464
 20
57.4445162902
 30
0.0
 11
233.8541805932
 21
57.4237412689
 31
0.0
  0
LINE
  5
1F8
330
1F
100
AcDbEntity
  8
0
  6
Continuous
 62
     7
370
    15
100
AcDbLine
 10
227.7189433538
 20
46.7203747415
 30
0.0
 11
227.689398844
 21
46.7448689838
 31
0.0
  0
SPLINE
  5
1F9
330
1F
100
AcDbEntity
  8
0
  6
Continuous
 62
     7
370
    15
100
AcDbSpline
210
0.0
220
0.0
230
1.0
 70
     8
 71
     3
 72
     8
 73
     4
 74
     0
 42
0.000000001
 43
0.00000001
 40
0.0
 40
0.0
 40
0.0
 40
0.0
 40
1.0
 40
1.0
 40
1.0
 40
1.0
 10
252.9134131604175
 20
25.92385365004279
 30
0.0
 10
252.9773081902716
 20
25.96073946564088
 30
0.0
 10
253.0574367301892
 20
25.98852270648196
 30
0.0
 10
253.1447822765243
 20
26.00397840599707
 30
0.0
  0
SPLINE
  5
1FA
330
1F
100
AcDbEntity
  8
0
  6
Continuous
 62
     7
370
    15
100
AcDbSpline
210
0.0
220
0.0
230
1.0
 70
     8
 71
     3
 72
    14
 73
    10
 74
     0
 42
0.000000001
 43
0.00000001
 40
0.0
 40
0.0
 40
0.0
 40
0.0
 40
0.25
 40
0.25
 40
0.5
 40
0.5
 40
0.75
 40
0.75
 40
1.0
 40
1.0
 40
1.0
 40
1.0
 10
253.1447822765243
 20
26.00397840599707
 30
0.0
 10
253.1874733244279
 20
26.01153254053592
 30
0.0
 10
253.2309548404759
 20
26.01609473186064
 30
0.0
 10
253.3195631371939
 20
26.01938028486914
 30
0.0
 10
253.3643275322572
 20
26.01798088808111
 30
0.0
 10
253.4497151994067
 20
26.00943822765004
 30
0.0
 10
253.4916406945332
 20
26.002124416757
 30
0.0
 10
253.5673919619892
 20
25.98264399798903
 30
0.0
 10
253.6020167519516
 20
25.97037032891529
 30
0.0
 10
253.632117000933
 20
25.95600549198408
 30
0.0
  0
LINE
  5
1FB
330
1F
100
AcDbEntity
  8
0
  6
Continuous
 62
     7
370
    15
100
AcDbLine
 10
251.0851746182
 20
24.8684340048
 30
0.0
 11
251.0372794418
 21
24.7461853196
 31
0.0
  0
LINE
  5
1FC
330
1F
100
AcDbEntity
  8
0
  6
Continuous
 62
     7
370
    15
100
AcDbLine
 10
251.0851746182
 20
24.8684340048
 30
0.0
 11
252.9134131604
 21
25.92385365
 31
0.0
  0
LINE
  5
1FD
330
1F
100
AcDbEntity
  8
0
  6
Continuous
 62
     7
370
    15
100
AcDbLine
 10
249.3579919188
 20
25.8655153537
 30
0.0
 11
251.0851746182
 21
24.8684340048
 31
0.0
  0
SPLINE
  5
1FE
330
1F
100
AcDbEntity
  8
0
  6
Continuous
 62
     7
370
    15
100
AcDbSpline
210
0.0
220
0.0
230
1.0
 70
     8
 71
     3
 72
    14
 73
    10
 74
     0
 42
0.000000001
 43
0.00000001
 40
0.0
 40
0.0
 40
0.0
 40
0.0
 40
0.25
 40
0.25
 40
0.5
 40
0.5
 40
0.75
 40
0.75
 40
1.0
 40
1.0
 40
1.0
 40
1.0
 10
251.0372794418361
 20
24.74618531957956
 30
0.0
 10
251.0203712442981
 20
24.70302847003042
 30
0.0
 10
250.9998480534171
 20
24.66301249754141
 30
0.0
 10
250.9510646178548
 20
24.58970287055649
 30
0.0
 10
250.9226076394789
 20
24.55641571195042
 30
0.0
 10
250.8592450169708
 20
24.50349286562009
 30
0.0
 10
250.8239259562298
 20
24.48342919919483
 30
0.0
 10
250.7491078791787
 20
24.4666702087128
 30
0.0
 10
250.710738405114
 20
24.47086710432398
 30
0.0
 10
250.676946316327
 20
24.49037486194642
 30
0.0
  0
LINE
  5
1FF
330
1F
100
AcDbEntity
  8
0
  6
Continuous
 62
     7
370
    15
100
AcDbLine
 10
250.6769463163
 20
24.4903748619
 30
0.0
 11
249.3234861814
 21
25.2717107666
 31
0.0
  0
SPLINE
  5
200
330
1F
100
AcDbEntity
  8
0
  6
Continuous
 62
     7
370
    15
100
AcDbSpline
210
0.0
220
0.0
230
1.0
 70
     8
 71
     3
 72
     8
 73
     4
 74
     0
 42
0.000000001
 43
0.00000001
 40
0.0
 40
0.0
 40
0.0
 40
0.0
 40
0.0011901715795577
 40
0.0011901715795577
 40
0.0011901715795577
 40
0.0011901715795577
 10
249.3234861813812
 20
25.27171076664826
 30
0.0
 10
249.3343470050238
 20
25.46966595500643
 30
0.0
 10
249.3458304519798
 20
25.667604867508
 30
0.0
 10
249.3579919187984
 20
25.86551535371663
 30
0.0
  0
ARC
  5
201
330
1F
100
AcDbEntity
  8
0
  6
Continuous
 62
     7
370
    15
100
AcDbCircle
 10
256.3080051409
 20
25.4845674428
 30
0.0
 40
5.597402749509373
100
AcDbArc
 50
210.0289594921
 51
270.257825069
  0
SPLINE
  5
202
330
1F
100
AcDbEntity
  8
0
  6
Continuous
 62
     7
370
    15
100
AcDbSpline
210
0.0
220
0.0
230
1.0
 70
     8
 71
     3
 72
     8
 73
     4
 74
     0
 42
0.000000001
 43
0.00000001
 40
0.0
 40
0.0
 40
0.0
 40
0.0
 40
1.0
 40
1.0
 40
1.0
 40
1.0
 10
249.6839088481558
 20
26.5250529921514
 30
0.0
 10
249.5748352677688
 20
26.30528079209218
 30
0.0
 10
249.4662237023008
 20
26.08542771042251
 30
0.0
 10
249.3579919187984
 20
25.86551535371663
 30
0.0
  0
LINE
  5
203
330
1F
100
AcDbEntity
  8
0
  6
Continuous
 62
     7
370
    15
100
AcDbLine
 10
249.7421556986
 20
26.5586781832
 30
0.0
 11
249.6839088482
 21
26.5250529922
 31
0.0
  0
SPLINE
  5
204
330
1F
100
AcDbEntity
  8
0
  6
Continuous
 62
     7
370
    15
100
AcDbSpline
210
0.0
220
0.0
230
1.0
 70
     8
 71
     3
 72
    12
 73
     8
 74
     0
 42
0.000000001
 43
0.00000001
 40
0.0
 40
0.0
 40
0.0
 40
0.0
 40
0.2499999999999986
 40
0.2499999999999986
 40
0.4999999999999971
 40
0.4999999999999971
 40
1.0
 40
1.0
 40
1.0
 40
1.0
 10
249.754254872444
 20
26.89222613229612
 30
0.0
 10
249.7922924799966
 20
26.87026748885888
 30
0.0
 10
249.8217658839082
 20
26.84401055225421
 30
0.0
 10
249.8605595939512
 20
26.7861425429549
 30
0.0
 10
249.8693817968978
 20
26.75536040814577
 30
0.0
 10
249.8642725242109
 20
26.66238042475903
 30
0.0
 10
249.8176487824416
 20
26.60225941282971
 30
0.0
 10
249.7421556985883
 20
26.55867818317378
 30
0.0
  0
LINE
  5
205
330
1F
100
AcDbEntity
  8
0
  6
Continuous
 62
     7
370
    15
100
AcDbLine
 10
248.9693663453
 20
27.3453326344
 30
0.0
 11
249.7542548724
 21
26.8922261323
 31
0.0
  0
SPLINE
  5
206
330
1F
100
AcDbEntity
  8
0
  6
Continuous
 62
     7
370
    15
100
AcDbSpline
210
0.0
220
0.0
230
1.0
 70
     8
 71
     3
 72
    12
 73
     8
 74
     0
 42
0.000000001
 43
0.00000001
 40
0.0
 40
0.0
 40
0.0
 40
0.0
 40
0.5
 40
0.5
 40
0.75
 40
0.75
 40
1.0
 40
1.0
 40
1.0
 40
1.0
 10
248.391581746522
 20
27.33834792996447
 30
0.0
 10
248.4675125542733
 20
27.38218185224802
 30
0.0
 10
248.5714025136975
 20
27.40883919475722
 30
0.0
 10
248.7321045935298
 20
27.41179505753095
 30
0.0
 10
248.7858893939527
 20
27.406641785895
 30
0.0
 10
248.8856582793952
 20
27.38434328329165
 30
0.0
 10
248.9312105052227
 20
27.36735953199423
 30
0.0
 10
248.9693663453269
 20
27.34533263435772
 30
0.0
  0
LINE
  5
207
330
1F
100
AcDbEntity
  8
0
  6
Continuous
 62
     7
370
    15
100
AcDbLine
 10
248.3333348961
 20
27.3047227389
 30
0.0
 11
248.3915817465
 21
27.33834793
 31
0.0
  0
SPLINE
  5
208
330
1F
100
AcDbEntity
  8
0
  6
Continuous
 62
     7
370
    15
100
AcDbSpline
210
0.0
220
0.0
230
1.0
 70
     8
 71
     3
 72
     8
 73
     4
 74
     0
 42
0.000000001
 43
0.00000001
 40
0.0
 40
0.0
 40
0.0
 40
0.0
 40
1.0
 40
1.0
 40
1.0
 40
1.0
 10
247.1908584071095
 20
27.11657490046342
 30
0.0
 10
247.5717990578492
 20
27.17905577913645
 30
0.0
 10
247.9526370300891
 20
27.24175590127149
 30
0.0
 10
248.3333348960895
 20
27.30472273894209
 30
0.0
  0
LINE
  5
209
330
1F
100
AcDbEntity
  8
0
  6
Continuous
 62
     7
370
    15
100
AcDbLine
 10
245.8349067679
 20
27.89934912
 30
0.0
 11
247.1908584071
 21
27.1165749005
 31
0.0
  0
LINE
  5
20A
330
1F
100
AcDbEntity
  8
0
  6
Continuous
 62
     7
370
    15
100
AcDbLine
 10
245.8349067679
 20
27.89934912
 30
0.0
 11
247.847844735
 21
29.0613934736
 31
0.0
  0
ARC
  5
20B
330
1F
100
AcDbEntity
  8
0
  6
Continuous
 62
     7
370
    15
100
AcDbCircle
 10
274.7453286891
 20
34.9844959038
 30
0.0
 40
4.207109579606413
100
AcDbArc
 50
320.8074104513
 51
350.2233451288
  0
ARC
  5
20C
330
1F
100
AcDbEntity
  8
0
  6
Continuous
 62
     7
370
    15
100
AcDbCircle
 10
255.5345472747
 20
26.8562293119
 30
0.0
 40
6.409990555758251
100
AcDbArc
 50
194.3115971755
 51
238.1462616035
  0
LINE
  5
20D
330
1F
100
AcDbEntity
  8
0
  6
Continuous
 62
     7
370
    15
100
AcDbLine
 10
281.2715283275
 20
26.0211534996
 30
0.0
 11
283.6981585411
 21
29.0398584157
 31
0.0
  0
LINE
  5
20E
330
1F
100
AcDbEntity
  8
0
  6
Continuous
 62
     7
370
    15
100
AcDbLine
 10
275.5015340282
 20
29.210432709
 30
0.0
 11
278.0059489525
 21
32.3259010658
 31
0.0
  0
ELLIPSE
  5
20F
330
1F
100
AcDbEntity
  8
0
  6
Continuous
 62
     7
370
    15
100
AcDbEllipse
 10
247.6135301599
 20
29.849893048
 30
0.0
 11
-6.005970382716441E-5
 21
0.853448961482723
 31
0.0
210
0.0
220
0.0
230
1.0
 40
0.7174342186
 41
3.534193645557514
 42
5.104989972352366
  0
ARC
  5
210
330
1F
100
AcDbEntity
  8
0
  6
Continuous
 62
     7
370
    15
100
AcDbCircle
 10
254.9767314565
 20
29.1610967033
 30
0.0
 40
6.897886788994532
100
AcDbArc
 50
195.6120349786
 51
215.4531999388
  0
ARC
  5
211
330
1F
100
AcDbEntity
  8
0
  6
Continuous
 62
     7
370
    15
100
AcDbCircle
 10
252.6831230281
 20
28.0666434763
 30
0.0
 40
6.005348255558452
100
AcDbArc
 50
193.0626289869
 51
253.7708307981
  0
SPLINE
  5
212
330
1F
100
AcDbEntity
  8
0
  6
Continuous
 62
     7
370
    15
100
AcDbSpline
210
0.0
220
0.0
230
1.0
 70
     8
 71
     3
 72
     8
 73
     4
 74
     0
 42
0.000000001
 43
0.00000001
 40
0.0
 40
0.0
 40
0.0
 40
0.0
 40
0.0011901715795577
 40
0.0011901715795577
 40
0.0011901715795577
 40
0.0011901715795577
 10
247.1908584071095
 20
27.11657490046342
 30
0.0
 10
247.0720612911946
 20
26.98022386414837
 30
0.0
 10
246.9528181170465
 20
26.84449331801246
 30
0.0
 10
246.8331716095517
 20
26.70933876819304
 30
0.0
  0
LINE
  5
213
330
1F
100
AcDbEntity
  8
0
  6
Continuous
 62
     7
370
    15
100
AcDbLine
 10
245.3957450335
 20
27.6457744383
 30
0.0
 11
245.8349067679
 21
27.89934912
 31
0.0
  0
LINE
  5
214
330
1F
100
AcDbEntity
  8
0
  6
Continuous
 62
     7
370
    15
100
AcDbLine
 10
246.8331716096
 20
26.7093387682
 30
0.0
 11
245.4973891441
 21
27.4804695715
 31
0.0
  0
SPLINE
  5
215
330
1F
100
AcDbEntity
  8
0
  6
Continuous
 62
     7
370
    15
100
AcDbSpline
210
0.0
220
0.0
230
1.0
 70
     8
 71
     3
 72
    10
 73
     6
 74
     0
 42
0.000000001
 43
0.00000001
 40
0.0
 40
0.0
 40
0.0
 40
0.0
 40
0.5
 40
0.5
 40
1.0
 40
1.0
 40
1.0
 40
1.0
 10
245.4973891441356
 20
27.4804695714971
 30
0.0
 10
245.4710848917587
 20
27.49565469316987
 30
0.0
 10
245.4488867776402
 20
27.51928434410374
 30
0.0
 10
245.4148748912084
 20
27.57672673691364
 30
0.0
 10
245.4030040108023
 20
27.61036501506426
 30
0.0
 10
245.3957450335382
 20
27.64577443830739
 30
0.0
  0
ARC
  5
216
330
1F
100
AcDbEntity
  8
0
  6
Continuous
 62
     7
370
    15
100
AcDbCircle
 10
251.2248703227
 20
28.5469826626
 30
0.0
 40
5.716437977995504
100
AcDbArc
 50
210.6605962856
 51
239.523282669
  0
ELLIPSE
  5
217
330
1F
100
AcDbEntity
  8
0
  6
Continuous
 62
     7
370
    15
100
AcDbEllipse
 10
247.4942913444
 20
29.7810355679
 30
0.0
 11
0.2600075789209484
 21
0.9705436209909308
 31
0.0
210
0.0
220
0.0
230
1.0
 40
0.5176380889
 41
3.619174351347763
 42
5.189970678142607
  0
SPLINE
  5
218
330
1F
100
AcDbEntity
  8
0
  6
Continuous
 62
     7
370
    15
100
AcDbSpline
210
0.0
220
0.0
230
1.0
 70
     8
 71
     3
 72
    12
 73
     8
 74
     0
 42
0.000000001
 43
0.00000001
 40
0.0
 40
0.0
 40
0.0
 40
0.0
 40
0.5
 40
0.5
 40
0.75
 40
0.75
 40
1.0
 40
1.0
 40
1.0
 40
1.0
 10
264.949721581252
 20
50.12063960334913
 30
0.0
 10
265.0121649070767
 20
50.15668736804945
 30
0.0
 10
265.0915015122988
 20
50.18234636810724
 30
0.0
 10
265.22237487564
 20
50.19413012811371
 30
0.0
 10
265.2671471880109
 20
50.19331985591018
 30
0.0
 10
265.3524091040142
 20
50.17977137552284
 30
0.0
 10
265.3918253111325
 20
50.16700676451343
 30
0.0
 10
265.4230649713824
 20
50.14897249252147
 30
0.0
  0
LINE
  5
219
330
1F
100
AcDbEntity
  8
0
  6
Continuous
 62
     7
370
    15
100
AcDbLine
 10
265.4230649714
 20
50.1489724925
 30
0.0
 11
266.5747282369
 21
49.4841314409
 31
0.0
  0
SPLINE
  5
21A
330
1F
100
AcDbEntity
  8
0
  6
Continuous
 62
     7
370
    15
100
AcDbSpline
210
0.0
220
0.0
230
1.0
 70
     8
 71
     3
 72
     9
 73
     5
 74
     0
 42
0.000000001
 43
0.00000001
 40
0.0
 40
0.0
 40
0.0
 40
0.0
 40
0.8664449205980795
 40
1.0
 40
1.0
 40
1.0
 40
1.0
 10
268.1418093550272
 20
47.70381758653637
 30
0.0
 10
268.4609860223769
 20
47.77310773867925
 30
0.0
 10
268.8293610451415
 20
47.85307837558373
 30
0.0
 10
269.199701199859
 20
47.92994743441665
 30
0.0
 10
269.2491620086281
 20
47.94021368767263
 30
0.0
  0
LINE
  5
21B
330
1F
100
AcDbEntity
  8
0
  6
Continuous
 62
     7
370
    15
100
AcDbLine
 10
269.2491620086
 20
47.9402136877
 30
0.0
 11
270.6026221436
 21
47.158877783
 31
0.0
  0
SPLINE
  5
21C
330
1F
100
AcDbEntity
  8
0
  6
Continuous
 62
     7
370
    15
100
AcDbSpline
210
0.0
220
0.0
230
1.0
 70
     8
 71
     3
 72
    14
 73
    10
 74
     0
 42
0.000000001
 43
0.00000001
 40
0.0
 40
0.0
 40
0.0
 40
0.0
 40
0.25
 40
0.25
 40
0.5
 40
0.5
 40
0.75
 40
0.75
 40
1.0
 40
1.0
 40
1.0
 40
1.0
 10
270.6026221435739
 20
47.15887778297079
 30
0.0
 10
270.6338842317319
 20
47.14083056362301
 30
0.0
 10
270.6561516038281
 20
47.11774124818269
 30
0.0
 10
270.6793050018164
 20
47.06912989491398
 30
0.0
 10
270.6808251718123
 20
47.04313011334887
 30
0.0
 10
270.6673800010414
 20
46.99299718396144
 30
0.0
 10
270.6526804953933
 20
46.96880686885005
 30
0.0
 10
270.6110355004176
 20
46.92385642607746
 30
0.0
 10
270.5847232169001
 20
46.9036225189957
 30
0.0
 10
270.5535428221554
 20
46.88562246025165
 30
0.0
  0
LINE
  5
21D
330
1F
100
AcDbEntity
  8
0
  6
Continuous
 62
     7
370
    15
100
AcDbLine
 10
270.5535428222
 20
46.8856224603
 30
0.0
 11
268.1663767066
 21
45.507540795
 31
0.0
  0
LINE
  5
21E
330
1F
100
AcDbEntity
  8
0
  6
Continuous
 62
     7
370
    15
100
AcDbLine
 10
264.9497215813
 20
50.1206396033
 30
0.0
 11
264.4418008915
 21
49.8274232305
 31
0.0
  0
LWPOLYLINE
  5
21F
330
1F
100
AcDbEntity
  8
0
  6
Continuous
 62
     7
370
     0
100
AcDbPolyline
 90
       26
 70
   128
 43
0.0
 10
266.9877648863
 20
43.4587884286
 10
266.0105135876
 20
42.7794522556
 10
265.0455982193
 20
42.0097809795
 10
264.1002931052
 20
41.1555770138
 10
263.1817247308
 20
40.2232800488
 10
262.2968180182
 20
39.219918504
 10
261.4522441202
 20
38.153056542
 10
260.6543701278
 20
37.0307370435
 10
259.9092110698
 20
35.8614209739
 10
259.2223845666
 20
34.6539235969
 10
258.5990684799
 20
33.4173480186
 10
258.0439618777
 20
32.1610165602
 10
257.5612496091
 20
30.8944004791
 10
257.1545707552
 20
29.6270485666
 10
256.826991195
 20
28.3685151611
 10
256.5809804918
 20
27.1282881201
 10
256.4183932762
 20
25.9157172926
 10
256.340455264
 20
24.7399440324
 10
256.347754016
 20
23.609832283
 10
256.4402345081
 20
22.533901754
 10
256.6171995465
 20
21.5202636925
 10
256.8773150236
 20
20.5765597339
 10
257.2186199754
 20
19.709904293
 10
257.6385413653
 20
18.9268309294
 10
258.1339134812
 20
18.2332430927
 10
258.410533546
 20
17.919782945
  0
ARC
  5
220
330
1F
100
AcDbEntity
  8
0
  6
Continuous
 62
     7
370
     0
100
AcDbCircle
 10
272.6404038306
 20
36.6159871503
 30
0.0
 40
8.752419898918362
100
AcDbArc
 50
79.5854121655
 51
119.6852087525
  0
LWPOLYLINE
  5
221
330
1F
100
AcDbEntity
  8
0
  6
Continuous
 62
     7
370
     0
100
AcDbPolyline
 90
       20
 70
   128
 43
0.0
 10
269.768593271
 20
19.1676635954
 10
270.1585097773
 20
18.6089081539
 10
270.6247469034
 20
18.1519153893
 10
271.1609731239
 20
17.8028912882
 10
271.759906458
 20
17.5665756165
 10
272.4134133588
 20
17.4461775538
 10
273.1126191672
 20
17.4433321123
 10
273.8480286309
 20
17.5580779332
 10
274.6096548497
 20
17.7888567621
 10
275.3871548986
 20
18.1325346101
 10
276.169970285
 20
18.5844443135
 10
276.9474703339
 20
19.1384489142
 10
277.7090965527
 20
19.7870249999
 10
278.4445060164
 20
20.5213648725
 10
279.1437118249
 20
21.3314961569
 10
279.7972187256
 20
22.2064172267
 10
280.3961520597
 20
23.1342466067
 10
280.9323782803
 20
24.1023843239
 10
281.3986154063
 20
25.097683016
 10
281.7885319126
 20
26.1066264732
  0
LWPOLYLINE
  5
222
330
1F
100
AcDbEntity
  8
0
  6
Continuous
 62
     7
370
     0
100
AcDbPolyline
 90
       20
 70
   128
 43
0.0
 10
281.788157499
 20
33.0378823985
 10
281.3982046438
 20
33.5964754623
 10
280.9319539163
 20
34.0533221281
 10
280.3957356019
 20
34.4022197895
 10
279.7968299361
 20
34.6384314634
 10
279.1433682601
 20
34.7587501043
 10
278.4442226222
 20
34.761542146
 10
277.7088853218
 20
34.6467696812
 10
276.9473400324
 20
34.4159909753
 10
276.1699262533
 20
34.0723393105
 10
275.3871989303
 20
33.620480445
 10
274.6097851512
 20
33.066549266
 10
273.8482398618
 20
32.4180664964
 10
273.1129025615
 20
31.6838365857
 10
272.4137569236
 20
30.8738281726
 10
271.7602952476
 20
29.99903874
 10
271.1613895817
 20
29.0713453028
 10
270.6251712674
 20
28.1033431537
 10
270.1589205399
 20
27.1081748564
 10
269.7689676846
 20
26.0993518095
  0
ARC
  5
223
330
1F
100
AcDbEntity
  8
0
  6
Continuous
 62
     7
370
     0
100
AcDbCircle
 10
278.3003446029
 20
31.3334912177
 30
0.0
 40
3.209742121786503
100
AcDbArc
 50
32.1812201738
 51
57.1300172547
  0
LINE
  5
224
330
1F
100
AcDbEntity
  8
0
  6
Continuous
 62
     7
370
     0
100
AcDbLine
 10
267.5054132519
 20
19.6919855354
 30
0.0
 11
267.5938015996
 21
19.3621227428
 31
0.0
  0
LWPOLYLINE
  5
225
330
1F
100
AcDbEntity
  8
0
  6
Continuous
 62
     7
370
     0
100
AcDbPolyline
 90
       17
 70
   128
 43
0.0
 10
270.9253749044
 20
18.5121104525
 10
271.2507186715
 20
18.3496763871
 10
271.8517659429
 20
18.1626493478
 10
272.5035537143
 20
18.0912667167
 10
273.1968265181
 20
18.1365421361
 10
273.9217397939
 20
18.2978326892
 10
274.6679996828
 20
18.5728480302
 10
275.4250092012
 20
18.957682907
 10
276.1820187197
 20
19.4468726162
 10
276.9282786086
 20
20.0334706029
 10
277.6531918844
 20
20.7091471026
 10
278.3464646882
 20
21.4643074247
 10
278.9982524596
 20
22.2882281985
 10
279.599299731
 20
23.1692096461
 10
280.1410715562
 20
24.0947417211
 10
280.6158747077
 20
25.0516817526
 10
281.0169669215
 20
26.0264410728
  0
LINE
  5
226
330
1F
100
AcDbEntity
  8
0
  6
Continuous
 62
     7
370
     0
100
AcDbLine
 10
266.8316822384
 20
20.0809221707
 30
0.0
 11
267.5054132519
 21
19.6919855354
 31
0.0
  0
ARC
  5
227
330
1F
100
AcDbEntity
  8
0
  6
Continuous
 62
     7
370
     0
100
AcDbCircle
 10
258.401856042
 20
27.4643431741
 30
0.0
 40
5.002548658753585
100
AcDbArc
 50
197.5485508852
 51
234.9400411546
  0
LWPOLYLINE
  5
228
330
1F
100
AcDbEntity
  8
0
  6
Continuous
 62
     7
370
     0
100
AcDbPolyline
 90
       22
 70
   128
 43
0.0
 10
253.6321170009
 20
32.4782450235
 10
253.954519718
 20
33.6101278428
 10
254.3567809682
 20
34.7463946678
 10
254.8349117485
 20
35.8757777669
 10
255.3841706995
 20
36.9870776705
 10
255.999111123
 20
38.06927423
 10
256.6736349939
 20
39.1116358988
 10
257.4010534307
 20
40.1038261508
 10
258.1741530258
 20
41.0360059823
 10
258.9852673767
 20
41.8989314796
 10
259.8263531095
 20
42.6840454865
 10
260.6890696408
 20
43.3835624601
 10
261.5648618862
 20
43.9905456761
 10
262.4450450968
 20
44.4989760167
 10
263.3208909809
 20
44.9038116584
 10
264.1837142579
 20
45.2010380694
 10
265.0249587848
 20
45.3877078192
 10
265.8362824034
 20
45.4619698068
 10
266.6096396647
 20
45.4230876169
 10
267.3373616111
 20
45.2714468229
 10
268.0122318252
 20
45.0085511629
 10
268.2571501072
 20
44.8778329546
  0
LWPOLYLINE
  5
229
330
1F
100
AcDbEntity
  8
0
  6
Continuous
 62
     7
370
     0
100
AcDbPolyline
 90
       22
 70
   128
 43
0.0
 10
250.6769463163
 20
31.8381611858
 10
251.0083672756
 20
33.137440927
 10
251.425107684
 20
34.4468716012
 10
251.9237597013
 20
35.7557455095
 10
252.5002456655
 20
37.053359506
 10
253.1498514376
 20
38.329102521
 10
253.867264951
 20
39.5725423323
 10
254.6466196501
 20
40.7735108725
 10
255.4815424633
 20
41.9221873779
 10
256.365205918
 20
43.0091786958
 10
257.2903839713
 20
44.0255960962
 10
258.2495111002
 20
44.9631279583
 10
259.2347441674
 20
45.8141077371
 10
260.2380265578
 20
46.5715766565
 10
261.2511540603
 20
47.2293406128
 10
262.2658419565
 20
47.7820208271
 10
263.2737927684
 20
48.2250978287
 10
264.2667641093
 20
48.5549484132
 10
265.2366360855
 20
48.7688752703
 10
266.175477695
 20
48.8651290412
 10
267.0756116829
 20
48.8429226229
 10
267.9296773207
 20
48.7024376058
  0
LWPOLYLINE
  5
22A
330
1F
100
AcDbEntity
  8
0
  6
Continuous
 62
     7
370
     0
100
AcDbPolyline
 90
       23
 70
   128
 43
0.0
 10
251.0372794418
 20
31.5085376323
 10
251.3349290201
 20
32.7423926381
 10
251.7120781042
 20
33.9879110575
 10
252.1658211167
 20
35.2354973467
 10
252.692662396
 20
36.4755400312
 10
253.2885431273
 20
37.6984857529
 10
253.9488726123
 20
38.8949128696
 10
254.6685636356
 20
40.0556040398
 10
255.4420716574
 20
41.1716172339
 10
256.2634375286
 20
42.2343546239
 10
257.1263334006
 20
43.2356288213
 10
258.0241114754
 20
44.167725954
 10
258.9498552205
 20
45.0234650934
 10
259.8964326543
 20
45.7962535773
 10
260.8565512913
 20
46.4801378001
 10
261.8228143239
 20
47.0698490794
 10
262.7877776077
 20
47.5608442467
 10
263.7440070115
 20
47.9493406476
 10
264.6841356905
 20
48.2323452842
 10
265.6009208409
 20
48.407677873
 10
266.4872994986
 20
48.4739876418
 10
267.3364429529
 20
48.4307637365
 10
268.141809355
 20
48.2783391566
  0
LWPOLYLINE
  5
22B
330
1F
100
AcDbEntity
  8
0
  6
Continuous
 62
     7
370
     0
100
AcDbPolyline
 90
       22
 70
   128
 43
0.0
 10
252.9134131604
 20
32.4970071857
 10
253.2305818533
 20
33.6433486104
 10
253.6271409632
 20
34.7954672365
 10
254.099352981
 20
35.9425045218
 10
254.6427673804
 20
37.0736498149
 10
255.2522625638
 20
38.1782422439
 10
255.9220941319
 20
39.2458711938
 10
256.6459490244
 20
40.2664744246
 10
257.4170050195
 20
41.2304329066
 10
258.227995032
 20
42.1286614781
 10
259.0712756048
 20
42.9526944719
 10
259.9388989472
 20
43.6947655028
 10
260.8226878414
 20
44.3478806646
 10
261.7143127121
 20
44.9058844464
 10
262.6053701309
 20
45.3635177479
 10
263.4874620176
 20
45.7164674448
 10
264.3522747907
 20
45.9614070403
 10
265.1916577218
 20
46.096028016
 10
265.9976997548
 20
46.1190615896
 10
266.7628040666
 20
46.0302906734
 10
267.4797596657
 20
45.8305519197
 10
268.141809355
 20
45.5217278357
  0
ARC
  5
22C
330
1F
100
AcDbEntity
  8
0
  6
Continuous
 62
     7
370
     0
100
AcDbCircle
 10
265.9217630282
 20
41.665488532
 30
0.0
 40
4.449680455557107
100
AcDbArc
 50
43.8468897869
 51
59.7055630611
  0
LWPOLYLINE
  5
22D
330
1F
100
AcDbEntity
  8
0
  6
Continuous
 62
     7
370
     0
100
AcDbPolyline
 90
       22
 70
   128
 43
0.0
 10
245.4973891441
 20
34.8282558953
 10
245.8288101034
 20
36.1275356365
 10
246.2455505118
 20
37.4369663107
 10
246.7442025291
 20
38.7458402191
 10
247.3206884933
 20
40.0434542155
 10
247.9702942654
 20
41.3191972306
 10
248.6877077788
 20
42.5626370418
 10
249.4670624779
 20
43.7636055821
 10
250.3019852911
 20
44.9122820874
 10
251.1856487458
 20
45.9992734053
 10
252.1108267991
 20
47.0156908058
 10
253.069953928
 20
47.9532226678
 10
254.0551869952
 20
48.8042024467
 10
255.0584693856
 20
49.561671366
 10
256.0715968881
 20
50.2194353224
 10
257.0862847843
 20
50.7721155366
 10
258.0942355962
 20
51.2151925382
 10
259.0872069371
 20
51.5450431227
 10
260.0570789133
 20
51.7589699799
 10
260.9959205228
 20
51.8552237507
 10
261.8960545107
 20
51.8330173325
 10
262.7501201485
 20
51.6925323153
  0
LWPOLYLINE
  5
22E
330
1F
100
AcDbEntity
  8
0
  6
Continuous
 62
     7
370
     0
100
AcDbPolyline
 90
       18
 70
   128
 43
0.0
 10
248.9693663453
 20
33.91848617
 10
249.2818862206
 20
35.1220789226
 10
249.676997944
 20
36.334529937
 10
250.1511424664
 20
37.5449178148
 10
250.7000488352
 20
38.7423397421
 10
251.3187726649
 20
39.9160096982
 10
252.0017406752
 20
41.0553556131
 10
252.7428008934
 20
42.1501145975
 10
253.5352780693
 20
43.1904253881
 10
254.3720338044
 20
44.1669171747
 10
255.2455308516
 20
45.0707940095
 10
256.1479010093
 20
45.8939140388
 10
257.0710159955
 20
46.6288628422
 10
258.0065606648
 20
47.2690202193
 10
258.9461079091
 20
47.8086198228
 10
259.8811945662
 20
48.2428011001
 10
260.8033976534
 20
48.5676530751
 10
261.0793879818
 20
48.6441269349
  0
LWPOLYLINE
  5
22F
330
1F
100
AcDbEntity
  8
0
  6
Continuous
 62
     7
370
     0
100
AcDbPolyline
 90
       21
 70
   128
 43
0.0
 10
248.3915817465
 20
33.9115014656
 10
248.7026520517
 20
35.1384642562
 10
249.097662033
 20
36.3754506436
 10
249.5731087266
 20
37.6114909846
 10
250.124775853
 20
38.8356240259
 10
250.7477712066
 20
40.0369941082
 10
251.4365700407
 20
41.2049474354
 10
252.1850640605
 20
42.3291265521
 10
252.9866155923
 20
43.3995621945
 10
253.834116446
 20
44.4067616981
 10
254.7200509513
 20
45.3417931787
 10
255.6365626068
 20
46.196364741
 10
256.5755237518
 20
46.9628980114
 10
257.5286076425
 20
47.6345953432
 10
258.4873622942
 20
48.2055000986
 10
259.4432854336
 20
48.6705494721
 10
260.3878998974
 20
49.0256193879
 10
261.312828808
 20
49.2675610724
 10
262.2098698601
 20
49.3942289772
 10
263.0710680589
 20
49.4044998065
 10
263.1525002388
 20
49.3992847689
  0
LINE
  5
230
330
1F
100
AcDbEntity
  8
0
  6
Continuous
 62
     7
370
     0
100
AcDbLine
 10
255.1104490347
 20
25.8312084552
 30
0.0
 11
254.8814556538
 21
25.7261646443
 31
0.0
  0
ARC
  5
231
330
1F
100
AcDbEntity
  8
0
  6
Continuous
 62
     7
370
     0
100
AcDbCircle
 10
254.4118004324
 20
26.3631155356
 30
0.0
 40
0.791380101384669
100
AcDbArc
 50
306.4031773342
 51
30.640758861
  0
LWPOLYLINE
  5
232
330
1F
100
AcDbEntity
  8
0
  6
Continuous
 62
     7
370
     0
100
AcDbPolyline
 90
        3
 70
   128
 43
0.0
 10
255.092687798
 20
26.7664452519
 10
255.415221384
 20
26.9461032401
 10
255.652394596
 20
27.2067344345
  0
SPLINE
  5
233
330
1F
100
AcDbEntity
  8
0
  6
Continuous
 62
     7
370
     0
100
AcDbSpline
210
0.0
220
0.0
230
1.0
 70
     8
 71
     3
 72
     9
 73
     5
 74
     0
 42
0.000000001
 43
0.00000001
 40
0.0
 40
0.0
 40
0.0
 40
0.0
 40
0.2548216540992224
 40
1.0
 40
1.0
 40
1.0
 40
1.0
 10
254.2068324634048
 20
31.91286676903072
 30
0.0
 10
254.1848802567237
 20
31.9331898704175
 30
0.0
 10
254.0987329206245
 20
32.01294408698367
 30
0.0
 10
254.0096446620771
 20
32.08015818632996
 30
0.0
 10
253.9432580209335
 20
32.13024467770204
 30
0.0
  0
LINE
  5
234
330
1F
100
AcDbEntity
  8
0
  6
Continuous
 62
     7
370
     0
100
AcDbLine
 10
253.9486205565
 20
32.2134101279
 30
0.0
 11
253.9432580209
 21
32.1302446777
 31
0.0
  0
LINE
  5
235
330
1F
100
AcDbEntity
  8
0
  6
Continuous
 62
     7
370
     0
100
AcDbLine
 10
253.6637980102
 20
32.2769624893
 30
0.0
 11
253.145263588
 21
32.5763060396
 31
0.0
  0
ARC
  5
236
330
1F
100
AcDbEntity
  8
0
  6
Continuous
 62
     7
370
     0
100
AcDbCircle
 10
252.1250533011
 20
29.6116666795
 30
0.0
 40
3.077586234997188
100
AcDbArc
 50
59.193879837
 51
60.0010406395
  0
SPLINE
  5
237
330
1F
100
AcDbEntity
  8
0
  6
Continuous
 62
     7
370
     0
100
AcDbSpline
210
0.0
220
0.0
230
1.0
 70
     8
 71
     3
 72
    12
 73
     8
 74
     0
 42
0.000000001
 43
0.00000001
 40
0.0
 40
0.0
 40
0.0
 40
0.0
 40
0.25
 40
0.25
 40
0.5
 40
0.5
 40
1.0
 40
1.0
 40
1.0
 40
1.0
 10
253.9432580209335
 20
32.13024467770204
 30
0.0
 10
253.9231898887731
 20
32.14506342900255
 30
0.0
 10
253.9028906873405
 20
32.15570043930352
 30
0.0
 10
253.8625974053092
 20
32.17477503680931
 30
0.0
 10
253.842501812365
 20
32.18344563825352
 30
0.0
 10
253.7821341246592
 20
32.21083111842789
 30
0.0
 10
253.7417871409575
 20
32.23081746620957
 30
0.0
 10
253.7011917380033
 20
32.25502149140032
 30
0.0
  0
SPLINE
  5
238
330
1F
100
AcDbEntity
  8
0
  6
Continuous
 62
     7
370
     0
100
AcDbSpline
210
0.0
220
0.0
230
1.0
 70
     8
 71
     3
 72
    12
 73
     8
 74
     0
 42
0.000000001
 43
0.00000001
 40
0.0
 40
0.0
 40
0.0
 40
0.0
 40
0.4999999999999987
 40
0.4999999999999987
 40
0.7499999999999993
 40
0.7499999999999993
 40
1.0
 40
1.0
 40
1.0
 40
1.0
 10
253.9432580209335
 20
26.83433440393681
 30
0.0
 10
254.1554379557271
 20
26.74603500825693
 30
0.0
 10
254.357563150271
 20
26.70050956811457
 30
0.0
 10
254.6475829564127
 20
26.68603008207741
 30
0.0
 10
254.7420259513682
 20
26.69040746971377
 30
0.0
 10
254.9226318746513
 20
26.71601821132931
 30
0.0
 10
255.0093771911496
 20
26.73719207374798
 30
0.0
 10
255.0926877980467
 20
26.76644525193165
 30
0.0
  0
SPLINE
  5
239
330
1F
100
AcDbEntity
  8
0
  6
Continuous
 62
     7
370
     0
100
AcDbSpline
210
0.0
220
0.0
230
1.0
 70
     8
 71
     3
 72
    12
 73
     8
 74
     0
 42
0.000000001
 43
0.00000001
 40
0.0
 40
0.0
 40
0.0
 40
0.0
 40
0.4999999999999998
 40
0.4999999999999998
 40
0.7499999999999999
 40
0.7499999999999999
 40
1.0
 40
1.0
 40
1.0
 40
1.0
 10
253.7011917380011
 20
26.9890413715315
 30
0.0
 10
253.7416077072031
 20
26.96647512891141
 30
0.0
 10
253.7819703150612
 20
26.93988838168224
 30
0.0
 10
253.8423007611889
 20
26.89760704003789
 30
0.0
 10
253.8623866569211
 20
26.8830839263176
 30
0.0
 10
253.9026491230699
 20
26.85564284821086
 30
0.0
 10
253.9228319027462
 20
26.84283480192935
 30
0.0
 10
253.9432580209334
 20
26.83433440393589
 30
0.0
  0
ARC
  5
23A
330
1F
100
AcDbEntity
  8
0
  6
Continuous
 62
     7
370
     0
100
AcDbCircle
 10
255.1651580711
 20
29.6108109363
 30
0.0
 40
3.002810862342681
100
AcDbArc
 50
240.0009996177
 51
240.8215053729
  0
LINE
  5
23B
330
1F
100
AcDbEntity
  8
0
  6
Continuous
 62
     7
370
     0
100
AcDbLine
 10
248.1792155849
 20
30.1764562928
 30
0.0
 11
253.6637980102
 21
27.0102742527
 31
0.0
  0
LINE
  5
23C
330
1F
100
AcDbEntity
  8
0
  6
Continuous
 62
     7
370
     0
100
AcDbLine
 10
248.0599767693
 20
30.1075988127
 30
0.0
 11
248.1792155849
 21
30.1764562928
 31
0.0
  0
LINE
  5
23D
330
1F
100
AcDbEntity
  8
0
  6
Continuous
 62
     7
370
     0
100
AcDbLine
 10
283.963323584
 20
28.8120466372
 30
0.0
 11
283.6981585411
 21
29.0398584157
 31
0.0
  0
ARC
  5
23E
330
1F
100
AcDbEntity
  8
0
  6
Continuous
 62
     7
370
     0
100
AcDbCircle
 10
253.2202712567
 20
32.2833853504
 30
0.0
 40
0.4817561809075534
100
AcDbArc
 50
356.6247038836
 51
29.3433142609
  0
LWPOLYLINE
  5
23F
330
1F
100
AcDbEntity
  8
0
  6
Continuous
 62
     7
370
     0
100
AcDbPolyline
 90
        3
 70
   128
 43
0.0
 10
253.629095681
 20
32.4822026518
 10
253.6529285234
 20
32.3981270361
 10
253.6637980102
 20
32.2769624893
  0
LWPOLYLINE
  5
240
330
1F
100
AcDbEntity
  8
0
  6
Continuous
 62
     7
370
     0
100
AcDbPolyline
 90
        3
 70
   128
 43
0.0
 10
247.9811334115
 20
32.9563970036
 10
247.9804272564
 20
33.0776349914
 10
248.0051885301
 20
33.8117103444
  0
LWPOLYLINE
  5
241
330
1F
100
AcDbEntity
  8
0
  6
Continuous
 62
     7
370
     0
100
AcDbPolyline
 90
       18
 70
   128
 43
0.0
 10
226.708544398
 20
49.3695983687
 10
226.7511983087
 20
50.0986035753
 10
226.8783298307
 20
50.8626666818
 10
227.0874644936
 20
51.6469160688
 10
227.3745317291
 20
52.4360872141
 10
227.7339441
 20
53.2148197991
 10
228.1587060534
 20
53.9679566797
 10
228.6405500809
 20
54.6808389034
 10
229.1700976366
 20
55.3395910284
 10
229.7370416798
 20
55.931391194
 10
230.3303472895
 20
56.4447206832
 10
230.9384664468
 20
56.8695881212
 10
231.5495628043
 20
57.1977239468
 10
232.1517420662
 20
57.4227413694
 10
232.7332834983
 20
57.5402606807
 10
233.2828680581
 20
57.547994501
 10
233.7897987073
 20
57.4457923004
 10
233.7937132464
 20
57.4445162902
  0
ARC
  5
242
330
1F
100
AcDbEntity
  8
0
  6
Continuous
 62
     7
370
     0
100
AcDbCircle
 10
230.0892251604
 20
49.1373137982
 30
0.0
 40
3.38865143365971
100
AcDbArc
 50
176.0694185984
 51
224.9117477784
  0
ARC
  5
243
330
1F
100
AcDbEntity
  8
0
  6
Continuous
 62
     7
370
     0
100
AcDbCircle
 10
252.8023476618
 20
26.74421874
 30
0.0
 40
1.144463752316686
100
AcDbArc
 50
316.471255198
 51
4.5161741114
  0
ARC
  5
244
330
1F
100
AcDbEntity
  8
0
  6
Continuous
 62
     7
370
     0
100
AcDbCircle
 10
257.634829564
 20
27.2591647901
 30
0.0
 40
4.906610713811715
100
AcDbArc
 50
195.7919658232
 51
254.4931937298
  0
ARC
  5
245
330
1F
100
AcDbEntity
  8
0
  6
Continuous
 62
     7
370
     0
100
AcDbCircle
 10
256.7734862345
 20
25.8876222791
 30
0.0
 40
5.848670507104949
100
AcDbArc
 50
191.2541746095
 51
272.1693260534
  0
ARC
  5
246
330
1F
100
AcDbEntity
  8
0
  6
Continuous
 62
     7
370
     0
100
AcDbCircle
 10
258.1409334658
 20
26.6589034023
 30
0.0
 40
7.772619905664606
100
AcDbArc
 50
196.200281843
 51
210.7620114313
  0
LINE
  5
247
330
1F
100
AcDbEntity
  8
0
  6
Continuous
 62
     7
370
     0
100
AcDbLine
 10
253.0981125853
 20
26.0304783584
 30
0.0
 11
247.847844735
 21
29.0613934736
 31
0.0
  0
LINE
  5
248
330
1F
100
AcDbEntity
  8
0
  6
Continuous
 62
     7
370
     0
100
AcDbLine
 10
252.9134131604
 20
25.92385365
 30
0.0
 11
253.0981125853
 21
26.0304783584
 31
0.0
  0
LINE
  5
249
330
1F
100
AcDbEntity
  8
0
  6
Continuous
 62
     7
370
     0
100
AcDbLine
 10
278.0059489525
 20
32.3259010658
 30
0.0
 11
283.6981585411
 21
29.0398584157
 31
0.0
  0
ARC
  5
24A
330
1F
100
AcDbEntity
  8
0
  6
Continuous
 62
     7
370
     0
100
AcDbCircle
 10
252.4894052692
 20
27.0238403542
 30
0.0
 40
1.212286028627348
100
AcDbArc
 50
302.7253456129
 51
358.3550839391
  0
ARC
  5
24B
330
1F
100
AcDbEntity
  8
0
  6
Continuous
 62
     7
370
     0
100
AcDbCircle
 10
254.9719029904
 20
29.2761093096
 30
0.0
 40
3.747694058103967
100
AcDbArc
 50
240.0009995993
 51
240.8215053806
  0
ARC
  5
24C
330
1F
100
AcDbEntity
  8
0
  6
Continuous
 62
     7
370
     0
100
AcDbCircle
 10
252.4356251291
 20
27.0661629345
 30
0.0
 40
1.229443846057626
100
AcDbArc
 50
302.60547834
 51
357.3945215143
  0
LINE
  5
24D
330
1F
100
AcDbEntity
  8
0
  6
Continuous
 62
     7
370
     0
100
AcDbLine
 10
249.8318279594
 20
26.6521506971
 30
0.0
 11
249.7542548724
 21
26.8922261323
 31
0.0
  0
LWPOLYLINE
  5
24E
330
1F
100
AcDbEntity
  8
0
  6
Continuous
 62
     7
370
     0
100
AcDbPolyline
 90
        3
 70
   128
 43
0.0
 10
249.472940489
 20
26.1062650083
 10
249.2811756055
 20
26.5041739708
 10
248.9693663453
 20
27.3453326344
  0
ARC
  5
24F
330
1F
100
AcDbEntity
  8
0
  6
Continuous
 62
     7
370
     0
100
AcDbCircle
 10
255.045742668
 20
29.2184727591
 30
0.0
 40
6.914674753193824
100
AcDbArc
 50
195.7775724825
 51
213.9759604095
  0
ARC
  5
250
330
1F
100
AcDbEntity
  8
0
  6
Continuous
 62
     7
370
     0
100
AcDbCircle
 10
252.9425561578
 20
29.6416281677
 30
0.0
 40
7.752491105416892
100
AcDbArc
 50
196.1867824076
 51
211.1460270806
  0
LINE
  5
251
330
1F
100
AcDbEntity
  8
0
  6
Continuous
 62
     7
370
     0
100
AcDbLine
 10
268.1663767066
 20
45.507540795
 30
0.0
 11
268.141809355
 21
45.4933583649
 31
0.0
  0
ARC
  5
252
330
1F
100
AcDbEntity
  8
0
  6
Continuous
 62
     7
370
     0
100
AcDbCircle
 10
266.0674970042
 20
42.4954557842
 30
0.0
 40
6.276796199014657
100
AcDbArc
 50
27.5472682841
 51
44.3811260678
  0
OLE2FRAME
  5
253
330
1F
100
AcDbEntity
  8
0
100
AcDbOle2Frame
 70
     2
  3
Paintbrush-Bild
 10
13.8511154363
 20
38.264191557
 30
0.0
 11
51.6290888628
 21
31.9806341108
 31
0.0
 71
     2
 72
     0
 73
     1
 90
    12928
310
80552BED0767C5B32B40DDAF6807D121434000000000000000006FFBDDFB85D0
310
4940DDAF6807D121434000000000000000006FFBDDFB85D04940416F4BD60AFB
310
3F4000000000000000002BED0767C5B32B40416F4BD60AFB3F40000000000000
310
0000000000000100000000010000010000000100000000000100000000320000
310
D0CF11E0A1B11AE1000000000000000000000000000000003E000300FEFF0900
310
0600000000000000000000000100000001000000000000000010000002000000
310
01000000FEFFFFFF0000000000000000FFFFFFFFFFFFFFFFFFFFFFFFFFFFFFFF
310
FFFFFFFFFFFFFFFFFFFFFFFFFFFFFFFFFFFFFFFFFFFFFFFFFFFFFFFFFFFFFFFF
310
FFFFFFFFFFFFFFFFFFFFFFFFFFFFFFFFFFFFFFFFFFFFFFFFFFFFFFFFFFFFFFFF
310
FFFFFFFFFFFFFFFFFFFFFFFFFFFFFFFFFFFFFFFFFFFFFFFFFFFFFFFFFFFFFFFF
310
FFFFFFFFFFFFFFFFFFFFFFFFFFFFFFFFFFFFFFFFFFFFFFFFFFFFFFFFFFFFFFFF
310
FFFFFFFFFFFFFFFFFFFFFFFFFFFFFFFFFFFFFFFFFFFFFFFFFFFFFFFFFFFFFFFF
310
FFFFFFFFFFFFFFFFFFFFFFFFFFFFFFFFFFFFFFFFFFFFFFFFFFFFFFFFFFFFFFFF
310
FFFFFFFFFFFFFFFFFFFFFFFFFFFFFFFFFFFFFFFFFFFFFFFFFFFFFFFFFFFFFFFF
310
FFFFFFFFFFFFFFFFFFFFFFFFFFFFFFFFFFFFFFFFFFFFFFFFFFFFFFFFFFFFFFFF
310
FFFFFFFFFFFFFFFFFFFFFFFFFFFFFFFFFFFFFFFFFFFFFFFFFFFFFFFFFFFFFFFF
310
FFFFFFFFFFFFFFFFFFFFFFFFFFFFFFFFFFFFFFFFFFFFFFFFFFFFFFFFFFFFFFFF
310
FFFFFFFFFFFFFFFFFFFFFFFFFFFFFFFFFFFFFFFFFFFFFFFFFFFFFFFFFFFFFFFF
310
FFFFFFFFFFFFFFFFFFFFFFFFFFFFFFFFFFFFFFFFFFFFFFFFFFFFFFFFFFFFFFFF
310
FFFFFFFFFFFFFFFFFFFFFFFFFFFFFFFFFFFFFFFFFFFFFFFFFFFFFFFFFFFFFFFF
310
FDFFFFFFFEFFFFFFFEFFFFFFFEFFFFFF05000000060000000700000008000000
310
090000000A0000000B0000000C0000000D0000000E0000000F00000010000000
310
11000000120000001300000014000000150000001600000017000000FEFFFFFF
310
FFFFFFFFFFFFFFFFFFFFFFFFFFFFFFFFFFFFFFFFFFFFFFFFFFFFFFFFFFFFFFFF
310
FFFFFFFFFFFFFFFFFFFFFFFFFFFFFFFFFFFFFFFFFFFFFFFFFFFFFFFFFFFFFFFF
310
FFFFFFFFFFFFFFFFFFFFFFFFFFFFFFFFFFFFFFFFFFFFFFFFFFFFFFFFFFFFFFFF
310
FFFFFFFFFFFFFFFFFFFFFFFFFFFFFFFFFFFFFFFFFFFFFFFFFFFFFFFFFFFFFFFF
310
FFFFFFFFFFFFFFFFFFFFFFFFFFFFFFFFFFFFFFFFFFFFFFFFFFFFFFFFFFFFFFFF
310
FFFFFFFFFFFFFFFFFFFFFFFFFFFFFFFFFFFFFFFFFFFFFFFFFFFFFFFFFFFFFFFF
310
FFFFFFFFFFFFFFFFFFFFFFFFFFFFFFFFFFFFFFFFFFFFFFFFFFFFFFFFFFFFFFFF
310
FFFFFFFFFFFFFFFFFFFFFFFFFFFFFFFFFFFFFFFFFFFFFFFFFFFFFFFFFFFFFFFF
310
FFFFFFFFFFFFFFFFFFFFFFFFFFFFFFFFFFFFFFFFFFFFFFFFFFFFFFFFFFFFFFFF
310
FFFFFFFFFFFFFFFFFFFFFFFFFFFFFFFFFFFFFFFFFFFFFFFFFFFFFFFFFFFFFFFF
310
FFFFFFFFFFFFFFFFFFFFFFFFFFFFFFFFFFFFFFFFFFFFFFFFFFFFFFFFFFFFFFFF
310
FFFFFFFFFFFFFFFFFFFFFFFFFFFFFFFFFFFFFFFFFFFFFFFFFFFFFFFFFFFFFFFF
310
FFFFFFFFFFFFFFFFFFFFFFFFFFFFFFFFFFFFFFFFFFFFFFFFFFFFFFFFFFFFFFFF
310
52006F006F007400200045006E00740072007900000000000000000000000000
310
0000000000000000000000000000000000000000000000000000000000000000
310
16000500FFFFFFFFFFFFFFFF020000000A00030000000000C000000000000046
310
000000000000000000000000F012567DE61ED20103000000C000000000000000
310
01004F006C006500000000000000000000000000000000000000000000000000
310
0000000000000000000000000000000000000000000000000000000000000000
310
0A000200FFFFFFFFFFFFFFFFFFFFFFFF00000000000000000000000000000000
310
0000000000000000000000000000000000000000000000001400000000000000
310
010043006F006D0070004F0062006A0000000000000000000000000000000000
310
0000000000000000000000000000000000000000000000000000000000000000
310
120002010100000003000000FFFFFFFF00000000000000000000000000000000
310
0000000000000000000000000000000000000000010000004D00000000000000
310
01004F006C006500310030004E00610074006900760065000000000000000000
310
0000000000000000000000000000000000000000000000000000000000000000
310
1A000200FFFFFFFFFFFFFFFFFFFFFFFF00000000000000000000000000000000
310
0000000000000000000000000000000000000000040000002426000000000000
310
FEFFFFFF02000000FEFFFFFFFFFFFFFFFFFFFFFFFFFFFFFFFFFFFFFFFFFFFFFF
310
FFFFFFFFFFFFFFFFFFFFFFFFFFFFFFFFFFFFFFFFFFFFFFFFFFFFFFFFFFFFFFFF
310
FFFFFFFFFFFFFFFFFFFFFFFFFFFFFFFFFFFFFFFFFFFFFFFFFFFFFFFFFFFFFFFF
310
FFFFFFFFFFFFFFFFFFFFFFFFFFFFFFFFFFFFFFFFFFFFFFFFFFFFFFFFFFFFFFFF
310
FFFFFFFFFFFFFFFFFFFFFFFFFFFFFFFFFFFFFFFFFFFFFFFFFFFFFFFFFFFFFFFF
310
FFFFFFFFFFFFFFFFFFFFFFFFFFFFFFFFFFFFFFFFFFFFFFFFFFFFFFFFFFFFFFFF
310
FFFFFFFFFFFFFFFFFFFFFFFFFFFFFFFFFFFFFFFFFFFFFFFFFFFFFFFFFFFFFFFF
310
FFFFFFFFFFFFFFFFFFFFFFFFFFFFFFFFFFFFFFFFFFFFFFFFFFFFFFFFFFFFFFFF
310
FFFFFFFFFFFFFFFFFFFFFFFFFFFFFFFFFFFFFFFFFFFFFFFFFFFFFFFFFFFFFFFF
310
FFFFFFFFFFFFFFFFFFFFFFFFFFFFFFFFFFFFFFFFFFFFFFFFFFFFFFFFFFFFFFFF
310
FFFFFFFFFFFFFFFFFFFFFFFFFFFFFFFFFFFFFFFFFFFFFFFFFFFFFFFFFFFFFFFF
310
FFFFFFFFFFFFFFFFFFFFFFFFFFFFFFFFFFFFFFFFFFFFFFFFFFFFFFFFFFFFFFFF
310
FFFFFFFFFFFFFFFFFFFFFFFFFFFFFFFFFFFFFFFFFFFFFFFFFFFFFFFFFFFFFFFF
310
FFFFFFFFFFFFFFFFFFFFFFFFFFFFFFFFFFFFFFFFFFFFFFFFFFFFFFFFFFFFFFFF
310
FFFFFFFFFFFFFFFFFFFFFFFFFFFFFFFFFFFFFFFFFFFFFFFFFFFFFFFFFFFFFFFF
310
FFFFFFFFFFFFFFFFFFFFFFFFFFFFFFFFFFFFFFFFFFFFFFFFFFFFFFFFFFFFFFFF
310
0100000200000000000000000000000000000000000000000000000000000000
310
0000000000000000000000000000000000000000000000000000000000000000
310
0100FEFF030A0000FFFFFFFF0A00030000000000C00000000000004607000000
310
5042727573680007000000504272757368000700000050427275736800F439B2
310
7100000000000000000000000000000000000000000000000000000000000000
310
0000000000000000000000000000000000000000000000000000000000000000
310
0000000000000000000000000000000000000000000000000000000000000000
310
0000000000000000000000000000000000000000000000000000000000000000
310
0000000000000000000000000000000000000000000000000000000000000000
310
0000000000000000000000000000000000000000000000000000000000000000
310
0000000000000000000000000000000000000000000000000000000000000000
310
0000000000000000000000000000000000000000000000000000000000000000
310
0000000000000000000000000000000000000000000000000000000000000000
310
0000000000000000000000000000000000000000000000000000000000000000
310
0000000000000000000000000000000000000000000000000000000000000000
310
0000000000000000000000000000000000000000000000000000000000000000
310
20260000424D0E260000000000003E00000028000000B40200006E0000000100
310
01000000000000000000130B0000130B00000200000002000000000000FFFFFF
310
FFFFFFFFFFFFFFFFFFFFFFFFFFFFFFFFFFFFFFFFFFFFFFFFFFFFFFFFFFFFFFFF
310
FFFFFFFFFFFFFFFFFFFFFFFFFFFFFFFFFFFFFFFFFFFFFFFFFFFFFFFFFFFFFFFF
310
FFFFFFFFFFFFFFFFFFFFFFFFFFFFFFFFFFFFFFFFFFFFFFFFF000FFFFFFFFFFFF
310
FFFFFFFFFFFFFFFFFFFFFFFFFFFFFFFFFFFFFFFFFFFFFFFFFFFFFFFFFFFFFFFF
310
FFFFFFFFFFFFFFFFFFFFFFFFFFFFFFFFFFFFFFFFFFFFFFFFFFFFFFFFFFFFFFFF
310
FFFFFFFFFFFFFFFFFFFFFFFFFFFFFFFFF000FFFFFFFFFFFFFFFFFFFFFFFFFFFF
310
FFFFFFFFFFFFFFFFFFFFFFFFFFFFFFFFFFFFFFFFFFFFFFFFFFFFFFFFFFFFFFFF
310
FFFFFFFFFFFFFFFFFFFFFFFFFFFFFFFFFFFFFFFFFFFFFFFFFFFFFFFFFFFFFFFF
310
FFFFFFFFFFFFFFFFF000FFFFFFFFFFFFFFFFFFFFFFFFFFFFFFFFFFFFFFFFFFFF
310
FFFFFFFFFFFFFFFFFFFFFFFFFFFFFFFFFFFFFFFFFFFFFFFFFFFFFFFFFFFFFFFF
310
FFFFFFFFFFFFFFFFFFFFFFFFFFFFFFFFFFFFFFFFFFFFFFFFFFFFFFFFFFFFFFFF
310
F000FFFFFFFFFFFFFFFFFFFFFFFFFFFFFFFFFFFFFFFFFFFFFFFFFFFFFFFFFFFF
310
FFFFFFFFFFFFFFFFFFFFFFFFFFFFFFFFFFFFFFFFFFFFFFFFFFFFFFFFFFFFFFFF
310
FFFFFFFFFFFFFFFFFFFFFFFFFFFFFFFFFFFFFFFFFFFFFFFFF000FFFFFFFFFFFF
310
FFFFFFFFFFFFFFFFFFFFFFFFFFFFFFFFFFFFFFFFFFFFFFFFFFFFFFFFFFFFFFFF
310
FFFFFFFFFFFFFFFFFFFFFFFFFFFFFFFFFFFFFFFFFFFFFFFFFFFFFFFFFFFFFFFF
310
FFFFFFFFFFFFFFFFFFFFFFFFFFFFFFFFF000FFFFFFFFFFFFFFFFFFFFFFFFFFFF
310
FFFFFFFFFFFFFFFFFFFFFFFFFFFFFFFFFFFFFFFFFFFFFFFFFFFFFFFFFFFFFFFF
310
FFFFFFFFFFFFFFFFFFFFFFFFFFFFFFFFFFFFFFFFFFFFFFFFFFFFFFFFFFFFFFFF
310
FFFFFFFFFFFFFFFFF000FFFFFFFFFFFFFFFFFFFFFFFFFFFFFFFFFFFFFFFFFFFF
310
FFFFFFFFFFFFFFFFFFFFFFFFFFFFFFFFFFFFFFFFFFFFFFFFFFFFFFFFFFFFFFFF
310
FFFFFFFFFFFFFFFFFFFFFFFFFFFFFFFFFFFFFFFFFFFFFFFFFFFFFFFFFFFFFFFF
310
F000FFFFFFFFFFFFFFFFFFFFFFFFFFFFFFFFFFFFFFFFFFFFFFFFFFFFFFFFFFFF
310
FFFFFFFFFFFFFFFFFFFFFFFFFFFFFFFFFFFFFFFFFFFFFFFFFFFFFFFFFFFFFFFF
310
FFFFFFFFFFFFFFFFFFFFFFFFFFFFFFFFFFFFFFFFFFFFFFFFF000FFFFFFFFFFFF
310
FFFFFFFFFFFFFFFFFFFFFFFFFFFFFFFFFFFFFFFFFFFFFFFFFFFFFFFFFFFFFFFF
310
FFFFFFFFFFFFFFFFFFFFFFFFFFFFFFFFFFFFFFFFFFFFFFFFFFFFFFFFFFFFFFFF
310
FFFFFFFFFFFFFFFFFFFFFFFFFFFFFFFFF000FFFFFFFFFFFFFFFFFFFFFFFFFFFF
310
FFFFFFFFFFFFFFFFFFFFFFFFFFFFFFFFFFFFFFFFFFFFFFFFFFFFFFFFFFFFFFFF
310
FFFFFFFFFFFFFFFFFFFFFFFFFFFFFFFFFFFFFFFFFFFFFFFFFFFFFFFFFFFFFFFF
310
FFFFFFFFFFFFFFFFF000FFFFFFFFFFFFFFFFFFFFFFFFFFFFFFFFFFFFFFFFFFFF
310
FFFFFFFFFFFFFFFFFFFFFFFFFFFFFFFFFFFFFFFFFFFFFFFFFFFFFFFFFFFFFFFF
310
FFFFFFFFFFFFFFFFFFFFFFFFFFFFFFFFFFFFFFFFFFFFFFFFFFFFFFFFFFFFFFFF
310
F000FFFFFFFFFFFFFFFFFFFFFFFFFFFFFFFFFFFFFFFFFFFFFFFFFFFFFFFFFFFF
310
FFFFFFFFFFFFFFFFFFFFFFFFFFFFFFFFFFFFFFFFFFFFFFFFFFFFFFFFFFFFFFFF
310
FFFFFFFFFFFFFFFFFFFFFFFFFFFFFFFFFFFFFFFFFFFFFFFFF000FFFFFFFFFFFF
310
FFFFFFFFFFFFFFFFFFFFFFFFFFFFFFFFFFFFFFFFFFFFFFFFFFFFFFFFFFFFFFFF
310
FFFFFFFFFFFFFFFFFFFFFFFFFFFFFFFFFFFFFFFFFFFFFFFFFFFFFFFFFFFFFFFF
310
FFFFFFFFFFFFFFFFFFFFFFFFFFFFFFFFF000FFFFFFFFFFFFFFFFFFFFFFFFFFFF
310
FFFFFFFFFFFFFFFFFFFFFFFFFFFFFFFFFFFFFFFFFFFFFFFFFFFFFFFFFFFFFFFF
310
FFFFFFFFFFFFFFFFFFFFFFFFFFFFFFFFFFFFFFFFFFFFFFFFFFFFFFFFFFFFFFFF
310
FFFFFFFFFFFFFFFFF000FFFFFFFFFFFFFFFFFFFFFFFFFFFFFFFFFFFFFFFFFFFF
310
FFFFFFFFFFFFFFFFFFFFFFFFFFFFFFFFFFFFFFFFFFFFFFFFFFFFFFFFFFFFFFFF
310
FFFFFFFFFFFFFFFFFFFFFFFFFFFFFFFFFFFFFFFFFFFFFFFFFFFFFFFFFFFFFFFF
310
F000FFFFFFFFFFFFFFFFFFFFFFFFFFFFFFFFFFFFFFFFFFFFFFFFFFFFFFFFFFFF
310
FFFFFFFFFFFFFFFFFFFFFFFFFFFFFFFFFFFFFFFFFFFFFFFFFFFFFFFFFFFFFFFF
310
FFFFFFFFFFFFFFFFFFFFFFFFFFFFFFFFFFFFFFFFFFFFFFFFF000FFFFFFFFFFFF
310
FFFFFFFFFFFFFFFFFFFFFFFFFFFFFFFFFFFFFFFFFFFFFFFFFFFFFFFFFFFFFFFF
310
FFFFFFFFFFFFFFFFFFFFFFFFFFFFFFFFFFFFFFFFFFFFFFFFFFFFFFFFFFFFFFFF
310
FFFFFFFFFFFFFFFFFFFFFFFFFFFFFFFFF000FFFFFFFFFFFFFFFFFFFFFFFFFFFF
310
FFFFFFFFFFFFFFFFFFFFFFFFFFFFFFFFFFFFFFFFFFFFFFFFFFFFFFFFFFFFFFFF
310
FFFFFFFFFFFFFFFFFFFFFFFFFFFFFFFFFFFFFFFFFFFFFFFFFFFFFFFFFFFFFFFF
310
FFFFFFFFFFFFFFFFF000FFFFF80003FFFFFFFFFFFFFFFFFFFFFFFFFFFFFFFFFF
310
FFFFF00007FFFFFFFFFF00007FFFFFF800000000000000007FFFFFFFFFFFFFFF
310
FFFFFFFC001FFFFFFFFFFFFFFC001FFFFFFFFFFFFFFFFFFFFFFFFFFE0007FFFF
310
F000FFFF8000007FFFFFFFF8000FFFFFC0007FFFFF80007FFFFF0000007FFFFF
310
FFF8000007FFFFF800000000000000007FFFFFF0001FFFFFFFFFFFC00001FFFF
310
FFFFFFFFC00001FFFFFFFF000000000003FFFFE000007FFFF000FFFE0000000F
310
FFFFFFF0000FFFFF80007FFFFF80007FFFFC0000001FFFFFFFC0000001FFFFF8
310
00000000000000007FFFFFF0001FFFFFFFFFFE0000003FFFFFFFFFFE0000003F
310
FFFFFF000000000003FFFF0000000FFFF000FFF800000003FFFFFFF00007FFFF
310
80007FFFFF80007FFFF000000007FFFFFF000000003FFFF80000000000000000
310
7FFFFFF0001FFFFFFFFFF80000000FFFFFFFFFF80000000FFFFFFF0000000000
310
03FFFC00000003FFF000FFE000000000FFFFFFF00007FFFF80003FFFFF80007F
310
FFC000000001FFFFFC000000001FFFF800000000000000007FFFFFF0001FFFFF
310
FFFFE000000003FFFFFFFFE000000003FFFFFF000000000003FFF000000000FF
310
F000FF80000000007FFFFFF00007FFFF80003FFFFF80007FFF8000000000FFFF
310
F80000000007FFF800000000000000007FFFFFF0001FFFFFFFFFC000000001FF
310
FFFFFFC000000001FFFFFF000000000003FFC0000000007FF000FF0000000000
310
3FFFFFE00007FFFF00003FFFFF80007FFE00000000003FFFF00000000003FFF8
310
00000000000000007FFFFFF0001FFFFFFFFF8000000000FFFFFFFF8000000000
310
FFFFFF000000000003FF80000000003FF000FE00000000001FFFFFE00003FFFF
310
00003FFFFF80007FFC00000000001FFFE00000000001FFF8000001FFFE000000
310
7FFFFFF0001FFFFFFFFE00000000003FFFFFFE00000000003FFFFF0000000000
310
03FF00000000001FF000FC00000000000FFFFFE00003FFFF00001FFFFF80007F
310
F800000000001FFFC00000000000FFF8000001FFFE0000007FFFFFF0001FFFFF
310
FFFC00000000001FFFFFFC00000000001FFFFF000000000003FE00000000000F
310
F000F8000000000007FFFFE00003FFFF00001FFFFF80007FF800000000000FFF
310
800000000000FFF8000001FFFE0000007FFFFFF0001FFFFFFFF800000000000F
310
FFFFF800000000000FFFFF000000000003FC000000000007F000F80000000000
310
03FFFFC00003FFFE00001FFFFF80007FF0000000000007FF0000000000007FF8
310
000001FFFE0000007FFFFFF0001FFFFFFFF0000000000007FFFFF00000000000
310
07FFFF000000000003F8000000000003F000F0000000000003FFFFC00001FFFE
310
00001FFFFF80007FE0000000000007FE0000000000003FF8000001FFFE000000
310
7FFFFFF0001FFFFFFFF0000000000007FFFFF0000000000007FFFF0000000000
310
03F800001F800003F000E00001FFF00001FFFFC00001FFFE00000FFFFF80007F
310
E00001FFE00003FE00001FFF00003FF8000001FFFE0000007FFFFFF0001FFFFF
310
FFE000003E000003FFFFE000003E000003FFFF000000000003F00001FFF80001
310
F000E00007FFFC0001FFFFC00001FFFE00000FFFFF80007FC0000FFFFC0003FC
310
0000FFFFC0001FF8000001FFFE0000007FFFFFF0001FFFFFFFC00003FFE00001
310
FFFFC00003FFE00001FFFF0001FFFFFFFFF00007FFFE0001F000E0000FFFFF00
310
00FFFF800001FFFC00000FFFFF80007FC0001FFFFE0001FC0001FFFFE0001FF8
310
000001FFFE0000007FFFFFF0001FFFFFFF80000FFFF80000FFFF80000FFFF800
310
00FFFF0003FFFFFFFFE0000FFFFF8000F000C0003FFFFF8000FFFF800000FFFC
310
000007FFFF80007F80003FFFFF0001FC0003FFFFF0001FF8000001FFFE000000
310
7FFFFFF0001FFFFFFF80003FFFFE0000FFFF80003FFFFE0000FFFF0003FFFFFF
310
FFE0003FFFFF8000F000C0003FFFFF8000FFFF800000FFFC000007FFFF80007F
310
80007FFFFF8001F80007FFFFF8000FF8000001FFFE0000007FFFFFF0001FFFFF
310
FF00007FFFFF00007FFF00007FFFFF00007FFF0003FFFFFFFFE0003FFFFFC000
310
F000C0007FFFFFC000FFFF000000FFFC000007FFFF80007F8000FFFFFF8000F8
310
000FFFFFF8000FF8000001FFFE0000007FFFFFF0001FFFFFFF0000FFFFFF8000
310
7FFF0000FFFFFF80007FFF0003FFFFFFFFC0007FFFFFC00070008000FFFFFFC0
310
00FFFF000000FFF8000007FFFF80007F8000FFFFFF8000F8000FFFFFF8000FF8
310
000001FFFE0000007FFFFFF0001FFFFFFE0001FFFFFFC0003FFE0001FFFFFFC0
310
003FFF0003FFFFFFFFC0007FFFFFE00070008000FFFFFFC0007FFF0000007FF8
310
000003FFFF80007F0001FFFFFF8000F8000FFFFFF8000FF8000001FFFE000000
310
7FFFFFF0001FFFFFFE0001FFFFFFC0003FFE0001FFFFFFC0003FFF0003FFFFFF
310
FFC000FFFFFFE00070008000FFFFFFC0007FFF0000007FF8000003FFFF80007F
310
0001FFFFFF8000F8001FFFFFF8000FF8000001FFFE0000007FFFFFF0001FFFFF
310
FE0003FFFFFFE0003FFE0003FFFFFFE0003FFF0003FFFFFFFFC000FFFFFFE000
310
70008000FFFFFFC0007FFE0000007FF8000003FFFF80007F0001FFFFFF8000F0
310
001FFFFFF8000FF8000001FFFE0000007FFFFFF0001FFFFFFC0003FFFFFFE000
310
1FFC0003FFFFFFE0001FFF0003FFFFFFFFC000FFFFFFC00070008000FFFFFF80
310
007FFE0000007FF0000003FFFF80007F0001FFFFFF0000F0001FFFFFF8000FF8
310
000001FFFE0000007FFFFFF0001FFFFFFC0007FFFFFFF0001FFC0007FFFFFFF0
310
001FFF0003FFFFFFFFC000FFFFFFC00070008001FFFFFF0000FFFE0000003FF0
310
000001FFFF80007F0001FFFFFF0000F8001FFFFFF0000FF8000001FFFE000000
310
7FFFFFF0001FFFFFFC0007FFFFFFF0001FFC0007FFFFFFF0001FFF0003FFFFFF
310
FFC001FFFFFF80007000FFFFFFFFFE0000FFFE0008003FF0008001FFFF80007F
310
FFFFFFFFFC0000FFFFFFFFFFE0000FF8000001FFFE0000007FFFFFF0001FFFFF
310
F8000FFFFFFFF8000FF8000FFFFFFFF8000FFF0003FFFFFFFFFFFFFFFFFF0000
310
7000FFFFFFFFFC0000FFFC0008003FF0008001FFFF80007FFFFFFFFFF80001FF
310
FFFFFFFF80000FF8000001FFFE0000007FFFFFF0001FFFFFF8000FFFFFFFF800
310
0FF8000FFFFFFFF8000FFF0003FFFFFFFFFFFFFFFFFE0000F000FFFFFFFFE000
310
00FFFC000C003FE000C001FFFF80007FFFFFFFFFC00001FFFFFFFFFE00001FF8
310
000001FFFE0000007FFFFFF0001FFFFFF8000FFFFFFFF8000FF8000FFFFFFFF8
310
000FFF0003FFFFFFFFFFFFFFFFF00000F000FFFFFFFE000001FFFC000C001FE0
310
00C000FFFF80007FFFFFFFFE000001FFFFFFFFE000001FF80FFFFFFFFFFFFFC0
310
7FFFFFF0001FFFFFF8000FFFFFFFF8000FF8000FFFFFFFF8000FFF0003FFFFFF
310
FFFFFFFFFF800000F000FFFFFFC0000001FFFC001C001FE001C000FFFF80007F
310
FFFFFF80000003FFFFFFF80000001FF80FFFFFFFFFFFFFC07FFFFFF0001FFFFF
310
F8001FFFFFFFFC000FF8001FFFFFFFFC000FFF0003FFFFFFFFFFFFFFF0000001
310
F000FFFFF800000001FFF8001C001FE001C000FFFF80007FFFFFF800000003FF
310
FFFF800000003FF80FFFFFFFFFFFFFC07FFFFFF0001FFFFFF8001FFFFFFFFC00
310
0FF8001FFFFFFFFC000FFF0003FFFFFFFFFFFFFE00000001F000FFFFC0000000
310
03FFF8001E001FC001E000FFFF80007FFFFF8000000007FFFFFC000000003FF8
310
0FFFFFFFFFFFFFC07FFFFFF0001FFFFFF8001FFFFFFFFC000FF8001FFFFFFFFC
310
000FFF0003FFFFFFFFFFFFE000000003F000FFFE0000000007FFF8001E000FC0
310
01E0007FFF80007FFFFE0000000007FFFFE0000000007FF80FFFFFFFFFFFFFC0
310
7FFFFFF0001FFFFFF0001FFFFFFFFC0007F0001FFFFFFFFC0007FF0003FFFFFF
310
FFFFFF0000000003F000FFF80000000007FFF8001E000FC003E0007FFF80007F
310
FFF0000000000FFFFF8000000000FFF80FFFFFFFFFFFFFC07FFFFFF0001FFFFF
310
F0001FFFFFFFFC0007F0001FFFFFFFFC0007FF0003FFFFFFFFFFFC0000000007
310
F000FFE0000000000FFFF0003E000FC003E0007FFF80007FFFC0000000001FFF
310
FE0000000001FFF80FFFFFFFFFFFFFC07FFFFFF0001FFFFFF0001FFFFFFFFC00
310
07F0001FFFFFFFFC0007FF0003FFFFFFFFFFF0000000000FF000FFC000000000
310
1FFFF0003F000F8003F0003FFF80007FFF80000000003FFFF80000000003FFF8
310
0FFFFFFFFFFFFFC07FFFFFF0001FFFFFF0001FFFFFFFFC0007F0001FFFFFFFFC
310
0007FF0003FFFFFFFFFFE0000000001FF000FF00000000007FFFF0003F000780
310
03F0003FFF80007FFF00000000007FFFF00000000007FFF80FFFFFFFFFFFFFC0
310
7FFFFFF0001FFFFFF0001FFFFFFFFC0007F0001FFFFFFFFC0007FF0003FFFFFF
310
FFFF80000000007FF000FE0000000000FFFFE0003F00078007F0003FFF80007F
310
FE0000000001FFFFE0000000001FFFF80FFFFFFFFFFFFFC07FFFFFF0001FFFFF
310
F0001FFFFFFFFC0007F0001FFFFFFFFC0007FF0003FFFFFFFFFF0000000000FF
310
F000FC0000000003FFFFE0007F00078007F0003FFF80007FFC0000000007FFFF
310
C0000000007FFFF80FFFFFFFFFFFFFC07FFFFFF0001FFFFFF8001FFFFFFFFC00
310
0FF8001FFFFFFFFC000FFF0003FFFFFFFFFE0000000003FFF000FC000000000F
310
FFFFE0007F80070007F8001FFF80007FF8000000001FFFFF8000000001FFFFF8
310
0FFFFFFFFFFFFFC07FFFFFF0001FFFFFF8001FFFFFFFFC000FF8001FFFFFFFFC
310
000FFF0003FFFFFFFFFC000000000FFFF000F8000000007FFFFFE0007F800700
310
07F8001FFF80007FF000000000FFFFFF800000000FFFFFF80FFFFFFFFFFFFFC0
310
7FFFFFF0001FFFFFF8000FFFFFFFF8000FF8000FFFFFFFF8000FFF0003FFFFFF
310
FFFC000000007FFFF000F800000007FFFFFFC0007F8003000FF8001FFF80007F
310
F000000007FFFFFF000000007FFFFFF80FFFFFFFFFFFFFC07FFFFFF0001FFFFF
310
F8000FFFFFFFF8000FF8000FFFFFFFF8000FFF0003FFFFFFFFF80000000FFFFF
310
F000F0000000FFFFFFFFC000FF8003000FF8001FFF80007FE0000000FFFFFFFF
310
0000000FFFFFFFF8000001FFFE0000007FFFFFF0001FFFFFF8000FFFFFFFF800
310
0FF8000FFFFFFFF8000FFF0003FFFFFFFFF8000000FFFFFFF000F000000FFFFF
310
FFFFC000FFC002000FF8000FFF80007FE000001FFFFFFFFE000001FFFFFFFFF8
310
000001FFFE0000007FFFFFF0001FFFFFF8000FFFFFFFF8000FF8000FFFFFFFF8
310
000FFF0003FFFFFFFFF000001FFFFFFFF000E00000FFFFFFFFFFC000FFC00200
310
0FFC000FFF80007FE00001FFFFFFFFFE00001FFFFFFFFFF8000001FFFE000000
310
7FFFFFF0001FFFFFFC000FFFFFFFF8001FFC000FFFFFFFF8001FFF0003FFFFFF
310
FFF00001FFFFFFFFF000E00007FFFFFFFFFF8000FFC000001FFC000FFF80007F
310
C0000FFFFFFFFFFE0000FFFFFFFFFFF8000001FFFE0000007FFFFFF0001FFFFF
310
FC0007FFFFFFF0001FFC0007FFFFFFF0001FFF0003FFFFFFFFF00007FFFFFFFF
310
F000E0001FFFFFFFFFFF8000FFC000001FFC000FFF80007FC0003FFFFFFFFFFE
310
0001FFFFFFFFFFF8000001FFFE0000007FFFFFF0001FFFFFFC0007FFFFFFF000
310
1FFC0007FFFFFFF0001FFF0003FFFFFFFFF0001FFFFFFFFFF000E0003FFFFF00
310
03FF8001FFE000001FFC0007FF80007FC0007FFFFF0007FC0003FFFFF0003FF8
310
000001FFFE0000007FFFFFF0001FFFFFFC0003FFFFFFE0001FFC0003FFFFFFE0
310
001FFF0003FFFFFFFFF0003FFFFFFFFFF000E0003FFFFF0001FF8001FFE00000
310
1FFE0007FF80007FC0007FFFFE0003FC0007FFFFE0003FF8000001FFFE000000
310
7FFFFFF0001FFFFFFE0003FFFFFFE0003FFE0003FFFFFFE0003FFF0003FFFFFF
310
FFF0003FFFFF8001F000E0003FFFFF0001FF0001FFE000001FFE0007FF80007F
310
C0007FFFFE0003FC0007FFFFE0003FF8000001FFFE0000007FFFFFF0001FFFFF
310
FE0001FFFFFFC0003FFE0001FFFFFFC0003FFF0003FFFFFFFFF0003FFFFF0001
310
F000E0003FFFFF0003FF0001FFE000003FFE0007FF80007FC0007FFFFE0003FC
310
0007FFFFE0003FF8000001FFFE0000007FFFFFF0001FFFFFFF0001FFFFFFC000
310
7FFF0001FFFFFFC0007FFF0003FFFFFFFFF0003FFFFF0001F000E0003FFFFE00
310
03FF0003FFF000003FFE0003FF80007FC0007FFFFC0003FE0007FFFFE0003FF8
310
000001FFFE0000007FFFFFF0001FFFFFFF0000FFFFFF80007FFF0000FFFFFF80
310
007FFF0003FFFFFFFFF0003FFFFF0001F000E0003FFFFE0003FF0003FFF00000
310
3FFF0003FF80007FC0007FFFFC0007FE0007FFFFC0003FF8000001FFFE000000
310
7FFFFFF0001FFFFFFF80007FFFFF0000FFFF80007FFFFF0000FFFF0003FFFFFF
310
FFF0003FFFFF0003F000E0003FFFFC0003FE0003FFF000003FFF0003FF80007F
310
E0003FFFF80007FE0003FFFFC0007FF8000001FFFE0000007FFFFFF0001FFFFF
310
FF80003FFFFE0000FFFF80003FFFFE0000FFFF0003FFFFFFFFF0001FFFFE0003
310
F000F0001FFFF80003FE0003FFF000007FFF0001FF80007FE0003FFFF00007FE
310
0001FFFF80007FF8000001FFFE0000007FFFFFF0001FFFFFFFC0000FFFF80001
310
FFFFC0000FFFF80001FFFF0003FFFFFFFFF0001FFFFC0003F000F0000FFFF000
310
07FE0007FFF800007FFF0001FF80007FE0001FFFE00007FF0000FFFE00007FF8
310
000001FFFE0000007FFFFFF0001FFFFFFFC00003FFE00001FFFFC00003FFE000
310
01FFFF0003FFFFFFFFF8000FFFF80003F000F00003FFC00007FC0007FFF80000
310
7FFF8001FF80007FF00007FF80000FFF00007FF80000FFF8000001FFFE000000
310
7F80000000000001FFE000003E000003FFFFE000003E000003FFFF0003FFFFFF
310
FFF80003FFE00007F000F800000000000FFC0007FFF800007FFF8001FF80007F
310
F000000000000FFF000000000000FFF8000001FFFE0000007F80000000000001
310
FFF0000000000007FFFFF0000000000007FFFF0003FFFFFFFFFC00007E000007
310
F000F800000000000FFC0007FFF80000FFFF8000FF80007FF800000000001FFF
310
800000000001FFF8000001FFFE0000007F80000000000001FFF800000000000F
310
FFFFF800000000000FFFFF0003FFFFFFFFFC00000000000FF000FC0000000000
310
1FFC0007FFFC0000FFFF8000FF80007FF800000000003FFFC00000000001FFF8
310
000001FFFE0000007F80000000000001FFF800000000000FFFFFF80000000000
310
0FFFFF0003FFFFFFFFFE00000000001FF000FE00000000003FF8000FFFFC0000
310
FFFF8000FF80007FFC00000000003FFFC00000000003FFF8000001FFFE000000
310
7F80000000000001FFFC00000000001FFFFFFC00000000001FFFFF0003FFFFFF
310
FFFF00000000001FF000FF00000000003FF8000FFFFC0000FFFFC000FF80007F
310
FE00000000007FFFE00000000007FFF8000001FFFE0000007F80000000000001
310
FFFE00000000003FFFFFFE00000000003FFFFF0003FFFFFFFFFF80000000003F
310
F000FF80000000007FF8000FFFFC0001FFFFC0007F80007FFF0000000000FFFF
310
F0000000000FFFF800000000000000007F80000000000001FFFF8000000000FF
310
FFFFFF8000000000FFFFFF0003FFFFFFFFFFC0000000007FF000FFC000000000
310
FFF8000FFFFE0001FFFFC0007F80007FFF8000000001FFFFF8000000001FFFF8
310
00000000000000007F80000000000001FFFFC000000001FFFFFFFFC000000001
310
FFFFFF0003FFFFFFFFFFE000000000FFF000FFE000000003FFF0001FFFFE0001
310
FFFFC0007F80007FFFC000000007FFFFFE000000003FFFF80000000000000000
310
7F80000000000001FFFFE000000003FFFFFFFFE000000003FFFFFF0003FFFFFF
310
FFFFF000000003FFF000FFF80000000FFFF0001FFFFE0001FFFFE0007F80007F
310
FFF00000000FFFFFFF00000000FFFFF800000000000000007F80000000000001
310
FFFFF80000000FFFFFFFFFF80000000FFFFFFF0003FFFFFFFFFFFC0000000FFF
310
F000FFFE0000003FFFF0001FFFFE0003FFFFE0003F80007FFFFC0000003FFFFF
310
FFC0000003FFFFF800000000000000007F80000000000001FFFFFE0000003FFF
310
FFFFFFFE0000003FFFFFFF0003FFFFFFFFFFFF0000003FFFF000FFFF800000FF
310
FFF0001FFFFF0003FFFFE0003F80007FFFFF000001FFFFFFFFF800001FFFFFF8
310
00000000000000007F80000000000001FFFFFFC00001FFFFFFFFFFFFC00001FF
310
FFFFFF0003FFFFFFFFFFFFC00000FFFFF000FFFFF8000FFFFFFFFFFFFFFFFFFF
310
FFFFFFFFFFFFFFFFFFFFF0001FFFFFFFFFFF0000FFFFFFF80000000000000000
310
7FFFFFFFFFFFFFFFFFFFFFFC001FFFFFFFFFFFFFFC001FFFFFFFFFFFFFFFFFFF
310
FFFFFFFC001FFFFFF000FFFFFFFFFFFFFFFFFFFFFFFFFFFFFFFFFFFFFFFFFFFF
310
FFFFFFFFFFFFFFFFFFFFFFFFFFFFFFFFFFFFFFFFFFFFFFFFFFFFFFFFFFFFFFFF
310
FFFFFFFFFFFFFFFFFFFFFFFFFFFFFFFFFFFFFFFFFFFFFFFFFFFFFFFFFFFFFFFF
310
F000FFFFFFFFFFFFFFFFFFFFFFFFFFFFFFFFFFFFFFFFFFFFFFFFFFFFFFFFFFFF
310
FFFFFFFFFFFFFFFFFFFFFFFFFFFFFFFFFFFFFFFFFFFFFFFFFFFFFFFFFFFFFFFF
310
FFFFFFFFFFFFFFFFFFFFFFFFFFFFFFFFFFFFFFFFFFFFFFFFF000FFFFFFFFFFFF
310
FFFFFFFFFFFFFFFFFFFFFFFFFFFFFFFFFFFFFFFFFFFFFFFFFFFFFFFFFFFFFFFF
310
FFFFFFFFFFFFFFFFFFFFFFFFFFFFFFFFFFFFFFFFFFFFFFFFFFFFFFFFFFFFFFFF
310
FFFFFFFFFFFFFFFFFFFFFFFFFFFFFFFFF000FFFFFFFFFFFFFFFFFFFFFFFFFFFF
310
FFFFFFFFFFFFFFFFFFFFFFFFFFFFFFFFFFFFFFFFFFFFFFFFFFFFFFFFFFFFFFFF
310
FFFFFFFFFFFFFFFFFFFFFFFFFFFFFFFFFFFFFFFFFFFFFFFFFFFFFFFFFFFFFFFF
310
FFFFFFFFFFFFFFFFF000FFFFFFFFFFFFFFFFFFFFFFFFFFFFFFFFFFFFFFFFFFFF
310
FFFFFFFFFFFFFFFFFFFFFFFFFFFFFFFFFFFFFFFFFFFFFFFFFFFFFFFFFFFFFFFF
310
FFFFFFFFFFFFFFFFFFFFFFFFFFFFFFFFFFFFFFFFFFFFFFFFFFFFFFFFFFFFFFFF
310
F000FFFFFFFFFFFFFFFFFFFFFFFFFFFFFFFFFFFFFFFFFFFFFFFFFFFFFFFFFFFF
310
FFFFFFFFFFFFFFFFFFFFFFFFFFFFFFFFFFFFFFFFFFFFFFFFFFFFFFFFFFFFFFFF
310
FFFFFFFFFFFFFFFFFFFFFFFFFFFFFFFFFFFFFFFFFFFFFFFFF000FFFFFFFFFFFF
310
FFFFFFFFFFFFFFFFFFFFFFFFFFFFFFFFFFFFFFFFFFFFFFFFFFFFFFFFFFFFFFFF
310
FFFFFFFFFFFFFFFFFFFFFFFFFFFFFFFFFFFFFFFFFFFFFFFFFFFFFFFFFFFFFFFF
310
FFFFFFFFFFFFFFFFFFFFFFFFFFFFFFFFF000FFFFFFFFFFFFFFFFFFFFFFFFFFFF
310
FFFFFFFFFFFFFFFFFFFFFFFFFFFFFFFFFFFFFFFFFFFFFFFFFFFFFFFFFFFFFFFF
310
FFFFFFFFFFFFFFFFFFFFFFFFFFFFFFFFFFFFFFFFFFFFFFFFFFFFFFFFFFFFFFFF
310
FFFFFFFFFFFFFFFFF000FFFFFFFFFFFFFFFFFFFFFFFFFFFFFFFFFFFFFFFFFFFF
310
FFFFFFFFFFFFFFFFFFFFFFFFFFFFFFFFFFFFFFFFFFFFFFFFFFFFFFFFFFFFFFFF
310
FFFFFFFFFFFFFFFFFFFFFFFFFFFFFFFFFFFFFFFFFFFFFFFFFFFFFFFFFFFFFFFF
310
F000FFFFFFFFFFFFFFFFFFFFFFFFFFFFFFFFFFFFFFFFFFFFFFFFFFFFFFFFFFFF
310
FFFFFFFFFFFFFFFFFFFFFFFFFFFFFFFFFFFFFFFFFFFFFFFFFFFFFFFFFFFFFFFF
310
FFFFFFFFFFFFFFFFFFFFFFFFFFFFFFFFFFFFFFFFFFFFFFFFF000FFFFFFFFFFFF
310
FFFFFFFFFFFFFFFFFFFFFFFFFFFFFFFFFFFFFFFFFFFFFFFFFFFFFFFFFFFFFFFF
310
FFFFFFFFFFFFFFFFFFFFFFFFFFFFFFFFFFFFFFFFFFFFFFFFFFFFFFFFFFFFFFFF
310
FFFFFFFFFFFFFFFFFFFFFFFFFFFFFFFFF000FFFFFFFFFFFFFFFFFFFFFFFFFFFF
310
FFFFFFFFFFFFFFFFFFFFFFFFFFFFFFFFFFFFFFFFFFFFFFFFFFFFFFFFFFFFFFFF
310
FFFFFFFFFFFFFFFFFFFFFFFFFFFFFFFFFFFFFFFFFFFFFFFFFFFFFFFFFFFFFFFF
310
FFFFFFFFFFFFFFFFF000FFFFFFFFFFFFFFFFFFFFFFFFFFFFFFFFFFFFFFFFFFFF
310
FFFFFFFFFFFFFFFFFFFFFFFFFFFFFFFFFFFFFFFFFFFFFFFFFFFFFFFFFFFFFFFF
310
FFFFFFFFFFFFFFFFFFFFFFFFFFFFFFFFFFFFFFFFFFFFFFFFFFFFFFFFFFFFFFFF
310
F000FFFFFFFFFFFFFFFFFFFFFFFFFFFFFFFFFFFFFFFFFFFFFFFFFFFFFFFFFFFF
310
FFFFFFFFFFFFFFFFFFFFFFFFFFFFFFFFFFFFFFFFFFFFFFFFFFFFFFFFFFFFFFFF
310
FFFFFFFFFFFFFFFFFFFFFFFFFFFFFFFFFFFFFFFFFFFFFFFFF000FFFFFFFFFFFF
310
FFFFFFFFFFFFFFFFFFFFFFFFFFFFFFFFFFFFFFFFFFFFFFFFFFFFFFFFFFFFFFFF
310
FFFFFFFFFFFFFFFFFFFFFFFFFFFFFFFFFFFFFFFFFFFFFFFFFFFFFFFFFFFFFFFF
310
FFFFFFFFFFFFFFFFFFFFFFFFFFFFFFFFF000FFFFFFFFFFFFFFFFFFFFFFFFFFFF
310
FFFFFFFFFFFFFFFFFFFFFFFFFFFFFFFFFFFFFFFFFFFFFFFFFFFFFFFFFFFFFFFF
310
FFFFFFFFFFFFFFFFFFFFFFFFFFFFFFFFFFFFFFFFFFFFFFFFFFFFFFFFFFFFFFFF
310
FFFFFFFFFFFFFFFFF000FFFFFFFFFFFFFFFFFFFFFFFFFFFFFFFFFFFFFFFFFFFF
310
FFFFFFFFFFFFFFFFFFFFFFFFFFFFFFFFFFFFFFFFFFFFFFFFFFFFFFFFFFFFFFFF
310
FFFFFFFFFFFFFFFFFFFFFFFFFFFFFFFFFFFFFFFFFFFFFFFFFFFFFFFFFFFFFFFF
310
F000FFFFFFFFFFFFFFFFFFFFFFFFFFFFFFFFFFFFFFFFFFFFFFFFFFFFFFFFFFFF
310
FFFFFFFFFFFFFFFFFFFFFFFFFFFFFFFFFFFFFFFFFFFFFFFFFFFFFFFFFFFFFFFF
310
FFFFFFFFFFFFFFFFFFFFFFFFFFFFFFFFFFFFFFFFFFFFFFFFF000FFFFFFFFFFFF
310
FFFFFFFFFFFFFFFFFFFFFFFFFFFFFFFFFFFFFFFFFFFFFFFFFFFFFFFFFFFFFFFF
310
FFFFFFFFFFFFFFFFFFFFFFFFFFFFFFFFFFFFFFFFFFFFFFFFFFFFFFFFFFFFFFFF
310
FFFFFFFFFFFFFFFFFFFFFFFFFFFFFFFFF000FFFFFFFFFFFFFFFFFFFFFFFFFFFF
310
FFFFFFFFFFFFFFFFFFFFFFFFFFFFFFFFFFFFFFFFFFFFFFFFFFFFFFFFFFFFFFFF
310
FFFFFFFFFFFFFFFFFFFFFFFFFFFFFFFFFFFFFFFFFFFFFFFFFFFFFFFFFFFFFFFF
310
FFFFFFFFFFFFFFFFF000FFFFFFFFFFFFFFFFFFFFFFFFFFFFFFFFFFFFFFFFFFFF
310
FFFFFFFFFFFFFFFFFFFFFFFFFFFFFFFFFFFFFFFFFFFFFFFFFFFFFFFFFFFFFFFF
310
FFFFFFFFFFFFFFFFFFFFFFFFFFFFFFFFFFFFFFFFFFFFFFFFFFFFFFFFFFFFFFFF
310
F000FFFFFFFFFFFFFFFFFFFFFFFFFFFFFFFFFFFFFFFFFFFFFFFFFFFFFFFFFFFF
310
FFFFFFFFFFFFFFFFFFFFFFFFFFFFFFFFFFFFFFFFFFFFFFFFFFFFFFFFFFFFFFFF
310
FFFFFFFFFFFFFFFFFFFFFFFFFFFFFFFFFFFFFFFFFFFFFFFFF000FFFFFFFFFFFF
310
FFFFFFFFFFFFFFFFFFFFFFFFFFFFFFFFFFFFFFFFFFFFFFFFFFFFFFFFFFFFFFFF
310
FFFFFFFFFFFFFFFFFFFFFFFFFFFFFFFFFFFFFFFFFFFFFFFFFFFFFFFFFFFFFFFF
310
FFFFFFFFFFFFFFFFFFFFFFFFFFFFFFFFF0000000000000000000000000000000
310
0000000000000000000000000000000000000000000000000000000000000000
310
0000000000000000000000000000000000000000000000000000000000000000
310
0000000000000000000000000000000000000000000000000000000000000000
310
0000000000000000000000000000000000000000000000000000000000000000
310
0000000000000000000000000000000000000000000000000000000000000000
310
0000000000000000000000000000000000000000000000000000000000000000
310
0000000000000000000000000000000000000000000000000000000000000000
310
0000000000000000000000000000000000000000000000000000000000000000
310
0000000000000000000000000000000000000000000000000000000000000000
310
0000000000000000000000000000000000000000000000000000000000000000
310
0000000000000000000000000000000000000000000000000000000000000000
310
0000000000000000000000000000000000000000000000000000000000000000
310
0000000000000000000000000000000000000000000000000000000000000000
310
0000000000000000000000000000000000000000000000000000000000000000
310
0000000000000000000000000000000000000000000000000000000000000000
  1
OLE
  0
ENDSEC
  0
SECTION
  2
OBJECTS
  0
DICTIONARY
  5
C
330
0
100
AcDbDictionary
281
     1
  3
ACAD_GROUP
350
D
  3
ACAD_LAYOUT
350
1A
  3
ACAD_MLINESTYLE
350
17
  3
ACAD_PLOTSETTINGS
350
19
  3
ACAD_PLOTSTYLENAME
350
E
  3
ACAD_SCALELIST
350
47
  0
DICTIONARY
  5
D
102
{ACAD_REACTORS
330
C
102
}
330
C
100
AcDbDictionary
281
     1
  0
DICTIONARY
  5
1A
102
{ACAD_REACTORS
330
C
102
}
330
C
100
AcDbDictionary
281
     1
  3
Layout1
350
1E
  3
Layout2
350
26
  3
Model
350
22
  0
DICTIONARY
  5
17
102
{ACAD_REACTORS
330
C
102
}
330
C
100
AcDbDictionary
281
     1
  3
Standard
350
18
  0
DICTIONARY
  5
19
102
{ACAD_REACTORS
330
C
102
}
330
C
100
AcDbDictionary
281
     1
  0
ACDBDICTIONARYWDFLT
  5
E
102
{ACAD_REACTORS
330
C
102
}
330
C
100
AcDbDictionary
281
     1
  3
Normal
350
F
100
AcDbDictionaryWithDefault
340
F
  0
DICTIONARY
  5
47
102
{ACAD_REACTORS
330
C
102
}
330
C
100
AcDbDictionary
281
     1
  3
A0
350
48
  3
A1
350
49
  3
A2
350
4A
  3
A3
350
4B
  3
A4
350
4C
  3
A5
350
4D
  3
A6
350
4E
  3
A7
350
4F
  3
A8
350
50
  3
A9
350
51
  3
B0
350
52
  3
B1
350
53
  3
B2
350
54
  3
B3
350
55
  3
B4
350
56
  3
B5
350
57
  3
B6
350
58
  3
B7
350
59
  3
B8
350
5A
  3
B9
350
5B
  3
C0
350
5C
  3
C1
350
5D
  3
C2
350
5E
  3
C3
350
5F
  3
C4
350
60
  3
C5
350
61
  3
C6
350
62
  3
C7
350
63
  3
C8
350
64
  3
C9
350
65
  3
D0
350
66
  3
D1
350
67
  3
D2
350
68
  0
LAYOUT
  5
1E
102
{ACAD_REACTORS
330
1A
102
}
330
1A
100
AcDbPlotSettings
  1

  2
none_device
  4

  6

 40
0.0
 41
0.0
 42
0.0
 43
0.0
 44
0.0
 45
0.0
 46
0.0
 47
0.0
 48
0.0
 49
0.0
140
0.0
141
0.0
142
1.0
143
1.0
 70
   688
 72
     1
 73
     0
 74
     5
  7

 75
    16
147
1.0
148
0.0
149
0.0
100
AcDbLayout
  1
Layout1
 70
     1
 71
     1
 10
0.0
 20
0.0
 11
420.0
 21
297.0
 12
0.0
 22
0.0
 32
0.0
 14
1.0000000000E+20
 24
1.0000000000E+20
 34
1.0000000000E+20
 15
-1.0000000000E+20
 25
-1.0000000000E+20
 35
-1.0000000000E+20
146
0.0
 13
0.0
 23
0.0
 33
0.0
 16
1.0
 26
0.0
 36
0.0
 17
0.0
 27
1.0
 37
0.0
 76
     0
330
1B
  0
LAYOUT
  5
26
102
{ACAD_REACTORS
330
1A
102
}
330
1A
100
AcDbPlotSettings
  1

  2
none_device
  4

  6

 40
0.0
 41
0.0
 42
0.0
 43
0.0
 44
0.0
 45
0.0
 46
0.0
 47
0.0
 48
0.0
 49
0.0
140
0.0
141
0.0
142
1.0
143
1.0
 70
   688
 72
     1
 73
     0
 74
     5
  7

 75
    16
147
1.0
148
0.0
149
0.0
100
AcDbLayout
  1
Layout2
 70
     1
 71
     2
 10
0.0
 20
0.0
 11
0.0
 21
0.0
 12
0.0
 22
0.0
 32
0.0
 14
0.0
 24
0.0
 34
0.0
 15
0.0
 25
0.0
 35
0.0
146
0.0
 13
0.0
 23
0.0
 33
0.0
 16
1.0
 26
0.0
 36
0.0
 17
0.0
 27
1.0
 37
0.0
 76
     0
330
23
  0
LAYOUT
  5
22
102
{ACAD_REACTORS
330
1A
102
}
330
1A
100
AcDbPlotSettings
  1

  2
none_device
  4
Letter_(8.50_x_11.00_Inches)
  6

 40
6.35
 41
6.35
 42
6.35000508
 43
6.35000508
 44
215.9
 45
279.4
 46
0.0
 47
0.0
 48
0.0
 49
0.0
140
0.0
141
0.0
142
1.0
143
1.0
 70
  1712
 72
     1
 73
     0
 74
     0
  7

 75
     0
147
1.0
148
0.0
149
0.0
100
AcDbLayout
  1
Model
 70
     1
 71
     0
 10
0.0
 20
0.0
 11
297.0
 21
210.0
 12
0.0
 22
0.0
 32
0.0
 14
0.0
 24
0.0
 34
0.0
 15
297.0
 25
210.0
 35
0.0
146
0.0
 13
0.0
 23
0.0
 33
0.0
 16
1.0
 26
0.0
 36
0.0
 17
0.0
 27
1.0
 37
0.0
 76
     0
330
1F
331
29
  0
MLINESTYLE
  5
18
102
{ACAD_REACTORS
330
17
102
}
330
17
100
AcDbMlineStyle
  2
Standard
 70
     0
  3

 62
   256
 51
90.0
 52
90.0
 71
     2
 49
0.5
 62
   256
  6
BYLAYER
 49
-0.5
 62
   256
  6
BYLAYER
  0
ACDBPLACEHOLDER
  5
F
102
{ACAD_REACTORS
330
E
102
}
330
E
  0
SCALE
  5
48
102
{ACAD_REACTORS
330
47
102
}
330
47
100
AcDbScale
 70
     0
300
1:1
140
1.0
141
1.0
290
     1
  0
SCALE
  5
49
102
{ACAD_REACTORS
330
47
102
}
330
47
100
AcDbScale
 70
     0
300
1:2
140
1.0
141
2.0
290
     0
  0
SCALE
  5
4A
102
{ACAD_REACTORS
330
47
102
}
330
47
100
AcDbScale
 70
     0
300
1:4
140
1.0
141
4.0
290
     0
  0
SCALE
  5
4B
102
{ACAD_REACTORS
330
47
102
}
330
47
100
AcDbScale
 70
     0
300
1:5
140
1.0
141
5.0
290
     0
  0
SCALE
  5
4C
102
{ACAD_REACTORS
330
47
102
}
330
47
100
AcDbScale
 70
     0
300
1:8
140
1.0
141
8.0
290
     0
  0
SCALE
  5
4D
102
{ACAD_REACTORS
330
47
102
}
330
47
100
AcDbScale
 70
     0
300
1:10
140
1.0
141
10.0
290
     0
  0
SCALE
  5
4E
102
{ACAD_REACTORS
330
47
102
}
330
47
100
AcDbScale
 70
     0
300
1:16
140
1.0
141
16.0
290
     0
  0
SCALE
  5
4F
102
{ACAD_REACTORS
330
47
102
}
330
47
100
AcDbScale
 70
     0
300
1:20
140
1.0
141
20.0
290
     0
  0
SCALE
  5
50
102
{ACAD_REACTORS
330
47
102
}
330
47
100
AcDbScale
 70
     0
300
1:30
140
1.0
141
30.0
290
     0
  0
SCALE
  5
51
102
{ACAD_REACTORS
330
47
102
}
330
47
100
AcDbScale
 70
     0
300
1:40
140
1.0
141
40.0
290
     0
  0
SCALE
  5
52
102
{ACAD_REACTORS
330
47
102
}
330
47
100
AcDbScale
 70
     0
300
1:50
140
1.0
141
50.0
290
     0
  0
SCALE
  5
53
102
{ACAD_REACTORS
330
47
102
}
330
47
100
AcDbScale
 70
     0
300
1:100
140
1.0
141
100.0
290
     0
  0
SCALE
  5
54
102
{ACAD_REACTORS
330
47
102
}
330
47
100
AcDbScale
 70
     0
300
2:1
140
2.0
141
1.0
290
     0
  0
SCALE
  5
55
102
{ACAD_REACTORS
330
47
102
}
330
47
100
AcDbScale
 70
     0
300
4:1
140
4.0
141
1.0
290
     0
  0
SCALE
  5
56
102
{ACAD_REACTORS
330
47
102
}
330
47
100
AcDbScale
 70
     0
300
8:1
140
8.0
141
1.0
290
     0
  0
SCALE
  5
57
102
{ACAD_REACTORS
330
47
102
}
330
47
100
AcDbScale
 70
     0
300
10:1
140
10.0
141
1.0
290
     0
  0
SCALE
  5
58
102
{ACAD_REACTORS
330
47
102
}
330
47
100
AcDbScale
 70
     0
300
100:1
140
100.0
141
1.0
290
     0
  0
SCALE
  5
59
102
{ACAD_REACTORS
330
47
102
}
330
47
100
AcDbScale
 70
     0
300
1/128" = 1'-0"
140
0.0078125
141
12.0
290
     0
  0
SCALE
  5
5A
102
{ACAD_REACTORS
330
47
102
}
330
47
100
AcDbScale
 70
     0
300
1/64" = 1'-0"
140
0.015625
141
12.0
290
     0
  0
SCALE
  5
5B
102
{ACAD_REACTORS
330
47
102
}
330
47
100
AcDbScale
 70
     0
300
1/32" = 1'-0"
140
0.03125
141
12.0
290
     0
  0
SCALE
  5
5C
102
{ACAD_REACTORS
330
47
102
}
330
47
100
AcDbScale
 70
     0
300
1/16" = 1'-0"
140
0.0625
141
12.0
290
     0
  0
SCALE
  5
5D
102
{ACAD_REACTORS
330
47
102
}
330
47
100
AcDbScale
 70
     0
300
3/32" = 1'-0"
140
0.09375
141
12.0
290
     0
  0
SCALE
  5
5E
102
{ACAD_REACTORS
330
47
102
}
330
47
100
AcDbScale
 70
     0
300
1/8" = 1'-0"
140
0.125
141
12.0
290
     0
  0
SCALE
  5
5F
102
{ACAD_REACTORS
330
47
102
}
330
47
100
AcDbScale
 70
     0
300
3/16" = 1'-0"
140
0.1875
141
12.0
290
     0
  0
SCALE
  5
60
102
{ACAD_REACTORS
330
47
102
}
330
47
100
AcDbScale
 70
     0
300
1/4" = 1'-0"
140
0.25
141
12.0
290
     0
  0
SCALE
  5
61
102
{ACAD_REACTORS
330
47
102
}
330
47
100
AcDbScale
 70
     0
300
3/8" = 1'-0"
140
0.375
141
12.0
290
     0
  0
SCALE
  5
62
102
{ACAD_REACTORS
330
47
102
}
330
47
100
AcDbScale
 70
     0
300
1/2" = 1'-0"
140
0.5
141
12.0
290
     0
  0
SCALE
  5
63
102
{ACAD_REACTORS
330
47
102
}
330
47
100
AcDbScale
 70
     0
300
3/4" = 1'-0"
140
0.75
141
12.0
290
     0
  0
SCALE
  5
64
102
{ACAD_REACTORS
330
47
102
}
330
47
100
AcDbScale
 70
     0
300
1" = 1'-0"
140
1.0
141
12.0
290
     0
  0
SCALE
  5
65
102
{ACAD_REACTORS
330
47
102
}
330
47
100
AcDbScale
 70
     0
300
1-1/2" = 1'-0"
140
1.5
141
12.0
290
     0
  0
SCALE
  5
66
102
{ACAD_REACTORS
330
47
102
}
330
47
100
AcDbScale
 70
     0
300
3" = 1'-0"
140
3.0
141
12.0
290
     0
  0
SCALE
  5
67
102
{ACAD_REACTORS
330
47
102
}
330
47
100
AcDbScale
 70
     0
300
6" = 1'-0"
140
6.0
141
12.0
290
     0
  0
SCALE
  5
68
102
{ACAD_REACTORS
330
47
102
}
330
47
100
AcDbScale
 70
     0
300
1'-0" = 1'-0"
140
12.0
141
12.0
290
     0
  0
ENDSEC
  0
EOF
