  0
SECTION
  2
HEADER
  9
$ACADVER
  1
AC1015
  9
$ACADMAINTVER
 70
     6
  9
$DWGCODEPAGE
  3
ANSI_1252
  9
$INSBASE
 10
0.0
 20
0.0
 30
0.0
  9
$EXTMIN
 10
0.0
 20
0.0
 30
0.0
  9
$EXTMAX
 10
297.0
 20
210.0
 30
0.0
  9
$LIMMIN
 10
0.0
 20
0.0
  9
$LIMMAX
 10
297.0
 20
210.0
  9
$ORTHOMODE
 70
     0
  9
$REGENMODE
 70
     1
  9
$FILLMODE
 70
     1
  9
$QTEXTMODE
 70
     0
  9
$MIRRTEXT
 70
     1
  9
$LTSCALE
 40
1.0
  9
$ATTMODE
 70
     1
  9
$TEXTSIZE
 40
2.0
  9
$TRACEWID
 40
1.0
  9
$TEXTSTYLE
  7
Standard
  9
$CLAYER
  8
0
  9
$CELTYPE
  6
ByLayer
  9
$CECOLOR
 62
   256
  9
$CELTSCALE
 40
1.0
  9
$DISPSILH
 70
     0
  9
$DIMSCALE
 40
1.0
  9
$DIMASZ
 40
3.0
  9
$DIMEXO
 40
0.0
  9
$DIMDLI
 40
3.75
  9
$DIMRND
 40
0.0
  9
$DIMDLE
 40
0.0
  9
$DIMEXE
 40
1.0
  9
$DIMTP
 40
0.0
  9
$DIMTM
 40
0.0
  9
$DIMTXT
 40
2.0
  9
$DIMCEN
 40
2.5
  9
$DIMTSZ
 40
0.0
  9
$DIMTOL
 70
     0
  9
$DIMLIM
 70
     0
  9
$DIMTIH
 70
     1
  9
$DIMTOH
 70
     1
  9
$DIMSE1
 70
     0
  9
$DIMSE2
 70
     0
  9
$DIMTAD
 70
     1
  9
$DIMZIN
 70
     0
  9
$DIMBLK
  1

  9
$DIMASO
 70
     1
  9
$DIMSHO
 70
     1
  9
$DIMPOST
  1

  9
$DIMAPOST
  1

  9
$DIMALT
 70
     0
  9
$DIMALTD
 70
     3
  9
$DIMALTF
 40
0.0393700787
  9
$DIMLFAC
 40
1.0
  9
$DIMTOFL
 70
     1
  9
$DIMTVP
 40
0.0
  9
$DIMTIX
 70
     0
  9
$DIMSOXD
 70
     0
  9
$DIMSAH
 70
     0
  9
$DIMBLK1
  1

  9
$DIMBLK2
  1

  9
$DIMSTYLE
  2
ISO-25
  9
$DIMCLRD
 70
     0
  9
$DIMCLRE
 70
     0
  9
$DIMCLRT
 70
     0
  9
$DIMTFAC
 40
1.0
  9
$DIMGAP
 40
1.524
  9
$DIMJUST
 70
     0
  9
$DIMSD1
 70
     0
  9
$DIMSD2
 70
     0
  9
$DIMTOLJ
 70
     0
  9
$DIMTZIN
 70
     0
  9
$DIMALTZ
 70
     0
  9
$DIMALTTZ
 70
     0
  9
$DIMUPT
 70
     0
  9
$DIMDEC
 70
     2
  9
$DIMTDEC
 70
     3
  9
$DIMALTU
 70
     2
  9
$DIMALTTD
 70
     3
  9
$DIMTXSTY
  7
Standard
  9
$DIMAUNIT
 70
     0
  9
$DIMADEC
 70
     2
  9
$DIMALTRND
 40
0.0
  9
$DIMAZIN
 70
     0
  9
$DIMDSEP
 70
    44
  9
$DIMATFIT
 70
     3
  9
$DIMFRAC
 70
     0
  9
$DIMLDRBLK
  1

  9
$DIMLUNIT
 70
     2
  9
$DIMLWD
 70
    -2
  9
$DIMLWE
 70
    -2
  9
$DIMTMOVE
 70
     0
  9
$LUNITS
 70
     2
  9
$LUPREC
 70
     2
  9
$SKETCHINC
 40
1.0
  9
$FILLETRAD
 40
10.0
  9
$AUNITS
 70
     0
  9
$AUPREC
 70
     2
  9
$MENU
  1
.
  9
$ELEVATION
 40
0.0
  9
$PELEVATION
 40
0.0
  9
$THICKNESS
 40
0.0
  9
$LIMCHECK
 70
     0
  9
$CHAMFERA
 40
0.0
  9
$CHAMFERB
 40
0.0
  9
$CHAMFERC
 40
0.0
  9
$CHAMFERD
 40
0.0
  9
$SKPOLY
 70
     0
  9
$TDCREATE
 40
2457667.457675509
  9
$TDUCREATE
 40
2457667.374342176
  9
$TDUPDATE
 40
2457667.457676678
  9
$TDUUPDATE
 40
2457667.374343345
  9
$TDINDWG
 40
0.0000000116
  9
$TDUSRTIMER
 40
0.0000000116
  9
$USRTIMER
 70
     1
  9
$ANGBASE
 50
0.0
  9
$ANGDIR
 70
     0
  9
$PDMODE
 70
     0
  9
$PDSIZE
 40
-1.0
  9
$PLINEWID
 40
0.0
  9
$SPLFRAME
 70
     0
  9
$SPLINETYPE
 70
     6
  9
$SPLINESEGS
 70
     8
  9
$HANDSEED
  5
221
  9
$SURFTAB1
 70
     6
  9
$SURFTAB2
 70
     6
  9
$SURFTYPE
 70
     6
  9
$SURFU
 70
     6
  9
$SURFV
 70
     6
  9
$UCSBASE
  2

  9
$UCSNAME
  2

  9
$UCSORG
 10
0.0
 20
0.0
 30
0.0
  9
$UCSXDIR
 10
1.0
 20
0.0
 30
0.0
  9
$UCSYDIR
 10
0.0
 20
1.0
 30
0.0
  9
$UCSORTHOREF
  2

  9
$UCSORTHOVIEW
 70
     0
  9
$UCSORGTOP
 10
0.0
 20
0.0
 30
0.0
  9
$UCSORGBOTTOM
 10
0.0
 20
0.0
 30
0.0
  9
$UCSORGLEFT
 10
0.0
 20
0.0
 30
0.0
  9
$UCSORGRIGHT
 10
0.0
 20
0.0
 30
0.0
  9
$UCSORGFRONT
 10
0.0
 20
0.0
 30
0.0
  9
$UCSORGBACK
 10
0.0
 20
0.0
 30
0.0
  9
$PUCSBASE
  2

  9
$PUCSNAME
  2

  9
$PUCSORG
 10
0.0
 20
0.0
 30
0.0
  9
$PUCSXDIR
 10
1.0
 20
0.0
 30
0.0
  9
$PUCSYDIR
 10
0.0
 20
1.0
 30
0.0
  9
$PUCSORTHOREF
  2

  9
$PUCSORTHOVIEW
 70
     0
  9
$PUCSORGTOP
 10
0.0
 20
0.0
 30
0.0
  9
$PUCSORGBOTTOM
 10
0.0
 20
0.0
 30
0.0
  9
$PUCSORGLEFT
 10
0.0
 20
0.0
 30
0.0
  9
$PUCSORGRIGHT
 10
0.0
 20
0.0
 30
0.0
  9
$PUCSORGFRONT
 10
0.0
 20
0.0
 30
0.0
  9
$PUCSORGBACK
 10
0.0
 20
0.0
 30
0.0
  9
$USERI1
 70
     0
  9
$USERI2
 70
     0
  9
$USERI3
 70
     0
  9
$USERI4
 70
     0
  9
$USERI5
 70
     0
  9
$USERR1
 40
0.0
  9
$USERR2
 40
0.0
  9
$USERR3
 40
0.0
  9
$USERR4
 40
0.0
  9
$USERR5
 40
0.0
  9
$WORLDVIEW
 70
     1
  9
$SHADEDGE
 70
     3
  9
$SHADEDIF
 70
    70
  9
$TILEMODE
 70
     1
  9
$MAXACTVP
 70
    64
  9
$PINSBASE
 10
0.0
 20
0.0
 30
0.0
  9
$PLIMCHECK
 70
     0
  9
$PEXTMIN
 10
1.0000000000E+20
 20
1.0000000000E+20
 30
1.0000000000E+20
  9
$PEXTMAX
 10
-1.0000000000E+20
 20
-1.0000000000E+20
 30
-1.0000000000E+20
  9
$PLIMMIN
 10
0.0
 20
0.0
  9
$PLIMMAX
 10
420.0
 20
297.0
  9
$UNITMODE
 70
     0
  9
$VISRETAIN
 70
     1
  9
$PLINEGEN
 70
     0
  9
$PSLTSCALE
 70
     1
  9
$TREEDEPTH
 70
  3020
  9
$CMLSTYLE
  2
Standard
  9
$CMLJUST
 70
     0
  9
$CMLSCALE
 40
20.0
  9
$PROXYGRAPHICS
 70
     1
  9
$MEASUREMENT
 70
     1
  9
$CELWEIGHT
370
    -1
  9
$ENDCAPS
280
     0
  9
$JOINSTYLE
280
     0
  9
$LWDISPLAY
290
     1
  9
$INSUNITS
 70
     4
  9
$HYPERLINKBASE
  1

  9
$STYLESHEET
  1

  9
$XEDIT
290
     1
  9
$CEPSNTYPE
380
     0
  9
$PSTYLEMODE
290
     1
  9
$FINGERPRINTGUID
  2
{4D5A8E04-182F-4F26-99D6-130CDE7D41D2}
  9
$VERSIONGUID
  2
{FAEB1C32-E019-11D5-929B-00C0DF256EC4}
  9
$EXTNAMES
290
     1
  9
$PSVPSCALE
 40
0.0
  9
$OLESTARTUP
290
     0
  0
ENDSEC
  0
SECTION
  2
CLASSES
  0
CLASS
  1
ACDBDICTIONARYWDFLT
  2
AcDbDictionaryWithDefault
  3
ObjectDBX Classes
 90
        0
280
     0
281
     0
  0
CLASS
  1
VISUALSTYLE
  2
AcDbVisualStyle
  3
ObjectDBX Classes
 90
     4095
280
     0
281
     0
  0
CLASS
  1
MATERIAL
  2
AcDbMaterial
  3
ObjectDBX Classes
 90
     1153
280
     0
281
     0
  0
CLASS
  1
SCALE
  2
AcDbScale
  3
ObjectDBX Classes
 90
     1153
280
     0
281
     0
  0
CLASS
  1
TABLESTYLE
  2
AcDbTableStyle
  3
ObjectDBX Classes
 90
     4095
280
     0
281
     0
  0
CLASS
  1
MLEADERSTYLE
  2
AcDbMLeaderStyle
  3
ACDB_MLEADERSTYLE_CLASS
 90
     4095
280
     0
281
     0
  0
CLASS
  1
SUN
  2
AcDbSun
  3
SCENEOE
 90
     1153
280
     0
281
     0
  0
CLASS
  1
ACDBPLACEHOLDER
  2
AcDbPlaceHolder
  3
ObjectDBX Classes
 90
        0
280
     0
281
     0
  0
CLASS
  1
LAYOUT
  2
AcDbLayout
  3
ObjectDBX Classes
 90
        0
280
     0
281
     0
  0
ENDSEC
  0
SECTION
  2
TABLES
  0
TABLE
  2
VPORT
  5
8
330
0
100
AcDbSymbolTable
 70
     1
  0
VPORT
  5
29
330
8
100
AcDbSymbolTableRecord
100
AcDbViewportTableRecord
  2
*Active
 70
     0
 10
0.0
 20
0.0
 11
1.0
 21
1.0
 12
148.5
 22
105.0
 13
0.0
 23
0.0
 14
10.0
 24
10.0
 15
10.0
 25
10.0
 16
0.0
 26
0.0
 36
1.0
 17
0.0
 27
0.0
 37
0.0
 40
210.0
 41
1.4142857143
 42
50.0
 43
0.0
 44
0.0
 50
0.0
 51
0.0
 71
     0
 72
  2000
 73
     1
 74
     3
 75
     0
 76
     0
 77
     0
 78
     0
281
     0
 65
     1
110
0.0
120
0.0
130
0.0
111
1.0
121
0.0
131
0.0
112
0.0
122
1.0
132
0.0
 79
     0
146
0.0
  0
ENDTAB
  0
TABLE
  2
LTYPE
  5
5
330
0
100
AcDbSymbolTable
 70
     6
  0
LTYPE
  5
14
330
5
100
AcDbSymbolTableRecord
100
AcDbLinetypeTableRecord
  2
ByBlock
 70
     0
  3

 72
    65
 73
     0
 40
0.0
  0
LTYPE
  5
15
330
5
100
AcDbSymbolTableRecord
100
AcDbLinetypeTableRecord
  2
ByLayer
 70
     0
  3

 72
    65
 73
     0
 40
0.0
  0
LTYPE
  5
16
330
5
100
AcDbSymbolTableRecord
100
AcDbLinetypeTableRecord
  2
Continuous
 70
     0
  3
Solid line
 72
    65
 73
     0
 40
0.0
  0
LTYPE
  5
6E
330
5
100
AcDbSymbolTableRecord
100
AcDbLinetypeTableRecord
  2
HIDDEN
 70
     0
  3
Hidden __ __ __ __ __ __ __ __ __ __ __ __ __ __
 72
    65
 73
     2
 40
1.905
 49
1.27
 74
     0
 49
-0.635
 74
     0
  0
LTYPE
  5
6F
330
5
100
AcDbSymbolTableRecord
100
AcDbLinetypeTableRecord
  2
PHANTOM
 70
     0
  3
Phantom ______  __  __  ______  __  __  ______
 72
    65
 73
     6
 40
12.7
 49
6.35
 74
     0
 49
-1.27
 74
     0
 49
1.27
 74
     0
 49
-1.27
 74
     0
 49
1.27
 74
     0
 49
-1.27
 74
     0
  0
LTYPE
  5
70
330
5
100
AcDbSymbolTableRecord
100
AcDbLinetypeTableRecord
  2
CENTER
 70
     0
  3
Center ____ _ ____ _ ____ _ ____ _ ____ _ ____
 72
    65
 73
     4
 40
10.16
 49
6.35
 74
     0
 49
-1.27
 74
     0
 49
1.27
 74
     0
 49
-1.27
 74
     0
  0
LTYPE
  5
71
330
5
100
AcDbSymbolTableRecord
100
AcDbLinetypeTableRecord
  2
CENTERX2
 70
     0
  3
Center (2x) ________  __  ________  __  _____
 72
    65
 73
     4
 40
20.32
 49
12.7
 74
     0
 49
-2.54
 74
     0
 49
2.54
 74
     0
 49
-2.54
 74
     0
  0
LTYPE
  5
72
330
5
100
AcDbSymbolTableRecord
100
AcDbLinetypeTableRecord
  2
DOT2
 70
     0
  3
Dot (.5x) ........................................
 72
    65
 73
     2
 40
0.635
 49
0.0
 74
     0
 49
-0.635
 74
     0
  0
ENDTAB
  0
TABLE
  2
LAYER
  5
2
330
0
100
AcDbSymbolTable
 70
     5
  0
LAYER
  5
10
330
2
100
AcDbSymbolTableRecord
100
AcDbLayerTableRecord
  2
0
 70
     0
 62
     7
  6
Continuous
370
    -3
390
F
  0
LAYER
  5
73
330
2
100
AcDbSymbolTableRecord
100
AcDbLayerTableRecord
  2
FORMAT
 70
     0
 62
     7
  6
Continuous
370
    -3
390
F
  0
LAYER
  5
74
330
2
100
AcDbSymbolTableRecord
100
AcDbLayerTableRecord
  2
VERMASSUNG
 70
     0
 62
     7
  6
Continuous
370
    -3
390
F
  0
LAYER
  5
75
330
2
100
AcDbSymbolTableRecord
100
AcDbLayerTableRecord
  2
KOPF_DÜNN
 70
     0
 62
     7
  6
Continuous
370
    -3
390
F
  0
LAYER
  5
76
330
2
100
AcDbSymbolTableRecord
100
AcDbLayerTableRecord
  2
KOPF_DICK
 70
     0
 62
     7
  6
Continuous
370
    15
390
F
  0
ENDTAB
  0
TABLE
  2
STYLE
  5
3
330
0
100
AcDbSymbolTable
 70
     2
  0
STYLE
  5
11
330
3
100
AcDbSymbolTableRecord
100
AcDbTextStyleTableRecord
  2
Standard
 70
     0
 40
0.0
 41
1.0
 50
0.0
 71
     0
 42
2.0
  3
txt
  4

  0
STYLE
  5
77
330
3
100
AcDbSymbolTableRecord
100
AcDbTextStyleTableRecord
  2
SLDTEXTSTYLE0
 70
     0
 40
0.0
 41
0.7
 50
0.0
 71
     0
 42
2.0
  3
TXT
  4

  0
ENDTAB
  0
TABLE
  2
VIEW
  5
6
330
0
100
AcDbSymbolTable
 70
     0
  0
ENDTAB
  0
TABLE
  2
UCS
  5
7
330
0
100
AcDbSymbolTable
 70
     0
  0
ENDTAB
  0
TABLE
  2
APPID
  5
9
330
0
100
AcDbSymbolTable
 70
     1
  0
APPID
  5
12
330
9
100
AcDbSymbolTableRecord
100
AcDbRegAppTableRecord
  2
ACAD
 70
     0
  0
ENDTAB
  0
TABLE
  2
DIMSTYLE
  5
A
330
0
100
AcDbSymbolTable
 70
     2
100
AcDbDimStyleTable
  0
DIMSTYLE
105
27
330
A
100
AcDbSymbolTableRecord
100
AcDbDimStyleTableRecord
  2
ISO-25
 70
     0
 41
2.5
 42
0.625
 43
3.75
 44
1.25
 73
     0
 74
     0
 77
     1
 78
     8
140
2.5
141
2.5
143
0.0393700787
147
0.625
171
     3
172
     1
178
     0
271
     2
272
     2
274
     3
278
    44
283
     0
284
     8
340
11
  0
DIMSTYLE
105
134
102
{ACAD_REACTORS
330
133
330
140
330
14B
330
157
330
161
330
16D
102
}
330
A
100
AcDbSymbolTableRecord
100
AcDbDimStyleTableRecord
  2
SLDDIMSTYLE0
 70
     0
 41
3.0
 44
0.0
 45
0.000000001
 73
     0
 74
     0
 77
     1
 78
    12
 79
     3
140
2.0
147
0.5
173
     1
178
     0
271
     2
272
     3
276
     2
284
    12
340
77
  0
ENDTAB
  0
TABLE
  2
BLOCK_RECORD
  5
1
330
0
100
AcDbSymbolTable
 70
     7
  0
BLOCK_RECORD
  5
1F
330
1
100
AcDbSymbolTableRecord
100
AcDbBlockTableRecord
  2
*Model_Space
340
22
  0
BLOCK_RECORD
  5
1B
330
1
100
AcDbSymbolTableRecord
100
AcDbBlockTableRecord
  2
*Paper_Space
340
1E
  0
BLOCK_RECORD
  5
23
330
1
100
AcDbSymbolTableRecord
100
AcDbBlockTableRecord
  2
*Paper_Space0
340
26
  0
BLOCK_RECORD
  5
135
330
1
100
AcDbSymbolTableRecord
100
AcDbBlockTableRecord
  2
_D
340
0
  0
BLOCK_RECORD
  5
141
330
1
100
AcDbSymbolTableRecord
100
AcDbBlockTableRecord
  2
_D_1
340
0
  0
BLOCK_RECORD
  5
14C
330
1
100
AcDbSymbolTableRecord
100
AcDbBlockTableRecord
  2
_D_2
340
0
  0
BLOCK_RECORD
  5
158
330
1
100
AcDbSymbolTableRecord
100
AcDbBlockTableRecord
  2
_D_3
340
0
  0
BLOCK_RECORD
  5
162
330
1
100
AcDbSymbolTableRecord
100
AcDbBlockTableRecord
  2
_D_4
340
0
  0
BLOCK_RECORD
  5
16E
330
1
100
AcDbSymbolTableRecord
100
AcDbBlockTableRecord
  2
_D_5
340
0
  0
ENDTAB
  0
ENDSEC
  0
SECTION
  2
BLOCKS
  0
BLOCK
  5
20
330
1F
100
AcDbEntity
  8
0
100
AcDbBlockBegin
  2
*Model_Space
 70
     0
 10
0.0
 20
0.0
 30
0.0
  3
*Model_Space
  1

  0
ENDBLK
  5
21
330
1F
100
AcDbEntity
  8
0
100
AcDbBlockEnd
  0
BLOCK
  5
1C
330
1B
100
AcDbEntity
 67
     1
  8
0
100
AcDbBlockBegin
  2
*Paper_Space
 70
     0
 10
0.0
 20
0.0
 30
0.0
  3
*Paper_Space
  1

  0
ENDBLK
  5
1D
330
1B
100
AcDbEntity
 67
     1
  8
0
100
AcDbBlockEnd
  0
BLOCK
  5
24
330
23
100
AcDbEntity
  8
0
100
AcDbBlockBegin
  2
*Paper_Space0
 70
     0
 10
0.0
 20
0.0
 30
0.0
  3
*Paper_Space0
  1

  0
ENDBLK
  5
25
330
23
100
AcDbEntity
  8
0
100
AcDbBlockEnd
  0
BLOCK
  5
136
330
135
100
AcDbEntity
  8
0
100
AcDbBlockBegin
  2
_D
 70
     0
 10
0.0
 20
0.0
 30
0.0
  3
_D
  1

  0
SOLID
  5
138
330
135
100
AcDbEntity
  8
VERMASSUNG
100
AcDbTrace
 10
94.6836382151
 20
75.9862373177
 30
0.0
 11
95.1336382151
 21
78.9862373177
 31
0.0
 12
94.2336382151
 22
78.9862373177
 32
0.0
 13
94.2336382151
 23
78.9862373177
 33
0.0
  0
SOLID
  5
139
330
135
100
AcDbEntity
  8
VERMASSUNG
100
AcDbTrace
 10
94.6836382151
 20
139.4862373177
 30
0.0
 11
94.2336382151
 21
136.4862373177
 31
0.0
 12
95.1336382151
 22
136.4862373177
 32
0.0
 13
95.1336382151
 23
136.4862373177
 33
0.0
  0
LINE
  5
13A
330
135
100
AcDbEntity
  8
VERMASSUNG
100
AcDbLine
 10
186.298869448
 20
75.9862373177
 30
0.0
 11
93.6836382151
 21
75.9862373177
 31
0.0
  0
LINE
  5
13B
330
135
100
AcDbEntity
  8
VERMASSUNG
100
AcDbLine
 10
186.298869448
 20
139.4862373177
 30
0.0
 11
93.6836382151
 21
139.4862373177
 31
0.0
  0
LINE
  5
13C
330
135
100
AcDbEntity
  8
VERMASSUNG
100
AcDbLine
 10
94.6836382151
 20
75.9862373177
 30
0.0
 11
94.6836382151
 21
139.4862373177
 31
0.0
  0
MTEXT
  5
13D
330
135
100
AcDbEntity
  8
VERMASSUNG
100
AcDbMText
 10
91.9055029589
 20
98.9333011694
 30
0.0
 40
2.0
 41
0.0
 71
     1
 72
     1
  1
ISO 40
  7
SLDTEXTSTYLE0
 11
3.391901413832837E-15
 21
1.0
 31
0.0
 73
     1
 44
1.0
  0
MTEXT
  5
13E
330
135
100
AcDbEntity
  8
VERMASSUNG
100
AcDbMText
 10
92.1055029102
 20
108.1333013735
 30
0.0
 40
2.0
 41
0.0
 71
     1
 72
     1
  1
%%c
  7
SLDTEXTSTYLE0
 11
3.391901413832837E-15
 21
1.0
 31
0.0
 73
     1
 44
1.0
  0
MTEXT
  5
13F
330
135
100
AcDbEntity
  8
VERMASSUNG
100
AcDbMText
 10
92.1055026191
 20
111.7411817049
 30
0.0
 40
2.0
 41
0.0
 71
     1
 72
     1
  1
63.5
  7
SLDTEXTSTYLE0
 11
3.391901413832837E-15
 21
1.0
 31
0.0
 73
     1
 44
1.0
  0
ENDBLK
  5
137
330
135
100
AcDbEntity
  8
0
100
AcDbBlockEnd
  0
BLOCK
  5
142
330
141
100
AcDbEntity
  8
0
100
AcDbBlockBegin
  2
_D_1
 70
     0
 10
0.0
 20
0.0
 30
0.0
  3
_D_1
  1

  0
SOLID
  5
144
330
141
100
AcDbEntity
  8
VERMASSUNG
100
AcDbTrace
 10
218.531564515
 20
121.7362373177
 30
0.0
 11
218.081564515
 21
118.7362373177
 31
0.0
 12
218.981564515
 22
118.7362373177
 32
0.0
 13
218.981564515
 23
118.7362373177
 33
0.0
  0
SOLID
  5
145
330
141
100
AcDbEntity
  8
VERMASSUNG
100
AcDbTrace
 10
218.531564515
 20
93.7362373177
 30
0.0
 11
218.981564515
 21
96.7362373177
 31
0.0
 12
218.081564515
 22
96.7362373177
 32
0.0
 13
218.081564515
 23
96.7362373177
 33
0.0
  0
LINE
  5
146
330
141
100
AcDbEntity
  8
VERMASSUNG
100
AcDbLine
 10
197.248869448
 20
121.7362373177
 30
0.0
 11
219.531564515
 21
121.7362373177
 31
0.0
  0
LINE
  5
147
330
141
100
AcDbEntity
  8
VERMASSUNG
100
AcDbLine
 10
197.248869448
 20
93.7362373177
 30
0.0
 11
219.531564515
 21
93.7362373177
 31
0.0
  0
LINE
  5
148
330
141
100
AcDbEntity
  8
VERMASSUNG
100
AcDbLine
 10
218.531564515
 20
121.7362373177
 30
0.0
 11
218.531564515
 21
93.7362373177
 31
0.0
  0
MTEXT
  5
149
330
141
100
AcDbEntity
  8
VERMASSUNG
100
AcDbMText
 10
215.9534289772
 20
104.5320612106
 30
0.0
 40
2.0
 41
0.0
 71
     1
 72
     1
  1
%%c
  7
SLDTEXTSTYLE0
 11
-7.044195017643634E-15
 21
1.0
 31
0.0
 73
     1
 44
1.0
  0
MTEXT
  5
14A
330
141
100
AcDbEntity
  8
VERMASSUNG
100
AcDbMText
 10
215.953428919
 20
108.1410334042
 30
0.0
 40
2.0
 41
0.0
 71
     1
 72
     1
  1
28
  7
SLDTEXTSTYLE0
 11
-7.044195017643634E-15
 21
1.0
 31
0.0
 73
     1
 44
1.0
  0
ENDBLK
  5
143
330
141
100
AcDbEntity
  8
0
100
AcDbBlockEnd
  0
BLOCK
  5
14D
330
14C
100
AcDbEntity
  8
0
100
AcDbBlockBegin
  2
_D_2
 70
     0
 10
0.0
 20
0.0
 30
0.0
  3
_D_2
  1

  0
ARC
  5
14F
330
14C
100
AcDbEntity
  8
VERMASSUNG
100
AcDbCircle
 10
197.9856629598
 20
144.1151756006
 30
0.0
 40
4.247059938537233
100
AcDbArc
 50
153.4349488229
 51
206.5650511771
  0
ARC
  5
150
330
14C
100
AcDbEntity
  8
VERMASSUNG
100
AcDbCircle
 10
199.7620759362
 20
144.1151756006
 30
0.0
 40
4.247059938537233
100
AcDbArc
 50
333.4349488229
 51
26.5650511771
  0
SOLID
  5
151
330
14C
100
AcDbEntity
  8
VERMASSUNG
100
AcDbTrace
 10
186.898869448
 20
142.2158326552
 30
0.0
 11
189.898869448
 21
141.7658326552
 31
0.0
 12
189.898869448
 22
142.6658326552
 32
0.0
 13
189.898869448
 23
142.6658326552
 33
0.0
  0
SOLID
  5
152
330
14C
100
AcDbEntity
  8
VERMASSUNG
100
AcDbTrace
 10
210.848869448
 20
142.2158326552
 30
0.0
 11
207.848869448
 21
142.6658326552
 31
0.0
 12
207.848869448
 22
141.7658326552
 32
0.0
 13
207.848869448
 23
141.7658326552
 33
0.0
  0
LINE
  5
153
330
14C
100
AcDbEntity
  8
VERMASSUNG
100
AcDbLine
 10
186.898869448
 20
132.9076496738
 30
0.0
 11
186.898869448
 21
143.2158326552
 31
0.0
  0
LINE
  5
154
330
14C
100
AcDbEntity
  8
VERMASSUNG
100
AcDbLine
 10
210.848869448
 20
132.2362373177
 30
0.0
 11
210.848869448
 21
143.2158326552
 31
0.0
  0
LINE
  5
155
330
14C
100
AcDbEntity
  8
VERMASSUNG
100
AcDbLine
 10
186.898869448
 20
142.2158326552
 30
0.0
 11
210.848869448
 21
142.2158326552
 31
0.0
  0
MTEXT
  5
156
330
14C
100
AcDbEntity
  8
VERMASSUNG
100
AcDbMText
 10
195.774477069
 20
144.7939682512
 30
0.0
 40
2.0
 41
0.0
 71
     1
 72
     1
  1
23.95
  7
SLDTEXTSTYLE0
 73
     1
 44
1.0
  0
ENDBLK
  5
14E
330
14C
100
AcDbEntity
  8
0
100
AcDbBlockEnd
  0
BLOCK
  5
159
330
158
100
AcDbEntity
  8
0
100
AcDbBlockBegin
  2
_D_3
 70
     0
 10
0.0
 20
0.0
 30
0.0
  3
_D_3
  1

  0
SOLID
  5
15B
330
158
100
AcDbEntity
  8
VERMASSUNG
100
AcDbTrace
 10
167.848869448
 20
148.2815656559
 30
0.0
 11
170.848869448
 21
147.8315656559
 31
0.0
 12
170.848869448
 22
148.7315656559
 32
0.0
 13
170.848869448
 23
148.7315656559
 33
0.0
  0
SOLID
  5
15C
330
158
100
AcDbEntity
  8
VERMASSUNG
100
AcDbTrace
 10
210.848869448
 20
148.2815656559
 30
0.0
 11
207.848869448
 21
148.7315656559
 31
0.0
 12
207.848869448
 22
147.8315656559
 32
0.0
 13
207.848869448
 23
147.8315656559
 33
0.0
  0
LINE
  5
15D
330
158
100
AcDbEntity
  8
VERMASSUNG
100
AcDbLine
 10
167.848869448
 20
129.9612373177
 30
0.0
 11
167.848869448
 21
149.2815656559
 31
0.0
  0
LINE
  5
15E
330
158
100
AcDbEntity
  8
VERMASSUNG
100
AcDbLine
 10
210.848869448
 20
132.2362373177
 30
0.0
 11
210.848869448
 21
149.2815656559
 31
0.0
  0
LINE
  5
15F
330
158
100
AcDbEntity
  8
VERMASSUNG
100
AcDbLine
 10
167.848869448
 20
148.2815656559
 30
0.0
 11
210.848869448
 21
148.2815656559
 31
0.0
  0
MTEXT
  5
160
330
158
100
AcDbEntity
  8
VERMASSUNG
100
AcDbMText
 10
187.8499106427
 20
150.8597012519
 30
0.0
 40
2.0
 41
0.0
 71
     1
 72
     1
  1
43
  7
SLDTEXTSTYLE0
 73
     1
 44
1.0
  0
ENDBLK
  5
15A
330
158
100
AcDbEntity
  8
0
100
AcDbBlockEnd
  0
BLOCK
  5
163
330
162
100
AcDbEntity
  8
0
100
AcDbBlockBegin
  2
_D_4
 70
     0
 10
0.0
 20
0.0
 30
0.0
  3
_D_4
  1

  0
ARC
  5
165
330
162
100
AcDbEntity
  8
VERMASSUNG
100
AcDbCircle
 10
154.2352911782
 20
156.1809086013
 30
0.0
 40
4.24705993853726
100
AcDbArc
 50
153.4349488229
 51
206.5650511771
  0
ARC
  5
166
330
162
100
AcDbEntity
  8
VERMASSUNG
100
AcDbCircle
 10
156.2124477178
 20
156.1809086013
 30
0.0
 40
4.247059938537284
100
AcDbArc
 50
333.4349488229
 51
26.5650511771
  0
SOLID
  5
167
330
162
100
AcDbEntity
  8
VERMASSUNG
100
AcDbTrace
 10
99.598869448
 20
154.2815656559
 30
0.0
 11
102.598869448
 21
153.8315656559
 31
0.0
 12
102.598869448
 22
154.7315656559
 32
0.0
 13
102.598869448
 23
154.7315656559
 33
0.0
  0
SOLID
  5
168
330
162
100
AcDbEntity
  8
VERMASSUNG
100
AcDbTrace
 10
210.848869448
 20
154.2815656559
 30
0.0
 11
207.848869448
 21
154.7315656559
 31
0.0
 12
207.848869448
 22
153.8315656559
 32
0.0
 13
207.848869448
 23
153.8315656559
 33
0.0
  0
LINE
  5
169
330
162
100
AcDbEntity
  8
VERMASSUNG
100
AcDbLine
 10
99.598869448
 20
119.1433679147
 30
0.0
 11
99.598869448
 21
155.2815656559
 31
0.0
  0
LINE
  5
16A
330
162
100
AcDbEntity
  8
VERMASSUNG
100
AcDbLine
 10
210.848869448
 20
132.2362373177
 30
0.0
 11
210.848869448
 21
155.2815656559
 31
0.0
  0
LINE
  5
16B
330
162
100
AcDbEntity
  8
VERMASSUNG
100
AcDbLine
 10
99.598869448
 20
154.2815656559
 30
0.0
 11
210.848869448
 21
154.2815656559
 31
0.0
  0
MTEXT
  5
16C
330
162
100
AcDbEntity
  8
VERMASSUNG
100
AcDbMText
 10
152.0241052873
 20
156.8597012519
 30
0.0
 40
2.0
 41
0.0
 71
     1
 72
     1
  1
111.25
  7
SLDTEXTSTYLE0
 73
     1
 44
1.0
  0
ENDBLK
  5
164
330
162
100
AcDbEntity
  8
0
100
AcDbBlockEnd
  0
BLOCK
  5
16F
330
16E
100
AcDbEntity
  8
0
100
AcDbBlockBegin
  2
_D_5
 70
     0
 10
0.0
 20
0.0
 30
0.0
  3
_D_5
  1

  0
SOLID
  5
171
330
16E
100
AcDbEntity
  8
VERMASSUNG
100
AcDbTrace
 10
224.1268734346
 20
132.7362373177
 30
0.0
 11
223.6768734346
 21
129.7362373177
 31
0.0
 12
224.5768734346
 22
129.7362373177
 32
0.0
 13
224.5768734346
 23
129.7362373177
 33
0.0
  0
SOLID
  5
172
330
16E
100
AcDbEntity
  8
VERMASSUNG
100
AcDbTrace
 10
224.1268734346
 20
82.7362373177
 30
0.0
 11
224.5768734346
 21
85.7362373177
 31
0.0
 12
223.6768734346
 22
85.7362373177
 32
0.0
 13
223.6768734346
 23
85.7362373177
 33
0.0
  0
LINE
  5
173
330
16E
100
AcDbEntity
  8
VERMASSUNG
100
AcDbLine
 10
210.348869448
 20
132.7362373177
 30
0.0
 11
225.1268734346
 21
132.7362373177
 31
0.0
  0
LINE
  5
174
330
16E
100
AcDbEntity
  8
VERMASSUNG
100
AcDbLine
 10
210.348869448
 20
82.7362373177
 30
0.0
 11
225.1268734346
 21
82.7362373177
 31
0.0
  0
LINE
  5
175
330
16E
100
AcDbEntity
  8
VERMASSUNG
100
AcDbLine
 10
224.1268734346
 20
132.7362373177
 30
0.0
 11
224.1268734346
 21
82.7362373177
 31
0.0
  0
MTEXT
  5
176
330
16E
100
AcDbEntity
  8
VERMASSUNG
100
AcDbMText
 10
221.3487381784
 20
101.6312380958
 30
0.0
 40
2.0
 41
0.0
 71
     1
 72
     1
  1
ST5
  7
SLDTEXTSTYLE0
 11
-7.044195017643634E-15
 21
1.0
 31
0.0
 73
     1
 44
1.0
  0
MTEXT
  5
177
330
16E
100
AcDbEntity
  8
VERMASSUNG
100
AcDbMText
 10
221.5487381297
 20
107.431238022
 30
0.0
 40
2.0
 41
0.0
 71
     1
 72
     1
  1
%%c
  7
SLDTEXTSTYLE0
 11
-7.044195017643634E-15
 21
1.0
 31
0.0
 73
     1
 44
1.0
  0
MTEXT
  5
178
330
16E
100
AcDbEntity
  8
VERMASSUNG
100
AcDbMText
 10
221.3487381784
 20
111.0412375707
 30
0.0
 40
2.0
 41
0.0
 71
     1
 72
     1
  1
50
  7
SLDTEXTSTYLE0
 11
-7.044195017643634E-15
 21
1.0
 31
0.0
 73
     1
 44
1.0
  0
ENDBLK
  5
170
330
16E
100
AcDbEntity
  8
0
100
AcDbBlockEnd
  0
ENDSEC
  0
SECTION
  2
ENTITIES
  0
MTEXT
  5
78
330
1F
100
AcDbEntity
  8
KOPF_DÜNN
100
AcDbMText
 10
13.8892156294
 20
23.8442973028
 30
0.0
 40
3.0
 41
0.0
 71
     1
 72
     1
  1
114.440.050.043
  7
SLDTEXTSTYLE0
 73
     1
 44
1.0
  0
MTEXT
  5
79
330
1F
100
AcDbEntity
  8
VERMASSUNG
100
AcDbMText
 10
13.9329988022
 20
28.8834360957
 30
0.0
 40
3.0
 41
0.0
 71
     1
 72
     1
  1
Aufnahme_Master shank ST5
  7
SLDTEXTSTYLE0
 73
     1
 44
1.0
  0
MTEXT
  5
7A
330
1F
100
AcDbEntity
  8
VERMASSUNG
100
AcDbMText
 10
98.8601118557
 20
13.8365368761
 30
0.0
 40
2.0
 41
0.0
 71
     1
 72
     1
  1
Datum: 14.05.2008
  7
SLDTEXTSTYLE0
 73
     1
 44
1.0
  0
MTEXT
  5
7B
330
1F
100
AcDbEntity
  8
VERMASSUNG
100
AcDbMText
 10
13.933048693
 20
18.0482802738
 30
0.0
 40
2.0
 41
0.0
 71
     1
 72
     1
  1
DIN 69871 A/D ISO 40
  7
SLDTEXTSTYLE0
 73
     1
 44
1.0
  0
MTEXT
  5
7C
330
1F
100
AcDbEntity
  8
VERMASSUNG
100
AcDbMText
 10
13.9808475933
 20
13.9090974274
 30
0.0
 40
2.0
 41
0.0
 71
     1
 72
     1
  1
Gewicht: 1017g
  7
SLDTEXTSTYLE0
 73
     1
 44
1.0
  0
LINE
  5
7D
330
1F
100
AcDbEntity
  8
0
  6
Continuous
 62
     7
370
    15
100
AcDbLine
 10
210.348869448
 20
132.7362373177
 30
0.0
 11
194.9391892453
 21
132.7362373177
 31
0.0
  0
LINE
  5
7E
330
1F
100
AcDbEntity
  8
0
  6
Continuous
 62
     7
370
    15
100
AcDbLine
 10
194.9479654686
 20
82.7362373177
 30
0.0
 11
210.348869448
 21
82.7362373177
 31
0.0
  0
LINE
  5
7F
330
1F
100
AcDbEntity
  8
0
  6
Continuous
 62
     7
370
    15
100
AcDbLine
 10
210.348869448
 20
82.7362373177
 30
0.0
 11
210.848869448
 21
83.2362373177
 31
0.0
  0
LINE
  5
80
330
1F
100
AcDbEntity
  8
0
  6
Continuous
 62
     7
370
    15
100
AcDbLine
 10
210.848869448
 20
132.2362373177
 30
0.0
 11
210.348869448
 21
132.7362373177
 31
0.0
  0
ARC
  5
81
330
1F
100
AcDbEntity
  8
0
  6
Continuous
 62
     7
370
    15
100
AcDbCircle
 10
170.448869448
 20
84.9112373177
 30
0.0
 40
0.5999999999999943
100
AcDbArc
 50
0.0
 51
90.0
  0
ARC
  5
82
330
1F
100
AcDbEntity
  8
0
  6
Continuous
 62
     7
370
    15
100
AcDbCircle
 10
170.448869448
 20
130.5612373177
 30
0.0
 40
0.5999999999999943
100
AcDbArc
 50
270.0
 51
0.0
  0
LINE
  5
83
330
1F
100
AcDbEntity
  8
0
  6
Continuous
 62
     7
370
    15
100
AcDbLine
 10
167.848869448
 20
129.9612373177
 30
0.0
 11
100.4545625549
 21
120.1329008958
 31
0.0
  0
LINE
  5
84
330
1F
100
AcDbEntity
  8
0
  6
Continuous
 62
     7
370
    15
100
AcDbLine
 10
100.4545625549
 20
95.3395737396
 30
0.0
 11
167.848869448
 21
85.5112373177
 31
0.0
  0
LINE
  5
85
330
1F
100
AcDbEntity
  8
0
  6
Continuous
 62
     7
370
    15
100
AcDbLine
 10
167.848869448
 20
85.5112373177
 30
0.0
 11
170.448869448
 21
85.5112373177
 31
0.0
  0
LINE
  5
86
330
1F
100
AcDbEntity
  8
0
  6
Continuous
 62
     7
370
    15
100
AcDbLine
 10
170.448869448
 20
129.9612373177
 30
0.0
 11
167.848869448
 21
129.9612373177
 31
0.0
  0
ARC
  5
87
330
1F
100
AcDbEntity
  8
0
  6
Continuous
 62
     7
370
    15
100
AcDbCircle
 10
100.598869448
 20
96.3291067206
 30
0.0
 40
0.9999999999999858
100
AcDbArc
 50
180.0
 51
261.7028550302
  0
ARC
  5
88
330
1F
100
AcDbEntity
  8
0
  6
Continuous
 62
     7
370
    15
100
AcDbCircle
 10
100.598869448
 20
119.1433679147
 30
0.0
 40
0.9999999999999858
100
AcDbArc
 50
98.2971449698
 51
180.0
  0
SPLINE
  5
89
330
1F
100
AcDbEntity
  8
0
  6
Continuous
 62
     7
370
    15
100
AcDbSpline
210
0.0
220
0.0
230
1.0
 70
    24
 71
     3
 72
    13
 73
     9
 74
     0
 42
0.000000001
 43
0.00000001
 40
0.0
 40
0.0
 40
0.0
 40
0.0
 40
0.1281940639112351
 40
0.3016059688761555
 40
0.4802226824374571
 40
0.6449624637538085
 40
0.8155900900874848
 40
1.0
 40
1.0
 40
1.0
 40
1.0
 10
195.5171969467096
 20
105.9678188349121
 30
0.0
 10
195.501445234934
 20
106.0831443933801
 30
0.0
 10
195.4643857163684
 20
106.3544742485754
 30
0.0
 10
195.4019872960493
 20
106.8113219089041
 30
0.0
 10
195.3318905310478
 20
107.3245327069302
 30
0.0
 10
195.2618151258118
 20
107.8375871202462
 30
0.0
 10
195.1931399732113
 20
108.3403896371659
 30
0.0
 10
195.1493057722165
 20
108.661320072014
 30
0.0
 10
195.1265378667662
 20
108.8280144255301
 30
0.0
  0
SPLINE
  5
8A
330
1F
100
AcDbEntity
  8
0
  6
Continuous
 62
     7
370
    15
100
AcDbSpline
210
0.0
220
0.0
230
1.0
 70
    24
 71
     3
 72
    11
 73
     7
 74
     0
 42
0.000000001
 43
0.00000001
 40
0.0
 40
0.0
 40
0.0
 40
0.0
 40
0.2164543009645044
 40
0.4403089937225363
 40
0.7518987489759434
 40
0.9999999999999999
 40
0.9999999999999999
 40
0.9999999999999999
 40
0.9999999999999999
 10
198.1895285279487
 20
104.876041727053
 30
0.0
 10
198.0064721538403
 20
104.950829137456
 30
0.0
 10
197.6341008610594
 20
105.1029608773704
 30
0.0
 10
196.9430776035462
 20
105.3852774053222
 30
0.0
 10
196.2018276076725
 20
105.6881139928089
 30
0.0
 10
195.7274709644895
 20
105.881911696516
 30
0.0
 10
195.5171969467096
 20
105.9678188349121
 30
0.0
  0
SPLINE
  5
8B
330
1F
100
AcDbEntity
  8
0
  6
Continuous
 62
     7
370
    15
100
AcDbSpline
210
0.0
220
0.0
230
1.0
 70
    24
 71
     3
 72
    11
 73
     7
 74
     0
 42
0.000000001
 43
0.00000001
 40
0.0
 40
0.0
 40
0.0
 40
0.0
 40
0.216454300964506
 40
0.4403089937225369
 40
0.7518987489759492
 40
0.9999999999999999
 40
0.9999999999999999
 40
0.9999999999999999
 40
0.9999999999999999
 10
200.4712010292446
 20
106.644460209812
 30
0.0
 10
200.3149050448981
 20
106.523322444711
 30
0.0
 10
199.9969694470198
 20
106.2769053154798
 30
0.0
 10
199.4069645331488
 20
105.8196198838434
 30
0.0
 10
198.774075357253
 20
105.329096850605
 30
0.0
 10
198.3690633010561
 20
105.0151907990082
 30
0.0
 10
198.1895285279487
 20
104.876041727053
 30
0.0
  0
SPLINE
  5
8C
330
1F
100
AcDbEntity
  8
0
  6
Continuous
 62
     7
370
    15
100
AcDbSpline
210
0.0
220
0.0
230
1.0
 70
    24
 71
     3
 72
    13
 73
     9
 74
     0
 42
0.000000001
 43
0.00000001
 40
0.0
 40
0.0
 40
0.0
 40
0.0
 40
0.1844095697098941
 40
0.3495005370884472
 40
0.51977053315566
 40
0.6927076360809675
 40
0.8718061725834123
 40
1.0
 40
1.0
 40
1.0
 40
1.0
 10
200.0805419493012
 20
109.5046558004301
 30
0.0
 10
200.1033105935085
 20
109.3379560381323
 30
0.0
 10
200.146462656559
 20
109.0220198502912
 30
0.0
 10
200.2150570869556
 20
108.5198083379162
 30
0.0
 10
200.2843731993469
 20
108.0123130582741
 30
0.0
 10
200.3552185228034
 20
107.4936217179998
 30
0.0
 10
200.4176925859077
 20
107.0362202418967
 30
0.0
 10
200.4554497786035
 20
106.7597823921015
 30
0.0
 10
200.4712010292446
 20
106.644460209812
 30
0.0
  0
SPLINE
  5
8D
330
1F
100
AcDbEntity
  8
0
  6
Continuous
 62
     7
370
    15
100
AcDbSpline
210
0.0
220
0.0
230
1.0
 70
    24
 71
     3
 72
    11
 73
     7
 74
     0
 42
0.000000001
 43
0.00000001
 40
0.0
 40
0.0
 40
0.0
 40
0.0
 40
0.216454300964505
 40
0.4403089937225406
 40
0.7518987489759481
 40
1.0
 40
1.0
 40
1.0
 40
1.0
 10
197.4082103680621
 20
110.5964329082892
 30
0.0
 10
197.5912667421705
 20
110.5216454978861
 30
0.0
 10
197.9636380349514
 20
110.3695137579717
 30
0.0
 10
198.6546612924647
 20
110.08719723002
 30
0.0
 10
199.3959112883383
 20
109.7843606425332
 30
0.0
 10
199.8702679315213
 20
109.5905629388261
 30
0.0
 10
200.0805419493012
 20
109.5046558004301
 30
0.0
  0
SPLINE
  5
8E
330
1F
100
AcDbEntity
  8
0
  6
Continuous
 62
     7
370
    15
100
AcDbSpline
210
0.0
220
0.0
230
1.0
 70
    24
 71
     3
 72
    11
 73
     7
 74
     0
 42
0.000000001
 43
0.00000001
 40
0.0
 40
0.0
 40
0.0
 40
0.0
 40
0.2164543009645049
 40
0.4403089937225376
 40
0.7518987489759472
 40
1.0
 40
1.0
 40
1.0
 40
1.0
 10
195.1265378667662
 20
108.8280144255301
 30
0.0
 10
195.2828338511127
 20
108.9491521906311
 30
0.0
 10
195.600769448991
 20
109.1955693198623
 30
0.0
 10
196.190774362862
 20
109.6528547514988
 30
0.0
 10
196.8236635387578
 20
110.1433777847371
 30
0.0
 10
197.2286755949547
 20
110.4572838363339
 30
0.0
 10
197.4082103680621
 20
110.5964329082892
 30
0.0
  0
CIRCLE
  5
8F
330
1F
100
AcDbEntity
  8
0
  6
Continuous
 62
     7
370
    15
100
AcDbCircle
 10
197.798869448
 20
107.7362373177
 30
0.0
 40
3.000000000000008
  0
CIRCLE
  5
90
330
1F
100
AcDbEntity
  8
0
  6
Continuous
 62
     7
370
    15
100
AcDbCircle
 10
197.798869448
 20
107.7362373177
 30
0.0
 40
4.500000000000027
  0
ARC
  5
91
330
1F
100
AcDbEntity
  8
0
  6
Continuous
 62
     7
370
    15
100
AcDbCircle
 10
197.798869448
 20
107.7362373177
 30
0.0
 40
2.500000000000015
100
AcDbArc
 50
187.7776028621
 51
247.7776028621
  0
ARC
  5
92
330
1F
100
AcDbEntity
  8
0
  6
Continuous
 62
     7
370
    15
100
AcDbCircle
 10
197.798869448
 20
107.7362373177
 30
0.0
 40
2.500000000000023
100
AcDbArc
 50
307.7776028621
 51
7.7776028621
  0
ARC
  5
93
330
1F
100
AcDbEntity
  8
0
  6
Continuous
 62
     7
370
    15
100
AcDbCircle
 10
197.798869448
 20
107.7362373177
 30
0.0
 40
2.500000000000023
100
AcDbArc
 50
7.7776028621
 51
67.7776028621
  0
ARC
  5
94
330
1F
100
AcDbEntity
  8
0
  6
Continuous
 62
     7
370
    15
100
AcDbCircle
 10
197.798869448
 20
107.7362373177
 30
0.0
 40
2.50000000000001
100
AcDbArc
 50
127.7776028621
 51
187.7776028621
  0
ARC
  5
95
330
1F
100
AcDbEntity
  8
0
  6
Continuous
 62
     7
370
    15
100
AcDbCircle
 10
197.798869448
 20
107.7362373177
 30
0.0
 40
2.500000000000015
100
AcDbArc
 50
67.7776028621
 51
127.7776028621
  0
ARC
  5
96
330
1F
100
AcDbEntity
  8
0
  6
Continuous
 62
     7
370
    15
100
AcDbCircle
 10
197.798869448
 20
107.7362373177
 30
0.0
 40
2.500000000000015
100
AcDbArc
 50
247.7776028621
 51
307.7776028621
  0
SPLINE
  5
97
330
1F
100
AcDbEntity
  8
0
  6
Continuous
 62
     7
370
    15
100
AcDbSpline
210
0.0
220
0.0
230
1.0
 70
     8
 71
     3
 72
     8
 73
     4
 74
     0
 42
0.000000001
 43
0.00000001
 40
0.0
 40
0.0
 40
0.0
 40
0.0
 40
1.0
 40
1.0
 40
1.0
 40
1.0
 10
177.0388694480054
 20
79.91941085816958
 30
0.0
 10
176.6547346994211
 20
79.2267694362254
 30
0.0
 10
176.2697484229281
 20
78.53458326190169
 30
0.0
 10
175.8840798443017
 20
77.84278897105749
 30
0.0
  0
SPLINE
  5
98
330
1F
100
AcDbEntity
  8
0
  6
Continuous
 62
     7
370
    15
100
AcDbSpline
210
0.0
220
0.0
230
1.0
 70
     8
 71
     3
 72
     8
 73
     4
 74
     0
 42
0.000000001
 43
0.00000001
 40
0.0
 40
0.0
 40
0.0
 40
0.0
 40
0.0011901715795577
 40
0.0011901715795577
 40
0.0011901715795577
 40
0.0011901715795577
 10
175.4270328059487
 20
77.28814496903436
 30
0.0
 10
175.5808789954446
 20
77.47271020671795
 30
0.0
 10
175.7332742631172
 20
77.65758556724657
 30
0.0
 10
175.8840798443017
 20
77.84278897105749
 30
0.0
  0
LINE
  5
99
330
1F
100
AcDbEntity
  8
0
  6
Continuous
 62
     7
370
    15
100
AcDbLine
 10
175.4270328059
 20
77.288144969
 30
0.0
 11
175.4270328059
 21
126.0862373177
 31
0.0
  0
SPLINE
  5
9A
330
1F
100
AcDbEntity
  8
0
  6
Continuous
 62
     7
370
    15
100
AcDbSpline
210
0.0
220
0.0
230
1.0
 70
    24
 71
     3
 72
     8
 73
     4
 74
     0
 42
0.000000001
 43
0.00000001
 40
0.0
 40
0.0
 40
0.0
 40
0.0
 40
1.0
 40
1.0
 40
1.0
 40
1.0
 10
177.0388694480054
 20
126.086237317671
 30
0.0
 10
176.5141369596435
 20
126.086237317671
 30
0.0
 10
175.9754614754247
 20
126.086237317671
 30
0.0
 10
175.4270328059487
 20
126.086237317671
 30
0.0
  0
LINE
  5
9B
330
1F
100
AcDbEntity
  8
0
  6
Continuous
 62
     7
370
    15
100
AcDbLine
 10
177.038869448
 20
79.9194108582
 30
0.0
 11
177.038869448
 21
126.0862373177
 31
0.0
  0
LINE
  5
9C
330
1F
100
AcDbEntity
  8
0
  6
Continuous
 62
     7
370
    15
100
AcDbLine
 10
171.648869448
 20
77.288144969
 30
0.0
 11
175.4270328059
 21
77.288144969
 31
0.0
  0
LINE
  5
9D
330
1F
100
AcDbEntity
  8
0
  6
Continuous
 62
     7
370
    15
100
AcDbLine
 10
175.4270328059
 20
126.0862373177
 30
0.0
 11
171.648869448
 21
126.0862373177
 31
0.0
  0
SPLINE
  5
9E
330
1F
100
AcDbEntity
  8
0
  6
Continuous
 62
     7
370
    15
100
AcDbSpline
210
0.0
220
0.0
230
1.0
 70
     8
 71
     3
 72
    12
 73
     8
 74
     0
 42
0.000000001
 43
0.00000001
 40
0.0
 40
0.0
 40
0.0
 40
0.0
 40
0.2499999999999997
 40
0.2499999999999997
 40
0.4999999999999993
 40
0.4999999999999993
 40
1.0
 40
1.0
 40
1.0
 40
1.0
 10
186.2988694480054
 20
77.28814496903436
 30
0.0
 10
186.3944113581414
 20
77.28814496903438
 30
0.0
 10
186.4865563000042
 20
77.30439863823058
 30
0.0
 10
186.6428825766141
 20
77.35800705914406
 30
0.0
 10
186.7065507192341
 20
77.39441818442573
 30
0.0
 10
186.8554185646644
 20
77.51654182411222
 30
0.0
 10
186.8988694480054
 20
77.61169449954927
 30
0.0
 10
186.8988694480054
 20
77.70732095516894
 30
0.0
  0
SPLINE
  5
9F
330
1F
100
AcDbEntity
  8
0
  6
Continuous
 62
     7
370
    15
100
AcDbSpline
210
0.0
220
0.0
230
1.0
 70
    24
 71
     3
 72
    12
 73
     8
 74
     0
 42
0.000000001
 43
0.00000001
 40
0.0
 40
0.0
 40
0.0
 40
0.0
 40
0.5
 40
0.5
 40
0.75
 40
0.75
 40
1.0
 40
1.0
 40
1.0
 40
1.0
 10
186.8988694480054
 20
126.086237317671
 30
0.0
 10
186.8988694480054
 20
126.086237317671
 30
0.0
 10
186.8485837808338
 20
126.086237317671
 30
0.0
 10
186.6934616464584
 20
126.086237317671
 30
0.0
 10
186.6280043711164
 20
126.086237317671
 30
0.0
 10
186.4740331474742
 20
126.086237317671
 30
0.0
 10
186.3868108587583
 20
126.086237317671
 30
0.0
 10
186.2988694480053
 20
126.086237317671
 30
0.0
  0
LINE
  5
A0
330
1F
100
AcDbEntity
  8
0
  6
Continuous
 62
     7
370
    15
100
AcDbLine
 10
186.898869448
 20
77.7073209552
 30
0.0
 11
186.898869448
 21
126.0862373177
 31
0.0
  0
LINE
  5
A1
330
1F
100
AcDbEntity
  8
0
  6
Continuous
 62
     7
370
    15
100
AcDbLine
 10
182.4707060901
 20
77.288144969
 30
0.0
 11
186.298869448
 21
77.288144969
 31
0.0
  0
LINE
  5
A2
330
1F
100
AcDbEntity
  8
0
  6
Continuous
 62
     7
370
    15
100
AcDbLine
 10
182.4707060901
 20
77.288144969
 30
0.0
 11
182.4707060901
 21
126.0862373177
 31
0.0
  0
LINE
  5
A3
330
1F
100
AcDbEntity
  8
0
  6
Continuous
 62
     7
370
    15
100
AcDbLine
 10
186.298869448
 20
126.0862373177
 30
0.0
 11
182.4707060901
 21
126.0862373177
 31
0.0
  0
SPLINE
  5
A4
330
1F
100
AcDbEntity
  8
0
  6
Continuous
 62
     7
370
    15
100
AcDbSpline
210
0.0
220
0.0
230
1.0
 70
     8
 71
     3
 72
    10
 73
     6
 74
     0
 42
0.000000001
 43
0.00000001
 40
0.0
 40
0.0
 40
0.0
 40
0.0
 40
0.5
 40
0.5
 40
1.0
 40
1.0
 40
1.0
 40
1.0
 10
171.2650139893526
 20
77.38450746820283
 30
0.0
 10
171.313783962334
 20
77.35627946099483
 30
0.0
 10
171.3712360856363
 20
77.33218485675322
 30
0.0
 10
171.501832988625
 20
77.29792138366066
 30
0.0
 10
171.5743226684672
 20
77.28814496903436
 30
0.0
 10
171.6488694480054
 20
77.28814496903436
 30
0.0
  0
SPLINE
  5
A5
330
1F
100
AcDbEntity
  8
0
  6
Continuous
 62
     7
370
    15
100
AcDbSpline
210
0.0
220
0.0
230
1.0
 70
     8
 71
     3
 72
    10
 73
     6
 74
     0
 42
0.000000001
 43
0.00000001
 40
0.0
 40
0.0
 40
0.0
 40
0.0
 40
0.5
 40
0.5
 40
1.0
 40
1.0
 40
1.0
 40
1.0
 10
171.2650139893526
 20
77.38450746820283
 30
0.0
 10
171.2068913292765
 20
77.45181262806463
 30
0.0
 10
171.154488163273
 20
77.53189801509828
 30
0.0
 10
171.0755851417266
 20
77.71591745678705
 30
0.0
 10
171.0488694480054
 20
77.82112881420751
 30
0.0
 10
171.0488694480054
 20
77.92986216066816
 30
0.0
  0
LINE
  5
A6
330
1F
100
AcDbEntity
  8
0
  6
Continuous
 62
     7
370
    15
100
AcDbLine
 10
171.048869448
 20
77.9298621607
 30
0.0
 11
171.048869448
 21
126.0862373177
 31
0.0
  0
SPLINE
  5
A7
330
1F
100
AcDbEntity
  8
0
  6
Continuous
 62
     7
370
    15
100
AcDbSpline
210
0.0
220
0.0
230
1.0
 70
    24
 71
     3
 72
    12
 73
     8
 74
     0
 42
0.000000001
 43
0.00000001
 40
0.0
 40
0.0
 40
0.0
 40
0.0
 40
0.25
 40
0.25
 40
0.5
 40
0.5
 40
1.0
 40
1.0
 40
1.0
 40
1.0
 10
171.6488694480054
 20
126.086237317671
 30
0.0
 10
171.5613850783526
 20
126.086237317671
 30
0.0
 10
171.474052200932
 20
126.086237317671
 30
0.0
 10
171.3202157874931
 20
126.086237317671
 30
0.0
 10
171.2545936185197
 20
126.086237317671
 30
0.0
 10
171.0991754131772
 20
126.086237317671
 30
0.0
 10
171.0488694480054
 20
126.086237317671
 30
0.0
 10
171.0488694480054
 20
126.086237317671
 30
0.0
  0
SPLINE
  5
A8
330
1F
100
AcDbEntity
  8
0
  6
Continuous
 62
     7
370
    15
100
AcDbSpline
210
0.0
220
0.0
230
1.0
 70
     8
 71
     3
 72
     8
 73
     4
 74
     0
 42
0.000000001
 43
0.00000001
 40
0.0
 40
0.0
 40
0.0
 40
0.0
 40
0.0011901715795577
 40
0.0011901715795577
 40
0.0011901715795577
 40
0.0011901715795577
 10
182.0136590517091
 20
77.84278897105749
 30
0.0
 10
182.1644646328936
 20
77.65758556724657
 30
0.0
 10
182.3168599005662
 20
77.47271020671795
 30
0.0
 10
182.4707060900621
 20
77.28814496903436
 30
0.0
  0
SPLINE
  5
A9
330
1F
100
AcDbEntity
  8
0
  6
Continuous
 62
     7
370
    15
100
AcDbSpline
210
0.0
220
0.0
230
1.0
 70
     8
 71
     3
 72
     8
 73
     4
 74
     0
 42
0.000000001
 43
0.00000001
 40
0.0
 40
0.0
 40
0.0
 40
0.0
 40
1.0
 40
1.0
 40
1.0
 40
1.0
 10
182.0136590517091
 20
77.84278897105749
 30
0.0
 10
181.6279904730827
 20
78.53458326190169
 30
0.0
 10
181.2430041965898
 20
79.2267694362254
 30
0.0
 10
180.8588694480054
 20
79.91941085816958
 30
0.0
  0
LINE
  5
AA
330
1F
100
AcDbEntity
  8
0
  6
Continuous
 62
     7
370
    15
100
AcDbLine
 10
180.858869448
 20
79.9194108582
 30
0.0
 11
180.858869448
 21
126.0862373177
 31
0.0
  0
SPLINE
  5
AB
330
1F
100
AcDbEntity
  8
0
  6
Continuous
 62
     7
370
    15
100
AcDbSpline
210
0.0
220
0.0
230
1.0
 70
    24
 71
     3
 72
     8
 73
     4
 74
     0
 42
0.000000001
 43
0.00000001
 40
0.0
 40
0.0
 40
0.0
 40
0.0
 40
1.0
 40
1.0
 40
1.0
 40
1.0
 10
182.4707060900621
 20
126.086237317671
 30
0.0
 10
181.9222774205861
 20
126.086237317671
 30
0.0
 10
181.3836019363673
 20
126.086237317671
 30
0.0
 10
180.8588694480054
 20
126.086237317671
 30
0.0
  0
SPLINE
  5
AC
330
1F
100
AcDbEntity
  8
0
  6
Continuous
 62
     7
370
    15
100
AcDbSpline
210
0.0
220
0.0
230
1.0
 70
     8
 71
     3
 72
    12
 73
     8
 74
     0
 42
0.000000001
 43
0.00000001
 40
0.0
 40
0.0
 40
0.0
 40
0.0
 40
0.5000000000000013
 40
0.5000000000000013
 40
0.7500000000000007
 40
0.7500000000000007
 40
1.0
 40
1.0
 40
1.0
 40
1.0
 10
180.8588694480054
 20
80.084157829864
 30
0.0
 10
180.8588694480054
 20
80.29698038879687
 30
0.0
 10
180.7769440901857
 20
80.51123689543485
 30
0.0
 10
180.5580222867173
 20
80.74492652388473
 30
0.0
 10
180.4679749952262
 20
80.80941134872872
 30
0.0
 10
180.2725615272064
 20
80.8956109598843
 30
0.0
 10
180.1652785602226
 20
80.91837946138433
 30
0.0
 10
180.0588694480054
 20
80.91837946138433
 30
0.0
  0
SPLINE
  5
AD
330
1F
100
AcDbEntity
  8
0
  6
Continuous
 62
     7
370
    15
100
AcDbSpline
210
0.0
220
0.0
230
1.0
 70
    24
 71
     3
 72
    14
 73
    10
 74
     0
 42
0.000000001
 43
0.00000001
 40
0.0
 40
0.0
 40
0.0
 40
0.0
 40
0.25
 40
0.25
 40
0.5
 40
0.5
 40
0.75
 40
0.75
 40
1.0
 40
1.0
 40
1.0
 40
1.0
 10
180.8588694480054
 20
126.086237317671
 30
0.0
 10
180.8588694480054
 20
126.086237317671
 30
0.0
 10
180.8427878465456
 20
126.086237317671
 30
0.0
 10
180.7772963332787
 20
126.086237317671
 30
0.0
 10
180.7279883601514
 20
126.086237317671
 30
0.0
 10
180.5934188384544
 20
126.086237317671
 30
0.0
 10
180.5078957623691
 20
126.086237317671
 30
0.0
 10
180.3009002668141
 20
126.086237317671
 30
0.0
 10
180.1802066328705
 20
126.086237317671
 30
0.0
 10
180.0588694480055
 20
126.086237317671
 30
0.0
  0
SPLINE
  5
AE
330
1F
100
AcDbEntity
  8
0
  6
Continuous
 62
     7
370
    15
100
AcDbSpline
210
0.0
220
0.0
230
1.0
 70
     8
 71
     3
 72
    12
 73
     8
 74
     0
 42
0.000000001
 43
0.00000001
 40
0.0
 40
0.0
 40
0.0
 40
0.0
 40
0.2499999999999986
 40
0.2499999999999986
 40
0.4999999999999971
 40
0.4999999999999971
 40
1.0
 40
1.0
 40
1.0
 40
1.0
 10
177.8388694480054
 20
80.91837946138433
 30
0.0
 10
177.7312828470432
 20
80.91837946138432
 30
0.0
 10
177.6252780930738
 20
80.89573808249725
 30
0.0
 10
177.4286530467251
 20
80.80883821790351
 30
0.0
 10
177.340767873503
 20
80.74590600279555
 30
0.0
 10
177.1202152803986
 20
80.51090220423617
 30
0.0
 10
177.0388694480054
 20
80.29768451596532
 30
0.0
 10
177.0388694480054
 20
80.08415782986401
 30
0.0
  0
SPLINE
  5
AF
330
1F
100
AcDbEntity
  8
0
  6
Continuous
 62
     7
370
    15
100
AcDbSpline
210
0.0
220
0.0
230
1.0
 70
    24
 71
     3
 72
    12
 73
     8
 74
     0
 42
0.000000001
 43
0.00000001
 40
0.0
 40
0.0
 40
0.0
 40
0.0
 40
0.2499999999999995
 40
0.2499999999999995
 40
0.499999999999999
 40
0.499999999999999
 40
1.0
 40
1.0
 40
1.0
 40
1.0
 10
177.8388694480054
 20
126.086237317671
 30
0.0
 10
177.7173916762009
 20
126.086237317671
 30
0.0
 10
177.594838204539
 20
126.086237317671
 30
0.0
 10
177.3907850510006
 20
126.086237317671
 30
0.0
 10
177.3046259877748
 20
126.086237317671
 30
0.0
 10
177.1025854210791
 20
126.086237317671
 30
0.0
 10
177.0388694480054
 20
126.086237317671
 30
0.0
 10
177.0388694480054
 20
126.086237317671
 30
0.0
  0
LINE
  5
B0
330
1F
100
AcDbEntity
  8
0
  6
Continuous
 62
     7
370
    15
100
AcDbLine
 10
180.058869448
 20
80.9183794614
 30
0.0
 11
177.838869448
 21
80.9183794614
 31
0.0
  0
LINE
  5
B1
330
1F
100
AcDbEntity
  8
0
  6
Continuous
 62
     7
370
    15
100
AcDbLine
 10
180.058869448
 20
126.0862373177
 30
0.0
 11
177.838869448
 21
126.0862373177
 31
0.0
  0
SPLINE
  5
B2
330
1F
100
AcDbEntity
  8
0
  6
Continuous
 62
     7
370
    15
100
AcDbSpline
210
0.0
220
0.0
230
1.0
 70
     8
 71
     3
 72
     8
 73
     4
 74
     0
 42
0.000000001
 43
0.00000001
 40
0.0
 40
0.0
 40
0.0
 40
0.0
 40
0.0000694974999696
 40
0.0000694974999696
 40
0.0000694974999696
 40
0.0000694974999696
 10
186.9000795720018
 20
126.086237317671
 30
0.0
 10
186.8992734621823
 20
126.1093891214996
 30
0.0
 10
186.8988694480054
 20
126.1325584478873
 30
0.0
 10
186.8988694480054
 20
126.1557242812105
 30
0.0
  0
SPLINE
  5
B3
330
1F
100
AcDbEntity
  8
0
  6
Continuous
 62
     7
370
    15
100
AcDbSpline
210
0.0
220
0.0
230
1.0
 70
     8
 71
     3
 72
    10
 73
     6
 74
     0
 42
0.000000001
 43
0.00000001
 40
0.0
 40
0.0
 40
0.0
 40
0.0
 40
0.5
 40
0.5
 40
1.0
 40
1.0
 40
1.0
 40
1.0
 10
186.8988694480054
 20
132.7206577543706
 30
0.0
 10
186.8988694480054
 20
132.6595433096064
 30
0.0
 10
186.9108435430135
 20
132.614069791468
 30
0.0
 10
186.9406353999269
 20
132.5522074661594
 30
0.0
 10
186.9585822062555
 20
132.5362373176711
 30
0.0
 10
186.9718298384599
 20
132.5362373176711
 30
0.0
  0
SPLINE
  5
B4
330
1F
100
AcDbEntity
  8
0
  6
Continuous
 62
     7
370
    15
100
AcDbSpline
210
0.0
220
0.0
230
1.0
 70
    24
 71
     3
 72
    18
 73
    14
 74
     0
 42
0.000000001
 43
0.00000001
 40
0.0
 40
0.0
 40
0.0
 40
0.0
 40
0.5000000000000003
 40
0.5000000000000003
 40
0.7500000000000012
 40
0.7500000000000012
 40
0.8750000000000013
 40
0.8750000000000013
 40
0.9375000000000007
 40
0.9375000000000007
 40
0.9687500000000003
 40
0.9687500000000003
 40
1.0
 40
1.0
 40
1.0
 40
1.0
 10
186.9718298384599
 20
132.5362373176711
 30
0.0
 10
187.0309683620584
 20
132.5362373176711
 30
0.0
 10
187.1197597964204
 20
132.5362373176711
 30
0.0
 10
187.303660073658
 20
132.5362373176711
 30
0.0
 10
187.3728748976002
 20
132.5362373176711
 30
0.0
 10
187.50524987173
 20
132.5362373176711
 30
0.0
 10
187.55368081538
 20
132.5362373176711
 30
0.0
 10
187.6466450525637
 20
132.5362373176711
 30
0.0
 10
187.6809142871452
 20
132.5362373176711
 30
0.0
 10
187.7456510782634
 20
132.5362373176711
 30
0.0
 10
187.7698067312485
 20
132.5362373176711
 30
0.0
 10
187.8272021538919
 20
132.5362373176711
 30
0.0
 10
187.8618635760014
 20
132.5362373176711
 30
0.0
 10
187.8988694480054
 20
132.5362373176711
 30
0.0
  0
SPLINE
  5
B5
330
1F
100
AcDbEntity
  8
0
  6
Continuous
 62
     7
370
    15
100
AcDbSpline
210
0.0
220
0.0
230
1.0
 70
     8
 71
     3
 72
    12
 73
     8
 74
     0
 42
0.000000001
 43
0.00000001
 40
0.0
 40
0.0
 40
0.0
 40
0.0
 40
0.2500000000000012
 40
0.2500000000000012
 40
0.5000000000000024
 40
0.5000000000000024
 40
1.0
 40
1.0
 40
1.0
 40
1.0
 10
187.8988694480054
 20
84.04020224051354
 30
0.0
 10
187.8098521050119
 20
84.04020224051352
 30
0.0
 10
187.7228157729002
 20
84.02915708628899
 30
0.0
 10
187.5525981658962
 20
83.98512965828182
 30
0.0
 10
187.4700410173635
 20
83.95187861852139
 30
0.0
 10
187.2429696655699
 20
83.82232188273953
 30
0.0
 10
187.1156524683574
 20
83.69292157124426
 30
0.0
 10
187.0306759294406
 20
83.53623731767105
 30
0.0
  0
SPLINE
  5
B6
330
1F
100
AcDbEntity
  8
0
  6
Continuous
 62
     7
370
    15
100
AcDbSpline
210
0.0
220
0.0
230
1.0
 70
    11
 71
     3
 72
    83
 73
    79
 74
     0
 42
0.000000001
 43
0.00000001
 40
0.0
 40
0.0
 40
0.0
 40
0.0
 40
0.0312499999999993
 40
0.0312499999999993
 40
0.0624999999999987
 40
0.0624999999999987
 40
0.093749999999998
 40
0.093749999999998
 40
0.1093749999999978
 40
0.1093749999999978
 40
0.1249999999999976
 40
0.1249999999999976
 40
0.1562499999999972
 40
0.1562499999999972
 40
0.1874999999999971
 40
0.1874999999999971
 40
0.218749999999997
 40
0.218749999999997
 40
0.2499999999999969
 40
0.2499999999999969
 40
0.2812499999999968
 40
0.2812499999999968
 40
0.3124999999999967
 40
0.3124999999999967
 40
0.3437499999999966
 40
0.3437499999999966
 40
0.3593749999999965
 40
0.3593749999999965
 40
0.3749999999999964
 40
0.3906249999999963
 40
0.3906249999999963
 40
0.4062499999999962
 40
0.4062499999999962
 40
0.4374999999999959
 40
0.4374999999999959
 40
0.4687499999999958
 40
0.4687499999999958
 40
0.4999999999999956
 40
0.4999999999999956
 40
0.5312499999999953
 40
0.5312499999999953
 40
0.5468749999999952
 40
0.5468749999999952
 40
0.5624999999999951
 40
0.5624999999999951
 40
0.5937499999999953
 40
0.5937499999999953
 40
0.6249999999999956
 40
0.6249999999999956
 40
0.6562499999999959
 40
0.6562499999999959
 40
0.6874999999999961
 40
0.6874999999999961
 40
0.7187499999999963
 40
0.7187499999999963
 40
0.7499999999999966
 40
0.7499999999999966
 40
0.7656249999999968
 40
0.7656249999999968
 40
0.781249999999997
 40
0.781249999999997
 40
0.8124999999999974
 40
0.8124999999999974
 40
0.8281249999999977
 40
0.8281249999999977
 40
0.8437499999999979
 40
0.8437499999999979
 40
0.8749999999999982
 40
0.8749999999999982
 40
0.8906249999999986
 40
0.8906249999999986
 40
0.9062499999999988
 40
0.9062499999999988
 40
0.9374999999999992
 40
0.9374999999999992
 40
0.9687499999999997
 40
0.9687499999999997
 40
1.0
 40
1.0
 40
1.0
 40
1.0
 10
193.6085717723147
 20
111.8926491272246
 30
0.0
 10
193.9114966713512
 20
112.139051381705
 30
0.0
 10
194.2329836879212
 20
112.352832835665
 30
0.0
 10
194.9101041669452
 20
112.7211803867808
 30
0.0
 10
195.2683306503097
 20
112.8765047759452
 30
0.0
 10
196.0083059692283
 20
113.1228910246533
 30
0.0
 10
196.3849087550541
 20
113.2127642531868
 30
0.0
 10
196.9593858975067
 20
113.2997033405696
 30
0.0
 10
197.1524841279526
 20
113.3206499095846
 30
0.0
 10
197.541955080417
 20
113.3461909168361
 30
0.0
 10
197.7387217996619
 20
113.3506949535047
 30
0.0
 10
198.3228550452414
 20
113.3393084592731
 30
0.0
 10
198.7076773204179
 20
113.2991196784741
 30
0.0
 10
199.4682284945795
 20
113.1540861623974
 30
0.0
 10
199.8476165689151
 20
113.0476258048117
 30
0.0
 10
200.573175373961
 20
112.7734631663027
 30
0.0
 10
200.9202203639165
 20
112.6064388891643
 30
0.0
 10
201.5823236178199
 20
112.210801050208
 30
0.0
 10
201.9003762277723
 20
111.979084131465
 30
0.0
 10
202.4776794515706
 20
111.4664974546682
 30
0.0
 10
202.7390955998845
 20
111.1853247256098
 30
0.0
 10
203.2042311797553
 20
110.5696067249657
 30
0.0
 10
203.4088166671321
 20
110.2312464269281
 30
0.0
 10
203.7335318371178
 20
109.5305143261126
 30
0.0
 10
203.8569718997848
 20
109.1650175777978
 30
0.0
 10
203.9790196654756
 20
108.5920815824664
 30
0.0
 10
204.0089120536542
 20
108.3966826225504
 30
0.0
 10
204.045220239935
 20
108.008881671012
 30
0.0
 10
204.0587842443551
 20
107.6212406502127
 30
0.0
 10
204.0274056175996
 20
107.2339157629275
 30
0.0
 10
203.9731101208423
 20
106.8467519489152
 30
0.0
 10
203.9342643203782
 20
106.6530652533926
 30
0.0
 10
203.7866957831721
 20
106.0876100300659
 30
0.0
 10
203.6467553536521
 20
105.7259835114006
 30
0.0
 10
203.2869641998
 20
105.0320233089958
 30
0.0
 10
203.0706285891595
 20
104.7074675543079
 30
0.0
 10
202.5788128494927
 20
104.1099813201054
 30
0.0
 10
202.2991779921672
 20
103.8330684343426
 30
0.0
 10
201.6992462216156
 20
103.3429591599227
 30
0.0
 10
201.3781876009555
 20
103.1277822176624
 30
0.0
 10
200.8659306983094
 20
102.8478879140912
 30
0.0
 10
200.6895436394586
 20
102.7616638289667
 30
0.0
 10
200.3329109652693
 20
102.6065297585955
 30
0.0
 10
200.1519504502647
 20
102.5371780761348
 30
0.0
 10
199.601349751397
 20
102.3529816272432
 30
0.0
 10
199.2240548285016
 20
102.2617888960665
 30
0.0
 10
198.4485166850525
 20
102.1436686630911
 30
0.0
 10
198.0599713458115
 20
102.1183363200328
 30
0.0
 10
197.2853441582293
 20
102.1324985479422
 30
0.0
 10
196.8974939728538
 20
102.1721013390857
 30
0.0
 10
196.1275695790238
 20
102.3185960368956
 30
0.0
 10
195.7546023431517
 20
102.4235556068636
 30
0.0
 10
195.0320467166957
 20
102.6957907880235
 30
0.0
 10
194.6804796533764
 20
102.8642186296701
 30
0.0
 10
194.0113024556488
 20
103.2641789794949
 30
0.0
 10
193.699998896003
 20
103.4914480297303
 30
0.0
 10
193.2682715913389
 20
103.874184301079
 30
0.0
 10
193.130275187189
 20
104.0087842808567
 30
0.0
 10
192.8667219570735
 20
104.292853188851
 30
0.0
 10
192.7404551457475
 20
104.4433482039191
 30
0.0
 10
192.3892496945775
 20
104.9090170799325
 30
0.0
 10
192.1902361761596
 20
105.2388709998206
 30
0.0
 10
191.9464667627947
 20
105.7642080994097
 30
0.0
 10
191.8744030321729
 20
105.9444499981103
 30
0.0
 10
191.7499756068358
 20
106.3159668298956
 30
0.0
 10
191.6982687762316
 20
106.5057647050857
 30
0.0
 10
191.5775502999213
 20
107.0761052339526
 30
0.0
 10
191.5410556937312
 20
107.4619181658026
 30
0.0
 10
191.5548406556851
 20
108.0493561253165
 30
0.0
 10
191.5711564490354
 20
108.2464749612843
 30
0.0
 10
191.6258937728516
 20
108.6326166452417
 30
0.0
 10
191.6643034096602
 20
108.8230546254049
 30
0.0
 10
191.8117690676314
 20
109.386696233112
 30
0.0
 10
191.9552862215334
 20
109.756078451079
 30
0.0
 10
192.3141083072343
 20
110.4455650129847
 30
0.0
 10
192.5290689230084
 20
110.7682447604642
 30
0.0
 10
193.0272299505985
 20
111.3717052583028
 30
0.0
 10
193.3056468732783
 20
111.6462468727443
 30
0.0
 10
193.6085717723147
 20
111.8926491272246
 30
0.0
  0
LINE
  5
B7
330
1F
100
AcDbEntity
  8
0
  6
Continuous
 62
     7
370
    15
100
AcDbLine
 10
210.348869448
 20
107.7362373177
 30
0.0
 11
210.348869448
 21
82.7362373177
 31
0.0
  0
LINE
  5
B8
330
1F
100
AcDbEntity
  8
0
  6
Continuous
 62
     7
370
    15
100
AcDbLine
 10
210.348869448
 20
132.7362373177
 30
0.0
 11
210.348869448
 21
107.7362373177
 31
0.0
  0
SPLINE
  5
B9
330
1F
100
AcDbEntity
  8
0
  6
Continuous
 62
     7
370
    15
100
AcDbSpline
210
0.0
220
0.0
230
1.0
 70
     8
 71
     3
 72
    22
 73
    18
 74
     0
 42
0.000000001
 43
0.00000001
 40
0.0
 40
0.0
 40
0.0
 40
0.0
 40
0.0425638397709134
 40
0.1276766614231285
 40
0.214375073036038
 40
0.3456108900701216
 40
0.3927193196380633
 40
0.4398278601618436
 40
0.4869365228910111
 40
0.5834139302965214
 40
0.6319579199492765
 40
0.6805020600904554
 40
0.7300226132631218
 40
0.8210969233593404
 40
0.8666445308251378
 40
0.9599671510307047
 40
0.9999999999999999
 40
0.9999999999999999
 40
0.9999999999999999
 40
0.9999999999999999
 10
191.9429253557051
 20
83.53623731767105
 30
0.0
 10
192.0212718772553
 20
83.51968278481358
 30
0.0
 10
192.2562840932464
 20
83.4700249649826
 30
0.0
 10
192.6285094742353
 20
83.38523527385813
 30
0.0
 10
193.1171409280718
 20
83.266237162833
 30
0.0
 10
193.4981089438637
 20
83.16577980592747
 30
0.0
 10
193.7867863864596
 20
83.0860555549416
 30
0.0
 10
193.9558058210383
 20
83.03826701229566
 30
0.0
 10
194.1672681684549
 20
82.97719728938522
 30
0.0
 10
194.3543344077415
 20
82.92151568633119
 30
0.0
 10
194.5148961553361
 20
82.87266028266427
 30
0.0
 10
194.6221639435605
 20
82.83957590414977
 30
0.0
 10
194.7414495319615
 20
82.80234894527916
 30
0.0
 10
194.8317230450485
 20
82.77374729589295
 30
0.0
 10
194.9090396811525
 20
82.749058514557
 30
0.0
 10
194.9448952427486
 20
82.73751666213171
 30
0.0
 10
194.9472565979949
 20
82.73675651882313
 30
0.0
 10
194.9479654686436
 20
82.73652832644036
 30
0.0
  0
SPLINE
  5
BA
330
1F
100
AcDbEntity
  8
0
  6
Continuous
 62
     7
370
    15
100
AcDbSpline
210
0.0
220
0.0
230
1.0
 70
     8
 71
     3
 72
    14
 73
    10
 74
     0
 42
0.000000001
 43
0.00000001
 40
0.0
 40
0.0
 40
0.0
 40
0.0
 40
0.1069752108827293
 40
0.2627662436025996
 40
0.4197706228900173
 40
0.5620874849848816
 40
0.7054232012754442
 40
0.8521038824976435
 40
1.0
 40
1.0
 40
1.0
 40
1.0
 10
187.7932344017763
 20
84.02309353667091
 30
0.0
 10
187.9547695620059
 20
84.01747576073471
 30
0.0
 10
188.3515529561496
 20
84.00367665841952
 30
0.0
 10
188.9752023246731
 20
83.96048279474402
 30
0.0
 10
189.6369888423111
 20
83.89899756672362
 30
0.0
 10
190.2610161050979
 20
83.82400757636584
 30
0.0
 10
190.8468836327509
 20
83.73883793588008
 30
0.0
 10
191.4145040847088
 20
83.6426104404279
 30
0.0
 10
191.7663010889535
 20
83.57179242462877
 30
0.0
 10
191.9429253557051
 20
83.53623731767105
 30
0.0
  0
LINE
  5
BB
330
1F
100
AcDbEntity
  8
0
  6
Continuous
 62
     7
370
    15
100
AcDbLine
 10
187.898869448
 20
132.5362373177
 30
0.0
 11
194.3044416744
 21
132.5362373177
 31
0.0
  0
SPLINE
  5
BC
330
1F
100
AcDbEntity
  8
0
  6
Continuous
 62
     7
370
    15
100
AcDbSpline
210
0.0
220
0.0
230
1.0
 70
     8
 71
     3
 72
    13
 73
     9
 74
     0
 42
0.000000001
 43
0.00000001
 40
0.0
 40
0.0
 40
0.0
 40
0.0
 40
0.0986130720215986
 40
0.3472582722308776
 40
0.7012929367082017
 40
0.8037960467638835
 40
0.9024050844427438
 40
1.0
 40
1.0
 40
1.0
 40
1.0
 10
194.3044416743766
 20
132.5362373176711
 30
0.0
 10
194.3448646099479
 20
132.5483667756281
 30
0.0
 10
194.4872108372506
 20
132.5910797195301
 30
0.0
 10
194.718364242274
 20
132.6626178425533
 30
0.0
 10
194.8665516824915
 20
132.709812559941
 30
0.0
 10
194.9246283796852
 20
132.7284377644681
 30
0.0
 10
194.9478585064428
 20
132.7359108597014
 30
0.0
 10
194.9420690242651
 20
132.7340486110742
 30
0.0
 10
194.9391892452651
 20
132.7331222994759
 30
0.0
  0
LINE
  5
BD
330
1F
100
AcDbEntity
  8
0
  6
Continuous
 62
     7
370
    15
100
AcDbLine
 10
210.848869448
 20
107.7362373177
 30
0.0
 11
210.848869448
 21
83.2362373177
 31
0.0
  0
LINE
  5
BE
330
1F
100
AcDbEntity
  8
0
  6
Continuous
 62
     7
370
    15
100
AcDbLine
 10
210.848869448
 20
132.2362373177
 30
0.0
 11
210.848869448
 21
107.7362373177
 31
0.0
  0
LINE
  5
BF
330
1F
100
AcDbEntity
  8
0
  6
Continuous
 62
     7
370
    15
100
AcDbLine
 10
167.848869448
 20
85.5112373177
 30
0.0
 11
167.848869448
 21
129.9612373177
 31
0.0
  0
SPLINE
  5
C0
330
1F
100
AcDbEntity
  8
0
  6
Continuous
 62
     7
370
    15
100
AcDbSpline
210
0.0
220
0.0
230
1.0
 70
     8
 71
     3
 72
     8
 73
     4
 74
     0
 42
0.000000001
 43
0.00000001
 40
0.0
 40
0.0
 40
0.0
 40
0.0
 40
0.0012409313617635
 40
0.0012409313617635
 40
0.0012409313617635
 40
0.0012409313617635
 10
175.9849147617093
 20
137.4487754739356
 30
0.0
 10
175.7996909221534
 20
137.7103030174127
 30
0.0
 10
175.6137057341809
 20
137.9715615191881
 30
0.0
 10
175.4270328059487
 20
138.2325733968866
 30
0.0
  0
SPLINE
  5
C1
330
1F
100
AcDbEntity
  8
0
  6
Continuous
 62
     7
370
    15
100
AcDbSpline
210
0.0
220
0.0
230
1.0
 70
     8
 71
     3
 72
     8
 73
     4
 74
     0
 42
0.000000001
 43
0.00000001
 40
0.0
 40
0.0
 40
0.0
 40
0.0
 40
1.0
 40
1.0
 40
1.0
 40
1.0
 10
177.0388694480054
 20
135.5530637771725
 30
0.0
 10
176.6882172076779
 20
136.1853321862229
 30
0.0
 10
176.3368587846176
 20
136.8172140859217
 30
0.0
 10
175.9849147617093
 20
137.4487754739356
 30
0.0
  0
LINE
  5
C2
330
1F
100
AcDbEntity
  8
0
  6
Continuous
 62
     7
370
    15
100
AcDbLine
 10
177.038869448
 20
130.1383763735
 30
0.0
 11
177.038869448
 21
135.5530637772
 31
0.0
  0
SPLINE
  5
C3
330
1F
100
AcDbEntity
  8
0
  6
Continuous
 62
     7
370
    15
100
AcDbSpline
210
0.0
220
0.0
230
1.0
 70
     8
 71
     3
 72
     8
 73
     4
 74
     0
 42
0.000000001
 43
0.00000001
 40
0.0
 40
0.0
 40
0.0
 40
0.0
 40
1.0
 40
1.0
 40
1.0
 40
1.0
 10
175.4270328059487
 20
133.6464669577186
 30
0.0
 10
175.9759775841456
 20
132.4813708454049
 30
0.0
 10
176.5145879586623
 20
131.3122125285804
 30
0.0
 10
177.0388694480054
 20
130.1383763735296
 30
0.0
  0
LINE
  5
C4
330
1F
100
AcDbEntity
  8
0
  6
Continuous
 62
     7
370
    15
100
AcDbLine
 10
175.4270328059
 20
133.6464669577
 30
0.0
 11
175.4270328059
 21
138.2325733969
 31
0.0
  0
LINE
  5
C5
330
1F
100
AcDbEntity
  8
0
  6
Continuous
 62
     7
370
    15
100
AcDbLine
 10
180.058869448
 20
134.554095174
 30
0.0
 11
177.838869448
 21
134.554095174
 31
0.0
  0
LINE
  5
C6
330
1F
100
AcDbEntity
  8
0
  6
Continuous
 62
     7
370
    15
100
AcDbLine
 10
177.838869448
 20
128.8851734611
 30
0.0
 11
180.058869448
 21
128.8851734611
 31
0.0
  0
SPLINE
  5
C7
330
1F
100
AcDbEntity
  8
0
  6
Continuous
 62
     7
370
    15
100
AcDbSpline
210
0.0
220
0.0
230
1.0
 70
     8
 71
     3
 72
    12
 73
     8
 74
     0
 42
0.000000001
 43
0.00000001
 40
0.0
 40
0.0
 40
0.0
 40
0.0
 40
0.5000000000000003
 40
0.5000000000000003
 40
0.7500000000000001
 40
0.7500000000000001
 40
1.0
 40
1.0
 40
1.0
 40
1.0
 10
171.0488694480054
 20
132.9076496737547
 30
0.0
 10
171.0488694480054
 20
133.0824098490889
 30
0.0
 10
171.0987896493237
 20
133.2601149528741
 30
0.0
 10
171.2541315472355
 20
133.4728716947194
 30
0.0
 10
171.3199822457597
 20
133.5346650674445
 30
0.0
 10
171.4724283135982
 20
133.6214716551255
 30
0.0
 10
171.5614384137178
 20
133.6464669577188
 30
0.0
 10
171.6488694480054
 20
133.6464669577188
 30
0.0
  0
LINE
  5
C8
330
1F
100
AcDbEntity
  8
0
  6
Continuous
 62
     7
370
    15
100
AcDbLine
 10
171.648869448
 20
133.6464669577
 30
0.0
 11
175.4270328059
 21
133.6464669577
 31
0.0
  0
LINE
  5
C9
330
1F
100
AcDbEntity
  8
0
  6
Continuous
 62
     7
370
    15
100
AcDbLine
 10
177.038869448
 20
130.1383763735
 30
0.0
 11
177.038869448
 21
129.9334781372
 31
0.0
  0
SPLINE
  5
CA
330
1F
100
AcDbEntity
  8
0
  6
Continuous
 62
     7
370
    15
100
AcDbSpline
210
0.0
220
0.0
230
1.0
 70
     8
 71
     3
 72
    14
 73
    10
 74
     0
 42
0.000000001
 43
0.00000001
 40
0.0
 40
0.0
 40
0.0
 40
0.0
 40
0.25
 40
0.25
 40
0.5
 40
0.5
 40
0.75
 40
0.75
 40
1.0
 40
1.0
 40
1.0
 40
1.0
 10
177.0388694480054
 20
129.9334781371963
 30
0.0
 10
177.0388694480054
 20
129.8125860791079
 30
0.0
 10
177.0553649203986
 20
129.6901208040199
 30
0.0
 10
177.1205969871205
 20
129.4582996604682
 30
0.0
 10
177.1702148215392
 20
129.3453257851608
 30
0.0
 10
177.304855657543
 20
129.1436203152852
 30
0.0
 10
177.3911775226906
 20
129.0534884682072
 30
0.0
 10
177.5963651757926
 20
128.9238675898265
 30
0.0
 10
177.7163331984076
 20
128.8851734611276
 30
0.0
 10
177.8388694480054
 20
128.8851734611276
 30
0.0
  0
SPLINE
  5
CB
330
1F
100
AcDbEntity
  8
0
  6
Continuous
 62
     7
370
    15
100
AcDbSpline
210
0.0
220
0.0
230
1.0
 70
     8
 71
     3
 72
    12
 73
     8
 74
     0
 42
0.000000001
 43
0.00000001
 40
0.0
 40
0.0
 40
0.0
 40
0.0
 40
0.2499999999999986
 40
0.2499999999999986
 40
0.4999999999999971
 40
0.4999999999999971
 40
1.0
 40
1.0
 40
1.0
 40
1.0
 10
180.0588694480054
 20
128.8851734611276
 30
0.0
 10
180.1809514454937
 20
128.8851734611276
 30
0.0
 10
180.3015419879794
 20
128.9238998173013
 30
0.0
 10
180.5070372716792
 20
129.0538634050475
 30
0.0
 10
180.5925537546317
 20
129.1430696415943
 30
0.0
 10
180.7959481061759
 20
129.4479461791399
 30
0.0
 10
180.8588694480054
 20
129.690716793242
 30
0.0
 10
180.8588694480054
 20
129.9334781371963
 30
0.0
  0
LINE
  5
CC
330
1F
100
AcDbEntity
  8
0
  6
Continuous
 62
     7
370
    15
100
AcDbLine
 10
180.858869448
 20
129.9334781372
 30
0.0
 11
180.858869448
 21
130.1383763735
 31
0.0
  0
SPLINE
  5
CD
330
1F
100
AcDbEntity
  8
0
  6
Continuous
 62
     7
370
    15
100
AcDbSpline
210
0.0
220
0.0
230
1.0
 70
     8
 71
     3
 72
     8
 73
     4
 74
     0
 42
0.000000001
 43
0.00000001
 40
0.0
 40
0.0
 40
0.0
 40
0.0
 40
1.0
 40
1.0
 40
1.0
 40
1.0
 10
180.8588694480054
 20
130.1383763735296
 30
0.0
 10
181.3836605675014
 20
131.3133535612343
 30
0.0
 10
181.9221768186842
 20
132.4822527289724
 30
0.0
 10
182.4707060900621
 20
133.6464669577186
 30
0.0
  0
LINE
  5
CE
330
1F
100
AcDbEntity
  8
0
  6
Continuous
 62
     7
370
    15
100
AcDbLine
 10
182.4707060901
 20
133.6464669577
 30
0.0
 11
186.298869448
 21
133.6464669577
 31
0.0
  0
SPLINE
  5
CF
330
1F
100
AcDbEntity
  8
0
  6
Continuous
 62
     7
370
    15
100
AcDbSpline
210
0.0
220
0.0
230
1.0
 70
     8
 71
     3
 72
    14
 73
    10
 74
     0
 42
0.000000001
 43
0.00000001
 40
0.0
 40
0.0
 40
0.0
 40
0.0
 40
0.25
 40
0.25
 40
0.5
 40
0.5
 40
0.75
 40
0.75
 40
1.0
 40
1.0
 40
1.0
 40
1.0
 10
186.2988694480054
 20
133.6464669577186
 30
0.0
 10
186.3872919861279
 20
133.6464669577186
 30
0.0
 10
186.4753459758209
 20
133.6213946072592
 30
0.0
 10
186.6271757396923
 20
133.5350525422879
 30
0.0
 10
186.6930186842561
 20
133.473509287775
 30
0.0
 10
186.7968177448016
 20
133.3316815415241
 30
0.0
 10
186.8352898542763
 20
133.2516329515541
 30
0.0
 10
186.8865125175508
 20
133.0826204548804
 30
0.0
 10
186.8988694480054
 20
132.9958411480107
 30
0.0
 10
186.8988694480054
 20
132.9076496737547
 30
0.0
  0
LINE
  5
D0
330
1F
100
AcDbEntity
  8
0
  6
Continuous
 62
     7
370
    15
100
AcDbLine
 10
186.898869448
 20
132.9076496738
 30
0.0
 11
186.898869448
 21
126.1557242812
 31
0.0
  0
LINE
  5
D1
330
1F
100
AcDbEntity
  8
0
  6
Continuous
 62
     7
370
    15
100
AcDbLine
 10
171.048869448
 20
132.9076496738
 30
0.0
 11
171.048869448
 21
126.0862373177
 31
0.0
  0
SPLINE
  5
D2
330
1F
100
AcDbEntity
  8
0
  6
Continuous
 62
     7
370
    15
100
AcDbSpline
210
0.0
220
0.0
230
1.0
 70
     8
 71
     3
 72
    12
 73
     8
 74
     0
 42
0.000000001
 43
0.00000001
 40
0.0
 40
0.0
 40
0.0
 40
0.0
 40
0.5000000000000004
 40
0.5000000000000004
 40
0.7500000000000002
 40
0.7500000000000002
 40
1.0
 40
1.0
 40
1.0
 40
1.0
 10
186.8988694480054
 20
137.7467884511123
 30
0.0
 10
186.8988694480054
 20
137.8671154841654
 30
0.0
 10
186.8450746364124
 20
137.9852130576472
 30
0.0
 10
186.6841510664461
 20
138.1248558000862
 30
0.0
 10
186.6193996053436
 20
138.1631317534806
 30
0.0
 10
186.4671794220259
 20
138.2179715831151
 30
0.0
 10
186.3843719065009
 20
138.2325733968866
 30
0.0
 10
186.2988694480054
 20
138.2325733968866
 30
0.0
  0
LINE
  5
D3
330
1F
100
AcDbEntity
  8
0
  6
Continuous
 62
     7
370
    15
100
AcDbLine
 10
186.898869448
 20
132.9076496738
 30
0.0
 11
186.898869448
 21
137.7467884511
 31
0.0
  0
LINE
  5
D4
330
1F
100
AcDbEntity
  8
0
  6
Continuous
 62
     7
370
    15
100
AcDbLine
 10
186.298869448
 20
138.2325733969
 30
0.0
 11
182.4707060901
 21
138.2325733969
 31
0.0
  0
LINE
  5
D5
330
1F
100
AcDbEntity
  8
0
  6
Continuous
 62
     7
370
    15
100
AcDbLine
 10
182.4707060901
 20
133.6464669577
 30
0.0
 11
182.4707060901
 21
138.2325733969
 31
0.0
  0
SPLINE
  5
D6
330
1F
100
AcDbEntity
  8
0
  6
Continuous
 62
     7
370
    15
100
AcDbSpline
210
0.0
220
0.0
230
1.0
 70
     8
 71
     3
 72
     8
 73
     4
 74
     0
 42
0.000000001
 43
0.00000001
 40
0.0
 40
0.0
 40
0.0
 40
0.0
 40
1.0
 40
1.0
 40
1.0
 40
1.0
 10
181.9128241343015
 20
137.4487754739356
 30
0.0
 10
181.5608801113932
 20
136.8172140859217
 30
0.0
 10
181.209521688333
 20
136.1853321862229
 30
0.0
 10
180.8588694480054
 20
135.5530637771725
 30
0.0
  0
SPLINE
  5
D7
330
1F
100
AcDbEntity
  8
0
  6
Continuous
 62
     7
370
    15
100
AcDbSpline
210
0.0
220
0.0
230
1.0
 70
     8
 71
     3
 72
     8
 73
     4
 74
     0
 42
0.000000001
 43
0.00000001
 40
0.0
 40
0.0
 40
0.0
 40
0.0
 40
0.0012409313617635
 40
0.0012409313617635
 40
0.0012409313617635
 40
0.0012409313617635
 10
182.4707060900621
 20
138.2325733968866
 30
0.0
 10
182.2840331618299
 20
137.9715615191881
 30
0.0
 10
182.0980479738574
 20
137.7103030174127
 30
0.0
 10
181.9128241343015
 20
137.4487754739356
 30
0.0
  0
LINE
  5
D8
330
1F
100
AcDbEntity
  8
0
  6
Continuous
 62
     7
370
    15
100
AcDbLine
 10
180.858869448
 20
130.1383763735
 30
0.0
 11
180.858869448
 21
135.5530637772
 31
0.0
  0
SPLINE
  5
D9
330
1F
100
AcDbEntity
  8
0
  6
Continuous
 62
     7
370
    15
100
AcDbSpline
210
0.0
220
0.0
230
1.0
 70
     8
 71
     3
 72
    12
 73
     8
 74
     0
 42
0.000000001
 43
0.00000001
 40
0.0
 40
0.0
 40
0.0
 40
0.0
 40
0.5
 40
0.5
 40
0.75
 40
0.75
 40
1.0
 40
1.0
 40
1.0
 40
1.0
 10
180.8588694480054
 20
135.3883168054781
 30
0.0
 10
180.8588694480054
 20
135.1751794038266
 30
0.0
 10
180.7762270328575
 20
134.9601998790889
 30
0.0
 10
180.5576436220471
 20
134.7272808102032
 30
0.0
 10
180.4685536690664
 20
134.6634139003827
 30
0.0
 10
180.2731483511689
 20
134.5770277460009
 30
0.0
 10
180.1666243042255
 20
134.5540951739578
 30
0.0
 10
180.0588694480054
 20
134.5540951739578
 30
0.0
  0
LINE
  5
DA
330
1F
100
AcDbEntity
  8
0
  6
Continuous
 62
     7
370
    15
100
AcDbLine
 10
175.4270328059
 20
138.2325733969
 30
0.0
 11
171.648869448
 21
138.2325733969
 31
0.0
  0
SPLINE
  5
DB
330
1F
100
AcDbEntity
  8
0
  6
Continuous
 62
     7
370
    15
100
AcDbSpline
210
0.0
220
0.0
230
1.0
 70
     8
 71
     3
 72
    12
 73
     8
 74
     0
 42
0.000000001
 43
0.00000001
 40
0.0
 40
0.0
 40
0.0
 40
0.0
 40
0.2499999999999993
 40
0.2499999999999993
 40
0.4999999999999987
 40
0.4999999999999987
 40
1.0
 40
1.0
 40
1.0
 40
1.0
 10
177.8388694480054
 20
134.5540951739578
 30
0.0
 10
177.7323912355274
 20
134.5540951739578
 30
0.0
 10
177.6253852870688
 20
134.5767443715673
 30
0.0
 10
177.4292186679766
 20
134.6633314321396
 30
0.0
 10
177.3407499824217
 20
134.7265758805263
 30
0.0
 10
177.1201243689388
 20
134.9616929402594
 30
0.0
 10
177.0388694480054
 20
135.1754607723516
 30
0.0
 10
177.0388694480054
 20
135.3883168054781
 30
0.0
  0
SPLINE
  5
DC
330
1F
100
AcDbEntity
  8
0
  6
Continuous
 62
     7
370
    15
100
AcDbSpline
210
0.0
220
0.0
230
1.0
 70
     8
 71
     3
 72
    10
 73
     6
 74
     0
 42
0.000000001
 43
0.00000001
 40
0.0
 40
0.0
 40
0.0
 40
0.0
 40
0.5
 40
0.5
 40
1.0
 40
1.0
 40
1.0
 40
1.0
 10
171.336111049313
 20
138.161533872628
 30
0.0
 10
171.2602714553094
 20
138.0914846862994
 30
0.0
 10
171.1929479375835
 20
138.0062659127257
 30
0.0
 10
171.0863042992784
 20
137.7960397860639
 30
0.0
 10
171.0488694480054
 20
137.6725305951966
 30
0.0
 10
171.0488694480054
 20
137.5426124746739
 30
0.0
  0
SPLINE
  5
DD
330
1F
100
AcDbEntity
  8
0
  6
Continuous
 62
     7
370
    15
100
AcDbSpline
210
0.0
220
0.0
230
1.0
 70
     8
 71
     3
 72
     8
 73
     4
 74
     0
 42
0.000000001
 43
0.00000001
 40
0.0
 40
0.0
 40
0.0
 40
0.0
 40
1.0
 40
1.0
 40
1.0
 40
1.0
 10
171.6488694480054
 20
138.2325733968866
 30
0.0
 10
171.5366911938258
 20
138.2325733968866
 30
0.0
 10
171.4280216810973
 20
138.2068923316257
 30
0.0
 10
171.336111049313
 20
138.161533872628
 30
0.0
  0
LINE
  5
DE
330
1F
100
AcDbEntity
  8
0
  6
Continuous
 62
     7
370
    15
100
AcDbLine
 10
171.048869448
 20
132.9076496738
 30
0.0
 11
171.048869448
 21
137.5426124747
 31
0.0
  0
LINE
  5
DF
330
1F
100
AcDbEntity
  8
0
  6
Continuous
 62
     7
370
    15
100
AcDbLine
 10
99.598869448
 20
96.3291067206
 30
0.0
 11
99.598869448
 21
119.1433678973
 31
0.0
  0
CIRCLE
  5
E0
330
1F
100
AcDbEntity
  8
0
  6
HIDDEN
 62
     7
370
     0
100
AcDbCircle
 10
197.798869448
 20
107.7362373177
 30
0.0
 40
5.000000000000013
  0
CIRCLE
  5
E1
330
1F
100
AcDbEntity
  8
0
  6
HIDDEN
 62
     7
370
     0
100
AcDbCircle
 10
197.798869448
 20
107.7362373177
 30
0.0
 40
3.680384757729338
  0
CIRCLE
  5
E2
330
1F
100
AcDbEntity
  8
0
  6
HIDDEN
 62
     7
370
     0
100
AcDbCircle
 10
197.798869448
 20
107.7362373177
 30
0.0
 40
3.380384757729344
  0
SPLINE
  5
E3
330
1F
100
AcDbEntity
  8
0
  6
HIDDEN
 62
     7
370
     0
100
AcDbSpline
210
0.0
220
0.0
230
1.0
 70
     8
 71
     3
 72
     9
 73
     5
 74
     0
 42
0.000000001
 43
0.00000001
 40
0.0
 40
0.0
 40
0.0
 40
0.0
 40
0.7691126612598626
 40
1.0
 40
1.0
 40
1.0
 40
1.0
 10
186.8988694480054
 20
84.04020224051354
 30
0.0
 10
187.1291252381831
 20
84.03949561261572
 30
0.0
 10
187.4285037320966
 20
84.03857685528226
 30
0.0
 10
187.7248189659936
 20
84.02599786602464
 30
0.0
 10
187.7932344017763
 20
84.02309353667091
 30
0.0
  0
LINE
  5
E4
330
1F
100
AcDbEntity
  8
0
  6
HIDDEN
 62
     7
370
     0
100
AcDbLine
 10
187.898869448
 20
84.0402022405
 30
0.0
 11
186.898869448
 21
84.0402022405
 31
0.0
  0
SPLINE
  5
E5
330
1F
100
AcDbEntity
  8
0
  6
HIDDEN
 62
     7
370
     0
100
AcDbSpline
210
0.0
220
0.0
230
1.0
 70
     8
 71
     3
 72
    16
 73
    12
 74
     0
 42
0.000000001
 43
0.00000001
 40
0.0
 40
0.0
 40
0.0
 40
0.0
 40
0.2499999999999952
 40
0.2499999999999952
 40
0.4999999999999905
 40
0.4999999999999905
 40
0.6249999999999899
 40
0.6249999999999899
 40
0.7499999999999895
 40
0.7499999999999895
 40
1.0
 40
1.0
 40
1.0
 40
1.0
 10
210.8488694480054
 20
120.8047137753687
 30
0.0
 10
210.8488694480054
 20
120.7151933834658
 30
0.0
 10
210.8436419411294
 20
120.6238902752956
 30
0.0
 10
210.8143701054186
 20
120.4348679407832
 30
0.0
 10
210.7906265818223
 20
120.335022689347
 30
0.0
 10
210.7223175209842
 20
120.1948354042936
 30
0.0
 10
210.6934466793265
 20
120.1503981753589
 30
0.0
 10
210.6269956357319
 20
120.0805098470419
 30
0.0
 10
210.589188619217
 20
120.055109743841
 30
0.0
 10
210.4789664010121
 20
120.0102873623458
 30
0.0
 10
210.4109561518291
 20
120.0161298033109
 30
0.0
 10
210.3488694479884
 20
120.0323348578551
 30
0.0
  0
SPLINE
  5
E6
330
1F
100
AcDbEntity
  8
0
  6
HIDDEN
 62
     7
370
     0
100
AcDbSpline
210
0.0
220
0.0
230
1.0
 70
     8
 71
     3
 72
     8
 73
     4
 74
     0
 42
0.000000001
 43
0.00000001
 40
0.0
 40
0.0
 40
0.0
 40
0.0
 40
1.0
 40
1.0
 40
1.0
 40
1.0
 10
210.3488694479884
 20
120.0323348578551
 30
0.0
 10
210.2626260631811
 20
119.9736780137086
 30
0.0
 10
210.1592467547621
 20
119.933605177739
 30
0.0
 10
210.0488694480054
 20
119.933605177739
 30
0.0
  0
SPLINE
  5
E7
330
1F
100
AcDbEntity
  8
0
  6
HIDDEN
 62
     7
370
     0
100
AcDbSpline
210
0.0
220
0.0
230
1.0
 70
     8
 71
     3
 72
     8
 73
     4
 74
     0
 42
0.000000001
 43
0.00000001
 40
0.0
 40
0.0
 40
0.0
 40
0.0
 40
1.0
 40
1.0
 40
1.0
 40
1.0
 10
210.3488694480217
 20
95.44013977746437
 30
0.0
 10
210.2626260632068
 20
95.49879662162348
 30
0.0
 10
210.1592467547763
 20
95.5388694576031
 30
0.0
 10
210.0488694480054
 20
95.5388694576031
 30
0.0
  0
SPLINE
  5
E8
330
1F
100
AcDbEntity
  8
0
  6
HIDDEN
 62
     7
370
     0
100
AcDbSpline
210
0.0
220
0.0
230
1.0
 70
     8
 71
     3
 72
    16
 73
    12
 74
     0
 42
0.000000001
 43
0.00000001
 40
0.0
 40
0.0
 40
0.0
 40
0.0
 40
0.2499999999999973
 40
0.2499999999999973
 40
0.3749999999999953
 40
0.3749999999999953
 40
0.4999999999999933
 40
0.4999999999999933
 40
0.7499999999999967
 40
0.7499999999999967
 40
1.0
 40
1.0
 40
1.0
 40
1.0
 10
210.3488694480116
 20
95.44013977746741
 30
0.0
 10
210.4109425973957
 20
95.45634137185657
 30
0.0
 10
210.4790041547899
 20
95.46216919496878
 30
0.0
 10
210.5891508367616
 20
95.41738624873841
 30
0.0
 10
210.6265796036991
 20
95.39228969316014
 30
0.0
 10
210.6929900188327
 20
95.32267744946695
 30
0.0
 10
210.7219840349391
 20
95.27823135410901
 30
0.0
 10
210.7905827272621
 20
95.13773841925186
 30
0.0
 10
210.8141217980752
 20
95.03869940819592
 30
0.0
 10
210.8435223415938
 20
94.84986562142753
 30
0.0
 10
210.8488694480054
 20
94.75735551563334
 30
0.0
 10
210.8488694480054
 20
94.66776203971892
 30
0.0
  0
LINE
  5
E9
330
1F
100
AcDbEntity
  8
0
  6
HIDDEN
 62
     7
370
     0
100
AcDbLine
 10
180.348869448
 20
107.7362373177
 30
0.0
 11
180.348869448
 21
94.2362373177
 31
0.0
  0
LINE
  5
EA
330
1F
100
AcDbEntity
  8
0
  6
HIDDEN
 62
     7
370
     0
100
AcDbLine
 10
180.348869448
 20
121.2362373177
 30
0.0
 11
180.348869448
 21
107.7362373177
 31
0.0
  0
LINE
  5
EB
330
1F
100
AcDbEntity
  8
0
  6
HIDDEN
 62
     7
370
     0
100
AcDbLine
 10
185.2148948518
 20
107.7362373177
 30
0.0
 11
185.2148948518
 21
93.7362373177
 31
0.0
  0
LINE
  5
EC
330
1F
100
AcDbEntity
  8
0
  6
HIDDEN
 62
     7
370
     0
100
AcDbLine
 10
185.2148948518
 20
121.7362373177
 30
0.0
 11
185.2148948518
 21
107.7362373177
 31
0.0
  0
LINE
  5
ED
330
1F
100
AcDbEntity
  8
0
  6
HIDDEN
 62
     7
370
     0
100
AcDbLine
 10
197.248869448
 20
119.9336051777
 30
0.0
 11
210.048869448
 21
119.9336051777
 31
0.0
  0
LINE
  5
EE
330
1F
100
AcDbEntity
  8
0
  6
HIDDEN
 62
     7
370
     0
100
AcDbLine
 10
197.248869448
 20
95.5388694576
 30
0.0
 11
210.048869448
 21
95.5388694576
 31
0.0
  0
LINE
  5
EF
330
1F
100
AcDbEntity
  8
0
  6
HIDDEN
 62
     7
370
     0
100
AcDbLine
 10
171.048869448
 20
132.5362373177
 30
0.0
 11
171.3861277482
 21
132.5362373177
 31
0.0
  0
ELLIPSE
  5
F0
330
1F
100
AcDbEntity
  8
0
  6
HIDDEN
 62
     7
370
     0
100
AcDbEllipse
 10
171.3861277482
 20
134.1362373177
 30
0.0
 11
0.0
 21
1.599999999999994
 31
0.0
210
0.0
220
0.0
230
1.0
 40
0.4142135624
 41
3.141592653589793
 42
4.712388980384695
  0
ELLIPSE
  5
F1
330
1F
100
AcDbEntity
  8
0
  6
HIDDEN
 62
     7
370
     0
100
AcDbEllipse
 10
171.3861277482
 20
83.5362373177
 30
0.0
 11
0.0
 21
1.600000000000009
 31
0.0
210
0.0
220
0.0
230
1.0
 40
0.4142135624
 41
4.712388980384695
 42
6.283185307179586
  0
LINE
  5
F2
330
1F
100
AcDbEntity
  8
0
  6
HIDDEN
 62
     7
370
     0
100
AcDbLine
 10
171.3861277482
 20
85.1362373177
 30
0.0
 11
171.048869448
 21
85.1362373177
 31
0.0
  0
LINE
  5
F3
330
1F
100
AcDbEntity
  8
0
  6
HIDDEN
 62
     7
370
     0
100
AcDbLine
 10
172.048869448
 20
77.8427889711
 30
0.0
 11
171.2650139894
 21
77.3845074682
 31
0.0
  0
LINE
  5
F4
330
1F
100
AcDbEntity
  8
0
  6
HIDDEN
 62
     7
370
     0
100
AcDbLine
 10
171.3361110493
 20
138.1615338726
 30
0.0
 11
172.048869448
 21
137.4487754739
 31
0.0
  0
LINE
  5
F5
330
1F
100
AcDbEntity
  8
0
  6
HIDDEN
 62
     7
370
     0
100
AcDbLine
 10
106.598869448
 20
99.2362373177
 30
0.0
 11
106.598869448
 21
116.2362373177
 31
0.0
  0
LINE
  5
F6
330
1F
100
AcDbEntity
  8
0
  6
HIDDEN
 62
     7
370
     0
100
AcDbLine
 10
109.5947986624
 20
100.7362373177
 30
0.0
 11
109.5947986624
 21
114.7362373177
 31
0.0
  0
LINE
  5
F7
330
1F
100
AcDbEntity
  8
0
  6
HIDDEN
 62
     7
370
     0
100
AcDbLine
 10
193.348869448
 20
85.1362373177
 30
0.0
 11
186.898869448
 21
85.1362373177
 31
0.0
  0
LINE
  5
F8
330
1F
100
AcDbEntity
  8
0
  6
HIDDEN
 62
     7
370
     0
100
AcDbLine
 10
210.3488694494
 20
125.5362373177
 30
0.0
 11
210.348869448
 21
120.0323348579
 31
0.0
  0
SPLINE
  5
F9
330
1F
100
AcDbEntity
  8
0
  6
HIDDEN
 62
     7
370
     0
100
AcDbSpline
210
0.0
220
0.0
230
1.0
 70
     8
 71
     3
 72
    18
 73
    14
 74
     0
 42
0.000000001
 43
0.00000001
 40
0.0
 40
0.0
 40
0.0
 40
0.0
 40
0.0747076438575724
 40
0.1574075740184935
 40
0.2407198373535238
 40
0.3208961147903661
 40
0.483973861454204
 40
0.5670684052476271
 40
0.6472759005221643
 40
0.7280374262993975
 40
0.81054727641131
 40
0.8936636775863097
 40
1.0
 40
1.0
 40
1.0
 40
1.0
 10
210.2891263452532
 20
87.83781929639696
 30
0.0
 10
210.2879132398286
 20
87.84153895020887
 30
0.0
 10
210.2853572499452
 20
87.84937618951248
 30
0.0
 10
210.2841055275112
 20
87.89844350677285
 30
0.0
 10
210.2849444831026
 20
87.97600989970002
 30
0.0
 10
210.2893858184947
 20
88.11807377056527
 30
0.0
 10
210.2981624230096
 20
88.31589270124543
 30
0.0
 10
210.310549740953
 20
88.56549334360744
 30
0.0
 10
210.3206363157005
 20
88.77663479866419
 30
0.0
 10
210.3304584964299
 20
89.00979035593849
 30
0.0
 10
210.3392128695771
 20
89.26764678873568
 30
0.0
 10
210.3468690693564
 20
89.57301693670743
 30
0.0
 10
210.3481503104095
 20
89.80565939377774
 30
0.0
 10
210.3488694474012
 20
89.93623731767104
 30
0.0
  0
LINE
  5
FA
330
1F
100
AcDbEntity
  8
0
  6
HIDDEN
 62
     7
370
     0
100
AcDbLine
 10
175.8840798443
 20
77.8427889711
 30
0.0
 11
172.048869448
 21
77.8427889711
 31
0.0
  0
LINE
  5
FB
330
1F
100
AcDbEntity
  8
0
  6
HIDDEN
 62
     7
370
     0
100
AcDbLine
 10
172.048869448
 20
77.8427889711
 30
0.0
 11
172.048869448
 21
83.5362373177
 31
0.0
  0
LINE
  5
FC
330
1F
100
AcDbEntity
  8
0
  6
HIDDEN
 62
     7
370
     0
100
AcDbLine
 10
186.898869448
 20
77.8427889711
 30
0.0
 11
182.0136590517
 21
77.8427889711
 31
0.0
  0
LINE
  5
FD
330
1F
100
AcDbEntity
  8
0
  6
HIDDEN
 62
     7
370
     0
100
AcDbLine
 10
186.898869448
 20
85.1362373177
 30
0.0
 11
171.3861277482
 21
85.1362373177
 31
0.0
  0
LINE
  5
FE
330
1F
100
AcDbEntity
  8
0
  6
HIDDEN
 62
     7
370
     0
100
AcDbLine
 10
172.048869448
 20
137.4487754739
 30
0.0
 11
175.9849147617
 21
137.4487754739
 31
0.0
  0
LINE
  5
FF
330
1F
100
AcDbEntity
  8
0
  6
HIDDEN
 62
     7
370
     0
100
AcDbLine
 10
181.9128241343
 20
137.4487754739
 30
0.0
 11
186.898869448
 21
137.4487754739
 31
0.0
  0
LINE
  5
100
330
1F
100
AcDbEntity
  8
0
  6
HIDDEN
 62
     7
370
     0
100
AcDbLine
 10
172.048869448
 20
137.4487754739
 30
0.0
 11
172.048869448
 21
134.1362373177
 31
0.0
  0
LINE
  5
101
330
1F
100
AcDbEntity
  8
0
  6
HIDDEN
 62
     7
370
     0
100
AcDbLine
 10
171.3861277482
 20
132.5362373177
 30
0.0
 11
186.9718298385
 21
132.5362373177
 31
0.0
  0
LINE
  5
102
330
1F
100
AcDbEntity
  8
0
  6
HIDDEN
 62
     7
370
     0
100
AcDbLine
 10
142.598869448
 20
100.7362373177
 30
0.0
 11
142.598869448
 21
114.7362373177
 31
0.0
  0
LINE
  5
103
330
1F
100
AcDbEntity
  8
0
  6
HIDDEN
 62
     7
370
     0
100
AcDbLine
 10
143.7405046242
 20
102.6362373177
 30
0.0
 11
143.7405046242
 21
112.8362373177
 31
0.0
  0
LINE
  5
104
330
1F
100
AcDbEntity
  8
0
  6
HIDDEN
 62
     7
370
     0
100
AcDbLine
 10
197.248869448
 20
89.9362373177
 30
0.0
 11
197.248869448
 21
95.5388694576
 31
0.0
  0
LINE
  5
105
330
1F
100
AcDbEntity
  8
0
  6
HIDDEN
 62
     7
370
     0
100
AcDbLine
 10
197.248869448
 20
125.5362373177
 30
0.0
 11
197.248869448
 21
119.9336051777
 31
0.0
  0
LINE
  5
106
330
1F
100
AcDbEntity
  8
0
  6
HIDDEN
 62
     7
370
     0
100
AcDbLine
 10
197.248869448
 20
87.8362373177
 30
0.0
 11
197.248869448
 21
89.9362373177
 31
0.0
  0
LINE
  5
107
330
1F
100
AcDbEntity
  8
0
  6
HIDDEN
 62
     7
370
     0
100
AcDbLine
 10
197.248869448
 20
127.6362373177
 30
0.0
 11
197.248869448
 21
125.5362373177
 31
0.0
  0
LINE
  5
108
330
1F
100
AcDbEntity
  8
0
  6
HIDDEN
 62
     7
370
     0
100
AcDbLine
 10
194.948869448
 20
132.5362373177
 30
0.0
 11
194.3044416744
 21
132.5362373177
 31
0.0
  0
LINE
  5
109
330
1F
100
AcDbEntity
  8
0
  6
HIDDEN
 62
     7
370
     0
100
AcDbLine
 10
186.898869448
 20
126.1557242812
 30
0.0
 11
186.898869448
 21
126.0862373177
 31
0.0
  0
LINE
  5
10A
330
1F
100
AcDbEntity
  8
0
  6
HIDDEN
 62
     7
370
     0
100
AcDbLine
 10
177.038869448
 20
129.9334781372
 30
0.0
 11
177.038869448
 21
126.0862373177
 31
0.0
  0
LINE
  5
10B
330
1F
100
AcDbEntity
  8
0
  6
HIDDEN
 62
     7
370
     0
100
AcDbLine
 10
180.858869448
 20
129.9334781372
 30
0.0
 11
180.858869448
 21
126.0862373177
 31
0.0
  0
LINE
  5
10C
330
1F
100
AcDbEntity
  8
0
  6
HIDDEN
 62
     7
370
     0
100
AcDbLine
 10
182.4707060901
 20
133.6464669577
 30
0.0
 11
182.4707060901
 21
126.0862373177
 31
0.0
  0
LINE
  5
10D
330
1F
100
AcDbEntity
  8
0
  6
HIDDEN
 62
     7
370
     0
100
AcDbLine
 10
175.4270328059
 20
133.6464669577
 30
0.0
 11
175.4270328059
 21
126.0862373177
 31
0.0
  0
LINE
  5
10E
330
1F
100
AcDbEntity
  8
0
  6
HIDDEN
 62
     7
370
     0
100
AcDbLine
 10
183.2172169504
 20
122.2362373177
 30
0.0
 11
181.348869448
 21
122.2362373177
 31
0.0
  0
LINE
  5
10F
330
1F
100
AcDbEntity
  8
0
  6
HIDDEN
 62
     7
370
     0
100
AcDbLine
 10
181.348869448
 20
93.2362373177
 30
0.0
 11
183.2172169504
 21
93.2362373177
 31
0.0
  0
ARC
  5
110
330
1F
100
AcDbEntity
  8
0
  6
HIDDEN
 62
     7
370
     0
100
AcDbCircle
 10
181.348869448
 20
121.2362373177
 30
0.0
 40
1.0
100
AcDbArc
 50
90.0
 51
180.0
  0
ARC
  5
111
330
1F
100
AcDbEntity
  8
0
  6
HIDDEN
 62
     7
370
     0
100
AcDbCircle
 10
181.348869448
 20
94.2362373177
 30
0.0
 40
1.0
100
AcDbArc
 50
180.0
 51
270.0
  0
ARC
  5
112
330
1F
100
AcDbEntity
  8
0
  6
HIDDEN
 62
     7
370
     0
100
AcDbCircle
 10
183.2172169504
 20
121.2362373177
 30
0.0
 40
1.0
100
AcDbArc
 50
75.0
 51
90.0
  0
ARC
  5
113
330
1F
100
AcDbEntity
  8
0
  6
HIDDEN
 62
     7
370
     0
100
AcDbCircle
 10
183.2172169504
 20
94.2362373177
 30
0.0
 40
1.0
100
AcDbArc
 50
270.0
 51
285.0
  0
LINE
  5
114
330
1F
100
AcDbEntity
  8
0
  6
HIDDEN
 62
     7
370
     0
100
AcDbLine
 10
183.4760359955
 20
93.2703114914
 30
0.0
 11
185.2148948518
 21
93.7362373177
 31
0.0
  0
LINE
  5
115
330
1F
100
AcDbEntity
  8
0
  6
HIDDEN
 62
     7
370
     0
100
AcDbLine
 10
185.2148948518
 20
121.7362373177
 30
0.0
 11
183.4760359955
 21
122.202163144
 31
0.0
  0
LINE
  5
116
330
1F
100
AcDbEntity
  8
0
  6
HIDDEN
 62
     7
370
     0
100
AcDbLine
 10
197.248869448
 20
121.7362373177
 30
0.0
 11
185.2148948518
 21
121.7362373177
 31
0.0
  0
LINE
  5
117
330
1F
100
AcDbEntity
  8
0
  6
HIDDEN
 62
     7
370
     0
100
AcDbLine
 10
185.2148948518
 20
93.7362373177
 30
0.0
 11
197.248869448
 21
93.7362373177
 31
0.0
  0
ARC
  5
118
330
1F
100
AcDbEntity
  8
0
  6
HIDDEN
 62
     7
370
     0
100
AcDbCircle
 10
100.398869448
 20
98.4362373177
 30
0.0
 40
0.7999999999999972
100
AcDbArc
 50
90.0
 51
180.0
  0
ARC
  5
119
330
1F
100
AcDbEntity
  8
0
  6
HIDDEN
 62
     7
370
     0
100
AcDbCircle
 10
100.398869448
 20
117.0362373177
 30
0.0
 40
0.7999999999999972
100
AcDbArc
 50
180.0
 51
270.0
  0
LINE
  5
11A
330
1F
100
AcDbEntity
  8
0
  6
HIDDEN
 62
     7
370
     0
100
AcDbLine
 10
107.4912418787
 20
99.0112373177
 30
0.0
 11
108.3679293403
 21
99.0112373177
 31
0.0
  0
LINE
  5
11B
330
1F
100
AcDbEntity
  8
0
  6
HIDDEN
 62
     7
370
     0
100
AcDbLine
 10
108.3679293403
 20
116.4612373177
 30
0.0
 11
107.4912418787
 21
116.4612373177
 31
0.0
  0
ARC
  5
11C
330
1F
100
AcDbEntity
  8
0
  6
HIDDEN
 62
     7
370
     0
100
AcDbCircle
 10
108.3679293403
 20
99.4112373177
 30
0.0
 40
0.4000000000000173
100
AcDbArc
 50
270.0
 51
330.0
  0
ARC
  5
11D
330
1F
100
AcDbEntity
  8
0
  6
HIDDEN
 62
     7
370
     0
100
AcDbCircle
 10
108.3679293403
 20
116.0612373177
 30
0.0
 40
0.4000000000000173
100
AcDbArc
 50
30.0
 51
90.0
  0
ARC
  5
11E
330
1F
100
AcDbEntity
  8
0
  6
HIDDEN
 62
     7
370
     0
100
AcDbCircle
 10
107.4912418787
 20
99.4112373177
 30
0.0
 40
0.3999999999999915
100
AcDbArc
 50
255.0
 51
270.0
  0
ARC
  5
11F
330
1F
100
AcDbEntity
  8
0
  6
HIDDEN
 62
     7
370
     0
100
AcDbCircle
 10
107.4912418787
 20
116.0612373177
 30
0.0
 40
0.3999999999999915
100
AcDbArc
 50
90.0
 51
105.0
  0
LINE
  5
120
330
1F
100
AcDbEntity
  8
0
  6
HIDDEN
 62
     7
370
     0
100
AcDbLine
 10
107.3877142607
 20
116.4476076482
 30
0.0
 11
106.598869448
 21
116.2362373177
 31
0.0
  0
LINE
  5
121
330
1F
100
AcDbEntity
  8
0
  6
HIDDEN
 62
     7
370
     0
100
AcDbLine
 10
106.598869448
 20
99.2362373177
 30
0.0
 11
107.3877142607
 21
99.0248669872
 31
0.0
  0
LINE
  5
122
330
1F
100
AcDbEntity
  8
0
  6
HIDDEN
 62
     7
370
     0
100
AcDbLine
 10
108.7143395018
 20
99.2112373177
 30
0.0
 11
109.5947986624
 21
100.7362373177
 31
0.0
  0
LINE
  5
123
330
1F
100
AcDbEntity
  8
0
  6
HIDDEN
 62
     7
370
     0
100
AcDbLine
 10
109.5947986624
 20
114.7362373177
 30
0.0
 11
108.7143395018
 21
116.2612373177
 31
0.0
  0
LINE
  5
124
330
1F
100
AcDbEntity
  8
0
  6
HIDDEN
 62
     7
370
     0
100
AcDbLine
 10
100.398869448
 20
99.2362373177
 30
0.0
 11
106.598869448
 21
99.2362373177
 31
0.0
  0
LINE
  5
125
330
1F
100
AcDbEntity
  8
0
  6
HIDDEN
 62
     7
370
     0
100
AcDbLine
 10
106.598869448
 20
116.2362373177
 30
0.0
 11
100.398869448
 21
116.2362373177
 31
0.0
  0
ARC
  5
126
330
1F
100
AcDbEntity
  8
0
  6
HIDDEN
 62
     7
370
     0
100
AcDbCircle
 10
193.348869448
 20
83.5362373177
 30
0.0
 40
1.600000000000023
100
AcDbArc
 50
0.0
 51
90.0
  0
LINE
  5
127
330
1F
100
AcDbEntity
  8
0
  6
HIDDEN
 62
     7
370
     0
100
AcDbLine
 10
210.848869448
 20
128.1954719857
 30
0.0
 11
210.2789188304
 21
127.6255445899
 31
0.0
  0
LINE
  5
128
330
1F
100
AcDbEntity
  8
0
  6
HIDDEN
 62
     7
370
     0
100
AcDbLine
 10
210.2792304126
 20
87.8466157827
 30
0.0
 11
210.848869448
 21
87.2770012178
 31
0.0
  0
LINE
  5
129
330
1F
100
AcDbEntity
  8
0
  6
HIDDEN
 62
     7
370
     0
100
AcDbLine
 10
109.5947986624
 20
100.7362373177
 30
0.0
 11
142.598869448
 21
100.7362373177
 31
0.0
  0
LINE
  5
12A
330
1F
100
AcDbEntity
  8
0
  6
HIDDEN
 62
     7
370
     0
100
AcDbLine
 10
142.598869448
 20
114.7362373177
 30
0.0
 11
109.5947986624
 21
114.7362373177
 31
0.0
  0
LINE
  5
12B
330
1F
100
AcDbEntity
  8
0
  6
HIDDEN
 62
     7
370
     0
100
AcDbLine
 10
142.598869448
 20
100.7362373177
 30
0.0
 11
143.7405046242
 21
102.6362373177
 31
0.0
  0
LINE
  5
12C
330
1F
100
AcDbEntity
  8
0
  6
HIDDEN
 62
     7
370
     0
100
AcDbLine
 10
143.7405046242
 20
112.8362373177
 30
0.0
 11
142.598869448
 21
114.7362373177
 31
0.0
  0
LINE
  5
12D
330
1F
100
AcDbEntity
  8
0
  6
HIDDEN
 62
     7
370
     0
100
AcDbLine
 10
194.948869448
 20
82.7362373177
 30
0.0
 11
194.948869448
 21
83.5362373177
 31
0.0
  0
LINE
  5
12E
330
1F
100
AcDbEntity
  8
0
  6
HIDDEN
 62
     7
370
     0
100
AcDbLine
 10
143.7405046242
 20
102.6362373177
 30
0.0
 11
180.348869448
 21
102.6362373177
 31
0.0
  0
LINE
  5
12F
330
1F
100
AcDbEntity
  8
0
  6
HIDDEN
 62
     7
370
     0
100
AcDbLine
 10
180.348869448
 20
112.8362373177
 30
0.0
 11
143.7405046242
 21
112.8362373177
 31
0.0
  0
LINE
  5
130
330
1F
100
AcDbEntity
  8
0
  6
HIDDEN
 62
     7
370
     0
100
AcDbLine
 10
197.248869448
 20
87.8362373177
 30
0.0
 11
210.2899925027
 21
87.8362373177
 31
0.0
  0
LINE
  5
131
330
1F
100
AcDbEntity
  8
0
  6
HIDDEN
 62
     7
370
     0
100
AcDbLine
 10
210.2900937043
 20
127.6362373177
 30
0.0
 11
197.248869448
 21
127.6362373177
 31
0.0
  0
LINE
  5
132
330
1F
100
AcDbEntity
  8
0
  6
HIDDEN
 62
     7
370
     0
100
AcDbLine
 10
194.948869448
 20
132.5362373177
 30
0.0
 11
194.948869448
 21
132.7362373177
 31
0.0
  0
DIMENSION
  5
133
330
1F
100
AcDbEntity
  8
VERMASSUNG
100
AcDbDimension
  2
_D
 10
94.6836382151
 20
139.4862373177
 30
0.0
 11
94.6836382151
 21
107.7362373177
 31
0.0
 70
   160
  1
ISO 40 %%c<>
 71
     2
 42
-1.0
  3
SLDDIMSTYLE0
100
AcDbAlignedDimension
 13
186.298869448
 23
75.9862373177
 33
0.0
 14
186.298869448
 24
139.4862373177
 34
0.0
 50
90.0
100
AcDbRotatedDimension
  0
DIMENSION
  5
140
330
1F
100
AcDbEntity
  8
VERMASSUNG
100
AcDbDimension
  2
_D_1
 10
218.531564515
 20
93.7362373177
 30
0.0
 11
218.531564515
 21
107.7362373177
 31
0.0
 70
   160
  1
%%c<>
 71
     2
 42
-1.0
  3
SLDDIMSTYLE0
100
AcDbAlignedDimension
 13
197.248869448
 23
121.7362373177
 33
0.0
 14
197.248869448
 24
93.7362373177
 34
0.0
 50
90.0
100
AcDbRotatedDimension
  0
DIMENSION
  5
14B
330
1F
100
AcDbEntity
  8
VERMASSUNG
100
AcDbDimension
  2
_D_2
 10
210.848869448
 20
142.2158326552
 30
0.0
 11
198.873869448
 21
142.2158326552
 31
0.0
 70
   160
  1
(<>)
 71
     2
 42
-1.0
  3
SLDDIMSTYLE0
100
AcDbAlignedDimension
 13
186.898869448
 23
132.9076496738
 33
0.0
 14
210.848869448
 24
132.2362373177
 34
0.0
100
AcDbRotatedDimension
  0
DIMENSION
  5
157
330
1F
100
AcDbEntity
  8
VERMASSUNG
100
AcDbDimension
  2
_D_3
 10
210.848869448
 20
148.2815656559
 30
0.0
 11
189.348869448
 21
148.2815656559
 31
0.0
 70
   160
  1
<>
 71
     2
 42
-1.0
  3
SLDDIMSTYLE0
100
AcDbAlignedDimension
 13
167.848869448
 23
129.9612373177
 33
0.0
 14
210.848869448
 24
132.2362373177
 34
0.0
100
AcDbRotatedDimension
  0
DIMENSION
  5
161
330
1F
100
AcDbEntity
  8
VERMASSUNG
100
AcDbDimension
  2
_D_4
 10
210.848869448
 20
154.2815656559
 30
0.0
 11
155.223869448
 21
154.2815656559
 31
0.0
 70
   160
  1
(<>)
 71
     2
 42
-1.0
  3
SLDDIMSTYLE0
100
AcDbAlignedDimension
 13
99.598869448
 23
119.1433679147
 33
0.0
 14
210.848869448
 24
132.2362373177
 34
0.0
100
AcDbRotatedDimension
  0
DIMENSION
  5
16D
330
1F
100
AcDbEntity
  8
VERMASSUNG
100
AcDbDimension
  2
_D_5
 10
224.1268734346
 20
82.7362373177
 30
0.0
 11
224.1268734346
 21
107.7362373177
 31
0.0
 70
   160
  1
ST5 %%c<>
 71
     2
 42
-1.0
  3
SLDDIMSTYLE0
100
AcDbAlignedDimension
 13
210.348869448
 23
132.7362373177
 33
0.0
 14
210.348869448
 24
82.7362373177
 34
0.0
 50
90.0
100
AcDbRotatedDimension
  0
LINE
  5
179
330
1F
100
AcDbEntity
  8
VERMASSUNG
  6
CENTERX2
 62
     7
370
     0
100
AcDbLine
 10
97.598869448
 20
107.7362373177
 30
0.0
 11
212.848869448
 21
107.7362373177
 31
0.0
  0
LINE
  5
17A
330
1F
100
AcDbEntity
  8
0
  6
Continuous
 62
     7
370
    15
100
AcDbLine
 10
273.0287186807
 20
20.1730301413
 30
0.0
 11
273.2054666448
 21
20.2750977414
 31
0.0
  0
LINE
  5
17B
330
1F
100
AcDbEntity
  8
0
  6
Continuous
 62
     7
370
    15
100
AcDbLine
 10
281.8661168863
 20
35.277409518
 30
0.0
 11
281.8661168863
 21
35.4815115459
 31
0.0
  0
LINE
  5
17C
330
1F
100
AcDbEntity
  8
0
  6
Continuous
 62
     7
370
    15
100
AcDbLine
 10
279.2767742004
 20
41.2045716268
 30
0.0
 11
271.3395005816
 21
45.7866621544
 31
0.0
  0
LINE
  5
17D
330
1F
100
AcDbEntity
  8
0
  6
Continuous
 62
     7
370
    15
100
AcDbLine
 10
258.8405164237
 20
24.1354405949
 30
0.0
 11
266.7777900425
 21
19.5533500673
 31
0.0
  0
SPLINE
  5
17E
330
1F
100
AcDbEntity
  8
0
  6
Continuous
 62
     7
370
    15
100
AcDbSpline
210
0.0
220
0.0
230
1.0
 70
     8
 71
     3
 72
    24
 73
    20
 74
     0
 42
0.000000001
 43
0.00000001
 40
0.0
 40
0.0
 40
0.0
 40
0.0
 40
0.0079244641129788
 40
0.071628617466674
 40
0.1353933672288871
 40
0.1991765853588214
 40
0.2629469292023437
 40
0.3266700271248668
 40
0.3903175197068414
 40
0.4538623136052803
 40
0.517281657824981
 40
0.5805638936217585
 40
0.6437218318721517
 40
0.70681706866572
 40
0.7699440062739173
 40
0.8333383248932235
 40
0.8974076246677997
 40
0.9626873397915287
 40
1.0
 40
1.0
 40
1.0
 40
1.0
 10
268.7598602222411
 20
30.6897654069789
 30
0.0
 10
268.7715930295106
 20
30.72122323786417
 30
0.0
 10
268.8776449658601
 20
31.005568135221
 30
0.0
 10
269.1178373696961
 20
31.54044640453796
 30
0.0
 10
269.5011165810069
 20
32.28012932455792
 30
0.0
 10
269.9368870355824
 20
32.99333595045343
 30
0.0
 10
270.41506657886
 20
33.66969417323976
 30
0.0
 10
270.929514209882
 20
34.29935879915661
 30
0.0
 10
271.4721874072635
 20
34.87329072363459
 30
0.0
 10
272.0348445686579
 20
35.38338171275758
 30
0.0
 10
272.6087243437355
 20
35.82261602473648
 30
0.0
 10
273.184822165185
 20
36.18526315801781
 30
0.0
 10
273.7540628713496
 20
36.46702873526093
 30
0.0
 10
274.3075701201213
 20
36.66529267753786
 30
0.0
 10
274.836901791301
 20
36.77873063547379
 30
0.0
 10
275.3359408518269
 20
36.80912769905846
 30
0.0
 10
275.7974325148609
 20
36.7529799624976
 30
0.0
 10
276.164493329817
 20
36.64723659212723
 30
0.0
 10
276.3587169982613
 20
36.52745745531156
 30
0.0
 10
276.429355793022
 20
36.48389400122839
 30
0.0
  0
SPLINE
  5
17F
330
1F
100
AcDbEntity
  8
0
  6
Continuous
 62
     7
370
    15
100
AcDbSpline
210
0.0
220
0.0
230
1.0
 70
     8
 71
     3
 72
    32
 73
    28
 74
     0
 42
0.000000001
 43
0.00000001
 40
0.0
 40
0.0
 40
0.0
 40
0.0
 40
0.0090828357706468
 40
0.0502391656684096
 40
0.0915021294939669
 40
0.132926973934277
 40
0.1745000724762842
 40
0.2161896322165133
 40
0.2579588275880862
 40
0.2997747034257779
 40
0.3416120308088076
 40
0.3834515146404413
 40
0.4252825261862365
 40
0.4671008106034439
 40
0.5089050065634467
 40
0.5506955766133096
 40
0.5924740822848535
 40
0.6342427194396735
 40
0.6760040347217662
 40
0.7177607614935502
 40
0.7595157310441983
 40
0.80127178633
 40
0.8430309192707346
 40
0.8847960654630023
 40
0.9265701568027286
 40
0.9683560721799863
 40
0.9999999999999999
 40
0.9999999999999999
 40
0.9999999999999999
 40
0.9999999999999999
 10
265.782877757869
 20
52.61817626682568
 30
0.0
 10
265.7289464412309
 20
52.63196226912948
 30
0.0
 10
265.4306404474075
 20
52.70821568503779
 30
0.0
 10
264.8609454666595
 20
52.78405972706579
 30
0.0
 10
264.0636792350996
 20
52.80866078032954
 30
0.0
 10
263.2353330096478
 20
52.73864203542146
 30
0.0
 10
262.3826333476171
 20
52.57860618066092
 30
0.0
 10
261.5105065341194
 20
52.32816121558993
 30
0.0
 10
260.6247978039728
 20
51.9891753899804
 30
0.0
 10
259.7312644147829
 20
51.56380599571698
 30
0.0
 10
258.8357019290328
 20
51.05495089515254
 30
0.0
 10
257.9438084771322
 20
50.46602665701193
 30
0.0
 10
257.0611647922041
 20
49.80093541161994
 30
0.0
 10
256.1932085621534
 20
49.06399391611739
 30
0.0
 10
255.3452449586846
 20
48.25991185186076
 30
0.0
 10
254.5224458496286
 20
47.3937763467023
 30
0.0
 10
253.729829831049
 20
46.47102750386279
 30
0.0
 10
252.9722378186103
 20
45.49743107722785
 30
0.0
 10
252.2543082009037
 20
44.47904833662394
 30
0.0
 10
251.580444889031
 20
43.42220117530679
 30
0.0
 10
250.9548098457339
 20
42.33343997239748
 30
0.0
 10
250.3812317423872
 20
41.21949647699696
 30
0.0
 10
249.8634383859857
 20
40.08729391839232
 30
0.0
 10
249.4040586042869
 20
38.94368346198581
 30
0.0
 10
249.0082489105444
 20
37.79621305006503
 30
0.0
 10
248.6974676424006
 20
36.74289093277906
 30
0.0
 10
248.5464615650204
 20
36.07965367752634
 30
0.0
 10
248.4813868596289
 20
35.793837571718
 30
0.0
  0
SPLINE
  5
180
330
1F
100
AcDbEntity
  8
0
  6
Continuous
 62
     7
370
    15
100
AcDbSpline
210
0.0
220
0.0
230
1.0
 70
     8
 71
     3
 72
    10
 73
     6
 74
     0
 42
0.000000001
 43
0.00000001
 40
0.0
 40
0.0
 40
0.0
 40
0.0
 40
0.2003964661164438
 40
0.6613237522609221
 40
0.9999999999999999
 40
0.9999999999999999
 40
0.9999999999999999
 40
0.9999999999999999
 10
269.4130744295461
 20
24.39648885646913
 30
0.0
 10
269.3552523406859
 20
24.42755230543213
 30
0.0
 10
269.1644349998933
 20
24.53006407634547
 30
0.0
 10
268.917473774734
 20
24.7584092507925
 30
0.0
 10
268.7535956962196
 20
24.99565598060138
 30
0.0
 10
268.6841842812295
 20
25.09614307055931
 30
0.0
  0
LINE
  5
181
330
1F
100
AcDbEntity
  8
0
  6
Continuous
 62
     7
370
    15
100
AcDbLine
 10
258.2476120044
 20
50.6529016411
 30
0.0
 11
236.9365310676
 21
58.3325704687
 31
0.0
  0
LINE
  5
182
330
1F
100
AcDbEntity
  8
0
  6
Continuous
 62
     7
370
    15
100
AcDbLine
 10
230.7717493184
 20
47.6536981835
 30
0.0
 11
251.0679864836
 21
30.5157233078
 31
0.0
  0
SPLINE
  5
183
330
1F
100
AcDbEntity
  8
0
  6
Continuous
 62
     7
370
    15
100
AcDbSpline
210
0.0
220
0.0
230
1.0
 70
     8
 71
     3
 72
    13
 73
     9
 74
     0
 42
0.000000001
 43
0.00000001
 40
0.0
 40
0.0
 40
0.0
 40
0.0
 40
0.0316441345620469
 40
0.2400425129388451
 40
0.4492467648873097
 40
0.6591459687332687
 40
0.869563440181591
 40
1.0
 40
1.0
 40
1.0
 40
1.0
 10
259.1861203111162
 20
20.78757255747106
 30
0.0
 10
259.225453662005
 20
20.78329274462359
 30
0.0
 10
259.5238241663754
 20
20.75082742221767
 30
0.0
 10
260.1121710466416
 20
20.77793394921218
 30
0.0
 10
260.9475428613371
 20
20.87343236790883
 30
0.0
 10
261.809050981315
 20
21.07204811349641
 30
0.0
 10
262.5742337468557
 20
21.30966336473056
 30
0.0
 10
263.0541122619802
 20
21.51745485899685
 30
0.0
 10
263.2377501154361
 20
21.59697161744885
 30
0.0
  0
LINE
  5
184
330
1F
100
AcDbEntity
  8
0
  6
Continuous
 62
     7
370
    15
100
AcDbLine
 10
255.2340080024
 20
22.3204248338
 30
0.0
 11
256.5874681374
 21
21.5390889291
 31
0.0
  0
LINE
  5
185
330
1F
100
AcDbEntity
  8
0
  6
Continuous
 62
     7
370
    15
100
AcDbLine
 10
251.4079109652
 20
24.5291836386
 30
0.0
 11
252.7436934306
 21
23.7580528353
 31
0.0
  0
SPLINE
  5
186
330
1F
100
AcDbEntity
  8
0
  6
Continuous
 62
     7
370
    15
100
AcDbSpline
210
0.0
220
0.0
230
1.0
 70
     8
 71
     3
 72
    11
 73
     7
 74
     0
 42
0.000000001
 43
0.00000001
 40
0.0
 40
0.0
 40
0.0
 40
0.0
 40
0.1171383978981202
 40
0.480627058650276
 40
0.8435610606779802
 40
1.0
 40
1.0
 40
1.0
 40
1.0
 10
248.487900584605
 20
28.52630372429314
 30
0.0
 10
248.5149090244045
 20
28.43441355282597
 30
0.0
 10
248.6257265463483
 20
28.05738173726757
 30
0.0
 10
248.8727448577984
 20
27.44232745953426
 30
0.0
 10
249.168157054341
 20
26.83378666484238
 30
0.0
 10
249.3835934118745
 20
26.52172410821999
 30
0.0
 10
249.4484844229009
 20
26.42772857731448
 30
0.0
  0
SPLINE
  5
187
330
1F
100
AcDbEntity
  8
0
  6
Continuous
 62
     7
370
    15
100
AcDbSpline
210
0.0
220
0.0
230
1.0
 70
     8
 71
     3
 72
    12
 73
     8
 74
     0
 42
0.000000001
 43
0.00000001
 40
0.0
 40
0.0
 40
0.0
 40
0.0
 40
0.0925000384853635
 40
0.3278065515275487
 40
0.5627505937978257
 40
0.7969576547449614
 40
1.0
 40
1.0
 40
1.0
 40
1.0
 10
275.3949961197519
 20
44.99392738022777
 30
0.0
 10
275.3619494185284
 20
45.1059155402184
 30
0.0
 10
275.2448367627412
 20
45.50278513227004
 30
0.0
 10
274.9932344818752
 20
46.13993034974604
 30
0.0
 10
274.6150640641843
 20
46.87403386179128
 30
0.0
 10
274.1947590994587
 20
47.51145266379823
 30
0.0
 10
273.8739378709616
 20
47.86758406430324
 30
0.0
 10
273.7249604367613
 20
48.0329582277711
 30
0.0
  0
SPLINE
  5
188
330
1F
100
AcDbEntity
  8
0
  6
Continuous
 62
     7
370
    15
100
AcDbSpline
210
0.0
220
0.0
230
1.0
 70
     8
 71
     3
 72
    25
 73
    21
 74
     0
 42
0.000000001
 43
0.00000001
 40
0.0
 40
0.0
 40
0.0
 40
0.0
 40
0.0283115223660573
 40
0.083064615069878
 40
0.1387565888076533
 40
0.1956309209659738
 40
0.2535055943434342
 40
0.3119825560758128
 40
0.3706927051773169
 40
0.4293675397545438
 40
0.4879386073715112
 40
0.5464034386756105
 40
0.6047894850512121
 40
0.6631368253355677
 40
0.7214906467164575
 40
0.7798866350395848
 40
0.8383695363819873
 40
0.896987569255112
 40
0.9557837149558389
 40
1.0
 40
1.0
 40
1.0
 40
1.0
 10
236.8022804618475
 20
58.36410154928409
 30
0.0
 10
236.7213815494018
 20
58.390540672957
 30
0.0
 10
236.4840281165841
 20
58.46811176229227
 30
0.0
 10
236.0531497820764
 20
58.49792613541717
 30
0.0
 10
235.5214331866592
 20
58.46023813892745
 30
0.0
 10
234.9665838657674
 20
58.32701381277089
 30
0.0
 10
234.3983748670009
 20
58.10476534014101
 30
0.0
 10
233.8257910185275
 20
57.7947173729784
 30
0.0
 10
233.2595254228206
 20
57.40300307227342
 30
0.0
 10
232.7094088247866
 20
56.93705875471773
 30
0.0
 10
232.1842841886483
 20
56.40546546159455
 30
0.0
 10
231.6919700627784
 20
55.81716322547467
 30
0.0
 10
231.2397057963628
 20
55.18161492635217
 30
0.0
 10
230.8342053270248
 20
54.50875674442205
 30
0.0
 10
230.4815995126007
 20
53.80893932638953
 30
0.0
 10
230.1875248971645
 20
53.09286115994011
 30
0.0
 10
229.9563861468447
 20
52.37105983413272
 30
0.0
 10
229.7938691832125
 20
51.65493543438835
 30
0.0
 10
229.7056025447013
 20
51.01095244986517
 30
0.0
 10
229.6959227058996
 20
50.61912500708732
 30
0.0
 10
229.691767804316
 20
50.45093992716335
 30
0.0
  0
SPLINE
  5
189
330
1F
100
AcDbEntity
  8
0
  6
Continuous
 62
     7
370
    15
100
AcDbSpline
210
0.0
220
0.0
230
1.0
 70
     8
 71
     3
 72
    13
 73
     9
 74
     0
 42
0.000000001
 43
0.00000001
 40
0.0
 40
0.0
 40
0.0
 40
0.0
 40
0.1007406243819042
 40
0.2911801362846413
 40
0.481648855968692
 40
0.6705942106894531
 40
0.8563438445082564
 40
1.0
 40
1.0
 40
1.0
 40
1.0
 10
229.691767804316
 20
50.45093992716335
 30
0.0
 10
229.693894046627
 20
50.33432663643702
 30
0.0
 10
229.7000397254899
 20
49.99726823428171
 30
0.0
 10
229.7689255407759
 20
49.46978907808987
 30
0.0
 10
229.9236918223447
 20
48.89252797902337
 30
0.0
 10
230.1580939128775
 20
48.38079339148046
 30
0.0
 10
230.4363945319495
 20
47.96402911211697
 30
0.0
 10
230.6659028590667
 20
47.75914593872167
 30
0.0
 10
230.765993036583
 20
47.66979496199319
 30
0.0
  0
LWPOLYLINE
  5
18A
330
1F
100
AcDbEntity
  8
0
  6
Continuous
 62
     7
370
    15
100
AcDbPolyline
 90
       15
 70
   128
 43
0.0
 10
266.7985266561
 20
43.2184447987
 10
267.1463091021
 20
43.4288994339
 10
267.5664936185
 20
43.5894018857
 10
268.0380103991
 20
43.6919038908
 10
268.5372156236
 20
43.7312655707
 10
269.0390770576
 20
43.7055131665
 10
269.5184292732
 20
43.6159380111
 10
269.9512355488
 20
43.467031777
 10
270.3157931703
 20
43.2662612444
 10
270.5938216964
 20
43.0236938863
 10
270.7713796159
 20
42.7514930428
 10
270.8395634333
 20
42.4633080009
 10
270.7949541272
 20
42.1735895618
 10
270.6397885945
 20
41.896865418
 10
270.3956773703
 20
41.6576338029
  0
ARC
  5
18B
330
1F
100
AcDbEntity
  8
0
  6
Continuous
 62
     7
370
    15
100
AcDbCircle
 10
267.3116221457
 20
42.4251209367
 30
0.0
 40
0.9447908401187372
100
AcDbArc
 50
122.8934451933
 51
244.419099701
  0
LWPOLYLINE
  5
18C
330
1F
100
AcDbEntity
  8
0
  6
Continuous
 62
     7
370
    15
100
AcDbPolyline
 90
       24
 70
   128
 43
0.0
 10
267.3957467939
 20
42.9565392778
 10
267.6848442028
 20
43.1231494473
 10
268.0410867505
 20
43.238554234
 10
268.4380535568
 20
43.2941945928
 10
268.8463034099
 20
43.285943933
 10
269.2355582856
 20
43.214414168
 10
269.5769489306
 20
43.0849103335
 10
269.8451559625
 20
42.9070371363
 10
270.0202876927
 20
42.6939866179
 10
270.089355402
 20
42.4615597604
 10
270.0472366543
 20
42.2269946007
 10
269.8970552044
 20
42.0076877635
 10
269.6499493235
 20
41.8199042337
 10
269.3242457243
 20
41.6775710567
 10
268.9441003528
 20
41.5912444331
 10
268.5377068521
 20
41.5673268137
 10
268.135205569
 20
41.6075920587
 10
267.7664481824
 20
41.7090538793
 10
267.4587837408
 20
41.8641873164
 10
267.2350303082
 20
42.0614868325
 10
267.1117826531
 20
42.2863196253
 10
267.0981814904
 20
42.5220108749
 10
267.195235556
 20
42.7510804396
 10
267.3957467939
 20
42.9565392778
  0
SPLINE
  5
18D
330
1F
100
AcDbEntity
  8
0
  6
Continuous
 62
     7
370
    15
100
AcDbSpline
210
0.0
220
0.0
230
1.0
 70
     8
 71
     3
 72
    13
 73
     9
 74
     0
 42
0.000000001
 43
0.00000001
 40
0.0
 40
0.0
 40
0.0
 40
0.0
 40
0.1281940639112349
 40
0.3016059688761552
 40
0.4802226824374572
 40
0.6449624637538084
 40
0.8155900900874846
 40
1.0
 40
1.0
 40
1.0
 40
1.0
 10
267.1582636698787
 20
42.49124834813003
 30
0.0
 10
267.1934683409912
 20
42.49547872704967
 30
0.0
 10
267.2762954128221
 20
42.50543166475868
 30
0.0
 10
267.4157542790444
 20
42.55068930342555
 30
0.0
 10
267.5724187478398
 20
42.64093192162317
 30
0.0
 10
267.7290354781081
 20
42.77671478087764
 30
0.0
 10
267.8825226797125
 20
42.94840223937796
 30
0.0
 10
267.9804909927119
 20
43.08421297639305
 30
0.0
 10
268.0313766764216
 20
43.1547543789808
 30
0.0
  0
SPLINE
  5
18E
330
1F
100
AcDbEntity
  8
0
  6
Continuous
 62
     7
370
    15
100
AcDbSpline
210
0.0
220
0.0
230
1.0
 70
     8
 71
     3
 72
    11
 73
     7
 74
     0
 42
0.000000001
 43
0.00000001
 40
0.0
 40
0.0
 40
0.0
 40
0.0
 40
0.0759229343633987
 40
0.3399266649274974
 40
0.707401015270338
 40
1.0
 40
1.0
 40
1.0
 40
1.0
 10
267.6352451770167
 20
41.76410233583896
 30
0.0
 10
267.6237746582651
 20
41.76936656883242
 30
0.0
 10
267.5724181713633
 20
41.79293590502678
 30
0.0
 10
267.456037405721
 20
41.90924881919326
 30
0.0
 10
267.3015118204784
 20
42.15676404038713
 30
0.0
 10
267.2022601863709
 20
42.38851652017694
 30
0.0
 10
267.1582636698787
 20
42.49124834813003
 30
0.0
  0
SPLINE
  5
18F
330
1F
100
AcDbEntity
  8
0
  6
Continuous
 62
     7
370
    15
100
AcDbSpline
210
0.0
220
0.0
230
1.0
 70
     8
 71
     3
 72
    10
 73
     6
 74
     0
 42
0.000000001
 43
0.00000001
 40
0.0
 40
0.0
 40
0.0
 40
0.0
 40
0.3892168111795734
 40
0.7376595735520286
 40
1.0
 40
1.0
 40
1.0
 40
1.0
 10
270.0221104691264
 20
42.28173597605048
 30
0.0
 10
269.9712137777015
 20
42.21149954748771
 30
0.0
 10
269.8747522924486
 20
42.07838460369992
 30
0.0
 10
269.73511822328
 20
41.91782744096815
 30
0.0
 10
269.6470846127977
 20
41.84574525825936
 30
0.0
 10
269.6092728731519
 20
41.81478489311301
 30
0.0
  0
SPLINE
  5
190
330
1F
100
AcDbEntity
  8
0
  6
Continuous
 62
     7
370
    15
100
AcDbSpline
210
0.0
220
0.0
230
1.0
 70
     8
 71
     3
 72
    11
 73
     7
 74
     0
 42
0.000000001
 43
0.00000001
 40
0.0
 40
0.0
 40
0.0
 40
0.0
 40
0.216454300964505
 40
0.4403089937225396
 40
0.7518987489759481
 40
1.0
 40
1.0
 40
1.0
 40
1.0
 10
269.4633000760455
 20
43.04999819294103
 30
0.0
 10
269.5015789352595
 20
42.96040366433393
 30
0.0
 10
269.5794453759183
 20
42.77815144500517
 30
0.0
 10
269.723945025913
 20
42.51681073730459
 30
0.0
 10
269.8789475729297
 20
42.34150059862851
 30
0.0
 10
269.9781401372427
 20
42.30009178163609
 30
0.0
 10
270.0221104691264
 20
42.28173597605048
 30
0.0
  0
SPLINE
  5
191
330
1F
100
AcDbEntity
  8
0
  6
Continuous
 62
     7
370
    15
100
AcDbSpline
210
0.0
220
0.0
230
1.0
 70
     8
 71
     3
 72
    11
 73
     7
 74
     0
 42
0.000000001
 43
0.00000001
 40
0.0
 40
0.0
 40
0.0
 40
0.0
 40
0.2164543009645048
 40
0.4403089937225373
 40
0.7518987489759472
 40
1.0
 40
1.0
 40
1.0
 40
1.0
 10
268.0313766764216
 20
43.1547543789808
 30
0.0
 10
268.1294643192038
 20
43.11061042584093
 30
0.0
 10
268.3289931393639
 20
43.02081327466703
 30
0.0
 10
268.6992661919537
 20
42.93104487559649
 30
0.0
 10
269.0964523875269
 20
42.93977770751697
 30
0.0
 10
269.3506283220963
 20
43.01614562741442
 30
0.0
 10
269.4633000760455
 20
43.04999819294103
 30
0.0
  0
LINE
  5
192
330
1F
100
AcDbEntity
  8
0
  6
Continuous
 62
     7
370
    15
100
AcDbLine
 10
269.463300076
 20
41.7286090913
 30
0.0
 11
269.463300076
 21
43.0499981929
 31
0.0
  0
LINE
  5
193
330
1F
100
AcDbEntity
  8
0
  6
Continuous
 62
     7
370
    15
100
AcDbLine
 10
268.0313766764
 20
41.6291298594
 30
0.0
 11
268.0313766764
 21
43.154754379
 31
0.0
  0
LWPOLYLINE
  5
194
330
1F
100
AcDbEntity
  8
0
  6
Continuous
 62
     7
370
    15
100
AcDbPolyline
 90
       67
 70
   128
 43
0.0
 10
273.2040588167
 20
40.2795347787
 10
272.3806778498
 20
39.7589144038
 10
271.5647535484
 20
39.1524235273
 10
270.7636750493
 20
38.4655546243
 10
269.9846970435
 20
37.7045280861
 10
269.2348740765
 20
36.8762358868
 10
268.5209966612
 20
35.9881791688
 10
267.8495297819
 20
35.0484003113
 10
267.2265543467
 20
34.0654100971
 10
266.6577121177
 20
33.0481106379
 10
266.148154618
 20
32.005714755
 10
265.7024964795
 20
30.9476625471
 10
265.3247736511
 20
29.8835358987
 10
265.0184068493
 20
28.8229717056
 10
264.7861705793
 20
27.7755746013
 10
264.6301680087
 20
26.7508299763
 10
264.551811921
 20
25.7580180764
 10
264.551811921
 20
24.80612996
 10
264.6301680087
 20
23.9037860734
 10
264.7861705793
 20
23.0591581824
 10
265.0184068493
 20
22.279895368
 10
265.3247736511
 20
21.5730547551
 10
265.7024964795
 20
20.9450376015
 10
266.148154618
 20
20.4015313279
 10
266.6577121177
 20
19.9474580114
 10
267.2265543467
 20
19.58692981
 10
267.8495297819
 20
19.3232117232
 10
268.5209966612
 20
19.1586920226
 10
269.2348740765
 20
19.0948606243
 10
269.9846970435
 20
19.1322955952
 10
270.7636750493
 20
19.2706579183
 10
271.5647535484
 20
19.5086945632
 10
272.3806778498
 20
19.8442498331
 10
273.2040588167
 20
20.2742848875
 10
274.0274397837
 20
20.7949052623
 10
274.8433640851
 20
21.4013961388
 10
275.6444425842
 20
22.0882650418
 10
276.4234205899
 20
22.84929158
 10
277.1732435569
 20
23.6775837793
 10
277.8871209723
 20
24.5656404973
 10
278.5585878516
 20
25.5054193548
 10
279.1815632868
 20
26.488409569
 10
279.7504055158
 20
27.5057090282
 10
280.2599630155
 20
28.5481049111
 10
280.705621154
 20
29.606157119
 10
281.0833439824
 20
30.6702837674
 10
281.3897107842
 20
31.7308479605
 10
281.6219470542
 20
32.7782450648
 10
281.7779496248
 20
33.8029896899
 10
281.8563057125
 20
34.7958015897
 10
281.8563057125
 20
35.7476897061
 10
281.7779496248
 20
36.6500335927
 10
281.6219470542
 20
37.4946614837
 10
281.3897107842
 20
38.2739242981
 10
281.0833439824
 20
38.980764911
 10
280.705621154
 20
39.6087820646
 10
280.2599630155
 20
40.1522883382
 10
279.7504055158
 20
40.6063616547
 10
279.1815632868
 20
40.9668898561
 10
278.5585878516
 20
41.2306079429
 10
277.8871209723
 20
41.3951276435
 10
277.1732435569
 20
41.4589590418
 10
276.4234205899
 20
41.421524071
 10
275.6444425842
 20
41.2831617478
 10
274.8433640851
 20
41.0451251029
 10
274.0274397837
 20
40.709569833
 10
273.2040588167
 20
40.2795347787
  0
LWPOLYLINE
  5
195
330
1F
100
AcDbEntity
  8
0
  6
Continuous
 62
     7
370
    15
100
AcDbPolyline
 90
       35
 70
   128
 43
0.0
 10
273.0272821214
 20
40.5857209956
 10
272.1870974613
 20
40.0544757152
 10
271.3545216435
 20
39.4356074738
 10
270.5370946037
 20
38.7347208381
 10
269.7422190876
 20
37.9581631461
 10
268.977093611
 20
37.1129670243
 10
268.2486472688
 20
36.2067866998
 10
267.5634769838
 20
35.247828682
 10
266.9277877643
 20
34.244777443
 10
266.3473365101
 20
33.2067167703
 10
265.8273798779
 20
32.1430475021
 10
265.3726266753
 20
31.063402392
 10
264.9871952177
 20
29.9775588732
 10
264.6745760322
 20
28.8953505129
 10
264.4376002465
 20
27.8265779575
 10
264.27841395
 20
26.7809201768
 10
264.1984587584
 20
25.7678468096
 10
264.1984587584
 20
24.7965324052
 10
264.27841395
 20
23.8757733372
 10
264.4376002465
 20
23.0139081423
 10
264.6745760322
 20
22.2187420052
 10
264.9871952177
 20
21.4974760736
 10
265.3726266753
 20
20.8566422434
 10
265.8273798779
 20
20.3020440051
 10
266.3473365101
 20
19.8387038861
 10
266.9277877643
 20
19.4708179664
 10
267.5634769838
 20
19.2017178778
 10
268.2486472688
 20
19.0338406323
 10
268.977093611
 20
18.9687065524
 10
269.7422190876
 20
19.0069055022
 10
270.5370946037
 20
19.1480915463
 10
271.3545216435
 20
19.3909860819
 10
272.1870974613
 20
19.7333894185
 10
273.0272821214
 20
20.1722006985
 10
273.0287186807
 20
20.1730301413
  0
LWPOLYLINE
  5
196
330
1F
100
AcDbEntity
  8
0
  6
Continuous
 62
     7
370
    15
100
AcDbPolyline
 90
       18
 70
   128
 43
0.0
 10
281.8661168863
 20
35.4815115459
 10
281.8561054845
 20
35.9613892889
 10
281.7761502929
 20
36.8821483569
 10
281.6169639964
 20
37.7440135518
 10
281.3799882107
 20
38.5391796889
 10
281.0673690252
 20
39.2604456205
 10
280.6819375676
 20
39.9012794507
 10
280.227184365
 20
40.455877689
 10
279.7072277328
 20
40.9192178079
 10
279.1267764786
 20
41.2871037277
 10
278.491087259
 20
41.5562038163
 10
277.8059169741
 20
41.7240810617
 10
277.0774706319
 20
41.7892151417
 10
276.3123451553
 20
41.7510161918
 10
275.5174696392
 20
41.6098301478
 10
274.7000425994
 20
41.3669356122
 10
273.8674667816
 20
41.0245322756
 10
273.0272821214
 20
40.5857209956
  0
SPLINE
  5
197
330
1F
100
AcDbEntity
  8
0
  6
Continuous
 62
     7
370
    15
100
AcDbSpline
210
0.0
220
0.0
230
1.0
 70
    11
 71
     3
 72
    83
 73
    79
 74
     0
 42
0.000000001
 43
0.00000001
 40
0.0
 40
0.0
 40
0.0
 40
0.0
 40
0.0312499999999993
 40
0.0312499999999993
 40
0.0624999999999987
 40
0.0624999999999987
 40
0.093749999999998
 40
0.093749999999998
 40
0.1093749999999978
 40
0.1093749999999978
 40
0.1249999999999976
 40
0.1249999999999976
 40
0.1562499999999972
 40
0.1562499999999972
 40
0.1874999999999971
 40
0.1874999999999971
 40
0.218749999999997
 40
0.218749999999997
 40
0.2499999999999969
 40
0.2499999999999969
 40
0.2812499999999968
 40
0.2812499999999968
 40
0.3124999999999967
 40
0.3124999999999967
 40
0.3437499999999966
 40
0.3437499999999966
 40
0.3593749999999965
 40
0.3593749999999965
 40
0.3749999999999964
 40
0.3906249999999963
 40
0.3906249999999963
 40
0.4062499999999962
 40
0.4062499999999962
 40
0.4374999999999959
 40
0.4374999999999959
 40
0.4687499999999958
 40
0.4687499999999958
 40
0.4999999999999956
 40
0.4999999999999956
 40
0.5312499999999953
 40
0.5312499999999953
 40
0.5468749999999952
 40
0.5468749999999952
 40
0.5624999999999951
 40
0.5624999999999951
 40
0.5937499999999953
 40
0.5937499999999953
 40
0.6249999999999956
 40
0.6249999999999956
 40
0.6562499999999959
 40
0.6562499999999959
 40
0.6874999999999961
 40
0.6874999999999961
 40
0.7187499999999963
 40
0.7187499999999963
 40
0.7499999999999966
 40
0.7499999999999966
 40
0.7656249999999968
 40
0.7656249999999968
 40
0.781249999999997
 40
0.781249999999997
 40
0.8124999999999974
 40
0.8124999999999974
 40
0.8281249999999977
 40
0.8281249999999977
 40
0.8437499999999979
 40
0.8437499999999979
 40
0.8749999999999982
 40
0.8749999999999982
 40
0.8906249999999986
 40
0.8906249999999986
 40
0.9062499999999988
 40
0.9062499999999988
 40
0.9374999999999992
 40
0.9374999999999992
 40
0.9687499999999997
 40
0.9687499999999997
 40
1.0
 40
1.0
 40
1.0
 40
1.0
 10
268.5782066066366
 20
44.70872976437865
 30
0.0
 10
268.7724230843074
 20
44.68023212769946
 30
0.0
 10
268.9616690669409
 20
44.64201662572314
 30
0.0
 10
269.3312978337538
 20
44.54956916442291
 30
0.0
 10
269.5128654859785
 20
44.49488203961551
 30
0.0
 10
269.8615969625638
 20
44.37247539482735
 30
0.0
 10
270.026521139071
 20
44.30568302007011
 30
0.0
 10
270.2603670897226
 20
44.19811779653226
 30
0.0
 10
270.336043354311
 20
44.16101939758817
 30
0.0
 10
270.4827722398053
 20
44.08434513416154
 30
0.0
 10
270.5539321979858
 20
44.0446790037025
 30
0.0
 10
270.7564287538761
 20
43.92420283427229
 30
0.0
 10
270.8782750943253
 20
43.84126211407033
 30
0.0
 10
271.0958934493112
 20
43.66975987481476
 30
0.0
 10
271.192387968955
 20
43.58026437466375
 30
0.0
 10
271.351980614135
 20
43.39989886477684
 30
0.0
 10
271.4156275475285
 20
43.30893556167988
 30
0.0
 10
271.5098372984588
 20
43.12377860924583
 30
0.0
 10
271.5403615748152
 20
43.02854207558548
 30
0.0
 10
271.563242329435
 20
42.83989716387702
 30
0.0
 10
271.5562573233263
 20
42.74604683505755
 30
0.0
 10
271.5030183978981
 20
42.5572803604501
 30
0.0
 10
271.4557218600131
 20
42.46149362047746
 30
0.0
 10
271.3227797991977
 20
42.27683084122557
 30
0.0
 10
271.2371998372711
 20
42.18686003374944
 30
0.0
 10
271.0777867749031
 20
42.0548156484673
 30
0.0
 10
271.0192713652999
 20
42.01126231596769
 30
0.0
 10
270.894999906374
 20
41.92765597339261
 30
0.0
 10
270.7627437088902
 20
41.84688050108382
 30
0.0
 10
270.6147096618478
 20
41.77166545921145
 30
0.0
 10
270.4586302257162
 20
41.69932466537547
 30
0.0
 10
270.376417573337
 20
41.66458374584099
 30
0.0
 10
270.1243256052271
 20
41.56753408333395
 30
0.0
 10
269.9469949100866
 20
41.51128335447839
 30
0.0
 10
269.5744375452397
 20
41.41624484209083
 30
0.0
 10
269.3832035690852
 20
41.37861220339328
 30
0.0
 10
268.9980771628438
 20
41.3242851648898
 30
0.0
 10
268.8013078212479
 20
41.307379923729
 30
0.0
 10
268.4159201139124
 20
41.29612629177944
 30
0.0
 10
268.2263322124852
 20
41.30144607791308
 30
0.0
 10
267.9462644676645
 20
41.32653941342172
 30
0.0
 10
267.8534174073044
 20
41.3378356570742
 30
0.0
 10
267.6724805395722
 20
41.36589286163606
 30
0.0
 10
267.5839818134515
 20
41.38267507482313
 30
0.0
 10
267.324191790463
 20
41.44127266828581
 30
0.0
 10
267.1585563919147
 20
41.4912828865487
 30
0.0
 10
266.8426004428977
 20
41.61451758984811
 30
0.0
 10
266.6962725850299
 20
41.6862403613963
 30
0.0
 10
266.4274076201102
 20
41.84856552615995
 30
0.0
 10
266.3042835731142
 20
41.93956130706562
 30
0.0
 10
266.0838678902898
 20
42.14006937341806
 30
0.0
 10
265.9891128713044
 20
42.2471455070807
 30
0.0
 10
265.8299005510165
 20
42.47370823169149
 30
0.0
 10
265.7651510582435
 20
42.5939324274672
 30
0.0
 10
265.6699685288626
 20
42.84320908772129
 30
0.0
 10
265.6402578431337
 20
42.96977046354667
 30
0.0
 10
265.6229368971964
 20
43.16126464344671
 30
0.0
 10
265.6217360798437
 20
43.22537334188279
 30
0.0
 10
265.628989467318
 20
43.35395090615285
 30
0.0
 10
265.6375554308991
 20
43.41882448933242
 30
0.0
 10
265.6780243628514
 20
43.60960155108891
 30
0.0
 10
265.7242834304178
 20
43.73217733552828
 30
0.0
 10
265.8238326405638
 20
43.90764257348583
 30
0.0
 10
265.8620793986763
 20
43.96472447154995
 30
0.0
 10
265.9494386961057
 20
44.07571192450514
 30
0.0
 10
265.9982612531296
 20
44.12913001220968
 30
0.0
 10
266.1572266542966
 20
44.27987499405744
 30
0.0
 10
266.2807293327299
 20
44.3690827133543
 30
0.0
 10
266.4932937351173
 20
44.4850410831259
 30
0.0
 10
266.5687542719827
 20
44.52060948967888
 30
0.0
 10
266.7246285400224
 20
44.58381296603712
 30
0.0
 10
266.805538390932
 20
44.61174037274709
 30
0.0
 10
267.0569527757881
 20
44.68493420009597
 30
0.0
 10
267.2382900877455
 20
44.71975723867406
 30
0.0
 10
267.6089231644951
 20
44.7605016974187
 30
0.0
 10
267.7990077378432
 20
44.76703649250509
 30
0.0
 10
268.1884897633091
 20
44.7553782739601
 30
0.0
 10
268.3839901289658
 20
44.73722740105782
 30
0.0
 10
268.5782066066366
 20
44.70872976437865
 30
0.0
  0
SPLINE
  5
198
330
1F
100
AcDbEntity
  8
0
  6
Continuous
 62
     7
370
    15
100
AcDbSpline
210
0.0
220
0.0
230
1.0
 70
     8
 71
     3
 72
    16
 73
    12
 74
     0
 42
0.000000001
 43
0.00000001
 40
0.0
 40
0.0
 40
0.0
 40
0.0
 40
0.2500000000000002
 40
0.2500000000000002
 40
0.3750000000000001
 40
0.3750000000000001
 40
0.5000000000000001
 40
0.5000000000000001
 40
0.75
 40
0.75
 40
1.0
 40
1.0
 40
1.0
 40
1.0
 10
257.9638061281879
 20
26.63499384411984
 30
0.0
 10
257.8651276666216
 20
26.60622077304231
 30
0.0
 10
257.7571728409198
 20
26.5963055933613
 30
0.0
 10
257.5807172873568
 20
26.60649562611934
 30
0.0
 10
257.5194719366244
 20
26.61409585432317
 30
0.0
 10
257.3919402769966
 20
26.63746179472325
 30
0.0
 10
257.3253265385807
 20
26.6533315926595
 30
0.0
 10
257.1204681817219
 20
26.71221209070442
 30
0.0
 10
256.9773167134098
 20
26.7661832045126
 30
0.0
 10
256.6777367324113
 20
26.90081695262403
 30
0.0
 10
256.5204925178945
 20
26.98198348552521
 30
0.0
 10
256.3586415668901
 20
27.07541805072943
 30
0.0
  0
SPLINE
  5
199
330
1F
100
AcDbEntity
  8
0
  6
Continuous
 62
     7
370
    15
100
AcDbSpline
210
0.0
220
0.0
230
1.0
 70
     8
 71
     3
 72
    32
 73
    28
 74
     0
 42
0.000000001
 43
0.00000001
 40
0.0
 40
0.0
 40
0.0
 40
0.0
 40
0.1250000000000004
 40
0.1250000000000004
 40
0.1875000000000004
 40
0.1875000000000004
 40
0.2500000000000005
 40
0.2500000000000005
 40
0.3125000000000006
 40
0.3125000000000006
 40
0.3750000000000006
 40
0.3750000000000006
 40
0.5000000000000006
 40
0.5000000000000006
 40
0.5625000000000006
 40
0.5625000000000006
 40
0.6250000000000006
 40
0.6250000000000006
 40
0.6875000000000006
 40
0.6875000000000006
 40
0.7500000000000004
 40
0.7500000000000004
 40
0.8750000000000002
 40
0.8750000000000002
 40
0.9375000000000001
 40
0.9375000000000001
 40
1.0
 40
1.0
 40
1.0
 40
1.0
 10
257.9638061281879
 20
31.75777072825384
 30
0.0
 10
258.0945188641216
 20
31.48926133065021
 30
0.0
 10
258.2070277159705
 20
31.21171718751016
 30
0.0
 10
258.3530994549892
 20
30.78349115196844
 30
0.0
 10
258.3981915460802
 20
30.63789063737568
 30
0.0
 10
258.4797871501806
 20
30.34699986866214
 30
0.0
 10
258.5161697248386
 20
30.20235583245628
 30
0.0
 10
258.5808276574485
 20
29.91484535626772
 30
0.0
 10
258.6091013766482
 20
29.77197844993341
 30
0.0
 10
258.6578390730183
 20
29.48822615203932
 30
0.0
 10
258.6783821636737
 20
29.34664606431301
 30
0.0
 10
258.727586479425
 20
28.93005979352166
 30
0.0
 10
258.7436160660334
 20
28.66815989659924
 30
0.0
 10
258.7437788619592
 20
28.29899762766246
 30
0.0
 10
258.7397492761945
 20
28.17930204633685
 30
0.0
 10
258.7233982811458
 20
27.95114647247327
 30
0.0
 10
258.7111887929429
 20
27.84349309770534
 30
0.0
 10
258.6787960873793
 20
27.64045342973746
 30
0.0
 10
258.6586125993839
 20
27.54506861858667
 30
0.0
 10
258.6099364029228
 20
27.36639609826832
 30
0.0
 10
258.581223448036
 20
27.28265099863023
 30
0.0
 10
258.4833366168208
 20
27.05396926433935
 30
0.0
 10
258.4029342928472
 20
26.9310097647936
 30
0.0
 10
258.2567188572206
 20
26.78762054610429
 30
0.0
 10
258.2033132194564
 20
26.74658670309255
 30
0.0
 10
258.0892609128128
 20
26.67981996115085
 30
0.0
 10
258.0285252400481
 20
26.65386490854536
 30
0.0
 10
257.9638061281879
 20
26.63499384411984
 30
0.0
  0
SPLINE
  5
19A
330
1F
100
AcDbEntity
  8
0
  6
Continuous
 62
     7
370
    15
100
AcDbSpline
210
0.0
220
0.0
230
1.0
 70
     8
 71
     3
 72
    15
 73
    11
 74
     0
 42
0.000000001
 43
0.00000001
 40
0.0
 40
0.0
 40
0.0
 40
0.0
 40
0.0074271889329216
 40
0.1521372438790718
 40
0.3000496153949416
 40
0.4491139721383517
 40
0.5842335885350116
 40
0.7203205336519684
 40
0.8595832821963625
 40
1.0
 40
1.0
 40
1.0
 40
1.0
 10
256.5866128477417
 20
33.43657402241282
 30
0.0
 10
256.5907568001601
 20
33.43394057587856
 30
0.0
 10
256.6756407993943
 20
33.37999751596136
 30
0.0
 10
256.8358191032744
 20
33.25009803147802
 30
0.0
 10
257.0649049173897
 20
33.04494583012657
 30
0.0
 10
257.2767043144515
 20
32.81784668551273
 30
0.0
 10
257.4709256009139
 20
32.57718272111097
 30
0.0
 10
257.6479209490699
 20
32.32381304193935
 30
0.0
 10
257.8145911154488
 20
32.05139109960408
 30
0.0
 10
257.9139311635339
 20
31.85591303561267
 30
0.0
 10
257.9638061281879
 20
31.75777072825384
 30
0.0
  0
LWPOLYLINE
  5
19B
330
1F
100
AcDbEntity
  8
0
  6
Continuous
 62
     7
370
    15
100
AcDbPolyline
 90
        3
 70
   128
 43
0.0
 10
271.3395005816
 20
45.7866621544
 10
271.2529690156
 20
45.835251412
 10
271.1634353366
 20
45.8827311752
  0
LINE
  5
19C
330
1F
100
AcDbEntity
  8
0
  6
Continuous
 62
     7
370
    15
100
AcDbLine
 10
256.3586415669
 20
27.0754180507
 30
0.0
 11
256.7121949575
 21
26.8713160228
 31
0.0
  0
LINE
  5
19D
330
1F
100
AcDbEntity
  8
0
  6
Continuous
 62
     7
370
    15
100
AcDbLine
 10
277.8245098847
 20
30.1082598136
 30
0.0
 11
279.585697517
 21
32.2991604848
 31
0.0
  0
SPLINE
  5
19E
330
1F
100
AcDbEntity
  8
0
  6
Continuous
 62
     7
370
    15
100
AcDbSpline
210
0.0
220
0.0
230
1.0
 70
     8
 71
     3
 72
    22
 73
    18
 74
     0
 42
0.000000001
 43
0.00000001
 40
0.0
 40
0.0
 40
0.0
 40
0.0
 40
0.0500000000000106
 40
0.0999999999999999
 40
0.15
 40
0.1999999999999999
 40
0.2499999999999999
 40
0.2968749999999668
 40
0.34375
 40
0.3906249999999996
 40
0.4374999999999987
 40
0.5292946909502639
 40
0.5292946909502639
 40
0.53125
 40
0.6249999999999998
 40
0.8125
 40
0.8968030376395276
 40
0.8968030376395276
 40
0.8968030376395276
 40
0.8968030376395276
 10
279.5856975169536
 20
32.29916048480698
 30
0.0
 10
279.666897198957
 20
32.40017211726826
 30
0.0
 10
279.8264865905803
 20
32.6201854696612
 30
0.0
 10
280.0456623277041
 20
32.9963815322995
 30
0.0
 10
280.2325231119087
 20
33.41367144027509
 30
0.0
 10
280.369857952717
 20
33.8533294196875
 30
0.0
 10
280.4405312644224
 20
34.2804904430982
 30
0.0
 10
280.4400518440639
 20
34.6699952277073
 30
0.0
 10
280.3717296708277
 20
35.00216641699223
 30
0.0
 10
280.240004458451
 20
35.26916648349475
 30
0.0
 10
280.0000265906073
 20
35.52238334590876
 30
0.0
 10
279.7554674228864
 20
35.60645550432774
 30
0.0
 10
279.5828875387753
 20
35.6229514692829
 30
0.0
 10
279.4187833826339
 20
35.63867450830431
 30
0.0
 10
279.0095693598876
 20
35.67330618606463
 30
0.0
 10
278.6639365111701
 20
35.70522201726894
 30
0.0
 10
278.0328363189112
 20
35.76167713527612
 30
0.0
 10
277.8244629782506
 20
35.78029392928654
 30
0.0
  0
SPLINE
  5
19F
330
1F
100
AcDbEntity
  8
0
  6
Continuous
 62
     7
370
    15
100
AcDbSpline
210
0.0
220
0.0
230
1.0
 70
     8
 71
     3
 72
    22
 73
    18
 74
     0
 42
0.000000001
 43
0.00000001
 40
0.0
 40
0.0
 40
0.0
 40
0.0
 40
0.0500000000000106
 40
0.0999999999999999
 40
0.15
 40
0.1999999999999999
 40
0.2499999999999999
 40
0.2968749999999668
 40
0.34375
 40
0.3906249999999996
 40
0.4374999999999987
 40
0.5292946909502639
 40
0.5292946909502639
 40
0.53125
 40
0.6249999999999998
 40
0.8125
 40
0.8955927989355379
 40
0.8955927989355379
 40
0.8955927989355379
 40
0.8955927989355379
 10
266.8224201165359
 20
24.93107727560668
 30
0.0
 10
266.7421641879961
 20
24.93825336499529
 30
0.0
 10
266.5811930456406
 20
24.97413227805264
 30
0.0
 10
266.3625726660302
 20
25.09722375986022
 30
0.0
 10
266.1755630778704
 20
25.29878211805745
 30
0.0
 10
266.0382680953692
 20
25.5798730489404
 30
0.0
 10
265.9675843758338
 20
25.92543752602143
 30
0.0
 10
265.9680659462456
 20
26.31549497220609
 30
0.0
 10
266.0363892818748
 20
26.72655163717159
 30
0.0
 10
266.1681077413664
 20
27.14562974905881
 30
0.0
 10
266.4081197153224
 20
27.67596166772885
 30
0.0
 10
266.6525257075502
 20
28.0422052599425
 30
0.0
 10
266.825224821457
 20
28.25810603220005
 30
0.0
 10
266.9894555386579
 20
28.46345713138661
 30
0.0
 10
267.3997660617598
 20
28.97192131076054
 30
0.0
 10
267.7356990445533
 20
29.3908264405848
 30
0.0
 10
268.3763654563084
 20
30.18783772471172
 30
0.0
 10
268.5836550723404
 20
30.44568998158981
 30
0.0
  0
LINE
  5
1A0
330
1F
100
AcDbEntity
  8
0
  6
Continuous
 62
     7
370
    15
100
AcDbLine
 10
268.5836077488
 20
24.7736005619
 30
0.0
 11
266.8224201165
 21
24.9310772756
 31
0.0
  0
SPLINE
  5
1A1
330
1F
100
AcDbEntity
  8
0
  6
Continuous
 62
     7
370
    15
100
AcDbSpline
210
0.0
220
0.0
230
1.0
 70
     8
 71
     3
 72
    12
 73
     8
 74
     0
 42
0.000000001
 43
0.00000001
 40
0.0
 40
0.0
 40
0.0
 40
0.0
 40
0.2499999999999997
 40
0.2499999999999997
 40
0.4999999999999993
 40
0.4999999999999993
 40
1.0
 40
1.0
 40
1.0
 40
1.0
 10
253.7592967907223
 20
32.7469903855356
 30
0.0
 10
253.7930759569946
 20
32.72749008792209
 30
0.0
 10
253.8314006534701
 20
32.70065033934492
 30
0.0
 10
253.9056237775827
 20
32.64224983602227
 30
0.0
 10
253.9410071420774
 20
32.61126017754138
 30
0.0
 10
254.0368171004624
 20
32.52052082452062
 30
0.0
 10
254.0858208586166
 20
32.46462669580308
 30
0.0
 10
254.1196299162314
 20
32.41736683203641
 30
0.0
  0
SPLINE
  5
1A2
330
1F
100
AcDbEntity
  8
0
  6
Continuous
 62
     7
370
    15
100
AcDbSpline
210
0.0
220
0.0
230
1.0
 70
     8
 71
     3
 72
    12
 73
     8
 74
     0
 42
0.000000001
 43
0.00000001
 40
0.0
 40
0.0
 40
0.0
 40
0.0
 40
0.5
 40
0.5
 40
0.75
 40
0.75
 40
1.0
 40
1.0
 40
1.0
 40
1.0
 10
271.2241598294224
 20
49.18716835635797
 30
0.0
 10
271.2241598294224
 20
49.25885348253124
 30
0.0
 10
271.2063811612957
 20
49.34160091940763
 30
0.0
 10
271.1515372047313
 20
49.45990547164011
 30
0.0
 10
271.1283945630951
 20
49.49843092886471
 30
0.0
 10
271.0739575149225
 20
49.56556315569907
 30
0.0
 10
271.0431197790118
 20
49.59331778529702
 30
0.0
 10
271.0120277950664
 20
49.61126680557299
 30
0.0
  0
LINE
  5
1A3
330
1F
100
AcDbEntity
  8
0
  6
Continuous
 62
     7
370
    15
100
AcDbLine
 10
252.4058366558
 20
33.5283262902
 30
0.0
 11
253.7592967907
 21
32.7469903855
 31
0.0
  0
LWPOLYLINE
  5
1A4
330
1F
100
AcDbEntity
  8
0
  6
Continuous
 62
     7
370
    15
100
AcDbPolyline
 90
       23
 70
   128
 43
0.0
 10
252.4058366558
 20
33.5283262902
 10
252.7203189833
 20
34.7682468824
 10
253.1126716519
 20
36.0178594329
 10
253.5799711167
 20
37.2678526795
 10
254.1187353799
 20
38.5089125231
 10
254.7249499371
 20
39.7317914305
 10
255.3940976898
 20
40.9273773403
 10
256.1211926045
 20
42.0867615601
 10
256.9008168646
 20
43.2013051476
 10
257.7271612409
 20
44.2627032826
 10
258.5940683773
 20
45.2630471486
 10
259.495078672
 20
46.1948828638
 10
260.4234784094
 20
47.0512670228
 10
261.3723497865
 20
47.8258184336
 10
262.3346224597
 20
48.5127656662
 10
263.3031262277
 20
49.1069900574
 10
264.2706444598
 20
49.6040638514
 10
265.2299678685
 20
50.0002831927
 10
266.1739482287
 20
50.2926957243
 10
267.0955516412
 20
50.4791225872
 10
267.9879109446
 20
50.5581746551
 10
268.8443768847
 20
50.5292628858
 10
269.6585676601
 20
50.3926027103
  0
LINE
  5
1A5
330
1F
100
AcDbEntity
  8
0
  6
Continuous
 62
     7
370
    15
100
AcDbLine
 10
271.0120277951
 20
49.6112668056
 30
0.0
 11
269.6585676601
 21
50.3926027103
 31
0.0
  0
LINE
  5
1A6
330
1F
100
AcDbEntity
  8
0
  6
Continuous
 62
     7
370
    15
100
AcDbLine
 10
254.1196299162
 20
32.417366832
 30
0.0
 11
254.1675250926
 21
32.3504167403
 31
0.0
  0
LINE
  5
1A7
330
1F
100
AcDbEntity
  8
0
  6
Continuous
 62
     7
370
    15
100
AcDbLine
 10
271.2241598294
 20
46.4305570354
 30
0.0
 11
271.2241598294
 21
49.1871683564
 31
0.0
  0
LINE
  5
1A8
330
1F
100
AcDbEntity
  8
0
  6
Continuous
 62
     7
370
    15
100
AcDbLine
 10
254.1675250926
 20
32.3504167403
 30
0.0
 11
255.9957636348
 21
33.4058363855
 31
0.0
  0
SPLINE
  5
1A9
330
1F
100
AcDbEntity
  8
0
  6
Continuous
 62
     7
370
    15
100
AcDbSpline
210
0.0
220
0.0
230
1.0
 70
     8
 71
     3
 72
    20
 73
    16
 74
     0
 42
0.000000001
 43
0.00000001
 40
0.0
 40
0.0
 40
0.0
 40
0.0
 40
0.0689330687638212
 40
0.2086460660694846
 40
0.2795513568936926
 40
0.3568221062333854
 40
0.4346297180619229
 40
0.5141300326224201
 40
0.5942147550361894
 40
0.671484413798639
 40
0.7492896513553071
 40
0.8287838911775582
 40
0.9088620526371605
 40
0.9861853451215219
 40
1.0
 40
1.0
 40
1.0
 40
1.0
 10
266.7340317688878
 20
25.2609400681542
 30
0.0
 10
266.7028154536804
 20
25.26479984635096
 30
0.0
 10
266.6083301582772
 20
25.27648259239866
 30
0.0
 10
266.4918746580037
 20
25.31777726909775
 30
0.0
 10
266.3826330052435
 20
25.38059981082149
 30
0.0
 10
266.3036229098882
 20
25.44179793911052
 30
0.0
 10
266.2292667290959
 20
25.5176037304905
 30
0.0
 10
266.162414351849
 20
25.60646789278798
 30
0.0
 10
266.1049128880173
 20
25.70664065402406
 30
0.0
 10
266.0571968115265
 20
25.81664501584636
 30
0.0
 10
266.0194395926904
 20
25.93591478286257
 30
0.0
 10
265.9913735794568
 20
26.06533027290831
 30
0.0
 10
265.9752405395081
 20
26.20292502045114
 30
0.0
 10
265.9688905011541
 20
26.3059370632351
 30
0.0
 10
265.9711751627823
 20
26.3635266273155
 30
0.0
 10
265.97152147091
 20
26.372256031207
 30
0.0
  0
SPLINE
  5
1AA
330
1F
100
AcDbEntity
  8
0
  6
Continuous
 62
     7
370
    15
100
AcDbSpline
210
0.0
220
0.0
230
1.0
 70
     8
 71
     3
 72
    12
 73
     8
 74
     0
 42
0.000000001
 43
0.00000001
 40
0.0
 40
0.0
 40
0.0
 40
0.0
 40
0.1335669850596058
 40
0.3588580378477089
 40
0.5694033478593606
 40
0.784905510305322
 40
1.0
 40
1.0
 40
1.0
 40
1.0
 10
268.7585336439599
 20
30.69028450088926
 30
0.0
 10
268.755269507964
 20
30.68320557087891
 30
0.0
 10
268.7464996653397
 20
30.66418641781169
 30
0.0
 10
268.715839076694
 20
30.61834301769114
 30
0.0
 10
268.6750556445501
 20
30.56242899005836
 30
0.0
 10
268.630782742657
 20
30.50473317471394
 30
0.0
 10
268.5993543773802
 20
30.46535861984743
 30
0.0
 10
268.5836550723403
 20
30.44568998158964
 30
0.0
  0
SPLINE
  5
1AB
330
1F
100
AcDbEntity
  8
0
  6
Continuous
 62
     7
370
    15
100
AcDbSpline
210
0.0
220
0.0
230
1.0
 70
     8
 71
     3
 72
     8
 73
     4
 74
     0
 42
0.000000001
 43
0.00000001
 40
0.0
 40
0.0
 40
0.0
 40
0.0
 40
1.0
 40
1.0
 40
1.0
 40
1.0
 10
251.4156853704848
 20
34.78670547440528
 30
0.0
 10
251.0349875044843
 20
34.72373863673467
 30
0.0
 10
250.6541495322445
 20
34.66103851459964
 30
0.0
 10
250.2732088815048
 20
34.5985576359266
 30
0.0
  0
SPLINE
  5
1AC
330
1F
100
AcDbEntity
  8
0
  6
Continuous
 62
     7
370
    15
100
AcDbSpline
210
0.0
220
0.0
230
1.0
 70
     8
 71
     3
 72
     8
 73
     4
 74
     0
 42
0.000000001
 43
0.00000001
 40
0.0
 40
0.0
 40
0.0
 40
0.0
 40
0.0011901715795577
 40
0.0011901715795577
 40
0.0011901715795577
 40
0.0011901715795577
 10
249.9155220839469
 20
34.96595429178222
 30
0.0
 10
250.0351685914418
 20
34.84333938202673
 30
0.0
 10
250.1544117655898
 20
34.72086734153103
 30
0.0
 10
250.2732088815048
 20
34.5985576359266
 30
0.0
  0
LWPOLYLINE
  5
1AD
330
1F
100
AcDbEntity
  8
0
  6
Continuous
 62
     7
370
    15
100
AcDbPolyline
 90
       23
 70
   128
 43
0.0
 10
249.9155220839
 20
34.9659542918
 10
250.2300044115
 20
36.205874884
 10
250.6223570801
 20
37.4554874345
 10
251.0896565449
 20
38.705480681
 10
251.6284208081
 20
39.9465405246
 10
252.2346353652
 20
41.169419432
 10
252.903783118
 20
42.3650053419
 10
253.6308780326
 20
43.5243895616
 10
254.4105022928
 20
44.6389331491
 10
255.236846669
 20
45.7003312841
 10
256.1037538055
 20
46.7006751501
 10
257.0047641002
 20
47.6325108653
 10
257.9331638376
 20
48.4888950243
 10
258.8820352147
 20
49.2634464351
 10
259.8443078878
 20
49.9503936677
 10
260.8128116559
 20
50.5446180589
 10
261.780329888
 20
51.041691853
 10
262.7396532967
 20
51.4379111943
 10
263.6836336569
 20
51.7303237259
 10
264.6052370694
 20
51.9167505887
 10
265.4975963728
 20
51.9958026566
 10
266.3540623128
 20
51.9668908874
 10
267.1682530883
 20
51.8302307118
  0
SPLINE
  5
1AE
330
1F
100
AcDbEntity
  8
0
  6
Continuous
 62
     7
370
    15
100
AcDbSpline
210
0.0
220
0.0
230
1.0
 70
     8
 71
     3
 72
     9
 73
     5
 74
     0
 42
0.000000001
 43
0.00000001
 40
0.0
 40
0.0
 40
0.0
 40
0.0
 40
0.4956263184606863
 40
1.0
 40
1.0
 40
1.0
 40
1.0
 10
267.5972794191756
 20
50.51155769377879
 30
0.0
 10
267.5272470049303
 20
50.72937750782138
 30
0.0
 10
267.3859461667045
 20
51.16886146161762
 30
0.0
 10
267.2412393820241
 20
51.6084924245345
 30
0.0
 10
267.1682530882912
 20
51.83023071181956
 30
0.0
  0
LWPOLYLINE
  5
1AF
330
1F
100
AcDbEntity
  8
0
  6
Continuous
 62
     7
370
    15
100
AcDbPolyline
 90
       22
 70
   128
 43
0.0
 10
251.4156853705
 20
34.7867054744
 10
251.7105137564
 20
35.962027287
 10
252.082204216
 20
37.1471428443
 10
252.5277620758
 20
38.3325037871
 10
253.0435975201
 20
39.5085597791
 10
253.6255545137
 20
40.665835453
 10
254.2689442862
 20
41.7950067528
 10
254.9685831098
 20
42.8869760567
 10
255.7188340634
 20
43.9329454756
 10
256.5136524491
 20
44.9244877371
 10
257.3466344934
 20
45.8536140827
 10
258.2110689421
 20
46.7128386332
 10
259.0999911321
 20
47.4952387011
 10
260.0062391048
 20
48.1945105661
 10
260.9225113098
 20
48.8050202637
 10
261.8414254322
 20
49.3218489774
 10
262.7555778714
 20
49.7408326693
 10
263.6576033913
 20
50.0585956291
 10
264.5402344614
 20
50.2725776719
 10
265.3963598099
 20
50.3810547654
 10
266.2190817194
 20
50.3831529205
 10
266.464463473
 20
50.3623721975
  0
SPLINE
  5
1B0
330
1F
100
AcDbEntity
  8
0
  6
Continuous
 62
     7
370
    15
100
AcDbSpline
210
0.0
220
0.0
230
1.0
 70
     8
 71
     3
 72
    16
 73
    12
 74
     0
 42
0.000000001
 43
0.00000001
 40
0.0
 40
0.0
 40
0.0
 40
0.0
 40
0.2499999999999952
 40
0.2499999999999952
 40
0.4999999999999905
 40
0.4999999999999905
 40
0.6249999999999899
 40
0.6249999999999899
 40
0.7499999999999895
 40
0.7499999999999895
 40
1.0
 40
1.0
 40
1.0
 40
1.0
 10
277.8244629782521
 20
35.78029392928639
 30
0.0
 10
277.7928127401677
 20
35.78312167088199
 30
0.0
 10
277.758684013922
 20
35.78460678837371
 30
0.0
 10
277.6815053698928
 20
35.78274513327162
 30
0.0
 10
277.6378101394408
 20
35.77954561473801
 30
0.0
 10
277.5640955494246
 20
35.76570069780105
 30
0.0
 10
277.5381772325088
 20
35.75938188427089
 30
0.0
 10
277.4899739852981
 20
35.74381741316326
 30
0.0
 10
277.467626893813
 20
35.7345095541414
 30
0.0
 10
277.4128103498958
 20
35.70645300820858
 30
0.0
 10
277.3908307105146
 20
35.68808640082267
 30
0.0
 10
277.3746090978398
 20
35.6709764988852
 30
0.0
  0
SPLINE
  5
1B1
330
1F
100
AcDbEntity
  8
0
  6
Continuous
 62
     7
370
    15
100
AcDbSpline
210
0.0
220
0.0
230
1.0
 70
     8
 71
     3
 72
     8
 73
     4
 74
     0
 42
0.000000001
 43
0.00000001
 40
0.0
 40
0.0
 40
0.0
 40
0.0
 40
1.0
 40
1.0
 40
1.0
 40
1.0
 10
277.3746090978398
 20
35.6709764988852
 30
0.0
 10
277.3233791305955
 20
35.6904332674841
 30
0.0
 10
277.272661138559
 20
35.71280001657734
 30
0.0
 10
277.2336368675106
 20
35.73532824872667
 30
0.0
  0
SPLINE
  5
1B2
330
1F
100
AcDbEntity
  8
0
  6
Continuous
 62
     7
370
    15
100
AcDbSpline
210
0.0
220
0.0
230
1.0
 70
     8
 71
     3
 72
     8
 73
     4
 74
     0
 42
0.000000001
 43
0.00000001
 40
0.0
 40
0.0
 40
0.0
 40
0.0
 40
0.0000694974999696
 40
0.0000694974999696
 40
0.0000694974999696
 40
0.0000694974999696
 10
271.2245876728645
 20
46.40194057587422
 30
0.0
 10
271.2324880687465
 20
46.40683043463538
 30
0.0
 10
271.2405368220665
 20
46.4116418012503
 30
0.0
 10
271.2487271809838
 20
46.41636999481084
 30
0.0
  0
SPLINE
  5
1B3
330
1F
100
AcDbEntity
  8
0
  6
Continuous
 62
     7
370
    15
100
AcDbSpline
210
0.0
220
0.0
230
1.0
 70
     8
 71
     3
 72
    12
 73
     8
 74
     0
 42
0.000000001
 43
0.00000001
 40
0.0
 40
0.0
 40
0.0
 40
0.0
 40
0.2500000000000012
 40
0.2500000000000012
 40
0.5000000000000024
 40
0.5000000000000024
 40
1.0
 40
1.0
 40
1.0
 40
1.0
 10
256.712194957483
 20
33.37796909899537
 30
0.0
 10
256.6807225740459
 20
33.39613771922357
 30
0.0
 10
256.6460455319974
 20
33.41319719939031
 30
0.0
 10
256.5702984734514
 20
33.44448841413336
 30
0.0
 10
256.5293540958219
 20
33.4585513571547
 30
0.0
 10
256.4032670262788
 20
33.49111506430705
 30
0.0
 10
256.3125036806505
 20
33.5001948137331
 30
0.0
 10
256.2270636880922
 20
33.48555912375167
 30
0.0
  0
SPLINE
  5
1B4
330
1F
100
AcDbEntity
  8
0
  6
Continuous
 62
     7
370
    15
100
AcDbSpline
210
0.0
220
0.0
230
1.0
 70
     8
 71
     3
 72
     8
 73
     4
 74
     0
 42
0.000000001
 43
0.00000001
 40
0.0
 40
0.0
 40
0.0
 40
0.0
 40
1.0
 40
1.0
 40
1.0
 40
1.0
 10
256.2270636880922
 20
33.48555912375167
 30
0.0
 10
256.1394400632165
 20
33.47054938217364
 30
0.0
 10
256.0603742111597
 20
33.44313527730183
 30
0.0
 10
255.9957636348128
 20
33.40583638550599
 30
0.0
  0
SPLINE
  5
1B5
330
1F
100
AcDbEntity
  8
0
  6
Continuous
 62
     7
370
    15
100
AcDbSpline
210
0.0
220
0.0
230
1.0
 70
     8
 71
     3
 72
     8
 73
     4
 74
     0
 42
0.000000001
 43
0.00000001
 40
0.0
 40
0.0
 40
0.0
 40
0.0
 40
0.0000694974999696
 40
0.0000694974999696
 40
0.0000694974999696
 40
0.0000694974999696
 10
271.2241598294224
 20
46.43055703544795
 30
0.0
 10
271.2241598294224
 20
46.42109911127309
 30
0.0
 10
271.2243026700045
 20
46.41155730087053
 30
0.0
 10
271.2245876728645
 20
46.40194057587422
 30
0.0
  0
LINE
  5
1B6
330
1F
100
AcDbEntity
  8
0
  6
Continuous
 62
     7
370
    15
100
AcDbLine
 10
275.4158073275
 20
36.7847389048
 30
0.0
 11
277.2336368675
 21
35.7353282487
 31
0.0
  0
ARC
  5
1B7
330
1F
100
AcDbEntity
  8
0
  6
Continuous
 62
     7
370
    15
100
AcDbCircle
 10
264.6353310447
 20
35.9929526057
 30
0.0
 40
8.70485225271716
100
AcDbArc
 50
338.0320701964
 51
1.7092158624
  0
LINE
  5
1B8
330
1F
100
AcDbEntity
  8
0
  6
Continuous
 62
     7
370
    15
100
AcDbLine
 10
272.7081534679
 20
32.7365756519
 30
0.0
 11
277.2336368675
 21
30.124069694
 31
0.0
  0
LINE
  5
1B9
330
1F
100
AcDbEntity
  8
0
  6
Continuous
 62
     7
370
    15
100
AcDbLine
 10
266.0383462708
 20
26.6289433249
 30
0.0
 11
268.608795341
 21
25.1450546621
 31
0.0
  0
LINE
  5
1BA
330
1F
100
AcDbEntity
  8
0
  6
Continuous
 62
     7
370
    15
100
AcDbLine
 10
248.5797396185
 20
35.7370850951
 30
0.0
 11
249.9155220839
 21
34.9659542918
 31
0.0
  0
LINE
  5
1BB
330
1F
100
AcDbEntity
  8
0
  6
Continuous
 62
     7
370
    15
100
AcDbLine
 10
267.1682530883
 20
51.8302307118
 30
0.0
 11
265.8324706229
 21
52.6013615151
 31
0.0
  0
LWPOLYLINE
  5
1BC
330
1F
100
AcDbEntity
  8
0
  6
Continuous
 62
     7
370
    15
100
AcDbPolyline
 90
       22
 70
   128
 43
0.0
 10
270.3819397207
 20
41.6470817727
 10
270.4953165178
 20
41.7416731806
 10
270.7139245627
 20
42.003729637
 10
270.8260395418
 20
42.2872978745
 10
270.8260395418
 20
42.5781585976
 10
270.7139245627
 20
42.8617268351
 10
270.4953165178
 20
43.1237832915
 10
270.1811773272
 20
43.3511873619
 10
269.7872592417
 20
43.5325360565
 10
269.3333149589
 20
43.6587357946
 10
268.8421071407
 20
43.7234583943
 10
268.3382669983
 20
43.7234583943
 10
267.8470591801
 20
43.6587357946
 10
267.3931148973
 20
43.5325360565
 10
266.9991968118
 20
43.3511873619
 10
266.6850576212
 20
43.1237832915
 10
266.4664495763
 20
42.8617268351
 10
266.3543345972
 20
42.5781585976
 10
266.3543345972
 20
42.2872978745
 10
266.4664495763
 20
42.003729637
 10
266.6850576212
 20
41.7416731806
 10
266.849888653
 20
41.6094379472
  0
LINE
  5
1BD
330
1F
100
AcDbEntity
  8
0
  6
Continuous
 62
     7
370
    15
100
AcDbLine
 10
252.6422274756
 20
34.4864208243
 30
0.0
 11
252.0517168197
 21
34.8273153698
 31
0.0
  0
SPLINE
  5
1BE
330
1F
100
AcDbEntity
  8
0
  6
Continuous
 62
     7
370
    15
100
AcDbSpline
210
0.0
220
0.0
230
1.0
 70
     8
 71
     3
 72
    12
 73
     8
 74
     0
 42
0.000000001
 43
0.00000001
 40
0.0
 40
0.0
 40
0.0
 40
0.0
 40
0.2499999999999986
 40
0.2499999999999986
 40
0.4999999999999971
 40
0.4999999999999971
 40
1.0
 40
1.0
 40
1.0
 40
1.0
 10
252.0517168197222
 20
34.82731536982092
 30
0.0
 10
252.0136792121696
 20
34.84927401325815
 30
0.0
 10
251.9681959357115
 20
34.86628864716968
 30
0.0
 10
251.8679547421301
 20
34.88868377928369
 30
0.0
 10
251.8146327431256
 20
34.89377672863827
 30
0.0
 10
251.6535692362464
 20
34.8908272082985
 30
0.0
 10
251.5494253047705
 20
34.8639118950836
 30
0.0
 10
251.4739322209173
 20
34.82033066542767
 30
0.0
  0
SPLINE
  5
1BF
330
1F
100
AcDbEntity
  8
0
  6
Continuous
 62
     7
370
    15
100
AcDbSpline
210
0.0
220
0.0
230
1.0
 70
     8
 71
     3
 72
    10
 73
     6
 74
     0
 42
0.000000001
 43
0.00000001
 40
0.0
 40
0.0
 40
0.0
 40
0.0
 40
0.5
 40
0.5
 40
1.0
 40
1.0
 40
1.0
 40
1.0
 10
248.4780955079335
 20
35.76780714638004
 30
0.0
 10
248.4853581895821
 20
35.77180375186787
 30
0.0
 10
248.4971518535478
 20
35.77198553025304
 30
0.0
 10
248.531210864315
 20
35.76226390074329
 30
0.0
 10
248.5533833518673
 20
35.7523002439676
 30
0.0
 10
248.5797396185308
 20
35.73708509508628
 30
0.0
  0
LINE
  5
1C0
330
1F
100
AcDbEntity
  8
0
  6
Continuous
 62
     7
370
    15
100
AcDbLine
 10
251.4739322209
 20
34.8203306654
 30
0.0
 11
251.4156853705
 21
34.7867054744
 31
0.0
  0
LINE
  5
1C1
330
1F
100
AcDbEntity
  8
0
  6
Continuous
 62
     7
370
    15
100
AcDbLine
 10
254.1675250926
 20
32.3504167403
 30
0.0
 11
252.4403423932
 21
33.3474980892
 31
0.0
  0
SPLINE
  5
1C2
330
1F
100
AcDbEntity
  8
0
  6
Continuous
 62
     7
370
    15
100
AcDbSpline
210
0.0
220
0.0
230
1.0
 70
     8
 71
     3
 72
     8
 73
     4
 74
     0
 42
0.000000001
 43
0.00000001
 40
0.0
 40
0.0
 40
0.0
 40
0.0
 40
0.0011901715795577
 40
0.0011901715795577
 40
0.0011901715795577
 40
0.0011901715795577
 10
252.4403423931937
 20
33.34749808917982
 30
0.0
 10
252.4281809263751
 20
33.40824834489064
 30
0.0
 10
252.416697479419
 20
33.4685120190207
 30
0.0
 10
252.4058366557765
 20
33.52832629023744
 30
0.0
  0
LINE
  5
1C3
330
1F
100
AcDbEntity
  8
0
  6
Continuous
 62
     7
370
    15
100
AcDbLine
 10
268.679955145
 20
25.0869451952
 30
0.0
 11
266.7340317689
 21
25.2609400682
 31
0.0
  0
SPLINE
  5
1C4
330
1F
100
AcDbEntity
  8
0
  6
Continuous
 62
     7
370
    15
100
AcDbSpline
210
0.0
220
0.0
230
1.0
 70
     8
 71
     3
 72
    16
 73
    12
 74
     0
 42
0.000000001
 43
0.00000001
 40
0.0
 40
0.0
 40
0.0
 40
0.0
 40
0.250000000000005
 40
0.250000000000005
 40
0.50000000000001
 40
0.50000000000001
 40
0.6250000000000107
 40
0.6250000000000107
 40
0.7500000000000114
 40
0.7500000000000114
 40
1.0
 40
1.0
 40
1.0
 40
1.0
 10
268.5836077487875
 20
24.77360056193442
 30
0.0
 10
268.614868807433
 20
24.7708053522184
 30
0.0
 10
268.6457989500632
 20
24.7714088729372
 30
0.0
 10
268.7024548619419
 20
24.78531311833741
 30
0.0
 10
268.7292960475263
 20
24.79822204097065
 30
0.0
 10
268.7546481380635
 20
24.84013212052937
 30
0.0
 10
268.7600827588205
 20
24.85826906944833
 30
0.0
 10
268.7612043601625
 20
24.9008983238358
 30
0.0
 10
268.7568415126499
 20
24.92544133537477
 30
0.0
 10
268.7335979503318
 20
24.99872130282893
 30
0.0
 10
268.707469782945
 20
25.04474535242061
 30
0.0
 10
268.6799551450463
 20
25.08694519519244
 30
0.0
  0
SPLINE
  5
1C5
330
1F
100
AcDbEntity
  8
0
  6
Continuous
 62
     7
370
    15
100
AcDbSpline
210
0.0
220
0.0
230
1.0
 70
     8
 71
     3
 72
     8
 73
     4
 74
     0
 42
0.000000001
 43
0.00000001
 40
0.0
 40
0.0
 40
0.0
 40
0.0
 40
1.0
 40
1.0
 40
1.0
 40
1.0
 10
268.6087953410296
 20
25.14505466212053
 30
0.0
 10
268.6477828317283
 20
25.12254766281519
 30
0.0
 10
268.6702004988518
 20
25.10269547549834
 30
0.0
 10
268.6799551450463
 20
25.08694519519246
 30
0.0
  0
LINE
  5
1C6
330
1F
100
AcDbEntity
  8
0
  6
Continuous
 62
     7
370
    15
100
AcDbLine
 10
251.1423272437
 20
34.7415637325
 30
0.0
 11
251.1423272437
 21
32.4822359749
 31
0.0
  0
LINE
  5
1C7
330
1F
100
AcDbEntity
  8
0
  6
Continuous
 62
     7
370
    15
100
AcDbLine
 10
251.1423272437
 20
32.4822359749
 30
0.0
 11
251.1423272437
 21
31.0164280124
 31
0.0
  0
SPLINE
  5
1C8
330
1F
100
AcDbEntity
  8
0
  6
Continuous
 62
     7
370
    15
100
AcDbSpline
210
0.0
220
0.0
230
1.0
 70
     8
 71
     3
 72
     8
 73
     4
 74
     0
 42
0.000000001
 43
0.00000001
 40
0.0
 40
0.0
 40
0.0
 40
0.0
 40
1.0
 40
1.0
 40
1.0
 40
1.0
 10
277.2336368675106
 20
30.12406969404306
 30
0.0
 10
277.2726243582092
 20
30.10156269473771
 30
0.0
 10
277.3233721383278
 20
30.09806513353497
 30
0.0
 10
277.3746090978499
 20
30.10626208298189
 30
0.0
  0
SPLINE
  5
1C9
330
1F
100
AcDbEntity
  8
0
  6
Continuous
 62
     7
370
    15
100
AcDbSpline
210
0.0
220
0.0
230
1.0
 70
     8
 71
     3
 72
    16
 73
    12
 74
     0
 42
0.000000001
 43
0.00000001
 40
0.0
 40
0.0
 40
0.0
 40
0.0
 40
0.2500000000000134
 40
0.2500000000000134
 40
0.3750000000000136
 40
0.3750000000000136
 40
0.5000000000000138
 40
0.5000000000000138
 40
0.7500000000000069
 40
0.7500000000000069
 40
1.0
 40
1.0
 40
1.0
 40
1.0
 10
277.3746090978499
 20
30.10626208298186
 30
0.0
 10
277.3907383204735
 20
30.05747301969991
 30
0.0
 10
277.4131446291951
 20
30.00834697860233
 30
0.0
 10
277.4674704514266
 20
29.95410738819822
 30
0.0
 10
277.4895369470893
 20
29.93978700438699
 30
0.0
 10
277.5378831363179
 20
29.92545190966218
 30
0.0
 10
277.563968101712
 20
29.92547124090118
 30
0.0
 10
277.6377057749565
 20
29.94093979335866
 30
0.0
 10
277.6811819329959
 20
29.96864042738268
 30
0.0
 10
277.7584895977107
 20
30.0320156071515
 30
0.0
 10
277.793143000139
 20
30.06923970738587
 30
0.0
 10
277.824509884702
 20
30.10825981358286
 30
0.0
  0
ARC
  5
1CA
330
1F
100
AcDbEntity
  8
0
  6
Continuous
 62
     7
370
    15
100
AcDbCircle
 10
261.4182351169
 20
33.7722761752
 30
0.0
 40
10.35656730472731
100
AcDbArc
 50
174.708209939
 51
187.1554930098
  0
LINE
  5
1CB
330
1F
100
AcDbEntity
  8
0
  6
Continuous
 62
     7
370
    15
100
AcDbLine
 10
248.9172572423
 20
35.3813318554
 30
0.0
 11
248.4780955079
 21
35.7678071464
 31
0.0
  0
LINE
  5
1CC
330
1F
100
AcDbEntity
  8
0
  6
Continuous
 62
     7
370
    15
100
AcDbLine
 10
250.2732088815
 20
34.5985576359
 30
0.0
 11
248.9172572423
 21
35.3813318554
 31
0.0
  0
LINE
  5
1CD
330
1F
100
AcDbEntity
  8
0
  6
Continuous
 62
     7
370
    15
100
AcDbLine
 10
250.1435389153
 20
34.5171294638
 30
0.0
 11
250.1442305626
 21
34.6379183666
 31
0.0
  0
ARC
  5
1CE
330
1F
100
AcDbEntity
  8
0
  6
Continuous
 62
     7
370
    15
100
AcDbCircle
 10
256.9166043537
 20
34.2155505724
 30
0.0
 40
6.779776195455424
100
AcDbArc
 50
177.4505204114
 51
211.1388398759
  0
LINE
  5
1CF
330
1F
100
AcDbEntity
  8
0
  6
Continuous
 62
     7
370
    15
100
AcDbLine
 10
236.8238595723
 20
58.3696903246
 30
0.0
 11
236.9365310676
 21
58.3325704687
 31
0.0
  0
SPLINE
  5
1D0
330
1F
100
AcDbEntity
  8
0
  6
Continuous
 62
     7
370
    15
100
AcDbSpline
210
0.0
220
0.0
230
1.0
 70
     8
 71
     3
 72
    10
 73
     6
 74
     0
 42
0.000000001
 43
0.00000001
 40
0.0
 40
0.0
 40
0.0
 40
0.0
 40
0.5
 40
0.5
 40
1.0
 40
1.0
 40
1.0
 40
1.0
 10
256.2270636880922
 20
26.91240558807139
 30
0.0
 10
256.3124004822051
 20
26.92702360037743
 30
0.0
 10
256.4025993293449
 20
26.93695562988898
 30
0.0
 10
256.5711113113358
 20
26.92738455254156
 30
0.0
 10
256.6493194599797
 20
26.90761327487485
 30
0.0
 10
256.712194957483
 20
26.87131602277493
 30
0.0
  0
SPLINE
  5
1D1
330
1F
100
AcDbEntity
  8
0
  6
Continuous
 62
     7
370
    15
100
AcDbSpline
210
0.0
220
0.0
230
1.0
 70
     8
 71
     3
 72
     8
 73
     4
 74
     0
 42
0.000000001
 43
0.00000001
 40
0.0
 40
0.0
 40
0.0
 40
0.0
 40
1.0
 40
1.0
 40
1.0
 40
1.0
 10
255.9957636348128
 20
26.83268284982569
 30
0.0
 10
256.0603682046714
 20
26.86997827414962
 30
0.0
 10
256.139459065331
 20
26.89739910151545
 30
0.0
 10
256.2270636880921
 20
26.91240558807146
 30
0.0
  0
LINE
  5
1D2
330
1F
100
AcDbEntity
  8
0
  6
Continuous
 62
     7
370
    15
100
AcDbLine
 10
254.1675250926
 20
25.7772632046
 30
0.0
 11
254.1196299162
 21
25.6550145194
 31
0.0
  0
LINE
  5
1D3
330
1F
100
AcDbEntity
  8
0
  6
Continuous
 62
     7
370
    15
100
AcDbLine
 10
254.1675250926
 20
25.7772632046
 30
0.0
 11
255.9957636348
 21
26.8326828498
 31
0.0
  0
LINE
  5
1D4
330
1F
100
AcDbEntity
  8
0
  6
Continuous
 62
     7
370
    15
100
AcDbLine
 10
252.4403423932
 20
26.7743445535
 30
0.0
 11
254.1675250926
 21
25.7772632046
 31
0.0
  0
SPLINE
  5
1D5
330
1F
100
AcDbEntity
  8
0
  6
Continuous
 62
     7
370
    15
100
AcDbSpline
210
0.0
220
0.0
230
1.0
 70
     8
 71
     3
 72
    14
 73
    10
 74
     0
 42
0.000000001
 43
0.00000001
 40
0.0
 40
0.0
 40
0.0
 40
0.0
 40
0.25
 40
0.25
 40
0.5
 40
0.5
 40
0.75
 40
0.75
 40
1.0
 40
1.0
 40
1.0
 40
1.0
 10
254.1196299162314
 20
25.65501451936247
 30
0.0
 10
254.1027217186933
 20
25.61185766981333
 30
0.0
 10
254.0821985278123
 20
25.57184169732432
 30
0.0
 10
254.03341509225
 20
25.4985320703394
 30
0.0
 10
254.0049581138742
 20
25.46524491173333
 30
0.0
 10
253.941595491366
 20
25.412322065403
 30
0.0
 10
253.9062764306251
 20
25.39225839897774
 30
0.0
 10
253.8314583535739
 20
25.37549940849571
 30
0.0
 10
253.7930888795093
 20
25.37969630410689
 30
0.0
 10
253.7592967907223
 20
25.39920406172932
 30
0.0
  0
LINE
  5
1D6
330
1F
100
AcDbEntity
  8
0
  6
Continuous
 62
     7
370
    15
100
AcDbLine
 10
253.7592967907
 20
25.3992040617
 30
0.0
 11
252.4058366558
 21
26.1805399664
 31
0.0
  0
SPLINE
  5
1D7
330
1F
100
AcDbEntity
  8
0
  6
Continuous
 62
     7
370
    15
100
AcDbSpline
210
0.0
220
0.0
230
1.0
 70
     8
 71
     3
 72
     8
 73
     4
 74
     0
 42
0.000000001
 43
0.00000001
 40
0.0
 40
0.0
 40
0.0
 40
0.0
 40
0.0011901715795577
 40
0.0011901715795577
 40
0.0011901715795577
 40
0.0011901715795577
 10
252.4058366557765
 20
26.18053996643117
 30
0.0
 10
252.416697479419
 20
26.37849515478933
 30
0.0
 10
252.4281809263751
 20
26.5764340672909
 30
0.0
 10
252.4403423931937
 20
26.77434455349952
 30
0.0
  0
ARC
  5
1D8
330
1F
100
AcDbEntity
  8
0
  6
Continuous
 62
     7
370
    15
100
AcDbCircle
 10
259.3638842829
 20
26.3491451372
 30
0.0
 40
5.547919706239921
100
AcDbArc
 50
212.4975230671
 51
267.2737051389
  0
SPLINE
  5
1D9
330
1F
100
AcDbEntity
  8
0
  6
Continuous
 62
     7
370
    15
100
AcDbSpline
210
0.0
220
0.0
230
1.0
 70
     8
 71
     3
 72
     8
 73
     4
 74
     0
 42
0.000000001
 43
0.00000001
 40
0.0
 40
0.0
 40
0.0
 40
0.0
 40
1.0
 40
1.0
 40
1.0
 40
1.0
 10
252.766259322551
 20
27.4338821919343
 30
0.0
 10
252.657185742164
 20
27.21410999187508
 30
0.0
 10
252.5485741766961
 20
26.99425691020541
 30
0.0
 10
252.4403423931937
 20
26.77434455349952
 30
0.0
  0
LINE
  5
1DA
330
1F
100
AcDbEntity
  8
0
  6
Continuous
 62
     7
370
    15
100
AcDbLine
 10
252.824506173
 20
27.467507383
 30
0.0
 11
252.7662593226
 21
27.4338821919
 31
0.0
  0
SPLINE
  5
1DB
330
1F
100
AcDbEntity
  8
0
  6
Continuous
 62
     7
370
    15
100
AcDbSpline
210
0.0
220
0.0
230
1.0
 70
     8
 71
     3
 72
    12
 73
     8
 74
     0
 42
0.000000001
 43
0.00000001
 40
0.0
 40
0.0
 40
0.0
 40
0.0
 40
0.2499999999999986
 40
0.2499999999999986
 40
0.4999999999999971
 40
0.4999999999999971
 40
1.0
 40
1.0
 40
1.0
 40
1.0
 10
252.8366053468392
 20
27.80105533207902
 30
0.0
 10
252.8746429543918
 20
27.77909668864178
 30
0.0
 10
252.9041163583034
 20
27.75283975203712
 30
0.0
 10
252.9429100683464
 20
27.6949717427378
 30
0.0
 10
252.951732271293
 20
27.66418960792867
 30
0.0
 10
252.9466229986062
 20
27.57120962454193
 30
0.0
 10
252.8999992568369
 20
27.51108861261262
 30
0.0
 10
252.8245061729836
 20
27.46750738295669
 30
0.0
  0
LINE
  5
1DC
330
1F
100
AcDbEntity
  8
0
  6
Continuous
 62
     7
370
    15
100
AcDbLine
 10
252.0517168197
 20
28.2541618341
 30
0.0
 11
252.8366053468
 21
27.8010553321
 31
0.0
  0
SPLINE
  5
1DD
330
1F
100
AcDbEntity
  8
0
  6
Continuous
 62
     7
370
    15
100
AcDbSpline
210
0.0
220
0.0
230
1.0
 70
     8
 71
     3
 72
    12
 73
     8
 74
     0
 42
0.000000001
 43
0.00000001
 40
0.0
 40
0.0
 40
0.0
 40
0.0
 40
0.5
 40
0.5
 40
0.75
 40
0.75
 40
1.0
 40
1.0
 40
1.0
 40
1.0
 10
251.4739322209173
 20
28.24717712974737
 30
0.0
 10
251.5491763582227
 20
28.29061464562029
 30
0.0
 10
251.653892460634
 20
28.3176237014558
 30
0.0
 10
251.81391476701
 20
28.32063784448301
 30
0.0
 10
251.8685501206957
 20
28.3154204932008
 30
0.0
 10
251.9681153796737
 20
28.29312972353394
 30
0.0
 10
252.0140955173077
 20
28.27588014973712
 30
0.0
 10
252.0517168197222
 20
28.25416183414062
 30
0.0
  0
LINE
  5
1DE
330
1F
100
AcDbEntity
  8
0
  6
Continuous
 62
     7
370
    15
100
AcDbLine
 10
251.4156853705
 20
28.2135519387
 30
0.0
 11
251.4739322209
 21
28.2471771297
 31
0.0
  0
SPLINE
  5
1DF
330
1F
100
AcDbEntity
  8
0
  6
Continuous
 62
     7
370
    15
100
AcDbSpline
210
0.0
220
0.0
230
1.0
 70
     8
 71
     3
 72
     8
 73
     4
 74
     0
 42
0.000000001
 43
0.00000001
 40
0.0
 40
0.0
 40
0.0
 40
0.0
 40
1.0
 40
1.0
 40
1.0
 40
1.0
 10
250.2732088815048
 20
28.02540410024632
 30
0.0
 10
250.6541495322445
 20
28.08788497891935
 30
0.0
 10
251.0349875044843
 20
28.15058510105439
 30
0.0
 10
251.4156853704848
 20
28.21355193872499
 30
0.0
  0
LINE
  5
1E0
330
1F
100
AcDbEntity
  8
0
  6
Continuous
 62
     7
370
    15
100
AcDbLine
 10
248.9172572423
 20
28.8081783198
 30
0.0
 11
250.2732088815
 21
28.0254041002
 31
0.0
  0
LINE
  5
1E1
330
1F
100
AcDbEntity
  8
0
  6
Continuous
 62
     7
370
    15
100
AcDbLine
 10
248.9172572423
 20
28.8081783198
 30
0.0
 11
250.9301952094
 21
29.9702226734
 31
0.0
  0
SPLINE
  5
1E2
330
1F
100
AcDbEntity
  8
0
  6
Continuous
 62
     7
370
    15
100
AcDbSpline
210
0.0
220
0.0
230
1.0
 70
     8
 71
     3
 72
    30
 73
    26
 74
     0
 42
0.000000001
 43
0.00000001
 40
0.0
 40
0.0
 40
0.0
 40
0.0
 40
0.1250000000000002
 40
0.1250000000000002
 40
0.1875000000000002
 40
0.1875000000000002
 40
0.2500000000000003
 40
0.2500000000000003
 40
0.3125000000000004
 40
0.3125000000000004
 40
0.3750000000000005
 40
0.3750000000000005
 40
0.4375000000000005
 40
0.4375000000000005
 40
0.5000000000000006
 40
0.5000000000000006
 40
0.6250000000000006
 40
0.6250000000000006
 40
0.6875000000000004
 40
0.6875000000000004
 40
0.7500000000000003
 40
0.7500000000000003
 40
0.8750000000000001
 40
0.8750000000000001
 40
1.0
 40
1.0
 40
1.0
 40
1.0
 10
279.3205324740084
 20
32.52697226337629
 30
0.0
 10
279.433822564407
 20
32.66790405880349
 30
0.0
 10
279.5361207315338
 20
32.81769448048932
 30
0.0
 10
279.6719954214436
 20
33.05616100424503
 30
0.0
 10
279.7146467216565
 20
33.13858552233146
 30
0.0
 10
279.7920916454388
 20
33.3041838349554
 30
0.0
 10
279.8269701986839
 20
33.38745880528597
 30
0.0
 10
279.8892319007074
 20
33.55492606379951
 30
0.0
 10
279.9166359344828
 20
33.63910694419418
 30
0.0
 10
279.9637976450059
 20
33.80837376570546
 30
0.0
 10
279.9833510826091
 20
33.89291793198961
 30
0.0
 10
280.0140280314766
 20
34.05794526884206
 30
0.0
 10
280.0252748149456
 20
34.13900556961557
 30
0.0
 10
280.0397442309825
 20
34.29813167693665
 30
0.0
 10
280.0429951142484
 20
34.37666392164149
 30
0.0
 10
280.0404774071612
 20
34.60375255393315
 30
0.0
 10
280.0229870021436
 20
34.74206767036156
 30
0.0
 10
279.9737806387038
 20
34.9297629896375
 30
0.0
 10
279.9534160443654
 20
34.98899331448422
 30
0.0
 10
279.9059455777
 20
35.09731061966337
 30
0.0
 10
279.8787245566157
 20
35.14689871648137
 30
0.0
 10
279.786699663147
 20
35.28206128977016
 30
0.0
 10
279.7104609992685
 20
35.35434990466489
 30
0.0
 10
279.5347758258569
 20
35.45597626881897
 30
0.0
 10
279.4338327875851
 20
35.48685086748397
 30
0.0
 10
279.3205324745052
 20
35.49698162563283
 30
0.0
  0
LINE
  5
1E3
330
1F
100
AcDbEntity
  8
0
  6
Continuous
 62
     7
370
    15
100
AcDbLine
 10
279.3205324745
 20
35.4969816256
 30
0.0
 11
277.3746090978
 21
35.6709764989
 31
0.0
  0
ARC
  5
1E4
330
1F
100
AcDbEntity
  8
0
  6
Continuous
 62
     7
370
    15
100
AcDbCircle
 10
258.6326834386
 20
27.7766241343
 30
0.0
 40
6.428149463702719
100
AcDbArc
 50
194.3767045206
 51
238.0811542583
  0
ELLIPSE
  5
1E5
330
1F
100
AcDbEntity
  8
0
  6
Continuous
 62
     7
370
    15
100
AcDbEllipse
 10
250.6958806343
 20
30.7587222478
 30
0.0
 11
-6.005970382716441E-5
 21
0.8534489614827194
 31
0.0
210
0.0
220
0.0
230
1.0
 40
0.7174342186
 41
3.534193645557539
 42
5.104989972352363
  0
ARC
  5
1E6
330
1F
100
AcDbEntity
  8
0
  6
Continuous
 62
     7
370
    15
100
AcDbCircle
 10
258.074669868
 20
30.0773718634
 30
0.0
 40
6.914904138900522
100
AcDbArc
 50
195.6366952156
 51
215.4285397018
  0
ARC
  5
1E7
330
1F
100
AcDbEntity
  8
0
  6
Continuous
 62
     7
370
    15
100
AcDbCircle
 10
255.7774408469
 20
28.9867962522
 30
0.0
 40
6.019570994993693
100
AcDbArc
 50
193.141875593
 51
253.691584192
  0
SPLINE
  5
1E8
330
1F
100
AcDbEntity
  8
0
  6
Continuous
 62
     7
370
    15
100
AcDbSpline
210
0.0
220
0.0
230
1.0
 70
     8
 71
     3
 72
     8
 73
     4
 74
     0
 42
0.000000001
 43
0.00000001
 40
0.0
 40
0.0
 40
0.0
 40
0.0
 40
0.0011901715795577
 40
0.0011901715795577
 40
0.0011901715795577
 40
0.0011901715795577
 10
250.2732088815048
 20
28.02540410024632
 30
0.0
 10
250.1544117655898
 20
27.88905306393128
 30
0.0
 10
250.0351685914418
 20
27.75332251779536
 30
0.0
 10
249.9155220839469
 20
27.61816796797595
 30
0.0
  0
LINE
  5
1E9
330
1F
100
AcDbEntity
  8
0
  6
Continuous
 62
     7
370
    15
100
AcDbLine
 10
248.4780955079
 20
28.5546036381
 30
0.0
 11
248.9172572423
 21
28.8081783198
 31
0.0
  0
LINE
  5
1EA
330
1F
100
AcDbEntity
  8
0
  6
Continuous
 62
     7
370
    15
100
AcDbLine
 10
249.9155220839
 20
27.618167968
 30
0.0
 11
248.5797396185
 21
28.3892987713
 31
0.0
  0
SPLINE
  5
1EB
330
1F
100
AcDbEntity
  8
0
  6
Continuous
 62
     7
370
    15
100
AcDbSpline
210
0.0
220
0.0
230
1.0
 70
     8
 71
     3
 72
    10
 73
     6
 74
     0
 42
0.000000001
 43
0.00000001
 40
0.0
 40
0.0
 40
0.0
 40
0.0
 40
0.5
 40
0.5
 40
1.0
 40
1.0
 40
1.0
 40
1.0
 10
248.5797396185308
 20
28.38929877128001
 30
0.0
 10
248.553435366154
 20
28.40448389295278
 30
0.0
 10
248.5312372520354
 20
28.42811354388665
 30
0.0
 10
248.4972253656036
 20
28.48555593669655
 30
0.0
 10
248.4853544851975
 20
28.51919421484716
 30
0.0
 10
248.4780955079334
 20
28.55460363809028
 30
0.0
  0
ARC
  5
1EC
330
1F
100
AcDbEntity
  8
0
  6
Continuous
 62
     7
370
    15
100
AcDbCircle
 10
254.2941291951
 20
29.4354890525
 30
0.0
 40
5.692283240051987
100
AcDbArc
 50
212.7203202246
 51
239.5330997301
  0
ARC
  5
1ED
330
1F
100
AcDbEntity
  8
0
  6
Continuous
 62
     7
370
    15
100
AcDbCircle
 10
272.0611055334
 20
37.3446785248
 30
0.0
 40
3.391510922047656
100
AcDbArc
 50
320.7905073233
 51
350.5847266219
  0
LINE
  5
1EE
330
1F
100
AcDbEntity
  8
0
  6
Continuous
 62
     7
370
    15
100
AcDbLine
 10
277.3746090978
 20
30.106262083
 30
0.0
 11
279.320532474
 21
32.5269722634
 31
0.0
  0
LINE
  5
1EF
330
1F
100
AcDbEntity
  8
0
  6
Continuous
 62
     7
370
    15
100
AcDbLine
 10
272.7081534679
 20
32.7365756519
 30
0.0
 11
274.6889830572
 21
35.2007088296
 31
0.0
  0
ELLIPSE
  5
1F0
330
1F
100
AcDbEntity
  8
0
  6
Continuous
 62
     7
370
    15
100
AcDbEllipse
 10
250.5766418188
 20
30.6898647677
 30
0.0
 11
0.2600075789208915
 21
0.9705436209909344
 31
0.0
210
0.0
220
0.0
230
1.0
 40
0.5176380889
 41
3.619174351347668
 42
5.189970678142601
  0
SPLINE
  5
1F1
330
1F
100
AcDbEntity
  8
0
  6
Continuous
 62
     7
370
    15
100
AcDbSpline
210
0.0
220
0.0
230
1.0
 70
     8
 71
     3
 72
    12
 73
     8
 74
     0
 42
0.000000001
 43
0.00000001
 40
0.0
 40
0.0
 40
0.0
 40
0.0
 40
0.5000000000000003
 40
0.5000000000000003
 40
0.7500000000000001
 40
0.7500000000000001
 40
1.0
 40
1.0
 40
1.0
 40
1.0
 10
268.0320720556473
 20
51.02946880313203
 30
0.0
 10
268.0938591081774
 20
51.06513770932364
 30
0.0
 10
268.1743368065816
 20
51.09121886705927
 30
0.0
 10
268.3044793287405
 20
51.10293735314083
 30
0.0
 10
268.3496083229198
 20
51.10210924471715
 30
0.0
 10
268.4341969104871
 20
51.08871209370304
 30
0.0
 10
268.4745039071622
 20
51.07564654370876
 30
0.0
 10
268.5054154457777
 20
51.05780169230439
 30
0.0
  0
LINE
  5
1F2
330
1F
100
AcDbEntity
  8
0
  6
Continuous
 62
     7
370
    15
100
AcDbLine
 10
268.5054154458
 20
51.0578016923
 30
0.0
 11
269.6570787113
 21
50.3929606407
 31
0.0
  0
SPLINE
  5
1F3
330
1F
100
AcDbEntity
  8
0
  6
Continuous
 62
     7
370
    15
100
AcDbSpline
210
0.0
220
0.0
230
1.0
 70
     8
 71
     3
 72
     9
 73
     5
 74
     0
 42
0.000000001
 43
0.00000001
 40
0.0
 40
0.0
 40
0.0
 40
0.0
 40
0.8664449205980795
 40
1.0
 40
1.0
 40
1.0
 40
1.0
 10
271.2241598294224
 20
48.61264678631927
 30
0.0
 10
271.5433364967721
 20
48.68193693846216
 30
0.0
 10
271.9117115195368
 20
48.76190757536664
 30
0.0
 10
272.2820516742543
 20
48.83877663419955
 30
0.0
 10
272.3315124830233
 20
48.84904288745552
 30
0.0
  0
LINE
  5
1F4
330
1F
100
AcDbEntity
  8
0
  6
Continuous
 62
     7
370
    15
100
AcDbLine
 10
272.331512483
 20
48.8490428875
 30
0.0
 11
273.684972618
 21
48.0677069828
 31
0.0
  0
SPLINE
  5
1F5
330
1F
100
AcDbEntity
  8
0
  6
Continuous
 62
     7
370
    15
100
AcDbSpline
210
0.0
220
0.0
230
1.0
 70
     8
 71
     3
 72
    14
 73
    10
 74
     0
 42
0.000000001
 43
0.00000001
 40
0.0
 40
0.0
 40
0.0
 40
0.0
 40
0.25
 40
0.25
 40
0.5
 40
0.5
 40
0.75
 40
0.75
 40
1.0
 40
1.0
 40
1.0
 40
1.0
 10
273.6849726179691
 20
48.06770698275369
 30
0.0
 10
273.7162347061272
 20
48.04965976340591
 30
0.0
 10
273.7385020782233
 20
48.02657044796559
 30
0.0
 10
273.7616554762116
 20
47.97795909469689
 30
0.0
 10
273.7631756462076
 20
47.95195931313177
 30
0.0
 10
273.7497304754366
 20
47.90182638374435
 30
0.0
 10
273.7350309697886
 20
47.87763606863295
 30
0.0
 10
273.6933859748129
 20
47.83268562586036
 30
0.0
 10
273.6670736912953
 20
47.8124517187786
 30
0.0
 10
273.6358932965507
 20
47.79445166003454
 30
0.0
  0
LINE
  5
1F6
330
1F
100
AcDbEntity
  8
0
  6
Continuous
 62
     7
370
    15
100
AcDbLine
 10
273.6358932966
 20
47.79445166
 30
0.0
 11
271.248727181
 21
46.4163699948
 31
0.0
  0
LINE
  5
1F7
330
1F
100
AcDbEntity
  8
0
  6
Continuous
 62
     7
370
    15
100
AcDbLine
 10
268.0320720556
 20
51.0294688031
 30
0.0
 11
267.5246584455
 21
50.736545161
 31
0.0
  0
LINE
  5
1F8
330
1F
100
AcDbEntity
  8
0
  6
Continuous
 62
     7
370
    15
100
AcDbLine
 10
275.2414237203
 20
44.5161194638
 30
0.0
 11
275.3467872188
 21
44.698614396
 31
0.0
  0
LINE
  5
1F9
330
1F
100
AcDbEntity
  8
0
  6
Continuous
 62
     7
370
    15
100
AcDbLine
 10
275.2414237203
 20
44.5161194638
 30
0.0
 11
274.3909036327
 21
44.0251246684
 31
0.0
  0
SPLINE
  5
1FA
330
1F
100
AcDbEntity
  8
0
  6
Continuous
 62
     7
370
    15
100
AcDbSpline
210
0.0
220
0.0
230
1.0
 70
     8
 71
     3
 72
    10
 73
     6
 74
     0
 42
0.000000001
 43
0.00000001
 40
0.0
 40
0.0
 40
0.0
 40
0.0
 40
0.4052123606403734
 40
0.8115423382917422
 40
0.9999999999999999
 40
0.9999999999999999
 40
0.9999999999999999
 40
0.9999999999999999
 10
275.3467872188369
 20
44.69861439600874
 30
0.0
 10
275.3651069095064
 20
44.73754084317353
 30
0.0
 10
275.4017968184206
 20
44.81550110061382
 30
0.0
 10
275.4158115720809
 20
44.92305673419865
 30
0.0
 10
275.3977202696395
 20
44.97621450777748
 30
0.0
 10
275.3919880648496
 20
44.99305747667488
 30
0.0
  0
LWPOLYLINE
  5
1FB
330
1F
100
AcDbEntity
  8
0
  6
Continuous
 62
     7
370
     0
100
AcDbPolyline
 90
       22
 70
   128
 43
0.0
 10
271.1634353366
 20
45.8827311752
 10
270.6166405806
 20
46.1169747219
 10
269.9293188224
 20
46.295764166
 10
269.1973455455
 20
46.3699700834
 10
268.4274745468
 20
46.3389077885
 10
267.626809299
 20
46.2028638878
 10
266.8027374084
 20
45.9630936361
 10
265.9628624505
 20
45.6218093539
 10
265.1149338131
 20
45.1821600151
 10
264.266775194
 20
44.6482021917
 10
263.4262124129
 20
44.0248626243
 10
262.6010012041
 20
43.3178927646
 10
261.7987556553
 20
42.5338157068
 10
261.0268779541
 20
41.6798660008
 10
260.2924900887
 20
40.7639228997
 10
259.602368135
 20
39.7944376595
 10
258.9628797343
 20
38.7803555608
 10
258.3799253409
 20
37.7310333719
 10
257.8588837788
 20
36.6561530157
 10
257.4045626126
 20
35.565632236
 10
257.0211537888
 20
34.4695330884
 10
256.7121949575
 20
33.377969099
  0
ARC
  5
1FC
330
1F
100
AcDbEntity
  8
0
  6
Continuous
 62
     7
370
     0
100
AcDbCircle
 10
261.3946916997
 20
28.318192946
 30
0.0
 40
4.900941600541122
100
AcDbArc
 50
197.170986273
 51
238.5898982317
  0
LWPOLYLINE
  5
1FD
330
1F
100
AcDbEntity
  8
0
  6
Continuous
 62
     7
370
     0
100
AcDbPolyline
 90
       18
 70
   128
 43
0.0
 10
268.5836077488
 20
24.7736005619
 10
268.932856779
 20
24.320672474
 10
269.3512534501
 20
23.964171518
 10
269.8320242257
 20
23.7098691839
 10
270.3673857781
 20
23.5618824409
 10
270.9486709949
 20
23.5226070861
 10
271.5664692929
 20
23.5926789588
 10
272.2107789692
 20
23.7709636467
 10
272.8711691205
 20
24.0545748508
 10
273.5369485129
 20
24.438921113
 10
274.1973386643
 20
24.917780148
 10
274.8416483406
 20
25.4833995779
 10
275.4594466386
 20
26.1266224372
 10
276.0407318554
 20
26.8370354177
 10
276.5760934078
 20
27.6031374522
 10
277.0568641834
 20
28.4125259084
 10
277.4752608545
 20
29.2520973785
 10
277.8245098847
 20
30.1082598136
  0
LWPOLYLINE
  5
1FE
330
1F
100
AcDbEntity
  8
0
  6
Continuous
 62
     7
370
     0
100
AcDbPolyline
 90
       18
 70
   128
 43
0.0
 10
277.8244629783
 20
35.7802939293
 10
277.4752099446
 20
36.2332008716
 10
277.0568125423
 20
36.5896832269
 10
276.5760440798
 20
36.8439700106
 10
276.0406875718
 20
36.9919446513
 10
275.4594097422
 20
37.0312116322
 10
274.8416207214
 20
36.9611352723
 10
274.1973217081
 20
36.7828500165
 10
273.5369430635
 20
36.4992420705
 10
272.8711754569
 20
36.1149026774
 10
272.2107967979
 20
35.6360537908
 10
271.5664977561
 20
35.0704473501
 10
270.9487086931
 20
34.427239786
 10
270.3674308084
 20
33.7168437905
 10
269.8320742332
 20
32.9507597488
 10
269.3513056925
 20
32.1413895627
 10
268.9329082022
 20
31.3018358804
 10
268.5836550723
 20
30.4456899816
  0
LWPOLYLINE
  5
1FF
330
1F
100
AcDbEntity
  8
0
  6
Continuous
 62
     7
370
     0
100
AcDbPolyline
 90
       23
 70
   128
 43
0.0
 10
253.7592967907
 20
32.7469903855
 10
254.0737791182
 20
33.9869109777
 10
254.4661317869
 20
35.2365235282
 10
254.9334312516
 20
36.4865167748
 10
255.4721955149
 20
37.7275766184
 10
256.078410072
 20
38.9504555258
 10
256.7475578247
 20
40.1460414356
 10
257.4746527394
 20
41.3054256554
 10
258.2542769996
 20
42.4199692429
 10
259.0806213758
 20
43.4813673779
 10
259.9475285123
 20
44.4817112439
 10
260.848538807
 20
45.4135469591
 10
261.7769385444
 20
46.2699311181
 10
262.7258099215
 20
47.0444825288
 10
263.6880825946
 20
47.7314297615
 10
264.6565863627
 20
48.3256541527
 10
265.6241045948
 20
48.8227279467
 10
266.5834280035
 20
49.218947288
 10
267.5274083637
 20
49.5113598196
 10
268.4490117762
 20
49.6977866825
 10
269.3413710796
 20
49.7768387504
 10
270.1978370196
 20
49.7479269811
 10
271.0120277951
 20
49.6112668056
  0
LWPOLYLINE
  5
200
330
1F
100
AcDbEntity
  8
0
  6
Continuous
 62
     7
370
     0
100
AcDbPolyline
 90
       23
 70
   128
 43
0.0
 10
254.1196299162
 20
32.417366832
 10
254.4172794945
 20
33.6512218379
 10
254.7944285786
 20
34.8967402572
 10
255.2481715911
 20
36.1443265464
 10
255.7750128704
 20
37.384369231
 10
256.3708936017
 20
38.6073149527
 10
257.0312230867
 20
39.8037420694
 10
257.75091411
 20
40.9644332396
 10
258.5244221318
 20
42.0804464337
 10
259.345788003
 20
43.1431838236
 10
260.208683875
 20
44.1444580211
 10
261.1064619498
 20
45.0765551538
 10
262.0322056949
 20
45.9322942931
 10
262.9787831287
 20
46.7050827771
 10
263.9389017657
 20
47.3889669998
 10
264.9051647983
 20
47.9786782792
 10
265.8701280821
 20
48.4696734465
 10
266.8263574859
 20
48.8581698474
 10
267.7664861649
 20
49.141174484
 10
268.6832713153
 20
49.3165070728
 10
269.569649973
 20
49.3828168416
 10
270.4187934273
 20
49.3395929363
 10
271.2241598294
 20
49.1871683564
  0
LWPOLYLINE
  5
201
330
1F
100
AcDbEntity
  8
0
  6
Continuous
 62
     7
370
     0
100
AcDbPolyline
 90
       23
 70
   128
 43
0.0
 10
255.9957636348
 20
33.4058363855
 10
256.296767845
 20
34.4998640142
 10
256.6702530661
 20
35.5996052251
 10
257.113011764
 20
36.6956153135
 10
257.6212414757
 20
37.7784816178
 10
258.1905774655
 20
38.838904357
 10
258.8161302102
 20
39.8677764978
 10
259.4925273903
 20
40.8562619672
 10
260.2139600286
 20
41.7958715376
 10
260.9742323781
 20
42.6785357333
 10
261.7668151318
 20
43.4966741319
 10
262.5849014974
 20
44.2432604662
 10
263.4214656545
 20
44.9118829665
 10
264.2693230932
 20
45.4967994251
 10
265.1211923157
 20
45.992986512
 10
265.9697573707
 20
46.396182915
 10
266.807730683
 20
46.7029259367
 10
267.6279156411
 20
46.9105812326
 10
268.4232684015
 20
47.0173654349
 10
269.1869583826
 20
47.0223614685
 10
269.9124269266
 20
46.925526427
 10
270.5934436256
 20
46.7276919408
 10
271.2241598294
 20
46.4305570354
  0
LINE
  5
202
330
1F
100
AcDbEntity
  8
0
  6
Continuous
 62
     7
370
     0
100
AcDbLine
 10
266.7340317689
 20
25.2609400682
 30
0.0
 11
266.8224201165
 21
24.9310772756
 31
0.0
  0
ARC
  5
203
330
1F
100
AcDbEntity
  8
0
  6
Continuous
 62
     7
370
     0
100
AcDbCircle
 10
275.1855100968
 20
34.3799871023
 30
0.0
 40
2.455966793787456
100
AcDbArc
 50
33.4944674934
 51
59.3707436645
  0
ARC
  5
204
330
1F
100
AcDbEntity
  8
0
  6
Continuous
 62
     7
370
     0
100
AcDbCircle
 10
268.860683523
 20
42.3952657268
 30
0.0
 40
4.676754435146783
100
AcDbArc
 50
33.2575769155
 51
59.2948733967
  0
LWPOLYLINE
  5
205
330
1F
100
AcDbEntity
  8
0
  6
Continuous
 62
     7
370
     0
100
AcDbPolyline
 90
       15
 70
   128
 43
0.0
 10
269.42150054
 20
24.3778494188
 10
269.8822309215
 20
24.1741750718
 10
270.4238153327
 20
24.0635673276
 10
271.0089930949
 20
24.0642666739
 10
271.6275496442
 20
24.1762609031
 10
272.2686877738
 20
24.3975951015
 10
272.9212161043
 20
24.7244057722
 10
273.5737444348
 20
25.1509882754
 10
274.2148825644
 20
25.669896405
 10
274.8334391137
 20
26.272072366
 10
275.4186168758
 20
26.9470048827
 10
275.960201287
 20
27.6829126782
 10
276.4487387266
 20
28.4669501222
 10
276.875701535
 20
29.2854314581
 10
277.2336368675
 20
30.124069694
  0
LWPOLYLINE
  5
206
330
1F
100
AcDbEntity
  8
0
  6
Continuous
 62
     7
370
     0
100
AcDbPolyline
 90
       23
 70
   128
 43
0.0
 10
248.5797396185
 20
35.7370850951
 10
248.894221946
 20
36.9770056873
 10
249.2865746147
 20
38.2266182378
 10
249.7538740794
 20
39.4766114843
 10
250.2926383427
 20
40.7176713279
 10
250.8988528998
 20
41.9405502353
 10
251.5680006525
 20
43.1361361452
 10
252.2950955672
 20
44.2955203649
 10
253.0747198274
 20
45.4100639524
 10
253.9010642036
 20
46.4714620874
 10
254.7679713401
 20
47.4718059534
 10
255.6689816348
 20
48.4036416686
 10
256.5973813722
 20
49.2600258276
 10
257.5462527493
 20
50.0345772384
 10
258.5085254224
 20
50.721524471
 10
259.4770291905
 20
51.3157488622
 10
260.4445474226
 20
51.8128226563
 10
261.4038708313
 20
52.2090419976
 10
262.3478511915
 20
52.5014545292
 10
263.269454604
 20
52.687881392
 10
264.1618139074
 20
52.7669334599
 10
265.0182798474
 20
52.7380216907
 10
265.8324706229
 20
52.6013615151
  0
LWPOLYLINE
  5
207
330
1F
100
AcDbEntity
  8
0
  6
Continuous
 62
     7
370
     0
100
AcDbPolyline
 90
       19
 70
   128
 43
0.0
 10
252.0517168197
 20
34.8273153698
 10
252.3482154068
 20
35.9759247811
 10
252.7201046621
 20
37.1330573006
 10
253.1643321263
 20
38.2892152086
 10
253.6772515896
 20
39.4349087847
 10
254.2546530195
 20
40.5607341996
 10
254.891797117
 20
41.6574507017
 10
255.5834542165
 20
42.7160564643
 10
256.3239472107
 20
43.7278624732
 10
257.1071981484
 20
44.6845638455
 10
257.9267781221
 20
45.5783079961
 10
258.7759600362
 20
46.4017590913
 10
259.647773823
 20
47.1481582616
 10
260.5350636529
 20
47.811379078
 10
261.4305466693
 20
48.3859778376
 10
262.3268727661
 20
48.8672382456
 10
263.2166849171
 20
49.2512101266
 10
264.0926795625
 20
49.5347418473
 10
264.1617384562
 20
49.5529561347
  0
LWPOLYLINE
  5
208
330
1F
100
AcDbEntity
  8
0
  6
Continuous
 62
     7
370
     0
100
AcDbPolyline
 90
       22
 70
   128
 43
0.0
 10
251.4739322209
 20
34.8203306654
 10
251.7690183144
 20
35.9912222313
 10
252.1407208232
 20
37.1717005631
 10
252.5860361284
 20
38.3522265617
 10
253.1013657677
 20
39.5232607427
 10
253.6825455132
 20
40.6753403223
 10
254.3248790221
 20
41.7991556836
 10
255.0231757856
 20
42.885625604
 10
255.7717930723
 20
43.9259706389
 10
256.5646815257
 20
44.9117840652
 10
257.3954340466
 20
45.8350998138
 10
258.2573375676
 20
46.6884568409
 10
259.1434272992
 20
47.4649594187
 10
260.0465430101
 20
48.1583328576
 10
260.9593868872
 20
48.7629742102
 10
261.8745825068
 20
49.2739975471
 10
262.7847344417
 20
49.6872734387
 10
263.6824880209
 20
49.9994623236
 10
264.5605887612
 20
50.208041495
 10
265.4119409879
 20
50.3113254859
 10
266.2296651735
 20
50.3084796886
 10
266.2348507132
 20
50.3081139686
  0
LINE
  5
209
330
1F
100
AcDbEntity
  8
0
  6
Continuous
 62
     7
370
     0
100
AcDbLine
 10
266.1883470192
 20
25.5759571688
 30
0.0
 11
266.7340317689
 21
25.2609400682
 31
0.0
  0
ARC
  5
20A
330
1F
100
AcDbEntity
  8
0
  6
Continuous
 62
     7
370
     0
100
AcDbCircle
 10
255.4953436277
 20
27.982767231
 30
0.0
 40
1.252423996395845
100
AcDbArc
 50
313.5748545626
 51
357.086259486
  0
ARC
  5
20B
330
1F
100
AcDbEntity
  8
0
  6
Continuous
 62
     7
370
     0
100
AcDbCircle
 10
257.641329757
 20
29.0048490904
 30
0.0
 40
1.407193341570152
100
AcDbArc
 50
230.4949217231
 51
321.8784003627
  0
LWPOLYLINE
  5
20C
330
1F
100
AcDbEntity
  8
0
  6
Continuous
 62
     7
370
     0
100
AcDbPolyline
 90
        3
 70
   128
 43
0.0
 10
257.4176743767
 20
32.6813636282
 10
257.1910362337
 20
32.8783644895
 10
256.7461484846
 20
33.1857916891
  0
LWPOLYLINE
  5
20D
330
1F
100
AcDbEntity
  8
0
  6
Continuous
 62
     7
370
     0
100
AcDbPolyline
 90
        3
 70
   128
 43
0.0
 10
256.7252534986
 20
33.3496303475
 10
256.7392531901
 20
33.2834931752
 10
256.7461484846
 20
33.1857916891
  0
LINE
  5
20E
330
1F
100
AcDbEntity
  8
0
  6
Continuous
 62
     7
370
     0
100
AcDbLine
 10
258.1925709144
 20
26.73990572
 30
0.0
 11
257.9638061282
 21
26.6349938441
 31
0.0
  0
LINE
  5
20F
330
1F
100
AcDbEntity
  8
0
  6
Continuous
 62
     7
370
     0
100
AcDbLine
 10
256.7461484846
 20
33.1857916891
 30
0.0
 11
256.234956263
 21
33.4808966772
 31
0.0
  0
LINE
  5
210
330
1F
100
AcDbEntity
  8
0
  6
Continuous
 62
     7
370
     0
100
AcDbLine
 10
251.2615660593
 20
31.0852854925
 30
0.0
 11
256.7461484846
 21
27.9191034525
 31
0.0
  0
LINE
  5
211
330
1F
100
AcDbEntity
  8
0
  6
Continuous
 62
     7
370
     0
100
AcDbLine
 10
251.1423272437
 20
31.0164280124
 30
0.0
 11
251.2615660593
 21
31.0852854925
 31
0.0
  0
LWPOLYLINE
  5
212
330
1F
100
AcDbEntity
  8
0
  6
Continuous
 62
     7
370
     0
100
AcDbPolyline
 90
        3
 70
   128
 43
0.0
 10
251.0634838859
 20
33.8652262034
 10
251.0627777308
 20
33.9864641912
 10
251.0875837017
 20
34.7212136755
  0
LWPOLYLINE
  5
213
330
1F
100
AcDbEntity
  8
0
  6
Continuous
 62
     7
370
     0
100
AcDbPolyline
 90
       18
 70
   128
 43
0.0
 10
229.7908948724
 20
50.2784275685
 10
229.8300011929
 20
50.9755938886
 10
229.9466223012
 20
51.7054704558
 10
230.1386770907
 20
52.4550326054
 10
230.4027383393
 20
53.2109043831
 10
230.7340938678
 20
53.9595972391
 10
231.1268306288
 20
54.6877507318
 10
231.5739402255
 20
55.3823709447
 10
232.0674439767
 20
56.0310623636
 10
232.5985352961
 20
56.622249075
 10
233.1577368466
 20
57.1453813379
 10
233.7350696634
 20
57.5911238446
 10
234.3202312285
 20
57.9515223096
 10
234.90277932
 20
58.2201454137
 10
235.4723183534
 20
58.3921995713
 10
236.0186848912
 20
58.4646144719
 10
236.5321290095
 20
58.4360978698
 10
236.8238595723
 20
58.3696903246
  0
ARC
  5
214
330
1F
100
AcDbEntity
  8
0
  6
Continuous
 62
     7
370
     0
100
AcDbCircle
 10
233.0562153927
 20
50.0030331799
 30
0.0
 40
3.276913207538934
100
AcDbArc
 50
175.1791309351
 51
225.8020354417
  0
ARC
  5
215
330
1F
100
AcDbEntity
  8
0
  6
Continuous
 62
     7
370
     0
100
AcDbCircle
 10
260.6120705369
 20
28.078063568
 30
0.0
 40
4.781345265445704
100
AcDbArc
 50
195.097750002
 51
265.9270146842
  0
LWPOLYLINE
  5
216
330
1F
100
AcDbEntity
  8
0
  6
Continuous
 62
     7
370
     0
100
AcDbPolyline
 90
       15
 70
   128
 43
0.0
 10
263.1330542976
 20
21.6574112266
 10
262.8242140925
 20
21.5367898352
 10
261.8921702015
 20
21.2370050381
 10
260.9814960677
 20
21.0418655763
 10
260.0990337922
 20
20.9528375769
 10
259.2514135142
 20
20.9705899273
 10
258.4450035968
 20
21.0949892503
 10
257.6858627805
 20
21.3251009054
 10
256.9796946624
 20
21.6591960116
 10
256.3318048435
 20
22.0947644368
 10
255.747061067
 20
22.6285336565
 10
255.2298566453
 20
23.2564933417
 10
254.7840774524
 20
23.9739254889
 10
254.4130727285
 20
24.7754398679
 10
254.1196299162
 20
25.6550145194
  0
ARC
  5
217
330
1F
100
AcDbEntity
  8
0
  6
Continuous
 62
     7
370
     0
100
AcDbCircle
 10
261.1382141479
 20
27.5354724114
 30
0.0
 40
7.681930995872622
100
AcDbArc
 50
196.1462441962
 51
212.8501919795
  0
LINE
  5
218
330
1F
100
AcDbEntity
  8
0
  6
Continuous
 62
     7
370
     0
100
AcDbLine
 10
256.2270636881
 20
26.9124055881
 30
0.0
 11
250.9301952094
 21
29.9702226734
 31
0.0
  0
LINE
  5
219
330
1F
100
AcDbEntity
  8
0
  6
Continuous
 62
     7
370
     0
100
AcDbLine
 10
279.585697517
 20
32.2991604848
 30
0.0
 11
279.320532474
 21
32.5269722634
 31
0.0
  0
LINE
  5
21A
330
1F
100
AcDbEntity
  8
0
  6
Continuous
 62
     7
370
     0
100
AcDbLine
 10
252.9168145549
 20
27.5532590298
 30
0.0
 11
252.8366053468
 21
27.8010553321
 31
0.0
  0
LWPOLYLINE
  5
21B
330
1F
100
AcDbEntity
  8
0
  6
Continuous
 62
     7
370
     0
100
AcDbPolyline
 90
        3
 70
   128
 43
0.0
 10
252.5498901642
 20
27.0254238798
 10
252.3509546209
 20
27.4416039663
 10
252.0517168197
 20
28.2541618341
  0
ARC
  5
21C
330
1F
100
AcDbEntity
  8
0
  6
Continuous
 62
     7
370
     0
100
AcDbCircle
 10
258.152600479
 20
30.1379832241
 30
0.0
 40
6.941163979326468
100
AcDbArc
 50
195.8074142097
 51
213.7463947732
  0
ARC
  5
21D
330
1F
100
AcDbEntity
  8
0
  6
Continuous
 62
     7
370
     0
100
AcDbCircle
 10
255.9586763893
 20
30.5255746602
 30
0.0
 40
7.681951740305005
100
AcDbArc
 50
196.1462579428
 51
212.8497821995
  0
LINE
  5
21E
330
1F
100
AcDbEntity
  8
0
  6
Continuous
 62
     7
370
     0
100
AcDbLine
 10
274.6889830572
 20
35.2007088296
 30
0.0
 11
279.320532474
 21
32.5269722634
 31
0.0
  0
ARC
  5
21F
330
1F
100
AcDbEntity
  8
0
  6
Continuous
 62
     7
370
     0
100
AcDbCircle
 10
268.5480292211
 20
42.9620016191
 30
0.0
 40
7.017045977378994
100
AcDbArc
 50
14.3287300663
 51
43.5251561868
  0
OLE2FRAME
  5
220
330
1F
100
AcDbEntity
  8
0
100
AcDbOle2Frame
 70
     2
  3
Paintbrush-Bild
 10
13.8511154363
 20
38.264191557
 30
0.0
 11
51.6290888628
 21
31.9806341108
 31
0.0
 71
     2
 72
     0
 73
     1
 90
    12928
310
80552BED0767C5B32B40DDAF6807D121434000000000000000006FFBDDFB85D0
310
4940DDAF6807D121434000000000000000006FFBDDFB85D04940416F4BD60AFB
310
3F4000000000000000002BED0767C5B32B40416F4BD60AFB3F40000000000000
310
0000000000000100000000010000010000000100000000000100000000320000
310
D0CF11E0A1B11AE1000000000000000000000000000000003E000300FEFF0900
310
0600000000000000000000000100000001000000000000000010000002000000
310
01000000FEFFFFFF0000000000000000FFFFFFFFFFFFFFFFFFFFFFFFFFFFFFFF
310
FFFFFFFFFFFFFFFFFFFFFFFFFFFFFFFFFFFFFFFFFFFFFFFFFFFFFFFFFFFFFFFF
310
FFFFFFFFFFFFFFFFFFFFFFFFFFFFFFFFFFFFFFFFFFFFFFFFFFFFFFFFFFFFFFFF
310
FFFFFFFFFFFFFFFFFFFFFFFFFFFFFFFFFFFFFFFFFFFFFFFFFFFFFFFFFFFFFFFF
310
FFFFFFFFFFFFFFFFFFFFFFFFFFFFFFFFFFFFFFFFFFFFFFFFFFFFFFFFFFFFFFFF
310
FFFFFFFFFFFFFFFFFFFFFFFFFFFFFFFFFFFFFFFFFFFFFFFFFFFFFFFFFFFFFFFF
310
FFFFFFFFFFFFFFFFFFFFFFFFFFFFFFFFFFFFFFFFFFFFFFFFFFFFFFFFFFFFFFFF
310
FFFFFFFFFFFFFFFFFFFFFFFFFFFFFFFFFFFFFFFFFFFFFFFFFFFFFFFFFFFFFFFF
310
FFFFFFFFFFFFFFFFFFFFFFFFFFFFFFFFFFFFFFFFFFFFFFFFFFFFFFFFFFFFFFFF
310
FFFFFFFFFFFFFFFFFFFFFFFFFFFFFFFFFFFFFFFFFFFFFFFFFFFFFFFFFFFFFFFF
310
FFFFFFFFFFFFFFFFFFFFFFFFFFFFFFFFFFFFFFFFFFFFFFFFFFFFFFFFFFFFFFFF
310
FFFFFFFFFFFFFFFFFFFFFFFFFFFFFFFFFFFFFFFFFFFFFFFFFFFFFFFFFFFFFFFF
310
FFFFFFFFFFFFFFFFFFFFFFFFFFFFFFFFFFFFFFFFFFFFFFFFFFFFFFFFFFFFFFFF
310
FFFFFFFFFFFFFFFFFFFFFFFFFFFFFFFFFFFFFFFFFFFFFFFFFFFFFFFFFFFFFFFF
310
FDFFFFFFFEFFFFFFFEFFFFFFFEFFFFFF05000000060000000700000008000000
310
090000000A0000000B0000000C0000000D0000000E0000000F00000010000000
310
11000000120000001300000014000000150000001600000017000000FEFFFFFF
310
FFFFFFFFFFFFFFFFFFFFFFFFFFFFFFFFFFFFFFFFFFFFFFFFFFFFFFFFFFFFFFFF
310
FFFFFFFFFFFFFFFFFFFFFFFFFFFFFFFFFFFFFFFFFFFFFFFFFFFFFFFFFFFFFFFF
310
FFFFFFFFFFFFFFFFFFFFFFFFFFFFFFFFFFFFFFFFFFFFFFFFFFFFFFFFFFFFFFFF
310
FFFFFFFFFFFFFFFFFFFFFFFFFFFFFFFFFFFFFFFFFFFFFFFFFFFFFFFFFFFFFFFF
310
FFFFFFFFFFFFFFFFFFFFFFFFFFFFFFFFFFFFFFFFFFFFFFFFFFFFFFFFFFFFFFFF
310
FFFFFFFFFFFFFFFFFFFFFFFFFFFFFFFFFFFFFFFFFFFFFFFFFFFFFFFFFFFFFFFF
310
FFFFFFFFFFFFFFFFFFFFFFFFFFFFFFFFFFFFFFFFFFFFFFFFFFFFFFFFFFFFFFFF
310
FFFFFFFFFFFFFFFFFFFFFFFFFFFFFFFFFFFFFFFFFFFFFFFFFFFFFFFFFFFFFFFF
310
FFFFFFFFFFFFFFFFFFFFFFFFFFFFFFFFFFFFFFFFFFFFFFFFFFFFFFFFFFFFFFFF
310
FFFFFFFFFFFFFFFFFFFFFFFFFFFFFFFFFFFFFFFFFFFFFFFFFFFFFFFFFFFFFFFF
310
FFFFFFFFFFFFFFFFFFFFFFFFFFFFFFFFFFFFFFFFFFFFFFFFFFFFFFFFFFFFFFFF
310
FFFFFFFFFFFFFFFFFFFFFFFFFFFFFFFFFFFFFFFFFFFFFFFFFFFFFFFFFFFFFFFF
310
FFFFFFFFFFFFFFFFFFFFFFFFFFFFFFFFFFFFFFFFFFFFFFFFFFFFFFFFFFFFFFFF
310
52006F006F007400200045006E00740072007900000000000000000000000000
310
0000000000000000000000000000000000000000000000000000000000000000
310
16000500FFFFFFFFFFFFFFFF020000000A00030000000000C000000000000046
310
000000000000000000000000F0066DB8E61ED20103000000C000000000000000
310
01004F006C006500000000000000000000000000000000000000000000000000
310
0000000000000000000000000000000000000000000000000000000000000000
310
0A000200FFFFFFFFFFFFFFFFFFFFFFFF00000000000000000000000000000000
310
0000000000000000000000000000000000000000000000001400000000000000
310
010043006F006D0070004F0062006A0000000000000000000000000000000000
310
0000000000000000000000000000000000000000000000000000000000000000
310
120002010100000003000000FFFFFFFF00000000000000000000000000000000
310
0000000000000000000000000000000000000000010000004D00000000000000
310
01004F006C006500310030004E00610074006900760065000000000000000000
310
0000000000000000000000000000000000000000000000000000000000000000
310
1A000200FFFFFFFFFFFFFFFFFFFFFFFF00000000000000000000000000000000
310
0000000000000000000000000000000000000000040000002426000000000000
310
FEFFFFFF02000000FEFFFFFFFFFFFFFFFFFFFFFFFFFFFFFFFFFFFFFFFFFFFFFF
310
FFFFFFFFFFFFFFFFFFFFFFFFFFFFFFFFFFFFFFFFFFFFFFFFFFFFFFFFFFFFFFFF
310
FFFFFFFFFFFFFFFFFFFFFFFFFFFFFFFFFFFFFFFFFFFFFFFFFFFFFFFFFFFFFFFF
310
FFFFFFFFFFFFFFFFFFFFFFFFFFFFFFFFFFFFFFFFFFFFFFFFFFFFFFFFFFFFFFFF
310
FFFFFFFFFFFFFFFFFFFFFFFFFFFFFFFFFFFFFFFFFFFFFFFFFFFFFFFFFFFFFFFF
310
FFFFFFFFFFFFFFFFFFFFFFFFFFFFFFFFFFFFFFFFFFFFFFFFFFFFFFFFFFFFFFFF
310
FFFFFFFFFFFFFFFFFFFFFFFFFFFFFFFFFFFFFFFFFFFFFFFFFFFFFFFFFFFFFFFF
310
FFFFFFFFFFFFFFFFFFFFFFFFFFFFFFFFFFFFFFFFFFFFFFFFFFFFFFFFFFFFFFFF
310
FFFFFFFFFFFFFFFFFFFFFFFFFFFFFFFFFFFFFFFFFFFFFFFFFFFFFFFFFFFFFFFF
310
FFFFFFFFFFFFFFFFFFFFFFFFFFFFFFFFFFFFFFFFFFFFFFFFFFFFFFFFFFFFFFFF
310
FFFFFFFFFFFFFFFFFFFFFFFFFFFFFFFFFFFFFFFFFFFFFFFFFFFFFFFFFFFFFFFF
310
FFFFFFFFFFFFFFFFFFFFFFFFFFFFFFFFFFFFFFFFFFFFFFFFFFFFFFFFFFFFFFFF
310
FFFFFFFFFFFFFFFFFFFFFFFFFFFFFFFFFFFFFFFFFFFFFFFFFFFFFFFFFFFFFFFF
310
FFFFFFFFFFFFFFFFFFFFFFFFFFFFFFFFFFFFFFFFFFFFFFFFFFFFFFFFFFFFFFFF
310
FFFFFFFFFFFFFFFFFFFFFFFFFFFFFFFFFFFFFFFFFFFFFFFFFFFFFFFFFFFFFFFF
310
FFFFFFFFFFFFFFFFFFFFFFFFFFFFFFFFFFFFFFFFFFFFFFFFFFFFFFFFFFFFFFFF
310
0100000200000000000000000000000000000000000000000000000000000000
310
0000000000000000000000000000000000000000000000000000000000000000
310
0100FEFF030A0000FFFFFFFF0A00030000000000C00000000000004607000000
310
5042727573680007000000504272757368000700000050427275736800F439B2
310
7100000000000000000000000000000000000000000000000000000000000000
310
0000000000000000000000000000000000000000000000000000000000000000
310
0000000000000000000000000000000000000000000000000000000000000000
310
0000000000000000000000000000000000000000000000000000000000000000
310
0000000000000000000000000000000000000000000000000000000000000000
310
0000000000000000000000000000000000000000000000000000000000000000
310
0000000000000000000000000000000000000000000000000000000000000000
310
0000000000000000000000000000000000000000000000000000000000000000
310
0000000000000000000000000000000000000000000000000000000000000000
310
0000000000000000000000000000000000000000000000000000000000000000
310
0000000000000000000000000000000000000000000000000000000000000000
310
0000000000000000000000000000000000000000000000000000000000000000
310
20260000424D0E260000000000003E00000028000000B40200006E0000000100
310
01000000000000000000130B0000130B00000200000002000000000000FFFFFF
310
FFFFFFFFFFFFFFFFFFFFFFFFFFFFFFFFFFFFFFFFFFFFFFFFFFFFFFFFFFFFFFFF
310
FFFFFFFFFFFFFFFFFFFFFFFFFFFFFFFFFFFFFFFFFFFFFFFFFFFFFFFFFFFFFFFF
310
FFFFFFFFFFFFFFFFFFFFFFFFFFFFFFFFFFFFFFFFFFFFFFFFF000FFFFFFFFFFFF
310
FFFFFFFFFFFFFFFFFFFFFFFFFFFFFFFFFFFFFFFFFFFFFFFFFFFFFFFFFFFFFFFF
310
FFFFFFFFFFFFFFFFFFFFFFFFFFFFFFFFFFFFFFFFFFFFFFFFFFFFFFFFFFFFFFFF
310
FFFFFFFFFFFFFFFFFFFFFFFFFFFFFFFFF000FFFFFFFFFFFFFFFFFFFFFFFFFFFF
310
FFFFFFFFFFFFFFFFFFFFFFFFFFFFFFFFFFFFFFFFFFFFFFFFFFFFFFFFFFFFFFFF
310
FFFFFFFFFFFFFFFFFFFFFFFFFFFFFFFFFFFFFFFFFFFFFFFFFFFFFFFFFFFFFFFF
310
FFFFFFFFFFFFFFFFF000FFFFFFFFFFFFFFFFFFFFFFFFFFFFFFFFFFFFFFFFFFFF
310
FFFFFFFFFFFFFFFFFFFFFFFFFFFFFFFFFFFFFFFFFFFFFFFFFFFFFFFFFFFFFFFF
310
FFFFFFFFFFFFFFFFFFFFFFFFFFFFFFFFFFFFFFFFFFFFFFFFFFFFFFFFFFFFFFFF
310
F000FFFFFFFFFFFFFFFFFFFFFFFFFFFFFFFFFFFFFFFFFFFFFFFFFFFFFFFFFFFF
310
FFFFFFFFFFFFFFFFFFFFFFFFFFFFFFFFFFFFFFFFFFFFFFFFFFFFFFFFFFFFFFFF
310
FFFFFFFFFFFFFFFFFFFFFFFFFFFFFFFFFFFFFFFFFFFFFFFFF000FFFFFFFFFFFF
310
FFFFFFFFFFFFFFFFFFFFFFFFFFFFFFFFFFFFFFFFFFFFFFFFFFFFFFFFFFFFFFFF
310
FFFFFFFFFFFFFFFFFFFFFFFFFFFFFFFFFFFFFFFFFFFFFFFFFFFFFFFFFFFFFFFF
310
FFFFFFFFFFFFFFFFFFFFFFFFFFFFFFFFF000FFFFFFFFFFFFFFFFFFFFFFFFFFFF
310
FFFFFFFFFFFFFFFFFFFFFFFFFFFFFFFFFFFFFFFFFFFFFFFFFFFFFFFFFFFFFFFF
310
FFFFFFFFFFFFFFFFFFFFFFFFFFFFFFFFFFFFFFFFFFFFFFFFFFFFFFFFFFFFFFFF
310
FFFFFFFFFFFFFFFFF000FFFFFFFFFFFFFFFFFFFFFFFFFFFFFFFFFFFFFFFFFFFF
310
FFFFFFFFFFFFFFFFFFFFFFFFFFFFFFFFFFFFFFFFFFFFFFFFFFFFFFFFFFFFFFFF
310
FFFFFFFFFFFFFFFFFFFFFFFFFFFFFFFFFFFFFFFFFFFFFFFFFFFFFFFFFFFFFFFF
310
F000FFFFFFFFFFFFFFFFFFFFFFFFFFFFFFFFFFFFFFFFFFFFFFFFFFFFFFFFFFFF
310
FFFFFFFFFFFFFFFFFFFFFFFFFFFFFFFFFFFFFFFFFFFFFFFFFFFFFFFFFFFFFFFF
310
FFFFFFFFFFFFFFFFFFFFFFFFFFFFFFFFFFFFFFFFFFFFFFFFF000FFFFFFFFFFFF
310
FFFFFFFFFFFFFFFFFFFFFFFFFFFFFFFFFFFFFFFFFFFFFFFFFFFFFFFFFFFFFFFF
310
FFFFFFFFFFFFFFFFFFFFFFFFFFFFFFFFFFFFFFFFFFFFFFFFFFFFFFFFFFFFFFFF
310
FFFFFFFFFFFFFFFFFFFFFFFFFFFFFFFFF000FFFFFFFFFFFFFFFFFFFFFFFFFFFF
310
FFFFFFFFFFFFFFFFFFFFFFFFFFFFFFFFFFFFFFFFFFFFFFFFFFFFFFFFFFFFFFFF
310
FFFFFFFFFFFFFFFFFFFFFFFFFFFFFFFFFFFFFFFFFFFFFFFFFFFFFFFFFFFFFFFF
310
FFFFFFFFFFFFFFFFF000FFFFFFFFFFFFFFFFFFFFFFFFFFFFFFFFFFFFFFFFFFFF
310
FFFFFFFFFFFFFFFFFFFFFFFFFFFFFFFFFFFFFFFFFFFFFFFFFFFFFFFFFFFFFFFF
310
FFFFFFFFFFFFFFFFFFFFFFFFFFFFFFFFFFFFFFFFFFFFFFFFFFFFFFFFFFFFFFFF
310
F000FFFFFFFFFFFFFFFFFFFFFFFFFFFFFFFFFFFFFFFFFFFFFFFFFFFFFFFFFFFF
310
FFFFFFFFFFFFFFFFFFFFFFFFFFFFFFFFFFFFFFFFFFFFFFFFFFFFFFFFFFFFFFFF
310
FFFFFFFFFFFFFFFFFFFFFFFFFFFFFFFFFFFFFFFFFFFFFFFFF000FFFFFFFFFFFF
310
FFFFFFFFFFFFFFFFFFFFFFFFFFFFFFFFFFFFFFFFFFFFFFFFFFFFFFFFFFFFFFFF
310
FFFFFFFFFFFFFFFFFFFFFFFFFFFFFFFFFFFFFFFFFFFFFFFFFFFFFFFFFFFFFFFF
310
FFFFFFFFFFFFFFFFFFFFFFFFFFFFFFFFF000FFFFFFFFFFFFFFFFFFFFFFFFFFFF
310
FFFFFFFFFFFFFFFFFFFFFFFFFFFFFFFFFFFFFFFFFFFFFFFFFFFFFFFFFFFFFFFF
310
FFFFFFFFFFFFFFFFFFFFFFFFFFFFFFFFFFFFFFFFFFFFFFFFFFFFFFFFFFFFFFFF
310
FFFFFFFFFFFFFFFFF000FFFFFFFFFFFFFFFFFFFFFFFFFFFFFFFFFFFFFFFFFFFF
310
FFFFFFFFFFFFFFFFFFFFFFFFFFFFFFFFFFFFFFFFFFFFFFFFFFFFFFFFFFFFFFFF
310
FFFFFFFFFFFFFFFFFFFFFFFFFFFFFFFFFFFFFFFFFFFFFFFFFFFFFFFFFFFFFFFF
310
F000FFFFFFFFFFFFFFFFFFFFFFFFFFFFFFFFFFFFFFFFFFFFFFFFFFFFFFFFFFFF
310
FFFFFFFFFFFFFFFFFFFFFFFFFFFFFFFFFFFFFFFFFFFFFFFFFFFFFFFFFFFFFFFF
310
FFFFFFFFFFFFFFFFFFFFFFFFFFFFFFFFFFFFFFFFFFFFFFFFF000FFFFFFFFFFFF
310
FFFFFFFFFFFFFFFFFFFFFFFFFFFFFFFFFFFFFFFFFFFFFFFFFFFFFFFFFFFFFFFF
310
FFFFFFFFFFFFFFFFFFFFFFFFFFFFFFFFFFFFFFFFFFFFFFFFFFFFFFFFFFFFFFFF
310
FFFFFFFFFFFFFFFFFFFFFFFFFFFFFFFFF000FFFFFFFFFFFFFFFFFFFFFFFFFFFF
310
FFFFFFFFFFFFFFFFFFFFFFFFFFFFFFFFFFFFFFFFFFFFFFFFFFFFFFFFFFFFFFFF
310
FFFFFFFFFFFFFFFFFFFFFFFFFFFFFFFFFFFFFFFFFFFFFFFFFFFFFFFFFFFFFFFF
310
FFFFFFFFFFFFFFFFF000FFFFF80003FFFFFFFFFFFFFFFFFFFFFFFFFFFFFFFFFF
310
FFFFF00007FFFFFFFFFF00007FFFFFF800000000000000007FFFFFFFFFFFFFFF
310
FFFFFFFC001FFFFFFFFFFFFFFC001FFFFFFFFFFFFFFFFFFFFFFFFFFE0007FFFF
310
F000FFFF8000007FFFFFFFF8000FFFFFC0007FFFFF80007FFFFF0000007FFFFF
310
FFF8000007FFFFF800000000000000007FFFFFF0001FFFFFFFFFFFC00001FFFF
310
FFFFFFFFC00001FFFFFFFF000000000003FFFFE000007FFFF000FFFE0000000F
310
FFFFFFF0000FFFFF80007FFFFF80007FFFFC0000001FFFFFFFC0000001FFFFF8
310
00000000000000007FFFFFF0001FFFFFFFFFFE0000003FFFFFFFFFFE0000003F
310
FFFFFF000000000003FFFF0000000FFFF000FFF800000003FFFFFFF00007FFFF
310
80007FFFFF80007FFFF000000007FFFFFF000000003FFFF80000000000000000
310
7FFFFFF0001FFFFFFFFFF80000000FFFFFFFFFF80000000FFFFFFF0000000000
310
03FFFC00000003FFF000FFE000000000FFFFFFF00007FFFF80003FFFFF80007F
310
FFC000000001FFFFFC000000001FFFF800000000000000007FFFFFF0001FFFFF
310
FFFFE000000003FFFFFFFFE000000003FFFFFF000000000003FFF000000000FF
310
F000FF80000000007FFFFFF00007FFFF80003FFFFF80007FFF8000000000FFFF
310
F80000000007FFF800000000000000007FFFFFF0001FFFFFFFFFC000000001FF
310
FFFFFFC000000001FFFFFF000000000003FFC0000000007FF000FF0000000000
310
3FFFFFE00007FFFF00003FFFFF80007FFE00000000003FFFF00000000003FFF8
310
00000000000000007FFFFFF0001FFFFFFFFF8000000000FFFFFFFF8000000000
310
FFFFFF000000000003FF80000000003FF000FE00000000001FFFFFE00003FFFF
310
00003FFFFF80007FFC00000000001FFFE00000000001FFF8000001FFFE000000
310
7FFFFFF0001FFFFFFFFE00000000003FFFFFFE00000000003FFFFF0000000000
310
03FF00000000001FF000FC00000000000FFFFFE00003FFFF00001FFFFF80007F
310
F800000000001FFFC00000000000FFF8000001FFFE0000007FFFFFF0001FFFFF
310
FFFC00000000001FFFFFFC00000000001FFFFF000000000003FE00000000000F
310
F000F8000000000007FFFFE00003FFFF00001FFFFF80007FF800000000000FFF
310
800000000000FFF8000001FFFE0000007FFFFFF0001FFFFFFFF800000000000F
310
FFFFF800000000000FFFFF000000000003FC000000000007F000F80000000000
310
03FFFFC00003FFFE00001FFFFF80007FF0000000000007FF0000000000007FF8
310
000001FFFE0000007FFFFFF0001FFFFFFFF0000000000007FFFFF00000000000
310
07FFFF000000000003F8000000000003F000F0000000000003FFFFC00001FFFE
310
00001FFFFF80007FE0000000000007FE0000000000003FF8000001FFFE000000
310
7FFFFFF0001FFFFFFFF0000000000007FFFFF0000000000007FFFF0000000000
310
03F800001F800003F000E00001FFF00001FFFFC00001FFFE00000FFFFF80007F
310
E00001FFE00003FE00001FFF00003FF8000001FFFE0000007FFFFFF0001FFFFF
310
FFE000003E000003FFFFE000003E000003FFFF000000000003F00001FFF80001
310
F000E00007FFFC0001FFFFC00001FFFE00000FFFFF80007FC0000FFFFC0003FC
310
0000FFFFC0001FF8000001FFFE0000007FFFFFF0001FFFFFFFC00003FFE00001
310
FFFFC00003FFE00001FFFF0001FFFFFFFFF00007FFFE0001F000E0000FFFFF00
310
00FFFF800001FFFC00000FFFFF80007FC0001FFFFE0001FC0001FFFFE0001FF8
310
000001FFFE0000007FFFFFF0001FFFFFFF80000FFFF80000FFFF80000FFFF800
310
00FFFF0003FFFFFFFFE0000FFFFF8000F000C0003FFFFF8000FFFF800000FFFC
310
000007FFFF80007F80003FFFFF0001FC0003FFFFF0001FF8000001FFFE000000
310
7FFFFFF0001FFFFFFF80003FFFFE0000FFFF80003FFFFE0000FFFF0003FFFFFF
310
FFE0003FFFFF8000F000C0003FFFFF8000FFFF800000FFFC000007FFFF80007F
310
80007FFFFF8001F80007FFFFF8000FF8000001FFFE0000007FFFFFF0001FFFFF
310
FF00007FFFFF00007FFF00007FFFFF00007FFF0003FFFFFFFFE0003FFFFFC000
310
F000C0007FFFFFC000FFFF000000FFFC000007FFFF80007F8000FFFFFF8000F8
310
000FFFFFF8000FF8000001FFFE0000007FFFFFF0001FFFFFFF0000FFFFFF8000
310
7FFF0000FFFFFF80007FFF0003FFFFFFFFC0007FFFFFC00070008000FFFFFFC0
310
00FFFF000000FFF8000007FFFF80007F8000FFFFFF8000F8000FFFFFF8000FF8
310
000001FFFE0000007FFFFFF0001FFFFFFE0001FFFFFFC0003FFE0001FFFFFFC0
310
003FFF0003FFFFFFFFC0007FFFFFE00070008000FFFFFFC0007FFF0000007FF8
310
000003FFFF80007F0001FFFFFF8000F8000FFFFFF8000FF8000001FFFE000000
310
7FFFFFF0001FFFFFFE0001FFFFFFC0003FFE0001FFFFFFC0003FFF0003FFFFFF
310
FFC000FFFFFFE00070008000FFFFFFC0007FFF0000007FF8000003FFFF80007F
310
0001FFFFFF8000F8001FFFFFF8000FF8000001FFFE0000007FFFFFF0001FFFFF
310
FE0003FFFFFFE0003FFE0003FFFFFFE0003FFF0003FFFFFFFFC000FFFFFFE000
310
70008000FFFFFFC0007FFE0000007FF8000003FFFF80007F0001FFFFFF8000F0
310
001FFFFFF8000FF8000001FFFE0000007FFFFFF0001FFFFFFC0003FFFFFFE000
310
1FFC0003FFFFFFE0001FFF0003FFFFFFFFC000FFFFFFC00070008000FFFFFF80
310
007FFE0000007FF0000003FFFF80007F0001FFFFFF0000F0001FFFFFF8000FF8
310
000001FFFE0000007FFFFFF0001FFFFFFC0007FFFFFFF0001FFC0007FFFFFFF0
310
001FFF0003FFFFFFFFC000FFFFFFC00070008001FFFFFF0000FFFE0000003FF0
310
000001FFFF80007F0001FFFFFF0000F8001FFFFFF0000FF8000001FFFE000000
310
7FFFFFF0001FFFFFFC0007FFFFFFF0001FFC0007FFFFFFF0001FFF0003FFFFFF
310
FFC001FFFFFF80007000FFFFFFFFFE0000FFFE0008003FF0008001FFFF80007F
310
FFFFFFFFFC0000FFFFFFFFFFE0000FF8000001FFFE0000007FFFFFF0001FFFFF
310
F8000FFFFFFFF8000FF8000FFFFFFFF8000FFF0003FFFFFFFFFFFFFFFFFF0000
310
7000FFFFFFFFFC0000FFFC0008003FF0008001FFFF80007FFFFFFFFFF80001FF
310
FFFFFFFF80000FF8000001FFFE0000007FFFFFF0001FFFFFF8000FFFFFFFF800
310
0FF8000FFFFFFFF8000FFF0003FFFFFFFFFFFFFFFFFE0000F000FFFFFFFFE000
310
00FFFC000C003FE000C001FFFF80007FFFFFFFFFC00001FFFFFFFFFE00001FF8
310
000001FFFE0000007FFFFFF0001FFFFFF8000FFFFFFFF8000FF8000FFFFFFFF8
310
000FFF0003FFFFFFFFFFFFFFFFF00000F000FFFFFFFE000001FFFC000C001FE0
310
00C000FFFF80007FFFFFFFFE000001FFFFFFFFE000001FF80FFFFFFFFFFFFFC0
310
7FFFFFF0001FFFFFF8000FFFFFFFF8000FF8000FFFFFFFF8000FFF0003FFFFFF
310
FFFFFFFFFF800000F000FFFFFFC0000001FFFC001C001FE001C000FFFF80007F
310
FFFFFF80000003FFFFFFF80000001FF80FFFFFFFFFFFFFC07FFFFFF0001FFFFF
310
F8001FFFFFFFFC000FF8001FFFFFFFFC000FFF0003FFFFFFFFFFFFFFF0000001
310
F000FFFFF800000001FFF8001C001FE001C000FFFF80007FFFFFF800000003FF
310
FFFF800000003FF80FFFFFFFFFFFFFC07FFFFFF0001FFFFFF8001FFFFFFFFC00
310
0FF8001FFFFFFFFC000FFF0003FFFFFFFFFFFFFE00000001F000FFFFC0000000
310
03FFF8001E001FC001E000FFFF80007FFFFF8000000007FFFFFC000000003FF8
310
0FFFFFFFFFFFFFC07FFFFFF0001FFFFFF8001FFFFFFFFC000FF8001FFFFFFFFC
310
000FFF0003FFFFFFFFFFFFE000000003F000FFFE0000000007FFF8001E000FC0
310
01E0007FFF80007FFFFE0000000007FFFFE0000000007FF80FFFFFFFFFFFFFC0
310
7FFFFFF0001FFFFFF0001FFFFFFFFC0007F0001FFFFFFFFC0007FF0003FFFFFF
310
FFFFFF0000000003F000FFF80000000007FFF8001E000FC003E0007FFF80007F
310
FFF0000000000FFFFF8000000000FFF80FFFFFFFFFFFFFC07FFFFFF0001FFFFF
310
F0001FFFFFFFFC0007F0001FFFFFFFFC0007FF0003FFFFFFFFFFFC0000000007
310
F000FFE0000000000FFFF0003E000FC003E0007FFF80007FFFC0000000001FFF
310
FE0000000001FFF80FFFFFFFFFFFFFC07FFFFFF0001FFFFFF0001FFFFFFFFC00
310
07F0001FFFFFFFFC0007FF0003FFFFFFFFFFF0000000000FF000FFC000000000
310
1FFFF0003F000F8003F0003FFF80007FFF80000000003FFFF80000000003FFF8
310
0FFFFFFFFFFFFFC07FFFFFF0001FFFFFF0001FFFFFFFFC0007F0001FFFFFFFFC
310
0007FF0003FFFFFFFFFFE0000000001FF000FF00000000007FFFF0003F000780
310
03F0003FFF80007FFF00000000007FFFF00000000007FFF80FFFFFFFFFFFFFC0
310
7FFFFFF0001FFFFFF0001FFFFFFFFC0007F0001FFFFFFFFC0007FF0003FFFFFF
310
FFFF80000000007FF000FE0000000000FFFFE0003F00078007F0003FFF80007F
310
FE0000000001FFFFE0000000001FFFF80FFFFFFFFFFFFFC07FFFFFF0001FFFFF
310
F0001FFFFFFFFC0007F0001FFFFFFFFC0007FF0003FFFFFFFFFF0000000000FF
310
F000FC0000000003FFFFE0007F00078007F0003FFF80007FFC0000000007FFFF
310
C0000000007FFFF80FFFFFFFFFFFFFC07FFFFFF0001FFFFFF8001FFFFFFFFC00
310
0FF8001FFFFFFFFC000FFF0003FFFFFFFFFE0000000003FFF000FC000000000F
310
FFFFE0007F80070007F8001FFF80007FF8000000001FFFFF8000000001FFFFF8
310
0FFFFFFFFFFFFFC07FFFFFF0001FFFFFF8001FFFFFFFFC000FF8001FFFFFFFFC
310
000FFF0003FFFFFFFFFC000000000FFFF000F8000000007FFFFFE0007F800700
310
07F8001FFF80007FF000000000FFFFFF800000000FFFFFF80FFFFFFFFFFFFFC0
310
7FFFFFF0001FFFFFF8000FFFFFFFF8000FF8000FFFFFFFF8000FFF0003FFFFFF
310
FFFC000000007FFFF000F800000007FFFFFFC0007F8003000FF8001FFF80007F
310
F000000007FFFFFF000000007FFFFFF80FFFFFFFFFFFFFC07FFFFFF0001FFFFF
310
F8000FFFFFFFF8000FF8000FFFFFFFF8000FFF0003FFFFFFFFF80000000FFFFF
310
F000F0000000FFFFFFFFC000FF8003000FF8001FFF80007FE0000000FFFFFFFF
310
0000000FFFFFFFF8000001FFFE0000007FFFFFF0001FFFFFF8000FFFFFFFF800
310
0FF8000FFFFFFFF8000FFF0003FFFFFFFFF8000000FFFFFFF000F000000FFFFF
310
FFFFC000FFC002000FF8000FFF80007FE000001FFFFFFFFE000001FFFFFFFFF8
310
000001FFFE0000007FFFFFF0001FFFFFF8000FFFFFFFF8000FF8000FFFFFFFF8
310
000FFF0003FFFFFFFFF000001FFFFFFFF000E00000FFFFFFFFFFC000FFC00200
310
0FFC000FFF80007FE00001FFFFFFFFFE00001FFFFFFFFFF8000001FFFE000000
310
7FFFFFF0001FFFFFFC000FFFFFFFF8001FFC000FFFFFFFF8001FFF0003FFFFFF
310
FFF00001FFFFFFFFF000E00007FFFFFFFFFF8000FFC000001FFC000FFF80007F
310
C0000FFFFFFFFFFE0000FFFFFFFFFFF8000001FFFE0000007FFFFFF0001FFFFF
310
FC0007FFFFFFF0001FFC0007FFFFFFF0001FFF0003FFFFFFFFF00007FFFFFFFF
310
F000E0001FFFFFFFFFFF8000FFC000001FFC000FFF80007FC0003FFFFFFFFFFE
310
0001FFFFFFFFFFF8000001FFFE0000007FFFFFF0001FFFFFFC0007FFFFFFF000
310
1FFC0007FFFFFFF0001FFF0003FFFFFFFFF0001FFFFFFFFFF000E0003FFFFF00
310
03FF8001FFE000001FFC0007FF80007FC0007FFFFF0007FC0003FFFFF0003FF8
310
000001FFFE0000007FFFFFF0001FFFFFFC0003FFFFFFE0001FFC0003FFFFFFE0
310
001FFF0003FFFFFFFFF0003FFFFFFFFFF000E0003FFFFF0001FF8001FFE00000
310
1FFE0007FF80007FC0007FFFFE0003FC0007FFFFE0003FF8000001FFFE000000
310
7FFFFFF0001FFFFFFE0003FFFFFFE0003FFE0003FFFFFFE0003FFF0003FFFFFF
310
FFF0003FFFFF8001F000E0003FFFFF0001FF0001FFE000001FFE0007FF80007F
310
C0007FFFFE0003FC0007FFFFE0003FF8000001FFFE0000007FFFFFF0001FFFFF
310
FE0001FFFFFFC0003FFE0001FFFFFFC0003FFF0003FFFFFFFFF0003FFFFF0001
310
F000E0003FFFFF0003FF0001FFE000003FFE0007FF80007FC0007FFFFE0003FC
310
0007FFFFE0003FF8000001FFFE0000007FFFFFF0001FFFFFFF0001FFFFFFC000
310
7FFF0001FFFFFFC0007FFF0003FFFFFFFFF0003FFFFF0001F000E0003FFFFE00
310
03FF0003FFF000003FFE0003FF80007FC0007FFFFC0003FE0007FFFFE0003FF8
310
000001FFFE0000007FFFFFF0001FFFFFFF0000FFFFFF80007FFF0000FFFFFF80
310
007FFF0003FFFFFFFFF0003FFFFF0001F000E0003FFFFE0003FF0003FFF00000
310
3FFF0003FF80007FC0007FFFFC0007FE0007FFFFC0003FF8000001FFFE000000
310
7FFFFFF0001FFFFFFF80007FFFFF0000FFFF80007FFFFF0000FFFF0003FFFFFF
310
FFF0003FFFFF0003F000E0003FFFFC0003FE0003FFF000003FFF0003FF80007F
310
E0003FFFF80007FE0003FFFFC0007FF8000001FFFE0000007FFFFFF0001FFFFF
310
FF80003FFFFE0000FFFF80003FFFFE0000FFFF0003FFFFFFFFF0001FFFFE0003
310
F000F0001FFFF80003FE0003FFF000007FFF0001FF80007FE0003FFFF00007FE
310
0001FFFF80007FF8000001FFFE0000007FFFFFF0001FFFFFFFC0000FFFF80001
310
FFFFC0000FFFF80001FFFF0003FFFFFFFFF0001FFFFC0003F000F0000FFFF000
310
07FE0007FFF800007FFF0001FF80007FE0001FFFE00007FF0000FFFE00007FF8
310
000001FFFE0000007FFFFFF0001FFFFFFFC00003FFE00001FFFFC00003FFE000
310
01FFFF0003FFFFFFFFF8000FFFF80003F000F00003FFC00007FC0007FFF80000
310
7FFF8001FF80007FF00007FF80000FFF00007FF80000FFF8000001FFFE000000
310
7F80000000000001FFE000003E000003FFFFE000003E000003FFFF0003FFFFFF
310
FFF80003FFE00007F000F800000000000FFC0007FFF800007FFF8001FF80007F
310
F000000000000FFF000000000000FFF8000001FFFE0000007F80000000000001
310
FFF0000000000007FFFFF0000000000007FFFF0003FFFFFFFFFC00007E000007
310
F000F800000000000FFC0007FFF80000FFFF8000FF80007FF800000000001FFF
310
800000000001FFF8000001FFFE0000007F80000000000001FFF800000000000F
310
FFFFF800000000000FFFFF0003FFFFFFFFFC00000000000FF000FC0000000000
310
1FFC0007FFFC0000FFFF8000FF80007FF800000000003FFFC00000000001FFF8
310
000001FFFE0000007F80000000000001FFF800000000000FFFFFF80000000000
310
0FFFFF0003FFFFFFFFFE00000000001FF000FE00000000003FF8000FFFFC0000
310
FFFF8000FF80007FFC00000000003FFFC00000000003FFF8000001FFFE000000
310
7F80000000000001FFFC00000000001FFFFFFC00000000001FFFFF0003FFFFFF
310
FFFF00000000001FF000FF00000000003FF8000FFFFC0000FFFFC000FF80007F
310
FE00000000007FFFE00000000007FFF8000001FFFE0000007F80000000000001
310
FFFE00000000003FFFFFFE00000000003FFFFF0003FFFFFFFFFF80000000003F
310
F000FF80000000007FF8000FFFFC0001FFFFC0007F80007FFF0000000000FFFF
310
F0000000000FFFF800000000000000007F80000000000001FFFF8000000000FF
310
FFFFFF8000000000FFFFFF0003FFFFFFFFFFC0000000007FF000FFC000000000
310
FFF8000FFFFE0001FFFFC0007F80007FFF8000000001FFFFF8000000001FFFF8
310
00000000000000007F80000000000001FFFFC000000001FFFFFFFFC000000001
310
FFFFFF0003FFFFFFFFFFE000000000FFF000FFE000000003FFF0001FFFFE0001
310
FFFFC0007F80007FFFC000000007FFFFFE000000003FFFF80000000000000000
310
7F80000000000001FFFFE000000003FFFFFFFFE000000003FFFFFF0003FFFFFF
310
FFFFF000000003FFF000FFF80000000FFFF0001FFFFE0001FFFFE0007F80007F
310
FFF00000000FFFFFFF00000000FFFFF800000000000000007F80000000000001
310
FFFFF80000000FFFFFFFFFF80000000FFFFFFF0003FFFFFFFFFFFC0000000FFF
310
F000FFFE0000003FFFF0001FFFFE0003FFFFE0003F80007FFFFC0000003FFFFF
310
FFC0000003FFFFF800000000000000007F80000000000001FFFFFE0000003FFF
310
FFFFFFFE0000003FFFFFFF0003FFFFFFFFFFFF0000003FFFF000FFFF800000FF
310
FFF0001FFFFF0003FFFFE0003F80007FFFFF000001FFFFFFFFF800001FFFFFF8
310
00000000000000007F80000000000001FFFFFFC00001FFFFFFFFFFFFC00001FF
310
FFFFFF0003FFFFFFFFFFFFC00000FFFFF000FFFFF8000FFFFFFFFFFFFFFFFFFF
310
FFFFFFFFFFFFFFFFFFFFF0001FFFFFFFFFFF0000FFFFFFF80000000000000000
310
7FFFFFFFFFFFFFFFFFFFFFFC001FFFFFFFFFFFFFFC001FFFFFFFFFFFFFFFFFFF
310
FFFFFFFC001FFFFFF000FFFFFFFFFFFFFFFFFFFFFFFFFFFFFFFFFFFFFFFFFFFF
310
FFFFFFFFFFFFFFFFFFFFFFFFFFFFFFFFFFFFFFFFFFFFFFFFFFFFFFFFFFFFFFFF
310
FFFFFFFFFFFFFFFFFFFFFFFFFFFFFFFFFFFFFFFFFFFFFFFFFFFFFFFFFFFFFFFF
310
F000FFFFFFFFFFFFFFFFFFFFFFFFFFFFFFFFFFFFFFFFFFFFFFFFFFFFFFFFFFFF
310
FFFFFFFFFFFFFFFFFFFFFFFFFFFFFFFFFFFFFFFFFFFFFFFFFFFFFFFFFFFFFFFF
310
FFFFFFFFFFFFFFFFFFFFFFFFFFFFFFFFFFFFFFFFFFFFFFFFF000FFFFFFFFFFFF
310
FFFFFFFFFFFFFFFFFFFFFFFFFFFFFFFFFFFFFFFFFFFFFFFFFFFFFFFFFFFFFFFF
310
FFFFFFFFFFFFFFFFFFFFFFFFFFFFFFFFFFFFFFFFFFFFFFFFFFFFFFFFFFFFFFFF
310
FFFFFFFFFFFFFFFFFFFFFFFFFFFFFFFFF000FFFFFFFFFFFFFFFFFFFFFFFFFFFF
310
FFFFFFFFFFFFFFFFFFFFFFFFFFFFFFFFFFFFFFFFFFFFFFFFFFFFFFFFFFFFFFFF
310
FFFFFFFFFFFFFFFFFFFFFFFFFFFFFFFFFFFFFFFFFFFFFFFFFFFFFFFFFFFFFFFF
310
FFFFFFFFFFFFFFFFF000FFFFFFFFFFFFFFFFFFFFFFFFFFFFFFFFFFFFFFFFFFFF
310
FFFFFFFFFFFFFFFFFFFFFFFFFFFFFFFFFFFFFFFFFFFFFFFFFFFFFFFFFFFFFFFF
310
FFFFFFFFFFFFFFFFFFFFFFFFFFFFFFFFFFFFFFFFFFFFFFFFFFFFFFFFFFFFFFFF
310
F000FFFFFFFFFFFFFFFFFFFFFFFFFFFFFFFFFFFFFFFFFFFFFFFFFFFFFFFFFFFF
310
FFFFFFFFFFFFFFFFFFFFFFFFFFFFFFFFFFFFFFFFFFFFFFFFFFFFFFFFFFFFFFFF
310
FFFFFFFFFFFFFFFFFFFFFFFFFFFFFFFFFFFFFFFFFFFFFFFFF000FFFFFFFFFFFF
310
FFFFFFFFFFFFFFFFFFFFFFFFFFFFFFFFFFFFFFFFFFFFFFFFFFFFFFFFFFFFFFFF
310
FFFFFFFFFFFFFFFFFFFFFFFFFFFFFFFFFFFFFFFFFFFFFFFFFFFFFFFFFFFFFFFF
310
FFFFFFFFFFFFFFFFFFFFFFFFFFFFFFFFF000FFFFFFFFFFFFFFFFFFFFFFFFFFFF
310
FFFFFFFFFFFFFFFFFFFFFFFFFFFFFFFFFFFFFFFFFFFFFFFFFFFFFFFFFFFFFFFF
310
FFFFFFFFFFFFFFFFFFFFFFFFFFFFFFFFFFFFFFFFFFFFFFFFFFFFFFFFFFFFFFFF
310
FFFFFFFFFFFFFFFFF000FFFFFFFFFFFFFFFFFFFFFFFFFFFFFFFFFFFFFFFFFFFF
310
FFFFFFFFFFFFFFFFFFFFFFFFFFFFFFFFFFFFFFFFFFFFFFFFFFFFFFFFFFFFFFFF
310
FFFFFFFFFFFFFFFFFFFFFFFFFFFFFFFFFFFFFFFFFFFFFFFFFFFFFFFFFFFFFFFF
310
F000FFFFFFFFFFFFFFFFFFFFFFFFFFFFFFFFFFFFFFFFFFFFFFFFFFFFFFFFFFFF
310
FFFFFFFFFFFFFFFFFFFFFFFFFFFFFFFFFFFFFFFFFFFFFFFFFFFFFFFFFFFFFFFF
310
FFFFFFFFFFFFFFFFFFFFFFFFFFFFFFFFFFFFFFFFFFFFFFFFF000FFFFFFFFFFFF
310
FFFFFFFFFFFFFFFFFFFFFFFFFFFFFFFFFFFFFFFFFFFFFFFFFFFFFFFFFFFFFFFF
310
FFFFFFFFFFFFFFFFFFFFFFFFFFFFFFFFFFFFFFFFFFFFFFFFFFFFFFFFFFFFFFFF
310
FFFFFFFFFFFFFFFFFFFFFFFFFFFFFFFFF000FFFFFFFFFFFFFFFFFFFFFFFFFFFF
310
FFFFFFFFFFFFFFFFFFFFFFFFFFFFFFFFFFFFFFFFFFFFFFFFFFFFFFFFFFFFFFFF
310
FFFFFFFFFFFFFFFFFFFFFFFFFFFFFFFFFFFFFFFFFFFFFFFFFFFFFFFFFFFFFFFF
310
FFFFFFFFFFFFFFFFF000FFFFFFFFFFFFFFFFFFFFFFFFFFFFFFFFFFFFFFFFFFFF
310
FFFFFFFFFFFFFFFFFFFFFFFFFFFFFFFFFFFFFFFFFFFFFFFFFFFFFFFFFFFFFFFF
310
FFFFFFFFFFFFFFFFFFFFFFFFFFFFFFFFFFFFFFFFFFFFFFFFFFFFFFFFFFFFFFFF
310
F000FFFFFFFFFFFFFFFFFFFFFFFFFFFFFFFFFFFFFFFFFFFFFFFFFFFFFFFFFFFF
310
FFFFFFFFFFFFFFFFFFFFFFFFFFFFFFFFFFFFFFFFFFFFFFFFFFFFFFFFFFFFFFFF
310
FFFFFFFFFFFFFFFFFFFFFFFFFFFFFFFFFFFFFFFFFFFFFFFFF000FFFFFFFFFFFF
310
FFFFFFFFFFFFFFFFFFFFFFFFFFFFFFFFFFFFFFFFFFFFFFFFFFFFFFFFFFFFFFFF
310
FFFFFFFFFFFFFFFFFFFFFFFFFFFFFFFFFFFFFFFFFFFFFFFFFFFFFFFFFFFFFFFF
310
FFFFFFFFFFFFFFFFFFFFFFFFFFFFFFFFF000FFFFFFFFFFFFFFFFFFFFFFFFFFFF
310
FFFFFFFFFFFFFFFFFFFFFFFFFFFFFFFFFFFFFFFFFFFFFFFFFFFFFFFFFFFFFFFF
310
FFFFFFFFFFFFFFFFFFFFFFFFFFFFFFFFFFFFFFFFFFFFFFFFFFFFFFFFFFFFFFFF
310
FFFFFFFFFFFFFFFFF000FFFFFFFFFFFFFFFFFFFFFFFFFFFFFFFFFFFFFFFFFFFF
310
FFFFFFFFFFFFFFFFFFFFFFFFFFFFFFFFFFFFFFFFFFFFFFFFFFFFFFFFFFFFFFFF
310
FFFFFFFFFFFFFFFFFFFFFFFFFFFFFFFFFFFFFFFFFFFFFFFFFFFFFFFFFFFFFFFF
310
F000FFFFFFFFFFFFFFFFFFFFFFFFFFFFFFFFFFFFFFFFFFFFFFFFFFFFFFFFFFFF
310
FFFFFFFFFFFFFFFFFFFFFFFFFFFFFFFFFFFFFFFFFFFFFFFFFFFFFFFFFFFFFFFF
310
FFFFFFFFFFFFFFFFFFFFFFFFFFFFFFFFFFFFFFFFFFFFFFFFF000FFFFFFFFFFFF
310
FFFFFFFFFFFFFFFFFFFFFFFFFFFFFFFFFFFFFFFFFFFFFFFFFFFFFFFFFFFFFFFF
310
FFFFFFFFFFFFFFFFFFFFFFFFFFFFFFFFFFFFFFFFFFFFFFFFFFFFFFFFFFFFFFFF
310
FFFFFFFFFFFFFFFFFFFFFFFFFFFFFFFFF000FFFFFFFFFFFFFFFFFFFFFFFFFFFF
310
FFFFFFFFFFFFFFFFFFFFFFFFFFFFFFFFFFFFFFFFFFFFFFFFFFFFFFFFFFFFFFFF
310
FFFFFFFFFFFFFFFFFFFFFFFFFFFFFFFFFFFFFFFFFFFFFFFFFFFFFFFFFFFFFFFF
310
FFFFFFFFFFFFFFFFF000FFFFFFFFFFFFFFFFFFFFFFFFFFFFFFFFFFFFFFFFFFFF
310
FFFFFFFFFFFFFFFFFFFFFFFFFFFFFFFFFFFFFFFFFFFFFFFFFFFFFFFFFFFFFFFF
310
FFFFFFFFFFFFFFFFFFFFFFFFFFFFFFFFFFFFFFFFFFFFFFFFFFFFFFFFFFFFFFFF
310
F000FFFFFFFFFFFFFFFFFFFFFFFFFFFFFFFFFFFFFFFFFFFFFFFFFFFFFFFFFFFF
310
FFFFFFFFFFFFFFFFFFFFFFFFFFFFFFFFFFFFFFFFFFFFFFFFFFFFFFFFFFFFFFFF
310
FFFFFFFFFFFFFFFFFFFFFFFFFFFFFFFFFFFFFFFFFFFFFFFFF000FFFFFFFFFFFF
310
FFFFFFFFFFFFFFFFFFFFFFFFFFFFFFFFFFFFFFFFFFFFFFFFFFFFFFFFFFFFFFFF
310
FFFFFFFFFFFFFFFFFFFFFFFFFFFFFFFFFFFFFFFFFFFFFFFFFFFFFFFFFFFFFFFF
310
FFFFFFFFFFFFFFFFFFFFFFFFFFFFFFFFF0000000000000000000000000000000
310
0000000000000000000000000000000000000000000000000000000000000000
310
0000000000000000000000000000000000000000000000000000000000000000
310
0000000000000000000000000000000000000000000000000000000000000000
310
0000000000000000000000000000000000000000000000000000000000000000
310
0000000000000000000000000000000000000000000000000000000000000000
310
0000000000000000000000000000000000000000000000000000000000000000
310
0000000000000000000000000000000000000000000000000000000000000000
310
0000000000000000000000000000000000000000000000000000000000000000
310
0000000000000000000000000000000000000000000000000000000000000000
310
0000000000000000000000000000000000000000000000000000000000000000
310
0000000000000000000000000000000000000000000000000000000000000000
310
0000000000000000000000000000000000000000000000000000000000000000
310
0000000000000000000000000000000000000000000000000000000000000000
310
0000000000000000000000000000000000000000000000000000000000000000
310
0000000000000000000000000000000000000000000000000000000000000000
  1
OLE
  0
ENDSEC
  0
SECTION
  2
OBJECTS
  0
DICTIONARY
  5
C
330
0
100
AcDbDictionary
281
     1
  3
ACAD_GROUP
350
D
  3
ACAD_LAYOUT
350
1A
  3
ACAD_MLINESTYLE
350
17
  3
ACAD_PLOTSETTINGS
350
19
  3
ACAD_PLOTSTYLENAME
350
E
  3
ACAD_SCALELIST
350
47
  0
DICTIONARY
  5
D
102
{ACAD_REACTORS
330
C
102
}
330
C
100
AcDbDictionary
281
     1
  0
DICTIONARY
  5
1A
102
{ACAD_REACTORS
330
C
102
}
330
C
100
AcDbDictionary
281
     1
  3
Layout1
350
1E
  3
Layout2
350
26
  3
Model
350
22
  0
DICTIONARY
  5
17
102
{ACAD_REACTORS
330
C
102
}
330
C
100
AcDbDictionary
281
     1
  3
Standard
350
18
  0
DICTIONARY
  5
19
102
{ACAD_REACTORS
330
C
102
}
330
C
100
AcDbDictionary
281
     1
  0
ACDBDICTIONARYWDFLT
  5
E
102
{ACAD_REACTORS
330
C
102
}
330
C
100
AcDbDictionary
281
     1
  3
Normal
350
F
100
AcDbDictionaryWithDefault
340
F
  0
DICTIONARY
  5
47
102
{ACAD_REACTORS
330
C
102
}
330
C
100
AcDbDictionary
281
     1
  3
A0
350
48
  3
A1
350
49
  3
A2
350
4A
  3
A3
350
4B
  3
A4
350
4C
  3
A5
350
4D
  3
A6
350
4E
  3
A7
350
4F
  3
A8
350
50
  3
A9
350
51
  3
B0
350
52
  3
B1
350
53
  3
B2
350
54
  3
B3
350
55
  3
B4
350
56
  3
B5
350
57
  3
B6
350
58
  3
B7
350
59
  3
B8
350
5A
  3
B9
350
5B
  3
C0
350
5C
  3
C1
350
5D
  3
C2
350
5E
  3
C3
350
5F
  3
C4
350
60
  3
C5
350
61
  3
C6
350
62
  3
C7
350
63
  3
C8
350
64
  3
C9
350
65
  3
D0
350
66
  3
D1
350
67
  3
D2
350
68
  0
LAYOUT
  5
1E
102
{ACAD_REACTORS
330
1A
102
}
330
1A
100
AcDbPlotSettings
  1

  2
none_device
  4

  6

 40
0.0
 41
0.0
 42
0.0
 43
0.0
 44
0.0
 45
0.0
 46
0.0
 47
0.0
 48
0.0
 49
0.0
140
0.0
141
0.0
142
1.0
143
1.0
 70
   688
 72
     1
 73
     0
 74
     5
  7

 75
    16
147
1.0
148
0.0
149
0.0
100
AcDbLayout
  1
Layout1
 70
     1
 71
     1
 10
0.0
 20
0.0
 11
420.0
 21
297.0
 12
0.0
 22
0.0
 32
0.0
 14
1.0000000000E+20
 24
1.0000000000E+20
 34
1.0000000000E+20
 15
-1.0000000000E+20
 25
-1.0000000000E+20
 35
-1.0000000000E+20
146
0.0
 13
0.0
 23
0.0
 33
0.0
 16
1.0
 26
0.0
 36
0.0
 17
0.0
 27
1.0
 37
0.0
 76
     0
330
1B
  0
LAYOUT
  5
26
102
{ACAD_REACTORS
330
1A
102
}
330
1A
100
AcDbPlotSettings
  1

  2
none_device
  4

  6

 40
0.0
 41
0.0
 42
0.0
 43
0.0
 44
0.0
 45
0.0
 46
0.0
 47
0.0
 48
0.0
 49
0.0
140
0.0
141
0.0
142
1.0
143
1.0
 70
   688
 72
     1
 73
     0
 74
     5
  7

 75
    16
147
1.0
148
0.0
149
0.0
100
AcDbLayout
  1
Layout2
 70
     1
 71
     2
 10
0.0
 20
0.0
 11
0.0
 21
0.0
 12
0.0
 22
0.0
 32
0.0
 14
0.0
 24
0.0
 34
0.0
 15
0.0
 25
0.0
 35
0.0
146
0.0
 13
0.0
 23
0.0
 33
0.0
 16
1.0
 26
0.0
 36
0.0
 17
0.0
 27
1.0
 37
0.0
 76
     0
330
23
  0
LAYOUT
  5
22
102
{ACAD_REACTORS
330
1A
102
}
330
1A
100
AcDbPlotSettings
  1

  2
none_device
  4
Letter_(8.50_x_11.00_Inches)
  6

 40
6.35
 41
6.35
 42
6.35000508
 43
6.35000508
 44
215.9
 45
279.4
 46
0.0
 47
0.0
 48
0.0
 49
0.0
140
0.0
141
0.0
142
1.0
143
1.0
 70
  1712
 72
     1
 73
     0
 74
     0
  7

 75
     0
147
1.0
148
0.0
149
0.0
100
AcDbLayout
  1
Model
 70
     1
 71
     0
 10
0.0
 20
0.0
 11
297.0
 21
210.0
 12
0.0
 22
0.0
 32
0.0
 14
0.0
 24
0.0
 34
0.0
 15
297.0
 25
210.0
 35
0.0
146
0.0
 13
0.0
 23
0.0
 33
0.0
 16
1.0
 26
0.0
 36
0.0
 17
0.0
 27
1.0
 37
0.0
 76
     0
330
1F
331
29
  0
MLINESTYLE
  5
18
102
{ACAD_REACTORS
330
17
102
}
330
17
100
AcDbMlineStyle
  2
Standard
 70
     0
  3

 62
   256
 51
90.0
 52
90.0
 71
     2
 49
0.5
 62
   256
  6
BYLAYER
 49
-0.5
 62
   256
  6
BYLAYER
  0
ACDBPLACEHOLDER
  5
F
102
{ACAD_REACTORS
330
E
102
}
330
E
  0
SCALE
  5
48
102
{ACAD_REACTORS
330
47
102
}
330
47
100
AcDbScale
 70
     0
300
1:1
140
1.0
141
1.0
290
     1
  0
SCALE
  5
49
102
{ACAD_REACTORS
330
47
102
}
330
47
100
AcDbScale
 70
     0
300
1:2
140
1.0
141
2.0
290
     0
  0
SCALE
  5
4A
102
{ACAD_REACTORS
330
47
102
}
330
47
100
AcDbScale
 70
     0
300
1:4
140
1.0
141
4.0
290
     0
  0
SCALE
  5
4B
102
{ACAD_REACTORS
330
47
102
}
330
47
100
AcDbScale
 70
     0
300
1:5
140
1.0
141
5.0
290
     0
  0
SCALE
  5
4C
102
{ACAD_REACTORS
330
47
102
}
330
47
100
AcDbScale
 70
     0
300
1:8
140
1.0
141
8.0
290
     0
  0
SCALE
  5
4D
102
{ACAD_REACTORS
330
47
102
}
330
47
100
AcDbScale
 70
     0
300
1:10
140
1.0
141
10.0
290
     0
  0
SCALE
  5
4E
102
{ACAD_REACTORS
330
47
102
}
330
47
100
AcDbScale
 70
     0
300
1:16
140
1.0
141
16.0
290
     0
  0
SCALE
  5
4F
102
{ACAD_REACTORS
330
47
102
}
330
47
100
AcDbScale
 70
     0
300
1:20
140
1.0
141
20.0
290
     0
  0
SCALE
  5
50
102
{ACAD_REACTORS
330
47
102
}
330
47
100
AcDbScale
 70
     0
300
1:30
140
1.0
141
30.0
290
     0
  0
SCALE
  5
51
102
{ACAD_REACTORS
330
47
102
}
330
47
100
AcDbScale
 70
     0
300
1:40
140
1.0
141
40.0
290
     0
  0
SCALE
  5
52
102
{ACAD_REACTORS
330
47
102
}
330
47
100
AcDbScale
 70
     0
300
1:50
140
1.0
141
50.0
290
     0
  0
SCALE
  5
53
102
{ACAD_REACTORS
330
47
102
}
330
47
100
AcDbScale
 70
     0
300
1:100
140
1.0
141
100.0
290
     0
  0
SCALE
  5
54
102
{ACAD_REACTORS
330
47
102
}
330
47
100
AcDbScale
 70
     0
300
2:1
140
2.0
141
1.0
290
     0
  0
SCALE
  5
55
102
{ACAD_REACTORS
330
47
102
}
330
47
100
AcDbScale
 70
     0
300
4:1
140
4.0
141
1.0
290
     0
  0
SCALE
  5
56
102
{ACAD_REACTORS
330
47
102
}
330
47
100
AcDbScale
 70
     0
300
8:1
140
8.0
141
1.0
290
     0
  0
SCALE
  5
57
102
{ACAD_REACTORS
330
47
102
}
330
47
100
AcDbScale
 70
     0
300
10:1
140
10.0
141
1.0
290
     0
  0
SCALE
  5
58
102
{ACAD_REACTORS
330
47
102
}
330
47
100
AcDbScale
 70
     0
300
100:1
140
100.0
141
1.0
290
     0
  0
SCALE
  5
59
102
{ACAD_REACTORS
330
47
102
}
330
47
100
AcDbScale
 70
     0
300
1/128" = 1'-0"
140
0.0078125
141
12.0
290
     0
  0
SCALE
  5
5A
102
{ACAD_REACTORS
330
47
102
}
330
47
100
AcDbScale
 70
     0
300
1/64" = 1'-0"
140
0.015625
141
12.0
290
     0
  0
SCALE
  5
5B
102
{ACAD_REACTORS
330
47
102
}
330
47
100
AcDbScale
 70
     0
300
1/32" = 1'-0"
140
0.03125
141
12.0
290
     0
  0
SCALE
  5
5C
102
{ACAD_REACTORS
330
47
102
}
330
47
100
AcDbScale
 70
     0
300
1/16" = 1'-0"
140
0.0625
141
12.0
290
     0
  0
SCALE
  5
5D
102
{ACAD_REACTORS
330
47
102
}
330
47
100
AcDbScale
 70
     0
300
3/32" = 1'-0"
140
0.09375
141
12.0
290
     0
  0
SCALE
  5
5E
102
{ACAD_REACTORS
330
47
102
}
330
47
100
AcDbScale
 70
     0
300
1/8" = 1'-0"
140
0.125
141
12.0
290
     0
  0
SCALE
  5
5F
102
{ACAD_REACTORS
330
47
102
}
330
47
100
AcDbScale
 70
     0
300
3/16" = 1'-0"
140
0.1875
141
12.0
290
     0
  0
SCALE
  5
60
102
{ACAD_REACTORS
330
47
102
}
330
47
100
AcDbScale
 70
     0
300
1/4" = 1'-0"
140
0.25
141
12.0
290
     0
  0
SCALE
  5
61
102
{ACAD_REACTORS
330
47
102
}
330
47
100
AcDbScale
 70
     0
300
3/8" = 1'-0"
140
0.375
141
12.0
290
     0
  0
SCALE
  5
62
102
{ACAD_REACTORS
330
47
102
}
330
47
100
AcDbScale
 70
     0
300
1/2" = 1'-0"
140
0.5
141
12.0
290
     0
  0
SCALE
  5
63
102
{ACAD_REACTORS
330
47
102
}
330
47
100
AcDbScale
 70
     0
300
3/4" = 1'-0"
140
0.75
141
12.0
290
     0
  0
SCALE
  5
64
102
{ACAD_REACTORS
330
47
102
}
330
47
100
AcDbScale
 70
     0
300
1" = 1'-0"
140
1.0
141
12.0
290
     0
  0
SCALE
  5
65
102
{ACAD_REACTORS
330
47
102
}
330
47
100
AcDbScale
 70
     0
300
1-1/2" = 1'-0"
140
1.5
141
12.0
290
     0
  0
SCALE
  5
66
102
{ACAD_REACTORS
330
47
102
}
330
47
100
AcDbScale
 70
     0
300
3" = 1'-0"
140
3.0
141
12.0
290
     0
  0
SCALE
  5
67
102
{ACAD_REACTORS
330
47
102
}
330
47
100
AcDbScale
 70
     0
300
6" = 1'-0"
140
6.0
141
12.0
290
     0
  0
SCALE
  5
68
102
{ACAD_REACTORS
330
47
102
}
330
47
100
AcDbScale
 70
     0
300
1'-0" = 1'-0"
140
12.0
141
12.0
290
     0
  0
ENDSEC
  0
EOF
