  0
SECTION
  2
HEADER
  9
$ACADVER
  1
AC1015
  9
$ACADMAINTVER
 70
     6
  9
$DWGCODEPAGE
  3
ANSI_1252
  9
$INSBASE
 10
0.0
 20
0.0
 30
0.0
  9
$EXTMIN
 10
0.0
 20
0.0
 30
0.0
  9
$EXTMAX
 10
297.0
 20
210.0
 30
0.0
  9
$LIMMIN
 10
0.0
 20
0.0
  9
$LIMMAX
 10
297.0
 20
210.0
  9
$ORTHOMODE
 70
     0
  9
$REGENMODE
 70
     1
  9
$FILLMODE
 70
     1
  9
$QTEXTMODE
 70
     0
  9
$MIRRTEXT
 70
     1
  9
$LTSCALE
 40
1.0
  9
$ATTMODE
 70
     1
  9
$TEXTSIZE
 40
2.0
  9
$TRACEWID
 40
1.0
  9
$TEXTSTYLE
  7
Standard
  9
$CLAYER
  8
0
  9
$CELTYPE
  6
ByLayer
  9
$CECOLOR
 62
   256
  9
$CELTSCALE
 40
1.0
  9
$DISPSILH
 70
     0
  9
$DIMSCALE
 40
1.0
  9
$DIMASZ
 40
3.0
  9
$DIMEXO
 40
0.0
  9
$DIMDLI
 40
3.75
  9
$DIMRND
 40
0.0
  9
$DIMDLE
 40
0.0
  9
$DIMEXE
 40
1.0
  9
$DIMTP
 40
0.0
  9
$DIMTM
 40
0.0
  9
$DIMTXT
 40
2.0
  9
$DIMCEN
 40
2.5
  9
$DIMTSZ
 40
0.0
  9
$DIMTOL
 70
     0
  9
$DIMLIM
 70
     0
  9
$DIMTIH
 70
     1
  9
$DIMTOH
 70
     1
  9
$DIMSE1
 70
     0
  9
$DIMSE2
 70
     0
  9
$DIMTAD
 70
     1
  9
$DIMZIN
 70
     0
  9
$DIMBLK
  1

  9
$DIMASO
 70
     1
  9
$DIMSHO
 70
     1
  9
$DIMPOST
  1

  9
$DIMAPOST
  1

  9
$DIMALT
 70
     0
  9
$DIMALTD
 70
     3
  9
$DIMALTF
 40
0.0393700787
  9
$DIMLFAC
 40
1.0
  9
$DIMTOFL
 70
     1
  9
$DIMTVP
 40
0.0
  9
$DIMTIX
 70
     0
  9
$DIMSOXD
 70
     0
  9
$DIMSAH
 70
     0
  9
$DIMBLK1
  1

  9
$DIMBLK2
  1

  9
$DIMSTYLE
  2
ISO-25
  9
$DIMCLRD
 70
     0
  9
$DIMCLRE
 70
     0
  9
$DIMCLRT
 70
     0
  9
$DIMTFAC
 40
1.0
  9
$DIMGAP
 40
1.524
  9
$DIMJUST
 70
     0
  9
$DIMSD1
 70
     0
  9
$DIMSD2
 70
     0
  9
$DIMTOLJ
 70
     0
  9
$DIMTZIN
 70
     0
  9
$DIMALTZ
 70
     0
  9
$DIMALTTZ
 70
     0
  9
$DIMUPT
 70
     0
  9
$DIMDEC
 70
     2
  9
$DIMTDEC
 70
     3
  9
$DIMALTU
 70
     2
  9
$DIMALTTD
 70
     3
  9
$DIMTXSTY
  7
Standard
  9
$DIMAUNIT
 70
     0
  9
$DIMADEC
 70
     2
  9
$DIMALTRND
 40
0.0
  9
$DIMAZIN
 70
     0
  9
$DIMDSEP
 70
    44
  9
$DIMATFIT
 70
     3
  9
$DIMFRAC
 70
     0
  9
$DIMLDRBLK
  1

  9
$DIMLUNIT
 70
     2
  9
$DIMLWD
 70
    -2
  9
$DIMLWE
 70
    -2
  9
$DIMTMOVE
 70
     0
  9
$LUNITS
 70
     2
  9
$LUPREC
 70
     2
  9
$SKETCHINC
 40
1.0
  9
$FILLETRAD
 40
10.0
  9
$AUNITS
 70
     0
  9
$AUPREC
 70
     2
  9
$MENU
  1
.
  9
$ELEVATION
 40
0.0
  9
$PELEVATION
 40
0.0
  9
$THICKNESS
 40
0.0
  9
$LIMCHECK
 70
     0
  9
$CHAMFERA
 40
0.0
  9
$CHAMFERB
 40
0.0
  9
$CHAMFERC
 40
0.0
  9
$CHAMFERD
 40
0.0
  9
$SKPOLY
 70
     0
  9
$TDCREATE
 40
2457667.459409526
  9
$TDUCREATE
 40
2457667.376076192
  9
$TDUPDATE
 40
2457667.459410729
  9
$TDUUPDATE
 40
2457667.376077396
  9
$TDINDWG
 40
0.0000000116
  9
$TDUSRTIMER
 40
0.0000000116
  9
$USRTIMER
 70
     1
  9
$ANGBASE
 50
0.0
  9
$ANGDIR
 70
     0
  9
$PDMODE
 70
     0
  9
$PDSIZE
 40
-1.0
  9
$PLINEWID
 40
0.0
  9
$SPLFRAME
 70
     0
  9
$SPLINETYPE
 70
     6
  9
$SPLINESEGS
 70
     8
  9
$HANDSEED
  5
211
  9
$SURFTAB1
 70
     6
  9
$SURFTAB2
 70
     6
  9
$SURFTYPE
 70
     6
  9
$SURFU
 70
     6
  9
$SURFV
 70
     6
  9
$UCSBASE
  2

  9
$UCSNAME
  2

  9
$UCSORG
 10
0.0
 20
0.0
 30
0.0
  9
$UCSXDIR
 10
1.0
 20
0.0
 30
0.0
  9
$UCSYDIR
 10
0.0
 20
1.0
 30
0.0
  9
$UCSORTHOREF
  2

  9
$UCSORTHOVIEW
 70
     0
  9
$UCSORGTOP
 10
0.0
 20
0.0
 30
0.0
  9
$UCSORGBOTTOM
 10
0.0
 20
0.0
 30
0.0
  9
$UCSORGLEFT
 10
0.0
 20
0.0
 30
0.0
  9
$UCSORGRIGHT
 10
0.0
 20
0.0
 30
0.0
  9
$UCSORGFRONT
 10
0.0
 20
0.0
 30
0.0
  9
$UCSORGBACK
 10
0.0
 20
0.0
 30
0.0
  9
$PUCSBASE
  2

  9
$PUCSNAME
  2

  9
$PUCSORG
 10
0.0
 20
0.0
 30
0.0
  9
$PUCSXDIR
 10
1.0
 20
0.0
 30
0.0
  9
$PUCSYDIR
 10
0.0
 20
1.0
 30
0.0
  9
$PUCSORTHOREF
  2

  9
$PUCSORTHOVIEW
 70
     0
  9
$PUCSORGTOP
 10
0.0
 20
0.0
 30
0.0
  9
$PUCSORGBOTTOM
 10
0.0
 20
0.0
 30
0.0
  9
$PUCSORGLEFT
 10
0.0
 20
0.0
 30
0.0
  9
$PUCSORGRIGHT
 10
0.0
 20
0.0
 30
0.0
  9
$PUCSORGFRONT
 10
0.0
 20
0.0
 30
0.0
  9
$PUCSORGBACK
 10
0.0
 20
0.0
 30
0.0
  9
$USERI1
 70
     0
  9
$USERI2
 70
     0
  9
$USERI3
 70
     0
  9
$USERI4
 70
     0
  9
$USERI5
 70
     0
  9
$USERR1
 40
0.0
  9
$USERR2
 40
0.0
  9
$USERR3
 40
0.0
  9
$USERR4
 40
0.0
  9
$USERR5
 40
0.0
  9
$WORLDVIEW
 70
     1
  9
$SHADEDGE
 70
     3
  9
$SHADEDIF
 70
    70
  9
$TILEMODE
 70
     1
  9
$MAXACTVP
 70
    64
  9
$PINSBASE
 10
0.0
 20
0.0
 30
0.0
  9
$PLIMCHECK
 70
     0
  9
$PEXTMIN
 10
1.0000000000E+20
 20
1.0000000000E+20
 30
1.0000000000E+20
  9
$PEXTMAX
 10
-1.0000000000E+20
 20
-1.0000000000E+20
 30
-1.0000000000E+20
  9
$PLIMMIN
 10
0.0
 20
0.0
  9
$PLIMMAX
 10
420.0
 20
297.0
  9
$UNITMODE
 70
     0
  9
$VISRETAIN
 70
     1
  9
$PLINEGEN
 70
     0
  9
$PSLTSCALE
 70
     1
  9
$TREEDEPTH
 70
  3020
  9
$CMLSTYLE
  2
Standard
  9
$CMLJUST
 70
     0
  9
$CMLSCALE
 40
20.0
  9
$PROXYGRAPHICS
 70
     1
  9
$MEASUREMENT
 70
     1
  9
$CELWEIGHT
370
    -1
  9
$ENDCAPS
280
     0
  9
$JOINSTYLE
280
     0
  9
$LWDISPLAY
290
     1
  9
$INSUNITS
 70
     4
  9
$HYPERLINKBASE
  1

  9
$STYLESHEET
  1

  9
$XEDIT
290
     1
  9
$CEPSNTYPE
380
     0
  9
$PSTYLEMODE
290
     1
  9
$FINGERPRINTGUID
  2
{559FB52D-6235-48B3-BEBF-4380B1B26097}
  9
$VERSIONGUID
  2
{FAEB1C32-E019-11D5-929B-00C0DF256EC4}
  9
$EXTNAMES
290
     1
  9
$PSVPSCALE
 40
0.0
  9
$OLESTARTUP
290
     0
  0
ENDSEC
  0
SECTION
  2
CLASSES
  0
CLASS
  1
ACDBDICTIONARYWDFLT
  2
AcDbDictionaryWithDefault
  3
ObjectDBX Classes
 90
        0
280
     0
281
     0
  0
CLASS
  1
VISUALSTYLE
  2
AcDbVisualStyle
  3
ObjectDBX Classes
 90
     4095
280
     0
281
     0
  0
CLASS
  1
MATERIAL
  2
AcDbMaterial
  3
ObjectDBX Classes
 90
     1153
280
     0
281
     0
  0
CLASS
  1
SCALE
  2
AcDbScale
  3
ObjectDBX Classes
 90
     1153
280
     0
281
     0
  0
CLASS
  1
TABLESTYLE
  2
AcDbTableStyle
  3
ObjectDBX Classes
 90
     4095
280
     0
281
     0
  0
CLASS
  1
MLEADERSTYLE
  2
AcDbMLeaderStyle
  3
ACDB_MLEADERSTYLE_CLASS
 90
     4095
280
     0
281
     0
  0
CLASS
  1
SUN
  2
AcDbSun
  3
SCENEOE
 90
     1153
280
     0
281
     0
  0
CLASS
  1
ACDBPLACEHOLDER
  2
AcDbPlaceHolder
  3
ObjectDBX Classes
 90
        0
280
     0
281
     0
  0
CLASS
  1
LAYOUT
  2
AcDbLayout
  3
ObjectDBX Classes
 90
        0
280
     0
281
     0
  0
ENDSEC
  0
SECTION
  2
TABLES
  0
TABLE
  2
VPORT
  5
8
330
0
100
AcDbSymbolTable
 70
     1
  0
VPORT
  5
29
330
8
100
AcDbSymbolTableRecord
100
AcDbViewportTableRecord
  2
*Active
 70
     0
 10
0.0
 20
0.0
 11
1.0
 21
1.0
 12
148.5
 22
105.0
 13
0.0
 23
0.0
 14
10.0
 24
10.0
 15
10.0
 25
10.0
 16
0.0
 26
0.0
 36
1.0
 17
0.0
 27
0.0
 37
0.0
 40
210.0
 41
1.4142857143
 42
50.0
 43
0.0
 44
0.0
 50
0.0
 51
0.0
 71
     0
 72
  2000
 73
     1
 74
     3
 75
     0
 76
     0
 77
     0
 78
     0
281
     0
 65
     1
110
0.0
120
0.0
130
0.0
111
1.0
121
0.0
131
0.0
112
0.0
122
1.0
132
0.0
 79
     0
146
0.0
  0
ENDTAB
  0
TABLE
  2
LTYPE
  5
5
330
0
100
AcDbSymbolTable
 70
     6
  0
LTYPE
  5
14
330
5
100
AcDbSymbolTableRecord
100
AcDbLinetypeTableRecord
  2
ByBlock
 70
     0
  3

 72
    65
 73
     0
 40
0.0
  0
LTYPE
  5
15
330
5
100
AcDbSymbolTableRecord
100
AcDbLinetypeTableRecord
  2
ByLayer
 70
     0
  3

 72
    65
 73
     0
 40
0.0
  0
LTYPE
  5
16
330
5
100
AcDbSymbolTableRecord
100
AcDbLinetypeTableRecord
  2
Continuous
 70
     0
  3
Solid line
 72
    65
 73
     0
 40
0.0
  0
LTYPE
  5
6E
330
5
100
AcDbSymbolTableRecord
100
AcDbLinetypeTableRecord
  2
HIDDEN
 70
     0
  3
Hidden __ __ __ __ __ __ __ __ __ __ __ __ __ __
 72
    65
 73
     2
 40
1.905
 49
1.27
 74
     0
 49
-0.635
 74
     0
  0
LTYPE
  5
6F
330
5
100
AcDbSymbolTableRecord
100
AcDbLinetypeTableRecord
  2
PHANTOM
 70
     0
  3
Phantom ______  __  __  ______  __  __  ______
 72
    65
 73
     6
 40
12.7
 49
6.35
 74
     0
 49
-1.27
 74
     0
 49
1.27
 74
     0
 49
-1.27
 74
     0
 49
1.27
 74
     0
 49
-1.27
 74
     0
  0
LTYPE
  5
70
330
5
100
AcDbSymbolTableRecord
100
AcDbLinetypeTableRecord
  2
CENTER
 70
     0
  3
Center ____ _ ____ _ ____ _ ____ _ ____ _ ____
 72
    65
 73
     4
 40
10.16
 49
6.35
 74
     0
 49
-1.27
 74
     0
 49
1.27
 74
     0
 49
-1.27
 74
     0
  0
LTYPE
  5
71
330
5
100
AcDbSymbolTableRecord
100
AcDbLinetypeTableRecord
  2
CENTERX2
 70
     0
  3
Center (2x) ________  __  ________  __  _____
 72
    65
 73
     4
 40
20.32
 49
12.7
 74
     0
 49
-2.54
 74
     0
 49
2.54
 74
     0
 49
-2.54
 74
     0
  0
LTYPE
  5
72
330
5
100
AcDbSymbolTableRecord
100
AcDbLinetypeTableRecord
  2
DOT2
 70
     0
  3
Dot (.5x) ........................................
 72
    65
 73
     2
 40
0.635
 49
0.0
 74
     0
 49
-0.635
 74
     0
  0
ENDTAB
  0
TABLE
  2
LAYER
  5
2
330
0
100
AcDbSymbolTable
 70
     5
  0
LAYER
  5
10
330
2
100
AcDbSymbolTableRecord
100
AcDbLayerTableRecord
  2
0
 70
     0
 62
     7
  6
Continuous
370
    -3
390
F
  0
LAYER
  5
73
330
2
100
AcDbSymbolTableRecord
100
AcDbLayerTableRecord
  2
FORMAT
 70
     0
 62
     7
  6
Continuous
370
    -3
390
F
  0
LAYER
  5
74
330
2
100
AcDbSymbolTableRecord
100
AcDbLayerTableRecord
  2
VERMASSUNG
 70
     0
 62
     7
  6
Continuous
370
    -3
390
F
  0
LAYER
  5
75
330
2
100
AcDbSymbolTableRecord
100
AcDbLayerTableRecord
  2
KOPF_DÜNN
 70
     0
 62
     7
  6
Continuous
370
    -3
390
F
  0
LAYER
  5
76
330
2
100
AcDbSymbolTableRecord
100
AcDbLayerTableRecord
  2
KOPF_DICK
 70
     0
 62
     7
  6
Continuous
370
    15
390
F
  0
ENDTAB
  0
TABLE
  2
STYLE
  5
3
330
0
100
AcDbSymbolTable
 70
     2
  0
STYLE
  5
11
330
3
100
AcDbSymbolTableRecord
100
AcDbTextStyleTableRecord
  2
Standard
 70
     0
 40
0.0
 41
1.0
 50
0.0
 71
     0
 42
2.0
  3
txt
  4

  0
STYLE
  5
77
330
3
100
AcDbSymbolTableRecord
100
AcDbTextStyleTableRecord
  2
SLDTEXTSTYLE0
 70
     0
 40
0.0
 41
0.7
 50
0.0
 71
     0
 42
2.0
  3
TXT
  4

  0
ENDTAB
  0
TABLE
  2
VIEW
  5
6
330
0
100
AcDbSymbolTable
 70
     0
  0
ENDTAB
  0
TABLE
  2
UCS
  5
7
330
0
100
AcDbSymbolTable
 70
     0
  0
ENDTAB
  0
TABLE
  2
APPID
  5
9
330
0
100
AcDbSymbolTable
 70
     1
  0
APPID
  5
12
330
9
100
AcDbSymbolTableRecord
100
AcDbRegAppTableRecord
  2
ACAD
 70
     0
  0
ENDTAB
  0
TABLE
  2
DIMSTYLE
  5
A
330
0
100
AcDbSymbolTable
 70
     2
100
AcDbDimStyleTable
  0
DIMSTYLE
105
27
330
A
100
AcDbSymbolTableRecord
100
AcDbDimStyleTableRecord
  2
ISO-25
 70
     0
 41
2.5
 42
0.625
 43
3.75
 44
1.25
 73
     0
 74
     0
 77
     1
 78
     8
140
2.5
141
2.5
143
0.0393700787
147
0.625
171
     3
172
     1
178
     0
271
     2
272
     2
274
     3
278
    44
283
     0
284
     8
340
11
  0
DIMSTYLE
105
12A
102
{ACAD_REACTORS
330
129
330
136
330
141
330
14B
330
157
330
163
102
}
330
A
100
AcDbSymbolTableRecord
100
AcDbDimStyleTableRecord
  2
SLDDIMSTYLE0
 70
     0
 41
3.0
 44
0.0
 45
0.000000001
 73
     0
 74
     0
 77
     1
 78
    12
 79
     3
140
2.0
147
0.5
173
     1
178
     0
271
     2
272
     3
276
     2
284
    12
340
77
  0
ENDTAB
  0
TABLE
  2
BLOCK_RECORD
  5
1
330
0
100
AcDbSymbolTable
 70
     7
  0
BLOCK_RECORD
  5
1F
330
1
100
AcDbSymbolTableRecord
100
AcDbBlockTableRecord
  2
*Model_Space
340
22
  0
BLOCK_RECORD
  5
1B
330
1
100
AcDbSymbolTableRecord
100
AcDbBlockTableRecord
  2
*Paper_Space
340
1E
  0
BLOCK_RECORD
  5
23
330
1
100
AcDbSymbolTableRecord
100
AcDbBlockTableRecord
  2
*Paper_Space0
340
26
  0
BLOCK_RECORD
  5
12B
330
1
100
AcDbSymbolTableRecord
100
AcDbBlockTableRecord
  2
_D
340
0
  0
BLOCK_RECORD
  5
137
330
1
100
AcDbSymbolTableRecord
100
AcDbBlockTableRecord
  2
_D_1
340
0
  0
BLOCK_RECORD
  5
142
330
1
100
AcDbSymbolTableRecord
100
AcDbBlockTableRecord
  2
_D_2
340
0
  0
BLOCK_RECORD
  5
14C
330
1
100
AcDbSymbolTableRecord
100
AcDbBlockTableRecord
  2
_D_3
340
0
  0
BLOCK_RECORD
  5
158
330
1
100
AcDbSymbolTableRecord
100
AcDbBlockTableRecord
  2
_D_4
340
0
  0
BLOCK_RECORD
  5
164
330
1
100
AcDbSymbolTableRecord
100
AcDbBlockTableRecord
  2
_D_5
340
0
  0
ENDTAB
  0
ENDSEC
  0
SECTION
  2
BLOCKS
  0
BLOCK
  5
20
330
1F
100
AcDbEntity
  8
0
100
AcDbBlockBegin
  2
*Model_Space
 70
     0
 10
0.0
 20
0.0
 30
0.0
  3
*Model_Space
  1

  0
ENDBLK
  5
21
330
1F
100
AcDbEntity
  8
0
100
AcDbBlockEnd
  0
BLOCK
  5
1C
330
1B
100
AcDbEntity
 67
     1
  8
0
100
AcDbBlockBegin
  2
*Paper_Space
 70
     0
 10
0.0
 20
0.0
 30
0.0
  3
*Paper_Space
  1

  0
ENDBLK
  5
1D
330
1B
100
AcDbEntity
 67
     1
  8
0
100
AcDbBlockEnd
  0
BLOCK
  5
24
330
23
100
AcDbEntity
  8
0
100
AcDbBlockBegin
  2
*Paper_Space0
 70
     0
 10
0.0
 20
0.0
 30
0.0
  3
*Paper_Space0
  1

  0
ENDBLK
  5
25
330
23
100
AcDbEntity
  8
0
100
AcDbBlockEnd
  0
BLOCK
  5
12C
330
12B
100
AcDbEntity
  8
0
100
AcDbBlockBegin
  2
_D
 70
     0
 10
0.0
 20
0.0
 30
0.0
  3
_D
  1

  0
SOLID
  5
12E
330
12B
100
AcDbEntity
  8
VERMASSUNG
100
AcDbTrace
 10
90.6734291581
 20
74.1676766784
 30
0.0
 11
91.1234291581
 21
77.1676766784
 31
0.0
 12
90.2234291581
 22
77.1676766784
 32
0.0
 13
90.2234291581
 23
77.1676766784
 33
0.0
  0
SOLID
  5
12F
330
12B
100
AcDbEntity
  8
VERMASSUNG
100
AcDbTrace
 10
90.6734291581
 20
137.6676766784
 30
0.0
 11
90.2234291581
 21
134.6676766784
 31
0.0
 12
91.1234291581
 22
134.6676766784
 32
0.0
 13
91.1234291581
 23
134.6676766784
 33
0.0
  0
LINE
  5
130
330
12B
100
AcDbEntity
  8
VERMASSUNG
100
AcDbLine
 10
183.5832039974
 20
74.1676766784
 30
0.0
 11
89.6734291581
 21
74.1676766784
 31
0.0
  0
LINE
  5
131
330
12B
100
AcDbEntity
  8
VERMASSUNG
100
AcDbLine
 10
183.5832039974
 20
137.6676766784
 30
0.0
 11
89.6734291581
 21
137.6676766784
 31
0.0
  0
LINE
  5
132
330
12B
100
AcDbEntity
  8
VERMASSUNG
100
AcDbLine
 10
90.6734291581
 20
74.1676766784
 30
0.0
 11
90.6734291581
 21
137.6676766784
 31
0.0
  0
MTEXT
  5
133
330
12B
100
AcDbEntity
  8
VERMASSUNG
100
AcDbMText
 10
87.8952939019
 20
97.1147405301
 30
0.0
 40
2.0
 41
0.0
 71
     1
 72
     1
  1
ISO 40
  7
SLDTEXTSTYLE0
 11
3.391901413832837E-15
 21
1.0
 31
0.0
 73
     1
 44
1.0
  0
MTEXT
  5
134
330
12B
100
AcDbEntity
  8
VERMASSUNG
100
AcDbMText
 10
88.0952938532
 20
106.3147407343
 30
0.0
 40
2.0
 41
0.0
 71
     1
 72
     1
  1
%%c
  7
SLDTEXTSTYLE0
 11
3.391901413832837E-15
 21
1.0
 31
0.0
 73
     1
 44
1.0
  0
MTEXT
  5
135
330
12B
100
AcDbEntity
  8
VERMASSUNG
100
AcDbMText
 10
88.0952935622
 20
109.9226210657
 30
0.0
 40
2.0
 41
0.0
 71
     1
 72
     1
  1
63.5
  7
SLDTEXTSTYLE0
 11
3.391901413832837E-15
 21
1.0
 31
0.0
 73
     1
 44
1.0
  0
ENDBLK
  5
12D
330
12B
100
AcDbEntity
  8
0
100
AcDbBlockEnd
  0
BLOCK
  5
138
330
137
100
AcDbEntity
  8
0
100
AcDbBlockBegin
  2
_D_1
 70
     0
 10
0.0
 20
0.0
 30
0.0
  3
_D_1
  1

  0
SOLID
  5
13A
330
137
100
AcDbEntity
  8
VERMASSUNG
100
AcDbTrace
 10
215.1566555366
 20
116.9176766784
 30
0.0
 11
214.7066555366
 21
113.9176766784
 31
0.0
 12
215.6066555366
 22
113.9176766784
 32
0.0
 13
215.6066555366
 23
113.9176766784
 33
0.0
  0
SOLID
  5
13B
330
137
100
AcDbEntity
  8
VERMASSUNG
100
AcDbTrace
 10
215.1566555366
 20
94.9176766784
 30
0.0
 11
215.6066555366
 21
97.9176766784
 31
0.0
 12
214.7066555366
 22
97.9176766784
 32
0.0
 13
214.7066555366
 23
97.9176766784
 33
0.0
  0
LINE
  5
13C
330
137
100
AcDbEntity
  8
VERMASSUNG
100
AcDbLine
 10
197.5332039974
 20
116.9176766784
 30
0.0
 11
216.1566555366
 21
116.9176766784
 31
0.0
  0
LINE
  5
13D
330
137
100
AcDbEntity
  8
VERMASSUNG
100
AcDbLine
 10
197.5332039974
 20
94.9176766784
 30
0.0
 11
216.1566555366
 21
94.9176766784
 31
0.0
  0
LINE
  5
13E
330
137
100
AcDbEntity
  8
VERMASSUNG
100
AcDbLine
 10
215.1566555366
 20
116.9176766784
 30
0.0
 11
215.1566555366
 21
94.9176766784
 31
0.0
  0
MTEXT
  5
13F
330
137
100
AcDbEntity
  8
VERMASSUNG
100
AcDbMText
 10
212.5785199988
 20
102.7135005713
 30
0.0
 40
2.0
 41
0.0
 71
     1
 72
     1
  1
%%c
  7
SLDTEXTSTYLE0
 11
-7.044195017643634E-15
 21
1.0
 31
0.0
 73
     1
 44
1.0
  0
MTEXT
  5
140
330
137
100
AcDbEntity
  8
VERMASSUNG
100
AcDbMText
 10
212.5785199406
 20
106.322472765
 30
0.0
 40
2.0
 41
0.0
 71
     1
 72
     1
  1
22
  7
SLDTEXTSTYLE0
 11
-7.044195017643634E-15
 21
1.0
 31
0.0
 73
     1
 44
1.0
  0
ENDBLK
  5
139
330
137
100
AcDbEntity
  8
0
100
AcDbBlockEnd
  0
BLOCK
  5
143
330
142
100
AcDbEntity
  8
0
100
AcDbBlockBegin
  2
_D_2
 70
     0
 10
0.0
 20
0.0
 30
0.0
  3
_D_2
  1

  0
SOLID
  5
145
330
142
100
AcDbEntity
  8
VERMASSUNG
100
AcDbTrace
 10
165.1332039974
 20
146.9582279713
 30
0.0
 11
168.1332039974
 21
146.5082279713
 31
0.0
 12
168.1332039974
 22
147.4082279713
 32
0.0
 13
168.1332039974
 23
147.4082279713
 33
0.0
  0
SOLID
  5
146
330
142
100
AcDbEntity
  8
VERMASSUNG
100
AcDbTrace
 10
208.1332039974
 20
146.9582279713
 30
0.0
 11
205.1332039974
 21
147.4082279713
 31
0.0
 12
205.1332039974
 22
146.5082279713
 32
0.0
 13
205.1332039974
 23
146.5082279713
 33
0.0
  0
LINE
  5
147
330
142
100
AcDbEntity
  8
VERMASSUNG
100
AcDbLine
 10
165.1332039974
 20
128.1426766784
 30
0.0
 11
165.1332039974
 21
147.9582279713
 31
0.0
  0
LINE
  5
148
330
142
100
AcDbEntity
  8
VERMASSUNG
100
AcDbLine
 10
208.1332039974
 20
125.0176766784
 30
0.0
 11
208.1332039974
 21
147.9582279713
 31
0.0
  0
LINE
  5
149
330
142
100
AcDbEntity
  8
VERMASSUNG
100
AcDbLine
 10
165.1332039974
 20
146.9582279713
 30
0.0
 11
208.1332039974
 21
146.9582279713
 31
0.0
  0
MTEXT
  5
14A
330
142
100
AcDbEntity
  8
VERMASSUNG
100
AcDbMText
 10
185.134245192
 20
149.5363635672
 30
0.0
 40
2.0
 41
0.0
 71
     1
 72
     1
  1
43
  7
SLDTEXTSTYLE0
 73
     1
 44
1.0
  0
ENDBLK
  5
144
330
142
100
AcDbEntity
  8
0
100
AcDbBlockEnd
  0
BLOCK
  5
14D
330
14C
100
AcDbEntity
  8
0
100
AcDbBlockBegin
  2
_D_3
 70
     0
 10
0.0
 20
0.0
 30
0.0
  3
_D_3
  1

  0
ARC
  5
14F
330
14C
100
AcDbEntity
  8
VERMASSUNG
100
AcDbCircle
 10
195.2699975092
 20
142.8575709167
 30
0.0
 40
4.247059938537233
100
AcDbArc
 50
153.4349488229
 51
206.5650511771
  0
ARC
  5
150
330
14C
100
AcDbEntity
  8
VERMASSUNG
100
AcDbCircle
 10
197.0464104855
 20
142.8575709167
 30
0.0
 40
4.247059938537233
100
AcDbArc
 50
333.4349488229
 51
26.5650511771
  0
SOLID
  5
151
330
14C
100
AcDbEntity
  8
VERMASSUNG
100
AcDbTrace
 10
184.1832039974
 20
140.9582279713
 30
0.0
 11
187.1832039974
 21
140.5082279713
 31
0.0
 12
187.1832039974
 22
141.4082279713
 32
0.0
 13
187.1832039974
 23
141.4082279713
 33
0.0
  0
SOLID
  5
152
330
14C
100
AcDbEntity
  8
VERMASSUNG
100
AcDbTrace
 10
208.1332039974
 20
140.9582279713
 30
0.0
 11
205.1332039974
 21
141.4082279713
 31
0.0
 12
205.1332039974
 22
140.5082279713
 32
0.0
 13
205.1332039974
 23
140.5082279713
 33
0.0
  0
LINE
  5
153
330
14C
100
AcDbEntity
  8
VERMASSUNG
100
AcDbLine
 10
184.1832039974
 20
135.9282278119
 30
0.0
 11
184.1832039974
 21
141.9582279713
 31
0.0
  0
LINE
  5
154
330
14C
100
AcDbEntity
  8
VERMASSUNG
100
AcDbLine
 10
208.1332039974
 20
125.0176766784
 30
0.0
 11
208.1332039974
 21
141.9582279713
 31
0.0
  0
LINE
  5
155
330
14C
100
AcDbEntity
  8
VERMASSUNG
100
AcDbLine
 10
184.1832039974
 20
140.9582279713
 30
0.0
 11
208.1332039974
 21
140.9582279713
 31
0.0
  0
MTEXT
  5
156
330
14C
100
AcDbEntity
  8
VERMASSUNG
100
AcDbMText
 10
193.0588116184
 20
143.5363635672
 30
0.0
 40
2.0
 41
0.0
 71
     1
 72
     1
  1
23.95
  7
SLDTEXTSTYLE0
 73
     1
 44
1.0
  0
ENDBLK
  5
14E
330
14C
100
AcDbEntity
  8
0
100
AcDbBlockEnd
  0
BLOCK
  5
159
330
158
100
AcDbEntity
  8
0
100
AcDbBlockBegin
  2
_D_4
 70
     0
 10
0.0
 20
0.0
 30
0.0
  3
_D_4
  1

  0
ARC
  5
15B
330
158
100
AcDbEntity
  8
VERMASSUNG
100
AcDbCircle
 10
151.5196257275
 20
154.8575709167
 30
0.0
 40
4.247059938537386
100
AcDbArc
 50
153.4349488229
 51
206.5650511771
  0
ARC
  5
15C
330
158
100
AcDbEntity
  8
VERMASSUNG
100
AcDbCircle
 10
153.4967822672
 20
154.8575709167
 30
0.0
 40
4.247059938537386
100
AcDbArc
 50
333.4349488229
 51
26.5650511771
  0
SOLID
  5
15D
330
158
100
AcDbEntity
  8
VERMASSUNG
100
AcDbTrace
 10
96.8832039974
 20
152.9582279713
 30
0.0
 11
99.8832039974
 21
152.5082279713
 31
0.0
 12
99.8832039974
 22
153.4082279713
 32
0.0
 13
99.8832039974
 23
153.4082279713
 33
0.0
  0
SOLID
  5
15E
330
158
100
AcDbEntity
  8
VERMASSUNG
100
AcDbTrace
 10
208.1332039974
 20
152.9582279713
 30
0.0
 11
205.1332039974
 21
153.4082279713
 31
0.0
 12
205.1332039974
 22
152.5082279713
 32
0.0
 13
205.1332039974
 23
152.5082279713
 33
0.0
  0
LINE
  5
15F
330
158
100
AcDbEntity
  8
VERMASSUNG
100
AcDbLine
 10
96.8832039974
 20
117.3248072755
 30
0.0
 11
96.8832039974
 21
153.9582279713
 31
0.0
  0
LINE
  5
160
330
158
100
AcDbEntity
  8
VERMASSUNG
100
AcDbLine
 10
208.1332039974
 20
125.0176766784
 30
0.0
 11
208.1332039974
 21
153.9582279713
 31
0.0
  0
LINE
  5
161
330
158
100
AcDbEntity
  8
VERMASSUNG
100
AcDbLine
 10
96.8832039974
 20
152.9582279713
 30
0.0
 11
208.1332039974
 21
152.9582279713
 31
0.0
  0
MTEXT
  5
162
330
158
100
AcDbEntity
  8
VERMASSUNG
100
AcDbMText
 10
149.3084398367
 20
155.5363635672
 30
0.0
 40
2.0
 41
0.0
 71
     1
 72
     1
  1
111.25
  7
SLDTEXTSTYLE0
 73
     1
 44
1.0
  0
ENDBLK
  5
15A
330
158
100
AcDbEntity
  8
0
100
AcDbBlockEnd
  0
BLOCK
  5
165
330
164
100
AcDbEntity
  8
0
100
AcDbBlockBegin
  2
_D_5
 70
     0
 10
0.0
 20
0.0
 30
0.0
  3
_D_5
  1

  0
SOLID
  5
167
330
164
100
AcDbEntity
  8
VERMASSUNG
100
AcDbTrace
 10
221.5887192303
 20
125.4176766784
 30
0.0
 11
221.1387192303
 21
122.4176766784
 31
0.0
 12
222.0387192303
 22
122.4176766784
 32
0.0
 13
222.0387192303
 23
122.4176766784
 33
0.0
  0
SOLID
  5
168
330
164
100
AcDbEntity
  8
VERMASSUNG
100
AcDbTrace
 10
221.5887192303
 20
86.4176766784
 30
0.0
 11
222.0387192303
 21
89.4176766784
 31
0.0
 12
221.1387192303
 22
89.4176766784
 32
0.0
 13
221.1387192303
 23
89.4176766784
 33
0.0
  0
LINE
  5
169
330
164
100
AcDbEntity
  8
VERMASSUNG
100
AcDbLine
 10
207.7332039974
 20
125.4176766784
 30
0.0
 11
222.5887192303
 21
125.4176766784
 31
0.0
  0
LINE
  5
16A
330
164
100
AcDbEntity
  8
VERMASSUNG
100
AcDbLine
 10
207.7332039974
 20
86.4176766784
 30
0.0
 11
222.5887192303
 21
86.4176766784
 31
0.0
  0
LINE
  5
16B
330
164
100
AcDbEntity
  8
VERMASSUNG
100
AcDbLine
 10
221.5887192303
 20
125.4176766784
 30
0.0
 11
221.5887192303
 21
86.4176766784
 31
0.0
  0
MTEXT
  5
16C
330
164
100
AcDbEntity
  8
VERMASSUNG
100
AcDbMText
 10
218.8105839741
 20
99.7126766951
 30
0.0
 40
2.0
 41
0.0
 71
     1
 72
     1
  1
ST4
  7
SLDTEXTSTYLE0
 11
-7.044195017643634E-15
 21
1.0
 31
0.0
 73
     1
 44
1.0
  0
MTEXT
  5
16D
330
164
100
AcDbEntity
  8
VERMASSUNG
100
AcDbMText
 10
219.0105839254
 20
105.7126767473
 30
0.0
 40
2.0
 41
0.0
 71
     1
 72
     1
  1
%%c
  7
SLDTEXTSTYLE0
 11
-7.044195017643634E-15
 21
1.0
 31
0.0
 73
     1
 44
1.0
  0
MTEXT
  5
16E
330
164
100
AcDbEntity
  8
VERMASSUNG
100
AcDbMText
 10
218.8105839741
 20
109.3226767616
 30
0.0
 40
2.0
 41
0.0
 71
     1
 72
     1
  1
39
  7
SLDTEXTSTYLE0
 11
-7.044195017643634E-15
 21
1.0
 31
0.0
 73
     1
 44
1.0
  0
ENDBLK
  5
166
330
164
100
AcDbEntity
  8
0
100
AcDbBlockEnd
  0
ENDSEC
  0
SECTION
  2
ENTITIES
  0
MTEXT
  5
78
330
1F
100
AcDbEntity
  8
KOPF_DÜNN
100
AcDbMText
 10
13.8892156294
 20
23.8442973028
 30
0.0
 40
3.0
 41
0.0
 71
     1
 72
     1
  1
114.440.039.043
  7
SLDTEXTSTYLE0
 73
     1
 44
1.0
  0
MTEXT
  5
79
330
1F
100
AcDbEntity
  8
VERMASSUNG
100
AcDbMText
 10
13.9329988022
 20
28.8834360957
 30
0.0
 40
3.0
 41
0.0
 71
     1
 72
     1
  1
Aufnahme_Master shank ST4
  7
SLDTEXTSTYLE0
 73
     1
 44
1.0
  0
MTEXT
  5
7A
330
1F
100
AcDbEntity
  8
VERMASSUNG
100
AcDbMText
 10
98.8601118557
 20
13.8365368761
 30
0.0
 40
2.0
 41
0.0
 71
     1
 72
     1
  1
Datum: 14.05.2008
  7
SLDTEXTSTYLE0
 73
     1
 44
1.0
  0
MTEXT
  5
7B
330
1F
100
AcDbEntity
  8
VERMASSUNG
100
AcDbMText
 10
13.933048693
 20
18.0482802738
 30
0.0
 40
2.0
 41
0.0
 71
     1
 72
     1
  1
DIN 69871 A/D ISO 40
  7
SLDTEXTSTYLE0
 73
     1
 44
1.0
  0
MTEXT
  5
7C
330
1F
100
AcDbEntity
  8
VERMASSUNG
100
AcDbMText
 10
13.9808475933
 20
13.9090974274
 30
0.0
 40
2.0
 41
0.0
 71
     1
 72
     1
  1
Gewicht: 962g
  7
SLDTEXTSTYLE0
 73
     1
 44
1.0
  0
ARC
  5
7D
330
1F
100
AcDbEntity
  8
0
  6
Continuous
 62
     7
370
    15
100
AcDbCircle
 10
188.1832039974
 20
82.4176766784
 30
0.0
 40
4.000000000000014
100
AcDbArc
 50
90.0
 51
166.9845536751
  0
ARC
  5
7E
330
1F
100
AcDbEntity
  8
0
  6
Continuous
 62
     7
370
    15
100
AcDbCircle
 10
188.1832039974
 20
129.4176766784
 30
0.0
 40
4.000000000000014
100
AcDbArc
 50
180.0
 51
270.0
  0
ARC
  5
7F
330
1F
100
AcDbEntity
  8
0
  6
Continuous
 62
     7
370
    15
100
AcDbCircle
 10
167.7332039974
 20
83.0926766784
 30
0.0
 40
0.6000000000000227
100
AcDbArc
 50
0.0
 51
90.0
  0
ARC
  5
80
330
1F
100
AcDbEntity
  8
0
  6
Continuous
 62
     7
370
    15
100
AcDbCircle
 10
167.7332039974
 20
128.7426766784
 30
0.0
 40
0.6000000000000227
100
AcDbArc
 50
270.0
 51
0.0
  0
LINE
  5
81
330
1F
100
AcDbEntity
  8
0
  6
Continuous
 62
     7
370
    15
100
AcDbLine
 10
165.1332039974
 20
128.1426766784
 30
0.0
 11
97.7388971043
 21
118.3143402565
 31
0.0
  0
LINE
  5
82
330
1F
100
AcDbEntity
  8
0
  6
Continuous
 62
     7
370
    15
100
AcDbLine
 10
97.7388971043
 20
93.5210131003
 30
0.0
 11
165.1332039974
 21
83.6926766784
 31
0.0
  0
LINE
  5
83
330
1F
100
AcDbEntity
  8
0
  6
Continuous
 62
     7
370
    15
100
AcDbLine
 10
165.1332039974
 20
83.6926766784
 30
0.0
 11
167.7332039974
 21
83.6926766784
 31
0.0
  0
LINE
  5
84
330
1F
100
AcDbEntity
  8
0
  6
Continuous
 62
     7
370
    15
100
AcDbLine
 10
167.7332039974
 20
128.1426766784
 30
0.0
 11
165.1332039974
 21
128.1426766784
 31
0.0
  0
LINE
  5
85
330
1F
100
AcDbEntity
  8
0
  6
Continuous
 62
     7
370
    15
100
AcDbLine
 10
207.7332039974
 20
125.4176766784
 30
0.0
 11
188.1832039974
 21
125.4176766784
 31
0.0
  0
LINE
  5
86
330
1F
100
AcDbEntity
  8
0
  6
Continuous
 62
     7
370
    15
100
AcDbLine
 10
188.1832039974
 20
86.4176766784
 30
0.0
 11
207.7332039974
 21
86.4176766784
 31
0.0
  0
LINE
  5
87
330
1F
100
AcDbEntity
  8
0
  6
Continuous
 62
     7
370
    15
100
AcDbLine
 10
207.7332039974
 20
86.4176766784
 30
0.0
 11
208.1332039974
 21
86.8176766784
 31
0.0
  0
LINE
  5
88
330
1F
100
AcDbEntity
  8
0
  6
Continuous
 62
     7
370
    15
100
AcDbLine
 10
208.1332039974
 20
125.0176766784
 30
0.0
 11
207.7332039974
 21
125.4176766784
 31
0.0
  0
ARC
  5
89
330
1F
100
AcDbEntity
  8
0
  6
Continuous
 62
     7
370
    15
100
AcDbCircle
 10
97.8832039974
 20
94.5105460814
 30
0.0
 40
0.9999999999999959
100
AcDbArc
 50
180.0
 51
261.7028550302
  0
ARC
  5
8A
330
1F
100
AcDbEntity
  8
0
  6
Continuous
 62
     7
370
    15
100
AcDbCircle
 10
97.8832039974
 20
117.3248072755
 30
0.0
 40
0.9999999999999959
100
AcDbArc
 50
98.2971449698
 51
180.0
  0
SPLINE
  5
8B
330
1F
100
AcDbEntity
  8
0
  6
Continuous
 62
     7
370
    15
100
AcDbSpline
210
0.0
220
0.0
230
1.0
 70
    24
 71
     3
 72
    11
 73
     7
 74
     0
 42
0.000000001
 43
0.00000001
 40
0.0
 40
0.0
 40
0.0
 40
0.0
 40
0.1285561766307337
 40
0.480153579784224
 40
0.8150691831753868
 40
1.0
 40
1.0
 40
1.0
 40
1.0
 10
195.9221746218132
 20
106.7321000151207
 30
0.0
 10
195.9940950971458
 20
106.7910714767395
 30
0.0
 10
196.2627159802164
 20
107.0113281702993
 30
0.0
 10
196.7664402988387
 20
107.4243588014888
 30
0.0
 10
197.3118674807581
 20
107.8715838507624
 30
0.0
 10
197.6040568103912
 20
108.1111655798623
 30
0.0
 10
197.7080006085885
 20
108.1963946843357
 30
0.0
  0
SPLINE
  5
8C
330
1F
100
AcDbEntity
  8
0
  6
Continuous
 62
     7
370
    15
100
AcDbSpline
210
0.0
220
0.0
230
1.0
 70
    24
 71
     3
 72
    11
 73
     7
 74
     0
 42
0.000000001
 43
0.00000001
 40
0.0
 40
0.0
 40
0.0
 40
0.0
 40
0.2164526859271105
 40
0.4403055508633995
 40
0.7518960204221901
 40
1.0
 40
1.0
 40
1.0
 40
1.0
 10
196.2973780105918
 20
104.4533820092274
 30
0.0
 10
196.2716765407648
 20
104.6094744215679
 30
0.0
 10
196.2193949080296
 20
104.9269958018492
 30
0.0
 10
196.122373602348
 20
105.516234073208
 30
0.0
 10
196.018299586065
 20
106.1483054828554
 30
0.0
 10
195.9516980589974
 20
106.5527956966643
 30
0.0
 10
195.9221746218132
 20
106.7321000151207
 30
0.0
  0
SPLINE
  5
8D
330
1F
100
AcDbEntity
  8
0
  6
Continuous
 62
     7
370
    15
100
AcDbSpline
210
0.0
220
0.0
230
1.0
 70
    24
 71
     3
 72
    11
 73
     7
 74
     0
 42
0.000000001
 43
0.00000001
 40
0.0
 40
0.0
 40
0.0
 40
0.0
 40
0.2164526859271078
 40
0.4403055508633845
 40
0.7518960204221863
 40
1.0
 40
1.0
 40
1.0
 40
1.0
 10
198.4584073861458
 20
103.6389586725492
 30
0.0
 10
198.3103766568074
 20
103.6947467529346
 30
0.0
 10
198.0092542588716
 20
103.8082302209752
 30
0.0
 10
197.450448294152
 20
104.018826441226
 30
0.0
 10
196.85102138825
 20
104.2447314040747
 30
0.0
 10
196.4674218239755
 20
104.3892978966078
 30
0.0
 10
196.2973780105918
 20
104.4533820092274
 30
0.0
  0
SPLINE
  5
8E
330
1F
100
AcDbEntity
  8
0
  6
Continuous
 62
     7
370
    15
100
AcDbSpline
210
0.0
220
0.0
230
1.0
 70
    24
 71
     3
 72
    11
 73
     7
 74
     0
 42
0.000000001
 43
0.00000001
 40
0.0
 40
0.0
 40
0.0
 40
0.0
 40
0.1849308168246131
 40
0.5198464202157764
 40
0.871443823369265
 40
1.0
 40
1.0
 40
1.0
 40
1.0
 10
200.2442333729211
 20
105.1032533417641
 30
0.0
 10
200.1402895747238
 20
105.0180242372907
 30
0.0
 10
199.8481002450908
 20
104.7784425081908
 30
0.0
 10
199.3026730631714
 20
104.3312174589173
 30
0.0
 10
198.7989487445491
 20
103.9181868277277
 30
0.0
 10
198.5303278614784
 20
103.6979301341679
 30
0.0
 10
198.4584073861458
 20
103.6389586725492
 30
0.0
  0
SPLINE
  5
8F
330
1F
100
AcDbEntity
  8
0
  6
Continuous
 62
     7
370
    15
100
AcDbSpline
210
0.0
220
0.0
230
1.0
 70
    24
 71
     3
 72
    11
 73
     7
 74
     0
 42
0.000000001
 43
0.00000001
 40
0.0
 40
0.0
 40
0.0
 40
0.0
 40
0.2164526859271104
 40
0.4403055508634006
 40
0.7518960204221896
 40
1.0
 40
1.0
 40
1.0
 40
1.0
 10
199.8690299841424
 20
107.3819713476574
 30
0.0
 10
199.8947314539694
 20
107.225878935317
 30
0.0
 10
199.9470130867047
 20
106.9083575550357
 30
0.0
 10
200.0440343923863
 20
106.3191192836769
 30
0.0
 10
200.1481084086693
 20
105.6870478740294
 30
0.0
 10
200.2147099357369
 20
105.2825576602205
 30
0.0
 10
200.2442333729211
 20
105.1032533417641
 30
0.0
  0
SPLINE
  5
90
330
1F
100
AcDbEntity
  8
0
  6
Continuous
 62
     7
370
    15
100
AcDbSpline
210
0.0
220
0.0
230
1.0
 70
    24
 71
     3
 72
    11
 73
     7
 74
     0
 42
0.000000001
 43
0.00000001
 40
0.0
 40
0.0
 40
0.0
 40
0.0
 40
0.2164526859271151
 40
0.4403055508633993
 40
0.7518960204221885
 40
1.0
 40
1.0
 40
1.0
 40
1.0
 10
197.7080006085885
 20
108.1963946843357
 30
0.0
 10
197.8560313379268
 20
108.1406066039503
 30
0.0
 10
198.1571537358627
 20
108.0271231359097
 30
0.0
 10
198.7159597005823
 20
107.8165269156589
 30
0.0
 10
199.3153866064843
 20
107.5906219528102
 30
0.0
 10
199.6989861707588
 20
107.4460554602771
 30
0.0
 10
199.8690299841424
 20
107.3819713476574
 30
0.0
  0
CIRCLE
  5
91
330
1F
100
AcDbEntity
  8
0
  6
Continuous
 62
     7
370
    15
100
AcDbCircle
 10
198.0832039974
 20
105.9176766784
 30
0.0
 40
2.400000000000011
  0
CIRCLE
  5
92
330
1F
100
AcDbEntity
  8
0
  6
Continuous
 62
     7
370
    15
100
AcDbCircle
 10
198.0832039974
 20
105.9176766784
 30
0.0
 40
3.619999999999986
  0
ARC
  5
93
330
1F
100
AcDbEntity
  8
0
  6
Continuous
 62
     7
370
    15
100
AcDbCircle
 10
198.0832039974
 20
105.9176766784
 30
0.0
 40
2.00000000000002
100
AcDbArc
 50
249.3501672105
 51
309.3501672105
  0
ARC
  5
94
330
1F
100
AcDbEntity
  8
0
  6
Continuous
 62
     7
370
    15
100
AcDbCircle
 10
198.0832039974
 20
105.9176766784
 30
0.0
 40
1.99999999999999
100
AcDbArc
 50
129.3501672104
 51
189.3501672105
  0
ARC
  5
95
330
1F
100
AcDbEntity
  8
0
  6
Continuous
 62
     7
370
    15
100
AcDbCircle
 10
198.0832039974
 20
105.9176766784
 30
0.0
 40
2.000000000000008
100
AcDbArc
 50
9.3501672104
 51
69.3501672104
  0
ARC
  5
96
330
1F
100
AcDbEntity
  8
0
  6
Continuous
 62
     7
370
    15
100
AcDbCircle
 10
198.0832039974
 20
105.9176766784
 30
0.0
 40
1.999999999999996
100
AcDbArc
 50
69.3501672104
 51
129.3501672104
  0
ARC
  5
97
330
1F
100
AcDbEntity
  8
0
  6
Continuous
 62
     7
370
    15
100
AcDbCircle
 10
198.0832039974
 20
105.9176766784
 30
0.0
 40
2.00000000000002
100
AcDbArc
 50
309.3501672105
 51
9.3501672104
  0
ARC
  5
98
330
1F
100
AcDbEntity
  8
0
  6
Continuous
 62
     7
370
    15
100
AcDbCircle
 10
198.0832039974
 20
105.9176766784
 30
0.0
 40
2.0
100
AcDbArc
 50
189.3501672105
 51
249.3501672105
  0
SPLINE
  5
99
330
1F
100
AcDbEntity
  8
0
  6
Continuous
 62
     7
370
    15
100
AcDbSpline
210
0.0
220
0.0
230
1.0
 70
     8
 71
     3
 72
    12
 73
     8
 74
     0
 42
0.000000001
 43
0.00000001
 40
0.0
 40
0.0
 40
0.0
 40
0.0
 40
0.2499999999999997
 40
0.2499999999999997
 40
0.4999999999999993
 40
0.4999999999999993
 40
1.0
 40
1.0
 40
1.0
 40
1.0
 10
183.5832039973671
 20
75.46958432980573
 30
0.0
 10
183.6787459075031
 20
75.46958432980574
 30
0.0
 10
183.7708908493659
 20
75.48583799900193
 30
0.0
 10
183.9272171259758
 20
75.53944641991542
 30
0.0
 10
183.9908852685958
 20
75.5758575451971
 30
0.0
 10
184.1397531140262
 20
75.69798118488357
 30
0.0
 10
184.1832039973671
 20
75.79313386032064
 30
0.0
 10
184.1832039973671
 20
75.8887603159403
 30
0.0
  0
SPLINE
  5
9A
330
1F
100
AcDbEntity
  8
0
  6
Continuous
 62
     7
370
    15
100
AcDbSpline
210
0.0
220
0.0
230
1.0
 70
    24
 71
     3
 72
    12
 73
     8
 74
     0
 42
0.000000001
 43
0.00000001
 40
0.0
 40
0.0
 40
0.0
 40
0.0
 40
0.5
 40
0.5
 40
0.75
 40
0.75
 40
1.0
 40
1.0
 40
1.0
 40
1.0
 10
184.1832039973671
 20
124.2676766784424
 30
0.0
 10
184.1832039973671
 20
124.2676766784424
 30
0.0
 10
184.1329183301955
 20
124.2676766784424
 30
0.0
 10
183.9777961958202
 20
124.2676766784424
 30
0.0
 10
183.9123389204781
 20
124.2676766784424
 30
0.0
 10
183.7583676968359
 20
124.2676766784424
 30
0.0
 10
183.6711454081201
 20
124.2676766784424
 30
0.0
 10
183.583203997367
 20
124.2676766784424
 30
0.0
  0
LINE
  5
9B
330
1F
100
AcDbEntity
  8
0
  6
Continuous
 62
     7
370
    15
100
AcDbLine
 10
184.1832039974
 20
75.8887603159
 30
0.0
 11
184.1832039974
 21
124.2676766784
 31
0.0
  0
LINE
  5
9C
330
1F
100
AcDbEntity
  8
0
  6
Continuous
 62
     7
370
    15
100
AcDbLine
 10
168.9332039974
 20
75.4695843298
 30
0.0
 11
172.7113673553
 21
75.4695843298
 31
0.0
  0
LINE
  5
9D
330
1F
100
AcDbEntity
  8
0
  6
Continuous
 62
     7
370
    15
100
AcDbLine
 10
172.7113673553
 20
124.2676766784
 30
0.0
 11
168.9332039974
 21
124.2676766784
 31
0.0
  0
LINE
  5
9E
330
1F
100
AcDbEntity
  8
0
  6
Continuous
 62
     7
370
    15
100
AcDbLine
 10
172.7113673553
 20
75.4695843298
 30
0.0
 11
172.7113673553
 21
124.2676766784
 31
0.0
  0
SPLINE
  5
9F
330
1F
100
AcDbEntity
  8
0
  6
Continuous
 62
     7
370
    15
100
AcDbSpline
210
0.0
220
0.0
230
1.0
 70
     8
 71
     3
 72
     8
 73
     4
 74
     0
 42
0.000000001
 43
0.00000001
 40
0.0
 40
0.0
 40
0.0
 40
0.0
 40
1.0
 40
1.0
 40
1.0
 40
1.0
 10
174.3232039973671
 20
78.10085021894095
 30
0.0
 10
173.9390692487828
 20
77.40820879699675
 30
0.0
 10
173.5540829722898
 20
76.71602262267305
 30
0.0
 10
173.1684143936635
 20
76.02422833182885
 30
0.0
  0
SPLINE
  5
A0
330
1F
100
AcDbEntity
  8
0
  6
Continuous
 62
     7
370
    15
100
AcDbSpline
210
0.0
220
0.0
230
1.0
 70
     8
 71
     3
 72
     8
 73
     4
 74
     0
 42
0.000000001
 43
0.00000001
 40
0.0
 40
0.0
 40
0.0
 40
0.0
 40
0.0011901715795577
 40
0.0011901715795577
 40
0.0011901715795577
 40
0.0011901715795577
 10
172.7113673553104
 20
75.46958432980573
 30
0.0
 10
172.8652135448064
 20
75.65414956748931
 30
0.0
 10
173.017608812479
 20
75.83902492801793
 30
0.0
 10
173.1684143936635
 20
76.02422833182885
 30
0.0
  0
SPLINE
  5
A1
330
1F
100
AcDbEntity
  8
0
  6
Continuous
 62
     7
370
    15
100
AcDbSpline
210
0.0
220
0.0
230
1.0
 70
    24
 71
     3
 72
     8
 73
     4
 74
     0
 42
0.000000001
 43
0.00000001
 40
0.0
 40
0.0
 40
0.0
 40
0.0
 40
1.0
 40
1.0
 40
1.0
 40
1.0
 10
174.3232039973671
 20
124.2676766784424
 30
0.0
 10
173.7984715090053
 20
124.2676766784424
 30
0.0
 10
173.2597960247865
 20
124.2676766784424
 30
0.0
 10
172.7113673553104
 20
124.2676766784424
 30
0.0
  0
LINE
  5
A2
330
1F
100
AcDbEntity
  8
0
  6
Continuous
 62
     7
370
    15
100
AcDbLine
 10
174.3232039974
 20
78.1008502189
 30
0.0
 11
174.3232039974
 21
124.2676766784
 31
0.0
  0
LINE
  5
A3
330
1F
100
AcDbEntity
  8
0
  6
Continuous
 62
     7
370
    15
100
AcDbLine
 10
179.7550406394
 20
75.4695843298
 30
0.0
 11
183.5832039974
 21
75.4695843298
 31
0.0
  0
LINE
  5
A4
330
1F
100
AcDbEntity
  8
0
  6
Continuous
 62
     7
370
    15
100
AcDbLine
 10
179.7550406394
 20
75.4695843298
 30
0.0
 11
179.7550406394
 21
124.2676766784
 31
0.0
  0
LINE
  5
A5
330
1F
100
AcDbEntity
  8
0
  6
Continuous
 62
     7
370
    15
100
AcDbLine
 10
183.5832039974
 20
124.2676766784
 30
0.0
 11
179.7550406394
 21
124.2676766784
 31
0.0
  0
SPLINE
  5
A6
330
1F
100
AcDbEntity
  8
0
  6
Continuous
 62
     7
370
    15
100
AcDbSpline
210
0.0
220
0.0
230
1.0
 70
     8
 71
     3
 72
     8
 73
     4
 74
     0
 42
0.000000001
 43
0.00000001
 40
0.0
 40
0.0
 40
0.0
 40
0.0
 40
0.0011901715795577
 40
0.0011901715795577
 40
0.0011901715795577
 40
0.0011901715795577
 10
179.2979936010708
 20
76.02422833182885
 30
0.0
 10
179.4487991822553
 20
75.83902492801793
 30
0.0
 10
179.6011944499279
 20
75.65414956748931
 30
0.0
 10
179.7550406394238
 20
75.46958432980573
 30
0.0
  0
SPLINE
  5
A7
330
1F
100
AcDbEntity
  8
0
  6
Continuous
 62
     7
370
    15
100
AcDbSpline
210
0.0
220
0.0
230
1.0
 70
     8
 71
     3
 72
     8
 73
     4
 74
     0
 42
0.000000001
 43
0.00000001
 40
0.0
 40
0.0
 40
0.0
 40
0.0
 40
1.0
 40
1.0
 40
1.0
 40
1.0
 10
179.2979936010708
 20
76.02422833182885
 30
0.0
 10
178.9123250224444
 20
76.71602262267305
 30
0.0
 10
178.5273387459515
 20
77.40820879699675
 30
0.0
 10
178.1432039973672
 20
78.10085021894095
 30
0.0
  0
LINE
  5
A8
330
1F
100
AcDbEntity
  8
0
  6
Continuous
 62
     7
370
    15
100
AcDbLine
 10
178.1432039974
 20
78.1008502189
 30
0.0
 11
178.1432039974
 21
124.2676766784
 31
0.0
  0
SPLINE
  5
A9
330
1F
100
AcDbEntity
  8
0
  6
Continuous
 62
     7
370
    15
100
AcDbSpline
210
0.0
220
0.0
230
1.0
 70
    24
 71
     3
 72
     8
 73
     4
 74
     0
 42
0.000000001
 43
0.00000001
 40
0.0
 40
0.0
 40
0.0
 40
0.0
 40
1.0
 40
1.0
 40
1.0
 40
1.0
 10
179.7550406394238
 20
124.2676766784424
 30
0.0
 10
179.2066119699479
 20
124.2676766784424
 30
0.0
 10
178.667936485729
 20
124.2676766784424
 30
0.0
 10
178.1432039973672
 20
124.2676766784424
 30
0.0
  0
SPLINE
  5
AA
330
1F
100
AcDbEntity
  8
0
  6
Continuous
 62
     7
370
    15
100
AcDbSpline
210
0.0
220
0.0
230
1.0
 70
     8
 71
     3
 72
    10
 73
     6
 74
     0
 42
0.000000001
 43
0.00000001
 40
0.0
 40
0.0
 40
0.0
 40
0.0
 40
0.5
 40
0.5
 40
1.0
 40
1.0
 40
1.0
 40
1.0
 10
168.5493485387144
 20
75.56594682897419
 30
0.0
 10
168.5981185116957
 20
75.53771882176619
 30
0.0
 10
168.655570634998
 20
75.51362421752458
 30
0.0
 10
168.7861675379868
 20
75.47936074443203
 30
0.0
 10
168.8586572178289
 20
75.46958432980571
 30
0.0
 10
168.9332039973671
 20
75.46958432980571
 30
0.0
  0
SPLINE
  5
AB
330
1F
100
AcDbEntity
  8
0
  6
Continuous
 62
     7
370
    15
100
AcDbSpline
210
0.0
220
0.0
230
1.0
 70
     8
 71
     3
 72
    10
 73
     6
 74
     0
 42
0.000000001
 43
0.00000001
 40
0.0
 40
0.0
 40
0.0
 40
0.0
 40
0.5
 40
0.5
 40
1.0
 40
1.0
 40
1.0
 40
1.0
 10
168.5493485387143
 20
75.56594682897419
 30
0.0
 10
168.4912258786382
 20
75.63325198883598
 30
0.0
 10
168.4388227126347
 20
75.71333737586963
 30
0.0
 10
168.3599196910884
 20
75.8973568175584
 30
0.0
 10
168.3332039973671
 20
76.00256817497888
 30
0.0
 10
168.3332039973671
 20
76.11130152143953
 30
0.0
  0
LINE
  5
AC
330
1F
100
AcDbEntity
  8
0
  6
Continuous
 62
     7
370
    15
100
AcDbLine
 10
168.3332039974
 20
76.1113015214
 30
0.0
 11
168.3332039974
 21
124.2676766784
 31
0.0
  0
SPLINE
  5
AD
330
1F
100
AcDbEntity
  8
0
  6
Continuous
 62
     7
370
    15
100
AcDbSpline
210
0.0
220
0.0
230
1.0
 70
    24
 71
     3
 72
    12
 73
     8
 74
     0
 42
0.000000001
 43
0.00000001
 40
0.0
 40
0.0
 40
0.0
 40
0.0
 40
0.25
 40
0.25
 40
0.5
 40
0.5
 40
1.0
 40
1.0
 40
1.0
 40
1.0
 10
168.9332039973671
 20
124.2676766784424
 30
0.0
 10
168.8457196277144
 20
124.2676766784424
 30
0.0
 10
168.7583867502937
 20
124.2676766784424
 30
0.0
 10
168.6045503368549
 20
124.2676766784424
 30
0.0
 10
168.5389281678814
 20
124.2676766784424
 30
0.0
 10
168.3835099625389
 20
124.2676766784424
 30
0.0
 10
168.3332039973671
 20
124.2676766784424
 30
0.0
 10
168.3332039973671
 20
124.2676766784424
 30
0.0
  0
SPLINE
  5
AE
330
1F
100
AcDbEntity
  8
0
  6
Continuous
 62
     7
370
    15
100
AcDbSpline
210
0.0
220
0.0
230
1.0
 70
     8
 71
     3
 72
    12
 73
     8
 74
     0
 42
0.000000001
 43
0.00000001
 40
0.0
 40
0.0
 40
0.0
 40
0.0
 40
0.2499999999999986
 40
0.2499999999999986
 40
0.4999999999999971
 40
0.4999999999999971
 40
1.0
 40
1.0
 40
1.0
 40
1.0
 10
175.1232039973671
 20
79.0998188221557
 30
0.0
 10
175.015617396405
 20
79.09981882215568
 30
0.0
 10
174.9096126424355
 20
79.0771774432686
 30
0.0
 10
174.7129875960868
 20
78.99027757867486
 30
0.0
 10
174.6251024228648
 20
78.92734536356691
 30
0.0
 10
174.4045498297604
 20
78.69234156500754
 30
0.0
 10
174.3232039973671
 20
78.47912387673668
 30
0.0
 10
174.3232039973671
 20
78.26559719063538
 30
0.0
  0
SPLINE
  5
AF
330
1F
100
AcDbEntity
  8
0
  6
Continuous
 62
     7
370
    15
100
AcDbSpline
210
0.0
220
0.0
230
1.0
 70
    24
 71
     3
 72
    12
 73
     8
 74
     0
 42
0.000000001
 43
0.00000001
 40
0.0
 40
0.0
 40
0.0
 40
0.0
 40
0.2499999999999995
 40
0.2499999999999995
 40
0.499999999999999
 40
0.499999999999999
 40
1.0
 40
1.0
 40
1.0
 40
1.0
 10
175.1232039973671
 20
124.2676766784424
 30
0.0
 10
175.0017262255626
 20
124.2676766784424
 30
0.0
 10
174.8791727539007
 20
124.2676766784424
 30
0.0
 10
174.6751196003624
 20
124.2676766784424
 30
0.0
 10
174.5889605371366
 20
124.2676766784424
 30
0.0
 10
174.3869199704408
 20
124.2676766784424
 30
0.0
 10
174.3232039973671
 20
124.2676766784424
 30
0.0
 10
174.3232039973671
 20
124.2676766784424
 30
0.0
  0
SPLINE
  5
B0
330
1F
100
AcDbEntity
  8
0
  6
Continuous
 62
     7
370
    15
100
AcDbSpline
210
0.0
220
0.0
230
1.0
 70
     8
 71
     3
 72
    12
 73
     8
 74
     0
 42
0.000000001
 43
0.00000001
 40
0.0
 40
0.0
 40
0.0
 40
0.0
 40
0.5000000000000013
 40
0.5000000000000013
 40
0.7500000000000007
 40
0.7500000000000007
 40
1.0
 40
1.0
 40
1.0
 40
1.0
 10
178.1432039973671
 20
78.26559719063536
 30
0.0
 10
178.1432039973671
 20
78.47841974956823
 30
0.0
 10
178.0612786395474
 20
78.69267625620621
 30
0.0
 10
177.842356836079
 20
78.9263658846561
 30
0.0
 10
177.752309544588
 20
78.99085070950007
 30
0.0
 10
177.5568960765681
 20
79.07705032065564
 30
0.0
 10
177.4496131095843
 20
79.0998188221557
 30
0.0
 10
177.3432039973671
 20
79.0998188221557
 30
0.0
  0
SPLINE
  5
B1
330
1F
100
AcDbEntity
  8
0
  6
Continuous
 62
     7
370
    15
100
AcDbSpline
210
0.0
220
0.0
230
1.0
 70
    24
 71
     3
 72
    14
 73
    10
 74
     0
 42
0.000000001
 43
0.00000001
 40
0.0
 40
0.0
 40
0.0
 40
0.0
 40
0.25
 40
0.25
 40
0.5
 40
0.5
 40
0.75
 40
0.75
 40
1.0
 40
1.0
 40
1.0
 40
1.0
 10
178.1432039973671
 20
124.2676766784424
 30
0.0
 10
178.1432039973671
 20
124.2676766784424
 30
0.0
 10
178.1271223959073
 20
124.2676766784424
 30
0.0
 10
178.0616308826405
 20
124.2676766784424
 30
0.0
 10
178.0123229095131
 20
124.2676766784424
 30
0.0
 10
177.8777533878161
 20
124.2676766784424
 30
0.0
 10
177.7922303117309
 20
124.2676766784424
 30
0.0
 10
177.5852348161758
 20
124.2676766784424
 30
0.0
 10
177.4645411822323
 20
124.2676766784424
 30
0.0
 10
177.3432039973672
 20
124.2676766784424
 30
0.0
  0
LINE
  5
B2
330
1F
100
AcDbEntity
  8
0
  6
Continuous
 62
     7
370
    15
100
AcDbLine
 10
177.3432039974
 20
79.0998188222
 30
0.0
 11
175.1232039974
 21
79.0998188222
 31
0.0
  0
LINE
  5
B3
330
1F
100
AcDbEntity
  8
0
  6
Continuous
 62
     7
370
    15
100
AcDbLine
 10
177.3432039974
 20
124.2676766784
 30
0.0
 11
175.1232039974
 21
124.2676766784
 31
0.0
  0
LINE
  5
B4
330
1F
100
AcDbEntity
  8
0
  6
Continuous
 62
     7
370
    15
100
AcDbLine
 10
165.1332039974
 20
83.6926766784
 30
0.0
 11
165.1332039974
 21
128.1426766784
 31
0.0
  0
SPLINE
  5
B5
330
1F
100
AcDbEntity
  8
0
  6
Continuous
 62
     7
370
    15
100
AcDbSpline
210
0.0
220
0.0
230
1.0
 70
    11
 71
     3
 72
    77
 73
    73
 74
     0
 42
0.000000001
 43
0.00000001
 40
0.0
 40
0.0
 40
0.0
 40
0.0
 40
0.0312499999999999
 40
0.0312499999999999
 40
0.0624999999999998
 40
0.0624999999999998
 40
0.0937499999999997
 40
0.0937499999999997
 40
0.1249999999999996
 40
0.1249999999999996
 40
0.1562499999999994
 40
0.1562499999999994
 40
0.1874999999999993
 40
0.1874999999999993
 40
0.2187499999999992
 40
0.2187499999999992
 40
0.2499999999999991
 40
0.2499999999999991
 40
0.281249999999999
 40
0.281249999999999
 40
0.3124999999999989
 40
0.3124999999999989
 40
0.3437499999999988
 40
0.3437499999999988
 40
0.3593749999999987
 40
0.3593749999999987
 40
0.3749999999999987
 40
0.3906249999999986
 40
0.3906249999999986
 40
0.4062499999999986
 40
0.4062499999999986
 40
0.4374999999999986
 40
0.4374999999999986
 40
0.4687499999999987
 40
0.4687499999999987
 40
0.4999999999999988
 40
0.4999999999999988
 40
0.5312499999999989
 40
0.5312499999999989
 40
0.562499999999999
 40
0.562499999999999
 40
0.5937499999999991
 40
0.5937499999999991
 40
0.6249999999999992
 40
0.6249999999999992
 40
0.6562499999999993
 40
0.6562499999999993
 40
0.6874999999999994
 40
0.6874999999999994
 40
0.7187499999999996
 40
0.7187499999999996
 40
0.7499999999999997
 40
0.7499999999999997
 40
0.7656249999999997
 40
0.7656249999999997
 40
0.7812499999999998
 40
0.7812499999999998
 40
0.8124999999999998
 40
0.8124999999999998
 40
0.8437499999999998
 40
0.8437499999999998
 40
0.8749999999999998
 40
0.8749999999999998
 40
0.8906249999999998
 40
0.8906249999999998
 40
0.9062499999999999
 40
0.9062499999999999
 40
0.9374999999999999
 40
0.9374999999999999
 40
0.9687499999999999
 40
0.9687499999999999
 40
1.0
 40
1.0
 40
1.0
 40
1.0
 10
194.7328039418368
 20
109.2360358963178
 30
0.0
 10
194.9751505905758
 20
109.4325076158146
 30
0.0
 10
195.2322717453746
 20
109.6029288928759
 30
0.0
 10
195.7736808537797
 20
109.8965331737438
 30
0.0
 10
196.0600013832021
 20
110.020307988855
 30
0.0
 10
196.6515235169527
 20
110.2167039187383
 30
0.0
 10
196.9525282302023
 20
110.2883400704721
 30
0.0
 10
197.5646533137187
 20
110.3807582588162
 30
0.0
 10
197.8787595100377
 20
110.4013576818396
 30
0.0
 10
198.5012847230583
 20
110.3893424390732
 30
0.0
 10
198.8088432896554
 20
110.3573580138289
 30
0.0
 10
199.4166447643742
 20
110.2419051167205
 30
0.0
 10
199.7198218509057
 20
110.1571609435052
 30
0.0
 10
200.2999991506447
 20
109.9387502078075
 30
0.0
 10
200.5775016540227
 20
109.8056846550466
 30
0.0
 10
201.1069508155883
 20
109.4905081120151
 30
0.0
 10
201.3613627860651
 20
109.3058970196517
 30
0.0
 10
201.8235467118809
 20
108.8971487571922
 30
0.0
 10
202.032852133962
 20
108.6729295899675
 30
0.0
 10
202.4053433129278
 20
108.1819264761649
 30
0.0
 10
202.5693915156274
 20
107.9118636103316
 30
0.0
 10
202.8299005846307
 20
107.3522443617059
 30
0.0
 10
202.9289384477893
 20
107.0603768580047
 30
0.0
 10
203.0269269038271
 20
106.6029156794841
 30
0.0
 10
203.0509821647962
 20
106.446690402338
 30
0.0
 10
203.0802194138164
 20
106.1366447958775
 30
0.0
 10
203.0911834594363
 20
105.8267882623815
 30
0.0
 10
203.0660862279117
 20
105.5173049911746
 30
0.0
 10
203.0226229212876
 20
105.2080116672027
 30
0.0
 10
202.9914930829644
 20
105.0531837669461
 30
0.0
 10
202.8732037677248
 20
104.6012583890783
 30
0.0
 10
202.7610307067715
 20
104.3124003261925
 30
0.0
 10
202.4728113532285
 20
103.7583330241744
 30
0.0
 10
202.2994895135243
 20
103.4991928153344
 30
0.0
 10
201.9057253471919
 20
103.022409156947
 30
0.0
 10
201.6819356590269
 20
102.8015332267901
 30
0.0
 10
201.2019649972547
 20
102.4106647171821
 30
0.0
 10
200.9451738252875
 20
102.2390967586066
 30
0.0
 10
200.3990264011206
 20
101.9415710383858
 30
0.0
 10
200.1114807494137
 20
101.8172103806788
 30
0.0
 10
199.5246513739023
 20
101.6214239062852
 30
0.0
 10
199.2230952540061
 20
101.548721292149
 30
0.0
 10
198.6033086523922
 20
101.4545185118946
 30
0.0
 10
198.2927324315242
 20
101.4342825271007
 30
0.0
 10
197.6736503865384
 20
101.4454697333223
 30
0.0
 10
197.3637970057533
 20
101.4769530110706
 30
0.0
 10
196.7482912057997
 20
101.5935874400339
 30
0.0
 10
196.4501259176183
 20
101.6771792961986
 30
0.0
 10
195.8724672289985
 20
101.8940082551526
 30
0.0
 10
195.5915144255318
 20
102.0280858823476
 30
0.0
 10
195.056116237937
 20
102.3468643689124
 30
0.0
 10
194.8070204391206
 20
102.5280206888414
 30
0.0
 10
194.4615058971063
 20
102.8331242894346
 30
0.0
 10
194.3510556702327
 20
102.9404262581861
 30
0.0
 10
194.1400862837435
 20
103.166892197592
 30
0.0
 10
194.0389801844106
 20
103.286887931869
 30
0.0
 10
193.7574824243496
 20
103.658559411585
 30
0.0
 10
193.5979500562445
 20
103.9218458927958
 30
0.0
 10
193.3373358868222
 20
104.4809700858455
 30
0.0
 10
193.2356393713456
 20
104.7814943370665
 30
0.0
 10
193.1063235237766
 20
105.3892974968067
 30
0.0
 10
193.0769878188566
 20
105.6976041177043
 30
0.0
 10
193.0879356553753
 20
106.1669300188575
 30
0.0
 10
193.1009944496025
 20
106.3245489980038
 30
0.0
 10
193.1448627238099
 20
106.6332266049978
 30
0.0
 10
193.1756567022538
 20
106.7854264762373
 30
0.0
 10
193.2938752593597
 20
107.2358012316954
 30
0.0
 10
193.4089221601625
 20
107.5308487875658
 30
0.0
 10
193.6964836799671
 20
108.081464659899
 30
0.0
 10
193.8686972275136
 20
108.3390390332766
 30
0.0
 10
194.267606109207
 20
108.8205866510399
 30
0.0
 10
194.4904572930979
 20
109.039564176821
 30
0.0
 10
194.7328039418368
 20
109.2360358963178
 30
0.0
  0
LINE
  5
B6
330
1F
100
AcDbEntity
  8
0
  6
Continuous
 62
     7
370
    15
100
AcDbLine
 10
207.7332039974
 20
105.9176766784
 30
0.0
 11
207.7332039974
 21
86.4176766784
 31
0.0
  0
LINE
  5
B7
330
1F
100
AcDbEntity
  8
0
  6
Continuous
 62
     7
370
    15
100
AcDbLine
 10
207.7332039974
 20
125.4176766784
 30
0.0
 11
207.7332039974
 21
105.9176766784
 31
0.0
  0
LINE
  5
B8
330
1F
100
AcDbEntity
  8
0
  6
Continuous
 62
     7
370
    15
100
AcDbLine
 10
208.1332039974
 20
105.9176766784
 30
0.0
 11
208.1332039974
 21
86.8176766784
 31
0.0
  0
LINE
  5
B9
330
1F
100
AcDbEntity
  8
0
  6
Continuous
 62
     7
370
    15
100
AcDbLine
 10
208.1332039974
 20
125.0176766784
 30
0.0
 11
208.1332039974
 21
105.9176766784
 31
0.0
  0
CIRCLE
  5
BA
330
1F
100
AcDbEntity
  8
0
  6
Continuous
 62
     7
370
    15
100
AcDbCircle
 10
198.0832039974
 20
105.9176766784
 30
0.0
 40
3.624999999999986
  0
SPLINE
  5
BB
330
1F
100
AcDbEntity
  8
0
  6
Continuous
 62
     7
370
    15
100
AcDbSpline
210
0.0
220
0.0
230
1.0
 70
     8
 71
     3
 72
    12
 73
     8
 74
     0
 42
0.000000001
 43
0.00000001
 40
0.0
 40
0.0
 40
0.0
 40
0.0
 40
0.5000000000000003
 40
0.5000000000000003
 40
0.7500000000000001
 40
0.7500000000000001
 40
1.0
 40
1.0
 40
1.0
 40
1.0
 10
168.3332039973671
 20
131.089089034526
 30
0.0
 10
168.3332039973671
 20
131.2638492098603
 30
0.0
 10
168.3831241986854
 20
131.4415543136455
 30
0.0
 10
168.5384660965972
 20
131.6543110554908
 30
0.0
 10
168.6043167951215
 20
131.7161044282158
 30
0.0
 10
168.75676286296
 20
131.8029110158968
 30
0.0
 10
168.8457729630795
 20
131.8279063184901
 30
0.0
 10
168.9332039973671
 20
131.8279063184901
 30
0.0
  0
LINE
  5
BC
330
1F
100
AcDbEntity
  8
0
  6
Continuous
 62
     7
370
    15
100
AcDbLine
 10
168.9332039974
 20
131.8279063185
 30
0.0
 11
172.7113673553
 21
131.8279063185
 31
0.0
  0
SPLINE
  5
BD
330
1F
100
AcDbEntity
  8
0
  6
Continuous
 62
     7
370
    15
100
AcDbSpline
210
0.0
220
0.0
230
1.0
 70
     8
 71
     3
 72
     8
 73
     4
 74
     0
 42
0.000000001
 43
0.00000001
 40
0.0
 40
0.0
 40
0.0
 40
0.0
 40
1.0
 40
1.0
 40
1.0
 40
1.0
 10
172.7113673553104
 20
131.82790631849
 30
0.0
 10
173.2603121335073
 20
130.6628102061763
 30
0.0
 10
173.798922508024
 20
129.4936518893518
 30
0.0
 10
174.3232039973671
 20
128.3198157343009
 30
0.0
  0
SPLINE
  5
BE
330
1F
100
AcDbEntity
  8
0
  6
Continuous
 62
     7
370
    15
100
AcDbSpline
210
0.0
220
0.0
230
1.0
 70
     8
 71
     3
 72
    14
 73
    10
 74
     0
 42
0.000000001
 43
0.00000001
 40
0.0
 40
0.0
 40
0.0
 40
0.0
 40
0.25
 40
0.25
 40
0.5
 40
0.5
 40
0.75
 40
0.75
 40
1.0
 40
1.0
 40
1.0
 40
1.0
 10
174.3232039973671
 20
128.1149174979677
 30
0.0
 10
174.3232039973671
 20
127.9940254398793
 30
0.0
 10
174.3396994697603
 20
127.8715601647913
 30
0.0
 10
174.4049315364822
 20
127.6397390212395
 30
0.0
 10
174.454549370901
 20
127.5267651459321
 30
0.0
 10
174.5891902069047
 20
127.3250596760566
 30
0.0
 10
174.6755120720524
 20
127.2349278289786
 30
0.0
 10
174.8806997251543
 20
127.1053069505978
 30
0.0
 10
175.0006677477693
 20
127.0666128218989
 30
0.0
 10
175.1232039973671
 20
127.0666128218989
 30
0.0
  0
LINE
  5
BF
330
1F
100
AcDbEntity
  8
0
  6
Continuous
 62
     7
370
    15
100
AcDbLine
 10
175.1232039974
 20
127.0666128219
 30
0.0
 11
177.3432039974
 21
127.0666128219
 31
0.0
  0
SPLINE
  5
C0
330
1F
100
AcDbEntity
  8
0
  6
Continuous
 62
     7
370
    15
100
AcDbSpline
210
0.0
220
0.0
230
1.0
 70
     8
 71
     3
 72
    12
 73
     8
 74
     0
 42
0.000000001
 43
0.00000001
 40
0.0
 40
0.0
 40
0.0
 40
0.0
 40
0.2499999999999986
 40
0.2499999999999986
 40
0.4999999999999971
 40
0.4999999999999971
 40
1.0
 40
1.0
 40
1.0
 40
1.0
 10
177.3432039973671
 20
127.0666128218989
 30
0.0
 10
177.4652859948554
 20
127.0666128218989
 30
0.0
 10
177.5858765373411
 20
127.1053391780726
 30
0.0
 10
177.791371821041
 20
127.2353027658189
 30
0.0
 10
177.8768883039934
 20
127.3245090023656
 30
0.0
 10
178.0802826555376
 20
127.6293855399113
 30
0.0
 10
178.1432039973671
 20
127.8721561540133
 30
0.0
 10
178.1432039973671
 20
128.1149174979677
 30
0.0
  0
LINE
  5
C1
330
1F
100
AcDbEntity
  8
0
  6
Continuous
 62
     7
370
    15
100
AcDbLine
 10
178.1432039974
 20
128.114917498
 30
0.0
 11
178.1432039974
 21
128.3198157343
 31
0.0
  0
SPLINE
  5
C2
330
1F
100
AcDbEntity
  8
0
  6
Continuous
 62
     7
370
    15
100
AcDbSpline
210
0.0
220
0.0
230
1.0
 70
     8
 71
     3
 72
     8
 73
     4
 74
     0
 42
0.000000001
 43
0.00000001
 40
0.0
 40
0.0
 40
0.0
 40
0.0
 40
1.0
 40
1.0
 40
1.0
 40
1.0
 10
178.1432039973672
 20
128.3198157343009
 30
0.0
 10
178.6679951168631
 20
129.4947929220056
 30
0.0
 10
179.2065113680459
 20
130.6636920897438
 30
0.0
 10
179.7550406394239
 20
131.82790631849
 30
0.0
  0
LINE
  5
C3
330
1F
100
AcDbEntity
  8
0
  6
Continuous
 62
     7
370
    15
100
AcDbLine
 10
179.7550406394
 20
131.8279063185
 30
0.0
 11
183.5832039974
 21
131.8279063185
 31
0.0
  0
SPLINE
  5
C4
330
1F
100
AcDbEntity
  8
0
  6
Continuous
 62
     7
370
    15
100
AcDbSpline
210
0.0
220
0.0
230
1.0
 70
     8
 71
     3
 72
    14
 73
    10
 74
     0
 42
0.000000001
 43
0.00000001
 40
0.0
 40
0.0
 40
0.0
 40
0.0
 40
0.25
 40
0.25
 40
0.5
 40
0.5
 40
0.75
 40
0.75
 40
1.0
 40
1.0
 40
1.0
 40
1.0
 10
183.5832039973671
 20
131.82790631849
 30
0.0
 10
183.6716265354896
 20
131.82790631849
 30
0.0
 10
183.7596805251827
 20
131.8028339680306
 30
0.0
 10
183.911510289054
 20
131.7164919030593
 30
0.0
 10
183.9773532336178
 20
131.6549486485464
 30
0.0
 10
184.0811522941633
 20
131.5131209022955
 30
0.0
 10
184.119624403638
 20
131.4330723123254
 30
0.0
 10
184.1708470669126
 20
131.2640598156517
 30
0.0
 10
184.1832039973671
 20
131.1772805087821
 30
0.0
 10
184.1832039973671
 20
131.089089034526
 30
0.0
  0
LINE
  5
C5
330
1F
100
AcDbEntity
  8
0
  6
Continuous
 62
     7
370
    15
100
AcDbLine
 10
174.3232039974
 20
128.3198157343
 30
0.0
 11
174.3232039974
 21
128.114917498
 31
0.0
  0
LINE
  5
C6
330
1F
100
AcDbEntity
  8
0
  6
Continuous
 62
     7
370
    15
100
AcDbLine
 10
168.3332039974
 20
131.0890890345
 30
0.0
 11
168.3332039974
 21
124.2676766784
 31
0.0
  0
LINE
  5
C7
330
1F
100
AcDbEntity
  8
0
  6
Continuous
 62
     7
370
    15
100
AcDbLine
 10
184.1832039974
 20
131.0890890345
 30
0.0
 11
184.1832039974
 21
124.2676766784
 31
0.0
  0
LINE
  5
C8
330
1F
100
AcDbEntity
  8
0
  6
Continuous
 62
     7
370
    15
100
AcDbLine
 10
183.5832039974
 20
136.4140127577
 30
0.0
 11
179.7550406394
 21
136.4140127577
 31
0.0
  0
LINE
  5
C9
330
1F
100
AcDbEntity
  8
0
  6
Continuous
 62
     7
370
    15
100
AcDbLine
 10
179.7550406394
 20
131.8279063185
 30
0.0
 11
179.7550406394
 21
136.4140127577
 31
0.0
  0
SPLINE
  5
CA
330
1F
100
AcDbEntity
  8
0
  6
Continuous
 62
     7
370
    15
100
AcDbSpline
210
0.0
220
0.0
230
1.0
 70
     8
 71
     3
 72
     8
 73
     4
 74
     0
 42
0.000000001
 43
0.00000001
 40
0.0
 40
0.0
 40
0.0
 40
0.0
 40
0.0012409313617635
 40
0.0012409313617635
 40
0.0012409313617635
 40
0.0012409313617635
 10
173.2692493110711
 20
135.6302148347069
 30
0.0
 10
173.0840254715151
 20
135.8917423781841
 30
0.0
 10
172.8980402835426
 20
136.1530008799594
 30
0.0
 10
172.7113673553104
 20
136.414012757658
 30
0.0
  0
SPLINE
  5
CB
330
1F
100
AcDbEntity
  8
0
  6
Continuous
 62
     7
370
    15
100
AcDbSpline
210
0.0
220
0.0
230
1.0
 70
     8
 71
     3
 72
     8
 73
     4
 74
     0
 42
0.000000001
 43
0.00000001
 40
0.0
 40
0.0
 40
0.0
 40
0.0
 40
1.0
 40
1.0
 40
1.0
 40
1.0
 10
174.3232039973671
 20
133.7345031379439
 30
0.0
 10
173.9725517570396
 20
134.3667715469942
 30
0.0
 10
173.6211933339794
 20
134.9986534466931
 30
0.0
 10
173.2692493110711
 20
135.6302148347069
 30
0.0
  0
LINE
  5
CC
330
1F
100
AcDbEntity
  8
0
  6
Continuous
 62
     7
370
    15
100
AcDbLine
 10
172.7113673553
 20
131.8279063185
 30
0.0
 11
172.7113673553
 21
136.4140127577
 31
0.0
  0
LINE
  5
CD
330
1F
100
AcDbEntity
  8
0
  6
Continuous
 62
     7
370
    15
100
AcDbLine
 10
174.3232039974
 20
128.3198157343
 30
0.0
 11
174.3232039974
 21
133.7345031379
 31
0.0
  0
SPLINE
  5
CE
330
1F
100
AcDbEntity
  8
0
  6
Continuous
 62
     7
370
    15
100
AcDbSpline
210
0.0
220
0.0
230
1.0
 70
     8
 71
     3
 72
    12
 73
     8
 74
     0
 42
0.000000001
 43
0.00000001
 40
0.0
 40
0.0
 40
0.0
 40
0.0
 40
0.5
 40
0.5
 40
0.75
 40
0.75
 40
1.0
 40
1.0
 40
1.0
 40
1.0
 10
178.1432039973672
 20
133.5697561662495
 30
0.0
 10
178.1432039973672
 20
133.356618764598
 30
0.0
 10
178.0605615822192
 20
133.1416392398603
 30
0.0
 10
177.8419781714088
 20
132.9087201709745
 30
0.0
 10
177.7528882184281
 20
132.844853261154
 30
0.0
 10
177.5574829005306
 20
132.7584671067723
 30
0.0
 10
177.4509588535873
 20
132.7355345347292
 30
0.0
 10
177.3432039973671
 20
132.7355345347291
 30
0.0
  0
LINE
  5
CF
330
1F
100
AcDbEntity
  8
0
  6
Continuous
 62
     7
370
    15
100
AcDbLine
 10
177.3432039974
 20
132.7355345347
 30
0.0
 11
175.1232039974
 21
132.7355345347
 31
0.0
  0
SPLINE
  5
D0
330
1F
100
AcDbEntity
  8
0
  6
Continuous
 62
     7
370
    15
100
AcDbSpline
210
0.0
220
0.0
230
1.0
 70
     8
 71
     3
 72
    12
 73
     8
 74
     0
 42
0.000000001
 43
0.00000001
 40
0.0
 40
0.0
 40
0.0
 40
0.0
 40
0.5000000000000004
 40
0.5000000000000004
 40
0.7500000000000002
 40
0.7500000000000002
 40
1.0
 40
1.0
 40
1.0
 40
1.0
 10
184.1832039973671
 20
135.9282278118836
 30
0.0
 10
184.1832039973671
 20
136.0485548449367
 30
0.0
 10
184.1294091857741
 20
136.1666524184185
 30
0.0
 10
183.9684856158079
 20
136.3062951608575
 30
0.0
 10
183.9037341547053
 20
136.344571114252
 30
0.0
 10
183.7515139713877
 20
136.3994109438864
 30
0.0
 10
183.6687064558627
 20
136.414012757658
 30
0.0
 10
183.5832039973671
 20
136.414012757658
 30
0.0
  0
LINE
  5
D1
330
1F
100
AcDbEntity
  8
0
  6
Continuous
 62
     7
370
    15
100
AcDbLine
 10
184.1832039974
 20
131.0890890345
 30
0.0
 11
184.1832039974
 21
135.9282278119
 31
0.0
  0
SPLINE
  5
D2
330
1F
100
AcDbEntity
  8
0
  6
Continuous
 62
     7
370
    15
100
AcDbSpline
210
0.0
220
0.0
230
1.0
 70
     8
 71
     3
 72
     8
 73
     4
 74
     0
 42
0.000000001
 43
0.00000001
 40
0.0
 40
0.0
 40
0.0
 40
0.0
 40
1.0
 40
1.0
 40
1.0
 40
1.0
 10
179.1971586836632
 20
135.6302148347069
 30
0.0
 10
178.8452146607549
 20
134.9986534466931
 30
0.0
 10
178.4938562376947
 20
134.3667715469943
 30
0.0
 10
178.1432039973672
 20
133.7345031379439
 30
0.0
  0
SPLINE
  5
D3
330
1F
100
AcDbEntity
  8
0
  6
Continuous
 62
     7
370
    15
100
AcDbSpline
210
0.0
220
0.0
230
1.0
 70
     8
 71
     3
 72
     8
 73
     4
 74
     0
 42
0.000000001
 43
0.00000001
 40
0.0
 40
0.0
 40
0.0
 40
0.0
 40
0.0012409313617635
 40
0.0012409313617635
 40
0.0012409313617635
 40
0.0012409313617635
 10
179.7550406394238
 20
136.414012757658
 30
0.0
 10
179.5683677111917
 20
136.1530008799594
 30
0.0
 10
179.3823825232191
 20
135.8917423781841
 30
0.0
 10
179.1971586836632
 20
135.6302148347069
 30
0.0
  0
LINE
  5
D4
330
1F
100
AcDbEntity
  8
0
  6
Continuous
 62
     7
370
    15
100
AcDbLine
 10
178.1432039974
 20
128.3198157343
 30
0.0
 11
178.1432039974
 21
133.7345031379
 31
0.0
  0
SPLINE
  5
D5
330
1F
100
AcDbEntity
  8
0
  6
Continuous
 62
     7
370
    15
100
AcDbSpline
210
0.0
220
0.0
230
1.0
 70
     8
 71
     3
 72
    10
 73
     6
 74
     0
 42
0.000000001
 43
0.00000001
 40
0.0
 40
0.0
 40
0.0
 40
0.0
 40
0.5
 40
0.5
 40
1.0
 40
1.0
 40
1.0
 40
1.0
 10
168.6204455986747
 20
136.3429732333994
 30
0.0
 10
168.5446060046712
 20
136.2729240470707
 30
0.0
 10
168.4772824869452
 20
136.1877052734971
 30
0.0
 10
168.3706388486401
 20
135.9774791468353
 30
0.0
 10
168.3332039973671
 20
135.853969955968
 30
0.0
 10
168.3332039973671
 20
135.7240518354453
 30
0.0
  0
SPLINE
  5
D6
330
1F
100
AcDbEntity
  8
0
  6
Continuous
 62
     7
370
    15
100
AcDbSpline
210
0.0
220
0.0
230
1.0
 70
     8
 71
     3
 72
     8
 73
     4
 74
     0
 42
0.000000001
 43
0.00000001
 40
0.0
 40
0.0
 40
0.0
 40
0.0
 40
1.0
 40
1.0
 40
1.0
 40
1.0
 10
168.9332039973671
 20
136.414012757658
 30
0.0
 10
168.8210257431875
 20
136.414012757658
 30
0.0
 10
168.7123562304591
 20
136.388331692397
 30
0.0
 10
168.6204455986747
 20
136.3429732333994
 30
0.0
  0
LINE
  5
D7
330
1F
100
AcDbEntity
  8
0
  6
Continuous
 62
     7
370
    15
100
AcDbLine
 10
168.3332039974
 20
131.0890890345
 30
0.0
 11
168.3332039974
 21
135.7240518354
 31
0.0
  0
SPLINE
  5
D8
330
1F
100
AcDbEntity
  8
0
  6
Continuous
 62
     7
370
    15
100
AcDbSpline
210
0.0
220
0.0
230
1.0
 70
     8
 71
     3
 72
    12
 73
     8
 74
     0
 42
0.000000001
 43
0.00000001
 40
0.0
 40
0.0
 40
0.0
 40
0.0
 40
0.2499999999999993
 40
0.2499999999999993
 40
0.4999999999999987
 40
0.4999999999999987
 40
1.0
 40
1.0
 40
1.0
 40
1.0
 10
175.1232039973671
 20
132.7355345347292
 30
0.0
 10
175.0167257848891
 20
132.7355345347292
 30
0.0
 10
174.9097198364306
 20
132.7581837323387
 30
0.0
 10
174.7135532173383
 20
132.8447707929109
 30
0.0
 10
174.6250845317834
 20
132.9080152412977
 30
0.0
 10
174.4044589183005
 20
133.1431323010308
 30
0.0
 10
174.3232039973671
 20
133.356900133123
 30
0.0
 10
174.3232039973671
 20
133.5697561662495
 30
0.0
  0
LINE
  5
D9
330
1F
100
AcDbEntity
  8
0
  6
Continuous
 62
     7
370
    15
100
AcDbLine
 10
172.7113673553
 20
136.4140127577
 30
0.0
 11
168.9332039974
 21
136.4140127577
 31
0.0
  0
LINE
  5
DA
330
1F
100
AcDbEntity
  8
0
  6
Continuous
 62
     7
370
    15
100
AcDbLine
 10
96.8832039974
 20
94.5105460814
 30
0.0
 11
96.8832039974
 21
117.324807258
 31
0.0
  0
CIRCLE
  5
DB
330
1F
100
AcDbEntity
  8
0
  6
HIDDEN
 62
     7
370
     0
100
AcDbCircle
 10
198.0832039974
 20
105.9176766784
 30
0.0
 40
3.999999999999992
  0
CIRCLE
  5
DC
330
1F
100
AcDbEntity
  8
0
  6
HIDDEN
 62
     7
370
     0
100
AcDbCircle
 10
198.0832039974
 20
105.9176766784
 30
0.0
 40
2.95358983848622
  0
CIRCLE
  5
DD
330
1F
100
AcDbEntity
  8
0
  6
HIDDEN
 62
     7
370
     0
100
AcDbCircle
 10
198.0832039974
 20
105.9176766784
 30
0.0
 40
2.753589838486224
  0
SPLINE
  5
DE
330
1F
100
AcDbEntity
  8
0
  6
HIDDEN
 62
     7
370
     0
100
AcDbSpline
210
0.0
220
0.0
230
1.0
 70
     8
 71
     3
 72
    16
 73
    12
 74
     0
 42
0.000000001
 43
0.00000001
 40
0.0
 40
0.0
 40
0.0
 40
0.0
 40
0.2499999999999971
 40
0.2499999999999971
 40
0.4999999999999941
 40
0.4999999999999941
 40
0.6249999999999927
 40
0.6249999999999927
 40
0.7499999999999911
 40
0.7499999999999911
 40
1.0
 40
1.0
 40
1.0
 40
1.0
 10
208.1332039973671
 20
116.3817817934533
 30
0.0
 10
208.1332039973672
 20
116.2927161249474
 30
0.0
 10
208.1278842571799
 20
116.2018537514979
 30
0.0
 10
208.0984471325591
 20
116.0137806350761
 30
0.0
 10
208.0750565864955
 20
115.9156794431737
 30
0.0
 10
208.0069291563993
 20
115.7756510946493
 30
0.0
 10
207.9779676098073
 20
115.7309509281987
 30
0.0
 10
207.9114260668509
 20
115.6608805007244
 30
0.0
 10
207.8739799320542
 20
115.6356781091884
 30
0.0
 10
207.7636106481444
 20
115.5905384625459
 30
0.0
 10
207.6955793103407
 20
115.5961367981755
 30
0.0
 10
207.6332039973408
 20
115.6118717493788
 30
0.0
  0
SPLINE
  5
DF
330
1F
100
AcDbEntity
  8
0
  6
HIDDEN
 62
     7
370
     0
100
AcDbSpline
210
0.0
220
0.0
230
1.0
 70
     8
 71
     3
 72
     8
 73
     4
 74
     0
 42
0.000000001
 43
0.00000001
 40
0.0
 40
0.0
 40
0.0
 40
0.0
 40
1.0
 40
1.0
 40
1.0
 40
1.0
 10
207.6332039973416
 20
115.6118717493779
 30
0.0
 10
207.5481646002824
 20
115.5544276580852
 30
0.0
 10
207.4431453493384
 20
115.5136704136722
 30
0.0
 10
207.3332039973674
 20
115.5136704136722
 30
0.0
  0
SPLINE
  5
E0
330
1F
100
AcDbEntity
  8
0
  6
HIDDEN
 62
     7
370
     0
100
AcDbSpline
210
0.0
220
0.0
230
1.0
 70
     8
 71
     3
 72
     8
 73
     4
 74
     0
 42
0.000000001
 43
0.00000001
 40
0.0
 40
0.0
 40
0.0
 40
0.0
 40
1.0
 40
1.0
 40
1.0
 40
1.0
 10
207.6332039973853
 20
96.22348160747747
 30
0.0
 10
207.548164600317
 20
96.28092569878574
 30
0.0
 10
207.4431453493572
 20
96.32168294321258
 30
0.0
 10
207.3332039973674
 20
96.32168294321265
 30
0.0
  0
SPLINE
  5
E1
330
1F
100
AcDbEntity
  8
0
  6
HIDDEN
 62
     7
370
     0
100
AcDbSpline
210
0.0
220
0.0
230
1.0
 70
     8
 71
     3
 72
    16
 73
    12
 74
     0
 42
0.000000001
 43
0.00000001
 40
0.0
 40
0.0
 40
0.0
 40
0.0
 40
0.2500000000000019
 40
0.2500000000000019
 40
0.3750000000000028
 40
0.3750000000000028
 40
0.5000000000000038
 40
0.5000000000000038
 40
0.7500000000000019
 40
0.7500000000000019
 40
1.0
 40
1.0
 40
1.0
 40
1.0
 10
207.6332039973844
 20
96.22348160747653
 30
0.0
 10
207.6952770807399
 20
96.23914038040643
 30
0.0
 10
207.7630863646209
 20
96.24474126931129
 30
0.0
 10
207.8729421365551
 20
96.20024393024052
 30
0.0
 10
207.9102490543431
 20
96.17536380293686
 30
0.0
 10
207.9765567365071
 20
96.10622822303158
 30
0.0
 10
208.0055229576566
 20
96.06210372373073
 30
0.0
 10
208.0743349077776
 20
95.92210412696961
 30
0.0
 10
208.0980455818883
 20
95.82339677334596
 30
0.0
 10
208.1277465903342
 20
95.63510873608057
 30
0.0
 10
208.1332039973672
 20
95.54287235834201
 30
0.0
 10
208.1332039973671
 20
95.45357173963545
 30
0.0
  0
LINE
  5
E2
330
1F
100
AcDbEntity
  8
0
  6
HIDDEN
 62
     7
370
     0
100
AcDbLine
 10
183.6332039974
 20
105.9176766784
 30
0.0
 11
183.6332039974
 21
95.4176766784
 31
0.0
  0
LINE
  5
E3
330
1F
100
AcDbEntity
  8
0
  6
HIDDEN
 62
     7
370
     0
100
AcDbLine
 10
183.6332039974
 20
116.4176766784
 30
0.0
 11
183.6332039974
 21
105.9176766784
 31
0.0
  0
LINE
  5
E4
330
1F
100
AcDbEntity
  8
0
  6
HIDDEN
 62
     7
370
     0
100
AcDbLine
 10
187.4992294012
 20
105.9176766784
 30
0.0
 11
187.4992294012
 21
94.9176766784
 31
0.0
  0
LINE
  5
E5
330
1F
100
AcDbEntity
  8
0
  6
HIDDEN
 62
     7
370
     0
100
AcDbLine
 10
187.4992294012
 20
116.9176766784
 30
0.0
 11
187.4992294012
 21
105.9176766784
 31
0.0
  0
LINE
  5
E6
330
1F
100
AcDbEntity
  8
0
  6
HIDDEN
 62
     7
370
     0
100
AcDbLine
 10
197.5332039974
 20
115.5136704137
 30
0.0
 11
207.3332039974
 21
115.5136704137
 31
0.0
  0
LINE
  5
E7
330
1F
100
AcDbEntity
  8
0
  6
HIDDEN
 62
     7
370
     0
100
AcDbLine
 10
197.5332039974
 20
96.3216829432
 30
0.0
 11
207.3332039974
 21
96.3216829432
 31
0.0
  0
LINE
  5
E8
330
1F
100
AcDbEntity
  8
0
  6
HIDDEN
 62
     7
370
     0
100
AcDbLine
 10
168.3332039974
 20
130.7176766784
 30
0.0
 11
168.6704622976
 21
130.7176766784
 31
0.0
  0
ELLIPSE
  5
E9
330
1F
100
AcDbEntity
  8
0
  6
HIDDEN
 62
     7
370
     0
100
AcDbEllipse
 10
168.6704622976
 20
132.3176766784
 30
0.0
 11
0.0
 21
1.600000000000023
 31
0.0
210
0.0
220
0.0
230
1.0
 40
0.4142135624
 41
3.141592653589793
 42
4.712388980384695
  0
LINE
  5
EA
330
1F
100
AcDbEntity
  8
0
  6
HIDDEN
 62
     7
370
     0
100
AcDbLine
 10
168.6704622976
 20
83.3176766784
 30
0.0
 11
168.3332039974
 21
83.3176766784
 31
0.0
  0
ELLIPSE
  5
EB
330
1F
100
AcDbEntity
  8
0
  6
HIDDEN
 62
     7
370
     0
100
AcDbEllipse
 10
168.6704622976
 20
81.7176766784
 30
0.0
 11
0.0
 21
1.600000000000009
 31
0.0
210
0.0
220
0.0
230
1.0
 40
0.4142135624
 41
4.712388980384695
 42
6.283185307179586
  0
LINE
  5
EC
330
1F
100
AcDbEntity
  8
0
  6
HIDDEN
 62
     7
370
     0
100
AcDbLine
 10
169.3332039974
 20
76.0242283318
 30
0.0
 11
168.5493485387
 21
75.565946829
 31
0.0
  0
LINE
  5
ED
330
1F
100
AcDbEntity
  8
0
  6
HIDDEN
 62
     7
370
     0
100
AcDbLine
 10
168.6204455987
 20
136.3429732334
 30
0.0
 11
169.3332039974
 21
135.6302148347
 31
0.0
  0
LINE
  5
EE
330
1F
100
AcDbEntity
  8
0
  6
HIDDEN
 62
     7
370
     0
100
AcDbLine
 10
103.8832039974
 20
97.4176766784
 30
0.0
 11
103.8832039974
 21
114.4176766784
 31
0.0
  0
LINE
  5
EF
330
1F
100
AcDbEntity
  8
0
  6
HIDDEN
 62
     7
370
     0
100
AcDbLine
 10
106.8791332117
 20
98.9176766784
 30
0.0
 11
106.8791332117
 21
112.9176766784
 31
0.0
  0
LINE
  5
F0
330
1F
100
AcDbEntity
  8
0
  6
HIDDEN
 62
     7
370
     0
100
AcDbLine
 10
184.1832039974
 20
83.3176766784
 30
0.0
 11
168.6704622976
 21
83.3176766784
 31
0.0
  0
LINE
  5
F1
330
1F
100
AcDbEntity
  8
0
  6
HIDDEN
 62
     7
370
     0
100
AcDbLine
 10
173.1684143937
 20
76.0242283318
 30
0.0
 11
169.3332039974
 21
76.0242283318
 31
0.0
  0
LINE
  5
F2
330
1F
100
AcDbEntity
  8
0
  6
HIDDEN
 62
     7
370
     0
100
AcDbLine
 10
169.3332039974
 20
76.0242283318
 30
0.0
 11
169.3332039974
 21
81.7176766784
 31
0.0
  0
LINE
  5
F3
330
1F
100
AcDbEntity
  8
0
  6
HIDDEN
 62
     7
370
     0
100
AcDbLine
 10
184.1832039974
 20
76.0242283318
 30
0.0
 11
179.2979936011
 21
76.0242283318
 31
0.0
  0
LINE
  5
F4
330
1F
100
AcDbEntity
  8
0
  6
HIDDEN
 62
     7
370
     0
100
AcDbLine
 10
168.6704622976
 20
130.7176766784
 30
0.0
 11
184.1832039974
 21
130.7176766784
 31
0.0
  0
LINE
  5
F5
330
1F
100
AcDbEntity
  8
0
  6
HIDDEN
 62
     7
370
     0
100
AcDbLine
 10
169.3332039974
 20
135.6302148347
 30
0.0
 11
173.2692493111
 21
135.6302148347
 31
0.0
  0
LINE
  5
F6
330
1F
100
AcDbEntity
  8
0
  6
HIDDEN
 62
     7
370
     0
100
AcDbLine
 10
179.1971586837
 20
135.6302148347
 30
0.0
 11
184.1832039974
 21
135.6302148347
 31
0.0
  0
LINE
  5
F7
330
1F
100
AcDbEntity
  8
0
  6
HIDDEN
 62
     7
370
     0
100
AcDbLine
 10
169.3332039974
 20
135.6302148347
 30
0.0
 11
169.3332039974
 21
132.3176766784
 31
0.0
  0
LINE
  5
F8
330
1F
100
AcDbEntity
  8
0
  6
HIDDEN
 62
     7
370
     0
100
AcDbLine
 10
139.8832039974
 20
98.9176766784
 30
0.0
 11
139.8832039974
 21
112.9176766784
 31
0.0
  0
LINE
  5
F9
330
1F
100
AcDbEntity
  8
0
  6
HIDDEN
 62
     7
370
     0
100
AcDbLine
 10
141.5355706997
 20
101.6676766784
 30
0.0
 11
141.5355706997
 21
110.1676766784
 31
0.0
  0
SPLINE
  5
FA
330
1F
100
AcDbEntity
  8
0
  6
HIDDEN
 62
     7
370
     0
100
AcDbSpline
210
0.0
220
0.0
230
1.0
 70
     8
 71
     3
 72
    18
 73
    14
 74
     0
 42
0.000000001
 43
0.00000001
 40
0.0
 40
0.0
 40
0.0
 40
0.0
 40
0.0301122960240034
 40
0.1110464336239593
 40
0.1937505796320416
 40
0.2770674319781164
 40
0.3572222375097608
 40
0.5202522979301895
 40
0.6033195572254441
 40
0.6835704800617111
 40
0.8467897962904236
 40
0.9299580050019552
 40
0.9999999999999999
 40
0.9999999999999999
 40
0.9999999999999999
 40
0.9999999999999999
 10
207.5863212193382
 20
121.6246861774749
 30
0.0
 10
207.5858712422963
 20
121.6248206952838
 30
0.0
 10
207.5842118422403
 20
121.6253167625026
 30
0.0
 10
207.582664847015
 20
121.6030029764629
 30
0.0
 10
207.5823054178533
 20
121.5573138919075
 30
0.0
 10
207.5838480804059
 20
121.4876315968949
 30
0.0
 10
207.5884505963614
 20
121.3669103970568
 30
0.0
 10
207.5963238392524
 20
121.2040416921836
 30
0.0
 10
207.6064349407445
 20
121.002672642512
 30
0.0
 10
207.617187790062
 20
120.777047764343
 30
0.0
 10
207.6268806613062
 20
120.5165122756793
 30
0.0
 10
207.6323553407834
 20
120.2376756615155
 30
0.0
 10
207.6329377536224
 20
120.0935606778258
 30
0.0
 10
207.6332040110659
 20
120.0276766784424
 30
0.0
  0
LINE
  5
FB
330
1F
100
AcDbEntity
  8
0
  6
HIDDEN
 62
     7
370
     0
100
AcDbLine
 10
207.6332040111
 20
120.0276766784
 30
0.0
 11
207.6332039973
 21
115.6118717494
 31
0.0
  0
LINE
  5
FC
330
1F
100
AcDbEntity
  8
0
  6
HIDDEN
 62
     7
370
     0
100
AcDbLine
 10
207.6332039915
 20
91.8076766784
 30
0.0
 11
207.6332039974
 21
96.2234816075
 31
0.0
  0
SPLINE
  5
FD
330
1F
100
AcDbEntity
  8
0
  6
HIDDEN
 62
     7
370
     0
100
AcDbSpline
210
0.0
220
0.0
230
1.0
 70
     8
 71
     3
 72
    14
 73
    10
 74
     0
 42
0.000000001
 43
0.00000001
 40
0.0
 40
0.0
 40
0.0
 40
0.0
 40
0.2499999999999998
 40
0.2499999999999998
 40
0.4999999999999996
 40
0.4999999999999996
 40
0.7499999999999998
 40
0.7499999999999998
 40
1.0
 40
1.0
 40
1.0
 40
1.0
 10
207.6332039973671
 20
91.80767667844242
 30
0.0
 10
207.6332039973671
 20
91.59757221108266
 30
0.0
 10
207.6333764076868
 20
91.40581768332655
 30
0.0
 10
207.6303747787378
 20
91.0569435079669
 30
0.0
 10
207.6280785018159
 20
90.89814134574368
 30
0.0
 10
207.6207973581892
 20
90.62714594853931
 30
0.0
 10
207.615967134356
 20
90.51558424834569
 30
0.0
 10
207.6054515990704
 20
90.34020113998552
 30
0.0
 10
207.5998013740988
 20
90.27764305882373
 30
0.0
 10
207.5949721935403
 20
90.24247504051766
 30
0.0
  0
SPLINE
  5
FE
330
1F
100
AcDbEntity
  8
0
  6
HIDDEN
 62
     7
370
     0
100
AcDbSpline
210
0.0
220
0.0
230
1.0
 70
     8
 71
     3
 72
    14
 73
    10
 74
     0
 42
0.000000001
 43
0.00000001
 40
0.0
 40
0.0
 40
0.0
 40
0.0
 40
0.0069955212238411
 40
0.1682254671515598
 40
0.3341580921220578
 40
0.4949389827968625
 40
0.6603625862567323
 40
0.8275537971541624
 40
1.0
 40
1.0
 40
1.0
 40
1.0
 10
207.5862681626189
 20
90.20998623648218
 30
0.0
 10
207.5861390719579
 20
90.20948504139378
 30
0.0
 10
207.5830347519139
 20
90.19743250446558
 30
0.0
 10
207.5815929913502
 20
90.25780564030286
 30
0.0
 10
207.5850511375395
 20
90.39579786419463
 30
0.0
 10
207.5962241580726
 20
90.63092751236024
 30
0.0
 10
207.6121573534979
 20
90.94371817475945
 30
0.0
 10
207.628742081541
 20
91.3343478050912
 30
0.0
 10
207.6317014254877
 20
91.64828129014549
 30
0.0
 10
207.6332039914768
 20
91.8076766784424
 30
0.0
  0
LINE
  5
FF
330
1F
100
AcDbEntity
  8
0
  6
HIDDEN
 62
     7
370
     0
100
AcDbLine
 10
197.5332039974
 20
120.0276766784
 30
0.0
 11
197.5332039974
 21
115.5136704137
 31
0.0
  0
LINE
  5
100
330
1F
100
AcDbEntity
  8
0
  6
HIDDEN
 62
     7
370
     0
100
AcDbLine
 10
197.5332039974
 20
91.8076766784
 30
0.0
 11
197.5332039974
 21
96.3216829432
 31
0.0
  0
LINE
  5
101
330
1F
100
AcDbEntity
  8
0
  6
HIDDEN
 62
     7
370
     0
100
AcDbLine
 10
197.5332039974
 20
90.2076766784
 30
0.0
 11
197.5332039974
 21
91.8076766784
 31
0.0
  0
LINE
  5
102
330
1F
100
AcDbEntity
  8
0
  6
HIDDEN
 62
     7
370
     0
100
AcDbLine
 10
197.5332039974
 20
121.6276766784
 30
0.0
 11
197.5332039974
 21
120.0276766784
 31
0.0
  0
LINE
  5
103
330
1F
100
AcDbEntity
  8
0
  6
HIDDEN
 62
     7
370
     0
100
AcDbLine
 10
174.3232039974
 20
128.114917498
 30
0.0
 11
174.3232039974
 21
124.2676766784
 31
0.0
  0
LINE
  5
104
330
1F
100
AcDbEntity
  8
0
  6
HIDDEN
 62
     7
370
     0
100
AcDbLine
 10
178.1432039974
 20
128.114917498
 30
0.0
 11
178.1432039974
 21
124.2676766784
 31
0.0
  0
LINE
  5
105
330
1F
100
AcDbEntity
  8
0
  6
HIDDEN
 62
     7
370
     0
100
AcDbLine
 10
179.7550406394
 20
131.8279063185
 30
0.0
 11
179.7550406394
 21
124.2676766784
 31
0.0
  0
LINE
  5
106
330
1F
100
AcDbEntity
  8
0
  6
HIDDEN
 62
     7
370
     0
100
AcDbLine
 10
172.7113673553
 20
131.8279063185
 30
0.0
 11
172.7113673553
 21
124.2676766784
 31
0.0
  0
ARC
  5
107
330
1F
100
AcDbEntity
  8
0
  6
HIDDEN
 62
     7
370
     0
100
AcDbCircle
 10
185.5015514998
 20
116.4176766784
 30
0.0
 40
1.0
100
AcDbArc
 50
75.0
 51
90.0
  0
ARC
  5
108
330
1F
100
AcDbEntity
  8
0
  6
HIDDEN
 62
     7
370
     0
100
AcDbCircle
 10
185.5015514998
 20
95.4176766784
 30
0.0
 40
1.0
100
AcDbArc
 50
270.0
 51
285.0
  0
LINE
  5
109
330
1F
100
AcDbEntity
  8
0
  6
HIDDEN
 62
     7
370
     0
100
AcDbLine
 10
185.5015514998
 20
117.4176766784
 30
0.0
 11
184.6332039974
 21
117.4176766784
 31
0.0
  0
LINE
  5
10A
330
1F
100
AcDbEntity
  8
0
  6
HIDDEN
 62
     7
370
     0
100
AcDbLine
 10
184.6332039974
 20
94.4176766784
 30
0.0
 11
185.5015514998
 21
94.4176766784
 31
0.0
  0
ARC
  5
10B
330
1F
100
AcDbEntity
  8
0
  6
HIDDEN
 62
     7
370
     0
100
AcDbCircle
 10
184.6332039974
 20
116.4176766784
 30
0.0
 40
1.0
100
AcDbArc
 50
90.0
 51
180.0
  0
ARC
  5
10C
330
1F
100
AcDbEntity
  8
0
  6
HIDDEN
 62
     7
370
     0
100
AcDbCircle
 10
184.6332039974
 20
95.4176766784
 30
0.0
 40
1.0
100
AcDbArc
 50
180.0
 51
270.0
  0
LINE
  5
10D
330
1F
100
AcDbEntity
  8
0
  6
HIDDEN
 62
     7
370
     0
100
AcDbLine
 10
185.7603705449
 20
94.4517508522
 30
0.0
 11
187.4992294012
 21
94.9176766784
 31
0.0
  0
LINE
  5
10E
330
1F
100
AcDbEntity
  8
0
  6
HIDDEN
 62
     7
370
     0
100
AcDbLine
 10
187.4992294012
 20
116.9176766784
 30
0.0
 11
185.7603705449
 21
117.3836025047
 31
0.0
  0
LINE
  5
10F
330
1F
100
AcDbEntity
  8
0
  6
HIDDEN
 62
     7
370
     0
100
AcDbLine
 10
197.5332039974
 20
116.9176766784
 30
0.0
 11
187.4992294012
 21
116.9176766784
 31
0.0
  0
LINE
  5
110
330
1F
100
AcDbEntity
  8
0
  6
HIDDEN
 62
     7
370
     0
100
AcDbLine
 10
187.4992294012
 20
94.9176766784
 30
0.0
 11
197.5332039974
 21
94.9176766784
 31
0.0
  0
ARC
  5
111
330
1F
100
AcDbEntity
  8
0
  6
HIDDEN
 62
     7
370
     0
100
AcDbCircle
 10
97.6832039974
 20
96.6176766784
 30
0.0
 40
0.7999999999999972
100
AcDbArc
 50
90.0
 51
180.0
  0
ARC
  5
112
330
1F
100
AcDbEntity
  8
0
  6
HIDDEN
 62
     7
370
     0
100
AcDbCircle
 10
97.6832039974
 20
115.2176766784
 30
0.0
 40
0.7999999999999972
100
AcDbArc
 50
180.0
 51
270.0
  0
LINE
  5
113
330
1F
100
AcDbEntity
  8
0
  6
HIDDEN
 62
     7
370
     0
100
AcDbLine
 10
104.7755764281
 20
97.1926766784
 30
0.0
 11
105.6522638897
 21
97.1926766784
 31
0.0
  0
LINE
  5
114
330
1F
100
AcDbEntity
  8
0
  6
HIDDEN
 62
     7
370
     0
100
AcDbLine
 10
105.6522638897
 20
114.6426766784
 30
0.0
 11
104.7755764281
 21
114.6426766784
 31
0.0
  0
ARC
  5
115
330
1F
100
AcDbEntity
  8
0
  6
HIDDEN
 62
     7
370
     0
100
AcDbCircle
 10
105.6522638897
 20
97.5926766784
 30
0.0
 40
0.4000000000000173
100
AcDbArc
 50
270.0
 51
330.0
  0
ARC
  5
116
330
1F
100
AcDbEntity
  8
0
  6
HIDDEN
 62
     7
370
     0
100
AcDbCircle
 10
105.6522638897
 20
114.2426766784
 30
0.0
 40
0.4000000000000173
100
AcDbArc
 50
30.0
 51
90.0
  0
ARC
  5
117
330
1F
100
AcDbEntity
  8
0
  6
HIDDEN
 62
     7
370
     0
100
AcDbCircle
 10
104.7755764281
 20
97.5926766784
 30
0.0
 40
0.4000000000000023
100
AcDbArc
 50
255.0
 51
270.0
  0
ARC
  5
118
330
1F
100
AcDbEntity
  8
0
  6
HIDDEN
 62
     7
370
     0
100
AcDbCircle
 10
104.7755764281
 20
114.2426766784
 30
0.0
 40
0.3999999999999915
100
AcDbArc
 50
90.0
 51
105.0
  0
LINE
  5
119
330
1F
100
AcDbEntity
  8
0
  6
HIDDEN
 62
     7
370
     0
100
AcDbLine
 10
104.6720488101
 20
114.629047009
 30
0.0
 11
103.8832039974
 21
114.4176766784
 31
0.0
  0
LINE
  5
11A
330
1F
100
AcDbEntity
  8
0
  6
HIDDEN
 62
     7
370
     0
100
AcDbLine
 10
103.8832039974
 20
97.4176766784
 30
0.0
 11
104.6720488101
 21
97.2063063479
 31
0.0
  0
LINE
  5
11B
330
1F
100
AcDbEntity
  8
0
  6
HIDDEN
 62
     7
370
     0
100
AcDbLine
 10
105.9986740512
 20
97.3926766784
 30
0.0
 11
106.8791332117
 21
98.9176766784
 31
0.0
  0
LINE
  5
11C
330
1F
100
AcDbEntity
  8
0
  6
HIDDEN
 62
     7
370
     0
100
AcDbLine
 10
106.8791332117
 20
112.9176766784
 30
0.0
 11
105.9986740512
 21
114.4426766784
 31
0.0
  0
LINE
  5
11D
330
1F
100
AcDbEntity
  8
0
  6
HIDDEN
 62
     7
370
     0
100
AcDbLine
 10
97.6832039974
 20
97.4176766784
 30
0.0
 11
103.8832039974
 21
97.4176766784
 31
0.0
  0
LINE
  5
11E
330
1F
100
AcDbEntity
  8
0
  6
HIDDEN
 62
     7
370
     0
100
AcDbLine
 10
103.8832039974
 20
114.4176766784
 30
0.0
 11
97.6832039974
 21
114.4176766784
 31
0.0
  0
LINE
  5
11F
330
1F
100
AcDbEntity
  8
0
  6
HIDDEN
 62
     7
370
     0
100
AcDbLine
 10
106.8791332117
 20
98.9176766784
 30
0.0
 11
139.8832039974
 21
98.9176766784
 31
0.0
  0
LINE
  5
120
330
1F
100
AcDbEntity
  8
0
  6
HIDDEN
 62
     7
370
     0
100
AcDbLine
 10
139.8832039974
 20
112.9176766784
 30
0.0
 11
106.8791332117
 21
112.9176766784
 31
0.0
  0
LINE
  5
121
330
1F
100
AcDbEntity
  8
0
  6
HIDDEN
 62
     7
370
     0
100
AcDbLine
 10
139.8832039974
 20
98.9176766784
 30
0.0
 11
141.5355706997
 21
101.6676766784
 31
0.0
  0
LINE
  5
122
330
1F
100
AcDbEntity
  8
0
  6
HIDDEN
 62
     7
370
     0
100
AcDbLine
 10
141.5355706997
 20
110.1676766784
 30
0.0
 11
139.8832039974
 21
112.9176766784
 31
0.0
  0
LINE
  5
123
330
1F
100
AcDbEntity
  8
0
  6
HIDDEN
 62
     7
370
     0
100
AcDbLine
 10
208.1332039974
 20
122.1742803107
 30
0.0
 11
207.5775967384
 21
121.6186821235
 31
0.0
  0
LINE
  5
124
330
1F
100
AcDbEntity
  8
0
  6
HIDDEN
 62
     7
370
     0
100
AcDbLine
 10
207.5780226695
 20
90.2162427343
 30
0.0
 11
208.1332039974
 21
89.6610722375
 31
0.0
  0
LINE
  5
125
330
1F
100
AcDbEntity
  8
0
  6
HIDDEN
 62
     7
370
     0
100
AcDbLine
 10
141.5355706997
 20
101.6676766784
 30
0.0
 11
183.6332039974
 21
101.6676766784
 31
0.0
  0
LINE
  5
126
330
1F
100
AcDbEntity
  8
0
  6
HIDDEN
 62
     7
370
     0
100
AcDbLine
 10
183.6332039974
 20
110.1676766784
 30
0.0
 11
141.5355706997
 21
110.1676766784
 31
0.0
  0
LINE
  5
127
330
1F
100
AcDbEntity
  8
0
  6
HIDDEN
 62
     7
370
     0
100
AcDbLine
 10
197.5332039974
 20
90.2076766784
 30
0.0
 11
207.587128572
 21
90.2076766784
 31
0.0
  0
LINE
  5
128
330
1F
100
AcDbEntity
  8
0
  6
HIDDEN
 62
     7
370
     0
100
AcDbLine
 10
207.5869944414
 20
121.6276766784
 30
0.0
 11
197.5332039974
 21
121.6276766784
 31
0.0
  0
DIMENSION
  5
129
330
1F
100
AcDbEntity
  8
VERMASSUNG
100
AcDbDimension
  2
_D
 10
90.6734291581
 20
137.6676766784
 30
0.0
 11
90.6734291581
 21
105.9176766784
 31
0.0
 70
   160
  1
ISO 40 %%c<>
 71
     2
 42
-1.0
  3
SLDDIMSTYLE0
100
AcDbAlignedDimension
 13
183.5832039974
 23
74.1676766784
 33
0.0
 14
183.5832039974
 24
137.6676766784
 34
0.0
 50
90.0
100
AcDbRotatedDimension
  0
DIMENSION
  5
136
330
1F
100
AcDbEntity
  8
VERMASSUNG
100
AcDbDimension
  2
_D_1
 10
215.1566555366
 20
94.9176766784
 30
0.0
 11
215.1566555366
 21
105.9176766784
 31
0.0
 70
   160
  1
%%c<>
 71
     2
 42
-1.0
  3
SLDDIMSTYLE0
100
AcDbAlignedDimension
 13
197.5332039974
 23
116.9176766784
 33
0.0
 14
197.5332039974
 24
94.9176766784
 34
0.0
 50
90.0
100
AcDbRotatedDimension
  0
DIMENSION
  5
141
330
1F
100
AcDbEntity
  8
VERMASSUNG
100
AcDbDimension
  2
_D_2
 10
208.1332039974
 20
146.9582279713
 30
0.0
 11
186.6332039974
 21
146.9582279713
 31
0.0
 70
   160
  1
<>
 71
     2
 42
-1.0
  3
SLDDIMSTYLE0
100
AcDbAlignedDimension
 13
165.1332039974
 23
128.1426766784
 33
0.0
 14
208.1332039974
 24
125.0176766784
 34
0.0
100
AcDbRotatedDimension
  0
DIMENSION
  5
14B
330
1F
100
AcDbEntity
  8
VERMASSUNG
100
AcDbDimension
  2
_D_3
 10
208.1332039974
 20
140.9582279713
 30
0.0
 11
196.1582039974
 21
140.9582279713
 31
0.0
 70
   160
  1
(<>)
 71
     2
 42
-1.0
  3
SLDDIMSTYLE0
100
AcDbAlignedDimension
 13
184.1832039974
 23
135.9282278119
 33
0.0
 14
208.1332039974
 24
125.0176766784
 34
0.0
100
AcDbRotatedDimension
  0
DIMENSION
  5
157
330
1F
100
AcDbEntity
  8
VERMASSUNG
100
AcDbDimension
  2
_D_4
 10
208.1332039974
 20
152.9582279713
 30
0.0
 11
152.5082039974
 21
152.9582279713
 31
0.0
 70
   160
  1
(<>)
 71
     2
 42
-1.0
  3
SLDDIMSTYLE0
100
AcDbAlignedDimension
 13
96.8832039974
 23
117.3248072755
 33
0.0
 14
208.1332039974
 24
125.0176766784
 34
0.0
100
AcDbRotatedDimension
  0
DIMENSION
  5
163
330
1F
100
AcDbEntity
  8
VERMASSUNG
100
AcDbDimension
  2
_D_5
 10
221.5887192303
 20
86.4176766784
 30
0.0
 11
221.5887192303
 21
105.9176766784
 31
0.0
 70
   160
  1
ST4 %%c<>
 71
     2
 42
-1.0
  3
SLDDIMSTYLE0
100
AcDbAlignedDimension
 13
207.7332039974
 23
125.4176766784
 33
0.0
 14
207.7332039974
 24
86.4176766784
 34
0.0
 50
90.0
100
AcDbRotatedDimension
  0
LINE
  5
16F
330
1F
100
AcDbEntity
  8
VERMASSUNG
  6
CENTERX2
 62
     7
370
     0
100
AcDbLine
 10
94.8832039974
 20
105.9176766784
 30
0.0
 11
210.1332039974
 21
105.9176766784
 31
0.0
  0
LINE
  5
170
330
1F
100
AcDbEntity
  8
0
  6
Continuous
 62
     7
370
    15
100
AcDbLine
 10
267.1437600997
 20
43.4991479149
 30
0.0
 11
267.1419920455
 21
43.5001689227
 31
0.0
  0
LINE
  5
171
330
1F
100
AcDbEntity
  8
0
  6
Continuous
 62
     7
370
    15
100
AcDbLine
 10
264.5818495714
 20
43.5001689227
 30
0.0
 11
264.5800815172
 21
43.4991479149
 31
0.0
  0
LINE
  5
172
330
1F
100
AcDbEntity
  8
0
  6
Continuous
 62
     7
370
    15
100
AcDbLine
 10
269.2748315439
 20
25.4313280275
 30
0.0
 11
269.4162299152
 21
25.5129821076
 31
0.0
  0
LINE
  5
173
330
1F
100
AcDbEntity
  8
0
  6
Continuous
 62
     7
370
    15
100
AcDbLine
 10
276.1680021443
 20
37.2086619008
 30
0.0
 11
276.1680021443
 21
37.3719435231
 31
0.0
  0
LINE
  5
174
330
1F
100
AcDbEntity
  8
0
  6
Continuous
 62
     7
370
    15
100
AcDbLine
 10
274.1483148493
 20
41.8359303862
 30
0.0
 11
267.2363460632
 21
45.8261250328
 31
0.0
  0
LINE
  5
175
330
1F
100
AcDbEntity
  8
0
  6
Continuous
 62
     7
370
    15
100
AcDbLine
 10
257.48713842
 20
28.9381722163
 30
0.0
 11
264.3991072061
 21
24.9479775698
 31
0.0
  0
SPLINE
  5
176
330
1F
100
AcDbEntity
  8
0
  6
Continuous
 62
     7
370
    15
100
AcDbSpline
210
0.0
220
0.0
230
1.0
 70
     8
 71
     3
 72
    32
 73
    28
 74
     0
 42
0.000000001
 43
0.00000001
 40
0.0
 40
0.0
 40
0.0
 40
0.0
 40
0.0090828357706468
 40
0.0502391656684096
 40
0.0915021294939669
 40
0.132926973934277
 40
0.1745000724762842
 40
0.2161896322165133
 40
0.2579588275880862
 40
0.2997747034257779
 40
0.3416120308088076
 40
0.3834515146404413
 40
0.4252825261862365
 40
0.4671008106034439
 40
0.5089050065634467
 40
0.5506955766133096
 40
0.5924740822848535
 40
0.6342427194396735
 40
0.6760040347217662
 40
0.7177607614935502
 40
0.7595157310441983
 40
0.80127178633
 40
0.8430309192707346
 40
0.8847960654630023
 40
0.9265701568027286
 40
0.9683560721799863
 40
0.9999999999999999
 40
0.9999999999999999
 40
0.9999999999999999
 40
0.9999999999999999
 10
261.993951325048
 20
55.65157960059695
 30
0.0
 10
261.94002000841
 20
55.66536560290076
 30
0.0
 10
261.6417140145866
 20
55.74161901880907
 30
0.0
 10
261.0720190338386
 20
55.81746306083707
 30
0.0
 10
260.2747528022787
 20
55.84206411410081
 30
0.0
 10
259.4464065768269
 20
55.77204536919274
 30
0.0
 10
258.5937069147962
 20
55.6120095144322
 30
0.0
 10
257.7215801012985
 20
55.36156454936121
 30
0.0
 10
256.8358713711519
 20
55.02257872375168
 30
0.0
 10
255.9423379819619
 20
54.59720932948827
 30
0.0
 10
255.0467754962119
 20
54.08835422892381
 30
0.0
 10
254.1548820443113
 20
53.49942999078321
 30
0.0
 10
253.2722383593832
 20
52.83433874539121
 30
0.0
 10
252.4042821293325
 20
52.09739724988867
 30
0.0
 10
251.5563185258637
 20
51.29331518563204
 30
0.0
 10
250.7335194168077
 20
50.42717968047359
 30
0.0
 10
249.9409033982281
 20
49.50443083763406
 30
0.0
 10
249.1833113857894
 20
48.53083441099913
 30
0.0
 10
248.4653817680828
 20
47.51245167039522
 30
0.0
 10
247.7915184562101
 20
46.45560450907807
 30
0.0
 10
247.165883412913
 20
45.36684330616875
 30
0.0
 10
246.5923053095663
 20
44.25289981076823
 30
0.0
 10
246.0745119531647
 20
43.12069725216359
 30
0.0
 10
245.6151321714659
 20
41.97708679575708
 30
0.0
 10
245.2193224777234
 20
40.82961638383632
 30
0.0
 10
244.9085412095797
 20
39.77629426655034
 30
0.0
 10
244.7575351321995
 20
39.11305701129762
 30
0.0
 10
244.692460426808
 20
38.82724090548928
 30
0.0
  0
SPLINE
  5
177
330
1F
100
AcDbEntity
  8
0
  6
Continuous
 62
     7
370
    15
100
AcDbSpline
210
0.0
220
0.0
230
1.0
 70
     8
 71
     3
 72
    22
 73
    18
 74
     0
 42
0.000000001
 43
0.00000001
 40
0.0
 40
0.0
 40
0.0
 40
0.0
 40
0.0074306385912826
 40
0.0796023566151306
 40
0.1518643773779124
 40
0.2241488284083503
 40
0.2963950981589209
 40
0.3685447350698995
 40
0.4405470657967795
 40
0.5123565374769742
 40
0.5839438101615837
 40
0.6553203853443943
 40
0.7265877230327666
 40
0.7979200315412511
 40
0.8697767574332905
 40
0.9429831955954349
 40
1.0
 40
1.0
 40
1.0
 40
1.0
 10
265.8903429062532
 20
33.64376278122891
 30
0.0
 10
265.8988771876361
 20
33.66683263137121
 30
0.0
 10
265.9903025613433
 20
33.91397349490875
 30
0.0
 10
266.204029863901
 20
34.38328258584449
 30
0.0
 10
266.5516601787414
 20
35.03603237158253
 30
0.0
 10
266.9502839463848
 20
35.6600480706326
 30
0.0
 10
267.3884814264701
 20
36.24366987156756
 30
0.0
 10
267.8588098024406
 20
36.7760784676591
 30
0.0
 10
268.3517156986916
 20
37.24759958481358
 30
0.0
 10
268.857367452229
 20
37.64992895956888
 30
0.0
 10
269.36538962027
 20
37.97637954923216
 30
0.0
 10
269.8653546553279
 20
38.22227973056476
 30
0.0
 10
270.3468303996204
 20
38.38480505887989
 30
0.0
 10
270.8010378550364
 20
38.46455298030238
 30
0.0
 10
271.2192784950081
 20
38.46019194210057
 30
0.0
 10
271.5729375860184
 20
38.39176870486515
 30
0.0
 10
271.7658547436501
 20
38.28965794757181
 30
0.0
 10
271.8503213843678
 20
38.24494988347016
 30
0.0
  0
SPLINE
  5
178
330
1F
100
AcDbEntity
  8
0
  6
Continuous
 62
     7
370
    15
100
AcDbSpline
210
0.0
220
0.0
230
1.0
 70
     8
 71
     3
 72
    10
 73
     6
 74
     0
 42
0.000000001
 43
0.00000001
 40
0.0
 40
0.0
 40
0.0
 40
0.0
 40
0.1163968464762296
 40
0.6061377585900402
 40
0.9999999999999999
 40
0.9999999999999999
 40
0.9999999999999999
 40
0.9999999999999999
 10
266.414251346716
 20
28.70224057559149
 30
0.0
 10
266.3857557746447
 20
28.71505109885573
 30
0.0
 10
266.2373647940647
 20
28.78176202868612
 30
0.0
 10
266.0328242333321
 20
28.96190445284754
 30
0.0
 10
265.880427556404
 20
29.17227049140397
 30
0.0
 10
265.8124974041417
 20
29.26604023309395
 30
0.0
  0
LINE
  5
179
330
1F
100
AcDbEntity
  8
0
  6
Continuous
 62
     7
370
    15
100
AcDbLine
 10
254.4586855716
 20
53.6863049749
 30
0.0
 11
233.1476046348
 21
61.3659738025
 31
0.0
  0
LINE
  5
17A
330
1F
100
AcDbEntity
  8
0
  6
Continuous
 62
     7
370
    15
100
AcDbLine
 10
226.9828228856
 20
50.6871015173
 30
0.0
 11
247.2790600508
 21
33.5491266416
 31
0.0
  0
SPLINE
  5
17B
330
1F
100
AcDbEntity
  8
0
  6
Continuous
 62
     7
370
    15
100
AcDbSpline
210
0.0
220
0.0
230
1.0
 70
     8
 71
     3
 72
    16
 73
    12
 74
     0
 42
0.000000001
 43
0.00000001
 40
0.0
 40
0.0
 40
0.0
 40
0.0
 40
0.0191350116461377
 40
0.1451522168080379
 40
0.2716567287139073
 40
0.3985814737162447
 40
0.525819611919069
 40
0.6532609347533266
 40
0.7808130352157598
 40
0.9084083741695137
 40
1.0
 40
1.0
 40
1.0
 40
1.0
 10
255.3971938782953
 20
23.82097589124233
 30
0.0
 10
255.4365272750243
 20
23.81669665151674
 30
0.0
 10
255.7348981271246
 20
23.7842356766341
 30
0.0
 10
256.323230848181
 20
23.81116517685131
 30
0.0
 10
257.1586657910867
 20
23.90745286159982
 30
0.0
 10
258.0199400945281
 20
24.10314529518249
 30
0.0
 10
258.8975852228326
 20
24.38635142552514
 30
0.0
 10
259.7869988403604
 20
24.75731907863318
 30
0.0
 10
260.6816923772612
 20
25.21618389246234
 30
0.0
 10
261.4932690198105
 20
25.69734741847559
 30
0.0
 10
262.0012330206078
 20
26.05870408235628
 30
0.0
 10
262.2134958654452
 20
26.20970414014755
 30
0.0
  0
LINE
  5
17C
330
1F
100
AcDbEntity
  8
0
  6
Continuous
 62
     7
370
    15
100
AcDbLine
 10
251.4450815696
 20
25.3538281676
 30
0.0
 11
252.7985417046
 21
24.5724922628
 31
0.0
  0
LINE
  5
17D
330
1F
100
AcDbEntity
  8
0
  6
Continuous
 62
     7
370
    15
100
AcDbLine
 10
247.6189845324
 20
27.5625869724
 30
0.0
 11
248.9547669978
 21
26.7914561691
 31
0.0
  0
SPLINE
  5
17E
330
1F
100
AcDbEntity
  8
0
  6
Continuous
 62
     7
370
    15
100
AcDbSpline
210
0.0
220
0.0
230
1.0
 70
     8
 71
     3
 72
    11
 73
     7
 74
     0
 42
0.000000001
 43
0.00000001
 40
0.0
 40
0.0
 40
0.0
 40
0.0
 40
0.1171383978981202
 40
0.480627058650276
 40
0.8435610606779802
 40
1.0
 40
1.0
 40
1.0
 40
1.0
 10
244.6989741517841
 20
31.55970705806442
 30
0.0
 10
244.7259825915835
 20
31.46781688659725
 30
0.0
 10
244.8368001135274
 20
31.09078507103885
 30
0.0
 10
245.0838184249775
 20
30.47573079330553
 30
0.0
 10
245.3792306215201
 20
29.86718999861366
 30
0.0
 10
245.5946669790536
 20
29.55512744199127
 30
0.0
 10
245.65955799008
 20
29.46113191108575
 30
0.0
  0
SPLINE
  5
17F
330
1F
100
AcDbEntity
  8
0
  6
Continuous
 62
     7
370
    15
100
AcDbSpline
210
0.0
220
0.0
230
1.0
 70
     8
 71
     3
 72
    12
 73
     8
 74
     0
 42
0.000000001
 43
0.00000001
 40
0.0
 40
0.0
 40
0.0
 40
0.0
 40
0.0921032255926609
 40
0.3275126286206002
 40
0.5625594023828773
 40
0.7968688725699988
 40
1.0
 40
1.0
 40
1.0
 40
1.0
 10
271.6055901647895
 20
48.02890848699275
 30
0.0
 10
271.5726970795353
 20
48.14036528425694
 30
0.0
 10
271.4557315688735
 20
48.53669786017638
 30
0.0
 10
271.2043020517233
 20
49.17332844380734
 30
0.0
 10
270.8261392316327
 20
49.90743859367567
 30
0.0
 10
270.4058323284951
 20
50.54485570214317
 30
0.0
 10
270.0850113309126
 20
50.90098730439213
 30
0.0
 10
269.9360340039403
 20
51.06636156154237
 30
0.0
  0
SPLINE
  5
180
330
1F
100
AcDbEntity
  8
0
  6
Continuous
 62
     7
370
    15
100
AcDbSpline
210
0.0
220
0.0
230
1.0
 70
     8
 71
     3
 72
    25
 73
    21
 74
     0
 42
0.000000001
 43
0.00000001
 40
0.0
 40
0.0
 40
0.0
 40
0.0
 40
0.0283115223660573
 40
0.083064615069878
 40
0.1387565888076533
 40
0.1956309209659738
 40
0.2535055943434342
 40
0.3119825560758128
 40
0.3706927051773169
 40
0.4293675397545438
 40
0.4879386073715112
 40
0.5464034386756105
 40
0.6047894850512121
 40
0.6631368253355677
 40
0.7214906467164575
 40
0.7798866350395848
 40
0.8383695363819873
 40
0.896987569255112
 40
0.9557837149558389
 40
1.0
 40
1.0
 40
1.0
 40
1.0
 10
233.0133540290266
 20
61.39750488305537
 30
0.0
 10
232.9324551165809
 20
61.42394400672828
 30
0.0
 10
232.6951016837632
 20
61.50151509606355
 30
0.0
 10
232.2642233492554
 20
61.53132946918845
 30
0.0
 10
231.7325067538383
 20
61.49364147269873
 30
0.0
 10
231.1776574329465
 20
61.36041714654217
 30
0.0
 10
230.60944843418
 20
61.1381686739123
 30
0.0
 10
230.0368645857066
 20
60.82812070674967
 30
0.0
 10
229.4705989899997
 20
60.4364064060447
 30
0.0
 10
228.9204823919657
 20
59.97046208848901
 30
0.0
 10
228.3953577558274
 20
59.43886879536582
 30
0.0
 10
227.9030436299575
 20
58.85056655924595
 30
0.0
 10
227.4507793635419
 20
58.21501826012344
 30
0.0
 10
227.0452788942039
 20
57.54216007819333
 30
0.0
 10
226.6926730797798
 20
56.84234266016081
 30
0.0
 10
226.3985984643436
 20
56.1262644937114
 30
0.0
 10
226.1674597140237
 20
55.404463167904
 30
0.0
 10
226.0049427503916
 20
54.68833876815963
 30
0.0
 10
225.9166761118803
 20
54.04435578363645
 30
0.0
 10
225.9069962730787
 20
53.65252834085859
 30
0.0
 10
225.9028413714951
 20
53.48434326093463
 30
0.0
  0
SPLINE
  5
181
330
1F
100
AcDbEntity
  8
0
  6
Continuous
 62
     7
370
    15
100
AcDbSpline
210
0.0
220
0.0
230
1.0
 70
     8
 71
     3
 72
    13
 73
     9
 74
     0
 42
0.000000001
 43
0.00000001
 40
0.0
 40
0.0
 40
0.0
 40
0.0
 40
0.1007406243819042
 40
0.2911801362846413
 40
0.481648855968692
 40
0.6705942106894531
 40
0.8563438445082564
 40
1.0
 40
1.0
 40
1.0
 40
1.0
 10
225.9028413714951
 20
53.48434326093462
 30
0.0
 10
225.9049676138061
 20
53.36772997020829
 30
0.0
 10
225.9111132926689
 20
53.03067156805298
 30
0.0
 10
225.979999107955
 20
52.50319241186115
 30
0.0
 10
226.1347653895237
 20
51.92593131279465
 30
0.0
 10
226.3691674800566
 20
51.41419672525173
 30
0.0
 10
226.6474680991286
 20
50.99743244588824
 30
0.0
 10
226.8769764262458
 20
50.79254927249295
 30
0.0
 10
226.9770666037621
 20
50.70319829576447
 30
0.0
  0
LWPOLYLINE
  5
182
330
1F
100
AcDbEntity
  8
0
  6
Continuous
 62
     7
370
    15
100
AcDbPolyline
 90
       10
 70
   128
 43
0.0
 10
266.0401125175
 20
43.8012544931
 10
266.4824563359
 20
43.7430045954
 10
266.885809625
 20
43.6230793626
 10
267.2248282141
 20
43.4490141381
 10
267.4782103185
 20
43.2317460802
 10
267.6300350087
 20
42.9849269399
 10
267.670762581
 20
42.7240652716
 10
267.5978339723
 20
42.4655519733
 10
267.4158315552
 20
42.2256303863
 10
267.3184373801
 20
42.1411146679
  0
LWPOLYLINE
  5
183
330
1F
100
AcDbEntity
  8
0
  6
Continuous
 62
     7
370
    15
100
AcDbPolyline
 90
       11
 70
   128
 43
0.0
 10
264.4233819751
 20
42.1272881118
 10
264.3604830656
 20
42.1778978
 10
264.1562693824
 20
42.4117856749
 10
264.0592280513
 20
42.6676435953
 10
264.0754565359
 20
42.9293950671
 10
264.203935141
 20
43.1805932827
 10
264.4365910831
 20
43.4054545344
 10
264.758805734
 20
43.5898499627
 10
265.1503331619
 20
43.7221933247
 10
265.5865722587
 20
43.7941690003
 10
266.0401125175
 20
43.8012544931
  0
LWPOLYLINE
  5
184
330
1F
100
AcDbEntity
  8
0
  6
Continuous
 62
     7
370
    15
100
AcDbPolyline
 90
       21
 70
   128
 43
0.0
 10
265.9800589581
 20
43.4508196583
 10
266.3432958694
 20
43.3960041324
 10
266.6594124357
 20
43.2790730142
 10
266.8974649651
 20
43.1114723363
 10
267.0341512174
 20
42.9096080208
 10
267.0560913899
 20
42.6932399534
 10
266.9611378256
 20
42.4835477479
 10
266.7585852409
 20
42.3010575386
 10
266.4682608942
 20
42.1636327385
 10
266.1185837553
 20
42.0847254447
 10
265.7437826588
 20
42.0720596527
 10
265.3805457476
 20
42.1268751786
 10
265.0644291812
 20
42.2438062968
 10
264.8263766518
 20
42.4114069747
 10
264.6896903995
 20
42.6132712902
 10
264.667750227
 20
42.8296393576
 10
264.7627037913
 20
43.0393315631
 10
264.965256376
 20
43.2218217724
 10
265.2555807227
 20
43.3592465725
 10
265.6052578617
 20
43.4381538663
 10
265.9800589581
 20
43.4508196583
  0
SPLINE
  5
185
330
1F
100
AcDbEntity
  8
0
  6
Continuous
 62
     7
370
    15
100
AcDbSpline
210
0.0
220
0.0
230
1.0
 70
     8
 71
     3
 72
    11
 73
     7
 74
     0
 42
0.000000001
 43
0.00000001
 40
0.0
 40
0.0
 40
0.0
 40
0.0
 40
0.1285561766307341
 40
0.480153579784224
 40
0.8150691831753868
 40
1.0
 40
1.0
 40
1.0
 40
1.0
 10
265.3858236776236
 20
43.33174672898252
 30
0.0
 10
265.4321009657341
 20
43.3111071170506
 30
0.0
 10
265.6049452905368
 20
43.23401876692848
 30
0.0
 10
265.9290671113859
 20
43.15071253319769
 30
0.0
 10
266.2800226734042
 20
43.18358253796718
 30
0.0
 10
266.4680321342386
 20
43.24446362193187
 30
0.0
 10
266.5349148553861
 20
43.26612153501721
 30
0.0
  0
SPLINE
  5
186
330
1F
100
AcDbEntity
  8
0
  6
Continuous
 62
     7
370
    15
100
AcDbSpline
210
0.0
220
0.0
230
1.0
 70
     8
 71
     3
 72
    11
 73
     7
 74
     0
 42
0.000000001
 43
0.00000001
 40
0.0
 40
0.0
 40
0.0
 40
0.0
 40
0.21645268592711
 40
0.4403055508634002
 40
0.7518960204221904
 40
1.0
 40
1.0
 40
1.0
 40
1.0
 10
264.7128296306989
 20
42.79007599029502
 30
0.0
 10
264.7589297905271
 20
42.79760622695798
 30
0.0
 10
264.8527062025922
 20
42.81292414730542
 30
0.0
 10
265.0267311797149
 20
42.90284657761933
 30
0.0
 10
265.2134064483633
 20
43.08332644849065
 30
0.0
 10
265.3328681392038
 20
43.25544791729016
 30
0.0
 10
265.3858236776236
 20
43.33174672898252
 30
0.0
  0
SPLINE
  5
187
330
1F
100
AcDbEntity
  8
0
  6
Continuous
 62
     7
370
    15
100
AcDbSpline
210
0.0
220
0.0
230
1.0
 70
     8
 71
     3
 72
    11
 73
     7
 74
     0
 42
0.000000001
 43
0.00000001
 40
0.0
 40
0.0
 40
0.0
 40
0.0
 40
0.043780355822251
 40
0.3169642504168064
 40
0.697220710466362
 40
1.0
 40
1.0
 40
1.0
 40
1.0
 10
265.1061444361504
 20
42.22056559068253
 30
0.0
 10
265.1006849885149
 20
42.22291839062238
 30
0.0
 10
265.061159276698
 20
42.23995236522828
 30
0.0
 10
264.9664184613694
 20
42.32910636649762
 30
0.0
 10
264.8348997374438
 20
42.52420160935269
 30
0.0
 10
264.750321755212
 20
42.70841639597696
 30
0.0
 10
264.7128296306989
 20
42.79007599029502
 30
0.0
  0
SPLINE
  5
188
330
1F
100
AcDbEntity
  8
0
  6
Continuous
 62
     7
370
    15
100
AcDbSpline
210
0.0
220
0.0
230
1.0
 70
     8
 71
     3
 72
    10
 73
     6
 74
     0
 42
0.000000001
 43
0.00000001
 40
0.0
 40
0.0
 40
0.0
 40
0.0
 40
0.3388212530923361
 40
0.6892262752391367
 40
0.9999999999999999
 40
0.9999999999999999
 40
0.9999999999999999
 40
0.9999999999999999
 10
267.011011986224
 20
42.65882560236439
 30
0.0
 10
266.964966943112
 20
42.59268773745781
 30
0.0
 10
266.8713026488338
 20
42.45815085741915
 30
0.0
 10
266.7226141596933
 20
42.28839389855418
 30
0.0
 10
266.6245171641525
 20
42.23371738988867
 30
0.0
 10
266.5784086513871
 20
42.20801780058038
 30
0.0
  0
SPLINE
  5
189
330
1F
100
AcDbEntity
  8
0
  6
Continuous
 62
     7
370
    15
100
AcDbSpline
210
0.0
220
0.0
230
1.0
 70
     8
 71
     3
 72
    11
 73
     7
 74
     0
 42
0.000000001
 43
0.00000001
 40
0.0
 40
0.0
 40
0.0
 40
0.0
 40
0.2164526859271155
 40
0.4403055508633991
 40
0.7518960204221884
 40
1.0
 40
1.0
 40
1.0
 40
1.0
 10
266.5349148553861
 20
43.26612153501721
 30
0.0
 10
266.5675275566808
 20
43.19494743925971
 30
0.0
 10
266.6338679365526
 20
43.05016591665825
 30
0.0
 10
266.7569786723471
 20
42.8429848293282
 30
0.0
 10
266.8890386217746
 20
42.70476401774837
 30
0.0
 10
266.9735495747527
 20
42.67293494359002
 30
0.0
 10
267.011011986224
 20
42.65882560236439
 30
0.0
  0
LINE
  5
18A
330
1F
100
AcDbEntity
  8
0
  6
Continuous
 62
     7
370
    15
100
AcDbLine
 10
266.5349148554
 20
42.1878936329
 30
0.0
 11
266.5349148554
 21
43.266121535
 31
0.0
  0
LINE
  5
18B
330
1F
100
AcDbEntity
  8
0
  6
Continuous
 62
     7
370
    15
100
AcDbLine
 10
265.3858236776
 20
42.1255495701
 30
0.0
 11
265.3858236776
 21
43.331746729
 31
0.0
  0
LWPOLYLINE
  5
18C
330
1F
100
AcDbEntity
  8
0
  6
Continuous
 62
     7
370
    15
100
AcDbPolyline
 90
       59
 70
   128
 43
0.0
 10
269.4151323839
 20
41.1082779203
 10
268.6850187339
 20
40.6410802783
 10
267.9634649989
 20
40.0879360944
 10
267.2589307366
 20
39.4553304785
 10
266.5796759673
 20
38.7506801531
 10
265.933664332
 20
37.982246499
 10
265.3284697264
 20
37.1590386981
 10
264.771187504
 20
36.2907081093
 10
264.2683512894
 20
35.3874351148
 10
263.8258563773
 20
34.4598097646
 10
263.4488906161
 20
33.5187076178
 10
263.1418735846
 20
32.5751622365
 10
262.9084047769
 20
31.6402358278
 10
262.7512214012
 20
30.7248895489
 10
262.6721662888
 20
29.8398549981
 10
262.6721662888
 20
28.9955083962
 10
262.7512214012
 20
28.2017489352
 10
262.9084047769
 20
27.467882719
 10
263.1418735846
 20
26.802513658
 10
263.4488906161
 20
26.2134425961
 10
263.8258563773
 20
25.7075758529
 10
264.2683512894
 20
25.2908442535
 10
264.771187504
 20
24.9681335948
 10
265.3284697264
 20
24.7432273643
 10
265.933664332
 20
24.6187623819
 10
266.5796759673
 20
24.5961978856
 10
267.2589307366
 20
24.6757984236
 10
267.9634649989
 20
24.8566307524
 10
268.6850187339
 20
25.1365747782
 10
269.4151323839
 20
25.5123484133
 10
270.145246034
 20
25.9795460554
 10
270.866799769
 20
26.5326902393
 10
271.5713340312
 20
27.1652958552
 10
272.2505888005
 20
27.8699461806
 10
272.8966004359
 20
28.6383798347
 10
273.5017950414
 20
29.4615876356
 10
274.0590772638
 20
30.3299182244
 10
274.5619134785
 20
31.2331912189
 10
275.0044083905
 20
32.1608165691
 10
275.3813741518
 20
33.1019187159
 10
275.6883911832
 20
34.0454640971
 10
275.921859991
 20
34.9803905059
 10
276.0790433667
 20
35.8957367847
 10
276.158098479
 20
36.7807713356
 10
276.158098479
 20
37.6251179375
 10
276.0790433667
 20
38.4188773985
 10
275.921859991
 20
39.1527436147
 10
275.6883911832
 20
39.8181126757
 10
275.3813741518
 20
40.4071837376
 10
275.0044083905
 20
40.9130504807
 10
274.5619134785
 20
41.3297820801
 10
274.0590772638
 20
41.6524927388
 10
273.5017950414
 20
41.8773989693
 10
272.8966004359
 20
42.0018639518
 10
272.2505888005
 20
42.024428448
 10
271.5713340312
 20
41.94482791
 10
270.866799769
 20
41.7639955812
 10
270.145246034
 20
41.4840515554
 10
269.4151323839
 20
41.1082779203
  0
LWPOLYLINE
  5
18D
330
1F
100
AcDbEntity
  8
0
  6
Continuous
 62
     7
370
    15
100
AcDbPolyline
 90
       31
 70
   128
 43
0.0
 10
269.2737110277
 20
41.3532268939
 10
268.5408927938
 20
40.8850777307
 10
267.8163776834
 20
40.3320284812
 10
267.1083747421
 20
39.7003454145
 10
266.4249059261
 20
38.9971857521
 10
265.7737152102
 20
38.230516574
 10
265.1621808455
 20
37.4090245483
 10
264.5972317606
 20
36.5420175079
 10
264.0852690545
 20
35.639318989
 10
263.6320934691
 20
34.7111569265
 10
263.2428396649
 20
33.7680477675
 10
262.9219180431
 20
32.8206773155
 10
262.6729647738
 20
31.8797796564
 10
262.4988005971
 20
30.9560155367
 10
262.4013988627
 20
30.0598515728
 10
262.3818631712
 20
29.2014416606
 10
262.4404148697
 20
28.3905119274
 10
262.5763905442
 20
27.6362505311
 10
262.7882495358
 20
26.9472035547
 10
263.0735913976
 20
26.3311781758
 10
263.4291830923
 20
25.7951542081
 10
263.8509956238
 20
25.3452050173
 10
264.3342496876
 20
24.9864287076
 10
264.8734698222
 20
24.7228903579
 10
265.4625464478
 20
24.5575759629
 10
266.094805091
 20
24.4923586009
 10
266.7630820087
 20
24.5279772106
 10
267.4598053564
 20
24.664028219
 10
268.1770809801
 20
24.8989701137
 10
268.9067818605
 20
25.2301409092
 10
269.2748315439
 20
25.4313280275
  0
LWPOLYLINE
  5
18E
330
1F
100
AcDbEntity
  8
0
  6
Continuous
 62
     7
370
    15
100
AcDbPolyline
 90
       16
 70
   128
 43
0.0
 10
276.1680021443
 20
37.3719435231
 10
276.1460231926
 20
37.9944543057
 10
276.0486214583
 20
38.7781606208
 10
275.8744572816
 20
39.5008390624
 10
275.6255040123
 20
40.154301395
 10
275.3045823905
 20
40.7311436293
 10
274.9153285863
 20
41.2248299122
 10
274.4621530009
 20
41.629766581
 10
273.9501902947
 20
41.9413655413
 10
273.3852412099
 20
42.1560962524
 10
272.7737068451
 20
42.2715257296
 10
272.1225161293
 20
42.2863461107
 10
271.4390473133
 20
42.2003894749
 10
270.731044372
 20
42.0146297453
 10
270.0065292615
 20
41.7311716538
 10
269.2737110277
 20
41.3532268939
  0
SPLINE
  5
18F
330
1F
100
AcDbEntity
  8
0
  6
Continuous
 62
     7
370
    15
100
AcDbSpline
210
0.0
220
0.0
230
1.0
 70
    11
 71
     3
 72
    77
 73
    73
 74
     0
 42
0.000000001
 43
0.00000001
 40
0.0
 40
0.0
 40
0.0
 40
0.0
 40
0.0312499999999999
 40
0.0312499999999999
 40
0.0624999999999998
 40
0.0624999999999998
 40
0.0937499999999997
 40
0.0937499999999997
 40
0.1249999999999996
 40
0.1249999999999996
 40
0.1562499999999994
 40
0.1562499999999994
 40
0.1874999999999993
 40
0.1874999999999993
 40
0.2187499999999992
 40
0.2187499999999992
 40
0.2499999999999991
 40
0.2499999999999991
 40
0.281249999999999
 40
0.281249999999999
 40
0.3124999999999989
 40
0.3124999999999989
 40
0.3437499999999988
 40
0.3437499999999988
 40
0.3593749999999987
 40
0.3593749999999987
 40
0.3749999999999987
 40
0.3906249999999986
 40
0.3906249999999986
 40
0.4062499999999986
 40
0.4062499999999986
 40
0.4374999999999986
 40
0.4374999999999986
 40
0.4687499999999987
 40
0.4687499999999987
 40
0.4999999999999988
 40
0.4999999999999988
 40
0.5312499999999989
 40
0.5312499999999989
 40
0.562499999999999
 40
0.562499999999999
 40
0.5937499999999991
 40
0.5937499999999991
 40
0.6249999999999992
 40
0.6249999999999992
 40
0.6562499999999993
 40
0.6562499999999993
 40
0.6874999999999994
 40
0.6874999999999994
 40
0.7187499999999996
 40
0.7187499999999996
 40
0.7499999999999997
 40
0.7499999999999997
 40
0.7656249999999997
 40
0.7656249999999997
 40
0.7812499999999998
 40
0.7812499999999998
 40
0.8124999999999998
 40
0.8124999999999998
 40
0.8437499999999998
 40
0.8437499999999998
 40
0.8749999999999998
 40
0.8749999999999998
 40
0.8906249999999998
 40
0.8906249999999998
 40
0.9062499999999999
 40
0.9062499999999999
 40
0.9374999999999999
 40
0.9374999999999999
 40
0.9687499999999999
 40
0.9687499999999999
 40
1.0
 40
1.0
 40
1.0
 40
1.0
 10
265.8505926616712
 20
44.56779832856242
 30
0.0
 10
266.0057383836155
 20
44.54458299112244
 30
0.0
 10
266.1568974600221
 20
44.51363308172494
 30
0.0
 10
266.4521192749904
 20
44.4390308334786
 30
0.0
 10
266.5971098745167
 20
44.39501966084178
 30
0.0
 10
266.8756809774242
 20
44.29668474725852
 30
0.0
 10
267.0074294187127
 20
44.24311735649275
 30
0.0
 10
267.2565230812987
 20
44.12826962647149
 30
0.0
 10
267.3748593878678
 20
44.06635832161943
 30
0.0
 10
267.5907072578422
 20
43.93800466718296
 30
0.0
 10
267.6881374298773
 20
43.87180542613661
 30
0.0
 10
267.8622089388452
 20
43.73505795082981
 30
0.0
 10
267.9394366359653
 20
43.66376597454874
 30
0.0
 10
268.0673404312853
 20
43.52009817516289
 30
0.0
 10
268.118406604903
 20
43.44769335320918
 30
0.0
 10
268.194163415697
 20
43.30038315042305
 30
0.0
 10
268.2188417528204
 20
43.22463193411738
 30
0.0
 10
268.2377341127786
 20
43.07449068153482
 30
0.0
 10
268.2324613076166
 20
42.99980981897566
 30
0.0
 10
268.1905610112294
 20
42.84958577437052
 30
0.0
 10
268.1530791676258
 20
42.77327915124004
 30
0.0
 10
268.0473277494593
 20
42.62605425413391
 30
0.0
 10
267.9791521762386
 20
42.55431063729939
 30
0.0
 10
267.8520593763791
 20
42.44897326021741
 30
0.0
 10
267.8053302190249
 20
42.41417220052388
 30
0.0
 10
267.7060494721449
 20
42.3473520455254
 30
0.0
 10
267.6003750196335
 20
42.28278854451432
 30
0.0
 10
267.4820829484664
 20
42.22265078695327
 30
0.0
 10
267.3573646456649
 20
42.16479877617713
 30
0.0
 10
267.2916186566829
 20
42.13698594859677
 30
0.0
 10
267.0900173185688
 20
42.05927196998503
 30
0.0
 10
266.9482314050019
 20
42.01420890224457
 30
0.0
 10
266.6504381020769
 20
41.93801065805976
 30
0.0
 10
266.4975396785112
 20
41.90778439655778
 30
0.0
 10
266.1897545434079
 20
41.86406831394689
 30
0.0
 10
266.03254150637
 20
41.8503989802955
 30
0.0
 10
265.7246533646671
 20
41.84108485225828
 30
0.0
 10
265.5732055416721
 20
41.84517527067199
 30
0.0
 10
265.2749220409213
 20
41.8716049378141
 30
0.0
 10
265.1292911686213
 20
41.8940251412389
 30
0.0
 10
264.8525946813553
 20
41.95621469971511
 30
0.0
 10
264.720274236979
 20
41.99607739194078
 30
0.0
 10
264.4678408701719
 20
42.09440792277984
 30
0.0
 10
264.3508810932105
 20
42.15169499891053
 30
0.0
 10
264.1359578118413
 20
42.28141184432455
 30
0.0
 10
264.0375391180727
 20
42.35413489637806
 30
0.0
 10
263.8611614533892
 20
42.51454884688889
 30
0.0
 10
263.7852982889685
 20
42.60024202708245
 30
0.0
 10
263.6577257146183
 20
42.78159301863929
 30
0.0
 10
263.6057974980534
 20
42.87779459505367
 30
0.0
 10
263.529210868285
 20
43.07749848141405
 30
0.0
 10
263.5051906351692
 20
43.17890045296752
 30
0.0
 10
263.4909032098127
 20
43.33232379503579
 30
0.0
 10
263.4897901324792
 20
43.38368655108833
 30
0.0
 10
263.4952689913054
 20
43.48669662179897
 30
0.0
 10
263.5019474857869
 20
43.53867578134044
 30
0.0
 10
263.5338287101134
 20
43.69166002296667
 30
0.0
 10
263.5705113285899
 20
43.78992736727591
 30
0.0
 10
263.6760505595694
 20
43.97740714732028
 30
0.0
 10
263.7463467796858
 20
44.06775694858935
 30
0.0
 10
263.9155175912599
 20
44.22880531556605
 30
0.0
 10
264.0141487044806
 20
44.30019090545883
 30
0.0
 10
264.1839511128475
 20
44.39283479992799
 30
0.0
 10
264.2442948183225
 20
44.42125042990848
 30
0.0
 10
264.368938609961
 20
44.47167007270241
 30
0.0
 10
264.4336367059743
 20
44.49391156319843
 30
0.0
 10
264.6346647994999
 20
44.55209419410839
 30
0.0
 10
264.7796550851203
 20
44.57960811504208
 30
0.0
 10
265.0759955440292
 20
44.61142442270427
 30
0.0
 10
265.227948520708
 20
44.61621397667693
 30
0.0
 10
265.5392369013607
 20
44.60598702397288
 30
0.0
 10
265.6954469397268
 20
44.5910136660024
 30
0.0
 10
265.8505926616712
 20
44.56779832856242
 30
0.0
  0
SPLINE
  5
190
330
1F
100
AcDbEntity
  8
0
  6
Continuous
 62
     7
370
    15
100
AcDbSpline
210
0.0
220
0.0
230
1.0
 70
     8
 71
     3
 72
    12
 73
     8
 74
     0
 42
0.000000001
 43
0.00000001
 40
0.0
 40
0.0
 40
0.0
 40
0.0
 40
0.2499999999999997
 40
0.2499999999999997
 40
0.4999999999999993
 40
0.4999999999999993
 40
1.0
 40
1.0
 40
1.0
 40
1.0
 10
249.9703703579014
 20
35.78039371930688
 30
0.0
 10
250.0041495241737
 20
35.76089342169336
 30
0.0
 10
250.0424742206492
 20
35.73405367311619
 30
0.0
 10
250.1166973447618
 20
35.67565316979355
 30
0.0
 10
250.1520807092565
 20
35.64466351131265
 30
0.0
 10
250.2478906676415
 20
35.55392415829189
 30
0.0
 10
250.2968944257957
 20
35.49803002957436
 30
0.0
 10
250.3307034834105
 20
35.4507701658077
 30
0.0
  0
SPLINE
  5
191
330
1F
100
AcDbEntity
  8
0
  6
Continuous
 62
     7
370
    15
100
AcDbSpline
210
0.0
220
0.0
230
1.0
 70
     8
 71
     3
 72
    12
 73
     8
 74
     0
 42
0.000000001
 43
0.00000001
 40
0.0
 40
0.0
 40
0.0
 40
0.0
 40
0.5
 40
0.5
 40
0.75
 40
0.75
 40
1.0
 40
1.0
 40
1.0
 40
1.0
 10
267.4352333966015
 20
52.22057169012925
 30
0.0
 10
267.4352333966015
 20
52.29225681630251
 30
0.0
 10
267.4174547284748
 20
52.37500425317891
 30
0.0
 10
267.3626107719103
 20
52.49330880541139
 30
0.0
 10
267.3394681302742
 20
52.531834262636
 30
0.0
 10
267.2850310821016
 20
52.59896648947035
 30
0.0
 10
267.2541933461908
 20
52.6267211190683
 30
0.0
 10
267.2231013622455
 20
52.64467013934427
 30
0.0
  0
LINE
  5
192
330
1F
100
AcDbEntity
  8
0
  6
Continuous
 62
     7
370
    15
100
AcDbLine
 10
273.1147730266
 20
33.2195447316
 30
0.0
 11
274.4921590728
 21
34.9329998786
 31
0.0
  0
SPLINE
  5
193
330
1F
100
AcDbEntity
  8
0
  6
Continuous
 62
     7
370
    15
100
AcDbSpline
210
0.0
220
0.0
230
1.0
 70
     8
 71
     3
 72
    22
 73
    18
 74
     0
 42
0.000000001
 43
0.00000001
 40
0.0
 40
0.0
 40
0.0
 40
0.0
 40
0.0500000000000154
 40
0.1000000000000001
 40
0.15
 40
0.2000000000000001
 40
0.25
 40
0.2968749999999255
 40
0.34375
 40
0.3906249999999999
 40
0.4374999999999989
 40
0.515352885058417
 40
0.515352885058417
 40
0.53125
 40
0.6249999999995614
 40
0.8125
 40
0.8824198414284187
 40
0.8824198414284187
 40
0.8824198414284187
 40
0.8824198414284187
 10
274.4921590728432
 20
34.93299987858234
 30
0.0
 10
274.5578972617776
 20
35.01477756065548
 30
0.0
 10
274.6866519750547
 20
35.19278045170803
 30
0.0
 10
274.8629570646388
 20
35.49814542055587
 30
0.0
 10
275.0116651226641
 20
35.83671644023701
 30
0.0
 10
275.1183527163577
 20
36.19250310567147
 30
0.0
 10
275.1689002093326
 20
36.53611330240518
 30
0.0
 10
275.1599713339043
 20
36.84622260093332
 30
0.0
 10
275.0949426492883
 20
37.1065414050647
 30
0.0
 10
274.9787443907919
 20
37.31068636664249
 30
0.0
 10
274.7868968866102
 20
37.48351171547751
 30
0.0
 10
274.6116677754185
 20
37.53774730906458
 30
0.0
 10
274.4747206949736
 20
37.5508331335898
 30
0.0
 10
274.3267800546365
 20
37.56469174917565
 30
0.0
 10
273.9901021422216
 20
37.59392535657746
 30
0.0
 10
273.7621584827161
 20
37.61471844546612
 30
0.0
 10
273.2619420148899
 20
37.65947089301498
 30
0.0
 10
273.1147522268603
 20
37.6726298449183
 30
0.0
  0
SPLINE
  5
194
330
1F
100
AcDbEntity
  8
0
  6
Continuous
 62
     7
370
    15
100
AcDbSpline
210
0.0
220
0.0
230
1.0
 70
     8
 71
     3
 72
    22
 73
    18
 74
     0
 42
0.000000001
 43
0.00000001
 40
0.0
 40
0.0
 40
0.0
 40
0.0
 40
0.0500000000000154
 40
0.1000000000000001
 40
0.15
 40
0.2000000000000001
 40
0.25
 40
0.2968749999999255
 40
0.34375
 40
0.3906249999999999
 40
0.4374999999999989
 40
0.515352885058417
 40
0.515352885058417
 40
0.53125
 40
0.6249999999995614
 40
0.8125
 40
0.8812161579344685
 40
0.8812161579344685
 40
0.8812161579344685
 40
0.8812161579344685
 10
264.3381056950046
 20
29.07118963569544
 30
0.0
 10
264.2733368535148
 20
29.07698094612675
 30
0.0
 10
264.1431629173027
 20
29.10645371025005
 30
0.0
 10
263.9674282462581
 20
29.20821014766929
 30
0.0
 10
263.8185673484772
 20
29.37510017838222
 30
0.0
 10
263.7119206952667
 20
29.60770425709684
 30
0.0
 10
263.6613625076603
 20
29.89295470798267
 30
0.0
 10
263.6702936074033
 20
30.21337219763473
 30
0.0
 10
263.7353234272195
 20
30.54877388775241
 30
0.0
 10
263.8515149689551
 20
30.88706989359104
 30
0.0
 10
264.0433938733757
 20
31.28143679355515
 30
0.0
 10
264.2185019116827
 20
31.53783698615115
 30
0.0
 10
264.3555072695092
 20
31.70911103255215
 30
0.0
 10
264.5035517202688
 20
31.89390740574835
 30
0.0
 10
264.8413749550341
 20
32.31328583941693
 30
0.0
 10
265.0603561606671
 20
32.58610645186778
 30
0.0
 10
265.5688915335267
 20
33.21874634371618
 30
0.0
 10
265.7155126032898
 20
33.40113986948892
 30
0.0
  0
LINE
  5
195
330
1F
100
AcDbEntity
  8
0
  6
Continuous
 62
     7
370
    15
100
AcDbLine
 10
265.7154917413
 20
28.9480305673
 30
0.0
 11
264.338105695
 21
29.0711896357
 31
0.0
  0
LINE
  5
196
330
1F
100
AcDbEntity
  8
0
  6
Continuous
 62
     7
370
    15
100
AcDbLine
 10
248.616910223
 20
36.561729624
 30
0.0
 11
249.9703703579
 21
35.7803937193
 31
0.0
  0
LWPOLYLINE
  5
197
330
1F
100
AcDbEntity
  8
0
  6
Continuous
 62
     7
370
    15
100
AcDbPolyline
 90
       23
 70
   128
 43
0.0
 10
248.616910223
 20
36.561729624
 10
248.9313925505
 20
37.8016502162
 10
249.3237452191
 20
39.0512627667
 10
249.7910446839
 20
40.3012560132
 10
250.3298089471
 20
41.5423158569
 10
250.9360235042
 20
42.7651947643
 10
251.605171257
 20
43.9607806741
 10
252.3322661716
 20
45.1201648938
 10
253.1118904318
 20
46.2347084814
 10
253.9382348081
 20
47.2961066164
 10
254.8051419445
 20
48.2964504823
 10
255.7061522392
 20
49.2282861976
 10
256.6345519766
 20
50.0846703565
 10
257.5834233537
 20
50.8592217673
 10
258.5456960268
 20
51.5461689999
 10
259.5141997949
 20
52.1403933912
 10
260.481718027
 20
52.6374671852
 10
261.4410414357
 20
53.0336865265
 10
262.3850217959
 20
53.3260990581
 10
263.3066252084
 20
53.5125259209
 10
264.1989845118
 20
53.5915779888
 10
265.0554504518
 20
53.5626662196
 10
265.8696412273
 20
53.426006044
  0
LINE
  5
198
330
1F
100
AcDbEntity
  8
0
  6
Continuous
 62
     7
370
    15
100
AcDbLine
 10
267.2231013622
 20
52.6446701393
 30
0.0
 11
265.8696412273
 21
53.426006044
 31
0.0
  0
LINE
  5
199
330
1F
100
AcDbEntity
  8
0
  6
Continuous
 62
     7
370
    15
100
AcDbLine
 10
271.4524972875
 20
47.5495227976
 30
0.0
 11
271.557860786
 21
47.7320177298
 31
0.0
  0
LINE
  5
19A
330
1F
100
AcDbEntity
  8
0
  6
Continuous
 62
     7
370
    15
100
AcDbLine
 10
270.2813381909
 20
46.8734270422
 30
0.0
 11
271.4524972875
 21
47.5495227976
 31
0.0
  0
ARC
  5
19B
330
1F
100
AcDbEntity
  8
0
  6
Continuous
 62
     7
370
    15
100
AcDbCircle
 10
270.943825647
 20
45.8377424662
 30
0.0
 40
1.229443846057877
100
AcDbArc
 50
122.60547834
 51
177.3945215143
  0
LINE
  5
19C
330
1F
100
AcDbEntity
  8
0
  6
Continuous
 62
     7
370
    15
100
AcDbLine
 10
269.7156527659
 20
44.3948517388
 30
0.0
 11
269.7156527659
 21
45.893631148
 31
0.0
  0
LINE
  5
19D
330
1F
100
AcDbEntity
  8
0
  6
Continuous
 62
     7
370
    15
100
AcDbLine
 10
250.3785986597
 20
28.8106665384
 30
0.0
 11
250.3307034834
 21
28.6884178531
 31
0.0
  0
LINE
  5
19E
330
1F
100
AcDbEntity
  8
0
  6
Continuous
 62
     7
370
    15
100
AcDbLine
 10
250.3785986597
 20
28.8106665384
 30
0.0
 11
252.3915366269
 21
29.972710892
 31
0.0
  0
ARC
  5
19F
330
1F
100
AcDbEntity
  8
0
  6
Continuous
 62
     7
370
    15
100
AcDbCircle
 10
251.7290491707
 20
31.008395468
 30
0.0
 40
1.229443846057357
100
AcDbArc
 50
302.60547834
 51
357.3945215144
  0
LINE
  5
1A0
330
1F
100
AcDbEntity
  8
0
  6
Continuous
 62
     7
370
    15
100
AcDbLine
 10
252.9572220518
 20
30.9560696943
 30
0.0
 11
252.9572220518
 21
30.9525067862
 31
0.0
  0
LINE
  5
1A1
330
1F
100
AcDbEntity
  8
0
  6
Continuous
 62
     7
370
    15
100
AcDbLine
 10
252.9572220518
 20
36.2191950229
 30
0.0
 11
252.9572220518
 21
36.2156321149
 31
0.0
  0
ARC
  5
1A2
330
1F
100
AcDbEntity
  8
0
  6
Continuous
 62
     7
370
    15
100
AcDbCircle
 10
252.6123625579
 20
36.2751367804
 30
0.0
 40
0.3493673579427544
100
AcDbArc
 50
350.7859630095
 51
129.2032852357
  0
LINE
  5
1A3
330
1F
100
AcDbEntity
  8
0
  6
Continuous
 62
     7
370
    15
100
AcDbLine
 10
252.3915366269
 20
36.5458644277
 30
0.0
 11
250.3785986597
 21
35.3838200741
 31
0.0
  0
LINE
  5
1A4
330
1F
100
AcDbEntity
  8
0
  6
Continuous
 62
     7
370
    15
100
AcDbLine
 10
250.3307034834
 20
35.4507701658
 30
0.0
 11
250.3785986597
 21
35.3838200741
 31
0.0
  0
LINE
  5
1A5
330
1F
100
AcDbEntity
  8
0
  6
Continuous
 62
     7
370
    15
100
AcDbLine
 10
267.4352333966
 20
49.4355908984
 30
0.0
 11
267.4352333966
 21
52.2205716901
 31
0.0
  0
LINE
  5
1A6
330
1F
100
AcDbEntity
  8
0
  6
Continuous
 62
     7
370
    15
100
AcDbLine
 10
269.8469668637
 20
50.8278549938
 30
0.0
 11
267.4352333966
 21
49.4355908984
 31
0.0
  0
SPLINE
  5
1A7
330
1F
100
AcDbEntity
  8
0
  6
Continuous
 62
     7
370
    15
100
AcDbSpline
210
0.0
220
0.0
230
1.0
 70
     8
 71
     3
 72
     8
 73
     4
 74
     0
 42
0.000000001
 43
0.00000001
 40
0.0
 40
0.0
 40
0.0
 40
0.0
 40
1.0
 40
1.0
 40
1.0
 40
1.0
 10
247.6267589376639
 20
37.82010880817656
 30
0.0
 10
247.2460610716634
 20
37.75714197050596
 30
0.0
 10
246.8652230994235
 20
37.69444184837091
 30
0.0
 10
246.4842824486839
 20
37.63196096969789
 30
0.0
  0
SPLINE
  5
1A8
330
1F
100
AcDbEntity
  8
0
  6
Continuous
 62
     7
370
    15
100
AcDbSpline
210
0.0
220
0.0
230
1.0
 70
     8
 71
     3
 72
     8
 73
     4
 74
     0
 42
0.000000001
 43
0.00000001
 40
0.0
 40
0.0
 40
0.0
 40
0.0
 40
0.0011901715795577
 40
0.0011901715795577
 40
0.0011901715795577
 40
0.0011901715795577
 10
246.126595651126
 20
37.99935762555349
 30
0.0
 10
246.2462421586208
 20
37.87674271579802
 30
0.0
 10
246.3654853327689
 20
37.75427067530231
 30
0.0
 10
246.4842824486839
 20
37.63196096969789
 30
0.0
  0
LWPOLYLINE
  5
1A9
330
1F
100
AcDbEntity
  8
0
  6
Continuous
 62
     7
370
    15
100
AcDbPolyline
 90
       23
 70
   128
 43
0.0
 10
246.1265956511
 20
37.9993576256
 10
246.4410779786
 20
39.2392782177
 10
246.8334306473
 20
40.4888907682
 10
247.300730112
 20
41.7388840148
 10
247.8394943753
 20
42.9799438584
 10
248.4457089324
 20
44.2028227658
 10
249.1148566851
 20
45.3984086756
 10
249.8419515998
 20
46.5577928954
 10
250.62157586
 20
47.6723364829
 10
251.4479202362
 20
48.7337346179
 10
252.3148273727
 20
49.7340784839
 10
253.2158376674
 20
50.6659141991
 10
254.1442374048
 20
51.5222983581
 10
255.0931087819
 20
52.2968497689
 10
256.055381455
 20
52.9837970015
 10
257.0238852231
 20
53.5780213927
 10
257.9914034552
 20
54.0750951867
 10
258.9507268639
 20
54.471314528
 10
259.8947072241
 20
54.7637270597
 10
260.8163106366
 20
54.9501539225
 10
261.70866994
 20
55.0292059904
 10
262.56513588
 20
55.0002942211
 10
263.3793266555
 20
54.8636340456
  0
LINE
  5
1AA
330
1F
100
AcDbEntity
  8
0
  6
Continuous
 62
     7
370
    15
100
AcDbLine
 10
263.8083236954
 20
53.5449610594
 30
0.0
 11
263.3793266555
 21
54.8636340456
 31
0.0
  0
LWPOLYLINE
  5
1AB
330
1F
100
AcDbEntity
  8
0
  6
Continuous
 62
     7
370
    15
100
AcDbPolyline
 90
       22
 70
   128
 43
0.0
 10
247.6267589377
 20
37.8201088082
 10
247.9215873236
 20
38.9954306208
 10
248.2932777832
 20
40.1805461781
 10
248.738835643
 20
41.3659071209
 10
249.2546710873
 20
42.5419631128
 10
249.8366280808
 20
43.6992387867
 10
250.4800178534
 20
44.8284100866
 10
251.179656677
 20
45.9203793905
 10
251.9299076306
 20
46.9663488094
 10
252.7247260163
 20
47.9578910708
 10
253.5577080606
 20
48.8870174165
 10
254.4221425093
 20
49.746241967
 10
255.3110646992
 20
50.5286420349
 10
256.217312672
 20
51.2279138999
 10
257.133584877
 20
51.8384235974
 10
258.0524989993
 20
52.3552523112
 10
258.9666514386
 20
52.7742360031
 10
259.8686769585
 20
53.0919989629
 10
260.7513080285
 20
53.3059810057
 10
261.6074333771
 20
53.4144580992
 10
262.4301552866
 20
53.4165562543
 10
262.6755370402
 20
53.3957755312
  0
LINE
  5
1AC
330
1F
100
AcDbEntity
  8
0
  6
Continuous
 62
     7
370
    15
100
AcDbLine
 10
244.7908131857
 20
38.7704884289
 30
0.0
 11
246.1265956511
 21
37.9993576256
 31
0.0
  0
LINE
  5
1AD
330
1F
100
AcDbEntity
  8
0
  6
Continuous
 62
     7
370
    15
100
AcDbLine
 10
263.3793266555
 20
54.8636340456
 30
0.0
 11
262.0435441901
 21
55.6347648489
 31
0.0
  0
SPLINE
  5
1AE
330
1F
100
AcDbEntity
  8
0
  6
Continuous
 62
     7
370
    15
100
AcDbSpline
210
0.0
220
0.0
230
1.0
 70
     8
 71
     3
 72
    16
 73
    12
 74
     0
 42
0.000000001
 43
0.00000001
 40
0.0
 40
0.0
 40
0.0
 40
0.0
 40
0.25
 40
0.25
 40
0.5
 40
0.5
 40
0.625
 40
0.625
 40
0.75
 40
0.75
 40
1.0
 40
1.0
 40
1.0
 40
1.0
 10
252.9572220518069
 20
36.21563211487297
 30
0.0
 10
252.957222051807
 20
35.77795047384504
 30
0.0
 10
252.9681546340406
 20
35.33385652984749
 30
0.0
 10
252.9863814385151
 20
34.44780265430152
 30
0.0
 10
252.9934522783553
 20
34.0059737435494
 30
0.0
 10
252.9935000320752
 20
33.34942327295045
 30
0.0
 10
252.9918966407927
 20
33.13029372678586
 30
0.0
 10
252.9860941850333
 20
32.69478300807839
 30
0.0
 10
252.9819016136391
 20
32.47778698667776
 30
0.0
 10
252.968208274909
 20
31.8274549338709
 30
0.0
 10
252.9572220518069
 20
31.39499238262555
 30
0.0
 10
252.9572220518069
 20
30.95606969426806
 30
0.0
  0
LINE
  5
1AF
330
1F
100
AcDbEntity
  8
0
  6
Continuous
 62
     7
370
    15
100
AcDbLine
 10
248.8533010427
 20
37.5198241581
 30
0.0
 11
248.2627903869
 21
37.8607187036
 31
0.0
  0
SPLINE
  5
1B0
330
1F
100
AcDbEntity
  8
0
  6
Continuous
 62
     7
370
    15
100
AcDbSpline
210
0.0
220
0.0
230
1.0
 70
     8
 71
     3
 72
    12
 73
     8
 74
     0
 42
0.000000001
 43
0.00000001
 40
0.0
 40
0.0
 40
0.0
 40
0.0
 40
0.2499999999999986
 40
0.2499999999999986
 40
0.4999999999999971
 40
0.4999999999999971
 40
1.0
 40
1.0
 40
1.0
 40
1.0
 10
248.2627903869013
 20
37.86071870359219
 30
0.0
 10
248.2247527793486
 20
37.88267734702943
 30
0.0
 10
248.1792695028905
 20
37.89969198094096
 30
0.0
 10
248.0790283093092
 20
37.92208711305497
 30
0.0
 10
248.0257063103047
 20
37.92718006240954
 30
0.0
 10
247.8646428034255
 20
37.92423054206977
 30
0.0
 10
247.7604988719496
 20
37.89731522885488
 30
0.0
 10
247.6850057880964
 20
37.85373399919894
 30
0.0
  0
SPLINE
  5
1B1
330
1F
100
AcDbEntity
  8
0
  6
Continuous
 62
     7
370
    15
100
AcDbSpline
210
0.0
220
0.0
230
1.0
 70
     8
 71
     3
 72
    10
 73
     6
 74
     0
 42
0.000000001
 43
0.00000001
 40
0.0
 40
0.0
 40
0.0
 40
0.0
 40
0.5
 40
0.5
 40
1.0
 40
1.0
 40
1.0
 40
1.0
 10
244.6891690751125
 20
38.80121048015133
 30
0.0
 10
244.6964317567611
 20
38.80520708563915
 30
0.0
 10
244.7082254207268
 20
38.80538886402432
 30
0.0
 10
244.7422844314941
 20
38.79566723451457
 30
0.0
 10
244.7644569190464
 20
38.78570357773888
 30
0.0
 10
244.7908131857099
 20
38.77048842885756
 30
0.0
  0
LINE
  5
1B2
330
1F
100
AcDbEntity
  8
0
  6
Continuous
 62
     7
370
    15
100
AcDbLine
 10
247.6850057881
 20
37.8537339992
 30
0.0
 11
247.6267589377
 21
37.8201088082
 31
0.0
  0
SPLINE
  5
1B3
330
1F
100
AcDbEntity
  8
0
  6
Continuous
 62
     7
370
    15
100
AcDbSpline
210
0.0
220
0.0
230
1.0
 70
     8
 71
     3
 72
    13
 73
     9
 74
     0
 42
0.000000001
 43
0.00000001
 40
0.0
 40
0.0
 40
0.0
 40
0.0
 40
0.1816492558361012
 40
0.3706247117719462
 40
0.5261459199700814
 40
0.6861748963899613
 40
0.8417493105875415
 40
1.0
 40
1.0
 40
1.0
 40
1.0
 10
264.2497173473561
 20
29.40105242824184
 30
0.0
 10
264.1883753942917
 20
29.41202459603765
 30
0.0
 10
264.0632174707461
 20
29.43441145640831
 30
0.0
 10
263.9169267859921
 20
29.53446111226521
 30
0.0
 10
263.8034401246401
 20
29.67086634342254
 30
0.0
 10
263.7257783610517
 20
29.83368415374942
 30
0.0
 10
263.6756659201805
 20
30.02520672436203
 30
0.0
 10
263.670428310035
 20
30.17058348127803
 30
0.0
 10
263.6677871720034
 20
30.24389174037476
 30
0.0
  0
SPLINE
  5
1B4
330
1F
100
AcDbEntity
  8
0
  6
Continuous
 62
     7
370
    15
100
AcDbSpline
210
0.0
220
0.0
230
1.0
 70
     8
 71
     3
 72
    18
 73
    14
 74
     0
 42
0.000000001
 43
0.00000001
 40
0.0
 40
0.0
 40
0.0
 40
0.0
 40
0.0002455806650565
 40
0.0668660565990787
 40
0.1349078490058633
 40
0.2476615405237941
 40
0.3634323093143476
 40
0.4695117591323194
 40
0.5764244270764581
 40
0.6851836951127952
 40
0.7943460769237931
 40
0.8970783280281278
 40
1.0
 40
1.0
 40
1.0
 40
1.0
 10
265.8891855485517
 20
33.64418350228967
 30
0.0
 10
265.8891831934312
 20
33.64417431439713
 30
0.0
 10
265.8885419474508
 20
33.64167265921916
 30
0.0
 10
265.8847079287382
 20
33.63397583345061
 30
0.0
 10
265.8767152003861
 20
33.61905729680977
 30
0.0
 10
265.8632452862421
 20
33.5975343010783
 30
0.0
 10
265.8451497862399
 20
33.57092134667168
 30
0.0
 10
265.8253515960525
 20
33.54326237873027
 30
0.0
 10
265.8046738935395
 20
33.515331632375
 30
0.0
 10
265.7828106984149
 20
33.48654769107335
 30
0.0
 10
265.7604801997884
 20
33.45775232927082
 30
0.0
 10
265.7380312284902
 20
33.42925026641107
 30
0.0
 10
265.7230234194166
 20
33.41051575370275
 30
0.0
 10
265.7155126032873
 20
33.40113986948583
 30
0.0
  0
SPLINE
  5
1B5
330
1F
100
AcDbEntity
  8
0
  6
Continuous
 62
     7
370
    15
100
AcDbSpline
210
0.0
220
0.0
230
1.0
 70
     8
 71
     3
 72
    16
 73
    12
 74
     0
 42
0.000000001
 43
0.00000001
 40
0.0
 40
0.0
 40
0.0
 40
0.0
 40
0.2499999999999971
 40
0.2499999999999971
 40
0.4999999999999941
 40
0.4999999999999941
 40
0.6249999999999927
 40
0.6249999999999927
 40
0.7499999999999911
 40
0.7499999999999911
 40
1.0
 40
1.0
 40
1.0
 40
1.0
 10
273.1147522268604
 20
37.6726298449183
 30
0.0
 10
273.0832627577747
 20
37.67544504300172
 30
0.0
 10
273.049257245384
 20
37.67689414067925
 30
0.0
 10
272.9723557621746
 20
37.67496557326576
 30
0.0
 10
272.9294019462877
 20
37.67181024678885
 30
0.0
 10
272.8558077649848
 20
37.6580171661522
 30
0.0
 10
272.8297644165816
 20
37.65168526579125
 30
0.0
 10
272.7814647912402
 20
37.63610709539089
 30
0.0
 10
272.7593151923397
 20
37.62689134866501
 30
0.0
 10
272.7043344826753
 20
37.59880920291342
 30
0.0
 10
272.6822610830718
 20
37.5804449381811
 30
0.0
 10
272.6657712250201
 20
37.56327277821273
 30
0.0
  0
SPLINE
  5
1B6
330
1F
100
AcDbEntity
  8
0
  6
Continuous
 62
     7
370
    15
100
AcDbSpline
210
0.0
220
0.0
230
1.0
 70
     8
 71
     3
 72
     8
 73
     4
 74
     0
 42
0.000000001
 43
0.00000001
 40
0.0
 40
0.0
 40
0.0
 40
0.0
 40
1.0
 40
1.0
 40
1.0
 40
1.0
 10
272.6657712250201
 20
37.56327277821258
 30
0.0
 10
272.6153957046097
 20
37.58244547171349
 30
0.0
 10
272.5638559304074
 20
37.6051685726065
 30
0.0
 10
272.5249857926516
 20
37.62760782549997
 30
0.0
  0
LINE
  5
1B7
330
1F
100
AcDbEntity
  8
0
  6
Continuous
 62
     7
370
    15
100
AcDbLine
 10
271.8820661862
 20
38.2368635323
 30
0.0
 11
271.8495277592
 21
38.2552082576
 31
0.0
  0
LINE
  5
1B8
330
1F
100
AcDbEntity
  8
0
  6
Continuous
 62
     7
370
    15
100
AcDbLine
 10
271.1016427811
 20
38.4492862562
 30
0.0
 11
272.5249857927
 21
37.6276078255
 31
0.0
  0
ARC
  5
1B9
330
1F
100
AcDbEntity
  8
0
  6
Continuous
 62
     7
370
    15
100
AcDbCircle
 10
262.7652907149
 20
37.7709171815
 30
0.0
 40
6.785766602242213
100
AcDbArc
 50
338.0726607102
 51
2.4338584372
  0
LINE
  5
1BA
330
1F
100
AcDbEntity
  8
0
  6
Continuous
 62
     7
370
    15
100
AcDbLine
 10
269.0601625648
 20
35.2369051901
 30
0.0
 11
272.5249857927
 21
33.2367053161
 31
0.0
  0
LINE
  5
1BB
330
1F
100
AcDbEntity
  8
0
  6
Continuous
 62
     7
370
    15
100
AcDbLine
 10
266.3825131567
 20
28.7103260461
 30
0.0
 11
266.4150451357
 21
28.6919848701
 31
0.0
  0
LINE
  5
1BC
330
1F
100
AcDbEntity
  8
0
  6
Continuous
 62
     7
370
    15
100
AcDbLine
 10
263.7355767107
 20
30.4764760492
 30
0.0
 11
265.7395935502
 21
29.3195817529
 31
0.0
  0
LWPOLYLINE
  5
1BD
330
1F
100
AcDbEntity
  8
0
  6
Continuous
 62
     7
370
    15
100
AcDbPolyline
 90
       20
 70
   128
 43
0.0
 10
267.3225056569
 20
42.1418703014
 10
267.3610043493
 20
42.1733127187
 10
267.5672672022
 20
42.4070066599
 10
267.6663768693
 20
42.6629709296
 10
267.6521059258
 20
42.9251223516
 10
267.5253510675
 20
43.1769889878
 10
267.2940767684
 20
43.4027451312
 10
266.9728148432
 20
43.588205693
 10
266.5817513602
 20
43.721717504
 10
266.1454582763
 20
43.7948915261
 10
265.6913494906
 20
43.8031299664
 10
265.247958328
 20
43.7459151734
 10
264.8431446861
 20
43.626842163
 10
264.5023444948
 20
43.4533927303
 10
264.2469714834
 20
43.2364653411
 10
264.0930716774
 20
42.9896903411
 10
264.0503151678
 20
42.728573511
 10
264.1213885032
 20
42.4695217816
 10
264.3018258845
 20
42.2288123259
 10
264.4204644642
 20
42.1271163331
  0
LINE
  5
1BE
330
1F
100
AcDbEntity
  8
0
  6
Continuous
 62
     7
370
    15
100
AcDbLine
 10
250.3785986597
 20
35.3838200741
 30
0.0
 11
248.6514159604
 21
36.380901423
 31
0.0
  0
SPLINE
  5
1BF
330
1F
100
AcDbEntity
  8
0
  6
Continuous
 62
     7
370
    15
100
AcDbSpline
210
0.0
220
0.0
230
1.0
 70
     8
 71
     3
 72
     8
 73
     4
 74
     0
 42
0.000000001
 43
0.00000001
 40
0.0
 40
0.0
 40
0.0
 40
0.0
 40
0.0011901715795577
 40
0.0011901715795577
 40
0.0011901715795577
 40
0.0011901715795577
 10
248.6514159603727
 20
36.38090142295109
 30
0.0
 10
248.6392544935541
 20
36.44165167866193
 30
0.0
 10
248.6277710465981
 20
36.50191535279198
 30
0.0
 10
248.6169102229556
 20
36.56172962400872
 30
0.0
  0
LINE
  5
1C0
330
1F
100
AcDbEntity
  8
0
  6
Continuous
 62
     7
370
    15
100
AcDbLine
 10
265.8109401522
 20
29.2614555834
 30
0.0
 11
264.2497173474
 21
29.4010524282
 31
0.0
  0
SPLINE
  5
1C1
330
1F
100
AcDbEntity
  8
0
  6
Continuous
 62
     7
370
    15
100
AcDbSpline
210
0.0
220
0.0
230
1.0
 70
     8
 71
     3
 72
    16
 73
    12
 74
     0
 42
0.000000001
 43
0.00000001
 40
0.0
 40
0.0
 40
0.0
 40
0.0
 40
0.2500000000000063
 40
0.2500000000000063
 40
0.5000000000000125
 40
0.5000000000000125
 40
0.625000000000012
 40
0.625000000000012
 40
0.7500000000000114
 40
0.7500000000000114
 40
1.0
 40
1.0
 40
1.0
 40
1.0
 10
265.7154917412956
 20
28.94803056731689
 30
0.0
 10
265.7465404953698
 20
28.94525434082876
 30
0.0
 10
265.7772142191202
 20
28.94590167756357
 30
0.0
 10
265.8336937490896
 20
28.96000251921204
 30
0.0
 10
265.860261136283
 20
28.97292059997099
 30
0.0
 10
265.8854830592088
 20
29.01497651832936
 30
0.0
 10
265.8908536864294
 20
29.03310444526889
 30
0.0
 10
265.8918829600659
 20
29.07577028659554
 30
0.0
 10
265.8874836655907
 20
29.10023216990851
 30
0.0
 10
265.8643568694863
 20
29.17309756683295
 30
0.0
 10
265.83832942051
 20
29.21917182669354
 30
0.0
 10
265.8109401522187
 20
29.2614555834096
 30
0.0
  0
SPLINE
  5
1C2
330
1F
100
AcDbEntity
  8
0
  6
Continuous
 62
     7
370
    15
100
AcDbSpline
210
0.0
220
0.0
230
1.0
 70
     8
 71
     3
 72
     8
 73
     4
 74
     0
 42
0.000000001
 43
0.00000001
 40
0.0
 40
0.0
 40
0.0
 40
0.0
 40
1.0
 40
1.0
 40
1.0
 40
1.0
 10
265.7395935502459
 20
29.31958175288981
 30
0.0
 10
265.778549632626
 20
29.2970928852208
 30
0.0
 10
265.8010316064176
 20
29.27723864354992
 30
0.0
 10
265.8109401522187
 20
29.26145558340965
 30
0.0
  0
ARC
  5
1C3
330
1F
100
AcDbEntity
  8
0
  6
Continuous
 62
     7
370
    15
100
AcDbCircle
 10
257.6293086841
 20
36.805679509
 30
0.0
 40
10.35656730472937
100
AcDbArc
 50
174.708209939
 51
187.1554930098
  0
LINE
  5
1C4
330
1F
100
AcDbEntity
  8
0
  6
Continuous
 62
     7
370
    15
100
AcDbLine
 10
247.3534008109
 20
37.7749670663
 30
0.0
 11
247.3534008109
 21
35.5156393087
 31
0.0
  0
LINE
  5
1C5
330
1F
100
AcDbEntity
  8
0
  6
Continuous
 62
     7
370
    15
100
AcDbLine
 10
247.3534008109
 20
35.5156393087
 30
0.0
 11
247.3534008109
 21
34.0498313462
 31
0.0
  0
SPLINE
  5
1C6
330
1F
100
AcDbEntity
  8
0
  6
Continuous
 62
     7
370
    15
100
AcDbSpline
210
0.0
220
0.0
230
1.0
 70
     8
 71
     3
 72
     8
 73
     4
 74
     0
 42
0.000000001
 43
0.00000001
 40
0.0
 40
0.0
 40
0.0
 40
0.0
 40
1.0
 40
1.0
 40
1.0
 40
1.0
 10
272.5249857926526
 20
33.23670531611175
 30
0.0
 10
272.5639418750327
 20
33.21421644844271
 30
0.0
 10
272.6146101985003
 20
33.21063384008826
 30
0.0
 10
272.6657712250356
 20
33.21866533016891
 30
0.0
  0
SPLINE
  5
1C7
330
1F
100
AcDbEntity
  8
0
  6
Continuous
 62
     7
370
    15
100
AcDbSpline
210
0.0
220
0.0
230
1.0
 70
     8
 71
     3
 72
    16
 73
    12
 74
     0
 42
0.000000001
 43
0.00000001
 40
0.0
 40
0.0
 40
0.0
 40
0.0
 40
0.2500000000000046
 40
0.2500000000000046
 40
0.3750000000000063
 40
0.3750000000000063
 40
0.500000000000008
 40
0.500000000000008
 40
0.750000000000004
 40
0.750000000000004
 40
1.0
 40
1.0
 40
1.0
 40
1.0
 10
272.6657712250357
 20
33.21866533016884
 30
0.0
 10
272.6820869321815
 20
33.17012657912909
 30
0.0
 10
272.7044617492101
 20
33.12129452579539
 30
0.0
 10
272.7585963865519
 20
33.06709373044215
 30
0.0
 10
272.7805301762333
 20
33.05276569199601
 30
0.0
 10
272.8286451960048
 20
33.03827757782878
 30
0.0
 10
272.8546135097076
 20
33.03816100158433
 30
0.0
 10
272.9282611233121
 20
33.05325193442476
 30
0.0
 10
272.9716816153198
 20
33.08068868409094
 30
0.0
 10
273.0488852624451
 20
33.14359664042256
 30
0.0
 10
273.0835081898194
 20
33.18065157189371
 30
0.0
 10
273.1147730265521
 20
33.21954473155997
 30
0.0
  0
LINE
  5
1C8
330
1F
100
AcDbEntity
  8
0
  6
Continuous
 62
     7
370
    15
100
AcDbLine
 10
245.1283308094
 20
38.4147351892
 30
0.0
 11
244.6891690751
 21
38.8012104802
 31
0.0
  0
LINE
  5
1C9
330
1F
100
AcDbEntity
  8
0
  6
Continuous
 62
     7
370
    15
100
AcDbLine
 10
246.4842824487
 20
37.6319609697
 30
0.0
 11
245.1283308094
 21
38.4147351892
 31
0.0
  0
LINE
  5
1CA
330
1F
100
AcDbEntity
  8
0
  6
Continuous
 62
     7
370
    15
100
AcDbLine
 10
246.3546124825
 20
37.5505327976
 30
0.0
 11
246.3553041297
 21
37.6713217004
 31
0.0
  0
ARC
  5
1CB
330
1F
100
AcDbEntity
  8
0
  6
Continuous
 62
     7
370
    15
100
AcDbCircle
 10
253.1276779209
 20
37.2489539062
 30
0.0
 40
6.779776195448916
100
AcDbArc
 50
177.4505204114
 51
211.1388398759
  0
LINE
  5
1CC
330
1F
100
AcDbEntity
  8
0
  6
Continuous
 62
     7
370
    15
100
AcDbLine
 10
233.0349331394
 20
61.4030936584
 30
0.0
 11
233.1476046348
 21
61.3659738025
 31
0.0
  0
LINE
  5
1CD
330
1F
100
AcDbEntity
  8
0
  6
Continuous
 62
     7
370
    15
100
AcDbLine
 10
248.6514159604
 20
29.8077478873
 30
0.0
 11
250.3785986597
 21
28.8106665384
 31
0.0
  0
SPLINE
  5
1CE
330
1F
100
AcDbEntity
  8
0
  6
Continuous
 62
     7
370
    15
100
AcDbSpline
210
0.0
220
0.0
230
1.0
 70
     8
 71
     3
 72
    14
 73
    10
 74
     0
 42
0.000000001
 43
0.00000001
 40
0.0
 40
0.0
 40
0.0
 40
0.0
 40
0.25
 40
0.25
 40
0.5
 40
0.5
 40
0.75
 40
0.75
 40
1.0
 40
1.0
 40
1.0
 40
1.0
 10
250.3307034834105
 20
28.68841785313375
 30
0.0
 10
250.3137952858724
 20
28.64526100358461
 30
0.0
 10
250.2932720949914
 20
28.6052450310956
 30
0.0
 10
250.2444886594291
 20
28.53193540411068
 30
0.0
 10
250.2160316810533
 20
28.49864824550461
 30
0.0
 10
250.1526690585451
 20
28.44572539917428
 30
0.0
 10
250.1173499978042
 20
28.42566173274902
 30
0.0
 10
250.042531920753
 20
28.40890274226699
 30
0.0
 10
250.0041624466884
 20
28.41309963787817
 30
0.0
 10
249.9703703579014
 20
28.4326073955006
 30
0.0
  0
LINE
  5
1CF
330
1F
100
AcDbEntity
  8
0
  6
Continuous
 62
     7
370
    15
100
AcDbLine
 10
249.9703703579
 20
28.4326073955
 30
0.0
 11
248.616910223
 21
29.2139433002
 31
0.0
  0
SPLINE
  5
1D0
330
1F
100
AcDbEntity
  8
0
  6
Continuous
 62
     7
370
    15
100
AcDbSpline
210
0.0
220
0.0
230
1.0
 70
     8
 71
     3
 72
     8
 73
     4
 74
     0
 42
0.000000001
 43
0.00000001
 40
0.0
 40
0.0
 40
0.0
 40
0.0
 40
0.0011901715795577
 40
0.0011901715795577
 40
0.0011901715795577
 40
0.0011901715795577
 10
248.6169102229556
 20
29.21394330020245
 30
0.0
 10
248.6277710465981
 20
29.41189848856061
 30
0.0
 10
248.6392544935541
 20
29.60983740106218
 30
0.0
 10
248.6514159603727
 20
29.8077478872708
 30
0.0
  0
SPLINE
  5
1D1
330
1F
100
AcDbEntity
  8
0
  6
Continuous
 62
     7
370
    15
100
AcDbSpline
210
0.0
220
0.0
230
1.0
 70
     8
 71
     3
 72
    26
 73
    22
 74
     0
 42
0.000000001
 43
0.00000001
 40
0.0
 40
0.0
 40
0.0
 40
0.0
 40
0.125
 40
0.125
 40
0.1874999999999999
 40
0.1874999999999999
 40
0.2499999999999999
 40
0.2499999999999999
 40
0.3749999999999998
 40
0.3749999999999998
 40
0.5
 40
0.5
 40
0.6250000000000002
 40
0.6250000000000002
 40
0.6875000000000002
 40
0.6875000000000002
 40
0.7500000000000002
 40
0.7500000000000002
 40
0.8750000000000001
 40
0.8750000000000001
 40
1.0
 40
1.0
 40
1.0
 40
1.0
 10
274.2269940298983
 20
35.16081165715106
 30
0.0
 10
274.3133015590089
 20
35.26817740285437
 30
0.0
 10
274.3912995625636
 20
35.38233766163606
 30
0.0
 10
274.4948853719828
 20
35.56421972315063
 30
0.0
 10
274.5273576741065
 20
35.62708395594165
 30
0.0
 10
274.5862347192218
 20
35.75315746896458
 30
0.0
 10
274.6127740972864
 20
35.81658446865758
 30
0.0
 10
274.683847512937
 20
36.00801990721337
 30
0.0
 10
274.7200983968635
 20
36.13895919669921
 30
0.0
 10
274.766639249904
 20
36.39037112917325
 30
0.0
 10
274.7776066990928
 20
36.51295838966002
 30
0.0
 10
274.7749709228563
 20
36.74340005833909
 30
0.0
 10
274.7616329703254
 20
36.84880227547795
 30
0.0
 10
274.7241449409203
 20
36.99190680318941
 30
0.0
 10
274.7086455876448
 20
37.03697162748469
 30
0.0
 10
274.6725830936188
 20
37.11939198515703
 30
0.0
 10
274.6519017507682
 20
37.15713997790888
 30
0.0
 10
274.5818189640433
 20
37.2601287732938
 30
0.0
 10
274.5238698742451
 20
37.3151147072174
 30
0.0
 10
274.3902645956056
 20
37.39242408562902
 30
0.0
 10
274.3133099484155
 20
37.41595798363107
 30
0.0
 10
274.2269940347416
 20
37.42367593057856
 30
0.0
  0
LINE
  5
1D2
330
1F
100
AcDbEntity
  8
0
  6
Continuous
 62
     7
370
    15
100
AcDbLine
 10
274.2269940347
 20
37.4236759306
 30
0.0
 11
272.665771225
 21
37.5632727782
 31
0.0
  0
ARC
  5
1D3
330
1F
100
AcDbEntity
  8
0
  6
Continuous
 62
     7
370
    15
100
AcDbCircle
 10
255.5749578501
 20
29.382548471
 30
0.0
 40
5.547919706239862
100
AcDbArc
 50
212.4975230671
 51
267.2737051389
  0
SPLINE
  5
1D4
330
1F
100
AcDbEntity
  8
0
  6
Continuous
 62
     7
370
    15
100
AcDbSpline
210
0.0
220
0.0
230
1.0
 70
     8
 71
     3
 72
     8
 73
     4
 74
     0
 42
0.000000001
 43
0.00000001
 40
0.0
 40
0.0
 40
0.0
 40
0.0
 40
1.0
 40
1.0
 40
1.0
 40
1.0
 10
248.9773328897301
 20
30.46728552570558
 30
0.0
 10
248.8682593093431
 20
30.24751332564635
 30
0.0
 10
248.7596477438751
 20
30.02766024397669
 30
0.0
 10
248.6514159603727
 20
29.8077478872708
 30
0.0
  0
LINE
  5
1D5
330
1F
100
AcDbEntity
  8
0
  6
Continuous
 62
     7
370
    15
100
AcDbLine
 10
249.0355797402
 20
30.5009107167
 30
0.0
 11
248.9773328897
 21
30.4672855257
 31
0.0
  0
SPLINE
  5
1D6
330
1F
100
AcDbEntity
  8
0
  6
Continuous
 62
     7
370
    15
100
AcDbSpline
210
0.0
220
0.0
230
1.0
 70
     8
 71
     3
 72
    12
 73
     8
 74
     0
 42
0.000000001
 43
0.00000001
 40
0.0
 40
0.0
 40
0.0
 40
0.0
 40
0.2499999999999986
 40
0.2499999999999986
 40
0.4999999999999971
 40
0.4999999999999971
 40
1.0
 40
1.0
 40
1.0
 40
1.0
 10
249.0476789140183
 20
30.8344586658503
 30
0.0
 10
249.0857165215709
 20
30.81250002241306
 30
0.0
 10
249.1151899254825
 20
30.78624308580839
 30
0.0
 10
249.1539836355255
 20
30.72837507650908
 30
0.0
 10
249.1628058384721
 20
30.69759294169995
 30
0.0
 10
249.1576965657853
 20
30.6046129583132
 30
0.0
 10
249.1110728240159
 20
30.5444919463839
 30
0.0
 10
249.0355797401627
 20
30.50091071672797
 30
0.0
  0
LINE
  5
1D7
330
1F
100
AcDbEntity
  8
0
  6
Continuous
 62
     7
370
    15
100
AcDbLine
 10
248.2627903869
 20
31.2875651679
 30
0.0
 11
249.047678914
 21
30.8344586659
 31
0.0
  0
SPLINE
  5
1D8
330
1F
100
AcDbEntity
  8
0
  6
Continuous
 62
     7
370
    15
100
AcDbSpline
210
0.0
220
0.0
230
1.0
 70
     8
 71
     3
 72
    12
 73
     8
 74
     0
 42
0.000000001
 43
0.00000001
 40
0.0
 40
0.0
 40
0.0
 40
0.0
 40
0.5
 40
0.5
 40
0.75
 40
0.75
 40
1.0
 40
1.0
 40
1.0
 40
1.0
 10
247.6850057880964
 20
31.28058046351866
 30
0.0
 10
247.7602499254018
 20
31.32401797939157
 30
0.0
 10
247.8649660278131
 20
31.35102703522708
 30
0.0
 10
248.0249883341891
 20
31.35404117825429
 30
0.0
 10
248.0796236878749
 20
31.34882382697209
 30
0.0
 10
248.1791889468527
 20
31.32653305730522
 30
0.0
 10
248.2251690844868
 20
31.3092834835084
 30
0.0
 10
248.2627903869013
 20
31.2875651679119
 30
0.0
  0
LINE
  5
1D9
330
1F
100
AcDbEntity
  8
0
  6
Continuous
 62
     7
370
    15
100
AcDbLine
 10
247.6267589377
 20
31.2469552725
 30
0.0
 11
247.6850057881
 21
31.2805804635
 31
0.0
  0
SPLINE
  5
1DA
330
1F
100
AcDbEntity
  8
0
  6
Continuous
 62
     7
370
    15
100
AcDbSpline
210
0.0
220
0.0
230
1.0
 70
     8
 71
     3
 72
     8
 73
     4
 74
     0
 42
0.000000001
 43
0.00000001
 40
0.0
 40
0.0
 40
0.0
 40
0.0
 40
1.0
 40
1.0
 40
1.0
 40
1.0
 10
246.4842824486839
 20
31.0588074340176
 30
0.0
 10
246.8652230994235
 20
31.12128831269063
 30
0.0
 10
247.2460610716634
 20
31.18398843482566
 30
0.0
 10
247.6267589376639
 20
31.24695527249627
 30
0.0
  0
LINE
  5
1DB
330
1F
100
AcDbEntity
  8
0
  6
Continuous
 62
     7
370
    15
100
AcDbLine
 10
245.1283308094
 20
31.8415816535
 30
0.0
 11
246.4842824487
 21
31.058807434
 31
0.0
  0
LINE
  5
1DC
330
1F
100
AcDbEntity
  8
0
  6
Continuous
 62
     7
370
    15
100
AcDbLine
 10
245.1283308094
 20
31.8415816535
 30
0.0
 11
247.1412687765
 21
33.0036260071
 31
0.0
  0
ARC
  5
1DD
330
1F
100
AcDbEntity
  8
0
  6
Continuous
 62
     7
370
    15
100
AcDbCircle
 10
254.8437570058
 20
30.8100274681
 30
0.0
 40
6.42814946370245
100
AcDbArc
 50
194.3767045206
 51
238.0811542583
  0
ELLIPSE
  5
1DE
330
1F
100
AcDbEntity
  8
0
  6
Continuous
 62
     7
370
    15
100
AcDbEllipse
 10
246.9069542015
 20
33.7921255816
 30
0.0
 11
-6.005970385558612E-5
 21
0.8534489614827194
 31
0.0
210
0.0
220
0.0
230
1.0
 40
0.7174342186
 41
3.534193645557425
 42
5.104989972352355
  0
ARC
  5
1DF
330
1F
100
AcDbEntity
  8
0
  6
Continuous
 62
     7
370
    15
100
AcDbCircle
 10
254.2857434352
 20
33.1107751972
 30
0.0
 40
6.91490413890045
100
AcDbArc
 50
195.6366952156
 51
215.4285397018
  0
ARC
  5
1E0
330
1F
100
AcDbEntity
  8
0
  6
Continuous
 62
     7
370
    15
100
AcDbCircle
 10
251.9885144141
 20
32.020199586
 30
0.0
 40
6.019570994993767
100
AcDbArc
 50
193.141875593
 51
253.691584192
  0
SPLINE
  5
1E1
330
1F
100
AcDbEntity
  8
0
  6
Continuous
 62
     7
370
    15
100
AcDbSpline
210
0.0
220
0.0
230
1.0
 70
     8
 71
     3
 72
     8
 73
     4
 74
     0
 42
0.000000001
 43
0.00000001
 40
0.0
 40
0.0
 40
0.0
 40
0.0
 40
0.0011901715795577
 40
0.0011901715795577
 40
0.0011901715795577
 40
0.0011901715795577
 10
246.4842824486839
 20
31.0588074340176
 30
0.0
 10
246.3654853327689
 20
30.92245639770256
 30
0.0
 10
246.2462421586208
 20
30.78672585156664
 30
0.0
 10
246.126595651126
 20
30.65157130174723
 30
0.0
  0
ARC
  5
1E2
330
1F
100
AcDbEntity
  8
0
  6
Continuous
 62
     7
370
    15
100
AcDbCircle
 10
268.6640104106
 20
38.8525507085
 30
0.0
 40
2.574168997250603
100
AcDbArc
 50
320.7034755418
 51
349.7435996042
  0
LINE
  5
1E3
330
1F
100
AcDbEntity
  8
0
  6
Continuous
 62
     7
370
    15
100
AcDbLine
 10
272.665771225
 20
33.2186653302
 30
0.0
 11
274.2269940299
 21
35.1608116572
 31
0.0
  0
LINE
  5
1E4
330
1F
100
AcDbEntity
  8
0
  6
Continuous
 62
     7
370
    15
100
AcDbLine
 10
244.6891690751
 20
31.5880069719
 30
0.0
 11
245.1283308094
 21
31.8415816535
 31
0.0
  0
LINE
  5
1E5
330
1F
100
AcDbEntity
  8
0
  6
Continuous
 62
     7
370
    15
100
AcDbLine
 10
246.1265956511
 20
30.6515713017
 30
0.0
 11
244.7908131857
 21
31.4227021051
 31
0.0
  0
SPLINE
  5
1E6
330
1F
100
AcDbEntity
  8
0
  6
Continuous
 62
     7
370
    15
100
AcDbSpline
210
0.0
220
0.0
230
1.0
 70
     8
 71
     3
 72
    10
 73
     6
 74
     0
 42
0.000000001
 43
0.00000001
 40
0.0
 40
0.0
 40
0.0
 40
0.0
 40
0.5
 40
0.5
 40
1.0
 40
1.0
 40
1.0
 40
1.0
 10
244.7908131857099
 20
31.42270210505128
 30
0.0
 10
244.764508933333
 20
31.43788722672405
 30
0.0
 10
244.7423108192145
 20
31.46151687765793
 30
0.0
 10
244.7082989327827
 20
31.51895927046783
 30
0.0
 10
244.6964280523766
 20
31.55259754861844
 30
0.0
 10
244.6891690751125
 20
31.58800697186156
 30
0.0
  0
LINE
  5
1E7
330
1F
100
AcDbEntity
  8
0
  6
Continuous
 62
     7
370
    15
100
AcDbLine
 10
269.0601625648
 20
35.2369051901
 30
0.0
 11
270.6561047849
 21
37.2222421395
 31
0.0
  0
ARC
  5
1E8
330
1F
100
AcDbEntity
  8
0
  6
Continuous
 62
     7
370
    15
100
AcDbCircle
 10
250.5052027622
 20
32.4688923863
 30
0.0
 40
5.692283240052572
100
AcDbArc
 50
212.7203202246
 51
239.5330997301
  0
ELLIPSE
  5
1E9
330
1F
100
AcDbEntity
  8
0
  6
Continuous
 62
     7
370
    15
100
AcDbEllipse
 10
246.787715386
 20
33.7232681015
 30
0.0
 11
0.2600075789208915
 21
0.9705436209909379
 31
0.0
210
0.0
220
0.0
230
1.0
 40
0.5176380889
 41
3.619174351347644
 42
5.189970678142627
  0
SPLINE
  5
1EA
330
1F
100
AcDbEntity
  8
0
  6
Continuous
 62
     7
370
    15
100
AcDbSpline
210
0.0
220
0.0
230
1.0
 70
     8
 71
     3
 72
    12
 73
     8
 74
     0
 42
0.000000001
 43
0.00000001
 40
0.0
 40
0.0
 40
0.0
 40
0.0
 40
0.5000000000000003
 40
0.5000000000000003
 40
0.7500000000000001
 40
0.7500000000000001
 40
1.0
 40
1.0
 40
1.0
 40
1.0
 10
264.2431456228264
 20
54.06287213690331
 30
0.0
 10
264.3049326753565
 20
54.09854104309492
 30
0.0
 10
264.3854103737606
 20
54.12462220083054
 30
0.0
 10
264.5155528959195
 20
54.13634068691211
 30
0.0
 10
264.5606818900989
 20
54.13551257848843
 30
0.0
 10
264.6452704776662
 20
54.12211542747433
 30
0.0
 10
264.6855774743413
 20
54.10904987748004
 30
0.0
 10
264.7164890129567
 20
54.09120502607567
 30
0.0
  0
LINE
  5
1EB
330
1F
100
AcDbEntity
  8
0
  6
Continuous
 62
     7
370
    15
100
AcDbLine
 10
264.716489013
 20
54.0912050261
 30
0.0
 11
265.8681522784
 21
53.4263639745
 31
0.0
  0
SPLINE
  5
1EC
330
1F
100
AcDbEntity
  8
0
  6
Continuous
 62
     7
370
    15
100
AcDbSpline
210
0.0
220
0.0
230
1.0
 70
     8
 71
     3
 72
    10
 73
     6
 74
     0
 42
0.000000001
 43
0.00000001
 40
0.0
 40
0.0
 40
0.0
 40
0.0
 40
0.1147155626191096
 40
0.8662979355220924
 40
1.0
 40
1.0
 40
1.0
 40
1.0
 10
267.4352333966015
 20
51.64822158536042
 30
0.0
 10
267.4774268458551
 20
51.65741161374607
 30
0.0
 10
267.7960592715382
 20
51.72681198485625
 30
0.0
 10
268.1657076884085
 20
51.80408202873576
 30
0.0
 10
268.4931355276125
 20
51.87216399050237
 30
0.0
 10
268.5425860502024
 20
51.88244622122681
 30
0.0
  0
LINE
  5
1ED
330
1F
100
AcDbEntity
  8
0
  6
Continuous
 62
     7
370
    15
100
AcDbLine
 10
268.5425860502
 20
51.8824462212
 30
0.0
 11
269.8960461851
 21
51.1011103165
 31
0.0
  0
SPLINE
  5
1EE
330
1F
100
AcDbEntity
  8
0
  6
Continuous
 62
     7
370
    15
100
AcDbSpline
210
0.0
220
0.0
230
1.0
 70
     8
 71
     3
 72
    14
 73
    10
 74
     0
 42
0.000000001
 43
0.00000001
 40
0.0
 40
0.0
 40
0.0
 40
0.0
 40
0.25
 40
0.25
 40
0.5
 40
0.5
 40
0.75
 40
0.75
 40
1.0
 40
1.0
 40
1.0
 40
1.0
 10
269.8960461851482
 20
51.10111031652497
 30
0.0
 10
269.9273082733063
 20
51.08306309717718
 30
0.0
 10
269.9495756454024
 20
51.05997378173687
 30
0.0
 10
269.9727290433906
 20
51.01136242846817
 30
0.0
 10
269.9742492133867
 20
50.98536264690305
 30
0.0
 10
269.9608040426157
 20
50.93522971751563
 30
0.0
 10
269.9461045369677
 20
50.91103940240423
 30
0.0
 10
269.904459541992
 20
50.86608895963164
 30
0.0
 10
269.8781472584744
 20
50.84585505254988
 30
0.0
 10
269.8469668637298
 20
50.82785499380582
 30
0.0
  0
LINE
  5
1EF
330
1F
100
AcDbEntity
  8
0
  6
Continuous
 62
     7
370
    15
100
AcDbLine
 10
264.2431456228
 20
54.0628721369
 30
0.0
 11
263.7352249331
 21
53.769655764
 31
0.0
  0
SPLINE
  5
1F0
330
1F
100
AcDbEntity
  8
0
  6
Continuous
 62
     7
370
    15
100
AcDbSpline
210
0.0
220
0.0
230
1.0
 70
     8
 71
     3
 72
    13
 73
     9
 74
     0
 42
0.000000001
 43
0.00000001
 40
0.0
 40
0.0
 40
0.0
 40
0.0
 40
0.199100861004151
 40
0.4038214919207235
 40
0.603024693182414
 40
0.8090858291443089
 40
0.9907013770210391
 40
0.9999999999999999
 40
0.9999999999999999
 40
0.9999999999999999
 40
0.9999999999999999
 10
271.557860786016
 20
47.73201772978002
 30
0.0
 10
271.5678288367309
 20
47.75090773515057
 30
0.0
 10
271.5880462938075
 20
47.78922093034547
 30
0.0
 10
271.6077831646199
 20
47.85038394857799
 30
0.0
 10
271.6191907866072
 20
47.91330238111284
 30
0.0
 10
271.6187284735728
 20
47.97246553078404
 30
0.0
 10
271.6144141271089
 20
48.01218100205985
 30
0.0
 10
271.6077807759063
 20
48.0287753687311
 30
0.0
 10
271.6074576933837
 20
48.02958361024905
 30
0.0
  0
LWPOLYLINE
  5
1F1
330
1F
100
AcDbEntity
  8
0
  6
Continuous
 62
     7
370
     0
100
AcDbPolyline
 90
        9
 70
   128
 43
0.0
 10
255.467451125
 20
33.4021590794
 10
255.5065086616
 20
32.5784750669
 10
255.6232387339
 20
31.8092185953
 10
255.8163187434
 20
31.1031056477
 10
256.0835610167
 20
30.4681367661
 10
256.4219375918
 20
29.9115064015
 10
256.827614527
 20
29.4395213984
 10
257.2959953406
 20
29.0575295355
 10
257.48713842
 20
28.9381722163
  0
LWPOLYLINE
  5
1F2
330
1F
100
AcDbEntity
  8
0
  6
Continuous
 62
     7
370
     0
100
AcDbPolyline
 90
       24
 70
   128
 43
0.0
 10
267.2363460632
 20
45.8261250328
 10
267.1714170404
 20
45.862622427
 10
266.6191367087
 20
46.1018417341
 10
266.0186183965
 20
46.242263434
 10
265.3766662162
 20
46.2822964928
 10
264.7005537427
 20
46.22148732
 10
263.9979416002
 20
46.0605249077
 10
263.2767906653
 20
45.8012330245
 10
262.5452718661
 20
45.4465495509
 10
261.8116736028
 20
45.0004931924
 10
261.0843078371
 20
44.4681179458
 10
260.3714159136
 20
43.8554558355
 10
259.6810751827
 20
43.1694485678
 10
259.0211074807
 20
42.4178688792
 10
258.3989905054
 20
41.609232468
 10
257.8217730907
 20
40.7527015079
 10
257.2959953406
 20
39.8579808367
 10
256.827614527
 20
38.9352079973
 10
256.4219375918
 20
37.9948383746
 10
256.0835610167
 20
37.0475267322
 10
255.8163187434
 20
36.1040064896
 10
255.6232387339
 20
35.1749681081
 10
255.5065086616
 20
34.2709379638
 10
255.467451125
 20
33.4021590794
  0
LWPOLYLINE
  5
1F3
330
1F
100
AcDbEntity
  8
0
  6
Continuous
 62
     7
370
     0
100
AcDbPolyline
 90
       23
 70
   128
 43
0.0
 10
249.9703703579
 20
35.7803937193
 10
250.2848526854
 20
37.0203143115
 10
250.6772053541
 20
38.269926862
 10
251.1445048188
 20
39.5199201085
 10
251.6832690821
 20
40.7609799522
 10
252.2894836392
 20
41.9838588596
 10
252.9586313919
 20
43.1794447694
 10
253.6857263066
 20
44.3388289891
 10
254.4653505667
 20
45.4533725767
 10
255.291694943
 20
46.5147707117
 10
256.1586020795
 20
47.5151145776
 10
257.0596123741
 20
48.4469502929
 10
257.9880121115
 20
49.3033344518
 10
258.9368834887
 20
50.0778858626
 10
259.8991561618
 20
50.7648330952
 10
260.8676599299
 20
51.3590574865
 10
261.835178162
 20
51.8561312805
 10
262.7945015707
 20
52.2523506218
 10
263.7384819309
 20
52.5447631534
 10
264.6600853434
 20
52.7311900162
 10
265.5524446467
 20
52.8102420841
 10
266.4089105868
 20
52.7813303149
 10
267.2231013622
 20
52.6446701393
  0
LWPOLYLINE
  5
1F4
330
1F
100
AcDbEntity
  8
0
  6
Continuous
 62
     7
370
     0
100
AcDbPolyline
 90
       23
 70
   128
 43
0.0
 10
250.3307034834
 20
35.4507701658
 10
250.6283530616
 20
36.6846251717
 10
251.0055021458
 20
37.930143591
 10
251.4592451583
 20
39.1777298802
 10
251.9860864375
 20
40.4177725648
 10
252.5819671689
 20
41.6407182865
 10
253.2422966539
 20
42.8371454031
 10
253.9619876772
 20
43.9978365734
 10
254.735495699
 20
45.1138497675
 10
255.5568615702
 20
46.1765871574
 10
256.4197574422
 20
47.1778613549
 10
257.317535517
 20
48.1099584875
 10
258.2432792621
 20
48.9656976269
 10
259.1898566958
 20
49.7384861108
 10
260.1499753329
 20
50.4223703336
 10
261.1162383655
 20
51.012081613
 10
262.0812016492
 20
51.5030767802
 10
263.037431053
 20
51.8915731812
 10
263.9775597321
 20
52.1745778178
 10
264.8943448825
 20
52.3499104065
 10
265.7807235402
 20
52.4162201754
 10
266.6298669945
 20
52.3729962701
 10
267.4352333966
 20
52.2205716901
  0
LWPOLYLINE
  5
1F5
330
1F
100
AcDbEntity
  8
0
  6
Continuous
 62
     7
370
     0
100
AcDbPolyline
 90
       16
 70
   128
 43
0.0
 10
265.7154917413
 20
28.9480305673
 10
266.0338471061
 20
28.5363874133
 10
266.4235426829
 20
28.2254671641
 10
266.8763564606
 20
28.0218297858
 10
267.3827347256
 20
27.9297717315
 10
267.9319936316
 20
27.9512352925
 10
268.5125446127
 20
28.0857676189
 10
269.1121388858
 20
28.3305302737
 10
269.718125882
 20
28.6803591203
 10
270.3177201552
 20
29.1278732777
 10
270.8982711363
 20
29.6636308466
 10
271.4475300422
 20
30.2763281199
 10
271.9539083073
 20
30.9530380744
 10
272.406722085
 20
31.6794831122
 10
272.7964176618
 20
32.4403362972
 10
273.1147730266
 20
33.2195447316
  0
LWPOLYLINE
  5
1F6
330
1F
100
AcDbEntity
  8
0
  6
Continuous
 62
     7
370
     0
100
AcDbPolyline
 90
       16
 70
   128
 43
0.0
 10
273.1147522269
 20
37.6726298449
 10
272.79639482
 20
38.0842622299
 10
272.4066990943
 20
38.3951732107
 10
271.9538869014
 20
38.5988031466
 10
271.4475117323
 20
38.6908558266
 10
270.8982571568
 20
38.6693891109
 10
270.3177114201
 20
38.5348559074
 10
269.7181229524
 20
38.2900946151
 10
269.1121419499
 20
37.9402692399
 10
268.5125534794
 20
37.4927604435
 10
267.9320077371
 20
36.9570098253
 10
267.3827531533
 20
36.3443207222
 10
266.8763779734
 20
35.6676197293
 10
266.4235657675
 20
34.941183973
 10
266.0338700268
 20
34.1803398902
 10
265.7155126033
 20
33.4011398695
  0
LWPOLYLINE
  5
1F7
330
1F
100
AcDbEntity
  8
0
  6
Continuous
 62
     7
370
     0
100
AcDbPolyline
 90
       18
 70
   128
 43
0.0
 10
262.1462703287
 20
26.2485126165
 10
261.8891250128
 20
26.0710722552
 10
260.9353661418
 20
25.4739200632
 10
259.9816986508
 20
24.9723709504
 10
259.0352876596
 20
24.570193169
 10
258.1032437687
 20
24.2704083718
 10
257.1925696349
 20
24.0752689101
 10
256.3101073594
 20
23.9862409106
 10
255.4624870813
 20
24.0039932611
 10
254.6560771639
 20
24.1283925841
 10
253.8969363477
 20
24.3585042392
 10
253.1907682296
 20
24.6925993454
 10
252.5428784107
 20
25.1281677705
 10
251.9581346341
 20
25.6619369903
 10
251.4409302124
 20
26.2898966755
 10
250.9951510196
 20
27.0073288227
 10
250.6241462957
 20
27.8088432017
 10
250.3307034834
 20
28.6884178531
  0
LWPOLYLINE
  5
1F8
330
1F
100
AcDbEntity
  8
0
  6
Continuous
 62
     7
370
     0
100
AcDbPolyline
 90
       29
 70
   128
 43
0.0
 10
252.9572220518
 20
36.2156321149
 10
253.2155898808
 20
37.2467693092
 10
253.5467745412
 20
38.2868701214
 10
253.9476570461
 20
39.3261392275
 10
254.4144620171
 20
40.3547891362
 10
254.9427932401
 20
41.3631323643
 10
255.527675067
 20
42.3416726702
 10
256.1635992751
 20
43.2811944863
 10
256.8445769415
 20
44.1728497082
 10
257.5641948445
 20
45.0082410233
 10
258.3156758619
 20
45.7795009934
 10
259.0919427949
 20
46.4793661485
 10
259.8856850195
 20
47.1012453908
 10
260.6894273351
 20
47.6392820684
 10
261.4956003633
 20
48.0884091304
 10
262.2966118345
 20
48.4443968473
 10
263.0849180886
 20
48.7038926451
 10
263.8530951191
 20
48.8644526785
 10
264.59390849
 20
48.9245648464
 10
265.3003814669
 20
48.8836630325
 10
265.965860722
 20
48.7421324365
 10
266.5840789927
 20
48.5013059464
 10
267.1492141046
 20
48.1634515861
 10
267.655943803
 20
47.7317511559
 10
268.0994958759
 20
47.210270267
 10
268.4756930972
 20
46.6039200531
 10
268.7809925664
 20
45.9184109193
 10
269.0125190744
 20
45.1601987628
 10
269.1011181942
 20
44.7496149957
  0
LWPOLYLINE
  5
1F9
330
1F
100
AcDbEntity
  8
0
  6
Continuous
 62
     7
370
     0
100
AcDbPolyline
 90
       13
 70
   128
 43
0.0
 10
259.351910551
 20
27.8616621793
 10
259.0919427949
 20
27.7753334649
 10
258.3156758619
 20
27.5789398964
 10
257.5641948445
 20
27.4825583522
 10
256.8445769415
 20
27.4870965215
 10
256.1635992751
 20
27.5925116655
 10
255.527675067
 20
27.7978110193
 10
254.9427932401
 20
28.1010611418
 10
254.4144620171
 20
28.4994061241
 10
253.9476570461
 20
28.9890944854
 10
253.5467745412
 20
29.5655145033
 10
253.2155898808
 20
30.2232376456
 10
252.9572220518
 20
30.9560696943
  0
ARC
  5
1FA
330
1F
100
AcDbEntity
  8
0
  6
Continuous
 62
     7
370
     0
100
AcDbCircle
 10
264.7591027883
 20
45.9954049528
 30
0.0
 40
7.01704597737907
100
AcDbArc
 50
14.3287300663
 51
43.5251561868
  0
LWPOLYLINE
  5
1FB
330
1F
100
AcDbEntity
  8
0
  6
Continuous
 62
     7
370
     0
100
AcDbPolyline
 90
       23
 70
   128
 43
0.0
 10
244.7908131857
 20
38.7704884289
 10
245.1052955132
 20
40.0104090211
 10
245.4976481819
 20
41.2600215716
 10
245.9649476466
 20
42.5100148181
 10
246.5037119099
 20
43.7510746617
 10
247.109926467
 20
44.9739535691
 10
247.7790742197
 20
46.1695394789
 10
248.5061691344
 20
47.3289236987
 10
249.2857933946
 20
48.4434672862
 10
250.1121377708
 20
49.5048654212
 10
250.9790449073
 20
50.5052092872
 10
251.880055202
 20
51.4370450024
 10
252.8084549393
 20
52.2934291614
 10
253.7573263165
 20
53.0679805722
 10
254.7195989896
 20
53.7549278048
 10
255.6881027577
 20
54.349152196
 10
256.6556209898
 20
54.8462259901
 10
257.6149443985
 20
55.2424453313
 10
258.5589247587
 20
55.534857863
 10
259.4805281712
 20
55.7212847258
 10
260.3728874745
 20
55.8003367937
 10
261.2293534146
 20
55.7714250244
 10
262.0435441901
 20
55.6347648489
  0
LWPOLYLINE
  5
1FC
330
1F
100
AcDbEntity
  8
0
  6
Continuous
 62
     7
370
     0
100
AcDbPolyline
 90
       19
 70
   128
 43
0.0
 10
248.2627903869
 20
37.8607187036
 10
248.559288974
 20
39.0093281148
 10
248.9311782293
 20
40.1664606344
 10
249.3754056935
 20
41.3226185423
 10
249.8883251568
 20
42.4683121184
 10
250.4657265867
 20
43.5941375334
 10
251.1028706842
 20
44.6908540354
 10
251.7945277837
 20
45.749459798
 10
252.5350207779
 20
46.7612658069
 10
253.3182717156
 20
47.7179671792
 10
254.1378516893
 20
48.6117113298
 10
254.9870336033
 20
49.4351624251
 10
255.8588473901
 20
50.1815615954
 10
256.7461372201
 20
50.8447824118
 10
257.6416202365
 20
51.4193811713
 10
258.5379463333
 20
51.9006415794
 10
259.4277584843
 20
52.2846134604
 10
260.3037531296
 20
52.568145181
 10
260.3728120234
 20
52.5863594685
  0
LWPOLYLINE
  5
1FD
330
1F
100
AcDbEntity
  8
0
  6
Continuous
 62
     7
370
     0
100
AcDbPolyline
 90
       22
 70
   128
 43
0.0
 10
247.6850057881
 20
37.8537339992
 10
247.9800918816
 20
39.0246255651
 10
248.3517943904
 20
40.2051038969
 10
248.7971096956
 20
41.3856298955
 10
249.3124393348
 20
42.5566640764
 10
249.8936190804
 20
43.7087436561
 10
250.5359525893
 20
44.8325590173
 10
251.2342493527
 20
45.9190289378
 10
251.9828666395
 20
46.9593739727
 10
252.7757550929
 20
47.945187399
 10
253.6065076138
 20
48.8685031476
 10
254.4684111348
 20
49.7218601747
 10
255.3545008664
 20
50.4983627525
 10
256.2576165773
 20
51.1917361914
 10
257.1704604544
 20
51.796377544
 10
258.085656074
 20
52.3074008809
 10
258.9958080089
 20
52.7206767724
 10
259.8935615881
 20
53.0328656573
 10
260.7716623283
 20
53.2414448288
 10
261.6230145551
 20
53.3447288197
 10
262.4407387407
 20
53.3418830223
 10
262.4459242804
 20
53.3415173024
  0
LINE
  5
1FE
330
1F
100
AcDbEntity
  8
0
  6
Continuous
 62
     7
370
     0
100
AcDbLine
 10
264.2497173474
 20
29.4010524282
 30
0.0
 11
264.338105695
 21
29.0711896357
 31
0.0
  0
LWPOLYLINE
  5
1FF
330
1F
100
AcDbEntity
  8
0
  6
Continuous
 62
     7
370
     0
100
AcDbPolyline
 90
        3
 70
   128
 43
0.0
 10
272.5249857927
 20
37.6276078255
 10
272.199357431
 20
38.0055070972
 10
271.8820661862
 20
38.2368635323
  0
LWPOLYLINE
  5
200
330
1F
100
AcDbEntity
  8
0
  6
Continuous
 62
     7
370
     0
100
AcDbPolyline
 90
       14
 70
   128
 43
0.0
 10
266.4150451357
 20
28.6919848701
 10
266.4610477766
 20
28.6675073373
 10
266.9180116813
 20
28.5033315039
 10
267.4256548661
 20
28.4529125548
 10
267.9723586493
 20
28.5174044536
 10
268.5456103499
 20
28.6953311421
 10
269.1322896714
 20
28.9826203238
 10
269.718968993
 20
29.3726966686
 10
270.2922206936
 20
29.8566323055
 10
270.8389244768
 20
30.4233511591
 10
271.3465676616
 20
31.0598824536
 10
271.8035315663
 20
31.751657581
 10
272.199357431
 20
32.4828435406
 10
272.5249857927
 20
33.2367053161
  0
LINE
  5
201
330
1F
100
AcDbEntity
  8
0
  6
Continuous
 62
     7
370
     0
100
AcDbLine
 10
263.8404637707
 20
29.6373094891
 30
0.0
 11
264.2497173474
 21
29.4010524282
 31
0.0
  0
LINE
  5
202
330
1F
100
AcDbEntity
  8
0
  6
Continuous
 62
     7
370
     0
100
AcDbLine
 10
252.9572220518
 20
36.2191950229
 30
0.0
 11
252.3914446796
 21
36.5458113477
 31
0.0
  0
LWPOLYLINE
  5
203
330
1F
100
AcDbEntity
  8
0
  6
Continuous
 62
     7
370
     0
100
AcDbPolyline
 90
        3
 70
   128
 43
0.0
 10
247.2745574531
 20
36.8986295371
 10
247.273851298
 20
37.0198675249
 10
247.2986572689
 20
37.7546170092
  0
LINE
  5
204
330
1F
100
AcDbEntity
  8
0
  6
Continuous
 62
     7
370
     0
100
AcDbLine
 10
247.4726396264
 20
34.1186888263
 30
0.0
 11
252.9572220518
 21
30.9525067862
 31
0.0
  0
LINE
  5
205
330
1F
100
AcDbEntity
  8
0
  6
Continuous
 62
     7
370
     0
100
AcDbLine
 10
247.3534008109
 20
34.0498313462
 30
0.0
 11
247.4726396264
 21
34.1186888263
 31
0.0
  0
LWPOLYLINE
  5
206
330
1F
100
AcDbEntity
  8
0
  6
Continuous
 62
     7
370
     0
100
AcDbPolyline
 90
       18
 70
   128
 43
0.0
 10
226.0019684396
 20
53.3118309023
 10
226.0410747601
 20
54.0089972224
 10
226.1576958683
 20
54.7388737895
 10
226.3497506579
 20
55.4884359391
 10
226.6138119065
 20
56.2443077169
 10
226.945167435
 20
56.9930005729
 10
227.337904196
 20
57.7211540655
 10
227.7850137927
 20
58.4157742784
 10
228.2785175439
 20
59.0644656974
 10
228.8096088633
 20
59.6556524088
 10
229.3688104138
 20
60.1787846716
 10
229.9461432305
 20
60.6245271784
 10
230.5313047956
 20
60.9849256434
 10
231.1138528872
 20
61.2535487475
 10
231.6833919206
 20
61.4256029051
 10
232.2297584584
 20
61.4980178057
 10
232.7432025767
 20
61.4695012036
 10
233.0349331394
 20
61.4030936584
  0
ARC
  5
207
330
1F
100
AcDbEntity
  8
0
  6
Continuous
 62
     7
370
     0
100
AcDbCircle
 10
229.2672889599
 20
53.0364365136
 30
0.0
 40
3.276913207539101
100
AcDbArc
 50
175.1791309351
 51
225.8020354417
  0
LINE
  5
208
330
1F
100
AcDbEntity
  8
0
  6
Continuous
 62
     7
370
     0
100
AcDbLine
 10
274.4921590728
 20
34.9329998786
 30
0.0
 11
274.2269940299
 21
35.1608116572
 31
0.0
  0
ARC
  5
209
330
1F
100
AcDbEntity
  8
0
  6
Continuous
 62
     7
370
     0
100
AcDbCircle
 10
257.349287715
 20
30.5688757452
 30
0.0
 40
7.681930995872575
100
AcDbArc
 50
196.1462441962
 51
212.8501919795
  0
LINE
  5
20A
330
1F
100
AcDbEntity
  8
0
  6
Continuous
 62
     7
370
     0
100
AcDbLine
 10
252.3915366269
 20
29.972710892
 30
0.0
 11
247.1412687765
 21
33.0036260071
 31
0.0
  0
LINE
  5
20B
330
1F
100
AcDbEntity
  8
0
  6
Continuous
 62
     7
370
     0
100
AcDbLine
 10
249.1278881221
 20
30.5866623636
 30
0.0
 11
249.047678914
 21
30.8344586659
 31
0.0
  0
LINE
  5
20C
330
1F
100
AcDbEntity
  8
0
  6
Continuous
 62
     7
370
     0
100
AcDbLine
 10
270.6561047849
 20
37.2222421395
 30
0.0
 11
274.2269940299
 21
35.1608116572
 31
0.0
  0
LWPOLYLINE
  5
20D
330
1F
100
AcDbEntity
  8
0
  6
Continuous
 62
     7
370
     0
100
AcDbPolyline
 90
        3
 70
   128
 43
0.0
 10
248.7609637314
 20
30.0588272136
 10
248.5620281881
 20
30.4750073001
 10
248.2627903869
 20
31.2875651679
  0
ARC
  5
20E
330
1F
100
AcDbEntity
  8
0
  6
Continuous
 62
     7
370
     0
100
AcDbCircle
 10
254.3636740462
 20
33.1713865579
 30
0.0
 40
6.941163979328548
100
AcDbArc
 50
195.8074142097
 51
213.7463947732
  0
ARC
  5
20F
330
1F
100
AcDbEntity
  8
0
  6
Continuous
 62
     7
370
     0
100
AcDbCircle
 10
252.1697499565
 20
33.5589779939
 30
0.0
 40
7.681951740305128
100
AcDbArc
 50
196.1462579428
 51
212.8497821995
  0
OLE2FRAME
  5
210
330
1F
100
AcDbEntity
  8
0
100
AcDbOle2Frame
 70
     2
  3
Paintbrush-Bild
 10
13.8511154363
 20
38.264191557
 30
0.0
 11
51.6290888628
 21
31.9806341108
 31
0.0
 71
     2
 72
     0
 73
     1
 90
    12928
310
80552BED0767C5B32B40DDAF6807D121434000000000000000006FFBDDFB85D0
310
4940DDAF6807D121434000000000000000006FFBDDFB85D04940416F4BD60AFB
310
3F4000000000000000002BED0767C5B32B40416F4BD60AFB3F40000000000000
310
0000000000000100000000010000010000000100000000000100000000320000
310
D0CF11E0A1B11AE1000000000000000000000000000000003E000300FEFF0900
310
0600000000000000000000000100000001000000000000000010000002000000
310
01000000FEFFFFFF0000000000000000FFFFFFFFFFFFFFFFFFFFFFFFFFFFFFFF
310
FFFFFFFFFFFFFFFFFFFFFFFFFFFFFFFFFFFFFFFFFFFFFFFFFFFFFFFFFFFFFFFF
310
FFFFFFFFFFFFFFFFFFFFFFFFFFFFFFFFFFFFFFFFFFFFFFFFFFFFFFFFFFFFFFFF
310
FFFFFFFFFFFFFFFFFFFFFFFFFFFFFFFFFFFFFFFFFFFFFFFFFFFFFFFFFFFFFFFF
310
FFFFFFFFFFFFFFFFFFFFFFFFFFFFFFFFFFFFFFFFFFFFFFFFFFFFFFFFFFFFFFFF
310
FFFFFFFFFFFFFFFFFFFFFFFFFFFFFFFFFFFFFFFFFFFFFFFFFFFFFFFFFFFFFFFF
310
FFFFFFFFFFFFFFFFFFFFFFFFFFFFFFFFFFFFFFFFFFFFFFFFFFFFFFFFFFFFFFFF
310
FFFFFFFFFFFFFFFFFFFFFFFFFFFFFFFFFFFFFFFFFFFFFFFFFFFFFFFFFFFFFFFF
310
FFFFFFFFFFFFFFFFFFFFFFFFFFFFFFFFFFFFFFFFFFFFFFFFFFFFFFFFFFFFFFFF
310
FFFFFFFFFFFFFFFFFFFFFFFFFFFFFFFFFFFFFFFFFFFFFFFFFFFFFFFFFFFFFFFF
310
FFFFFFFFFFFFFFFFFFFFFFFFFFFFFFFFFFFFFFFFFFFFFFFFFFFFFFFFFFFFFFFF
310
FFFFFFFFFFFFFFFFFFFFFFFFFFFFFFFFFFFFFFFFFFFFFFFFFFFFFFFFFFFFFFFF
310
FFFFFFFFFFFFFFFFFFFFFFFFFFFFFFFFFFFFFFFFFFFFFFFFFFFFFFFFFFFFFFFF
310
FFFFFFFFFFFFFFFFFFFFFFFFFFFFFFFFFFFFFFFFFFFFFFFFFFFFFFFFFFFFFFFF
310
FDFFFFFFFEFFFFFFFEFFFFFFFEFFFFFF05000000060000000700000008000000
310
090000000A0000000B0000000C0000000D0000000E0000000F00000010000000
310
11000000120000001300000014000000150000001600000017000000FEFFFFFF
310
FFFFFFFFFFFFFFFFFFFFFFFFFFFFFFFFFFFFFFFFFFFFFFFFFFFFFFFFFFFFFFFF
310
FFFFFFFFFFFFFFFFFFFFFFFFFFFFFFFFFFFFFFFFFFFFFFFFFFFFFFFFFFFFFFFF
310
FFFFFFFFFFFFFFFFFFFFFFFFFFFFFFFFFFFFFFFFFFFFFFFFFFFFFFFFFFFFFFFF
310
FFFFFFFFFFFFFFFFFFFFFFFFFFFFFFFFFFFFFFFFFFFFFFFFFFFFFFFFFFFFFFFF
310
FFFFFFFFFFFFFFFFFFFFFFFFFFFFFFFFFFFFFFFFFFFFFFFFFFFFFFFFFFFFFFFF
310
FFFFFFFFFFFFFFFFFFFFFFFFFFFFFFFFFFFFFFFFFFFFFFFFFFFFFFFFFFFFFFFF
310
FFFFFFFFFFFFFFFFFFFFFFFFFFFFFFFFFFFFFFFFFFFFFFFFFFFFFFFFFFFFFFFF
310
FFFFFFFFFFFFFFFFFFFFFFFFFFFFFFFFFFFFFFFFFFFFFFFFFFFFFFFFFFFFFFFF
310
FFFFFFFFFFFFFFFFFFFFFFFFFFFFFFFFFFFFFFFFFFFFFFFFFFFFFFFFFFFFFFFF
310
FFFFFFFFFFFFFFFFFFFFFFFFFFFFFFFFFFFFFFFFFFFFFFFFFFFFFFFFFFFFFFFF
310
FFFFFFFFFFFFFFFFFFFFFFFFFFFFFFFFFFFFFFFFFFFFFFFFFFFFFFFFFFFFFFFF
310
FFFFFFFFFFFFFFFFFFFFFFFFFFFFFFFFFFFFFFFFFFFFFFFFFFFFFFFFFFFFFFFF
310
FFFFFFFFFFFFFFFFFFFFFFFFFFFFFFFFFFFFFFFFFFFFFFFFFFFFFFFFFFFFFFFF
310
52006F006F007400200045006E00740072007900000000000000000000000000
310
0000000000000000000000000000000000000000000000000000000000000000
310
16000500FFFFFFFFFFFFFFFF020000000A00030000000000C000000000000046
310
000000000000000000000000D00CBA11E71ED20103000000C000000000000000
310
01004F006C006500000000000000000000000000000000000000000000000000
310
0000000000000000000000000000000000000000000000000000000000000000
310
0A000200FFFFFFFFFFFFFFFFFFFFFFFF00000000000000000000000000000000
310
0000000000000000000000000000000000000000000000001400000000000000
310
010043006F006D0070004F0062006A0000000000000000000000000000000000
310
0000000000000000000000000000000000000000000000000000000000000000
310
120002010100000003000000FFFFFFFF00000000000000000000000000000000
310
0000000000000000000000000000000000000000010000004D00000000000000
310
01004F006C006500310030004E00610074006900760065000000000000000000
310
0000000000000000000000000000000000000000000000000000000000000000
310
1A000200FFFFFFFFFFFFFFFFFFFFFFFF00000000000000000000000000000000
310
0000000000000000000000000000000000000000040000002426000000000000
310
FEFFFFFF02000000FEFFFFFFFFFFFFFFFFFFFFFFFFFFFFFFFFFFFFFFFFFFFFFF
310
FFFFFFFFFFFFFFFFFFFFFFFFFFFFFFFFFFFFFFFFFFFFFFFFFFFFFFFFFFFFFFFF
310
FFFFFFFFFFFFFFFFFFFFFFFFFFFFFFFFFFFFFFFFFFFFFFFFFFFFFFFFFFFFFFFF
310
FFFFFFFFFFFFFFFFFFFFFFFFFFFFFFFFFFFFFFFFFFFFFFFFFFFFFFFFFFFFFFFF
310
FFFFFFFFFFFFFFFFFFFFFFFFFFFFFFFFFFFFFFFFFFFFFFFFFFFFFFFFFFFFFFFF
310
FFFFFFFFFFFFFFFFFFFFFFFFFFFFFFFFFFFFFFFFFFFFFFFFFFFFFFFFFFFFFFFF
310
FFFFFFFFFFFFFFFFFFFFFFFFFFFFFFFFFFFFFFFFFFFFFFFFFFFFFFFFFFFFFFFF
310
FFFFFFFFFFFFFFFFFFFFFFFFFFFFFFFFFFFFFFFFFFFFFFFFFFFFFFFFFFFFFFFF
310
FFFFFFFFFFFFFFFFFFFFFFFFFFFFFFFFFFFFFFFFFFFFFFFFFFFFFFFFFFFFFFFF
310
FFFFFFFFFFFFFFFFFFFFFFFFFFFFFFFFFFFFFFFFFFFFFFFFFFFFFFFFFFFFFFFF
310
FFFFFFFFFFFFFFFFFFFFFFFFFFFFFFFFFFFFFFFFFFFFFFFFFFFFFFFFFFFFFFFF
310
FFFFFFFFFFFFFFFFFFFFFFFFFFFFFFFFFFFFFFFFFFFFFFFFFFFFFFFFFFFFFFFF
310
FFFFFFFFFFFFFFFFFFFFFFFFFFFFFFFFFFFFFFFFFFFFFFFFFFFFFFFFFFFFFFFF
310
FFFFFFFFFFFFFFFFFFFFFFFFFFFFFFFFFFFFFFFFFFFFFFFFFFFFFFFFFFFFFFFF
310
FFFFFFFFFFFFFFFFFFFFFFFFFFFFFFFFFFFFFFFFFFFFFFFFFFFFFFFFFFFFFFFF
310
FFFFFFFFFFFFFFFFFFFFFFFFFFFFFFFFFFFFFFFFFFFFFFFFFFFFFFFFFFFFFFFF
310
0100000200000000000000000000000000000000000000000000000000000000
310
0000000000000000000000000000000000000000000000000000000000000000
310
0100FEFF030A0000FFFFFFFF0A00030000000000C00000000000004607000000
310
5042727573680007000000504272757368000700000050427275736800F439B2
310
7100000000000000000000000000000000000000000000000000000000000000
310
0000000000000000000000000000000000000000000000000000000000000000
310
0000000000000000000000000000000000000000000000000000000000000000
310
0000000000000000000000000000000000000000000000000000000000000000
310
0000000000000000000000000000000000000000000000000000000000000000
310
0000000000000000000000000000000000000000000000000000000000000000
310
0000000000000000000000000000000000000000000000000000000000000000
310
0000000000000000000000000000000000000000000000000000000000000000
310
0000000000000000000000000000000000000000000000000000000000000000
310
0000000000000000000000000000000000000000000000000000000000000000
310
0000000000000000000000000000000000000000000000000000000000000000
310
0000000000000000000000000000000000000000000000000000000000000000
310
20260000424D0E260000000000003E00000028000000B40200006E0000000100
310
01000000000000000000130B0000130B00000200000002000000000000FFFFFF
310
FFFFFFFFFFFFFFFFFFFFFFFFFFFFFFFFFFFFFFFFFFFFFFFFFFFFFFFFFFFFFFFF
310
FFFFFFFFFFFFFFFFFFFFFFFFFFFFFFFFFFFFFFFFFFFFFFFFFFFFFFFFFFFFFFFF
310
FFFFFFFFFFFFFFFFFFFFFFFFFFFFFFFFFFFFFFFFFFFFFFFFF000FFFFFFFFFFFF
310
FFFFFFFFFFFFFFFFFFFFFFFFFFFFFFFFFFFFFFFFFFFFFFFFFFFFFFFFFFFFFFFF
310
FFFFFFFFFFFFFFFFFFFFFFFFFFFFFFFFFFFFFFFFFFFFFFFFFFFFFFFFFFFFFFFF
310
FFFFFFFFFFFFFFFFFFFFFFFFFFFFFFFFF000FFFFFFFFFFFFFFFFFFFFFFFFFFFF
310
FFFFFFFFFFFFFFFFFFFFFFFFFFFFFFFFFFFFFFFFFFFFFFFFFFFFFFFFFFFFFFFF
310
FFFFFFFFFFFFFFFFFFFFFFFFFFFFFFFFFFFFFFFFFFFFFFFFFFFFFFFFFFFFFFFF
310
FFFFFFFFFFFFFFFFF000FFFFFFFFFFFFFFFFFFFFFFFFFFFFFFFFFFFFFFFFFFFF
310
FFFFFFFFFFFFFFFFFFFFFFFFFFFFFFFFFFFFFFFFFFFFFFFFFFFFFFFFFFFFFFFF
310
FFFFFFFFFFFFFFFFFFFFFFFFFFFFFFFFFFFFFFFFFFFFFFFFFFFFFFFFFFFFFFFF
310
F000FFFFFFFFFFFFFFFFFFFFFFFFFFFFFFFFFFFFFFFFFFFFFFFFFFFFFFFFFFFF
310
FFFFFFFFFFFFFFFFFFFFFFFFFFFFFFFFFFFFFFFFFFFFFFFFFFFFFFFFFFFFFFFF
310
FFFFFFFFFFFFFFFFFFFFFFFFFFFFFFFFFFFFFFFFFFFFFFFFF000FFFFFFFFFFFF
310
FFFFFFFFFFFFFFFFFFFFFFFFFFFFFFFFFFFFFFFFFFFFFFFFFFFFFFFFFFFFFFFF
310
FFFFFFFFFFFFFFFFFFFFFFFFFFFFFFFFFFFFFFFFFFFFFFFFFFFFFFFFFFFFFFFF
310
FFFFFFFFFFFFFFFFFFFFFFFFFFFFFFFFF000FFFFFFFFFFFFFFFFFFFFFFFFFFFF
310
FFFFFFFFFFFFFFFFFFFFFFFFFFFFFFFFFFFFFFFFFFFFFFFFFFFFFFFFFFFFFFFF
310
FFFFFFFFFFFFFFFFFFFFFFFFFFFFFFFFFFFFFFFFFFFFFFFFFFFFFFFFFFFFFFFF
310
FFFFFFFFFFFFFFFFF000FFFFFFFFFFFFFFFFFFFFFFFFFFFFFFFFFFFFFFFFFFFF
310
FFFFFFFFFFFFFFFFFFFFFFFFFFFFFFFFFFFFFFFFFFFFFFFFFFFFFFFFFFFFFFFF
310
FFFFFFFFFFFFFFFFFFFFFFFFFFFFFFFFFFFFFFFFFFFFFFFFFFFFFFFFFFFFFFFF
310
F000FFFFFFFFFFFFFFFFFFFFFFFFFFFFFFFFFFFFFFFFFFFFFFFFFFFFFFFFFFFF
310
FFFFFFFFFFFFFFFFFFFFFFFFFFFFFFFFFFFFFFFFFFFFFFFFFFFFFFFFFFFFFFFF
310
FFFFFFFFFFFFFFFFFFFFFFFFFFFFFFFFFFFFFFFFFFFFFFFFF000FFFFFFFFFFFF
310
FFFFFFFFFFFFFFFFFFFFFFFFFFFFFFFFFFFFFFFFFFFFFFFFFFFFFFFFFFFFFFFF
310
FFFFFFFFFFFFFFFFFFFFFFFFFFFFFFFFFFFFFFFFFFFFFFFFFFFFFFFFFFFFFFFF
310
FFFFFFFFFFFFFFFFFFFFFFFFFFFFFFFFF000FFFFFFFFFFFFFFFFFFFFFFFFFFFF
310
FFFFFFFFFFFFFFFFFFFFFFFFFFFFFFFFFFFFFFFFFFFFFFFFFFFFFFFFFFFFFFFF
310
FFFFFFFFFFFFFFFFFFFFFFFFFFFFFFFFFFFFFFFFFFFFFFFFFFFFFFFFFFFFFFFF
310
FFFFFFFFFFFFFFFFF000FFFFFFFFFFFFFFFFFFFFFFFFFFFFFFFFFFFFFFFFFFFF
310
FFFFFFFFFFFFFFFFFFFFFFFFFFFFFFFFFFFFFFFFFFFFFFFFFFFFFFFFFFFFFFFF
310
FFFFFFFFFFFFFFFFFFFFFFFFFFFFFFFFFFFFFFFFFFFFFFFFFFFFFFFFFFFFFFFF
310
F000FFFFFFFFFFFFFFFFFFFFFFFFFFFFFFFFFFFFFFFFFFFFFFFFFFFFFFFFFFFF
310
FFFFFFFFFFFFFFFFFFFFFFFFFFFFFFFFFFFFFFFFFFFFFFFFFFFFFFFFFFFFFFFF
310
FFFFFFFFFFFFFFFFFFFFFFFFFFFFFFFFFFFFFFFFFFFFFFFFF000FFFFFFFFFFFF
310
FFFFFFFFFFFFFFFFFFFFFFFFFFFFFFFFFFFFFFFFFFFFFFFFFFFFFFFFFFFFFFFF
310
FFFFFFFFFFFFFFFFFFFFFFFFFFFFFFFFFFFFFFFFFFFFFFFFFFFFFFFFFFFFFFFF
310
FFFFFFFFFFFFFFFFFFFFFFFFFFFFFFFFF000FFFFFFFFFFFFFFFFFFFFFFFFFFFF
310
FFFFFFFFFFFFFFFFFFFFFFFFFFFFFFFFFFFFFFFFFFFFFFFFFFFFFFFFFFFFFFFF
310
FFFFFFFFFFFFFFFFFFFFFFFFFFFFFFFFFFFFFFFFFFFFFFFFFFFFFFFFFFFFFFFF
310
FFFFFFFFFFFFFFFFF000FFFFFFFFFFFFFFFFFFFFFFFFFFFFFFFFFFFFFFFFFFFF
310
FFFFFFFFFFFFFFFFFFFFFFFFFFFFFFFFFFFFFFFFFFFFFFFFFFFFFFFFFFFFFFFF
310
FFFFFFFFFFFFFFFFFFFFFFFFFFFFFFFFFFFFFFFFFFFFFFFFFFFFFFFFFFFFFFFF
310
F000FFFFFFFFFFFFFFFFFFFFFFFFFFFFFFFFFFFFFFFFFFFFFFFFFFFFFFFFFFFF
310
FFFFFFFFFFFFFFFFFFFFFFFFFFFFFFFFFFFFFFFFFFFFFFFFFFFFFFFFFFFFFFFF
310
FFFFFFFFFFFFFFFFFFFFFFFFFFFFFFFFFFFFFFFFFFFFFFFFF000FFFFFFFFFFFF
310
FFFFFFFFFFFFFFFFFFFFFFFFFFFFFFFFFFFFFFFFFFFFFFFFFFFFFFFFFFFFFFFF
310
FFFFFFFFFFFFFFFFFFFFFFFFFFFFFFFFFFFFFFFFFFFFFFFFFFFFFFFFFFFFFFFF
310
FFFFFFFFFFFFFFFFFFFFFFFFFFFFFFFFF000FFFFFFFFFFFFFFFFFFFFFFFFFFFF
310
FFFFFFFFFFFFFFFFFFFFFFFFFFFFFFFFFFFFFFFFFFFFFFFFFFFFFFFFFFFFFFFF
310
FFFFFFFFFFFFFFFFFFFFFFFFFFFFFFFFFFFFFFFFFFFFFFFFFFFFFFFFFFFFFFFF
310
FFFFFFFFFFFFFFFFF000FFFFF80003FFFFFFFFFFFFFFFFFFFFFFFFFFFFFFFFFF
310
FFFFF00007FFFFFFFFFF00007FFFFFF800000000000000007FFFFFFFFFFFFFFF
310
FFFFFFFC001FFFFFFFFFFFFFFC001FFFFFFFFFFFFFFFFFFFFFFFFFFE0007FFFF
310
F000FFFF8000007FFFFFFFF8000FFFFFC0007FFFFF80007FFFFF0000007FFFFF
310
FFF8000007FFFFF800000000000000007FFFFFF0001FFFFFFFFFFFC00001FFFF
310
FFFFFFFFC00001FFFFFFFF000000000003FFFFE000007FFFF000FFFE0000000F
310
FFFFFFF0000FFFFF80007FFFFF80007FFFFC0000001FFFFFFFC0000001FFFFF8
310
00000000000000007FFFFFF0001FFFFFFFFFFE0000003FFFFFFFFFFE0000003F
310
FFFFFF000000000003FFFF0000000FFFF000FFF800000003FFFFFFF00007FFFF
310
80007FFFFF80007FFFF000000007FFFFFF000000003FFFF80000000000000000
310
7FFFFFF0001FFFFFFFFFF80000000FFFFFFFFFF80000000FFFFFFF0000000000
310
03FFFC00000003FFF000FFE000000000FFFFFFF00007FFFF80003FFFFF80007F
310
FFC000000001FFFFFC000000001FFFF800000000000000007FFFFFF0001FFFFF
310
FFFFE000000003FFFFFFFFE000000003FFFFFF000000000003FFF000000000FF
310
F000FF80000000007FFFFFF00007FFFF80003FFFFF80007FFF8000000000FFFF
310
F80000000007FFF800000000000000007FFFFFF0001FFFFFFFFFC000000001FF
310
FFFFFFC000000001FFFFFF000000000003FFC0000000007FF000FF0000000000
310
3FFFFFE00007FFFF00003FFFFF80007FFE00000000003FFFF00000000003FFF8
310
00000000000000007FFFFFF0001FFFFFFFFF8000000000FFFFFFFF8000000000
310
FFFFFF000000000003FF80000000003FF000FE00000000001FFFFFE00003FFFF
310
00003FFFFF80007FFC00000000001FFFE00000000001FFF8000001FFFE000000
310
7FFFFFF0001FFFFFFFFE00000000003FFFFFFE00000000003FFFFF0000000000
310
03FF00000000001FF000FC00000000000FFFFFE00003FFFF00001FFFFF80007F
310
F800000000001FFFC00000000000FFF8000001FFFE0000007FFFFFF0001FFFFF
310
FFFC00000000001FFFFFFC00000000001FFFFF000000000003FE00000000000F
310
F000F8000000000007FFFFE00003FFFF00001FFFFF80007FF800000000000FFF
310
800000000000FFF8000001FFFE0000007FFFFFF0001FFFFFFFF800000000000F
310
FFFFF800000000000FFFFF000000000003FC000000000007F000F80000000000
310
03FFFFC00003FFFE00001FFFFF80007FF0000000000007FF0000000000007FF8
310
000001FFFE0000007FFFFFF0001FFFFFFFF0000000000007FFFFF00000000000
310
07FFFF000000000003F8000000000003F000F0000000000003FFFFC00001FFFE
310
00001FFFFF80007FE0000000000007FE0000000000003FF8000001FFFE000000
310
7FFFFFF0001FFFFFFFF0000000000007FFFFF0000000000007FFFF0000000000
310
03F800001F800003F000E00001FFF00001FFFFC00001FFFE00000FFFFF80007F
310
E00001FFE00003FE00001FFF00003FF8000001FFFE0000007FFFFFF0001FFFFF
310
FFE000003E000003FFFFE000003E000003FFFF000000000003F00001FFF80001
310
F000E00007FFFC0001FFFFC00001FFFE00000FFFFF80007FC0000FFFFC0003FC
310
0000FFFFC0001FF8000001FFFE0000007FFFFFF0001FFFFFFFC00003FFE00001
310
FFFFC00003FFE00001FFFF0001FFFFFFFFF00007FFFE0001F000E0000FFFFF00
310
00FFFF800001FFFC00000FFFFF80007FC0001FFFFE0001FC0001FFFFE0001FF8
310
000001FFFE0000007FFFFFF0001FFFFFFF80000FFFF80000FFFF80000FFFF800
310
00FFFF0003FFFFFFFFE0000FFFFF8000F000C0003FFFFF8000FFFF800000FFFC
310
000007FFFF80007F80003FFFFF0001FC0003FFFFF0001FF8000001FFFE000000
310
7FFFFFF0001FFFFFFF80003FFFFE0000FFFF80003FFFFE0000FFFF0003FFFFFF
310
FFE0003FFFFF8000F000C0003FFFFF8000FFFF800000FFFC000007FFFF80007F
310
80007FFFFF8001F80007FFFFF8000FF8000001FFFE0000007FFFFFF0001FFFFF
310
FF00007FFFFF00007FFF00007FFFFF00007FFF0003FFFFFFFFE0003FFFFFC000
310
F000C0007FFFFFC000FFFF000000FFFC000007FFFF80007F8000FFFFFF8000F8
310
000FFFFFF8000FF8000001FFFE0000007FFFFFF0001FFFFFFF0000FFFFFF8000
310
7FFF0000FFFFFF80007FFF0003FFFFFFFFC0007FFFFFC00070008000FFFFFFC0
310
00FFFF000000FFF8000007FFFF80007F8000FFFFFF8000F8000FFFFFF8000FF8
310
000001FFFE0000007FFFFFF0001FFFFFFE0001FFFFFFC0003FFE0001FFFFFFC0
310
003FFF0003FFFFFFFFC0007FFFFFE00070008000FFFFFFC0007FFF0000007FF8
310
000003FFFF80007F0001FFFFFF8000F8000FFFFFF8000FF8000001FFFE000000
310
7FFFFFF0001FFFFFFE0001FFFFFFC0003FFE0001FFFFFFC0003FFF0003FFFFFF
310
FFC000FFFFFFE00070008000FFFFFFC0007FFF0000007FF8000003FFFF80007F
310
0001FFFFFF8000F8001FFFFFF8000FF8000001FFFE0000007FFFFFF0001FFFFF
310
FE0003FFFFFFE0003FFE0003FFFFFFE0003FFF0003FFFFFFFFC000FFFFFFE000
310
70008000FFFFFFC0007FFE0000007FF8000003FFFF80007F0001FFFFFF8000F0
310
001FFFFFF8000FF8000001FFFE0000007FFFFFF0001FFFFFFC0003FFFFFFE000
310
1FFC0003FFFFFFE0001FFF0003FFFFFFFFC000FFFFFFC00070008000FFFFFF80
310
007FFE0000007FF0000003FFFF80007F0001FFFFFF0000F0001FFFFFF8000FF8
310
000001FFFE0000007FFFFFF0001FFFFFFC0007FFFFFFF0001FFC0007FFFFFFF0
310
001FFF0003FFFFFFFFC000FFFFFFC00070008001FFFFFF0000FFFE0000003FF0
310
000001FFFF80007F0001FFFFFF0000F8001FFFFFF0000FF8000001FFFE000000
310
7FFFFFF0001FFFFFFC0007FFFFFFF0001FFC0007FFFFFFF0001FFF0003FFFFFF
310
FFC001FFFFFF80007000FFFFFFFFFE0000FFFE0008003FF0008001FFFF80007F
310
FFFFFFFFFC0000FFFFFFFFFFE0000FF8000001FFFE0000007FFFFFF0001FFFFF
310
F8000FFFFFFFF8000FF8000FFFFFFFF8000FFF0003FFFFFFFFFFFFFFFFFF0000
310
7000FFFFFFFFFC0000FFFC0008003FF0008001FFFF80007FFFFFFFFFF80001FF
310
FFFFFFFF80000FF8000001FFFE0000007FFFFFF0001FFFFFF8000FFFFFFFF800
310
0FF8000FFFFFFFF8000FFF0003FFFFFFFFFFFFFFFFFE0000F000FFFFFFFFE000
310
00FFFC000C003FE000C001FFFF80007FFFFFFFFFC00001FFFFFFFFFE00001FF8
310
000001FFFE0000007FFFFFF0001FFFFFF8000FFFFFFFF8000FF8000FFFFFFFF8
310
000FFF0003FFFFFFFFFFFFFFFFF00000F000FFFFFFFE000001FFFC000C001FE0
310
00C000FFFF80007FFFFFFFFE000001FFFFFFFFE000001FF80FFFFFFFFFFFFFC0
310
7FFFFFF0001FFFFFF8000FFFFFFFF8000FF8000FFFFFFFF8000FFF0003FFFFFF
310
FFFFFFFFFF800000F000FFFFFFC0000001FFFC001C001FE001C000FFFF80007F
310
FFFFFF80000003FFFFFFF80000001FF80FFFFFFFFFFFFFC07FFFFFF0001FFFFF
310
F8001FFFFFFFFC000FF8001FFFFFFFFC000FFF0003FFFFFFFFFFFFFFF0000001
310
F000FFFFF800000001FFF8001C001FE001C000FFFF80007FFFFFF800000003FF
310
FFFF800000003FF80FFFFFFFFFFFFFC07FFFFFF0001FFFFFF8001FFFFFFFFC00
310
0FF8001FFFFFFFFC000FFF0003FFFFFFFFFFFFFE00000001F000FFFFC0000000
310
03FFF8001E001FC001E000FFFF80007FFFFF8000000007FFFFFC000000003FF8
310
0FFFFFFFFFFFFFC07FFFFFF0001FFFFFF8001FFFFFFFFC000FF8001FFFFFFFFC
310
000FFF0003FFFFFFFFFFFFE000000003F000FFFE0000000007FFF8001E000FC0
310
01E0007FFF80007FFFFE0000000007FFFFE0000000007FF80FFFFFFFFFFFFFC0
310
7FFFFFF0001FFFFFF0001FFFFFFFFC0007F0001FFFFFFFFC0007FF0003FFFFFF
310
FFFFFF0000000003F000FFF80000000007FFF8001E000FC003E0007FFF80007F
310
FFF0000000000FFFFF8000000000FFF80FFFFFFFFFFFFFC07FFFFFF0001FFFFF
310
F0001FFFFFFFFC0007F0001FFFFFFFFC0007FF0003FFFFFFFFFFFC0000000007
310
F000FFE0000000000FFFF0003E000FC003E0007FFF80007FFFC0000000001FFF
310
FE0000000001FFF80FFFFFFFFFFFFFC07FFFFFF0001FFFFFF0001FFFFFFFFC00
310
07F0001FFFFFFFFC0007FF0003FFFFFFFFFFF0000000000FF000FFC000000000
310
1FFFF0003F000F8003F0003FFF80007FFF80000000003FFFF80000000003FFF8
310
0FFFFFFFFFFFFFC07FFFFFF0001FFFFFF0001FFFFFFFFC0007F0001FFFFFFFFC
310
0007FF0003FFFFFFFFFFE0000000001FF000FF00000000007FFFF0003F000780
310
03F0003FFF80007FFF00000000007FFFF00000000007FFF80FFFFFFFFFFFFFC0
310
7FFFFFF0001FFFFFF0001FFFFFFFFC0007F0001FFFFFFFFC0007FF0003FFFFFF
310
FFFF80000000007FF000FE0000000000FFFFE0003F00078007F0003FFF80007F
310
FE0000000001FFFFE0000000001FFFF80FFFFFFFFFFFFFC07FFFFFF0001FFFFF
310
F0001FFFFFFFFC0007F0001FFFFFFFFC0007FF0003FFFFFFFFFF0000000000FF
310
F000FC0000000003FFFFE0007F00078007F0003FFF80007FFC0000000007FFFF
310
C0000000007FFFF80FFFFFFFFFFFFFC07FFFFFF0001FFFFFF8001FFFFFFFFC00
310
0FF8001FFFFFFFFC000FFF0003FFFFFFFFFE0000000003FFF000FC000000000F
310
FFFFE0007F80070007F8001FFF80007FF8000000001FFFFF8000000001FFFFF8
310
0FFFFFFFFFFFFFC07FFFFFF0001FFFFFF8001FFFFFFFFC000FF8001FFFFFFFFC
310
000FFF0003FFFFFFFFFC000000000FFFF000F8000000007FFFFFE0007F800700
310
07F8001FFF80007FF000000000FFFFFF800000000FFFFFF80FFFFFFFFFFFFFC0
310
7FFFFFF0001FFFFFF8000FFFFFFFF8000FF8000FFFFFFFF8000FFF0003FFFFFF
310
FFFC000000007FFFF000F800000007FFFFFFC0007F8003000FF8001FFF80007F
310
F000000007FFFFFF000000007FFFFFF80FFFFFFFFFFFFFC07FFFFFF0001FFFFF
310
F8000FFFFFFFF8000FF8000FFFFFFFF8000FFF0003FFFFFFFFF80000000FFFFF
310
F000F0000000FFFFFFFFC000FF8003000FF8001FFF80007FE0000000FFFFFFFF
310
0000000FFFFFFFF8000001FFFE0000007FFFFFF0001FFFFFF8000FFFFFFFF800
310
0FF8000FFFFFFFF8000FFF0003FFFFFFFFF8000000FFFFFFF000F000000FFFFF
310
FFFFC000FFC002000FF8000FFF80007FE000001FFFFFFFFE000001FFFFFFFFF8
310
000001FFFE0000007FFFFFF0001FFFFFF8000FFFFFFFF8000FF8000FFFFFFFF8
310
000FFF0003FFFFFFFFF000001FFFFFFFF000E00000FFFFFFFFFFC000FFC00200
310
0FFC000FFF80007FE00001FFFFFFFFFE00001FFFFFFFFFF8000001FFFE000000
310
7FFFFFF0001FFFFFFC000FFFFFFFF8001FFC000FFFFFFFF8001FFF0003FFFFFF
310
FFF00001FFFFFFFFF000E00007FFFFFFFFFF8000FFC000001FFC000FFF80007F
310
C0000FFFFFFFFFFE0000FFFFFFFFFFF8000001FFFE0000007FFFFFF0001FFFFF
310
FC0007FFFFFFF0001FFC0007FFFFFFF0001FFF0003FFFFFFFFF00007FFFFFFFF
310
F000E0001FFFFFFFFFFF8000FFC000001FFC000FFF80007FC0003FFFFFFFFFFE
310
0001FFFFFFFFFFF8000001FFFE0000007FFFFFF0001FFFFFFC0007FFFFFFF000
310
1FFC0007FFFFFFF0001FFF0003FFFFFFFFF0001FFFFFFFFFF000E0003FFFFF00
310
03FF8001FFE000001FFC0007FF80007FC0007FFFFF0007FC0003FFFFF0003FF8
310
000001FFFE0000007FFFFFF0001FFFFFFC0003FFFFFFE0001FFC0003FFFFFFE0
310
001FFF0003FFFFFFFFF0003FFFFFFFFFF000E0003FFFFF0001FF8001FFE00000
310
1FFE0007FF80007FC0007FFFFE0003FC0007FFFFE0003FF8000001FFFE000000
310
7FFFFFF0001FFFFFFE0003FFFFFFE0003FFE0003FFFFFFE0003FFF0003FFFFFF
310
FFF0003FFFFF8001F000E0003FFFFF0001FF0001FFE000001FFE0007FF80007F
310
C0007FFFFE0003FC0007FFFFE0003FF8000001FFFE0000007FFFFFF0001FFFFF
310
FE0001FFFFFFC0003FFE0001FFFFFFC0003FFF0003FFFFFFFFF0003FFFFF0001
310
F000E0003FFFFF0003FF0001FFE000003FFE0007FF80007FC0007FFFFE0003FC
310
0007FFFFE0003FF8000001FFFE0000007FFFFFF0001FFFFFFF0001FFFFFFC000
310
7FFF0001FFFFFFC0007FFF0003FFFFFFFFF0003FFFFF0001F000E0003FFFFE00
310
03FF0003FFF000003FFE0003FF80007FC0007FFFFC0003FE0007FFFFE0003FF8
310
000001FFFE0000007FFFFFF0001FFFFFFF0000FFFFFF80007FFF0000FFFFFF80
310
007FFF0003FFFFFFFFF0003FFFFF0001F000E0003FFFFE0003FF0003FFF00000
310
3FFF0003FF80007FC0007FFFFC0007FE0007FFFFC0003FF8000001FFFE000000
310
7FFFFFF0001FFFFFFF80007FFFFF0000FFFF80007FFFFF0000FFFF0003FFFFFF
310
FFF0003FFFFF0003F000E0003FFFFC0003FE0003FFF000003FFF0003FF80007F
310
E0003FFFF80007FE0003FFFFC0007FF8000001FFFE0000007FFFFFF0001FFFFF
310
FF80003FFFFE0000FFFF80003FFFFE0000FFFF0003FFFFFFFFF0001FFFFE0003
310
F000F0001FFFF80003FE0003FFF000007FFF0001FF80007FE0003FFFF00007FE
310
0001FFFF80007FF8000001FFFE0000007FFFFFF0001FFFFFFFC0000FFFF80001
310
FFFFC0000FFFF80001FFFF0003FFFFFFFFF0001FFFFC0003F000F0000FFFF000
310
07FE0007FFF800007FFF0001FF80007FE0001FFFE00007FF0000FFFE00007FF8
310
000001FFFE0000007FFFFFF0001FFFFFFFC00003FFE00001FFFFC00003FFE000
310
01FFFF0003FFFFFFFFF8000FFFF80003F000F00003FFC00007FC0007FFF80000
310
7FFF8001FF80007FF00007FF80000FFF00007FF80000FFF8000001FFFE000000
310
7F80000000000001FFE000003E000003FFFFE000003E000003FFFF0003FFFFFF
310
FFF80003FFE00007F000F800000000000FFC0007FFF800007FFF8001FF80007F
310
F000000000000FFF000000000000FFF8000001FFFE0000007F80000000000001
310
FFF0000000000007FFFFF0000000000007FFFF0003FFFFFFFFFC00007E000007
310
F000F800000000000FFC0007FFF80000FFFF8000FF80007FF800000000001FFF
310
800000000001FFF8000001FFFE0000007F80000000000001FFF800000000000F
310
FFFFF800000000000FFFFF0003FFFFFFFFFC00000000000FF000FC0000000000
310
1FFC0007FFFC0000FFFF8000FF80007FF800000000003FFFC00000000001FFF8
310
000001FFFE0000007F80000000000001FFF800000000000FFFFFF80000000000
310
0FFFFF0003FFFFFFFFFE00000000001FF000FE00000000003FF8000FFFFC0000
310
FFFF8000FF80007FFC00000000003FFFC00000000003FFF8000001FFFE000000
310
7F80000000000001FFFC00000000001FFFFFFC00000000001FFFFF0003FFFFFF
310
FFFF00000000001FF000FF00000000003FF8000FFFFC0000FFFFC000FF80007F
310
FE00000000007FFFE00000000007FFF8000001FFFE0000007F80000000000001
310
FFFE00000000003FFFFFFE00000000003FFFFF0003FFFFFFFFFF80000000003F
310
F000FF80000000007FF8000FFFFC0001FFFFC0007F80007FFF0000000000FFFF
310
F0000000000FFFF800000000000000007F80000000000001FFFF8000000000FF
310
FFFFFF8000000000FFFFFF0003FFFFFFFFFFC0000000007FF000FFC000000000
310
FFF8000FFFFE0001FFFFC0007F80007FFF8000000001FFFFF8000000001FFFF8
310
00000000000000007F80000000000001FFFFC000000001FFFFFFFFC000000001
310
FFFFFF0003FFFFFFFFFFE000000000FFF000FFE000000003FFF0001FFFFE0001
310
FFFFC0007F80007FFFC000000007FFFFFE000000003FFFF80000000000000000
310
7F80000000000001FFFFE000000003FFFFFFFFE000000003FFFFFF0003FFFFFF
310
FFFFF000000003FFF000FFF80000000FFFF0001FFFFE0001FFFFE0007F80007F
310
FFF00000000FFFFFFF00000000FFFFF800000000000000007F80000000000001
310
FFFFF80000000FFFFFFFFFF80000000FFFFFFF0003FFFFFFFFFFFC0000000FFF
310
F000FFFE0000003FFFF0001FFFFE0003FFFFE0003F80007FFFFC0000003FFFFF
310
FFC0000003FFFFF800000000000000007F80000000000001FFFFFE0000003FFF
310
FFFFFFFE0000003FFFFFFF0003FFFFFFFFFFFF0000003FFFF000FFFF800000FF
310
FFF0001FFFFF0003FFFFE0003F80007FFFFF000001FFFFFFFFF800001FFFFFF8
310
00000000000000007F80000000000001FFFFFFC00001FFFFFFFFFFFFC00001FF
310
FFFFFF0003FFFFFFFFFFFFC00000FFFFF000FFFFF8000FFFFFFFFFFFFFFFFFFF
310
FFFFFFFFFFFFFFFFFFFFF0001FFFFFFFFFFF0000FFFFFFF80000000000000000
310
7FFFFFFFFFFFFFFFFFFFFFFC001FFFFFFFFFFFFFFC001FFFFFFFFFFFFFFFFFFF
310
FFFFFFFC001FFFFFF000FFFFFFFFFFFFFFFFFFFFFFFFFFFFFFFFFFFFFFFFFFFF
310
FFFFFFFFFFFFFFFFFFFFFFFFFFFFFFFFFFFFFFFFFFFFFFFFFFFFFFFFFFFFFFFF
310
FFFFFFFFFFFFFFFFFFFFFFFFFFFFFFFFFFFFFFFFFFFFFFFFFFFFFFFFFFFFFFFF
310
F000FFFFFFFFFFFFFFFFFFFFFFFFFFFFFFFFFFFFFFFFFFFFFFFFFFFFFFFFFFFF
310
FFFFFFFFFFFFFFFFFFFFFFFFFFFFFFFFFFFFFFFFFFFFFFFFFFFFFFFFFFFFFFFF
310
FFFFFFFFFFFFFFFFFFFFFFFFFFFFFFFFFFFFFFFFFFFFFFFFF000FFFFFFFFFFFF
310
FFFFFFFFFFFFFFFFFFFFFFFFFFFFFFFFFFFFFFFFFFFFFFFFFFFFFFFFFFFFFFFF
310
FFFFFFFFFFFFFFFFFFFFFFFFFFFFFFFFFFFFFFFFFFFFFFFFFFFFFFFFFFFFFFFF
310
FFFFFFFFFFFFFFFFFFFFFFFFFFFFFFFFF000FFFFFFFFFFFFFFFFFFFFFFFFFFFF
310
FFFFFFFFFFFFFFFFFFFFFFFFFFFFFFFFFFFFFFFFFFFFFFFFFFFFFFFFFFFFFFFF
310
FFFFFFFFFFFFFFFFFFFFFFFFFFFFFFFFFFFFFFFFFFFFFFFFFFFFFFFFFFFFFFFF
310
FFFFFFFFFFFFFFFFF000FFFFFFFFFFFFFFFFFFFFFFFFFFFFFFFFFFFFFFFFFFFF
310
FFFFFFFFFFFFFFFFFFFFFFFFFFFFFFFFFFFFFFFFFFFFFFFFFFFFFFFFFFFFFFFF
310
FFFFFFFFFFFFFFFFFFFFFFFFFFFFFFFFFFFFFFFFFFFFFFFFFFFFFFFFFFFFFFFF
310
F000FFFFFFFFFFFFFFFFFFFFFFFFFFFFFFFFFFFFFFFFFFFFFFFFFFFFFFFFFFFF
310
FFFFFFFFFFFFFFFFFFFFFFFFFFFFFFFFFFFFFFFFFFFFFFFFFFFFFFFFFFFFFFFF
310
FFFFFFFFFFFFFFFFFFFFFFFFFFFFFFFFFFFFFFFFFFFFFFFFF000FFFFFFFFFFFF
310
FFFFFFFFFFFFFFFFFFFFFFFFFFFFFFFFFFFFFFFFFFFFFFFFFFFFFFFFFFFFFFFF
310
FFFFFFFFFFFFFFFFFFFFFFFFFFFFFFFFFFFFFFFFFFFFFFFFFFFFFFFFFFFFFFFF
310
FFFFFFFFFFFFFFFFFFFFFFFFFFFFFFFFF000FFFFFFFFFFFFFFFFFFFFFFFFFFFF
310
FFFFFFFFFFFFFFFFFFFFFFFFFFFFFFFFFFFFFFFFFFFFFFFFFFFFFFFFFFFFFFFF
310
FFFFFFFFFFFFFFFFFFFFFFFFFFFFFFFFFFFFFFFFFFFFFFFFFFFFFFFFFFFFFFFF
310
FFFFFFFFFFFFFFFFF000FFFFFFFFFFFFFFFFFFFFFFFFFFFFFFFFFFFFFFFFFFFF
310
FFFFFFFFFFFFFFFFFFFFFFFFFFFFFFFFFFFFFFFFFFFFFFFFFFFFFFFFFFFFFFFF
310
FFFFFFFFFFFFFFFFFFFFFFFFFFFFFFFFFFFFFFFFFFFFFFFFFFFFFFFFFFFFFFFF
310
F000FFFFFFFFFFFFFFFFFFFFFFFFFFFFFFFFFFFFFFFFFFFFFFFFFFFFFFFFFFFF
310
FFFFFFFFFFFFFFFFFFFFFFFFFFFFFFFFFFFFFFFFFFFFFFFFFFFFFFFFFFFFFFFF
310
FFFFFFFFFFFFFFFFFFFFFFFFFFFFFFFFFFFFFFFFFFFFFFFFF000FFFFFFFFFFFF
310
FFFFFFFFFFFFFFFFFFFFFFFFFFFFFFFFFFFFFFFFFFFFFFFFFFFFFFFFFFFFFFFF
310
FFFFFFFFFFFFFFFFFFFFFFFFFFFFFFFFFFFFFFFFFFFFFFFFFFFFFFFFFFFFFFFF
310
FFFFFFFFFFFFFFFFFFFFFFFFFFFFFFFFF000FFFFFFFFFFFFFFFFFFFFFFFFFFFF
310
FFFFFFFFFFFFFFFFFFFFFFFFFFFFFFFFFFFFFFFFFFFFFFFFFFFFFFFFFFFFFFFF
310
FFFFFFFFFFFFFFFFFFFFFFFFFFFFFFFFFFFFFFFFFFFFFFFFFFFFFFFFFFFFFFFF
310
FFFFFFFFFFFFFFFFF000FFFFFFFFFFFFFFFFFFFFFFFFFFFFFFFFFFFFFFFFFFFF
310
FFFFFFFFFFFFFFFFFFFFFFFFFFFFFFFFFFFFFFFFFFFFFFFFFFFFFFFFFFFFFFFF
310
FFFFFFFFFFFFFFFFFFFFFFFFFFFFFFFFFFFFFFFFFFFFFFFFFFFFFFFFFFFFFFFF
310
F000FFFFFFFFFFFFFFFFFFFFFFFFFFFFFFFFFFFFFFFFFFFFFFFFFFFFFFFFFFFF
310
FFFFFFFFFFFFFFFFFFFFFFFFFFFFFFFFFFFFFFFFFFFFFFFFFFFFFFFFFFFFFFFF
310
FFFFFFFFFFFFFFFFFFFFFFFFFFFFFFFFFFFFFFFFFFFFFFFFF000FFFFFFFFFFFF
310
FFFFFFFFFFFFFFFFFFFFFFFFFFFFFFFFFFFFFFFFFFFFFFFFFFFFFFFFFFFFFFFF
310
FFFFFFFFFFFFFFFFFFFFFFFFFFFFFFFFFFFFFFFFFFFFFFFFFFFFFFFFFFFFFFFF
310
FFFFFFFFFFFFFFFFFFFFFFFFFFFFFFFFF000FFFFFFFFFFFFFFFFFFFFFFFFFFFF
310
FFFFFFFFFFFFFFFFFFFFFFFFFFFFFFFFFFFFFFFFFFFFFFFFFFFFFFFFFFFFFFFF
310
FFFFFFFFFFFFFFFFFFFFFFFFFFFFFFFFFFFFFFFFFFFFFFFFFFFFFFFFFFFFFFFF
310
FFFFFFFFFFFFFFFFF000FFFFFFFFFFFFFFFFFFFFFFFFFFFFFFFFFFFFFFFFFFFF
310
FFFFFFFFFFFFFFFFFFFFFFFFFFFFFFFFFFFFFFFFFFFFFFFFFFFFFFFFFFFFFFFF
310
FFFFFFFFFFFFFFFFFFFFFFFFFFFFFFFFFFFFFFFFFFFFFFFFFFFFFFFFFFFFFFFF
310
F000FFFFFFFFFFFFFFFFFFFFFFFFFFFFFFFFFFFFFFFFFFFFFFFFFFFFFFFFFFFF
310
FFFFFFFFFFFFFFFFFFFFFFFFFFFFFFFFFFFFFFFFFFFFFFFFFFFFFFFFFFFFFFFF
310
FFFFFFFFFFFFFFFFFFFFFFFFFFFFFFFFFFFFFFFFFFFFFFFFF000FFFFFFFFFFFF
310
FFFFFFFFFFFFFFFFFFFFFFFFFFFFFFFFFFFFFFFFFFFFFFFFFFFFFFFFFFFFFFFF
310
FFFFFFFFFFFFFFFFFFFFFFFFFFFFFFFFFFFFFFFFFFFFFFFFFFFFFFFFFFFFFFFF
310
FFFFFFFFFFFFFFFFFFFFFFFFFFFFFFFFF000FFFFFFFFFFFFFFFFFFFFFFFFFFFF
310
FFFFFFFFFFFFFFFFFFFFFFFFFFFFFFFFFFFFFFFFFFFFFFFFFFFFFFFFFFFFFFFF
310
FFFFFFFFFFFFFFFFFFFFFFFFFFFFFFFFFFFFFFFFFFFFFFFFFFFFFFFFFFFFFFFF
310
FFFFFFFFFFFFFFFFF000FFFFFFFFFFFFFFFFFFFFFFFFFFFFFFFFFFFFFFFFFFFF
310
FFFFFFFFFFFFFFFFFFFFFFFFFFFFFFFFFFFFFFFFFFFFFFFFFFFFFFFFFFFFFFFF
310
FFFFFFFFFFFFFFFFFFFFFFFFFFFFFFFFFFFFFFFFFFFFFFFFFFFFFFFFFFFFFFFF
310
F000FFFFFFFFFFFFFFFFFFFFFFFFFFFFFFFFFFFFFFFFFFFFFFFFFFFFFFFFFFFF
310
FFFFFFFFFFFFFFFFFFFFFFFFFFFFFFFFFFFFFFFFFFFFFFFFFFFFFFFFFFFFFFFF
310
FFFFFFFFFFFFFFFFFFFFFFFFFFFFFFFFFFFFFFFFFFFFFFFFF000FFFFFFFFFFFF
310
FFFFFFFFFFFFFFFFFFFFFFFFFFFFFFFFFFFFFFFFFFFFFFFFFFFFFFFFFFFFFFFF
310
FFFFFFFFFFFFFFFFFFFFFFFFFFFFFFFFFFFFFFFFFFFFFFFFFFFFFFFFFFFFFFFF
310
FFFFFFFFFFFFFFFFFFFFFFFFFFFFFFFFF0000000000000000000000000000000
310
0000000000000000000000000000000000000000000000000000000000000000
310
0000000000000000000000000000000000000000000000000000000000000000
310
0000000000000000000000000000000000000000000000000000000000000000
310
0000000000000000000000000000000000000000000000000000000000000000
310
0000000000000000000000000000000000000000000000000000000000000000
310
0000000000000000000000000000000000000000000000000000000000000000
310
0000000000000000000000000000000000000000000000000000000000000000
310
0000000000000000000000000000000000000000000000000000000000000000
310
0000000000000000000000000000000000000000000000000000000000000000
310
0000000000000000000000000000000000000000000000000000000000000000
310
0000000000000000000000000000000000000000000000000000000000000000
310
0000000000000000000000000000000000000000000000000000000000000000
310
0000000000000000000000000000000000000000000000000000000000000000
310
0000000000000000000000000000000000000000000000000000000000000000
310
0000000000000000000000000000000000000000000000000000000000000000
  1
OLE
  0
ENDSEC
  0
SECTION
  2
OBJECTS
  0
DICTIONARY
  5
C
330
0
100
AcDbDictionary
281
     1
  3
ACAD_GROUP
350
D
  3
ACAD_LAYOUT
350
1A
  3
ACAD_MLINESTYLE
350
17
  3
ACAD_PLOTSETTINGS
350
19
  3
ACAD_PLOTSTYLENAME
350
E
  3
ACAD_SCALELIST
350
47
  0
DICTIONARY
  5
D
102
{ACAD_REACTORS
330
C
102
}
330
C
100
AcDbDictionary
281
     1
  0
DICTIONARY
  5
1A
102
{ACAD_REACTORS
330
C
102
}
330
C
100
AcDbDictionary
281
     1
  3
Layout1
350
1E
  3
Layout2
350
26
  3
Model
350
22
  0
DICTIONARY
  5
17
102
{ACAD_REACTORS
330
C
102
}
330
C
100
AcDbDictionary
281
     1
  3
Standard
350
18
  0
DICTIONARY
  5
19
102
{ACAD_REACTORS
330
C
102
}
330
C
100
AcDbDictionary
281
     1
  0
ACDBDICTIONARYWDFLT
  5
E
102
{ACAD_REACTORS
330
C
102
}
330
C
100
AcDbDictionary
281
     1
  3
Normal
350
F
100
AcDbDictionaryWithDefault
340
F
  0
DICTIONARY
  5
47
102
{ACAD_REACTORS
330
C
102
}
330
C
100
AcDbDictionary
281
     1
  3
A0
350
48
  3
A1
350
49
  3
A2
350
4A
  3
A3
350
4B
  3
A4
350
4C
  3
A5
350
4D
  3
A6
350
4E
  3
A7
350
4F
  3
A8
350
50
  3
A9
350
51
  3
B0
350
52
  3
B1
350
53
  3
B2
350
54
  3
B3
350
55
  3
B4
350
56
  3
B5
350
57
  3
B6
350
58
  3
B7
350
59
  3
B8
350
5A
  3
B9
350
5B
  3
C0
350
5C
  3
C1
350
5D
  3
C2
350
5E
  3
C3
350
5F
  3
C4
350
60
  3
C5
350
61
  3
C6
350
62
  3
C7
350
63
  3
C8
350
64
  3
C9
350
65
  3
D0
350
66
  3
D1
350
67
  3
D2
350
68
  0
LAYOUT
  5
1E
102
{ACAD_REACTORS
330
1A
102
}
330
1A
100
AcDbPlotSettings
  1

  2
none_device
  4

  6

 40
0.0
 41
0.0
 42
0.0
 43
0.0
 44
0.0
 45
0.0
 46
0.0
 47
0.0
 48
0.0
 49
0.0
140
0.0
141
0.0
142
1.0
143
1.0
 70
   688
 72
     1
 73
     0
 74
     5
  7

 75
    16
147
1.0
148
0.0
149
0.0
100
AcDbLayout
  1
Layout1
 70
     1
 71
     1
 10
0.0
 20
0.0
 11
420.0
 21
297.0
 12
0.0
 22
0.0
 32
0.0
 14
1.0000000000E+20
 24
1.0000000000E+20
 34
1.0000000000E+20
 15
-1.0000000000E+20
 25
-1.0000000000E+20
 35
-1.0000000000E+20
146
0.0
 13
0.0
 23
0.0
 33
0.0
 16
1.0
 26
0.0
 36
0.0
 17
0.0
 27
1.0
 37
0.0
 76
     0
330
1B
  0
LAYOUT
  5
26
102
{ACAD_REACTORS
330
1A
102
}
330
1A
100
AcDbPlotSettings
  1

  2
none_device
  4

  6

 40
0.0
 41
0.0
 42
0.0
 43
0.0
 44
0.0
 45
0.0
 46
0.0
 47
0.0
 48
0.0
 49
0.0
140
0.0
141
0.0
142
1.0
143
1.0
 70
   688
 72
     1
 73
     0
 74
     5
  7

 75
    16
147
1.0
148
0.0
149
0.0
100
AcDbLayout
  1
Layout2
 70
     1
 71
     2
 10
0.0
 20
0.0
 11
0.0
 21
0.0
 12
0.0
 22
0.0
 32
0.0
 14
0.0
 24
0.0
 34
0.0
 15
0.0
 25
0.0
 35
0.0
146
0.0
 13
0.0
 23
0.0
 33
0.0
 16
1.0
 26
0.0
 36
0.0
 17
0.0
 27
1.0
 37
0.0
 76
     0
330
23
  0
LAYOUT
  5
22
102
{ACAD_REACTORS
330
1A
102
}
330
1A
100
AcDbPlotSettings
  1

  2
none_device
  4
Letter_(8.50_x_11.00_Inches)
  6

 40
6.35
 41
6.35
 42
6.35000508
 43
6.35000508
 44
215.9
 45
279.4
 46
0.0
 47
0.0
 48
0.0
 49
0.0
140
0.0
141
0.0
142
1.0
143
1.0
 70
  1712
 72
     1
 73
     0
 74
     0
  7

 75
     0
147
1.0
148
0.0
149
0.0
100
AcDbLayout
  1
Model
 70
     1
 71
     0
 10
0.0
 20
0.0
 11
297.0
 21
210.0
 12
0.0
 22
0.0
 32
0.0
 14
0.0
 24
0.0
 34
0.0
 15
297.0
 25
210.0
 35
0.0
146
0.0
 13
0.0
 23
0.0
 33
0.0
 16
1.0
 26
0.0
 36
0.0
 17
0.0
 27
1.0
 37
0.0
 76
     0
330
1F
331
29
  0
MLINESTYLE
  5
18
102
{ACAD_REACTORS
330
17
102
}
330
17
100
AcDbMlineStyle
  2
Standard
 70
     0
  3

 62
   256
 51
90.0
 52
90.0
 71
     2
 49
0.5
 62
   256
  6
BYLAYER
 49
-0.5
 62
   256
  6
BYLAYER
  0
ACDBPLACEHOLDER
  5
F
102
{ACAD_REACTORS
330
E
102
}
330
E
  0
SCALE
  5
48
102
{ACAD_REACTORS
330
47
102
}
330
47
100
AcDbScale
 70
     0
300
1:1
140
1.0
141
1.0
290
     1
  0
SCALE
  5
49
102
{ACAD_REACTORS
330
47
102
}
330
47
100
AcDbScale
 70
     0
300
1:2
140
1.0
141
2.0
290
     0
  0
SCALE
  5
4A
102
{ACAD_REACTORS
330
47
102
}
330
47
100
AcDbScale
 70
     0
300
1:4
140
1.0
141
4.0
290
     0
  0
SCALE
  5
4B
102
{ACAD_REACTORS
330
47
102
}
330
47
100
AcDbScale
 70
     0
300
1:5
140
1.0
141
5.0
290
     0
  0
SCALE
  5
4C
102
{ACAD_REACTORS
330
47
102
}
330
47
100
AcDbScale
 70
     0
300
1:8
140
1.0
141
8.0
290
     0
  0
SCALE
  5
4D
102
{ACAD_REACTORS
330
47
102
}
330
47
100
AcDbScale
 70
     0
300
1:10
140
1.0
141
10.0
290
     0
  0
SCALE
  5
4E
102
{ACAD_REACTORS
330
47
102
}
330
47
100
AcDbScale
 70
     0
300
1:16
140
1.0
141
16.0
290
     0
  0
SCALE
  5
4F
102
{ACAD_REACTORS
330
47
102
}
330
47
100
AcDbScale
 70
     0
300
1:20
140
1.0
141
20.0
290
     0
  0
SCALE
  5
50
102
{ACAD_REACTORS
330
47
102
}
330
47
100
AcDbScale
 70
     0
300
1:30
140
1.0
141
30.0
290
     0
  0
SCALE
  5
51
102
{ACAD_REACTORS
330
47
102
}
330
47
100
AcDbScale
 70
     0
300
1:40
140
1.0
141
40.0
290
     0
  0
SCALE
  5
52
102
{ACAD_REACTORS
330
47
102
}
330
47
100
AcDbScale
 70
     0
300
1:50
140
1.0
141
50.0
290
     0
  0
SCALE
  5
53
102
{ACAD_REACTORS
330
47
102
}
330
47
100
AcDbScale
 70
     0
300
1:100
140
1.0
141
100.0
290
     0
  0
SCALE
  5
54
102
{ACAD_REACTORS
330
47
102
}
330
47
100
AcDbScale
 70
     0
300
2:1
140
2.0
141
1.0
290
     0
  0
SCALE
  5
55
102
{ACAD_REACTORS
330
47
102
}
330
47
100
AcDbScale
 70
     0
300
4:1
140
4.0
141
1.0
290
     0
  0
SCALE
  5
56
102
{ACAD_REACTORS
330
47
102
}
330
47
100
AcDbScale
 70
     0
300
8:1
140
8.0
141
1.0
290
     0
  0
SCALE
  5
57
102
{ACAD_REACTORS
330
47
102
}
330
47
100
AcDbScale
 70
     0
300
10:1
140
10.0
141
1.0
290
     0
  0
SCALE
  5
58
102
{ACAD_REACTORS
330
47
102
}
330
47
100
AcDbScale
 70
     0
300
100:1
140
100.0
141
1.0
290
     0
  0
SCALE
  5
59
102
{ACAD_REACTORS
330
47
102
}
330
47
100
AcDbScale
 70
     0
300
1/128" = 1'-0"
140
0.0078125
141
12.0
290
     0
  0
SCALE
  5
5A
102
{ACAD_REACTORS
330
47
102
}
330
47
100
AcDbScale
 70
     0
300
1/64" = 1'-0"
140
0.015625
141
12.0
290
     0
  0
SCALE
  5
5B
102
{ACAD_REACTORS
330
47
102
}
330
47
100
AcDbScale
 70
     0
300
1/32" = 1'-0"
140
0.03125
141
12.0
290
     0
  0
SCALE
  5
5C
102
{ACAD_REACTORS
330
47
102
}
330
47
100
AcDbScale
 70
     0
300
1/16" = 1'-0"
140
0.0625
141
12.0
290
     0
  0
SCALE
  5
5D
102
{ACAD_REACTORS
330
47
102
}
330
47
100
AcDbScale
 70
     0
300
3/32" = 1'-0"
140
0.09375
141
12.0
290
     0
  0
SCALE
  5
5E
102
{ACAD_REACTORS
330
47
102
}
330
47
100
AcDbScale
 70
     0
300
1/8" = 1'-0"
140
0.125
141
12.0
290
     0
  0
SCALE
  5
5F
102
{ACAD_REACTORS
330
47
102
}
330
47
100
AcDbScale
 70
     0
300
3/16" = 1'-0"
140
0.1875
141
12.0
290
     0
  0
SCALE
  5
60
102
{ACAD_REACTORS
330
47
102
}
330
47
100
AcDbScale
 70
     0
300
1/4" = 1'-0"
140
0.25
141
12.0
290
     0
  0
SCALE
  5
61
102
{ACAD_REACTORS
330
47
102
}
330
47
100
AcDbScale
 70
     0
300
3/8" = 1'-0"
140
0.375
141
12.0
290
     0
  0
SCALE
  5
62
102
{ACAD_REACTORS
330
47
102
}
330
47
100
AcDbScale
 70
     0
300
1/2" = 1'-0"
140
0.5
141
12.0
290
     0
  0
SCALE
  5
63
102
{ACAD_REACTORS
330
47
102
}
330
47
100
AcDbScale
 70
     0
300
3/4" = 1'-0"
140
0.75
141
12.0
290
     0
  0
SCALE
  5
64
102
{ACAD_REACTORS
330
47
102
}
330
47
100
AcDbScale
 70
     0
300
1" = 1'-0"
140
1.0
141
12.0
290
     0
  0
SCALE
  5
65
102
{ACAD_REACTORS
330
47
102
}
330
47
100
AcDbScale
 70
     0
300
1-1/2" = 1'-0"
140
1.5
141
12.0
290
     0
  0
SCALE
  5
66
102
{ACAD_REACTORS
330
47
102
}
330
47
100
AcDbScale
 70
     0
300
3" = 1'-0"
140
3.0
141
12.0
290
     0
  0
SCALE
  5
67
102
{ACAD_REACTORS
330
47
102
}
330
47
100
AcDbScale
 70
     0
300
6" = 1'-0"
140
6.0
141
12.0
290
     0
  0
SCALE
  5
68
102
{ACAD_REACTORS
330
47
102
}
330
47
100
AcDbScale
 70
     0
300
1'-0" = 1'-0"
140
12.0
141
12.0
290
     0
  0
ENDSEC
  0
EOF
