  0
SECTION
  2
HEADER
  9
$ACADVER
  1
AC1015
  9
$ACADMAINTVER
 70
     6
  9
$DWGCODEPAGE
  3
ANSI_1252
  9
$INSBASE
 10
0.0
 20
0.0
 30
0.0
  9
$EXTMIN
 10
0.0
 20
0.0
 30
0.0
  9
$EXTMAX
 10
297.0
 20
210.0
 30
0.0
  9
$LIMMIN
 10
0.0
 20
0.0
  9
$LIMMAX
 10
297.0
 20
210.0
  9
$ORTHOMODE
 70
     0
  9
$REGENMODE
 70
     1
  9
$FILLMODE
 70
     1
  9
$QTEXTMODE
 70
     0
  9
$MIRRTEXT
 70
     1
  9
$LTSCALE
 40
1.0
  9
$ATTMODE
 70
     1
  9
$TEXTSIZE
 40
2.0
  9
$TRACEWID
 40
1.0
  9
$TEXTSTYLE
  7
Standard
  9
$CLAYER
  8
0
  9
$CELTYPE
  6
ByLayer
  9
$CECOLOR
 62
   256
  9
$CELTSCALE
 40
1.0
  9
$DISPSILH
 70
     0
  9
$DIMSCALE
 40
1.0
  9
$DIMASZ
 40
3.0
  9
$DIMEXO
 40
0.0
  9
$DIMDLI
 40
3.75
  9
$DIMRND
 40
0.0
  9
$DIMDLE
 40
0.0
  9
$DIMEXE
 40
1.0
  9
$DIMTP
 40
0.0
  9
$DIMTM
 40
0.0
  9
$DIMTXT
 40
2.0
  9
$DIMCEN
 40
2.5
  9
$DIMTSZ
 40
0.0
  9
$DIMTOL
 70
     0
  9
$DIMLIM
 70
     0
  9
$DIMTIH
 70
     1
  9
$DIMTOH
 70
     1
  9
$DIMSE1
 70
     0
  9
$DIMSE2
 70
     0
  9
$DIMTAD
 70
     1
  9
$DIMZIN
 70
     0
  9
$DIMBLK
  1

  9
$DIMASO
 70
     1
  9
$DIMSHO
 70
     1
  9
$DIMPOST
  1

  9
$DIMAPOST
  1

  9
$DIMALT
 70
     0
  9
$DIMALTD
 70
     3
  9
$DIMALTF
 40
0.0393700787
  9
$DIMLFAC
 40
1.0
  9
$DIMTOFL
 70
     1
  9
$DIMTVP
 40
0.0
  9
$DIMTIX
 70
     0
  9
$DIMSOXD
 70
     0
  9
$DIMSAH
 70
     0
  9
$DIMBLK1
  1

  9
$DIMBLK2
  1

  9
$DIMSTYLE
  2
ISO-25
  9
$DIMCLRD
 70
     0
  9
$DIMCLRE
 70
     0
  9
$DIMCLRT
 70
     0
  9
$DIMTFAC
 40
1.0
  9
$DIMGAP
 40
1.524
  9
$DIMJUST
 70
     0
  9
$DIMSD1
 70
     0
  9
$DIMSD2
 70
     0
  9
$DIMTOLJ
 70
     0
  9
$DIMTZIN
 70
     0
  9
$DIMALTZ
 70
     0
  9
$DIMALTTZ
 70
     0
  9
$DIMUPT
 70
     0
  9
$DIMDEC
 70
     2
  9
$DIMTDEC
 70
     3
  9
$DIMALTU
 70
     2
  9
$DIMALTTD
 70
     3
  9
$DIMTXSTY
  7
Standard
  9
$DIMAUNIT
 70
     0
  9
$DIMADEC
 70
     2
  9
$DIMALTRND
 40
0.0
  9
$DIMAZIN
 70
     0
  9
$DIMDSEP
 70
    44
  9
$DIMATFIT
 70
     3
  9
$DIMFRAC
 70
     0
  9
$DIMLDRBLK
  1

  9
$DIMLUNIT
 70
     2
  9
$DIMLWD
 70
    -2
  9
$DIMLWE
 70
    -2
  9
$DIMTMOVE
 70
     0
  9
$LUNITS
 70
     2
  9
$LUPREC
 70
     2
  9
$SKETCHINC
 40
1.0
  9
$FILLETRAD
 40
10.0
  9
$AUNITS
 70
     0
  9
$AUPREC
 70
     2
  9
$MENU
  1
.
  9
$ELEVATION
 40
0.0
  9
$PELEVATION
 40
0.0
  9
$THICKNESS
 40
0.0
  9
$LIMCHECK
 70
     0
  9
$CHAMFERA
 40
0.0
  9
$CHAMFERB
 40
0.0
  9
$CHAMFERC
 40
0.0
  9
$CHAMFERD
 40
0.0
  9
$SKPOLY
 70
     0
  9
$TDCREATE
 40
2457667.460478009
  9
$TDUCREATE
 40
2457667.377144676
  9
$TDUPDATE
 40
2457667.460479144
  9
$TDUUPDATE
 40
2457667.37714581
  9
$TDINDWG
 40
0.0000000116
  9
$TDUSRTIMER
 40
0.0000000116
  9
$USRTIMER
 70
     1
  9
$ANGBASE
 50
0.0
  9
$ANGDIR
 70
     0
  9
$PDMODE
 70
     0
  9
$PDSIZE
 40
-1.0
  9
$PLINEWID
 40
0.0
  9
$SPLFRAME
 70
     0
  9
$SPLINETYPE
 70
     6
  9
$SPLINESEGS
 70
     8
  9
$HANDSEED
  5
210
  9
$SURFTAB1
 70
     6
  9
$SURFTAB2
 70
     6
  9
$SURFTYPE
 70
     6
  9
$SURFU
 70
     6
  9
$SURFV
 70
     6
  9
$UCSBASE
  2

  9
$UCSNAME
  2

  9
$UCSORG
 10
0.0
 20
0.0
 30
0.0
  9
$UCSXDIR
 10
1.0
 20
0.0
 30
0.0
  9
$UCSYDIR
 10
0.0
 20
1.0
 30
0.0
  9
$UCSORTHOREF
  2

  9
$UCSORTHOVIEW
 70
     0
  9
$UCSORGTOP
 10
0.0
 20
0.0
 30
0.0
  9
$UCSORGBOTTOM
 10
0.0
 20
0.0
 30
0.0
  9
$UCSORGLEFT
 10
0.0
 20
0.0
 30
0.0
  9
$UCSORGRIGHT
 10
0.0
 20
0.0
 30
0.0
  9
$UCSORGFRONT
 10
0.0
 20
0.0
 30
0.0
  9
$UCSORGBACK
 10
0.0
 20
0.0
 30
0.0
  9
$PUCSBASE
  2

  9
$PUCSNAME
  2

  9
$PUCSORG
 10
0.0
 20
0.0
 30
0.0
  9
$PUCSXDIR
 10
1.0
 20
0.0
 30
0.0
  9
$PUCSYDIR
 10
0.0
 20
1.0
 30
0.0
  9
$PUCSORTHOREF
  2

  9
$PUCSORTHOVIEW
 70
     0
  9
$PUCSORGTOP
 10
0.0
 20
0.0
 30
0.0
  9
$PUCSORGBOTTOM
 10
0.0
 20
0.0
 30
0.0
  9
$PUCSORGLEFT
 10
0.0
 20
0.0
 30
0.0
  9
$PUCSORGRIGHT
 10
0.0
 20
0.0
 30
0.0
  9
$PUCSORGFRONT
 10
0.0
 20
0.0
 30
0.0
  9
$PUCSORGBACK
 10
0.0
 20
0.0
 30
0.0
  9
$USERI1
 70
     0
  9
$USERI2
 70
     0
  9
$USERI3
 70
     0
  9
$USERI4
 70
     0
  9
$USERI5
 70
     0
  9
$USERR1
 40
0.0
  9
$USERR2
 40
0.0
  9
$USERR3
 40
0.0
  9
$USERR4
 40
0.0
  9
$USERR5
 40
0.0
  9
$WORLDVIEW
 70
     1
  9
$SHADEDGE
 70
     3
  9
$SHADEDIF
 70
    70
  9
$TILEMODE
 70
     1
  9
$MAXACTVP
 70
    64
  9
$PINSBASE
 10
0.0
 20
0.0
 30
0.0
  9
$PLIMCHECK
 70
     0
  9
$PEXTMIN
 10
1.0000000000E+20
 20
1.0000000000E+20
 30
1.0000000000E+20
  9
$PEXTMAX
 10
-1.0000000000E+20
 20
-1.0000000000E+20
 30
-1.0000000000E+20
  9
$PLIMMIN
 10
0.0
 20
0.0
  9
$PLIMMAX
 10
420.0
 20
297.0
  9
$UNITMODE
 70
     0
  9
$VISRETAIN
 70
     1
  9
$PLINEGEN
 70
     0
  9
$PSLTSCALE
 70
     1
  9
$TREEDEPTH
 70
  3020
  9
$CMLSTYLE
  2
Standard
  9
$CMLJUST
 70
     0
  9
$CMLSCALE
 40
20.0
  9
$PROXYGRAPHICS
 70
     1
  9
$MEASUREMENT
 70
     1
  9
$CELWEIGHT
370
    -1
  9
$ENDCAPS
280
     0
  9
$JOINSTYLE
280
     0
  9
$LWDISPLAY
290
     1
  9
$INSUNITS
 70
     4
  9
$HYPERLINKBASE
  1

  9
$STYLESHEET
  1

  9
$XEDIT
290
     1
  9
$CEPSNTYPE
380
     0
  9
$PSTYLEMODE
290
     1
  9
$FINGERPRINTGUID
  2
{C7D2BDA6-0996-4D01-8E37-7DF7E609265C}
  9
$VERSIONGUID
  2
{FAEB1C32-E019-11D5-929B-00C0DF256EC4}
  9
$EXTNAMES
290
     1
  9
$PSVPSCALE
 40
0.0
  9
$OLESTARTUP
290
     0
  0
ENDSEC
  0
SECTION
  2
CLASSES
  0
CLASS
  1
ACDBDICTIONARYWDFLT
  2
AcDbDictionaryWithDefault
  3
ObjectDBX Classes
 90
        0
280
     0
281
     0
  0
CLASS
  1
VISUALSTYLE
  2
AcDbVisualStyle
  3
ObjectDBX Classes
 90
     4095
280
     0
281
     0
  0
CLASS
  1
MATERIAL
  2
AcDbMaterial
  3
ObjectDBX Classes
 90
     1153
280
     0
281
     0
  0
CLASS
  1
SCALE
  2
AcDbScale
  3
ObjectDBX Classes
 90
     1153
280
     0
281
     0
  0
CLASS
  1
TABLESTYLE
  2
AcDbTableStyle
  3
ObjectDBX Classes
 90
     4095
280
     0
281
     0
  0
CLASS
  1
MLEADERSTYLE
  2
AcDbMLeaderStyle
  3
ACDB_MLEADERSTYLE_CLASS
 90
     4095
280
     0
281
     0
  0
CLASS
  1
SUN
  2
AcDbSun
  3
SCENEOE
 90
     1153
280
     0
281
     0
  0
CLASS
  1
ACDBPLACEHOLDER
  2
AcDbPlaceHolder
  3
ObjectDBX Classes
 90
        0
280
     0
281
     0
  0
CLASS
  1
LAYOUT
  2
AcDbLayout
  3
ObjectDBX Classes
 90
        0
280
     0
281
     0
  0
ENDSEC
  0
SECTION
  2
TABLES
  0
TABLE
  2
VPORT
  5
8
330
0
100
AcDbSymbolTable
 70
     1
  0
VPORT
  5
29
330
8
100
AcDbSymbolTableRecord
100
AcDbViewportTableRecord
  2
*Active
 70
     0
 10
0.0
 20
0.0
 11
1.0
 21
1.0
 12
148.5
 22
105.0
 13
0.0
 23
0.0
 14
10.0
 24
10.0
 15
10.0
 25
10.0
 16
0.0
 26
0.0
 36
1.0
 17
0.0
 27
0.0
 37
0.0
 40
210.0
 41
1.4142857143
 42
50.0
 43
0.0
 44
0.0
 50
0.0
 51
0.0
 71
     0
 72
  2000
 73
     1
 74
     3
 75
     0
 76
     0
 77
     0
 78
     0
281
     0
 65
     1
110
0.0
120
0.0
130
0.0
111
1.0
121
0.0
131
0.0
112
0.0
122
1.0
132
0.0
 79
     0
146
0.0
  0
ENDTAB
  0
TABLE
  2
LTYPE
  5
5
330
0
100
AcDbSymbolTable
 70
     6
  0
LTYPE
  5
14
330
5
100
AcDbSymbolTableRecord
100
AcDbLinetypeTableRecord
  2
ByBlock
 70
     0
  3

 72
    65
 73
     0
 40
0.0
  0
LTYPE
  5
15
330
5
100
AcDbSymbolTableRecord
100
AcDbLinetypeTableRecord
  2
ByLayer
 70
     0
  3

 72
    65
 73
     0
 40
0.0
  0
LTYPE
  5
16
330
5
100
AcDbSymbolTableRecord
100
AcDbLinetypeTableRecord
  2
Continuous
 70
     0
  3
Solid line
 72
    65
 73
     0
 40
0.0
  0
LTYPE
  5
6E
330
5
100
AcDbSymbolTableRecord
100
AcDbLinetypeTableRecord
  2
HIDDEN
 70
     0
  3
Hidden __ __ __ __ __ __ __ __ __ __ __ __ __ __
 72
    65
 73
     2
 40
1.905
 49
1.27
 74
     0
 49
-0.635
 74
     0
  0
LTYPE
  5
6F
330
5
100
AcDbSymbolTableRecord
100
AcDbLinetypeTableRecord
  2
PHANTOM
 70
     0
  3
Phantom ______  __  __  ______  __  __  ______
 72
    65
 73
     6
 40
12.7
 49
6.35
 74
     0
 49
-1.27
 74
     0
 49
1.27
 74
     0
 49
-1.27
 74
     0
 49
1.27
 74
     0
 49
-1.27
 74
     0
  0
LTYPE
  5
70
330
5
100
AcDbSymbolTableRecord
100
AcDbLinetypeTableRecord
  2
CENTER
 70
     0
  3
Center ____ _ ____ _ ____ _ ____ _ ____ _ ____
 72
    65
 73
     4
 40
10.16
 49
6.35
 74
     0
 49
-1.27
 74
     0
 49
1.27
 74
     0
 49
-1.27
 74
     0
  0
LTYPE
  5
71
330
5
100
AcDbSymbolTableRecord
100
AcDbLinetypeTableRecord
  2
CENTERX2
 70
     0
  3
Center (2x) ________  __  ________  __  _____
 72
    65
 73
     4
 40
20.32
 49
12.7
 74
     0
 49
-2.54
 74
     0
 49
2.54
 74
     0
 49
-2.54
 74
     0
  0
LTYPE
  5
72
330
5
100
AcDbSymbolTableRecord
100
AcDbLinetypeTableRecord
  2
DOT2
 70
     0
  3
Dot (.5x) ........................................
 72
    65
 73
     2
 40
0.635
 49
0.0
 74
     0
 49
-0.635
 74
     0
  0
ENDTAB
  0
TABLE
  2
LAYER
  5
2
330
0
100
AcDbSymbolTable
 70
     5
  0
LAYER
  5
10
330
2
100
AcDbSymbolTableRecord
100
AcDbLayerTableRecord
  2
0
 70
     0
 62
     7
  6
Continuous
370
    -3
390
F
  0
LAYER
  5
73
330
2
100
AcDbSymbolTableRecord
100
AcDbLayerTableRecord
  2
FORMAT
 70
     0
 62
     7
  6
Continuous
370
    -3
390
F
  0
LAYER
  5
74
330
2
100
AcDbSymbolTableRecord
100
AcDbLayerTableRecord
  2
VERMASSUNG
 70
     0
 62
     7
  6
Continuous
370
    -3
390
F
  0
LAYER
  5
75
330
2
100
AcDbSymbolTableRecord
100
AcDbLayerTableRecord
  2
KOPF_DÜNN
 70
     0
 62
     7
  6
Continuous
370
    -3
390
F
  0
LAYER
  5
76
330
2
100
AcDbSymbolTableRecord
100
AcDbLayerTableRecord
  2
KOPF_DICK
 70
     0
 62
     7
  6
Continuous
370
    15
390
F
  0
ENDTAB
  0
TABLE
  2
STYLE
  5
3
330
0
100
AcDbSymbolTable
 70
     2
  0
STYLE
  5
11
330
3
100
AcDbSymbolTableRecord
100
AcDbTextStyleTableRecord
  2
Standard
 70
     0
 40
0.0
 41
1.0
 50
0.0
 71
     0
 42
2.0
  3
txt
  4

  0
STYLE
  5
77
330
3
100
AcDbSymbolTableRecord
100
AcDbTextStyleTableRecord
  2
SLDTEXTSTYLE0
 70
     0
 40
0.0
 41
0.7
 50
0.0
 71
     0
 42
2.0
  3
TXT
  4

  0
ENDTAB
  0
TABLE
  2
VIEW
  5
6
330
0
100
AcDbSymbolTable
 70
     0
  0
ENDTAB
  0
TABLE
  2
UCS
  5
7
330
0
100
AcDbSymbolTable
 70
     0
  0
ENDTAB
  0
TABLE
  2
APPID
  5
9
330
0
100
AcDbSymbolTable
 70
     1
  0
APPID
  5
12
330
9
100
AcDbSymbolTableRecord
100
AcDbRegAppTableRecord
  2
ACAD
 70
     0
  0
ENDTAB
  0
TABLE
  2
DIMSTYLE
  5
A
330
0
100
AcDbSymbolTable
 70
     2
100
AcDbDimStyleTable
  0
DIMSTYLE
105
27
330
A
100
AcDbSymbolTableRecord
100
AcDbDimStyleTableRecord
  2
ISO-25
 70
     0
 41
2.5
 42
0.625
 43
3.75
 44
1.25
 73
     0
 74
     0
 77
     1
 78
     8
140
2.5
141
2.5
143
0.0393700787
147
0.625
171
     3
172
     1
178
     0
271
     2
272
     2
274
     3
278
    44
283
     0
284
     8
340
11
  0
DIMSTYLE
105
12A
102
{ACAD_REACTORS
330
129
330
136
330
141
330
14D
330
157
330
163
102
}
330
A
100
AcDbSymbolTableRecord
100
AcDbDimStyleTableRecord
  2
SLDDIMSTYLE0
 70
     0
 41
3.0
 44
0.0
 45
0.000000001
 73
     0
 74
     0
 77
     1
 78
    12
 79
     3
140
2.0
147
0.5
173
     1
178
     0
271
     2
272
     3
276
     2
284
    12
340
77
  0
ENDTAB
  0
TABLE
  2
BLOCK_RECORD
  5
1
330
0
100
AcDbSymbolTable
 70
     7
  0
BLOCK_RECORD
  5
1F
330
1
100
AcDbSymbolTableRecord
100
AcDbBlockTableRecord
  2
*Model_Space
340
22
  0
BLOCK_RECORD
  5
1B
330
1
100
AcDbSymbolTableRecord
100
AcDbBlockTableRecord
  2
*Paper_Space
340
1E
  0
BLOCK_RECORD
  5
23
330
1
100
AcDbSymbolTableRecord
100
AcDbBlockTableRecord
  2
*Paper_Space0
340
26
  0
BLOCK_RECORD
  5
12B
330
1
100
AcDbSymbolTableRecord
100
AcDbBlockTableRecord
  2
_D
340
0
  0
BLOCK_RECORD
  5
137
330
1
100
AcDbSymbolTableRecord
100
AcDbBlockTableRecord
  2
_D_1
340
0
  0
BLOCK_RECORD
  5
142
330
1
100
AcDbSymbolTableRecord
100
AcDbBlockTableRecord
  2
_D_2
340
0
  0
BLOCK_RECORD
  5
14E
330
1
100
AcDbSymbolTableRecord
100
AcDbBlockTableRecord
  2
_D_3
340
0
  0
BLOCK_RECORD
  5
158
330
1
100
AcDbSymbolTableRecord
100
AcDbBlockTableRecord
  2
_D_4
340
0
  0
BLOCK_RECORD
  5
164
330
1
100
AcDbSymbolTableRecord
100
AcDbBlockTableRecord
  2
_D_5
340
0
  0
ENDTAB
  0
ENDSEC
  0
SECTION
  2
BLOCKS
  0
BLOCK
  5
20
330
1F
100
AcDbEntity
  8
0
100
AcDbBlockBegin
  2
*Model_Space
 70
     0
 10
0.0
 20
0.0
 30
0.0
  3
*Model_Space
  1

  0
ENDBLK
  5
21
330
1F
100
AcDbEntity
  8
0
100
AcDbBlockEnd
  0
BLOCK
  5
1C
330
1B
100
AcDbEntity
 67
     1
  8
0
100
AcDbBlockBegin
  2
*Paper_Space
 70
     0
 10
0.0
 20
0.0
 30
0.0
  3
*Paper_Space
  1

  0
ENDBLK
  5
1D
330
1B
100
AcDbEntity
 67
     1
  8
0
100
AcDbBlockEnd
  0
BLOCK
  5
24
330
23
100
AcDbEntity
  8
0
100
AcDbBlockBegin
  2
*Paper_Space0
 70
     0
 10
0.0
 20
0.0
 30
0.0
  3
*Paper_Space0
  1

  0
ENDBLK
  5
25
330
23
100
AcDbEntity
  8
0
100
AcDbBlockEnd
  0
BLOCK
  5
12C
330
12B
100
AcDbEntity
  8
0
100
AcDbBlockBegin
  2
_D
 70
     0
 10
0.0
 20
0.0
 30
0.0
  3
_D
  1

  0
SOLID
  5
12E
330
12B
100
AcDbEntity
  8
VERMASSUNG
100
AcDbTrace
 10
89.8366466591
 20
80.6992372534
 30
0.0
 11
90.2866466591
 21
83.6992372534
 31
0.0
 12
89.3866466591
 22
83.6992372534
 32
0.0
 13
89.3866466591
 23
83.6992372534
 33
0.0
  0
SOLID
  5
12F
330
12B
100
AcDbEntity
  8
VERMASSUNG
100
AcDbTrace
 10
89.8366466591
 20
144.1992372534
 30
0.0
 11
89.3866466591
 21
141.1992372534
 31
0.0
 12
90.2866466591
 22
141.1992372534
 32
0.0
 13
90.2866466591
 23
141.1992372534
 33
0.0
  0
LINE
  5
130
330
12B
100
AcDbEntity
  8
VERMASSUNG
100
AcDbLine
 10
182.9103262059
 20
80.6992372534
 30
0.0
 11
88.8366466591
 21
80.6992372534
 31
0.0
  0
LINE
  5
131
330
12B
100
AcDbEntity
  8
VERMASSUNG
100
AcDbLine
 10
182.9103262059
 20
144.1992372534
 30
0.0
 11
88.8366466591
 21
144.1992372534
 31
0.0
  0
LINE
  5
132
330
12B
100
AcDbEntity
  8
VERMASSUNG
100
AcDbLine
 10
89.8366466591
 20
80.6992372534
 30
0.0
 11
89.8366466591
 21
144.1992372534
 31
0.0
  0
MTEXT
  5
133
330
12B
100
AcDbEntity
  8
VERMASSUNG
100
AcDbMText
 10
87.0585114029
 20
103.6463011051
 30
0.0
 40
2.0
 41
0.0
 71
     1
 72
     1
  1
ISO 40
  7
SLDTEXTSTYLE0
 11
3.391901413832837E-15
 21
1.0
 31
0.0
 73
     1
 44
1.0
  0
MTEXT
  5
134
330
12B
100
AcDbEntity
  8
VERMASSUNG
100
AcDbMText
 10
87.2585113542
 20
112.8463013092
 30
0.0
 40
2.0
 41
0.0
 71
     1
 72
     1
  1
%%c
  7
SLDTEXTSTYLE0
 11
3.391901413832837E-15
 21
1.0
 31
0.0
 73
     1
 44
1.0
  0
MTEXT
  5
135
330
12B
100
AcDbEntity
  8
VERMASSUNG
100
AcDbMText
 10
87.2585110632
 20
116.4541816406
 30
0.0
 40
2.0
 41
0.0
 71
     1
 72
     1
  1
63.5
  7
SLDTEXTSTYLE0
 11
3.391901413832837E-15
 21
1.0
 31
0.0
 73
     1
 44
1.0
  0
ENDBLK
  5
12D
330
12B
100
AcDbEntity
  8
0
100
AcDbBlockEnd
  0
BLOCK
  5
138
330
137
100
AcDbEntity
  8
0
100
AcDbBlockBegin
  2
_D_1
 70
     0
 10
0.0
 20
0.0
 30
0.0
  3
_D_1
  1

  0
SOLID
  5
13A
330
137
100
AcDbEntity
  8
VERMASSUNG
100
AcDbTrace
 10
211.0386297126
 20
121.4492372534
 30
0.0
 11
210.5886297126
 21
118.4492372534
 31
0.0
 12
211.4886297126
 22
118.4492372534
 32
0.0
 13
211.4886297126
 23
118.4492372534
 33
0.0
  0
SOLID
  5
13B
330
137
100
AcDbEntity
  8
VERMASSUNG
100
AcDbTrace
 10
211.0386297126
 20
103.4492372534
 30
0.0
 11
211.4886297126
 21
106.4492372534
 31
0.0
 12
210.5886297126
 22
106.4492372534
 32
0.0
 13
210.5886297126
 23
106.4492372534
 33
0.0
  0
LINE
  5
13C
330
137
100
AcDbEntity
  8
VERMASSUNG
100
AcDbLine
 10
195.5603262059
 20
121.4492372534
 30
0.0
 11
212.0386297126
 21
121.4492372534
 31
0.0
  0
LINE
  5
13D
330
137
100
AcDbEntity
  8
VERMASSUNG
100
AcDbLine
 10
195.5603262059
 20
103.4492372534
 30
0.0
 11
212.0386297126
 21
103.4492372534
 31
0.0
  0
LINE
  5
13E
330
137
100
AcDbEntity
  8
VERMASSUNG
100
AcDbLine
 10
211.0386297126
 20
121.4492372534
 30
0.0
 11
211.0386297126
 21
103.4492372534
 31
0.0
  0
MTEXT
  5
13F
330
137
100
AcDbEntity
  8
VERMASSUNG
100
AcDbMText
 10
208.4604941749
 20
109.4458047096
 30
0.0
 40
2.0
 41
0.0
 71
     1
 72
     1
  1
%%c
  7
SLDTEXTSTYLE0
 11
-7.044195017643634E-15
 21
1.0
 31
0.0
 73
     1
 44
1.0
  0
MTEXT
  5
140
330
137
100
AcDbEntity
  8
VERMASSUNG
100
AcDbMText
 10
208.4604941167
 20
113.0547769032
 30
0.0
 40
2.0
 41
0.0
 71
     1
 72
     1
  1
18
  7
SLDTEXTSTYLE0
 11
-7.044195017643634E-15
 21
1.0
 31
0.0
 73
     1
 44
1.0
  0
ENDBLK
  5
139
330
137
100
AcDbEntity
  8
0
100
AcDbBlockEnd
  0
BLOCK
  5
143
330
142
100
AcDbEntity
  8
0
100
AcDbBlockBegin
  2
_D_2
 70
     0
 10
0.0
 20
0.0
 30
0.0
  3
_D_2
  1

  0
ARC
  5
145
330
142
100
AcDbEntity
  8
VERMASSUNG
100
AcDbCircle
 10
193.0971197178
 20
148.8939085371
 30
0.0
 40
4.24705993853731
100
AcDbArc
 50
153.4349488229
 51
206.5650511771
  0
ARC
  5
146
330
142
100
AcDbEntity
  8
VERMASSUNG
100
AcDbCircle
 10
194.8735326941
 20
148.8939085371
 30
0.0
 40
4.247059938537284
100
AcDbArc
 50
333.4349488229
 51
26.5650511771
  0
SOLID
  5
147
330
142
100
AcDbEntity
  8
VERMASSUNG
100
AcDbTrace
 10
183.5103262059
 20
146.9945655916
 30
0.0
 11
186.5103262059
 21
146.5445655916
 31
0.0
 12
186.5103262059
 22
147.4445655916
 32
0.0
 13
186.5103262059
 23
147.4445655916
 33
0.0
  0
SOLID
  5
148
330
142
100
AcDbEntity
  8
VERMASSUNG
100
AcDbTrace
 10
204.4603262059
 20
146.9945655916
 30
0.0
 11
201.4603262059
 21
147.4445655916
 31
0.0
 12
201.4603262059
 22
146.5445655916
 32
0.0
 13
201.4603262059
 23
146.5445655916
 33
0.0
  0
LINE
  5
149
330
142
100
AcDbEntity
  8
VERMASSUNG
100
AcDbLine
 10
183.5103262059
 20
142.4597883868
 30
0.0
 11
183.5103262059
 21
147.9945655916
 31
0.0
  0
LINE
  5
14A
330
142
100
AcDbEntity
  8
VERMASSUNG
100
AcDbLine
 10
204.4603262059
 20
128.1492372534
 30
0.0
 11
204.4603262059
 21
147.9945655916
 31
0.0
  0
LINE
  5
14B
330
142
100
AcDbEntity
  8
VERMASSUNG
100
AcDbLine
 10
183.5103262059
 20
146.9945655916
 30
0.0
 11
204.4603262059
 21
146.9945655916
 31
0.0
  0
MTEXT
  5
14C
330
142
100
AcDbEntity
  8
VERMASSUNG
100
AcDbMText
 10
190.8859338269
 20
149.5727011876
 30
0.0
 40
2.0
 41
0.0
 71
     1
 72
     1
  1
20.95
  7
SLDTEXTSTYLE0
 73
     1
 44
1.0
  0
ENDBLK
  5
144
330
142
100
AcDbEntity
  8
0
100
AcDbBlockEnd
  0
BLOCK
  5
14F
330
14E
100
AcDbEntity
  8
0
100
AcDbBlockBegin
  2
_D_3
 70
     0
 10
0.0
 20
0.0
 30
0.0
  3
_D_3
  1

  0
SOLID
  5
151
330
14E
100
AcDbEntity
  8
VERMASSUNG
100
AcDbTrace
 10
164.4603262059
 20
152.9945655916
 30
0.0
 11
167.4603262059
 21
152.5445655916
 31
0.0
 12
167.4603262059
 22
153.4445655916
 32
0.0
 13
167.4603262059
 23
153.4445655916
 33
0.0
  0
SOLID
  5
152
330
14E
100
AcDbEntity
  8
VERMASSUNG
100
AcDbTrace
 10
204.4603262059
 20
152.9945655916
 30
0.0
 11
201.4603262059
 21
153.4445655916
 31
0.0
 12
201.4603262059
 22
152.5445655916
 32
0.0
 13
201.4603262059
 23
152.5445655916
 33
0.0
  0
LINE
  5
153
330
14E
100
AcDbEntity
  8
VERMASSUNG
100
AcDbLine
 10
164.4603262059
 20
134.6742372534
 30
0.0
 11
164.4603262059
 21
153.9945655916
 31
0.0
  0
LINE
  5
154
330
14E
100
AcDbEntity
  8
VERMASSUNG
100
AcDbLine
 10
204.4603262059
 20
128.1492372534
 30
0.0
 11
204.4603262059
 21
153.9945655916
 31
0.0
  0
LINE
  5
155
330
14E
100
AcDbEntity
  8
VERMASSUNG
100
AcDbLine
 10
164.4603262059
 20
152.9945655916
 30
0.0
 11
204.4603262059
 21
152.9945655916
 31
0.0
  0
MTEXT
  5
156
330
14E
100
AcDbEntity
  8
VERMASSUNG
100
AcDbMText
 10
182.9613674006
 20
155.5727011876
 30
0.0
 40
2.0
 41
0.0
 71
     1
 72
     1
  1
40
  7
SLDTEXTSTYLE0
 73
     1
 44
1.0
  0
ENDBLK
  5
150
330
14E
100
AcDbEntity
  8
0
100
AcDbBlockEnd
  0
BLOCK
  5
159
330
158
100
AcDbEntity
  8
0
100
AcDbBlockBegin
  2
_D_4
 70
     0
 10
0.0
 20
0.0
 30
0.0
  3
_D_4
  1

  0
ARC
  5
15B
330
158
100
AcDbEntity
  8
VERMASSUNG
100
AcDbCircle
 10
148.9474667827
 20
160.8939085371
 30
0.0
 40
4.247059938537297
100
AcDbArc
 50
153.4349488229
 51
206.5650511771
  0
ARC
  5
15C
330
158
100
AcDbEntity
  8
VERMASSUNG
100
AcDbCircle
 10
151.7231856292
 20
160.8939085371
 30
0.0
 40
4.247059938537297
100
AcDbArc
 50
333.4349488229
 51
26.5650511771
  0
SOLID
  5
15D
330
158
100
AcDbEntity
  8
VERMASSUNG
100
AcDbTrace
 10
96.2103262059
 20
158.9945655916
 30
0.0
 11
99.2103262059
 21
158.5445655916
 31
0.0
 12
99.2103262059
 22
159.4445655916
 32
0.0
 13
99.2103262059
 23
159.4445655916
 33
0.0
  0
SOLID
  5
15E
330
158
100
AcDbEntity
  8
VERMASSUNG
100
AcDbTrace
 10
204.4603262059
 20
158.9945655916
 30
0.0
 11
201.4603262059
 21
159.4445655916
 31
0.0
 12
201.4603262059
 22
158.5445655916
 32
0.0
 13
201.4603262059
 23
158.5445655916
 33
0.0
  0
LINE
  5
15F
330
158
100
AcDbEntity
  8
VERMASSUNG
100
AcDbLine
 10
96.2103262059
 20
123.8563678504
 30
0.0
 11
96.2103262059
 21
159.9945655916
 31
0.0
  0
LINE
  5
160
330
158
100
AcDbEntity
  8
VERMASSUNG
100
AcDbLine
 10
204.4603262059
 20
128.1492372534
 30
0.0
 11
204.4603262059
 21
159.9945655916
 31
0.0
  0
LINE
  5
161
330
158
100
AcDbEntity
  8
VERMASSUNG
100
AcDbLine
 10
96.2103262059
 20
158.9945655916
 30
0.0
 11
204.4603262059
 21
158.9945655916
 31
0.0
  0
MTEXT
  5
162
330
158
100
AcDbEntity
  8
VERMASSUNG
100
AcDbMText
 10
146.7362808918
 20
161.5727011876
 30
0.0
 40
2.0
 41
0.0
 71
     1
 72
     1
  1
108.25
  7
SLDTEXTSTYLE0
 73
     1
 44
1.0
  0
ENDBLK
  5
15A
330
158
100
AcDbEntity
  8
0
100
AcDbBlockEnd
  0
BLOCK
  5
165
330
164
100
AcDbEntity
  8
0
100
AcDbBlockBegin
  2
_D_5
 70
     0
 10
0.0
 20
0.0
 30
0.0
  3
_D_5
  1

  0
SOLID
  5
167
330
164
100
AcDbEntity
  8
VERMASSUNG
100
AcDbTrace
 10
217.0386297126
 20
128.4492372534
 30
0.0
 11
216.5886297126
 21
125.4492372534
 31
0.0
 12
217.4886297126
 22
125.4492372534
 32
0.0
 13
217.4886297126
 23
125.4492372534
 33
0.0
  0
SOLID
  5
168
330
164
100
AcDbEntity
  8
VERMASSUNG
100
AcDbTrace
 10
217.0386297126
 20
96.4492372534
 30
0.0
 11
217.4886297126
 21
99.4492372534
 31
0.0
 12
216.5886297126
 22
99.4492372534
 32
0.0
 13
216.5886297126
 23
99.4492372534
 33
0.0
  0
LINE
  5
169
330
164
100
AcDbEntity
  8
VERMASSUNG
100
AcDbLine
 10
204.1603262059
 20
128.4492372534
 30
0.0
 11
218.0386297126
 21
128.4492372534
 31
0.0
  0
LINE
  5
16A
330
164
100
AcDbEntity
  8
VERMASSUNG
100
AcDbLine
 10
204.1603262059
 20
96.4492372534
 30
0.0
 11
218.0386297126
 21
96.4492372534
 31
0.0
  0
LINE
  5
16B
330
164
100
AcDbEntity
  8
VERMASSUNG
100
AcDbLine
 10
217.0386297126
 20
128.4492372534
 30
0.0
 11
217.0386297126
 21
96.4492372534
 31
0.0
  0
MTEXT
  5
16C
330
164
100
AcDbEntity
  8
VERMASSUNG
100
AcDbMText
 10
214.2604944564
 20
106.3442380315
 30
0.0
 40
2.0
 41
0.0
 71
     1
 72
     1
  1
ST3
  7
SLDTEXTSTYLE0
 11
-7.044195017643634E-15
 21
1.0
 31
0.0
 73
     1
 44
1.0
  0
MTEXT
  5
16D
330
164
100
AcDbEntity
  8
VERMASSUNG
100
AcDbMText
 10
214.4604944077
 20
112.1442379578
 30
0.0
 40
2.0
 41
0.0
 71
     1
 72
     1
  1
%%c
  7
SLDTEXTSTYLE0
 11
-7.044195017643634E-15
 21
1.0
 31
0.0
 73
     1
 44
1.0
  0
MTEXT
  5
16E
330
164
100
AcDbEntity
  8
VERMASSUNG
100
AcDbMText
 10
214.2604944564
 20
115.7542375064
 30
0.0
 40
2.0
 41
0.0
 71
     1
 72
     1
  1
32
  7
SLDTEXTSTYLE0
 11
-7.044195017643634E-15
 21
1.0
 31
0.0
 73
     1
 44
1.0
  0
ENDBLK
  5
166
330
164
100
AcDbEntity
  8
0
100
AcDbBlockEnd
  0
ENDSEC
  0
SECTION
  2
ENTITIES
  0
MTEXT
  5
78
330
1F
100
AcDbEntity
  8
KOPF_DÜNN
100
AcDbMText
 10
13.8892156294
 20
23.8442973028
 30
0.0
 40
3.0
 41
0.0
 71
     1
 72
     1
  1
114.440.032.040
  7
SLDTEXTSTYLE0
 73
     1
 44
1.0
  0
MTEXT
  5
79
330
1F
100
AcDbEntity
  8
VERMASSUNG
100
AcDbMText
 10
13.9329988022
 20
28.8834360957
 30
0.0
 40
3.0
 41
0.0
 71
     1
 72
     1
  1
Aufnahme_Master shank ST3
  7
SLDTEXTSTYLE0
 73
     1
 44
1.0
  0
MTEXT
  5
7A
330
1F
100
AcDbEntity
  8
VERMASSUNG
100
AcDbMText
 10
98.8601118557
 20
13.8365368761
 30
0.0
 40
2.0
 41
0.0
 71
     1
 72
     1
  1
Datum: 14.05.2008
  7
SLDTEXTSTYLE0
 73
     1
 44
1.0
  0
MTEXT
  5
7B
330
1F
100
AcDbEntity
  8
VERMASSUNG
100
AcDbMText
 10
13.933048693
 20
18.0482802738
 30
0.0
 40
2.0
 41
0.0
 71
     1
 72
     1
  1
DIN 69871 A/D ISO 40
  7
SLDTEXTSTYLE0
 73
     1
 44
1.0
  0
MTEXT
  5
7C
330
1F
100
AcDbEntity
  8
VERMASSUNG
100
AcDbMText
 10
13.9808475933
 20
13.9090974274
 30
0.0
 40
2.0
 41
0.0
 71
     1
 72
     1
  1
Gewicht: 910g
  7
SLDTEXTSTYLE0
 73
     1
 44
1.0
  0
ARC
  5
7D
330
1F
100
AcDbEntity
  8
0
  6
Continuous
 62
     7
370
    15
100
AcDbCircle
 10
167.0603262059
 20
89.6242372534
 30
0.0
 40
0.5999999999999801
100
AcDbArc
 50
0.0
 51
90.0
  0
ARC
  5
7E
330
1F
100
AcDbEntity
  8
0
  6
Continuous
 62
     7
370
    15
100
AcDbCircle
 10
167.0603262059
 20
135.2742372534
 30
0.0
 40
0.5999999999999943
100
AcDbArc
 50
270.0
 51
0.0
  0
LINE
  5
7F
330
1F
100
AcDbEntity
  8
0
  6
Continuous
 62
     7
370
    15
100
AcDbLine
 10
164.4603262059
 20
134.6742372534
 30
0.0
 11
97.0660193129
 21
124.8459008315
 31
0.0
  0
LINE
  5
80
330
1F
100
AcDbEntity
  8
0
  6
Continuous
 62
     7
370
    15
100
AcDbLine
 10
97.0660193129
 20
100.0525736753
 30
0.0
 11
164.4603262059
 21
90.2242372534
 31
0.0
  0
LINE
  5
81
330
1F
100
AcDbEntity
  8
0
  6
Continuous
 62
     7
370
    15
100
AcDbLine
 10
164.4603262059
 20
90.2242372534
 30
0.0
 11
167.0603262059
 21
90.2242372534
 31
0.0
  0
LINE
  5
82
330
1F
100
AcDbEntity
  8
0
  6
Continuous
 62
     7
370
    15
100
AcDbLine
 10
167.0603262059
 20
134.6742372534
 30
0.0
 11
164.4603262059
 21
134.6742372534
 31
0.0
  0
ARC
  5
83
330
1F
100
AcDbEntity
  8
0
  6
Continuous
 62
     7
370
    15
100
AcDbCircle
 10
187.5103262059
 20
92.4492372534
 30
0.0
 40
4.0
100
AcDbArc
 50
90.0
 51
180.0
  0
ARC
  5
84
330
1F
100
AcDbEntity
  8
0
  6
Continuous
 62
     7
370
    15
100
AcDbCircle
 10
187.5103262059
 20
132.4492372534
 30
0.0
 40
4.0
100
AcDbArc
 50
180.0
 51
270.0
  0
LINE
  5
85
330
1F
100
AcDbEntity
  8
0
  6
Continuous
 62
     7
370
    15
100
AcDbLine
 10
204.1603262059
 20
128.4492372534
 30
0.0
 11
187.5103262059
 21
128.4492372534
 31
0.0
  0
LINE
  5
86
330
1F
100
AcDbEntity
  8
0
  6
Continuous
 62
     7
370
    15
100
AcDbLine
 10
187.5103262059
 20
96.4492372534
 30
0.0
 11
204.1603262059
 21
96.4492372534
 31
0.0
  0
LINE
  5
87
330
1F
100
AcDbEntity
  8
0
  6
Continuous
 62
     7
370
    15
100
AcDbLine
 10
204.1603262059
 20
96.4492372534
 30
0.0
 11
204.4603262059
 21
96.7492372534
 31
0.0
  0
LINE
  5
88
330
1F
100
AcDbEntity
  8
0
  6
Continuous
 62
     7
370
    15
100
AcDbLine
 10
204.4603262059
 20
128.1492372534
 30
0.0
 11
204.1603262059
 21
128.4492372534
 31
0.0
  0
ARC
  5
89
330
1F
100
AcDbEntity
  8
0
  6
Continuous
 62
     7
370
    15
100
AcDbCircle
 10
97.2103262059
 20
101.0421066564
 30
0.0
 40
1.0
100
AcDbArc
 50
180.0
 51
261.7028550302
  0
ARC
  5
8A
330
1F
100
AcDbEntity
  8
0
  6
Continuous
 62
     7
370
    15
100
AcDbCircle
 10
97.2103262059
 20
123.8563678504
 30
0.0
 40
1.0
100
AcDbArc
 50
98.2971449698
 51
180.0
  0
SPLINE
  5
8B
330
1F
100
AcDbEntity
  8
0
  6
Continuous
 62
     7
370
    15
100
AcDbSpline
210
0.0
220
0.0
230
1.0
 70
    24
 71
     3
 72
    13
 73
     9
 74
     0
 42
0.000000001
 43
0.00000001
 40
0.0
 40
0.0
 40
0.0
 40
0.0
 40
0.1179916447064554
 40
0.2941420992101391
 40
0.475615055594527
 40
0.6421055446850389
 40
0.814711424485303
 40
0.9999999999999999
 40
0.9999999999999999
 40
0.9999999999999999
 40
0.9999999999999999
 10
196.0888434984053
 20
110.7472828272221
 30
0.0
 10
196.0401504473681
 20
110.7891604161604
 30
0.0
 10
195.9187632399548
 20
110.8935573160494
 30
0.0
 10
195.7115965388882
 20
111.0717273375242
 30
0.0
 10
195.4728208616832
 20
111.2770820944239
 30
0.0
 10
195.2341303300283
 20
111.4823636234141
 30
0.0
 10
195.0010930747826
 20
111.6827831529898
 30
0.0
 10
194.8525516991247
 20
111.810533510333
 30
0.0
 10
194.7756490830268
 20
111.8766722319089
 30
0.0
  0
SPLINE
  5
8C
330
1F
100
AcDbEntity
  8
0
  6
Continuous
 62
     7
370
    15
100
AcDbSpline
210
0.0
220
0.0
230
1.0
 70
    24
 71
     3
 72
    11
 73
     7
 74
     0
 42
0.000000001
 43
0.00000001
 40
0.0
 40
0.0
 40
0.0
 40
0.0
 40
0.2164499953511946
 40
0.440299815233324
 40
0.7518914760010476
 40
1.0
 40
1.0
 40
1.0
 40
1.0
 10
197.7235206213183
 20
111.3198478487043
 30
0.0
 10
197.6115464930317
 20
111.2806275841828
 30
0.0
 10
197.3837701518239
 20
111.2008462231613
 30
0.0
 10
196.9610732284289
 20
111.0527916198199
 30
0.0
 10
196.507643959394
 20
110.8939726484606
 30
0.0
 10
196.217472916606
 20
110.7923368042815
 30
0.0
 10
196.0888434984053
 20
110.7472828272221
 30
0.0
  0
SPLINE
  5
8D
330
1F
100
AcDbEntity
  8
0
  6
Continuous
 62
     7
370
    15
100
AcDbSpline
210
0.0
220
0.0
230
1.0
 70
    24
 71
     3
 72
    11
 73
     7
 74
     0
 42
0.000000001
 43
0.00000001
 40
0.0
 40
0.0
 40
0.0
 40
0.0
 40
0.2164499953511939
 40
0.4402998152333231
 40
0.7518914760010509
 40
1.0
 40
1.0
 40
1.0
 40
1.0
 10
198.0450033288528
 20
113.0218022748733
 30
0.0
 10
198.0229820101282
 20
112.9052197029497
 30
0.0
 10
197.9781865249175
 20
112.668068924572
 30
0.0
 10
197.8950571108609
 20
112.2279753491397
 30
0.0
 10
197.8058837401435
 20
111.7558845976564
 30
0.0
 10
197.7488174417436
 20
111.4537711810698
 30
0.0
 10
197.7235206213183
 20
111.3198478487043
 30
0.0
  0
SPLINE
  5
8E
330
1F
100
AcDbEntity
  8
0
  6
Continuous
 62
     7
370
    15
100
AcDbSpline
210
0.0
220
0.0
230
1.0
 70
    24
 71
     3
 72
    11
 73
     7
 74
     0
 42
0.000000001
 43
0.00000001
 40
0.0
 40
0.0
 40
0.0
 40
0.0
 40
0.1858291127512934
 40
0.5244603149142176
 40
0.8816641415318794
 40
1.0
 40
1.0
 40
1.0
 40
1.0
 10
196.7318089134743
 20
114.1511916795601
 30
0.0
 10
196.8086071643052
 20
114.0851427154683
 30
0.0
 10
197.0253527227343
 20
113.8987345687872
 30
0.0
 10
197.4316245521865
 20
113.5493277374508
 30
0.0
 10
197.8009192653307
 20
113.2317224146229
 30
0.0
 10
197.9963670488968
 20
113.063631038857
 30
0.0
 10
198.0450033288528
 20
113.0218022748733
 30
0.0
  0
SPLINE
  5
8F
330
1F
100
AcDbEntity
  8
0
  6
Continuous
 62
     7
370
    15
100
AcDbSpline
210
0.0
220
0.0
230
1.0
 70
    24
 71
     3
 72
    11
 73
     7
 74
     0
 42
0.000000001
 43
0.00000001
 40
0.0
 40
0.0
 40
0.0
 40
0.0
 40
0.2164499953511962
 40
0.4402998152333255
 40
0.7518914760010502
 40
1.0
 40
1.0
 40
1.0
 40
1.0
 10
195.0971317905613
 20
113.5786266580779
 30
0.0
 10
195.209105918848
 20
113.6178469225994
 30
0.0
 10
195.4368822600557
 20
113.6976282836209
 30
0.0
 10
195.8595791834507
 20
113.8456828869623
 30
0.0
 10
196.3130084524856
 20
114.0045018583216
 30
0.0
 10
196.6031794952736
 20
114.1061377025006
 30
0.0
 10
196.7318089134743
 20
114.1511916795601
 30
0.0
  0
SPLINE
  5
90
330
1F
100
AcDbEntity
  8
0
  6
Continuous
 62
     7
370
    15
100
AcDbSpline
210
0.0
220
0.0
230
1.0
 70
    24
 71
     3
 72
    11
 73
     7
 74
     0
 42
0.000000001
 43
0.00000001
 40
0.0
 40
0.0
 40
0.0
 40
0.0
 40
0.2164499953511901
 40
0.4402998152333198
 40
0.7518914760010492
 40
0.9999999999999999
 40
0.9999999999999999
 40
0.9999999999999999
 40
0.9999999999999999
 10
194.7756490830268
 20
111.8766722319089
 30
0.0
 10
194.7976704017514
 20
111.9932548038325
 30
0.0
 10
194.8424658869621
 20
112.2304055822102
 30
0.0
 10
194.9255953010187
 20
112.6704991576425
 30
0.0
 10
195.0147686717361
 20
113.1425899091258
 30
0.0
 10
195.071834970136
 20
113.4447033257123
 30
0.0
 10
195.0971317905613
 20
113.5786266580779
 30
0.0
  0
CIRCLE
  5
91
330
1F
100
AcDbEntity
  8
0
  6
Continuous
 62
     7
370
    15
100
AcDbCircle
 10
196.4103262059
 20
112.4492372534
 30
0.0
 40
1.899999999999974
  0
CIRCLE
  5
92
330
1F
100
AcDbEntity
  8
0
  6
Continuous
 62
     7
370
    15
100
AcDbCircle
 10
196.4103262059
 20
112.4492372534
 30
0.0
 40
2.599999999999997
  0
ARC
  5
93
330
1F
100
AcDbEntity
  8
0
  6
Continuous
 62
     7
370
    15
100
AcDbCircle
 10
196.4103262059
 20
112.4492372534
 30
0.0
 40
1.499999999999997
100
AcDbArc
 50
169.3034103736
 51
229.3034103736
  0
ARC
  5
94
330
1F
100
AcDbEntity
  8
0
  6
Continuous
 62
     7
370
    15
100
AcDbCircle
 10
196.4103262059
 20
112.4492372534
 30
0.0
 40
1.500000000000026
100
AcDbArc
 50
49.3034103736
 51
109.3034103736
  0
ARC
  5
95
330
1F
100
AcDbEntity
  8
0
  6
Continuous
 62
     7
370
    15
100
AcDbCircle
 10
196.4103262059
 20
112.4492372534
 30
0.0
 40
1.500000000000026
100
AcDbArc
 50
349.3034103736
 51
49.3034103736
  0
ARC
  5
96
330
1F
100
AcDbEntity
  8
0
  6
Continuous
 62
     7
370
    15
100
AcDbCircle
 10
196.4103262059
 20
112.4492372534
 30
0.0
 40
1.500000000000001
100
AcDbArc
 50
109.3034103736
 51
169.3034103736
  0
ARC
  5
97
330
1F
100
AcDbEntity
  8
0
  6
Continuous
 62
     7
370
    15
100
AcDbCircle
 10
196.4103262059
 20
112.4492372534
 30
0.0
 40
1.500000000000006
100
AcDbArc
 50
229.3034103736
 51
289.3034103736
  0
ARC
  5
98
330
1F
100
AcDbEntity
  8
0
  6
Continuous
 62
     7
370
    15
100
AcDbCircle
 10
196.4103262059
 20
112.4492372534
 30
0.0
 40
1.500000000000006
100
AcDbArc
 50
289.3034103736
 51
349.3034103736
  0
SPLINE
  5
99
330
1F
100
AcDbEntity
  8
0
  6
Continuous
 62
     7
370
    15
100
AcDbSpline
210
0.0
220
0.0
230
1.0
 70
     8
 71
     3
 72
    12
 73
     8
 74
     0
 42
0.000000001
 43
0.00000001
 40
0.0
 40
0.0
 40
0.0
 40
0.0
 40
0.250000000000001
 40
0.250000000000001
 40
0.500000000000002
 40
0.500000000000002
 40
1.0
 40
1.0
 40
1.0
 40
1.0
 10
182.9103262059398
 20
82.0011449047544
 30
0.0
 10
183.0058681160758
 20
82.0011449047544
 30
0.0
 10
183.0980130579386
 20
82.0173985739506
 30
0.0
 10
183.2543393345485
 20
82.07100699486408
 30
0.0
 10
183.3180074771685
 20
82.10741812014577
 30
0.0
 10
183.4668753225988
 20
82.22954175983226
 30
0.0
 10
183.5103262059398
 20
82.3246944352693
 30
0.0
 10
183.5103262059398
 20
82.42032089088896
 30
0.0
  0
SPLINE
  5
9A
330
1F
100
AcDbEntity
  8
0
  6
Continuous
 62
     7
370
    15
100
AcDbSpline
210
0.0
220
0.0
230
1.0
 70
    24
 71
     3
 72
    12
 73
     8
 74
     0
 42
0.000000001
 43
0.00000001
 40
0.0
 40
0.0
 40
0.0
 40
0.0
 40
0.4999999999999931
 40
0.4999999999999931
 40
0.7499999999999966
 40
0.7499999999999966
 40
1.0
 40
1.0
 40
1.0
 40
1.0
 10
183.5103262059398
 20
130.7992372533911
 30
0.0
 10
183.5103262059398
 20
130.7992372533911
 30
0.0
 10
183.4606462109847
 20
130.7992372533911
 30
0.0
 10
183.3047276539672
 20
130.7992372533911
 30
0.0
 10
183.2388465893911
 20
130.7992372533911
 30
0.0
 10
183.0862009339024
 20
130.7992372533911
 30
0.0
 10
182.9989510260414
 20
130.7992372533911
 30
0.0
 10
182.9103262059397
 20
130.7992372533911
 30
0.0
  0
LINE
  5
9B
330
1F
100
AcDbEntity
  8
0
  6
Continuous
 62
     7
370
    15
100
AcDbLine
 10
183.5103262059
 20
82.4203208909
 30
0.0
 11
183.5103262059
 21
130.7992372534
 31
0.0
  0
LINE
  5
9C
330
1F
100
AcDbEntity
  8
0
  6
Continuous
 62
     7
370
    15
100
AcDbLine
 10
168.2603262059
 20
82.0011449048
 30
0.0
 11
172.0384895639
 21
82.0011449048
 31
0.0
  0
LINE
  5
9D
330
1F
100
AcDbEntity
  8
0
  6
Continuous
 62
     7
370
    15
100
AcDbLine
 10
172.0384895639
 20
130.7992372534
 30
0.0
 11
168.2603262059
 21
130.7992372534
 31
0.0
  0
LINE
  5
9E
330
1F
100
AcDbEntity
  8
0
  6
Continuous
 62
     7
370
    15
100
AcDbLine
 10
172.0384895639
 20
82.0011449048
 30
0.0
 11
172.0384895639
 21
130.7992372534
 31
0.0
  0
SPLINE
  5
9F
330
1F
100
AcDbEntity
  8
0
  6
Continuous
 62
     7
370
    15
100
AcDbSpline
210
0.0
220
0.0
230
1.0
 70
     8
 71
     3
 72
     8
 73
     4
 74
     0
 42
0.000000001
 43
0.00000001
 40
0.0
 40
0.0
 40
0.0
 40
0.0
 40
1.0
 40
1.0
 40
1.0
 40
1.0
 10
173.6503262059398
 20
84.63241079388962
 30
0.0
 10
173.2661914573554
 20
83.93976937194543
 30
0.0
 10
172.8812051808625
 20
83.24758319762171
 30
0.0
 10
172.4955366022361
 20
82.55578890677754
 30
0.0
  0
SPLINE
  5
A0
330
1F
100
AcDbEntity
  8
0
  6
Continuous
 62
     7
370
    15
100
AcDbSpline
210
0.0
220
0.0
230
1.0
 70
     8
 71
     3
 72
     8
 73
     4
 74
     0
 42
0.000000001
 43
0.00000001
 40
0.0
 40
0.0
 40
0.0
 40
0.0
 40
0.0011901715795577
 40
0.0011901715795577
 40
0.0011901715795577
 40
0.0011901715795577
 10
172.0384895638831
 20
82.0011449047544
 30
0.0
 10
172.192335753379
 20
82.18571014243797
 30
0.0
 10
172.3447310210516
 20
82.3705855029666
 30
0.0
 10
172.4955366022361
 20
82.55578890677754
 30
0.0
  0
SPLINE
  5
A1
330
1F
100
AcDbEntity
  8
0
  6
Continuous
 62
     7
370
    15
100
AcDbSpline
210
0.0
220
0.0
230
1.0
 70
    24
 71
     3
 72
     8
 73
     4
 74
     0
 42
0.000000001
 43
0.00000001
 40
0.0
 40
0.0
 40
0.0
 40
0.0
 40
1.0
 40
1.0
 40
1.0
 40
1.0
 10
173.6503262059398
 20
130.7992372533911
 30
0.0
 10
173.1255937175779
 20
130.7992372533911
 30
0.0
 10
172.5869182333591
 20
130.7992372533911
 30
0.0
 10
172.0384895638831
 20
130.7992372533911
 30
0.0
  0
LINE
  5
A2
330
1F
100
AcDbEntity
  8
0
  6
Continuous
 62
     7
370
    15
100
AcDbLine
 10
173.6503262059
 20
84.6324107939
 30
0.0
 11
173.6503262059
 21
130.7992372534
 31
0.0
  0
LINE
  5
A3
330
1F
100
AcDbEntity
  8
0
  6
Continuous
 62
     7
370
    15
100
AcDbLine
 10
179.082162848
 20
82.0011449048
 30
0.0
 11
182.9103262059
 21
82.0011449048
 31
0.0
  0
LINE
  5
A4
330
1F
100
AcDbEntity
  8
0
  6
Continuous
 62
     7
370
    15
100
AcDbLine
 10
179.082162848
 20
82.0011449048
 30
0.0
 11
179.082162848
 21
130.7992372534
 31
0.0
  0
LINE
  5
A5
330
1F
100
AcDbEntity
  8
0
  6
Continuous
 62
     7
370
    15
100
AcDbLine
 10
182.9103262059
 20
130.7992372534
 30
0.0
 11
179.082162848
 21
130.7992372534
 31
0.0
  0
SPLINE
  5
A6
330
1F
100
AcDbEntity
  8
0
  6
Continuous
 62
     7
370
    15
100
AcDbSpline
210
0.0
220
0.0
230
1.0
 70
     8
 71
     3
 72
     8
 73
     4
 74
     0
 42
0.000000001
 43
0.00000001
 40
0.0
 40
0.0
 40
0.0
 40
0.0
 40
0.0011901715795577
 40
0.0011901715795577
 40
0.0011901715795577
 40
0.0011901715795577
 10
178.6251158096435
 20
82.55578890677754
 30
0.0
 10
178.775921390828
 20
82.3705855029666
 30
0.0
 10
178.9283166585006
 20
82.18571014243797
 30
0.0
 10
179.0821628479965
 20
82.0011449047544
 30
0.0
  0
SPLINE
  5
A7
330
1F
100
AcDbEntity
  8
0
  6
Continuous
 62
     7
370
    15
100
AcDbSpline
210
0.0
220
0.0
230
1.0
 70
     8
 71
     3
 72
     8
 73
     4
 74
     0
 42
0.000000001
 43
0.00000001
 40
0.0
 40
0.0
 40
0.0
 40
0.0
 40
1.0
 40
1.0
 40
1.0
 40
1.0
 10
178.6251158096435
 20
82.55578890677754
 30
0.0
 10
178.2394472310171
 20
83.24758319762171
 30
0.0
 10
177.8544609545242
 20
83.93976937194542
 30
0.0
 10
177.4703262059398
 20
84.63241079388962
 30
0.0
  0
LINE
  5
A8
330
1F
100
AcDbEntity
  8
0
  6
Continuous
 62
     7
370
    15
100
AcDbLine
 10
177.4703262059
 20
84.6324107939
 30
0.0
 11
177.4703262059
 21
130.7992372534
 31
0.0
  0
SPLINE
  5
A9
330
1F
100
AcDbEntity
  8
0
  6
Continuous
 62
     7
370
    15
100
AcDbSpline
210
0.0
220
0.0
230
1.0
 70
    24
 71
     3
 72
     8
 73
     4
 74
     0
 42
0.000000001
 43
0.00000001
 40
0.0
 40
0.0
 40
0.0
 40
0.0
 40
1.0
 40
1.0
 40
1.0
 40
1.0
 10
179.0821628479965
 20
130.7992372533911
 30
0.0
 10
178.5337341785205
 20
130.7992372533911
 30
0.0
 10
177.9950586943017
 20
130.7992372533911
 30
0.0
 10
177.4703262059398
 20
130.7992372533911
 30
0.0
  0
SPLINE
  5
AA
330
1F
100
AcDbEntity
  8
0
  6
Continuous
 62
     7
370
    15
100
AcDbSpline
210
0.0
220
0.0
230
1.0
 70
     8
 71
     3
 72
    10
 73
     6
 74
     0
 42
0.000000001
 43
0.00000001
 40
0.0
 40
0.0
 40
0.0
 40
0.0
 40
0.5
 40
0.5
 40
1.0
 40
1.0
 40
1.0
 40
1.0
 10
167.876470747287
 20
82.09750740392285
 30
0.0
 10
167.9252407202684
 20
82.06927939671485
 30
0.0
 10
167.9826928435707
 20
82.04518479247325
 30
0.0
 10
168.1132897465594
 20
82.01092131938069
 30
0.0
 10
168.1857794264016
 20
82.00114490475438
 30
0.0
 10
168.2603262059398
 20
82.00114490475438
 30
0.0
  0
SPLINE
  5
AB
330
1F
100
AcDbEntity
  8
0
  6
Continuous
 62
     7
370
    15
100
AcDbSpline
210
0.0
220
0.0
230
1.0
 70
     8
 71
     3
 72
    10
 73
     6
 74
     0
 42
0.000000001
 43
0.00000001
 40
0.0
 40
0.0
 40
0.0
 40
0.0
 40
0.5
 40
0.5
 40
1.0
 40
1.0
 40
1.0
 40
1.0
 10
167.876470747287
 20
82.09750740392285
 30
0.0
 10
167.8183480872109
 20
82.16481256378465
 30
0.0
 10
167.7659449212074
 20
82.2448979508183
 30
0.0
 10
167.687041899661
 20
82.42891739250707
 30
0.0
 10
167.6603262059398
 20
82.53412874992752
 30
0.0
 10
167.6603262059398
 20
82.64286209638819
 30
0.0
  0
LINE
  5
AC
330
1F
100
AcDbEntity
  8
0
  6
Continuous
 62
     7
370
    15
100
AcDbLine
 10
167.6603262059
 20
82.6428620964
 30
0.0
 11
167.6603262059
 21
130.7992372534
 31
0.0
  0
SPLINE
  5
AD
330
1F
100
AcDbEntity
  8
0
  6
Continuous
 62
     7
370
    15
100
AcDbSpline
210
0.0
220
0.0
230
1.0
 70
    24
 71
     3
 72
    12
 73
     8
 74
     0
 42
0.000000001
 43
0.00000001
 40
0.0
 40
0.0
 40
0.0
 40
0.0
 40
0.2499999999999998
 40
0.2499999999999998
 40
0.4999999999999997
 40
0.4999999999999997
 40
1.0
 40
1.0
 40
1.0
 40
1.0
 10
168.2603262059398
 20
130.7992372533911
 30
0.0
 10
168.1719108286293
 20
130.7992372533911
 30
0.0
 10
168.0846403914587
 20
130.7992372533911
 30
0.0
 10
167.9321766666869
 20
130.7992372533911
 30
0.0
 10
167.8665380544645
 20
130.7992372533911
 30
0.0
 10
167.7098796531805
 20
130.7992372533911
 30
0.0
 10
167.6603262059398
 20
130.7992372533911
 30
0.0
 10
167.6603262059398
 20
130.7992372533911
 30
0.0
  0
SPLINE
  5
AE
330
1F
100
AcDbEntity
  8
0
  6
Continuous
 62
     7
370
    15
100
AcDbSpline
210
0.0
220
0.0
230
1.0
 70
     8
 71
     3
 72
    12
 73
     8
 74
     0
 42
0.000000001
 43
0.00000001
 40
0.0
 40
0.0
 40
0.0
 40
0.0
 40
0.2500000000000015
 40
0.2500000000000015
 40
0.500000000000003
 40
0.500000000000003
 40
1.0
 40
1.0
 40
1.0
 40
1.0
 10
174.4503262059398
 20
85.63137939710434
 30
0.0
 10
174.3439243555823
 20
85.63137939710435
 30
0.0
 10
174.2366089441858
 20
85.60860863308584
 30
0.0
 10
174.0411373531586
 20
85.52236568643373
 30
0.0
 10
173.950955237221
 20
85.4576893659632
 30
0.0
 10
173.7327337505002
 20
85.2247600419064
 30
0.0
 10
173.6503262059395
 20
85.01017480401539
 30
0.0
 10
173.6503262059398
 20
84.79715776558267
 30
0.0
  0
SPLINE
  5
AF
330
1F
100
AcDbEntity
  8
0
  6
Continuous
 62
     7
370
    15
100
AcDbSpline
210
0.0
220
0.0
230
1.0
 70
    24
 71
     3
 72
    14
 73
    10
 74
     0
 42
0.000000001
 43
0.00000001
 40
0.0
 40
0.0
 40
0.0
 40
0.0
 40
0.1250000000000018
 40
0.1250000000000018
 40
0.2500000000000037
 40
0.2500000000000037
 40
0.5000000000000004
 40
0.5000000000000004
 40
1.0
 40
1.0
 40
1.0
 40
1.0
 10
174.4503262059398
 20
130.7992372533911
 30
0.0
 10
174.3897088825222
 20
130.7992372533911
 30
0.0
 10
174.3275837343872
 20
130.7992372533911
 30
0.0
 10
174.2113660713658
 20
130.7992372533911
 30
0.0
 10
174.1567494316734
 20
130.7992372533911
 30
0.0
 10
174.0020730931652
 20
130.7992372533911
 30
0.0
 10
173.9159563443812
 20
130.7992372533911
 30
0.0
 10
173.7146487638406
 20
130.7992372533911
 30
0.0
 10
173.6503262059398
 20
130.7992372533911
 30
0.0
 10
173.6503262059398
 20
130.7992372533911
 30
0.0
  0
SPLINE
  5
B0
330
1F
100
AcDbEntity
  8
0
  6
Continuous
 62
     7
370
    15
100
AcDbSpline
210
0.0
220
0.0
230
1.0
 70
     8
 71
     3
 72
    12
 73
     8
 74
     0
 42
0.000000001
 43
0.00000001
 40
0.0
 40
0.0
 40
0.0
 40
0.0
 40
0.5
 40
0.5
 40
0.75
 40
0.75
 40
1.0
 40
1.0
 40
1.0
 40
1.0
 10
177.4703262059398
 20
84.79715776558402
 30
0.0
 10
177.4703262059398
 20
85.0099803245169
 30
0.0
 10
177.3884008481201
 20
85.22423683115488
 30
0.0
 10
177.1694790446517
 20
85.45792645960476
 30
0.0
 10
177.0794317531607
 20
85.52241128444874
 30
0.0
 10
176.8840182851408
 20
85.60861089560431
 30
0.0
 10
176.776735318157
 20
85.63137939710435
 30
0.0
 10
176.6703262059398
 20
85.63137939710435
 30
0.0
  0
SPLINE
  5
B1
330
1F
100
AcDbEntity
  8
0
  6
Continuous
 62
     7
370
    15
100
AcDbSpline
210
0.0
220
0.0
230
1.0
 70
    24
 71
     3
 72
    14
 73
    10
 74
     0
 42
0.000000001
 43
0.00000001
 40
0.0
 40
0.0
 40
0.0
 40
0.0
 40
0.25
 40
0.25
 40
0.5
 40
0.5
 40
0.75
 40
0.75
 40
1.0
 40
1.0
 40
1.0
 40
1.0
 10
177.4703262059398
 20
130.7992372533911
 30
0.0
 10
177.4703262059398
 20
130.7992372533911
 30
0.0
 10
177.45424460448
 20
130.7992372533911
 30
0.0
 10
177.3887530912131
 20
130.7992372533911
 30
0.0
 10
177.3394451180858
 20
130.7992372533911
 30
0.0
 10
177.2048755963888
 20
130.7992372533911
 30
0.0
 10
177.1193525203035
 20
130.7992372533911
 30
0.0
 10
176.9123570247485
 20
130.7992372533911
 30
0.0
 10
176.7916633908049
 20
130.7992372533911
 30
0.0
 10
176.6703262059398
 20
130.7992372533911
 30
0.0
  0
LINE
  5
B2
330
1F
100
AcDbEntity
  8
0
  6
Continuous
 62
     7
370
    15
100
AcDbLine
 10
176.6703262059
 20
85.6313793971
 30
0.0
 11
174.4503262059
 21
85.6313793971
 31
0.0
  0
LINE
  5
B3
330
1F
100
AcDbEntity
  8
0
  6
Continuous
 62
     7
370
    15
100
AcDbLine
 10
176.6703262059
 20
130.7992372534
 30
0.0
 11
174.4503262059
 21
130.7992372534
 31
0.0
  0
LINE
  5
B4
330
1F
100
AcDbEntity
  8
0
  6
Continuous
 62
     7
370
    15
100
AcDbLine
 10
164.4603262059
 20
90.2242372534
 30
0.0
 11
164.4603262059
 21
134.6742372534
 31
0.0
  0
LINE
  5
B5
330
1F
100
AcDbEntity
  8
0
  6
Continuous
 62
     7
370
    15
100
AcDbLine
 10
176.6703262059
 20
139.2670951097
 30
0.0
 11
174.4503262059
 21
139.2670951097
 31
0.0
  0
LINE
  5
B6
330
1F
100
AcDbEntity
  8
0
  6
Continuous
 62
     7
370
    15
100
AcDbLine
 10
174.4503262059
 20
133.5981733968
 30
0.0
 11
176.6703262059
 21
133.5981733968
 31
0.0
  0
SPLINE
  5
B7
330
1F
100
AcDbEntity
  8
0
  6
Continuous
 62
     7
370
    15
100
AcDbSpline
210
0.0
220
0.0
230
1.0
 70
     8
 71
     3
 72
    12
 73
     8
 74
     0
 42
0.000000001
 43
0.00000001
 40
0.0
 40
0.0
 40
0.0
 40
0.0
 40
0.5000000000000042
 40
0.5000000000000042
 40
0.7500000000000021
 40
0.7500000000000021
 40
1.0
 40
1.0
 40
1.0
 40
1.0
 10
183.5103262059398
 20
142.4597883868323
 30
0.0
 10
183.5103262059398
 20
142.5801154198854
 30
0.0
 10
183.4565313943468
 20
142.6982129933672
 30
0.0
 10
183.2956078243805
 20
142.8378557358062
 30
0.0
 10
183.230856363278
 20
142.8761316892007
 30
0.0
 10
183.0786361799603
 20
142.9309715188351
 30
0.0
 10
182.9958286644354
 20
142.9455733326067
 30
0.0
 10
182.9103262059398
 20
142.9455733326067
 30
0.0
  0
SPLINE
  5
B8
330
1F
100
AcDbEntity
  8
0
  6
Continuous
 62
     7
370
    15
100
AcDbSpline
210
0.0
220
0.0
230
1.0
 70
     8
 71
     3
 72
    14
 73
    10
 74
     0
 42
0.000000001
 43
0.00000001
 40
0.0
 40
0.0
 40
0.0
 40
0.0
 40
0.25
 40
0.25
 40
0.5
 40
0.5
 40
0.75
 40
0.75
 40
1.0
 40
1.0
 40
1.0
 40
1.0
 10
182.9103262059398
 20
138.3594668934387
 30
0.0
 10
182.9987487440623
 20
138.3594668934387
 30
0.0
 10
183.0868027337553
 20
138.3343945429793
 30
0.0
 10
183.2386324976267
 20
138.2480524780079
 30
0.0
 10
183.3044754421905
 20
138.1865092234951
 30
0.0
 10
183.408274502736
 20
138.0446814772442
 30
0.0
 10
183.4467466122107
 20
137.9646328872741
 30
0.0
 10
183.4979692754852
 20
137.7956203906004
 30
0.0
 10
183.5103262059398
 20
137.7088410837307
 30
0.0
 10
183.5103262059398
 20
137.6206496094747
 30
0.0
  0
LINE
  5
B9
330
1F
100
AcDbEntity
  8
0
  6
Continuous
 62
     7
370
    15
100
AcDbLine
 10
183.5103262059
 20
137.6206496095
 30
0.0
 11
183.5103262059
 21
142.4597883868
 31
0.0
  0
SPLINE
  5
BA
330
1F
100
AcDbEntity
  8
0
  6
Continuous
 62
     7
370
    15
100
AcDbSpline
210
0.0
220
0.0
230
1.0
 70
     8
 71
     3
 72
    12
 73
     8
 74
     0
 42
0.000000001
 43
0.00000001
 40
0.0
 40
0.0
 40
0.0
 40
0.0
 40
0.5000000000000003
 40
0.5000000000000003
 40
0.7500000000000001
 40
0.7500000000000001
 40
1.0
 40
1.0
 40
1.0
 40
1.0
 10
167.6603262059398
 20
137.6206496094747
 30
0.0
 10
167.6603262059398
 20
137.7972660059964
 30
0.0
 10
167.7096668407616
 20
137.9723231773702
 30
0.0
 10
167.8658823990498
 20
138.1862733898628
 30
0.0
 10
167.9311849789505
 20
138.2476060327097
 30
0.0
 10
168.0849539969108
 20
138.334994130681
 30
0.0
 10
168.1719671035213
 20
138.3594668934387
 30
0.0
 10
168.2603262059398
 20
138.3594668934387
 30
0.0
  0
LINE
  5
BB
330
1F
100
AcDbEntity
  8
0
  6
Continuous
 62
     7
370
    15
100
AcDbLine
 10
168.2603262059
 20
138.3594668934
 30
0.0
 11
172.0384895639
 21
138.3594668934
 31
0.0
  0
SPLINE
  5
BC
330
1F
100
AcDbEntity
  8
0
  6
Continuous
 62
     7
370
    15
100
AcDbSpline
210
0.0
220
0.0
230
1.0
 70
     8
 71
     3
 72
     8
 73
     4
 74
     0
 42
0.000000001
 43
0.00000001
 40
0.0
 40
0.0
 40
0.0
 40
0.0
 40
1.0
 40
1.0
 40
1.0
 40
1.0
 10
172.0384895638831
 20
138.3594668934387
 30
0.0
 10
172.58743434208
 20
137.1943707811249
 30
0.0
 10
173.1260447165967
 20
136.0252124643005
 30
0.0
 10
173.6503262059398
 20
134.8513763092496
 30
0.0
  0
SPLINE
  5
BD
330
1F
100
AcDbEntity
  8
0
  6
Continuous
 62
     7
370
    15
100
AcDbSpline
210
0.0
220
0.0
230
1.0
 70
     8
 71
     3
 72
    14
 73
    10
 74
     0
 42
0.000000001
 43
0.00000001
 40
0.0
 40
0.0
 40
0.0
 40
0.0
 40
0.25
 40
0.25
 40
0.5
 40
0.5
 40
0.75
 40
0.75
 40
1.0
 40
1.0
 40
1.0
 40
1.0
 10
173.6503262059398
 20
134.6464780729164
 30
0.0
 10
173.6503262059398
 20
134.5245427377348
 30
0.0
 10
173.6663705734798
 20
134.4049884972334
 30
0.0
 10
173.7320999156591
 20
134.1708725140901
 30
0.0
 10
173.7813072859074
 20
134.0589399739554
 30
0.0
 10
173.9163202668063
 20
133.8565401647186
 30
0.0
 10
174.0022403354126
 20
133.7666749711556
 30
0.0
 10
174.208755137418
 20
133.6363404615454
 30
0.0
 10
174.3288938497891
 20
133.5981733968476
 30
0.0
 10
174.4503262059398
 20
133.5981733968476
 30
0.0
  0
SPLINE
  5
BE
330
1F
100
AcDbEntity
  8
0
  6
Continuous
 62
     7
370
    15
100
AcDbSpline
210
0.0
220
0.0
230
1.0
 70
     8
 71
     3
 72
    12
 73
     8
 74
     0
 42
0.000000001
 43
0.00000001
 40
0.0
 40
0.0
 40
0.0
 40
0.0
 40
0.2499999999999986
 40
0.2499999999999986
 40
0.4999999999999971
 40
0.4999999999999971
 40
1.0
 40
1.0
 40
1.0
 40
1.0
 10
176.6703262059398
 20
133.5981733968476
 30
0.0
 10
176.7924082034281
 20
133.5981733968476
 30
0.0
 10
176.9129987459138
 20
133.6368997530213
 30
0.0
 10
177.1184940296136
 20
133.7668633407675
 30
0.0
 10
177.2040105125661
 20
133.8560695773143
 30
0.0
 10
177.4074048641103
 20
134.1609461148599
 30
0.0
 10
177.4703262059398
 20
134.403716728962
 30
0.0
 10
177.4703262059398
 20
134.6464780729164
 30
0.0
  0
LINE
  5
BF
330
1F
100
AcDbEntity
  8
0
  6
Continuous
 62
     7
370
    15
100
AcDbLine
 10
177.4703262059
 20
134.6464780729
 30
0.0
 11
177.4703262059
 21
134.8513763092
 31
0.0
  0
SPLINE
  5
C0
330
1F
100
AcDbEntity
  8
0
  6
Continuous
 62
     7
370
    15
100
AcDbSpline
210
0.0
220
0.0
230
1.0
 70
     8
 71
     3
 72
     8
 73
     4
 74
     0
 42
0.000000001
 43
0.00000001
 40
0.0
 40
0.0
 40
0.0
 40
0.0
 40
1.0
 40
1.0
 40
1.0
 40
1.0
 10
177.4703262059398
 20
134.8513763092496
 30
0.0
 10
177.9951173254357
 20
136.0263534969543
 30
0.0
 10
178.5336335766186
 20
137.1952526646924
 30
0.0
 10
179.0821628479965
 20
138.3594668934387
 30
0.0
  0
LINE
  5
C1
330
1F
100
AcDbEntity
  8
0
  6
Continuous
 62
     7
370
    15
100
AcDbLine
 10
179.082162848
 20
138.3594668934
 30
0.0
 11
182.9103262059
 21
138.3594668934
 31
0.0
  0
LINE
  5
C2
330
1F
100
AcDbEntity
  8
0
  6
Continuous
 62
     7
370
    15
100
AcDbLine
 10
173.6503262059
 20
134.8513763092
 30
0.0
 11
173.6503262059
 21
134.6464780729
 31
0.0
  0
LINE
  5
C3
330
1F
100
AcDbEntity
  8
0
  6
Continuous
 62
     7
370
    15
100
AcDbLine
 10
167.6603262059
 20
137.6206496095
 30
0.0
 11
167.6603262059
 21
130.7992372534
 31
0.0
  0
LINE
  5
C4
330
1F
100
AcDbEntity
  8
0
  6
Continuous
 62
     7
370
    15
100
AcDbLine
 10
183.5103262059
 20
137.6206496095
 30
0.0
 11
183.5103262059
 21
130.7992372534
 31
0.0
  0
LINE
  5
C5
330
1F
100
AcDbEntity
  8
0
  6
Continuous
 62
     7
370
    15
100
AcDbLine
 10
182.9103262059
 20
142.9455733326
 30
0.0
 11
179.082162848
 21
142.9455733326
 31
0.0
  0
LINE
  5
C6
330
1F
100
AcDbEntity
  8
0
  6
Continuous
 62
     7
370
    15
100
AcDbLine
 10
179.082162848
 20
138.3594668934
 30
0.0
 11
179.082162848
 21
142.9455733326
 31
0.0
  0
SPLINE
  5
C7
330
1F
100
AcDbEntity
  8
0
  6
Continuous
 62
     7
370
    15
100
AcDbSpline
210
0.0
220
0.0
230
1.0
 70
     8
 71
     3
 72
     8
 73
     4
 74
     0
 42
0.000000001
 43
0.00000001
 40
0.0
 40
0.0
 40
0.0
 40
0.0
 40
1.0
 40
1.0
 40
1.0
 40
1.0
 10
178.5242808922359
 20
142.1617754096556
 30
0.0
 10
178.1723368693276
 20
141.5302140216418
 30
0.0
 10
177.8209784462674
 20
140.8983321219429
 30
0.0
 10
177.4703262059398
 20
140.2660637128926
 30
0.0
  0
SPLINE
  5
C8
330
1F
100
AcDbEntity
  8
0
  6
Continuous
 62
     7
370
    15
100
AcDbSpline
210
0.0
220
0.0
230
1.0
 70
     8
 71
     3
 72
     8
 73
     4
 74
     0
 42
0.000000001
 43
0.00000001
 40
0.0
 40
0.0
 40
0.0
 40
0.0
 40
0.0012409313617635
 40
0.0012409313617635
 40
0.0012409313617635
 40
0.0012409313617635
 10
179.0821628479965
 20
142.9455733326067
 30
0.0
 10
178.8954899197643
 20
142.6845614549081
 30
0.0
 10
178.7095047317918
 20
142.4233029531327
 30
0.0
 10
178.5242808922359
 20
142.1617754096556
 30
0.0
  0
LINE
  5
C9
330
1F
100
AcDbEntity
  8
0
  6
Continuous
 62
     7
370
    15
100
AcDbLine
 10
177.4703262059
 20
134.8513763092
 30
0.0
 11
177.4703262059
 21
140.2660637129
 31
0.0
  0
SPLINE
  5
CA
330
1F
100
AcDbEntity
  8
0
  6
Continuous
 62
     7
370
    15
100
AcDbSpline
210
0.0
220
0.0
230
1.0
 70
     8
 71
     3
 72
     8
 73
     4
 74
     0
 42
0.000000001
 43
0.00000001
 40
0.0
 40
0.0
 40
0.0
 40
0.0
 40
0.0012409313617635
 40
0.0012409313617635
 40
0.0012409313617635
 40
0.0012409313617635
 10
172.5963715196438
 20
142.1617754096556
 30
0.0
 10
172.4111476800878
 20
142.4233029531327
 30
0.0
 10
172.2251624921153
 20
142.6845614549081
 30
0.0
 10
172.0384895638831
 20
142.9455733326067
 30
0.0
  0
SPLINE
  5
CB
330
1F
100
AcDbEntity
  8
0
  6
Continuous
 62
     7
370
    15
100
AcDbSpline
210
0.0
220
0.0
230
1.0
 70
     8
 71
     3
 72
     8
 73
     4
 74
     0
 42
0.000000001
 43
0.00000001
 40
0.0
 40
0.0
 40
0.0
 40
0.0
 40
1.0
 40
1.0
 40
1.0
 40
1.0
 10
173.6503262059398
 20
140.2660637128926
 30
0.0
 10
173.2996739656122
 20
140.8983321219429
 30
0.0
 10
172.948315542552
 20
141.5302140216418
 30
0.0
 10
172.5963715196438
 20
142.1617754096556
 30
0.0
  0
LINE
  5
CC
330
1F
100
AcDbEntity
  8
0
  6
Continuous
 62
     7
370
    15
100
AcDbLine
 10
172.0384895639
 20
138.3594668934
 30
0.0
 11
172.0384895639
 21
142.9455733326
 31
0.0
  0
LINE
  5
CD
330
1F
100
AcDbEntity
  8
0
  6
Continuous
 62
     7
370
    15
100
AcDbLine
 10
173.6503262059
 20
134.8513763092
 30
0.0
 11
173.6503262059
 21
140.2660637129
 31
0.0
  0
SPLINE
  5
CE
330
1F
100
AcDbEntity
  8
0
  6
Continuous
 62
     7
370
    15
100
AcDbSpline
210
0.0
220
0.0
230
1.0
 70
     8
 71
     3
 72
    12
 73
     8
 74
     0
 42
0.000000001
 43
0.00000001
 40
0.0
 40
0.0
 40
0.0
 40
0.0
 40
0.5
 40
0.5
 40
0.75
 40
0.75
 40
1.0
 40
1.0
 40
1.0
 40
1.0
 10
177.4703262059398
 20
140.1013167411981
 30
0.0
 10
177.4703262059398
 20
139.8881793395466
 30
0.0
 10
177.3876837907918
 20
139.673199814809
 30
0.0
 10
177.1691003799815
 20
139.4402807459232
 30
0.0
 10
177.0800104270008
 20
139.3764138361027
 30
0.0
 10
176.8846051091033
 20
139.2900276817209
 30
0.0
 10
176.7780810621599
 20
139.2670951096778
 30
0.0
 10
176.6703262059398
 20
139.2670951096778
 30
0.0
  0
LINE
  5
CF
330
1F
100
AcDbEntity
  8
0
  6
Continuous
 62
     7
370
    15
100
AcDbLine
 10
172.0384895639
 20
142.9455733326
 30
0.0
 11
168.2603262059
 21
142.9455733326
 31
0.0
  0
SPLINE
  5
D0
330
1F
100
AcDbEntity
  8
0
  6
Continuous
 62
     7
370
    15
100
AcDbSpline
210
0.0
220
0.0
230
1.0
 70
     8
 71
     3
 72
    10
 73
     6
 74
     0
 42
0.000000001
 43
0.00000001
 40
0.0
 40
0.0
 40
0.0
 40
0.0
 40
0.5
 40
0.5
 40
1.0
 40
1.0
 40
1.0
 40
1.0
 10
167.9475678072474
 20
142.874533808348
 30
0.0
 10
167.8717282132439
 20
142.8044846220194
 30
0.0
 10
167.8044046955179
 20
142.7192658484457
 30
0.0
 10
167.6977610572128
 20
142.5090397217839
 30
0.0
 10
167.6603262059398
 20
142.3855305309166
 30
0.0
 10
167.6603262059398
 20
142.255612410394
 30
0.0
  0
SPLINE
  5
D1
330
1F
100
AcDbEntity
  8
0
  6
Continuous
 62
     7
370
    15
100
AcDbSpline
210
0.0
220
0.0
230
1.0
 70
     8
 71
     3
 72
     8
 73
     4
 74
     0
 42
0.000000001
 43
0.00000001
 40
0.0
 40
0.0
 40
0.0
 40
0.0
 40
1.0
 40
1.0
 40
1.0
 40
1.0
 10
168.2603262059398
 20
142.9455733326067
 30
0.0
 10
168.1481479517601
 20
142.9455733326067
 30
0.0
 10
168.0394784390317
 20
142.9198922673457
 30
0.0
 10
167.9475678072474
 20
142.874533808348
 30
0.0
  0
LINE
  5
D2
330
1F
100
AcDbEntity
  8
0
  6
Continuous
 62
     7
370
    15
100
AcDbLine
 10
167.6603262059
 20
137.6206496095
 30
0.0
 11
167.6603262059
 21
142.2556124104
 31
0.0
  0
SPLINE
  5
D3
330
1F
100
AcDbEntity
  8
0
  6
Continuous
 62
     7
370
    15
100
AcDbSpline
210
0.0
220
0.0
230
1.0
 70
     8
 71
     3
 72
    14
 73
    10
 74
     0
 42
0.000000001
 43
0.00000001
 40
0.0
 40
0.0
 40
0.0
 40
0.0
 40
0.25
 40
0.25
 40
0.5
 40
0.5
 40
0.75
 40
0.75
 40
1.0
 40
1.0
 40
1.0
 40
1.0
 10
174.4503262059398
 20
139.2670951096778
 30
0.0
 10
174.3429571614255
 20
139.2670951096778
 30
0.0
 10
174.2361516696626
 20
139.2900201050828
 30
0.0
 10
174.0410103011458
 20
139.376212538957
 30
0.0
 10
173.9518005835559
 20
139.440056535621
 30
0.0
 10
173.8058737907395
 20
139.5954726435623
 30
0.0
 10
173.7478840469414
 20
139.6881272217701
 30
0.0
 10
173.6702902054189
 20
139.8873605618196
 30
0.0
 10
173.6503262059398
 20
139.9939656568748
 30
0.0
 10
173.6503262059398
 20
140.1013167411981
 30
0.0
  0
SPLINE
  5
D4
330
1F
100
AcDbEntity
  8
0
  6
Continuous
 62
     7
370
    15
100
AcDbSpline
210
0.0
220
0.0
230
1.0
 70
    11
 71
     3
 72
    66
 73
    62
 74
     0
 42
0.000000001
 43
0.00000001
 40
0.0
 40
0.0
 40
0.0
 40
0.0
 40
0.0312499999999998
 40
0.0312499999999998
 40
0.0624999999999997
 40
0.0624999999999997
 40
0.0937499999999995
 40
0.0937499999999995
 40
0.1249999999999994
 40
0.1249999999999994
 40
0.1562499999999992
 40
0.1562499999999992
 40
0.1874999999999991
 40
0.1874999999999991
 40
0.2187499999999989
 40
0.2187499999999989
 40
0.2499999999999988
 40
0.2499999999999988
 40
0.2812499999999986
 40
0.2812499999999986
 40
0.3124999999999984
 40
0.3124999999999984
 40
0.3437499999999983
 40
0.3437499999999983
 40
0.3749999999999982
 40
0.3749999999999982
 40
0.406249999999998
 40
0.406249999999998
 40
0.4374999999999979
 40
0.4374999999999979
 40
0.4687499999999977
 40
0.4687499999999977
 40
0.4999999999999976
 40
0.4999999999999976
 40
0.5312499999999974
 40
0.5312499999999974
 40
0.5624999999999972
 40
0.5624999999999972
 40
0.6249999999999969
 40
0.6249999999999969
 40
0.6562499999999968
 40
0.6562499999999968
 40
0.6874999999999971
 40
0.6874999999999971
 40
0.7187499999999973
 40
0.7187499999999973
 40
0.7499999999999977
 40
0.7499999999999977
 40
0.781249999999998
 40
0.781249999999998
 40
0.8124999999999982
 40
0.8124999999999982
 40
0.8437499999999986
 40
0.8437499999999986
 40
0.8749999999999988
 40
0.8749999999999988
 40
0.9062499999999991
 40
0.9062499999999991
 40
0.9374999999999994
 40
0.9374999999999994
 40
1.0
 40
1.0
 40
1.0
 40
1.0
 10
193.8936666143245
 20
114.956354411718
 30
0.0
 10
194.0754515192691
 20
115.1053395148266
 30
0.0
 10
194.2685058215103
 20
115.2346673401237
 30
0.0
 10
194.6753705360744
 20
115.457544360627
 30
0.0
 10
194.8908113990871
 20
115.5515747217087
 30
0.0
 10
195.3356902755305
 20
115.7006033896848
 30
0.0
 10
195.5621828915661
 20
115.7549506361823
 30
0.0
 10
196.0229931567036
 20
115.8249595646094
 30
0.0
 10
196.2596106522821
 20
115.840462778441
 30
0.0
 10
196.7279460352808
 20
115.830976670253
 30
0.0
 10
196.9593910071336
 20
115.8064859616522
 30
0.0
 10
197.4168864582562
 20
115.7182624499078
 30
0.0
 10
197.6450969671159
 20
115.6535353703488
 30
0.0
 10
198.0808869235871
 20
115.4871969319441
 30
0.0
 10
198.2893311318982
 20
115.3858886955138
 30
0.0
 10
198.6869509175812
 20
115.1459013316489
 30
0.0
 10
198.8777558266657
 20
115.0054219734343
 30
0.0
 10
199.2234110862002
 20
114.6953063109491
 30
0.0
 10
199.3798872041706
 20
114.5252159934126
 30
0.0
 10
199.6581372385047
 20
114.1527710445603
 30
0.0
 10
199.7800823378016
 20
113.9486179452929
 30
0.0
 10
199.9734221063076
 20
113.5262952166457
 30
0.0
 10
200.0468841629555
 20
113.3059764925644
 30
0.0
 10
200.1434944143631
 20
112.8453742919073
 30
0.0
 10
200.1650098857304
 20
112.6101116138249
 30
0.0
 10
200.1539256476763
 20
112.1439294783545
 30
0.0
 10
200.1207777764534
 20
111.9077691667574
 30
0.0
 10
200.0031253420149
 20
111.4543584096553
 30
0.0
 10
199.9194848974882
 20
111.2365910754641
 30
0.0
 10
199.7041666053077
 20
110.8182488705773
 30
0.0
 10
199.5747744685855
 20
110.6226456328153
 30
0.0
 10
199.2801447271556
 20
110.262027343915
 30
0.0
 10
199.112464384169
 20
110.0947241402544
 30
0.0
 10
198.7524695210528
 20
109.7985179447049
 30
0.0
 10
198.559695711385
 20
109.6684071399218
 30
0.0
 10
198.1493454332619
 20
109.4427044574724
 30
0.0
 10
197.9331146812457
 20
109.3483238621008
 30
0.0
 10
197.271001502312
 20
109.1255532105465
 30
0.0
 10
196.7975979493646
 20
109.0537654913386
 30
0.0
 10
196.0987034514897
 20
109.0671079539945
 30
0.0
 10
195.865212748205
 20
109.0913064175229
 30
0.0
 10
195.4024740677765
 20
109.1803817917768
 30
0.0
 10
195.1783242966427
 20
109.2441225455098
 30
0.0
 10
194.744123190714
 20
109.4093779144835
 30
0.0
 10
194.5326718871977
 20
109.5117287716248
 30
0.0
 10
194.1313495213142
 20
109.7540347036049
 30
0.0
 10
193.944710555507
 20
109.8916766047343
 30
0.0
 10
193.5997576770813
 20
110.2006621770904
 30
0.0
 10
193.4398359602704
 20
110.3742026747718
 30
0.0
 10
193.1603026156893
 20
110.7489680743218
 30
0.0
 10
193.0415531898892
 20
110.9480297512186
 30
0.0
 10
192.8477767329624
 20
111.3706675575449
 30
0.0
 10
192.7724687221385
 20
111.5974443267312
 30
0.0
 10
192.6770633021993
 20
112.0548193839553
 30
0.0
 10
192.6555108665923
 20
112.2869664273384
 30
0.0
 10
192.6669194090196
 20
112.7584840300385
 30
0.0
 10
192.7002595236602
 20
112.9925839284768
 30
0.0
 10
192.8178063474712
 20
113.4447948394511
 30
0.0
 10
192.9035731473379
 20
113.6672385768144
 30
0.0
 10
193.2253446967421
 20
114.2903459513616
 30
0.0
 10
193.5300968044351
 20
114.6583842055007
 30
0.0
 10
193.8936666143244
 20
114.956354411718
 30
0.0
  0
LINE
  5
D5
330
1F
100
AcDbEntity
  8
0
  6
Continuous
 62
     7
370
    15
100
AcDbLine
 10
204.1603262059
 20
112.4492372534
 30
0.0
 11
204.1603262059
 21
96.4492372534
 31
0.0
  0
LINE
  5
D6
330
1F
100
AcDbEntity
  8
0
  6
Continuous
 62
     7
370
    15
100
AcDbLine
 10
204.1603262059
 20
128.4492372534
 30
0.0
 11
204.1603262059
 21
112.4492372534
 31
0.0
  0
CIRCLE
  5
D7
330
1F
100
AcDbEntity
  8
0
  6
Continuous
 62
     7
370
    15
100
AcDbCircle
 10
196.4103262059
 20
112.4492372534
 30
0.0
 40
2.624999999999986
  0
LINE
  5
D8
330
1F
100
AcDbEntity
  8
0
  6
Continuous
 62
     7
370
    15
100
AcDbLine
 10
204.4603262059
 20
112.4492372534
 30
0.0
 11
204.4603262059
 21
96.7492372534
 31
0.0
  0
LINE
  5
D9
330
1F
100
AcDbEntity
  8
0
  6
Continuous
 62
     7
370
    15
100
AcDbLine
 10
204.4603262059
 20
128.1492372534
 30
0.0
 11
204.4603262059
 21
112.4492372534
 31
0.0
  0
LINE
  5
DA
330
1F
100
AcDbEntity
  8
0
  6
Continuous
 62
     7
370
    15
100
AcDbLine
 10
96.2103262059
 20
101.0421066564
 30
0.0
 11
96.2103262059
 21
123.8563678077
 31
0.0
  0
CIRCLE
  5
DB
330
1F
100
AcDbEntity
  8
0
  6
HIDDEN
 62
     7
370
     0
100
AcDbCircle
 10
196.4103262059
 20
112.4492372534
 30
0.0
 40
2.999999999999983
  0
CIRCLE
  5
DC
330
1F
100
AcDbEntity
  8
0
  6
HIDDEN
 62
     7
370
     0
100
AcDbCircle
 10
196.4103262059
 20
112.4492372534
 30
0.0
 40
2.15358983848621
  0
CIRCLE
  5
DD
330
1F
100
AcDbEntity
  8
0
  6
HIDDEN
 62
     7
370
     0
100
AcDbCircle
 10
196.4103262059
 20
112.4492372534
 30
0.0
 40
1.953589838486212
  0
SPLINE
  5
DE
330
1F
100
AcDbEntity
  8
0
  6
HIDDEN
 62
     7
370
     0
100
AcDbSpline
210
0.0
220
0.0
230
1.0
 70
     8
 71
     3
 72
    16
 73
    12
 74
     0
 42
0.000000001
 43
0.00000001
 40
0.0
 40
0.0
 40
0.0
 40
0.0
 40
0.2500000000000069
 40
0.2500000000000069
 40
0.5000000000000138
 40
0.5000000000000138
 40
0.6250000000000109
 40
0.6250000000000109
 40
0.750000000000008
 40
0.750000000000008
 40
1.0
 40
1.0
 40
1.0
 40
1.0
 10
204.4603262059398
 20
121.0580005101907
 30
0.0
 10
204.4603262059398
 20
120.9844746996693
 30
0.0
 10
204.4561130559581
 20
120.9095271877883
 30
0.0
 10
204.4335648637197
 20
120.7548694331949
 30
0.0
 10
204.4154164886676
 20
120.6739251790782
 30
0.0
 10
204.3656041090588
 20
120.5574521805595
 30
0.0
 10
204.3446375626367
 20
120.5190274005239
 30
0.0
 10
204.293454232475
 20
120.4528064065485
 30
0.0
 10
204.2638843909623
 20
120.4263667682153
 30
0.0
 10
204.1733453096203
 20
120.3729100251285
 30
0.0
 10
204.1138858222151
 20
120.3696875002376
 30
0.0
 10
204.0603262058995
 20
120.3774430405826
 30
0.0
  0
SPLINE
  5
DF
330
1F
100
AcDbEntity
  8
0
  6
HIDDEN
 62
     7
370
     0
100
AcDbSpline
210
0.0
220
0.0
230
1.0
 70
     8
 71
     3
 72
    10
 73
     6
 74
     0
 42
0.000000001
 43
0.00000001
 40
0.0
 40
0.0
 40
0.0
 40
0.0
 40
0.5
 40
0.5
 40
1.0
 40
1.0
 40
1.0
 40
1.0
 10
204.0603262059074
 20
120.3774430405898
 30
0.0
 10
204.0191301439969
 20
120.3445547963536
 30
0.0
 10
203.9736926796497
 20
120.3160792695181
 30
0.0
 10
203.8720197483825
 20
120.2746069496046
 30
0.0
 10
203.8168584603845
 20
120.2625532513704
 30
0.0
 10
203.7603262059399
 20
120.2625532513704
 30
0.0
  0
SPLINE
  5
E0
330
1F
100
AcDbEntity
  8
0
  6
HIDDEN
 62
     7
370
     0
100
AcDbSpline
210
0.0
220
0.0
230
1.0
 70
     8
 71
     3
 72
    10
 73
     6
 74
     0
 42
0.000000001
 43
0.00000001
 40
0.0
 40
0.0
 40
0.0
 40
0.0
 40
0.5
 40
0.5
 40
1.0
 40
1.0
 40
1.0
 40
1.0
 10
204.0603262059724
 20
104.5210314661405
 30
0.0
 10
204.0191301440553
 20
104.5539197103903
 30
0.0
 10
203.9736926797015
 20
104.5823952372376
 30
0.0
 10
203.872019748411
 20
104.6238675571713
 30
0.0
 10
203.8168584603993
 20
104.6359212554117
 30
0.0
 10
203.7603262059399
 20
104.6359212554118
 30
0.0
  0
SPLINE
  5
E1
330
1F
100
AcDbEntity
  8
0
  6
HIDDEN
 62
     7
370
     0
100
AcDbSpline
210
0.0
220
0.0
230
1.0
 70
     8
 71
     3
 72
    16
 73
    12
 74
     0
 42
0.000000001
 43
0.00000001
 40
0.0
 40
0.0
 40
0.0
 40
0.0
 40
0.250000000000017
 40
0.250000000000017
 40
0.3750000000000184
 40
0.3750000000000184
 40
0.5000000000000198
 40
0.5000000000000198
 40
0.7500000000000099
 40
0.7500000000000099
 40
1.0
 40
1.0
 40
1.0
 40
1.0
 10
204.060326205954
 20
104.5210314661484
 30
0.0
 10
204.113580832596
 20
104.5287429984187
 30
0.0
 10
204.1731176371341
 20
104.5255075571685
 30
0.0
 10
204.2632124511017
 20
104.4726069972017
 30
0.0
 10
204.2928617077043
 20
104.4462131623308
 30
0.0
 10
204.343645528917
 20
104.3809628943331
 30
0.0
 10
204.3646418632025
 20
104.3430110828481
 30
0.0
 10
204.4154477411508
 20
104.2250117226725
 30
0.0
 10
204.433438478226
 20
104.1442840238072
 30
0.0
 10
204.4561036247987
 20
103.9892122080038
 30
0.0
 10
204.4603262059398
 20
103.9141196855304
 30
0.0
 10
204.4603262059398
 20
103.8404790393425
 30
0.0
  0
LINE
  5
E2
330
1F
100
AcDbEntity
  8
0
  6
HIDDEN
 62
     7
370
     0
100
AcDbLine
 10
183.9603262059
 20
112.4492372534
 30
0.0
 11
183.9603262059
 21
103.7492372534
 31
0.0
  0
LINE
  5
E3
330
1F
100
AcDbEntity
  8
0
  6
HIDDEN
 62
     7
370
     0
100
AcDbLine
 10
183.9603262059
 20
121.1492372534
 30
0.0
 11
183.9603262059
 21
112.4492372534
 31
0.0
  0
LINE
  5
E4
330
1F
100
AcDbEntity
  8
0
  6
HIDDEN
 62
     7
370
     0
100
AcDbLine
 10
187.3263516097
 20
112.4492372534
 30
0.0
 11
187.3263516097
 21
103.4492372534
 31
0.0
  0
LINE
  5
E5
330
1F
100
AcDbEntity
  8
0
  6
HIDDEN
 62
     7
370
     0
100
AcDbLine
 10
187.3263516097
 20
121.4492372534
 30
0.0
 11
187.3263516097
 21
112.4492372534
 31
0.0
  0
LINE
  5
E6
330
1F
100
AcDbEntity
  8
0
  6
HIDDEN
 62
     7
370
     0
100
AcDbLine
 10
167.6603262059
 20
137.2492372534
 30
0.0
 11
167.9975845061
 21
137.2492372534
 31
0.0
  0
ELLIPSE
  5
E7
330
1F
100
AcDbEntity
  8
0
  6
HIDDEN
 62
     7
370
     0
100
AcDbEllipse
 10
167.9975845061
 20
138.8492372534
 30
0.0
 11
0.0
 21
1.600000000000023
 31
0.0
210
0.0
220
0.0
230
1.0
 40
0.4142135624
 41
3.141592653589793
 42
4.712388980384695
  0
LINE
  5
E8
330
1F
100
AcDbEntity
  8
0
  6
HIDDEN
 62
     7
370
     0
100
AcDbLine
 10
167.9975845061
 20
89.8492372534
 30
0.0
 11
167.6603262059
 21
89.8492372534
 31
0.0
  0
ELLIPSE
  5
E9
330
1F
100
AcDbEntity
  8
0
  6
HIDDEN
 62
     7
370
     0
100
AcDbEllipse
 10
167.9975845061
 20
88.2492372534
 30
0.0
 11
0.0
 21
1.599999999999994
 31
0.0
210
0.0
220
0.0
230
1.0
 40
0.4142135624
 41
4.712388980384695
 42
6.283185307179586
  0
LINE
  5
EA
330
1F
100
AcDbEntity
  8
0
  6
HIDDEN
 62
     7
370
     0
100
AcDbLine
 10
168.6603262059
 20
82.5557889068
 30
0.0
 11
167.8764707473
 21
82.0975074039
 31
0.0
  0
LINE
  5
EB
330
1F
100
AcDbEntity
  8
0
  6
HIDDEN
 62
     7
370
     0
100
AcDbLine
 10
195.5603262059
 20
120.2625532514
 30
0.0
 11
203.7603262059
 21
120.2625532514
 31
0.0
  0
LINE
  5
EC
330
1F
100
AcDbEntity
  8
0
  6
HIDDEN
 62
     7
370
     0
100
AcDbLine
 10
195.5603262059
 20
104.6359212554
 30
0.0
 11
203.7603262059
 21
104.6359212554
 31
0.0
  0
LINE
  5
ED
330
1F
100
AcDbEntity
  8
0
  6
HIDDEN
 62
     7
370
     0
100
AcDbLine
 10
167.9475678072
 20
142.8745338083
 30
0.0
 11
168.6603262059
 21
142.1617754097
 31
0.0
  0
LINE
  5
EE
330
1F
100
AcDbEntity
  8
0
  6
HIDDEN
 62
     7
370
     0
100
AcDbLine
 10
103.2103262059
 20
103.9492372534
 30
0.0
 11
103.2103262059
 21
120.9492372534
 31
0.0
  0
LINE
  5
EF
330
1F
100
AcDbEntity
  8
0
  6
HIDDEN
 62
     7
370
     0
100
AcDbLine
 10
106.2062554203
 20
105.4492372534
 30
0.0
 11
106.2062554203
 21
119.4492372534
 31
0.0
  0
LINE
  5
F0
330
1F
100
AcDbEntity
  8
0
  6
HIDDEN
 62
     7
370
     0
100
AcDbLine
 10
172.4955366022
 20
82.5557889068
 30
0.0
 11
168.6603262059
 21
82.5557889068
 31
0.0
  0
LINE
  5
F1
330
1F
100
AcDbEntity
  8
0
  6
HIDDEN
 62
     7
370
     0
100
AcDbLine
 10
183.5103262059
 20
82.5557889068
 30
0.0
 11
178.6251158096
 21
82.5557889068
 31
0.0
  0
LINE
  5
F2
330
1F
100
AcDbEntity
  8
0
  6
HIDDEN
 62
     7
370
     0
100
AcDbLine
 10
168.6603262059
 20
82.5557889068
 30
0.0
 11
168.6603262059
 21
88.2492372534
 31
0.0
  0
LINE
  5
F3
330
1F
100
AcDbEntity
  8
0
  6
HIDDEN
 62
     7
370
     0
100
AcDbLine
 10
183.5103262059
 20
89.8492372534
 30
0.0
 11
167.9975845061
 21
89.8492372534
 31
0.0
  0
LINE
  5
F4
330
1F
100
AcDbEntity
  8
0
  6
HIDDEN
 62
     7
370
     0
100
AcDbLine
 10
167.9975845061
 20
137.2492372534
 30
0.0
 11
183.5103262059
 21
137.2492372534
 31
0.0
  0
LINE
  5
F5
330
1F
100
AcDbEntity
  8
0
  6
HIDDEN
 62
     7
370
     0
100
AcDbLine
 10
168.6603262059
 20
142.1617754097
 30
0.0
 11
172.5963715196
 21
142.1617754097
 31
0.0
  0
LINE
  5
F6
330
1F
100
AcDbEntity
  8
0
  6
HIDDEN
 62
     7
370
     0
100
AcDbLine
 10
178.5242808922
 20
142.1617754097
 30
0.0
 11
183.5103262059
 21
142.1617754097
 31
0.0
  0
LINE
  5
F7
330
1F
100
AcDbEntity
  8
0
  6
HIDDEN
 62
     7
370
     0
100
AcDbLine
 10
168.6603262059
 20
142.1617754097
 30
0.0
 11
168.6603262059
 21
138.8492372534
 31
0.0
  0
LINE
  5
F8
330
1F
100
AcDbEntity
  8
0
  6
HIDDEN
 62
     7
370
     0
100
AcDbLine
 10
139.2103262059
 20
105.4492372534
 30
0.0
 11
139.2103262059
 21
119.4492372534
 31
0.0
  0
LINE
  5
F9
330
1F
100
AcDbEntity
  8
0
  6
HIDDEN
 62
     7
370
     0
100
AcDbLine
 10
141.3734244344
 20
109.0492372534
 30
0.0
 11
141.3734244344
 21
115.8492372534
 31
0.0
  0
SPLINE
  5
FA
330
1F
100
AcDbEntity
  8
0
  6
HIDDEN
 62
     7
370
     0
100
AcDbSpline
210
0.0
220
0.0
230
1.0
 70
     8
 71
     3
 72
    14
 73
    10
 74
     0
 42
0.000000001
 43
0.00000001
 40
0.0
 40
0.0
 40
0.0
 40
0.0
 40
0.25
 40
0.25
 40
0.5
 40
0.5
 40
0.75
 40
0.75
 40
1.0
 40
1.0
 40
1.0
 40
1.0
 10
204.0603262059398
 20
124.2492372533911
 30
0.0
 10
204.0603262059398
 20
124.4335015541286
 30
0.0
 10
204.0604782754562
 20
124.6004624034114
 30
0.0
 10
204.0572498261849
 20
124.9008655330946
 30
0.0
 10
204.0544026256729
 20
125.0336019901254
 30
0.0
 10
204.0467527053149
 20
125.2497609220991
 30
0.0
 10
204.0416251705938
 20
125.3362449548535
 30
0.0
 10
204.0315871498772
 20
125.4559013038618
 30
0.0
 10
204.0266505549623
 20
125.4900404749308
 30
0.0
 10
204.023047650697
 20
125.4976412068524
 30
0.0
  0
SPLINE
  5
FB
330
1F
100
AcDbEntity
  8
0
  6
HIDDEN
 62
     7
370
     0
100
AcDbSpline
210
0.0
220
0.0
230
1.0
 70
     8
 71
     3
 72
    14
 73
    10
 74
     0
 42
0.000000001
 43
0.00000001
 40
0.0
 40
0.0
 40
0.0
 40
0.0
 40
0.1122112745605679
 40
0.2779452809072702
 40
0.4384377351676103
 40
0.6035721931122006
 40
0.764335775531405
 40
0.9297497879029306
 40
1.0
 40
1.0
 40
1.0
 40
1.0
 10
204.0216307730468
 20
125.4916740410622
 30
0.0
 10
204.0203254370163
 20
125.4898999645556
 30
0.0
 10
204.0170921434719
 20
125.4855056093992
 30
0.0
 10
204.0183742892695
 20
125.3973479602808
 30
0.0
 10
204.0256402671741
 20
125.2401742382516
 30
0.0
 10
204.0377640348258
 20
125.0191923729798
 30
0.0
 10
204.0513495658606
 20
124.7391528013261
 30
0.0
 10
204.0592845191695
 20
124.4740806369411
 30
0.0
 10
204.0600869839108
 20
124.3008703033391
 30
0.0
 10
204.0603261942466
 20
124.2492372533911
 30
0.0
  0
LINE
  5
FC
330
1F
100
AcDbEntity
  8
0
  6
HIDDEN
 62
     7
370
     0
100
AcDbLine
 10
204.0603261942
 20
124.2492372534
 30
0.0
 11
204.0603262059
 21
120.3774430406
 31
0.0
  0
LINE
  5
FD
330
1F
100
AcDbEntity
  8
0
  6
HIDDEN
 62
     7
370
     0
100
AcDbLine
 10
204.0603262106
 20
100.6492372534
 30
0.0
 11
204.060326206
 21
104.5210314661
 31
0.0
  0
SPLINE
  5
FE
330
1F
100
AcDbEntity
  8
0
  6
HIDDEN
 62
     7
370
     0
100
AcDbSpline
210
0.0
220
0.0
230
1.0
 70
     8
 71
     3
 72
    14
 73
    10
 74
     0
 42
0.000000001
 43
0.00000001
 40
0.0
 40
0.0
 40
0.0
 40
0.0
 40
0.1120447440477688
 40
0.2777995672052422
 40
0.4383129393946159
 40
0.6034689606421799
 40
0.7642534932054089
 40
0.9296888757743728
 40
1.0
 40
1.0
 40
1.0
 40
1.0
 10
204.0216266872446
 20
99.40682044346383
 30
0.0
 10
204.0203245161424
 20
99.40858864052274
 30
0.0
 10
204.0170959615886
 20
99.41297264248442
 30
0.0
 10
204.0183680599048
 20
99.50108754093823
 30
0.0
 10
204.0256405143303
 20
99.65823527689108
 30
0.0
 10
204.0377648288379
 20
99.87919947924982
 30
0.0
 10
204.0513180235018
 20
100.1592234455239
 30
0.0
 10
204.0593240639574
 20
100.4243184434014
 30
0.0
 10
204.06009598583
 20
100.5975662843087
 30
0.0
 10
204.0603262106398
 20
100.6492372533911
 30
0.0
  0
LINE
  5
FF
330
1F
100
AcDbEntity
  8
0
  6
HIDDEN
 62
     7
370
     0
100
AcDbLine
 10
195.5603262059
 20
124.2492372534
 30
0.0
 11
195.5603262059
 21
120.2625532514
 31
0.0
  0
LINE
  5
100
330
1F
100
AcDbEntity
  8
0
  6
HIDDEN
 62
     7
370
     0
100
AcDbLine
 10
195.5603262059
 20
100.6492372534
 30
0.0
 11
195.5603262059
 21
104.6359212554
 31
0.0
  0
LINE
  5
101
330
1F
100
AcDbEntity
  8
0
  6
HIDDEN
 62
     7
370
     0
100
AcDbLine
 10
195.5603262059
 20
125.4992372534
 30
0.0
 11
195.5603262059
 21
124.2492372534
 31
0.0
  0
LINE
  5
102
330
1F
100
AcDbEntity
  8
0
  6
HIDDEN
 62
     7
370
     0
100
AcDbLine
 10
195.5603262059
 20
99.3992372534
 30
0.0
 11
195.5603262059
 21
100.6492372534
 31
0.0
  0
LINE
  5
103
330
1F
100
AcDbEntity
  8
0
  6
HIDDEN
 62
     7
370
     0
100
AcDbLine
 10
173.6503262059
 20
134.6464780729
 30
0.0
 11
173.6503262059
 21
130.7992372534
 31
0.0
  0
LINE
  5
104
330
1F
100
AcDbEntity
  8
0
  6
HIDDEN
 62
     7
370
     0
100
AcDbLine
 10
177.4703262059
 20
134.6464780729
 30
0.0
 11
177.4703262059
 21
130.7992372534
 31
0.0
  0
LINE
  5
105
330
1F
100
AcDbEntity
  8
0
  6
HIDDEN
 62
     7
370
     0
100
AcDbLine
 10
172.0384895639
 20
138.3594668934
 30
0.0
 11
172.0384895639
 21
130.7992372534
 31
0.0
  0
LINE
  5
106
330
1F
100
AcDbEntity
  8
0
  6
HIDDEN
 62
     7
370
     0
100
AcDbLine
 10
179.082162848
 20
138.3594668934
 30
0.0
 11
179.082162848
 21
130.7992372534
 31
0.0
  0
ARC
  5
107
330
1F
100
AcDbEntity
  8
0
  6
HIDDEN
 62
     7
370
     0
100
AcDbCircle
 10
184.7603262059
 20
121.1492372534
 30
0.0
 40
0.8000000000000114
100
AcDbArc
 50
90.0
 51
180.0
  0
ARC
  5
108
330
1F
100
AcDbEntity
  8
0
  6
HIDDEN
 62
     7
370
     0
100
AcDbCircle
 10
184.7603262059
 20
103.7492372534
 30
0.0
 40
0.8000000000000114
100
AcDbArc
 50
180.0
 51
270.0
  0
LINE
  5
109
330
1F
100
AcDbEntity
  8
0
  6
HIDDEN
 62
     7
370
     0
100
AcDbLine
 10
185.3550042079
 20
121.9492372534
 30
0.0
 11
184.7603262059
 21
121.9492372534
 31
0.0
  0
LINE
  5
10A
330
1F
100
AcDbEntity
  8
0
  6
HIDDEN
 62
     7
370
     0
100
AcDbLine
 10
184.7603262059
 20
102.9492372534
 30
0.0
 11
185.3550042079
 21
102.9492372534
 31
0.0
  0
ARC
  5
10B
330
1F
100
AcDbEntity
  8
0
  6
HIDDEN
 62
     7
370
     0
100
AcDbCircle
 10
185.3550042079
 20
121.1492372534
 30
0.0
 40
0.7999999999999972
100
AcDbArc
 50
75.0
 51
90.0
  0
ARC
  5
10C
330
1F
100
AcDbEntity
  8
0
  6
HIDDEN
 62
     7
370
     0
100
AcDbCircle
 10
185.3550042079
 20
103.7492372534
 30
0.0
 40
0.8000000000000046
100
AcDbArc
 50
270.0
 51
285.0
  0
LINE
  5
10D
330
1F
100
AcDbEntity
  8
0
  6
HIDDEN
 62
     7
370
     0
100
AcDbLine
 10
185.562059444
 20
102.9764965924
 30
0.0
 11
187.3263516097
 21
103.4492372534
 31
0.0
  0
LINE
  5
10E
330
1F
100
AcDbEntity
  8
0
  6
HIDDEN
 62
     7
370
     0
100
AcDbLine
 10
187.3263516097
 20
121.4492372534
 30
0.0
 11
185.562059444
 21
121.9219779144
 31
0.0
  0
ARC
  5
10F
330
1F
100
AcDbEntity
  8
0
  6
HIDDEN
 62
     7
370
     0
100
AcDbCircle
 10
97.0103262059
 20
103.1492372534
 30
0.0
 40
0.7999999999999972
100
AcDbArc
 50
90.0
 51
180.0
  0
ARC
  5
110
330
1F
100
AcDbEntity
  8
0
  6
HIDDEN
 62
     7
370
     0
100
AcDbCircle
 10
97.0103262059
 20
121.7492372534
 30
0.0
 40
0.7999999999999972
100
AcDbArc
 50
180.0
 51
270.0
  0
LINE
  5
111
330
1F
100
AcDbEntity
  8
0
  6
HIDDEN
 62
     7
370
     0
100
AcDbLine
 10
195.5603262059
 20
121.4492372534
 30
0.0
 11
187.3263516097
 21
121.4492372534
 31
0.0
  0
LINE
  5
112
330
1F
100
AcDbEntity
  8
0
  6
HIDDEN
 62
     7
370
     0
100
AcDbLine
 10
187.3263516097
 20
103.4492372534
 30
0.0
 11
195.5603262059
 21
103.4492372534
 31
0.0
  0
LINE
  5
113
330
1F
100
AcDbEntity
  8
0
  6
HIDDEN
 62
     7
370
     0
100
AcDbLine
 10
104.1026986367
 20
103.7242372534
 30
0.0
 11
104.9793860983
 21
103.7242372534
 31
0.0
  0
LINE
  5
114
330
1F
100
AcDbEntity
  8
0
  6
HIDDEN
 62
     7
370
     0
100
AcDbLine
 10
104.9793860983
 20
121.1742372534
 30
0.0
 11
104.1026986367
 21
121.1742372534
 31
0.0
  0
ARC
  5
115
330
1F
100
AcDbEntity
  8
0
  6
HIDDEN
 62
     7
370
     0
100
AcDbCircle
 10
104.9793860983
 20
104.1242372534
 30
0.0
 40
0.4000000000000244
100
AcDbArc
 50
270.0
 51
330.0
  0
ARC
  5
116
330
1F
100
AcDbEntity
  8
0
  6
HIDDEN
 62
     7
370
     0
100
AcDbCircle
 10
104.9793860983
 20
120.7742372534
 30
0.0
 40
0.4000000000000173
100
AcDbArc
 50
30.0
 51
90.0
  0
ARC
  5
117
330
1F
100
AcDbEntity
  8
0
  6
HIDDEN
 62
     7
370
     0
100
AcDbCircle
 10
104.1026986367
 20
104.1242372534
 30
0.0
 40
0.4000000000000057
100
AcDbArc
 50
255.0
 51
270.0
  0
ARC
  5
118
330
1F
100
AcDbEntity
  8
0
  6
HIDDEN
 62
     7
370
     0
100
AcDbCircle
 10
104.1026986367
 20
120.7742372534
 30
0.0
 40
0.4000000000000023
100
AcDbArc
 50
90.0
 51
105.0
  0
LINE
  5
119
330
1F
100
AcDbEntity
  8
0
  6
HIDDEN
 62
     7
370
     0
100
AcDbLine
 10
103.9991710186
 20
121.1606075839
 30
0.0
 11
103.2103262059
 21
120.9492372534
 31
0.0
  0
LINE
  5
11A
330
1F
100
AcDbEntity
  8
0
  6
HIDDEN
 62
     7
370
     0
100
AcDbLine
 10
103.2103262059
 20
103.9492372534
 30
0.0
 11
103.9991710186
 21
103.7378669229
 31
0.0
  0
LINE
  5
11B
330
1F
100
AcDbEntity
  8
0
  6
HIDDEN
 62
     7
370
     0
100
AcDbLine
 10
105.3257962598
 20
103.9242372534
 30
0.0
 11
106.2062554203
 21
105.4492372534
 31
0.0
  0
LINE
  5
11C
330
1F
100
AcDbEntity
  8
0
  6
HIDDEN
 62
     7
370
     0
100
AcDbLine
 10
106.2062554203
 20
119.4492372534
 30
0.0
 11
105.3257962598
 21
120.9742372534
 31
0.0
  0
LINE
  5
11D
330
1F
100
AcDbEntity
  8
0
  6
HIDDEN
 62
     7
370
     0
100
AcDbLine
 10
97.0103262059
 20
103.9492372534
 30
0.0
 11
103.2103262059
 21
103.9492372534
 31
0.0
  0
LINE
  5
11E
330
1F
100
AcDbEntity
  8
0
  6
HIDDEN
 62
     7
370
     0
100
AcDbLine
 10
103.2103262059
 20
120.9492372534
 30
0.0
 11
97.0103262059
 21
120.9492372534
 31
0.0
  0
LINE
  5
11F
330
1F
100
AcDbEntity
  8
0
  6
HIDDEN
 62
     7
370
     0
100
AcDbLine
 10
139.2103262059
 20
105.4492372534
 30
0.0
 11
141.3734244344
 21
109.0492372534
 31
0.0
  0
LINE
  5
120
330
1F
100
AcDbEntity
  8
0
  6
HIDDEN
 62
     7
370
     0
100
AcDbLine
 10
141.3734244344
 20
115.8492372534
 30
0.0
 11
139.2103262059
 21
119.4492372534
 31
0.0
  0
LINE
  5
121
330
1F
100
AcDbEntity
  8
0
  6
HIDDEN
 62
     7
370
     0
100
AcDbLine
 10
106.2062554203
 20
105.4492372534
 30
0.0
 11
139.2103262059
 21
105.4492372534
 31
0.0
  0
LINE
  5
122
330
1F
100
AcDbEntity
  8
0
  6
HIDDEN
 62
     7
370
     0
100
AcDbLine
 10
139.2103262059
 20
119.4492372534
 30
0.0
 11
106.2062554203
 21
119.4492372534
 31
0.0
  0
LINE
  5
123
330
1F
100
AcDbEntity
  8
0
  6
HIDDEN
 62
     7
370
     0
100
AcDbLine
 10
204.4603262059
 20
125.9381863001
 30
0.0
 11
204.0139034276
 21
125.4917637681
 31
0.0
  0
LINE
  5
124
330
1F
100
AcDbEntity
  8
0
  6
HIDDEN
 62
     7
370
     0
100
AcDbLine
 10
204.0139031543
 20
99.4067114786
 30
0.0
 11
204.4603262059
 21
98.9602887094
 31
0.0
  0
LINE
  5
125
330
1F
100
AcDbEntity
  8
0
  6
HIDDEN
 62
     7
370
     0
100
AcDbLine
 10
141.3734244344
 20
109.0492372534
 30
0.0
 11
183.9603262059
 21
109.0492372534
 31
0.0
  0
LINE
  5
126
330
1F
100
AcDbEntity
  8
0
  6
HIDDEN
 62
     7
370
     0
100
AcDbLine
 10
183.9603262059
 20
115.8492372534
 30
0.0
 11
141.3734244344
 21
115.8492372534
 31
0.0
  0
LINE
  5
127
330
1F
100
AcDbEntity
  8
0
  6
HIDDEN
 62
     7
370
     0
100
AcDbLine
 10
204.0220444431
 20
125.4992372534
 30
0.0
 11
195.5603262059
 21
125.4992372534
 31
0.0
  0
LINE
  5
128
330
1F
100
AcDbEntity
  8
0
  6
HIDDEN
 62
     7
370
     0
100
AcDbLine
 10
195.5603262059
 20
99.3992372534
 30
0.0
 11
204.0220438354
 21
99.3992372534
 31
0.0
  0
DIMENSION
  5
129
330
1F
100
AcDbEntity
  8
VERMASSUNG
100
AcDbDimension
  2
_D
 10
89.8366466591
 20
144.1992372534
 30
0.0
 11
89.8366466591
 21
112.4492372534
 31
0.0
 70
   160
  1
ISO 40 %%c<>
 71
     2
 42
-1.0
  3
SLDDIMSTYLE0
100
AcDbAlignedDimension
 13
182.9103262059
 23
80.6992372534
 33
0.0
 14
182.9103262059
 24
144.1992372534
 34
0.0
 50
90.0
100
AcDbRotatedDimension
  0
DIMENSION
  5
136
330
1F
100
AcDbEntity
  8
VERMASSUNG
100
AcDbDimension
  2
_D_1
 10
211.0386297126
 20
103.4492372534
 30
0.0
 11
211.0386297126
 21
112.4492372534
 31
0.0
 70
   160
  1
%%c<>
 71
     2
 42
-1.0
  3
SLDDIMSTYLE0
100
AcDbAlignedDimension
 13
195.5603262059
 23
121.4492372534
 33
0.0
 14
195.5603262059
 24
103.4492372534
 34
0.0
 50
90.0
100
AcDbRotatedDimension
  0
DIMENSION
  5
141
330
1F
100
AcDbEntity
  8
VERMASSUNG
100
AcDbDimension
  2
_D_2
 10
204.4603262059
 20
146.9945655916
 30
0.0
 11
193.9853262059
 21
146.9945655916
 31
0.0
 70
   160
  1
(<>)
 71
     2
 42
-1.0
  3
SLDDIMSTYLE0
100
AcDbAlignedDimension
 13
183.5103262059
 23
142.4597883868
 33
0.0
 14
204.4603262059
 24
128.1492372534
 34
0.0
100
AcDbRotatedDimension
  0
DIMENSION
  5
14D
330
1F
100
AcDbEntity
  8
VERMASSUNG
100
AcDbDimension
  2
_D_3
 10
204.4603262059
 20
152.9945655916
 30
0.0
 11
184.4603262059
 21
152.9945655916
 31
0.0
 70
   160
  1
<>
 71
     2
 42
-1.0
  3
SLDDIMSTYLE0
100
AcDbAlignedDimension
 13
164.4603262059
 23
134.6742372534
 33
0.0
 14
204.4603262059
 24
128.1492372534
 34
0.0
100
AcDbRotatedDimension
  0
DIMENSION
  5
157
330
1F
100
AcDbEntity
  8
VERMASSUNG
100
AcDbDimension
  2
_D_4
 10
204.4603262059
 20
158.9945655916
 30
0.0
 11
150.3353262059
 21
158.9945655916
 31
0.0
 70
   160
  1
(<>)
 71
     2
 42
-1.0
  3
SLDDIMSTYLE0
100
AcDbAlignedDimension
 13
96.2103262059
 23
123.8563678504
 33
0.0
 14
204.4603262059
 24
128.1492372534
 34
0.0
100
AcDbRotatedDimension
  0
DIMENSION
  5
163
330
1F
100
AcDbEntity
  8
VERMASSUNG
100
AcDbDimension
  2
_D_5
 10
217.0386297126
 20
96.4492372534
 30
0.0
 11
217.0386297126
 21
112.4492372534
 31
0.0
 70
   160
  1
ST3 %%c<>
 71
     2
 42
-1.0
  3
SLDDIMSTYLE0
100
AcDbAlignedDimension
 13
204.1603262059
 23
128.4492372534
 33
0.0
 14
204.1603262059
 24
96.4492372534
 34
0.0
 50
90.0
100
AcDbRotatedDimension
  0
LINE
  5
16F
330
1F
100
AcDbEntity
  8
VERMASSUNG
  6
CENTERX2
 62
     7
370
     0
100
AcDbLine
 10
92.2103262059
 20
112.4492372534
 30
0.0
 11
205.8464272897
 21
112.4492372534
 31
0.0
  0
LINE
  5
170
330
1F
100
AcDbEntity
  8
0
  6
Continuous
 62
     7
370
    15
100
AcDbLine
 10
261.4519928973
 20
44.7257490057
 30
0.0
 11
261.4431526263
 21
44.7308540444
 31
0.0
  0
LINE
  5
171
330
1F
100
AcDbEntity
  8
0
  6
Continuous
 62
     7
370
    15
100
AcDbLine
 10
259.6043762638
 20
44.7308540444
 30
0.0
 11
259.5955359928
 21
44.7257490057
 31
0.0
  0
LINE
  5
172
330
1F
100
AcDbEntity
  8
0
  6
Continuous
 62
     7
370
    15
100
AcDbLine
 10
263.2647226201
 20
30.013666356
 30
0.0
 11
263.3707713985
 21
30.0749069161
 31
0.0
  0
LINE
  5
173
330
1F
100
AcDbEntity
  8
0
  6
Continuous
 62
     7
370
    15
100
AcDbLine
 10
268.9206574716
 20
39.6886332382
 30
0.0
 11
268.9206574716
 21
39.811094455
 31
0.0
  0
LINE
  5
174
330
1F
100
AcDbEntity
  8
0
  6
Continuous
 62
     7
370
    15
100
AcDbLine
 10
267.2634781527
 20
43.4738529067
 30
0.0
 11
261.3768141993
 21
46.8721516722
 31
0.0
  0
LINE
  5
175
330
1F
100
AcDbEntity
  8
0
  6
Continuous
 62
     7
370
    15
100
AcDbLine
 10
253.3774643382
 20
33.0153698741
 30
0.0
 11
259.2641282916
 21
29.6170711086
 31
0.0
  0
SPLINE
  5
176
330
1F
100
AcDbEntity
  8
0
  6
Continuous
 62
     7
370
    15
100
AcDbSpline
210
0.0
220
0.0
230
1.0
 70
     8
 71
     3
 72
    33
 73
    29
 74
     0
 42
0.000000001
 43
0.00000001
 40
0.0
 40
0.0
 40
0.0
 40
0.0
 40
0.008923510531352
 40
0.049726949789653
 40
0.0906353191014392
 40
0.1317031495878133
 40
0.172917390424543
 40
0.2142471225419798
 40
0.2556562965808993
 40
0.2971124588401863
 40
0.3385906093185057
 40
0.380071687911461
 40
0.4215447600544087
 40
0.4630054499958406
 40
0.504452273259784
 40
0.5458855791133947
 40
0.5873068289000679
 40
0.6287181303107146
 40
0.6701219510923071
 40
0.7115209519330032
 40
0.7529178949999344
 40
0.7943155976462838
 40
0.8357160376792905
 40
0.8771220114818394
 40
0.9185363891212407
 40
0.9599619977701301
 40
0.999225268501956
 40
1.0
 40
1.0
 40
1.0
 40
1.0
 10
257.0094701629237
 20
58.2132185881844
 30
0.0
 10
256.9563867179636
 20
58.22679520440415
 30
0.0
 10
256.6605751320511
 20
58.30245194405848
 30
0.0
 10
256.0953895806021
 20
58.37819465531356
 30
0.0
 10
255.3038744255774
 20
58.40385860126685
 30
0.0
 10
254.4816001200132
 20
58.33614269340896
 30
0.0
 10
253.6351762617298
 20
58.17959873248355
 30
0.0
 10
252.7694200463164
 20
57.93381103501433
 30
0.0
 10
251.8900584812689
 20
57.60059265032251
 30
0.0
 10
251.0027329949916
 20
57.18203247600297
 30
0.0
 10
250.1131247321156
 20
56.68094462656763
 30
0.0
 10
249.2268229996689
 20
56.10065124912089
 30
0.0
 10
248.3493035628453
 20
55.4449500458472
 30
0.0
 10
247.4859043134608
 20
54.71804549597689
 30
0.0
 10
246.6418331714663
 20
53.92452507947229
 30
0.0
 10
245.8221697672421
 20
53.06934551943198
 30
0.0
 10
245.031846359808
 20
52.15780925336708
 30
0.0
 10
244.2756248551727
 20
51.19553836207286
 30
0.0
 10
243.5580713964634
 20
50.1884453876215
 30
0.0
 10
242.8835310134251
 20
49.1427011893808
 30
0.0
 10
242.2560993753954
 20
48.06469898055662
 30
0.0
 10
241.6796118199777
 20
46.96102710272974
 30
0.0
 10
241.1575797324176
 20
45.83841280269192
 30
0.0
 10
240.6933017621658
 20
44.70371777420927
 30
0.0
 10
240.2893495799205
 20
43.56374648892173
 30
0.0
 10
239.9553550825101
 20
42.44566693670124
 30
0.0
 10
239.7720869599306
 20
41.70482862730747
 30
0.0
 10
239.6944656460429
 20
41.34373505509654
 30
0.0
 10
239.6929636810737
 20
41.33674792915237
 30
0.0
  0
SPLINE
  5
177
330
1F
100
AcDbEntity
  8
0
  6
Continuous
 62
     7
370
    15
100
AcDbSpline
210
0.0
220
0.0
230
1.0
 70
     8
 71
     3
 72
    21
 73
    17
 74
     0
 42
0.000000001
 43
0.00000001
 40
0.0
 40
0.0
 40
0.0
 40
0.0
 40
0.0095986631502
 40
0.0889738181764458
 40
0.1684612585569336
 40
0.2479661098834602
 40
0.3273976885245757
 40
0.4066782206998796
 40
0.4857379187435934
 40
0.56452110774713
 40
0.6430149693792641
 40
0.7213135890078566
 40
0.7996394121334826
 40
0.8785556476538342
 40
0.9591978816997507
 40
1.0
 40
1.0
 40
1.0
 40
1.0
 10
260.4792396035187
 20
36.76377392419558
 30
0.0
 10
260.4882557376511
 20
36.78811575029355
 30
0.0
 10
260.5718298631722
 20
37.01374979697621
 30
0.0
 10
260.7689649335007
 20
37.43866228681443
 30
0.0
 10
261.0896652848593
 20
38.02159578617002
 30
0.0
 10
261.4588772452854
 20
38.57354415710178
 30
0.0
 10
261.8644465220282
 20
39.08205260397133
 30
0.0
 10
262.2977641091923
 20
39.53579358158562
 30
0.0
 10
262.7481149489159
 20
39.92495215885883
 30
0.0
 10
263.204439162866
 20
40.24149005263559
 30
0.0
 10
263.6553382604204
 20
40.47969428671572
 30
0.0
 10
264.0892482712744
 20
40.63593233384648
 30
0.0
 10
264.4965545753367
 20
40.7111065188145
 30
0.0
 10
264.8667123330567
 20
40.70242726895768
 30
0.0
 10
265.1476263215883
 20
40.64392222271334
 30
0.0
 10
265.2885551677959
 20
40.55980973479807
 30
0.0
 10
265.3359035651794
 20
40.53155014416132
 30
0.0
  0
LINE
  5
178
330
1F
100
AcDbEntity
  8
0
  6
Continuous
 62
     7
370
    15
100
AcDbLine
 10
249.4730151629
 20
56.248301785
 30
0.0
 11
228.1630016619
 21
63.927585951
 31
0.0
  0
LINE
  5
179
330
1F
100
AcDbEntity
  8
0
  6
Continuous
 62
     7
370
    15
100
AcDbLine
 10
221.9982199128
 20
53.2487136659
 30
0.0
 11
242.294457078
 21
36.1107387902
 31
0.0
  0
SPLINE
  5
17A
330
1F
100
AcDbEntity
  8
0
  6
Continuous
 62
     7
370
    15
100
AcDbSpline
210
0.0
220
0.0
230
1.0
 70
     8
 71
     3
 72
    10
 73
     6
 74
     0
 42
0.000000001
 43
0.00000001
 40
0.0
 40
0.0
 40
0.0
 40
0.0
 40
0.2669474508250212
 40
0.8057960457875601
 40
0.9999999999999999
 40
0.9999999999999999
 40
0.9999999999999999
 40
0.9999999999999999
 10
260.9088681608931
 20
32.72265126484232
 30
0.0
 10
260.8568516384593
 20
32.74863987897796
 30
0.0
 10
260.6998368103979
 20
32.82708798717783
 30
0.0
 10
260.539363695033
 20
32.98628708691989
 30
0.0
 10
260.4406784863056
 20
33.13674969978957
 30
0.0
 10
260.4145343063573
 20
33.17661100906857
 30
0.0
  0
SPLINE
  5
17B
330
1F
100
AcDbEntity
  8
0
  6
Continuous
 62
     7
370
    15
100
AcDbSpline
210
0.0
220
0.0
230
1.0
 70
     8
 71
     3
 72
    18
 73
    14
 74
     0
 42
0.000000001
 43
0.00000001
 40
0.0
 40
0.0
 40
0.0
 40
0.0
 40
0.0120362077093597
 40
0.1146962416933077
 40
0.2177524775969211
 40
0.3211545834038465
 40
0.424817920920409
 40
0.5286532160867339
 40
0.6325844450313953
 40
0.7365552952939081
 40
0.8405213707213899
 40
0.9444629591254108
 40
1.0
 40
1.0
 40
1.0
 40
1.0
 10
250.3846147985182
 20
26.38308825229382
 30
0.0
 10
250.4147030713402
 20
26.37961256621109
 30
0.0
 10
250.7014222685368
 20
26.34649182414509
 30
0.0
 10
251.2752596351426
 20
26.36906577552028
 30
0.0
 10
252.1029234767471
 20
26.45705246526659
 30
0.0
 10
252.9567383990686
 20
26.64375574193808
 30
0.0
 10
253.8271684734882
 20
26.91661998276506
 30
0.0
 10
254.7097067061783
 20
27.27696729806928
 30
0.0
 10
255.5982930665536
 20
27.72188958731882
 30
0.0
 10
256.4876568525812
 20
28.24750528296368
 30
0.0
 10
257.3710781679835
 20
28.8545185998374
 30
0.0
 10
258.1114457565873
 20
29.41944388999354
 30
0.0
 10
258.5486267000932
 20
29.80719989230364
 30
0.0
 10
258.7008711483864
 20
29.9422325361574
 30
0.0
  0
LINE
  5
17C
330
1F
100
AcDbEntity
  8
0
  6
Continuous
 62
     7
370
    15
100
AcDbLine
 10
246.4604785968
 20
27.9154403161
 30
0.0
 11
247.8139387317
 21
27.1341044114
 31
0.0
  0
LINE
  5
17D
330
1F
100
AcDbEntity
  8
0
  6
Continuous
 62
     7
370
    15
100
AcDbLine
 10
242.6343815596
 20
30.124199121
 30
0.0
 11
243.970164025
 21
29.3530683177
 31
0.0
  0
SPLINE
  5
17E
330
1F
100
AcDbEntity
  8
0
  6
Continuous
 62
     7
370
    15
100
AcDbSpline
210
0.0
220
0.0
230
1.0
 70
     8
 71
     3
 72
    11
 73
     7
 74
     0
 42
0.000000001
 43
0.00000001
 40
0.0
 40
0.0
 40
0.0
 40
0.0
 40
0.1133826959620745
 40
0.4667471462457246
 40
0.8195771337943418
 40
1.0
 40
1.0
 40
1.0
 40
1.0
 10
239.7143481005784
 20
34.12128959220276
 30
0.0
 10
239.7410568029229
 20
34.03040724645138
 30
0.0
 10
239.8510048906219
 20
33.65628423620156
 30
0.0
 10
240.0954889208403
 20
33.04496053421739
 30
0.0
 10
240.3991732200063
 20
32.4212217425135
 30
0.0
 10
240.6250122963559
 20
32.09361728648785
 30
0.0
 10
240.7014235769882
 20
31.98277430736123
 30
0.0
  0
SPLINE
  5
17F
330
1F
100
AcDbEntity
  8
0
  6
Continuous
 62
     7
370
    15
100
AcDbSpline
210
0.0
220
0.0
230
1.0
 70
     8
 71
     3
 72
    12
 73
     8
 74
     0
 42
0.000000001
 43
0.00000001
 40
0.0
 40
0.0
 40
0.0
 40
0.0
 40
0.0912715970798643
 40
0.3251083641916606
 40
0.5585880906668954
 40
0.7913428407859064
 40
1.0
 40
1.0
 40
1.0
 40
1.0
 10
266.6210033975751
 20
50.59053763158649
 30
0.0
 10
266.5884171685294
 20
50.70099631853612
 30
0.0
 10
266.4723454007599
 20
51.09444887304251
 30
0.0
 10
266.2230616091423
 20
51.72691053453729
 30
0.0
 10
265.8484022094707
 20
52.45715314134518
 30
0.0
 10
265.4275593831782
 20
53.09789041706671
 30
0.0
 10
265.1047790149605
 20
53.4584898435248
 30
0.0
 10
264.9521994554643
 20
53.62894662175866
 30
0.0
  0
SPLINE
  5
180
330
1F
100
AcDbEntity
  8
0
  6
Continuous
 62
     7
370
    15
100
AcDbSpline
210
0.0
220
0.0
230
1.0
 70
     8
 71
     3
 72
    26
 73
    22
 74
     0
 42
0.000000001
 43
0.00000001
 40
0.0
 40
0.0
 40
0.0
 40
0.0
 40
0.0246452040204549
 40
0.0784565228035647
 40
0.1330763853575106
 40
0.1888403713921368
 40
0.2456527278005318
 40
0.3031512165350717
 40
0.3609540443947192
 40
0.4187709607111345
 40
0.4764949554301813
 40
0.5341114738184567
 40
0.5916416368545184
 40
0.6491220704944892
 40
0.7065957099331636
 40
0.7641011795192569
 40
0.8216772746775828
 40
0.8793712551691529
 40
0.9372272572168083
 40
0.9921743326666592
 40
1.0
 40
1.0
 40
1.0
 40
1.0
 10
228.1008455050036
 20
63.93649823082065
 30
0.0
 10
228.0310081347011
 20
63.96248234208253
 30
0.0
 10
227.8086850721234
 20
64.04520119545687
 30
0.0
 10
227.3956290181453
 20
64.08935485978215
 30
0.0
 10
226.8732329935454
 20
64.07274840367255
 30
0.0
 10
226.3263323418645
 20
63.96145746957033
 30
0.0
 10
225.7643612991214
 20
63.76214615801838
 30
0.0
 10
225.1956250723781
 20
63.47519869805547
 30
0.0
 10
224.6305854253986
 20
63.10607412590993
 30
0.0
 10
224.0790906680529
 20
62.66168349503796
 30
0.0
 10
223.5500640728121
 20
62.15024651589637
 30
0.0
 10
223.0513867508301
 20
61.58042108712654
 30
0.0
 10
222.5902986734599
 20
60.96134498357954
 30
0.0
 10
222.1735181095682
 20
60.30262726203421
 30
0.0
 10
221.8072423279126
 20
59.61431171566736
 30
0.0
 10
221.4970692452904
 20
58.90676285958579
 30
0.0
 10
221.2479700863535
 20
58.19051805754994
 30
0.0
 10
221.0640644124107
 20
57.47597166596738
 30
0.0
 10
220.9514431251719
 20
56.78626119894128
 30
0.0
 10
220.9195401528099
 20
56.31413918267062
 30
0.0
 10
220.9183826950589
 20
56.07568294856532
 30
0.0
 10
220.9182383986827
 20
56.04595540952636
 30
0.0
  0
SPLINE
  5
181
330
1F
100
AcDbEntity
  8
0
  6
Continuous
 62
     7
370
    15
100
AcDbSpline
210
0.0
220
0.0
230
1.0
 70
     8
 71
     3
 72
    13
 73
     9
 74
     0
 42
0.000000001
 43
0.00000001
 40
0.0
 40
0.0
 40
0.0
 40
0.0
 40
0.0985000694618771
 40
0.2846953357242287
 40
0.4709221836075215
 40
0.6556869938898674
 40
0.8373772565485647
 40
1.0
 40
1.0
 40
1.0
 40
1.0
 10
220.9182383986827
 20
56.04595540952636
 30
0.0
 10
220.9203371141124
 20
55.93011293589515
 30
0.0
 10
220.9264030437824
 20
55.59529274640959
 30
0.0
 10
220.9943413776866
 20
55.07106320515855
 30
0.0
 10
221.1471379470845
 20
54.49706631683326
 30
0.0
 10
221.3780405311728
 20
53.98695004200256
 30
0.0
 10
221.6660801268289
 20
53.55460121755414
 30
0.0
 10
221.9089705222837
 20
53.33589030658205
 30
0.0
 10
222.0236902736898
 20
53.23259078627969
 30
0.0
  0
LWPOLYLINE
  5
182
330
1F
100
AcDbEntity
  8
0
  6
Continuous
 62
     7
370
    15
100
AcDbPolyline
 90
       14
 70
   128
 43
0.0
 10
259.2274295755
 20
44.1439608817
 10
259.256268875
 20
44.3670452096
 10
259.3977307181
 20
44.5753112737
 10
259.6392455994
 20
44.7502537202
 10
259.9593538618
 20
44.8763281449
 10
260.3296124813
 20
44.9423322821
 10
260.7171223549
 20
44.9424013744
 10
261.0874515297
 20
44.8765292827
 10
261.4076946332
 20
44.7505690314
 10
261.6493966605
 20
44.5757127417
 10
261.7910813257
 20
44.3674971621
 10
261.8201593246
 20
44.1444231608
 10
261.7340469492
 20
43.9263118415
 10
261.546864677
 20
43.7372679845
  0
ARC
  5
183
330
1F
100
AcDbEntity
  8
0
  6
Continuous
 62
     7
370
    15
100
AcDbCircle
 10
259.9019699895
 20
44.3000562273
 30
0.0
 40
0.6923658909857623
100
AcDbArc
 50
193.0294648122
 51
238.1796522521
  0
LWPOLYLINE
  5
184
330
1F
100
AcDbEntity
  8
0
  6
Continuous
 62
     7
370
    15
100
AcDbPolyline
 90
       19
 70
   128
 43
0.0
 10
259.5764428096
 20
44.1591223785
 10
259.6091919862
 20
44.3486471837
 10
259.7522520989
 20
44.5202761153
 10
259.9883679868
 20
44.6533081912
 10
260.2890605893
 20
44.7316977797
 10
260.6180619406
 20
44.7459899396
 10
260.9356896223
 20
44.6944608254
 10
261.2036330482
 20
44.5833256088
 10
261.3895742868
 20
44.4259888371
 10
261.4710860805
 20
44.2414276469
 10
261.438336904
 20
44.0519028418
 10
261.2952767912
 20
43.8802739102
 10
261.0591609033
 20
43.7472418343
 10
260.7584683008
 20
43.6688522457
 10
260.4294669495
 20
43.6545600859
 10
260.1118392679
 20
43.7060892001
 10
259.8438958419
 20
43.8172244167
 10
259.6579546033
 20
43.9745611884
 10
259.5764428096
 20
44.1591223785
  0
SPLINE
  5
185
330
1F
100
AcDbEntity
  8
0
  6
Continuous
 62
     7
370
    15
100
AcDbSpline
210
0.0
220
0.0
230
1.0
 70
     8
 71
     3
 72
    13
 73
     9
 74
     0
 42
0.000000001
 43
0.00000001
 40
0.0
 40
0.0
 40
0.0
 40
0.0
 40
0.1179916447064556
 40
0.2941420992101394
 40
0.4756150555945275
 40
0.6421055446850396
 40
0.8147114244853039
 40
1.0
 40
1.0
 40
1.0
 40
1.0
 10
259.8083713857826
 20
43.84994925045219
 30
0.0
 10
259.805961756049
 20
43.85595884225586
 30
0.0
 10
259.7999547752166
 20
43.87094019074814
 30
0.0
 10
259.789702900831
 20
43.91260098729814
 30
0.0
 10
259.7778868211403
 20
43.98478631535954
 30
0.0
 10
259.7660749549718
 20
44.08501122551144
 30
0.0
 10
259.7545428474678
 20
44.20659001630496
 30
0.0
 10
259.7471921124487
 20
44.30008268084935
 30
0.0
 10
259.7433865010444
 20
44.34848556157924
 30
0.0
  0
LINE
  5
186
330
1F
100
AcDbEntity
  8
0
  6
Continuous
 62
     7
370
    15
100
AcDbLine
 10
259.8746205485
 20
43.8075895933
 30
0.0
 11
259.8083713858
 21
43.8499492505
 31
0.0
  0
LINE
  5
187
330
1F
100
AcDbEntity
  8
0
  6
Continuous
 62
     7
370
    15
100
AcDbLine
 10
261.3041423891
 20
43.9149270939
 30
0.0
 11
261.1864325482
 21
43.8204414114
 31
0.0
  0
SPLINE
  5
188
330
1F
100
AcDbEntity
  8
0
  6
Continuous
 62
     7
370
    15
100
AcDbSpline
210
0.0
220
0.0
230
1.0
 70
     8
 71
     3
 72
    11
 73
     7
 74
     0
 42
0.000000001
 43
0.00000001
 40
0.0
 40
0.0
 40
0.0
 40
0.0
 40
0.1858291127512932
 40
0.5244603149142172
 40
0.8816641415318787
 40
1.0
 40
1.0
 40
1.0
 40
1.0
 10
261.2391575043289
 20
44.41346340506971
 30
0.0
 10
261.242957951102
 20
44.3651123793908
 30
0.0
 10
261.2536838458874
 20
44.22865263000842
 30
0.0
 10
261.2737886587773
 20
44.03490626330306
 30
0.0
 10
261.2920636179813
 20
43.94505148305474
 30
0.0
 10
261.3017355687136
 20
43.92092969075794
 30
0.0
 10
261.3041423890671
 20
43.91492709394267
 30
0.0
  0
SPLINE
  5
189
330
1F
100
AcDbEntity
  8
0
  6
Continuous
 62
     7
370
    15
100
AcDbSpline
210
0.0
220
0.0
230
1.0
 70
     8
 71
     3
 72
    11
 73
     7
 74
     0
 42
0.000000001
 43
0.00000001
 40
0.0
 40
0.0
 40
0.0
 40
0.0
 40
0.2164499953511962
 40
0.4402998152333255
 40
0.7518914760010502
 40
1.0
 40
1.0
 40
1.0
 40
1.0
 10
260.4587795603177
 20
44.630242638888
 30
0.0
 10
260.5122348505337
 20
44.59321299021904
 30
0.0
 10
260.6209729189599
 20
44.51788775197804
 30
0.0
 10
260.8227640564239
 20
44.42422369916518
 30
0.0
 10
261.0392264977
 20
44.38676528339627
 30
0.0
 10
261.177751151045
 20
44.40526340488395
 30
0.0
 10
261.2391575043289
 20
44.41346340506971
 30
0.0
  0
SPLINE
  5
18A
330
1F
100
AcDbEntity
  8
0
  6
Continuous
 62
     7
370
    15
100
AcDbSpline
210
0.0
220
0.0
230
1.0
 70
     8
 71
     3
 72
    11
 73
     7
 74
     0
 42
0.000000001
 43
0.00000001
 40
0.0
 40
0.0
 40
0.0
 40
0.0
 40
0.2164499953511912
 40
0.4402998152333207
 40
0.7518914760010497
 40
1.0
 40
1.0
 40
1.0
 40
1.0
 10
259.7433865010444
 20
44.34848556157924
 30
0.0
 10
259.7923903765326
 20
44.34560526759032
 30
0.0
 10
259.8920734339894
 20
44.33974621035595
 30
0.0
 10
260.0770606959595
 20
44.37499432127278
 30
0.0
 10
260.2754975293819
 20
44.47582067866988
 30
0.0
 10
260.4024867354477
 20
44.58281383030127
 30
0.0
 10
260.4587795603177
 20
44.630242638888
 30
0.0
  0
LINE
  5
18B
330
1F
100
AcDbEntity
  8
0
  6
Continuous
 62
     7
370
    15
100
AcDbLine
 10
261.2391575043
 20
43.8627637307
 30
0.0
 11
261.2391575043
 21
44.4134634051
 31
0.0
  0
LINE
  5
18C
330
1F
100
AcDbEntity
  8
0
  6
Continuous
 62
     7
370
    15
100
AcDbLine
 10
260.4587795603
 20
43.6531362994
 30
0.0
 11
260.4587795603
 21
44.6302426389
 31
0.0
  0
SPLINE
  5
18D
330
1F
100
AcDbEntity
  8
0
  6
Continuous
 62
     7
370
    15
100
AcDbSpline
210
0.0
220
0.0
230
1.0
 70
     8
 71
     3
 72
    12
 73
     8
 74
     0
 42
0.000000001
 43
0.00000001
 40
0.0
 40
0.0
 40
0.0
 40
0.0
 40
0.250000000000001
 40
0.250000000000001
 40
0.500000000000002
 40
0.500000000000002
 40
1.0
 40
1.0
 40
1.0
 40
1.0
 10
244.985767385089
 20
38.34200586789861
 30
0.0
 10
245.0195465513613
 20
38.3225055702851
 30
0.0
 10
245.0578712478368
 20
38.29566582170793
 30
0.0
 10
245.1320943719494
 20
38.23726531838528
 30
0.0
 10
245.1674777364441
 20
38.20627565990439
 30
0.0
 10
245.263287694829
 20
38.11553630688363
 30
0.0
 10
245.3122914529833
 20
38.0596421781661
 30
0.0
 10
245.3461005105981
 20
38.01238231439943
 30
0.0
  0
SPLINE
  5
18E
330
1F
100
AcDbEntity
  8
0
  6
Continuous
 62
     7
370
    15
100
AcDbSpline
210
0.0
220
0.0
230
1.0
 70
     8
 71
     3
 72
    12
 73
     8
 74
     0
 42
0.000000001
 43
0.00000001
 40
0.0
 40
0.0
 40
0.0
 40
0.0
 40
0.4999999999999931
 40
0.4999999999999931
 40
0.7499999999999966
 40
0.7499999999999966
 40
1.0
 40
1.0
 40
1.0
 40
1.0
 10
262.4506304237891
 20
54.78218383872099
 30
0.0
 10
262.4506304237891
 20
54.85360287044566
 30
0.0
 10
262.4330658931281
 20
54.93613262963886
 30
0.0
 10
262.3779403586382
 20
55.05507734567173
 30
0.0
 10
262.3546478848814
 20
55.09371023289633
 30
0.0
 10
262.300679495824
 20
55.16027274417337
 30
0.0
 10
262.2698319950708
 20
55.18819378242603
 30
0.0
 10
262.2384983894331
 20
55.20628228793598
 30
0.0
  0
LINE
  5
18F
330
1F
100
AcDbEntity
  8
0
  6
Continuous
 62
     7
370
    15
100
AcDbLine
 10
243.6323072501
 20
39.1233417726
 30
0.0
 11
244.9857673851
 21
38.3420058679
 31
0.0
  0
LWPOLYLINE
  5
190
330
1F
100
AcDbEntity
  8
0
  6
Continuous
 62
     7
370
    15
100
AcDbPolyline
 90
       23
 70
   128
 43
0.0
 10
243.6323072501
 20
39.1233417726
 10
243.9467895777
 20
40.3632623648
 10
244.3391422463
 20
41.6128749153
 10
244.8064417111
 20
42.8628681618
 10
245.3452059743
 20
44.1039280055
 10
245.9514205314
 20
45.3268069129
 10
246.6205682842
 20
46.5223928227
 10
247.3476631988
 20
47.6817770424
 10
248.127287459
 20
48.7963206299
 10
248.9536318352
 20
49.857718765
 10
249.8205389717
 20
50.8580626309
 10
250.7215492664
 20
51.7898983462
 10
251.6499490038
 20
52.6462825051
 10
252.5988203809
 20
53.4208339159
 10
253.561093054
 20
54.1077811485
 10
254.5295968221
 20
54.7020055397
 10
255.4971150542
 20
55.1990793338
 10
256.4564384629
 20
55.5952986751
 10
257.4004188231
 20
55.8877112067
 10
258.3220222356
 20
56.0741380695
 10
259.214381539
 20
56.1531901374
 10
260.070847479
 20
56.1242783682
 10
260.8850382545
 20
55.9876181926
  0
LINE
  5
191
330
1F
100
AcDbEntity
  8
0
  6
Continuous
 62
     7
370
    15
100
AcDbLine
 10
262.2384983894
 20
55.2062822879
 30
0.0
 11
260.8850382545
 21
55.9876181926
 31
0.0
  0
LINE
  5
192
330
1F
100
AcDbEntity
  8
0
  6
Continuous
 62
     7
370
    15
100
AcDbLine
 10
266.4678943147
 20
50.1111349462
 30
0.0
 11
266.5732578132
 21
50.2936298784
 31
0.0
  0
LINE
  5
193
330
1F
100
AcDbEntity
  8
0
  6
Continuous
 62
     7
370
    15
100
AcDbLine
 10
265.2967352181
 20
49.4350391908
 30
0.0
 11
266.4678943147
 21
50.1111349462
 31
0.0
  0
ARC
  5
194
330
1F
100
AcDbEntity
  8
0
  6
Continuous
 62
     7
370
    15
100
AcDbCircle
 10
265.9592226742
 20
48.3993546148
 30
0.0
 40
1.229443846057881
100
AcDbArc
 50
122.60547834
 51
177.3945215143
  0
LINE
  5
195
330
1F
100
AcDbEntity
  8
0
  6
Continuous
 62
     7
370
    15
100
AcDbLine
 10
264.7310497931
 20
44.9357926804
 30
0.0
 11
264.7310497931
 21
48.4552432966
 31
0.0
  0
LINE
  5
196
330
1F
100
AcDbEntity
  8
0
  6
Continuous
 62
     7
370
    15
100
AcDbLine
 10
245.3939956869
 20
31.372278687
 30
0.0
 11
245.3461005106
 21
31.2500300017
 31
0.0
  0
LINE
  5
197
330
1F
100
AcDbEntity
  8
0
  6
Continuous
 62
     7
370
    15
100
AcDbLine
 10
245.3939956869
 20
31.372278687
 30
0.0
 11
247.406933654
 21
32.5343230406
 31
0.0
  0
ARC
  5
198
330
1F
100
AcDbEntity
  8
0
  6
Continuous
 62
     7
370
    15
100
AcDbCircle
 10
246.7444461979
 20
33.5700076166
 30
0.0
 40
1.229443846057645
100
AcDbArc
 50
302.60547834
 51
357.3945215143
  0
LINE
  5
199
330
1F
100
AcDbEntity
  8
0
  6
Continuous
 62
     7
370
    15
100
AcDbLine
 10
247.972619079
 20
38.7808071715
 30
0.0
 11
247.972619079
 21
33.5141189348
 31
0.0
  0
ARC
  5
19A
330
1F
100
AcDbEntity
  8
0
  6
Continuous
 62
     7
370
    15
100
AcDbCircle
 10
247.6277595851
 20
38.836748929
 30
0.0
 40
0.3493673579428071
100
AcDbArc
 50
350.7859630095
 51
129.2032852357
  0
LINE
  5
19B
330
1F
100
AcDbEntity
  8
0
  6
Continuous
 62
     7
370
    15
100
AcDbLine
 10
247.406933654
 20
39.1074765763
 30
0.0
 11
245.3939956869
 21
37.9454322227
 31
0.0
  0
LINE
  5
19C
330
1F
100
AcDbEntity
  8
0
  6
Continuous
 62
     7
370
    15
100
AcDbLine
 10
245.3461005106
 20
38.0123823144
 30
0.0
 11
245.3939956869
 21
37.9454322227
 31
0.0
  0
LINE
  5
19D
330
1F
100
AcDbEntity
  8
0
  6
Continuous
 62
     7
370
    15
100
AcDbLine
 10
262.4506304238
 20
51.997203047
 30
0.0
 11
262.4506304238
 21
54.7821838387
 31
0.0
  0
LINE
  5
19E
330
1F
100
AcDbEntity
  8
0
  6
Continuous
 62
     7
370
    15
100
AcDbLine
 10
264.8623638909
 20
53.3894671424
 30
0.0
 11
262.4506304238
 21
51.997203047
 31
0.0
  0
LWPOLYLINE
  5
19F
330
1F
100
AcDbEntity
  8
0
  6
Continuous
 62
     7
370
    15
100
AcDbPolyline
 90
       54
 70
   128
 43
0.0
 10
263.3698692393
 20
42.8940767726
 10
262.713359914
 20
42.470091917
 10
262.0660665405
 20
41.9620787008
 10
261.4370756989
 20
41.3771685162
 10
260.8352170419
 20
40.7235722198
 10
260.2689393457
 20
40.0104648711
 10
259.7461919079
 20
39.2478569341
 10
259.2743129566
 20
38.4464537525
 10
258.859926638
 20
37.6175052703
 10
258.5088500276
 20
36.7726481071
 10
258.2260114714
 20
35.9237422055
 10
258.0153814028
 20
35.0827043436
 10
257.8799166063
 20
34.2613408494
 10
257.8215187106
 20
33.4711818659
 10
257.8410074941
 20
32.7233194932
 10
257.9381093772
 20
32.0282520796
 10
258.1114612622
 20
31.395736848
 10
258.3586296686
 20
30.8346529258
 10
258.6761448938
 20
30.3528767013
 10
259.05954972
 20
29.9571712567
 10
259.503461984
 20
29.653091429
 10
260.0016501306
 20
29.4449058324
 10
260.5471206902
 20
29.3355369365
 10
261.1322164519
 20
29.3265200406
 10
261.7487239537
 20
29.4179817223
 10
262.3879887818
 20
29.6086380601
 10
263.0410370591
 20
29.8958126569
 10
263.6987014195
 20
30.2754742108
 10
264.3517496969
 20
30.7422931059
 10
264.991014525
 20
31.2897162281
 10
265.6075220268
 20
31.9100589568
 10
266.1926177885
 20
32.5946130399
 10
266.7380883481
 20
33.3337688387
 10
267.2362764947
 20
34.1171502258
 10
267.6801887586
 20
34.933760244
 10
268.0635935849
 20
35.7721354785
 10
268.3811088101
 20
36.6205069788
 10
268.6282772165
 20
37.4669654686
 10
268.8016291014
 20
38.2996285263
 10
268.8987309845
 20
39.1068073878
 10
268.9182197681
 20
39.8771710311
 10
268.8598218724
 20
40.5999052394
 10
268.7243570759
 20
41.2648644087
 10
268.5137270073
 20
41.8627139698
 10
268.2308884511
 20
42.3850614254
 10
267.8798118407
 20
42.8245741622
 10
267.465425522
 20
43.1750823848
 10
266.9935465708
 20
43.4316657261
 10
266.470799133
 20
43.5907223184
 10
265.9045214368
 20
43.6500193558
 10
265.3026627798
 20
43.6087244379
 10
264.6736719382
 20
43.4674172549
 10
264.0263785647
 20
43.2280814497
 10
263.3698692393
 20
42.8940767726
  0
LWPOLYLINE
  5
1A0
330
1F
100
AcDbEntity
  8
0
  6
Continuous
 62
     7
370
    15
100
AcDbPolyline
 90
       28
 70
   128
 43
0.0
 10
263.2638032222
 20
43.0777885028
 10
262.5947491326
 20
42.6457020257
 10
261.9350870959
 20
42.1279815506
 10
261.2940773211
 20
41.5318947382
 10
260.6807181802
 20
40.8658093407
 10
260.1036198911
 20
40.1390757369
 10
259.5708836487
 20
39.3618956737
 10
259.0899879022
 20
38.5451790555
 10
258.6676833737
 20
37.7003907934
 10
258.309898293
 20
36.8393898627
 10
258.0216551784
 20
35.9742628293
 10
257.8070003314
 20
35.1171541803
 10
257.6689470356
 20
34.2800958422
 10
257.6094332565
 20
33.4748382794
 10
257.6292944372
 20
32.7126855428
 10
257.7282517703
 20
32.0043365863
 10
257.9049161117
 20
31.3597350764
 10
258.1568074813
 20
30.7879298054
 10
258.4803898764
 20
30.2969476658
 10
258.8711209095
 20
29.8936809706
 10
259.3235155734
 20
29.5837907004
 10
259.8312232387
 20
29.3716270351
 10
260.3871168026
 20
29.2601682876
 10
260.9833927381
 20
29.2509790944
 10
261.6116806381
 20
29.3441884515
 10
262.2631607176
 20
29.538487904
 10
262.9286876245
 20
29.8311499135
 10
263.2647226201
 20
30.013666356
  0
LWPOLYLINE
  5
1A1
330
1F
100
AcDbEntity
  8
0
  6
Continuous
 62
     7
370
    15
100
AcDbPolyline
 90
       15
 70
   128
 43
0.0
 10
268.9206574716
 20
39.811094455
 10
268.9181731878
 20
40.0032348809
 10
268.8586594087
 20
40.739779297
 10
268.7206061129
 20
41.4174446924
 10
268.5059512659
 20
42.0267181305
 10
268.2177081513
 20
42.5590467477
 10
267.8599230707
 20
43.006957817
 10
267.4376185421
 20
43.364163649
 10
266.9567227956
 20
43.6256498566
 10
266.4239865533
 20
43.7877457469
 10
265.8468882641
 20
43.8481758487
 10
265.2335291232
 20
43.806091856
 10
264.5925193484
 20
43.6620845357
 10
263.9328573117
 20
43.4181754349
 10
263.2638032222
 20
43.0777885028
  0
SPLINE
  5
1A2
330
1F
100
AcDbEntity
  8
0
  6
Continuous
 62
     7
370
    15
100
AcDbSpline
210
0.0
220
0.0
230
1.0
 70
    11
 71
     3
 72
    66
 73
    62
 74
     0
 42
0.000000001
 43
0.00000001
 40
0.0
 40
0.0
 40
0.0
 40
0.0
 40
0.0312499999999998
 40
0.0312499999999998
 40
0.0624999999999997
 40
0.0624999999999997
 40
0.0937499999999995
 40
0.0937499999999995
 40
0.1249999999999994
 40
0.1249999999999994
 40
0.1562499999999992
 40
0.1562499999999992
 40
0.1874999999999991
 40
0.1874999999999991
 40
0.2187499999999989
 40
0.2187499999999989
 40
0.2499999999999988
 40
0.2499999999999988
 40
0.2812499999999986
 40
0.2812499999999986
 40
0.3124999999999984
 40
0.3124999999999984
 40
0.3437499999999983
 40
0.3437499999999983
 40
0.3749999999999982
 40
0.3749999999999982
 40
0.406249999999998
 40
0.406249999999998
 40
0.4374999999999979
 40
0.4374999999999979
 40
0.4687499999999977
 40
0.4687499999999977
 40
0.4999999999999976
 40
0.4999999999999976
 40
0.5312499999999974
 40
0.5312499999999974
 40
0.5624999999999972
 40
0.5624999999999972
 40
0.6249999999999969
 40
0.6249999999999969
 40
0.6562499999999968
 40
0.6562499999999968
 40
0.6874999999999971
 40
0.6874999999999971
 40
0.7187499999999973
 40
0.7187499999999973
 40
0.7499999999999977
 40
0.7499999999999977
 40
0.781249999999998
 40
0.781249999999998
 40
0.8124999999999982
 40
0.8124999999999982
 40
0.8437499999999986
 40
0.8437499999999986
 40
0.8749999999999988
 40
0.8749999999999988
 40
0.9062499999999991
 40
0.9062499999999991
 40
0.9374999999999994
 40
0.9374999999999994
 40
1.0
 40
1.0
 40
1.0
 40
1.0
 10
260.5203906854122
 20
45.60424895170176
 30
0.0
 10
260.637335543266
 20
45.58790408356194
 30
0.0
 10
260.7513148375238
 20
45.56565781028451
 30
0.0
 10
260.973962163155
 20
45.511353824379
 30
0.0
 10
261.0833767637246
 20
45.47901379268799
 30
0.0
 10
261.293354789753
 20
45.40630397994889
 30
0.0
 10
261.3926466753653
 20
45.36646498495513
 30
0.0
 10
261.580319601042
 20
45.28059924491191
 30
0.0
 10
261.6694577326928
 20
45.2340835049542
 30
0.0
 10
261.8316854495734
 20
45.13739788997064
 30
0.0
 10
261.9048548310438
 20
45.08734111425777
 30
0.0
 10
262.035412177262
 20
44.98358250754452
 30
0.0
 10
262.0932122979971
 20
44.92931914296378
 30
0.0
 10
262.18847779581
 20
44.81993044378426
 30
0.0
 10
262.2263560819229
 20
44.76466941662999
 30
0.0
 10
262.2820875591241
 20
44.65205461227737
 30
0.0
 10
262.2998803282677
 20
44.59410862625484
 30
0.0
 10
262.3124454733048
 20
44.47948266594469
 30
0.0
 10
262.3076321268879
 20
44.42243146635104
 30
0.0
 10
262.2743291954835
 20
44.30770945841441
 30
0.0
 10
262.24526427836
 20
44.24966084117635
 30
0.0
 10
262.1643065764139
 20
44.13793041694775
 30
0.0
 10
262.1123849037116
 20
44.08351979752708
 30
0.0
 10
261.9836943159058
 20
43.97715987110336
 30
0.0
 10
261.9081232662418
 20
43.92643844249989
 30
0.0
 10
261.7393841216661
 20
43.83269297445803
 30
0.0
 10
261.6441693005156
 20
43.7886696858212
 30
0.0
 10
261.4422679729034
 20
43.71124298227403
 30
0.0
 10
261.3357042307865
 20
43.67762506826994
 30
0.0
 10
261.1116714135633
 20
43.62094958196975
 30
0.0
 10
260.9967681969873
 20
43.59861467053245
 30
0.0
 10
260.7651030341845
 20
43.56653204292644
 30
0.0
 10
260.6466684654745
 20
43.55667990940179
 30
0.0
 10
260.4146663562723
 20
43.55054815292311
 30
0.0
 10
260.3005094060628
 20
43.55406821240343
 30
0.0
 10
260.0756307252554
 20
43.5748103517361
 30
0.0
 10
259.9658130302298
 20
43.5920918059003
 30
0.0
 10
259.6529593516796
 20
43.66334726271118
 30
0.0
 10
259.4602051288872
 20
43.73872507035325
 30
0.0
 10
259.2178258824074
 20
43.88527379521233
 30
0.0
 10
259.1438299014167
 20
43.94002409564326
 30
0.0
 10
259.0117199725784
 20
44.06034843823181
 30
0.0
 10
258.9550068205946
 20
44.12454892349123
 30
0.0
 10
258.8599201434085
 20
44.26032425641863
 30
0.0
 10
258.8213473106774
 20
44.33242163742082
 30
0.0
 10
258.7651265113108
 20
44.48147691182582
 30
0.0
 10
258.7478034329649
 20
44.55713413447877
 30
0.0
 10
258.7350870699535
 20
44.709768315924
 30
0.0
 10
258.7399020361059
 20
44.78763380235063
 30
0.0
 10
258.7735716520334
 20
44.93935579114673
 30
0.0
 10
258.8019663207148
 20
45.01251279959686
 30
0.0
 10
258.8828810267707
 20
45.15228031033983
 30
0.0
 10
258.9364333198587
 20
45.21962633799708
 30
0.0
 10
259.0644089124126
 20
45.33972760988937
 30
0.0
 10
259.1388653500326
 20
45.39319803406455
 30
0.0
 10
259.3096055260485
 20
45.48622303412256
 30
0.0
 10
259.4041598494528
 20
45.52459591899904
 30
0.0
 10
259.6055996284029
 20
45.58401252891395
 30
0.0
 10
259.7145685088572
 20
45.60551256058799
 30
0.0
 10
260.0486336561203
 20
45.64425692061323
 30
0.0
 10
260.2865009697045
 20
45.6369386879814
 30
0.0
 10
260.5203906854121
 20
45.60424895170176
 30
0.0
  0
LINE
  5
1A3
330
1F
100
AcDbEntity
  8
0
  6
Continuous
 62
     7
370
    15
100
AcDbLine
 10
266.4136326249
 20
36.416703394
 30
0.0
 11
267.6125099265
 21
37.9080953596
 31
0.0
  0
SPLINE
  5
1A4
330
1F
100
AcDbEntity
  8
0
  6
Continuous
 62
     7
370
    15
100
AcDbSpline
210
0.0
220
0.0
230
1.0
 70
     8
 71
     3
 72
    22
 73
    18
 74
     0
 42
0.000000001
 43
0.00000001
 40
0.0
 40
0.0
 40
0.0
 40
0.0
 40
0.0416666666666664
 40
0.0833333333333335
 40
0.1250000000000034
 40
0.166666666666668
 40
0.2083333333333337
 40
0.2499999999998967
 40
0.2968749999997767
 40
0.34375
 40
0.3906249999999997
 40
0.4374999999999997
 40
0.4847037825276519
 40
0.4847037825276519
 40
0.53125
 40
0.6249999999999849
 40
0.8414337678076683
 40
0.8414337678076683
 40
0.8414337678076683
 40
0.8414337678076683
 10
267.6125099264509
 20
37.90809535959347
 30
0.0
 10
267.6579892542641
 20
37.9646712110293
 30
0.0
 10
267.747259664206
 20
38.08659181962263
 30
0.0
 10
267.871752373723
 20
38.29349949196425
 30
0.0
 10
267.9813940217786
 20
38.52247186414944
 30
0.0
 10
268.0683996175538
 20
38.76587623328398
 30
0.0
 10
268.1250752242075
 20
39.01284509835825
 30
0.0
 10
268.1463446681852
 20
39.26089143387753
 30
0.0
 10
268.1231111355874
 20
39.493254286907
 30
0.0
 10
268.0500260118358
 20
39.69138493422253
 30
0.0
 10
267.935159449446
 20
39.83672282076698
 30
0.0
 10
267.7858558492079
 20
39.92736245145944
 30
0.0
 10
267.6749324696011
 20
39.95316605164136
 30
0.0
 10
267.5644506860685
 20
39.96357553308605
 30
0.0
 10
267.41621701663
 20
39.97593526711029
 30
0.0
 10
267.1351216215713
 20
40.00183002418178
 30
0.0
 10
266.7181234515635
 20
40.03904790747963
 30
0.0
 10
266.4135266775868
 20
40.06618829604772
 30
0.0
  0
SPLINE
  5
1A5
330
1F
100
AcDbEntity
  8
0
  6
Continuous
 62
     7
370
    15
100
AcDbSpline
210
0.0
220
0.0
230
1.0
 70
     8
 71
     3
 72
    22
 73
    18
 74
     0
 42
0.000000001
 43
0.00000001
 40
0.0
 40
0.0
 40
0.0
 40
0.0
 40
0.0416666666666664
 40
0.0833333333333335
 40
0.1250000000000034
 40
0.166666666666668
 40
0.2083333333333337
 40
0.2499999999998967
 40
0.2968749999997767
 40
0.34375
 40
0.3906249999999997
 40
0.4374999999999997
 40
0.4847037825276519
 40
0.4847037825276519
 40
0.53125
 40
0.6249999999999849
 40
0.8393173095864878
 40
0.8393173095864878
 40
0.8393173095864878
 40
0.8393173095864878
 10
259.1272285522123
 20
33.00964668865723
 30
0.0
 10
259.0825558953717
 20
33.01364109735136
 30
0.0
 10
258.9921044373463
 20
33.03259788820984
 30
0.0
 10
258.8680864183694
 20
33.09572689229518
 30
0.0
 10
258.7583175802787
 20
33.19812108807333
 30
0.0
 10
258.671346054104
 20
33.34106787630581
 30
0.0
 10
258.6146613590834
 20
33.52260133590234
 30
0.0
 10
258.5933942941343
 20
33.74609010849058
 30
0.0
 10
258.6166276178774
 20
34.00527857024366
 30
0.0
 10
258.6897108759322
 20
34.28778890549718
 30
0.0
 10
258.8045851179965
 20
34.56575852976301
 30
0.0
 10
258.9538597977748
 20
34.82874443297987
 30
0.0
 10
259.064855571272
 20
34.98270749766257
 30
0.0
 10
259.1753660920054
 20
35.12071228120536
 30
0.0
 10
259.3235787179673
 20
35.30419279398438
 30
0.0
 10
259.601475836032
 20
35.65065024319271
 30
0.0
 10
260.0234192598255
 20
36.17548122160181
 30
0.0
 10
260.3262135839572
 20
36.55206121269092
 30
0.0
  0
LINE
  5
1A6
330
1F
100
AcDbEntity
  8
0
  6
Continuous
 62
     7
370
    15
100
AcDbLine
 10
260.3261058537
 20
32.902448992
 30
0.0
 11
259.1272285522
 21
33.0096466887
 31
0.0
  0
SPLINE
  5
1A7
330
1F
100
AcDbEntity
  8
0
  6
Continuous
 62
     7
370
    15
100
AcDbSpline
210
0.0
220
0.0
230
1.0
 70
     8
 71
     3
 72
     8
 73
     4
 74
     0
 42
0.000000001
 43
0.00000001
 40
0.0
 40
0.0
 40
0.0
 40
0.0
 40
1.0
 40
1.0
 40
1.0
 40
1.0
 10
242.6421559648514
 20
40.3817209567683
 30
0.0
 10
242.261458098851
 20
40.3187541190977
 30
0.0
 10
241.8806201266111
 20
40.25605399696266
 30
0.0
 10
241.4996794758715
 20
40.19357311828963
 30
0.0
  0
SPLINE
  5
1A8
330
1F
100
AcDbEntity
  8
0
  6
Continuous
 62
     7
370
    15
100
AcDbSpline
210
0.0
220
0.0
230
1.0
 70
     8
 71
     3
 72
     8
 73
     4
 74
     0
 42
0.000000001
 43
0.00000001
 40
0.0
 40
0.0
 40
0.0
 40
0.0
 40
0.0011901715795577
 40
0.0011901715795577
 40
0.0011901715795577
 40
0.0011901715795577
 10
241.1419926783136
 20
40.56096977414524
 30
0.0
 10
241.2616391858084
 20
40.43835486438975
 30
0.0
 10
241.3808823599565
 20
40.31588282389404
 30
0.0
 10
241.4996794758715
 20
40.19357311828963
 30
0.0
  0
LWPOLYLINE
  5
1A9
330
1F
100
AcDbEntity
  8
0
  6
Continuous
 62
     7
370
    15
100
AcDbPolyline
 90
       23
 70
   128
 43
0.0
 10
241.1419926783
 20
40.5609697741
 10
241.4564750058
 20
41.8008903663
 10
241.8488276745
 20
43.0505029168
 10
242.3161271392
 20
44.3004961634
 10
242.8548914025
 20
45.541556007
 10
243.4611059596
 20
46.7644349144
 10
244.1302537123
 20
47.9600208242
 10
244.857348627
 20
49.119405044
 10
245.6369728872
 20
50.2339486315
 10
246.4633172634
 20
51.2953467665
 10
247.3302243999
 20
52.2956906325
 10
248.2312346946
 20
53.2275263477
 10
249.1596344319
 20
54.0839105067
 10
250.1085058091
 20
54.8584619175
 10
251.0707784822
 20
55.5454091501
 10
252.0392822503
 20
56.1396335413
 10
253.0068004824
 20
56.6367073353
 10
253.9661238911
 20
57.0329266766
 10
254.9101042513
 20
57.3253392083
 10
255.8317076638
 20
57.5117660711
 10
256.7240669671
 20
57.590818139
 10
257.5805329072
 20
57.5619063697
 10
258.3947236827
 20
57.4252461942
  0
LINE
  5
1AA
330
1F
100
AcDbEntity
  8
0
  6
Continuous
 62
     7
370
    15
100
AcDbLine
 10
258.8263569872
 20
56.0984697234
 30
0.0
 11
258.3947236827
 21
57.4252461942
 31
0.0
  0
LWPOLYLINE
  5
1AB
330
1F
100
AcDbEntity
  8
0
  6
Continuous
 62
     7
370
    15
100
AcDbPolyline
 90
       22
 70
   128
 43
0.0
 10
242.6421559649
 20
40.3817209568
 10
242.9369843508
 20
41.5570427694
 10
243.3086748103
 20
42.7421583267
 10
243.7542326702
 20
43.9275192695
 10
244.2700681145
 20
45.1035752614
 10
244.852025108
 20
46.2608509353
 10
245.4954148806
 20
47.3900222352
 10
246.1950537042
 20
48.4819915391
 10
246.9453046578
 20
49.527960958
 10
247.7401230434
 20
50.5195032194
 10
248.5731050877
 20
51.4486295651
 10
249.4375395364
 20
52.3078541156
 10
250.3264617264
 20
53.0902541835
 10
251.2327096992
 20
53.7895260484
 10
252.1489819042
 20
54.400035746
 10
253.0678960265
 20
54.9168644598
 10
253.9820484657
 20
55.3358481517
 10
254.8840739857
 20
55.6536111115
 10
255.7667050557
 20
55.8675931542
 10
256.6228304043
 20
55.9760702478
 10
257.4455523138
 20
55.9781684029
 10
257.6909340673
 20
55.9573876798
  0
LINE
  5
1AC
330
1F
100
AcDbEntity
  8
0
  6
Continuous
 62
     7
370
    15
100
AcDbLine
 10
239.8062102129
 20
41.3321005774
 30
0.0
 11
241.1419926783
 21
40.5609697741
 31
0.0
  0
LINE
  5
1AD
330
1F
100
AcDbEntity
  8
0
  6
Continuous
 62
     7
370
    15
100
AcDbLine
 10
258.3947236827
 20
57.4252461942
 30
0.0
 11
257.0589412172
 21
58.1963769975
 31
0.0
  0
LINE
  5
1AE
330
1F
100
AcDbEntity
  8
0
  6
Continuous
 62
     7
370
    15
100
AcDbLine
 10
243.8686980699
 20
40.0814363067
 30
0.0
 11
243.2781874141
 21
40.4223308522
 31
0.0
  0
SPLINE
  5
1AF
330
1F
100
AcDbEntity
  8
0
  6
Continuous
 62
     7
370
    15
100
AcDbSpline
210
0.0
220
0.0
230
1.0
 70
     8
 71
     3
 72
    12
 73
     8
 74
     0
 42
0.000000001
 43
0.00000001
 40
0.0
 40
0.0
 40
0.0
 40
0.0
 40
0.2500000000000015
 40
0.2500000000000015
 40
0.500000000000003
 40
0.500000000000003
 40
1.0
 40
1.0
 40
1.0
 40
1.0
 10
243.2781874140888
 20
40.42233085218393
 30
0.0
 10
243.2405686791296
 20
40.44404768562013
 30
0.0
 10
243.1945762707423
 20
40.46130341960277
 30
0.0
 10
243.0949751407663
 20
40.4835972074306
 30
0.0
 10
243.0402244155123
 20
40.48880299201004
 30
0.0
 10
242.8807185166929
 20
40.48580109258291
 30
0.0
 10
242.7757157114754
 20
40.45882335732371
 30
0.0
 10
242.7004028152835
 20
40.41534614779041
 30
0.0
  0
SPLINE
  5
1B0
330
1F
100
AcDbEntity
  8
0
  6
Continuous
 62
     7
370
    15
100
AcDbSpline
210
0.0
220
0.0
230
1.0
 70
     8
 71
     3
 72
    10
 73
     6
 74
     0
 42
0.000000001
 43
0.00000001
 40
0.0
 40
0.0
 40
0.0
 40
0.0
 40
0.5
 40
0.5
 40
1.0
 40
1.0
 40
1.0
 40
1.0
 10
239.7045661023001
 20
41.36282262874306
 30
0.0
 10
239.7118287839487
 20
41.36681923423088
 30
0.0
 10
239.7236224479144
 20
41.36700101261606
 30
0.0
 10
239.7576814586817
 20
41.35727938310631
 30
0.0
 10
239.7798539462339
 20
41.3473157263306
 30
0.0
 10
239.8062102128975
 20
41.3321005774493
 30
0.0
  0
LINE
  5
1B1
330
1F
100
AcDbEntity
  8
0
  6
Continuous
 62
     7
370
    15
100
AcDbLine
 10
242.7004028153
 20
40.4153461478
 30
0.0
 11
242.6421559649
 21
40.3817209568
 31
0.0
  0
SPLINE
  5
1B2
330
1F
100
AcDbEntity
  8
0
  6
Continuous
 62
     7
370
    15
100
AcDbSpline
210
0.0
220
0.0
230
1.0
 70
     8
 71
     3
 72
    13
 73
     9
 74
     0
 42
0.000000001
 43
0.00000001
 40
0.0
 40
0.0
 40
0.0
 40
0.0
 40
0.1775213400266645
 40
0.3601889950166736
 40
0.5377116282389791
 40
0.7203820356746535
 40
0.8979351454576406
 40
1.0
 40
1.0
 40
1.0
 40
1.0
 10
259.0565178740937
 20
33.2735369226946
 30
0.0
 10
259.0153076172246
 20
33.28035608260948
 30
0.0
 10
258.9316924247986
 20
33.29419208878333
 30
0.0
 10
258.8250943307739
 20
33.35562161987148
 30
0.0
 10
258.734291879635
 20
33.44584273614431
 30
0.0
 10
258.6662072710922
 20
33.56461111823555
 30
0.0
 10
258.623423386387
 20
33.68475237160506
 30
0.0
 10
258.6146051498994
 20
33.7701011904296
 30
0.0
 10
258.6113863580504
 20
33.80125482106169
 30
0.0
  0
SPLINE
  5
1B3
330
1F
100
AcDbEntity
  8
0
  6
Continuous
 62
     7
370
    15
100
AcDbSpline
210
0.0
220
0.0
230
1.0
 70
     8
 71
     3
 72
    16
 73
    12
 74
     0
 42
0.000000001
 43
0.00000001
 40
0.0
 40
0.0
 40
0.0
 40
0.0
 40
0.0205746526097315
 40
0.1029433803092481
 40
0.1876790310195919
 40
0.3185656536588193
 40
0.4528171318158137
 40
0.5874517201408576
 40
0.7231898671985462
 40
0.8613358362362977
 40
1.0
 40
1.0
 40
1.0
 40
1.0
 10
260.4778249733763
 20
36.76429847061048
 30
0.0
 10
260.4776021549881
 20
36.76357230302467
 30
0.0
 10
260.4764873036947
 20
36.75993899035729
 30
0.0
 10
260.471402631932
 20
36.75018490719901
 30
0.0
 10
260.4613221588857
 20
36.7329138621234
 30
0.0
 10
260.445755326105
 20
36.70931479256953
 30
0.0
 10
260.4251979010488
 20
36.6802616604423
 30
0.0
 10
260.4024451937156
 20
36.6495236135753
 30
0.0
 10
260.3781575825476
 20
36.61773152518639
 30
0.0
 10
260.3527088678342
 20
36.58516798330233
 30
0.0
 10
260.3350563605449
 20
36.56311056688608
 30
0.0
 10
260.3262135839571
 20
36.55206121269087
 30
0.0
  0
LINE
  5
1B4
330
1F
100
AcDbEntity
  8
0
  6
Continuous
 62
     7
370
    15
100
AcDbLine
 10
245.3939956869
 20
37.9454322227
 30
0.0
 11
243.6668129876
 21
38.9425135715
 31
0.0
  0
SPLINE
  5
1B5
330
1F
100
AcDbEntity
  8
0
  6
Continuous
 62
     7
370
    15
100
AcDbSpline
210
0.0
220
0.0
230
1.0
 70
     8
 71
     3
 72
     8
 73
     4
 74
     0
 42
0.000000001
 43
0.00000001
 40
0.0
 40
0.0
 40
0.0
 40
0.0
 40
0.0011901715795577
 40
0.0011901715795577
 40
0.0011901715795577
 40
0.0011901715795577
 10
243.6668129875603
 20
38.94251357154284
 30
0.0
 10
243.6546515207417
 20
39.00326382725366
 30
0.0
 10
243.6431680737857
 20
39.06352750138371
 30
0.0
 10
243.6323072501432
 20
39.12334177260045
 30
0.0
  0
SPLINE
  5
1B6
330
1F
100
AcDbEntity
  8
0
  6
Continuous
 62
     7
370
    15
100
AcDbSpline
210
0.0
220
0.0
230
1.0
 70
     8
 71
     3
 72
    16
 73
    12
 74
     0
 42
0.000000001
 43
0.00000001
 40
0.0
 40
0.0
 40
0.0
 40
0.0
 40
0.2500000000000069
 40
0.2500000000000069
 40
0.5000000000000138
 40
0.5000000000000138
 40
0.6250000000000109
 40
0.6250000000000109
 40
0.750000000000008
 40
0.750000000000008
 40
1.0
 40
1.0
 40
1.0
 40
1.0
 10
266.4135266775879
 20
40.06618829604762
 30
0.0
 10
266.3875313779819
 20
40.06850454688324
 30
0.0
 10
266.3595438575788
 20
40.06973619566309
 30
0.0
 10
266.2968920942431
 20
40.06856692218565
 30
0.0
 10
266.2618575592177
 20
40.06625435791808
 30
0.0
 10
266.2030667999746
 20
40.05658699165814
 30
0.0
 10
266.1820687951337
 20
40.05218506445348
 30
0.0
 10
266.1405600982647
 20
40.04057486815632
 30
0.0
 10
266.1207577567598
 20
40.0334971501463
 30
0.0
 10
266.0698475448017
 20
40.01096528038875
 30
0.0
 10
266.0476861068252
 20
39.99516996432079
 30
0.0
 10
266.0314919204628
 20
39.98060653187198
 30
0.0
  0
SPLINE
  5
1B7
330
1F
100
AcDbEntity
  8
0
  6
Continuous
 62
     7
370
    15
100
AcDbSpline
210
0.0
220
0.0
230
1.0
 70
     8
 71
     3
 72
    10
 73
     6
 74
     0
 42
0.000000001
 43
0.00000001
 40
0.0
 40
0.0
 40
0.0
 40
0.0
 40
0.5
 40
0.5
 40
1.0
 40
1.0
 40
1.0
 40
1.0
 10
266.0314919204682
 20
39.98060653186963
 30
0.0
 10
266.0052991628403
 20
39.99005442774128
 30
0.0
 10
265.9791669741988
 20
40.00022850321284
 30
0.0
 10
265.9285574852965
 20
40.022291219156
 30
0.0
 10
265.9047933990154
 20
40.03393080347318
 30
0.0
 10
265.8848062287786
 20
40.04546915125022
 30
0.0
  0
LINE
  5
1B8
330
1F
100
AcDbEntity
  8
0
  6
Continuous
 62
     7
370
    15
100
AcDbLine
 10
265.3721990143
 20
40.5243226996
 30
0.0
 11
265.3363339591
 21
40.5443774228
 31
0.0
  0
LINE
  5
1B9
330
1F
100
AcDbEntity
  8
0
  6
Continuous
 62
     7
370
    15
100
AcDbLine
 10
264.761924691
 20
40.6936948651
 30
0.0
 11
265.8848062288
 21
40.0454691513
 31
0.0
  0
ARC
  5
1BA
330
1F
100
AcDbEntity
  8
0
  6
Continuous
 62
     7
370
    15
100
AcDbCircle
 10
257.7763131174
 20
40.1961627566
 30
0.0
 40
5.625859771491568
100
AcDbArc
 50
337.8144850882
 51
1.4332188307
  0
LINE
  5
1BB
330
1F
100
AcDbEntity
  8
0
  6
Continuous
 62
     7
370
    15
100
AcDbLine
 10
262.9856684259
 20
38.0718003962
 30
0.0
 11
265.8848062288
 21
36.398163767
 31
0.0
  0
LINE
  5
1BC
330
1F
100
AcDbEntity
  8
0
  6
Continuous
 62
     7
370
    15
100
AcDbLine
 10
260.8725647175
 20
32.7298829381
 30
0.0
 11
260.9084387412
 21
32.70982336
 31
0.0
  0
LINE
  5
1BD
330
1F
100
AcDbEntity
  8
0
  6
Continuous
 62
     7
370
    15
100
AcDbLine
 10
258.6778484469
 20
34.179797375
 30
0.0
 11
260.3599575031
 21
33.2087364865
 31
0.0
  0
LWPOLYLINE
  5
1BE
330
1F
100
AcDbEntity
  8
0
  6
Continuous
 62
     7
370
    15
100
AcDbPolyline
 90
       17
 70
   128
 43
0.0
 10
261.5803633339
 20
43.7507850546
 10
261.6350899565
 20
43.7971595637
 10
261.7915420921
 20
44.0041703788
 10
261.8353466201
 20
44.2286059513
 10
261.7626113161
 20
44.4505241955
 10
261.579799031
 20
44.6502067017
 10
261.3031534386
 20
44.8099108027
 10
260.9572557139
 20
44.9154460885
 10
260.5728403875
 20
44.9574352858
 10
260.1840644484
 20
44.93214747
 10
259.8254723446
 20
44.8418295746
 10
259.5289265584
 20
44.694506741
 10
259.3207764842
 20
44.5032692495
 10
259.2195171696
 20
44.2851093903
 10
259.2341459489
 20
44.0594116244
 10
259.3633629911
 20
43.8462301887
 10
259.4977070699
 20
43.7277931405
  0
LINE
  5
1BF
330
1F
100
AcDbEntity
  8
0
  6
Continuous
 62
     7
370
    15
100
AcDbLine
 10
260.4254038457
 20
33.1511378891
 30
0.0
 11
259.0565178741
 21
33.2735369227
 31
0.0
  0
SPLINE
  5
1C0
330
1F
100
AcDbEntity
  8
0
  6
Continuous
 62
     7
370
    15
100
AcDbSpline
210
0.0
220
0.0
230
1.0
 70
     8
 71
     3
 72
    16
 73
    12
 74
     0
 42
0.000000001
 43
0.00000001
 40
0.0
 40
0.0
 40
0.0
 40
0.0
 40
0.2500000000000047
 40
0.2500000000000047
 40
0.5000000000000094
 40
0.5000000000000094
 40
0.6250000000000101
 40
0.6250000000000101
 40
0.7500000000000108
 40
0.7500000000000108
 40
1.0
 40
1.0
 40
1.0
 40
1.0
 10
260.326105853725
 20
32.90244899201141
 30
0.0
 10
260.3516633390877
 20
32.90016376769406
 30
0.0
 10
260.3766628762738
 20
32.90051834962473
 30
0.0
 10
260.4240612948516
 20
32.91097266230982
 30
0.0
 10
260.4463133099306
 20
32.92074651705086
 30
0.0
 10
260.4699127537785
 20
32.95105891233963
 30
0.0
 10
260.475985405431
 20
32.96406432697527
 30
0.0
 10
260.4811522556211
 20
32.99645161969588
 30
0.0
 10
260.4799979671743
 20
33.01566145544458
 30
0.0
 10
260.4667783715352
 20
33.07507138578243
 30
0.0
 10
260.4470681862239
 20
33.11473442781157
 30
0.0
 10
260.4254038456996
 20
33.15113788908096
 30
0.0
  0
SPLINE
  5
1C1
330
1F
100
AcDbEntity
  8
0
  6
Continuous
 62
     7
370
    15
100
AcDbSpline
210
0.0
220
0.0
230
1.0
 70
     8
 71
     3
 72
     8
 73
     4
 74
     0
 42
0.000000001
 43
0.00000001
 40
0.0
 40
0.0
 40
0.0
 40
0.0
 40
1.0
 40
1.0
 40
1.0
 40
1.0
 10
260.3599575030536
 20
33.20873648646595
 30
0.0
 10
260.3999918027627
 20
33.18562517718196
 30
0.0
 10
260.4195552434538
 20
33.16580989281078
 30
0.0
 10
260.4254038456992
 20
33.15113788908219
 30
0.0
  0
ARC
  5
1C2
330
1F
100
AcDbEntity
  8
0
  6
Continuous
 62
     7
370
    15
100
AcDbCircle
 10
252.644748498
 20
39.367295071
 30
0.0
 40
10.35661018335401
100
AcDbArc
 50
174.7077980356
 51
187.1554822618
  0
LINE
  5
1C3
330
1F
100
AcDbEntity
  8
0
  6
Continuous
 62
     7
370
    15
100
AcDbLine
 10
242.3687978381
 20
40.3365792149
 30
0.0
 11
242.3687978381
 21
38.0772514573
 31
0.0
  0
LINE
  5
1C4
330
1F
100
AcDbEntity
  8
0
  6
Continuous
 62
     7
370
    15
100
AcDbLine
 10
242.3687978381
 20
38.0772514573
 30
0.0
 11
242.3687978381
 21
36.6114434948
 31
0.0
  0
LINE
  5
1C5
330
1F
100
AcDbEntity
  8
0
  6
Continuous
 62
     7
370
    15
100
AcDbLine
 10
240.1437278366
 20
40.9763473378
 30
0.0
 11
239.7045661023
 21
41.3628226287
 31
0.0
  0
LINE
  5
1C6
330
1F
100
AcDbEntity
  8
0
  6
Continuous
 62
     7
370
    15
100
AcDbLine
 10
241.4996794759
 20
40.1935731183
 30
0.0
 11
240.1437278366
 21
40.9763473378
 31
0.0
  0
LINE
  5
1C7
330
1F
100
AcDbEntity
  8
0
  6
Continuous
 62
     7
370
    15
100
AcDbLine
 10
241.3700095097
 20
40.1121449462
 30
0.0
 11
241.3711554692
 21
40.2677684481
 31
0.0
  0
ARC
  5
1C8
330
1F
100
AcDbEntity
  8
0
  6
Continuous
 62
     7
370
    15
100
AcDbCircle
 10
248.1430749481
 20
39.8105660548
 30
0.0
 40
6.779776195454609
100
AcDbArc
 50
177.4505204114
 51
211.1388398759
  0
LINE
  5
1C9
330
1F
100
AcDbEntity
  8
0
  6
Continuous
 62
     7
370
    15
100
AcDbLine
 10
228.1131004869
 20
63.9448753856
 30
0.0
 11
228.1630016619
 21
63.927585951
 31
0.0
  0
SPLINE
  5
1CA
330
1F
100
AcDbEntity
  8
0
  6
Continuous
 62
     7
370
    15
100
AcDbSpline
210
0.0
220
0.0
230
1.0
 70
     8
 71
     3
 72
     8
 73
     4
 74
     0
 42
0.000000001
 43
0.00000001
 40
0.0
 40
0.0
 40
0.0
 40
0.0
 40
1.0
 40
1.0
 40
1.0
 40
1.0
 10
265.884806228779
 20
36.39816376695869
 30
0.0
 10
265.9248405284889
 20
36.37505245767426
 30
0.0
 10
265.9793374731396
 20
36.37540385587886
 30
0.0
 10
266.0314919204858
 20
36.3874636475248
 30
0.0
  0
SPLINE
  5
1CB
330
1F
100
AcDbEntity
  8
0
  6
Continuous
 62
     7
370
    15
100
AcDbSpline
210
0.0
220
0.0
230
1.0
 70
     8
 71
     3
 72
    16
 73
    12
 74
     0
 42
0.000000001
 43
0.00000001
 40
0.0
 40
0.0
 40
0.0
 40
0.0
 40
0.2500000000000098
 40
0.2500000000000098
 40
0.3750000000000082
 40
0.3750000000000082
 40
0.5000000000000066
 40
0.5000000000000066
 40
0.7500000000000033
 40
0.7500000000000033
 40
1.0
 40
1.0
 40
1.0
 40
1.0
 10
266.0314919204891
 20
36.38746364752334
 30
0.0
 10
266.0475599871194
 20
36.3481804309433
 30
0.0
 10
266.0698155543107
 20
36.30928959494785
 30
0.0
 10
266.1203319668257
 20
36.27174660401358
 30
0.0
 10
266.1399451762329
 20
36.26336421783133
 30
0.0
 10
266.1812716742074
 20
36.25770426116759
 30
0.0
 10
266.2022655442116
 20
36.26030474879016
 30
0.0
 10
266.2613420592037
 20
36.2777196882176
 30
0.0
 10
266.2965034753784
 20
36.30108575810664
 30
0.0
 10
266.359394292665
 20
36.35397771019836
 30
0.0
 10
266.3878502844979
 20
36.38463040761911
 30
0.0
 10
266.413632624941
 20
36.41670339402255
 30
0.0
  0
LINE
  5
1CC
330
1F
100
AcDbEntity
  8
0
  6
Continuous
 62
     7
370
    15
100
AcDbLine
 10
243.6668129876
 20
32.3693600359
 30
0.0
 11
245.3939956869
 21
31.372278687
 31
0.0
  0
SPLINE
  5
1CD
330
1F
100
AcDbEntity
  8
0
  6
Continuous
 62
     7
370
    15
100
AcDbSpline
210
0.0
220
0.0
230
1.0
 70
     8
 71
     3
 72
    14
 73
    10
 74
     0
 42
0.000000001
 43
0.00000001
 40
0.0
 40
0.0
 40
0.0
 40
0.0
 40
0.25
 40
0.25
 40
0.5
 40
0.5
 40
0.75
 40
0.75
 40
1.0
 40
1.0
 40
1.0
 40
1.0
 10
245.3461005105981
 20
31.25003000172548
 30
0.0
 10
245.32919231306
 20
31.20687315217634
 30
0.0
 10
245.308669122179
 20
31.16685717968733
 30
0.0
 10
245.2598856866167
 20
31.09354755270242
 30
0.0
 10
245.2314287082409
 20
31.06026039409635
 30
0.0
 10
245.1680660857326
 20
31.00733754776602
 30
0.0
 10
245.1327470249917
 20
30.98727388134076
 30
0.0
 10
245.0579289479406
 20
30.97051489085873
 30
0.0
 10
245.0195594738759
 20
30.97471178646991
 30
0.0
 10
244.985767385089
 20
30.99421954409235
 30
0.0
  0
LINE
  5
1CE
330
1F
100
AcDbEntity
  8
0
  6
Continuous
 62
     7
370
    15
100
AcDbLine
 10
244.9857673851
 20
30.9942195441
 30
0.0
 11
243.6323072501
 21
31.7755554488
 31
0.0
  0
SPLINE
  5
1CF
330
1F
100
AcDbEntity
  8
0
  6
Continuous
 62
     7
370
    15
100
AcDbSpline
210
0.0
220
0.0
230
1.0
 70
     8
 71
     3
 72
     8
 73
     4
 74
     0
 42
0.000000001
 43
0.00000001
 40
0.0
 40
0.0
 40
0.0
 40
0.0
 40
0.0011901715795577
 40
0.0011901715795577
 40
0.0011901715795577
 40
0.0011901715795577
 10
243.6323072501432
 20
31.77555544879419
 30
0.0
 10
243.6431680737857
 20
31.97351063715235
 30
0.0
 10
243.6546515207417
 20
32.17144954965392
 30
0.0
 10
243.6668129875603
 20
32.36936003586255
 30
0.0
  0
ARC
  5
1D0
330
1F
100
AcDbEntity
  8
0
  6
Continuous
 62
     7
370
    15
100
AcDbCircle
 10
250.5857933276
 20
31.9355636067
 30
0.0
 40
5.538775725638756
100
AcDbArc
 50
212.9846605982
 51
267.0407011011
  0
SPLINE
  5
1D1
330
1F
100
AcDbEntity
  8
0
  6
Continuous
 62
     7
370
    15
100
AcDbSpline
210
0.0
220
0.0
230
1.0
 70
     8
 71
     3
 72
     8
 73
     4
 74
     0
 42
0.000000001
 43
0.00000001
 40
0.0
 40
0.0
 40
0.0
 40
0.0
 40
1.0
 40
1.0
 40
1.0
 40
1.0
 10
243.9927299169177
 20
33.02889767429732
 30
0.0
 10
243.8836563365307
 20
32.80912547423809
 30
0.0
 10
243.7750447710627
 20
32.58927239256843
 30
0.0
 10
243.6668129875603
 20
32.36936003586255
 30
0.0
  0
LINE
  5
1D2
330
1F
100
AcDbEntity
  8
0
  6
Continuous
 62
     7
370
    15
100
AcDbLine
 10
244.0509767674
 20
33.0625228653
 30
0.0
 11
243.9927299169
 21
33.0288976743
 31
0.0
  0
SPLINE
  5
1D3
330
1F
100
AcDbEntity
  8
0
  6
Continuous
 62
     7
370
    15
100
AcDbSpline
210
0.0
220
0.0
230
1.0
 70
     8
 71
     3
 72
    12
 73
     8
 74
     0
 42
0.000000001
 43
0.00000001
 40
0.0
 40
0.0
 40
0.0
 40
0.0
 40
0.2499999999999986
 40
0.2499999999999986
 40
0.4999999999999971
 40
0.4999999999999971
 40
1.0
 40
1.0
 40
1.0
 40
1.0
 10
244.0630759412059
 20
33.39607081444204
 30
0.0
 10
244.1011135487585
 20
33.3741121710048
 30
0.0
 10
244.1305869526701
 20
33.34785523440014
 30
0.0
 10
244.1693806627131
 20
33.28998722510082
 30
0.0
 10
244.1782028656597
 20
33.25920509029169
 30
0.0
 10
244.1730935929729
 20
33.16622510690495
 30
0.0
 10
244.1264698512035
 20
33.10610409497563
 30
0.0
 10
244.0509767673503
 20
33.0625228653197
 30
0.0
  0
LINE
  5
1D4
330
1F
100
AcDbEntity
  8
0
  6
Continuous
 62
     7
370
    15
100
AcDbLine
 10
243.2781874141
 20
33.8491773165
 30
0.0
 11
244.0630759412
 21
33.3960708144
 31
0.0
  0
SPLINE
  5
1D5
330
1F
100
AcDbEntity
  8
0
  6
Continuous
 62
     7
370
    15
100
AcDbSpline
210
0.0
220
0.0
230
1.0
 70
     8
 71
     3
 72
    12
 73
     8
 74
     0
 42
0.000000001
 43
0.00000001
 40
0.0
 40
0.0
 40
0.0
 40
0.0
 40
0.5
 40
0.5
 40
0.75
 40
0.75
 40
1.0
 40
1.0
 40
1.0
 40
1.0
 10
242.700402815284
 20
33.8421926121104
 30
0.0
 10
242.7763336230352
 20
33.88602653439394
 30
0.0
 10
242.8802235824594
 20
33.91268387690315
 30
0.0
 10
243.0409256622917
 20
33.91563973967686
 30
0.0
 10
243.0947104627146
 20
33.91048646804092
 30
0.0
 10
243.1944793481572
 20
33.88818796543757
 30
0.0
 10
243.2400315739845
 20
33.87120421414014
 30
0.0
 10
243.2781874140888
 20
33.84917731650364
 30
0.0
  0
LINE
  5
1D6
330
1F
100
AcDbEntity
  8
0
  6
Continuous
 62
     7
370
    15
100
AcDbLine
 10
242.6421559649
 20
33.8085674211
 30
0.0
 11
242.7004028153
 21
33.8421926121
 31
0.0
  0
SPLINE
  5
1D7
330
1F
100
AcDbEntity
  8
0
  6
Continuous
 62
     7
370
    15
100
AcDbSpline
210
0.0
220
0.0
230
1.0
 70
     8
 71
     3
 72
     8
 73
     4
 74
     0
 42
0.000000001
 43
0.00000001
 40
0.0
 40
0.0
 40
0.0
 40
0.0
 40
1.0
 40
1.0
 40
1.0
 40
1.0
 10
241.4996794758715
 20
33.62041958260934
 30
0.0
 10
241.8806201266111
 20
33.68290046128237
 30
0.0
 10
242.261458098851
 20
33.74560058341741
 30
0.0
 10
242.6421559648514
 20
33.80856742108801
 30
0.0
  0
LINE
  5
1D8
330
1F
100
AcDbEntity
  8
0
  6
Continuous
 62
     7
370
    15
100
AcDbLine
 10
240.1437278366
 20
34.4031938021
 30
0.0
 11
241.4996794759
 21
33.6204195826
 31
0.0
  0
LINE
  5
1D9
330
1F
100
AcDbEntity
  8
0
  6
Continuous
 62
     7
370
    15
100
AcDbLine
 10
240.1437278366
 20
34.4031938021
 30
0.0
 11
242.1566658037
 21
35.5652381557
 31
0.0
  0
ARC
  5
1DA
330
1F
100
AcDbEntity
  8
0
  6
Continuous
 62
     7
370
    15
100
AcDbCircle
 10
249.8743085457
 20
33.3827427981
 30
0.0
 40
6.445590069950449
100
AcDbArc
 50
194.4388633901
 51
238.0189953888
  0
SPLINE
  5
1DB
330
1F
100
AcDbEntity
  8
0
  6
Continuous
 62
     7
370
    15
100
AcDbSpline
210
0.0
220
0.0
230
1.0
 70
     8
 71
     3
 72
    22
 73
    18
 74
     0
 42
0.000000001
 43
0.00000001
 40
0.0
 40
0.0
 40
0.0
 40
0.0
 40
0.125
 40
0.125
 40
0.25
 40
0.25
 40
0.375
 40
0.375
 40
0.5
 40
0.5
 40
0.625
 40
0.625
 40
0.75
 40
0.75
 40
0.875
 40
0.875
 40
1.0
 40
1.0
 40
1.0
 40
1.0
 10
267.400377892095
 20
38.09034478244858
 30
0.0
 10
267.4678072500231
 20
38.17422626267232
 30
0.0
 10
267.528740004248
 20
38.26341893144446
 30
0.0
 10
267.6365372738134
 20
38.45294515958331
 30
0.0
 10
267.6831453035459
 20
38.55289345331568
 30
0.0
 10
267.7570182077891
 20
38.75239833420984
 30
0.0
 10
267.7852029204946
 20
38.85477072180145
 30
0.0
 10
267.8213252710669
 20
39.05131930677514
 30
0.0
 10
267.8297752602844
 20
39.14716009578003
 30
0.0
 10
267.8275027516497
 20
39.32731172640385
 30
0.0
 10
267.8170495990943
 20
39.40967608328778
 30
0.0
 10
267.7780950142683
 20
39.55868936181894
 30
0.0
 10
267.7497568542747
 20
39.62363873845509
 30
0.0
 10
267.6770796787871
 20
39.73072879547485
 30
0.0
 10
267.6318680758449
 20
39.77365005904173
 30
0.0
 10
267.5277954284333
 20
39.83387175584184
 30
0.0
 10
267.4678143079388
 20
39.85217766901827
 30
0.0
 10
267.4003778879608
 20
39.85820750063479
 30
0.0
  0
LINE
  5
1DC
330
1F
100
AcDbEntity
  8
0
  6
Continuous
 62
     7
370
    15
100
AcDbLine
 10
267.400377888
 20
39.8582075006
 30
0.0
 11
266.0314919205
 21
39.9806065319
 31
0.0
  0
ELLIPSE
  5
1DD
330
1F
100
AcDbEntity
  8
0
  6
Continuous
 62
     7
370
    15
100
AcDbEllipse
 10
241.9223512287
 20
36.3537377302
 30
0.0
 11
-6.005970385558612E-5
 21
0.8534489614827194
 31
0.0
210
0.0
220
0.0
230
1.0
 40
0.7174342186
 41
3.534193645557452
 42
5.104989972352389
  0
ARC
  5
1DE
330
1F
100
AcDbEntity
  8
0
  6
Continuous
 62
     7
370
    15
100
AcDbCircle
 10
249.3011404624
 20
35.6723873458
 30
0.0
 40
6.914904138901464
100
AcDbArc
 50
195.6366952156
 51
215.4285397018
  0
ARC
  5
1DF
330
1F
100
AcDbEntity
  8
0
  6
Continuous
 62
     7
370
    15
100
AcDbCircle
 10
247.0156723566
 20
34.5929399862
 30
0.0
 40
6.033559568081318
100
AcDbArc
 50
193.2193911006
 51
253.6140686844
  0
SPLINE
  5
1E0
330
1F
100
AcDbEntity
  8
0
  6
Continuous
 62
     7
370
    15
100
AcDbSpline
210
0.0
220
0.0
230
1.0
 70
     8
 71
     3
 72
     8
 73
     4
 74
     0
 42
0.000000001
 43
0.00000001
 40
0.0
 40
0.0
 40
0.0
 40
0.0
 40
0.0011901715795577
 40
0.0011901715795577
 40
0.0011901715795577
 40
0.0011901715795577
 10
241.4996794758715
 20
33.62041958260934
 30
0.0
 10
241.3808823599565
 20
33.4840685462943
 30
0.0
 10
241.2616391858084
 20
33.34833800015839
 30
0.0
 10
241.1419926783136
 20
33.21318345033897
 30
0.0
  0
LINE
  5
1E1
330
1F
100
AcDbEntity
  8
0
  6
Continuous
 62
     7
370
    15
100
AcDbLine
 10
239.7045661023
 20
34.1496191205
 30
0.0
 11
240.1437278366
 21
34.4031938021
 31
0.0
  0
LINE
  5
1E2
330
1F
100
AcDbEntity
  8
0
  6
Continuous
 62
     7
370
    15
100
AcDbLine
 10
241.1419926783
 20
33.2131834503
 30
0.0
 11
239.8062102129
 21
33.9843142536
 31
0.0
  0
SPLINE
  5
1E3
330
1F
100
AcDbEntity
  8
0
  6
Continuous
 62
     7
370
    15
100
AcDbSpline
210
0.0
220
0.0
230
1.0
 70
     8
 71
     3
 72
    10
 73
     6
 74
     0
 42
0.000000001
 43
0.00000001
 40
0.0
 40
0.0
 40
0.0
 40
0.0
 40
0.5
 40
0.5
 40
1.0
 40
1.0
 40
1.0
 40
1.0
 10
239.8062102128975
 20
33.98431425364303
 30
0.0
 10
239.7799059605206
 20
33.99949937531579
 30
0.0
 10
239.757707846402
 20
34.02312902624967
 30
0.0
 10
239.7236959599703
 20
34.08057141905957
 30
0.0
 10
239.7118250795642
 20
34.11420969721019
 30
0.0
 10
239.7045661023001
 20
34.14961912045331
 30
0.0
  0
ARC
  5
1E4
330
1F
100
AcDbEntity
  8
0
  6
Continuous
 62
     7
370
    15
100
AcDbCircle
 10
262.783274552
 20
41.1274375494
 30
0.0
 40
2.072199650652982
100
AcDbArc
 50
321.0658596266
 51
347.226892773
  0
LINE
  5
1E5
330
1F
100
AcDbEntity
  8
0
  6
Continuous
 62
     7
370
    15
100
AcDbLine
 10
266.0314919205
 20
36.3874636475
 30
0.0
 11
267.4003778921
 21
38.0903447824
 31
0.0
  0
LINE
  5
1E6
330
1F
100
AcDbEntity
  8
0
  6
Continuous
 62
     7
370
    15
100
AcDbLine
 10
262.9856684259
 20
38.0718003962
 30
0.0
 11
264.3951740721
 21
39.8252120201
 31
0.0
  0
ARC
  5
1E7
330
1F
100
AcDbEntity
  8
0
  6
Continuous
 62
     7
370
    15
100
AcDbCircle
 10
245.5081731969
 20
35.016202831
 30
0.0
 40
5.673656552265717
100
AcDbArc
 50
213.1411936447
 51
239.5680328127
  0
ELLIPSE
  5
1E8
330
1F
100
AcDbEntity
  8
0
  6
Continuous
 62
     7
370
    15
100
AcDbEllipse
 10
241.8031124131
 20
36.2848802501
 30
0.0
 11
0.2600075789209484
 21
0.9705436209909378
 31
0.0
210
0.0
220
0.0
230
1.0
 40
0.5176380889
 41
3.619174351347761
 42
5.189970678142608
  0
SPLINE
  5
1E9
330
1F
100
AcDbEntity
  8
0
  6
Continuous
 62
     7
370
    15
100
AcDbSpline
210
0.0
220
0.0
230
1.0
 70
     8
 71
     3
 72
    12
 73
     8
 74
     0
 42
0.000000001
 43
0.00000001
 40
0.0
 40
0.0
 40
0.0
 40
0.0
 40
0.5000000000000003
 40
0.5000000000000003
 40
0.7500000000000001
 40
0.7500000000000001
 40
1.0
 40
1.0
 40
1.0
 40
1.0
 10
259.258542650014
 20
56.62448428549504
 30
0.0
 10
259.3209859758386
 20
56.66053205019536
 30
0.0
 10
259.4003225810607
 20
56.68619105025316
 30
0.0
 10
259.5311959444018
 20
56.69797481025963
 30
0.0
 10
259.5759682567728
 20
56.6971645380561
 30
0.0
 10
259.6612301727761
 20
56.68361605766875
 30
0.0
 10
259.7006463798944
 20
56.67085144665935
 30
0.0
 10
259.7318860401443
 20
56.65281717466738
 30
0.0
  0
LINE
  5
1EA
330
1F
100
AcDbEntity
  8
0
  6
Continuous
 62
     7
370
    15
100
AcDbLine
 10
259.7318860401
 20
56.6528171747
 30
0.0
 11
260.8835493056
 21
55.987976123
 31
0.0
  0
SPLINE
  5
1EB
330
1F
100
AcDbEntity
  8
0
  6
Continuous
 62
     7
370
    15
100
AcDbSpline
210
0.0
220
0.0
230
1.0
 70
     8
 71
     3
 72
     9
 73
     5
 74
     0
 42
0.000000001
 43
0.00000001
 40
0.0
 40
0.0
 40
0.0
 40
0.0
 40
0.8664449205980829
 40
1.0
 40
1.0
 40
1.0
 40
1.0
 10
262.4506304237891
 20
54.20766226868229
 30
0.0
 10
262.7698070911388
 20
54.27695242082518
 30
0.0
 10
263.1381821139034
 20
54.35692305772966
 30
0.0
 10
263.508522268621
 20
54.43379211656256
 30
0.0
 10
263.55798307739
 20
54.44405836981854
 30
0.0
  0
LINE
  5
1EC
330
1F
100
AcDbEntity
  8
0
  6
Continuous
 62
     7
370
    15
100
AcDbLine
 10
263.5579830774
 20
54.4440583698
 30
0.0
 11
264.9114432123
 21
53.6627224651
 31
0.0
  0
SPLINE
  5
1ED
330
1F
100
AcDbEntity
  8
0
  6
Continuous
 62
     7
370
    15
100
AcDbSpline
210
0.0
220
0.0
230
1.0
 70
     8
 71
     3
 72
    14
 73
    10
 74
     0
 42
0.000000001
 43
0.00000001
 40
0.0
 40
0.0
 40
0.0
 40
0.0
 40
0.25
 40
0.25
 40
0.5
 40
0.5
 40
0.75
 40
0.75
 40
1.0
 40
1.0
 40
1.0
 40
1.0
 10
264.9114432123358
 20
53.66272246511672
 30
0.0
 10
264.9427053004939
 20
53.64467524576892
 30
0.0
 10
264.96497267259
 20
53.62158593032861
 30
0.0
 10
264.9881260705782
 20
53.57297457705991
 30
0.0
 10
264.9896462405742
 20
53.54697479549479
 30
0.0
 10
264.9762010698033
 20
53.49684186610737
 30
0.0
 10
264.9615015641552
 20
53.47265155099597
 30
0.0
 10
264.9198565691796
 20
53.42770110822338
 30
0.0
 10
264.893544285662
 20
53.40746720114161
 30
0.0
 10
264.8623638909174
 20
53.38946714239756
 30
0.0
  0
LINE
  5
1EE
330
1F
100
AcDbEntity
  8
0
  6
Continuous
 62
     7
370
    15
100
AcDbLine
 10
259.25854265
 20
56.6244842855
 30
0.0
 11
258.7506219603
 21
56.3312679126
 31
0.0
  0
SPLINE
  5
1EF
330
1F
100
AcDbEntity
  8
0
  6
Continuous
 62
     7
370
    15
100
AcDbSpline
210
0.0
220
0.0
230
1.0
 70
     8
 71
     3
 72
    13
 73
     9
 74
     0
 42
0.000000001
 43
0.00000001
 40
0.0
 40
0.0
 40
0.0
 40
0.0
 40
0.1990935232448784
 40
0.4038066092884732
 40
0.6030024690192032
 40
0.8090560107044932
 40
0.9906648652341167
 40
1.0
 40
1.0
 40
1.0
 40
1.0
 10
266.5732578132035
 20
50.29362987837175
 30
0.0
 10
266.5832258622567
 20
50.31251988282887
 30
0.0
 10
266.6034433159628
 20
50.35083307617113
 30
0.0
 10
266.6231802123669
 20
50.41199610847067
 30
0.0
 10
266.6345877379983
 20
50.47491448804129
 30
0.0
 10
266.6341257800661
 20
50.53407783290267
 30
0.0
 10
266.6298102072346
 20
50.57379653749889
 30
0.0
 10
266.6231752983753
 20
50.59039395538986
 30
0.0
 10
266.6228509217422
 20
50.59120539299179
 30
0.0
  0
LWPOLYLINE
  5
1F0
330
1F
100
AcDbEntity
  8
0
  6
Continuous
 62
     7
370
     0
100
AcDbPolyline
 90
       23
 70
   128
 43
0.0
 10
244.9857673851
 20
38.3420058679
 10
245.3002497126
 20
39.5819264601
 10
245.6926023813
 20
40.8315390106
 10
246.159901846
 20
42.0815322571
 10
246.6986661092
 20
43.3225921008
 10
247.3048806664
 20
44.5454710082
 10
247.9740284191
 20
45.741056918
 10
248.7011233338
 20
46.9004411377
 10
249.4807475939
 20
48.0149847252
 10
250.3070919702
 20
49.0763828603
 10
251.1739991066
 20
50.0767267262
 10
252.0750094013
 20
51.0085624415
 10
253.0034091387
 20
51.8649466004
 10
253.9522805158
 20
52.6394980112
 10
254.914553189
 20
53.3264452438
 10
255.883056957
 20
53.920669635
 10
256.8505751891
 20
54.4177434291
 10
257.8098985979
 20
54.8139627704
 10
258.7538789581
 20
55.106375302
 10
259.6754823705
 20
55.2928021648
 10
260.5678416739
 20
55.3718542327
 10
261.424307614
 20
55.3429424635
 10
262.2384983894
 20
55.2062822879
  0
LWPOLYLINE
  5
1F1
330
1F
100
AcDbEntity
  8
0
  6
Continuous
 62
     7
370
     0
100
AcDbPolyline
 90
       24
 70
   128
 43
0.0
 10
245.3461005106
 20
38.0123823144
 10
245.629136913
 20
39.192279746
 10
245.9850170885
 20
40.3832293641
 10
246.4112324069
 20
41.5768360615
 10
246.9047784394
 20
42.7646860012
 10
247.4621761373
 20
43.938405926
 10
248.0794963559
 20
45.0897221823
 10
248.7523875515
 20
46.2105190421
 10
249.4761064557
 20
47.2928959111
 10
250.2455515111
 20
48.3292230209
 10
251.0552988329
 20
49.3121952119
 10
251.899640442
 20
50.234883428
 10
252.7726245012
 20
51.0907835597
 10
253.6680972702
 20
51.8738622931
 10
254.5797464838
 20
52.578599638
 10
255.5011458477
 20
53.20002784
 10
256.4258003378
 20
53.7337663978
 10
257.3471919845
 20
54.1760529419
 10
258.2588258181
 20
54.5237697561
 10
259.1542756529
 20
54.7744657546
 10
260.0272293852
 20
54.9263737595
 10
260.8715334885
 20
54.9784229581
 10
261.68123639
 20
54.930246451
 10
262.4506304238
 20
54.7821838387
  0
LWPOLYLINE
  5
1F2
330
1F
100
AcDbEntity
  8
0
  6
Continuous
 62
     7
370
     0
100
AcDbPolyline
 90
       20
 70
   128
 43
0.0
 10
258.6454968312
 20
29.9741994491
 10
258.2443875857
 20
29.6354807068
 10
257.3333609873
 20
28.9325269223
 10
256.4126911835
 20
28.3127995271
 10
255.4888565597
 20
27.7806592952
 10
254.5683577711
 20
27.3398506848
 10
253.6576719997
 20
26.9934754898
 10
252.7632073773
 20
26.7439710142
 10
251.8912578939
 20
26.5930929211
 10
251.0479591096
 20
26.5419028793
 10
250.2392449809
 20
26.5907610929
 10
249.4708061058
 20
26.739323766
 10
248.7480496817
 20
26.9865455224
 10
248.0760614566
 20
27.3306867616
 10
247.459569943
 20
27.7693258991
 10
246.9029131454
 20
28.2993764066
 10
246.4100080352
 20
28.9171085306
 10
245.9843229887
 20
29.6181755369
 10
245.6288533813
 20
30.3976442974
 10
245.3461005106
 20
31.2500300017
  0
ARC
  5
1F3
330
1F
100
AcDbEntity
  8
0
  6
Continuous
 62
     7
370
     0
100
AcDbCircle
 10
259.7744998155
 20
48.5570171014
 30
0.0
 40
7.01704597737856
100
AcDbArc
 50
14.3287300663
 51
43.5251561868
  0
LWPOLYLINE
  5
1F4
330
1F
100
AcDbEntity
  8
0
  6
Continuous
 62
     7
370
     0
100
AcDbPolyline
 90
       30
 70
   128
 43
0.0
 10
248.8918578945
 20
36.6781283258
 10
248.9305939439
 20
37.5540077338
 10
249.0463776916
 20
38.4650145142
 10
249.2379405868
 20
39.4011674862
 10
249.5031838262
 20
40.3522099619
 10
249.8392013494
 20
41.3077221209
 10
250.2423116782
 20
42.2572351721
 10
250.7080982514
 20
43.1903460518
 10
251.2314578138
 20
44.0968314019
 10
251.8066563286
 20
44.9667595792
 10
252.4273918005
 20
45.7905994686
 10
253.0868633216
 20
46.5593249078
 10
253.7778455842
 20
47.2645135801
 10
254.4927680418
 20
47.8984392908
 10
255.2237978544
 20
48.4541566171
 10
255.9629257064
 20
48.9255770038
 10
256.7020535584
 20
49.3075354704
 10
257.4330833711
 20
49.5958472001
 10
258.1480058286
 20
49.7873533891
 10
258.8389880912
 20
49.8799558557
 10
259.4984596123
 20
49.8726400277
 10
260.1191950842
 20
49.765486059
 10
260.694393599
 20
49.5596679509
 10
261.2177531614
 20
49.2574406896
 10
261.6835397346
 20
48.8621155402
 10
262.0866500634
 20
48.3780237679
 10
262.4226675866
 20
47.8104691833
 10
262.687910826
 20
47.1656700332
 10
262.8794737212
 20
46.4506908722
 10
262.9628444192
 20
45.9565559152
  0
LWPOLYLINE
  5
1F5
330
1F
100
AcDbEntity
  8
0
  6
Continuous
 62
     7
370
     0
100
AcDbPolyline
 90
       15
 70
   128
 43
0.0
 10
254.9634945581
 20
32.0997741171
 10
254.4927680418
 20
31.9244905699
 10
253.7778455842
 20
31.7329843808
 10
253.0868633216
 20
31.6403819143
 10
252.4273918005
 20
31.6476977422
 10
251.8066563286
 20
31.7548517109
 10
251.2314578138
 20
31.960669819
 10
250.7080982514
 20
32.2628970803
 10
250.2423116782
 20
32.6582222297
 10
249.8392013494
 20
33.1423140021
 10
249.5031838262
 20
33.7098685867
 10
249.2379405868
 20
34.3546677367
 10
249.0463776916
 20
35.0696468978
 10
248.9305939439
 20
35.8469726085
 10
248.8918578945
 20
36.6781283258
  0
LWPOLYLINE
  5
1F6
330
1F
100
AcDbEntity
  8
0
  6
Continuous
 62
     7
370
     0
100
AcDbPolyline
 90
        8
 70
   128
 43
0.0
 10
251.7202850193
 20
36.6781283258
 10
251.7599899361
 20
35.9284505184
 10
251.8785473167
 20
35.2351388652
 10
252.0742928751
 20
34.6079259422
 10
252.344478773
 20
34.055616444
 10
252.6853121925
 20
33.5859635851
 10
253.0920085795
 20
33.2055602623
 10
253.3774643382
 20
33.0153698741
  0
LWPOLYLINE
  5
1F7
330
1F
100
AcDbEntity
  8
0
  6
Continuous
 62
     7
370
     0
100
AcDbPolyline
 90
       21
 70
   128
 43
0.0
 10
261.3768141993
 20
46.8721516722
 10
260.9414543643
 20
47.0739034823
 10
260.3969003129
 20
47.2107408952
 10
259.8099554358
 20
47.2455658365
 10
259.1888591526
 20
47.1778894406
 10
258.5423302935
 20
47.0086617355
 10
257.8794447066
 20
46.7402583074
 10
257.2095078524
 20
46.3764469521
 10
256.5419241758
 20
45.9223347833
 10
255.8860650883
 20
45.3842965407
 10
255.2511374138
 20
44.7698851017
 10
254.6460541451
 20
44.0877254562
 10
254.079309325
 20
43.3473936301
 10
253.5588588083
 20
42.5592822597
 10
253.0920085795
 20
41.7344547008
 10
252.6853121925
 20
40.8844897244
 10
252.344478773
 20
40.0213189757
 10
252.0742928751
 20
39.1570594798
 10
251.8785473167
 20
38.3038435456
 10
251.7599899361
 20
37.4736484545
 10
251.7202850193
 20
36.6781283258
  0
LWPOLYLINE
  5
1F8
330
1F
100
AcDbEntity
  8
0
  6
Continuous
 62
     7
370
     0
100
AcDbPolyline
 90
       15
 70
   128
 43
0.0
 10
260.3261058537
 20
32.902448992
 10
260.6085549796
 20
32.5415869224
 10
260.9580625303
 20
32.2764718425
 10
261.3661407265
 20
32.1135420632
 10
261.8228794028
 20
32.0567543287
 10
262.3171866758
 20
32.1074877273
 10
262.8370583097
 20
32.2645102001
 10
263.3698692393
 20
32.5240084616
 10
263.9026801689
 20
32.8796806052
 10
264.4225518029
 20
33.3228891446
 10
264.9168590758
 20
33.8428707754
 10
265.3735977522
 20
34.4269977608
 10
265.7816759484
 20
35.0610845966
 10
266.131183499
 20
35.7297325051
 10
266.4136326249
 20
36.416703394
  0
LWPOLYLINE
  5
1F9
330
1F
100
AcDbEntity
  8
0
  6
Continuous
 62
     7
370
     0
100
AcDbPolyline
 90
       15
 70
   128
 43
0.0
 10
266.4135266776
 20
40.066188296
 10
266.1310667789
 20
40.4269914809
 10
265.7815595766
 20
40.6920567012
 10
265.3734917925
 20
40.8549476523
 10
264.9167721145
 20
40.9117090217
 10
264.4224905941
 20
40.8609625318
 10
263.9026493583
 20
40.7039404072
 10
263.3698711739
 20
40.4444554537
 10
262.8370929425
 20
40.088808476
 10
262.3172515668
 20
39.6456352817
 10
261.8229698173
 20
39.1256969871
 10
261.3662498262
 20
38.5416187161
 10
260.9581816528
 20
37.907583037
 10
260.6086739944
 20
37.2389855824
 10
260.326213584
 20
36.5520612127
  0
LWPOLYLINE
  5
1FA
330
1F
100
AcDbEntity
  8
0
  6
Continuous
 62
     7
370
     0
100
AcDbPolyline
 90
       23
 70
   128
 43
0.0
 10
239.8062102129
 20
41.3321005774
 10
240.1206925404
 20
42.5720211696
 10
240.5130452091
 20
43.8216337201
 10
240.9803446738
 20
45.0716269667
 10
241.5191089371
 20
46.3126868103
 10
242.1253234942
 20
47.5355657177
 10
242.7944712469
 20
48.7311516275
 10
243.5215661616
 20
49.8905358473
 10
244.3011904217
 20
51.0050794348
 10
245.127534798
 20
52.0664775698
 10
245.9944419345
 20
53.0668214358
 10
246.8954522291
 20
53.998657151
 10
247.8238519665
 20
54.85504131
 10
248.7727233437
 20
55.6295927208
 10
249.7349960168
 20
56.3165399534
 10
250.7034997849
 20
56.9107643446
 10
251.6710180169
 20
57.4078381386
 10
252.6303414257
 20
57.8040574799
 10
253.5743217859
 20
58.0964700116
 10
254.4959251984
 20
58.2828968744
 10
255.3882845017
 20
58.3619489423
 10
256.2447504418
 20
58.333037173
 10
257.0589412172
 20
58.1963769975
  0
LWPOLYLINE
  5
1FB
330
1F
100
AcDbEntity
  8
0
  6
Continuous
 62
     7
370
     0
100
AcDbPolyline
 90
       19
 70
   128
 43
0.0
 10
243.2781874141
 20
40.4223308522
 10
243.5746860012
 20
41.5709402634
 10
243.9465752565
 20
42.728072783
 10
244.3908027207
 20
43.8842306909
 10
244.903722184
 20
45.029924267
 10
245.4811236139
 20
46.155749682
 10
246.1182677114
 20
47.252466184
 10
246.8099248108
 20
48.3110719466
 10
247.5504178051
 20
49.3228779555
 10
248.3336687428
 20
50.2795793278
 10
249.1532487165
 20
51.1733234784
 10
250.0024306305
 20
51.9967745737
 10
250.8742444173
 20
52.743173744
 10
251.7615342473
 20
53.4063945603
 10
252.6570172637
 20
53.9809933199
 10
253.5533433605
 20
54.462253728
 10
254.4431555115
 20
54.846225609
 10
255.3191501568
 20
55.1297573296
 10
255.3882090506
 20
55.1479716171
  0
LWPOLYLINE
  5
1FC
330
1F
100
AcDbEntity
  8
0
  6
Continuous
 62
     7
370
     0
100
AcDbPolyline
 90
       22
 70
   128
 43
0.0
 10
242.7004028153
 20
40.4153461478
 10
242.9954889088
 20
41.5862377137
 10
243.3671914176
 20
42.7667160455
 10
243.8125067228
 20
43.947242044
 10
244.327836362
 20
45.118276225
 10
244.9090161076
 20
46.2703558047
 10
245.5513496164
 20
47.3941711659
 10
246.2496463799
 20
48.4806410864
 10
246.9982636667
 20
49.5209861213
 10
247.7911521201
 20
50.5067995476
 10
248.621904641
 20
51.4301152962
 10
249.483808162
 20
52.2834723233
 10
250.3698978935
 20
53.0599749011
 10
251.2730136044
 20
53.75334834
 10
252.1858574815
 20
54.3579896926
 10
253.1010531012
 20
54.8690130295
 10
254.011205036
 20
55.282288921
 10
254.9089586153
 20
55.5944778059
 10
255.7870593555
 20
55.8030569774
 10
256.6384115823
 20
55.9063409683
 10
257.4561357679
 20
55.9034951709
 10
257.4613213076
 20
55.903129451
  0
LINE
  5
1FD
330
1F
100
AcDbEntity
  8
0
  6
Continuous
 62
     7
370
     0
100
AcDbLine
 10
259.0565178741
 20
33.2735369227
 30
0.0
 11
259.1272285522
 21
33.0096466887
 31
0.0
  0
LWPOLYLINE
  5
1FE
330
1F
100
AcDbEntity
  8
0
  6
Continuous
 62
     7
370
     0
100
AcDbPolyline
 90
        3
 70
   128
 43
0.0
 10
265.8848062288
 20
40.0454691513
 10
265.5943932658
 20
40.3677749509
 10
265.3721990143
 20
40.5243226996
  0
LWPOLYLINE
  5
1FF
330
1F
100
AcDbEntity
  8
0
  6
Continuous
 62
     7
370
     0
100
AcDbPolyline
 90
       13
 70
   128
 43
0.0
 10
260.9084387412
 20
32.70982336
 10
261.0053277192
 20
32.6617939463
 10
261.4155613182
 20
32.5406915367
 10
261.8703600517
 20
32.5262854454
 10
262.3578491116
 20
32.6189518161
 10
262.865300144
 20
32.816271127
 10
263.3794635878
 20
33.113091365
 10
263.8869146203
 20
33.5016625452
 10
264.3744036801
 20
33.9718390626
 10
264.8292024136
 20
34.5113445945
 10
265.2394360126
 20
35.1060926357
 10
265.5943932658
 20
35.7405542974
 10
265.8848062288
 20
36.398163767
  0
LINE
  5
200
330
1F
100
AcDbEntity
  8
0
  6
Continuous
 62
     7
370
     0
100
AcDbLine
 10
258.7323156122
 20
33.4606949047
 30
0.0
 11
259.0565178741
 21
33.2735369227
 31
0.0
  0
LINE
  5
201
330
1F
100
AcDbEntity
  8
0
  6
Continuous
 62
     7
370
     0
100
AcDbLine
 10
247.972619079
 20
38.7808071715
 30
0.0
 11
247.4068417068
 21
39.1074234962
 31
0.0
  0
LWPOLYLINE
  5
202
330
1F
100
AcDbEntity
  8
0
  6
Continuous
 62
     7
370
     0
100
AcDbPolyline
 90
        3
 70
   128
 43
0.0
 10
242.2899544803
 20
39.4602416857
 10
242.2892483252
 20
39.5814796735
 10
242.3140614102
 20
40.3163364008
  0
LINE
  5
203
330
1F
100
AcDbEntity
  8
0
  6
Continuous
 62
     7
370
     0
100
AcDbLine
 10
242.4880366536
 20
36.6803009749
 30
0.0
 11
247.972619079
 21
33.5141189348
 31
0.0
  0
LINE
  5
204
330
1F
100
AcDbEntity
  8
0
  6
Continuous
 62
     7
370
     0
100
AcDbLine
 10
242.3687978381
 20
36.6114434948
 30
0.0
 11
242.4880366536
 21
36.6803009749
 31
0.0
  0
LWPOLYLINE
  5
205
330
1F
100
AcDbEntity
  8
0
  6
Continuous
 62
     7
370
     0
100
AcDbPolyline
 90
       18
 70
   128
 43
0.0
 10
221.0173654668
 20
55.8734430509
 10
221.0564717873
 20
56.570609371
 10
221.1730928955
 20
57.3004859381
 10
221.3651476851
 20
58.0500480877
 10
221.6292089337
 20
58.8059198654
 10
221.9605644621
 20
59.5546127215
 10
222.3533012231
 20
60.2827662141
 10
222.8004108199
 20
60.977386427
 10
223.293914571
 20
61.626077846
 10
223.8250058905
 20
62.2172645574
 10
224.384207441
 20
62.7403968202
 10
224.9615402577
 20
63.1861393269
 10
225.5467018228
 20
63.5465377919
 10
226.1292499143
 20
63.8151608961
 10
226.6987889478
 20
63.9872150537
 10
227.2451554855
 20
64.0596299542
 10
227.7585996039
 20
64.0311133522
 10
228.1131004869
 20
63.9448753856
  0
ARC
  5
206
330
1F
100
AcDbEntity
  8
0
  6
Continuous
 62
     7
370
     0
100
AcDbCircle
 10
224.2826859871
 20
55.5980486622
 30
0.0
 40
3.276913207538358
100
AcDbArc
 50
175.1791309351
 51
225.8020354417
  0
ARC
  5
207
330
1F
100
AcDbEntity
  8
0
  6
Continuous
 62
     7
370
     0
100
AcDbCircle
 10
252.3601998722
 20
33.1298446665
 30
0.0
 40
7.677444182163618
100
AcDbArc
 50
196.1509408978
 51
213.251607406
  0
LINE
  5
208
330
1F
100
AcDbEntity
  8
0
  6
Continuous
 62
     7
370
     0
100
AcDbLine
 10
247.406933654
 20
32.5343230406
 30
0.0
 11
242.1566658037
 21
35.5652381557
 31
0.0
  0
LINE
  5
209
330
1F
100
AcDbEntity
  8
0
  6
Continuous
 62
     7
370
     0
100
AcDbLine
 10
267.6125099265
 20
37.9080953596
 30
0.0
 11
267.4003778921
 21
38.0903447824
 31
0.0
  0
LINE
  5
20A
330
1F
100
AcDbEntity
  8
0
  6
Continuous
 62
     7
370
     0
100
AcDbLine
 10
244.1427000394
 20
33.1499859405
 30
0.0
 11
244.0630759412
 21
33.3960708144
 31
0.0
  0
LWPOLYLINE
  5
20B
330
1F
100
AcDbEntity
  8
0
  6
Continuous
 62
     7
370
     0
100
AcDbPolyline
 90
        3
 70
   128
 43
0.0
 10
243.7775977664
 20
32.6180694008
 10
243.5658152778
 20
33.0633463289
 10
243.2781874141
 20
33.8491773165
  0
LINE
  5
20C
330
1F
100
AcDbEntity
  8
0
  6
Continuous
 62
     7
370
     0
100
AcDbLine
 10
264.3951740721
 20
39.8252120201
 30
0.0
 11
267.4003778921
 21
38.0903447824
 31
0.0
  0
ARC
  5
20D
330
1F
100
AcDbEntity
  8
0
  6
Continuous
 62
     7
370
     0
100
AcDbCircle
 10
249.3792239527
 20
35.7330576645
 30
0.0
 40
6.941327137652701
100
AcDbArc
 50
195.8075387119
 51
213.7427870588
  0
ARC
  5
20E
330
1F
100
AcDbEntity
  8
0
  6
Continuous
 62
     7
370
     0
100
AcDbCircle
 10
247.1825400975
 20
36.1206705264
 30
0.0
 40
7.679470078705938
100
AcDbArc
 50
196.152242801
 51
213.2114463434
  0
OLE2FRAME
  5
20F
330
1F
100
AcDbEntity
  8
0
100
AcDbOle2Frame
 70
     2
  3
Paintbrush-Bild
 10
13.8511154363
 20
38.264191557
 30
0.0
 11
51.6290888628
 21
31.9806341108
 31
0.0
 71
     2
 72
     0
 73
     1
 90
    12928
310
80552BED0767C5B32B40DDAF6807D121434000000000000000006FFBDDFB85D0
310
4940DDAF6807D121434000000000000000006FFBDDFB85D04940416F4BD60AFB
310
3F4000000000000000002BED0767C5B32B40416F4BD60AFB3F40000000000000
310
0000000000000100000000010000010000000100000000000100000000320000
310
D0CF11E0A1B11AE1000000000000000000000000000000003E000300FEFF0900
310
0600000000000000000000000100000001000000000000000010000002000000
310
01000000FEFFFFFF0000000000000000FFFFFFFFFFFFFFFFFFFFFFFFFFFFFFFF
310
FFFFFFFFFFFFFFFFFFFFFFFFFFFFFFFFFFFFFFFFFFFFFFFFFFFFFFFFFFFFFFFF
310
FFFFFFFFFFFFFFFFFFFFFFFFFFFFFFFFFFFFFFFFFFFFFFFFFFFFFFFFFFFFFFFF
310
FFFFFFFFFFFFFFFFFFFFFFFFFFFFFFFFFFFFFFFFFFFFFFFFFFFFFFFFFFFFFFFF
310
FFFFFFFFFFFFFFFFFFFFFFFFFFFFFFFFFFFFFFFFFFFFFFFFFFFFFFFFFFFFFFFF
310
FFFFFFFFFFFFFFFFFFFFFFFFFFFFFFFFFFFFFFFFFFFFFFFFFFFFFFFFFFFFFFFF
310
FFFFFFFFFFFFFFFFFFFFFFFFFFFFFFFFFFFFFFFFFFFFFFFFFFFFFFFFFFFFFFFF
310
FFFFFFFFFFFFFFFFFFFFFFFFFFFFFFFFFFFFFFFFFFFFFFFFFFFFFFFFFFFFFFFF
310
FFFFFFFFFFFFFFFFFFFFFFFFFFFFFFFFFFFFFFFFFFFFFFFFFFFFFFFFFFFFFFFF
310
FFFFFFFFFFFFFFFFFFFFFFFFFFFFFFFFFFFFFFFFFFFFFFFFFFFFFFFFFFFFFFFF
310
FFFFFFFFFFFFFFFFFFFFFFFFFFFFFFFFFFFFFFFFFFFFFFFFFFFFFFFFFFFFFFFF
310
FFFFFFFFFFFFFFFFFFFFFFFFFFFFFFFFFFFFFFFFFFFFFFFFFFFFFFFFFFFFFFFF
310
FFFFFFFFFFFFFFFFFFFFFFFFFFFFFFFFFFFFFFFFFFFFFFFFFFFFFFFFFFFFFFFF
310
FFFFFFFFFFFFFFFFFFFFFFFFFFFFFFFFFFFFFFFFFFFFFFFFFFFFFFFFFFFFFFFF
310
FDFFFFFFFEFFFFFFFEFFFFFFFEFFFFFF05000000060000000700000008000000
310
090000000A0000000B0000000C0000000D0000000E0000000F00000010000000
310
11000000120000001300000014000000150000001600000017000000FEFFFFFF
310
FFFFFFFFFFFFFFFFFFFFFFFFFFFFFFFFFFFFFFFFFFFFFFFFFFFFFFFFFFFFFFFF
310
FFFFFFFFFFFFFFFFFFFFFFFFFFFFFFFFFFFFFFFFFFFFFFFFFFFFFFFFFFFFFFFF
310
FFFFFFFFFFFFFFFFFFFFFFFFFFFFFFFFFFFFFFFFFFFFFFFFFFFFFFFFFFFFFFFF
310
FFFFFFFFFFFFFFFFFFFFFFFFFFFFFFFFFFFFFFFFFFFFFFFFFFFFFFFFFFFFFFFF
310
FFFFFFFFFFFFFFFFFFFFFFFFFFFFFFFFFFFFFFFFFFFFFFFFFFFFFFFFFFFFFFFF
310
FFFFFFFFFFFFFFFFFFFFFFFFFFFFFFFFFFFFFFFFFFFFFFFFFFFFFFFFFFFFFFFF
310
FFFFFFFFFFFFFFFFFFFFFFFFFFFFFFFFFFFFFFFFFFFFFFFFFFFFFFFFFFFFFFFF
310
FFFFFFFFFFFFFFFFFFFFFFFFFFFFFFFFFFFFFFFFFFFFFFFFFFFFFFFFFFFFFFFF
310
FFFFFFFFFFFFFFFFFFFFFFFFFFFFFFFFFFFFFFFFFFFFFFFFFFFFFFFFFFFFFFFF
310
FFFFFFFFFFFFFFFFFFFFFFFFFFFFFFFFFFFFFFFFFFFFFFFFFFFFFFFFFFFFFFFF
310
FFFFFFFFFFFFFFFFFFFFFFFFFFFFFFFFFFFFFFFFFFFFFFFFFFFFFFFFFFFFFFFF
310
FFFFFFFFFFFFFFFFFFFFFFFFFFFFFFFFFFFFFFFFFFFFFFFFFFFFFFFFFFFFFFFF
310
FFFFFFFFFFFFFFFFFFFFFFFFFFFFFFFFFFFFFFFFFFFFFFFFFFFFFFFFFFFFFFFF
310
52006F006F007400200045006E00740072007900000000000000000000000000
310
0000000000000000000000000000000000000000000000000000000000000000
310
16000500FFFFFFFFFFFFFFFF020000000A00030000000000C000000000000046
310
0000000000000000000000004097BF48E71ED20103000000C000000000000000
310
01004F006C006500000000000000000000000000000000000000000000000000
310
0000000000000000000000000000000000000000000000000000000000000000
310
0A000200FFFFFFFFFFFFFFFFFFFFFFFF00000000000000000000000000000000
310
0000000000000000000000000000000000000000000000001400000000000000
310
010043006F006D0070004F0062006A0000000000000000000000000000000000
310
0000000000000000000000000000000000000000000000000000000000000000
310
120002010100000003000000FFFFFFFF00000000000000000000000000000000
310
0000000000000000000000000000000000000000010000004D00000000000000
310
01004F006C006500310030004E00610074006900760065000000000000000000
310
0000000000000000000000000000000000000000000000000000000000000000
310
1A000200FFFFFFFFFFFFFFFFFFFFFFFF00000000000000000000000000000000
310
0000000000000000000000000000000000000000040000002426000000000000
310
FEFFFFFF02000000FEFFFFFFFFFFFFFFFFFFFFFFFFFFFFFFFFFFFFFFFFFFFFFF
310
FFFFFFFFFFFFFFFFFFFFFFFFFFFFFFFFFFFFFFFFFFFFFFFFFFFFFFFFFFFFFFFF
310
FFFFFFFFFFFFFFFFFFFFFFFFFFFFFFFFFFFFFFFFFFFFFFFFFFFFFFFFFFFFFFFF
310
FFFFFFFFFFFFFFFFFFFFFFFFFFFFFFFFFFFFFFFFFFFFFFFFFFFFFFFFFFFFFFFF
310
FFFFFFFFFFFFFFFFFFFFFFFFFFFFFFFFFFFFFFFFFFFFFFFFFFFFFFFFFFFFFFFF
310
FFFFFFFFFFFFFFFFFFFFFFFFFFFFFFFFFFFFFFFFFFFFFFFFFFFFFFFFFFFFFFFF
310
FFFFFFFFFFFFFFFFFFFFFFFFFFFFFFFFFFFFFFFFFFFFFFFFFFFFFFFFFFFFFFFF
310
FFFFFFFFFFFFFFFFFFFFFFFFFFFFFFFFFFFFFFFFFFFFFFFFFFFFFFFFFFFFFFFF
310
FFFFFFFFFFFFFFFFFFFFFFFFFFFFFFFFFFFFFFFFFFFFFFFFFFFFFFFFFFFFFFFF
310
FFFFFFFFFFFFFFFFFFFFFFFFFFFFFFFFFFFFFFFFFFFFFFFFFFFFFFFFFFFFFFFF
310
FFFFFFFFFFFFFFFFFFFFFFFFFFFFFFFFFFFFFFFFFFFFFFFFFFFFFFFFFFFFFFFF
310
FFFFFFFFFFFFFFFFFFFFFFFFFFFFFFFFFFFFFFFFFFFFFFFFFFFFFFFFFFFFFFFF
310
FFFFFFFFFFFFFFFFFFFFFFFFFFFFFFFFFFFFFFFFFFFFFFFFFFFFFFFFFFFFFFFF
310
FFFFFFFFFFFFFFFFFFFFFFFFFFFFFFFFFFFFFFFFFFFFFFFFFFFFFFFFFFFFFFFF
310
FFFFFFFFFFFFFFFFFFFFFFFFFFFFFFFFFFFFFFFFFFFFFFFFFFFFFFFFFFFFFFFF
310
FFFFFFFFFFFFFFFFFFFFFFFFFFFFFFFFFFFFFFFFFFFFFFFFFFFFFFFFFFFFFFFF
310
0100000200000000000000000000000000000000000000000000000000000000
310
0000000000000000000000000000000000000000000000000000000000000000
310
0100FEFF030A0000FFFFFFFF0A00030000000000C00000000000004607000000
310
5042727573680007000000504272757368000700000050427275736800F439B2
310
7100000000000000000000000000000000000000000000000000000000000000
310
0000000000000000000000000000000000000000000000000000000000000000
310
0000000000000000000000000000000000000000000000000000000000000000
310
0000000000000000000000000000000000000000000000000000000000000000
310
0000000000000000000000000000000000000000000000000000000000000000
310
0000000000000000000000000000000000000000000000000000000000000000
310
0000000000000000000000000000000000000000000000000000000000000000
310
0000000000000000000000000000000000000000000000000000000000000000
310
0000000000000000000000000000000000000000000000000000000000000000
310
0000000000000000000000000000000000000000000000000000000000000000
310
0000000000000000000000000000000000000000000000000000000000000000
310
0000000000000000000000000000000000000000000000000000000000000000
310
20260000424D0E260000000000003E00000028000000B40200006E0000000100
310
01000000000000000000130B0000130B00000200000002000000000000FFFFFF
310
FFFFFFFFFFFFFFFFFFFFFFFFFFFFFFFFFFFFFFFFFFFFFFFFFFFFFFFFFFFFFFFF
310
FFFFFFFFFFFFFFFFFFFFFFFFFFFFFFFFFFFFFFFFFFFFFFFFFFFFFFFFFFFFFFFF
310
FFFFFFFFFFFFFFFFFFFFFFFFFFFFFFFFFFFFFFFFFFFFFFFFF000FFFFFFFFFFFF
310
FFFFFFFFFFFFFFFFFFFFFFFFFFFFFFFFFFFFFFFFFFFFFFFFFFFFFFFFFFFFFFFF
310
FFFFFFFFFFFFFFFFFFFFFFFFFFFFFFFFFFFFFFFFFFFFFFFFFFFFFFFFFFFFFFFF
310
FFFFFFFFFFFFFFFFFFFFFFFFFFFFFFFFF000FFFFFFFFFFFFFFFFFFFFFFFFFFFF
310
FFFFFFFFFFFFFFFFFFFFFFFFFFFFFFFFFFFFFFFFFFFFFFFFFFFFFFFFFFFFFFFF
310
FFFFFFFFFFFFFFFFFFFFFFFFFFFFFFFFFFFFFFFFFFFFFFFFFFFFFFFFFFFFFFFF
310
FFFFFFFFFFFFFFFFF000FFFFFFFFFFFFFFFFFFFFFFFFFFFFFFFFFFFFFFFFFFFF
310
FFFFFFFFFFFFFFFFFFFFFFFFFFFFFFFFFFFFFFFFFFFFFFFFFFFFFFFFFFFFFFFF
310
FFFFFFFFFFFFFFFFFFFFFFFFFFFFFFFFFFFFFFFFFFFFFFFFFFFFFFFFFFFFFFFF
310
F000FFFFFFFFFFFFFFFFFFFFFFFFFFFFFFFFFFFFFFFFFFFFFFFFFFFFFFFFFFFF
310
FFFFFFFFFFFFFFFFFFFFFFFFFFFFFFFFFFFFFFFFFFFFFFFFFFFFFFFFFFFFFFFF
310
FFFFFFFFFFFFFFFFFFFFFFFFFFFFFFFFFFFFFFFFFFFFFFFFF000FFFFFFFFFFFF
310
FFFFFFFFFFFFFFFFFFFFFFFFFFFFFFFFFFFFFFFFFFFFFFFFFFFFFFFFFFFFFFFF
310
FFFFFFFFFFFFFFFFFFFFFFFFFFFFFFFFFFFFFFFFFFFFFFFFFFFFFFFFFFFFFFFF
310
FFFFFFFFFFFFFFFFFFFFFFFFFFFFFFFFF000FFFFFFFFFFFFFFFFFFFFFFFFFFFF
310
FFFFFFFFFFFFFFFFFFFFFFFFFFFFFFFFFFFFFFFFFFFFFFFFFFFFFFFFFFFFFFFF
310
FFFFFFFFFFFFFFFFFFFFFFFFFFFFFFFFFFFFFFFFFFFFFFFFFFFFFFFFFFFFFFFF
310
FFFFFFFFFFFFFFFFF000FFFFFFFFFFFFFFFFFFFFFFFFFFFFFFFFFFFFFFFFFFFF
310
FFFFFFFFFFFFFFFFFFFFFFFFFFFFFFFFFFFFFFFFFFFFFFFFFFFFFFFFFFFFFFFF
310
FFFFFFFFFFFFFFFFFFFFFFFFFFFFFFFFFFFFFFFFFFFFFFFFFFFFFFFFFFFFFFFF
310
F000FFFFFFFFFFFFFFFFFFFFFFFFFFFFFFFFFFFFFFFFFFFFFFFFFFFFFFFFFFFF
310
FFFFFFFFFFFFFFFFFFFFFFFFFFFFFFFFFFFFFFFFFFFFFFFFFFFFFFFFFFFFFFFF
310
FFFFFFFFFFFFFFFFFFFFFFFFFFFFFFFFFFFFFFFFFFFFFFFFF000FFFFFFFFFFFF
310
FFFFFFFFFFFFFFFFFFFFFFFFFFFFFFFFFFFFFFFFFFFFFFFFFFFFFFFFFFFFFFFF
310
FFFFFFFFFFFFFFFFFFFFFFFFFFFFFFFFFFFFFFFFFFFFFFFFFFFFFFFFFFFFFFFF
310
FFFFFFFFFFFFFFFFFFFFFFFFFFFFFFFFF000FFFFFFFFFFFFFFFFFFFFFFFFFFFF
310
FFFFFFFFFFFFFFFFFFFFFFFFFFFFFFFFFFFFFFFFFFFFFFFFFFFFFFFFFFFFFFFF
310
FFFFFFFFFFFFFFFFFFFFFFFFFFFFFFFFFFFFFFFFFFFFFFFFFFFFFFFFFFFFFFFF
310
FFFFFFFFFFFFFFFFF000FFFFFFFFFFFFFFFFFFFFFFFFFFFFFFFFFFFFFFFFFFFF
310
FFFFFFFFFFFFFFFFFFFFFFFFFFFFFFFFFFFFFFFFFFFFFFFFFFFFFFFFFFFFFFFF
310
FFFFFFFFFFFFFFFFFFFFFFFFFFFFFFFFFFFFFFFFFFFFFFFFFFFFFFFFFFFFFFFF
310
F000FFFFFFFFFFFFFFFFFFFFFFFFFFFFFFFFFFFFFFFFFFFFFFFFFFFFFFFFFFFF
310
FFFFFFFFFFFFFFFFFFFFFFFFFFFFFFFFFFFFFFFFFFFFFFFFFFFFFFFFFFFFFFFF
310
FFFFFFFFFFFFFFFFFFFFFFFFFFFFFFFFFFFFFFFFFFFFFFFFF000FFFFFFFFFFFF
310
FFFFFFFFFFFFFFFFFFFFFFFFFFFFFFFFFFFFFFFFFFFFFFFFFFFFFFFFFFFFFFFF
310
FFFFFFFFFFFFFFFFFFFFFFFFFFFFFFFFFFFFFFFFFFFFFFFFFFFFFFFFFFFFFFFF
310
FFFFFFFFFFFFFFFFFFFFFFFFFFFFFFFFF000FFFFFFFFFFFFFFFFFFFFFFFFFFFF
310
FFFFFFFFFFFFFFFFFFFFFFFFFFFFFFFFFFFFFFFFFFFFFFFFFFFFFFFFFFFFFFFF
310
FFFFFFFFFFFFFFFFFFFFFFFFFFFFFFFFFFFFFFFFFFFFFFFFFFFFFFFFFFFFFFFF
310
FFFFFFFFFFFFFFFFF000FFFFFFFFFFFFFFFFFFFFFFFFFFFFFFFFFFFFFFFFFFFF
310
FFFFFFFFFFFFFFFFFFFFFFFFFFFFFFFFFFFFFFFFFFFFFFFFFFFFFFFFFFFFFFFF
310
FFFFFFFFFFFFFFFFFFFFFFFFFFFFFFFFFFFFFFFFFFFFFFFFFFFFFFFFFFFFFFFF
310
F000FFFFFFFFFFFFFFFFFFFFFFFFFFFFFFFFFFFFFFFFFFFFFFFFFFFFFFFFFFFF
310
FFFFFFFFFFFFFFFFFFFFFFFFFFFFFFFFFFFFFFFFFFFFFFFFFFFFFFFFFFFFFFFF
310
FFFFFFFFFFFFFFFFFFFFFFFFFFFFFFFFFFFFFFFFFFFFFFFFF000FFFFFFFFFFFF
310
FFFFFFFFFFFFFFFFFFFFFFFFFFFFFFFFFFFFFFFFFFFFFFFFFFFFFFFFFFFFFFFF
310
FFFFFFFFFFFFFFFFFFFFFFFFFFFFFFFFFFFFFFFFFFFFFFFFFFFFFFFFFFFFFFFF
310
FFFFFFFFFFFFFFFFFFFFFFFFFFFFFFFFF000FFFFFFFFFFFFFFFFFFFFFFFFFFFF
310
FFFFFFFFFFFFFFFFFFFFFFFFFFFFFFFFFFFFFFFFFFFFFFFFFFFFFFFFFFFFFFFF
310
FFFFFFFFFFFFFFFFFFFFFFFFFFFFFFFFFFFFFFFFFFFFFFFFFFFFFFFFFFFFFFFF
310
FFFFFFFFFFFFFFFFF000FFFFF80003FFFFFFFFFFFFFFFFFFFFFFFFFFFFFFFFFF
310
FFFFF00007FFFFFFFFFF00007FFFFFF800000000000000007FFFFFFFFFFFFFFF
310
FFFFFFFC001FFFFFFFFFFFFFFC001FFFFFFFFFFFFFFFFFFFFFFFFFFE0007FFFF
310
F000FFFF8000007FFFFFFFF8000FFFFFC0007FFFFF80007FFFFF0000007FFFFF
310
FFF8000007FFFFF800000000000000007FFFFFF0001FFFFFFFFFFFC00001FFFF
310
FFFFFFFFC00001FFFFFFFF000000000003FFFFE000007FFFF000FFFE0000000F
310
FFFFFFF0000FFFFF80007FFFFF80007FFFFC0000001FFFFFFFC0000001FFFFF8
310
00000000000000007FFFFFF0001FFFFFFFFFFE0000003FFFFFFFFFFE0000003F
310
FFFFFF000000000003FFFF0000000FFFF000FFF800000003FFFFFFF00007FFFF
310
80007FFFFF80007FFFF000000007FFFFFF000000003FFFF80000000000000000
310
7FFFFFF0001FFFFFFFFFF80000000FFFFFFFFFF80000000FFFFFFF0000000000
310
03FFFC00000003FFF000FFE000000000FFFFFFF00007FFFF80003FFFFF80007F
310
FFC000000001FFFFFC000000001FFFF800000000000000007FFFFFF0001FFFFF
310
FFFFE000000003FFFFFFFFE000000003FFFFFF000000000003FFF000000000FF
310
F000FF80000000007FFFFFF00007FFFF80003FFFFF80007FFF8000000000FFFF
310
F80000000007FFF800000000000000007FFFFFF0001FFFFFFFFFC000000001FF
310
FFFFFFC000000001FFFFFF000000000003FFC0000000007FF000FF0000000000
310
3FFFFFE00007FFFF00003FFFFF80007FFE00000000003FFFF00000000003FFF8
310
00000000000000007FFFFFF0001FFFFFFFFF8000000000FFFFFFFF8000000000
310
FFFFFF000000000003FF80000000003FF000FE00000000001FFFFFE00003FFFF
310
00003FFFFF80007FFC00000000001FFFE00000000001FFF8000001FFFE000000
310
7FFFFFF0001FFFFFFFFE00000000003FFFFFFE00000000003FFFFF0000000000
310
03FF00000000001FF000FC00000000000FFFFFE00003FFFF00001FFFFF80007F
310
F800000000001FFFC00000000000FFF8000001FFFE0000007FFFFFF0001FFFFF
310
FFFC00000000001FFFFFFC00000000001FFFFF000000000003FE00000000000F
310
F000F8000000000007FFFFE00003FFFF00001FFFFF80007FF800000000000FFF
310
800000000000FFF8000001FFFE0000007FFFFFF0001FFFFFFFF800000000000F
310
FFFFF800000000000FFFFF000000000003FC000000000007F000F80000000000
310
03FFFFC00003FFFE00001FFFFF80007FF0000000000007FF0000000000007FF8
310
000001FFFE0000007FFFFFF0001FFFFFFFF0000000000007FFFFF00000000000
310
07FFFF000000000003F8000000000003F000F0000000000003FFFFC00001FFFE
310
00001FFFFF80007FE0000000000007FE0000000000003FF8000001FFFE000000
310
7FFFFFF0001FFFFFFFF0000000000007FFFFF0000000000007FFFF0000000000
310
03F800001F800003F000E00001FFF00001FFFFC00001FFFE00000FFFFF80007F
310
E00001FFE00003FE00001FFF00003FF8000001FFFE0000007FFFFFF0001FFFFF
310
FFE000003E000003FFFFE000003E000003FFFF000000000003F00001FFF80001
310
F000E00007FFFC0001FFFFC00001FFFE00000FFFFF80007FC0000FFFFC0003FC
310
0000FFFFC0001FF8000001FFFE0000007FFFFFF0001FFFFFFFC00003FFE00001
310
FFFFC00003FFE00001FFFF0001FFFFFFFFF00007FFFE0001F000E0000FFFFF00
310
00FFFF800001FFFC00000FFFFF80007FC0001FFFFE0001FC0001FFFFE0001FF8
310
000001FFFE0000007FFFFFF0001FFFFFFF80000FFFF80000FFFF80000FFFF800
310
00FFFF0003FFFFFFFFE0000FFFFF8000F000C0003FFFFF8000FFFF800000FFFC
310
000007FFFF80007F80003FFFFF0001FC0003FFFFF0001FF8000001FFFE000000
310
7FFFFFF0001FFFFFFF80003FFFFE0000FFFF80003FFFFE0000FFFF0003FFFFFF
310
FFE0003FFFFF8000F000C0003FFFFF8000FFFF800000FFFC000007FFFF80007F
310
80007FFFFF8001F80007FFFFF8000FF8000001FFFE0000007FFFFFF0001FFFFF
310
FF00007FFFFF00007FFF00007FFFFF00007FFF0003FFFFFFFFE0003FFFFFC000
310
F000C0007FFFFFC000FFFF000000FFFC000007FFFF80007F8000FFFFFF8000F8
310
000FFFFFF8000FF8000001FFFE0000007FFFFFF0001FFFFFFF0000FFFFFF8000
310
7FFF0000FFFFFF80007FFF0003FFFFFFFFC0007FFFFFC00070008000FFFFFFC0
310
00FFFF000000FFF8000007FFFF80007F8000FFFFFF8000F8000FFFFFF8000FF8
310
000001FFFE0000007FFFFFF0001FFFFFFE0001FFFFFFC0003FFE0001FFFFFFC0
310
003FFF0003FFFFFFFFC0007FFFFFE00070008000FFFFFFC0007FFF0000007FF8
310
000003FFFF80007F0001FFFFFF8000F8000FFFFFF8000FF8000001FFFE000000
310
7FFFFFF0001FFFFFFE0001FFFFFFC0003FFE0001FFFFFFC0003FFF0003FFFFFF
310
FFC000FFFFFFE00070008000FFFFFFC0007FFF0000007FF8000003FFFF80007F
310
0001FFFFFF8000F8001FFFFFF8000FF8000001FFFE0000007FFFFFF0001FFFFF
310
FE0003FFFFFFE0003FFE0003FFFFFFE0003FFF0003FFFFFFFFC000FFFFFFE000
310
70008000FFFFFFC0007FFE0000007FF8000003FFFF80007F0001FFFFFF8000F0
310
001FFFFFF8000FF8000001FFFE0000007FFFFFF0001FFFFFFC0003FFFFFFE000
310
1FFC0003FFFFFFE0001FFF0003FFFFFFFFC000FFFFFFC00070008000FFFFFF80
310
007FFE0000007FF0000003FFFF80007F0001FFFFFF0000F0001FFFFFF8000FF8
310
000001FFFE0000007FFFFFF0001FFFFFFC0007FFFFFFF0001FFC0007FFFFFFF0
310
001FFF0003FFFFFFFFC000FFFFFFC00070008001FFFFFF0000FFFE0000003FF0
310
000001FFFF80007F0001FFFFFF0000F8001FFFFFF0000FF8000001FFFE000000
310
7FFFFFF0001FFFFFFC0007FFFFFFF0001FFC0007FFFFFFF0001FFF0003FFFFFF
310
FFC001FFFFFF80007000FFFFFFFFFE0000FFFE0008003FF0008001FFFF80007F
310
FFFFFFFFFC0000FFFFFFFFFFE0000FF8000001FFFE0000007FFFFFF0001FFFFF
310
F8000FFFFFFFF8000FF8000FFFFFFFF8000FFF0003FFFFFFFFFFFFFFFFFF0000
310
7000FFFFFFFFFC0000FFFC0008003FF0008001FFFF80007FFFFFFFFFF80001FF
310
FFFFFFFF80000FF8000001FFFE0000007FFFFFF0001FFFFFF8000FFFFFFFF800
310
0FF8000FFFFFFFF8000FFF0003FFFFFFFFFFFFFFFFFE0000F000FFFFFFFFE000
310
00FFFC000C003FE000C001FFFF80007FFFFFFFFFC00001FFFFFFFFFE00001FF8
310
000001FFFE0000007FFFFFF0001FFFFFF8000FFFFFFFF8000FF8000FFFFFFFF8
310
000FFF0003FFFFFFFFFFFFFFFFF00000F000FFFFFFFE000001FFFC000C001FE0
310
00C000FFFF80007FFFFFFFFE000001FFFFFFFFE000001FF80FFFFFFFFFFFFFC0
310
7FFFFFF0001FFFFFF8000FFFFFFFF8000FF8000FFFFFFFF8000FFF0003FFFFFF
310
FFFFFFFFFF800000F000FFFFFFC0000001FFFC001C001FE001C000FFFF80007F
310
FFFFFF80000003FFFFFFF80000001FF80FFFFFFFFFFFFFC07FFFFFF0001FFFFF
310
F8001FFFFFFFFC000FF8001FFFFFFFFC000FFF0003FFFFFFFFFFFFFFF0000001
310
F000FFFFF800000001FFF8001C001FE001C000FFFF80007FFFFFF800000003FF
310
FFFF800000003FF80FFFFFFFFFFFFFC07FFFFFF0001FFFFFF8001FFFFFFFFC00
310
0FF8001FFFFFFFFC000FFF0003FFFFFFFFFFFFFE00000001F000FFFFC0000000
310
03FFF8001E001FC001E000FFFF80007FFFFF8000000007FFFFFC000000003FF8
310
0FFFFFFFFFFFFFC07FFFFFF0001FFFFFF8001FFFFFFFFC000FF8001FFFFFFFFC
310
000FFF0003FFFFFFFFFFFFE000000003F000FFFE0000000007FFF8001E000FC0
310
01E0007FFF80007FFFFE0000000007FFFFE0000000007FF80FFFFFFFFFFFFFC0
310
7FFFFFF0001FFFFFF0001FFFFFFFFC0007F0001FFFFFFFFC0007FF0003FFFFFF
310
FFFFFF0000000003F000FFF80000000007FFF8001E000FC003E0007FFF80007F
310
FFF0000000000FFFFF8000000000FFF80FFFFFFFFFFFFFC07FFFFFF0001FFFFF
310
F0001FFFFFFFFC0007F0001FFFFFFFFC0007FF0003FFFFFFFFFFFC0000000007
310
F000FFE0000000000FFFF0003E000FC003E0007FFF80007FFFC0000000001FFF
310
FE0000000001FFF80FFFFFFFFFFFFFC07FFFFFF0001FFFFFF0001FFFFFFFFC00
310
07F0001FFFFFFFFC0007FF0003FFFFFFFFFFF0000000000FF000FFC000000000
310
1FFFF0003F000F8003F0003FFF80007FFF80000000003FFFF80000000003FFF8
310
0FFFFFFFFFFFFFC07FFFFFF0001FFFFFF0001FFFFFFFFC0007F0001FFFFFFFFC
310
0007FF0003FFFFFFFFFFE0000000001FF000FF00000000007FFFF0003F000780
310
03F0003FFF80007FFF00000000007FFFF00000000007FFF80FFFFFFFFFFFFFC0
310
7FFFFFF0001FFFFFF0001FFFFFFFFC0007F0001FFFFFFFFC0007FF0003FFFFFF
310
FFFF80000000007FF000FE0000000000FFFFE0003F00078007F0003FFF80007F
310
FE0000000001FFFFE0000000001FFFF80FFFFFFFFFFFFFC07FFFFFF0001FFFFF
310
F0001FFFFFFFFC0007F0001FFFFFFFFC0007FF0003FFFFFFFFFF0000000000FF
310
F000FC0000000003FFFFE0007F00078007F0003FFF80007FFC0000000007FFFF
310
C0000000007FFFF80FFFFFFFFFFFFFC07FFFFFF0001FFFFFF8001FFFFFFFFC00
310
0FF8001FFFFFFFFC000FFF0003FFFFFFFFFE0000000003FFF000FC000000000F
310
FFFFE0007F80070007F8001FFF80007FF8000000001FFFFF8000000001FFFFF8
310
0FFFFFFFFFFFFFC07FFFFFF0001FFFFFF8001FFFFFFFFC000FF8001FFFFFFFFC
310
000FFF0003FFFFFFFFFC000000000FFFF000F8000000007FFFFFE0007F800700
310
07F8001FFF80007FF000000000FFFFFF800000000FFFFFF80FFFFFFFFFFFFFC0
310
7FFFFFF0001FFFFFF8000FFFFFFFF8000FF8000FFFFFFFF8000FFF0003FFFFFF
310
FFFC000000007FFFF000F800000007FFFFFFC0007F8003000FF8001FFF80007F
310
F000000007FFFFFF000000007FFFFFF80FFFFFFFFFFFFFC07FFFFFF0001FFFFF
310
F8000FFFFFFFF8000FF8000FFFFFFFF8000FFF0003FFFFFFFFF80000000FFFFF
310
F000F0000000FFFFFFFFC000FF8003000FF8001FFF80007FE0000000FFFFFFFF
310
0000000FFFFFFFF8000001FFFE0000007FFFFFF0001FFFFFF8000FFFFFFFF800
310
0FF8000FFFFFFFF8000FFF0003FFFFFFFFF8000000FFFFFFF000F000000FFFFF
310
FFFFC000FFC002000FF8000FFF80007FE000001FFFFFFFFE000001FFFFFFFFF8
310
000001FFFE0000007FFFFFF0001FFFFFF8000FFFFFFFF8000FF8000FFFFFFFF8
310
000FFF0003FFFFFFFFF000001FFFFFFFF000E00000FFFFFFFFFFC000FFC00200
310
0FFC000FFF80007FE00001FFFFFFFFFE00001FFFFFFFFFF8000001FFFE000000
310
7FFFFFF0001FFFFFFC000FFFFFFFF8001FFC000FFFFFFFF8001FFF0003FFFFFF
310
FFF00001FFFFFFFFF000E00007FFFFFFFFFF8000FFC000001FFC000FFF80007F
310
C0000FFFFFFFFFFE0000FFFFFFFFFFF8000001FFFE0000007FFFFFF0001FFFFF
310
FC0007FFFFFFF0001FFC0007FFFFFFF0001FFF0003FFFFFFFFF00007FFFFFFFF
310
F000E0001FFFFFFFFFFF8000FFC000001FFC000FFF80007FC0003FFFFFFFFFFE
310
0001FFFFFFFFFFF8000001FFFE0000007FFFFFF0001FFFFFFC0007FFFFFFF000
310
1FFC0007FFFFFFF0001FFF0003FFFFFFFFF0001FFFFFFFFFF000E0003FFFFF00
310
03FF8001FFE000001FFC0007FF80007FC0007FFFFF0007FC0003FFFFF0003FF8
310
000001FFFE0000007FFFFFF0001FFFFFFC0003FFFFFFE0001FFC0003FFFFFFE0
310
001FFF0003FFFFFFFFF0003FFFFFFFFFF000E0003FFFFF0001FF8001FFE00000
310
1FFE0007FF80007FC0007FFFFE0003FC0007FFFFE0003FF8000001FFFE000000
310
7FFFFFF0001FFFFFFE0003FFFFFFE0003FFE0003FFFFFFE0003FFF0003FFFFFF
310
FFF0003FFFFF8001F000E0003FFFFF0001FF0001FFE000001FFE0007FF80007F
310
C0007FFFFE0003FC0007FFFFE0003FF8000001FFFE0000007FFFFFF0001FFFFF
310
FE0001FFFFFFC0003FFE0001FFFFFFC0003FFF0003FFFFFFFFF0003FFFFF0001
310
F000E0003FFFFF0003FF0001FFE000003FFE0007FF80007FC0007FFFFE0003FC
310
0007FFFFE0003FF8000001FFFE0000007FFFFFF0001FFFFFFF0001FFFFFFC000
310
7FFF0001FFFFFFC0007FFF0003FFFFFFFFF0003FFFFF0001F000E0003FFFFE00
310
03FF0003FFF000003FFE0003FF80007FC0007FFFFC0003FE0007FFFFE0003FF8
310
000001FFFE0000007FFFFFF0001FFFFFFF0000FFFFFF80007FFF0000FFFFFF80
310
007FFF0003FFFFFFFFF0003FFFFF0001F000E0003FFFFE0003FF0003FFF00000
310
3FFF0003FF80007FC0007FFFFC0007FE0007FFFFC0003FF8000001FFFE000000
310
7FFFFFF0001FFFFFFF80007FFFFF0000FFFF80007FFFFF0000FFFF0003FFFFFF
310
FFF0003FFFFF0003F000E0003FFFFC0003FE0003FFF000003FFF0003FF80007F
310
E0003FFFF80007FE0003FFFFC0007FF8000001FFFE0000007FFFFFF0001FFFFF
310
FF80003FFFFE0000FFFF80003FFFFE0000FFFF0003FFFFFFFFF0001FFFFE0003
310
F000F0001FFFF80003FE0003FFF000007FFF0001FF80007FE0003FFFF00007FE
310
0001FFFF80007FF8000001FFFE0000007FFFFFF0001FFFFFFFC0000FFFF80001
310
FFFFC0000FFFF80001FFFF0003FFFFFFFFF0001FFFFC0003F000F0000FFFF000
310
07FE0007FFF800007FFF0001FF80007FE0001FFFE00007FF0000FFFE00007FF8
310
000001FFFE0000007FFFFFF0001FFFFFFFC00003FFE00001FFFFC00003FFE000
310
01FFFF0003FFFFFFFFF8000FFFF80003F000F00003FFC00007FC0007FFF80000
310
7FFF8001FF80007FF00007FF80000FFF00007FF80000FFF8000001FFFE000000
310
7F80000000000001FFE000003E000003FFFFE000003E000003FFFF0003FFFFFF
310
FFF80003FFE00007F000F800000000000FFC0007FFF800007FFF8001FF80007F
310
F000000000000FFF000000000000FFF8000001FFFE0000007F80000000000001
310
FFF0000000000007FFFFF0000000000007FFFF0003FFFFFFFFFC00007E000007
310
F000F800000000000FFC0007FFF80000FFFF8000FF80007FF800000000001FFF
310
800000000001FFF8000001FFFE0000007F80000000000001FFF800000000000F
310
FFFFF800000000000FFFFF0003FFFFFFFFFC00000000000FF000FC0000000000
310
1FFC0007FFFC0000FFFF8000FF80007FF800000000003FFFC00000000001FFF8
310
000001FFFE0000007F80000000000001FFF800000000000FFFFFF80000000000
310
0FFFFF0003FFFFFFFFFE00000000001FF000FE00000000003FF8000FFFFC0000
310
FFFF8000FF80007FFC00000000003FFFC00000000003FFF8000001FFFE000000
310
7F80000000000001FFFC00000000001FFFFFFC00000000001FFFFF0003FFFFFF
310
FFFF00000000001FF000FF00000000003FF8000FFFFC0000FFFFC000FF80007F
310
FE00000000007FFFE00000000007FFF8000001FFFE0000007F80000000000001
310
FFFE00000000003FFFFFFE00000000003FFFFF0003FFFFFFFFFF80000000003F
310
F000FF80000000007FF8000FFFFC0001FFFFC0007F80007FFF0000000000FFFF
310
F0000000000FFFF800000000000000007F80000000000001FFFF8000000000FF
310
FFFFFF8000000000FFFFFF0003FFFFFFFFFFC0000000007FF000FFC000000000
310
FFF8000FFFFE0001FFFFC0007F80007FFF8000000001FFFFF8000000001FFFF8
310
00000000000000007F80000000000001FFFFC000000001FFFFFFFFC000000001
310
FFFFFF0003FFFFFFFFFFE000000000FFF000FFE000000003FFF0001FFFFE0001
310
FFFFC0007F80007FFFC000000007FFFFFE000000003FFFF80000000000000000
310
7F80000000000001FFFFE000000003FFFFFFFFE000000003FFFFFF0003FFFFFF
310
FFFFF000000003FFF000FFF80000000FFFF0001FFFFE0001FFFFE0007F80007F
310
FFF00000000FFFFFFF00000000FFFFF800000000000000007F80000000000001
310
FFFFF80000000FFFFFFFFFF80000000FFFFFFF0003FFFFFFFFFFFC0000000FFF
310
F000FFFE0000003FFFF0001FFFFE0003FFFFE0003F80007FFFFC0000003FFFFF
310
FFC0000003FFFFF800000000000000007F80000000000001FFFFFE0000003FFF
310
FFFFFFFE0000003FFFFFFF0003FFFFFFFFFFFF0000003FFFF000FFFF800000FF
310
FFF0001FFFFF0003FFFFE0003F80007FFFFF000001FFFFFFFFF800001FFFFFF8
310
00000000000000007F80000000000001FFFFFFC00001FFFFFFFFFFFFC00001FF
310
FFFFFF0003FFFFFFFFFFFFC00000FFFFF000FFFFF8000FFFFFFFFFFFFFFFFFFF
310
FFFFFFFFFFFFFFFFFFFFF0001FFFFFFFFFFF0000FFFFFFF80000000000000000
310
7FFFFFFFFFFFFFFFFFFFFFFC001FFFFFFFFFFFFFFC001FFFFFFFFFFFFFFFFFFF
310
FFFFFFFC001FFFFFF000FFFFFFFFFFFFFFFFFFFFFFFFFFFFFFFFFFFFFFFFFFFF
310
FFFFFFFFFFFFFFFFFFFFFFFFFFFFFFFFFFFFFFFFFFFFFFFFFFFFFFFFFFFFFFFF
310
FFFFFFFFFFFFFFFFFFFFFFFFFFFFFFFFFFFFFFFFFFFFFFFFFFFFFFFFFFFFFFFF
310
F000FFFFFFFFFFFFFFFFFFFFFFFFFFFFFFFFFFFFFFFFFFFFFFFFFFFFFFFFFFFF
310
FFFFFFFFFFFFFFFFFFFFFFFFFFFFFFFFFFFFFFFFFFFFFFFFFFFFFFFFFFFFFFFF
310
FFFFFFFFFFFFFFFFFFFFFFFFFFFFFFFFFFFFFFFFFFFFFFFFF000FFFFFFFFFFFF
310
FFFFFFFFFFFFFFFFFFFFFFFFFFFFFFFFFFFFFFFFFFFFFFFFFFFFFFFFFFFFFFFF
310
FFFFFFFFFFFFFFFFFFFFFFFFFFFFFFFFFFFFFFFFFFFFFFFFFFFFFFFFFFFFFFFF
310
FFFFFFFFFFFFFFFFFFFFFFFFFFFFFFFFF000FFFFFFFFFFFFFFFFFFFFFFFFFFFF
310
FFFFFFFFFFFFFFFFFFFFFFFFFFFFFFFFFFFFFFFFFFFFFFFFFFFFFFFFFFFFFFFF
310
FFFFFFFFFFFFFFFFFFFFFFFFFFFFFFFFFFFFFFFFFFFFFFFFFFFFFFFFFFFFFFFF
310
FFFFFFFFFFFFFFFFF000FFFFFFFFFFFFFFFFFFFFFFFFFFFFFFFFFFFFFFFFFFFF
310
FFFFFFFFFFFFFFFFFFFFFFFFFFFFFFFFFFFFFFFFFFFFFFFFFFFFFFFFFFFFFFFF
310
FFFFFFFFFFFFFFFFFFFFFFFFFFFFFFFFFFFFFFFFFFFFFFFFFFFFFFFFFFFFFFFF
310
F000FFFFFFFFFFFFFFFFFFFFFFFFFFFFFFFFFFFFFFFFFFFFFFFFFFFFFFFFFFFF
310
FFFFFFFFFFFFFFFFFFFFFFFFFFFFFFFFFFFFFFFFFFFFFFFFFFFFFFFFFFFFFFFF
310
FFFFFFFFFFFFFFFFFFFFFFFFFFFFFFFFFFFFFFFFFFFFFFFFF000FFFFFFFFFFFF
310
FFFFFFFFFFFFFFFFFFFFFFFFFFFFFFFFFFFFFFFFFFFFFFFFFFFFFFFFFFFFFFFF
310
FFFFFFFFFFFFFFFFFFFFFFFFFFFFFFFFFFFFFFFFFFFFFFFFFFFFFFFFFFFFFFFF
310
FFFFFFFFFFFFFFFFFFFFFFFFFFFFFFFFF000FFFFFFFFFFFFFFFFFFFFFFFFFFFF
310
FFFFFFFFFFFFFFFFFFFFFFFFFFFFFFFFFFFFFFFFFFFFFFFFFFFFFFFFFFFFFFFF
310
FFFFFFFFFFFFFFFFFFFFFFFFFFFFFFFFFFFFFFFFFFFFFFFFFFFFFFFFFFFFFFFF
310
FFFFFFFFFFFFFFFFF000FFFFFFFFFFFFFFFFFFFFFFFFFFFFFFFFFFFFFFFFFFFF
310
FFFFFFFFFFFFFFFFFFFFFFFFFFFFFFFFFFFFFFFFFFFFFFFFFFFFFFFFFFFFFFFF
310
FFFFFFFFFFFFFFFFFFFFFFFFFFFFFFFFFFFFFFFFFFFFFFFFFFFFFFFFFFFFFFFF
310
F000FFFFFFFFFFFFFFFFFFFFFFFFFFFFFFFFFFFFFFFFFFFFFFFFFFFFFFFFFFFF
310
FFFFFFFFFFFFFFFFFFFFFFFFFFFFFFFFFFFFFFFFFFFFFFFFFFFFFFFFFFFFFFFF
310
FFFFFFFFFFFFFFFFFFFFFFFFFFFFFFFFFFFFFFFFFFFFFFFFF000FFFFFFFFFFFF
310
FFFFFFFFFFFFFFFFFFFFFFFFFFFFFFFFFFFFFFFFFFFFFFFFFFFFFFFFFFFFFFFF
310
FFFFFFFFFFFFFFFFFFFFFFFFFFFFFFFFFFFFFFFFFFFFFFFFFFFFFFFFFFFFFFFF
310
FFFFFFFFFFFFFFFFFFFFFFFFFFFFFFFFF000FFFFFFFFFFFFFFFFFFFFFFFFFFFF
310
FFFFFFFFFFFFFFFFFFFFFFFFFFFFFFFFFFFFFFFFFFFFFFFFFFFFFFFFFFFFFFFF
310
FFFFFFFFFFFFFFFFFFFFFFFFFFFFFFFFFFFFFFFFFFFFFFFFFFFFFFFFFFFFFFFF
310
FFFFFFFFFFFFFFFFF000FFFFFFFFFFFFFFFFFFFFFFFFFFFFFFFFFFFFFFFFFFFF
310
FFFFFFFFFFFFFFFFFFFFFFFFFFFFFFFFFFFFFFFFFFFFFFFFFFFFFFFFFFFFFFFF
310
FFFFFFFFFFFFFFFFFFFFFFFFFFFFFFFFFFFFFFFFFFFFFFFFFFFFFFFFFFFFFFFF
310
F000FFFFFFFFFFFFFFFFFFFFFFFFFFFFFFFFFFFFFFFFFFFFFFFFFFFFFFFFFFFF
310
FFFFFFFFFFFFFFFFFFFFFFFFFFFFFFFFFFFFFFFFFFFFFFFFFFFFFFFFFFFFFFFF
310
FFFFFFFFFFFFFFFFFFFFFFFFFFFFFFFFFFFFFFFFFFFFFFFFF000FFFFFFFFFFFF
310
FFFFFFFFFFFFFFFFFFFFFFFFFFFFFFFFFFFFFFFFFFFFFFFFFFFFFFFFFFFFFFFF
310
FFFFFFFFFFFFFFFFFFFFFFFFFFFFFFFFFFFFFFFFFFFFFFFFFFFFFFFFFFFFFFFF
310
FFFFFFFFFFFFFFFFFFFFFFFFFFFFFFFFF000FFFFFFFFFFFFFFFFFFFFFFFFFFFF
310
FFFFFFFFFFFFFFFFFFFFFFFFFFFFFFFFFFFFFFFFFFFFFFFFFFFFFFFFFFFFFFFF
310
FFFFFFFFFFFFFFFFFFFFFFFFFFFFFFFFFFFFFFFFFFFFFFFFFFFFFFFFFFFFFFFF
310
FFFFFFFFFFFFFFFFF000FFFFFFFFFFFFFFFFFFFFFFFFFFFFFFFFFFFFFFFFFFFF
310
FFFFFFFFFFFFFFFFFFFFFFFFFFFFFFFFFFFFFFFFFFFFFFFFFFFFFFFFFFFFFFFF
310
FFFFFFFFFFFFFFFFFFFFFFFFFFFFFFFFFFFFFFFFFFFFFFFFFFFFFFFFFFFFFFFF
310
F000FFFFFFFFFFFFFFFFFFFFFFFFFFFFFFFFFFFFFFFFFFFFFFFFFFFFFFFFFFFF
310
FFFFFFFFFFFFFFFFFFFFFFFFFFFFFFFFFFFFFFFFFFFFFFFFFFFFFFFFFFFFFFFF
310
FFFFFFFFFFFFFFFFFFFFFFFFFFFFFFFFFFFFFFFFFFFFFFFFF000FFFFFFFFFFFF
310
FFFFFFFFFFFFFFFFFFFFFFFFFFFFFFFFFFFFFFFFFFFFFFFFFFFFFFFFFFFFFFFF
310
FFFFFFFFFFFFFFFFFFFFFFFFFFFFFFFFFFFFFFFFFFFFFFFFFFFFFFFFFFFFFFFF
310
FFFFFFFFFFFFFFFFFFFFFFFFFFFFFFFFF000FFFFFFFFFFFFFFFFFFFFFFFFFFFF
310
FFFFFFFFFFFFFFFFFFFFFFFFFFFFFFFFFFFFFFFFFFFFFFFFFFFFFFFFFFFFFFFF
310
FFFFFFFFFFFFFFFFFFFFFFFFFFFFFFFFFFFFFFFFFFFFFFFFFFFFFFFFFFFFFFFF
310
FFFFFFFFFFFFFFFFF000FFFFFFFFFFFFFFFFFFFFFFFFFFFFFFFFFFFFFFFFFFFF
310
FFFFFFFFFFFFFFFFFFFFFFFFFFFFFFFFFFFFFFFFFFFFFFFFFFFFFFFFFFFFFFFF
310
FFFFFFFFFFFFFFFFFFFFFFFFFFFFFFFFFFFFFFFFFFFFFFFFFFFFFFFFFFFFFFFF
310
F000FFFFFFFFFFFFFFFFFFFFFFFFFFFFFFFFFFFFFFFFFFFFFFFFFFFFFFFFFFFF
310
FFFFFFFFFFFFFFFFFFFFFFFFFFFFFFFFFFFFFFFFFFFFFFFFFFFFFFFFFFFFFFFF
310
FFFFFFFFFFFFFFFFFFFFFFFFFFFFFFFFFFFFFFFFFFFFFFFFF000FFFFFFFFFFFF
310
FFFFFFFFFFFFFFFFFFFFFFFFFFFFFFFFFFFFFFFFFFFFFFFFFFFFFFFFFFFFFFFF
310
FFFFFFFFFFFFFFFFFFFFFFFFFFFFFFFFFFFFFFFFFFFFFFFFFFFFFFFFFFFFFFFF
310
FFFFFFFFFFFFFFFFFFFFFFFFFFFFFFFFF0000000000000000000000000000000
310
0000000000000000000000000000000000000000000000000000000000000000
310
0000000000000000000000000000000000000000000000000000000000000000
310
0000000000000000000000000000000000000000000000000000000000000000
310
0000000000000000000000000000000000000000000000000000000000000000
310
0000000000000000000000000000000000000000000000000000000000000000
310
0000000000000000000000000000000000000000000000000000000000000000
310
0000000000000000000000000000000000000000000000000000000000000000
310
0000000000000000000000000000000000000000000000000000000000000000
310
0000000000000000000000000000000000000000000000000000000000000000
310
0000000000000000000000000000000000000000000000000000000000000000
310
0000000000000000000000000000000000000000000000000000000000000000
310
0000000000000000000000000000000000000000000000000000000000000000
310
0000000000000000000000000000000000000000000000000000000000000000
310
0000000000000000000000000000000000000000000000000000000000000000
310
0000000000000000000000000000000000000000000000000000000000000000
  1
OLE
  0
ENDSEC
  0
SECTION
  2
OBJECTS
  0
DICTIONARY
  5
C
330
0
100
AcDbDictionary
281
     1
  3
ACAD_GROUP
350
D
  3
ACAD_LAYOUT
350
1A
  3
ACAD_MLINESTYLE
350
17
  3
ACAD_PLOTSETTINGS
350
19
  3
ACAD_PLOTSTYLENAME
350
E
  3
ACAD_SCALELIST
350
47
  0
DICTIONARY
  5
D
102
{ACAD_REACTORS
330
C
102
}
330
C
100
AcDbDictionary
281
     1
  0
DICTIONARY
  5
1A
102
{ACAD_REACTORS
330
C
102
}
330
C
100
AcDbDictionary
281
     1
  3
Layout1
350
1E
  3
Layout2
350
26
  3
Model
350
22
  0
DICTIONARY
  5
17
102
{ACAD_REACTORS
330
C
102
}
330
C
100
AcDbDictionary
281
     1
  3
Standard
350
18
  0
DICTIONARY
  5
19
102
{ACAD_REACTORS
330
C
102
}
330
C
100
AcDbDictionary
281
     1
  0
ACDBDICTIONARYWDFLT
  5
E
102
{ACAD_REACTORS
330
C
102
}
330
C
100
AcDbDictionary
281
     1
  3
Normal
350
F
100
AcDbDictionaryWithDefault
340
F
  0
DICTIONARY
  5
47
102
{ACAD_REACTORS
330
C
102
}
330
C
100
AcDbDictionary
281
     1
  3
A0
350
48
  3
A1
350
49
  3
A2
350
4A
  3
A3
350
4B
  3
A4
350
4C
  3
A5
350
4D
  3
A6
350
4E
  3
A7
350
4F
  3
A8
350
50
  3
A9
350
51
  3
B0
350
52
  3
B1
350
53
  3
B2
350
54
  3
B3
350
55
  3
B4
350
56
  3
B5
350
57
  3
B6
350
58
  3
B7
350
59
  3
B8
350
5A
  3
B9
350
5B
  3
C0
350
5C
  3
C1
350
5D
  3
C2
350
5E
  3
C3
350
5F
  3
C4
350
60
  3
C5
350
61
  3
C6
350
62
  3
C7
350
63
  3
C8
350
64
  3
C9
350
65
  3
D0
350
66
  3
D1
350
67
  3
D2
350
68
  0
LAYOUT
  5
1E
102
{ACAD_REACTORS
330
1A
102
}
330
1A
100
AcDbPlotSettings
  1

  2
none_device
  4

  6

 40
0.0
 41
0.0
 42
0.0
 43
0.0
 44
0.0
 45
0.0
 46
0.0
 47
0.0
 48
0.0
 49
0.0
140
0.0
141
0.0
142
1.0
143
1.0
 70
   688
 72
     1
 73
     0
 74
     5
  7

 75
    16
147
1.0
148
0.0
149
0.0
100
AcDbLayout
  1
Layout1
 70
     1
 71
     1
 10
0.0
 20
0.0
 11
420.0
 21
297.0
 12
0.0
 22
0.0
 32
0.0
 14
1.0000000000E+20
 24
1.0000000000E+20
 34
1.0000000000E+20
 15
-1.0000000000E+20
 25
-1.0000000000E+20
 35
-1.0000000000E+20
146
0.0
 13
0.0
 23
0.0
 33
0.0
 16
1.0
 26
0.0
 36
0.0
 17
0.0
 27
1.0
 37
0.0
 76
     0
330
1B
  0
LAYOUT
  5
26
102
{ACAD_REACTORS
330
1A
102
}
330
1A
100
AcDbPlotSettings
  1

  2
none_device
  4

  6

 40
0.0
 41
0.0
 42
0.0
 43
0.0
 44
0.0
 45
0.0
 46
0.0
 47
0.0
 48
0.0
 49
0.0
140
0.0
141
0.0
142
1.0
143
1.0
 70
   688
 72
     1
 73
     0
 74
     5
  7

 75
    16
147
1.0
148
0.0
149
0.0
100
AcDbLayout
  1
Layout2
 70
     1
 71
     2
 10
0.0
 20
0.0
 11
0.0
 21
0.0
 12
0.0
 22
0.0
 32
0.0
 14
0.0
 24
0.0
 34
0.0
 15
0.0
 25
0.0
 35
0.0
146
0.0
 13
0.0
 23
0.0
 33
0.0
 16
1.0
 26
0.0
 36
0.0
 17
0.0
 27
1.0
 37
0.0
 76
     0
330
23
  0
LAYOUT
  5
22
102
{ACAD_REACTORS
330
1A
102
}
330
1A
100
AcDbPlotSettings
  1

  2
none_device
  4
Letter_(8.50_x_11.00_Inches)
  6

 40
6.35
 41
6.35
 42
6.35000508
 43
6.35000508
 44
215.9
 45
279.4
 46
0.0
 47
0.0
 48
0.0
 49
0.0
140
0.0
141
0.0
142
1.0
143
1.0
 70
  1712
 72
     1
 73
     0
 74
     0
  7

 75
     0
147
1.0
148
0.0
149
0.0
100
AcDbLayout
  1
Model
 70
     1
 71
     0
 10
0.0
 20
0.0
 11
297.0
 21
210.0
 12
0.0
 22
0.0
 32
0.0
 14
0.0
 24
0.0
 34
0.0
 15
297.0
 25
210.0
 35
0.0
146
0.0
 13
0.0
 23
0.0
 33
0.0
 16
1.0
 26
0.0
 36
0.0
 17
0.0
 27
1.0
 37
0.0
 76
     0
330
1F
331
29
  0
MLINESTYLE
  5
18
102
{ACAD_REACTORS
330
17
102
}
330
17
100
AcDbMlineStyle
  2
Standard
 70
     0
  3

 62
   256
 51
90.0
 52
90.0
 71
     2
 49
0.5
 62
   256
  6
BYLAYER
 49
-0.5
 62
   256
  6
BYLAYER
  0
ACDBPLACEHOLDER
  5
F
102
{ACAD_REACTORS
330
E
102
}
330
E
  0
SCALE
  5
48
102
{ACAD_REACTORS
330
47
102
}
330
47
100
AcDbScale
 70
     0
300
1:1
140
1.0
141
1.0
290
     1
  0
SCALE
  5
49
102
{ACAD_REACTORS
330
47
102
}
330
47
100
AcDbScale
 70
     0
300
1:2
140
1.0
141
2.0
290
     0
  0
SCALE
  5
4A
102
{ACAD_REACTORS
330
47
102
}
330
47
100
AcDbScale
 70
     0
300
1:4
140
1.0
141
4.0
290
     0
  0
SCALE
  5
4B
102
{ACAD_REACTORS
330
47
102
}
330
47
100
AcDbScale
 70
     0
300
1:5
140
1.0
141
5.0
290
     0
  0
SCALE
  5
4C
102
{ACAD_REACTORS
330
47
102
}
330
47
100
AcDbScale
 70
     0
300
1:8
140
1.0
141
8.0
290
     0
  0
SCALE
  5
4D
102
{ACAD_REACTORS
330
47
102
}
330
47
100
AcDbScale
 70
     0
300
1:10
140
1.0
141
10.0
290
     0
  0
SCALE
  5
4E
102
{ACAD_REACTORS
330
47
102
}
330
47
100
AcDbScale
 70
     0
300
1:16
140
1.0
141
16.0
290
     0
  0
SCALE
  5
4F
102
{ACAD_REACTORS
330
47
102
}
330
47
100
AcDbScale
 70
     0
300
1:20
140
1.0
141
20.0
290
     0
  0
SCALE
  5
50
102
{ACAD_REACTORS
330
47
102
}
330
47
100
AcDbScale
 70
     0
300
1:30
140
1.0
141
30.0
290
     0
  0
SCALE
  5
51
102
{ACAD_REACTORS
330
47
102
}
330
47
100
AcDbScale
 70
     0
300
1:40
140
1.0
141
40.0
290
     0
  0
SCALE
  5
52
102
{ACAD_REACTORS
330
47
102
}
330
47
100
AcDbScale
 70
     0
300
1:50
140
1.0
141
50.0
290
     0
  0
SCALE
  5
53
102
{ACAD_REACTORS
330
47
102
}
330
47
100
AcDbScale
 70
     0
300
1:100
140
1.0
141
100.0
290
     0
  0
SCALE
  5
54
102
{ACAD_REACTORS
330
47
102
}
330
47
100
AcDbScale
 70
     0
300
2:1
140
2.0
141
1.0
290
     0
  0
SCALE
  5
55
102
{ACAD_REACTORS
330
47
102
}
330
47
100
AcDbScale
 70
     0
300
4:1
140
4.0
141
1.0
290
     0
  0
SCALE
  5
56
102
{ACAD_REACTORS
330
47
102
}
330
47
100
AcDbScale
 70
     0
300
8:1
140
8.0
141
1.0
290
     0
  0
SCALE
  5
57
102
{ACAD_REACTORS
330
47
102
}
330
47
100
AcDbScale
 70
     0
300
10:1
140
10.0
141
1.0
290
     0
  0
SCALE
  5
58
102
{ACAD_REACTORS
330
47
102
}
330
47
100
AcDbScale
 70
     0
300
100:1
140
100.0
141
1.0
290
     0
  0
SCALE
  5
59
102
{ACAD_REACTORS
330
47
102
}
330
47
100
AcDbScale
 70
     0
300
1/128" = 1'-0"
140
0.0078125
141
12.0
290
     0
  0
SCALE
  5
5A
102
{ACAD_REACTORS
330
47
102
}
330
47
100
AcDbScale
 70
     0
300
1/64" = 1'-0"
140
0.015625
141
12.0
290
     0
  0
SCALE
  5
5B
102
{ACAD_REACTORS
330
47
102
}
330
47
100
AcDbScale
 70
     0
300
1/32" = 1'-0"
140
0.03125
141
12.0
290
     0
  0
SCALE
  5
5C
102
{ACAD_REACTORS
330
47
102
}
330
47
100
AcDbScale
 70
     0
300
1/16" = 1'-0"
140
0.0625
141
12.0
290
     0
  0
SCALE
  5
5D
102
{ACAD_REACTORS
330
47
102
}
330
47
100
AcDbScale
 70
     0
300
3/32" = 1'-0"
140
0.09375
141
12.0
290
     0
  0
SCALE
  5
5E
102
{ACAD_REACTORS
330
47
102
}
330
47
100
AcDbScale
 70
     0
300
1/8" = 1'-0"
140
0.125
141
12.0
290
     0
  0
SCALE
  5
5F
102
{ACAD_REACTORS
330
47
102
}
330
47
100
AcDbScale
 70
     0
300
3/16" = 1'-0"
140
0.1875
141
12.0
290
     0
  0
SCALE
  5
60
102
{ACAD_REACTORS
330
47
102
}
330
47
100
AcDbScale
 70
     0
300
1/4" = 1'-0"
140
0.25
141
12.0
290
     0
  0
SCALE
  5
61
102
{ACAD_REACTORS
330
47
102
}
330
47
100
AcDbScale
 70
     0
300
3/8" = 1'-0"
140
0.375
141
12.0
290
     0
  0
SCALE
  5
62
102
{ACAD_REACTORS
330
47
102
}
330
47
100
AcDbScale
 70
     0
300
1/2" = 1'-0"
140
0.5
141
12.0
290
     0
  0
SCALE
  5
63
102
{ACAD_REACTORS
330
47
102
}
330
47
100
AcDbScale
 70
     0
300
3/4" = 1'-0"
140
0.75
141
12.0
290
     0
  0
SCALE
  5
64
102
{ACAD_REACTORS
330
47
102
}
330
47
100
AcDbScale
 70
     0
300
1" = 1'-0"
140
1.0
141
12.0
290
     0
  0
SCALE
  5
65
102
{ACAD_REACTORS
330
47
102
}
330
47
100
AcDbScale
 70
     0
300
1-1/2" = 1'-0"
140
1.5
141
12.0
290
     0
  0
SCALE
  5
66
102
{ACAD_REACTORS
330
47
102
}
330
47
100
AcDbScale
 70
     0
300
3" = 1'-0"
140
3.0
141
12.0
290
     0
  0
SCALE
  5
67
102
{ACAD_REACTORS
330
47
102
}
330
47
100
AcDbScale
 70
     0
300
6" = 1'-0"
140
6.0
141
12.0
290
     0
  0
SCALE
  5
68
102
{ACAD_REACTORS
330
47
102
}
330
47
100
AcDbScale
 70
     0
300
1'-0" = 1'-0"
140
12.0
141
12.0
290
     0
  0
ENDSEC
  0
EOF
