  0
SECTION
  2
HEADER
  9
$ACADVER
  1
AC1015
  9
$ACADMAINTVER
 70
     6
  9
$DWGCODEPAGE
  3
ANSI_1252
  9
$INSBASE
 10
0.0
 20
0.0
 30
0.0
  9
$EXTMIN
 10
0.0
 20
0.0
 30
0.0
  9
$EXTMAX
 10
297.0
 20
210.0
 30
0.0
  9
$LIMMIN
 10
0.0
 20
0.0
  9
$LIMMAX
 10
297.0
 20
210.0
  9
$ORTHOMODE
 70
     0
  9
$REGENMODE
 70
     1
  9
$FILLMODE
 70
     1
  9
$QTEXTMODE
 70
     0
  9
$MIRRTEXT
 70
     1
  9
$LTSCALE
 40
1.0
  9
$ATTMODE
 70
     1
  9
$TEXTSIZE
 40
2.0
  9
$TRACEWID
 40
1.0
  9
$TEXTSTYLE
  7
Standard
  9
$CLAYER
  8
0
  9
$CELTYPE
  6
ByLayer
  9
$CECOLOR
 62
   256
  9
$CELTSCALE
 40
1.0
  9
$DISPSILH
 70
     0
  9
$DIMSCALE
 40
1.0
  9
$DIMASZ
 40
3.0
  9
$DIMEXO
 40
0.0
  9
$DIMDLI
 40
3.75
  9
$DIMRND
 40
0.0
  9
$DIMDLE
 40
0.0
  9
$DIMEXE
 40
1.0
  9
$DIMTP
 40
0.0
  9
$DIMTM
 40
0.0
  9
$DIMTXT
 40
2.0
  9
$DIMCEN
 40
2.5
  9
$DIMTSZ
 40
0.0
  9
$DIMTOL
 70
     0
  9
$DIMLIM
 70
     0
  9
$DIMTIH
 70
     1
  9
$DIMTOH
 70
     1
  9
$DIMSE1
 70
     0
  9
$DIMSE2
 70
     0
  9
$DIMTAD
 70
     1
  9
$DIMZIN
 70
     0
  9
$DIMBLK
  1

  9
$DIMASO
 70
     1
  9
$DIMSHO
 70
     1
  9
$DIMPOST
  1

  9
$DIMAPOST
  1

  9
$DIMALT
 70
     0
  9
$DIMALTD
 70
     3
  9
$DIMALTF
 40
0.0393700787
  9
$DIMLFAC
 40
1.0
  9
$DIMTOFL
 70
     1
  9
$DIMTVP
 40
0.0
  9
$DIMTIX
 70
     0
  9
$DIMSOXD
 70
     0
  9
$DIMSAH
 70
     0
  9
$DIMBLK1
  1

  9
$DIMBLK2
  1

  9
$DIMSTYLE
  2
ISO-25
  9
$DIMCLRD
 70
     0
  9
$DIMCLRE
 70
     0
  9
$DIMCLRT
 70
     0
  9
$DIMTFAC
 40
1.0
  9
$DIMGAP
 40
1.524
  9
$DIMJUST
 70
     0
  9
$DIMSD1
 70
     0
  9
$DIMSD2
 70
     0
  9
$DIMTOLJ
 70
     0
  9
$DIMTZIN
 70
     0
  9
$DIMALTZ
 70
     0
  9
$DIMALTTZ
 70
     0
  9
$DIMUPT
 70
     0
  9
$DIMDEC
 70
     2
  9
$DIMTDEC
 70
     3
  9
$DIMALTU
 70
     2
  9
$DIMALTTD
 70
     3
  9
$DIMTXSTY
  7
Standard
  9
$DIMAUNIT
 70
     0
  9
$DIMADEC
 70
     2
  9
$DIMALTRND
 40
0.0
  9
$DIMAZIN
 70
     0
  9
$DIMDSEP
 70
    44
  9
$DIMATFIT
 70
     3
  9
$DIMFRAC
 70
     0
  9
$DIMLDRBLK
  1

  9
$DIMLUNIT
 70
     2
  9
$DIMLWD
 70
    -2
  9
$DIMLWE
 70
    -2
  9
$DIMTMOVE
 70
     0
  9
$LUNITS
 70
     2
  9
$LUPREC
 70
     2
  9
$SKETCHINC
 40
1.0
  9
$FILLETRAD
 40
10.0
  9
$AUNITS
 70
     0
  9
$AUPREC
 70
     2
  9
$MENU
  1
.
  9
$ELEVATION
 40
0.0
  9
$PELEVATION
 40
0.0
  9
$THICKNESS
 40
0.0
  9
$LIMCHECK
 70
     0
  9
$CHAMFERA
 40
0.0
  9
$CHAMFERB
 40
0.0
  9
$CHAMFERC
 40
0.0
  9
$CHAMFERD
 40
0.0
  9
$SKPOLY
 70
     0
  9
$TDCREATE
 40
2457667.463591134
  9
$TDUCREATE
 40
2457667.380257801
  9
$TDUPDATE
 40
2457667.463592292
  9
$TDUUPDATE
 40
2457667.380258958
  9
$TDINDWG
 40
0.0000000116
  9
$TDUSRTIMER
 40
0.0000000116
  9
$USRTIMER
 70
     1
  9
$ANGBASE
 50
0.0
  9
$ANGDIR
 70
     0
  9
$PDMODE
 70
     0
  9
$PDSIZE
 40
-1.0
  9
$PLINEWID
 40
0.0
  9
$SPLFRAME
 70
     0
  9
$SPLINETYPE
 70
     6
  9
$SPLINESEGS
 70
     8
  9
$HANDSEED
  5
215
  9
$SURFTAB1
 70
     6
  9
$SURFTAB2
 70
     6
  9
$SURFTYPE
 70
     6
  9
$SURFU
 70
     6
  9
$SURFV
 70
     6
  9
$UCSBASE
  2

  9
$UCSNAME
  2

  9
$UCSORG
 10
0.0
 20
0.0
 30
0.0
  9
$UCSXDIR
 10
1.0
 20
0.0
 30
0.0
  9
$UCSYDIR
 10
0.0
 20
1.0
 30
0.0
  9
$UCSORTHOREF
  2

  9
$UCSORTHOVIEW
 70
     0
  9
$UCSORGTOP
 10
0.0
 20
0.0
 30
0.0
  9
$UCSORGBOTTOM
 10
0.0
 20
0.0
 30
0.0
  9
$UCSORGLEFT
 10
0.0
 20
0.0
 30
0.0
  9
$UCSORGRIGHT
 10
0.0
 20
0.0
 30
0.0
  9
$UCSORGFRONT
 10
0.0
 20
0.0
 30
0.0
  9
$UCSORGBACK
 10
0.0
 20
0.0
 30
0.0
  9
$PUCSBASE
  2

  9
$PUCSNAME
  2

  9
$PUCSORG
 10
0.0
 20
0.0
 30
0.0
  9
$PUCSXDIR
 10
1.0
 20
0.0
 30
0.0
  9
$PUCSYDIR
 10
0.0
 20
1.0
 30
0.0
  9
$PUCSORTHOREF
  2

  9
$PUCSORTHOVIEW
 70
     0
  9
$PUCSORGTOP
 10
0.0
 20
0.0
 30
0.0
  9
$PUCSORGBOTTOM
 10
0.0
 20
0.0
 30
0.0
  9
$PUCSORGLEFT
 10
0.0
 20
0.0
 30
0.0
  9
$PUCSORGRIGHT
 10
0.0
 20
0.0
 30
0.0
  9
$PUCSORGFRONT
 10
0.0
 20
0.0
 30
0.0
  9
$PUCSORGBACK
 10
0.0
 20
0.0
 30
0.0
  9
$USERI1
 70
     0
  9
$USERI2
 70
     0
  9
$USERI3
 70
     0
  9
$USERI4
 70
     0
  9
$USERI5
 70
     0
  9
$USERR1
 40
0.0
  9
$USERR2
 40
0.0
  9
$USERR3
 40
0.0
  9
$USERR4
 40
0.0
  9
$USERR5
 40
0.0
  9
$WORLDVIEW
 70
     1
  9
$SHADEDGE
 70
     3
  9
$SHADEDIF
 70
    70
  9
$TILEMODE
 70
     1
  9
$MAXACTVP
 70
    64
  9
$PINSBASE
 10
0.0
 20
0.0
 30
0.0
  9
$PLIMCHECK
 70
     0
  9
$PEXTMIN
 10
1.0000000000E+20
 20
1.0000000000E+20
 30
1.0000000000E+20
  9
$PEXTMAX
 10
-1.0000000000E+20
 20
-1.0000000000E+20
 30
-1.0000000000E+20
  9
$PLIMMIN
 10
0.0
 20
0.0
  9
$PLIMMAX
 10
420.0
 20
297.0
  9
$UNITMODE
 70
     0
  9
$VISRETAIN
 70
     1
  9
$PLINEGEN
 70
     0
  9
$PSLTSCALE
 70
     1
  9
$TREEDEPTH
 70
  3020
  9
$CMLSTYLE
  2
Standard
  9
$CMLJUST
 70
     0
  9
$CMLSCALE
 40
20.0
  9
$PROXYGRAPHICS
 70
     1
  9
$MEASUREMENT
 70
     1
  9
$CELWEIGHT
370
    -1
  9
$ENDCAPS
280
     0
  9
$JOINSTYLE
280
     0
  9
$LWDISPLAY
290
     1
  9
$INSUNITS
 70
     4
  9
$HYPERLINKBASE
  1

  9
$STYLESHEET
  1

  9
$XEDIT
290
     1
  9
$CEPSNTYPE
380
     0
  9
$PSTYLEMODE
290
     1
  9
$FINGERPRINTGUID
  2
{8617FB7C-2176-49EF-8C0C-2ACB3063ED92}
  9
$VERSIONGUID
  2
{FAEB1C32-E019-11D5-929B-00C0DF256EC4}
  9
$EXTNAMES
290
     1
  9
$PSVPSCALE
 40
0.0
  9
$OLESTARTUP
290
     0
  0
ENDSEC
  0
SECTION
  2
CLASSES
  0
CLASS
  1
ACDBDICTIONARYWDFLT
  2
AcDbDictionaryWithDefault
  3
ObjectDBX Classes
 90
        0
280
     0
281
     0
  0
CLASS
  1
VISUALSTYLE
  2
AcDbVisualStyle
  3
ObjectDBX Classes
 90
     4095
280
     0
281
     0
  0
CLASS
  1
MATERIAL
  2
AcDbMaterial
  3
ObjectDBX Classes
 90
     1153
280
     0
281
     0
  0
CLASS
  1
SCALE
  2
AcDbScale
  3
ObjectDBX Classes
 90
     1153
280
     0
281
     0
  0
CLASS
  1
TABLESTYLE
  2
AcDbTableStyle
  3
ObjectDBX Classes
 90
     4095
280
     0
281
     0
  0
CLASS
  1
MLEADERSTYLE
  2
AcDbMLeaderStyle
  3
ACDB_MLEADERSTYLE_CLASS
 90
     4095
280
     0
281
     0
  0
CLASS
  1
SUN
  2
AcDbSun
  3
SCENEOE
 90
     1153
280
     0
281
     0
  0
CLASS
  1
ACDBPLACEHOLDER
  2
AcDbPlaceHolder
  3
ObjectDBX Classes
 90
        0
280
     0
281
     0
  0
CLASS
  1
LAYOUT
  2
AcDbLayout
  3
ObjectDBX Classes
 90
        0
280
     0
281
     0
  0
ENDSEC
  0
SECTION
  2
TABLES
  0
TABLE
  2
VPORT
  5
8
330
0
100
AcDbSymbolTable
 70
     1
  0
VPORT
  5
29
330
8
100
AcDbSymbolTableRecord
100
AcDbViewportTableRecord
  2
*Active
 70
     0
 10
0.0
 20
0.0
 11
1.0
 21
1.0
 12
148.5
 22
105.0
 13
0.0
 23
0.0
 14
10.0
 24
10.0
 15
10.0
 25
10.0
 16
0.0
 26
0.0
 36
1.0
 17
0.0
 27
0.0
 37
0.0
 40
210.0
 41
1.4142857143
 42
50.0
 43
0.0
 44
0.0
 50
0.0
 51
0.0
 71
     0
 72
  2000
 73
     1
 74
     3
 75
     0
 76
     0
 77
     0
 78
     0
281
     0
 65
     1
110
0.0
120
0.0
130
0.0
111
1.0
121
0.0
131
0.0
112
0.0
122
1.0
132
0.0
 79
     0
146
0.0
  0
ENDTAB
  0
TABLE
  2
LTYPE
  5
5
330
0
100
AcDbSymbolTable
 70
     6
  0
LTYPE
  5
14
330
5
100
AcDbSymbolTableRecord
100
AcDbLinetypeTableRecord
  2
ByBlock
 70
     0
  3

 72
    65
 73
     0
 40
0.0
  0
LTYPE
  5
15
330
5
100
AcDbSymbolTableRecord
100
AcDbLinetypeTableRecord
  2
ByLayer
 70
     0
  3

 72
    65
 73
     0
 40
0.0
  0
LTYPE
  5
16
330
5
100
AcDbSymbolTableRecord
100
AcDbLinetypeTableRecord
  2
Continuous
 70
     0
  3
Solid line
 72
    65
 73
     0
 40
0.0
  0
LTYPE
  5
6E
330
5
100
AcDbSymbolTableRecord
100
AcDbLinetypeTableRecord
  2
HIDDEN
 70
     0
  3
Hidden __ __ __ __ __ __ __ __ __ __ __ __ __ __
 72
    65
 73
     2
 40
1.905
 49
1.27
 74
     0
 49
-0.635
 74
     0
  0
LTYPE
  5
6F
330
5
100
AcDbSymbolTableRecord
100
AcDbLinetypeTableRecord
  2
PHANTOM
 70
     0
  3
Phantom ______  __  __  ______  __  __  ______
 72
    65
 73
     6
 40
12.7
 49
6.35
 74
     0
 49
-1.27
 74
     0
 49
1.27
 74
     0
 49
-1.27
 74
     0
 49
1.27
 74
     0
 49
-1.27
 74
     0
  0
LTYPE
  5
70
330
5
100
AcDbSymbolTableRecord
100
AcDbLinetypeTableRecord
  2
CENTER
 70
     0
  3
Center ____ _ ____ _ ____ _ ____ _ ____ _ ____
 72
    65
 73
     4
 40
10.16
 49
6.35
 74
     0
 49
-1.27
 74
     0
 49
1.27
 74
     0
 49
-1.27
 74
     0
  0
LTYPE
  5
71
330
5
100
AcDbSymbolTableRecord
100
AcDbLinetypeTableRecord
  2
CENTERX2
 70
     0
  3
Center (2x) ________  __  ________  __  _____
 72
    65
 73
     4
 40
20.32
 49
12.7
 74
     0
 49
-2.54
 74
     0
 49
2.54
 74
     0
 49
-2.54
 74
     0
  0
LTYPE
  5
72
330
5
100
AcDbSymbolTableRecord
100
AcDbLinetypeTableRecord
  2
DOT2
 70
     0
  3
Dot (.5x) ........................................
 72
    65
 73
     2
 40
0.635
 49
0.0
 74
     0
 49
-0.635
 74
     0
  0
ENDTAB
  0
TABLE
  2
LAYER
  5
2
330
0
100
AcDbSymbolTable
 70
     5
  0
LAYER
  5
10
330
2
100
AcDbSymbolTableRecord
100
AcDbLayerTableRecord
  2
0
 70
     0
 62
     7
  6
Continuous
370
    -3
390
F
  0
LAYER
  5
73
330
2
100
AcDbSymbolTableRecord
100
AcDbLayerTableRecord
  2
FORMAT
 70
     0
 62
     7
  6
Continuous
370
    -3
390
F
  0
LAYER
  5
74
330
2
100
AcDbSymbolTableRecord
100
AcDbLayerTableRecord
  2
VERMASSUNG
 70
     0
 62
     7
  6
Continuous
370
    -3
390
F
  0
LAYER
  5
75
330
2
100
AcDbSymbolTableRecord
100
AcDbLayerTableRecord
  2
KOPF_DÜNN
 70
     0
 62
     7
  6
Continuous
370
    -3
390
F
  0
LAYER
  5
76
330
2
100
AcDbSymbolTableRecord
100
AcDbLayerTableRecord
  2
KOPF_DICK
 70
     0
 62
     7
  6
Continuous
370
    15
390
F
  0
ENDTAB
  0
TABLE
  2
STYLE
  5
3
330
0
100
AcDbSymbolTable
 70
     2
  0
STYLE
  5
11
330
3
100
AcDbSymbolTableRecord
100
AcDbTextStyleTableRecord
  2
Standard
 70
     0
 40
0.0
 41
1.0
 50
0.0
 71
     0
 42
2.0
  3
txt
  4

  0
STYLE
  5
77
330
3
100
AcDbSymbolTableRecord
100
AcDbTextStyleTableRecord
  2
SLDTEXTSTYLE0
 70
     0
 40
0.0
 41
0.7
 50
0.0
 71
     0
 42
2.0
  3
TXT
  4

  0
ENDTAB
  0
TABLE
  2
VIEW
  5
6
330
0
100
AcDbSymbolTable
 70
     0
  0
ENDTAB
  0
TABLE
  2
UCS
  5
7
330
0
100
AcDbSymbolTable
 70
     0
  0
ENDTAB
  0
TABLE
  2
APPID
  5
9
330
0
100
AcDbSymbolTable
 70
     1
  0
APPID
  5
12
330
9
100
AcDbSymbolTableRecord
100
AcDbRegAppTableRecord
  2
ACAD
 70
     0
  0
ENDTAB
  0
TABLE
  2
DIMSTYLE
  5
A
330
0
100
AcDbSymbolTable
 70
     2
100
AcDbDimStyleTable
  0
DIMSTYLE
105
27
330
A
100
AcDbSymbolTableRecord
100
AcDbDimStyleTableRecord
  2
ISO-25
 70
     0
 41
2.5
 42
0.625
 43
3.75
 44
1.25
 73
     0
 74
     0
 77
     1
 78
     8
140
2.5
141
2.5
143
0.0393700787
147
0.625
171
     3
172
     1
178
     0
271
     2
272
     2
274
     3
278
    44
283
     0
284
     8
340
11
  0
DIMSTYLE
105
129
102
{ACAD_REACTORS
330
128
330
135
330
140
330
14C
330
156
330
162
102
}
330
A
100
AcDbSymbolTableRecord
100
AcDbDimStyleTableRecord
  2
SLDDIMSTYLE0
 70
     0
 41
3.0
 44
0.0
 45
0.000000001
 73
     0
 74
     0
 77
     1
 78
    12
 79
     3
140
2.0
147
0.5
173
     1
178
     0
271
     2
272
     3
276
     2
284
    12
340
77
  0
ENDTAB
  0
TABLE
  2
BLOCK_RECORD
  5
1
330
0
100
AcDbSymbolTable
 70
     7
  0
BLOCK_RECORD
  5
1F
330
1
100
AcDbSymbolTableRecord
100
AcDbBlockTableRecord
  2
*Model_Space
340
22
  0
BLOCK_RECORD
  5
1B
330
1
100
AcDbSymbolTableRecord
100
AcDbBlockTableRecord
  2
*Paper_Space
340
1E
  0
BLOCK_RECORD
  5
23
330
1
100
AcDbSymbolTableRecord
100
AcDbBlockTableRecord
  2
*Paper_Space0
340
26
  0
BLOCK_RECORD
  5
12A
330
1
100
AcDbSymbolTableRecord
100
AcDbBlockTableRecord
  2
_D
340
0
  0
BLOCK_RECORD
  5
136
330
1
100
AcDbSymbolTableRecord
100
AcDbBlockTableRecord
  2
_D_1
340
0
  0
BLOCK_RECORD
  5
141
330
1
100
AcDbSymbolTableRecord
100
AcDbBlockTableRecord
  2
_D_2
340
0
  0
BLOCK_RECORD
  5
14D
330
1
100
AcDbSymbolTableRecord
100
AcDbBlockTableRecord
  2
_D_3
340
0
  0
BLOCK_RECORD
  5
157
330
1
100
AcDbSymbolTableRecord
100
AcDbBlockTableRecord
  2
_D_4
340
0
  0
BLOCK_RECORD
  5
163
330
1
100
AcDbSymbolTableRecord
100
AcDbBlockTableRecord
  2
_D_5
340
0
  0
ENDTAB
  0
ENDSEC
  0
SECTION
  2
BLOCKS
  0
BLOCK
  5
20
330
1F
100
AcDbEntity
  8
0
100
AcDbBlockBegin
  2
*Model_Space
 70
     0
 10
0.0
 20
0.0
 30
0.0
  3
*Model_Space
  1

  0
ENDBLK
  5
21
330
1F
100
AcDbEntity
  8
0
100
AcDbBlockEnd
  0
BLOCK
  5
1C
330
1B
100
AcDbEntity
 67
     1
  8
0
100
AcDbBlockBegin
  2
*Paper_Space
 70
     0
 10
0.0
 20
0.0
 30
0.0
  3
*Paper_Space
  1

  0
ENDBLK
  5
1D
330
1B
100
AcDbEntity
 67
     1
  8
0
100
AcDbBlockEnd
  0
BLOCK
  5
24
330
23
100
AcDbEntity
  8
0
100
AcDbBlockBegin
  2
*Paper_Space0
 70
     0
 10
0.0
 20
0.0
 30
0.0
  3
*Paper_Space0
  1

  0
ENDBLK
  5
25
330
23
100
AcDbEntity
  8
0
100
AcDbBlockEnd
  0
BLOCK
  5
12B
330
12A
100
AcDbEntity
  8
0
100
AcDbBlockBegin
  2
_D
 70
     0
 10
0.0
 20
0.0
 30
0.0
  3
_D
  1

  0
SOLID
  5
12D
330
12A
100
AcDbEntity
  8
VERMASSUNG
100
AcDbTrace
 10
85.648154041
 20
74.4787033725
 30
0.0
 11
86.098154041
 21
77.4787033725
 31
0.0
 12
85.198154041
 22
77.4787033725
 32
0.0
 13
85.198154041
 23
77.4787033725
 33
0.0
  0
SOLID
  5
12E
330
12A
100
AcDbEntity
  8
VERMASSUNG
100
AcDbTrace
 10
85.648154041
 20
137.9787033725
 30
0.0
 11
85.198154041
 21
134.9787033725
 31
0.0
 12
86.098154041
 22
134.9787033725
 32
0.0
 13
86.098154041
 23
134.9787033725
 33
0.0
  0
LINE
  5
12F
330
12A
100
AcDbEntity
  8
VERMASSUNG
100
AcDbLine
 10
178.8684023472
 20
74.4787033725
 30
0.0
 11
84.648154041
 21
74.4787033725
 31
0.0
  0
LINE
  5
130
330
12A
100
AcDbEntity
  8
VERMASSUNG
100
AcDbLine
 10
178.8684023472
 20
137.9787033725
 30
0.0
 11
84.648154041
 21
137.9787033725
 31
0.0
  0
LINE
  5
131
330
12A
100
AcDbEntity
  8
VERMASSUNG
100
AcDbLine
 10
85.648154041
 20
74.4787033725
 30
0.0
 11
85.648154041
 21
137.9787033725
 31
0.0
  0
MTEXT
  5
132
330
12A
100
AcDbEntity
  8
VERMASSUNG
100
AcDbMText
 10
82.8700187848
 20
97.4257672242
 30
0.0
 40
2.0
 41
0.0
 71
     1
 72
     1
  1
ISO 40
  7
SLDTEXTSTYLE0
 11
3.391901413832837E-15
 21
1.0
 31
0.0
 73
     1
 44
1.0
  0
MTEXT
  5
133
330
12A
100
AcDbEntity
  8
VERMASSUNG
100
AcDbMText
 10
83.0700187361
 20
106.6257674283
 30
0.0
 40
2.0
 41
0.0
 71
     1
 72
     1
  1
%%c
  7
SLDTEXTSTYLE0
 11
3.391901413832837E-15
 21
1.0
 31
0.0
 73
     1
 44
1.0
  0
MTEXT
  5
134
330
12A
100
AcDbEntity
  8
VERMASSUNG
100
AcDbMText
 10
83.0700184451
 20
110.2336477597
 30
0.0
 40
2.0
 41
0.0
 71
     1
 72
     1
  1
63.5
  7
SLDTEXTSTYLE0
 11
3.391901413832837E-15
 21
1.0
 31
0.0
 73
     1
 44
1.0
  0
ENDBLK
  5
12C
330
12A
100
AcDbEntity
  8
0
100
AcDbBlockEnd
  0
BLOCK
  5
137
330
136
100
AcDbEntity
  8
0
100
AcDbBlockBegin
  2
_D_1
 70
     0
 10
0.0
 20
0.0
 30
0.0
  3
_D_1
  1

  0
SOLID
  5
139
330
136
100
AcDbEntity
  8
VERMASSUNG
100
AcDbTrace
 10
207.3346379772
 20
113.2287033725
 30
0.0
 11
206.8846379772
 21
110.2287033725
 31
0.0
 12
207.7846379772
 22
110.2287033725
 32
0.0
 13
207.7846379772
 23
110.2287033725
 33
0.0
  0
SOLID
  5
13A
330
136
100
AcDbEntity
  8
VERMASSUNG
100
AcDbTrace
 10
207.3346379772
 20
99.2287033725
 30
0.0
 11
207.7846379772
 21
102.2287033725
 31
0.0
 12
206.8846379772
 22
102.2287033725
 32
0.0
 13
206.8846379772
 23
102.2287033725
 33
0.0
  0
LINE
  5
13B
330
136
100
AcDbEntity
  8
VERMASSUNG
100
AcDbLine
 10
193.5184023472
 20
113.2287033725
 30
0.0
 11
208.3346379772
 21
113.2287033725
 31
0.0
  0
LINE
  5
13C
330
136
100
AcDbEntity
  8
VERMASSUNG
100
AcDbLine
 10
193.5184023472
 20
99.2287033725
 30
0.0
 11
208.3346379772
 21
99.2287033725
 31
0.0
  0
LINE
  5
13D
330
136
100
AcDbEntity
  8
VERMASSUNG
100
AcDbLine
 10
207.3346379772
 20
113.2287033725
 30
0.0
 11
207.3346379772
 21
99.2287033725
 31
0.0
  0
MTEXT
  5
13E
330
136
100
AcDbEntity
  8
VERMASSUNG
100
AcDbMText
 10
204.7565024394
 20
103.124899047
 30
0.0
 40
2.0
 41
0.0
 71
     1
 72
     1
  1
%%c
  7
SLDTEXTSTYLE0
 11
-7.044195017643634E-15
 21
1.0
 31
0.0
 73
     1
 44
1.0
  0
MTEXT
  5
13F
330
136
100
AcDbEntity
  8
VERMASSUNG
100
AcDbMText
 10
204.7565023812
 20
106.7338712407
 30
0.0
 40
2.0
 41
0.0
 71
     1
 72
     1
  1
14
  7
SLDTEXTSTYLE0
 11
-7.044195017643634E-15
 21
1.0
 31
0.0
 73
     1
 44
1.0
  0
ENDBLK
  5
138
330
136
100
AcDbEntity
  8
0
100
AcDbBlockEnd
  0
BLOCK
  5
142
330
141
100
AcDbEntity
  8
0
100
AcDbBlockBegin
  2
_D_2
 70
     0
 10
0.0
 20
0.0
 30
0.0
  3
_D_2
  1

  0
ARC
  5
144
330
141
100
AcDbEntity
  8
VERMASSUNG
100
AcDbCircle
 10
189.0551958591
 20
143.0455651593
 30
0.0
 40
4.247059938537272
100
AcDbArc
 50
153.4349488229
 51
206.5650511771
  0
ARC
  5
145
330
141
100
AcDbEntity
  8
VERMASSUNG
100
AcDbCircle
 10
190.8316088354
 20
143.0455651593
 30
0.0
 40
4.247059938537272
100
AcDbArc
 50
333.4349488229
 51
26.5650511771
  0
SOLID
  5
146
330
141
100
AcDbEntity
  8
VERMASSUNG
100
AcDbTrace
 10
179.4684023472
 20
141.1462222139
 30
0.0
 11
182.4684023472
 21
140.6962222139
 31
0.0
 12
182.4684023472
 22
141.5962222139
 32
0.0
 13
182.4684023472
 23
141.5962222139
 33
0.0
  0
SOLID
  5
147
330
141
100
AcDbEntity
  8
VERMASSUNG
100
AcDbTrace
 10
200.4184023472
 20
141.1462222139
 30
0.0
 11
197.4184023472
 21
141.5962222139
 31
0.0
 12
197.4184023472
 22
140.6962222139
 32
0.0
 13
197.4184023472
 23
140.6962222139
 33
0.0
  0
LINE
  5
148
330
141
100
AcDbEntity
  8
VERMASSUNG
100
AcDbLine
 10
179.4684023472
 20
136.2392545059
 30
0.0
 11
179.4684023472
 21
142.1462222139
 31
0.0
  0
LINE
  5
149
330
141
100
AcDbEntity
  8
VERMASSUNG
100
AcDbLine
 10
200.4184023472
 20
118.5287033725
 30
0.0
 11
200.4184023472
 21
142.1462222139
 31
0.0
  0
LINE
  5
14A
330
141
100
AcDbEntity
  8
VERMASSUNG
100
AcDbLine
 10
179.4684023472
 20
141.1462222139
 30
0.0
 11
200.4184023472
 21
141.1462222139
 31
0.0
  0
MTEXT
  5
14B
330
141
100
AcDbEntity
  8
VERMASSUNG
100
AcDbMText
 10
186.8440099682
 20
143.7243578099
 30
0.0
 40
2.0
 41
0.0
 71
     1
 72
     1
  1
20.95
  7
SLDTEXTSTYLE0
 73
     1
 44
1.0
  0
ENDBLK
  5
143
330
141
100
AcDbEntity
  8
0
100
AcDbBlockEnd
  0
BLOCK
  5
14E
330
14D
100
AcDbEntity
  8
0
100
AcDbBlockBegin
  2
_D_3
 70
     0
 10
0.0
 20
0.0
 30
0.0
  3
_D_3
  1

  0
SOLID
  5
150
330
14D
100
AcDbEntity
  8
VERMASSUNG
100
AcDbTrace
 10
160.4184023472
 20
147.1462222139
 30
0.0
 11
163.4184023472
 21
146.6962222139
 31
0.0
 12
163.4184023472
 22
147.5962222139
 32
0.0
 13
163.4184023472
 23
147.5962222139
 33
0.0
  0
SOLID
  5
151
330
14D
100
AcDbEntity
  8
VERMASSUNG
100
AcDbTrace
 10
200.4184023472
 20
147.1462222139
 30
0.0
 11
197.4184023472
 21
147.5962222139
 31
0.0
 12
197.4184023472
 22
146.6962222139
 32
0.0
 13
197.4184023472
 23
146.6962222139
 33
0.0
  0
LINE
  5
152
330
14D
100
AcDbEntity
  8
VERMASSUNG
100
AcDbLine
 10
160.4184023472
 20
128.4537033725
 30
0.0
 11
160.4184023472
 21
148.1462222139
 31
0.0
  0
LINE
  5
153
330
14D
100
AcDbEntity
  8
VERMASSUNG
100
AcDbLine
 10
200.4184023472
 20
118.5287033725
 30
0.0
 11
200.4184023472
 21
148.1462222139
 31
0.0
  0
LINE
  5
154
330
14D
100
AcDbEntity
  8
VERMASSUNG
100
AcDbLine
 10
160.4184023472
 20
147.1462222139
 30
0.0
 11
200.4184023472
 21
147.1462222139
 31
0.0
  0
MTEXT
  5
155
330
14D
100
AcDbEntity
  8
VERMASSUNG
100
AcDbMText
 10
178.9194435419
 20
149.7243578099
 30
0.0
 40
2.0
 41
0.0
 71
     1
 72
     1
  1
40
  7
SLDTEXTSTYLE0
 73
     1
 44
1.0
  0
ENDBLK
  5
14F
330
14D
100
AcDbEntity
  8
0
100
AcDbBlockEnd
  0
BLOCK
  5
158
330
157
100
AcDbEntity
  8
0
100
AcDbBlockBegin
  2
_D_4
 70
     0
 10
0.0
 20
0.0
 30
0.0
  3
_D_4
  1

  0
ARC
  5
15A
330
157
100
AcDbEntity
  8
VERMASSUNG
100
AcDbCircle
 10
144.9055429239
 20
155.0455651593
 30
0.0
 40
4.247059938537272
100
AcDbArc
 50
153.4349488229
 51
206.5650511771
  0
ARC
  5
15B
330
157
100
AcDbEntity
  8
VERMASSUNG
100
AcDbCircle
 10
147.6812617705
 20
155.0455651593
 30
0.0
 40
4.247059938537272
100
AcDbArc
 50
333.4349488229
 51
26.5650511771
  0
SOLID
  5
15C
330
157
100
AcDbEntity
  8
VERMASSUNG
100
AcDbTrace
 10
92.1684023472
 20
153.1462222139
 30
0.0
 11
95.1684023472
 21
152.6962222139
 31
0.0
 12
95.1684023472
 22
153.5962222139
 32
0.0
 13
95.1684023472
 23
153.5962222139
 33
0.0
  0
SOLID
  5
15D
330
157
100
AcDbEntity
  8
VERMASSUNG
100
AcDbTrace
 10
200.4184023472
 20
153.1462222139
 30
0.0
 11
197.4184023472
 21
153.5962222139
 31
0.0
 12
197.4184023472
 22
152.6962222139
 32
0.0
 13
197.4184023472
 23
152.6962222139
 33
0.0
  0
LINE
  5
15E
330
157
100
AcDbEntity
  8
VERMASSUNG
100
AcDbLine
 10
92.1684023472
 20
117.6358339695
 30
0.0
 11
92.1684023472
 21
154.1462222139
 31
0.0
  0
LINE
  5
15F
330
157
100
AcDbEntity
  8
VERMASSUNG
100
AcDbLine
 10
200.4184023472
 20
118.5287033725
 30
0.0
 11
200.4184023472
 21
154.1462222139
 31
0.0
  0
LINE
  5
160
330
157
100
AcDbEntity
  8
VERMASSUNG
100
AcDbLine
 10
92.1684023472
 20
153.1462222139
 30
0.0
 11
200.4184023472
 21
153.1462222139
 31
0.0
  0
MTEXT
  5
161
330
157
100
AcDbEntity
  8
VERMASSUNG
100
AcDbMText
 10
142.6943570331
 20
155.7243578099
 30
0.0
 40
2.0
 41
0.0
 71
     1
 72
     1
  1
108.25
  7
SLDTEXTSTYLE0
 73
     1
 44
1.0
  0
ENDBLK
  5
159
330
157
100
AcDbEntity
  8
0
100
AcDbBlockEnd
  0
BLOCK
  5
164
330
163
100
AcDbEntity
  8
0
100
AcDbBlockBegin
  2
_D_5
 70
     0
 10
0.0
 20
0.0
 30
0.0
  3
_D_5
  1

  0
SOLID
  5
166
330
163
100
AcDbEntity
  8
VERMASSUNG
100
AcDbTrace
 10
213.3346379772
 20
118.7287033725
 30
0.0
 11
212.8846379772
 21
115.7287033725
 31
0.0
 12
213.7846379772
 22
115.7287033725
 32
0.0
 13
213.7846379772
 23
115.7287033725
 33
0.0
  0
SOLID
  5
167
330
163
100
AcDbEntity
  8
VERMASSUNG
100
AcDbTrace
 10
213.3346379772
 20
93.7287033725
 30
0.0
 11
213.7846379772
 21
96.7287033725
 31
0.0
 12
212.8846379772
 22
96.7287033725
 32
0.0
 13
212.8846379772
 23
96.7287033725
 33
0.0
  0
LINE
  5
168
330
163
100
AcDbEntity
  8
VERMASSUNG
100
AcDbLine
 10
200.2184023472
 20
118.7287033725
 30
0.0
 11
214.3346379772
 21
118.7287033725
 31
0.0
  0
LINE
  5
169
330
163
100
AcDbEntity
  8
VERMASSUNG
100
AcDbLine
 10
200.2184023472
 20
93.7287033725
 30
0.0
 11
214.3346379772
 21
93.7287033725
 31
0.0
  0
LINE
  5
16A
330
163
100
AcDbEntity
  8
VERMASSUNG
100
AcDbLine
 10
213.3346379772
 20
118.7287033725
 30
0.0
 11
213.3346379772
 21
93.7287033725
 31
0.0
  0
MTEXT
  5
16B
330
163
100
AcDbEntity
  8
VERMASSUNG
100
AcDbMText
 10
210.556502721
 20
100.1237041506
 30
0.0
 40
2.0
 41
0.0
 71
     1
 72
     1
  1
ST2
  7
SLDTEXTSTYLE0
 11
-7.044195017643634E-15
 21
1.0
 31
0.0
 73
     1
 44
1.0
  0
MTEXT
  5
16C
330
163
100
AcDbEntity
  8
VERMASSUNG
100
AcDbMText
 10
210.7565026723
 20
105.9237040769
 30
0.0
 40
2.0
 41
0.0
 71
     1
 72
     1
  1
%%c
  7
SLDTEXTSTYLE0
 11
-7.044195017643634E-15
 21
1.0
 31
0.0
 73
     1
 44
1.0
  0
MTEXT
  5
16D
330
163
100
AcDbEntity
  8
VERMASSUNG
100
AcDbMText
 10
210.556502721
 20
109.5337036255
 30
0.0
 40
2.0
 41
0.0
 71
     1
 72
     1
  1
25
  7
SLDTEXTSTYLE0
 11
-7.044195017643634E-15
 21
1.0
 31
0.0
 73
     1
 44
1.0
  0
ENDBLK
  5
165
330
163
100
AcDbEntity
  8
0
100
AcDbBlockEnd
  0
ENDSEC
  0
SECTION
  2
ENTITIES
  0
MTEXT
  5
78
330
1F
100
AcDbEntity
  8
KOPF_DÜNN
100
AcDbMText
 10
13.8892156294
 20
23.8442973028
 30
0.0
 40
3.0
 41
0.0
 71
     1
 72
     1
  1
114.440.025.040
  7
SLDTEXTSTYLE0
 73
     1
 44
1.0
  0
MTEXT
  5
79
330
1F
100
AcDbEntity
  8
VERMASSUNG
100
AcDbMText
 10
13.9329988022
 20
28.8834360957
 30
0.0
 40
3.0
 41
0.0
 71
     1
 72
     1
  1
Aufnahme_Master shank ST2
  7
SLDTEXTSTYLE0
 73
     1
 44
1.0
  0
MTEXT
  5
7A
330
1F
100
AcDbEntity
  8
VERMASSUNG
100
AcDbMText
 10
98.8601118557
 20
13.8365368761
 30
0.0
 40
2.0
 41
0.0
 71
     1
 72
     1
  1
Datum: 14.05.2008
  7
SLDTEXTSTYLE0
 73
     1
 44
1.0
  0
MTEXT
  5
7B
330
1F
100
AcDbEntity
  8
VERMASSUNG
100
AcDbMText
 10
13.933048693
 20
18.0482802738
 30
0.0
 40
2.0
 41
0.0
 71
     1
 72
     1
  1
DIN 69871 A/D ISO 40
  7
SLDTEXTSTYLE0
 73
     1
 44
1.0
  0
MTEXT
  5
7C
330
1F
100
AcDbEntity
  8
VERMASSUNG
100
AcDbMText
 10
13.9808475933
 20
13.9090974274
 30
0.0
 40
2.0
 41
0.0
 71
     1
 72
     1
  1
Gewicht: 886g
  7
SLDTEXTSTYLE0
 73
     1
 44
1.0
  0
ARC
  5
7D
330
1F
100
AcDbEntity
  8
0
  6
Continuous
 62
     7
370
    15
100
AcDbCircle
 10
163.0184023472
 20
83.4037033725
 30
0.0
 40
0.6000000000000227
100
AcDbArc
 50
0.0
 51
90.0
  0
ARC
  5
7E
330
1F
100
AcDbEntity
  8
0
  6
Continuous
 62
     7
370
    15
100
AcDbCircle
 10
163.0184023472
 20
129.0537033725
 30
0.0
 40
0.6000000000000227
100
AcDbArc
 50
270.0
 51
0.0
  0
LINE
  5
7F
330
1F
100
AcDbEntity
  8
0
  6
Continuous
 62
     7
370
    15
100
AcDbLine
 10
160.4184023472
 20
128.4537033725
 30
0.0
 11
93.0240954541
 21
118.6253669506
 31
0.0
  0
LINE
  5
80
330
1F
100
AcDbEntity
  8
0
  6
Continuous
 62
     7
370
    15
100
AcDbLine
 10
93.0240954541
 20
93.8320397944
 30
0.0
 11
160.4184023472
 21
84.0037033725
 31
0.0
  0
LINE
  5
81
330
1F
100
AcDbEntity
  8
0
  6
Continuous
 62
     7
370
    15
100
AcDbLine
 10
160.4184023472
 20
84.0037033725
 30
0.0
 11
163.0184023472
 21
84.0037033725
 31
0.0
  0
LINE
  5
82
330
1F
100
AcDbEntity
  8
0
  6
Continuous
 62
     7
370
    15
100
AcDbLine
 10
163.0184023472
 20
128.4537033725
 30
0.0
 11
160.4184023472
 21
128.4537033725
 31
0.0
  0
ARC
  5
83
330
1F
100
AcDbEntity
  8
0
  6
Continuous
 62
     7
370
    15
100
AcDbCircle
 10
183.4684023472
 20
89.7287033725
 30
0.0
 40
4.0
100
AcDbArc
 50
90.0
 51
180.0
  0
ARC
  5
84
330
1F
100
AcDbEntity
  8
0
  6
Continuous
 62
     7
370
    15
100
AcDbCircle
 10
183.4684023472
 20
122.7287033725
 30
0.0
 40
4.0
100
AcDbArc
 50
180.0
 51
270.0
  0
LINE
  5
85
330
1F
100
AcDbEntity
  8
0
  6
Continuous
 62
     7
370
    15
100
AcDbLine
 10
200.2184023472
 20
93.7287033725
 30
0.0
 11
200.4184023472
 21
93.9287033725
 31
0.0
  0
LINE
  5
86
330
1F
100
AcDbEntity
  8
0
  6
Continuous
 62
     7
370
    15
100
AcDbLine
 10
200.4184023472
 20
118.5287033725
 30
0.0
 11
200.2184023472
 21
118.7287033725
 31
0.0
  0
LINE
  5
87
330
1F
100
AcDbEntity
  8
0
  6
Continuous
 62
     7
370
    15
100
AcDbLine
 10
200.2184023472
 20
118.7287033725
 30
0.0
 11
183.4684023472
 21
118.7287033725
 31
0.0
  0
LINE
  5
88
330
1F
100
AcDbEntity
  8
0
  6
Continuous
 62
     7
370
    15
100
AcDbLine
 10
183.4684023472
 20
93.7287033725
 30
0.0
 11
200.2184023472
 21
93.7287033725
 31
0.0
  0
ARC
  5
89
330
1F
100
AcDbEntity
  8
0
  6
Continuous
 62
     7
370
    15
100
AcDbCircle
 10
93.1684023472
 20
94.8215727755
 30
0.0
 40
0.9999999999999959
100
AcDbArc
 50
180.0
 51
261.7028550302
  0
ARC
  5
8A
330
1F
100
AcDbEntity
  8
0
  6
Continuous
 62
     7
370
    15
100
AcDbCircle
 10
93.1684023472
 20
117.6358339695
 30
0.0
 40
0.9999999999999959
100
AcDbArc
 50
98.2971449698
 51
180.0
  0
SPLINE
  5
8B
330
1F
100
AcDbEntity
  8
0
  6
Continuous
 62
     7
370
    15
100
AcDbSpline
210
0.0
220
0.0
230
1.0
 70
    24
 71
     3
 72
    11
 73
     7
 74
     0
 42
0.000000001
 43
0.00000001
 40
0.0
 40
0.0
 40
0.0
 40
0.0
 40
0.1285561766306801
 40
0.4801535797842842
 40
0.8150691831754939
 40
1.0
 40
1.0
 40
1.0
 40
1.0
 10
192.7860078450878
 20
105.2738444954353
 30
0.0
 10
192.774500462891
 20
105.3308230867213
 30
0.0
 10
192.7315207251563
 20
105.5436364675647
 30
0.0
 10
192.6509240907568
 20
105.9427092203365
 30
0.0
 10
192.5636549366826
 20
106.3748208315457
 30
0.0
 10
192.5169042127146
 20
106.6063061813619
 30
0.0
 10
192.5002730515979
 20
106.6886550697252
 30
0.0
  0
SPLINE
  5
8C
330
1F
100
AcDbEntity
  8
0
  6
Continuous
 62
     7
370
    15
100
AcDbSpline
210
0.0
220
0.0
230
1.0
 70
    24
 71
     3
 72
    10
 73
     6
 74
     0
 42
0.000000001
 43
0.00000001
 40
0.0
 40
0.0
 40
0.0
 40
0.0
 40
0.4391119879276918
 40
0.751363323073476
 40
0.9999999999999999
 40
0.9999999999999999
 40
0.9999999999999999
 40
0.9999999999999999
 10
194.1541371407107
 20
104.8138927981977
 30
0.0
 10
193.9582810899808
 20
104.8797376881767
 30
0.0
 10
193.6231523365734
 20
104.9924046995594
 30
0.0
 10
193.1359802937916
 20
105.1561871787747
 30
0.0
 10
192.8934980647736
 20
105.2377073341749
 30
0.0
 10
192.7860078450878
 20
105.2738444954353
 30
0.0
  0
SPLINE
  5
8D
330
1F
100
AcDbEntity
  8
0
  6
Continuous
 62
     7
370
    15
100
AcDbSpline
210
0.0
220
0.0
230
1.0
 70
    24
 71
     3
 72
    10
 73
     6
 74
     0
 42
0.000000001
 43
0.00000001
 40
0.0
 40
0.0
 40
0.0
 40
0.0
 40
0.4391119879276934
 40
0.7513633230734844
 40
0.9999999999999999
 40
0.9999999999999999
 40
0.9999999999999999
 40
0.9999999999999999
 10
195.2365316428437
 20
105.76875167525
 30
0.0
 10
195.0815802700475
 20
105.6320578048226
 30
0.0
 10
194.8164433993179
 20
105.3981612965244
 30
0.0
 10
194.4310175902318
 20
105.0581491710695
 30
0.0
 10
194.2391779502257
 20
104.8889134784738
 30
0.0
 10
194.1541371407107
 20
104.8138927981977
 30
0.0
  0
SPLINE
  5
8E
330
1F
100
AcDbEntity
  8
0
  6
Continuous
 62
     7
370
    15
100
AcDbSpline
210
0.0
220
0.0
230
1.0
 70
    24
 71
     3
 72
    11
 73
     7
 74
     0
 42
0.000000001
 43
0.00000001
 40
0.0
 40
0.0
 40
0.0
 40
0.0
 40
0.1849308168245046
 40
0.519846420215712
 40
0.8714438233693192
 40
1.0
 40
1.0
 40
1.0
 40
1.0
 10
194.9507968493538
 20
107.1835622495399
 30
0.0
 10
194.9674280104705
 20
107.1012133611766
 30
0.0
 10
195.0141787344385
 20
106.8697280113605
 30
0.0
 10
195.1014478885126
 20
106.4376164001512
 30
0.0
 10
195.1820445229122
 20
106.0385436473794
 30
0.0
 10
195.2250242606469
 20
105.8257302665361
 30
0.0
 10
195.2365316428437
 20
105.76875167525
 30
0.0
  0
SPLINE
  5
8F
330
1F
100
AcDbEntity
  8
0
  6
Continuous
 62
     7
370
    15
100
AcDbSpline
210
0.0
220
0.0
230
1.0
 70
    24
 71
     3
 72
    10
 73
     6
 74
     0
 42
0.000000001
 43
0.00000001
 40
0.0
 40
0.0
 40
0.0
 40
0.0
 40
0.4391119879276899
 40
0.7513633230734788
 40
1.0
 40
1.0
 40
1.0
 40
1.0
 10
192.5002730515979
 20
106.6886550697252
 30
0.0
 10
192.6552244243941
 20
106.8253489401526
 30
0.0
 10
192.9203612951237
 20
107.0592454484508
 30
0.0
 10
193.3057871042098
 20
107.3992575739057
 30
0.0
 10
193.4976267442159
 20
107.5684932665014
 30
0.0
 10
193.5826675537309
 20
107.6435139467775
 30
0.0
  0
CIRCLE
  5
90
330
1F
100
AcDbEntity
  8
0
  6
Continuous
 62
     7
370
    15
100
AcDbCircle
 10
193.8684023472
 20
106.2287033725
 30
0.0
 40
1.500000000000026
  0
SPLINE
  5
91
330
1F
100
AcDbEntity
  8
0
  6
Continuous
 62
     7
370
    15
100
AcDbSpline
210
0.0
220
0.0
230
1.0
 70
    24
 71
     3
 72
    10
 73
     6
 74
     0
 42
0.000000001
 43
0.00000001
 40
0.0
 40
0.0
 40
0.0
 40
0.0
 40
0.4391119879276967
 40
0.7513633230734764
 40
1.0
 40
1.0
 40
1.0
 40
1.0
 10
193.5826675537309
 20
107.6435139467775
 30
0.0
 10
193.7785236044608
 20
107.5776690567984
 30
0.0
 10
194.1136523578682
 20
107.4650020454158
 30
0.0
 10
194.60082440065
 20
107.3012195662005
 30
0.0
 10
194.843306629668
 20
107.2196994108003
 30
0.0
 10
194.9507968493538
 20
107.1835622495399
 30
0.0
  0
CIRCLE
  5
92
330
1F
100
AcDbEntity
  8
0
  6
Continuous
 62
     7
370
    15
100
AcDbCircle
 10
193.8684023472
 20
106.2287033725
 30
0.0
 40
2.250000000000021
  0
ARC
  5
93
330
1F
100
AcDbEntity
  8
0
  6
Continuous
 62
     7
370
    15
100
AcDbCircle
 10
193.8684023472
 20
106.2287033725
 30
0.0
 40
1.250000000000005
100
AcDbArc
 50
11.4178585467
 51
71.4178585467
  0
ARC
  5
94
330
1F
100
AcDbEntity
  8
0
  6
Continuous
 62
     7
370
    15
100
AcDbCircle
 10
193.8684023472
 20
106.2287033725
 30
0.0
 40
1.250000000000024
100
AcDbArc
 50
191.4178585467
 51
251.4178585467
  0
ARC
  5
95
330
1F
100
AcDbEntity
  8
0
  6
Continuous
 62
     7
370
    15
100
AcDbCircle
 10
193.8684023472
 20
106.2287033725
 30
0.0
 40
1.249999999999974
100
AcDbArc
 50
311.4178585467
 51
11.4178585467
  0
ARC
  5
96
330
1F
100
AcDbEntity
  8
0
  6
Continuous
 62
     7
370
    15
100
AcDbCircle
 10
193.8684023472
 20
106.2287033725
 30
0.0
 40
1.250000000000014
100
AcDbArc
 50
71.4178585467
 51
131.4178585467
  0
ARC
  5
97
330
1F
100
AcDbEntity
  8
0
  6
Continuous
 62
     7
370
    15
100
AcDbCircle
 10
193.8684023472
 20
106.2287033725
 30
0.0
 40
1.250000000000024
100
AcDbArc
 50
131.4178585467
 51
191.4178585467
  0
ARC
  5
98
330
1F
100
AcDbEntity
  8
0
  6
Continuous
 62
     7
370
    15
100
AcDbCircle
 10
193.8684023472
 20
106.2287033725
 30
0.0
 40
1.250000000000001
100
AcDbArc
 50
251.4178585467
 51
311.4178585467
  0
SPLINE
  5
99
330
1F
100
AcDbEntity
  8
0
  6
Continuous
 62
     7
370
    15
100
AcDbSpline
210
0.0
220
0.0
230
1.0
 70
     8
 71
     3
 72
    12
 73
     8
 74
     0
 42
0.000000001
 43
0.00000001
 40
0.0
 40
0.0
 40
0.0
 40
0.0
 40
0.250000000000001
 40
0.250000000000001
 40
0.500000000000002
 40
0.500000000000002
 40
1.0
 40
1.0
 40
1.0
 40
1.0
 10
178.8684023472208
 20
75.78061102385091
 30
0.0
 10
178.9639442573568
 20
75.78061102385091
 30
0.0
 10
179.0560891992195
 20
75.79686469304711
 30
0.0
 10
179.2124154758295
 20
75.85047311396059
 30
0.0
 10
179.2760836184494
 20
75.88688423924228
 30
0.0
 10
179.4249514638798
 20
76.00900787892877
 30
0.0
 10
179.4684023472208
 20
76.1041605543658
 30
0.0
 10
179.4684023472208
 20
76.19978700998547
 30
0.0
  0
SPLINE
  5
9A
330
1F
100
AcDbEntity
  8
0
  6
Continuous
 62
     7
370
    15
100
AcDbSpline
210
0.0
220
0.0
230
1.0
 70
    24
 71
     3
 72
    12
 73
     8
 74
     0
 42
0.000000001
 43
0.00000001
 40
0.0
 40
0.0
 40
0.0
 40
0.0
 40
0.4999999999999931
 40
0.4999999999999931
 40
0.7499999999999966
 40
0.7499999999999966
 40
1.0
 40
1.0
 40
1.0
 40
1.0
 10
179.4684023472208
 20
124.5787033724876
 30
0.0
 10
179.4684023472208
 20
124.5787033724876
 30
0.0
 10
179.4187223522657
 20
124.5787033724876
 30
0.0
 10
179.2628037952482
 20
124.5787033724876
 30
0.0
 10
179.1969227306721
 20
124.5787033724876
 30
0.0
 10
179.0442770751833
 20
124.5787033724876
 30
0.0
 10
178.9570271673224
 20
124.5787033724876
 30
0.0
 10
178.8684023472207
 20
124.5787033724876
 30
0.0
  0
LINE
  5
9B
330
1F
100
AcDbEntity
  8
0
  6
Continuous
 62
     7
370
    15
100
AcDbLine
 10
179.4684023472
 20
76.19978701
 30
0.0
 11
179.4684023472
 21
124.5787033725
 31
0.0
  0
LINE
  5
9C
330
1F
100
AcDbEntity
  8
0
  6
Continuous
 62
     7
370
    15
100
AcDbLine
 10
164.2184023472
 20
75.7806110239
 30
0.0
 11
167.9965657052
 21
75.7806110239
 31
0.0
  0
LINE
  5
9D
330
1F
100
AcDbEntity
  8
0
  6
Continuous
 62
     7
370
    15
100
AcDbLine
 10
167.9965657052
 20
124.5787033725
 30
0.0
 11
164.2184023472
 21
124.5787033725
 31
0.0
  0
LINE
  5
9E
330
1F
100
AcDbEntity
  8
0
  6
Continuous
 62
     7
370
    15
100
AcDbLine
 10
167.9965657052
 20
75.7806110239
 30
0.0
 11
167.9965657052
 21
124.5787033725
 31
0.0
  0
SPLINE
  5
9F
330
1F
100
AcDbEntity
  8
0
  6
Continuous
 62
     7
370
    15
100
AcDbSpline
210
0.0
220
0.0
230
1.0
 70
     8
 71
     3
 72
     8
 73
     4
 74
     0
 42
0.000000001
 43
0.00000001
 40
0.0
 40
0.0
 40
0.0
 40
0.0
 40
1.0
 40
1.0
 40
1.0
 40
1.0
 10
169.6084023472208
 20
78.41187691298612
 30
0.0
 10
169.2242675986364
 20
77.71923549104194
 30
0.0
 10
168.8392813221435
 20
77.02704931671822
 30
0.0
 10
168.4536127435171
 20
76.33525502587405
 30
0.0
  0
SPLINE
  5
A0
330
1F
100
AcDbEntity
  8
0
  6
Continuous
 62
     7
370
    15
100
AcDbSpline
210
0.0
220
0.0
230
1.0
 70
     8
 71
     3
 72
     8
 73
     4
 74
     0
 42
0.000000001
 43
0.00000001
 40
0.0
 40
0.0
 40
0.0
 40
0.0
 40
0.0011901715795577
 40
0.0011901715795577
 40
0.0011901715795577
 40
0.0011901715795577
 10
167.996565705164
 20
75.78061102385091
 30
0.0
 10
168.15041189466
 20
75.96517626153448
 30
0.0
 10
168.3028071623326
 20
76.15005162206312
 30
0.0
 10
168.4536127435171
 20
76.33525502587405
 30
0.0
  0
SPLINE
  5
A1
330
1F
100
AcDbEntity
  8
0
  6
Continuous
 62
     7
370
    15
100
AcDbSpline
210
0.0
220
0.0
230
1.0
 70
    24
 71
     3
 72
     8
 73
     4
 74
     0
 42
0.000000001
 43
0.00000001
 40
0.0
 40
0.0
 40
0.0
 40
0.0
 40
1.0
 40
1.0
 40
1.0
 40
1.0
 10
169.6084023472208
 20
124.5787033724876
 30
0.0
 10
169.0836698588589
 20
124.5787033724876
 30
0.0
 10
168.5449943746401
 20
124.5787033724876
 30
0.0
 10
167.996565705164
 20
124.5787033724876
 30
0.0
  0
LINE
  5
A2
330
1F
100
AcDbEntity
  8
0
  6
Continuous
 62
     7
370
    15
100
AcDbLine
 10
169.6084023472
 20
78.411876913
 30
0.0
 11
169.6084023472
 21
124.5787033725
 31
0.0
  0
LINE
  5
A3
330
1F
100
AcDbEntity
  8
0
  6
Continuous
 62
     7
370
    15
100
AcDbLine
 10
175.0402389893
 20
75.7806110239
 30
0.0
 11
178.8684023472
 21
75.7806110239
 31
0.0
  0
LINE
  5
A4
330
1F
100
AcDbEntity
  8
0
  6
Continuous
 62
     7
370
    15
100
AcDbLine
 10
175.0402389893
 20
75.7806110239
 30
0.0
 11
175.0402389893
 21
124.5787033725
 31
0.0
  0
LINE
  5
A5
330
1F
100
AcDbEntity
  8
0
  6
Continuous
 62
     7
370
    15
100
AcDbLine
 10
178.8684023472
 20
124.5787033725
 30
0.0
 11
175.0402389893
 21
124.5787033725
 31
0.0
  0
SPLINE
  5
A6
330
1F
100
AcDbEntity
  8
0
  6
Continuous
 62
     7
370
    15
100
AcDbSpline
210
0.0
220
0.0
230
1.0
 70
     8
 71
     3
 72
     8
 73
     4
 74
     0
 42
0.000000001
 43
0.00000001
 40
0.0
 40
0.0
 40
0.0
 40
0.0
 40
0.0011901715795577
 40
0.0011901715795577
 40
0.0011901715795577
 40
0.0011901715795577
 10
174.5831919509244
 20
76.33525502587405
 30
0.0
 10
174.7339975321089
 20
76.15005162206312
 30
0.0
 10
174.8863927997816
 20
75.96517626153448
 30
0.0
 10
175.0402389892775
 20
75.78061102385091
 30
0.0
  0
SPLINE
  5
A7
330
1F
100
AcDbEntity
  8
0
  6
Continuous
 62
     7
370
    15
100
AcDbSpline
210
0.0
220
0.0
230
1.0
 70
     8
 71
     3
 72
     8
 73
     4
 74
     0
 42
0.000000001
 43
0.00000001
 40
0.0
 40
0.0
 40
0.0
 40
0.0
 40
1.0
 40
1.0
 40
1.0
 40
1.0
 10
174.5831919509244
 20
76.33525502587405
 30
0.0
 10
174.1975233722981
 20
77.02704931671822
 30
0.0
 10
173.8125370958051
 20
77.71923549104193
 30
0.0
 10
173.4284023472208
 20
78.41187691298612
 30
0.0
  0
LINE
  5
A8
330
1F
100
AcDbEntity
  8
0
  6
Continuous
 62
     7
370
    15
100
AcDbLine
 10
173.4284023472
 20
78.411876913
 30
0.0
 11
173.4284023472
 21
124.5787033725
 31
0.0
  0
SPLINE
  5
A9
330
1F
100
AcDbEntity
  8
0
  6
Continuous
 62
     7
370
    15
100
AcDbSpline
210
0.0
220
0.0
230
1.0
 70
    24
 71
     3
 72
     8
 73
     4
 74
     0
 42
0.000000001
 43
0.00000001
 40
0.0
 40
0.0
 40
0.0
 40
0.0
 40
1.0
 40
1.0
 40
1.0
 40
1.0
 10
175.0402389892775
 20
124.5787033724876
 30
0.0
 10
174.4918103198015
 20
124.5787033724876
 30
0.0
 10
173.9531348355827
 20
124.5787033724876
 30
0.0
 10
173.4284023472208
 20
124.5787033724876
 30
0.0
  0
SPLINE
  5
AA
330
1F
100
AcDbEntity
  8
0
  6
Continuous
 62
     7
370
    15
100
AcDbSpline
210
0.0
220
0.0
230
1.0
 70
     8
 71
     3
 72
    10
 73
     6
 74
     0
 42
0.000000001
 43
0.00000001
 40
0.0
 40
0.0
 40
0.0
 40
0.0
 40
0.5
 40
0.5
 40
1.0
 40
1.0
 40
1.0
 40
1.0
 10
163.834546888568
 20
75.87697352301936
 30
0.0
 10
163.8833168615493
 20
75.84874551581136
 30
0.0
 10
163.9407689848517
 20
75.82465091156976
 30
0.0
 10
164.0713658878404
 20
75.7903874384772
 30
0.0
 10
164.1438555676826
 20
75.7806110238509
 30
0.0
 10
164.2184023472208
 20
75.7806110238509
 30
0.0
  0
SPLINE
  5
AB
330
1F
100
AcDbEntity
  8
0
  6
Continuous
 62
     7
370
    15
100
AcDbSpline
210
0.0
220
0.0
230
1.0
 70
     8
 71
     3
 72
    10
 73
     6
 74
     0
 42
0.000000001
 43
0.00000001
 40
0.0
 40
0.0
 40
0.0
 40
0.0
 40
0.5
 40
0.5
 40
1.0
 40
1.0
 40
1.0
 40
1.0
 10
163.834546888568
 20
75.87697352301936
 30
0.0
 10
163.7764242284919
 20
75.94427868288116
 30
0.0
 10
163.7240210624884
 20
76.02436406991481
 30
0.0
 10
163.645118040942
 20
76.20838351160359
 30
0.0
 10
163.6184023472208
 20
76.31359486902403
 30
0.0
 10
163.6184023472208
 20
76.4223282154847
 30
0.0
  0
LINE
  5
AC
330
1F
100
AcDbEntity
  8
0
  6
Continuous
 62
     7
370
    15
100
AcDbLine
 10
163.6184023472
 20
76.4223282155
 30
0.0
 11
163.6184023472
 21
124.5787033725
 31
0.0
  0
SPLINE
  5
AD
330
1F
100
AcDbEntity
  8
0
  6
Continuous
 62
     7
370
    15
100
AcDbSpline
210
0.0
220
0.0
230
1.0
 70
    24
 71
     3
 72
    12
 73
     8
 74
     0
 42
0.000000001
 43
0.00000001
 40
0.0
 40
0.0
 40
0.0
 40
0.0
 40
0.2499999999999998
 40
0.2499999999999998
 40
0.4999999999999997
 40
0.4999999999999997
 40
1.0
 40
1.0
 40
1.0
 40
1.0
 10
164.2184023472208
 20
124.5787033724876
 30
0.0
 10
164.1299869699103
 20
124.5787033724876
 30
0.0
 10
164.0427165327397
 20
124.5787033724876
 30
0.0
 10
163.8902528079678
 20
124.5787033724876
 30
0.0
 10
163.8246141957455
 20
124.5787033724876
 30
0.0
 10
163.6679557944615
 20
124.5787033724876
 30
0.0
 10
163.6184023472208
 20
124.5787033724876
 30
0.0
 10
163.6184023472208
 20
124.5787033724876
 30
0.0
  0
SPLINE
  5
AE
330
1F
100
AcDbEntity
  8
0
  6
Continuous
 62
     7
370
    15
100
AcDbSpline
210
0.0
220
0.0
230
1.0
 70
     8
 71
     3
 72
    12
 73
     8
 74
     0
 42
0.000000001
 43
0.00000001
 40
0.0
 40
0.0
 40
0.0
 40
0.0
 40
0.2500000000000015
 40
0.2500000000000015
 40
0.500000000000003
 40
0.500000000000003
 40
1.0
 40
1.0
 40
1.0
 40
1.0
 10
170.4084023472208
 20
79.41084551620085
 30
0.0
 10
170.3020004968633
 20
79.41084551620087
 30
0.0
 10
170.1946850854668
 20
79.38807475218235
 30
0.0
 10
169.9992134944395
 20
79.30183180553024
 30
0.0
 10
169.909031378502
 20
79.23715548505972
 30
0.0
 10
169.6908098917812
 20
79.00422616100292
 30
0.0
 10
169.6084023472204
 20
78.7896409231119
 30
0.0
 10
169.6084023472207
 20
78.57662388467918
 30
0.0
  0
SPLINE
  5
AF
330
1F
100
AcDbEntity
  8
0
  6
Continuous
 62
     7
370
    15
100
AcDbSpline
210
0.0
220
0.0
230
1.0
 70
    24
 71
     3
 72
    14
 73
    10
 74
     0
 42
0.000000001
 43
0.00000001
 40
0.0
 40
0.0
 40
0.0
 40
0.0
 40
0.1250000000000018
 40
0.1250000000000018
 40
0.2500000000000037
 40
0.2500000000000037
 40
0.5000000000000004
 40
0.5000000000000004
 40
1.0
 40
1.0
 40
1.0
 40
1.0
 10
170.4084023472208
 20
124.5787033724876
 30
0.0
 10
170.3477850238032
 20
124.5787033724876
 30
0.0
 10
170.2856598756682
 20
124.5787033724876
 30
0.0
 10
170.1694422126467
 20
124.5787033724876
 30
0.0
 10
170.1148255729543
 20
124.5787033724876
 30
0.0
 10
169.9601492344461
 20
124.5787033724876
 30
0.0
 10
169.8740324856621
 20
124.5787033724876
 30
0.0
 10
169.6727249051215
 20
124.5787033724876
 30
0.0
 10
169.6084023472208
 20
124.5787033724876
 30
0.0
 10
169.6084023472207
 20
124.5787033724876
 30
0.0
  0
SPLINE
  5
B0
330
1F
100
AcDbEntity
  8
0
  6
Continuous
 62
     7
370
    15
100
AcDbSpline
210
0.0
220
0.0
230
1.0
 70
     8
 71
     3
 72
    12
 73
     8
 74
     0
 42
0.000000001
 43
0.00000001
 40
0.0
 40
0.0
 40
0.0
 40
0.0
 40
0.5
 40
0.5
 40
0.75
 40
0.75
 40
1.0
 40
1.0
 40
1.0
 40
1.0
 10
173.4284023472208
 20
78.57662388468053
 30
0.0
 10
173.4284023472208
 20
78.78944644361341
 30
0.0
 10
173.346476989401
 20
79.00370295025138
 30
0.0
 10
173.1275551859326
 20
79.23739257870128
 30
0.0
 10
173.0375078944416
 20
79.30187740354525
 30
0.0
 10
172.8420944264218
 20
79.38807701470083
 30
0.0
 10
172.734811459438
 20
79.41084551620087
 30
0.0
 10
172.6284023472208
 20
79.41084551620087
 30
0.0
  0
SPLINE
  5
B1
330
1F
100
AcDbEntity
  8
0
  6
Continuous
 62
     7
370
    15
100
AcDbSpline
210
0.0
220
0.0
230
1.0
 70
    24
 71
     3
 72
    14
 73
    10
 74
     0
 42
0.000000001
 43
0.00000001
 40
0.0
 40
0.0
 40
0.0
 40
0.0
 40
0.25
 40
0.25
 40
0.5
 40
0.5
 40
0.75
 40
0.75
 40
1.0
 40
1.0
 40
1.0
 40
1.0
 10
173.4284023472208
 20
124.5787033724876
 30
0.0
 10
173.4284023472208
 20
124.5787033724876
 30
0.0
 10
173.412320745761
 20
124.5787033724876
 30
0.0
 10
173.3468292324941
 20
124.5787033724876
 30
0.0
 10
173.2975212593668
 20
124.5787033724876
 30
0.0
 10
173.1629517376698
 20
124.5787033724876
 30
0.0
 10
173.0774286615845
 20
124.5787033724876
 30
0.0
 10
172.8704331660295
 20
124.5787033724876
 30
0.0
 10
172.7497395320859
 20
124.5787033724876
 30
0.0
 10
172.6284023472208
 20
124.5787033724876
 30
0.0
  0
LINE
  5
B2
330
1F
100
AcDbEntity
  8
0
  6
Continuous
 62
     7
370
    15
100
AcDbLine
 10
172.6284023472
 20
79.4108455162
 30
0.0
 11
170.4084023472
 21
79.4108455162
 31
0.0
  0
LINE
  5
B3
330
1F
100
AcDbEntity
  8
0
  6
Continuous
 62
     7
370
    15
100
AcDbLine
 10
172.6284023472
 20
124.5787033725
 30
0.0
 11
170.4084023472
 21
124.5787033725
 31
0.0
  0
LINE
  5
B4
330
1F
100
AcDbEntity
  8
0
  6
Continuous
 62
     7
370
    15
100
AcDbLine
 10
160.4184023472
 20
84.0037033725
 30
0.0
 11
160.4184023472
 21
128.4537033725
 31
0.0
  0
LINE
  5
B5
330
1F
100
AcDbEntity
  8
0
  6
Continuous
 62
     7
370
    15
100
AcDbLine
 10
172.6284023472
 20
133.0465612288
 30
0.0
 11
170.4084023472
 21
133.0465612288
 31
0.0
  0
LINE
  5
B6
330
1F
100
AcDbEntity
  8
0
  6
Continuous
 62
     7
370
    15
100
AcDbLine
 10
170.4084023472
 20
127.3776395159
 30
0.0
 11
172.6284023472
 21
127.3776395159
 31
0.0
  0
LINE
  5
B7
330
1F
100
AcDbEntity
  8
0
  6
Continuous
 62
     7
370
    15
100
AcDbLine
 10
178.8684023472
 20
136.7250394517
 30
0.0
 11
175.0402389893
 21
136.7250394517
 31
0.0
  0
LINE
  5
B8
330
1F
100
AcDbEntity
  8
0
  6
Continuous
 62
     7
370
    15
100
AcDbLine
 10
175.0402389893
 20
132.1389330125
 30
0.0
 11
178.8684023472
 21
132.1389330125
 31
0.0
  0
LINE
  5
B9
330
1F
100
AcDbEntity
  8
0
  6
Continuous
 62
     7
370
    15
100
AcDbLine
 10
175.0402389893
 20
132.1389330125
 30
0.0
 11
175.0402389893
 21
136.7250394517
 31
0.0
  0
SPLINE
  5
BA
330
1F
100
AcDbEntity
  8
0
  6
Continuous
 62
     7
370
    15
100
AcDbSpline
210
0.0
220
0.0
230
1.0
 70
     8
 71
     3
 72
    12
 73
     8
 74
     0
 42
0.000000001
 43
0.00000001
 40
0.0
 40
0.0
 40
0.0
 40
0.0
 40
0.5000000000000042
 40
0.5000000000000042
 40
0.7500000000000021
 40
0.7500000000000021
 40
1.0
 40
1.0
 40
1.0
 40
1.0
 10
179.4684023472208
 20
136.2392545059288
 30
0.0
 10
179.4684023472208
 20
136.3595815389819
 30
0.0
 10
179.4146075356278
 20
136.4776791124637
 30
0.0
 10
179.2536839656615
 20
136.6173218549027
 30
0.0
 10
179.188932504559
 20
136.6555978082972
 30
0.0
 10
179.0367123212413
 20
136.7104376379316
 30
0.0
 10
178.9539048057163
 20
136.7250394517032
 30
0.0
 10
178.8684023472208
 20
136.7250394517032
 30
0.0
  0
SPLINE
  5
BB
330
1F
100
AcDbEntity
  8
0
  6
Continuous
 62
     7
370
    15
100
AcDbSpline
210
0.0
220
0.0
230
1.0
 70
     8
 71
     3
 72
    14
 73
    10
 74
     0
 42
0.000000001
 43
0.00000001
 40
0.0
 40
0.0
 40
0.0
 40
0.0
 40
0.25
 40
0.25
 40
0.5
 40
0.5
 40
0.75
 40
0.75
 40
1.0
 40
1.0
 40
1.0
 40
1.0
 10
178.8684023472208
 20
132.1389330125351
 30
0.0
 10
178.9568248853433
 20
132.1389330125351
 30
0.0
 10
179.0448788750363
 20
132.1138606620758
 30
0.0
 10
179.1967086389077
 20
132.0275185971044
 30
0.0
 10
179.2625515834715
 20
131.9659753425916
 30
0.0
 10
179.366350644017
 20
131.8241475963407
 30
0.0
 10
179.4048227534916
 20
131.7440990063706
 30
0.0
 10
179.4560454167662
 20
131.5750865096969
 30
0.0
 10
179.4684023472208
 20
131.4883072028273
 30
0.0
 10
179.4684023472208
 20
131.4001157285713
 30
0.0
  0
LINE
  5
BC
330
1F
100
AcDbEntity
  8
0
  6
Continuous
 62
     7
370
    15
100
AcDbLine
 10
179.4684023472
 20
131.4001157286
 30
0.0
 11
179.4684023472
 21
136.2392545059
 31
0.0
  0
SPLINE
  5
BD
330
1F
100
AcDbEntity
  8
0
  6
Continuous
 62
     7
370
    15
100
AcDbSpline
210
0.0
220
0.0
230
1.0
 70
     8
 71
     3
 72
    12
 73
     8
 74
     0
 42
0.000000001
 43
0.00000001
 40
0.0
 40
0.0
 40
0.0
 40
0.0
 40
0.5000000000000003
 40
0.5000000000000003
 40
0.7500000000000001
 40
0.7500000000000001
 40
1.0
 40
1.0
 40
1.0
 40
1.0
 10
163.6184023472208
 20
131.4001157285712
 30
0.0
 10
163.6184023472208
 20
131.576732125093
 30
0.0
 10
163.6677429820426
 20
131.7517892964667
 30
0.0
 10
163.8239585403307
 20
131.9657395089593
 30
0.0
 10
163.8892611202314
 20
132.0270721518063
 30
0.0
 10
164.0430301381918
 20
132.1144602497775
 30
0.0
 10
164.1300432448022
 20
132.1389330125351
 30
0.0
 10
164.2184023472208
 20
132.1389330125351
 30
0.0
  0
LINE
  5
BE
330
1F
100
AcDbEntity
  8
0
  6
Continuous
 62
     7
370
    15
100
AcDbLine
 10
164.2184023472
 20
132.1389330125
 30
0.0
 11
167.9965657052
 21
132.1389330125
 31
0.0
  0
SPLINE
  5
BF
330
1F
100
AcDbEntity
  8
0
  6
Continuous
 62
     7
370
    15
100
AcDbSpline
210
0.0
220
0.0
230
1.0
 70
     8
 71
     3
 72
     8
 73
     4
 74
     0
 42
0.000000001
 43
0.00000001
 40
0.0
 40
0.0
 40
0.0
 40
0.0
 40
1.0
 40
1.0
 40
1.0
 40
1.0
 10
167.996565705164
 20
132.1389330125351
 30
0.0
 10
168.5455104833609
 20
130.9738369002215
 30
0.0
 10
169.0841208578777
 20
129.804678583397
 30
0.0
 10
169.6084023472208
 20
128.6308424283461
 30
0.0
  0
SPLINE
  5
C0
330
1F
100
AcDbEntity
  8
0
  6
Continuous
 62
     7
370
    15
100
AcDbSpline
210
0.0
220
0.0
230
1.0
 70
     8
 71
     3
 72
    14
 73
    10
 74
     0
 42
0.000000001
 43
0.00000001
 40
0.0
 40
0.0
 40
0.0
 40
0.0
 40
0.25
 40
0.25
 40
0.5
 40
0.5
 40
0.75
 40
0.75
 40
1.0
 40
1.0
 40
1.0
 40
1.0
 10
169.6084023472208
 20
128.4259441920129
 30
0.0
 10
169.6084023472208
 20
128.3040088568313
 30
0.0
 10
169.6244467147607
 20
128.1844546163299
 30
0.0
 10
169.6901760569401
 20
127.9503386331867
 30
0.0
 10
169.7393834271884
 20
127.8384060930519
 30
0.0
 10
169.8743964080872
 20
127.6360062838151
 30
0.0
 10
169.9603164766935
 20
127.5461410902521
 30
0.0
 10
170.166831278699
 20
127.4158065806419
 30
0.0
 10
170.28696999107
 20
127.3776395159441
 30
0.0
 10
170.4084023472208
 20
127.3776395159441
 30
0.0
  0
SPLINE
  5
C1
330
1F
100
AcDbEntity
  8
0
  6
Continuous
 62
     7
370
    15
100
AcDbSpline
210
0.0
220
0.0
230
1.0
 70
     8
 71
     3
 72
    12
 73
     8
 74
     0
 42
0.000000001
 43
0.00000001
 40
0.0
 40
0.0
 40
0.0
 40
0.0
 40
0.2499999999999986
 40
0.2499999999999986
 40
0.4999999999999971
 40
0.4999999999999971
 40
1.0
 40
1.0
 40
1.0
 40
1.0
 10
172.6284023472208
 20
127.3776395159441
 30
0.0
 10
172.7504843447091
 20
127.3776395159441
 30
0.0
 10
172.8710748871948
 20
127.4163658721178
 30
0.0
 10
173.0765701708946
 20
127.5463294598641
 30
0.0
 10
173.1620866538471
 20
127.6355356964108
 30
0.0
 10
173.3654810053913
 20
127.9404122339564
 30
0.0
 10
173.4284023472208
 20
128.1831828480585
 30
0.0
 10
173.4284023472208
 20
128.4259441920129
 30
0.0
  0
LINE
  5
C2
330
1F
100
AcDbEntity
  8
0
  6
Continuous
 62
     7
370
    15
100
AcDbLine
 10
173.4284023472
 20
128.425944192
 30
0.0
 11
173.4284023472
 21
128.6308424283
 31
0.0
  0
SPLINE
  5
C3
330
1F
100
AcDbEntity
  8
0
  6
Continuous
 62
     7
370
    15
100
AcDbSpline
210
0.0
220
0.0
230
1.0
 70
     8
 71
     3
 72
     8
 73
     4
 74
     0
 42
0.000000001
 43
0.00000001
 40
0.0
 40
0.0
 40
0.0
 40
0.0
 40
1.0
 40
1.0
 40
1.0
 40
1.0
 10
173.4284023472208
 20
128.6308424283461
 30
0.0
 10
173.9531934667167
 20
129.8058196160508
 30
0.0
 10
174.4917097178995
 20
130.974718783789
 30
0.0
 10
175.0402389892775
 20
132.1389330125352
 30
0.0
  0
LINE
  5
C4
330
1F
100
AcDbEntity
  8
0
  6
Continuous
 62
     7
370
    15
100
AcDbLine
 10
169.6084023472
 20
128.6308424283
 30
0.0
 11
169.6084023472
 21
128.425944192
 31
0.0
  0
LINE
  5
C5
330
1F
100
AcDbEntity
  8
0
  6
Continuous
 62
     7
370
    15
100
AcDbLine
 10
163.6184023472
 20
131.4001157286
 30
0.0
 11
163.6184023472
 21
124.5787033725
 31
0.0
  0
LINE
  5
C6
330
1F
100
AcDbEntity
  8
0
  6
Continuous
 62
     7
370
    15
100
AcDbLine
 10
179.4684023472
 20
131.4001157286
 30
0.0
 11
179.4684023472
 21
124.5787033725
 31
0.0
  0
SPLINE
  5
C7
330
1F
100
AcDbEntity
  8
0
  6
Continuous
 62
     7
370
    15
100
AcDbSpline
210
0.0
220
0.0
230
1.0
 70
     8
 71
     3
 72
     8
 73
     4
 74
     0
 42
0.000000001
 43
0.00000001
 40
0.0
 40
0.0
 40
0.0
 40
0.0
 40
0.0012409313617635
 40
0.0012409313617635
 40
0.0012409313617635
 40
0.0012409313617635
 10
168.5544476609247
 20
135.9412415287521
 30
0.0
 10
168.3692238213688
 20
136.2027690722292
 30
0.0
 10
168.1832386333962
 20
136.4640275740046
 30
0.0
 10
167.996565705164
 20
136.7250394517032
 30
0.0
  0
SPLINE
  5
C8
330
1F
100
AcDbEntity
  8
0
  6
Continuous
 62
     7
370
    15
100
AcDbSpline
210
0.0
220
0.0
230
1.0
 70
     8
 71
     3
 72
     8
 73
     4
 74
     0
 42
0.000000001
 43
0.00000001
 40
0.0
 40
0.0
 40
0.0
 40
0.0
 40
1.0
 40
1.0
 40
1.0
 40
1.0
 10
169.6084023472208
 20
134.0455298319891
 30
0.0
 10
169.2577501068932
 20
134.6777982410394
 30
0.0
 10
168.906391683833
 20
135.3096801407383
 30
0.0
 10
168.5544476609247
 20
135.9412415287521
 30
0.0
  0
LINE
  5
C9
330
1F
100
AcDbEntity
  8
0
  6
Continuous
 62
     7
370
    15
100
AcDbLine
 10
167.9965657052
 20
132.1389330125
 30
0.0
 11
167.9965657052
 21
136.7250394517
 31
0.0
  0
LINE
  5
CA
330
1F
100
AcDbEntity
  8
0
  6
Continuous
 62
     7
370
    15
100
AcDbLine
 10
169.6084023472
 20
128.6308424283
 30
0.0
 11
169.6084023472
 21
134.045529832
 31
0.0
  0
SPLINE
  5
CB
330
1F
100
AcDbEntity
  8
0
  6
Continuous
 62
     7
370
    15
100
AcDbSpline
210
0.0
220
0.0
230
1.0
 70
     8
 71
     3
 72
     8
 73
     4
 74
     0
 42
0.000000001
 43
0.00000001
 40
0.0
 40
0.0
 40
0.0
 40
0.0
 40
1.0
 40
1.0
 40
1.0
 40
1.0
 10
174.4823570335168
 20
135.9412415287521
 30
0.0
 10
174.1304130106085
 20
135.3096801407383
 30
0.0
 10
173.7790545875483
 20
134.6777982410394
 30
0.0
 10
173.4284023472208
 20
134.0455298319891
 30
0.0
  0
SPLINE
  5
CC
330
1F
100
AcDbEntity
  8
0
  6
Continuous
 62
     7
370
    15
100
AcDbSpline
210
0.0
220
0.0
230
1.0
 70
     8
 71
     3
 72
     8
 73
     4
 74
     0
 42
0.000000001
 43
0.00000001
 40
0.0
 40
0.0
 40
0.0
 40
0.0
 40
0.0012409313617635
 40
0.0012409313617635
 40
0.0012409313617635
 40
0.0012409313617635
 10
175.0402389892775
 20
136.7250394517032
 30
0.0
 10
174.8535660610453
 20
136.4640275740046
 30
0.0
 10
174.6675808730728
 20
136.2027690722292
 30
0.0
 10
174.4823570335168
 20
135.9412415287521
 30
0.0
  0
LINE
  5
CD
330
1F
100
AcDbEntity
  8
0
  6
Continuous
 62
     7
370
    15
100
AcDbLine
 10
173.4284023472
 20
128.6308424283
 30
0.0
 11
173.4284023472
 21
134.045529832
 31
0.0
  0
SPLINE
  5
CE
330
1F
100
AcDbEntity
  8
0
  6
Continuous
 62
     7
370
    15
100
AcDbSpline
210
0.0
220
0.0
230
1.0
 70
     8
 71
     3
 72
    12
 73
     8
 74
     0
 42
0.000000001
 43
0.00000001
 40
0.0
 40
0.0
 40
0.0
 40
0.0
 40
0.5
 40
0.5
 40
0.75
 40
0.75
 40
1.0
 40
1.0
 40
1.0
 40
1.0
 10
173.4284023472208
 20
133.8807828602947
 30
0.0
 10
173.4284023472208
 20
133.6676454586432
 30
0.0
 10
173.3457599320728
 20
133.4526659339055
 30
0.0
 10
173.1271765212625
 20
133.2197468650197
 30
0.0
 10
173.0380865682817
 20
133.1558799551992
 30
0.0
 10
172.8426812503842
 20
133.0694938008174
 30
0.0
 10
172.7361572034409
 20
133.0465612287744
 30
0.0
 10
172.6284023472208
 20
133.0465612287744
 30
0.0
  0
SPLINE
  5
CF
330
1F
100
AcDbEntity
  8
0
  6
Continuous
 62
     7
370
    15
100
AcDbSpline
210
0.0
220
0.0
230
1.0
 70
     8
 71
     3
 72
    14
 73
    10
 74
     0
 42
0.000000001
 43
0.00000001
 40
0.0
 40
0.0
 40
0.0
 40
0.0
 40
0.25
 40
0.25
 40
0.5
 40
0.5
 40
0.75
 40
0.75
 40
1.0
 40
1.0
 40
1.0
 40
1.0
 10
170.4084023472208
 20
133.0465612287744
 30
0.0
 10
170.3010333027064
 20
133.0465612287744
 30
0.0
 10
170.1942278109436
 20
133.0694862241793
 30
0.0
 10
169.9990864424267
 20
133.1556786580535
 30
0.0
 10
169.9098767248368
 20
133.2195226547175
 30
0.0
 10
169.7639499320205
 20
133.3749387626588
 30
0.0
 10
169.7059601882224
 20
133.4675933408666
 30
0.0
 10
169.6283663466998
 20
133.6668266809161
 30
0.0
 10
169.6084023472208
 20
133.7734317759713
 30
0.0
 10
169.6084023472208
 20
133.8807828602947
 30
0.0
  0
LINE
  5
D0
330
1F
100
AcDbEntity
  8
0
  6
Continuous
 62
     7
370
    15
100
AcDbLine
 10
167.9965657052
 20
136.7250394517
 30
0.0
 11
164.2184023472
 21
136.7250394517
 31
0.0
  0
SPLINE
  5
D1
330
1F
100
AcDbEntity
  8
0
  6
Continuous
 62
     7
370
    15
100
AcDbSpline
210
0.0
220
0.0
230
1.0
 70
     8
 71
     3
 72
    10
 73
     6
 74
     0
 42
0.000000001
 43
0.00000001
 40
0.0
 40
0.0
 40
0.0
 40
0.0
 40
0.5
 40
0.5
 40
1.0
 40
1.0
 40
1.0
 40
1.0
 10
163.9056439485283
 20
136.6539999274446
 30
0.0
 10
163.8298043545248
 20
136.5839507411159
 30
0.0
 10
163.7624808367988
 20
136.4987319675423
 30
0.0
 10
163.6558371984937
 20
136.2885058408804
 30
0.0
 10
163.6184023472208
 20
136.1649966500131
 30
0.0
 10
163.6184023472208
 20
136.0350785294905
 30
0.0
  0
SPLINE
  5
D2
330
1F
100
AcDbEntity
  8
0
  6
Continuous
 62
     7
370
    15
100
AcDbSpline
210
0.0
220
0.0
230
1.0
 70
     8
 71
     3
 72
     8
 73
     4
 74
     0
 42
0.000000001
 43
0.00000001
 40
0.0
 40
0.0
 40
0.0
 40
0.0
 40
1.0
 40
1.0
 40
1.0
 40
1.0
 10
164.2184023472208
 20
136.7250394517032
 30
0.0
 10
164.1062240930411
 20
136.7250394517032
 30
0.0
 10
163.9975545803127
 20
136.6993583864422
 30
0.0
 10
163.9056439485283
 20
136.6539999274446
 30
0.0
  0
LINE
  5
D3
330
1F
100
AcDbEntity
  8
0
  6
Continuous
 62
     7
370
    15
100
AcDbLine
 10
163.6184023472
 20
131.4001157286
 30
0.0
 11
163.6184023472
 21
136.0350785295
 31
0.0
  0
LINE
  5
D4
330
1F
100
AcDbEntity
  8
0
  6
Continuous
 62
     7
370
    15
100
AcDbLine
 10
200.4184023472
 20
106.2287033725
 30
0.0
 11
200.4184023472
 21
93.9287033725
 31
0.0
  0
LINE
  5
D5
330
1F
100
AcDbEntity
  8
0
  6
Continuous
 62
     7
370
    15
100
AcDbLine
 10
200.4184023472
 20
118.5287033725
 30
0.0
 11
200.4184023472
 21
106.2287033725
 31
0.0
  0
LINE
  5
D6
330
1F
100
AcDbEntity
  8
0
  6
Continuous
 62
     7
370
    15
100
AcDbLine
 10
200.2184023472
 20
106.2287033725
 30
0.0
 11
200.2184023472
 21
93.7287033725
 31
0.0
  0
LINE
  5
D7
330
1F
100
AcDbEntity
  8
0
  6
Continuous
 62
     7
370
    15
100
AcDbLine
 10
200.2184023472
 20
118.7287033725
 30
0.0
 11
200.2184023472
 21
106.2287033725
 31
0.0
  0
SPLINE
  5
D8
330
1F
100
AcDbEntity
  8
0
  6
Continuous
 62
     7
370
    15
100
AcDbSpline
210
0.0
220
0.0
230
1.0
 70
    11
 71
     3
 72
    64
 73
    60
 74
     0
 42
0.000000001
 43
0.00000001
 40
0.0
 40
0.0
 40
0.0
 40
0.0
 40
0.0312500000000002
 40
0.0312500000000002
 40
0.0625000000000003
 40
0.0625000000000003
 40
0.0937500000000005
 40
0.0937500000000005
 40
0.1250000000000007
 40
0.1250000000000007
 40
0.1562500000000009
 40
0.1562500000000009
 40
0.1875000000000011
 40
0.1875000000000011
 40
0.2187500000000012
 40
0.2187500000000012
 40
0.2500000000000014
 40
0.2500000000000014
 40
0.2812500000000016
 40
0.2812500000000016
 40
0.3125000000000017
 40
0.3125000000000017
 40
0.3437500000000019
 40
0.3437500000000019
 40
0.3750000000000021
 40
0.3750000000000021
 40
0.4062500000000023
 40
0.4062500000000023
 40
0.4375000000000024
 40
0.4375000000000024
 40
0.4687500000000026
 40
0.4687500000000026
 40
0.5000000000000028
 40
0.5000000000000028
 40
0.531250000000003
 40
0.531250000000003
 40
0.5625000000000031
 40
0.5625000000000031
 40
0.6250000000000034
 40
0.6250000000000034
 40
0.6875000000000038
 40
0.6875000000000038
 40
0.7187500000000034
 40
0.7187500000000034
 40
0.750000000000003
 40
0.750000000000003
 40
0.7812500000000027
 40
0.7812500000000027
 40
0.8125000000000023
 40
0.8125000000000023
 40
0.8437500000000019
 40
0.8437500000000019
 40
0.8750000000000016
 40
0.8750000000000016
 40
0.9062500000000011
 40
0.9062500000000011
 40
0.9375000000000008
 40
0.9375000000000008
 40
1.0
 40
1.0
 40
1.0
 40
1.0
 10
191.8501996723278
 20
108.2259714138795
 30
0.0
 10
191.9953261909756
 20
108.345186630713
 30
0.0
 10
192.1494738742863
 20
108.4487095685764
 30
0.0
 10
192.4743731397258
 20
108.6272282028857
 30
0.0
 10
192.6464124041958
 20
108.7026056052374
 30
0.0
 10
193.0017719681326
 20
108.8222779469782
 30
0.0
 10
193.1827112871321
 20
108.8660351788214
 30
0.0
 10
193.5508813709938
 20
108.9227236850347
 30
0.0
 10
193.7399429510415
 20
108.9355356276915
 30
0.0
 10
194.1143149670834
 20
108.9288784374239
 30
0.0
 10
194.2993544987122
 20
108.9098031603058
 30
0.0
 10
194.6651837970844
 20
108.840381464574
 30
0.0
 10
194.8477122990462
 20
108.7892498230813
 30
0.0
 10
195.1965079770979
 20
108.6575058435906
 30
0.0
 10
195.3633907366861
 20
108.5771599935027
 30
0.0
 10
195.6818501429855
 20
108.3866670012662
 30
0.0
 10
195.8347782873655
 20
108.2750666605592
 30
0.0
 10
196.1121192544423
 20
108.0284143295846
 30
0.0
 10
196.2377561267294
 20
107.8930666798444
 30
0.0
 10
196.4613858723593
 20
107.5965726481307
 30
0.0
 10
196.559618512083
 20
107.4338488626702
 30
0.0
 10
196.7156609243001
 20
107.0969950428958
 30
0.0
 10
196.7751118947902
 20
106.9212162448521
 30
0.0
 10
196.8537793714611
 20
106.5536358602849
 30
0.0
 10
196.8717123767665
 20
106.3654351415786
 30
0.0
 10
196.8640765247907
 20
105.9928280444469
 30
0.0
 10
196.8381355037179
 20
105.8040517887048
 30
0.0
 10
196.7449588416804
 20
105.4413338153457
 30
0.0
 10
196.6784534942736
 20
105.267156200383
 30
0.0
 10
196.5069791413939
 20
104.9325783333422
 30
0.0
 10
196.4037566899964
 20
104.7760426902702
 30
0.0
 10
196.1686739922661
 20
104.487542736437
 30
0.0
 10
196.0348388468664
 20
104.3536933697495
 30
0.0
 10
195.7474331037247
 20
104.1166364054037
 30
0.0
 10
195.5935033197808
 20
104.0124708598867
 30
0.0
 10
195.2658049587552
 20
103.8316609019307
 30
0.0
 10
195.0931196725167
 20
103.7559884662579
 30
0.0
 10
194.5642433066161
 20
103.5770846715253
 30
0.0
 10
194.1860034685668
 20
103.5189500835815
 30
0.0
 10
193.4411494620991
 20
103.5313152223514
 30
0.0
 10
193.0650359399387
 20
103.6020835663922
 30
0.0
 10
192.5438188494743
 20
103.7983816755511
 30
0.0
 10
192.3745924105099
 20
103.8795112660969
 30
0.0
 10
192.0530398792739
 20
104.0719156838267
 30
0.0
 10
191.9034222611894
 20
104.1812958644845
 30
0.0
 10
191.6267167739184
 20
104.4269911043585
 30
0.0
 10
191.4983617238773
 20
104.5650095405951
 30
0.0
 10
191.2735459336638
 20
104.8635611398077
 30
0.0
 10
191.1779246308923
 20
105.02220945899
 30
0.0
 10
191.0215992029717
 20
105.3591847253312
 30
0.0
 10
190.9606222839224
 20
105.5401468330438
 30
0.0
 10
190.8828862428306
 20
105.9054828434698
 30
0.0
 10
190.8649894740678
 20
106.0909472005255
 30
0.0
 10
190.8728746556497
 20
106.4677103224525
 30
0.0
 10
190.8990133473659
 20
106.6550648990252
 30
0.0
 10
190.9921102326425
 20
107.016729466735
 30
0.0
 10
191.0603105319414
 20
107.1946500059875
 30
0.0
 10
191.3166852467313
 20
107.6931374931651
 30
0.0
 10
191.5599466350322
 20
107.9875409802127
 30
0.0
 10
191.8501996723278
 20
108.2259714138795
 30
0.0
  0
LINE
  5
D9
330
1F
100
AcDbEntity
  8
0
  6
Continuous
 62
     7
370
    15
100
AcDbLine
 10
92.1684023472
 20
94.8215727755
 30
0.0
 11
92.1684023472
 21
117.6358339269
 31
0.0
  0
CIRCLE
  5
DA
330
1F
100
AcDbEntity
  8
0
  6
HIDDEN
 62
     7
370
     0
100
AcDbCircle
 10
193.8684023472
 20
106.2287033725
 30
0.0
 40
2.500000000000024
  0
CIRCLE
  5
DB
330
1F
100
AcDbEntity
  8
0
  6
HIDDEN
 62
     7
370
     0
100
AcDbCircle
 10
193.8684023472
 20
106.2287033725
 30
0.0
 40
1.776794919243116
  0
CIRCLE
  5
DC
330
1F
100
AcDbEntity
  8
0
  6
HIDDEN
 62
     7
370
     0
100
AcDbCircle
 10
193.8684023472
 20
106.2287033725
 30
0.0
 40
1.67679491924315
  0
LINE
  5
DD
330
1F
100
AcDbEntity
  8
0
  6
HIDDEN
 62
     7
370
     0
100
AcDbLine
 10
163.6184023472
 20
131.0287033725
 30
0.0
 11
163.9556606474
 21
131.0287033725
 31
0.0
  0
ELLIPSE
  5
DE
330
1F
100
AcDbEntity
  8
0
  6
HIDDEN
 62
     7
370
     0
100
AcDbEllipse
 10
163.9556606474
 20
132.6287033725
 30
0.0
 11
0.0
 21
1.599999999999994
 31
0.0
210
0.0
220
0.0
230
1.0
 40
0.4142135624
 41
3.141592653589793
 42
4.712388980384695
  0
LINE
  5
DF
330
1F
100
AcDbEntity
  8
0
  6
HIDDEN
 62
     7
370
     0
100
AcDbLine
 10
163.9556606474
 20
83.6287033725
 30
0.0
 11
163.6184023472
 21
83.6287033725
 31
0.0
  0
ELLIPSE
  5
E0
330
1F
100
AcDbEntity
  8
0
  6
HIDDEN
 62
     7
370
     0
100
AcDbEllipse
 10
163.9556606474
 20
82.0287033725
 30
0.0
 11
0.0
 21
1.600000000000009
 31
0.0
210
0.0
220
0.0
230
1.0
 40
0.4142135624
 41
4.712388980384695
 42
6.283185307179586
  0
LINE
  5
E1
330
1F
100
AcDbEntity
  8
0
  6
HIDDEN
 62
     7
370
     0
100
AcDbLine
 10
164.6184023472
 20
76.3352550259
 30
0.0
 11
163.8345468886
 21
75.876973523
 31
0.0
  0
LINE
  5
E2
330
1F
100
AcDbEntity
  8
0
  6
HIDDEN
 62
     7
370
     0
100
AcDbLine
 10
163.9056439485
 20
136.6539999274
 30
0.0
 11
164.6184023472
 21
135.9412415288
 31
0.0
  0
LINE
  5
E3
330
1F
100
AcDbEntity
  8
0
  6
HIDDEN
 62
     7
370
     0
100
AcDbLine
 10
99.1684023472
 20
97.7287033725
 30
0.0
 11
99.1684023472
 21
114.7287033725
 31
0.0
  0
LINE
  5
E4
330
1F
100
AcDbEntity
  8
0
  6
HIDDEN
 62
     7
370
     0
100
AcDbLine
 10
102.1643315616
 20
99.2287033725
 30
0.0
 11
102.1643315616
 21
113.2287033725
 31
0.0
  0
LINE
  5
E5
330
1F
100
AcDbEntity
  8
0
  6
HIDDEN
 62
     7
370
     0
100
AcDbLine
 10
168.4536127435
 20
76.3352550259
 30
0.0
 11
164.6184023472
 21
76.3352550259
 31
0.0
  0
LINE
  5
E6
330
1F
100
AcDbEntity
  8
0
  6
HIDDEN
 62
     7
370
     0
100
AcDbLine
 10
179.4684023472
 20
76.3352550259
 30
0.0
 11
174.5831919509
 21
76.3352550259
 31
0.0
  0
LINE
  5
E7
330
1F
100
AcDbEntity
  8
0
  6
HIDDEN
 62
     7
370
     0
100
AcDbLine
 10
164.6184023472
 20
76.3352550259
 30
0.0
 11
164.6184023472
 21
82.0287033725
 31
0.0
  0
LINE
  5
E8
330
1F
100
AcDbEntity
  8
0
  6
HIDDEN
 62
     7
370
     0
100
AcDbLine
 10
179.4684023472
 20
83.6287033725
 30
0.0
 11
163.9556606474
 21
83.6287033725
 31
0.0
  0
LINE
  5
E9
330
1F
100
AcDbEntity
  8
0
  6
HIDDEN
 62
     7
370
     0
100
AcDbLine
 10
164.6184023472
 20
135.9412415288
 30
0.0
 11
168.5544476609
 21
135.9412415288
 31
0.0
  0
LINE
  5
EA
330
1F
100
AcDbEntity
  8
0
  6
HIDDEN
 62
     7
370
     0
100
AcDbLine
 10
174.4823570335
 20
135.9412415288
 30
0.0
 11
179.4684023472
 21
135.9412415288
 31
0.0
  0
LINE
  5
EB
330
1F
100
AcDbEntity
  8
0
  6
HIDDEN
 62
     7
370
     0
100
AcDbLine
 10
164.6184023472
 20
135.9412415288
 30
0.0
 11
164.6184023472
 21
132.6287033725
 31
0.0
  0
LINE
  5
EC
330
1F
100
AcDbEntity
  8
0
  6
HIDDEN
 62
     7
370
     0
100
AcDbLine
 10
163.9556606474
 20
131.0287033725
 30
0.0
 11
179.4684023472
 21
131.0287033725
 31
0.0
  0
SPLINE
  5
ED
330
1F
100
AcDbEntity
  8
0
  6
HIDDEN
 62
     7
370
     0
100
AcDbSpline
210
0.0
220
0.0
230
1.0
 70
     8
 71
     3
 72
    16
 73
    12
 74
     0
 42
0.000000001
 43
0.00000001
 40
0.0
 40
0.0
 40
0.0
 40
0.0
 40
0.2500000000000001
 40
0.2500000000000001
 40
0.5000000000000001
 40
0.5000000000000001
 40
0.6250000000000001
 40
0.6250000000000001
 40
0.7500000000000002
 40
0.7500000000000002
 40
1.0
 40
1.0
 40
1.0
 40
1.0
 10
200.4184023472208
 20
113.069540487865
 30
0.0
 10
200.4184023472207
 20
113.0010695656813
 30
0.0
 10
200.4138571370453
 20
112.9311413240289
 30
0.0
 10
200.3881871719215
 20
112.7859720939418
 30
0.0
 10
200.3664602920391
 20
112.707621371871
 30
0.0
 10
200.3075008615795
 20
112.6054498230106
 30
0.0
 10
200.2828507345959
 20
112.5742614937431
 30
0.0
 10
200.2285337417991
 20
112.5280535766438
 30
0.0
 10
200.1997638100841
 20
112.5133165601701
 30
0.0
 10
200.1170614400736
 20
112.4881189114559
 30
0.0
 10
200.065771963467
 20
112.4936957490332
 30
0.0
 10
200.0184023472132
 20
112.5062491022823
 30
0.0
  0
SPLINE
  5
EE
330
1F
100
AcDbEntity
  8
0
  6
HIDDEN
 62
     7
370
     0
100
AcDbSpline
210
0.0
220
0.0
230
1.0
 70
     8
 71
     3
 72
     8
 73
     4
 74
     0
 42
0.000000001
 43
0.00000001
 40
0.0
 40
0.0
 40
0.0
 40
0.0
 40
1.0
 40
1.0
 40
1.0
 40
1.0
 10
200.0184023472157
 20
112.5062491022916
 30
0.0
 10
199.9595070225875
 20
112.4732972456193
 30
0.0
 10
199.889897393308
 20
112.4516312896629
 30
0.0
 10
199.8184023472209
 20
112.4516312896628
 30
0.0
  0
SPLINE
  5
EF
330
1F
100
AcDbEntity
  8
0
  6
HIDDEN
 62
     7
370
     0
100
AcDbSpline
210
0.0
220
0.0
230
1.0
 70
     8
 71
     3
 72
     8
 73
     4
 74
     0
 42
0.000000001
 43
0.00000001
 40
0.0
 40
0.0
 40
0.0
 40
0.0
 40
1.0
 40
1.0
 40
1.0
 40
1.0
 10
200.0184023472305
 20
99.95115764267531
 30
0.0
 10
199.9595070225991
 20
99.98410949935212
 30
0.0
 10
199.889897393314
 20
100.0057754553123
 30
0.0
 10
199.8184023472209
 20
100.0057754553123
 30
0.0
  0
SPLINE
  5
F0
330
1F
100
AcDbEntity
  8
0
  6
HIDDEN
 62
     7
370
     0
100
AcDbSpline
210
0.0
220
0.0
230
1.0
 70
     8
 71
     3
 72
    16
 73
    12
 74
     0
 42
0.000000001
 43
0.00000001
 40
0.0
 40
0.0
 40
0.0
 40
0.0
 40
0.2499999999999981
 40
0.2499999999999981
 40
0.3749999999999976
 40
0.3749999999999976
 40
0.4999999999999971
 40
0.4999999999999971
 40
0.7499999999999986
 40
0.7499999999999986
 40
1.0
 40
1.0
 40
1.0
 40
1.0
 10
200.0184023472305
 20
99.95115764267508
 30
0.0
 10
200.0657843119974
 20
99.9637143333573
 30
0.0
 10
200.1169655305276
 20
99.96933909112101
 30
0.0
 10
200.1999205924446
 20
99.94403844046559
 30
0.0
 10
200.2286029536064
 20
99.92929388372623
 30
0.0
 10
200.2827107585104
 20
99.8832823163522
 30
0.0
 10
200.3071065126286
 20
99.8525495008061
 30
0.0
 10
200.3664180753662
 20
99.75006756030126
 30
0.0
 10
200.3879456292662
 20
99.67241000149077
 30
0.0
 10
200.413775884014
 20
99.52712388094268
 30
0.0
 10
200.4184023472208
 20
99.45639161412967
 30
0.0
 10
200.4184023472208
 20
99.38787074092515
 30
0.0
  0
LINE
  5
F1
330
1F
100
AcDbEntity
  8
0
  6
HIDDEN
 62
     7
370
     0
100
AcDbLine
 10
183.9184023472
 20
106.2287033725
 30
0.0
 11
183.9184023472
 21
99.5287033725
 31
0.0
  0
LINE
  5
F2
330
1F
100
AcDbEntity
  8
0
  6
HIDDEN
 62
     7
370
     0
100
AcDbLine
 10
183.9184023472
 20
112.9287033725
 30
0.0
 11
183.9184023472
 21
106.2287033725
 31
0.0
  0
LINE
  5
F3
330
1F
100
AcDbEntity
  8
0
  6
HIDDEN
 62
     7
370
     0
100
AcDbLine
 10
187.284427751
 20
106.2287033725
 30
0.0
 11
187.284427751
 21
99.2287033725
 31
0.0
  0
LINE
  5
F4
330
1F
100
AcDbEntity
  8
0
  6
HIDDEN
 62
     7
370
     0
100
AcDbLine
 10
187.284427751
 20
113.2287033725
 30
0.0
 11
187.284427751
 21
106.2287033725
 31
0.0
  0
LINE
  5
F5
330
1F
100
AcDbEntity
  8
0
  6
HIDDEN
 62
     7
370
     0
100
AcDbLine
 10
193.5184023472
 20
112.4516312897
 30
0.0
 11
199.8184023472
 21
112.4516312897
 31
0.0
  0
LINE
  5
F6
330
1F
100
AcDbEntity
  8
0
  6
HIDDEN
 62
     7
370
     0
100
AcDbLine
 10
193.5184023472
 20
100.0057754553
 30
0.0
 11
199.8184023472
 21
100.0057754553
 31
0.0
  0
LINE
  5
F7
330
1F
100
AcDbEntity
  8
0
  6
HIDDEN
 62
     7
370
     0
100
AcDbLine
 10
135.1684023472
 20
99.2287033725
 30
0.0
 11
135.1684023472
 21
113.2287033725
 31
0.0
  0
LINE
  5
F8
330
1F
100
AcDbEntity
  8
0
  6
HIDDEN
 62
     7
370
     0
100
AcDbLine
 10
137.8722751328
 20
103.7287033725
 30
0.0
 11
137.8722751328
 21
108.7287033725
 31
0.0
  0
SPLINE
  5
F9
330
1F
100
AcDbEntity
  8
0
  6
HIDDEN
 62
     7
370
     0
100
AcDbSpline
210
0.0
220
0.0
230
1.0
 70
     8
 71
     3
 72
    14
 73
    10
 74
     0
 42
0.000000001
 43
0.00000001
 40
0.0
 40
0.0
 40
0.0
 40
0.0
 40
0.25
 40
0.25
 40
0.5
 40
0.5
 40
0.75
 40
0.75
 40
1.0
 40
1.0
 40
1.0
 40
1.0
 10
200.0184023472208
 20
115.3037033724876
 30
0.0
 10
200.0184023472207
 20
115.4363759364244
 30
0.0
 10
200.0185700162456
 20
115.5565897351814
 30
0.0
 10
200.0162049788176
 20
115.77288258611
 30
0.0
 10
200.0141380458286
 20
115.8684539531595
 30
0.0
 10
200.0086775547377
 20
116.0240895090594
 30
0.0
 10
200.0049795848018
 20
116.0863575892946
 30
0.0
 10
199.9977749892128
 20
116.1725077472312
 30
0.0
 10
199.9942359036923
 20
116.1970859125655
 30
0.0
 10
199.9916503038251
 20
116.2025555013337
 30
0.0
  0
SPLINE
  5
FA
330
1F
100
AcDbEntity
  8
0
  6
HIDDEN
 62
     7
370
     0
100
AcDbSpline
210
0.0
220
0.0
230
1.0
 70
     8
 71
     3
 72
    14
 73
    10
 74
     0
 42
0.000000001
 43
0.00000001
 40
0.0
 40
0.0
 40
0.0
 40
0.0
 40
0.112406573792857
 40
0.2781074408629181
 40
0.4385721384457973
 40
0.6036781339276385
 40
0.7644102755914953
 40
0.9297920765957726
 40
0.9999999999999999
 40
0.9999999999999999
 40
0.9999999999999999
 40
0.9999999999999999
 10
199.9906386116573
 20
116.1982765155304
 30
0.0
 10
199.989700214667
 20
116.1969975106849
 30
0.0
 10
199.9873785071662
 20
116.1938330982096
 30
0.0
 10
199.9883022637796
 20
116.130335077581
 30
0.0
 10
199.9935176290625
 20
116.0171585773427
 30
0.0
 10
200.0022040149674
 20
115.858042665251
 30
0.0
 10
200.011977063853
 20
115.6564052633846
 30
0.0
 10
200.0176440924614
 20
115.4655613839319
 30
0.0
 10
200.018228251118
 20
115.3408642694112
 30
0.0
 10
200.0184023358168
 20
115.3037033724876
 30
0.0
  0
LWPOLYLINE
  5
FB
330
1F
100
AcDbEntity
  8
0
  6
HIDDEN
 62
     7
370
     0
100
AcDbPolyline
 90
        4
 70
   128
 43
0.0
 10
200.0184023358
 20
115.3037033725
 10
200.0184023509
 20
114.8230432648
 10
200.0184023462
 20
112.9004028341
 10
200.0184023472
 20
112.5062491023
  0
LINE
  5
FC
330
1F
100
AcDbEntity
  8
0
  6
HIDDEN
 62
     7
370
     0
100
AcDbLine
 10
200.0184023518
 20
97.1537033725
 30
0.0
 11
200.0184023472
 21
99.9511576427
 31
0.0
  0
SPLINE
  5
FD
330
1F
100
AcDbEntity
  8
0
  6
HIDDEN
 62
     7
370
     0
100
AcDbSpline
210
0.0
220
0.0
230
1.0
 70
     8
 71
     3
 72
    14
 73
    10
 74
     0
 42
0.000000001
 43
0.00000001
 40
0.0
 40
0.0
 40
0.0
 40
0.0
 40
0.1122582900553563
 40
0.2779762477886941
 40
0.4384585881334993
 40
0.6035827756123925
 40
0.7643327131333233
 40
0.9297325884562597
 40
0.9999999999999999
 40
0.9999999999999999
 40
0.9999999999999999
 40
0.9999999999999999
 10
199.9906359785544
 20
96.25914277868158
 30
0.0
 10
199.98970002603
 20
96.26041745025621
 30
0.0
 10
199.9873824014633
 20
96.26357381778418
 30
0.0
 10
199.988295883513
 20
96.3270424370248
 30
0.0
 10
199.9935199162064
 20
96.44020026594615
 30
0.0
 10
200.0022036346655
 20
96.59930346026431
 30
0.0
 10
200.0119501548958
 20
96.80093001058313
 30
0.0
 10
200.0176824999629
 20
96.99179060448475
 30
0.0
 10
200.0182370154581
 20
97.11651507327682
 30
0.0
 10
200.0184023518058
 20
97.15370337248757
 30
0.0
  0
LINE
  5
FE
330
1F
100
AcDbEntity
  8
0
  6
HIDDEN
 62
     7
370
     0
100
AcDbLine
 10
193.5184023472
 20
97.1537033725
 30
0.0
 11
193.5184023472
 21
100.0057754553
 31
0.0
  0
LINE
  5
FF
330
1F
100
AcDbEntity
  8
0
  6
HIDDEN
 62
     7
370
     0
100
AcDbLine
 10
193.5184023472
 20
115.3037033725
 30
0.0
 11
193.5184023472
 21
112.4516312897
 31
0.0
  0
LINE
  5
100
330
1F
100
AcDbEntity
  8
0
  6
HIDDEN
 62
     7
370
     0
100
AcDbLine
 10
193.5184023472
 20
116.2037033725
 30
0.0
 11
193.5184023472
 21
115.3037033725
 31
0.0
  0
LINE
  5
101
330
1F
100
AcDbEntity
  8
0
  6
HIDDEN
 62
     7
370
     0
100
AcDbLine
 10
193.5184023472
 20
96.2537033725
 30
0.0
 11
193.5184023472
 21
97.1537033725
 31
0.0
  0
LINE
  5
102
330
1F
100
AcDbEntity
  8
0
  6
HIDDEN
 62
     7
370
     0
100
AcDbLine
 10
169.6084023472
 20
128.425944192
 30
0.0
 11
169.6084023472
 21
124.5787033725
 31
0.0
  0
LINE
  5
103
330
1F
100
AcDbEntity
  8
0
  6
HIDDEN
 62
     7
370
     0
100
AcDbLine
 10
173.4284023472
 20
128.425944192
 30
0.0
 11
173.4284023472
 21
124.5787033725
 31
0.0
  0
LINE
  5
104
330
1F
100
AcDbEntity
  8
0
  6
HIDDEN
 62
     7
370
     0
100
AcDbLine
 10
167.9965657052
 20
132.1389330125
 30
0.0
 11
167.9965657052
 21
124.5787033725
 31
0.0
  0
LINE
  5
105
330
1F
100
AcDbEntity
  8
0
  6
HIDDEN
 62
     7
370
     0
100
AcDbLine
 10
175.0402389893
 20
132.1389330125
 30
0.0
 11
175.0402389893
 21
124.5787033725
 31
0.0
  0
ARC
  5
106
330
1F
100
AcDbEntity
  8
0
  6
HIDDEN
 62
     7
370
     0
100
AcDbCircle
 10
92.9684023472
 20
96.9287033725
 30
0.0
 40
0.7999999999999972
100
AcDbArc
 50
90.0
 51
180.0
  0
ARC
  5
107
330
1F
100
AcDbEntity
  8
0
  6
HIDDEN
 62
     7
370
     0
100
AcDbCircle
 10
92.9684023472
 20
115.5287033725
 30
0.0
 40
0.7999999999999972
100
AcDbArc
 50
180.0
 51
270.0
  0
ARC
  5
108
330
1F
100
AcDbEntity
  8
0
  6
HIDDEN
 62
     7
370
     0
100
AcDbCircle
 10
100.9374622395
 20
97.9037033725
 30
0.0
 40
0.4000000000000173
100
AcDbArc
 50
270.0
 51
330.0
  0
ARC
  5
109
330
1F
100
AcDbEntity
  8
0
  6
HIDDEN
 62
     7
370
     0
100
AcDbCircle
 10
100.9374622395
 20
114.5537033725
 30
0.0
 40
0.4000000000000173
100
AcDbArc
 50
30.0
 51
90.0
  0
LINE
  5
10A
330
1F
100
AcDbEntity
  8
0
  6
HIDDEN
 62
     7
370
     0
100
AcDbLine
 10
100.060774778
 20
97.5037033725
 30
0.0
 11
100.9374622395
 21
97.5037033725
 31
0.0
  0
LINE
  5
10B
330
1F
100
AcDbEntity
  8
0
  6
HIDDEN
 62
     7
370
     0
100
AcDbLine
 10
100.9374622395
 20
114.9537033725
 30
0.0
 11
100.060774778
 21
114.9537033725
 31
0.0
  0
ARC
  5
10C
330
1F
100
AcDbEntity
  8
0
  6
HIDDEN
 62
     7
370
     0
100
AcDbCircle
 10
100.060774778
 20
97.9037033725
 30
0.0
 40
0.3999999999999915
100
AcDbArc
 50
255.0
 51
270.0
  0
ARC
  5
10D
330
1F
100
AcDbEntity
  8
0
  6
HIDDEN
 62
     7
370
     0
100
AcDbCircle
 10
100.060774778
 20
114.5537033725
 30
0.0
 40
0.3999999999999986
100
AcDbArc
 50
90.0
 51
105.0
  0
LINE
  5
10E
330
1F
100
AcDbEntity
  8
0
  6
HIDDEN
 62
     7
370
     0
100
AcDbLine
 10
99.9572471599
 20
114.940073703
 30
0.0
 11
99.1684023472
 21
114.7287033725
 31
0.0
  0
LINE
  5
10F
330
1F
100
AcDbEntity
  8
0
  6
HIDDEN
 62
     7
370
     0
100
AcDbLine
 10
99.1684023472
 20
97.7287033725
 30
0.0
 11
99.9572471599
 21
97.517333042
 31
0.0
  0
LINE
  5
110
330
1F
100
AcDbEntity
  8
0
  6
HIDDEN
 62
     7
370
     0
100
AcDbLine
 10
101.2838724011
 20
97.7037033725
 30
0.0
 11
102.1643315616
 21
99.2287033725
 31
0.0
  0
LINE
  5
111
330
1F
100
AcDbEntity
  8
0
  6
HIDDEN
 62
     7
370
     0
100
AcDbLine
 10
102.1643315616
 20
113.2287033725
 30
0.0
 11
101.2838724011
 21
114.7537033725
 31
0.0
  0
LINE
  5
112
330
1F
100
AcDbEntity
  8
0
  6
HIDDEN
 62
     7
370
     0
100
AcDbLine
 10
92.9684023472
 20
97.7287033725
 30
0.0
 11
99.1684023472
 21
97.7287033725
 31
0.0
  0
LINE
  5
113
330
1F
100
AcDbEntity
  8
0
  6
HIDDEN
 62
     7
370
     0
100
AcDbLine
 10
99.1684023472
 20
114.7287033725
 30
0.0
 11
92.9684023472
 21
114.7287033725
 31
0.0
  0
LINE
  5
114
330
1F
100
AcDbEntity
  8
0
  6
HIDDEN
 62
     7
370
     0
100
AcDbLine
 10
185.3130803492
 20
113.7287033725
 30
0.0
 11
184.7184023472
 21
113.7287033725
 31
0.0
  0
LINE
  5
115
330
1F
100
AcDbEntity
  8
0
  6
HIDDEN
 62
     7
370
     0
100
AcDbLine
 10
184.7184023472
 20
98.7287033725
 30
0.0
 11
185.3130803492
 21
98.7287033725
 31
0.0
  0
ARC
  5
116
330
1F
100
AcDbEntity
  8
0
  6
HIDDEN
 62
     7
370
     0
100
AcDbCircle
 10
185.3130803492
 20
112.9287033725
 30
0.0
 40
0.7999999999999972
100
AcDbArc
 50
75.0
 51
90.0
  0
ARC
  5
117
330
1F
100
AcDbEntity
  8
0
  6
HIDDEN
 62
     7
370
     0
100
AcDbCircle
 10
185.3130803492
 20
99.5287033725
 30
0.0
 40
0.7999999999999972
100
AcDbArc
 50
270.0
 51
285.0
  0
ARC
  5
118
330
1F
100
AcDbEntity
  8
0
  6
HIDDEN
 62
     7
370
     0
100
AcDbCircle
 10
184.7184023472
 20
112.9287033725
 30
0.0
 40
0.7999999999999972
100
AcDbArc
 50
90.0
 51
180.0
  0
ARC
  5
119
330
1F
100
AcDbEntity
  8
0
  6
HIDDEN
 62
     7
370
     0
100
AcDbCircle
 10
184.7184023472
 20
99.5287033725
 30
0.0
 40
0.7999999999999972
100
AcDbArc
 50
180.0
 51
270.0
  0
LINE
  5
11A
330
1F
100
AcDbEntity
  8
0
  6
HIDDEN
 62
     7
370
     0
100
AcDbLine
 10
185.5201355852
 20
98.7559627115
 30
0.0
 11
187.284427751
 21
99.2287033725
 31
0.0
  0
LINE
  5
11B
330
1F
100
AcDbEntity
  8
0
  6
HIDDEN
 62
     7
370
     0
100
AcDbLine
 10
187.284427751
 20
113.2287033725
 30
0.0
 11
185.5201355852
 21
113.7014440335
 31
0.0
  0
LINE
  5
11C
330
1F
100
AcDbEntity
  8
0
  6
HIDDEN
 62
     7
370
     0
100
AcDbLine
 10
193.5184023472
 20
113.2287033725
 30
0.0
 11
187.284427751
 21
113.2287033725
 31
0.0
  0
LINE
  5
11D
330
1F
100
AcDbEntity
  8
0
  6
HIDDEN
 62
     7
370
     0
100
AcDbLine
 10
187.284427751
 20
99.2287033725
 30
0.0
 11
193.5184023472
 21
99.2287033725
 31
0.0
  0
LINE
  5
11E
330
1F
100
AcDbEntity
  8
0
  6
HIDDEN
 62
     7
370
     0
100
AcDbLine
 10
135.1684023472
 20
99.2287033725
 30
0.0
 11
137.8722751328
 21
103.7287033725
 31
0.0
  0
LINE
  5
11F
330
1F
100
AcDbEntity
  8
0
  6
HIDDEN
 62
     7
370
     0
100
AcDbLine
 10
137.8722751328
 20
108.7287033725
 30
0.0
 11
135.1684023472
 21
113.2287033725
 31
0.0
  0
LINE
  5
120
330
1F
100
AcDbEntity
  8
0
  6
HIDDEN
 62
     7
370
     0
100
AcDbLine
 10
102.1643315616
 20
99.2287033725
 30
0.0
 11
135.1684023472
 21
99.2287033725
 31
0.0
  0
LINE
  5
121
330
1F
100
AcDbEntity
  8
0
  6
HIDDEN
 62
     7
370
     0
100
AcDbLine
 10
135.1684023472
 20
113.2287033725
 30
0.0
 11
102.1643315616
 21
113.2287033725
 31
0.0
  0
LINE
  5
122
330
1F
100
AcDbEntity
  8
0
  6
HIDDEN
 62
     7
370
     0
100
AcDbLine
 10
200.4184023472
 20
116.6316517874
 30
0.0
 11
199.9844186169
 21
116.1976682053
 31
0.0
  0
LINE
  5
123
330
1F
100
AcDbEntity
  8
0
  6
HIDDEN
 62
     7
370
     0
100
AcDbLine
 10
199.9844180826
 20
96.2597394975
 30
0.0
 11
200.4184023472
 21
95.825755325
 31
0.0
  0
LINE
  5
124
330
1F
100
AcDbEntity
  8
0
  6
HIDDEN
 62
     7
370
     0
100
AcDbLine
 10
137.8722751328
 20
103.7287033725
 30
0.0
 11
183.9184023472
 21
103.7287033725
 31
0.0
  0
LINE
  5
125
330
1F
100
AcDbEntity
  8
0
  6
HIDDEN
 62
     7
370
     0
100
AcDbLine
 10
183.9184023472
 20
108.7287033725
 30
0.0
 11
137.8722751328
 21
108.7287033725
 31
0.0
  0
LINE
  5
126
330
1F
100
AcDbEntity
  8
0
  6
HIDDEN
 62
     7
370
     0
100
AcDbLine
 10
199.9909311773
 20
116.2037033725
 30
0.0
 11
193.5184023472
 21
116.2037033725
 31
0.0
  0
LINE
  5
127
330
1F
100
AcDbEntity
  8
0
  6
HIDDEN
 62
     7
370
     0
100
AcDbLine
 10
193.5184023472
 20
96.2537033725
 30
0.0
 11
199.9909304959
 21
96.2537033725
 31
0.0
  0
DIMENSION
  5
128
330
1F
100
AcDbEntity
  8
VERMASSUNG
100
AcDbDimension
  2
_D
 10
85.648154041
 20
137.9787033725
 30
0.0
 11
85.648154041
 21
106.2287033725
 31
0.0
 70
   160
  1
ISO 40 %%c<>
 71
     2
 42
-1.0
  3
SLDDIMSTYLE0
100
AcDbAlignedDimension
 13
178.8684023472
 23
74.4787033725
 33
0.0
 14
178.8684023472
 24
137.9787033725
 34
0.0
 50
90.0
100
AcDbRotatedDimension
  0
DIMENSION
  5
135
330
1F
100
AcDbEntity
  8
VERMASSUNG
100
AcDbDimension
  2
_D_1
 10
207.3346379772
 20
99.2287033725
 30
0.0
 11
207.3346379772
 21
106.2287033725
 31
0.0
 70
   160
  1
%%c<>
 71
     2
 42
-1.0
  3
SLDDIMSTYLE0
100
AcDbAlignedDimension
 13
193.5184023472
 23
113.2287033725
 33
0.0
 14
193.5184023472
 24
99.2287033725
 34
0.0
 50
90.0
100
AcDbRotatedDimension
  0
DIMENSION
  5
140
330
1F
100
AcDbEntity
  8
VERMASSUNG
100
AcDbDimension
  2
_D_2
 10
200.4184023472
 20
141.1462222139
 30
0.0
 11
189.9434023472
 21
141.1462222139
 31
0.0
 70
   160
  1
(<>)
 71
     2
 42
-1.0
  3
SLDDIMSTYLE0
100
AcDbAlignedDimension
 13
179.4684023472
 23
136.2392545059
 33
0.0
 14
200.4184023472
 24
118.5287033725
 34
0.0
100
AcDbRotatedDimension
  0
DIMENSION
  5
14C
330
1F
100
AcDbEntity
  8
VERMASSUNG
100
AcDbDimension
  2
_D_3
 10
200.4184023472
 20
147.1462222139
 30
0.0
 11
180.4184023472
 21
147.1462222139
 31
0.0
 70
   160
  1
<>
 71
     2
 42
-1.0
  3
SLDDIMSTYLE0
100
AcDbAlignedDimension
 13
160.4184023472
 23
128.4537033725
 33
0.0
 14
200.4184023472
 24
118.5287033725
 34
0.0
100
AcDbRotatedDimension
  0
DIMENSION
  5
156
330
1F
100
AcDbEntity
  8
VERMASSUNG
100
AcDbDimension
  2
_D_4
 10
200.4184023472
 20
153.1462222139
 30
0.0
 11
146.2934023472
 21
153.1462222139
 31
0.0
 70
   160
  1
(<>)
 71
     2
 42
-1.0
  3
SLDDIMSTYLE0
100
AcDbAlignedDimension
 13
92.1684023472
 23
117.6358339695
 33
0.0
 14
200.4184023472
 24
118.5287033725
 34
0.0
100
AcDbRotatedDimension
  0
DIMENSION
  5
162
330
1F
100
AcDbEntity
  8
VERMASSUNG
100
AcDbDimension
  2
_D_5
 10
213.3346379772
 20
93.7287033725
 30
0.0
 11
213.3346379772
 21
106.2287033725
 31
0.0
 70
   160
  1
ST2 %%c<>
 71
     2
 42
-1.0
  3
SLDDIMSTYLE0
100
AcDbAlignedDimension
 13
200.2184023472
 23
118.7287033725
 33
0.0
 14
200.2184023472
 24
93.7287033725
 34
0.0
 50
90.0
100
AcDbRotatedDimension
  0
LINE
  5
16E
330
1F
100
AcDbEntity
  8
VERMASSUNG
  6
CENTERX2
 62
     7
370
     0
100
AcDbLine
 10
90.1684023472
 20
106.2287033725
 30
0.0
 11
202.4772239361
 21
106.2287033725
 31
0.0
  0
SPLINE
  5
16F
330
1F
100
AcDbEntity
  8
0
  6
Continuous
 62
     7
370
    15
100
AcDbSpline
210
0.0
220
0.0
230
1.0
 70
     8
 71
     3
 72
    33
 73
    29
 74
     0
 42
0.000000001
 43
0.00000001
 40
0.0
 40
0.0
 40
0.0
 40
0.0
 40
0.0089258117308659
 40
0.0497318968726422
 40
0.0906429343914461
 40
0.1317134637369181
 40
0.1729304242765514
 40
0.2142628831400341
 40
0.2556747795479338
 40
0.2971336533298029
 40
0.3386145025549692
 40
0.3800982644435026
 40
0.4215740115355534
 40
0.4630373708918555
 40
0.5044868605998927
 40
0.5459228321101065
 40
0.587346748577954
 40
0.6287607192028409
 40
0.6701672130192772
 40
0.7115688918588088
 40
0.7529685189497825
 40
0.7943689126668888
 40
0.8357720492690122
 40
0.8771807283634083
 40
0.9185978209304825
 40
0.9600261548744004
 40
0.9992919518973897
 40
1.0
 40
1.0
 40
1.0
 40
1.0
 10
259.0811540870195
 20
58.57180738230608
 30
0.0
 10
259.0280533149413
 20
58.58538828964793
 30
0.0
 10
258.7321920307824
 20
58.66105695752118
 30
0.0
 10
258.1669171620865
 20
58.73680187847509
 30
0.0
 10
257.3752889472533
 20
58.76244506129083
 30
0.0
 10
256.5528952864876
 20
58.69468410849596
 30
0.0
 10
255.706348049576
 20
58.5380717835401
 30
0.0
 10
254.8404665656193
 20
58.29219286884317
 30
0.0
 10
253.9609801507593
 20
57.95886148482062
 30
0.0
 10
253.0735324971051
 20
57.54016786026505
 30
0.0
 10
252.183806985942
 20
57.03892774011447
 30
0.0
 10
251.2973950519438
 20
56.45846511062707
 30
0.0
 10
250.4197745129237
 20
55.80257970838878
 30
0.0
 10
249.5562852125451
 20
55.07547820011553
 30
0.0
 10
248.712136973768
 20
54.28175044690428
 30
0.0
 10
247.8924112334813
 20
53.4263557134782
 30
0.0
 10
247.1020419416487
 20
52.51459912087772
 30
0.0
 10
246.3457925590336
 20
51.55210555280332
 30
0.0
 10
245.6282306317291
 20
50.54479044902838
 30
0.0
 10
244.9537024112075
 20
49.49882763130849
 30
0.0
 10
244.3263046378839
 20
48.42061332080168
 30
0.0
 10
243.7498733979879
 20
47.31673886969097
 30
0.0
 10
243.2279211025008
 20
46.19393460232283
 30
0.0
 10
242.7637453366888
 20
45.05906483334154
 30
0.0
 10
242.3599234667268
 20
43.91893805220069
 30
0.0
 10
242.0260645584587
 20
42.80072359158762
 30
0.0
 10
241.8430905320251
 20
42.06042590022997
 30
0.0
 10
241.7656161938637
 20
41.69989320548032
 30
0.0
 10
241.764243907611
 20
41.69350716756867
 30
0.0
  0
LINE
  5
170
330
1F
100
AcDbEntity
  8
0
  6
Continuous
 62
     7
370
    15
100
AcDbLine
 10
265.3715611882
 20
31.7806762629
 30
0.0
 11
265.4422603739
 21
31.8215033029
 31
0.0
  0
LINE
  5
171
330
1F
100
AcDbEntity
  8
0
  6
Continuous
 62
     7
370
    15
100
AcDbLine
 10
269.790260291
 20
39.353276154
 30
0.0
 11
269.790260291
 21
39.4349169652
 31
0.0
  0
LINE
  5
172
330
1F
100
AcDbEntity
  8
0
  6
Continuous
 62
     7
370
    15
100
AcDbLine
 10
268.4955889481
 20
42.2964470056
 30
0.0
 11
262.5735696557
 21
45.7151559739
 31
0.0
  0
LINE
  5
173
330
1F
100
AcDbEntity
  8
0
  6
Continuous
 62
     7
370
    15
100
AcDbLine
 10
256.3240775767
 20
34.8895451941
 30
0.0
 11
262.2460968691
 21
31.4708362259
 31
0.0
  0
SPLINE
  5
174
330
1F
100
AcDbEntity
  8
0
  6
Continuous
 62
     7
370
    15
100
AcDbSpline
210
0.0
220
0.0
230
1.0
 70
     8
 71
     3
 72
    20
 73
    16
 74
     0
 42
0.000000001
 43
0.00000001
 40
0.0
 40
0.0
 40
0.0
 40
0.0
 40
0.0141304571174656
 40
0.1025945023673576
 40
0.1912198833905807
 40
0.279863703490237
 40
0.3683805044921108
 40
0.4566515261912024
 40
0.5445725217119547
 40
0.6320821133071985
 40
0.7192501110748929
 40
0.8063758684322855
 40
0.8942123572656888
 40
0.9845097522872733
 40
1.0
 40
1.0
 40
1.0
 40
1.0
 10
263.1490401114921
 20
36.9729196331982
 30
0.0
 10
263.1590329595129
 20
37.0012647641131
 30
0.0
 10
263.2315862577824
 20
37.20706522595079
 30
0.0
 10
263.4066276403747
 20
37.58976365643715
 30
0.0
 10
263.6924666792225
 20
38.10291271975639
 30
0.0
 10
264.0254727087407
 20
38.58361731471437
 30
0.0
 10
264.3923430759546
 20
39.01774314572768
 30
0.0
 10
264.7826569804949
 20
39.39296295467844
 30
0.0
 10
265.1837891924428
 20
39.69897939589097
 30
0.0
 10
265.5828713609022
 20
39.92836340540088
 30
0.0
 10
265.9663843689098
 20
40.07610712233505
 30
0.0
 10
266.3233865816332
 20
40.14384761153617
 30
0.0
 10
266.6401024336372
 20
40.1259233804665
 30
0.0
 10
266.8480231660636
 20
40.0785479019077
 30
0.0
 10
266.938868020223
 20
40.01383430423578
 30
0.0
 10
266.9521702288552
 20
40.00435843699449
 30
0.0
  0
LINE
  5
175
330
1F
100
AcDbEntity
  8
0
  6
Continuous
 62
     7
370
    15
100
AcDbLine
 10
251.5447234397
 20
56.6068829727
 30
0.0
 11
230.2346860093
 21
64.2861757619
 31
0.0
  0
LINE
  5
176
330
1F
100
AcDbEntity
  8
0
  6
Continuous
 62
     7
370
    15
100
AcDbLine
 10
224.0699042602
 20
53.6073034768
 30
0.0
 11
244.3661414254
 21
36.4693286011
 31
0.0
  0
LINE
  5
177
330
1F
100
AcDbEntity
  8
0
  6
Continuous
 62
     7
370
    15
100
AcDbLine
 10
263.0968127078
 20
34.3233045256
 30
0.0
 11
263.0604774821
 21
34.3862581264
 31
0.0
  0
SPLINE
  5
178
330
1F
100
AcDbEntity
  8
0
  6
Continuous
 62
     7
370
    15
100
AcDbSpline
210
0.0
220
0.0
230
1.0
 70
     8
 71
     3
 72
    10
 73
     6
 74
     0
 42
0.000000001
 43
0.00000001
 40
0.0
 40
0.0
 40
0.0
 40
0.0
 40
0.4540594864784931
 40
0.9511605708307187
 40
0.9999999999999999
 40
0.9999999999999999
 40
0.9999999999999999
 40
0.9999999999999999
 10
263.5066664281811
 20
33.92623003458519
 30
0.0
 10
263.4354303445386
 20
33.96908935346155
 30
0.0
 10
263.2862055050654
 20
34.05887074867919
 30
0.0
 10
263.1602177811876
 20
34.21226403093029
 30
0.0
 10
263.1020191166854
 20
34.31418660822773
 30
0.0
 10
263.0968127077776
 20
34.32330452560404
 30
0.0
  0
SPLINE
  5
179
330
1F
100
AcDbEntity
  8
0
  6
Continuous
 62
     7
370
    15
100
AcDbSpline
210
0.0
220
0.0
230
1.0
 70
     8
 71
     3
 72
    20
 73
    16
 74
     0
 42
0.000000001
 43
0.00000001
 40
0.0
 40
0.0
 40
0.0
 40
0.0
 40
0.0103726571514819
 40
0.0986157564139173
 40
0.1871994335806579
 40
0.2760803513775639
 40
0.3651857158915267
 40
0.4544387804498745
 40
0.5437742093726661
 40
0.6331436199233771
 40
0.7225088602031203
 40
0.8118530252952184
 40
0.9011689503247896
 40
0.99045489450696
 40
0.9999999999999999
 40
0.9999999999999999
 40
0.9999999999999999
 40
0.9999999999999999
 10
252.4571440000965
 20
26.7416357310315
 30
0.0
 10
252.487315749024
 20
26.73815486414978
 30
0.0
 10
252.7741670157119
 20
26.70506128788447
 30
0.0
 10
253.3481897038664
 20
26.72772716986545
 30
0.0
 10
254.1760051079046
 20
26.81587058893158
 30
0.0
 10
255.0299664784695
 20
27.00275481606075
 30
0.0
 10
255.9005417395834
 20
27.27580664078728
 30
0.0
 10
256.7832040044155
 20
27.63641639691602
 30
0.0
 10
257.6719545364549
 20
28.08140876620404
 30
0.0
 10
258.5612836290313
 20
28.60789070928598
 30
0.0
 10
259.4453534371485
 20
29.21286506017256
 30
0.0
 10
260.3196929748564
 20
29.89037261053269
 30
0.0
 10
261.1754184309505
 20
30.6436941422059
 30
0.0
 10
261.7691826371742
 20
31.20283651301738
 30
0.0
 10
262.0677781391989
 20
31.52592546566202
 30
0.0
 10
262.0966165009885
 20
31.55712940558538
 30
0.0
  0
SPLINE
  5
17A
330
1F
100
AcDbEntity
  8
0
  6
Continuous
 62
     7
370
    15
100
AcDbSpline
210
0.0
220
0.0
230
1.0
 70
     8
 71
     3
 72
     9
 73
     5
 74
     0
 42
0.000000001
 43
0.00000001
 40
0.0
 40
0.0
 40
0.0
 40
0.0
 40
0.4645116951378128
 40
1.0
 40
1.0
 40
1.0
 40
1.0
 10
268.3421313455758
 20
42.38503619388418
 30
0.0
 10
268.4071810266753
 20
42.60610891126667
 30
0.0
 10
268.5472198712952
 20
43.08203388731472
 30
0.0
 10
268.646912656051
 20
43.55117753259795
 30
0.0
 10
268.7002969763669
 20
43.80239846794754
 30
0.0
  0
LINE
  5
17B
330
1F
100
AcDbEntity
  8
0
  6
Continuous
 62
     7
370
    15
100
AcDbLine
 10
248.5321629442
 20
28.274030127
 30
0.0
 11
249.8856230792
 21
27.4926942223
 31
0.0
  0
LINE
  5
17C
330
1F
100
AcDbEntity
  8
0
  6
Continuous
 62
     7
370
    15
100
AcDbLine
 10
244.706065907
 20
30.4827889318
 30
0.0
 11
246.0418483724
 21
29.7116581285
 31
0.0
  0
SPLINE
  5
17D
330
1F
100
AcDbEntity
  8
0
  6
Continuous
 62
     7
370
    15
100
AcDbSpline
210
0.0
220
0.0
230
1.0
 70
     8
 71
     3
 72
    11
 73
     7
 74
     0
 42
0.000000001
 43
0.00000001
 40
0.0
 40
0.0
 40
0.0
 40
0.0
 40
0.1134641622649147
 40
0.4670520690340197
 40
0.8201050818427985
 40
1.0
 40
1.0
 40
1.0
 40
1.0
 10
241.7860329018717
 20
34.47987998541551
 30
0.0
 10
241.8127474917309
 20
34.38897781285545
 30
0.0
 10
241.9227126491699
 20
34.01479757015694
 30
0.0
 10
242.1672469578779
 20
33.40340098211926
 30
0.0
 10
242.4707387339763
 20
32.78001533072797
 30
0.0
 10
242.6963384528094
 20
32.45276538243868
 30
0.0
 10
242.7724889369331
 20
32.3423031792029
 30
0.0
  0
SPLINE
  5
17E
330
1F
100
AcDbEntity
  8
0
  6
Continuous
 62
     7
370
    15
100
AcDbSpline
210
0.0
220
0.0
230
1.0
 70
     8
 71
     3
 72
    12
 73
     8
 74
     0
 42
0.000000001
 43
0.00000001
 40
0.0
 40
0.0
 40
0.0
 40
0.0
 40
0.0912879512191191
 40
0.3251556438005342
 40
0.5586661863643527
 40
0.7914515113932922
 40
1.0
 40
1.0
 40
1.0
 40
1.0
 10
268.6926874262716
 20
50.949127108235
 30
0.0
 10
268.6600951645026
 20
51.05960542543963
 30
0.0
 10
268.5440058261298
 20
51.45311462218394
 30
0.0
 10
268.2946798827255
 20
52.08565830679102
 30
0.0
 10
267.919951732884
 20
52.81597714788182
 30
0.0
 10
267.4991192851323
 20
53.45664896038813
 30
0.0
 10
267.176377227193
 20
53.81716028174962
 30
0.0
 10
267.0238682502837
 20
53.98751679845562
 30
0.0
  0
SPLINE
  5
17F
330
1F
100
AcDbEntity
  8
0
  6
Continuous
 62
     7
370
    15
100
AcDbSpline
210
0.0
220
0.0
230
1.0
 70
     8
 71
     3
 72
    26
 73
    22
 74
     0
 42
0.000000001
 43
0.00000001
 40
0.0
 40
0.0
 40
0.0
 40
0.0
 40
0.024674716610694
 40
0.0785064522819839
 40
0.1331494793255808
 40
0.1889376398421024
 40
0.2457734219437449
 40
0.303293742834192
 40
0.3611169609940363
 40
0.4189532105217047
 40
0.4766962810772494
 40
0.534331872420389
 40
0.5918812408080342
 40
0.6493810861450798
 40
0.706874391274365
 40
0.7643997263799327
 40
0.8219960044379301
 40
0.8797105090287113
 40
0.9375873651441535
 40
0.9925538356554444
 40
1.0
 40
1.0
 40
1.0
 40
1.0
 10
230.1707425991742
 20
64.29567824357784
 30
0.0
 10
230.1008114146167
 20
64.32163148674522
 30
0.0
 10
229.8783144639887
 20
64.40420577030966
 30
0.0
 10
229.4650359512571
 20
64.44805519073817
 30
0.0
 10
228.9424562885736
 20
64.43104105226526
 30
0.0
 10
228.3953953252865
 20
64.31931851066224
 30
0.0
 10
227.8332966951588
 20
64.11955656414025
 30
0.0
 10
227.2644787566402
 20
63.83215308280918
 30
0.0
 10
226.6994088259669
 20
63.46258129319121
 30
0.0
 10
226.1479351070631
 20
63.01776280418429
 30
0.0
 10
225.618979283656
 20
62.50592467834778
 30
0.0
 10
225.1204210610468
 20
61.93573028925837
 30
0.0
 10
224.659500441612
 20
61.31632378900841
 30
0.0
 10
224.2429355252669
 20
60.65732058551419
 30
0.0
 10
223.8769229112616
 20
59.96877081473669
 30
0.0
 10
223.5670593568256
 20
59.26104460973686
 30
0.0
 10
223.3183125645391
 20
58.54468331706034
 30
0.0
 10
223.1348046904844
 20
57.83008670092488
 30
0.0
 10
223.0225977376827
 20
57.14038923853221
 30
0.0
 10
222.9911497709761
 20
56.66983586764093
 30
0.0
 10
222.9900535331776
 20
56.43282222744885
 30
0.0
 10
222.989922746089
 20
56.40454522038372
 30
0.0
  0
SPLINE
  5
180
330
1F
100
AcDbEntity
  8
0
  6
Continuous
 62
     7
370
    15
100
AcDbSpline
210
0.0
220
0.0
230
1.0
 70
     8
 71
     3
 72
    13
 73
     9
 74
     0
 42
0.000000001
 43
0.00000001
 40
0.0
 40
0.0
 40
0.0
 40
0.0
 40
0.0985029978247226
 40
0.2847039705781801
 40
0.4709364670862257
 40
0.6557063458316009
 40
0.8374006028677442
 40
1.0
 40
1.0
 40
1.0
 40
1.0
 10
222.989922746089
 20
56.40454522038372
 30
0.0
 10
222.9920220143389
 20
56.28868760196237
 30
0.0
 10
222.9980895454726
 20
55.95382343828496
 30
0.0
 10
223.0660459645158
 20
55.42952940110147
 30
0.0
 10
223.2188831640858
 20
54.85547052328479
 30
0.0
 10
223.4498469317501
 20
54.3453137195141
 30
0.0
 10
223.7379450909122
 20
53.91296571809344
 30
0.0
 10
223.9808746386516
 20
53.69428045880728
 30
0.0
 10
224.0956028583843
 20
53.59100207742809
 30
0.0
  0
LWPOLYLINE
  5
181
330
1F
100
AcDbEntity
  8
0
  6
Continuous
 62
     7
370
    15
100
AcDbPolyline
 90
       12
 70
   128
 43
0.0
 10
262.1885484804
 20
43.3360975489
 10
262.426712856
 20
43.4857096796
 10
262.7333066846
 20
43.5855127203
 10
263.078318426
 20
43.6257372541
 10
263.4279759272
 20
43.6024458232
 10
263.7480522757
 20
43.5179183552
 10
264.0072161685
 20
43.3804289877
 10
264.1800988379
 20
43.2034361379
 10
264.2497773238
 20
43.004265099
 10
264.2094310106
 20
42.8024121201
 10
264.0630092763
 20
42.6176359772
 10
264.0299412792
 20
42.590422179
  0
LWPOLYLINE
  5
182
330
1F
100
AcDbEntity
  8
0
  6
Continuous
 62
     7
370
    15
100
AcDbPolyline
 90
        6
 70
   128
 43
0.0
 10
262.2844473235
 20
42.5457189358
 10
262.2443415882
 20
42.5733045385
 10
262.0714589188
 20
42.7502973883
 10
262.0017804329
 20
42.9494684272
 10
262.0421267461
 20
43.151321406
 10
262.1885484804
 20
43.3360975489
  0
LWPOLYLINE
  5
183
330
1F
100
AcDbEntity
  8
0
  6
Continuous
 62
     7
370
    15
100
AcDbPolyline
 90
       17
 70
   128
 43
0.0
 10
262.500958613
 20
43.2163539537
 10
262.7072760368
 20
43.336158397
 10
262.9773067244
 20
43.4012639461
 10
263.2699409516
 20
43.4017588712
 10
263.5406278099
 20
43.3375678245
 10
263.7481576791
 20
43.218463311
 10
263.8609360177
 20
43.0625779131
 10
263.861793346
 20
42.8936437697
 10
263.7505991437
 20
42.7373795725
 10
263.5442817199
 20
42.6175751292
 10
263.2742510323
 20
42.5524695801
 10
262.9816168051
 20
42.551974655
 10
262.7109299468
 20
42.6161657016
 10
262.5034000776
 20
42.7352702152
 10
262.390621739
 20
42.891155613
 10
262.3897644107
 20
43.0600897565
 10
262.500958613
 20
43.2163539537
  0
SPLINE
  5
184
330
1F
100
AcDbEntity
  8
0
  6
Continuous
 62
     7
370
    15
100
AcDbSpline
210
0.0
220
0.0
230
1.0
 70
     8
 71
     3
 72
    11
 73
     7
 74
     0
 42
0.000000001
 43
0.00000001
 40
0.0
 40
0.0
 40
0.0
 40
0.0
 40
0.1285561766306806
 40
0.4801535797842854
 40
0.8150691831754938
 40
1.0
 40
1.0
 40
1.0
 40
1.0
 10
262.4055010386434
 20
42.97977900581937
 30
0.0
 10
262.4215775387913
 20
42.98250919941069
 30
0.0
 10
262.4816227991491
 20
42.99270639304797
 30
0.0
 10
262.5942211106226
 20
43.05011072009104
 30
0.0
 10
262.7161413305632
 20
43.18918817456162
 30
0.0
 10
262.7814548838919
 20
43.29073822267102
 30
0.0
 10
262.8046896091819
 20
43.32686376401386
 30
0.0
  0
SPLINE
  5
185
330
1F
100
AcDbEntity
  8
0
  6
Continuous
 62
     7
370
    15
100
AcDbSpline
210
0.0
220
0.0
230
1.0
 70
     8
 71
     3
 72
    10
 73
     6
 74
     0
 42
0.000000001
 43
0.00000001
 40
0.0
 40
0.0
 40
0.0
 40
0.0
 40
0.2902828278766109
 40
0.6853886775321197
 40
1.0
 40
1.0
 40
1.0
 40
1.0
 10
262.6595525619501
 20
42.64750089540151
 30
0.0
 10
262.6354269278589
 20
42.65849757833663
 30
0.0
 10
262.5784637359077
 20
42.68446191811269
 30
0.0
 10
262.4875358162783
 20
42.81738608957782
 30
0.0
 10
262.4306971256569
 20
42.92990179317914
 30
0.0
 10
262.4055010386434
 20
42.97977900581937
 30
0.0
  0
SPLINE
  5
186
330
1F
100
AcDbEntity
  8
0
  6
Continuous
 62
     7
370
    15
100
AcDbSpline
210
0.0
220
0.0
230
1.0
 70
     8
 71
     3
 72
    10
 73
     6
 74
     0
 42
0.000000001
 43
0.00000001
 40
0.0
 40
0.0
 40
0.0
 40
0.0
 40
0.2755042444584588
 40
0.7744512120544872
 40
1.0
 40
1.0
 40
1.0
 40
1.0
 10
263.8460567180605
 20
42.92771844638825
 30
0.0
 10
263.8228670618919
 20
42.8919667130499
 30
0.0
 10
263.7576801993004
 20
42.79146745115519
 30
0.0
 10
263.6625530476944
 20
42.67425527423244
 30
0.0
 10
263.5971428301295
 20
42.64412711450056
 30
0.0
 10
263.5767794323068
 20
42.63474766699024
 30
0.0
  0
SPLINE
  5
187
330
1F
100
AcDbEntity
  8
0
  6
Continuous
 62
     7
370
    15
100
AcDbSpline
210
0.0
220
0.0
230
1.0
 70
     8
 71
     3
 72
    10
 73
     6
 74
     0
 42
0.000000001
 43
0.00000001
 40
0.0
 40
0.0
 40
0.0
 40
0.0
 40
0.4391119879276965
 40
0.7513633230734764
 40
1.0
 40
1.0
 40
1.0
 40
1.0
 10
263.5249674488905
 20
43.30083348429831
 30
0.0
 10
263.570933335589
 20
43.21246719140031
 30
0.0
 10
263.6495854387591
 20
43.06126386900215
 30
0.0
 10
263.7639209154406
 20
42.95498562473742
 30
0.0
 10
263.820829602325
 20
42.93609326275399
 30
0.0
 10
263.8460567180605
 20
42.92771844638825
 30
0.0
  0
SPLINE
  5
188
330
1F
100
AcDbEntity
  8
0
  6
Continuous
 62
     7
370
    15
100
AcDbSpline
210
0.0
220
0.0
230
1.0
 70
     8
 71
     3
 72
    10
 73
     6
 74
     0
 42
0.000000001
 43
0.00000001
 40
0.0
 40
0.0
 40
0.0
 40
0.0
 40
0.4391119879276897
 40
0.7513633230734785
 40
1.0
 40
1.0
 40
1.0
 40
1.0
 10
262.8046896091819
 20
43.32686376401386
 30
0.0
 10
262.9078017737741
 20
43.2881847705736
 30
0.0
 10
263.0842367169486
 20
43.22200125055273
 30
0.0
 10
263.3407177583705
 20
43.23931511940845
 30
0.0
 10
263.4683771664716
 20
43.28193878964102
 30
0.0
 10
263.5249674488905
 20
43.30083348429831
 30
0.0
  0
LINE
  5
189
330
1F
100
AcDbEntity
  8
0
  6
Continuous
 62
     7
370
    15
100
AcDbLine
 10
263.5249674489
 20
42.6103238479
 30
0.0
 11
263.5249674489
 21
43.3008334843
 31
0.0
  0
LINE
  5
18A
330
1F
100
AcDbEntity
  8
0
  6
Continuous
 62
     7
370
    15
100
AcDbLine
 10
262.8046896092
 20
42.5855859039
 30
0.0
 11
262.8046896092
 21
43.326863764
 31
0.0
  0
SPLINE
  5
18B
330
1F
100
AcDbEntity
  8
0
  6
Continuous
 62
     7
370
    15
100
AcDbSpline
210
0.0
220
0.0
230
1.0
 70
     8
 71
     3
 72
    12
 73
     8
 74
     0
 42
0.000000001
 43
0.00000001
 40
0.0
 40
0.0
 40
0.0
 40
0.0
 40
0.250000000000001
 40
0.250000000000001
 40
0.500000000000002
 40
0.500000000000002
 40
1.0
 40
1.0
 40
1.0
 40
1.0
 10
247.0574517324952
 20
38.70059567875597
 30
0.0
 10
247.0912308987675
 20
38.68109538114246
 30
0.0
 10
247.1295555952431
 20
38.65425563256529
 30
0.0
 10
247.2037787193556
 20
38.59585512924264
 30
0.0
 10
247.2391620838503
 20
38.56486547076175
 30
0.0
 10
247.3349720422353
 20
38.47412611774099
 30
0.0
 10
247.3839758003896
 20
38.41823198902346
 30
0.0
 10
247.4177848580043
 20
38.37097212525679
 30
0.0
  0
SPLINE
  5
18C
330
1F
100
AcDbEntity
  8
0
  6
Continuous
 62
     7
370
    15
100
AcDbSpline
210
0.0
220
0.0
230
1.0
 70
     8
 71
     3
 72
    12
 73
     8
 74
     0
 42
0.000000001
 43
0.00000001
 40
0.0
 40
0.0
 40
0.0
 40
0.0
 40
0.4999999999999931
 40
0.4999999999999931
 40
0.7499999999999966
 40
0.7499999999999966
 40
1.0
 40
1.0
 40
1.0
 40
1.0
 10
264.5223147711954
 20
55.14077364957835
 30
0.0
 10
264.5223147711954
 20
55.21219268130302
 30
0.0
 10
264.5047502405344
 20
55.29472244049622
 30
0.0
 10
264.4496247060445
 20
55.41366715652909
 30
0.0
 10
264.4263322322876
 20
55.45230004375368
 30
0.0
 10
264.3723638432303
 20
55.51886255503073
 30
0.0
 10
264.3415163424771
 20
55.54678359328339
 30
0.0
 10
264.3101827368394
 20
55.56487209879334
 30
0.0
  0
LINE
  5
18D
330
1F
100
AcDbEntity
  8
0
  6
Continuous
 62
     7
370
    15
100
AcDbLine
 10
245.7039915975
 20
39.4819315835
 30
0.0
 11
247.0574517325
 21
38.7005956788
 31
0.0
  0
LWPOLYLINE
  5
18E
330
1F
100
AcDbEntity
  8
0
  6
Continuous
 62
     7
370
    15
100
AcDbPolyline
 90
       23
 70
   128
 43
0.0
 10
245.7039915975
 20
39.4819315835
 10
246.0184739251
 20
40.7218521757
 10
246.4108265937
 20
41.9714647262
 10
246.8781260585
 20
43.2214579727
 10
247.4168903217
 20
44.4625178163
 10
248.0231048788
 20
45.6853967237
 10
248.6922526316
 20
46.8809826335
 10
249.4193475462
 20
48.0403668533
 10
250.1989718064
 20
49.1549104408
 10
251.0253161827
 20
50.2163085758
 10
251.8922233191
 20
51.2166524418
 10
252.7932336138
 20
52.148488157
 10
253.7216333512
 20
53.004872316
 10
254.6705047283
 20
53.7794237268
 10
255.6327774014
 20
54.4663709594
 10
256.6012811695
 20
55.0605953506
 10
257.5687994016
 20
55.5576691447
 10
258.5281228103
 20
55.9538884859
 10
259.4721031705
 20
56.2463010176
 10
260.393706583
 20
56.4327278804
 10
261.2860658864
 20
56.5117799483
 10
262.1425318264
 20
56.482868179
 10
262.9567226019
 20
56.3462080035
  0
LINE
  5
18F
330
1F
100
AcDbEntity
  8
0
  6
Continuous
 62
     7
370
    15
100
AcDbLine
 10
264.3101827368
 20
55.5648720988
 30
0.0
 11
262.9567226019
 21
56.3462080035
 31
0.0
  0
LINE
  5
190
330
1F
100
AcDbEntity
  8
0
  6
Continuous
 62
     7
370
    15
100
AcDbLine
 10
268.5395786621
 20
50.4697247571
 30
0.0
 11
268.6449421606
 21
50.6522196892
 31
0.0
  0
LINE
  5
191
330
1F
100
AcDbEntity
  8
0
  6
Continuous
 62
     7
370
    15
100
AcDbLine
 10
267.3684195655
 20
49.7936290017
 30
0.0
 11
268.5395786621
 21
50.4697247571
 31
0.0
  0
ARC
  5
192
330
1F
100
AcDbEntity
  8
0
  6
Continuous
 62
     7
370
    15
100
AcDbCircle
 10
268.0309070216
 20
48.7579444256
 30
0.0
 40
1.229443846057818
100
AcDbArc
 50
122.60547834
 51
177.3945215143
  0
LINE
  5
193
330
1F
100
AcDbEntity
  8
0
  6
Continuous
 62
     7
370
    15
100
AcDbLine
 10
266.8027341405
 20
43.5471448708
 30
0.0
 11
266.8027341405
 21
48.8138331075
 31
0.0
  0
ARC
  5
194
330
1F
100
AcDbEntity
  8
0
  6
Continuous
 62
     7
370
    15
100
AcDbCircle
 10
267.1475936345
 20
43.4912031133
 30
0.0
 40
0.3493673579427961
100
AcDbArc
 50
170.7859630095
 51
309.2032852357
  0
LINE
  5
195
330
1F
100
AcDbEntity
  8
0
  6
Continuous
 62
     7
370
    15
100
AcDbLine
 10
268.5395786621
 20
43.8965712214
 30
0.0
 11
267.3684195655
 21
43.220475466
 31
0.0
  0
LINE
  5
196
330
1F
100
AcDbEntity
  8
0
  6
Continuous
 62
     7
370
    15
100
AcDbLine
 10
268.6449421606
 20
43.8357263952
 30
0.0
 11
268.5395786621
 21
43.8965712214
 31
0.0
  0
LINE
  5
197
330
1F
100
AcDbEntity
  8
0
  6
Continuous
 62
     7
370
    15
100
AcDbLine
 10
247.4656800343
 20
31.7308684978
 30
0.0
 11
247.417784858
 21
31.6086198126
 31
0.0
  0
LINE
  5
198
330
1F
100
AcDbEntity
  8
0
  6
Continuous
 62
     7
370
    15
100
AcDbLine
 10
247.4656800343
 20
31.7308684978
 30
0.0
 11
249.4786180015
 21
32.8929128515
 31
0.0
  0
ARC
  5
199
330
1F
100
AcDbEntity
  8
0
  6
Continuous
 62
     7
370
    15
100
AcDbCircle
 10
248.8161305453
 20
33.9285974275
 30
0.0
 40
1.229443846057581
100
AcDbArc
 50
302.60547834
 51
357.3945215143
  0
LINE
  5
19A
330
1F
100
AcDbEntity
  8
0
  6
Continuous
 62
     7
370
    15
100
AcDbLine
 10
250.0443034264
 20
39.1393969824
 30
0.0
 11
250.0443034264
 21
33.8727087457
 31
0.0
  0
ARC
  5
19B
330
1F
100
AcDbEntity
  8
0
  6
Continuous
 62
     7
370
    15
100
AcDbCircle
 10
249.6994439325
 20
39.1953387399
 30
0.0
 40
0.3493673579428071
100
AcDbArc
 50
350.7859630095
 51
129.2032852357
  0
LINE
  5
19C
330
1F
100
AcDbEntity
  8
0
  6
Continuous
 62
     7
370
    15
100
AcDbLine
 10
249.4786180015
 20
39.4660663871
 30
0.0
 11
247.4656800343
 21
38.3040220335
 31
0.0
  0
LINE
  5
19D
330
1F
100
AcDbEntity
  8
0
  6
Continuous
 62
     7
370
    15
100
AcDbLine
 10
247.417784858
 20
38.3709721253
 30
0.0
 11
247.4656800343
 21
38.3040220335
 31
0.0
  0
LINE
  5
19E
330
1F
100
AcDbEntity
  8
0
  6
Continuous
 62
     7
370
    15
100
AcDbLine
 10
264.5223147712
 20
52.3557928579
 30
0.0
 11
264.5223147712
 21
55.1407736496
 31
0.0
  0
LINE
  5
19F
330
1F
100
AcDbEntity
  8
0
  6
Continuous
 62
     7
370
    15
100
AcDbLine
 10
266.9340482383
 20
53.7480569533
 30
0.0
 11
264.5223147712
 21
52.3557928579
 31
0.0
  0
SPLINE
  5
1A0
330
1F
100
AcDbEntity
  8
0
  6
Continuous
 62
     7
370
    15
100
AcDbSpline
210
0.0
220
0.0
230
1.0
 70
     8
 71
     3
 72
     8
 73
     4
 74
     0
 42
0.000000001
 43
0.00000001
 40
0.0
 40
0.0
 40
0.0
 40
0.0
 40
1.0
 40
1.0
 40
1.0
 40
1.0
 10
244.7138403122577
 20
40.74031076762566
 30
0.0
 10
244.3331424462573
 20
40.67734392995506
 30
0.0
 10
243.9523044740174
 20
40.61464380782002
 30
0.0
 10
243.5713638232777
 20
40.55216292914699
 30
0.0
  0
SPLINE
  5
1A1
330
1F
100
AcDbEntity
  8
0
  6
Continuous
 62
     7
370
    15
100
AcDbSpline
210
0.0
220
0.0
230
1.0
 70
     8
 71
     3
 72
     8
 73
     4
 74
     0
 42
0.000000001
 43
0.00000001
 40
0.0
 40
0.0
 40
0.0
 40
0.0
 40
0.0011901715795577
 40
0.0011901715795577
 40
0.0011901715795577
 40
0.0011901715795577
 10
243.2136770257199
 20
40.9195595850026
 30
0.0
 10
243.3333235332147
 20
40.79694467524711
 30
0.0
 10
243.4525667073628
 20
40.6744726347514
 30
0.0
 10
243.5713638232777
 20
40.55216292914699
 30
0.0
  0
LWPOLYLINE
  5
1A2
330
1F
100
AcDbEntity
  8
0
  6
Continuous
 62
     7
370
    15
100
AcDbPolyline
 90
       23
 70
   128
 43
0.0
 10
243.2136770257
 20
40.919559585
 10
243.5281593532
 20
42.1594801772
 10
243.9205120219
 20
43.4090927277
 10
244.3878114866
 20
44.6590859742
 10
244.9265757499
 20
45.9001458179
 10
245.532790307
 20
47.1230247253
 10
246.2019380597
 20
48.3186106351
 10
246.9290329744
 20
49.4779948548
 10
247.7086572346
 20
50.5925384423
 10
248.5350016108
 20
51.6539365774
 10
249.4019087473
 20
52.6542804433
 10
250.302919042
 20
53.5861161586
 10
251.2313187794
 20
54.4425003175
 10
252.1801901565
 20
55.2170517283
 10
253.1424628296
 20
55.9039989609
 10
254.1109665977
 20
56.4982233521
 10
255.0784848298
 20
56.9952971462
 10
256.0378082385
 20
57.3915164875
 10
256.9817885987
 20
57.6839290191
 10
257.9033920112
 20
57.8703558819
 10
258.7957513146
 20
57.9494079498
 10
259.6522172546
 20
57.9204961806
 10
260.4664080301
 20
57.783836005
  0
LINE
  5
1A3
330
1F
100
AcDbEntity
  8
0
  6
Continuous
 62
     7
370
    15
100
AcDbLine
 10
260.8979961693
 20
56.4571983657
 30
0.0
 11
260.4664080301
 21
57.783836005
 31
0.0
  0
LWPOLYLINE
  5
1A4
330
1F
100
AcDbEntity
  8
0
  6
Continuous
 62
     7
370
    15
100
AcDbPolyline
 90
       22
 70
   128
 43
0.0
 10
244.7138403123
 20
40.7403107676
 10
245.0086686982
 20
41.9156325803
 10
245.3803591577
 20
43.1007481376
 10
245.8259170176
 20
44.2861090803
 10
246.3417524619
 20
45.4621650723
 10
246.9237094554
 20
46.6194407462
 10
247.567099228
 20
47.748612046
 10
248.2667380516
 20
48.8405813499
 10
249.0169890052
 20
49.8865507688
 10
249.8118073909
 20
50.8780930303
 10
250.6447894351
 20
51.8072193759
 10
251.5092238839
 20
52.6664439265
 10
252.3981460738
 20
53.4488439943
 10
253.3043940466
 20
54.1481158593
 10
254.2206662516
 20
54.7586255569
 10
255.1395803739
 20
55.2754542707
 10
256.0537328131
 20
55.6944379626
 10
256.9557583331
 20
56.0122009223
 10
257.8383894031
 20
56.2261829651
 10
258.6945147517
 20
56.3346600587
 10
259.5172366612
 20
56.3367582137
 10
259.7626184147
 20
56.3159774907
  0
LINE
  5
1A5
330
1F
100
AcDbEntity
  8
0
  6
Continuous
 62
     7
370
    15
100
AcDbLine
 10
241.8778945603
 20
41.6906903883
 30
0.0
 11
243.2136770257
 21
40.919559585
 31
0.0
  0
LINE
  5
1A6
330
1F
100
AcDbEntity
  8
0
  6
Continuous
 62
     7
370
    15
100
AcDbLine
 10
260.4664080301
 20
57.783836005
 30
0.0
 11
259.1306255646
 21
58.5549668083
 31
0.0
  0
LINE
  5
1A7
330
1F
100
AcDbEntity
  8
0
  6
Continuous
 62
     7
370
    15
100
AcDbLine
 10
245.9403824173
 20
40.4400261176
 30
0.0
 11
245.3498717615
 21
40.780920663
 31
0.0
  0
SPLINE
  5
1A8
330
1F
100
AcDbEntity
  8
0
  6
Continuous
 62
     7
370
    15
100
AcDbSpline
210
0.0
220
0.0
230
1.0
 70
     8
 71
     3
 72
    12
 73
     8
 74
     0
 42
0.000000001
 43
0.00000001
 40
0.0
 40
0.0
 40
0.0
 40
0.0
 40
0.2500000000000015
 40
0.2500000000000015
 40
0.500000000000003
 40
0.500000000000003
 40
1.0
 40
1.0
 40
1.0
 40
1.0
 10
245.3498717614951
 20
40.78092066304129
 30
0.0
 10
245.3122530265358
 20
40.80263749647749
 30
0.0
 10
245.2662606181486
 20
40.81989323046013
 30
0.0
 10
245.1666594881726
 20
40.84218701828796
 30
0.0
 10
245.1119087629185
 20
40.8473928028674
 30
0.0
 10
244.9524028640992
 20
40.84439090344027
 30
0.0
 10
244.8474000588816
 20
40.81741316818107
 30
0.0
 10
244.7720871626898
 20
40.77393595864777
 30
0.0
  0
SPLINE
  5
1A9
330
1F
100
AcDbEntity
  8
0
  6
Continuous
 62
     7
370
    15
100
AcDbSpline
210
0.0
220
0.0
230
1.0
 70
     8
 71
     3
 72
    10
 73
     6
 74
     0
 42
0.000000001
 43
0.00000001
 40
0.0
 40
0.0
 40
0.0
 40
0.0
 40
0.5
 40
0.5
 40
1.0
 40
1.0
 40
1.0
 40
1.0
 10
241.7762504497064
 20
41.72141243960042
 30
0.0
 10
241.783513131355
 20
41.72540904508824
 30
0.0
 10
241.7953067953207
 20
41.72559082347342
 30
0.0
 10
241.829365806088
 20
41.71586919396367
 30
0.0
 10
241.8515382936402
 20
41.70590553718796
 30
0.0
 10
241.8778945603038
 20
41.69069038830666
 30
0.0
  0
LINE
  5
1AA
330
1F
100
AcDbEntity
  8
0
  6
Continuous
 62
     7
370
    15
100
AcDbLine
 10
244.7720871627
 20
40.7739359586
 30
0.0
 11
244.7138403123
 21
40.7403107676
 31
0.0
  0
LWPOLYLINE
  5
1AB
330
1F
100
AcDbEntity
  8
0
  6
Continuous
 62
     7
370
    15
100
AcDbPolyline
 90
       48
 70
   128
 43
0.0
 10
265.4415535867
 20
41.8645472032
 10
264.8619277103
 20
41.4851298975
 10
264.2926452714
 20
41.0228704833
 10
263.7438651285
 20
40.4860179907
 10
263.2253802765
 20
39.8841525654
 10
262.7464430896
 20
39.2280145099
 10
262.3156002135
 20
38.5293126235
 10
261.9405400493
 20
37.8005152578
 10
261.6279555546
 20
37.0546278192
 10
261.3834248072
 20
36.3049606866
 10
261.211311464
 20
35.5648916878
 10
261.1146868916
 20
34.8476273717
 10
261.095275358
 20
34.1659673368
 10
261.1534232623
 20
33.5320758227
 10
261.2880929538
 20
32.9572646385
 10
261.4968812488
 20
32.4517913034
 10
261.776062315
 20
32.0246760009
 10
262.1206541599
 20
31.6835406139
 10
262.5245075336
 20
31.4344727113
 10
262.9804156633
 20
31.2819169159
 10
263.4802428576
 20
31.2285955893
 10
264.0150696883
 20
31.2754602519
 10
264.5753521579
 20
31.4216746027
 10
265.1510920126
 20
31.6646294431
 10
265.7320151609
 20
31.9999892383
 10
266.3077550156
 20
32.4217694848
 10
266.8680374852
 20
32.922443504
 10
267.4028643159
 20
33.4930767563
 10
267.9026915101
 20
34.1234862777
 10
268.3585996398
 20
34.8024223954
 10
268.7624530136
 20
35.5177694783
 10
269.1070448584
 20
36.2567621408
 10
269.3862259247
 20
37.0062130412
 10
269.5950142196
 20
37.7527482105
 10
269.7296839112
 20
38.4830457109
 10
269.7878318155
 20
39.1840733663
 10
269.7684202818
 20
39.8433213215
 10
269.6717957095
 20
40.4490252811
 10
269.4996823663
 20
40.9903764436
 10
269.2551516189
 20
41.4577143848
 10
268.9425671242
 20
41.8426994479
 10
268.56750696
 20
42.1384615654
 10
268.1366640838
 20
42.3397228553
 10
267.657726897
 20
42.4428918051
 10
267.1392420449
 20
42.4461273625
 10
266.5904619021
 20
42.3493717888
 10
266.0211794632
 20
42.1543516897
 10
265.4415535867
 20
41.8645472032
  0
LWPOLYLINE
  5
1AC
330
1F
100
AcDbEntity
  8
0
  6
Continuous
 62
     7
370
    15
100
AcDbPolyline
 90
       25
 70
   128
 43
0.0
 10
265.3708429086
 20
41.98702169
 10
264.7817922212
 20
41.6014349972
 10
264.2032531572
 20
41.1316591697
 10
263.6455497601
 20
40.5860773684
 10
263.11863426
 20
39.9744255133
 10
262.6319094766
 20
39.3076185464
 10
262.1940610252
 20
38.5975556537
 10
261.8129023218
 20
37.8569079243
 10
261.4952351524
 20
37.0988922347
 10
261.2467282952
 20
36.3370353926
 10
261.0718163611
 20
35.5849327516
 10
260.9736206575
 20
34.856005601
 10
260.9538934892
 20
34.1632616631
 10
261.0129868879
 20
33.51906297
 10
261.1498463305
 20
32.9349052624
 10
261.362029557
 20
32.4212128487
 10
261.6457501528
 20
31.987152582
 10
261.9959451171
 20
31.6404702781
 10
262.4063652124
 20
31.3873524909
 10
262.8696864824
 20
31.2323161134
 10
263.3776409481
 20
31.1781277734
 10
263.92116415
 20
31.225754463
 10
264.4905569037
 20
31.3743462829
 10
265.075658382
 20
31.6212516086
 10
265.3715611882
 20
31.7806762629
  0
LWPOLYLINE
  5
1AD
330
1F
100
AcDbEntity
  8
0
  6
Continuous
 62
     7
370
    15
100
AcDbPolyline
 90
       13
 70
   128
 43
0.0
 10
269.790260291
 20
39.4349169652
 10
269.7680651597
 20
39.9329303468
 10
269.6698694562
 20
40.5484831513
 10
269.494957522
 20
41.0986367717
 10
269.2464506648
 20
41.5735737038
 10
268.9287834955
 20
41.9648186866
 10
268.547624792
 20
42.2653899442
 10
268.1097763406
 20
42.4699237754
 10
267.6230515573
 20
42.5747702691
 10
267.0961360572
 20
42.5780584372
 10
266.53843266
 20
42.4797296022
 10
265.959893596
 20
42.2815384445
 10
265.3708429086
 20
41.98702169
  0
SPLINE
  5
1AE
330
1F
100
AcDbEntity
  8
0
  6
Continuous
 62
     7
370
    15
100
AcDbSpline
210
0.0
220
0.0
230
1.0
 70
    11
 71
     3
 72
    64
 73
    60
 74
     0
 42
0.000000001
 43
0.00000001
 40
0.0
 40
0.0
 40
0.0
 40
0.0
 40
0.0312500000000002
 40
0.0312500000000002
 40
0.0625000000000003
 40
0.0625000000000003
 40
0.0937500000000005
 40
0.0937500000000005
 40
0.1250000000000007
 40
0.1250000000000007
 40
0.1562500000000009
 40
0.1562500000000009
 40
0.1875000000000011
 40
0.1875000000000011
 40
0.2187500000000012
 40
0.2187500000000012
 40
0.2500000000000014
 40
0.2500000000000014
 40
0.2812500000000016
 40
0.2812500000000016
 40
0.3125000000000017
 40
0.3125000000000017
 40
0.3437500000000019
 40
0.3437500000000019
 40
0.3750000000000021
 40
0.3750000000000021
 40
0.4062500000000023
 40
0.4062500000000023
 40
0.4375000000000024
 40
0.4375000000000024
 40
0.4687500000000026
 40
0.4687500000000026
 40
0.5000000000000028
 40
0.5000000000000028
 40
0.531250000000003
 40
0.531250000000003
 40
0.5625000000000031
 40
0.5625000000000031
 40
0.6250000000000034
 40
0.6250000000000034
 40
0.6875000000000038
 40
0.6875000000000038
 40
0.7187500000000034
 40
0.7187500000000034
 40
0.750000000000003
 40
0.750000000000003
 40
0.7812500000000027
 40
0.7812500000000027
 40
0.8125000000000023
 40
0.8125000000000023
 40
0.8437500000000019
 40
0.8437500000000019
 40
0.8750000000000016
 40
0.8750000000000016
 40
0.9062500000000011
 40
0.9062500000000011
 40
0.9375000000000008
 40
0.9375000000000008
 40
1.0
 40
1.0
 40
1.0
 40
1.0
 10
263.1183773676968
 20
44.03706920174825
 30
0.0
 10
263.2118362845515
 20
44.02390254833551
 30
0.0
 10
263.3029366063239
 20
44.00602088434567
 30
0.0
 10
263.4809217116655
 20
43.96244381941265
 30
0.0
 10
263.5683967131096
 20
43.93652475701644
 30
0.0
 10
263.7363458540019
 20
43.87830696228959
 30
0.0
 10
263.8157880814069
 20
43.84643697129453
 30
0.0
 10
263.9659982764506
 20
43.77781113805975
 30
0.0
 10
264.0373713448737
 20
43.74066700051419
 30
0.0
 10
264.1673781682977
 20
43.6635002528951
 30
0.0
 10
264.2260553931972
 20
43.62357748870489
 30
0.0
 10
264.3308513061084
 20
43.54088154109748
 30
0.0
 10
264.3773071116406
 20
43.49765980401395
 30
0.0
 10
264.4540464756008
 20
43.41053558562819
 30
0.0
 10
264.4846418933661
 20
43.36654241043251
 30
0.0
 10
264.5298848529401
 20
43.27691670588447
 30
0.0
 10
264.5444964380545
 20
43.23080160299125
 30
0.0
 10
264.5553465094011
 20
43.13953227651757
 30
0.0
 10
264.5519132311073
 20
43.09410672630587
 30
0.0
 10
264.5261518157092
 20
43.00273964780184
 30
0.0
 10
264.5033507524707
 20
42.95645431134479
 30
0.0
 10
264.4394242662708
 20
42.86729880446752
 30
0.0
 10
264.3982961684189
 20
42.82386305195569
 30
0.0
 10
264.296150030246
 20
42.73889563310356
 30
0.0
 10
264.2359513028646
 20
42.69825664597682
 30
0.0
 10
264.1015151189584
 20
42.62316198357271
 30
0.0
 10
264.0256010977216
 20
42.58786167516568
 30
0.0
 10
263.8644180036238
 20
42.52565991114297
 30
0.0
 10
263.77932372622
 20
42.49861940194202
 30
0.0
 10
263.6004072480499
 20
42.45294327086496
 30
0.0
 10
263.5085688930162
 20
42.4348765964184
 30
0.0
 10
263.3234544713001
 20
42.40880221213709
 30
0.0
 10
263.2288137044423
 20
42.4006999697062
 30
0.0
 10
263.0433881359704
 20
42.39534082890363
 30
0.0
 10
262.9521376571433
 20
42.39792349284417
 30
0.0
 10
262.7723528168224
 20
42.41404373276192
 30
0.0
 10
262.6845451021607
 20
42.42762967915192
 30
0.0
 10
262.4343070265741
 20
42.48394920611341
 30
0.0
 10
262.280025368696
 20
42.54382485292576
 30
0.0
 10
262.0210514459497
 20
42.69949316655024
 30
0.0
 10
261.9130956229242
 20
42.79729739097791
 30
0.0
 10
261.7982194154155
 20
42.96007382411138
 30
0.0
 10
261.7670724759565
 20
43.01770827601828
 30
0.0
 10
261.7214117225377
 20
43.13700200056903
 30
0.0
 10
261.7071856401066
 20
43.19757966902223
 30
0.0
 10
261.6962218619963
 20
43.31983331371008
 30
0.0
 10
261.6996383849504
 20
43.38220533993167
 30
0.0
 10
261.7257079302302
 20
43.5039026390043
 30
0.0
 10
261.7479913455811
 20
43.56259544911639
 30
0.0
 10
261.8118607084649
 20
43.67474318168088
 30
0.0
 10
261.8542818787378
 20
43.72881571670806
 30
0.0
 10
261.9559638230304
 20
43.82528907066425
 30
0.0
 10
262.0152079120249
 20
43.86822554971368
 30
0.0
 10
262.1512016239164
 20
43.94289129951737
 30
0.0
 10
262.2266828927888
 20
43.97371515829926
 30
0.0
 10
262.3874653464032
 20
44.02134937947146
 30
0.0
 10
262.4744822033688
 20
44.03855410269901
 30
0.0
 10
262.7413662943051
 20
44.06946140616176
 30
0.0
 10
262.9314595339875
 20
44.06340250857374
 30
0.0
 10
263.1183773676968
 20
44.03706920174826
 30
0.0
  0
LINE
  5
1AF
330
1F
100
AcDbEntity
  8
0
  6
Continuous
 62
     7
370
    15
100
AcDbLine
 10
267.8602529842
 20
36.8875437796
 30
0.0
 11
268.7207612845
 21
37.9580079245
 31
0.0
  0
SPLINE
  5
1B0
330
1F
100
AcDbEntity
  8
0
  6
Continuous
 62
     7
370
    15
100
AcDbSpline
210
0.0
220
0.0
230
1.0
 70
     8
 71
     3
 72
    22
 73
    18
 74
     0
 42
0.000000001
 43
0.00000001
 40
0.0
 40
0.0
 40
0.0
 40
0.0
 40
0.0416666666666664
 40
0.0833333333333332
 40
0.1250000000000033
 40
0.1666666666666682
 40
0.2083333333333338
 40
0.249999999999922
 40
0.2968749999997847
 40
0.34375
 40
0.390625
 40
0.4374999999999999
 40
0.486304925390498
 40
0.486304925390498
 40
0.53125
 40
0.6249999999999821
 40
0.828979133991766
 40
0.828979133991766
 40
0.828979133991766
 40
0.828979133991766
 10
268.7207612844904
 20
37.95800792448374
 30
0.0
 10
268.7551729630832
 20
38.00081572550744
 30
0.0
 10
268.8224345983849
 20
38.09264815285114
 30
0.0
 10
268.9164738286545
 20
38.24873982143112
 30
0.0
 10
268.9993196279466
 20
38.42137573888463
 30
0.0
 10
269.0652620230065
 20
38.60509014776547
 30
0.0
 10
269.1084992313062
 20
38.79185958207083
 30
0.0
 10
269.1251550292005
 20
38.97993949882245
 30
0.0
 10
269.1082346549013
 20
39.15668512307729
 30
0.0
 10
269.0535263023186
 20
39.30782792176516
 30
0.0
 10
268.9672755469873
 20
39.41895163248751
 30
0.0
 10
268.8535475531526
 20
39.48935069084918
 30
0.0
 10
268.7697158970674
 20
39.50924523929417
 30
0.0
 10
268.6883183600033
 20
39.51704063131459
 30
0.0
 10
268.5810334746225
 20
39.5258203617922
 30
0.0
 10
268.3935822710495
 20
39.54326349470522
 30
0.0
 10
268.0854264838734
 20
39.57078253808019
 30
0.0
 10
267.8601547433751
 20
39.5908472206165
 30
0.0
  0
SPLINE
  5
1B1
330
1F
100
AcDbEntity
  8
0
  6
Continuous
 62
     7
370
    15
100
AcDbSpline
210
0.0
220
0.0
230
1.0
 70
     8
 71
     3
 72
    22
 73
    18
 74
     0
 42
0.000000001
 43
0.00000001
 40
0.0
 40
0.0
 40
0.0
 40
0.0
 40
0.0416666666666664
 40
0.0833333333333332
 40
0.1250000000000033
 40
0.1666666666666682
 40
0.2083333333333338
 40
0.249999999999922
 40
0.2968749999997847
 40
0.34375
 40
0.390625
 40
0.4374999999999999
 40
0.486304925390498
 40
0.486304925390498
 40
0.53125
 40
0.6249999999999821
 40
0.8265829076568219
 40
0.8265829076568219
 40
0.8265829076568219
 40
0.8265829076568219
 10
262.1623458889854
 20
34.17191530590607
 30
0.0
 10
262.1287382199771
 20
34.17492033794962
 30
0.0
 10
262.0602994331227
 20
34.18919938944992
 30
0.0
 10
261.9667333273331
 20
34.23667336859244
 30
0.0
 10
261.8837607574497
 20
34.31366890032976
 30
0.0
 10
261.817852320275
 20
34.42124479315452
 30
0.0
 10
261.7746060510261
 20
34.55809446044102
 30
0.0
 10
261.7579526342897
 20
34.72694363033034
 30
0.0
 10
261.7748727586257
 20
34.92322579144132
 30
0.0
 10
261.8295794113239
 20
35.13753111688901
 30
0.0
 10
261.9158372257704
 20
35.34824668554522
 30
0.0
 10
262.0295383188433
 20
35.54991980791648
 30
0.0
 10
262.1134391524593
 20
35.66669038174845
 30
0.0
 10
262.194860317916
 20
35.76849476448743
 30
0.0
 10
262.3021200038653
 20
35.90111164388411
 30
0.0
 10
262.4869095901013
 20
36.13166552884145
 30
0.0
 10
262.7989506387791
 20
36.51981218803725
 30
0.0
 10
263.0229540153679
 20
36.79839446161107
 30
0.0
  0
LINE
  5
1B2
330
1F
100
AcDbEntity
  8
0
  6
Continuous
 62
     7
370
    15
100
AcDbLine
 10
263.0228541893
 20
34.0949728969
 30
0.0
 11
262.162345889
 21
34.1719153059
 31
0.0
  0
LINE
  5
1B3
330
1F
100
AcDbEntity
  8
0
  6
Continuous
 62
     7
370
    15
100
AcDbLine
 10
247.4656800343
 20
38.3040220335
 30
0.0
 11
245.738497335
 21
39.3011033824
 31
0.0
  0
SPLINE
  5
1B4
330
1F
100
AcDbEntity
  8
0
  6
Continuous
 62
     7
370
    15
100
AcDbSpline
210
0.0
220
0.0
230
1.0
 70
     8
 71
     3
 72
     8
 73
     4
 74
     0
 42
0.000000001
 43
0.00000001
 40
0.0
 40
0.0
 40
0.0
 40
0.0
 40
0.0011901715795577
 40
0.0011901715795577
 40
0.0011901715795577
 40
0.0011901715795577
 10
245.7384973349666
 20
39.3011033824002
 30
0.0
 10
245.726335868148
 20
39.36185363811102
 30
0.0
 10
245.714852421192
 20
39.42211731224107
 30
0.0
 10
245.7039915975494
 20
39.48193158345781
 30
0.0
  0
SPLINE
  5
1B5
330
1F
100
AcDbEntity
  8
0
  6
Continuous
 62
     7
370
    15
100
AcDbSpline
210
0.0
220
0.0
230
1.0
 70
     8
 71
     3
 72
    14
 73
    10
 74
     0
 42
0.000000001
 43
0.00000001
 40
0.0
 40
0.0
 40
0.0
 40
0.0
 40
0.1564361642024644
 40
0.3174075991719926
 40
0.4738449617331206
 40
0.6348189984326125
 40
0.7912776075893748
 40
0.9522654301379581
 40
0.9999999999999999
 40
0.9999999999999999
 40
0.9999999999999999
 40
0.9999999999999999
 10
262.0916352108666
 20
34.43580553994312
 30
0.0
 10
262.0619665757858
 20
34.44071891436243
 30
0.0
 10
262.001769176548
 20
34.45068810777889
 30
0.0
 10
261.9249541720476
 20
34.49487208642503
 30
0.0
 10
261.859842642772
 20
34.55999500550158
 30
0.0
 10
261.8098266574846
 20
34.64489728843525
 30
0.0
 10
261.7773661135212
 20
34.74873164812519
 30
0.0
 10
261.7624265667326
 20
34.83716261177646
 30
0.0
 10
261.7649696864321
 20
34.89336670415106
 30
0.0
 10
261.7655512949675
 20
34.90622051510543
 30
0.0
  0
SPLINE
  5
1B6
330
1F
100
AcDbEntity
  8
0
  6
Continuous
 62
     7
370
    15
100
AcDbSpline
210
0.0
220
0.0
230
1.0
 70
     8
 71
     3
 72
    13
 73
     9
 74
     0
 42
0.000000001
 43
0.00000001
 40
0.0
 40
0.0
 40
0.0
 40
0.0
 40
0.0221705560327332
 40
0.1665109599760843
 40
0.4103854440297763
 40
0.634570090109648
 40
0.8641290099986174
 40
1.0
 40
1.0
 40
1.0
 40
1.0
 10
263.1471671362575
 20
36.97356774222047
 30
0.0
 10
263.1471302619818
 20
36.97308970104375
 30
0.0
 10
263.1468533193998
 20
36.96949939437182
 30
0.0
 10
263.1350937033338
 20
36.9490733757069
 30
0.0
 10
263.112525399946
 20
36.91490096428539
 30
0.0
 10
263.079540180418
 20
36.87035132816579
 30
0.0
 10
263.0496161794596
 20
36.83171951553513
 30
0.0
 10
263.0301804429117
 20
36.80742677747065
 30
0.0
 10
263.0229540153679
 20
36.79839446161107
 30
0.0
  0
SPLINE
  5
1B7
330
1F
100
AcDbEntity
  8
0
  6
Continuous
 62
     7
370
    15
100
AcDbSpline
210
0.0
220
0.0
230
1.0
 70
     8
 71
     3
 72
    16
 73
    12
 74
     0
 42
0.000000001
 43
0.00000001
 40
0.0
 40
0.0
 40
0.0
 40
0.0
 40
0.2500000000000001
 40
0.2500000000000001
 40
0.5000000000000001
 40
0.5000000000000001
 40
0.6250000000000001
 40
0.6250000000000001
 40
0.7500000000000002
 40
0.7500000000000002
 40
1.0
 40
1.0
 40
1.0
 40
1.0
 10
267.8601547433759
 20
39.59084722061642
 30
0.0
 10
267.8359466166808
 20
39.59300340929708
 30
0.0
 10
267.8096162752779
 20
39.59398688148985
 30
0.0
 10
267.7492154985649
 20
39.59167959387021
 30
0.0
 10
267.7138327230718
 20
39.5883246969186
 30
0.0
 10
267.6568643190036
 20
39.57575626941703
 30
0.0
 10
267.6371224434706
 20
39.57014024595887
 30
0.0
 10
267.6015815207377
 20
39.55706109829934
 30
0.0
 10
267.5861994916912
 20
39.54982900792998
 30
0.0
 10
267.548051074226
 20
39.52850301055236
 30
0.0
 10
267.5318892157043
 20
39.51461459610028
 30
0.0
 10
267.5195798078711
 20
39.50155442685173
 30
0.0
  0
SPLINE
  5
1B8
330
1F
100
AcDbEntity
  8
0
  6
Continuous
 62
     7
370
    15
100
AcDbSpline
210
0.0
220
0.0
230
1.0
 70
     8
 71
     3
 72
     8
 73
     4
 74
     0
 42
0.000000001
 43
0.00000001
 40
0.0
 40
0.0
 40
0.0
 40
0.0
 40
1.0
 40
1.0
 40
1.0
 40
1.0
 10
267.5195798078753
 20
39.5015544268463
 30
0.0
 10
267.4871069255101
 20
39.51461678911194
 30
0.0
 10
267.4548361328715
 20
39.52950918149649
 30
0.0
 10
267.4295588169168
 20
39.54410146539166
 30
0.0
  0
LINE
  5
1B9
330
1F
100
AcDbEntity
  8
0
  6
Continuous
 62
     7
370
    15
100
AcDbLine
 10
266.9792793345
 20
39.9964534453
 30
0.0
 11
266.9503010414
 21
40.0126372267
 31
0.0
  0
LINE
  5
1BA
330
1F
100
AcDbEntity
  8
0
  6
Continuous
 62
     7
370
    15
100
AcDbLine
 10
266.4219575859
 20
40.1257772747
 30
0.0
 11
267.4295588169
 21
39.5441014654
 31
0.0
  0
ARC
  5
1BB
330
1F
100
AcDbEntity
  8
0
  6
Continuous
 62
     7
370
    15
100
AcDbCircle
 10
261.1998286014
 20
39.7138860308
 30
0.0
 40
4.274672446118863
100
AcDbArc
 50
339.4379745759
 51
1.8539968868
  0
LINE
  5
1BC
330
1F
100
AcDbEntity
  8
0
  6
Continuous
 62
     7
370
    15
100
AcDbLine
 10
265.2021724562
 20
38.21253058
 30
0.0
 11
267.4295588169
 21
36.9266878039
 31
0.0
  0
LINE
  5
1BD
330
1F
100
AcDbEntity
  8
0
  6
Continuous
 62
     7
370
    15
100
AcDbLine
 10
263.4795637703
 20
33.9341114086
 30
0.0
 11
263.5085225243
 21
33.917938178
 31
0.0
  0
LINE
  5
1BE
330
1F
100
AcDbEntity
  8
0
  6
Continuous
 62
     7
370
    15
100
AcDbLine
 10
261.8252927748
 20
35.0815128944
 30
0.0
 11
263.0292842878
 21
34.3864633884
 31
0.0
  0
LWPOLYLINE
  5
1BF
330
1F
100
AcDbEntity
  8
0
  6
Continuous
 62
     7
370
    15
100
AcDbPolyline
 90
       16
 70
   128
 43
0.0
 10
264.0102225284
 20
42.5755025543
 10
264.1281612181
 20
42.6820232341
 10
264.2369282615
 20
42.8752706069
 10
264.2369282615
 20
43.0784629193
 10
264.1281612181
 20
43.2717102921
 10
263.9212740072
 20
43.436096326
 10
263.6365181906
 20
43.5555297706
 10
263.3017676515
 20
43.6183196483
 10
262.9497901052
 20
43.6183196483
 10
262.6150395661
 20
43.5555297706
 10
262.3302837495
 20
43.436096326
 10
262.1233965386
 20
43.2717102921
 10
262.0146294952
 20
43.0784629193
 10
262.0146294952
 20
42.8752706069
 10
262.1233965386
 20
42.6820232341
 10
262.208662317
 20
42.6007328233
  0
ARC
  5
1C0
330
1F
100
AcDbEntity
  8
0
  6
Continuous
 62
     7
370
    15
100
AcDbCircle
 10
254.7164320052
 20
39.7258848149
 30
0.0
 40
10.35660934136102
100
AcDbArc
 50
174.707806124
 51
187.1554824728
  0
LINE
  5
1C1
330
1F
100
AcDbEntity
  8
0
  6
Continuous
 62
     7
370
    15
100
AcDbLine
 10
244.4404821855
 20
40.6951690257
 30
0.0
 11
244.4404821855
 21
38.4358412682
 31
0.0
  0
LINE
  5
1C2
330
1F
100
AcDbEntity
  8
0
  6
Continuous
 62
     7
370
    15
100
AcDbLine
 10
244.4404821855
 20
38.4358412682
 30
0.0
 11
244.4404821855
 21
36.9700333057
 31
0.0
  0
LINE
  5
1C3
330
1F
100
AcDbEntity
  8
0
  6
Continuous
 62
     7
370
    15
100
AcDbLine
 10
263.0806846531
 20
34.3473696158
 30
0.0
 11
262.0916352109
 21
34.4358055399
 31
0.0
  0
SPLINE
  5
1C4
330
1F
100
AcDbEntity
  8
0
  6
Continuous
 62
     7
370
    15
100
AcDbSpline
210
0.0
220
0.0
230
1.0
 70
     8
 71
     3
 72
    16
 73
    12
 74
     0
 42
0.000000001
 43
0.00000001
 40
0.0
 40
0.0
 40
0.0
 40
0.0
 40
0.2500000000000002
 40
0.2500000000000002
 40
0.5000000000000003
 40
0.5000000000000003
 40
0.6250000000000004
 40
0.6250000000000004
 40
0.7500000000000004
 40
0.7500000000000004
 40
1.0
 40
1.0
 40
1.0
 40
1.0
 10
263.0228541892993
 20
34.0949728968523
 30
0.0
 10
263.0469070116831
 20
34.09282221207904
 30
0.0
 10
263.0704081917912
 20
34.09369076892219
 30
0.0
 10
263.1126577084026
 20
34.10652435952939
 30
0.0
 10
263.1326154859744
 20
34.118817108435
 30
0.0
 10
263.1477907883377
 20
34.15527880701146
 30
0.0
 10
263.1501021707898
 20
34.17088970765091
 30
0.0
 10
263.1472631870223
 20
34.20603663236636
 30
0.0
 10
263.1422891750593
 20
34.2251107113487
 30
0.0
 10
263.1219242779877
 20
34.28026411400621
 30
0.0
 10
263.1017904651863
 20
34.31509555982422
 30
0.0
 10
263.0806846531231
 20
34.34736961581216
 30
0.0
  0
LINE
  5
1C5
330
1F
100
AcDbEntity
  8
0
  6
Continuous
 62
     7
370
    15
100
AcDbLine
 10
242.215412184
 20
41.3349371487
 30
0.0
 11
241.7762504497
 21
41.7214124396
 31
0.0
  0
LINE
  5
1C6
330
1F
100
AcDbEntity
  8
0
  6
Continuous
 62
     7
370
    15
100
AcDbLine
 10
243.5713638233
 20
40.5521629291
 30
0.0
 11
242.215412184
 21
41.3349371487
 31
0.0
  0
SPLINE
  5
1C7
330
1F
100
AcDbEntity
  8
0
  6
Continuous
 62
     7
370
    15
100
AcDbSpline
210
0.0
220
0.0
230
1.0
 70
     8
 71
     3
 72
     8
 73
     4
 74
     0
 42
0.000000001
 43
0.00000001
 40
0.0
 40
0.0
 40
0.0
 40
0.0
 40
1.0
 40
1.0
 40
1.0
 40
1.0
 10
263.0292842878466
 20
34.38646338844812
 30
0.0
 10
263.0546362167158
 20
34.37182803143423
 30
0.0
 10
263.0714410159441
 20
34.3584338303395
 30
0.0
 10
263.0806846531236
 20
34.34736961581194
 30
0.0
  0
LINE
  5
1C8
330
1F
100
AcDbEntity
  8
0
  6
Continuous
 62
     7
370
    15
100
AcDbLine
 10
243.4416938571
 20
40.4707347571
 30
0.0
 11
243.4428398166
 21
40.6263582589
 31
0.0
  0
ARC
  5
1C9
330
1F
100
AcDbEntity
  8
0
  6
Continuous
 62
     7
370
    15
100
AcDbCircle
 10
250.2147592955
 20
40.1691558656
 30
0.0
 40
6.779776195460705
100
AcDbArc
 50
177.4505204114
 51
211.1388398759
  0
LINE
  5
1CA
330
1F
100
AcDbEntity
  8
0
  6
Continuous
 62
     7
370
    15
100
AcDbLine
 10
230.1832290828
 20
64.3039822113
 30
0.0
 11
230.2346860093
 21
64.2861757619
 31
0.0
  0
SPLINE
  5
1CB
330
1F
100
AcDbEntity
  8
0
  6
Continuous
 62
     7
370
    15
100
AcDbSpline
210
0.0
220
0.0
230
1.0
 70
     8
 71
     3
 72
     8
 73
     4
 74
     0
 42
0.000000001
 43
0.00000001
 40
0.0
 40
0.0
 40
0.0
 40
0.0
 40
1.0
 40
1.0
 40
1.0
 40
1.0
 10
267.4295588169173
 20
36.92668780388367
 30
0.0
 10
267.4549107457864
 20
36.91205244686987
 30
0.0
 10
267.4868547295889
 20
36.9073979110009
 30
0.0
 10
267.5195798078782
 20
36.90988924388811
 30
0.0
  0
SPLINE
  5
1CC
330
1F
100
AcDbEntity
  8
0
  6
Continuous
 62
     7
370
    15
100
AcDbSpline
210
0.0
220
0.0
230
1.0
 70
     8
 71
     3
 72
    16
 73
    12
 74
     0
 42
0.000000001
 43
0.00000001
 40
0.0
 40
0.0
 40
0.0
 40
0.0
 40
0.2499999999999933
 40
0.2499999999999933
 40
0.374999999999998
 40
0.374999999999998
 40
0.5000000000000028
 40
0.5000000000000028
 40
0.7500000000000013
 40
0.7500000000000013
 40
1.0
 40
1.0
 40
1.0
 40
1.0
 10
267.5195798078781
 20
36.90988924388871
 30
0.0
 10
267.5317990263817
 20
36.87264352701839
 30
0.0
 10
267.547867730997
 20
36.83553261926814
 30
0.0
 10
267.586162819158
 20
36.79052564775872
 30
0.0
 10
267.601619914512
 20
36.77755780994501
 30
0.0
 10
267.6369277442938
 20
36.76127545219902
 30
0.0
 10
267.6565111061391
 20
36.758278833686
 30
0.0
 10
267.71381188161
 20
36.76331259364733
 30
0.0
 10
267.7488821789624
 20
36.78295613939751
 30
0.0
 10
267.809402937514
 20
36.82943889937178
 30
0.0
 10
267.8362280415753
 20
36.85765697939691
 30
0.0
 10
267.8602529841767
 20
36.88754377959209
 30
0.0
  0
LINE
  5
1CD
330
1F
100
AcDbEntity
  8
0
  6
Continuous
 62
     7
370
    15
100
AcDbLine
 10
245.738497335
 20
32.7279498467
 30
0.0
 11
247.4656800343
 21
31.7308684978
 31
0.0
  0
SPLINE
  5
1CE
330
1F
100
AcDbEntity
  8
0
  6
Continuous
 62
     7
370
    15
100
AcDbSpline
210
0.0
220
0.0
230
1.0
 70
     8
 71
     3
 72
    14
 73
    10
 74
     0
 42
0.000000001
 43
0.00000001
 40
0.0
 40
0.0
 40
0.0
 40
0.0
 40
0.25
 40
0.25
 40
0.5
 40
0.5
 40
0.75
 40
0.75
 40
1.0
 40
1.0
 40
1.0
 40
1.0
 10
247.4177848580043
 20
31.60861981258284
 30
0.0
 10
247.4008766604663
 20
31.5654629630337
 30
0.0
 10
247.3803534695853
 20
31.52544699054469
 30
0.0
 10
247.3315700340229
 20
31.45213736355978
 30
0.0
 10
247.3031130556471
 20
31.41885020495371
 30
0.0
 10
247.2397504331389
 20
31.36592735862338
 30
0.0
 10
247.204431372398
 20
31.34586369219812
 30
0.0
 10
247.1296132953468
 20
31.32910470171609
 30
0.0
 10
247.0912438212822
 20
31.33330159732727
 30
0.0
 10
247.0574517324952
 20
31.35280935494971
 30
0.0
  0
LINE
  5
1CF
330
1F
100
AcDbEntity
  8
0
  6
Continuous
 62
     7
370
    15
100
AcDbLine
 10
247.0574517325
 20
31.3528093549
 30
0.0
 11
245.7039915975
 21
32.1341452597
 31
0.0
  0
SPLINE
  5
1D0
330
1F
100
AcDbEntity
  8
0
  6
Continuous
 62
     7
370
    15
100
AcDbSpline
210
0.0
220
0.0
230
1.0
 70
     8
 71
     3
 72
     8
 73
     4
 74
     0
 42
0.000000001
 43
0.00000001
 40
0.0
 40
0.0
 40
0.0
 40
0.0
 40
0.0011901715795577
 40
0.0011901715795577
 40
0.0011901715795577
 40
0.0011901715795577
 10
245.7039915975494
 20
32.13414525965155
 30
0.0
 10
245.714852421192
 20
32.33210044800971
 30
0.0
 10
245.726335868148
 20
32.53003936051128
 30
0.0
 10
245.7384973349666
 20
32.72794984671991
 30
0.0
  0
SPLINE
  5
1D1
330
1F
100
AcDbEntity
  8
0
  6
Continuous
 62
     7
370
    15
100
AcDbSpline
210
0.0
220
0.0
230
1.0
 70
     8
 71
     3
 72
     9
 73
     5
 74
     0
 42
0.000000001
 43
0.00000001
 40
0.0
 40
0.0
 40
0.0
 40
0.0
 40
0.4636452414336405
 40
0.9999999999999999
 40
0.9999999999999999
 40
0.9999999999999999
 40
0.9999999999999999
 10
268.705141626901
 20
43.80095440750927
 30
0.0
 10
268.7022896727595
 20
43.80260361265856
 30
0.0
 10
268.6961385169046
 20
43.80616065369318
 30
0.0
 10
268.6628152522032
 20
43.82540473866408
 30
0.0
 10
268.6449421606098
 20
43.83572639521248
 30
0.0
  0
ARC
  5
1D2
330
1F
100
AcDbEntity
  8
0
  6
Continuous
 62
     7
370
    15
100
AcDbCircle
 10
252.6575491895
 20
32.2942895479
 30
0.0
 40
5.538925486346396
100
AcDbArc
 50
212.9723574219
 51
267.0484594014
  0
SPLINE
  5
1D3
330
1F
100
AcDbEntity
  8
0
  6
Continuous
 62
     7
370
    15
100
AcDbSpline
210
0.0
220
0.0
230
1.0
 70
     8
 71
     3
 72
     8
 73
     4
 74
     0
 42
0.000000001
 43
0.00000001
 40
0.0
 40
0.0
 40
0.0
 40
0.0
 40
1.0
 40
1.0
 40
1.0
 40
1.0
 10
246.064414264324
 20
33.38748748515468
 30
0.0
 10
245.955340683937
 20
33.16771528509545
 30
0.0
 10
245.846729118469
 20
32.94786220342579
 30
0.0
 10
245.7384973349666
 20
32.72794984671991
 30
0.0
  0
LINE
  5
1D4
330
1F
100
AcDbEntity
  8
0
  6
Continuous
 62
     7
370
    15
100
AcDbLine
 10
246.1226611148
 20
33.4211126762
 30
0.0
 11
246.0644142643
 21
33.3874874852
 31
0.0
  0
SPLINE
  5
1D5
330
1F
100
AcDbEntity
  8
0
  6
Continuous
 62
     7
370
    15
100
AcDbSpline
210
0.0
220
0.0
230
1.0
 70
     8
 71
     3
 72
    12
 73
     8
 74
     0
 42
0.000000001
 43
0.00000001
 40
0.0
 40
0.0
 40
0.0
 40
0.0
 40
0.2499999999999986
 40
0.2499999999999986
 40
0.4999999999999971
 40
0.4999999999999971
 40
1.0
 40
1.0
 40
1.0
 40
1.0
 10
246.1347602886122
 20
33.7546606252994
 30
0.0
 10
246.1727978961648
 20
33.73270198186216
 30
0.0
 10
246.2022713000764
 20
33.7064450452575
 30
0.0
 10
246.2410650101194
 20
33.64857703595818
 30
0.0
 10
246.2498872130659
 20
33.61779490114905
 30
0.0
 10
246.2447779403792
 20
33.52481491776231
 30
0.0
 10
246.1981541986098
 20
33.46469390583299
 30
0.0
 10
246.1226611147565
 20
33.42111267617706
 30
0.0
  0
LINE
  5
1D6
330
1F
100
AcDbEntity
  8
0
  6
Continuous
 62
     7
370
    15
100
AcDbLine
 10
245.3498717615
 20
34.2077671274
 30
0.0
 11
246.1347602886
 21
33.7546606253
 31
0.0
  0
SPLINE
  5
1D7
330
1F
100
AcDbEntity
  8
0
  6
Continuous
 62
     7
370
    15
100
AcDbSpline
210
0.0
220
0.0
230
1.0
 70
     8
 71
     3
 72
    12
 73
     8
 74
     0
 42
0.000000001
 43
0.00000001
 40
0.0
 40
0.0
 40
0.0
 40
0.0
 40
0.5
 40
0.5
 40
0.75
 40
0.75
 40
1.0
 40
1.0
 40
1.0
 40
1.0
 10
244.7720871626902
 20
34.20078242296776
 30
0.0
 10
244.8480179704415
 20
34.24461634525129
 30
0.0
 10
244.9519079298657
 20
34.27127368776051
 30
0.0
 10
245.112610009698
 20
34.27422955053422
 30
0.0
 10
245.1663948101209
 20
34.26907627889828
 30
0.0
 10
245.2661636955634
 20
34.24677777629492
 30
0.0
 10
245.3117159213908
 20
34.2297940249975
 30
0.0
 10
245.3498717614951
 20
34.207767127361
 30
0.0
  0
LINE
  5
1D8
330
1F
100
AcDbEntity
  8
0
  6
Continuous
 62
     7
370
    15
100
AcDbLine
 10
244.7138403123
 20
34.1671572319
 30
0.0
 11
244.7720871627
 21
34.200782423
 31
0.0
  0
SPLINE
  5
1D9
330
1F
100
AcDbEntity
  8
0
  6
Continuous
 62
     7
370
    15
100
AcDbSpline
210
0.0
220
0.0
230
1.0
 70
     8
 71
     3
 72
     8
 73
     4
 74
     0
 42
0.000000001
 43
0.00000001
 40
0.0
 40
0.0
 40
0.0
 40
0.0
 40
1.0
 40
1.0
 40
1.0
 40
1.0
 10
243.5713638232777
 20
33.9790093934667
 30
0.0
 10
243.9523044740174
 20
34.04149027213973
 30
0.0
 10
244.3331424462573
 20
34.10419039427477
 30
0.0
 10
244.7138403122577
 20
34.16715723194537
 30
0.0
  0
LINE
  5
1DA
330
1F
100
AcDbEntity
  8
0
  6
Continuous
 62
     7
370
    15
100
AcDbLine
 10
242.215412184
 20
34.761783613
 30
0.0
 11
243.5713638233
 21
33.9790093935
 31
0.0
  0
LINE
  5
1DB
330
1F
100
AcDbEntity
  8
0
  6
Continuous
 62
     7
370
    15
100
AcDbLine
 10
242.215412184
 20
34.761783613
 30
0.0
 11
244.2283501511
 21
35.9238279666
 31
0.0
  0
ARC
  5
1DC
330
1F
100
AcDbEntity
  8
0
  6
Continuous
 62
     7
370
    15
100
AcDbCircle
 10
251.9459928931
 20
33.741332609
 30
0.0
 40
6.445590069950398
100
AcDbArc
 50
194.4388633901
 51
238.0189953888
  0
SPLINE
  5
1DD
330
1F
100
AcDbEntity
  8
0
  6
Continuous
 62
     7
370
    15
100
AcDbSpline
210
0.0
220
0.0
230
1.0
 70
     8
 71
     3
 72
    22
 73
    18
 74
     0
 42
0.000000001
 43
0.00000001
 40
0.0
 40
0.0
 40
0.0
 40
0.0
 40
0.1249999999999999
 40
0.1249999999999999
 40
0.2499999999999998
 40
0.2499999999999998
 40
0.3749999999999998
 40
0.3749999999999998
 40
0.4999999999999999
 40
0.4999999999999999
 40
0.6249999999999999
 40
0.6249999999999999
 40
0.7499999999999999
 40
0.7499999999999999
 40
0.875
 40
0.875
 40
1.0
 40
1.0
 40
1.0
 40
1.0
 10
268.5086292501345
 20
38.14025734733865
 30
0.0
 10
268.5571782288262
 20
38.20065181528464
 30
0.0
 10
268.6010724012156
 20
38.26485732384153
 30
0.0
 10
268.6786658642856
 20
38.40132721627602
 30
0.0
 10
268.7122247481933
 20
38.47328950307757
 30
0.0
 10
268.7654273350199
 20
38.61692518642982
 30
0.0
 10
268.7857188789945
 20
38.69063412246141
 30
0.0
 10
268.811736390499
 20
38.83214402846186
 30
0.0
 10
268.8178241223727
 20
38.90114697107438
 30
0.0
 10
268.8161962949418
 20
39.03085184856223
 30
0.0
 10
268.808670750821
 20
39.09015377464655
 30
0.0
 10
268.7806218478706
 20
39.1974441094066
 30
0.0
 10
268.7602149842862
 20
39.24420985180933
 30
0.0
 10
268.7078733857147
 20
39.32132289745024
 30
0.0
 10
268.6753190872146
 20
39.35222740025104
 30
0.0
 10
268.6003757030916
 20
39.39559339192459
 30
0.0
 10
268.5571834105239
 20
39.40877703166639
 30
0.0
 10
268.5086292461027
 20
39.41311850504194
 30
0.0
  0
LINE
  5
1DE
330
1F
100
AcDbEntity
  8
0
  6
Continuous
 62
     7
370
    15
100
AcDbLine
 10
268.5086292461
 20
39.413118505
 30
0.0
 11
267.5195798079
 21
39.5015544268
 31
0.0
  0
ELLIPSE
  5
1DF
330
1F
100
AcDbEntity
  8
0
  6
Continuous
 62
     7
370
    15
100
AcDbEllipse
 10
243.9940355761
 20
36.712327541
 30
0.0
 11
-6.005970385558612E-5
 21
0.8534489614827194
 31
0.0
210
0.0
220
0.0
230
1.0
 40
0.7174342186
 41
3.534193645557468
 42
5.104989972352355
  0
ARC
  5
1E0
330
1F
100
AcDbEntity
  8
0
  6
Continuous
 62
     7
370
    15
100
AcDbCircle
 10
265.0506285452
 20
40.4041100861
 30
0.0
 40
1.491207826004772
100
AcDbArc
 50
321.0621655031
 51
347.3474134538
  0
LINE
  5
1E1
330
1F
100
AcDbEntity
  8
0
  6
Continuous
 62
     7
370
    15
100
AcDbLine
 10
267.5195798079
 20
36.9098892439
 30
0.0
 11
268.5086292501
 21
38.1402573473
 31
0.0
  0
LINE
  5
1E2
330
1F
100
AcDbEntity
  8
0
  6
Continuous
 62
     7
370
    15
100
AcDbLine
 10
265.2021724562
 20
38.21253058
 30
0.0
 11
266.2105322113
 21
39.4669205291
 31
0.0
  0
ARC
  5
1E3
330
1F
100
AcDbEntity
  8
0
  6
Continuous
 62
     7
370
    15
100
AcDbCircle
 10
251.3728248098
 20
36.0309771567
 30
0.0
 40
6.91490413890148
100
AcDbArc
 50
195.6366952156
 51
215.4285397018
  0
ARC
  5
1E4
330
1F
100
AcDbEntity
  8
0
  6
Continuous
 62
     7
370
    15
100
AcDbCircle
 10
249.087356704
 20
34.951529797
 30
0.0
 40
6.033559568081386
100
AcDbArc
 50
193.2193911006
 51
253.6140686844
  0
SPLINE
  5
1E5
330
1F
100
AcDbEntity
  8
0
  6
Continuous
 62
     7
370
    15
100
AcDbSpline
210
0.0
220
0.0
230
1.0
 70
     8
 71
     3
 72
     8
 73
     4
 74
     0
 42
0.000000001
 43
0.00000001
 40
0.0
 40
0.0
 40
0.0
 40
0.0
 40
0.0011901715795577
 40
0.0011901715795577
 40
0.0011901715795577
 40
0.0011901715795577
 10
243.5713638232777
 20
33.9790093934667
 30
0.0
 10
243.4525667073628
 20
33.84265835715166
 30
0.0
 10
243.3333235332147
 20
33.70692781101575
 30
0.0
 10
243.2136770257199
 20
33.57177326119633
 30
0.0
  0
LINE
  5
1E6
330
1F
100
AcDbEntity
  8
0
  6
Continuous
 62
     7
370
    15
100
AcDbLine
 10
241.7762504497
 20
34.5082089313
 30
0.0
 11
242.215412184
 21
34.761783613
 31
0.0
  0
LINE
  5
1E7
330
1F
100
AcDbEntity
  8
0
  6
Continuous
 62
     7
370
    15
100
AcDbLine
 10
243.2136770257
 20
33.5717732612
 30
0.0
 11
241.8778945603
 21
34.3429040645
 31
0.0
  0
SPLINE
  5
1E8
330
1F
100
AcDbEntity
  8
0
  6
Continuous
 62
     7
370
    15
100
AcDbSpline
210
0.0
220
0.0
230
1.0
 70
     8
 71
     3
 72
    10
 73
     6
 74
     0
 42
0.000000001
 43
0.00000001
 40
0.0
 40
0.0
 40
0.0
 40
0.0
 40
0.5
 40
0.5
 40
1.0
 40
1.0
 40
1.0
 40
1.0
 10
241.8778945603038
 20
34.34290406450039
 30
0.0
 10
241.8515903079269
 20
34.35808918617315
 30
0.0
 10
241.8293921938083
 20
34.38171883710703
 30
0.0
 10
241.7953803073766
 20
34.43916122991693
 30
0.0
 10
241.7835094269705
 20
34.47279950806755
 30
0.0
 10
241.7762504497064
 20
34.50820893131067
 30
0.0
  0
ARC
  5
1E9
330
1F
100
AcDbEntity
  8
0
  6
Continuous
 62
     7
370
    15
100
AcDbCircle
 10
247.5799808878
 20
35.3749529266
 30
0.0
 40
5.673857230183285
100
AcDbArc
 50
213.1307707041
 51
239.5677787011
  0
ELLIPSE
  5
1EA
330
1F
100
AcDbEntity
  8
0
  6
Continuous
 62
     7
370
    15
100
AcDbEllipse
 10
243.8747967605
 20
36.6434700609
 30
0.0
 11
0.2600075789209484
 21
0.9705436209909378
 31
0.0
210
0.0
220
0.0
230
1.0
 40
0.5176380889
 41
3.619174351347783
 42
5.189970678142586
  0
SPLINE
  5
1EB
330
1F
100
AcDbEntity
  8
0
  6
Continuous
 62
     7
370
    15
100
AcDbSpline
210
0.0
220
0.0
230
1.0
 70
     8
 71
     3
 72
    12
 73
     8
 74
     0
 42
0.000000001
 43
0.00000001
 40
0.0
 40
0.0
 40
0.0
 40
0.0
 40
0.5000000000000003
 40
0.5000000000000003
 40
0.7500000000000001
 40
0.7500000000000001
 40
1.0
 40
1.0
 40
1.0
 40
1.0
 10
261.3302269974203
 20
56.9830740963524
 30
0.0
 10
261.3926703232449
 20
57.01912186105272
 30
0.0
 10
261.472006928467
 20
57.04478086111052
 30
0.0
 10
261.6028802918081
 20
57.05656462111699
 30
0.0
 10
261.6476526041791
 20
57.05575434891346
 30
0.0
 10
261.7329145201824
 20
57.04220586852611
 30
0.0
 10
261.7723307273007
 20
57.02944125751671
 30
0.0
 10
261.8035703875506
 20
57.01140698552474
 30
0.0
  0
LINE
  5
1EC
330
1F
100
AcDbEntity
  8
0
  6
Continuous
 62
     7
370
    15
100
AcDbLine
 10
261.8035703876
 20
57.0114069855
 30
0.0
 11
262.955233653
 21
56.3465659339
 31
0.0
  0
SPLINE
  5
1ED
330
1F
100
AcDbEntity
  8
0
  6
Continuous
 62
     7
370
    15
100
AcDbSpline
210
0.0
220
0.0
230
1.0
 70
     8
 71
     3
 72
     9
 73
     5
 74
     0
 42
0.000000001
 43
0.00000001
 40
0.0
 40
0.0
 40
0.0
 40
0.0
 40
0.8664449205980829
 40
1.0
 40
1.0
 40
1.0
 40
1.0
 10
264.5223147711954
 20
54.56625207953965
 30
0.0
 10
264.841491438545
 20
54.63554223168254
 30
0.0
 10
265.2098664613097
 20
54.71551286858702
 30
0.0
 10
265.5802066160272
 20
54.79238192741992
 30
0.0
 10
265.6296674247963
 20
54.8026481806759
 30
0.0
  0
LINE
  5
1EE
330
1F
100
AcDbEntity
  8
0
  6
Continuous
 62
     7
370
    15
100
AcDbLine
 10
265.6296674248
 20
54.8026481807
 30
0.0
 11
266.9831275597
 21
54.021312276
 31
0.0
  0
SPLINE
  5
1EF
330
1F
100
AcDbEntity
  8
0
  6
Continuous
 62
     7
370
    15
100
AcDbSpline
210
0.0
220
0.0
230
1.0
 70
     8
 71
     3
 72
    14
 73
    10
 74
     0
 42
0.000000001
 43
0.00000001
 40
0.0
 40
0.0
 40
0.0
 40
0.0
 40
0.25
 40
0.25
 40
0.5
 40
0.5
 40
0.75
 40
0.75
 40
1.0
 40
1.0
 40
1.0
 40
1.0
 10
266.983127559742
 20
54.02131227597407
 30
0.0
 10
267.0143896479001
 20
54.00326505662628
 30
0.0
 10
267.0366570199963
 20
53.98017574118597
 30
0.0
 10
267.0598104179845
 20
53.93156438791727
 30
0.0
 10
267.0613305879805
 20
53.90556460635215
 30
0.0
 10
267.0478854172096
 20
53.85543167696473
 30
0.0
 10
267.0331859115615
 20
53.83124136185333
 30
0.0
 10
266.9915409165858
 20
53.78629091908074
 30
0.0
 10
266.9652286330683
 20
53.76605701199897
 30
0.0
 10
266.9340482383236
 20
53.74805695325492
 30
0.0
  0
LINE
  5
1F0
330
1F
100
AcDbEntity
  8
0
  6
Continuous
 62
     7
370
    15
100
AcDbLine
 10
261.3302269974
 20
56.9830740964
 30
0.0
 11
260.8223063077
 21
56.6898577235
 31
0.0
  0
SPLINE
  5
1F1
330
1F
100
AcDbEntity
  8
0
  6
Continuous
 62
     7
370
    15
100
AcDbSpline
210
0.0
220
0.0
230
1.0
 70
     8
 71
     3
 72
    13
 73
     9
 74
     0
 42
0.000000001
 43
0.00000001
 40
0.0
 40
0.0
 40
0.0
 40
0.0
 40
0.1990936675366361
 40
0.4038069019447306
 40
0.603002906041386
 40
0.8090565970626625
 40
0.9906655832121418
 40
1.0
 40
1.0
 40
1.0
 40
1.0
 10
268.6449421606098
 20
50.65221968922911
 30
0.0
 10
268.6549102096957
 20
50.67110969370419
 30
0.0
 10
268.675127663468
 20
50.70942288708287
 30
0.0
 10
268.6948645593689
 20
50.77058591910584
 30
0.0
 10
268.7062720868948
 20
50.83350429971779
 30
0.0
 10
268.705810121981
 20
50.89266764074156
 30
0.0
 10
268.7014945732641
 20
50.93238628175349
 30
0.0
 10
268.6948596950359
 20
50.94898363964216
 30
0.0
 10
268.6945353438524
 20
50.94979501439366
 30
0.0
  0
LINE
  5
1F2
330
1F
100
AcDbEntity
  8
0
  6
Continuous
 62
     7
370
    15
100
AcDbLine
 10
268.5395786621
 20
43.8965712214
 30
0.0
 11
266.8027341405
 21
44.8992302215
 31
0.0
  0
LWPOLYLINE
  5
1F3
330
1F
100
AcDbEntity
  8
0
  6
Continuous
 62
     7
370
     0
100
AcDbPolyline
 90
       23
 70
   128
 43
0.0
 10
247.0574517325
 20
38.7005956788
 10
247.37193406
 20
39.940516271
 10
247.7642867287
 20
41.1901288214
 10
248.2315861934
 20
42.440122068
 10
248.7703504566
 20
43.6811819116
 10
249.3765650138
 20
44.904060819
 10
250.0457127665
 20
46.0996467288
 10
250.7728076812
 20
47.2590309486
 10
251.5524319413
 20
48.3735745361
 10
252.3787763176
 20
49.4349726711
 10
253.2456834541
 20
50.4353165371
 10
254.1466937487
 20
51.3671522523
 10
255.0750934861
 20
52.2235364113
 10
256.0239648633
 20
52.9980878221
 10
256.9862375364
 20
53.6850350547
 10
257.9547413045
 20
54.2792594459
 10
258.9222595365
 20
54.77633324
 10
259.8815829453
 20
55.1725525812
 10
260.8255633055
 20
55.4649651129
 10
261.7471667179
 20
55.6513919757
 10
262.6395260213
 20
55.7304440436
 10
263.4959919614
 20
55.7015322743
 10
264.3101827368
 20
55.5648720988
  0
LWPOLYLINE
  5
1F4
330
1F
100
AcDbEntity
  8
0
  6
Continuous
 62
     7
370
     0
100
AcDbPolyline
 90
       24
 70
   128
 43
0.0
 10
247.417784858
 20
38.3709721253
 10
247.7008212604
 20
39.5508695569
 10
248.0567014359
 20
40.7418191749
 10
248.4829167543
 20
41.9354258724
 10
248.9764627868
 20
43.1232758121
 10
249.5338604847
 20
44.2969957368
 10
250.1511807034
 20
45.4483119932
 10
250.8240718989
 20
46.5691088529
 10
251.5477908031
 20
47.6514857219
 10
252.3172358585
 20
48.6878128318
 10
253.1269831803
 20
49.6707850228
 10
253.9713247894
 20
50.5934732388
 10
254.8443088486
 20
51.4493733706
 10
255.7397816176
 20
52.2324521039
 10
256.6514308312
 20
52.9371894489
 10
257.5728301951
 20
53.5586176509
 10
258.4974846852
 20
54.0923562086
 10
259.4188763319
 20
54.5346427527
 10
260.3305101656
 20
54.882359567
 10
261.2259600003
 20
55.1330555655
 10
262.0989137326
 20
55.2849635704
 10
262.9432178359
 20
55.3370127689
 10
263.7529207375
 20
55.2888362619
 10
264.5223147712
 20
55.1407736496
  0
LWPOLYLINE
  5
1F5
330
1F
100
AcDbEntity
  8
0
  6
Continuous
 62
     7
370
     0
100
AcDbPolyline
 90
        3
 70
   128
 43
0.0
 10
268.6449421606
 20
43.8357263952
 10
268.360247407
 20
42.6564838026
 10
268.2929246676
 20
42.4134426044
  0
LWPOLYLINE
  5
1F6
330
1F
100
AcDbEntity
  8
0
  6
Continuous
 62
     7
370
     0
100
AcDbPolyline
 90
       21
 70
   128
 43
0.0
 10
262.0434325887
 20
31.5878318247
 10
261.2110447962
 20
30.7753042867
 10
260.3160719332
 20
29.9940705177
 10
259.4050453347
 20
29.2911167331
 10
258.4843755309
 20
28.6713893379
 10
257.5605409071
 20
28.1392491061
 10
256.6400421185
 20
27.6984404956
 10
255.7293563471
 20
27.3520653007
 10
254.8348917247
 20
27.102560825
 10
253.9629422413
 20
26.9516827319
 10
253.119643457
 20
26.9004926902
 10
252.3109293283
 20
26.9493509037
 10
251.5424904532
 20
27.0979135768
 10
250.8197340291
 20
27.3451353333
 10
250.147745804
 20
27.6892765724
 10
249.5312542904
 20
28.1279157099
 10
248.9745974929
 20
28.6579662174
 10
248.4816923826
 20
29.2756983414
 10
248.0560073361
 20
29.9767653478
 10
247.7005377287
 20
30.7562341082
 10
247.417784858
 20
31.6086198126
  0
ARC
  5
1F7
330
1F
100
AcDbEntity
  8
0
  6
Continuous
 62
     7
370
     0
100
AcDbCircle
 10
261.8461841629
 20
48.9156069123
 30
0.0
 40
7.017045977378564
100
AcDbArc
 50
14.3287300663
 51
43.5251561868
  0
LWPOLYLINE
  5
1F8
330
1F
100
AcDbEntity
  8
0
  6
Continuous
 62
     7
370
     0
100
AcDbPolyline
 90
       28
 70
   128
 43
0.0
 10
252.200979109
 20
37.7510752345
 10
252.2404240345
 20
38.5559017748
 10
252.3582253861
 20
39.3953865583
 10
252.5527901026
 20
40.2581769936
 10
252.8214870299
 20
41.1326053201
 10
253.1606825032
 20
42.0068463947
 10
253.5657894853
 20
42.8690776068
 10
254.0313295995
 20
43.7076387582
 10
254.5510072143
 20
44.5111897479
 10
255.1177945814
 20
45.2688639273
 10
255.724026874
 20
45.9704150529
 10
256.3615058404
 20
46.6063558492
 10
257.0216106711
 20
47.1680863079
 10
257.6954145806
 20
47.6480099882
 10
258.373805527
 20
48.0396367456
 10
259.0476094366
 20
48.3376704999
 10
259.7077142672
 20
48.5380808561
 10
260.3451932336
 20
48.6381576078
 10
260.9514255262
 20
48.6365473886
 10
261.5182128933
 20
48.533271974
 10
262.0378905081
 20
48.3297279867
 10
262.5034306223
 20
48.0286680101
 10
262.9085376045
 20
47.6341633639
 10
263.2477330777
 20
47.1515490466
 10
263.516430005
 20
46.587351589
 10
263.7109947215
 20
45.9492007938
 10
263.8287960731
 20
45.2457265557
 10
263.8521572982
 20
44.977043039
  0
LWPOLYLINE
  5
1F9
330
1F
100
AcDbEntity
  8
0
  6
Continuous
 62
     7
370
     0
100
AcDbPolyline
 90
       14
 70
   128
 43
0.0
 10
257.6026652192
 20
34.1514322593
 10
257.0216106711
 20
33.8998468917
 10
256.3615058404
 20
33.6994365355
 10
255.724026874
 20
33.5993597838
 10
255.1177945814
 20
33.600970003
 10
254.5510072143
 20
33.7042454177
 10
254.0313295995
 20
33.9077894049
 10
253.5657894853
 20
34.2088493815
 10
253.1606825032
 20
34.6033540277
 10
252.8214870299
 20
35.085968345
 10
252.5527901026
 20
35.6501658026
 10
252.3582253861
 20
36.2883165979
 10
252.2404240345
 20
36.9917908359
 10
252.200979109
 20
37.7510752345
  0
LWPOLYLINE
  5
1FA
330
1F
100
AcDbEntity
  8
0
  6
Continuous
 62
     7
370
     0
100
AcDbPolyline
 90
       23
 70
   128
 43
0.0
 10
241.8778945603
 20
41.6906903883
 10
242.1923768878
 20
42.9306109805
 10
242.5847295565
 20
44.180223531
 10
243.0520290212
 20
45.4302167775
 10
243.5907932845
 20
46.6712766212
 10
244.1970078416
 20
47.8941555286
 10
244.8661555943
 20
49.0897414384
 10
245.593250509
 20
50.2491256581
 10
246.3728747691
 20
51.3636692457
 10
247.1992191454
 20
52.4250673807
 10
248.0661262819
 20
53.4254112466
 10
248.9671365765
 20
54.3572469619
 10
249.8955363139
 20
55.2136311208
 10
250.8444076911
 20
55.9881825316
 10
251.8066803642
 20
56.6751297642
 10
252.7751841323
 20
57.2693541555
 10
253.7427023644
 20
57.7664279495
 10
254.7020257731
 20
58.1626472908
 10
255.6460061333
 20
58.4550598224
 10
256.5676095458
 20
58.6414866852
 10
257.4599688491
 20
58.7205387531
 10
258.3164347892
 20
58.6916269839
 10
259.1306255646
 20
58.5549668083
  0
LWPOLYLINE
  5
1FB
330
1F
100
AcDbEntity
  8
0
  6
Continuous
 62
     7
370
     0
100
AcDbPolyline
 90
       19
 70
   128
 43
0.0
 10
245.3498717615
 20
40.780920663
 10
245.6463703486
 20
41.9295300743
 10
246.0182596039
 20
43.0866625938
 10
246.4624870681
 20
44.2428205018
 10
246.9754065314
 20
45.3885140779
 10
247.5528079613
 20
46.5143394929
 10
248.1899520588
 20
47.6110559949
 10
248.8816091583
 20
48.6696617575
 10
249.6221021525
 20
49.6814677664
 10
250.4053530902
 20
50.6381691387
 10
251.2249330639
 20
51.5319132893
 10
252.0741149779
 20
52.3553643845
 10
252.9459287647
 20
53.1017635548
 10
253.8332185947
 20
53.7649843712
 10
254.7287016111
 20
54.3395831308
 10
255.6250277079
 20
54.8208435389
 10
256.5148398589
 20
55.2048154198
 10
257.3908345042
 20
55.4883471405
 10
257.459893398
 20
55.506561428
  0
LWPOLYLINE
  5
1FC
330
1F
100
AcDbEntity
  8
0
  6
Continuous
 62
     7
370
     0
100
AcDbPolyline
 90
       22
 70
   128
 43
0.0
 10
244.7720871627
 20
40.7739359586
 10
245.0671732562
 20
41.9448275245
 10
245.438875765
 20
43.1253058563
 10
245.8841910702
 20
44.3058318549
 10
246.3995207094
 20
45.4768660359
 10
246.980700455
 20
46.6289456156
 10
247.6230339639
 20
47.7527609768
 10
248.3213307273
 20
48.8392308972
 10
249.0699480141
 20
49.8795759321
 10
249.8628364675
 20
50.8653893585
 10
250.6935889884
 20
51.788705107
 10
251.5554925094
 20
52.6420621341
 10
252.4415822409
 20
53.4185647119
 10
253.3446979519
 20
54.1119381508
 10
254.2575418289
 20
54.7165795034
 10
255.1727374486
 20
55.2276028404
 10
256.0828893835
 20
55.6408787319
 10
256.9806429627
 20
55.9530676168
 10
257.8587437029
 20
56.1616467882
 10
258.7100959297
 20
56.2649307791
 10
259.5278201153
 20
56.2620849818
 10
259.533005655
 20
56.2617192619
  0
ARC
  5
1FD
330
1F
100
AcDbEntity
  8
0
  6
Continuous
 62
     7
370
     0
100
AcDbCircle
 10
258.162610376
 20
37.4450171459
 30
0.0
 40
3.148116857812387
100
AcDbArc
 50
174.4209254684
 51
234.2668941382
  0
LWPOLYLINE
  5
1FE
330
1F
100
AcDbEntity
  8
0
  6
Continuous
 62
     7
370
     0
100
AcDbPolyline
 90
       19
 70
   128
 43
0.0
 10
262.5735696557
 20
45.7151559739
 10
262.3021225659
 20
45.8467324101
 10
261.8268341209
 20
45.9767464503
 10
261.3091100221
 20
46.0055007618
 10
260.7581890683
 20
45.9324822233
 10
260.183902457
 20
45.7589938523
 10
259.5964983464
 20
45.4881315529
 10
259.0064589767
 20
45.1247288692
 10
258.4243136145
 20
44.6752707309
 10
257.8604506575
 20
44.1477777289
 10
257.3249322536
 20
43.5516629884
 10
256.8273147414
 20
42.897564191
 10
256.3764781172
 20
42.1971537454
 10
255.9804675712
 20
41.4629304924
 10
255.6463499209
 20
40.7079966635
 10
255.3800875039
 20
39.9458240707
 10
255.1864317791
 20
39.190013702
 10
255.0688385377
 20
38.4540530113
 10
255.0294062338
 20
37.7510752345
  0
LWPOLYLINE
  5
1FF
330
1F
100
AcDbEntity
  8
0
  6
Continuous
 62
     7
370
     0
100
AcDbPolyline
 90
       14
 70
   128
 43
0.0
 10
263.0228541893
 20
34.0949728969
 10
263.2593732388
 20
33.7726038228
 10
263.5605331813
 20
33.5411812161
 10
263.9174130091
 20
33.4075603139
 10
264.3194411713
 20
33.3756992558
 10
264.7547087258
 20
33.4465418352
 10
265.2103221079
 20
33.6179895419
 10
265.6727850656
 20
33.8849637246
 10
266.1283984477
 20
34.2395560318
 10
266.5636660022
 20
34.6712626738
 10
266.9656941644
 20
35.1672955678
 10
267.3225739922
 20
35.7129611486
 10
267.6237339347
 20
36.2920956237
 10
267.8602529842
 20
36.8875437796
  0
LWPOLYLINE
  5
200
330
1F
100
AcDbEntity
  8
0
  6
Continuous
 62
     7
370
     0
100
AcDbPolyline
 90
       14
 70
   128
 43
0.0
 10
267.8601547434
 20
39.5908472206
 10
267.6236227505
 20
39.9131531001
 10
267.3224628983
 20
40.1445228256
 10
266.9655948474
 20
40.2781037589
 10
266.5635882069
 20
40.3099395409
 10
266.1283494871
 20
40.2390872689
 10
265.6727694557
 20
40.0676454239
 10
265.2103413431
 20
39.8006917184
 10
264.7547612042
 20
39.4461327057
 10
264.3195222729
 20
39.0144696066
 10
263.9175153229
 20
38.5184872873
 10
263.5606468738
 20
37.9728756008
 10
263.2594865463
 20
37.3937943078
 10
263.0229540154
 20
36.7983944616
  0
LINE
  5
201
330
1F
100
AcDbEntity
  8
0
  6
Continuous
 62
     7
370
     0
100
AcDbLine
 10
262.0916352109
 20
34.4358055399
 30
0.0
 11
262.162345889
 21
34.1719153059
 31
0.0
  0
LWPOLYLINE
  5
202
330
1F
100
AcDbEntity
  8
0
  6
Continuous
 62
     7
370
     0
100
AcDbPolyline
 90
        3
 70
   128
 43
0.0
 10
267.4295588169
 20
39.5441014654
 10
267.1873041557
 20
39.8436645132
 10
266.9792793345
 20
39.9964534453
  0
LWPOLYLINE
  5
203
330
1F
100
AcDbEntity
  8
0
  6
Continuous
 62
     7
370
     0
100
AcDbPolyline
 90
       12
 70
   128
 43
0.0
 10
263.5085225243
 20
33.917938178
 10
263.5788384417
 20
33.8829629842
 10
263.9409736533
 20
33.7814265318
 10
264.3459137175
 20
33.7856642302
 10
264.7802057041
 20
33.8955352946
 10
265.2294215524
 20
34.1073895853
 10
265.6786374006
 20
34.4141888731
 10
266.1129293872
 20
34.8057406634
 10
266.5178694515
 20
35.2690368114
 10
266.8800046631
 20
35.7886856793
 10
267.1873041557
 20
36.3474234778
 10
267.4295588169
 20
36.9266878039
  0
LINE
  5
204
330
1F
100
AcDbEntity
  8
0
  6
Continuous
 62
     7
370
     0
100
AcDbLine
 10
250.0443034264
 20
39.1393969824
 30
0.0
 11
249.4785260542
 21
39.4660133071
 31
0.0
  0
LINE
  5
205
330
1F
100
AcDbEntity
  8
0
  6
Continuous
 62
     7
370
     0
100
AcDbLine
 10
261.8582166525
 20
34.5705552055
 30
0.0
 11
262.0916352109
 21
34.4358055399
 31
0.0
  0
LWPOLYLINE
  5
206
330
1F
100
AcDbEntity
  8
0
  6
Continuous
 62
     7
370
     0
100
AcDbPolyline
 90
        3
 70
   128
 43
0.0
 10
244.3616388277
 20
39.8188314966
 10
244.3609326726
 20
39.9400694844
 10
244.3857456174
 20
40.674924098
  0
LINE
  5
207
330
1F
100
AcDbEntity
  8
0
  6
Continuous
 62
     7
370
     0
100
AcDbLine
 10
244.559721001
 20
37.0388907858
 30
0.0
 11
250.0443034264
 21
33.8727087457
 31
0.0
  0
LINE
  5
208
330
1F
100
AcDbEntity
  8
0
  6
Continuous
 62
     7
370
     0
100
AcDbLine
 10
244.4404821855
 20
36.9700333057
 30
0.0
 11
244.559721001
 21
37.0388907858
 31
0.0
  0
LWPOLYLINE
  5
209
330
1F
100
AcDbEntity
  8
0
  6
Continuous
 62
     7
370
     0
100
AcDbPolyline
 90
       18
 70
   128
 43
0.0
 10
223.0890498142
 20
56.2320328617
 10
223.1281561347
 20
56.9291991818
 10
223.2447772429
 20
57.659075749
 10
223.4368320325
 20
58.4086378986
 10
223.7008932811
 20
59.1645096763
 10
224.0322488096
 20
59.9132025323
 10
224.4249855705
 20
60.641356025
 10
224.8720951673
 20
61.3359762379
 10
225.3655989184
 20
61.9846676569
 10
225.8966902379
 20
62.5758543682
 10
226.4558917884
 20
63.0989866311
 10
227.0332246051
 20
63.5447291378
 10
227.6183861702
 20
63.9051276028
 10
228.2009342617
 20
64.1737507069
 10
228.7704732952
 20
64.3458048645
 10
229.3168398329
 20
64.4182197651
 10
229.8302839513
 20
64.389703163
 10
230.1832290828
 20
64.3039822113
  0
ARC
  5
20A
330
1F
100
AcDbEntity
  8
0
  6
Continuous
 62
     7
370
     0
100
AcDbCircle
 10
226.3543703345
 20
55.9566384731
 30
0.0
 40
3.276913207539125
100
AcDbArc
 50
175.1791309351
 51
225.8020354417
  0
ARC
  5
20B
330
1F
100
AcDbEntity
  8
0
  6
Continuous
 62
     7
370
     0
100
AcDbCircle
 10
254.4323685451
 20
33.488621109
 30
0.0
 40
7.677961307645846
100
AcDbArc
 50
196.1512732831
 51
213.2413527586
  0
LINE
  5
20C
330
1F
100
AcDbEntity
  8
0
  6
Continuous
 62
     7
370
     0
100
AcDbLine
 10
249.4786180015
 20
32.8929128515
 30
0.0
 11
244.2283501511
 21
35.9238279666
 31
0.0
  0
LINE
  5
20D
330
1F
100
AcDbEntity
  8
0
  6
Continuous
 62
     7
370
     0
100
AcDbLine
 10
268.7207612845
 20
37.9580079245
 30
0.0
 11
268.5086292501
 21
38.1402573473
 31
0.0
  0
LINE
  5
20E
330
1F
100
AcDbEntity
  8
0
  6
Continuous
 62
     7
370
     0
100
AcDbLine
 10
246.2143957364
 20
33.508542542
 30
0.0
 11
246.1347602886
 21
33.7546606253
 31
0.0
  0
LINE
  5
20F
330
1F
100
AcDbEntity
  8
0
  6
Continuous
 62
     7
370
     0
100
AcDbLine
 10
266.2105322113
 20
39.4669205291
 30
0.0
 11
268.5086292501
 21
38.1402573473
 31
0.0
  0
LWPOLYLINE
  5
210
330
1F
100
AcDbEntity
  8
0
  6
Continuous
 62
     7
370
     0
100
AcDbPolyline
 90
        3
 70
   128
 43
0.0
 10
245.8492536318
 20
32.9767137527
 10
245.6374996252
 20
33.4219361398
 10
245.3498717615
 20
34.2077671274
  0
ARC
  5
211
330
1F
100
AcDbEntity
  8
0
  6
Continuous
 62
     7
370
     0
100
AcDbCircle
 10
251.4509177416
 20
36.0916511165
 30
0.0
 40
6.941337213906976
100
AcDbArc
 50
195.8075464007
 51
213.7425642643
  0
ARC
  5
212
330
1F
100
AcDbEntity
  8
0
  6
Continuous
 62
     7
370
     0
100
AcDbCircle
 10
249.2546454411
 20
36.4794225657
 30
0.0
 40
7.679919587025675
100
AcDbArc
 50
196.1525315767
 51
213.2025399643
  0
LINE
  5
213
330
1F
100
AcDbEntity
  8
0
  6
Continuous
 62
     7
370
     0
100
AcDbLine
 10
266.802734148
 20
43.5470387064
 30
0.0
 11
267.3684195655
 21
43.220475466
 31
0.0
  0
OLE2FRAME
  5
214
330
1F
100
AcDbEntity
  8
0
100
AcDbOle2Frame
 70
     2
  3
Paintbrush-Bild
 10
13.8511154363
 20
38.264191557
 30
0.0
 11
51.6290888628
 21
31.9806341108
 31
0.0
 71
     2
 72
     0
 73
     1
 90
    12928
310
80552BED0767C5B32B40DDAF6807D121434000000000000000006FFBDDFB85D0
310
4940DDAF6807D121434000000000000000006FFBDDFB85D04940416F4BD60AFB
310
3F4000000000000000002BED0767C5B32B40416F4BD60AFB3F40000000000000
310
0000000000000100000000010000010000000100000000000100000000320000
310
D0CF11E0A1B11AE1000000000000000000000000000000003E000300FEFF0900
310
0600000000000000000000000100000001000000000000000010000002000000
310
01000000FEFFFFFF0000000000000000FFFFFFFFFFFFFFFFFFFFFFFFFFFFFFFF
310
FFFFFFFFFFFFFFFFFFFFFFFFFFFFFFFFFFFFFFFFFFFFFFFFFFFFFFFFFFFFFFFF
310
FFFFFFFFFFFFFFFFFFFFFFFFFFFFFFFFFFFFFFFFFFFFFFFFFFFFFFFFFFFFFFFF
310
FFFFFFFFFFFFFFFFFFFFFFFFFFFFFFFFFFFFFFFFFFFFFFFFFFFFFFFFFFFFFFFF
310
FFFFFFFFFFFFFFFFFFFFFFFFFFFFFFFFFFFFFFFFFFFFFFFFFFFFFFFFFFFFFFFF
310
FFFFFFFFFFFFFFFFFFFFFFFFFFFFFFFFFFFFFFFFFFFFFFFFFFFFFFFFFFFFFFFF
310
FFFFFFFFFFFFFFFFFFFFFFFFFFFFFFFFFFFFFFFFFFFFFFFFFFFFFFFFFFFFFFFF
310
FFFFFFFFFFFFFFFFFFFFFFFFFFFFFFFFFFFFFFFFFFFFFFFFFFFFFFFFFFFFFFFF
310
FFFFFFFFFFFFFFFFFFFFFFFFFFFFFFFFFFFFFFFFFFFFFFFFFFFFFFFFFFFFFFFF
310
FFFFFFFFFFFFFFFFFFFFFFFFFFFFFFFFFFFFFFFFFFFFFFFFFFFFFFFFFFFFFFFF
310
FFFFFFFFFFFFFFFFFFFFFFFFFFFFFFFFFFFFFFFFFFFFFFFFFFFFFFFFFFFFFFFF
310
FFFFFFFFFFFFFFFFFFFFFFFFFFFFFFFFFFFFFFFFFFFFFFFFFFFFFFFFFFFFFFFF
310
FFFFFFFFFFFFFFFFFFFFFFFFFFFFFFFFFFFFFFFFFFFFFFFFFFFFFFFFFFFFFFFF
310
FFFFFFFFFFFFFFFFFFFFFFFFFFFFFFFFFFFFFFFFFFFFFFFFFFFFFFFFFFFFFFFF
310
FDFFFFFFFEFFFFFFFEFFFFFFFEFFFFFF05000000060000000700000008000000
310
090000000A0000000B0000000C0000000D0000000E0000000F00000010000000
310
11000000120000001300000014000000150000001600000017000000FEFFFFFF
310
FFFFFFFFFFFFFFFFFFFFFFFFFFFFFFFFFFFFFFFFFFFFFFFFFFFFFFFFFFFFFFFF
310
FFFFFFFFFFFFFFFFFFFFFFFFFFFFFFFFFFFFFFFFFFFFFFFFFFFFFFFFFFFFFFFF
310
FFFFFFFFFFFFFFFFFFFFFFFFFFFFFFFFFFFFFFFFFFFFFFFFFFFFFFFFFFFFFFFF
310
FFFFFFFFFFFFFFFFFFFFFFFFFFFFFFFFFFFFFFFFFFFFFFFFFFFFFFFFFFFFFFFF
310
FFFFFFFFFFFFFFFFFFFFFFFFFFFFFFFFFFFFFFFFFFFFFFFFFFFFFFFFFFFFFFFF
310
FFFFFFFFFFFFFFFFFFFFFFFFFFFFFFFFFFFFFFFFFFFFFFFFFFFFFFFFFFFFFFFF
310
FFFFFFFFFFFFFFFFFFFFFFFFFFFFFFFFFFFFFFFFFFFFFFFFFFFFFFFFFFFFFFFF
310
FFFFFFFFFFFFFFFFFFFFFFFFFFFFFFFFFFFFFFFFFFFFFFFFFFFFFFFFFFFFFFFF
310
FFFFFFFFFFFFFFFFFFFFFFFFFFFFFFFFFFFFFFFFFFFFFFFFFFFFFFFFFFFFFFFF
310
FFFFFFFFFFFFFFFFFFFFFFFFFFFFFFFFFFFFFFFFFFFFFFFFFFFFFFFFFFFFFFFF
310
FFFFFFFFFFFFFFFFFFFFFFFFFFFFFFFFFFFFFFFFFFFFFFFFFFFFFFFFFFFFFFFF
310
FFFFFFFFFFFFFFFFFFFFFFFFFFFFFFFFFFFFFFFFFFFFFFFFFFFFFFFFFFFFFFFF
310
FFFFFFFFFFFFFFFFFFFFFFFFFFFFFFFFFFFFFFFFFFFFFFFFFFFFFFFFFFFFFFFF
310
52006F006F007400200045006E00740072007900000000000000000000000000
310
0000000000000000000000000000000000000000000000000000000000000000
310
16000500FFFFFFFFFFFFFFFF020000000A00030000000000C000000000000046
310
000000000000000000000000401212E9E71ED20103000000C000000000000000
310
01004F006C006500000000000000000000000000000000000000000000000000
310
0000000000000000000000000000000000000000000000000000000000000000
310
0A000200FFFFFFFFFFFFFFFFFFFFFFFF00000000000000000000000000000000
310
0000000000000000000000000000000000000000000000001400000000000000
310
010043006F006D0070004F0062006A0000000000000000000000000000000000
310
0000000000000000000000000000000000000000000000000000000000000000
310
120002010100000003000000FFFFFFFF00000000000000000000000000000000
310
0000000000000000000000000000000000000000010000004D00000000000000
310
01004F006C006500310030004E00610074006900760065000000000000000000
310
0000000000000000000000000000000000000000000000000000000000000000
310
1A000200FFFFFFFFFFFFFFFFFFFFFFFF00000000000000000000000000000000
310
0000000000000000000000000000000000000000040000002426000000000000
310
FEFFFFFF02000000FEFFFFFFFFFFFFFFFFFFFFFFFFFFFFFFFFFFFFFFFFFFFFFF
310
FFFFFFFFFFFFFFFFFFFFFFFFFFFFFFFFFFFFFFFFFFFFFFFFFFFFFFFFFFFFFFFF
310
FFFFFFFFFFFFFFFFFFFFFFFFFFFFFFFFFFFFFFFFFFFFFFFFFFFFFFFFFFFFFFFF
310
FFFFFFFFFFFFFFFFFFFFFFFFFFFFFFFFFFFFFFFFFFFFFFFFFFFFFFFFFFFFFFFF
310
FFFFFFFFFFFFFFFFFFFFFFFFFFFFFFFFFFFFFFFFFFFFFFFFFFFFFFFFFFFFFFFF
310
FFFFFFFFFFFFFFFFFFFFFFFFFFFFFFFFFFFFFFFFFFFFFFFFFFFFFFFFFFFFFFFF
310
FFFFFFFFFFFFFFFFFFFFFFFFFFFFFFFFFFFFFFFFFFFFFFFFFFFFFFFFFFFFFFFF
310
FFFFFFFFFFFFFFFFFFFFFFFFFFFFFFFFFFFFFFFFFFFFFFFFFFFFFFFFFFFFFFFF
310
FFFFFFFFFFFFFFFFFFFFFFFFFFFFFFFFFFFFFFFFFFFFFFFFFFFFFFFFFFFFFFFF
310
FFFFFFFFFFFFFFFFFFFFFFFFFFFFFFFFFFFFFFFFFFFFFFFFFFFFFFFFFFFFFFFF
310
FFFFFFFFFFFFFFFFFFFFFFFFFFFFFFFFFFFFFFFFFFFFFFFFFFFFFFFFFFFFFFFF
310
FFFFFFFFFFFFFFFFFFFFFFFFFFFFFFFFFFFFFFFFFFFFFFFFFFFFFFFFFFFFFFFF
310
FFFFFFFFFFFFFFFFFFFFFFFFFFFFFFFFFFFFFFFFFFFFFFFFFFFFFFFFFFFFFFFF
310
FFFFFFFFFFFFFFFFFFFFFFFFFFFFFFFFFFFFFFFFFFFFFFFFFFFFFFFFFFFFFFFF
310
FFFFFFFFFFFFFFFFFFFFFFFFFFFFFFFFFFFFFFFFFFFFFFFFFFFFFFFFFFFFFFFF
310
FFFFFFFFFFFFFFFFFFFFFFFFFFFFFFFFFFFFFFFFFFFFFFFFFFFFFFFFFFFFFFFF
310
0100000200000000000000000000000000000000000000000000000000000000
310
0000000000000000000000000000000000000000000000000000000000000000
310
0100FEFF030A0000FFFFFFFF0A00030000000000C00000000000004607000000
310
5042727573680007000000504272757368000700000050427275736800F439B2
310
7100000000000000000000000000000000000000000000000000000000000000
310
0000000000000000000000000000000000000000000000000000000000000000
310
0000000000000000000000000000000000000000000000000000000000000000
310
0000000000000000000000000000000000000000000000000000000000000000
310
0000000000000000000000000000000000000000000000000000000000000000
310
0000000000000000000000000000000000000000000000000000000000000000
310
0000000000000000000000000000000000000000000000000000000000000000
310
0000000000000000000000000000000000000000000000000000000000000000
310
0000000000000000000000000000000000000000000000000000000000000000
310
0000000000000000000000000000000000000000000000000000000000000000
310
0000000000000000000000000000000000000000000000000000000000000000
310
0000000000000000000000000000000000000000000000000000000000000000
310
20260000424D0E260000000000003E00000028000000B40200006E0000000100
310
01000000000000000000130B0000130B00000200000002000000000000FFFFFF
310
FFFFFFFFFFFFFFFFFFFFFFFFFFFFFFFFFFFFFFFFFFFFFFFFFFFFFFFFFFFFFFFF
310
FFFFFFFFFFFFFFFFFFFFFFFFFFFFFFFFFFFFFFFFFFFFFFFFFFFFFFFFFFFFFFFF
310
FFFFFFFFFFFFFFFFFFFFFFFFFFFFFFFFFFFFFFFFFFFFFFFFF000FFFFFFFFFFFF
310
FFFFFFFFFFFFFFFFFFFFFFFFFFFFFFFFFFFFFFFFFFFFFFFFFFFFFFFFFFFFFFFF
310
FFFFFFFFFFFFFFFFFFFFFFFFFFFFFFFFFFFFFFFFFFFFFFFFFFFFFFFFFFFFFFFF
310
FFFFFFFFFFFFFFFFFFFFFFFFFFFFFFFFF000FFFFFFFFFFFFFFFFFFFFFFFFFFFF
310
FFFFFFFFFFFFFFFFFFFFFFFFFFFFFFFFFFFFFFFFFFFFFFFFFFFFFFFFFFFFFFFF
310
FFFFFFFFFFFFFFFFFFFFFFFFFFFFFFFFFFFFFFFFFFFFFFFFFFFFFFFFFFFFFFFF
310
FFFFFFFFFFFFFFFFF000FFFFFFFFFFFFFFFFFFFFFFFFFFFFFFFFFFFFFFFFFFFF
310
FFFFFFFFFFFFFFFFFFFFFFFFFFFFFFFFFFFFFFFFFFFFFFFFFFFFFFFFFFFFFFFF
310
FFFFFFFFFFFFFFFFFFFFFFFFFFFFFFFFFFFFFFFFFFFFFFFFFFFFFFFFFFFFFFFF
310
F000FFFFFFFFFFFFFFFFFFFFFFFFFFFFFFFFFFFFFFFFFFFFFFFFFFFFFFFFFFFF
310
FFFFFFFFFFFFFFFFFFFFFFFFFFFFFFFFFFFFFFFFFFFFFFFFFFFFFFFFFFFFFFFF
310
FFFFFFFFFFFFFFFFFFFFFFFFFFFFFFFFFFFFFFFFFFFFFFFFF000FFFFFFFFFFFF
310
FFFFFFFFFFFFFFFFFFFFFFFFFFFFFFFFFFFFFFFFFFFFFFFFFFFFFFFFFFFFFFFF
310
FFFFFFFFFFFFFFFFFFFFFFFFFFFFFFFFFFFFFFFFFFFFFFFFFFFFFFFFFFFFFFFF
310
FFFFFFFFFFFFFFFFFFFFFFFFFFFFFFFFF000FFFFFFFFFFFFFFFFFFFFFFFFFFFF
310
FFFFFFFFFFFFFFFFFFFFFFFFFFFFFFFFFFFFFFFFFFFFFFFFFFFFFFFFFFFFFFFF
310
FFFFFFFFFFFFFFFFFFFFFFFFFFFFFFFFFFFFFFFFFFFFFFFFFFFFFFFFFFFFFFFF
310
FFFFFFFFFFFFFFFFF000FFFFFFFFFFFFFFFFFFFFFFFFFFFFFFFFFFFFFFFFFFFF
310
FFFFFFFFFFFFFFFFFFFFFFFFFFFFFFFFFFFFFFFFFFFFFFFFFFFFFFFFFFFFFFFF
310
FFFFFFFFFFFFFFFFFFFFFFFFFFFFFFFFFFFFFFFFFFFFFFFFFFFFFFFFFFFFFFFF
310
F000FFFFFFFFFFFFFFFFFFFFFFFFFFFFFFFFFFFFFFFFFFFFFFFFFFFFFFFFFFFF
310
FFFFFFFFFFFFFFFFFFFFFFFFFFFFFFFFFFFFFFFFFFFFFFFFFFFFFFFFFFFFFFFF
310
FFFFFFFFFFFFFFFFFFFFFFFFFFFFFFFFFFFFFFFFFFFFFFFFF000FFFFFFFFFFFF
310
FFFFFFFFFFFFFFFFFFFFFFFFFFFFFFFFFFFFFFFFFFFFFFFFFFFFFFFFFFFFFFFF
310
FFFFFFFFFFFFFFFFFFFFFFFFFFFFFFFFFFFFFFFFFFFFFFFFFFFFFFFFFFFFFFFF
310
FFFFFFFFFFFFFFFFFFFFFFFFFFFFFFFFF000FFFFFFFFFFFFFFFFFFFFFFFFFFFF
310
FFFFFFFFFFFFFFFFFFFFFFFFFFFFFFFFFFFFFFFFFFFFFFFFFFFFFFFFFFFFFFFF
310
FFFFFFFFFFFFFFFFFFFFFFFFFFFFFFFFFFFFFFFFFFFFFFFFFFFFFFFFFFFFFFFF
310
FFFFFFFFFFFFFFFFF000FFFFFFFFFFFFFFFFFFFFFFFFFFFFFFFFFFFFFFFFFFFF
310
FFFFFFFFFFFFFFFFFFFFFFFFFFFFFFFFFFFFFFFFFFFFFFFFFFFFFFFFFFFFFFFF
310
FFFFFFFFFFFFFFFFFFFFFFFFFFFFFFFFFFFFFFFFFFFFFFFFFFFFFFFFFFFFFFFF
310
F000FFFFFFFFFFFFFFFFFFFFFFFFFFFFFFFFFFFFFFFFFFFFFFFFFFFFFFFFFFFF
310
FFFFFFFFFFFFFFFFFFFFFFFFFFFFFFFFFFFFFFFFFFFFFFFFFFFFFFFFFFFFFFFF
310
FFFFFFFFFFFFFFFFFFFFFFFFFFFFFFFFFFFFFFFFFFFFFFFFF000FFFFFFFFFFFF
310
FFFFFFFFFFFFFFFFFFFFFFFFFFFFFFFFFFFFFFFFFFFFFFFFFFFFFFFFFFFFFFFF
310
FFFFFFFFFFFFFFFFFFFFFFFFFFFFFFFFFFFFFFFFFFFFFFFFFFFFFFFFFFFFFFFF
310
FFFFFFFFFFFFFFFFFFFFFFFFFFFFFFFFF000FFFFFFFFFFFFFFFFFFFFFFFFFFFF
310
FFFFFFFFFFFFFFFFFFFFFFFFFFFFFFFFFFFFFFFFFFFFFFFFFFFFFFFFFFFFFFFF
310
FFFFFFFFFFFFFFFFFFFFFFFFFFFFFFFFFFFFFFFFFFFFFFFFFFFFFFFFFFFFFFFF
310
FFFFFFFFFFFFFFFFF000FFFFFFFFFFFFFFFFFFFFFFFFFFFFFFFFFFFFFFFFFFFF
310
FFFFFFFFFFFFFFFFFFFFFFFFFFFFFFFFFFFFFFFFFFFFFFFFFFFFFFFFFFFFFFFF
310
FFFFFFFFFFFFFFFFFFFFFFFFFFFFFFFFFFFFFFFFFFFFFFFFFFFFFFFFFFFFFFFF
310
F000FFFFFFFFFFFFFFFFFFFFFFFFFFFFFFFFFFFFFFFFFFFFFFFFFFFFFFFFFFFF
310
FFFFFFFFFFFFFFFFFFFFFFFFFFFFFFFFFFFFFFFFFFFFFFFFFFFFFFFFFFFFFFFF
310
FFFFFFFFFFFFFFFFFFFFFFFFFFFFFFFFFFFFFFFFFFFFFFFFF000FFFFFFFFFFFF
310
FFFFFFFFFFFFFFFFFFFFFFFFFFFFFFFFFFFFFFFFFFFFFFFFFFFFFFFFFFFFFFFF
310
FFFFFFFFFFFFFFFFFFFFFFFFFFFFFFFFFFFFFFFFFFFFFFFFFFFFFFFFFFFFFFFF
310
FFFFFFFFFFFFFFFFFFFFFFFFFFFFFFFFF000FFFFFFFFFFFFFFFFFFFFFFFFFFFF
310
FFFFFFFFFFFFFFFFFFFFFFFFFFFFFFFFFFFFFFFFFFFFFFFFFFFFFFFFFFFFFFFF
310
FFFFFFFFFFFFFFFFFFFFFFFFFFFFFFFFFFFFFFFFFFFFFFFFFFFFFFFFFFFFFFFF
310
FFFFFFFFFFFFFFFFF000FFFFF80003FFFFFFFFFFFFFFFFFFFFFFFFFFFFFFFFFF
310
FFFFF00007FFFFFFFFFF00007FFFFFF800000000000000007FFFFFFFFFFFFFFF
310
FFFFFFFC001FFFFFFFFFFFFFFC001FFFFFFFFFFFFFFFFFFFFFFFFFFE0007FFFF
310
F000FFFF8000007FFFFFFFF8000FFFFFC0007FFFFF80007FFFFF0000007FFFFF
310
FFF8000007FFFFF800000000000000007FFFFFF0001FFFFFFFFFFFC00001FFFF
310
FFFFFFFFC00001FFFFFFFF000000000003FFFFE000007FFFF000FFFE0000000F
310
FFFFFFF0000FFFFF80007FFFFF80007FFFFC0000001FFFFFFFC0000001FFFFF8
310
00000000000000007FFFFFF0001FFFFFFFFFFE0000003FFFFFFFFFFE0000003F
310
FFFFFF000000000003FFFF0000000FFFF000FFF800000003FFFFFFF00007FFFF
310
80007FFFFF80007FFFF000000007FFFFFF000000003FFFF80000000000000000
310
7FFFFFF0001FFFFFFFFFF80000000FFFFFFFFFF80000000FFFFFFF0000000000
310
03FFFC00000003FFF000FFE000000000FFFFFFF00007FFFF80003FFFFF80007F
310
FFC000000001FFFFFC000000001FFFF800000000000000007FFFFFF0001FFFFF
310
FFFFE000000003FFFFFFFFE000000003FFFFFF000000000003FFF000000000FF
310
F000FF80000000007FFFFFF00007FFFF80003FFFFF80007FFF8000000000FFFF
310
F80000000007FFF800000000000000007FFFFFF0001FFFFFFFFFC000000001FF
310
FFFFFFC000000001FFFFFF000000000003FFC0000000007FF000FF0000000000
310
3FFFFFE00007FFFF00003FFFFF80007FFE00000000003FFFF00000000003FFF8
310
00000000000000007FFFFFF0001FFFFFFFFF8000000000FFFFFFFF8000000000
310
FFFFFF000000000003FF80000000003FF000FE00000000001FFFFFE00003FFFF
310
00003FFFFF80007FFC00000000001FFFE00000000001FFF8000001FFFE000000
310
7FFFFFF0001FFFFFFFFE00000000003FFFFFFE00000000003FFFFF0000000000
310
03FF00000000001FF000FC00000000000FFFFFE00003FFFF00001FFFFF80007F
310
F800000000001FFFC00000000000FFF8000001FFFE0000007FFFFFF0001FFFFF
310
FFFC00000000001FFFFFFC00000000001FFFFF000000000003FE00000000000F
310
F000F8000000000007FFFFE00003FFFF00001FFFFF80007FF800000000000FFF
310
800000000000FFF8000001FFFE0000007FFFFFF0001FFFFFFFF800000000000F
310
FFFFF800000000000FFFFF000000000003FC000000000007F000F80000000000
310
03FFFFC00003FFFE00001FFFFF80007FF0000000000007FF0000000000007FF8
310
000001FFFE0000007FFFFFF0001FFFFFFFF0000000000007FFFFF00000000000
310
07FFFF000000000003F8000000000003F000F0000000000003FFFFC00001FFFE
310
00001FFFFF80007FE0000000000007FE0000000000003FF8000001FFFE000000
310
7FFFFFF0001FFFFFFFF0000000000007FFFFF0000000000007FFFF0000000000
310
03F800001F800003F000E00001FFF00001FFFFC00001FFFE00000FFFFF80007F
310
E00001FFE00003FE00001FFF00003FF8000001FFFE0000007FFFFFF0001FFFFF
310
FFE000003E000003FFFFE000003E000003FFFF000000000003F00001FFF80001
310
F000E00007FFFC0001FFFFC00001FFFE00000FFFFF80007FC0000FFFFC0003FC
310
0000FFFFC0001FF8000001FFFE0000007FFFFFF0001FFFFFFFC00003FFE00001
310
FFFFC00003FFE00001FFFF0001FFFFFFFFF00007FFFE0001F000E0000FFFFF00
310
00FFFF800001FFFC00000FFFFF80007FC0001FFFFE0001FC0001FFFFE0001FF8
310
000001FFFE0000007FFFFFF0001FFFFFFF80000FFFF80000FFFF80000FFFF800
310
00FFFF0003FFFFFFFFE0000FFFFF8000F000C0003FFFFF8000FFFF800000FFFC
310
000007FFFF80007F80003FFFFF0001FC0003FFFFF0001FF8000001FFFE000000
310
7FFFFFF0001FFFFFFF80003FFFFE0000FFFF80003FFFFE0000FFFF0003FFFFFF
310
FFE0003FFFFF8000F000C0003FFFFF8000FFFF800000FFFC000007FFFF80007F
310
80007FFFFF8001F80007FFFFF8000FF8000001FFFE0000007FFFFFF0001FFFFF
310
FF00007FFFFF00007FFF00007FFFFF00007FFF0003FFFFFFFFE0003FFFFFC000
310
F000C0007FFFFFC000FFFF000000FFFC000007FFFF80007F8000FFFFFF8000F8
310
000FFFFFF8000FF8000001FFFE0000007FFFFFF0001FFFFFFF0000FFFFFF8000
310
7FFF0000FFFFFF80007FFF0003FFFFFFFFC0007FFFFFC00070008000FFFFFFC0
310
00FFFF000000FFF8000007FFFF80007F8000FFFFFF8000F8000FFFFFF8000FF8
310
000001FFFE0000007FFFFFF0001FFFFFFE0001FFFFFFC0003FFE0001FFFFFFC0
310
003FFF0003FFFFFFFFC0007FFFFFE00070008000FFFFFFC0007FFF0000007FF8
310
000003FFFF80007F0001FFFFFF8000F8000FFFFFF8000FF8000001FFFE000000
310
7FFFFFF0001FFFFFFE0001FFFFFFC0003FFE0001FFFFFFC0003FFF0003FFFFFF
310
FFC000FFFFFFE00070008000FFFFFFC0007FFF0000007FF8000003FFFF80007F
310
0001FFFFFF8000F8001FFFFFF8000FF8000001FFFE0000007FFFFFF0001FFFFF
310
FE0003FFFFFFE0003FFE0003FFFFFFE0003FFF0003FFFFFFFFC000FFFFFFE000
310
70008000FFFFFFC0007FFE0000007FF8000003FFFF80007F0001FFFFFF8000F0
310
001FFFFFF8000FF8000001FFFE0000007FFFFFF0001FFFFFFC0003FFFFFFE000
310
1FFC0003FFFFFFE0001FFF0003FFFFFFFFC000FFFFFFC00070008000FFFFFF80
310
007FFE0000007FF0000003FFFF80007F0001FFFFFF0000F0001FFFFFF8000FF8
310
000001FFFE0000007FFFFFF0001FFFFFFC0007FFFFFFF0001FFC0007FFFFFFF0
310
001FFF0003FFFFFFFFC000FFFFFFC00070008001FFFFFF0000FFFE0000003FF0
310
000001FFFF80007F0001FFFFFF0000F8001FFFFFF0000FF8000001FFFE000000
310
7FFFFFF0001FFFFFFC0007FFFFFFF0001FFC0007FFFFFFF0001FFF0003FFFFFF
310
FFC001FFFFFF80007000FFFFFFFFFE0000FFFE0008003FF0008001FFFF80007F
310
FFFFFFFFFC0000FFFFFFFFFFE0000FF8000001FFFE0000007FFFFFF0001FFFFF
310
F8000FFFFFFFF8000FF8000FFFFFFFF8000FFF0003FFFFFFFFFFFFFFFFFF0000
310
7000FFFFFFFFFC0000FFFC0008003FF0008001FFFF80007FFFFFFFFFF80001FF
310
FFFFFFFF80000FF8000001FFFE0000007FFFFFF0001FFFFFF8000FFFFFFFF800
310
0FF8000FFFFFFFF8000FFF0003FFFFFFFFFFFFFFFFFE0000F000FFFFFFFFE000
310
00FFFC000C003FE000C001FFFF80007FFFFFFFFFC00001FFFFFFFFFE00001FF8
310
000001FFFE0000007FFFFFF0001FFFFFF8000FFFFFFFF8000FF8000FFFFFFFF8
310
000FFF0003FFFFFFFFFFFFFFFFF00000F000FFFFFFFE000001FFFC000C001FE0
310
00C000FFFF80007FFFFFFFFE000001FFFFFFFFE000001FF80FFFFFFFFFFFFFC0
310
7FFFFFF0001FFFFFF8000FFFFFFFF8000FF8000FFFFFFFF8000FFF0003FFFFFF
310
FFFFFFFFFF800000F000FFFFFFC0000001FFFC001C001FE001C000FFFF80007F
310
FFFFFF80000003FFFFFFF80000001FF80FFFFFFFFFFFFFC07FFFFFF0001FFFFF
310
F8001FFFFFFFFC000FF8001FFFFFFFFC000FFF0003FFFFFFFFFFFFFFF0000001
310
F000FFFFF800000001FFF8001C001FE001C000FFFF80007FFFFFF800000003FF
310
FFFF800000003FF80FFFFFFFFFFFFFC07FFFFFF0001FFFFFF8001FFFFFFFFC00
310
0FF8001FFFFFFFFC000FFF0003FFFFFFFFFFFFFE00000001F000FFFFC0000000
310
03FFF8001E001FC001E000FFFF80007FFFFF8000000007FFFFFC000000003FF8
310
0FFFFFFFFFFFFFC07FFFFFF0001FFFFFF8001FFFFFFFFC000FF8001FFFFFFFFC
310
000FFF0003FFFFFFFFFFFFE000000003F000FFFE0000000007FFF8001E000FC0
310
01E0007FFF80007FFFFE0000000007FFFFE0000000007FF80FFFFFFFFFFFFFC0
310
7FFFFFF0001FFFFFF0001FFFFFFFFC0007F0001FFFFFFFFC0007FF0003FFFFFF
310
FFFFFF0000000003F000FFF80000000007FFF8001E000FC003E0007FFF80007F
310
FFF0000000000FFFFF8000000000FFF80FFFFFFFFFFFFFC07FFFFFF0001FFFFF
310
F0001FFFFFFFFC0007F0001FFFFFFFFC0007FF0003FFFFFFFFFFFC0000000007
310
F000FFE0000000000FFFF0003E000FC003E0007FFF80007FFFC0000000001FFF
310
FE0000000001FFF80FFFFFFFFFFFFFC07FFFFFF0001FFFFFF0001FFFFFFFFC00
310
07F0001FFFFFFFFC0007FF0003FFFFFFFFFFF0000000000FF000FFC000000000
310
1FFFF0003F000F8003F0003FFF80007FFF80000000003FFFF80000000003FFF8
310
0FFFFFFFFFFFFFC07FFFFFF0001FFFFFF0001FFFFFFFFC0007F0001FFFFFFFFC
310
0007FF0003FFFFFFFFFFE0000000001FF000FF00000000007FFFF0003F000780
310
03F0003FFF80007FFF00000000007FFFF00000000007FFF80FFFFFFFFFFFFFC0
310
7FFFFFF0001FFFFFF0001FFFFFFFFC0007F0001FFFFFFFFC0007FF0003FFFFFF
310
FFFF80000000007FF000FE0000000000FFFFE0003F00078007F0003FFF80007F
310
FE0000000001FFFFE0000000001FFFF80FFFFFFFFFFFFFC07FFFFFF0001FFFFF
310
F0001FFFFFFFFC0007F0001FFFFFFFFC0007FF0003FFFFFFFFFF0000000000FF
310
F000FC0000000003FFFFE0007F00078007F0003FFF80007FFC0000000007FFFF
310
C0000000007FFFF80FFFFFFFFFFFFFC07FFFFFF0001FFFFFF8001FFFFFFFFC00
310
0FF8001FFFFFFFFC000FFF0003FFFFFFFFFE0000000003FFF000FC000000000F
310
FFFFE0007F80070007F8001FFF80007FF8000000001FFFFF8000000001FFFFF8
310
0FFFFFFFFFFFFFC07FFFFFF0001FFFFFF8001FFFFFFFFC000FF8001FFFFFFFFC
310
000FFF0003FFFFFFFFFC000000000FFFF000F8000000007FFFFFE0007F800700
310
07F8001FFF80007FF000000000FFFFFF800000000FFFFFF80FFFFFFFFFFFFFC0
310
7FFFFFF0001FFFFFF8000FFFFFFFF8000FF8000FFFFFFFF8000FFF0003FFFFFF
310
FFFC000000007FFFF000F800000007FFFFFFC0007F8003000FF8001FFF80007F
310
F000000007FFFFFF000000007FFFFFF80FFFFFFFFFFFFFC07FFFFFF0001FFFFF
310
F8000FFFFFFFF8000FF8000FFFFFFFF8000FFF0003FFFFFFFFF80000000FFFFF
310
F000F0000000FFFFFFFFC000FF8003000FF8001FFF80007FE0000000FFFFFFFF
310
0000000FFFFFFFF8000001FFFE0000007FFFFFF0001FFFFFF8000FFFFFFFF800
310
0FF8000FFFFFFFF8000FFF0003FFFFFFFFF8000000FFFFFFF000F000000FFFFF
310
FFFFC000FFC002000FF8000FFF80007FE000001FFFFFFFFE000001FFFFFFFFF8
310
000001FFFE0000007FFFFFF0001FFFFFF8000FFFFFFFF8000FF8000FFFFFFFF8
310
000FFF0003FFFFFFFFF000001FFFFFFFF000E00000FFFFFFFFFFC000FFC00200
310
0FFC000FFF80007FE00001FFFFFFFFFE00001FFFFFFFFFF8000001FFFE000000
310
7FFFFFF0001FFFFFFC000FFFFFFFF8001FFC000FFFFFFFF8001FFF0003FFFFFF
310
FFF00001FFFFFFFFF000E00007FFFFFFFFFF8000FFC000001FFC000FFF80007F
310
C0000FFFFFFFFFFE0000FFFFFFFFFFF8000001FFFE0000007FFFFFF0001FFFFF
310
FC0007FFFFFFF0001FFC0007FFFFFFF0001FFF0003FFFFFFFFF00007FFFFFFFF
310
F000E0001FFFFFFFFFFF8000FFC000001FFC000FFF80007FC0003FFFFFFFFFFE
310
0001FFFFFFFFFFF8000001FFFE0000007FFFFFF0001FFFFFFC0007FFFFFFF000
310
1FFC0007FFFFFFF0001FFF0003FFFFFFFFF0001FFFFFFFFFF000E0003FFFFF00
310
03FF8001FFE000001FFC0007FF80007FC0007FFFFF0007FC0003FFFFF0003FF8
310
000001FFFE0000007FFFFFF0001FFFFFFC0003FFFFFFE0001FFC0003FFFFFFE0
310
001FFF0003FFFFFFFFF0003FFFFFFFFFF000E0003FFFFF0001FF8001FFE00000
310
1FFE0007FF80007FC0007FFFFE0003FC0007FFFFE0003FF8000001FFFE000000
310
7FFFFFF0001FFFFFFE0003FFFFFFE0003FFE0003FFFFFFE0003FFF0003FFFFFF
310
FFF0003FFFFF8001F000E0003FFFFF0001FF0001FFE000001FFE0007FF80007F
310
C0007FFFFE0003FC0007FFFFE0003FF8000001FFFE0000007FFFFFF0001FFFFF
310
FE0001FFFFFFC0003FFE0001FFFFFFC0003FFF0003FFFFFFFFF0003FFFFF0001
310
F000E0003FFFFF0003FF0001FFE000003FFE0007FF80007FC0007FFFFE0003FC
310
0007FFFFE0003FF8000001FFFE0000007FFFFFF0001FFFFFFF0001FFFFFFC000
310
7FFF0001FFFFFFC0007FFF0003FFFFFFFFF0003FFFFF0001F000E0003FFFFE00
310
03FF0003FFF000003FFE0003FF80007FC0007FFFFC0003FE0007FFFFE0003FF8
310
000001FFFE0000007FFFFFF0001FFFFFFF0000FFFFFF80007FFF0000FFFFFF80
310
007FFF0003FFFFFFFFF0003FFFFF0001F000E0003FFFFE0003FF0003FFF00000
310
3FFF0003FF80007FC0007FFFFC0007FE0007FFFFC0003FF8000001FFFE000000
310
7FFFFFF0001FFFFFFF80007FFFFF0000FFFF80007FFFFF0000FFFF0003FFFFFF
310
FFF0003FFFFF0003F000E0003FFFFC0003FE0003FFF000003FFF0003FF80007F
310
E0003FFFF80007FE0003FFFFC0007FF8000001FFFE0000007FFFFFF0001FFFFF
310
FF80003FFFFE0000FFFF80003FFFFE0000FFFF0003FFFFFFFFF0001FFFFE0003
310
F000F0001FFFF80003FE0003FFF000007FFF0001FF80007FE0003FFFF00007FE
310
0001FFFF80007FF8000001FFFE0000007FFFFFF0001FFFFFFFC0000FFFF80001
310
FFFFC0000FFFF80001FFFF0003FFFFFFFFF0001FFFFC0003F000F0000FFFF000
310
07FE0007FFF800007FFF0001FF80007FE0001FFFE00007FF0000FFFE00007FF8
310
000001FFFE0000007FFFFFF0001FFFFFFFC00003FFE00001FFFFC00003FFE000
310
01FFFF0003FFFFFFFFF8000FFFF80003F000F00003FFC00007FC0007FFF80000
310
7FFF8001FF80007FF00007FF80000FFF00007FF80000FFF8000001FFFE000000
310
7F80000000000001FFE000003E000003FFFFE000003E000003FFFF0003FFFFFF
310
FFF80003FFE00007F000F800000000000FFC0007FFF800007FFF8001FF80007F
310
F000000000000FFF000000000000FFF8000001FFFE0000007F80000000000001
310
FFF0000000000007FFFFF0000000000007FFFF0003FFFFFFFFFC00007E000007
310
F000F800000000000FFC0007FFF80000FFFF8000FF80007FF800000000001FFF
310
800000000001FFF8000001FFFE0000007F80000000000001FFF800000000000F
310
FFFFF800000000000FFFFF0003FFFFFFFFFC00000000000FF000FC0000000000
310
1FFC0007FFFC0000FFFF8000FF80007FF800000000003FFFC00000000001FFF8
310
000001FFFE0000007F80000000000001FFF800000000000FFFFFF80000000000
310
0FFFFF0003FFFFFFFFFE00000000001FF000FE00000000003FF8000FFFFC0000
310
FFFF8000FF80007FFC00000000003FFFC00000000003FFF8000001FFFE000000
310
7F80000000000001FFFC00000000001FFFFFFC00000000001FFFFF0003FFFFFF
310
FFFF00000000001FF000FF00000000003FF8000FFFFC0000FFFFC000FF80007F
310
FE00000000007FFFE00000000007FFF8000001FFFE0000007F80000000000001
310
FFFE00000000003FFFFFFE00000000003FFFFF0003FFFFFFFFFF80000000003F
310
F000FF80000000007FF8000FFFFC0001FFFFC0007F80007FFF0000000000FFFF
310
F0000000000FFFF800000000000000007F80000000000001FFFF8000000000FF
310
FFFFFF8000000000FFFFFF0003FFFFFFFFFFC0000000007FF000FFC000000000
310
FFF8000FFFFE0001FFFFC0007F80007FFF8000000001FFFFF8000000001FFFF8
310
00000000000000007F80000000000001FFFFC000000001FFFFFFFFC000000001
310
FFFFFF0003FFFFFFFFFFE000000000FFF000FFE000000003FFF0001FFFFE0001
310
FFFFC0007F80007FFFC000000007FFFFFE000000003FFFF80000000000000000
310
7F80000000000001FFFFE000000003FFFFFFFFE000000003FFFFFF0003FFFFFF
310
FFFFF000000003FFF000FFF80000000FFFF0001FFFFE0001FFFFE0007F80007F
310
FFF00000000FFFFFFF00000000FFFFF800000000000000007F80000000000001
310
FFFFF80000000FFFFFFFFFF80000000FFFFFFF0003FFFFFFFFFFFC0000000FFF
310
F000FFFE0000003FFFF0001FFFFE0003FFFFE0003F80007FFFFC0000003FFFFF
310
FFC0000003FFFFF800000000000000007F80000000000001FFFFFE0000003FFF
310
FFFFFFFE0000003FFFFFFF0003FFFFFFFFFFFF0000003FFFF000FFFF800000FF
310
FFF0001FFFFF0003FFFFE0003F80007FFFFF000001FFFFFFFFF800001FFFFFF8
310
00000000000000007F80000000000001FFFFFFC00001FFFFFFFFFFFFC00001FF
310
FFFFFF0003FFFFFFFFFFFFC00000FFFFF000FFFFF8000FFFFFFFFFFFFFFFFFFF
310
FFFFFFFFFFFFFFFFFFFFF0001FFFFFFFFFFF0000FFFFFFF80000000000000000
310
7FFFFFFFFFFFFFFFFFFFFFFC001FFFFFFFFFFFFFFC001FFFFFFFFFFFFFFFFFFF
310
FFFFFFFC001FFFFFF000FFFFFFFFFFFFFFFFFFFFFFFFFFFFFFFFFFFFFFFFFFFF
310
FFFFFFFFFFFFFFFFFFFFFFFFFFFFFFFFFFFFFFFFFFFFFFFFFFFFFFFFFFFFFFFF
310
FFFFFFFFFFFFFFFFFFFFFFFFFFFFFFFFFFFFFFFFFFFFFFFFFFFFFFFFFFFFFFFF
310
F000FFFFFFFFFFFFFFFFFFFFFFFFFFFFFFFFFFFFFFFFFFFFFFFFFFFFFFFFFFFF
310
FFFFFFFFFFFFFFFFFFFFFFFFFFFFFFFFFFFFFFFFFFFFFFFFFFFFFFFFFFFFFFFF
310
FFFFFFFFFFFFFFFFFFFFFFFFFFFFFFFFFFFFFFFFFFFFFFFFF000FFFFFFFFFFFF
310
FFFFFFFFFFFFFFFFFFFFFFFFFFFFFFFFFFFFFFFFFFFFFFFFFFFFFFFFFFFFFFFF
310
FFFFFFFFFFFFFFFFFFFFFFFFFFFFFFFFFFFFFFFFFFFFFFFFFFFFFFFFFFFFFFFF
310
FFFFFFFFFFFFFFFFFFFFFFFFFFFFFFFFF000FFFFFFFFFFFFFFFFFFFFFFFFFFFF
310
FFFFFFFFFFFFFFFFFFFFFFFFFFFFFFFFFFFFFFFFFFFFFFFFFFFFFFFFFFFFFFFF
310
FFFFFFFFFFFFFFFFFFFFFFFFFFFFFFFFFFFFFFFFFFFFFFFFFFFFFFFFFFFFFFFF
310
FFFFFFFFFFFFFFFFF000FFFFFFFFFFFFFFFFFFFFFFFFFFFFFFFFFFFFFFFFFFFF
310
FFFFFFFFFFFFFFFFFFFFFFFFFFFFFFFFFFFFFFFFFFFFFFFFFFFFFFFFFFFFFFFF
310
FFFFFFFFFFFFFFFFFFFFFFFFFFFFFFFFFFFFFFFFFFFFFFFFFFFFFFFFFFFFFFFF
310
F000FFFFFFFFFFFFFFFFFFFFFFFFFFFFFFFFFFFFFFFFFFFFFFFFFFFFFFFFFFFF
310
FFFFFFFFFFFFFFFFFFFFFFFFFFFFFFFFFFFFFFFFFFFFFFFFFFFFFFFFFFFFFFFF
310
FFFFFFFFFFFFFFFFFFFFFFFFFFFFFFFFFFFFFFFFFFFFFFFFF000FFFFFFFFFFFF
310
FFFFFFFFFFFFFFFFFFFFFFFFFFFFFFFFFFFFFFFFFFFFFFFFFFFFFFFFFFFFFFFF
310
FFFFFFFFFFFFFFFFFFFFFFFFFFFFFFFFFFFFFFFFFFFFFFFFFFFFFFFFFFFFFFFF
310
FFFFFFFFFFFFFFFFFFFFFFFFFFFFFFFFF000FFFFFFFFFFFFFFFFFFFFFFFFFFFF
310
FFFFFFFFFFFFFFFFFFFFFFFFFFFFFFFFFFFFFFFFFFFFFFFFFFFFFFFFFFFFFFFF
310
FFFFFFFFFFFFFFFFFFFFFFFFFFFFFFFFFFFFFFFFFFFFFFFFFFFFFFFFFFFFFFFF
310
FFFFFFFFFFFFFFFFF000FFFFFFFFFFFFFFFFFFFFFFFFFFFFFFFFFFFFFFFFFFFF
310
FFFFFFFFFFFFFFFFFFFFFFFFFFFFFFFFFFFFFFFFFFFFFFFFFFFFFFFFFFFFFFFF
310
FFFFFFFFFFFFFFFFFFFFFFFFFFFFFFFFFFFFFFFFFFFFFFFFFFFFFFFFFFFFFFFF
310
F000FFFFFFFFFFFFFFFFFFFFFFFFFFFFFFFFFFFFFFFFFFFFFFFFFFFFFFFFFFFF
310
FFFFFFFFFFFFFFFFFFFFFFFFFFFFFFFFFFFFFFFFFFFFFFFFFFFFFFFFFFFFFFFF
310
FFFFFFFFFFFFFFFFFFFFFFFFFFFFFFFFFFFFFFFFFFFFFFFFF000FFFFFFFFFFFF
310
FFFFFFFFFFFFFFFFFFFFFFFFFFFFFFFFFFFFFFFFFFFFFFFFFFFFFFFFFFFFFFFF
310
FFFFFFFFFFFFFFFFFFFFFFFFFFFFFFFFFFFFFFFFFFFFFFFFFFFFFFFFFFFFFFFF
310
FFFFFFFFFFFFFFFFFFFFFFFFFFFFFFFFF000FFFFFFFFFFFFFFFFFFFFFFFFFFFF
310
FFFFFFFFFFFFFFFFFFFFFFFFFFFFFFFFFFFFFFFFFFFFFFFFFFFFFFFFFFFFFFFF
310
FFFFFFFFFFFFFFFFFFFFFFFFFFFFFFFFFFFFFFFFFFFFFFFFFFFFFFFFFFFFFFFF
310
FFFFFFFFFFFFFFFFF000FFFFFFFFFFFFFFFFFFFFFFFFFFFFFFFFFFFFFFFFFFFF
310
FFFFFFFFFFFFFFFFFFFFFFFFFFFFFFFFFFFFFFFFFFFFFFFFFFFFFFFFFFFFFFFF
310
FFFFFFFFFFFFFFFFFFFFFFFFFFFFFFFFFFFFFFFFFFFFFFFFFFFFFFFFFFFFFFFF
310
F000FFFFFFFFFFFFFFFFFFFFFFFFFFFFFFFFFFFFFFFFFFFFFFFFFFFFFFFFFFFF
310
FFFFFFFFFFFFFFFFFFFFFFFFFFFFFFFFFFFFFFFFFFFFFFFFFFFFFFFFFFFFFFFF
310
FFFFFFFFFFFFFFFFFFFFFFFFFFFFFFFFFFFFFFFFFFFFFFFFF000FFFFFFFFFFFF
310
FFFFFFFFFFFFFFFFFFFFFFFFFFFFFFFFFFFFFFFFFFFFFFFFFFFFFFFFFFFFFFFF
310
FFFFFFFFFFFFFFFFFFFFFFFFFFFFFFFFFFFFFFFFFFFFFFFFFFFFFFFFFFFFFFFF
310
FFFFFFFFFFFFFFFFFFFFFFFFFFFFFFFFF000FFFFFFFFFFFFFFFFFFFFFFFFFFFF
310
FFFFFFFFFFFFFFFFFFFFFFFFFFFFFFFFFFFFFFFFFFFFFFFFFFFFFFFFFFFFFFFF
310
FFFFFFFFFFFFFFFFFFFFFFFFFFFFFFFFFFFFFFFFFFFFFFFFFFFFFFFFFFFFFFFF
310
FFFFFFFFFFFFFFFFF000FFFFFFFFFFFFFFFFFFFFFFFFFFFFFFFFFFFFFFFFFFFF
310
FFFFFFFFFFFFFFFFFFFFFFFFFFFFFFFFFFFFFFFFFFFFFFFFFFFFFFFFFFFFFFFF
310
FFFFFFFFFFFFFFFFFFFFFFFFFFFFFFFFFFFFFFFFFFFFFFFFFFFFFFFFFFFFFFFF
310
F000FFFFFFFFFFFFFFFFFFFFFFFFFFFFFFFFFFFFFFFFFFFFFFFFFFFFFFFFFFFF
310
FFFFFFFFFFFFFFFFFFFFFFFFFFFFFFFFFFFFFFFFFFFFFFFFFFFFFFFFFFFFFFFF
310
FFFFFFFFFFFFFFFFFFFFFFFFFFFFFFFFFFFFFFFFFFFFFFFFF000FFFFFFFFFFFF
310
FFFFFFFFFFFFFFFFFFFFFFFFFFFFFFFFFFFFFFFFFFFFFFFFFFFFFFFFFFFFFFFF
310
FFFFFFFFFFFFFFFFFFFFFFFFFFFFFFFFFFFFFFFFFFFFFFFFFFFFFFFFFFFFFFFF
310
FFFFFFFFFFFFFFFFFFFFFFFFFFFFFFFFF000FFFFFFFFFFFFFFFFFFFFFFFFFFFF
310
FFFFFFFFFFFFFFFFFFFFFFFFFFFFFFFFFFFFFFFFFFFFFFFFFFFFFFFFFFFFFFFF
310
FFFFFFFFFFFFFFFFFFFFFFFFFFFFFFFFFFFFFFFFFFFFFFFFFFFFFFFFFFFFFFFF
310
FFFFFFFFFFFFFFFFF000FFFFFFFFFFFFFFFFFFFFFFFFFFFFFFFFFFFFFFFFFFFF
310
FFFFFFFFFFFFFFFFFFFFFFFFFFFFFFFFFFFFFFFFFFFFFFFFFFFFFFFFFFFFFFFF
310
FFFFFFFFFFFFFFFFFFFFFFFFFFFFFFFFFFFFFFFFFFFFFFFFFFFFFFFFFFFFFFFF
310
F000FFFFFFFFFFFFFFFFFFFFFFFFFFFFFFFFFFFFFFFFFFFFFFFFFFFFFFFFFFFF
310
FFFFFFFFFFFFFFFFFFFFFFFFFFFFFFFFFFFFFFFFFFFFFFFFFFFFFFFFFFFFFFFF
310
FFFFFFFFFFFFFFFFFFFFFFFFFFFFFFFFFFFFFFFFFFFFFFFFF000FFFFFFFFFFFF
310
FFFFFFFFFFFFFFFFFFFFFFFFFFFFFFFFFFFFFFFFFFFFFFFFFFFFFFFFFFFFFFFF
310
FFFFFFFFFFFFFFFFFFFFFFFFFFFFFFFFFFFFFFFFFFFFFFFFFFFFFFFFFFFFFFFF
310
FFFFFFFFFFFFFFFFFFFFFFFFFFFFFFFFF0000000000000000000000000000000
310
0000000000000000000000000000000000000000000000000000000000000000
310
0000000000000000000000000000000000000000000000000000000000000000
310
0000000000000000000000000000000000000000000000000000000000000000
310
0000000000000000000000000000000000000000000000000000000000000000
310
0000000000000000000000000000000000000000000000000000000000000000
310
0000000000000000000000000000000000000000000000000000000000000000
310
0000000000000000000000000000000000000000000000000000000000000000
310
0000000000000000000000000000000000000000000000000000000000000000
310
0000000000000000000000000000000000000000000000000000000000000000
310
0000000000000000000000000000000000000000000000000000000000000000
310
0000000000000000000000000000000000000000000000000000000000000000
310
0000000000000000000000000000000000000000000000000000000000000000
310
0000000000000000000000000000000000000000000000000000000000000000
310
0000000000000000000000000000000000000000000000000000000000000000
310
0000000000000000000000000000000000000000000000000000000000000000
  1
OLE
  0
ENDSEC
  0
SECTION
  2
OBJECTS
  0
DICTIONARY
  5
C
330
0
100
AcDbDictionary
281
     1
  3
ACAD_GROUP
350
D
  3
ACAD_LAYOUT
350
1A
  3
ACAD_MLINESTYLE
350
17
  3
ACAD_PLOTSETTINGS
350
19
  3
ACAD_PLOTSTYLENAME
350
E
  3
ACAD_SCALELIST
350
47
  0
DICTIONARY
  5
D
102
{ACAD_REACTORS
330
C
102
}
330
C
100
AcDbDictionary
281
     1
  0
DICTIONARY
  5
1A
102
{ACAD_REACTORS
330
C
102
}
330
C
100
AcDbDictionary
281
     1
  3
Layout1
350
1E
  3
Layout2
350
26
  3
Model
350
22
  0
DICTIONARY
  5
17
102
{ACAD_REACTORS
330
C
102
}
330
C
100
AcDbDictionary
281
     1
  3
Standard
350
18
  0
DICTIONARY
  5
19
102
{ACAD_REACTORS
330
C
102
}
330
C
100
AcDbDictionary
281
     1
  0
ACDBDICTIONARYWDFLT
  5
E
102
{ACAD_REACTORS
330
C
102
}
330
C
100
AcDbDictionary
281
     1
  3
Normal
350
F
100
AcDbDictionaryWithDefault
340
F
  0
DICTIONARY
  5
47
102
{ACAD_REACTORS
330
C
102
}
330
C
100
AcDbDictionary
281
     1
  3
A0
350
48
  3
A1
350
49
  3
A2
350
4A
  3
A3
350
4B
  3
A4
350
4C
  3
A5
350
4D
  3
A6
350
4E
  3
A7
350
4F
  3
A8
350
50
  3
A9
350
51
  3
B0
350
52
  3
B1
350
53
  3
B2
350
54
  3
B3
350
55
  3
B4
350
56
  3
B5
350
57
  3
B6
350
58
  3
B7
350
59
  3
B8
350
5A
  3
B9
350
5B
  3
C0
350
5C
  3
C1
350
5D
  3
C2
350
5E
  3
C3
350
5F
  3
C4
350
60
  3
C5
350
61
  3
C6
350
62
  3
C7
350
63
  3
C8
350
64
  3
C9
350
65
  3
D0
350
66
  3
D1
350
67
  3
D2
350
68
  0
LAYOUT
  5
1E
102
{ACAD_REACTORS
330
1A
102
}
330
1A
100
AcDbPlotSettings
  1

  2
none_device
  4

  6

 40
0.0
 41
0.0
 42
0.0
 43
0.0
 44
0.0
 45
0.0
 46
0.0
 47
0.0
 48
0.0
 49
0.0
140
0.0
141
0.0
142
1.0
143
1.0
 70
   688
 72
     1
 73
     0
 74
     5
  7

 75
    16
147
1.0
148
0.0
149
0.0
100
AcDbLayout
  1
Layout1
 70
     1
 71
     1
 10
0.0
 20
0.0
 11
420.0
 21
297.0
 12
0.0
 22
0.0
 32
0.0
 14
1.0000000000E+20
 24
1.0000000000E+20
 34
1.0000000000E+20
 15
-1.0000000000E+20
 25
-1.0000000000E+20
 35
-1.0000000000E+20
146
0.0
 13
0.0
 23
0.0
 33
0.0
 16
1.0
 26
0.0
 36
0.0
 17
0.0
 27
1.0
 37
0.0
 76
     0
330
1B
  0
LAYOUT
  5
26
102
{ACAD_REACTORS
330
1A
102
}
330
1A
100
AcDbPlotSettings
  1

  2
none_device
  4

  6

 40
0.0
 41
0.0
 42
0.0
 43
0.0
 44
0.0
 45
0.0
 46
0.0
 47
0.0
 48
0.0
 49
0.0
140
0.0
141
0.0
142
1.0
143
1.0
 70
   688
 72
     1
 73
     0
 74
     5
  7

 75
    16
147
1.0
148
0.0
149
0.0
100
AcDbLayout
  1
Layout2
 70
     1
 71
     2
 10
0.0
 20
0.0
 11
0.0
 21
0.0
 12
0.0
 22
0.0
 32
0.0
 14
0.0
 24
0.0
 34
0.0
 15
0.0
 25
0.0
 35
0.0
146
0.0
 13
0.0
 23
0.0
 33
0.0
 16
1.0
 26
0.0
 36
0.0
 17
0.0
 27
1.0
 37
0.0
 76
     0
330
23
  0
LAYOUT
  5
22
102
{ACAD_REACTORS
330
1A
102
}
330
1A
100
AcDbPlotSettings
  1

  2
none_device
  4
Letter_(8.50_x_11.00_Inches)
  6

 40
6.35
 41
6.35
 42
6.35000508
 43
6.35000508
 44
215.9
 45
279.4
 46
0.0
 47
0.0
 48
0.0
 49
0.0
140
0.0
141
0.0
142
1.0
143
1.0
 70
  1712
 72
     1
 73
     0
 74
     0
  7

 75
     0
147
1.0
148
0.0
149
0.0
100
AcDbLayout
  1
Model
 70
     1
 71
     0
 10
0.0
 20
0.0
 11
297.0
 21
210.0
 12
0.0
 22
0.0
 32
0.0
 14
0.0
 24
0.0
 34
0.0
 15
297.0
 25
210.0
 35
0.0
146
0.0
 13
0.0
 23
0.0
 33
0.0
 16
1.0
 26
0.0
 36
0.0
 17
0.0
 27
1.0
 37
0.0
 76
     0
330
1F
331
29
  0
MLINESTYLE
  5
18
102
{ACAD_REACTORS
330
17
102
}
330
17
100
AcDbMlineStyle
  2
Standard
 70
     0
  3

 62
   256
 51
90.0
 52
90.0
 71
     2
 49
0.5
 62
   256
  6
BYLAYER
 49
-0.5
 62
   256
  6
BYLAYER
  0
ACDBPLACEHOLDER
  5
F
102
{ACAD_REACTORS
330
E
102
}
330
E
  0
SCALE
  5
48
102
{ACAD_REACTORS
330
47
102
}
330
47
100
AcDbScale
 70
     0
300
1:1
140
1.0
141
1.0
290
     1
  0
SCALE
  5
49
102
{ACAD_REACTORS
330
47
102
}
330
47
100
AcDbScale
 70
     0
300
1:2
140
1.0
141
2.0
290
     0
  0
SCALE
  5
4A
102
{ACAD_REACTORS
330
47
102
}
330
47
100
AcDbScale
 70
     0
300
1:4
140
1.0
141
4.0
290
     0
  0
SCALE
  5
4B
102
{ACAD_REACTORS
330
47
102
}
330
47
100
AcDbScale
 70
     0
300
1:5
140
1.0
141
5.0
290
     0
  0
SCALE
  5
4C
102
{ACAD_REACTORS
330
47
102
}
330
47
100
AcDbScale
 70
     0
300
1:8
140
1.0
141
8.0
290
     0
  0
SCALE
  5
4D
102
{ACAD_REACTORS
330
47
102
}
330
47
100
AcDbScale
 70
     0
300
1:10
140
1.0
141
10.0
290
     0
  0
SCALE
  5
4E
102
{ACAD_REACTORS
330
47
102
}
330
47
100
AcDbScale
 70
     0
300
1:16
140
1.0
141
16.0
290
     0
  0
SCALE
  5
4F
102
{ACAD_REACTORS
330
47
102
}
330
47
100
AcDbScale
 70
     0
300
1:20
140
1.0
141
20.0
290
     0
  0
SCALE
  5
50
102
{ACAD_REACTORS
330
47
102
}
330
47
100
AcDbScale
 70
     0
300
1:30
140
1.0
141
30.0
290
     0
  0
SCALE
  5
51
102
{ACAD_REACTORS
330
47
102
}
330
47
100
AcDbScale
 70
     0
300
1:40
140
1.0
141
40.0
290
     0
  0
SCALE
  5
52
102
{ACAD_REACTORS
330
47
102
}
330
47
100
AcDbScale
 70
     0
300
1:50
140
1.0
141
50.0
290
     0
  0
SCALE
  5
53
102
{ACAD_REACTORS
330
47
102
}
330
47
100
AcDbScale
 70
     0
300
1:100
140
1.0
141
100.0
290
     0
  0
SCALE
  5
54
102
{ACAD_REACTORS
330
47
102
}
330
47
100
AcDbScale
 70
     0
300
2:1
140
2.0
141
1.0
290
     0
  0
SCALE
  5
55
102
{ACAD_REACTORS
330
47
102
}
330
47
100
AcDbScale
 70
     0
300
4:1
140
4.0
141
1.0
290
     0
  0
SCALE
  5
56
102
{ACAD_REACTORS
330
47
102
}
330
47
100
AcDbScale
 70
     0
300
8:1
140
8.0
141
1.0
290
     0
  0
SCALE
  5
57
102
{ACAD_REACTORS
330
47
102
}
330
47
100
AcDbScale
 70
     0
300
10:1
140
10.0
141
1.0
290
     0
  0
SCALE
  5
58
102
{ACAD_REACTORS
330
47
102
}
330
47
100
AcDbScale
 70
     0
300
100:1
140
100.0
141
1.0
290
     0
  0
SCALE
  5
59
102
{ACAD_REACTORS
330
47
102
}
330
47
100
AcDbScale
 70
     0
300
1/128" = 1'-0"
140
0.0078125
141
12.0
290
     0
  0
SCALE
  5
5A
102
{ACAD_REACTORS
330
47
102
}
330
47
100
AcDbScale
 70
     0
300
1/64" = 1'-0"
140
0.015625
141
12.0
290
     0
  0
SCALE
  5
5B
102
{ACAD_REACTORS
330
47
102
}
330
47
100
AcDbScale
 70
     0
300
1/32" = 1'-0"
140
0.03125
141
12.0
290
     0
  0
SCALE
  5
5C
102
{ACAD_REACTORS
330
47
102
}
330
47
100
AcDbScale
 70
     0
300
1/16" = 1'-0"
140
0.0625
141
12.0
290
     0
  0
SCALE
  5
5D
102
{ACAD_REACTORS
330
47
102
}
330
47
100
AcDbScale
 70
     0
300
3/32" = 1'-0"
140
0.09375
141
12.0
290
     0
  0
SCALE
  5
5E
102
{ACAD_REACTORS
330
47
102
}
330
47
100
AcDbScale
 70
     0
300
1/8" = 1'-0"
140
0.125
141
12.0
290
     0
  0
SCALE
  5
5F
102
{ACAD_REACTORS
330
47
102
}
330
47
100
AcDbScale
 70
     0
300
3/16" = 1'-0"
140
0.1875
141
12.0
290
     0
  0
SCALE
  5
60
102
{ACAD_REACTORS
330
47
102
}
330
47
100
AcDbScale
 70
     0
300
1/4" = 1'-0"
140
0.25
141
12.0
290
     0
  0
SCALE
  5
61
102
{ACAD_REACTORS
330
47
102
}
330
47
100
AcDbScale
 70
     0
300
3/8" = 1'-0"
140
0.375
141
12.0
290
     0
  0
SCALE
  5
62
102
{ACAD_REACTORS
330
47
102
}
330
47
100
AcDbScale
 70
     0
300
1/2" = 1'-0"
140
0.5
141
12.0
290
     0
  0
SCALE
  5
63
102
{ACAD_REACTORS
330
47
102
}
330
47
100
AcDbScale
 70
     0
300
3/4" = 1'-0"
140
0.75
141
12.0
290
     0
  0
SCALE
  5
64
102
{ACAD_REACTORS
330
47
102
}
330
47
100
AcDbScale
 70
     0
300
1" = 1'-0"
140
1.0
141
12.0
290
     0
  0
SCALE
  5
65
102
{ACAD_REACTORS
330
47
102
}
330
47
100
AcDbScale
 70
     0
300
1-1/2" = 1'-0"
140
1.5
141
12.0
290
     0
  0
SCALE
  5
66
102
{ACAD_REACTORS
330
47
102
}
330
47
100
AcDbScale
 70
     0
300
3" = 1'-0"
140
3.0
141
12.0
290
     0
  0
SCALE
  5
67
102
{ACAD_REACTORS
330
47
102
}
330
47
100
AcDbScale
 70
     0
300
6" = 1'-0"
140
6.0
141
12.0
290
     0
  0
SCALE
  5
68
102
{ACAD_REACTORS
330
47
102
}
330
47
100
AcDbScale
 70
     0
300
1'-0" = 1'-0"
140
12.0
141
12.0
290
     0
  0
ENDSEC
  0
EOF
