  0
SECTION
  2
HEADER
  9
$ACADVER
  1
AC1015
  9
$ACADMAINTVER
 70
     6
  9
$DWGCODEPAGE
  3
ANSI_1252
  9
$INSBASE
 10
0.0
 20
0.0
 30
0.0
  9
$EXTMIN
 10
0.0
 20
0.0
 30
0.0
  9
$EXTMAX
 10
297.0
 20
210.0
 30
0.0
  9
$LIMMIN
 10
0.0
 20
0.0
  9
$LIMMAX
 10
297.0
 20
210.0
  9
$ORTHOMODE
 70
     0
  9
$REGENMODE
 70
     1
  9
$FILLMODE
 70
     1
  9
$QTEXTMODE
 70
     0
  9
$MIRRTEXT
 70
     1
  9
$LTSCALE
 40
1.0
  9
$ATTMODE
 70
     1
  9
$TEXTSIZE
 40
2.0
  9
$TRACEWID
 40
1.0
  9
$TEXTSTYLE
  7
Standard
  9
$CLAYER
  8
0
  9
$CELTYPE
  6
ByLayer
  9
$CECOLOR
 62
   256
  9
$CELTSCALE
 40
1.0
  9
$DISPSILH
 70
     0
  9
$DIMSCALE
 40
1.0
  9
$DIMASZ
 40
3.0
  9
$DIMEXO
 40
0.0
  9
$DIMDLI
 40
3.75
  9
$DIMRND
 40
0.0
  9
$DIMDLE
 40
0.0
  9
$DIMEXE
 40
1.0
  9
$DIMTP
 40
0.0
  9
$DIMTM
 40
0.0
  9
$DIMTXT
 40
2.0
  9
$DIMCEN
 40
2.5
  9
$DIMTSZ
 40
0.0
  9
$DIMTOL
 70
     0
  9
$DIMLIM
 70
     0
  9
$DIMTIH
 70
     1
  9
$DIMTOH
 70
     1
  9
$DIMSE1
 70
     0
  9
$DIMSE2
 70
     0
  9
$DIMTAD
 70
     1
  9
$DIMZIN
 70
     0
  9
$DIMBLK
  1

  9
$DIMASO
 70
     1
  9
$DIMSHO
 70
     1
  9
$DIMPOST
  1

  9
$DIMAPOST
  1

  9
$DIMALT
 70
     0
  9
$DIMALTD
 70
     3
  9
$DIMALTF
 40
0.0393700787
  9
$DIMLFAC
 40
1.0
  9
$DIMTOFL
 70
     1
  9
$DIMTVP
 40
0.0
  9
$DIMTIX
 70
     0
  9
$DIMSOXD
 70
     0
  9
$DIMSAH
 70
     0
  9
$DIMBLK1
  1

  9
$DIMBLK2
  1

  9
$DIMSTYLE
  2
ISO-25
  9
$DIMCLRD
 70
     0
  9
$DIMCLRE
 70
     0
  9
$DIMCLRT
 70
     0
  9
$DIMTFAC
 40
1.0
  9
$DIMGAP
 40
1.524
  9
$DIMJUST
 70
     0
  9
$DIMSD1
 70
     0
  9
$DIMSD2
 70
     0
  9
$DIMTOLJ
 70
     0
  9
$DIMTZIN
 70
     0
  9
$DIMALTZ
 70
     0
  9
$DIMALTTZ
 70
     0
  9
$DIMUPT
 70
     0
  9
$DIMDEC
 70
     2
  9
$DIMTDEC
 70
     3
  9
$DIMALTU
 70
     2
  9
$DIMALTTD
 70
     3
  9
$DIMTXSTY
  7
Standard
  9
$DIMAUNIT
 70
     0
  9
$DIMADEC
 70
     2
  9
$DIMALTRND
 40
0.0
  9
$DIMAZIN
 70
     0
  9
$DIMDSEP
 70
    44
  9
$DIMATFIT
 70
     3
  9
$DIMFRAC
 70
     0
  9
$DIMLDRBLK
  1

  9
$DIMLUNIT
 70
     2
  9
$DIMLWD
 70
    -2
  9
$DIMLWE
 70
    -2
  9
$DIMTMOVE
 70
     0
  9
$LUNITS
 70
     2
  9
$LUPREC
 70
     2
  9
$SKETCHINC
 40
1.0
  9
$FILLETRAD
 40
10.0
  9
$AUNITS
 70
     0
  9
$AUPREC
 70
     2
  9
$MENU
  1
.
  9
$ELEVATION
 40
0.0
  9
$PELEVATION
 40
0.0
  9
$THICKNESS
 40
0.0
  9
$LIMCHECK
 70
     0
  9
$CHAMFERA
 40
0.0
  9
$CHAMFERB
 40
0.0
  9
$CHAMFERC
 40
0.0
  9
$CHAMFERD
 40
0.0
  9
$SKPOLY
 70
     0
  9
$TDCREATE
 40
2457667.462646887
  9
$TDUCREATE
 40
2457667.379313553
  9
$TDUPDATE
 40
2457667.462648079
  9
$TDUUPDATE
 40
2457667.379314745
  9
$TDINDWG
 40
0.0000000116
  9
$TDUSRTIMER
 40
0.0000000116
  9
$USRTIMER
 70
     1
  9
$ANGBASE
 50
0.0
  9
$ANGDIR
 70
     0
  9
$PDMODE
 70
     0
  9
$PDSIZE
 40
-1.0
  9
$PLINEWID
 40
0.0
  9
$SPLFRAME
 70
     0
  9
$SPLINETYPE
 70
     6
  9
$SPLINESEGS
 70
     8
  9
$HANDSEED
  5
213
  9
$SURFTAB1
 70
     6
  9
$SURFTAB2
 70
     6
  9
$SURFTYPE
 70
     6
  9
$SURFU
 70
     6
  9
$SURFV
 70
     6
  9
$UCSBASE
  2

  9
$UCSNAME
  2

  9
$UCSORG
 10
0.0
 20
0.0
 30
0.0
  9
$UCSXDIR
 10
1.0
 20
0.0
 30
0.0
  9
$UCSYDIR
 10
0.0
 20
1.0
 30
0.0
  9
$UCSORTHOREF
  2

  9
$UCSORTHOVIEW
 70
     0
  9
$UCSORGTOP
 10
0.0
 20
0.0
 30
0.0
  9
$UCSORGBOTTOM
 10
0.0
 20
0.0
 30
0.0
  9
$UCSORGLEFT
 10
0.0
 20
0.0
 30
0.0
  9
$UCSORGRIGHT
 10
0.0
 20
0.0
 30
0.0
  9
$UCSORGFRONT
 10
0.0
 20
0.0
 30
0.0
  9
$UCSORGBACK
 10
0.0
 20
0.0
 30
0.0
  9
$PUCSBASE
  2

  9
$PUCSNAME
  2

  9
$PUCSORG
 10
0.0
 20
0.0
 30
0.0
  9
$PUCSXDIR
 10
1.0
 20
0.0
 30
0.0
  9
$PUCSYDIR
 10
0.0
 20
1.0
 30
0.0
  9
$PUCSORTHOREF
  2

  9
$PUCSORTHOVIEW
 70
     0
  9
$PUCSORGTOP
 10
0.0
 20
0.0
 30
0.0
  9
$PUCSORGBOTTOM
 10
0.0
 20
0.0
 30
0.0
  9
$PUCSORGLEFT
 10
0.0
 20
0.0
 30
0.0
  9
$PUCSORGRIGHT
 10
0.0
 20
0.0
 30
0.0
  9
$PUCSORGFRONT
 10
0.0
 20
0.0
 30
0.0
  9
$PUCSORGBACK
 10
0.0
 20
0.0
 30
0.0
  9
$USERI1
 70
     0
  9
$USERI2
 70
     0
  9
$USERI3
 70
     0
  9
$USERI4
 70
     0
  9
$USERI5
 70
     0
  9
$USERR1
 40
0.0
  9
$USERR2
 40
0.0
  9
$USERR3
 40
0.0
  9
$USERR4
 40
0.0
  9
$USERR5
 40
0.0
  9
$WORLDVIEW
 70
     1
  9
$SHADEDGE
 70
     3
  9
$SHADEDIF
 70
    70
  9
$TILEMODE
 70
     1
  9
$MAXACTVP
 70
    64
  9
$PINSBASE
 10
0.0
 20
0.0
 30
0.0
  9
$PLIMCHECK
 70
     0
  9
$PEXTMIN
 10
1.0000000000E+20
 20
1.0000000000E+20
 30
1.0000000000E+20
  9
$PEXTMAX
 10
-1.0000000000E+20
 20
-1.0000000000E+20
 30
-1.0000000000E+20
  9
$PLIMMIN
 10
0.0
 20
0.0
  9
$PLIMMAX
 10
420.0
 20
297.0
  9
$UNITMODE
 70
     0
  9
$VISRETAIN
 70
     1
  9
$PLINEGEN
 70
     0
  9
$PSLTSCALE
 70
     1
  9
$TREEDEPTH
 70
  3020
  9
$CMLSTYLE
  2
Standard
  9
$CMLJUST
 70
     0
  9
$CMLSCALE
 40
20.0
  9
$PROXYGRAPHICS
 70
     1
  9
$MEASUREMENT
 70
     1
  9
$CELWEIGHT
370
    -1
  9
$ENDCAPS
280
     0
  9
$JOINSTYLE
280
     0
  9
$LWDISPLAY
290
     1
  9
$INSUNITS
 70
     4
  9
$HYPERLINKBASE
  1

  9
$STYLESHEET
  1

  9
$XEDIT
290
     1
  9
$CEPSNTYPE
380
     0
  9
$PSTYLEMODE
290
     1
  9
$FINGERPRINTGUID
  2
{377778D5-33A7-4ED4-AA47-89EEEBB95BC2}
  9
$VERSIONGUID
  2
{FAEB1C32-E019-11D5-929B-00C0DF256EC4}
  9
$EXTNAMES
290
     1
  9
$PSVPSCALE
 40
0.0
  9
$OLESTARTUP
290
     0
  0
ENDSEC
  0
SECTION
  2
CLASSES
  0
CLASS
  1
ACDBDICTIONARYWDFLT
  2
AcDbDictionaryWithDefault
  3
ObjectDBX Classes
 90
        0
280
     0
281
     0
  0
CLASS
  1
VISUALSTYLE
  2
AcDbVisualStyle
  3
ObjectDBX Classes
 90
     4095
280
     0
281
     0
  0
CLASS
  1
MATERIAL
  2
AcDbMaterial
  3
ObjectDBX Classes
 90
     1153
280
     0
281
     0
  0
CLASS
  1
SCALE
  2
AcDbScale
  3
ObjectDBX Classes
 90
     1153
280
     0
281
     0
  0
CLASS
  1
TABLESTYLE
  2
AcDbTableStyle
  3
ObjectDBX Classes
 90
     4095
280
     0
281
     0
  0
CLASS
  1
MLEADERSTYLE
  2
AcDbMLeaderStyle
  3
ACDB_MLEADERSTYLE_CLASS
 90
     4095
280
     0
281
     0
  0
CLASS
  1
SUN
  2
AcDbSun
  3
SCENEOE
 90
     1153
280
     0
281
     0
  0
CLASS
  1
ACDBPLACEHOLDER
  2
AcDbPlaceHolder
  3
ObjectDBX Classes
 90
        0
280
     0
281
     0
  0
CLASS
  1
LAYOUT
  2
AcDbLayout
  3
ObjectDBX Classes
 90
        0
280
     0
281
     0
  0
ENDSEC
  0
SECTION
  2
TABLES
  0
TABLE
  2
VPORT
  5
8
330
0
100
AcDbSymbolTable
 70
     1
  0
VPORT
  5
29
330
8
100
AcDbSymbolTableRecord
100
AcDbViewportTableRecord
  2
*Active
 70
     0
 10
0.0
 20
0.0
 11
1.0
 21
1.0
 12
148.5
 22
105.0
 13
0.0
 23
0.0
 14
10.0
 24
10.0
 15
10.0
 25
10.0
 16
0.0
 26
0.0
 36
1.0
 17
0.0
 27
0.0
 37
0.0
 40
210.0
 41
1.4142857143
 42
50.0
 43
0.0
 44
0.0
 50
0.0
 51
0.0
 71
     0
 72
  2000
 73
     1
 74
     3
 75
     0
 76
     0
 77
     0
 78
     0
281
     0
 65
     1
110
0.0
120
0.0
130
0.0
111
1.0
121
0.0
131
0.0
112
0.0
122
1.0
132
0.0
 79
     0
146
0.0
  0
ENDTAB
  0
TABLE
  2
LTYPE
  5
5
330
0
100
AcDbSymbolTable
 70
     6
  0
LTYPE
  5
14
330
5
100
AcDbSymbolTableRecord
100
AcDbLinetypeTableRecord
  2
ByBlock
 70
     0
  3

 72
    65
 73
     0
 40
0.0
  0
LTYPE
  5
15
330
5
100
AcDbSymbolTableRecord
100
AcDbLinetypeTableRecord
  2
ByLayer
 70
     0
  3

 72
    65
 73
     0
 40
0.0
  0
LTYPE
  5
16
330
5
100
AcDbSymbolTableRecord
100
AcDbLinetypeTableRecord
  2
Continuous
 70
     0
  3
Solid line
 72
    65
 73
     0
 40
0.0
  0
LTYPE
  5
6E
330
5
100
AcDbSymbolTableRecord
100
AcDbLinetypeTableRecord
  2
HIDDEN
 70
     0
  3
Hidden __ __ __ __ __ __ __ __ __ __ __ __ __ __
 72
    65
 73
     2
 40
1.905
 49
1.27
 74
     0
 49
-0.635
 74
     0
  0
LTYPE
  5
6F
330
5
100
AcDbSymbolTableRecord
100
AcDbLinetypeTableRecord
  2
PHANTOM
 70
     0
  3
Phantom ______  __  __  ______  __  __  ______
 72
    65
 73
     6
 40
12.7
 49
6.35
 74
     0
 49
-1.27
 74
     0
 49
1.27
 74
     0
 49
-1.27
 74
     0
 49
1.27
 74
     0
 49
-1.27
 74
     0
  0
LTYPE
  5
70
330
5
100
AcDbSymbolTableRecord
100
AcDbLinetypeTableRecord
  2
CENTER
 70
     0
  3
Center ____ _ ____ _ ____ _ ____ _ ____ _ ____
 72
    65
 73
     4
 40
10.16
 49
6.35
 74
     0
 49
-1.27
 74
     0
 49
1.27
 74
     0
 49
-1.27
 74
     0
  0
LTYPE
  5
71
330
5
100
AcDbSymbolTableRecord
100
AcDbLinetypeTableRecord
  2
CENTERX2
 70
     0
  3
Center (2x) ________  __  ________  __  _____
 72
    65
 73
     4
 40
20.32
 49
12.7
 74
     0
 49
-2.54
 74
     0
 49
2.54
 74
     0
 49
-2.54
 74
     0
  0
LTYPE
  5
72
330
5
100
AcDbSymbolTableRecord
100
AcDbLinetypeTableRecord
  2
DOT2
 70
     0
  3
Dot (.5x) ........................................
 72
    65
 73
     2
 40
0.635
 49
0.0
 74
     0
 49
-0.635
 74
     0
  0
ENDTAB
  0
TABLE
  2
LAYER
  5
2
330
0
100
AcDbSymbolTable
 70
     5
  0
LAYER
  5
10
330
2
100
AcDbSymbolTableRecord
100
AcDbLayerTableRecord
  2
0
 70
     0
 62
     7
  6
Continuous
370
    -3
390
F
  0
LAYER
  5
73
330
2
100
AcDbSymbolTableRecord
100
AcDbLayerTableRecord
  2
FORMAT
 70
     0
 62
     7
  6
Continuous
370
    -3
390
F
  0
LAYER
  5
74
330
2
100
AcDbSymbolTableRecord
100
AcDbLayerTableRecord
  2
VERMASSUNG
 70
     0
 62
     7
  6
Continuous
370
    -3
390
F
  0
LAYER
  5
75
330
2
100
AcDbSymbolTableRecord
100
AcDbLayerTableRecord
  2
KOPF_DÜNN
 70
     0
 62
     7
  6
Continuous
370
    -3
390
F
  0
LAYER
  5
76
330
2
100
AcDbSymbolTableRecord
100
AcDbLayerTableRecord
  2
KOPF_DICK
 70
     0
 62
     7
  6
Continuous
370
    15
390
F
  0
ENDTAB
  0
TABLE
  2
STYLE
  5
3
330
0
100
AcDbSymbolTable
 70
     2
  0
STYLE
  5
11
330
3
100
AcDbSymbolTableRecord
100
AcDbTextStyleTableRecord
  2
Standard
 70
     0
 40
0.0
 41
1.0
 50
0.0
 71
     0
 42
2.0
  3
txt
  4

  0
STYLE
  5
77
330
3
100
AcDbSymbolTableRecord
100
AcDbTextStyleTableRecord
  2
SLDTEXTSTYLE0
 70
     0
 40
0.0
 41
0.7
 50
0.0
 71
     0
 42
2.0
  3
TXT
  4

  0
ENDTAB
  0
TABLE
  2
VIEW
  5
6
330
0
100
AcDbSymbolTable
 70
     0
  0
ENDTAB
  0
TABLE
  2
UCS
  5
7
330
0
100
AcDbSymbolTable
 70
     0
  0
ENDTAB
  0
TABLE
  2
APPID
  5
9
330
0
100
AcDbSymbolTable
 70
     1
  0
APPID
  5
12
330
9
100
AcDbSymbolTableRecord
100
AcDbRegAppTableRecord
  2
ACAD
 70
     0
  0
ENDTAB
  0
TABLE
  2
DIMSTYLE
  5
A
330
0
100
AcDbSymbolTable
 70
     2
100
AcDbDimStyleTable
  0
DIMSTYLE
105
27
330
A
100
AcDbSymbolTableRecord
100
AcDbDimStyleTableRecord
  2
ISO-25
 70
     0
 41
2.5
 42
0.625
 43
3.75
 44
1.25
 73
     0
 74
     0
 77
     1
 78
     8
140
2.5
141
2.5
143
0.0393700787
147
0.625
171
     3
172
     1
178
     0
271
     2
272
     2
274
     3
278
    44
283
     0
284
     8
340
11
  0
DIMSTYLE
105
129
102
{ACAD_REACTORS
330
128
330
135
330
140
330
14C
330
156
330
162
102
}
330
A
100
AcDbSymbolTableRecord
100
AcDbDimStyleTableRecord
  2
SLDDIMSTYLE0
 70
     0
 41
3.0
 44
0.0
 45
0.000000001
 73
     0
 74
     0
 77
     1
 78
    12
 79
     3
140
2.0
147
0.5
173
     1
178
     0
271
     2
272
     3
276
     2
284
    12
340
77
  0
ENDTAB
  0
TABLE
  2
BLOCK_RECORD
  5
1
330
0
100
AcDbSymbolTable
 70
     7
  0
BLOCK_RECORD
  5
1F
330
1
100
AcDbSymbolTableRecord
100
AcDbBlockTableRecord
  2
*Model_Space
340
22
  0
BLOCK_RECORD
  5
1B
330
1
100
AcDbSymbolTableRecord
100
AcDbBlockTableRecord
  2
*Paper_Space
340
1E
  0
BLOCK_RECORD
  5
23
330
1
100
AcDbSymbolTableRecord
100
AcDbBlockTableRecord
  2
*Paper_Space0
340
26
  0
BLOCK_RECORD
  5
12A
330
1
100
AcDbSymbolTableRecord
100
AcDbBlockTableRecord
  2
_D
340
0
  0
BLOCK_RECORD
  5
136
330
1
100
AcDbSymbolTableRecord
100
AcDbBlockTableRecord
  2
_D_1
340
0
  0
BLOCK_RECORD
  5
141
330
1
100
AcDbSymbolTableRecord
100
AcDbBlockTableRecord
  2
_D_2
340
0
  0
BLOCK_RECORD
  5
14D
330
1
100
AcDbSymbolTableRecord
100
AcDbBlockTableRecord
  2
_D_3
340
0
  0
BLOCK_RECORD
  5
157
330
1
100
AcDbSymbolTableRecord
100
AcDbBlockTableRecord
  2
_D_4
340
0
  0
BLOCK_RECORD
  5
163
330
1
100
AcDbSymbolTableRecord
100
AcDbBlockTableRecord
  2
_D_5
340
0
  0
ENDTAB
  0
ENDSEC
  0
SECTION
  2
BLOCKS
  0
BLOCK
  5
20
330
1F
100
AcDbEntity
  8
0
100
AcDbBlockBegin
  2
*Model_Space
 70
     0
 10
0.0
 20
0.0
 30
0.0
  3
*Model_Space
  1

  0
ENDBLK
  5
21
330
1F
100
AcDbEntity
  8
0
100
AcDbBlockEnd
  0
BLOCK
  5
1C
330
1B
100
AcDbEntity
 67
     1
  8
0
100
AcDbBlockBegin
  2
*Paper_Space
 70
     0
 10
0.0
 20
0.0
 30
0.0
  3
*Paper_Space
  1

  0
ENDBLK
  5
1D
330
1B
100
AcDbEntity
 67
     1
  8
0
100
AcDbBlockEnd
  0
BLOCK
  5
24
330
23
100
AcDbEntity
  8
0
100
AcDbBlockBegin
  2
*Paper_Space0
 70
     0
 10
0.0
 20
0.0
 30
0.0
  3
*Paper_Space0
  1

  0
ENDBLK
  5
25
330
23
100
AcDbEntity
  8
0
100
AcDbBlockEnd
  0
BLOCK
  5
12B
330
12A
100
AcDbEntity
  8
0
100
AcDbBlockBegin
  2
_D
 70
     0
 10
0.0
 20
0.0
 30
0.0
  3
_D
  1

  0
SOLID
  5
12D
330
12A
100
AcDbEntity
  8
VERMASSUNG
100
AcDbTrace
 10
99.4960483573
 20
72.3796190264
 30
0.0
 11
99.9460483573
 21
75.3796190264
 31
0.0
 12
99.0460483573
 22
75.3796190264
 32
0.0
 13
99.0460483573
 23
75.3796190264
 33
0.0
  0
SOLID
  5
12E
330
12A
100
AcDbEntity
  8
VERMASSUNG
100
AcDbTrace
 10
99.4960483573
 20
135.8796190264
 30
0.0
 11
99.0460483573
 21
132.8796190264
 31
0.0
 12
99.9460483573
 22
132.8796190264
 32
0.0
 13
99.9460483573
 23
132.8796190264
 33
0.0
  0
LINE
  5
12F
330
12A
100
AcDbEntity
  8
VERMASSUNG
100
AcDbLine
 10
190.2958183044
 20
72.3796190264
 30
0.0
 11
98.4960483573
 21
72.3796190264
 31
0.0
  0
LINE
  5
130
330
12A
100
AcDbEntity
  8
VERMASSUNG
100
AcDbLine
 10
190.2958183044
 20
135.8796190264
 30
0.0
 11
98.4960483573
 21
135.8796190264
 31
0.0
  0
LINE
  5
131
330
12A
100
AcDbEntity
  8
VERMASSUNG
100
AcDbLine
 10
99.4960483573
 20
72.3796190264
 30
0.0
 11
99.4960483573
 21
135.8796190264
 31
0.0
  0
MTEXT
  5
132
330
12A
100
AcDbEntity
  8
VERMASSUNG
100
AcDbMText
 10
96.7179131011
 20
95.3266828781
 30
0.0
 40
2.0
 41
0.0
 71
     1
 72
     1
  1
ISO 40
  7
SLDTEXTSTYLE0
 11
3.391901413832837E-15
 21
1.0
 31
0.0
 73
     1
 44
1.0
  0
MTEXT
  5
133
330
12A
100
AcDbEntity
  8
VERMASSUNG
100
AcDbMText
 10
96.9179130524
 20
104.5266830822
 30
0.0
 40
2.0
 41
0.0
 71
     1
 72
     1
  1
%%c
  7
SLDTEXTSTYLE0
 11
3.391901413832837E-15
 21
1.0
 31
0.0
 73
     1
 44
1.0
  0
MTEXT
  5
134
330
12A
100
AcDbEntity
  8
VERMASSUNG
100
AcDbMText
 10
96.9179127613
 20
108.1345634136
 30
0.0
 40
2.0
 41
0.0
 71
     1
 72
     1
  1
63.5
  7
SLDTEXTSTYLE0
 11
3.391901413832837E-15
 21
1.0
 31
0.0
 73
     1
 44
1.0
  0
ENDBLK
  5
12C
330
12A
100
AcDbEntity
  8
0
100
AcDbBlockEnd
  0
BLOCK
  5
137
330
136
100
AcDbEntity
  8
0
100
AcDbBlockBegin
  2
_D_1
 70
     0
 10
0.0
 20
0.0
 30
0.0
  3
_D_1
  1

  0
SOLID
  5
139
330
136
100
AcDbEntity
  8
VERMASSUNG
100
AcDbTrace
 10
212.3288698829
 20
109.6296190264
 30
0.0
 11
211.8788698829
 21
106.6296190264
 31
0.0
 12
212.7788698829
 22
106.6296190264
 32
0.0
 13
212.7788698829
 23
106.6296190264
 33
0.0
  0
SOLID
  5
13A
330
136
100
AcDbEntity
  8
VERMASSUNG
100
AcDbTrace
 10
212.3288698829
 20
98.6296190264
 30
0.0
 11
212.7788698829
 21
101.6296190264
 31
0.0
 12
211.8788698829
 22
101.6296190264
 32
0.0
 13
211.8788698829
 23
101.6296190264
 33
0.0
  0
LINE
  5
13B
330
136
100
AcDbEntity
  8
VERMASSUNG
100
AcDbLine
 10
200.9458183044
 20
109.6296190264
 30
0.0
 11
213.3288698829
 21
109.6296190264
 31
0.0
  0
LINE
  5
13C
330
136
100
AcDbEntity
  8
VERMASSUNG
100
AcDbLine
 10
200.9458183044
 20
98.6296190264
 30
0.0
 11
213.3288698829
 21
98.6296190264
 31
0.0
  0
LINE
  5
13D
330
136
100
AcDbEntity
  8
VERMASSUNG
100
AcDbLine
 10
212.3288698829
 20
109.6296190264
 30
0.0
 11
212.3288698829
 21
98.6296190264
 31
0.0
  0
MTEXT
  5
13E
330
136
100
AcDbEntity
  8
VERMASSUNG
100
AcDbMText
 10
209.7507343451
 20
101.3258270593
 30
0.0
 40
2.0
 41
0.0
 71
     1
 72
     1
  1
%%c
  7
SLDTEXTSTYLE0
 11
-7.044195017643634E-15
 21
1.0
 31
0.0
 73
     1
 44
1.0
  0
MTEXT
  5
13F
330
136
100
AcDbEntity
  8
VERMASSUNG
100
AcDbMText
 10
209.7507342869
 20
104.9347992529
 30
0.0
 40
2.0
 41
0.0
 71
     1
 72
     1
  1
11
  7
SLDTEXTSTYLE0
 11
-7.044195017643634E-15
 21
1.0
 31
0.0
 73
     1
 44
1.0
  0
ENDBLK
  5
138
330
136
100
AcDbEntity
  8
0
100
AcDbBlockEnd
  0
BLOCK
  5
142
330
141
100
AcDbEntity
  8
0
100
AcDbBlockBegin
  2
_D_2
 70
     0
 10
0.0
 20
0.0
 30
0.0
  3
_D_2
  1

  0
ARC
  5
144
330
141
100
AcDbEntity
  8
VERMASSUNG
100
AcDbCircle
 10
198.182252393
 20
141.2910238995
 30
0.0
 40
4.247059938537221
100
AcDbArc
 50
153.4349488229
 51
206.5650511771
  0
ARC
  5
145
330
141
100
AcDbEntity
  8
VERMASSUNG
100
AcDbCircle
 10
199.5593842159
 20
141.2910238995
 30
0.0
 40
4.247059938537221
100
AcDbArc
 50
333.4349488229
 51
26.5650511771
  0
SOLID
  5
146
330
141
100
AcDbEntity
  8
VERMASSUNG
100
AcDbTrace
 10
190.8958183044
 20
139.3916809541
 30
0.0
 11
193.8958183044
 21
138.9416809541
 31
0.0
 12
193.8958183044
 22
139.8416809541
 32
0.0
 13
193.8958183044
 23
139.8416809541
 33
0.0
  0
SOLID
  5
147
330
141
100
AcDbEntity
  8
VERMASSUNG
100
AcDbTrace
 10
206.8458183044
 20
139.3916809541
 30
0.0
 11
203.8458183044
 21
139.8416809541
 31
0.0
 12
203.8458183044
 22
138.9416809541
 32
0.0
 13
203.8458183044
 23
138.9416809541
 33
0.0
  0
LINE
  5
148
330
141
100
AcDbEntity
  8
VERMASSUNG
100
AcDbLine
 10
190.8958183044
 20
134.1401701598
 30
0.0
 11
190.8958183044
 21
140.3916809541
 31
0.0
  0
LINE
  5
149
330
141
100
AcDbEntity
  8
VERMASSUNG
100
AcDbLine
 10
206.8458183044
 20
113.9296190264
 30
0.0
 11
206.8458183044
 21
140.3916809541
 31
0.0
  0
LINE
  5
14A
330
141
100
AcDbEntity
  8
VERMASSUNG
100
AcDbLine
 10
190.8958183044
 20
139.3916809541
 30
0.0
 11
206.8458183044
 21
139.3916809541
 31
0.0
  0
MTEXT
  5
14B
330
141
100
AcDbEntity
  8
VERMASSUNG
100
AcDbMText
 10
195.9710665022
 20
141.9698165501
 30
0.0
 40
2.0
 41
0.0
 71
     1
 72
     1
  1
15.95
  7
SLDTEXTSTYLE0
 73
     1
 44
1.0
  0
ENDBLK
  5
143
330
141
100
AcDbEntity
  8
0
100
AcDbBlockEnd
  0
BLOCK
  5
14E
330
14D
100
AcDbEntity
  8
0
100
AcDbBlockBegin
  2
_D_3
 70
     0
 10
0.0
 20
0.0
 30
0.0
  3
_D_3
  1

  0
SOLID
  5
150
330
14D
100
AcDbEntity
  8
VERMASSUNG
100
AcDbTrace
 10
171.8458183044
 20
145.3916809541
 30
0.0
 11
174.8458183044
 21
144.9416809541
 31
0.0
 12
174.8458183044
 22
145.8416809541
 32
0.0
 13
174.8458183044
 23
145.8416809541
 33
0.0
  0
SOLID
  5
151
330
14D
100
AcDbEntity
  8
VERMASSUNG
100
AcDbTrace
 10
206.8458183044
 20
145.3916809541
 30
0.0
 11
203.8458183044
 21
145.8416809541
 31
0.0
 12
203.8458183044
 22
144.9416809541
 32
0.0
 13
203.8458183044
 23
144.9416809541
 33
0.0
  0
LINE
  5
152
330
14D
100
AcDbEntity
  8
VERMASSUNG
100
AcDbLine
 10
171.8458183044
 20
126.3546190264
 30
0.0
 11
171.8458183044
 21
146.3916809541
 31
0.0
  0
LINE
  5
153
330
14D
100
AcDbEntity
  8
VERMASSUNG
100
AcDbLine
 10
206.8458183044
 20
113.9296190264
 30
0.0
 11
206.8458183044
 21
146.3916809541
 31
0.0
  0
LINE
  5
154
330
14D
100
AcDbEntity
  8
VERMASSUNG
100
AcDbLine
 10
171.8458183044
 20
145.3916809541
 30
0.0
 11
206.8458183044
 21
145.3916809541
 31
0.0
  0
MTEXT
  5
155
330
14D
100
AcDbEntity
  8
VERMASSUNG
100
AcDbMText
 10
187.9461282941
 20
147.9698165501
 30
0.0
 40
2.0
 41
0.0
 71
     1
 72
     1
  1
35
  7
SLDTEXTSTYLE0
 73
     1
 44
1.0
  0
ENDBLK
  5
14F
330
14D
100
AcDbEntity
  8
0
100
AcDbBlockEnd
  0
BLOCK
  5
158
330
157
100
AcDbEntity
  8
0
100
AcDbBlockBegin
  2
_D_4
 70
     0
 10
0.0
 20
0.0
 30
0.0
  3
_D_4
  1

  0
ARC
  5
15A
330
157
100
AcDbEntity
  8
VERMASSUNG
100
AcDbCircle
 10
153.8329588812
 20
153.2910238995
 30
0.0
 40
4.24705993853726
100
AcDbArc
 50
153.4349488229
 51
206.5650511771
  0
ARC
  5
15B
330
157
100
AcDbEntity
  8
VERMASSUNG
100
AcDbCircle
 10
156.6086777277
 20
153.2910238995
 30
0.0
 40
4.247059938537284
100
AcDbArc
 50
333.4349488229
 51
26.5650511771
  0
SOLID
  5
15C
330
157
100
AcDbEntity
  8
VERMASSUNG
100
AcDbTrace
 10
103.5958183044
 20
151.3916809541
 30
0.0
 11
106.5958183044
 21
150.9416809541
 31
0.0
 12
106.5958183044
 22
151.8416809541
 32
0.0
 13
106.5958183044
 23
151.8416809541
 33
0.0
  0
SOLID
  5
15D
330
157
100
AcDbEntity
  8
VERMASSUNG
100
AcDbTrace
 10
206.8458183044
 20
151.3916809541
 30
0.0
 11
203.8458183044
 21
151.8416809541
 31
0.0
 12
203.8458183044
 22
150.9416809541
 32
0.0
 13
203.8458183044
 23
150.9416809541
 33
0.0
  0
LINE
  5
15E
330
157
100
AcDbEntity
  8
VERMASSUNG
100
AcDbLine
 10
103.5958183044
 20
115.5367496234
 30
0.0
 11
103.5958183044
 21
152.3916809541
 31
0.0
  0
LINE
  5
15F
330
157
100
AcDbEntity
  8
VERMASSUNG
100
AcDbLine
 10
206.8458183044
 20
113.9296190264
 30
0.0
 11
206.8458183044
 21
152.3916809541
 31
0.0
  0
LINE
  5
160
330
157
100
AcDbEntity
  8
VERMASSUNG
100
AcDbLine
 10
103.5958183044
 20
151.3916809541
 30
0.0
 11
206.8458183044
 21
151.3916809541
 31
0.0
  0
MTEXT
  5
161
330
157
100
AcDbEntity
  8
VERMASSUNG
100
AcDbMText
 10
151.6217729903
 20
153.9698165501
 30
0.0
 40
2.0
 41
0.0
 71
     1
 72
     1
  1
103.25
  7
SLDTEXTSTYLE0
 73
     1
 44
1.0
  0
ENDBLK
  5
159
330
157
100
AcDbEntity
  8
0
100
AcDbBlockEnd
  0
BLOCK
  5
164
330
163
100
AcDbEntity
  8
0
100
AcDbBlockBegin
  2
_D_5
 70
     0
 10
0.0
 20
0.0
 30
0.0
  3
_D_5
  1

  0
SOLID
  5
166
330
163
100
AcDbEntity
  8
VERMASSUNG
100
AcDbTrace
 10
218.2466626259
 20
114.1296190264
 30
0.0
 11
217.7966626259
 21
111.1296190264
 31
0.0
 12
218.6966626259
 22
111.1296190264
 32
0.0
 13
218.6966626259
 23
111.1296190264
 33
0.0
  0
SOLID
  5
167
330
163
100
AcDbEntity
  8
VERMASSUNG
100
AcDbTrace
 10
218.2466626259
 20
94.1296190264
 30
0.0
 11
218.6966626259
 21
97.1296190264
 31
0.0
 12
217.7966626259
 22
97.1296190264
 32
0.0
 13
217.7966626259
 23
97.1296190264
 33
0.0
  0
LINE
  5
168
330
163
100
AcDbEntity
  8
VERMASSUNG
100
AcDbLine
 10
206.6458183044
 20
114.1296190264
 30
0.0
 11
219.2466626259
 21
114.1296190264
 31
0.0
  0
LINE
  5
169
330
163
100
AcDbEntity
  8
VERMASSUNG
100
AcDbLine
 10
206.6458183044
 20
94.1296190264
 30
0.0
 11
219.2466626259
 21
94.1296190264
 31
0.0
  0
LINE
  5
16A
330
163
100
AcDbEntity
  8
VERMASSUNG
100
AcDbLine
 10
218.2466626259
 20
114.1296190264
 30
0.0
 11
218.2466626259
 21
94.1296190264
 31
0.0
  0
MTEXT
  5
16B
330
163
100
AcDbEntity
  8
VERMASSUNG
100
AcDbMText
 10
215.4685273697
 20
98.2246194648
 30
0.0
 40
2.0
 41
0.0
 71
     1
 72
     1
  1
ST1
  7
SLDTEXTSTYLE0
 11
-7.044195017643634E-15
 21
1.0
 31
0.0
 73
     1
 44
1.0
  0
MTEXT
  5
16C
330
163
100
AcDbEntity
  8
VERMASSUNG
100
AcDbMText
 10
215.668527321
 20
103.6246196048
 30
0.0
 40
2.0
 41
0.0
 71
     1
 72
     1
  1
%%c
  7
SLDTEXTSTYLE0
 11
-7.044195017643634E-15
 21
1.0
 31
0.0
 73
     1
 44
1.0
  0
MTEXT
  5
16D
330
163
100
AcDbEntity
  8
VERMASSUNG
100
AcDbMText
 10
215.4685273697
 20
107.2346196191
 30
0.0
 40
2.0
 41
0.0
 71
     1
 72
     1
  1
20
  7
SLDTEXTSTYLE0
 11
-7.044195017643634E-15
 21
1.0
 31
0.0
 73
     1
 44
1.0
  0
ENDBLK
  5
165
330
163
100
AcDbEntity
  8
0
100
AcDbBlockEnd
  0
ENDSEC
  0
SECTION
  2
ENTITIES
  0
MTEXT
  5
78
330
1F
100
AcDbEntity
  8
KOPF_DÜNN
100
AcDbMText
 10
13.8892156294
 20
23.8442973028
 30
0.0
 40
3.0
 41
0.0
 71
     1
 72
     1
  1
114.440.020.035
  7
SLDTEXTSTYLE0
 73
     1
 44
1.0
  0
MTEXT
  5
79
330
1F
100
AcDbEntity
  8
VERMASSUNG
100
AcDbMText
 10
13.9329988022
 20
28.8834360957
 30
0.0
 40
3.0
 41
0.0
 71
     1
 72
     1
  1
Aufnahme_Master shank ST1
  7
SLDTEXTSTYLE0
 73
     1
 44
1.0
  0
MTEXT
  5
7A
330
1F
100
AcDbEntity
  8
VERMASSUNG
100
AcDbMText
 10
98.8601118557
 20
13.8365368761
 30
0.0
 40
2.0
 41
0.0
 71
     1
 72
     1
  1
Datum: 14.05.2008
  7
SLDTEXTSTYLE0
 73
     1
 44
1.0
  0
MTEXT
  5
7B
330
1F
100
AcDbEntity
  8
VERMASSUNG
100
AcDbMText
 10
13.933048693
 20
18.0482802738
 30
0.0
 40
2.0
 41
0.0
 71
     1
 72
     1
  1
DIN 69871 A/D ISO 40
  7
SLDTEXTSTYLE0
 73
     1
 44
1.0
  0
MTEXT
  5
7C
330
1F
100
AcDbEntity
  8
VERMASSUNG
100
AcDbMText
 10
13.9808475933
 20
13.9090974274
 30
0.0
 40
2.0
 41
0.0
 71
     1
 72
     1
  1
Gewicht: 857g
  7
SLDTEXTSTYLE0
 73
     1
 44
1.0
  0
ARC
  5
7D
330
1F
100
AcDbEntity
  8
0
  6
Continuous
 62
     7
370
    15
100
AcDbCircle
 10
174.4458183044
 20
81.3046190264
 30
0.0
 40
0.6000000000000227
100
AcDbArc
 50
0.0
 51
90.0
  0
ARC
  5
7E
330
1F
100
AcDbEntity
  8
0
  6
Continuous
 62
     7
370
    15
100
AcDbCircle
 10
174.4458183044
 20
126.9546190264
 30
0.0
 40
0.6000000000000227
100
AcDbArc
 50
270.0
 51
0.0
  0
LINE
  5
7F
330
1F
100
AcDbEntity
  8
0
  6
Continuous
 62
     7
370
    15
100
AcDbLine
 10
171.8458183044
 20
126.3546190264
 30
0.0
 11
104.4515114114
 21
116.5262826045
 31
0.0
  0
LINE
  5
80
330
1F
100
AcDbEntity
  8
0
  6
Continuous
 62
     7
370
    15
100
AcDbLine
 10
104.4515114114
 20
91.7329554483
 30
0.0
 11
171.8458183044
 21
81.9046190264
 31
0.0
  0
LINE
  5
81
330
1F
100
AcDbEntity
  8
0
  6
Continuous
 62
     7
370
    15
100
AcDbLine
 10
171.8458183044
 20
81.9046190264
 30
0.0
 11
174.4458183044
 21
81.9046190264
 31
0.0
  0
LINE
  5
82
330
1F
100
AcDbEntity
  8
0
  6
Continuous
 62
     7
370
    15
100
AcDbLine
 10
174.4458183044
 20
126.3546190264
 30
0.0
 11
171.8458183044
 21
126.3546190264
 31
0.0
  0
ARC
  5
83
330
1F
100
AcDbEntity
  8
0
  6
Continuous
 62
     7
370
    15
100
AcDbCircle
 10
194.8958183044
 20
90.1296190264
 30
0.0
 40
4.0
100
AcDbArc
 50
90.0
 51
180.0
  0
ARC
  5
84
330
1F
100
AcDbEntity
  8
0
  6
Continuous
 62
     7
370
    15
100
AcDbCircle
 10
194.8958183044
 20
118.1296190264
 30
0.0
 40
4.000000000000014
100
AcDbArc
 50
180.0
 51
270.0
  0
ARC
  5
85
330
1F
100
AcDbEntity
  8
0
  6
Continuous
 62
     7
370
    15
100
AcDbCircle
 10
104.5958183044
 20
92.7224884293
 30
0.0
 40
1.0
100
AcDbArc
 50
180.0
 51
261.7028550302
  0
ARC
  5
86
330
1F
100
AcDbEntity
  8
0
  6
Continuous
 62
     7
370
    15
100
AcDbCircle
 10
104.5958183044
 20
115.5367496234
 30
0.0
 40
1.0
100
AcDbArc
 50
98.2971449698
 51
180.0
  0
LINE
  5
87
330
1F
100
AcDbEntity
  8
0
  6
Continuous
 62
     7
370
    15
100
AcDbLine
 10
206.6458183044
 20
114.1296190264
 30
0.0
 11
194.8958183044
 21
114.1296190264
 31
0.0
  0
LINE
  5
88
330
1F
100
AcDbEntity
  8
0
  6
Continuous
 62
     7
370
    15
100
AcDbLine
 10
194.8958183044
 20
94.1296190264
 30
0.0
 11
206.6458183044
 21
94.1296190264
 31
0.0
  0
LINE
  5
89
330
1F
100
AcDbEntity
  8
0
  6
Continuous
 62
     7
370
    15
100
AcDbLine
 10
206.6458183044
 20
94.1296190264
 30
0.0
 11
206.8458183044
 21
94.3296190264
 31
0.0
  0
LINE
  5
8A
330
1F
100
AcDbEntity
  8
0
  6
Continuous
 62
     7
370
    15
100
AcDbLine
 10
206.8458183044
 20
113.9296190264
 30
0.0
 11
206.6458183044
 21
114.1296190264
 31
0.0
  0
SPLINE
  5
8B
330
1F
100
AcDbEntity
  8
0
  6
Continuous
 62
     7
370
    15
100
AcDbSpline
210
0.0
220
0.0
230
1.0
 70
    24
 71
     3
 72
    11
 73
     7
 74
     0
 42
0.000000001
 43
0.00000001
 40
0.0
 40
0.0
 40
0.0
 40
0.0
 40
0.1208913875340448
 40
0.47667141973301
 40
0.8143663490172395
 40
1.0
 40
1.0
 40
1.0
 40
1.0
 10
200.6539560622942
 20
103.9579101061652
 30
0.0
 10
200.6699353419452
 20
103.9985837640537
 30
0.0
 10
200.7329412026016
 20
104.1589588796591
 30
0.0
 10
200.8517646345653
 20
104.4614120394011
 30
0.0
 10
200.9819745731721
 20
104.7928484127714
 30
0.0
 10
201.0515155245488
 20
104.9698579480775
 30
0.0
 10
201.0761828964135
 20
105.032646275596
 30
0.0
  0
SPLINE
  5
8C
330
1F
100
AcDbEntity
  8
0
  6
Continuous
 62
     7
370
    15
100
AcDbSpline
210
0.0
220
0.0
230
1.0
 70
    24
 71
     3
 72
    10
 73
     6
 74
     0
 42
0.000000001
 43
0.00000001
 40
0.0
 40
0.0
 40
0.0
 40
0.0
 40
0.439105167106171
 40
0.7513578980692743
 40
1.0
 40
1.0
 40
1.0
 40
1.0
 10
201.3735914703277
 20
103.0548828569429
 30
0.0
 10
201.2705730126624
 20
103.1841545317467
 30
0.0
 10
201.0942969457607
 20
103.4053527802223
 30
0.0
 10
200.8380443304812
 20
103.7269087955304
 30
0.0
 10
200.7104971439593
 20
103.886960098878
 30
0.0
 10
200.6539560622942
 20
103.9579101061652
 30
0.0
  0
SPLINE
  5
8D
330
1F
100
AcDbEntity
  8
0
  6
Continuous
 62
     7
370
    15
100
AcDbSpline
210
0.0
220
0.0
230
1.0
 70
    24
 71
     3
 72
    10
 73
     6
 74
     0
 42
0.000000001
 43
0.00000001
 40
0.0
 40
0.0
 40
0.0
 40
0.0
 40
0.4391051671061742
 40
0.7513578980692761
 40
1.0
 40
1.0
 40
1.0
 40
1.0
 10
202.5154537124804
 20
103.2265917771516
 30
0.0
 10
202.351991929278
 20
103.2020110131566
 30
0.0
 10
202.0722905933746
 20
103.1599505853783
 30
0.0
 10
201.6656886077384
 20
103.0988073184141
 30
0.0
 10
201.4633065198695
 20
103.0683738663788
 30
0.0
 10
201.3735914703277
 20
103.0548828569429
 30
0.0
  0
SPLINE
  5
8E
330
1F
100
AcDbEntity
  8
0
  6
Continuous
 62
     7
370
    15
100
AcDbSpline
210
0.0
220
0.0
230
1.0
 70
    24
 71
     3
 72
    11
 73
     7
 74
     0
 42
0.000000001
 43
0.00000001
 40
0.0
 40
0.0
 40
0.0
 40
0.0
 40
0.1856336509827608
 40
0.5233285802669911
 40
0.8791086124659518
 40
1.0
 40
1.0
 40
1.0
 40
1.0
 10
202.9376805465997
 20
104.3013279465824
 30
0.0
 10
202.913013174735
 20
104.2385396190639
 30
0.0
 10
202.8434722233583
 20
104.0615300837579
 30
0.0
 10
202.7132622847514
 20
103.7300937103875
 30
0.0
 10
202.5944388527878
 20
103.4276405506455
 30
0.0
 10
202.5314329921314
 20
103.2672654350401
 30
0.0
 10
202.5154537124804
 20
103.2265917771516
 30
0.0
  0
SPLINE
  5
8F
330
1F
100
AcDbEntity
  8
0
  6
Continuous
 62
     7
370
    15
100
AcDbSpline
210
0.0
220
0.0
230
1.0
 70
    24
 71
     3
 72
    10
 73
     6
 74
     0
 42
0.000000001
 43
0.00000001
 40
0.0
 40
0.0
 40
0.0
 40
0.0
 40
0.4391051671061737
 40
0.7513578980692754
 40
1.0
 40
1.0
 40
1.0
 40
1.0
 10
201.0761828964135
 20
105.032646275596
 30
0.0
 10
201.239644679616
 20
105.0572270395909
 30
0.0
 10
201.5193460155193
 20
105.0992874673693
 30
0.0
 10
201.9259480011556
 20
105.1604307343335
 30
0.0
 10
202.1283300890244
 20
105.1908641863688
 30
0.0
 10
202.2180451385663
 20
105.2043551958047
 30
0.0
  0
CIRCLE
  5
90
330
1F
100
AcDbEntity
  8
0
  6
Continuous
 62
     7
370
    15
100
AcDbCircle
 10
201.7958183044
 20
104.1296190264
 30
0.0
 40
1.250000000000001
  0
SPLINE
  5
91
330
1F
100
AcDbEntity
  8
0
  6
Continuous
 62
     7
370
    15
100
AcDbSpline
210
0.0
220
0.0
230
1.0
 70
    24
 71
     3
 72
    10
 73
     6
 74
     0
 42
0.000000001
 43
0.00000001
 40
0.0
 40
0.0
 40
0.0
 40
0.0
 40
0.4391051671061733
 40
0.7513578980692802
 40
1.0
 40
1.0
 40
1.0
 40
1.0
 10
202.2180451385663
 20
105.2043551958047
 30
0.0
 10
202.3210635962315
 20
105.0750835210009
 30
0.0
 10
202.4973396631333
 20
104.8538852725253
 30
0.0
 10
202.7535922784128
 20
104.5323292572172
 30
0.0
 10
202.8811394649347
 20
104.3722779538696
 30
0.0
 10
202.9376805465997
 20
104.3013279465824
 30
0.0
  0
CIRCLE
  5
92
330
1F
100
AcDbEntity
  8
0
  6
Continuous
 62
     7
370
    15
100
AcDbCircle
 10
201.7958183044
 20
104.1296190264
 30
0.0
 40
1.750000000000012
  0
ARC
  5
93
330
1F
100
AcDbEntity
  8
0
  6
Continuous
 62
     7
370
    15
100
AcDbCircle
 10
201.7958183044
 20
104.1296190264
 30
0.0
 40
0.9999999999999956
100
AcDbArc
 50
158.551845561
 51
218.551845561
  0
ARC
  5
94
330
1F
100
AcDbEntity
  8
0
  6
Continuous
 62
     7
370
    15
100
AcDbCircle
 10
201.7958183044
 20
104.1296190264
 30
0.0
 40
0.9999999999999956
100
AcDbArc
 50
98.551845561
 51
158.551845561
  0
ARC
  5
95
330
1F
100
AcDbEntity
  8
0
  6
Continuous
 62
     7
370
    15
100
AcDbCircle
 10
201.7958183044
 20
104.1296190264
 30
0.0
 40
1.000000000000004
100
AcDbArc
 50
278.551845561
 51
338.551845561
  0
ARC
  5
96
330
1F
100
AcDbEntity
  8
0
  6
Continuous
 62
     7
370
    15
100
AcDbCircle
 10
201.7958183044
 20
104.1296190264
 30
0.0
 40
0.9999999999999939
100
AcDbArc
 50
38.551845561
 51
98.551845561
  0
ARC
  5
97
330
1F
100
AcDbEntity
  8
0
  6
Continuous
 62
     7
370
    15
100
AcDbCircle
 10
201.7958183044
 20
104.1296190264
 30
0.0
 40
0.9999999999999846
100
AcDbArc
 50
338.551845561
 51
38.551845561
  0
ARC
  5
98
330
1F
100
AcDbEntity
  8
0
  6
Continuous
 62
     7
370
    15
100
AcDbCircle
 10
201.7958183044
 20
104.1296190264
 30
0.0
 40
1.000000000000004
100
AcDbArc
 50
218.551845561
 51
278.551845561
  0
SPLINE
  5
99
330
1F
100
AcDbEntity
  8
0
  6
Continuous
 62
     7
370
    15
100
AcDbSpline
210
0.0
220
0.0
230
1.0
 70
     8
 71
     3
 72
    12
 73
     8
 74
     0
 42
0.000000001
 43
0.00000001
 40
0.0
 40
0.0
 40
0.0
 40
0.0
 40
0.250000000000001
 40
0.250000000000001
 40
0.500000000000002
 40
0.500000000000002
 40
1.0
 40
1.0
 40
1.0
 40
1.0
 10
190.295818304447
 20
73.68152667773711
 30
0.0
 10
190.391360214583
 20
73.68152667773711
 30
0.0
 10
190.4835051564457
 20
73.69778034693331
 30
0.0
 10
190.6398314330556
 20
73.75138876784679
 30
0.0
 10
190.7034995756756
 20
73.78779989312848
 30
0.0
 10
190.852367421106
 20
73.90992353281497
 30
0.0
 10
190.895818304447
 20
74.005076208252
 30
0.0
 10
190.895818304447
 20
74.10070266387169
 30
0.0
  0
SPLINE
  5
9A
330
1F
100
AcDbEntity
  8
0
  6
Continuous
 62
     7
370
    15
100
AcDbSpline
210
0.0
220
0.0
230
1.0
 70
    24
 71
     3
 72
    12
 73
     8
 74
     0
 42
0.000000001
 43
0.00000001
 40
0.0
 40
0.0
 40
0.0
 40
0.0
 40
0.4999999999999931
 40
0.4999999999999931
 40
0.7499999999999966
 40
0.7499999999999966
 40
1.0
 40
1.0
 40
1.0
 40
1.0
 10
190.895818304447
 20
122.4796190263738
 30
0.0
 10
190.895818304447
 20
122.4796190263738
 30
0.0
 10
190.8461383094919
 20
122.4796190263738
 30
0.0
 10
190.6902197524744
 20
122.4796190263738
 30
0.0
 10
190.6243386878982
 20
122.4796190263738
 30
0.0
 10
190.4716930324095
 20
122.4796190263738
 30
0.0
 10
190.3844431245486
 20
122.4796190263738
 30
0.0
 10
190.2958183044469
 20
122.4796190263738
 30
0.0
  0
LINE
  5
9B
330
1F
100
AcDbEntity
  8
0
  6
Continuous
 62
     7
370
    15
100
AcDbLine
 10
190.8958183044
 20
74.1007026639
 30
0.0
 11
190.8958183044
 21
122.4796190264
 31
0.0
  0
LINE
  5
9C
330
1F
100
AcDbEntity
  8
0
  6
Continuous
 62
     7
370
    15
100
AcDbLine
 10
175.6458183044
 20
73.6815266777
 30
0.0
 11
179.4239816624
 21
73.6815266777
 31
0.0
  0
LINE
  5
9D
330
1F
100
AcDbEntity
  8
0
  6
Continuous
 62
     7
370
    15
100
AcDbLine
 10
179.4239816624
 20
122.4796190264
 30
0.0
 11
175.6458183044
 21
122.4796190264
 31
0.0
  0
LINE
  5
9E
330
1F
100
AcDbEntity
  8
0
  6
Continuous
 62
     7
370
    15
100
AcDbLine
 10
179.4239816624
 20
73.6815266777
 30
0.0
 11
179.4239816624
 21
122.4796190264
 31
0.0
  0
SPLINE
  5
9F
330
1F
100
AcDbEntity
  8
0
  6
Continuous
 62
     7
370
    15
100
AcDbSpline
210
0.0
220
0.0
230
1.0
 70
     8
 71
     3
 72
     8
 73
     4
 74
     0
 42
0.000000001
 43
0.00000001
 40
0.0
 40
0.0
 40
0.0
 40
0.0
 40
1.0
 40
1.0
 40
1.0
 40
1.0
 10
181.035818304447
 20
76.31279256687235
 30
0.0
 10
180.6516835558626
 20
75.62015114492814
 30
0.0
 10
180.2666972793697
 20
74.92796497060445
 30
0.0
 10
179.8810287007433
 20
74.23617067976025
 30
0.0
  0
SPLINE
  5
A0
330
1F
100
AcDbEntity
  8
0
  6
Continuous
 62
     7
370
    15
100
AcDbSpline
210
0.0
220
0.0
230
1.0
 70
     8
 71
     3
 72
     8
 73
     4
 74
     0
 42
0.000000001
 43
0.00000001
 40
0.0
 40
0.0
 40
0.0
 40
0.0
 40
0.0011901715795577
 40
0.0011901715795577
 40
0.0011901715795577
 40
0.0011901715795577
 10
179.4239816623903
 20
73.68152667773711
 30
0.0
 10
179.5778278518862
 20
73.8660919154207
 30
0.0
 10
179.7302231195588
 20
74.05096727594932
 30
0.0
 10
179.8810287007433
 20
74.23617067976025
 30
0.0
  0
SPLINE
  5
A1
330
1F
100
AcDbEntity
  8
0
  6
Continuous
 62
     7
370
    15
100
AcDbSpline
210
0.0
220
0.0
230
1.0
 70
    24
 71
     3
 72
     8
 73
     4
 74
     0
 42
0.000000001
 43
0.00000001
 40
0.0
 40
0.0
 40
0.0
 40
0.0
 40
1.0
 40
1.0
 40
1.0
 40
1.0
 10
181.035818304447
 20
122.4796190263738
 30
0.0
 10
180.5110858160851
 20
122.4796190263738
 30
0.0
 10
179.9724103318663
 20
122.4796190263738
 30
0.0
 10
179.4239816623903
 20
122.4796190263738
 30
0.0
  0
LINE
  5
A2
330
1F
100
AcDbEntity
  8
0
  6
Continuous
 62
     7
370
    15
100
AcDbLine
 10
181.0358183044
 20
76.3127925669
 30
0.0
 11
181.0358183044
 21
122.4796190264
 31
0.0
  0
LINE
  5
A3
330
1F
100
AcDbEntity
  8
0
  6
Continuous
 62
     7
370
    15
100
AcDbLine
 10
186.4676549465
 20
73.6815266777
 30
0.0
 11
190.2958183044
 21
73.6815266777
 31
0.0
  0
LINE
  5
A4
330
1F
100
AcDbEntity
  8
0
  6
Continuous
 62
     7
370
    15
100
AcDbLine
 10
186.4676549465
 20
73.6815266777
 30
0.0
 11
186.4676549465
 21
122.4796190264
 31
0.0
  0
LINE
  5
A5
330
1F
100
AcDbEntity
  8
0
  6
Continuous
 62
     7
370
    15
100
AcDbLine
 10
190.2958183044
 20
122.4796190264
 30
0.0
 11
186.4676549465
 21
122.4796190264
 31
0.0
  0
SPLINE
  5
A6
330
1F
100
AcDbEntity
  8
0
  6
Continuous
 62
     7
370
    15
100
AcDbSpline
210
0.0
220
0.0
230
1.0
 70
     8
 71
     3
 72
     8
 73
     4
 74
     0
 42
0.000000001
 43
0.00000001
 40
0.0
 40
0.0
 40
0.0
 40
0.0
 40
0.0011901715795577
 40
0.0011901715795577
 40
0.0011901715795577
 40
0.0011901715795577
 10
186.0106079081506
 20
74.23617067976025
 30
0.0
 10
186.1614134893351
 20
74.05096727594932
 30
0.0
 10
186.3138087570078
 20
73.8660919154207
 30
0.0
 10
186.4676549465037
 20
73.68152667773711
 30
0.0
  0
SPLINE
  5
A7
330
1F
100
AcDbEntity
  8
0
  6
Continuous
 62
     7
370
    15
100
AcDbSpline
210
0.0
220
0.0
230
1.0
 70
     8
 71
     3
 72
     8
 73
     4
 74
     0
 42
0.000000001
 43
0.00000001
 40
0.0
 40
0.0
 40
0.0
 40
0.0
 40
1.0
 40
1.0
 40
1.0
 40
1.0
 10
186.0106079081506
 20
74.23617067976025
 30
0.0
 10
185.6249393295243
 20
74.92796497060444
 30
0.0
 10
185.2399530530313
 20
75.62015114492814
 30
0.0
 10
184.855818304447
 20
76.31279256687233
 30
0.0
  0
LINE
  5
A8
330
1F
100
AcDbEntity
  8
0
  6
Continuous
 62
     7
370
    15
100
AcDbLine
 10
184.8558183044
 20
76.3127925669
 30
0.0
 11
184.8558183044
 21
122.4796190264
 31
0.0
  0
SPLINE
  5
A9
330
1F
100
AcDbEntity
  8
0
  6
Continuous
 62
     7
370
    15
100
AcDbSpline
210
0.0
220
0.0
230
1.0
 70
    24
 71
     3
 72
     8
 73
     4
 74
     0
 42
0.000000001
 43
0.00000001
 40
0.0
 40
0.0
 40
0.0
 40
0.0
 40
1.0
 40
1.0
 40
1.0
 40
1.0
 10
186.4676549465037
 20
122.4796190263738
 30
0.0
 10
185.9192262770277
 20
122.4796190263738
 30
0.0
 10
185.3805507928089
 20
122.4796190263738
 30
0.0
 10
184.855818304447
 20
122.4796190263738
 30
0.0
  0
SPLINE
  5
AA
330
1F
100
AcDbEntity
  8
0
  6
Continuous
 62
     7
370
    15
100
AcDbSpline
210
0.0
220
0.0
230
1.0
 70
     8
 71
     3
 72
    10
 73
     6
 74
     0
 42
0.000000001
 43
0.00000001
 40
0.0
 40
0.0
 40
0.0
 40
0.0
 40
0.5
 40
0.5
 40
1.0
 40
1.0
 40
1.0
 40
1.0
 10
175.2619628457942
 20
73.77788917690557
 30
0.0
 10
175.3107328187755
 20
73.74966116969756
 30
0.0
 10
175.3681849420778
 20
73.72556656545596
 30
0.0
 10
175.4987818450666
 20
73.69130309236341
 30
0.0
 10
175.5712715249088
 20
73.68152667773711
 30
0.0
 10
175.645818304447
 20
73.68152667773711
 30
0.0
  0
SPLINE
  5
AB
330
1F
100
AcDbEntity
  8
0
  6
Continuous
 62
     7
370
    15
100
AcDbSpline
210
0.0
220
0.0
230
1.0
 70
     8
 71
     3
 72
    10
 73
     6
 74
     0
 42
0.000000001
 43
0.00000001
 40
0.0
 40
0.0
 40
0.0
 40
0.0
 40
0.5
 40
0.5
 40
1.0
 40
1.0
 40
1.0
 40
1.0
 10
175.2619628457942
 20
73.77788917690556
 30
0.0
 10
175.2038401857181
 20
73.84519433676736
 30
0.0
 10
175.1514370197146
 20
73.92527972380101
 30
0.0
 10
175.0725339981682
 20
74.10929916548979
 30
0.0
 10
175.045818304447
 20
74.21451052291025
 30
0.0
 10
175.045818304447
 20
74.3232438693709
 30
0.0
  0
LINE
  5
AC
330
1F
100
AcDbEntity
  8
0
  6
Continuous
 62
     7
370
    15
100
AcDbLine
 10
175.0458183044
 20
74.3232438694
 30
0.0
 11
175.0458183044
 21
122.4796190264
 31
0.0
  0
SPLINE
  5
AD
330
1F
100
AcDbEntity
  8
0
  6
Continuous
 62
     7
370
    15
100
AcDbSpline
210
0.0
220
0.0
230
1.0
 70
    24
 71
     3
 72
    12
 73
     8
 74
     0
 42
0.000000001
 43
0.00000001
 40
0.0
 40
0.0
 40
0.0
 40
0.0
 40
0.2499999999999998
 40
0.2499999999999998
 40
0.4999999999999997
 40
0.4999999999999997
 40
1.0
 40
1.0
 40
1.0
 40
1.0
 10
175.645818304447
 20
122.4796190263738
 30
0.0
 10
175.5574029271365
 20
122.4796190263738
 30
0.0
 10
175.4701324899659
 20
122.4796190263738
 30
0.0
 10
175.3176687651941
 20
122.4796190263738
 30
0.0
 10
175.2520301529716
 20
122.4796190263738
 30
0.0
 10
175.0953717516877
 20
122.4796190263738
 30
0.0
 10
175.045818304447
 20
122.4796190263738
 30
0.0
 10
175.045818304447
 20
122.4796190263738
 30
0.0
  0
SPLINE
  5
AE
330
1F
100
AcDbEntity
  8
0
  6
Continuous
 62
     7
370
    15
100
AcDbSpline
210
0.0
220
0.0
230
1.0
 70
     8
 71
     3
 72
    12
 73
     8
 74
     0
 42
0.000000001
 43
0.00000001
 40
0.0
 40
0.0
 40
0.0
 40
0.0
 40
0.2500000000000015
 40
0.2500000000000015
 40
0.500000000000003
 40
0.500000000000003
 40
1.0
 40
1.0
 40
1.0
 40
1.0
 10
181.835818304447
 20
77.31176117008707
 30
0.0
 10
181.7294164540895
 20
77.31176117008708
 30
0.0
 10
181.622101042693
 20
77.28899040606856
 30
0.0
 10
181.4266294516657
 20
77.20274745941647
 30
0.0
 10
181.3364473357282
 20
77.13807113894593
 30
0.0
 10
181.1182258490074
 20
76.90514181488912
 30
0.0
 10
181.0358183044466
 20
76.6905565769981
 30
0.0
 10
181.035818304447
 20
76.47753953856538
 30
0.0
  0
SPLINE
  5
AF
330
1F
100
AcDbEntity
  8
0
  6
Continuous
 62
     7
370
    15
100
AcDbSpline
210
0.0
220
0.0
230
1.0
 70
    24
 71
     3
 72
    14
 73
    10
 74
     0
 42
0.000000001
 43
0.00000001
 40
0.0
 40
0.0
 40
0.0
 40
0.0
 40
0.1250000000000018
 40
0.1250000000000018
 40
0.2500000000000037
 40
0.2500000000000037
 40
0.5000000000000004
 40
0.5000000000000004
 40
1.0
 40
1.0
 40
1.0
 40
1.0
 10
181.835818304447
 20
122.4796190263738
 30
0.0
 10
181.7752009810294
 20
122.4796190263738
 30
0.0
 10
181.7130758328944
 20
122.4796190263738
 30
0.0
 10
181.5968581698729
 20
122.4796190263738
 30
0.0
 10
181.5422415301805
 20
122.4796190263738
 30
0.0
 10
181.3875651916723
 20
122.4796190263738
 30
0.0
 10
181.3014484428883
 20
122.4796190263738
 30
0.0
 10
181.1001408623477
 20
122.4796190263738
 30
0.0
 10
181.035818304447
 20
122.4796190263738
 30
0.0
 10
181.035818304447
 20
122.4796190263738
 30
0.0
  0
SPLINE
  5
B0
330
1F
100
AcDbEntity
  8
0
  6
Continuous
 62
     7
370
    15
100
AcDbSpline
210
0.0
220
0.0
230
1.0
 70
     8
 71
     3
 72
    12
 73
     8
 74
     0
 42
0.000000001
 43
0.00000001
 40
0.0
 40
0.0
 40
0.0
 40
0.0
 40
0.5
 40
0.5
 40
0.75
 40
0.75
 40
1.0
 40
1.0
 40
1.0
 40
1.0
 10
184.855818304447
 20
76.47753953856675
 30
0.0
 10
184.855818304447
 20
76.69036209749963
 30
0.0
 10
184.7738929466272
 20
76.9046186041376
 30
0.0
 10
184.5549711431589
 20
77.13830823258748
 30
0.0
 10
184.4649238516678
 20
77.20279305743145
 30
0.0
 10
184.269510383648
 20
77.28899266858703
 30
0.0
 10
184.1622274166642
 20
77.31176117008707
 30
0.0
 10
184.055818304447
 20
77.31176117008707
 30
0.0
  0
SPLINE
  5
B1
330
1F
100
AcDbEntity
  8
0
  6
Continuous
 62
     7
370
    15
100
AcDbSpline
210
0.0
220
0.0
230
1.0
 70
    24
 71
     3
 72
    14
 73
    10
 74
     0
 42
0.000000001
 43
0.00000001
 40
0.0
 40
0.0
 40
0.0
 40
0.0
 40
0.25
 40
0.25
 40
0.5
 40
0.5
 40
0.75
 40
0.75
 40
1.0
 40
1.0
 40
1.0
 40
1.0
 10
184.855818304447
 20
122.4796190263738
 30
0.0
 10
184.855818304447
 20
122.4796190263738
 30
0.0
 10
184.8397367029872
 20
122.4796190263738
 30
0.0
 10
184.7742451897203
 20
122.4796190263738
 30
0.0
 10
184.7249372165929
 20
122.4796190263738
 30
0.0
 10
184.590367694896
 20
122.4796190263738
 30
0.0
 10
184.5048446188107
 20
122.4796190263738
 30
0.0
 10
184.2978491232557
 20
122.4796190263738
 30
0.0
 10
184.1771554893121
 20
122.4796190263738
 30
0.0
 10
184.055818304447
 20
122.4796190263738
 30
0.0
  0
LINE
  5
B2
330
1F
100
AcDbEntity
  8
0
  6
Continuous
 62
     7
370
    15
100
AcDbLine
 10
184.0558183044
 20
77.3117611701
 30
0.0
 11
181.8358183044
 21
77.3117611701
 31
0.0
  0
LINE
  5
B3
330
1F
100
AcDbEntity
  8
0
  6
Continuous
 62
     7
370
    15
100
AcDbLine
 10
184.0558183044
 20
122.4796190264
 30
0.0
 11
181.8358183044
 21
122.4796190264
 31
0.0
  0
LINE
  5
B4
330
1F
100
AcDbEntity
  8
0
  6
Continuous
 62
     7
370
    15
100
AcDbLine
 10
171.8458183044
 20
81.9046190264
 30
0.0
 11
171.8458183044
 21
126.3546190264
 31
0.0
  0
LINE
  5
B5
330
1F
100
AcDbEntity
  8
0
  6
Continuous
 62
     7
370
    15
100
AcDbLine
 10
184.0558183044
 20
130.9474768827
 30
0.0
 11
181.8358183044
 21
130.9474768827
 31
0.0
  0
LINE
  5
B6
330
1F
100
AcDbEntity
  8
0
  6
Continuous
 62
     7
370
    15
100
AcDbLine
 10
181.8358183044
 20
125.2785551698
 30
0.0
 11
184.0558183044
 21
125.2785551698
 31
0.0
  0
LINE
  5
B7
330
1F
100
AcDbEntity
  8
0
  6
Continuous
 62
     7
370
    15
100
AcDbLine
 10
190.2958183044
 20
134.6259551056
 30
0.0
 11
186.4676549465
 21
134.6259551056
 31
0.0
  0
LINE
  5
B8
330
1F
100
AcDbEntity
  8
0
  6
Continuous
 62
     7
370
    15
100
AcDbLine
 10
186.4676549465
 20
130.0398486664
 30
0.0
 11
190.2958183044
 21
130.0398486664
 31
0.0
  0
LINE
  5
B9
330
1F
100
AcDbEntity
  8
0
  6
Continuous
 62
     7
370
    15
100
AcDbLine
 10
186.4676549465
 20
130.0398486664
 30
0.0
 11
186.4676549465
 21
134.6259551056
 31
0.0
  0
SPLINE
  5
BA
330
1F
100
AcDbEntity
  8
0
  6
Continuous
 62
     7
370
    15
100
AcDbSpline
210
0.0
220
0.0
230
1.0
 70
     8
 71
     3
 72
    12
 73
     8
 74
     0
 42
0.000000001
 43
0.00000001
 40
0.0
 40
0.0
 40
0.0
 40
0.0
 40
0.5000000000000042
 40
0.5000000000000042
 40
0.7500000000000021
 40
0.7500000000000021
 40
1.0
 40
1.0
 40
1.0
 40
1.0
 10
190.895818304447
 20
134.140170159815
 30
0.0
 10
190.895818304447
 20
134.2604971928681
 30
0.0
 10
190.842023492854
 20
134.3785947663499
 30
0.0
 10
190.6810999228877
 20
134.5182375087889
 30
0.0
 10
190.6163484617852
 20
134.5565134621834
 30
0.0
 10
190.4641282784675
 20
134.6113532918178
 30
0.0
 10
190.3813207629425
 20
134.6259551055894
 30
0.0
 10
190.295818304447
 20
134.6259551055894
 30
0.0
  0
SPLINE
  5
BB
330
1F
100
AcDbEntity
  8
0
  6
Continuous
 62
     7
370
    15
100
AcDbSpline
210
0.0
220
0.0
230
1.0
 70
     8
 71
     3
 72
    14
 73
    10
 74
     0
 42
0.000000001
 43
0.00000001
 40
0.0
 40
0.0
 40
0.0
 40
0.0
 40
0.25
 40
0.25
 40
0.5
 40
0.5
 40
0.75
 40
0.75
 40
1.0
 40
1.0
 40
1.0
 40
1.0
 10
190.295818304447
 20
130.0398486664214
 30
0.0
 10
190.3842408425695
 20
130.0398486664214
 30
0.0
 10
190.4722948322625
 20
130.014776315962
 30
0.0
 10
190.6241245961339
 20
129.9284342509906
 30
0.0
 10
190.6899675406977
 20
129.8668909964778
 30
0.0
 10
190.7937666012432
 20
129.7250632502269
 30
0.0
 10
190.8322387107179
 20
129.6450146602568
 30
0.0
 10
190.8834613739924
 20
129.4760021635831
 30
0.0
 10
190.895818304447
 20
129.3892228567134
 30
0.0
 10
190.895818304447
 20
129.3010313824574
 30
0.0
  0
LINE
  5
BC
330
1F
100
AcDbEntity
  8
0
  6
Continuous
 62
     7
370
    15
100
AcDbLine
 10
190.8958183044
 20
129.3010313825
 30
0.0
 11
190.8958183044
 21
134.1401701598
 31
0.0
  0
SPLINE
  5
BD
330
1F
100
AcDbEntity
  8
0
  6
Continuous
 62
     7
370
    15
100
AcDbSpline
210
0.0
220
0.0
230
1.0
 70
     8
 71
     3
 72
    12
 73
     8
 74
     0
 42
0.000000001
 43
0.00000001
 40
0.0
 40
0.0
 40
0.0
 40
0.0
 40
0.5000000000000003
 40
0.5000000000000003
 40
0.7500000000000001
 40
0.7500000000000001
 40
1.0
 40
1.0
 40
1.0
 40
1.0
 10
175.045818304447
 20
129.3010313824574
 30
0.0
 10
175.045818304447
 20
129.4776477789792
 30
0.0
 10
175.0951589392688
 20
129.6527049503529
 30
0.0
 10
175.2513744975569
 20
129.8666551628455
 30
0.0
 10
175.3166770774576
 20
129.9279878056925
 30
0.0
 10
175.470446095418
 20
130.0153759036637
 30
0.0
 10
175.5574592020284
 20
130.0398486664214
 30
0.0
 10
175.645818304447
 20
130.0398486664214
 30
0.0
  0
LINE
  5
BE
330
1F
100
AcDbEntity
  8
0
  6
Continuous
 62
     7
370
    15
100
AcDbLine
 10
175.6458183044
 20
130.0398486664
 30
0.0
 11
179.4239816624
 21
130.0398486664
 31
0.0
  0
SPLINE
  5
BF
330
1F
100
AcDbEntity
  8
0
  6
Continuous
 62
     7
370
    15
100
AcDbSpline
210
0.0
220
0.0
230
1.0
 70
     8
 71
     3
 72
     8
 73
     4
 74
     0
 42
0.000000001
 43
0.00000001
 40
0.0
 40
0.0
 40
0.0
 40
0.0
 40
1.0
 40
1.0
 40
1.0
 40
1.0
 10
179.4239816623903
 20
130.0398486664214
 30
0.0
 10
179.9729264405871
 20
128.8747525541077
 30
0.0
 10
180.5115368151039
 20
127.7055942372832
 30
0.0
 10
181.035818304447
 20
126.5317580822323
 30
0.0
  0
SPLINE
  5
C0
330
1F
100
AcDbEntity
  8
0
  6
Continuous
 62
     7
370
    15
100
AcDbSpline
210
0.0
220
0.0
230
1.0
 70
     8
 71
     3
 72
    14
 73
    10
 74
     0
 42
0.000000001
 43
0.00000001
 40
0.0
 40
0.0
 40
0.0
 40
0.0
 40
0.25
 40
0.25
 40
0.5
 40
0.5
 40
0.75
 40
0.75
 40
1.0
 40
1.0
 40
1.0
 40
1.0
 10
181.035818304447
 20
126.3268598458991
 30
0.0
 10
181.035818304447
 20
126.2049245107175
 30
0.0
 10
181.0518626719869
 20
126.0853702702161
 30
0.0
 10
181.1175920141663
 20
125.8512542870729
 30
0.0
 10
181.1667993844146
 20
125.7393217469382
 30
0.0
 10
181.3018123653134
 20
125.5369219377013
 30
0.0
 10
181.3877324339197
 20
125.4470567441383
 30
0.0
 10
181.5942472359252
 20
125.3167222345281
 30
0.0
 10
181.7143859482962
 20
125.2785551698303
 30
0.0
 10
181.835818304447
 20
125.2785551698303
 30
0.0
  0
SPLINE
  5
C1
330
1F
100
AcDbEntity
  8
0
  6
Continuous
 62
     7
370
    15
100
AcDbSpline
210
0.0
220
0.0
230
1.0
 70
     8
 71
     3
 72
    12
 73
     8
 74
     0
 42
0.000000001
 43
0.00000001
 40
0.0
 40
0.0
 40
0.0
 40
0.0
 40
0.2499999999999986
 40
0.2499999999999986
 40
0.4999999999999971
 40
0.4999999999999971
 40
1.0
 40
1.0
 40
1.0
 40
1.0
 10
184.055818304447
 20
125.2785551698303
 30
0.0
 10
184.1779003019353
 20
125.2785551698303
 30
0.0
 10
184.298490844421
 20
125.317281526004
 30
0.0
 10
184.5039861281208
 20
125.4472451137503
 30
0.0
 10
184.5895026110733
 20
125.536451350297
 30
0.0
 10
184.7928969626175
 20
125.8413278878426
 30
0.0
 10
184.855818304447
 20
126.0840985019447
 30
0.0
 10
184.855818304447
 20
126.3268598458991
 30
0.0
  0
LINE
  5
C2
330
1F
100
AcDbEntity
  8
0
  6
Continuous
 62
     7
370
    15
100
AcDbLine
 10
184.8558183044
 20
126.3268598459
 30
0.0
 11
184.8558183044
 21
126.5317580822
 31
0.0
  0
SPLINE
  5
C3
330
1F
100
AcDbEntity
  8
0
  6
Continuous
 62
     7
370
    15
100
AcDbSpline
210
0.0
220
0.0
230
1.0
 70
     8
 71
     3
 72
     8
 73
     4
 74
     0
 42
0.000000001
 43
0.00000001
 40
0.0
 40
0.0
 40
0.0
 40
0.0
 40
1.0
 40
1.0
 40
1.0
 40
1.0
 10
184.855818304447
 20
126.5317580822323
 30
0.0
 10
185.3806094239429
 20
127.706735269937
 30
0.0
 10
185.9191256751257
 20
128.8756344376752
 30
0.0
 10
186.4676549465037
 20
130.0398486664214
 30
0.0
  0
LINE
  5
C4
330
1F
100
AcDbEntity
  8
0
  6
Continuous
 62
     7
370
    15
100
AcDbLine
 10
181.0358183044
 20
126.5317580822
 30
0.0
 11
181.0358183044
 21
126.3268598459
 31
0.0
  0
LINE
  5
C5
330
1F
100
AcDbEntity
  8
0
  6
Continuous
 62
     7
370
    15
100
AcDbLine
 10
175.0458183044
 20
129.3010313825
 30
0.0
 11
175.0458183044
 21
122.4796190264
 31
0.0
  0
LINE
  5
C6
330
1F
100
AcDbEntity
  8
0
  6
Continuous
 62
     7
370
    15
100
AcDbLine
 10
190.8958183044
 20
129.3010313825
 30
0.0
 11
190.8958183044
 21
122.4796190264
 31
0.0
  0
SPLINE
  5
C7
330
1F
100
AcDbEntity
  8
0
  6
Continuous
 62
     7
370
    15
100
AcDbSpline
210
0.0
220
0.0
230
1.0
 70
     8
 71
     3
 72
     8
 73
     4
 74
     0
 42
0.000000001
 43
0.00000001
 40
0.0
 40
0.0
 40
0.0
 40
0.0
 40
0.0012409313617635
 40
0.0012409313617635
 40
0.0012409313617635
 40
0.0012409313617635
 10
179.981863618151
 20
133.8421571826383
 30
0.0
 10
179.7966397785949
 20
134.1036847261155
 30
0.0
 10
179.6106545906225
 20
134.3649432278908
 30
0.0
 10
179.4239816623903
 20
134.6259551055894
 30
0.0
  0
SPLINE
  5
C8
330
1F
100
AcDbEntity
  8
0
  6
Continuous
 62
     7
370
    15
100
AcDbSpline
210
0.0
220
0.0
230
1.0
 70
     8
 71
     3
 72
     8
 73
     4
 74
     0
 42
0.000000001
 43
0.00000001
 40
0.0
 40
0.0
 40
0.0
 40
0.0
 40
1.0
 40
1.0
 40
1.0
 40
1.0
 10
181.035818304447
 20
131.9464454858752
 30
0.0
 10
180.6851660641194
 20
132.5787138949256
 30
0.0
 10
180.3338076410592
 20
133.2105957946245
 30
0.0
 10
179.981863618151
 20
133.8421571826383
 30
0.0
  0
LINE
  5
C9
330
1F
100
AcDbEntity
  8
0
  6
Continuous
 62
     7
370
    15
100
AcDbLine
 10
179.4239816624
 20
130.0398486664
 30
0.0
 11
179.4239816624
 21
134.6259551056
 31
0.0
  0
LINE
  5
CA
330
1F
100
AcDbEntity
  8
0
  6
Continuous
 62
     7
370
    15
100
AcDbLine
 10
181.0358183044
 20
126.5317580822
 30
0.0
 11
181.0358183044
 21
131.9464454859
 31
0.0
  0
SPLINE
  5
CB
330
1F
100
AcDbEntity
  8
0
  6
Continuous
 62
     7
370
    15
100
AcDbSpline
210
0.0
220
0.0
230
1.0
 70
     8
 71
     3
 72
     8
 73
     4
 74
     0
 42
0.000000001
 43
0.00000001
 40
0.0
 40
0.0
 40
0.0
 40
0.0
 40
1.0
 40
1.0
 40
1.0
 40
1.0
 10
185.909772990743
 20
133.8421571826383
 30
0.0
 10
185.5578289678347
 20
133.2105957946245
 30
0.0
 10
185.2064705447745
 20
132.5787138949256
 30
0.0
 10
184.855818304447
 20
131.9464454858752
 30
0.0
  0
SPLINE
  5
CC
330
1F
100
AcDbEntity
  8
0
  6
Continuous
 62
     7
370
    15
100
AcDbSpline
210
0.0
220
0.0
230
1.0
 70
     8
 71
     3
 72
     8
 73
     4
 74
     0
 42
0.000000001
 43
0.00000001
 40
0.0
 40
0.0
 40
0.0
 40
0.0
 40
0.0012409313617635
 40
0.0012409313617635
 40
0.0012409313617635
 40
0.0012409313617635
 10
186.4676549465037
 20
134.6259551055894
 30
0.0
 10
186.2809820182715
 20
134.3649432278908
 30
0.0
 10
186.094996830299
 20
134.1036847261155
 30
0.0
 10
185.909772990743
 20
133.8421571826383
 30
0.0
  0
LINE
  5
CD
330
1F
100
AcDbEntity
  8
0
  6
Continuous
 62
     7
370
    15
100
AcDbLine
 10
184.8558183044
 20
126.5317580822
 30
0.0
 11
184.8558183044
 21
131.9464454859
 31
0.0
  0
SPLINE
  5
CE
330
1F
100
AcDbEntity
  8
0
  6
Continuous
 62
     7
370
    15
100
AcDbSpline
210
0.0
220
0.0
230
1.0
 70
     8
 71
     3
 72
    12
 73
     8
 74
     0
 42
0.000000001
 43
0.00000001
 40
0.0
 40
0.0
 40
0.0
 40
0.0
 40
0.5
 40
0.5
 40
0.75
 40
0.75
 40
1.0
 40
1.0
 40
1.0
 40
1.0
 10
184.855818304447
 20
131.7816985141809
 30
0.0
 10
184.855818304447
 20
131.5685611125294
 30
0.0
 10
184.773175889299
 20
131.3535815877917
 30
0.0
 10
184.5545924784886
 20
131.1206625189059
 30
0.0
 10
184.465502525508
 20
131.0567956090854
 30
0.0
 10
184.2700972076104
 20
130.9704094547037
 30
0.0
 10
184.1635731606671
 20
130.9474768826605
 30
0.0
 10
184.055818304447
 20
130.9474768826605
 30
0.0
  0
SPLINE
  5
CF
330
1F
100
AcDbEntity
  8
0
  6
Continuous
 62
     7
370
    15
100
AcDbSpline
210
0.0
220
0.0
230
1.0
 70
     8
 71
     3
 72
    14
 73
    10
 74
     0
 42
0.000000001
 43
0.00000001
 40
0.0
 40
0.0
 40
0.0
 40
0.0
 40
0.25
 40
0.25
 40
0.5
 40
0.5
 40
0.75
 40
0.75
 40
1.0
 40
1.0
 40
1.0
 40
1.0
 10
181.835818304447
 20
130.9474768826605
 30
0.0
 10
181.7284492599326
 20
130.9474768826605
 30
0.0
 10
181.6216437681697
 20
130.9704018780655
 30
0.0
 10
181.4265023996529
 20
131.0565943119397
 30
0.0
 10
181.337292682063
 20
131.1204383086036
 30
0.0
 10
181.1913658892467
 20
131.2758544165451
 30
0.0
 10
181.1333761454486
 20
131.3685089947528
 30
0.0
 10
181.055782303926
 20
131.5677423348023
 30
0.0
 10
181.035818304447
 20
131.6743474298576
 30
0.0
 10
181.035818304447
 20
131.7816985141809
 30
0.0
  0
LINE
  5
D0
330
1F
100
AcDbEntity
  8
0
  6
Continuous
 62
     7
370
    15
100
AcDbLine
 10
179.4239816624
 20
134.6259551056
 30
0.0
 11
175.6458183044
 21
134.6259551056
 31
0.0
  0
SPLINE
  5
D1
330
1F
100
AcDbEntity
  8
0
  6
Continuous
 62
     7
370
    15
100
AcDbSpline
210
0.0
220
0.0
230
1.0
 70
     8
 71
     3
 72
    10
 73
     6
 74
     0
 42
0.000000001
 43
0.00000001
 40
0.0
 40
0.0
 40
0.0
 40
0.0
 40
0.5
 40
0.5
 40
1.0
 40
1.0
 40
1.0
 40
1.0
 10
175.3330599057545
 20
134.5549155813308
 30
0.0
 10
175.257220311751
 20
134.4848663950021
 30
0.0
 10
175.189896794025
 20
134.3996476214285
 30
0.0
 10
175.08325315572
 20
134.1894214947666
 30
0.0
 10
175.045818304447
 20
134.0659123038994
 30
0.0
 10
175.045818304447
 20
133.9359941833767
 30
0.0
  0
SPLINE
  5
D2
330
1F
100
AcDbEntity
  8
0
  6
Continuous
 62
     7
370
    15
100
AcDbSpline
210
0.0
220
0.0
230
1.0
 70
     8
 71
     3
 72
     8
 73
     4
 74
     0
 42
0.000000001
 43
0.00000001
 40
0.0
 40
0.0
 40
0.0
 40
0.0
 40
1.0
 40
1.0
 40
1.0
 40
1.0
 10
175.645818304447
 20
134.6259551055894
 30
0.0
 10
175.5336400502673
 20
134.6259551055894
 30
0.0
 10
175.4249705375389
 20
134.6002740403284
 30
0.0
 10
175.3330599057545
 20
134.5549155813308
 30
0.0
  0
LINE
  5
D3
330
1F
100
AcDbEntity
  8
0
  6
Continuous
 62
     7
370
    15
100
AcDbLine
 10
175.0458183044
 20
129.3010313825
 30
0.0
 11
175.0458183044
 21
133.9359941834
 31
0.0
  0
LINE
  5
D4
330
1F
100
AcDbEntity
  8
0
  6
Continuous
 62
     7
370
    15
100
AcDbLine
 10
103.5958183044
 20
92.7224884293
 30
0.0
 11
103.5958183044
 21
115.5367496119
 31
0.0
  0
SPLINE
  5
D5
330
1F
100
AcDbEntity
  8
0
  6
Continuous
 62
     7
370
    15
100
AcDbSpline
210
0.0
220
0.0
230
1.0
 70
    11
 71
     3
 72
    60
 73
    56
 74
     0
 42
0.000000001
 43
0.00000001
 40
0.0
 40
0.0
 40
0.0
 40
0.0
 40
0.0624999999999987
 40
0.0624999999999987
 40
0.0937499999999978
 40
0.0937499999999978
 40
0.1249999999999968
 40
0.1249999999999968
 40
0.1562499999999958
 40
0.1562499999999958
 40
0.1874999999999949
 40
0.1874999999999949
 40
0.2187499999999939
 40
0.2187499999999939
 40
0.2499999999999936
 40
0.2499999999999936
 40
0.2812499999999932
 40
0.2812499999999932
 40
0.3124999999999928
 40
0.3124999999999928
 40
0.3437499999999924
 40
0.3437499999999924
 40
0.374999999999992
 40
0.374999999999992
 40
0.4062499999999916
 40
0.4062499999999916
 40
0.4374999999999911
 40
0.4374999999999911
 40
0.4687499999999907
 40
0.4687499999999907
 40
0.4999999999999903
 40
0.4999999999999903
 40
0.5312499999999899
 40
0.5312499999999899
 40
0.5624999999999901
 40
0.5624999999999901
 40
0.6249999999999912
 40
0.6249999999999912
 40
0.6874999999999922
 40
0.6874999999999922
 40
0.7499999999999932
 40
0.7499999999999932
 40
0.7812499999999941
 40
0.7812499999999941
 40
0.8124999999999949
 40
0.8124999999999949
 40
0.8437499999999957
 40
0.8437499999999957
 40
0.8749999999999964
 40
0.8749999999999964
 40
0.9062499999999972
 40
0.9062499999999972
 40
0.9374999999999981
 40
0.9374999999999981
 40
1.0
 40
1.0
 40
1.0
 40
1.0
 10
200.1219973730214
 20
105.7940507463848
 30
0.0
 10
200.3645758329889
 20
105.9908788728982
 30
0.0
 10
200.6383077297766
 20
106.1377096435082
 30
0.0
 10
201.0824662186558
 20
106.2850536902599
 30
0.0
 10
201.2331481758216
 20
106.320838880055
 30
0.0
 10
201.5395850287277
 20
106.3668744328295
 30
0.0
 10
201.6968452398509
 20
106.3770283886303
 30
0.0
 10
202.0083815416587
 20
106.3706204018344
 30
0.0
 10
202.1622924250582
 20
106.3543787629367
 30
0.0
 10
202.4664427939179
 20
106.2960363855761
 30
0.0
 10
202.6181464608281
 20
106.2532879803536
 30
0.0
 10
202.9082494491327
 20
106.1432996445251
 30
0.0
 10
203.0469898168703
 20
106.0763335509943
 30
0.0
 10
203.3116405550191
 20
105.9177760400505
 30
0.0
 10
203.4387503434825
 20
105.8249399651144
 30
0.0
 10
203.6694240717
 20
105.6196194331222
 30
0.0
 10
203.7738482911429
 20
105.5070179531831
 30
0.0
 10
203.9595794198779
 20
105.2604892785869
 30
0.0
 10
204.0412333054184
 20
105.125030973214
 30
0.0
 10
204.1707319356667
 20
104.8445495618989
 30
0.0
 10
204.219898863065
 20
104.6982767852479
 30
0.0
 10
204.2845451353101
 20
104.3926092607738
 30
0.0
 10
204.2990129594739
 20
104.2356684523015
 30
0.0
 10
204.2914259277628
 20
103.9256887542662
 30
0.0
 10
204.2691170896755
 20
103.7688045225949
 30
0.0
 10
204.1899771695813
 20
103.4673518150388
 30
0.0
 10
204.1337955904977
 20
103.3227816941495
 30
0.0
 10
203.9894936347078
 20
103.0453939746844
 30
0.0
 10
203.9027916446272
 20
102.9156970895017
 30
0.0
 10
203.7057573306314
 20
102.6769583131363
 30
0.0
 10
203.5937654392714
 20
102.5663333935268
 30
0.0
 10
203.353556408683
 20
102.3705816240937
 30
0.0
 10
203.2250315313537
 20
102.2846615304892
 30
0.0
 10
202.9516554568017
 20
102.1356978543774
 30
0.0
 10
202.8077047380728
 20
102.0734528425369
 30
0.0
 10
202.3670576118312
 20
101.9265818351051
 30
0.0
 10
202.0522049169449
 20
101.8793486689246
 30
0.0
 10
201.4325189998687
 20
101.8913453360764
 30
0.0
 10
201.1197242486126
 20
101.9508259287178
 30
0.0
 10
200.541933577391
 20
102.169252711859
 30
0.0
 10
200.2689373288845
 20
102.3313201431549
 30
0.0
 10
199.9239344810813
 20
102.6379283551723
 30
0.0
 10
199.817346913062
 20
102.7526031810512
 30
0.0
 10
199.6303550153945
 20
103.0012132905993
 30
0.0
 10
199.550926726091
 20
103.1332653623496
 30
0.0
 10
199.4213053615605
 20
103.4136300382996
 30
0.0
 10
199.3708397572706
 20
103.564237818926
 30
0.0
 10
199.3069002696942
 20
103.8685188818215
 30
0.0
 10
199.2925316380519
 20
104.0228689098435
 30
0.0
 10
199.3003500493912
 20
104.3361660637672
 30
0.0
 10
199.3228656889771
 20
104.4921262591437
 30
0.0
 10
199.4019513020682
 20
104.7926208109534
 30
0.0
 10
199.4595684710324
 20
104.9402900981673
 30
0.0
 10
199.6754269845215
 20
105.3536731662164
 30
0.0
 10
199.8794189130539
 20
105.5972226198714
 30
0.0
 10
200.1219973730215
 20
105.7940507463848
 30
0.0
  0
LINE
  5
D6
330
1F
100
AcDbEntity
  8
0
  6
Continuous
 62
     7
370
    15
100
AcDbLine
 10
206.6458183044
 20
104.1296190264
 30
0.0
 11
206.6458183044
 21
94.1296190264
 31
0.0
  0
LINE
  5
D7
330
1F
100
AcDbEntity
  8
0
  6
Continuous
 62
     7
370
    15
100
AcDbLine
 10
206.6458183044
 20
114.1296190264
 30
0.0
 11
206.6458183044
 21
104.1296190264
 31
0.0
  0
LINE
  5
D8
330
1F
100
AcDbEntity
  8
0
  6
Continuous
 62
     7
370
    15
100
AcDbLine
 10
206.8458183044
 20
104.1296190264
 30
0.0
 11
206.8458183044
 21
94.3296190264
 31
0.0
  0
LINE
  5
D9
330
1F
100
AcDbEntity
  8
0
  6
Continuous
 62
     7
370
    15
100
AcDbLine
 10
206.8458183044
 20
113.9296190264
 30
0.0
 11
206.8458183044
 21
104.1296190264
 31
0.0
  0
CIRCLE
  5
DA
330
1F
100
AcDbEntity
  8
0
  6
HIDDEN
 62
     7
370
     0
100
AcDbCircle
 10
201.7958183044
 20
104.1296190264
 30
0.0
 40
2.000000000000023
  0
CIRCLE
  5
DB
330
1F
100
AcDbEntity
  8
0
  6
HIDDEN
 62
     7
370
     0
100
AcDbCircle
 10
201.7958183044
 20
104.1296190264
 30
0.0
 40
1.426794919243129
  0
CIRCLE
  5
DC
330
1F
100
AcDbEntity
  8
0
  6
HIDDEN
 62
     7
370
     0
100
AcDbCircle
 10
201.7958183044
 20
104.1296190264
 30
0.0
 40
1.326794919243129
  0
LINE
  5
DD
330
1F
100
AcDbEntity
  8
0
  6
HIDDEN
 62
     7
370
     0
100
AcDbLine
 10
175.0458183044
 20
128.9296190264
 30
0.0
 11
175.3830766047
 21
128.9296190264
 31
0.0
  0
ELLIPSE
  5
DE
330
1F
100
AcDbEntity
  8
0
  6
HIDDEN
 62
     7
370
     0
100
AcDbEllipse
 10
175.3830766047
 20
130.5296190264
 30
0.0
 11
0.0
 21
1.599999999999994
 31
0.0
210
0.0
220
0.0
230
1.0
 40
0.4142135624
 41
3.141592653589793
 42
4.712388980384695
  0
LINE
  5
DF
330
1F
100
AcDbEntity
  8
0
  6
HIDDEN
 62
     7
370
     0
100
AcDbLine
 10
175.3830766047
 20
81.5296190264
 30
0.0
 11
175.0458183044
 21
81.5296190264
 31
0.0
  0
ELLIPSE
  5
E0
330
1F
100
AcDbEntity
  8
0
  6
HIDDEN
 62
     7
370
     0
100
AcDbEllipse
 10
175.3830766047
 20
79.9296190264
 30
0.0
 11
0.0
 21
1.599999999999994
 31
0.0
210
0.0
220
0.0
230
1.0
 40
0.4142135624
 41
4.712388980384695
 42
6.283185307179586
  0
LINE
  5
E1
330
1F
100
AcDbEntity
  8
0
  6
HIDDEN
 62
     7
370
     0
100
AcDbLine
 10
176.0458183044
 20
74.2361706798
 30
0.0
 11
175.2619628458
 21
73.7778891769
 31
0.0
  0
LINE
  5
E2
330
1F
100
AcDbEntity
  8
0
  6
HIDDEN
 62
     7
370
     0
100
AcDbLine
 10
175.3330599058
 20
134.5549155813
 30
0.0
 11
176.0458183044
 21
133.8421571826
 31
0.0
  0
LINE
  5
E3
330
1F
100
AcDbEntity
  8
0
  6
HIDDEN
 62
     7
370
     0
100
AcDbLine
 10
110.5958183044
 20
95.6296190264
 30
0.0
 11
110.5958183044
 21
112.6296190264
 31
0.0
  0
LINE
  5
E4
330
1F
100
AcDbEntity
  8
0
  6
HIDDEN
 62
     7
370
     0
100
AcDbLine
 10
113.5917475188
 20
97.1296190264
 30
0.0
 11
113.5917475188
 21
111.1296190264
 31
0.0
  0
LINE
  5
E5
330
1F
100
AcDbEntity
  8
0
  6
HIDDEN
 62
     7
370
     0
100
AcDbLine
 10
179.8810287007
 20
74.2361706798
 30
0.0
 11
176.0458183044
 21
74.2361706798
 31
0.0
  0
LINE
  5
E6
330
1F
100
AcDbEntity
  8
0
  6
HIDDEN
 62
     7
370
     0
100
AcDbLine
 10
190.8958183044
 20
74.2361706798
 30
0.0
 11
186.0106079082
 21
74.2361706798
 31
0.0
  0
LINE
  5
E7
330
1F
100
AcDbEntity
  8
0
  6
HIDDEN
 62
     7
370
     0
100
AcDbLine
 10
176.0458183044
 20
74.2361706798
 30
0.0
 11
176.0458183044
 21
79.9296190264
 31
0.0
  0
LINE
  5
E8
330
1F
100
AcDbEntity
  8
0
  6
HIDDEN
 62
     7
370
     0
100
AcDbLine
 10
190.8958183044
 20
81.5296190264
 30
0.0
 11
175.3830766047
 21
81.5296190264
 31
0.0
  0
LINE
  5
E9
330
1F
100
AcDbEntity
  8
0
  6
HIDDEN
 62
     7
370
     0
100
AcDbLine
 10
175.3830766047
 20
128.9296190264
 30
0.0
 11
190.8958183044
 21
128.9296190264
 31
0.0
  0
LINE
  5
EA
330
1F
100
AcDbEntity
  8
0
  6
HIDDEN
 62
     7
370
     0
100
AcDbLine
 10
176.0458183044
 20
133.8421571826
 30
0.0
 11
179.9818636182
 21
133.8421571826
 31
0.0
  0
LINE
  5
EB
330
1F
100
AcDbEntity
  8
0
  6
HIDDEN
 62
     7
370
     0
100
AcDbLine
 10
185.9097729907
 20
133.8421571826
 30
0.0
 11
190.8958183044
 21
133.8421571826
 31
0.0
  0
LINE
  5
EC
330
1F
100
AcDbEntity
  8
0
  6
HIDDEN
 62
     7
370
     0
100
AcDbLine
 10
176.0458183044
 20
133.8421571826
 30
0.0
 11
176.0458183044
 21
130.5296190264
 31
0.0
  0
LINE
  5
ED
330
1F
100
AcDbEntity
  8
0
  6
HIDDEN
 62
     7
370
     0
100
AcDbLine
 10
146.5958183044
 20
97.1296190264
 30
0.0
 11
146.5958183044
 21
111.1296190264
 31
0.0
  0
LINE
  5
EE
330
1F
100
AcDbEntity
  8
0
  6
HIDDEN
 62
     7
370
     0
100
AcDbLine
 10
149.5400353377
 20
102.0296190264
 30
0.0
 11
149.5400353377
 21
106.2296190264
 31
0.0
  0
SPLINE
  5
EF
330
1F
100
AcDbEntity
  8
0
  6
HIDDEN
 62
     7
370
     0
100
AcDbSpline
210
0.0
220
0.0
230
1.0
 70
     8
 71
     3
 72
    16
 73
    12
 74
     0
 42
0.000000001
 43
0.00000001
 40
0.0
 40
0.0
 40
0.0
 40
0.0
 40
0.250000000000004
 40
0.250000000000004
 40
0.500000000000008
 40
0.500000000000008
 40
0.62500000000001
 40
0.62500000000001
 40
0.750000000000012
 40
0.750000000000012
 40
1.0
 40
1.0
 40
1.0
 40
1.0
 10
206.845818304447
 20
109.5982551078071
 30
0.0
 10
206.845818304447
 20
109.529121206468
 30
0.0
 10
206.8412844952271
 20
109.4585000590332
 30
0.0
 10
206.8161206482462
 20
109.3119765726768
 30
0.0
 10
206.7958335057092
 20
109.2345346975262
 30
0.0
 10
206.7372241289387
 20
109.1288862335722
 30
0.0
 10
206.7126958323525
 20
109.0968059535021
 30
0.0
 10
206.6583499265109
 20
109.049680230146
 30
0.0
 10
206.628750101743
 20
109.0346268816887
 30
0.0
 10
206.5448005435511
 20
109.0106214473178
 30
0.0
 10
206.49344214482
 20
109.018183882061
 30
0.0
 10
206.4458183045601
 20
109.0322232371309
 30
0.0
  0
SPLINE
  5
F0
330
1F
100
AcDbEntity
  8
0
  6
HIDDEN
 62
     7
370
     0
100
AcDbSpline
210
0.0
220
0.0
230
1.0
 70
     8
 71
     3
 72
     8
 73
     4
 74
     0
 42
0.000000001
 43
0.00000001
 40
0.0
 40
0.0
 40
0.0
 40
0.0
 40
1.0
 40
1.0
 40
1.0
 40
1.0
 10
206.4458183045596
 20
109.0322232371312
 30
0.0
 10
206.3866519956675
 20
108.9983739463027
 30
0.0
 10
206.3178690101431
 20
108.9762585701218
 30
0.0
 10
206.245818304447
 20
108.9762585701218
 30
0.0
  0
SPLINE
  5
F1
330
1F
100
AcDbEntity
  8
0
  6
HIDDEN
 62
     7
370
     0
100
AcDbSpline
210
0.0
220
0.0
230
1.0
 70
     8
 71
     3
 72
     8
 73
     4
 74
     0
 42
0.000000001
 43
0.00000001
 40
0.0
 40
0.0
 40
0.0
 40
0.0
 40
1.0
 40
1.0
 40
1.0
 40
1.0
 10
206.4458183043821
 20
99.22701481571798
 30
0.0
 10
206.3866519955323
 20
99.26086410648942
 30
0.0
 10
206.3178690100711
 20
99.28297948262576
 30
0.0
 10
206.245818304447
 20
99.28297948262576
 30
0.0
  0
SPLINE
  5
F2
330
1F
100
AcDbEntity
  8
0
  6
HIDDEN
 62
     7
370
     0
100
AcDbSpline
210
0.0
220
0.0
230
1.0
 70
     8
 71
     3
 72
    16
 73
    12
 74
     0
 42
0.000000001
 43
0.00000001
 40
0.0
 40
0.0
 40
0.0
 40
0.0
 40
0.2499999999999887
 40
0.2499999999999887
 40
0.3749999999999906
 40
0.3749999999999906
 40
0.4999999999999925
 40
0.4999999999999925
 40
0.7499999999999962
 40
0.7499999999999962
 40
1.0
 40
1.0
 40
1.0
 40
1.0
 10
206.4458183043698
 20
99.22701481571777
 30
0.0
 10
206.4931228922329
 20
99.24095998450862
 30
0.0
 10
206.5441210313866
 20
99.24854097190838
 30
0.0
 10
206.6277200376552
 20
99.2250321389476
 30
0.0
 10
206.6568573794902
 20
99.21046787135711
 30
0.0
 10
206.7111810514301
 20
99.16409818472928
 30
0.0
 10
206.7356641983461
 20
99.13257372134035
 30
0.0
 10
206.7945047546389
 20
99.02819862211845
 30
0.0
 10
206.8153861322942
 20
98.95043279691579
 30
0.0
 10
206.8411568428506
 20
98.80254526244576
 30
0.0
 10
206.8458179970739
 20
98.7304346105223
 30
0.0
 10
206.8458183044326
 20
98.66098826038512
 30
0.0
  0
LINE
  5
F3
330
1F
100
AcDbEntity
  8
0
  6
HIDDEN
 62
     7
370
     0
100
AcDbLine
 10
193.3458183044
 20
104.1296190264
 30
0.0
 11
193.3458183044
 21
98.9296190264
 31
0.0
  0
LINE
  5
F4
330
1F
100
AcDbEntity
  8
0
  6
HIDDEN
 62
     7
370
     0
100
AcDbLine
 10
193.3458183044
 20
109.3296190264
 30
0.0
 11
193.3458183044
 21
104.1296190264
 31
0.0
  0
LINE
  5
F5
330
1F
100
AcDbEntity
  8
0
  6
HIDDEN
 62
     7
370
     0
100
AcDbLine
 10
196.7118437082
 20
104.1296190264
 30
0.0
 11
196.7118437082
 21
98.6296190264
 31
0.0
  0
LINE
  5
F6
330
1F
100
AcDbEntity
  8
0
  6
HIDDEN
 62
     7
370
     0
100
AcDbLine
 10
196.7118437082
 20
109.6296190264
 30
0.0
 11
196.7118437082
 21
104.1296190264
 31
0.0
  0
LINE
  5
F7
330
1F
100
AcDbEntity
  8
0
  6
HIDDEN
 62
     7
370
     0
100
AcDbLine
 10
200.9458183044
 20
108.9762585701
 30
0.0
 11
206.2458183044
 21
108.9762585701
 31
0.0
  0
LINE
  5
F8
330
1F
100
AcDbEntity
  8
0
  6
HIDDEN
 62
     7
370
     0
100
AcDbLine
 10
200.9458183044
 20
99.2829794826
 30
0.0
 11
206.2458183044
 21
99.2829794826
 31
0.0
  0
SPLINE
  5
F9
330
1F
100
AcDbEntity
  8
0
  6
HIDDEN
 62
     7
370
     0
100
AcDbSpline
210
0.0
220
0.0
230
1.0
 70
    11
 71
     3
 72
    20
 73
    16
 74
     0
 42
0.000000001
 43
0.00000001
 40
0.0
 40
0.0
 40
0.0
 40
0.0
 40
0.125
 40
0.125
 40
0.2499999999999999
 40
0.2499999999999999
 40
0.4999999999999999
 40
0.4999999999999999
 40
0.6249999999999999
 40
0.6249999999999999
 40
0.7499999999999998
 40
0.7499999999999998
 40
0.8749999999999998
 40
0.8749999999999998
 40
1.0
 40
1.0
 40
1.0
 40
1.0
 10
206.445818304447
 20
111.5296190263738
 30
0.0
 10
206.445818304447
 20
111.6287937076843
 30
0.0
 10
206.445984747104
 20
111.7183403253634
 30
0.0
 10
206.4440244078008
 20
111.8787370020216
 30
0.0
 10
206.4420360408992
 20
111.9488668696122
 30
0.0
 10
206.4350323900867
 20
112.1182571449619
 30
0.0
 10
206.4273035671366
 20
112.1796025672341
 30
0.0
 10
206.4216219756202
 20
112.1796272508544
 30
0.0
 10
206.4206285328353
 20
112.1649248627619
 30
0.0
 10
206.422212032692
 20
112.1061410268968
 30
0.0
 10
206.4245414476952
 20
112.0623256152535
 30
0.0
 10
206.431211247203
 20
111.9494365397882
 30
0.0
 10
206.4358050417436
 20
111.8790893480661
 30
0.0
 10
206.4430824622249
 20
111.7195446258012
 30
0.0
 10
206.4458182736747
 20
111.6288105924759
 30
0.0
 10
206.4458181794968
 20
111.5296190263758
 30
0.0
  0
LWPOLYLINE
  5
FA
330
1F
100
AcDbEntity
  8
0
  6
HIDDEN
 62
     7
370
     0
100
AcDbPolyline
 90
        4
 70
   128
 43
0.0
 10
206.4458181795
 20
111.5296190264
 10
206.4458183032
 20
110.7875083258
 10
206.4458183211
 20
110.0453976253
 10
206.4458183046
 20
109.0322232371
  0
LWPOLYLINE
  5
FB
330
1F
100
AcDbEntity
  8
0
  6
HIDDEN
 62
     7
370
     0
100
AcDbPolyline
 90
        3
 70
   128
 43
0.0
 10
206.4458183547
 20
96.7296190264
 10
206.4458183
 20
98.0062992545
 10
206.4458183044
 20
99.2270148157
  0
SPLINE
  5
FC
330
1F
100
AcDbEntity
  8
0
  6
HIDDEN
 62
     7
370
     0
100
AcDbSpline
210
0.0
220
0.0
230
1.0
 70
     8
 71
     3
 72
    14
 73
    10
 74
     0
 42
0.000000001
 43
0.00000001
 40
0.0
 40
0.0
 40
0.0
 40
0.0
 40
0.1189792839777995
 40
0.283409911025419
 40
0.4425258003783099
 40
0.6062444936362582
 40
0.7656292273444665
 40
0.9296212860965491
 40
1.0
 40
1.0
 40
1.0
 40
1.0
 10
206.4235910870662
 20
96.08305963701572
 30
0.0
 10
206.4227207361361
 20
96.08397485468294
 30
0.0
 10
206.4206475510285
 20
96.08615491283226
 30
0.0
 10
206.4212996830299
 20
96.1324326525255
 30
0.0
 10
206.4254177703806
 20
96.21416496966167
 30
0.0
 10
206.4325611151204
 20
96.32889010890716
 30
0.0
 10
206.4406837619395
 20
96.47431013381673
 30
0.0
 10
206.4452568352839
 20
96.61222735731515
 30
0.0
 10
206.445688677617
 20
96.70250864536999
 30
0.0
 10
206.4458183546568
 20
96.7296190263738
 30
0.0
  0
LINE
  5
FD
330
1F
100
AcDbEntity
  8
0
  6
HIDDEN
 62
     7
370
     0
100
AcDbLine
 10
200.9458183044
 20
96.7296190264
 30
0.0
 11
200.9458183044
 21
99.2829794826
 31
0.0
  0
LINE
  5
FE
330
1F
100
AcDbEntity
  8
0
  6
HIDDEN
 62
     7
370
     0
100
AcDbLine
 10
200.9458183044
 20
111.5296190264
 30
0.0
 11
200.9458183044
 21
108.9762585701
 31
0.0
  0
LINE
  5
FF
330
1F
100
AcDbEntity
  8
0
  6
HIDDEN
 62
     7
370
     0
100
AcDbLine
 10
200.9458183044
 20
112.1796190264
 30
0.0
 11
200.9458183044
 21
111.5296190264
 31
0.0
  0
LINE
  5
100
330
1F
100
AcDbEntity
  8
0
  6
HIDDEN
 62
     7
370
     0
100
AcDbLine
 10
200.9458183044
 20
96.0796190264
 30
0.0
 11
200.9458183044
 21
96.7296190264
 31
0.0
  0
SPLINE
  5
101
330
1F
100
AcDbEntity
  8
0
  6
HIDDEN
 62
     7
370
     0
100
AcDbSpline
210
0.0
220
0.0
230
1.0
 70
     8
 71
     3
 72
    16
 73
    12
 74
     0
 42
0.000000001
 43
0.00000001
 40
0.0
 40
0.0
 40
0.0
 40
0.0
 40
0.249999999999996
 40
0.249999999999996
 40
0.499999999999992
 40
0.499999999999992
 40
0.6249999999999941
 40
0.6249999999999941
 40
0.7499999999999962
 40
0.7499999999999962
 40
1.0
 40
1.0
 40
1.0
 40
1.0
 10
206.845818304447
 20
98.66111557192137
 30
0.0
 10
206.845818304447
 20
98.72991992347879
 30
0.0
 10
206.8411965274176
 20
98.80189104530686
 30
0.0
 10
206.8157976489366
 20
98.94873695628029
 30
0.0
 10
206.7945678447726
 20
99.0278480510677
 30
0.0
 10
206.736311041713
 20
99.13166023921451
 30
0.0
 10
206.7117425423952
 20
99.16360061111708
 30
0.0
 10
206.6568828788902
 20
99.21054992762105
 30
0.0
 10
206.6275586834419
 20
99.22511749110326
 30
0.0
 10
206.5440843887531
 20
99.2485196458879
 30
0.0
 10
206.4928717108883
 20
99.24088613075835
 30
0.0
 10
206.4458183044471
 20
99.22701481568096
 30
0.0
  0
LINE
  5
102
330
1F
100
AcDbEntity
  8
0
  6
HIDDEN
 62
     7
370
     0
100
AcDbLine
 10
181.0358183044
 20
126.3268598459
 30
0.0
 11
181.0358183044
 21
122.4796190264
 31
0.0
  0
LINE
  5
103
330
1F
100
AcDbEntity
  8
0
  6
HIDDEN
 62
     7
370
     0
100
AcDbLine
 10
184.8558183044
 20
126.3268598459
 30
0.0
 11
184.8558183044
 21
122.4796190264
 31
0.0
  0
LINE
  5
104
330
1F
100
AcDbEntity
  8
0
  6
HIDDEN
 62
     7
370
     0
100
AcDbLine
 10
179.4239816624
 20
130.0398486664
 30
0.0
 11
179.4239816624
 21
122.4796190264
 31
0.0
  0
LINE
  5
105
330
1F
100
AcDbEntity
  8
0
  6
HIDDEN
 62
     7
370
     0
100
AcDbLine
 10
186.4676549465
 20
130.0398486664
 30
0.0
 11
186.4676549465
 21
122.4796190264
 31
0.0
  0
ARC
  5
106
330
1F
100
AcDbEntity
  8
0
  6
HIDDEN
 62
     7
370
     0
100
AcDbCircle
 10
104.3958183044
 20
94.8296190264
 30
0.0
 40
0.7999999999999972
100
AcDbArc
 50
90.0
 51
180.0
  0
ARC
  5
107
330
1F
100
AcDbEntity
  8
0
  6
HIDDEN
 62
     7
370
     0
100
AcDbCircle
 10
104.3958183044
 20
113.4296190264
 30
0.0
 40
0.7999999999999972
100
AcDbArc
 50
180.0
 51
270.0
  0
LINE
  5
108
330
1F
100
AcDbEntity
  8
0
  6
HIDDEN
 62
     7
370
     0
100
AcDbLine
 10
111.4881907352
 20
95.4046190264
 30
0.0
 11
112.3648781968
 21
95.4046190264
 31
0.0
  0
LINE
  5
109
330
1F
100
AcDbEntity
  8
0
  6
HIDDEN
 62
     7
370
     0
100
AcDbLine
 10
112.3648781968
 20
112.8546190264
 30
0.0
 11
111.4881907352
 21
112.8546190264
 31
0.0
  0
ARC
  5
10A
330
1F
100
AcDbEntity
  8
0
  6
HIDDEN
 62
     7
370
     0
100
AcDbCircle
 10
112.3648781968
 20
95.8046190264
 30
0.0
 40
0.4000000000000057
100
AcDbArc
 50
270.0
 51
330.0
  0
ARC
  5
10B
330
1F
100
AcDbEntity
  8
0
  6
HIDDEN
 62
     7
370
     0
100
AcDbCircle
 10
112.3648781968
 20
112.4546190264
 30
0.0
 40
0.4000000000000199
100
AcDbArc
 50
30.0
 51
90.0
  0
ARC
  5
10C
330
1F
100
AcDbEntity
  8
0
  6
HIDDEN
 62
     7
370
     0
100
AcDbCircle
 10
111.4881907352
 20
95.8046190264
 30
0.0
 40
0.4000000000000023
100
AcDbArc
 50
255.0
 51
270.0
  0
ARC
  5
10D
330
1F
100
AcDbEntity
  8
0
  6
HIDDEN
 62
     7
370
     0
100
AcDbCircle
 10
111.4881907352
 20
112.4546190264
 30
0.0
 40
0.4000000000000057
100
AcDbArc
 50
90.0
 51
105.0
  0
LINE
  5
10E
330
1F
100
AcDbEntity
  8
0
  6
HIDDEN
 62
     7
370
     0
100
AcDbLine
 10
111.3846631171
 20
112.8409893569
 30
0.0
 11
110.5958183044
 21
112.6296190264
 31
0.0
  0
LINE
  5
10F
330
1F
100
AcDbEntity
  8
0
  6
HIDDEN
 62
     7
370
     0
100
AcDbLine
 10
110.5958183044
 20
95.6296190264
 30
0.0
 11
111.3846631171
 21
95.4182486959
 31
0.0
  0
LINE
  5
110
330
1F
100
AcDbEntity
  8
0
  6
HIDDEN
 62
     7
370
     0
100
AcDbLine
 10
112.7112883583
 20
95.6046190264
 30
0.0
 11
113.5917475188
 21
97.1296190264
 31
0.0
  0
LINE
  5
111
330
1F
100
AcDbEntity
  8
0
  6
HIDDEN
 62
     7
370
     0
100
AcDbLine
 10
113.5917475188
 20
111.1296190264
 30
0.0
 11
112.7112883583
 21
112.6546190264
 31
0.0
  0
LINE
  5
112
330
1F
100
AcDbEntity
  8
0
  6
HIDDEN
 62
     7
370
     0
100
AcDbLine
 10
104.3958183044
 20
95.6296190264
 30
0.0
 11
110.5958183044
 21
95.6296190264
 31
0.0
  0
LINE
  5
113
330
1F
100
AcDbEntity
  8
0
  6
HIDDEN
 62
     7
370
     0
100
AcDbLine
 10
110.5958183044
 20
112.6296190264
 30
0.0
 11
104.3958183044
 21
112.6296190264
 31
0.0
  0
LINE
  5
114
330
1F
100
AcDbEntity
  8
0
  6
HIDDEN
 62
     7
370
     0
100
AcDbLine
 10
113.5917475188
 20
97.1296190264
 30
0.0
 11
146.5958183044
 21
97.1296190264
 31
0.0
  0
LINE
  5
115
330
1F
100
AcDbEntity
  8
0
  6
HIDDEN
 62
     7
370
     0
100
AcDbLine
 10
146.5958183044
 20
111.1296190264
 30
0.0
 11
113.5917475188
 21
111.1296190264
 31
0.0
  0
LINE
  5
116
330
1F
100
AcDbEntity
  8
0
  6
HIDDEN
 62
     7
370
     0
100
AcDbLine
 10
146.5958183044
 20
97.1296190264
 30
0.0
 11
149.5400353377
 21
102.0296190264
 31
0.0
  0
LINE
  5
117
330
1F
100
AcDbEntity
  8
0
  6
HIDDEN
 62
     7
370
     0
100
AcDbLine
 10
149.5400353377
 20
106.2296190264
 30
0.0
 11
146.5958183044
 21
111.1296190264
 31
0.0
  0
LINE
  5
118
330
1F
100
AcDbEntity
  8
0
  6
HIDDEN
 62
     7
370
     0
100
AcDbLine
 10
194.7404963064
 20
110.1296190264
 30
0.0
 11
194.1458183044
 21
110.1296190264
 31
0.0
  0
LINE
  5
119
330
1F
100
AcDbEntity
  8
0
  6
HIDDEN
 62
     7
370
     0
100
AcDbLine
 10
194.1458183044
 20
98.1296190264
 30
0.0
 11
194.7404963064
 21
98.1296190264
 31
0.0
  0
ARC
  5
11A
330
1F
100
AcDbEntity
  8
0
  6
HIDDEN
 62
     7
370
     0
100
AcDbCircle
 10
194.7404963064
 20
109.3296190264
 30
0.0
 40
0.7999999999999982
100
AcDbArc
 50
75.0
 51
90.0
  0
ARC
  5
11B
330
1F
100
AcDbEntity
  8
0
  6
HIDDEN
 62
     7
370
     0
100
AcDbCircle
 10
194.7404963064
 20
98.9296190264
 30
0.0
 40
0.7999999999999982
100
AcDbArc
 50
270.0
 51
285.0
  0
ARC
  5
11C
330
1F
100
AcDbEntity
  8
0
  6
HIDDEN
 62
     7
370
     0
100
AcDbCircle
 10
194.1458183044
 20
109.3296190264
 30
0.0
 40
0.8000000000000114
100
AcDbArc
 50
90.0
 51
180.0
  0
ARC
  5
11D
330
1F
100
AcDbEntity
  8
0
  6
HIDDEN
 62
     7
370
     0
100
AcDbCircle
 10
194.1458183044
 20
98.9296190264
 30
0.0
 40
0.8000000000000114
100
AcDbArc
 50
180.0
 51
270.0
  0
LINE
  5
11E
330
1F
100
AcDbEntity
  8
0
  6
HIDDEN
 62
     7
370
     0
100
AcDbLine
 10
194.9475515425
 20
98.1568783653
 30
0.0
 11
196.7118437082
 21
98.6296190264
 31
0.0
  0
LINE
  5
11F
330
1F
100
AcDbEntity
  8
0
  6
HIDDEN
 62
     7
370
     0
100
AcDbLine
 10
196.7118437082
 20
109.6296190264
 30
0.0
 11
194.9475515425
 21
110.1023596874
 31
0.0
  0
LINE
  5
120
330
1F
100
AcDbEntity
  8
0
  6
HIDDEN
 62
     7
370
     0
100
AcDbLine
 10
200.9458183044
 20
109.6296190264
 30
0.0
 11
196.7118437082
 21
109.6296190264
 31
0.0
  0
LINE
  5
121
330
1F
100
AcDbEntity
  8
0
  6
HIDDEN
 62
     7
370
     0
100
AcDbLine
 10
196.7118437082
 20
98.6296190264
 30
0.0
 11
200.9458183044
 21
98.6296190264
 31
0.0
  0
LINE
  5
122
330
1F
100
AcDbEntity
  8
0
  6
HIDDEN
 62
     7
370
     0
100
AcDbLine
 10
206.8458183044
 20
112.6019217585
 30
0.0
 11
206.4177373836
 21
112.1739488389
 31
0.0
  0
LINE
  5
123
330
1F
100
AcDbEntity
  8
0
  6
HIDDEN
 62
     7
370
     0
100
AcDbLine
 10
206.4177385838
 20
96.08527887
 30
0.0
 11
206.8458183044
 21
95.6573108713
 31
0.0
  0
LINE
  5
124
330
1F
100
AcDbEntity
  8
0
  6
HIDDEN
 62
     7
370
     0
100
AcDbLine
 10
149.5400353377
 20
102.0296190264
 30
0.0
 11
193.3458183044
 21
102.0296190264
 31
0.0
  0
LINE
  5
125
330
1F
100
AcDbEntity
  8
0
  6
HIDDEN
 62
     7
370
     0
100
AcDbLine
 10
193.3458183044
 20
106.2296190264
 30
0.0
 11
149.5400353377
 21
106.2296190264
 31
0.0
  0
LINE
  5
126
330
1F
100
AcDbEntity
  8
0
  6
HIDDEN
 62
     7
370
     0
100
AcDbLine
 10
206.4235763794
 20
112.1796190264
 30
0.0
 11
200.9458183044
 21
112.1796190264
 31
0.0
  0
LINE
  5
127
330
1F
100
AcDbEntity
  8
0
  6
HIDDEN
 62
     7
370
     0
100
AcDbLine
 10
200.9458183044
 20
96.0796190264
 30
0.0
 11
206.42370544
 21
96.0796190264
 31
0.0
  0
DIMENSION
  5
128
330
1F
100
AcDbEntity
  8
VERMASSUNG
100
AcDbDimension
  2
_D
 10
97.5967054119
 20
135.8796190264
 30
0.0
 11
97.5967054119
 21
104.1296190264
 31
0.0
 70
   160
  1
ISO 40 %%c<>
 71
     2
 42
-1.0
  3
SLDDIMSTYLE0
100
AcDbAlignedDimension
 13
190.2958183044
 23
72.3796190264
 33
0.0
 14
190.2958183044
 24
135.8796190264
 34
0.0
 50
90.0
100
AcDbRotatedDimension
  0
DIMENSION
  5
135
330
1F
100
AcDbEntity
  8
VERMASSUNG
100
AcDbDimension
  2
_D_1
 10
212.3288698829
 20
98.6296190264
 30
0.0
 11
212.3288698829
 21
104.1296190264
 31
0.0
 70
   160
  1
%%c<>
 71
     2
 42
-1.0
  3
SLDDIMSTYLE0
100
AcDbAlignedDimension
 13
200.9458183044
 23
109.6296190264
 33
0.0
 14
200.9458183044
 24
98.6296190264
 34
0.0
 50
90.0
100
AcDbRotatedDimension
  0
DIMENSION
  5
140
330
1F
100
AcDbEntity
  8
VERMASSUNG
100
AcDbDimension
  2
_D_2
 10
206.8458183044
 20
139.3916809541
 30
0.0
 11
198.8708183044
 21
139.3916809541
 31
0.0
 70
   160
  1
(<>)
 71
     2
 42
-1.0
  3
SLDDIMSTYLE0
100
AcDbAlignedDimension
 13
190.8958183044
 23
134.1401701598
 33
0.0
 14
206.8458183044
 24
113.9296190264
 34
0.0
100
AcDbRotatedDimension
  0
DIMENSION
  5
14C
330
1F
100
AcDbEntity
  8
VERMASSUNG
100
AcDbDimension
  2
_D_3
 10
206.8458183044
 20
145.3916809541
 30
0.0
 11
189.3458183044
 21
145.3916809541
 31
0.0
 70
   160
  1
<>
 71
     2
 42
-1.0
  3
SLDDIMSTYLE0
100
AcDbAlignedDimension
 13
171.8458183044
 23
126.3546190264
 33
0.0
 14
206.8458183044
 24
113.9296190264
 34
0.0
100
AcDbRotatedDimension
  0
DIMENSION
  5
156
330
1F
100
AcDbEntity
  8
VERMASSUNG
100
AcDbDimension
  2
_D_4
 10
206.8458183044
 20
151.3916809541
 30
0.0
 11
155.2208183044
 21
151.3916809541
 31
0.0
 70
   160
  1
(<>)
 71
     2
 42
-1.0
  3
SLDDIMSTYLE0
100
AcDbAlignedDimension
 13
103.5958183044
 23
115.5367496234
 33
0.0
 14
206.8458183044
 24
113.9296190264
 34
0.0
100
AcDbRotatedDimension
  0
DIMENSION
  5
162
330
1F
100
AcDbEntity
  8
VERMASSUNG
100
AcDbDimension
  2
_D_5
 10
218.2466626259
 20
94.1296190264
 30
0.0
 11
218.2466626259
 21
104.1296190264
 31
0.0
 70
   160
  1
ST1 %%c<>
 71
     2
 42
-1.0
  3
SLDDIMSTYLE0
100
AcDbAlignedDimension
 13
206.6458183044
 23
114.1296190264
 33
0.0
 14
206.6458183044
 24
94.1296190264
 34
0.0
 50
90.0
100
AcDbRotatedDimension
  0
LINE
  5
16E
330
1F
100
AcDbEntity
  8
VERMASSUNG
  6
CENTERX2
 62
     7
370
     0
100
AcDbLine
 10
101.5958183044
 20
104.1296190264
 30
0.0
 11
207.3097049925
 21
104.1296190264
 31
0.0
  0
SPLINE
  5
16F
330
1F
100
AcDbEntity
  8
0
  6
Continuous
 62
     7
370
    15
100
AcDbSpline
210
0.0
220
0.0
230
1.0
 70
     8
 71
     3
 72
    33
 73
    29
 74
     0
 42
0.000000001
 43
0.00000001
 40
0.0
 40
0.0
 40
0.0
 40
0.0
 40
0.0086948125814855
 40
0.0491193702041369
 40
0.0896465857736074
 40
0.1303300778006633
 40
0.1711576578525462
 40
0.2120996770625113
 40
0.2531211847683187
 40
0.2941904025187638
 40
0.3352825969950426
 40
0.3763790159967009
 40
0.4174681716623073
 40
0.4585454697282936
 40
0.4996092157365258
 40
0.5406595733180947
 40
0.581697845019011
 40
0.6227260029438629
 40
0.6637463967522584
 40
0.7047615807666887
 40
0.7457742176219171
 40
0.7867870284834698
 40
0.8278021111970281
 40
0.8688219836840244
 40
0.9098494279166954
 40
0.9508871968257486
 40
0.9919379448455059
 40
0.9999999999999999
 40
0.9999999999999999
 40
0.9999999999999999
 40
0.9999999999999999
 10
263.0102039735195
 20
57.55408722335215
 30
0.0
 10
262.9585844406297
 20
57.56730095027341
 30
0.0
 10
262.6669716057331
 20
57.64194890137515
 30
0.0
 10
262.1093286621946
 20
57.7174945306845
 30
0.0
 10
261.3273594929134
 20
57.74488980330938
 30
0.0
 10
260.515162510873
 20
57.68094560948749
 30
0.0
 10
259.6791574975169
 20
57.53013334259997
 30
0.0
 10
258.8239835911766
 20
57.29199914267801
 30
0.0
 10
257.9551749558068
 20
56.96826730070381
 30
0.0
 10
257.0781838303274
 20
56.5609163049547
 30
0.0
 10
256.1985043085683
 20
56.07262485644003
 30
0.0
 10
255.3215477243866
 20
55.50656225166679
 30
0.0
 10
254.4526180922461
 20
54.86635705728308
 30
0.0
 10
253.5968899405309
 20
54.15603186982928
 30
0.0
 10
252.7594117696531
 20
53.37997613909944
 30
0.0
 10
251.9451117011399
 20
52.54293513407406
 30
0.0
 10
251.1587799767383
 20
51.64998793055138
 30
0.0
 10
250.4050476391547
 20
50.70652317192255
 30
0.0
 10
249.6883625842383
 20
49.71821193651832
 30
0.0
 10
249.0129660429504
 20
48.69097793648464
 30
0.0
 10
248.3828641147691
 20
47.63096361662662
 30
0.0
 10
247.8018224418627
 20
46.54450463883417
 30
0.0
 10
247.273285010701
 20
45.43807517154742
 30
0.0
 10
246.8005618580926
 20
44.31830115566246
 30
0.0
 10
246.3860282989934
 20
43.19171090809012
 30
0.0
 10
246.0340305311432
 20
42.06545833761566
 30
0.0
 10
245.8187841073557
 20
41.24486868423116
 30
0.0
 10
245.7218354183646
 20
40.80232225893049
 30
0.0
 10
245.7059209189411
 20
40.72967656455749
 30
0.0
  0
LINE
  5
170
330
1F
100
AcDbEntity
  8
0
  6
Continuous
 62
     7
370
    15
100
AcDbLine
 10
267.5326642603
 20
32.8039723909
 30
0.0
 11
267.6033634459
 21
32.844799431
 31
0.0
  0
LINE
  5
171
330
1F
100
AcDbEntity
  8
0
  6
Continuous
 62
     7
370
    15
100
AcDbLine
 10
271.0676235425
 20
38.8457241416
 30
0.0
 11
271.0676235425
 21
38.9273649528
 31
0.0
  0
LINE
  5
172
330
1F
100
AcDbEntity
  8
0
  6
Continuous
 62
     7
370
    15
100
AcDbLine
 10
270.0318864682
 20
41.2165889852
 30
0.0
 11
265.8776341287
 21
43.6147878136
 31
0.0
  0
LINE
  5
173
330
1F
100
AcDbEntity
  8
0
  6
Continuous
 62
     7
370
    15
100
AcDbLine
 10
260.8780404655
 20
34.9542991898
 30
0.0
 11
265.032292805
 21
32.5561003613
 31
0.0
  0
SPLINE
  5
174
330
1F
100
AcDbEntity
  8
0
  6
Continuous
 62
     7
370
    15
100
AcDbSpline
210
0.0
220
0.0
230
1.0
 70
     8
 71
     3
 72
    19
 73
    15
 74
     0
 42
0.000000001
 43
0.00000001
 40
0.0
 40
0.0
 40
0.0
 40
0.0
 40
0.0114478536406193
 40
0.110645593811805
 40
0.2100591712431263
 40
0.3094501456340523
 40
0.4085645344692155
 40
0.5072087962521922
 40
0.6052301202940029
 40
0.7026345610738923
 40
0.7998350739679121
 40
0.89782830191596
 40
0.9994507507714815
 40
1.0
 40
1.0
 40
1.0
 40
1.0
 10
265.7981780552117
 20
37.01147764361751
 30
0.0
 10
265.804673571328
 20
37.02941592224502
 30
0.0
 10
265.867453919537
 20
37.20279265757119
 30
0.0
 10
266.0243883871854
 20
37.53050991785053
 30
0.0
 10
266.2858413055536
 20
37.97455246278957
 30
0.0
 10
266.5903488349618
 20
38.38252985927179
 30
0.0
 10
266.922674292336
 20
38.73956210311409
 30
0.0
 10
267.2704912894039
 20
39.03312834954967
 30
0.0
 10
267.6192976769595
 20
39.25405156357483
 30
0.0
 10
267.9539248817328
 20
39.39608283792353
 30
0.0
 10
268.2616766184148
 20
39.46139617540057
 30
0.0
 10
268.5263972636593
 20
39.44347862620597
 30
0.0
 10
268.684582853541
 20
39.40938146374698
 30
0.0
 10
268.7472826498804
 20
39.35964587745284
 30
0.0
 10
268.7476197081403
 20
39.35937851150987
 30
0.0
  0
LINE
  5
175
330
1F
100
AcDbEntity
  8
0
  6
Continuous
 62
     7
370
    15
100
AcDbLine
 10
255.4712596598
 20
55.5899686691
 30
0.0
 11
234.1636996903
 21
63.2683686796
 31
0.0
  0
LINE
  5
176
330
1F
100
AcDbEntity
  8
0
  6
Continuous
 62
     7
370
    15
100
AcDbLine
 10
227.9989179411
 20
52.5894963945
 30
0.0
 11
248.2951551063
 21
35.4515215188
 31
0.0
  0
SPLINE
  5
177
330
1F
100
AcDbEntity
  8
0
  6
Continuous
 62
     7
370
    15
100
AcDbSpline
210
0.0
220
0.0
230
1.0
 70
     8
 71
     3
 72
    23
 73
    19
 74
     0
 42
0.000000001
 43
0.00000001
 40
0.0
 40
0.0
 40
0.0
 40
0.0
 40
0.0089896023853751
 40
0.076251270766821
 40
0.1437711672271287
 40
0.2115211270472609
 40
0.2794485210641693
 40
0.3474956101077261
 40
0.4156119022482453
 40
0.4837591487946318
 40
0.55190768997624
 40
0.620042031915984
 40
0.6881557671957309
 40
0.7562468754577711
 40
0.8243161193703037
 40
0.8923659520290218
 40
0.9603998114589349
 40
0.9999999999999999
 40
0.9999999999999999
 40
0.9999999999999999
 40
0.9999999999999999
 10
256.2819546060359
 20
25.73176678312034
 30
0.0
 10
256.3156852331028
 20
25.72738611983848
 30
0.0
 10
256.6017939025808
 20
25.69022862079419
 30
0.0
 10
257.1707939497329
 20
25.70416449076334
 30
0.0
 10
257.9858428034315
 20
25.77948669081094
 30
0.0
 10
258.8271468368609
 20
25.95116824581048
 30
0.0
 10
259.6855229776945
 20
26.2073442162872
 30
0.0
 10
260.5566104993609
 20
26.54942140237527
 30
0.0
 10
261.4346294510513
 20
26.97440724876051
 30
0.0
 10
262.3141800895396
 20
27.47974165070898
 30
0.0
 10
263.189853627447
 20
28.06208663667753
 30
0.0
 10
264.0563653438953
 20
28.71775195176419
 30
0.0
 10
264.9086138647842
 20
29.44258675598719
 30
0.0
 10
265.7414091628571
 20
30.23229227395948
 30
0.0
 10
266.5504726743332
 20
31.08142264925749
 30
0.0
 10
267.3287276622202
 20
31.98716706013706
 30
0.0
 10
267.9755846354244
 20
32.80332006992404
 30
0.0
 10
268.3454732079738
 20
33.33230389082773
 30
0.0
 10
268.4815607888859
 20
33.52692501154046
 30
0.0
  0
SPLINE
  5
178
330
1F
100
AcDbEntity
  8
0
  6
Continuous
 62
     7
370
    15
100
AcDbSpline
210
0.0
220
0.0
230
1.0
 70
     8
 71
     3
 72
    13
 73
     9
 74
     0
 42
0.000000001
 43
0.00000001
 40
0.0
 40
0.0
 40
0.0
 40
0.0
 40
0.0892607530221265
 40
0.3141017842221389
 40
0.538987588884909
 40
0.763933180818293
 40
0.9889529143295999
 40
1.0
 40
1.0
 40
1.0
 40
1.0
 10
270.9423507312156
 20
37.80077799939382
 30
0.0
 10
271.0115918063963
 20
37.94730068531457
 30
0.0
 10
271.2552458706896
 20
38.46290284548591
 30
0.0
 10
271.614916564642
 20
39.36143246928052
 30
0.0
 10
272.0194142322271
 20
40.48791454591439
 30
0.0
 10
272.3564928534777
 20
41.61330336558766
 30
0.0
 10
272.5498205248867
 20
42.37773659939949
 30
0.0
 10
272.630713837608
 20
42.76483713030648
 30
0.0
 10
272.6344993562967
 20
42.7829520553214
 30
0.0
  0
LINE
  5
179
330
1F
100
AcDbEntity
  8
0
  6
Continuous
 62
     7
370
    15
100
AcDbLine
 10
252.4611766251
 20
27.2562230447
 30
0.0
 11
253.8146367601
 21
26.47488714
 31
0.0
  0
SPLINE
  5
17A
330
1F
100
AcDbEntity
  8
0
  6
Continuous
 62
     7
370
    15
100
AcDbSpline
210
0.0
220
0.0
230
1.0
 70
     8
 71
     3
 72
     9
 73
     5
 74
     0
 42
0.000000001
 43
0.00000001
 40
0.0
 40
0.0
 40
0.0
 40
0.0
 40
0.5671268728216726
 40
1.0
 40
1.0
 40
1.0
 40
1.0
 10
266.0336937305776
 20
34.57659572260403
 30
0.0
 10
265.9634342075558
 20
34.62235214513216
 30
0.0
 10
265.8395474259752
 20
34.70303324969782
 30
0.0
 10
265.7479234247053
 20
34.85043965243513
 30
0.0
 10
265.708261856751
 20
34.91424792295415
 30
0.0
  0
LINE
  5
17B
330
1F
100
AcDbEntity
  8
0
  6
Continuous
 62
     7
370
    15
100
AcDbLine
 10
248.6350795879
 20
29.4649818496
 30
0.0
 11
249.9708620533
 21
28.6938510463
 31
0.0
  0
SPLINE
  5
17C
330
1F
100
AcDbEntity
  8
0
  6
Continuous
 62
     7
370
    15
100
AcDbSpline
210
0.0
220
0.0
230
1.0
 70
     8
 71
     3
 72
    11
 73
     7
 74
     0
 42
0.000000001
 43
0.00000001
 40
0.0
 40
0.0
 40
0.0
 40
0.0
 40
0.1059850841038013
 40
0.4387425330250522
 40
0.7710040792485598
 40
1.0
 40
1.0
 40
1.0
 40
1.0
 10
245.7150077732486
 20
33.46202312018639
 30
0.0
 10
245.7412191632785
 20
33.37281610202374
 30
0.0
 10
245.849725485211
 20
33.00352910807315
 30
0.0
 10
246.0899684284802
 20
32.39837270731259
 30
0.0
 10
246.4126981790328
 20
31.73939323878788
 30
0.0
 10
246.6620674199764
 20
31.37700475855688
 30
0.0
 10
246.7638113473129
 20
31.22914840281432
 30
0.0
  0
SPLINE
  5
17D
330
1F
100
AcDbEntity
  8
0
  6
Continuous
 62
     7
370
    15
100
AcDbSpline
210
0.0
220
0.0
230
1.0
 70
     8
 71
     3
 72
    13
 73
     9
 74
     0
 42
0.000000001
 43
0.00000001
 40
0.0
 40
0.0
 40
0.0
 40
0.0
 40
0.0902870775055476
 40
0.3214091025034002
 40
0.5521834067669007
 40
0.7822532436329972
 40
0.9983254240215502
 40
1.0
 40
1.0
 40
1.0
 40
1.0
 10
272.6222070637045
 20
49.92977098315072
 30
0.0
 10
272.5899814440596
 20
50.03910816543821
 30
0.0
 10
272.4752628400923
 20
50.42833292052141
 30
0.0
 10
272.2290884899807
 20
51.05400725435934
 30
0.0
 10
271.8613771648113
 20
51.77934099134583
 30
0.0
 10
271.4364932302958
 20
52.41838151671023
 30
0.0
 10
271.1207165568657
 20
52.80012214880926
 30
0.0
 10
270.9552936831379
 20
52.96984685728908
 30
0.0
 10
270.9540215026689
 20
52.9711521209105
 30
0.0
  0
SPLINE
  5
17E
330
1F
100
AcDbEntity
  8
0
  6
Continuous
 62
     7
370
    15
100
AcDbSpline
210
0.0
220
0.0
230
1.0
 70
     8
 71
     3
 72
    26
 73
    22
 74
     0
 42
0.000000001
 43
0.00000001
 40
0.0
 40
0.0
 40
0.0
 40
0.0
 40
0.0215175484028395
 40
0.0737205716509983
 40
0.1264858010148255
 40
0.1802819328939996
 40
0.2351652633696797
 40
0.2908612907561243
 40
0.3469890610212945
 40
0.4032323519512289
 40
0.4594106903789663
 40
0.515485454043098
 40
0.5714647882068509
 40
0.6273783527516837
 40
0.6832648218279824
 40
0.7391665910852636
 40
0.7951137969598617
 40
0.8511509604996628
 40
0.9073221687181591
 40
0.9636654681000885
 40
1.0
 40
1.0
 40
1.0
 40
1.0
 10
234.2446118128848
 20
63.2251855851469
 30
0.0
 10
234.1845573493586
 20
63.25243588557313
 30
0.0
 10
233.9788067081396
 20
63.34579725218757
 30
0.0
 10
233.5866880222391
 20
63.41432314286054
 30
0.0
 10
233.0800964640354
 20
63.43185042269762
 30
0.0
 10
232.5471464850773
 20
63.35659678509323
 30
0.0
 10
231.996627327773
 20
63.19511415377879
 30
0.0
 10
231.4356462537955
 20
62.9466848991147
 30
0.0
 10
230.8740843481962
 20
62.61556380914844
 30
0.0
 10
230.3217383881892
 20
62.20770947865482
 30
0.0
 10
229.7876611894357
 20
61.73068713584602
 30
0.0
 10
229.2798754287834
 20
61.1926968801838
 30
0.0
 10
228.8056190049845
 20
60.60234483385673
 30
0.0
 10
228.3716170416168
 20
59.96870729298214
 30
0.0
 10
227.9841065805018
 20
59.30129086471592
 30
0.0
 10
227.648779382135
 20
58.60997870070943
 30
0.0
 10
227.3708410039955
 20
57.90493652682965
 30
0.0
 10
227.1543689730924
 20
57.19615701341852
 30
0.0
 10
227.00454719351
 20
56.49437548817836
 30
0.0
 10
226.9295191339573
 20
55.88900690340787
 30
0.0
 10
226.9219168987468
 20
55.52819512738964
 30
0.0
 10
226.9189364269991
 20
55.38673813811537
 30
0.0
  0
SPLINE
  5
17F
330
1F
100
AcDbEntity
  8
0
  6
Continuous
 62
     7
370
    15
100
AcDbSpline
210
0.0
220
0.0
230
1.0
 70
     8
 71
     3
 72
    13
 73
     9
 74
     0
 42
0.000000001
 43
0.00000001
 40
0.0
 40
0.0
 40
0.0
 40
0.0
 40
0.102519874709933
 40
0.2962988212531574
 40
0.4901157116108876
 40
0.6824576327649865
 40
0.8716855509089205
 40
1.0
 40
1.0
 40
1.0
 40
1.0
 10
226.9189364269991
 20
55.38673813811538
 30
0.0
 10
226.9209873060418
 20
55.27217394132042
 30
0.0
 10
226.9269146742189
 20
54.94106510448069
 30
0.0
 10
226.9933845651198
 20
54.42234690812278
 30
0.0
 10
227.1425558013468
 20
53.85336691118561
 30
0.0
 10
227.3690945645213
 20
53.34757554709674
 30
0.0
 10
227.6274229796938
 20
52.94629765382689
 30
0.0
 10
227.8370784234318
 20
52.75081377260586
 30
0.0
 10
227.9217972689717
 20
52.67182145815197
 30
0.0
  0
LWPOLYLINE
  5
180
330
1F
100
AcDbEntity
  8
0
  6
Continuous
 62
     7
370
    15
100
AcDbPolyline
 90
        9
 70
   128
 43
0.0
 10
265.4677243026
 20
42.1157898883
 10
265.781090233
 20
42.1574334744
 10
266.0993540146
 20
42.1309155133
 10
266.3795323602
 20
42.0398174026
 10
266.5837856317
 20
41.8964424469
 10
266.6845282928
 20
41.7201542286
 10
266.6681544891
 20
41.5347614483
 10
266.5368755935
 20
41.3653024283
 10
266.5258438477
 20
41.3563106718
  0
LWPOLYLINE
  5
181
330
1F
100
AcDbEntity
  8
0
  6
Continuous
 62
     7
370
    15
100
AcDbPolyline
 90
        6
 70
   128
 43
0.0
 10
265.1166535322
 20
41.3502059337
 10
264.9864059232
 20
41.4944886468
 10
264.9434907827
 20
41.6784616359
 10
265.0185959404
 20
41.8589608786
 10
265.2015780287
 20
42.0116089522
 10
265.4677243026
 20
42.1157898883
  0
LWPOLYLINE
  5
182
330
1F
100
AcDbEntity
  8
0
  6
Continuous
 62
     7
370
    15
100
AcDbPolyline
 90
       17
 70
   128
 43
0.0
 10
265.5676189853
 20
41.9834901385
 10
265.8058824815
 20
42.0134847859
 10
266.04589267
 20
41.9885594262
 10
266.2511101753
 20
41.9125087193
 10
266.3902924926
 20
41.7969106959
 10
266.4422503757
 20
41.6593641073
 10
266.3990737079
 20
41.5208091748
 10
266.2673357455
 20
41.4023396306
 10
266.067092399
 20
41.3219913891
 10
265.8288289029
 20
41.2919967417
 10
265.5888187144
 20
41.3169221015
 10
265.383601209
 20
41.3929728084
 10
265.2444188918
 20
41.5085708317
 10
265.1924610087
 20
41.6461174203
 10
265.2356376765
 20
41.7846723529
 10
265.3673756389
 20
41.903141897
 10
265.5676189853
 20
41.9834901385
  0
SPLINE
  5
183
330
1F
100
AcDbEntity
  8
0
  6
Continuous
 62
     7
370
    15
100
AcDbSpline
210
0.0
220
0.0
230
1.0
 70
     8
 71
     3
 72
    11
 73
     7
 74
     0
 42
0.000000001
 43
0.00000001
 40
0.0
 40
0.0
 40
0.0
 40
0.0
 40
0.120891387534046
 40
0.47667141973301
 40
0.8143663490172394
 40
1.0
 40
1.0
 40
1.0
 40
1.0
 10
265.3529381539472
 20
41.81184307435895
 30
0.0
 10
265.3729679921014
 20
41.80840253012253
 30
0.0
 10
265.4519450936529
 20
41.79483655872224
 30
0.0
 10
265.6008888610279
 20
41.79904386620004
 30
0.0
 10
265.7641054798823
 20
41.86648084265975
 30
0.0
 10
265.8512742404014
 20
41.92445656633134
 30
0.0
 10
265.8821944994451
 20
41.94502155295606
 30
0.0
  0
SPLINE
  5
184
330
1F
100
AcDbEntity
  8
0
  6
Continuous
 62
     7
370
    15
100
AcDbSpline
210
0.0
220
0.0
230
1.0
 70
     8
 71
     3
 72
    10
 73
     6
 74
     0
 42
0.000000001
 43
0.00000001
 40
0.0
 40
0.0
 40
0.0
 40
0.0
 40
0.439105167106171
 40
0.7513578980692743
 40
1.0
 40
1.0
 40
1.0
 40
1.0
 10
265.2880993466878
 20
41.48065433532512
 30
0.0
 10
265.2973812606211
 20
41.50010349409923
 30
0.0
 10
265.3132636502294
 20
41.53338317320672
 30
0.0
 10
265.3363518887268
 20
41.67258008347356
 30
0.0
 10
265.3478438294388
 20
41.76906967973625
 30
0.0
 10
265.3529381539472
 20
41.81184307435895
 30
0.0
  0
SPLINE
  5
185
330
1F
100
AcDbEntity
  8
0
  6
Continuous
 62
     7
370
    15
100
AcDbSpline
210
0.0
220
0.0
230
1.0
 70
     8
 71
     3
 72
     9
 73
     5
 74
     0
 42
0.000000001
 43
0.00000001
 40
0.0
 40
0.0
 40
0.0
 40
0.0
 40
0.3346314863383426
 40
1.0
 40
1.0
 40
1.0
 40
1.0
 10
265.4596351825152
 20
41.35557053407091
 30
0.0
 10
265.4394103050471
 20
41.36556198524426
 30
0.0
 10
265.3789710508411
 20
41.39542005772475
 30
0.0
 10
265.3244055277104
 20
41.44660048830282
 30
0.0
 10
265.2880993466878
 20
41.48065433532512
 30
0.0
  0
LINE
  5
186
330
1F
100
AcDbEntity
  8
0
  6
Continuous
 62
     7
370
    15
100
AcDbLine
 10
266.2817732304
 20
41.4158225535
 30
0.0
 11
266.1972770323
 21
41.3623922652
 31
0.0
  0
SPLINE
  5
187
330
1F
100
AcDbEntity
  8
0
  6
Continuous
 62
     7
370
    15
100
AcDbSpline
210
0.0
220
0.0
230
1.0
 70
     8
 71
     3
 72
    10
 73
     6
 74
     0
 42
0.000000001
 43
0.00000001
 40
0.0
 40
0.0
 40
0.0
 40
0.0
 40
0.4391051671061727
 40
0.75135789806928
 40
1.0
 40
1.0
 40
1.0
 40
1.0
 10
266.3466120376835
 20
41.74701129251933
 30
0.0
 10
266.3373301237502
 20
41.67163867707139
 30
0.0
 10
266.3214477341419
 20
41.54266772852127
 30
0.0
 10
266.2983594956445
 20
41.44600081224166
 30
0.0
 10
266.2868675549326
 20
41.42509153846562
 30
0.0
 10
266.2817732304241
 20
41.41582255348549
 30
0.0
  0
SPLINE
  5
188
330
1F
100
AcDbEntity
  8
0
  6
Continuous
 62
     7
370
    15
100
AcDbSpline
210
0.0
220
0.0
230
1.0
 70
     8
 71
     3
 72
    10
 73
     6
 74
     0
 42
0.000000001
 43
0.00000001
 40
0.0
 40
0.0
 40
0.0
 40
0.0
 40
0.4391051671061738
 40
0.7513578980692756
 40
0.9999999999999999
 40
0.9999999999999999
 40
0.9999999999999999
 40
0.9999999999999999
 10
265.8821944994451
 20
41.94502155295606
 30
0.0
 10
265.9486775795825
 20
41.88871392695433
 30
0.0
 10
266.0624375420954
 20
41.79236530095947
 30
0.0
 10
266.2278104620863
 20
41.74312147289716
 30
0.0
 10
266.3101231856022
 20
41.74581656886265
 30
0.0
 10
266.3466120376835
 20
41.74701129251933
 30
0.0
  0
LINE
  5
189
330
1F
100
AcDbEntity
  8
0
  6
Continuous
 62
     7
370
    15
100
AcDbLine
 10
265.3529381539
 20
41.4267444634
 30
0.0
 11
265.3529381539
 21
41.8118430744
 31
0.0
  0
LINE
  5
18A
330
1F
100
AcDbEntity
  8
0
  6
Continuous
 62
     7
370
    15
100
AcDbLine
 10
265.8821944994
 20
41.2938827628
 30
0.0
 11
265.8821944994
 21
41.945021553
 31
0.0
  0
SPLINE
  5
18B
330
1F
100
AcDbEntity
  8
0
  6
Continuous
 62
     7
370
    15
100
AcDbSpline
210
0.0
220
0.0
230
1.0
 70
     8
 71
     3
 72
    12
 73
     8
 74
     0
 42
0.000000001
 43
0.00000001
 40
0.0
 40
0.0
 40
0.0
 40
0.0
 40
0.250000000000001
 40
0.250000000000001
 40
0.500000000000002
 40
0.500000000000002
 40
1.0
 40
1.0
 40
1.0
 40
1.0
 10
250.9864654134054
 20
37.68278859648762
 30
0.0
 10
251.0202445796778
 20
37.66328829887411
 30
0.0
 10
251.0585692761532
 20
37.63644855029693
 30
0.0
 10
251.1327924002658
 20
37.57804804697429
 30
0.0
 10
251.1681757647605
 20
37.54705838849339
 30
0.0
 10
251.2639857231455
 20
37.45631903547264
 30
0.0
 10
251.3129894812998
 20
37.40042490675511
 30
0.0
 10
251.3467985389145
 20
37.35316504298844
 30
0.0
  0
SPLINE
  5
18C
330
1F
100
AcDbEntity
  8
0
  6
Continuous
 62
     7
370
    15
100
AcDbSpline
210
0.0
220
0.0
230
1.0
 70
     8
 71
     3
 72
    12
 73
     8
 74
     0
 42
0.000000001
 43
0.00000001
 40
0.0
 40
0.0
 40
0.0
 40
0.0
 40
0.4999999999999931
 40
0.4999999999999931
 40
0.7499999999999966
 40
0.7499999999999966
 40
1.0
 40
1.0
 40
1.0
 40
1.0
 10
268.4513284521055
 20
54.12296656730999
 30
0.0
 10
268.4513284521055
 20
54.19438559903466
 30
0.0
 10
268.4337639214446
 20
54.27691535822787
 30
0.0
 10
268.3786383869546
 20
54.39586007426073
 30
0.0
 10
268.3553459131978
 20
54.43449296148533
 30
0.0
 10
268.3013775241404
 20
54.50105547276237
 30
0.0
 10
268.2705300233873
 20
54.52897651101504
 30
0.0
 10
268.2391964177496
 20
54.547065016525
 30
0.0
  0
LINE
  5
18D
330
1F
100
AcDbEntity
  8
0
  6
Continuous
 62
     7
370
    15
100
AcDbLine
 10
249.6330052785
 20
38.4641245012
 30
0.0
 11
250.9864654134
 21
37.6827885965
 31
0.0
  0
LWPOLYLINE
  5
18E
330
1F
100
AcDbEntity
  8
0
  6
Continuous
 62
     7
370
    15
100
AcDbPolyline
 90
       24
 70
   128
 43
0.0
 10
249.6330052785
 20
38.4641245012
 10
249.9321761998
 20
39.6498667897
 10
250.3027014878
 20
40.8448464258
 10
250.7420549661
 20
42.0409162477
 10
251.2472411998
 20
43.2299216613
 10
251.8148159175
 20
44.403756236
 10
252.4409094946
 20
45.5544169735
 10
253.1212533346
 20
46.6740588708
 10
253.8512089727
 20
47.7550484057
 10
254.6257996992
 20
48.7900155811
 10
255.4397444905
 20
49.7719041722
 10
256.2874940136
 20
50.6940198349
 10
257.163268461
 20
51.5500757462
 10
258.061096956
 20
52.334235467
 10
258.9748582614
 20
53.0411527339
 10
259.8983225128
 20
53.6660079088
 10
260.825193693
 20
54.2045408388
 10
261.7491525566
 20
54.6530799008
 10
262.6638997143
 20
55.0085670341
 10
263.5631985802
 20
55.2685785898
 10
264.4409178924
 20
55.4313418546
 10
265.2910735146
 20
55.4957471372
 10
266.1078692347
 20
55.4613553336
 10
266.8857362828
 20
55.3284009212
  0
LINE
  5
18F
330
1F
100
AcDbEntity
  8
0
  6
Continuous
 62
     7
370
    15
100
AcDbLine
 10
268.2391964177
 20
54.5470650165
 30
0.0
 11
266.8857362828
 21
55.3284009212
 31
0.0
  0
LINE
  5
190
330
1F
100
AcDbEntity
  8
0
  6
Continuous
 62
     7
370
    15
100
AcDbLine
 10
272.468592343
 20
49.4519176748
 30
0.0
 11
272.5739558415
 21
49.634412607
 31
0.0
  0
LINE
  5
191
330
1F
100
AcDbEntity
  8
0
  6
Continuous
 62
     7
370
    15
100
AcDbLine
 10
271.2974332464
 20
48.7758219194
 30
0.0
 11
272.468592343
 21
49.4519176748
 31
0.0
  0
ARC
  5
192
330
1F
100
AcDbEntity
  8
0
  6
Continuous
 62
     7
370
    15
100
AcDbCircle
 10
271.9599207025
 20
47.7401373434
 30
0.0
 40
1.229443846057596
100
AcDbArc
 50
122.60547834
 51
177.3945215143
  0
LINE
  5
193
330
1F
100
AcDbEntity
  8
0
  6
Continuous
 62
     7
370
    15
100
AcDbLine
 10
270.7317478214
 20
42.5293377885
 30
0.0
 11
270.7317478214
 21
47.7960260252
 31
0.0
  0
ARC
  5
194
330
1F
100
AcDbEntity
  8
0
  6
Continuous
 62
     7
370
    15
100
AcDbCircle
 10
271.0766073154
 20
42.473396031
 30
0.0
 40
0.3493673579428236
100
AcDbArc
 50
170.7859630095
 51
309.2032852357
  0
LINE
  5
195
330
1F
100
AcDbEntity
  8
0
  6
Continuous
 62
     7
370
    15
100
AcDbLine
 10
272.468592343
 20
42.8787641391
 30
0.0
 11
271.2974332464
 21
42.2026683837
 31
0.0
  0
LINE
  5
196
330
1F
100
AcDbEntity
  8
0
  6
Continuous
 62
     7
370
    15
100
AcDbLine
 10
272.5739558415
 20
42.8179193129
 30
0.0
 11
272.468592343
 21
42.8787641391
 31
0.0
  0
LINE
  5
197
330
1F
100
AcDbEntity
  8
0
  6
Continuous
 62
     7
370
    15
100
AcDbLine
 10
251.3946937152
 20
30.7130614156
 30
0.0
 11
251.3467985389
 21
30.5908127303
 31
0.0
  0
LINE
  5
198
330
1F
100
AcDbEntity
  8
0
  6
Continuous
 62
     7
370
    15
100
AcDbLine
 10
251.3946937152
 20
30.7130614156
 30
0.0
 11
253.4076316824
 21
31.8751057692
 31
0.0
  0
ARC
  5
199
330
1F
100
AcDbEntity
  8
0
  6
Continuous
 62
     7
370
    15
100
AcDbCircle
 10
252.7451442262
 20
32.9107903452
 30
0.0
 40
1.229443846057557
100
AcDbArc
 50
302.60547834
 51
357.3945215144
  0
LINE
  5
19A
330
1F
100
AcDbEntity
  8
0
  6
Continuous
 62
     7
370
    15
100
AcDbLine
 10
253.9733171073
 20
38.1215899001
 30
0.0
 11
253.9733171073
 21
32.8549016634
 31
0.0
  0
ARC
  5
19B
330
1F
100
AcDbEntity
  8
0
  6
Continuous
 62
     7
370
    15
100
AcDbCircle
 10
253.6284576134
 20
38.1775316576
 30
0.0
 40
0.3493673579427891
100
AcDbArc
 50
350.7859630095
 51
129.2032852357
  0
LINE
  5
19C
330
1F
100
AcDbEntity
  8
0
  6
Continuous
 62
     7
370
    15
100
AcDbLine
 10
253.4076316824
 20
38.4482593049
 30
0.0
 11
251.3946937152
 21
37.2862149513
 31
0.0
  0
LINE
  5
19D
330
1F
100
AcDbEntity
  8
0
  6
Continuous
 62
     7
370
    15
100
AcDbLine
 10
251.3467985389
 20
37.353165043
 30
0.0
 11
251.3946937152
 21
37.2862149513
 31
0.0
  0
LINE
  5
19E
330
1F
100
AcDbEntity
  8
0
  6
Continuous
 62
     7
370
    15
100
AcDbLine
 10
268.4513284521
 20
51.3379857756
 30
0.0
 11
268.4513284521
 21
54.1229665673
 31
0.0
  0
LINE
  5
19F
330
1F
100
AcDbEntity
  8
0
  6
Continuous
 62
     7
370
    15
100
AcDbLine
 10
270.8630619192
 20
52.730249871
 30
0.0
 11
268.4513284521
 21
51.3379857756
 31
0.0
  0
SPLINE
  5
1A0
330
1F
100
AcDbEntity
  8
0
  6
Continuous
 62
     7
370
    15
100
AcDbSpline
210
0.0
220
0.0
230
1.0
 70
     8
 71
     3
 72
     8
 73
     4
 74
     0
 42
0.000000001
 43
0.00000001
 40
0.0
 40
0.0
 40
0.0
 40
0.0
 40
1.0
 40
1.0
 40
1.0
 40
1.0
 10
248.6428539931679
 20
39.7225036853573
 30
0.0
 10
248.2621561271675
 20
39.6595368476867
 30
0.0
 10
247.8813181549276
 20
39.59683672555166
 30
0.0
 10
247.5003775041879
 20
39.53435584687863
 30
0.0
  0
SPLINE
  5
1A1
330
1F
100
AcDbEntity
  8
0
  6
Continuous
 62
     7
370
    15
100
AcDbSpline
210
0.0
220
0.0
230
1.0
 70
     8
 71
     3
 72
     8
 73
     4
 74
     0
 42
0.000000001
 43
0.00000001
 40
0.0
 40
0.0
 40
0.0
 40
0.0
 40
0.0011901715795577
 40
0.0011901715795577
 40
0.0011901715795577
 40
0.0011901715795577
 10
247.14269070663
 20
39.90175250273424
 30
0.0
 10
247.2623372141249
 20
39.77913759297876
 30
0.0
 10
247.381580388273
 20
39.65666555248305
 30
0.0
 10
247.5003775041879
 20
39.53435584687863
 30
0.0
  0
LWPOLYLINE
  5
1A2
330
1F
100
AcDbEntity
  8
0
  6
Continuous
 62
     7
370
    15
100
AcDbPolyline
 90
       24
 70
   128
 43
0.0
 10
247.1426907066
 20
39.9017525027
 10
247.4418616279
 20
41.0874947913
 10
247.812386916
 20
42.2824744273
 10
248.2517403943
 20
43.4785442493
 10
248.7569266279
 20
44.6675496628
 10
249.3245013457
 20
45.8413842375
 10
249.9505949227
 20
46.9920449751
 10
250.6309387628
 20
48.1116868724
 10
251.3608944008
 20
49.1926764073
 10
252.1354851274
 20
50.2276435826
 10
252.9494299186
 20
51.2095321738
 10
253.7971794417
 20
52.1316478364
 10
254.6729538891
 20
52.9877037477
 10
255.5707823841
 20
53.7718634685
 10
256.4845436895
 20
54.4787807354
 10
257.408007941
 20
55.1036359103
 10
258.3348791211
 20
55.6421688404
 10
259.2588379848
 20
56.0907079024
 10
260.1735851424
 20
56.4461950357
 10
261.0728840084
 20
56.7062065913
 10
261.9506033206
 20
56.8689698561
 10
262.8007589428
 20
56.9333751387
 10
263.6175546629
 20
56.8989833352
 10
264.395421711
 20
56.7660289228
  0
SPLINE
  5
1A3
330
1F
100
AcDbEntity
  8
0
  6
Continuous
 62
     7
370
    15
100
AcDbSpline
210
0.0
220
0.0
230
1.0
 70
     8
 71
     3
 72
     9
 73
     5
 74
     0
 42
0.000000001
 43
0.00000001
 40
0.0
 40
0.0
 40
0.0
 40
0.0
 40
0.0040840642077274
 40
1.0
 40
1.0
 40
1.0
 40
1.0
 10
264.8298934951778
 20
55.43040680829333
 30
0.0
 10
264.829315291744
 20
55.43222439495545
 30
0.0
 10
264.6877397913769
 20
55.87726800095101
 30
0.0
 10
264.5412816790083
 20
56.32255775784039
 30
0.0
 10
264.3954217109743
 20
56.76602892277158
 30
0.0
  0
LWPOLYLINE
  5
1A4
330
1F
100
AcDbEntity
  8
0
  6
Continuous
 62
     7
370
    15
100
AcDbPolyline
 90
       23
 70
   128
 43
0.0
 10
248.6428539932
 20
39.7225036854
 10
248.9232460848
 20
40.8464520194
 10
249.274072332
 20
41.9797402168
 10
249.69274646
 20
43.1140137304
 10
250.1761820228
 20
44.2409107487
 10
250.7208151561
 20
45.35212384
 10
251.32263085
 20
46.4394611934
 10
251.9771925474
 20
47.4949070088
 10
252.6796748502
 20
48.5106805893
 10
253.4248990917
 20
49.4792936995
 10
254.2073715139
 20
50.3936057692
 10
255.0213237666
 20
51.2468765325
 10
255.8607554321
 20
52.0328157174
 10
256.7194782594
 20
52.7456294171
 10
257.5911617842
 20
53.3800628025
 10
258.4693799964
 20
53.9314388602
 10
259.3476587124
 20
54.395692872
 10
260.2195233028
 20
54.769402379
 10
261.0785464227
 20
55.0498124121
 10
261.9183953939
 20
55.2348558019
 10
262.7328788892
 20
55.3231684171
 10
263.5159925744
 20
55.3140992213
 10
263.6916320957
 20
55.2981704084
  0
LINE
  5
1A5
330
1F
100
AcDbEntity
  8
0
  6
Continuous
 62
     7
370
    15
100
AcDbLine
 10
245.8069082412
 20
40.672883306
 30
0.0
 11
247.1426907066
 21
39.9017525027
 31
0.0
  0
LINE
  5
1A6
330
1F
100
AcDbEntity
  8
0
  6
Continuous
 62
     7
370
    15
100
AcDbLine
 10
264.395421711
 20
56.7660289228
 30
0.0
 11
263.0596392456
 21
57.5371597261
 31
0.0
  0
LINE
  5
1A7
330
1F
100
AcDbEntity
  8
0
  6
Continuous
 62
     7
370
    15
100
AcDbLine
 10
249.8693960982
 20
39.4222190353
 30
0.0
 11
249.2788854424
 21
39.7631135808
 31
0.0
  0
SPLINE
  5
1A8
330
1F
100
AcDbEntity
  8
0
  6
Continuous
 62
     7
370
    15
100
AcDbSpline
210
0.0
220
0.0
230
1.0
 70
     8
 71
     3
 72
    12
 73
     8
 74
     0
 42
0.000000001
 43
0.00000001
 40
0.0
 40
0.0
 40
0.0
 40
0.0
 40
0.2500000000000015
 40
0.2500000000000015
 40
0.500000000000003
 40
0.500000000000003
 40
1.0
 40
1.0
 40
1.0
 40
1.0
 10
249.2788854424053
 20
39.76311358077294
 30
0.0
 10
249.241266707446
 20
39.78483041420913
 30
0.0
 10
249.1952742990587
 20
39.80208614819178
 30
0.0
 10
249.0956731690827
 20
39.8243799360196
 30
0.0
 10
249.0409224438287
 20
39.82958572059904
 30
0.0
 10
248.8814165450094
 20
39.82658382117192
 30
0.0
 10
248.7764137397918
 20
39.79960608591271
 30
0.0
 10
248.7011008435999
 20
39.75612887637941
 30
0.0
  0
SPLINE
  5
1A9
330
1F
100
AcDbEntity
  8
0
  6
Continuous
 62
     7
370
    15
100
AcDbSpline
210
0.0
220
0.0
230
1.0
 70
     8
 71
     3
 72
    10
 73
     6
 74
     0
 42
0.000000001
 43
0.00000001
 40
0.0
 40
0.0
 40
0.0
 40
0.0
 40
0.5
 40
0.5
 40
1.0
 40
1.0
 40
1.0
 40
1.0
 10
245.7052641306165
 20
40.70360535733207
 30
0.0
 10
245.7125268122652
 20
40.70760196281989
 30
0.0
 10
245.7243204762309
 20
40.70778374120506
 30
0.0
 10
245.7583794869981
 20
40.69806211169531
 30
0.0
 10
245.7805519745504
 20
40.68809845491961
 30
0.0
 10
245.8069082412139
 20
40.67288330603831
 30
0.0
  0
LINE
  5
1AA
330
1F
100
AcDbEntity
  8
0
  6
Continuous
 62
     7
370
    15
100
AcDbLine
 10
248.7011008436
 20
39.7561288764
 30
0.0
 11
248.6428539932
 21
39.7225036854
 31
0.0
  0
LINE
  5
1AB
330
1F
100
AcDbEntity
  8
0
  6
Continuous
 62
     7
370
    15
100
AcDbLine
 10
251.3946937152
 20
37.2862149513
 30
0.0
 11
249.6675110159
 21
38.2832963001
 31
0.0
  0
SPLINE
  5
1AC
330
1F
100
AcDbEntity
  8
0
  6
Continuous
 62
     7
370
    15
100
AcDbSpline
210
0.0
220
0.0
230
1.0
 70
     8
 71
     3
 72
     8
 73
     4
 74
     0
 42
0.000000001
 43
0.00000001
 40
0.0
 40
0.0
 40
0.0
 40
0.0
 40
0.0011901715795577
 40
0.0011901715795577
 40
0.0011901715795577
 40
0.0011901715795577
 10
249.6675110158768
 20
38.28329630013184
 30
0.0
 10
249.6553495490582
 20
38.34404655584267
 30
0.0
 10
249.6438661021022
 20
38.40431022997272
 30
0.0
 10
249.6330052784596
 20
38.46412450118947
 30
0.0
  0
LWPOLYLINE
  5
1AD
330
1F
100
AcDbEntity
  8
0
  6
Continuous
 62
     7
370
    15
100
AcDbPolyline
 90
       43
 70
   128
 43
0.0
 10
267.6028003147
 20
40.8465742459
 10
267.0863952089
 20
40.5037715014
 10
266.5815257399
 20
40.0792495587
 10
266.0994698572
 20
39.5824915367
 10
265.6509958928
 20
39.0245941885
 10
265.2461220139
 20
38.4180200191
 10
264.893892434
 20
37.7763188931
 10
264.6021753798
 20
37.1138253533
 10
264.3774873282
 20
36.4453384105
 10
264.2248474391
 20
35.7857909585
 10
264.1476654353
 20
35.1499161975
 10
264.1476654353
 20
34.5519185189
 10
264.2248474391
 20
34.0051562026
 10
264.3774873282
 20
33.5218430153
 10
264.6021753798
 20
33.112775375
 10
264.893892434
 20
32.7870911768
 10
265.2461220139
 20
32.5520656675
 10
265.6509958928
 20
32.4129489285
 10
266.0994698572
 20
32.372848598
 10
266.5815257399
 20
32.4326604512
 10
267.0863952089
 20
32.5910483899
 10
267.6028003147
 20
32.8444742894
 10
268.1192054205
 20
33.1872770339
 10
268.6240748895
 20
33.6117989766
 10
269.1061307721
 20
34.1085569986
 10
269.5546047366
 20
34.6664543468
 10
269.9594786154
 20
35.2730285162
 10
270.3117081954
 20
35.9147296422
 10
270.6034252496
 20
36.577223182
 10
270.8281133011
 20
37.2457101248
 10
270.9807531903
 20
37.9052575768
 10
271.057935194
 20
38.5411323378
 10
271.057935194
 20
39.1391300164
 10
270.9807531903
 20
39.6858923327
 10
270.8281133011
 20
40.16920552
 10
270.6034252496
 20
40.5782731603
 10
270.3117081954
 20
40.9039573585
 10
269.9594786154
 20
41.1389828679
 10
269.5546047366
 20
41.2780996068
 10
269.1061307721
 20
41.3181999373
 10
268.6240748895
 20
41.2583880842
 10
268.1192054205
 20
41.1000001454
 10
267.6028003147
 20
40.8465742459
  0
LWPOLYLINE
  5
1AE
330
1F
100
AcDbEntity
  8
0
  6
Continuous
 62
     7
370
    15
100
AcDbPolyline
 90
       23
 70
   128
 43
0.0
 10
267.5320896366
 20
40.9690487327
 10
267.0173117713
 20
40.6283659222
 10
266.5135055025
 20
40.2079284255
 10
266.0314085861
 20
39.7166971379
 10
265.5812960809
 20
39.1651418014
 10
265.1727613534
 20
38.5650178605
 10
264.8145116122
 20
37.929115915
 10
264.5141823284
 20
37.2709891109
 10
264.2781744994
 20
36.6046642784
 10
264.1115182222
 20
35.9443429745
 10
264.0177654861
 20
35.3040988013
 10
263.9989144678
 20
34.6975774519
 10
264.0553669442
 20
34.1377058758
 10
264.1859197286
 20
33.6364167636
 10
264.3877903152
 20
33.2043942224
 10
264.6566761828
 20
32.8508460627
 10
264.9868464961
 20
32.5833075496
 10
265.371264248
 20
32.4074808021
 10
265.8017362415
 20
32.327113262
 10
266.2690877134
 20
32.343917824
 10
266.7633578786
 20
32.4575363279
 10
267.2740122266
 20
32.6655471926
 10
267.5326642603
 20
32.8039723909
  0
LWPOLYLINE
  5
1AF
330
1F
100
AcDbEntity
  8
0
  6
Continuous
 62
     7
370
    15
100
AcDbPolyline
 90
       12
 70
   128
 43
0.0
 10
271.0676235425
 20
38.9273649528
 10
271.0464137871
 20
39.361651098
 10
270.9526610509
 20
39.8936506661
 10
270.7860047738
 20
40.3615547281
 10
270.5499969447
 20
40.7553907213
 10
270.2496676609
 20
41.0667647152
 10
269.8914179197
 20
41.2890403137
 10
269.4828831923
 20
41.4174800984
 10
269.032770687
 20
41.4493465983
 10
268.5506737706
 20
41.3839606341
 10
268.0468675018
 20
41.2227157943
 10
267.5320896366
 20
40.9690487327
  0
SPLINE
  5
1B0
330
1F
100
AcDbEntity
  8
0
  6
Continuous
 62
     7
370
    15
100
AcDbSpline
210
0.0
220
0.0
230
1.0
 70
    11
 71
     3
 72
    60
 73
    56
 74
     0
 42
0.000000001
 43
0.00000001
 40
0.0
 40
0.0
 40
0.0
 40
0.0
 40
0.0624999999999987
 40
0.0624999999999987
 40
0.0937499999999978
 40
0.0937499999999978
 40
0.1249999999999968
 40
0.1249999999999968
 40
0.1562499999999958
 40
0.1562499999999958
 40
0.1874999999999949
 40
0.1874999999999949
 40
0.2187499999999939
 40
0.2187499999999939
 40
0.2499999999999936
 40
0.2499999999999936
 40
0.2812499999999932
 40
0.2812499999999932
 40
0.3124999999999928
 40
0.3124999999999928
 40
0.3437499999999924
 40
0.3437499999999924
 40
0.374999999999992
 40
0.374999999999992
 40
0.4062499999999916
 40
0.4062499999999916
 40
0.4374999999999911
 40
0.4374999999999911
 40
0.4687499999999907
 40
0.4687499999999907
 40
0.4999999999999903
 40
0.4999999999999903
 40
0.5312499999999899
 40
0.5312499999999899
 40
0.5624999999999901
 40
0.5624999999999901
 40
0.6249999999999912
 40
0.6249999999999912
 40
0.6874999999999922
 40
0.6874999999999922
 40
0.7499999999999932
 40
0.7499999999999932
 40
0.7812499999999941
 40
0.7812499999999941
 40
0.8124999999999949
 40
0.8124999999999949
 40
0.8437499999999957
 40
0.8437499999999957
 40
0.8749999999999964
 40
0.8749999999999964
 40
0.9062499999999972
 40
0.9062499999999972
 40
0.9374999999999981
 40
0.9374999999999981
 40
1.0
 40
1.0
 40
1.0
 40
1.0
 10
265.814036104655
 20
42.58333832843347
 30
0.0
 10
265.9693897931544
 20
42.56043615984207
 30
0.0
 10
266.1180811501698
 20
42.5220965377798
 30
0.0
 10
266.3272088771866
 20
42.44855449646138
 30
0.0
 10
266.3931349692289
 20
42.42180972221192
 30
0.0
 10
266.5177527833479
 20
42.36439370814158
 30
0.0
 10
266.5769426296972
 20
42.33340371873987
 30
0.0
 10
266.6848217800357
 20
42.26911313994426
 30
0.0
 10
266.7334952082097
 20
42.23592212808173
 30
0.0
 10
266.8204014570391
 20
42.16729720021346
 30
0.0
 10
266.8589229592317
 20
42.13148939922871
 30
0.0
 10
266.9226031053103
 20
42.05932471057346
 30
0.0
 10
266.9479791433134
 20
42.02293260639161
 30
0.0
 10
266.9854887635108
 20
41.94886013091969
 30
0.0
 10
266.9976063511365
 20
41.91076172383771
 30
0.0
 10
267.0065700596244
 20
41.83529771131233
 30
0.0
 10
267.0036789614502
 20
41.79775713570055
 30
0.0
 10
266.9821837829712
 20
41.72225539982361
 30
0.0
 10
266.9631610479105
 20
41.68394486128274
 30
0.0
 10
266.9097805737431
 20
41.61009586820617
 30
0.0
 10
266.8754484714934
 20
41.57411990747749
 30
0.0
 10
266.7902345905628
 20
41.50373187853629
 30
0.0
 10
266.7398627838926
 20
41.46994215944104
 30
0.0
 10
266.6275859898511
 20
41.40760382743451
 30
0.0
 10
266.5642316724672
 20
41.37830211224664
 30
0.0
 10
266.4296718585266
 20
41.32662361894539
 30
0.0
 10
266.3586954143338
 20
41.30416739650235
 30
0.0
 10
266.2096055998692
 20
41.26624806745643
 30
0.0
 10
266.1330970437994
 20
41.25124730019097
 30
0.0
 10
265.9790279901728
 20
41.22962267509649
 30
0.0
 10
265.9003210618515
 20
41.22291634109395
 30
0.0
 10
265.7461856428382
 20
41.21852716052906
 30
0.0
 10
265.6703678962688
 20
41.22071180403248
 30
0.0
 10
265.5210482454393
 20
41.23420991267577
 30
0.0
 10
265.4481470457706
 20
41.24556343394121
 30
0.0
 10
265.2404280175754
 20
41.29261141784266
 30
0.0
 10
265.1124113337093
 20
41.34261952029178
 30
0.0
 10
264.8975607389715
 20
41.47267520932181
 30
0.0
 10
264.808000659308
 20
41.5544162538954
 30
0.0
 10
264.6809463382204
 20
41.73579019781847
 30
0.0
 10
264.641727078781
 20
41.83787879973605
 30
0.0
 10
264.6281525251184
 20
41.99108452233922
 30
0.0
 10
264.6310118025553
 20
42.043132577725
 30
0.0
 10
264.6527971302879
 20
42.14485582144675
 30
0.0
 10
264.6714024469978
 20
42.19386333196836
 30
0.0
 10
264.7246982558595
 20
42.28737856270944
 30
0.0
 10
264.7601038618446
 20
42.33243467658546
 30
0.0
 10
264.8450774406992
 20
42.41272727225653
 30
0.0
 10
264.8945683380092
 20
42.44834984057653
 30
0.0
 10
265.0080998348803
 20
42.51006041250056
 30
0.0
 10
265.0712005714702
 20
42.53544553264146
 30
0.0
 10
265.2054024257728
 20
42.57433663231526
 30
0.0
 10
265.2779821483974
 20
42.58819126907299
 30
0.0
 10
265.5004526430525
 20
42.61242649370476
 30
0.0
 10
265.6586824161557
 20
42.60624049702488
 30
0.0
 10
265.8140361046551
 20
42.58333832843348
 30
0.0
  0
LINE
  5
1B1
330
1F
100
AcDbEntity
  8
0
  6
Continuous
 62
     7
370
    15
100
AcDbLine
 10
269.5362082525
 20
36.8581578197
 30
0.0
 11
270.2898060832
 21
37.7956263567
 31
0.0
  0
SPLINE
  5
1B2
330
1F
100
AcDbEntity
  8
0
  6
Continuous
 62
     7
370
    15
100
AcDbSpline
210
0.0
220
0.0
230
1.0
 70
     8
 71
     3
 72
    21
 73
    17
 74
     0
 42
0.000000001
 43
0.00000001
 40
0.0
 40
0.0
 40
0.0
 40
0.0
 40
0.041666666666667
 40
0.0833333333333334
 40
0.1250000000000024
 40
0.1666666666666667
 40
0.2083333333333333
 40
0.2499999999976954
 40
0.3339999999999608
 40
0.4179999999999996
 40
0.4330099753158393
 40
0.4330099753158393
 40
0.5019999999997413
 40
0.5859999999988206
 40
0.6699999999999805
 40
0.8156536847925858
 40
0.8156536847925858
 40
0.8156536847925858
 40
0.8156536847925858
 10
270.2898060831901
 20
37.79562635674842
 30
0.0
 10
270.3197825502851
 20
37.83291679683371
 30
0.0
 10
270.3779294986458
 20
37.91322980389318
 30
0.0
 10
270.4579957010653
 20
38.051179253337
 30
0.0
 10
270.5258291688484
 20
38.20378620121266
 30
0.0
 10
270.5753631551225
 20
38.36468717679707
 30
0.0
 10
270.6007841250781
 20
38.52463329518016
 30
0.0
 10
270.5966598977874
 20
38.72421429574373
 30
0.0
 10
270.5207964087149
 20
38.91443581182474
 30
0.0
 10
270.3782389397957
 20
38.98531097382465
 30
0.0
 10
270.3043708314712
 20
38.99671983365518
 30
0.0
 10
270.2452433995913
 20
39.00297988657871
 30
0.0
 10
270.1570103291442
 20
39.00895252187536
 30
0.0
 10
270.0237838535884
 20
39.02175320826877
 30
0.0
 10
269.8915400369785
 20
39.03330601022274
 30
0.0
 10
269.6839050060018
 20
39.05185624932287
 30
0.0
 10
269.5362551431931
 20
39.06507351521607
 30
0.0
  0
SPLINE
  5
1B3
330
1F
100
AcDbEntity
  8
0
  6
Continuous
 62
     7
370
    15
100
AcDbSpline
210
0.0
220
0.0
230
1.0
 70
     8
 71
     3
 72
    21
 73
    17
 74
     0
 42
0.000000001
 43
0.00000001
 40
0.0
 40
0.0
 40
0.0
 40
0.0
 40
0.041666666666667
 40
0.0833333333333334
 40
0.1250000000000024
 40
0.1666666666666667
 40
0.2083333333333333
 40
0.2499999999976954
 40
0.3339999999999608
 40
0.4179999999999996
 40
0.4330099753158393
 40
0.4330099753158393
 40
0.5019999999997413
 40
0.5859999999988206
 40
0.6699999999999805
 40
0.8133971939531459
 40
0.8133971939531459
 40
0.8133971939531459
 40
0.8133971939531459
 10
264.9157945461732
 20
34.69327553182265
 30
0.0
 10
264.886721299643
 20
34.69587511816741
 30
0.0
 10
264.8272519442559
 20
34.709171329938
 30
0.0
 10
264.747717250067
 20
34.75463078868172
 30
0.0
 10
264.6797413599013
 20
34.82893160261963
 30
0.0
 10
264.6302455549268
 20
34.9326384924667
 30
0.0
 10
264.6048142821554
 20
35.06323491287574
 30
0.0
 10
264.6089425655573
 20
35.26757824161423
 30
0.0
 10
264.6847988767923
 20
35.54538314363623
 30
0.0
 10
264.8273733656671
 20
35.7808723150924
 30
0.0
 10
264.9012255462749
 20
35.87754759327231
 30
0.0
 10
264.9603389499975
 20
35.95205723611188
 30
0.0
 10
265.048542158859
 20
36.05986456053535
 30
0.0
 10
265.1820667830848
 20
36.22685610833567
 30
0.0
 10
265.3118973584977
 20
36.38809429148748
 30
0.0
 10
265.5221841434337
 20
36.649671958432
 30
0.0
 10
265.6693450780953
 20
36.83275289737227
 30
0.0
  0
LINE
  5
1B4
330
1F
100
AcDbEntity
  8
0
  6
Continuous
 62
     7
370
    15
100
AcDbLine
 10
265.6693923769
 20
34.6258925298
 30
0.0
 11
264.9157945462
 21
34.6932755318
 31
0.0
  0
ARC
  5
1B5
330
1F
100
AcDbEntity
  8
0
  6
Continuous
 62
     7
370
    15
100
AcDbCircle
 10
258.6455173373
 20
38.7080834488
 30
0.0
 40
10.35668114649882
100
AcDbArc
 50
174.7071163485
 51
187.1554644744
  0
LINE
  5
1B6
330
1F
100
AcDbEntity
  8
0
  6
Continuous
 62
     7
370
    15
100
AcDbLine
 10
248.3694958664
 20
39.6773619435
 30
0.0
 11
248.3694958664
 21
37.4180341859
 31
0.0
  0
LINE
  5
1B7
330
1F
100
AcDbEntity
  8
0
  6
Continuous
 62
     7
370
    15
100
AcDbLine
 10
248.3694958664
 20
37.4180341859
 30
0.0
 11
248.3694958664
 21
35.9522262234
 31
0.0
  0
LINE
  5
1B8
330
1F
100
AcDbEntity
  8
0
  6
Continuous
 62
     7
370
    15
100
AcDbLine
 10
246.1444258649
 20
40.3171300664
 30
0.0
 11
245.7052641306
 21
40.7036053573
 31
0.0
  0
LINE
  5
1B9
330
1F
100
AcDbEntity
  8
0
  6
Continuous
 62
     7
370
    15
100
AcDbLine
 10
247.5003775042
 20
39.5343558469
 30
0.0
 11
246.1444258649
 21
40.3171300664
 31
0.0
  0
SPLINE
  5
1BA
330
1F
100
AcDbEntity
  8
0
  6
Continuous
 62
     7
370
    15
100
AcDbSpline
210
0.0
220
0.0
230
1.0
 70
     8
 71
     3
 72
    14
 73
    10
 74
     0
 42
0.000000001
 43
0.00000001
 40
0.0
 40
0.0
 40
0.0
 40
0.0
 40
0.1565661336277769
 40
0.3176712552771414
 40
0.4742387954737003
 40
0.6353472579216237
 40
0.7919406654282475
 40
0.9530649038090917
 40
1.0
 40
1.0
 40
1.0
 40
1.0
 10
264.8450838680542
 20
34.95716576585887
 30
0.0
 10
264.8236732170683
 20
34.96070582774277
 30
0.0
 10
264.7802312017525
 20
34.96788858097528
 30
0.0
 10
264.7246270888518
 20
34.99986667688389
 30
0.0
 10
264.6775443302222
 20
35.04692145985392
 30
0.0
 10
264.6412008311569
 20
35.10834382297266
 30
0.0
 10
264.6175506756644
 20
35.18343302628046
 30
0.0
 10
264.6066170731663
 20
35.24720200179885
 30
0.0
 10
264.6083538916544
 20
35.28766101395551
 30
0.0
 10
264.6087456921135
 20
35.29678796628029
 30
0.0
  0
ARC
  5
1BB
330
1F
100
AcDbEntity
  8
0
  6
Continuous
 62
     7
370
    15
100
AcDbCircle
 10
264.2700675439
 20
37.9641624017
 30
0.0
 40
1.799462443088565
100
AcDbArc
 50
321.0421427482
 51
328.0496559665
  0
LINE
  5
1BC
330
1F
100
AcDbEntity
  8
0
  6
Continuous
 62
     7
370
    15
100
AcDbLine
 10
247.370707538
 20
39.4529276748
 30
0.0
 11
247.3718534975
 21
39.6085511766
 31
0.0
  0
ARC
  5
1BD
330
1F
100
AcDbEntity
  8
0
  6
Continuous
 62
     7
370
    15
100
AcDbCircle
 10
254.1602552696
 20
39.1555484375
 30
0.0
 40
6.796057151804561
100
AcDbArc
 50
177.4920726976
 51
211.0972875897
  0
SPLINE
  5
1BE
330
1F
100
AcDbEntity
  8
0
  6
Continuous
 62
     7
370
    15
100
AcDbSpline
210
0.0
220
0.0
230
1.0
 70
     8
 71
     3
 72
    16
 73
    12
 74
     0
 42
0.000000001
 43
0.00000001
 40
0.0
 40
0.0
 40
0.0
 40
0.0
 40
0.250000000000004
 40
0.250000000000004
 40
0.500000000000008
 40
0.500000000000008
 40
0.62500000000001
 40
0.62500000000001
 40
0.750000000000012
 40
0.750000000000012
 40
1.0
 40
1.0
 40
1.0
 40
1.0
 10
269.5362551431931
 20
39.06507351521606
 30
0.0
 10
269.5118126179697
 20
39.06726155216261
 30
0.0
 10
269.4852413282246
 20
39.06828639300245
 30
0.0
 10
269.4245406894013
 20
39.06620523273632
 30
0.0
 10
269.3899882638385
 20
39.06323998049777
 30
0.0
 10
269.3319143473188
 20
39.0509299439345
 30
0.0
 10
269.3119001931054
 20
39.04539330684468
 30
0.0
 10
269.2760245545535
 20
39.03236531397676
 30
0.0
 10
269.2602372737589
 20
39.02493236867888
 30
0.0
 10
269.2220694201069
 20
39.00325728311774
 30
0.0
 10
269.2065852085447
 20
38.98928951326999
 30
0.0
 10
269.1947112999345
 20
38.9761145669229
 30
0.0
  0
SPLINE
  5
1BF
330
1F
100
AcDbEntity
  8
0
  6
Continuous
 62
     7
370
    15
100
AcDbSpline
210
0.0
220
0.0
230
1.0
 70
     8
 71
     3
 72
     8
 73
     4
 74
     0
 42
0.000000001
 43
0.00000001
 40
0.0
 40
0.0
 40
0.0
 40
0.0
 40
1.0
 40
1.0
 40
1.0
 40
1.0
 10
269.1947112999343
 20
38.97611456692287
 30
0.0
 10
269.161825319275
 20
38.98926060821305
 30
0.0
 10
269.1296878952948
 20
39.0039984884527
 30
0.0
 10
269.1042141240013
 20
39.01870418360092
 30
0.0
  0
LINE
  5
1C0
330
1F
100
AcDbEntity
  8
0
  6
Continuous
 62
     7
370
    15
100
AcDbLine
 10
268.3682863676
 20
39.4435462343
 30
0.0
 11
269.104214124
 21
39.0187041836
 31
0.0
  0
ARC
  5
1C1
330
1F
100
AcDbEntity
  8
0
  6
Continuous
 62
     7
370
    15
100
AcDbCircle
 10
263.9143856063
 20
39.2400347383
 30
0.0
 40
3.548240222963626
100
AcDbArc
 50
339.1550049717
 51
358.3475348508
  0
LINE
  5
1C2
330
1F
100
AcDbEntity
  8
0
  6
Continuous
 62
     7
370
    15
100
AcDbLine
 10
267.2303811539
 20
37.9774254527
 30
0.0
 11
269.104214124
 21
36.8956847046
 31
0.0
  0
LINE
  5
1C3
330
1F
100
AcDbEntity
  8
0
  6
Continuous
 62
     7
370
    15
100
AcDbLine
 10
264.6965233415
 20
35.4833545934
 30
0.0
 11
265.6771224367
 21
34.9172667853
 31
0.0
  0
LWPOLYLINE
  5
1C4
330
1F
100
AcDbEntity
  8
0
  6
Continuous
 62
     7
370
    15
100
AcDbPolyline
 90
       14
 70
   128
 43
0.0
 10
266.5288871789
 20
41.358749979
 10
266.581775284
 20
41.4069438259
 10
266.6839648192
 20
41.5829542935
 10
266.6691139898
 20
41.7683898106
 10
266.5392284825
 20
41.938206283
 10
266.3118500548
 20
42.0694690553
 10
266.0176874234
 20
42.1444503627
 10
265.6964688816
 20
42.153023564
 10
265.3915767734
 20
42.094030801
 10
265.1441884676
 20
41.9754393733
 10
264.9877151255
 20
41.8132657101
 10
264.9432893392
 20
41.6294122635
 10
265.0169110573
 20
41.4487094601
 10
265.1051186609
 20
41.3593198885
  0
LINE
  5
1C5
330
1F
100
AcDbEntity
  8
0
  6
Continuous
 62
     7
370
    15
100
AcDbLine
 10
227.9989179411
 20
52.5894963945
 30
0.0
 11
227.9262964043
 21
52.653683655
 31
0.0
  0
LINE
  5
1C6
330
1F
100
AcDbEntity
  8
0
  6
Continuous
 62
     7
370
    15
100
AcDbLine
 10
249.6675110159
 20
31.7101427645
 30
0.0
 11
251.3946937152
 21
30.7130614156
 31
0.0
  0
SPLINE
  5
1C7
330
1F
100
AcDbEntity
  8
0
  6
Continuous
 62
     7
370
    15
100
AcDbSpline
210
0.0
220
0.0
230
1.0
 70
     8
 71
     3
 72
    14
 73
    10
 74
     0
 42
0.000000001
 43
0.00000001
 40
0.0
 40
0.0
 40
0.0
 40
0.0
 40
0.25
 40
0.25
 40
0.5
 40
0.5
 40
0.75
 40
0.75
 40
1.0
 40
1.0
 40
1.0
 40
1.0
 10
251.3467985389145
 20
30.5908127303145
 30
0.0
 10
251.3298903413765
 20
30.54765588076535
 30
0.0
 10
251.3093671504955
 20
30.50763990827634
 30
0.0
 10
251.2605837149331
 20
30.43433028129143
 30
0.0
 10
251.2321267365573
 20
30.40104312268535
 30
0.0
 10
251.1687641140491
 20
30.34812027635503
 30
0.0
 10
251.1334450533082
 20
30.32805660992977
 30
0.0
 10
251.058626976257
 20
30.31129761944774
 30
0.0
 10
251.0202575021924
 20
30.31549451505892
 30
0.0
 10
250.9864654134054
 20
30.33500227268136
 30
0.0
  0
LINE
  5
1C8
330
1F
100
AcDbEntity
  8
0
  6
Continuous
 62
     7
370
    15
100
AcDbLine
 10
250.9864654134
 20
30.3350022727
 30
0.0
 11
249.6330052785
 21
31.1163381774
 31
0.0
  0
SPLINE
  5
1C9
330
1F
100
AcDbEntity
  8
0
  6
Continuous
 62
     7
370
    15
100
AcDbSpline
210
0.0
220
0.0
230
1.0
 70
     8
 71
     3
 72
     8
 73
     4
 74
     0
 42
0.000000001
 43
0.00000001
 40
0.0
 40
0.0
 40
0.0
 40
0.0
 40
0.0011901715795577
 40
0.0011901715795577
 40
0.0011901715795577
 40
0.0011901715795577
 10
249.6330052784596
 20
31.1163381773832
 30
0.0
 10
249.6438661021022
 20
31.31429336574136
 30
0.0
 10
249.6553495490582
 20
31.51223227824293
 30
0.0
 10
249.6675110158768
 20
31.71014276445155
 30
0.0
  0
LINE
  5
1CA
330
1F
100
AcDbEntity
  8
0
  6
Continuous
 62
     7
370
    15
100
AcDbLine
 10
265.728046617
 20
34.8782155907
 30
0.0
 11
264.8450838681
 21
34.9571657659
 31
0.0
  0
SPLINE
  5
1CB
330
1F
100
AcDbEntity
  8
0
  6
Continuous
 62
     7
370
    15
100
AcDbSpline
210
0.0
220
0.0
230
1.0
 70
     8
 71
     3
 72
    16
 73
    12
 74
     0
 42
0.000000001
 43
0.00000001
 40
0.0
 40
0.0
 40
0.0
 40
0.0
 40
0.249999999999996
 40
0.249999999999996
 40
0.499999999999992
 40
0.499999999999992
 40
0.6249999999999941
 40
0.6249999999999941
 40
0.7499999999999962
 40
0.7499999999999962
 40
1.0
 40
1.0
 40
1.0
 40
1.0
 10
265.669392376889
 20
34.62589252978557
 30
0.0
 10
265.6937183886697
 20
34.62371741776352
 30
0.0
 10
265.7175299778775
 20
34.62456435330574
 30
0.0
 10
265.7604679879927
 20
34.6370798707517
 30
0.0
 10
265.7809321145446
 20
34.6489203455291
 30
0.0
 10
265.7970383754019
 20
34.68499287040575
 30
0.0
 10
265.7996447259492
 20
34.70057994898443
 30
0.0
 10
265.7968479959463
 20
34.73615520310071
 30
0.0
 10
265.791630738681
 20
34.75550411361115
 30
0.0
 10
265.7703920299376
 20
34.81115386564959
 30
0.0
 10
265.7495867588809
 20
34.84599099105159
 30
0.0
 10
265.7280466170171
 20
34.87821559072951
 30
0.0
  0
SPLINE
  5
1CC
330
1F
100
AcDbEntity
  8
0
  6
Continuous
 62
     7
370
    15
100
AcDbSpline
210
0.0
220
0.0
230
1.0
 70
     8
 71
     3
 72
    10
 73
     6
 74
     0
 42
0.000000001
 43
0.00000001
 40
0.0
 40
0.0
 40
0.0
 40
0.0
 40
0.0140808243454372
 40
0.4830577863076829
 40
1.0
 40
1.0
 40
1.0
 40
1.0
 10
272.6344899595006
 20
42.78295348785222
 30
0.0
 10
272.634619411656
 20
42.78287882999705
 30
0.0
 10
272.6390604067353
 20
42.78031761217601
 30
0.0
 10
272.6224577476062
 20
42.78990911849446
 30
0.0
 10
272.5906391383817
 20
42.80828459078851
 30
0.0
 10
272.5739558415199
 20
42.81791931294413
 30
0.0
  0
ARC
  5
1CD
330
1F
100
AcDbEntity
  8
0
  6
Continuous
 62
     7
370
    15
100
AcDbCircle
 10
256.578066023
 20
31.2608131562
 30
0.0
 40
5.52156045599989
100
AcDbArc
 50
214.364970818
 51
266.0547471138
  0
SPLINE
  5
1CE
330
1F
100
AcDbEntity
  8
0
  6
Continuous
 62
     7
370
    15
100
AcDbSpline
210
0.0
220
0.0
230
1.0
 70
     8
 71
     3
 72
     8
 73
     4
 74
     0
 42
0.000000001
 43
0.00000001
 40
0.0
 40
0.0
 40
0.0
 40
0.0
 40
1.0
 40
1.0
 40
1.0
 40
1.0
 10
249.9934279452341
 20
32.36968040288632
 30
0.0
 10
249.8843543648472
 20
32.14990820282711
 30
0.0
 10
249.7757427993792
 20
31.93005512115744
 30
0.0
 10
249.6675110158768
 20
31.71014276445155
 30
0.0
  0
LINE
  5
1CF
330
1F
100
AcDbEntity
  8
0
  6
Continuous
 62
     7
370
    15
100
AcDbLine
 10
250.0516747957
 20
32.4033055939
 30
0.0
 11
249.9934279452
 21
32.3696804029
 31
0.0
  0
SPLINE
  5
1D0
330
1F
100
AcDbEntity
  8
0
  6
Continuous
 62
     7
370
    15
100
AcDbSpline
210
0.0
220
0.0
230
1.0
 70
     8
 71
     3
 72
    12
 73
     8
 74
     0
 42
0.000000001
 43
0.00000001
 40
0.0
 40
0.0
 40
0.0
 40
0.0
 40
0.2499999999999986
 40
0.2499999999999986
 40
0.4999999999999971
 40
0.4999999999999971
 40
1.0
 40
1.0
 40
1.0
 40
1.0
 10
250.0637739695223
 20
32.73685354303105
 30
0.0
 10
250.101811577075
 20
32.7148948995938
 30
0.0
 10
250.1312849809866
 20
32.68863796298914
 30
0.0
 10
250.1700786910295
 20
32.63076995368983
 30
0.0
 10
250.1789008939761
 20
32.5999878188807
 30
0.0
 10
250.1737916212893
 20
32.50700783549395
 30
0.0
 10
250.1271678795199
 20
32.44688682356464
 30
0.0
 10
250.0516747956667
 20
32.40330559390871
 30
0.0
  0
LINE
  5
1D1
330
1F
100
AcDbEntity
  8
0
  6
Continuous
 62
     7
370
    15
100
AcDbLine
 10
249.2788854424
 20
33.1899600451
 30
0.0
 11
250.0637739695
 21
32.736853543
 31
0.0
  0
SPLINE
  5
1D2
330
1F
100
AcDbEntity
  8
0
  6
Continuous
 62
     7
370
    15
100
AcDbSpline
210
0.0
220
0.0
230
1.0
 70
     8
 71
     3
 72
    12
 73
     8
 74
     0
 42
0.000000001
 43
0.00000001
 40
0.0
 40
0.0
 40
0.0
 40
0.0
 40
0.5
 40
0.5
 40
0.75
 40
0.75
 40
1.0
 40
1.0
 40
1.0
 40
1.0
 10
248.7011008436004
 20
33.1829753406994
 30
0.0
 10
248.7770316513517
 20
33.22680926298295
 30
0.0
 10
248.8809216107758
 20
33.25346660549215
 30
0.0
 10
249.0416236906082
 20
33.25642246826587
 30
0.0
 10
249.095408491031
 20
33.25126919662993
 30
0.0
 10
249.1951773764736
 20
33.22897069402657
 30
0.0
 10
249.240729602301
 20
33.21198694272915
 30
0.0
 10
249.2788854424053
 20
33.18996004509265
 30
0.0
  0
LINE
  5
1D3
330
1F
100
AcDbEntity
  8
0
  6
Continuous
 62
     7
370
    15
100
AcDbLine
 10
248.6428539932
 20
33.1493501497
 30
0.0
 11
248.7011008436
 21
33.1829753407
 31
0.0
  0
SPLINE
  5
1D4
330
1F
100
AcDbEntity
  8
0
  6
Continuous
 62
     7
370
    15
100
AcDbSpline
210
0.0
220
0.0
230
1.0
 70
     8
 71
     3
 72
     8
 73
     4
 74
     0
 42
0.000000001
 43
0.00000001
 40
0.0
 40
0.0
 40
0.0
 40
0.0
 40
1.0
 40
1.0
 40
1.0
 40
1.0
 10
247.5003775041879
 20
32.96120231119835
 30
0.0
 10
247.8813181549276
 20
33.02368318987138
 30
0.0
 10
248.2621561271675
 20
33.08638331200641
 30
0.0
 10
248.6428539931679
 20
33.14935014967701
 30
0.0
  0
LINE
  5
1D5
330
1F
100
AcDbEntity
  8
0
  6
Continuous
 62
     7
370
    15
100
AcDbLine
 10
246.1444258649
 20
33.7439765307
 30
0.0
 11
247.5003775042
 21
32.9612023112
 31
0.0
  0
LINE
  5
1D6
330
1F
100
AcDbEntity
  8
0
  6
Continuous
 62
     7
370
    15
100
AcDbLine
 10
246.1444258649
 20
33.7439765307
 30
0.0
 11
248.1573638321
 21
34.9060208843
 31
0.0
  0
SPLINE
  5
1D7
330
1F
100
AcDbEntity
  8
0
  6
Continuous
 62
     7
370
    15
100
AcDbSpline
210
0.0
220
0.0
230
1.0
 70
     8
 71
     3
 72
     8
 73
     4
 74
     0
 42
0.000000001
 43
0.00000001
 40
0.0
 40
0.0
 40
0.0
 40
0.0
 40
1.0
 40
1.0
 40
1.0
 40
1.0
 10
265.6771224366502
 20
34.91726678525889
 30
0.0
 10
265.7025484950351
 20
34.90258863418651
 30
0.0
 10
265.7190965914668
 20
34.88922037987564
 30
0.0
 10
265.7280466170174
 20
34.87821559072938
 30
0.0
  0
ARC
  5
1D8
330
1F
100
AcDbEntity
  8
0
  6
Continuous
 62
     7
370
    15
100
AcDbCircle
 10
255.875006574
 20
32.7235255267
 30
0.0
 40
6.445590069950602
100
AcDbArc
 50
194.4388633901
 51
238.0189953888
  0
SPLINE
  5
1D9
330
1F
100
AcDbEntity
  8
0
  6
Continuous
 62
     7
370
    15
100
AcDbSpline
210
0.0
220
0.0
230
1.0
 70
     8
 71
     3
 72
     8
 73
     4
 74
     0
 42
0.000000001
 43
0.00000001
 40
0.0
 40
0.0
 40
0.0
 40
0.0
 40
1.0
 40
1.0
 40
1.0
 40
1.0
 10
269.1042141240013
 20
36.89568470455719
 30
0.0
 10
269.129640182386
 20
36.88100655348488
 30
0.0
 10
269.1618285965791
 20
36.87666726243087
 30
0.0
 10
269.1947112998719
 20
36.87947851406241
 30
0.0
  0
SPLINE
  5
1DA
330
1F
100
AcDbEntity
  8
0
  6
Continuous
 62
     7
370
    15
100
AcDbSpline
210
0.0
220
0.0
230
1.0
 70
     8
 71
     3
 72
    16
 73
    12
 74
     0
 42
0.000000001
 43
0.00000001
 40
0.0
 40
0.0
 40
0.0
 40
0.0
 40
0.2499999999999832
 40
0.2499999999999832
 40
0.3749999999999825
 40
0.3749999999999825
 40
0.4999999999999817
 40
0.4999999999999817
 40
0.7499999999999908
 40
0.7499999999999908
 40
1.0
 40
1.0
 40
1.0
 40
1.0
 10
269.1947112998716
 20
36.87947851406278
 30
0.0
 10
269.2064234564527
 20
36.84165451126853
 30
0.0
 10
269.2218817216312
 20
36.80372070031375
 30
0.0
 10
269.2592965983376
 20
36.75789743985957
 30
0.0
 10
269.27470940729
 20
36.74443968862109
 30
0.0
 10
269.3107469296177
 20
36.72781751763024
 30
0.0
 10
269.3307645401987
 20
36.72517380674121
 30
0.0
 10
269.3884986892814
 20
36.73142424481676
 30
0.0
 10
269.4237085269672
 20
36.75178654365163
 30
0.0
 10
269.4849698644845
 20
36.79949233915217
 30
0.0
 10
269.5116745550678
 20
36.82763813332205
 30
0.0
 10
269.5362082524744
 20
36.85815781965832
 30
0.0
  0
ELLIPSE
  5
1DB
330
1F
100
AcDbEntity
  8
0
  6
Continuous
 62
     7
370
    15
100
AcDbEllipse
 10
247.923049257
 20
35.6945204588
 30
0.0
 11
-6.005970385558612E-5
 21
0.8534489614827194
 31
0.0
210
0.0
220
0.0
230
1.0
 40
0.7174342186
 41
3.534193645557425
 42
5.104989972352355
  0
SPLINE
  5
1DC
330
1F
100
AcDbEntity
  8
0
  6
Continuous
 62
     7
370
    15
100
AcDbSpline
210
0.0
220
0.0
230
1.0
 70
     8
 71
     3
 72
    20
 73
    16
 74
     0
 42
0.000000001
 43
0.00000001
 40
0.0
 40
0.0
 40
0.0
 40
0.0
 40
0.125
 40
0.125
 40
0.2499999999999999
 40
0.2499999999999999
 40
0.4999999999999999
 40
0.4999999999999999
 40
0.6249999999999999
 40
0.6249999999999999
 40
0.7499999999999998
 40
0.7499999999999998
 40
0.8749999999999998
 40
0.8749999999999998
 40
1.0
 40
1.0
 40
1.0
 40
1.0
 10
270.0776740488346
 20
37.97787577960289
 30
0.0
 10
270.1127375936729
 20
38.0214944960389
 30
0.0
 10
270.1444559503353
 20
38.06785636190259
 30
0.0
 10
270.2004716546004
 20
38.16643352250189
 30
0.0
 10
270.224563313209
 20
38.21848897401849
 30
0.0
 10
270.2819756549011
 20
38.37422304078092
 30
0.0
 10
270.3009319853836
 20
38.48093293658182
 30
0.0
 10
270.2989319664167
 20
38.62158358534128
 30
0.0
 10
270.2933826521918
 20
38.66447984894833
 30
0.0
 10
270.2731592794529
 20
38.74195161956005
 30
0.0
 10
270.2584917646786
 20
38.77568595539694
 30
0.0
 10
270.2209375795176
 20
38.83123459376885
 30
0.0
 10
270.197690243001
 20
38.85340061594042
 30
0.0
 10
270.1438556221789
 20
38.88455438578191
 30
0.0
 10
270.1127435524686
 20
38.89402865504024
 30
0.0
 10
270.0776740046588
 20
38.89716441732238
 30
0.0
  0
LWPOLYLINE
  5
1DD
330
1F
100
AcDbEntity
  8
0
  6
Continuous
 62
     7
370
    15
100
AcDbPolyline
 90
        4
 70
   128
 43
0.0
 10
270.0776740047
 20
38.8971644173
 10
269.815298294
 20
38.9206247383
 10
269.552922546
 20
38.9440850808
 10
269.1947112999
 20
38.9761145669
  0
ARC
  5
1DE
330
1F
100
AcDbEntity
  8
0
  6
Continuous
 62
     7
370
    15
100
AcDbCircle
 10
255.3164710528
 20
35.0201596765
 30
0.0
 40
6.930879665982712
100
AcDbArc
 50
195.6597338471
 51
215.4055010702
  0
ARC
  5
1DF
330
1F
100
AcDbEntity
  8
0
  6
Continuous
 62
     7
370
    15
100
AcDbCircle
 10
253.0163703849
 20
33.9337227148
 30
0.0
 40
6.033559568081365
100
AcDbArc
 50
193.2193911006
 51
253.6140686844
  0
SPLINE
  5
1E0
330
1F
100
AcDbEntity
  8
0
  6
Continuous
 62
     7
370
    15
100
AcDbSpline
210
0.0
220
0.0
230
1.0
 70
     8
 71
     3
 72
     8
 73
     4
 74
     0
 42
0.000000001
 43
0.00000001
 40
0.0
 40
0.0
 40
0.0
 40
0.0
 40
0.0011901715795577
 40
0.0011901715795577
 40
0.0011901715795577
 40
0.0011901715795577
 10
247.5003775041879
 20
32.96120231119835
 30
0.0
 10
247.381580388273
 20
32.82485127488331
 30
0.0
 10
247.2623372141249
 20
32.6891207287474
 30
0.0
 10
247.14269070663
 20
32.55396617892798
 30
0.0
  0
LINE
  5
1E1
330
1F
100
AcDbEntity
  8
0
  6
Continuous
 62
     7
370
    15
100
AcDbLine
 10
245.7052641306
 20
33.490401849
 30
0.0
 11
246.1444258649
 21
33.7439765307
 31
0.0
  0
LINE
  5
1E2
330
1F
100
AcDbEntity
  8
0
  6
Continuous
 62
     7
370
    15
100
AcDbLine
 10
247.1426907066
 20
32.5539661789
 30
0.0
 11
245.8069082412
 21
33.3250969822
 31
0.0
  0
SPLINE
  5
1E3
330
1F
100
AcDbEntity
  8
0
  6
Continuous
 62
     7
370
    15
100
AcDbSpline
210
0.0
220
0.0
230
1.0
 70
     8
 71
     3
 72
    10
 73
     6
 74
     0
 42
0.000000001
 43
0.00000001
 40
0.0
 40
0.0
 40
0.0
 40
0.0
 40
0.5
 40
0.5
 40
1.0
 40
1.0
 40
1.0
 40
1.0
 10
245.8069082412139
 20
33.32509698223204
 30
0.0
 10
245.780603988837
 20
33.3402821039048
 30
0.0
 10
245.7584058747185
 20
33.36391175483867
 30
0.0
 10
245.7243939882867
 20
33.42135414764857
 30
0.0
 10
245.7125231078807
 20
33.45499242579919
 30
0.0
 10
245.7052641306165
 20
33.49040184904231
 30
0.0
  0
ARC
  5
1E4
330
1F
100
AcDbEntity
  8
0
  6
Continuous
 62
     7
370
    15
100
AcDbCircle
 10
251.4967226987
 20
34.341205958
 30
0.0
 40
5.653898022532058
100
AcDbArc
 50
214.1855465067
 51
239.5931874229
  0
LINE
  5
1E5
330
1F
100
AcDbEntity
  8
0
  6
Continuous
 62
     7
370
    15
100
AcDbLine
 10
269.1947112999
 20
36.8794785141
 30
0.0
 11
270.0776740488
 21
37.9778757796
 31
0.0
  0
LINE
  5
1E6
330
1F
100
AcDbEntity
  8
0
  6
Continuous
 62
     7
370
    15
100
AcDbLine
 10
267.2303811539
 20
37.9774254527
 30
0.0
 11
268.1331304006
 21
39.1004369334
 31
0.0
  0
ARC
  5
1E7
330
1F
100
AcDbEntity
  8
0
  6
Continuous
 62
     7
370
    15
100
AcDbCircle
 10
267.2768906011
 20
39.788785279
 30
0.0
 40
1.098621881781003
100
AcDbArc
 50
321.2035006205
 51
341.804154986
  0
ELLIPSE
  5
1E8
330
1F
100
AcDbEntity
  8
0
  6
Continuous
 62
     7
370
    15
100
AcDbEllipse
 10
247.8038104415
 20
35.6256629787
 30
0.0
 11
0.2600075789209484
 21
0.9705436209909308
 31
0.0
210
0.0
220
0.0
230
1.0
 40
0.5176380889
 41
3.619174351347762
 42
5.189970678142605
  0
SPLINE
  5
1E9
330
1F
100
AcDbEntity
  8
0
  6
Continuous
 62
     7
370
    15
100
AcDbSpline
210
0.0
220
0.0
230
1.0
 70
     8
 71
     3
 72
    12
 73
     8
 74
     0
 42
0.000000001
 43
0.00000001
 40
0.0
 40
0.0
 40
0.0
 40
0.0
 40
0.5000000000000003
 40
0.5000000000000003
 40
0.7500000000000001
 40
0.7500000000000001
 40
1.0
 40
1.0
 40
1.0
 40
1.0
 10
265.2592406783304
 20
55.96526701408406
 30
0.0
 10
265.3216840041551
 20
56.00131477878437
 30
0.0
 10
265.4010206093772
 20
56.02697377884216
 30
0.0
 10
265.5318939727183
 20
56.03875753884864
 30
0.0
 10
265.5766662850892
 20
56.03794726664511
 30
0.0
 10
265.6619282010926
 20
56.02439878625776
 30
0.0
 10
265.7013444082109
 20
56.01163417524835
 30
0.0
 10
265.7325840684607
 20
55.9935999032564
 30
0.0
  0
LINE
  5
1EA
330
1F
100
AcDbEntity
  8
0
  6
Continuous
 62
     7
370
    15
100
AcDbLine
 10
265.7325840685
 20
55.9935999033
 30
0.0
 11
266.8842473339
 21
55.3287588516
 31
0.0
  0
SPLINE
  5
1EB
330
1F
100
AcDbEntity
  8
0
  6
Continuous
 62
     7
370
    15
100
AcDbSpline
210
0.0
220
0.0
230
1.0
 70
     8
 71
     3
 72
     9
 73
     5
 74
     0
 42
0.000000001
 43
0.00000001
 40
0.0
 40
0.0
 40
0.0
 40
0.0
 40
0.8664449205980829
 40
1.0
 40
1.0
 40
1.0
 40
1.0
 10
268.4513284521055
 20
53.5484449972713
 30
0.0
 10
268.7705051194552
 20
53.61773514941418
 30
0.0
 10
269.1388801422199
 20
53.69770578631867
 30
0.0
 10
269.5092202969374
 20
53.77457484515157
 30
0.0
 10
269.5586811057064
 20
53.78484109840755
 30
0.0
  0
LINE
  5
1EC
330
1F
100
AcDbEntity
  8
0
  6
Continuous
 62
     7
370
    15
100
AcDbLine
 10
269.5586811057
 20
53.7848410984
 30
0.0
 11
270.9121412407
 21
53.0035051937
 31
0.0
  0
SPLINE
  5
1ED
330
1F
100
AcDbEntity
  8
0
  6
Continuous
 62
     7
370
    15
100
AcDbSpline
210
0.0
220
0.0
230
1.0
 70
     8
 71
     3
 72
    14
 73
    10
 74
     0
 42
0.000000001
 43
0.00000001
 40
0.0
 40
0.0
 40
0.0
 40
0.0
 40
0.25
 40
0.25
 40
0.5
 40
0.5
 40
0.75
 40
0.75
 40
1.0
 40
1.0
 40
1.0
 40
1.0
 10
270.9121412406522
 20
53.00350519370572
 30
0.0
 10
270.9434033288103
 20
52.98545797435793
 30
0.0
 10
270.9656707009065
 20
52.96236865891762
 30
0.0
 10
270.9888240988947
 20
52.91375730564891
 30
0.0
 10
270.9903442688907
 20
52.8877575240838
 30
0.0
 10
270.9768990981198
 20
52.83762459469637
 30
0.0
 10
270.9621995924717
 20
52.81343427958498
 30
0.0
 10
270.9205545974961
 20
52.76848383681239
 30
0.0
 10
270.8942423139785
 20
52.74824992973063
 30
0.0
 10
270.8630619192338
 20
52.73024987098657
 30
0.0
  0
LINE
  5
1EE
330
1F
100
AcDbEntity
  8
0
  6
Continuous
 62
     7
370
    15
100
AcDbLine
 10
265.2592406783
 20
55.9652670141
 30
0.0
 11
264.7513199886
 21
55.6720506412
 31
0.0
  0
SPLINE
  5
1EF
330
1F
100
AcDbEntity
  8
0
  6
Continuous
 62
     7
370
    15
100
AcDbSpline
210
0.0
220
0.0
230
1.0
 70
     8
 71
     3
 72
    10
 73
     6
 74
     0
 42
0.000000001
 43
0.00000001
 40
0.0
 40
0.0
 40
0.0
 40
0.0
 40
0.40516634044918
 40
0.8114501709809778
 40
0.9999999999999999
 40
0.9999999999999999
 40
0.9999999999999999
 40
0.9999999999999999
 10
272.5739558415199
 20
49.63441260696077
 30
0.0
 10
272.5922757458832
 20
49.67333914157724
 30
0.0
 10
272.6289660827742
 20
49.75129957416209
 30
0.0
 10
272.6429797868038
 20
49.85886634329386
 30
0.0
 10
272.6248839302145
 20
49.91203381823641
 30
0.0
 10
272.619147922154
 20
49.9288867957854
 30
0.0
  0
LINE
  5
1F0
330
1F
100
AcDbEntity
  8
0
  6
Continuous
 62
     7
370
    15
100
AcDbLine
 10
272.468592343
 20
42.8787641391
 30
0.0
 11
270.7317478214
 21
43.8814231392
 31
0.0
  0
LWPOLYLINE
  5
1F1
330
1F
100
AcDbEntity
  8
0
  6
Continuous
 62
     7
370
     0
100
AcDbPolyline
 90
       24
 70
   128
 43
0.0
 10
250.9864654134
 20
37.6827885965
 10
251.2856363347
 20
38.868530885
 10
251.6561616227
 20
40.0635105211
 10
252.0955151011
 20
41.259580343
 10
252.6007013347
 20
42.4485857566
 10
253.1682760525
 20
43.6224203313
 10
253.7943696295
 20
44.7730810688
 10
254.4747134695
 20
45.8927229661
 10
255.2046691076
 20
46.973712501
 10
255.9792598342
 20
48.0086796764
 10
256.7932046254
 20
48.9905682675
 10
257.6409541485
 20
49.9126839302
 10
258.5167285959
 20
50.7687398415
 10
259.4145570909
 20
51.5528995623
 10
260.3283183963
 20
52.2598168292
 10
261.2517826478
 20
52.8846720041
 10
262.1786538279
 20
53.4232049341
 10
263.1026126916
 20
53.8717439961
 10
264.0173598492
 20
54.2272311294
 10
264.9166587151
 20
54.4872426851
 10
265.7943780274
 20
54.6500059499
 10
266.6445336495
 20
54.7144112325
 10
267.4613293697
 20
54.6800194289
 10
268.2391964177
 20
54.5470650165
  0
LWPOLYLINE
  5
1F2
330
1F
100
AcDbEntity
  8
0
  6
Continuous
 62
     7
370
     0
100
AcDbPolyline
 90
       24
 70
   128
 43
0.0
 10
251.3467985389
 20
37.353165043
 10
251.6298349413
 20
38.5330624746
 10
251.9857151168
 20
39.7240120927
 10
252.4119304352
 20
40.9176187901
 10
252.9054764677
 20
42.1054687298
 10
253.4628741656
 20
43.2791886546
 10
254.0801943843
 20
44.4305049109
 10
254.7530855798
 20
45.5513017707
 10
255.476804484
 20
46.6336786397
 10
256.2462495394
 20
47.6700057495
 10
257.0559968612
 20
48.6529779405
 10
257.9003384703
 20
49.5756661565
 10
258.7733225295
 20
50.4315662883
 10
259.6687952985
 20
51.2146450217
 10
260.5804445121
 20
51.9193823666
 10
261.501843876
 20
52.5408105686
 10
262.4264983661
 20
53.0745491263
 10
263.3478900128
 20
53.5168356704
 10
264.2595238465
 20
53.8645524847
 10
265.1549736812
 20
54.1152484832
 10
266.0279274135
 20
54.2671564881
 10
266.8722315169
 20
54.3192056867
 10
267.6819344184
 20
54.2710291796
 10
268.4513284521
 20
54.1229665673
  0
ARC
  5
1F3
330
1F
100
AcDbEntity
  8
0
  6
Continuous
 62
     7
370
     0
100
AcDbCircle
 10
249.0442605315
 20
47.9369599271
 30
0.0
 40
24.08009838421063
100
AcDbArc
 50
335.7900743209
 51
347.7261829788
  0
LWPOLYLINE
  5
1F4
330
1F
100
AcDbEntity
  8
0
  6
Continuous
 62
     7
370
     0
100
AcDbPolyline
 90
       24
 70
   128
 43
0.0
 10
268.2513354991
 20
33.2895794169
 10
267.666508583
 20
32.5133876903
 10
266.8568100088
 20
31.5323036336
 10
266.0126800384
 20
30.6115137281
 10
265.1400584771
 20
29.7574972044
 10
264.2450856141
 20
28.9762634354
 10
263.3340590156
 20
28.2733096509
 10
262.4133892118
 20
27.6535822557
 10
261.489554588
 20
27.1214420238
 10
260.5690557994
 20
26.6806334134
 10
259.658370028
 20
26.3342582184
 10
258.7639054056
 20
26.0847537428
 10
257.8919559222
 20
25.9338756496
 10
257.0486571379
 20
25.8826856079
 10
256.2399430092
 20
25.9315438215
 10
255.4715041341
 20
26.0801064945
 10
254.74874771
 20
26.327328251
 10
254.0767594849
 20
26.6714694902
 10
253.4602679713
 20
27.1101086276
 10
252.9036111738
 20
27.6401591352
 10
252.4107060636
 20
28.2578912591
 10
251.985021017
 20
28.9589582655
 10
251.6295514096
 20
29.738427026
 10
251.3467985389
 20
30.5908127303
  0
ARC
  5
1F5
330
1F
100
AcDbEntity
  8
0
  6
Continuous
 62
     7
370
     0
100
AcDbCircle
 10
265.7751978438
 20
47.89779983
 30
0.0
 40
7.017045977378094
100
AcDbArc
 50
14.3287300663
 51
43.5251561868
  0
LWPOLYLINE
  5
1F6
330
1F
100
AcDbEntity
  8
0
  6
Continuous
 62
     7
370
     0
100
AcDbPolyline
 90
       27
 70
   128
 43
0.0
 10
257.0138762664
 20
37.2435232222
 10
257.0513928295
 20
37.9675842054
 10
257.1633738058
 20
38.723984864
 10
257.348121678
 20
39.5012589348
 10
257.6028358565
 20
40.2876237354
 10
257.9236551341
 20
41.0711587769
 10
258.3057162177
 20
41.8399864668
 10
258.7432274504
 20
42.582452161
 10
259.2295566082
 20
43.2873008363
 10
259.7573314367
 20
43.9438477055
 10
260.3185514074
 20
44.5421401871
 10
260.9047089977
 20
45.073108777
 10
261.5069186561
 20
45.5287045327
 10
262.1160514978
 20
45.9020210869
 10
262.7228736901
 20
46.1873993412
 10
263.318186427
 20
46.380513252
 10
263.8929653742
 20
46.4784354095
 10
264.4384974689
 20
46.4796814135
 10
264.9465130005
 20
46.3842323758
 10
265.4093109714
 20
46.1935352066
 10
265.8198758361
 20
45.9104806806
 10
266.1719838498
 20
45.5393596158
 10
266.460297414
 20
45.0857978293
 10
266.6804459888
 20
44.5566708554
 10
266.8290923463
 20
43.9599997198
 10
266.9039831592
 20
43.3048293485
 10
266.9131093565
 20
43.0170206884
  0
LWPOLYLINE
  5
1F7
330
1F
100
AcDbEntity
  8
0
  6
Continuous
 62
     7
370
     0
100
AcDbPolyline
 90
       14
 70
   128
 43
0.0
 10
261.9135156933
 20
34.3565320646
 10
261.5069186561
 20
34.1458982345
 10
260.9047089977
 20
33.9061975184
 10
260.3185514074
 20
33.7604029599
 10
259.7573314367
 20
33.7107246558
 10
259.2295566082
 20
33.7579156785
 10
258.7432274504
 20
33.9012606602
 10
258.3057162177
 20
34.1385866372
 10
257.9236551341
 20
34.4662959895
 10
257.6028358565
 20
34.8794209775
 10
257.348121678
 20
35.3716990473
 10
257.1633738058
 20
35.9356677653
 10
257.0513928295
 20
36.5627779406
 10
257.0138762664
 20
37.2435232222
  0
LWPOLYLINE
  5
1F8
330
1F
100
AcDbEntity
  8
0
  6
Continuous
 62
     7
370
     0
100
AcDbPolyline
 90
       24
 70
   128
 43
0.0
 10
245.8069082412
 20
40.672883306
 10
246.1060791625
 20
41.8586255946
 10
246.4766044506
 20
43.0536052306
 10
246.9159579289
 20
44.2496750526
 10
247.4211441625
 20
45.4386804661
 10
247.9887188803
 20
46.6125150408
 10
248.6148124573
 20
47.7631757784
 10
249.2951562974
 20
48.8828176757
 10
250.0251119354
 20
49.9638072106
 10
250.799702662
 20
50.9987743859
 10
251.6136474532
 20
51.9806629771
 10
252.4613969763
 20
52.9027786397
 10
253.3371714237
 20
53.758834551
 10
254.2349999187
 20
54.5429942718
 10
255.1487612241
 20
55.2499115387
 10
256.0722254756
 20
55.8747667137
 10
256.9990966557
 20
56.4132996437
 10
257.9230555194
 20
56.8618387057
 10
258.837802677
 20
57.217325839
 10
259.737101543
 20
57.4773373946
 10
260.6148208552
 20
57.6401006595
 10
261.4649764773
 20
57.7045059421
 10
262.2817721975
 20
57.6701141385
 10
263.0596392456
 20
57.5371597261
  0
LWPOLYLINE
  5
1F9
330
1F
100
AcDbEntity
  8
0
  6
Continuous
 62
     7
370
     0
100
AcDbPolyline
 90
       19
 70
   128
 43
0.0
 10
249.2788854424
 20
39.7631135808
 10
249.5753840295
 20
40.911722992
 10
249.9472732848
 20
42.0688555116
 10
250.391500749
 20
43.2250134195
 10
250.9044202123
 20
44.3707069956
 10
251.4818216422
 20
45.4965324106
 10
252.1189657397
 20
46.5932489126
 10
252.8106228392
 20
47.6518546752
 10
253.5511158334
 20
48.6636606841
 10
254.3343667711
 20
49.6203620564
 10
255.1539467448
 20
50.514106207
 10
256.0031286588
 20
51.3375573023
 10
256.8749424456
 20
52.0839564726
 10
257.7622322756
 20
52.7471772889
 10
258.657715292
 20
53.3217760485
 10
259.5540413888
 20
53.8030364566
 10
260.4438535398
 20
54.1870083376
 10
261.3198481851
 20
54.4705400582
 10
261.3889070789
 20
54.4887543457
  0
LWPOLYLINE
  5
1FA
330
1F
100
AcDbEntity
  8
0
  6
Continuous
 62
     7
370
     0
100
AcDbPolyline
 90
       22
 70
   128
 43
0.0
 10
248.7011008436
 20
39.7561288764
 10
248.9817444809
 20
40.8758439484
 10
249.3325978716
 20
42.0047091653
 10
249.7510668984
 20
43.1343779958
 10
250.2340575118
 20
44.2564979671
 10
250.777998607
 20
45.3627724204
 10
251.378868427
 20
46.4450218547
 10
252.0322242992
 20
47.4952444036
 10
252.7332354828
 20
48.505674999
 10
253.4767188864
 20
49.4688427839
 10
254.25717739
 20
50.3776263503
 10
255.0688404896
 20
51.2253063924
 10
255.9057069627
 20
52.005615388
 10
256.7615892397
 20
52.7127839385
 10
257.630159153
 20
53.3415834263
 10
258.5049947263
 20
53.8873646744
 10
259.3796276563
 20
54.3460923201
 10
260.2475911382
 20
54.7143746526
 10
261.1024676793
 20
54.9894886894
 10
261.9379365483
 20
55.1694003102
 10
262.7478205091
 20
55.2527792959
 10
263.4620193359
 20
55.2439121796
  0
ARC
  5
1FB
330
1F
100
AcDbEntity
  8
0
  6
Continuous
 62
     7
370
     0
100
AcDbCircle
 10
262.3114527159
 20
36.981749157
 30
0.0
 40
2.482986920824671
100
AcDbArc
 50
173.9482268812
 51
234.7395927254
  0
LWPOLYLINE
  5
1FC
330
1F
100
AcDbEntity
  8
0
  6
Continuous
 62
     7
370
     0
100
AcDbPolyline
 90
       18
 70
   128
 43
0.0
 10
265.8776341287
 20
43.6147878136
 10
265.8317601475
 20
43.6403158444
 10
265.4350192215
 20
43.7925506742
 10
264.9944330344
 20
43.8487051577
 10
264.5193919157
 20
43.8075824596
 10
264.0200205423
 20
43.6700590388
 10
263.5069621479
 20
43.4390659682
 10
262.9911516815
 20
43.1195264641
 10
262.4835827477
 20
42.7182509563
 10
261.995073297
 20
42.2437919355
 10
261.5360350603
 20
41.7062616721
 10
261.1162516407
 20
41.1171166903
 10
260.7446699928
 20
40.4889135926
 10
260.4292097345
 20
39.8350414374
 10
260.1765943534
 20
39.1694363745
 10
259.9922079078
 20
38.5062846201
 10
259.8799802747
 20
37.8597201026
 10
259.8423033912
 20
37.2435232222
  0
LWPOLYLINE
  5
1FD
330
1F
100
AcDbEntity
  8
0
  6
Continuous
 62
     7
370
     0
100
AcDbPolyline
 90
       12
 70
   128
 43
0.0
 10
265.6693923769
 20
34.6258925298
 10
265.9006071012
 20
34.3336085321
 10
266.2011355753
 20
34.1436103956
 10
266.5587402018
 20
34.0636348939
 10
266.9588592272
 20
34.0969386502
 10
267.385199701
 20
34.2421655268
 10
267.8204009283
 20
34.4934018476
 10
268.2467414022
 20
34.8404172044
 10
268.6468604276
 20
35.2690810417
 10
269.004465054
 20
35.7619380566
 10
269.3049935282
 20
36.2989189835
 10
269.5362082525
 20
36.8581578197
  0
LWPOLYLINE
  5
1FE
330
1F
100
AcDbEntity
  8
0
  6
Continuous
 62
     7
370
     0
100
AcDbPolyline
 90
       12
 70
   128
 43
0.0
 10
269.5362551432
 20
39.0650735152
 10
269.3050466455
 20
39.3573918235
 10
269.0045161102
 20
39.5474171943
 10
268.6469023
 20
39.6274110616
 10
268.2467686289
 20
39.5941157664
 10
267.8204100837
 20
39.4488872216
 10
267.3851896293
 20
39.1976396939
 10
266.9588311214
 20
38.8506049518
 10
266.5586975234
 20
38.4219155888
 10
266.2010838192
 20
37.9290294898
 10
265.9005534183
 20
37.392018878
 10
265.6693450781
 20
36.8327528974
  0
LINE
  5
1FF
330
1F
100
AcDbEntity
  8
0
  6
Continuous
 62
     7
370
     0
100
AcDbLine
 10
253.9733171073
 20
38.1215899001
 30
0.0
 11
253.4075397351
 21
38.4482062248
 31
0.0
  0
LWPOLYLINE
  5
200
330
1F
100
AcDbEntity
  8
0
  6
Continuous
 62
     7
370
     0
100
AcDbPolyline
 90
        3
 70
   128
 43
0.0
 10
248.2906525086
 20
38.8010244143
 10
248.2899463535
 20
38.9222624021
 10
248.3147713313
 20
39.6572983752
  0
LINE
  5
201
330
1F
100
AcDbEntity
  8
0
  6
Continuous
 62
     7
370
     0
100
AcDbLine
 10
248.488734682
 20
36.0210837035
 30
0.0
 11
253.9733171073
 21
32.8549016634
 31
0.0
  0
LINE
  5
202
330
1F
100
AcDbEntity
  8
0
  6
Continuous
 62
     7
370
     0
100
AcDbLine
 10
248.3694958664
 20
35.9522262234
 30
0.0
 11
248.488734682
 21
36.0210837035
 31
0.0
  0
LINE
  5
203
330
1F
100
AcDbEntity
  8
0
  6
Continuous
 62
     7
370
     0
100
AcDbLine
 10
264.8450838681
 20
34.9571657659
 30
0.0
 11
264.9157945462
 21
34.6932755318
 31
0.0
  0
LWPOLYLINE
  5
204
330
1F
100
AcDbEntity
  8
0
  6
Continuous
 62
     7
370
     0
100
AcDbPolyline
 90
        3
 70
   128
 43
0.0
 10
269.104214124
 20
39.0187041836
 10
268.8677815358
 20
39.2810973287
 10
268.7420709406
 20
39.3627224002
  0
LWPOLYLINE
  5
205
330
1F
100
AcDbEntity
  8
0
  6
Continuous
 62
     7
370
     0
100
AcDbPolyline
 90
       10
 70
   128
 43
0.0
 10
266.015780023
 20
34.5863511129
 10
266.2184350552
 20
34.499666988
 10
266.5776347972
 20
34.4588388962
 10
266.9745094177
 20
34.5342812837
 10
267.3906682803
 20
34.7224982517
 10
267.8068271429
 20
35.014768079
 10
268.2037017634
 20
35.3975473748
 10
268.5629015054
 20
35.853098661
 10
268.8677815358
 20
36.3603123037
 10
269.104214124
 20
36.8956847046
  0
LWPOLYLINE
  5
206
330
1F
100
AcDbEntity
  8
0
  6
Continuous
 62
     7
370
     0
100
AcDbPolyline
 90
       19
 70
   128
 43
0.0
 10
227.0180634951
 20
55.2142257795
 10
227.055559662
 20
55.8964898284
 10
227.1674065927
 20
56.610372303
 10
227.3516905554
 20
57.3436584763
 10
227.6052584003
 20
58.0838016185
 10
227.9237715112
 20
58.8181376753
 10
228.3017800407
 20
59.534101953
 10
228.7328161578
 20
60.2194441046
 10
229.2095047151
 20
60.8624377356
 10
229.7236894394
 20
61.4520810468
 10
230.2665724873
 20
61.9782850777
 10
230.8288649793
 20
62.4320463314
 10
231.4009459352
 20
62.805600827
 10
231.973026891
 20
63.0925569436
 10
232.5353193831
 20
63.2880047825
 10
233.078202431
 20
63.3886001769
 10
233.5923871552
 20
63.3926219117
 10
234.0690757126
 20
63.300001174
 10
234.1636996903
 20
63.2683686796
  0
ARC
  5
207
330
1F
100
AcDbEntity
  8
0
  6
Continuous
 62
     7
370
     0
100
AcDbCircle
 10
230.3402686611
 20
54.9512754359
 30
0.0
 40
3.332595092178237
100
AcDbArc
 50
175.4745113291
 51
223.5850230679
  0
LINE
  5
208
330
1F
100
AcDbEntity
  8
0
  6
Continuous
 62
     7
370
     0
100
AcDbLine
 10
264.6763104873
 20
35.0545965647
 30
0.0
 11
264.8450838681
 21
34.9571657659
 31
0.0
  0
ARC
  5
209
330
1F
100
AcDbEntity
  8
0
  6
Continuous
 62
     7
370
     0
100
AcDbCircle
 10
258.3069935427
 20
32.4498562831
 30
0.0
 40
7.619891047577501
100
AcDbArc
 50
196.113669428
 51
214.4070138912
  0
LINE
  5
20A
330
1F
100
AcDbEntity
  8
0
  6
Continuous
 62
     7
370
     0
100
AcDbLine
 10
253.4076316824
 20
31.8751057692
 30
0.0
 11
248.1573638321
 21
34.9060208843
 31
0.0
  0
LINE
  5
20B
330
1F
100
AcDbEntity
  8
0
  6
Continuous
 62
     7
370
     0
100
AcDbLine
 10
270.2898060832
 20
37.7956263567
 30
0.0
 11
270.0776740488
 21
37.9778757796
 31
0.0
  0
LINE
  5
20C
330
1F
100
AcDbEntity
  8
0
  6
Continuous
 62
     7
370
     0
100
AcDbLine
 10
250.1424613214
 20
32.4935113345
 30
0.0
 11
250.0637739695
 21
32.736853543
 31
0.0
  0
LWPOLYLINE
  5
20D
330
1F
100
AcDbEntity
  8
0
  6
Continuous
 62
     7
370
     0
100
AcDbPolyline
 90
        3
 70
   128
 43
0.0
 10
249.7812533603
 20
31.9531955103
 10
249.5665133061
 20
32.4041290575
 10
249.2788854424
 20
33.1899600451
  0
ARC
  5
20E
330
1F
100
AcDbEntity
  8
0
  6
Continuous
 62
     7
370
     0
100
AcDbCircle
 10
255.3922889162
 20
35.0797436033
 30
0.0
 40
6.954834840953756
100
AcDbArc
 50
195.8265783804
 51
213.7797996269
  0
ARC
  5
20F
330
1F
100
AcDbEntity
  8
0
  6
Continuous
 62
     7
370
     0
100
AcDbCircle
 10
253.1414043013
 20
35.445333181
 30
0.0
 40
7.634804122837624
100
AcDbArc
 50
196.1233805023
 51
214.1049002462
  0
LINE
  5
210
330
1F
100
AcDbEntity
  8
0
  6
Continuous
 62
     7
370
     0
100
AcDbLine
 10
268.1331304006
 20
39.1004369334
 30
0.0
 11
270.0776740488
 21
37.9778757796
 31
0.0
  0
LINE
  5
211
330
1F
100
AcDbEntity
  8
0
  6
Continuous
 62
     7
370
     0
100
AcDbLine
 10
270.7317478289
 20
42.5292316242
 30
0.0
 11
271.2974332464
 21
42.2026683837
 31
0.0
  0
OLE2FRAME
  5
212
330
1F
100
AcDbEntity
  8
0
100
AcDbOle2Frame
 70
     2
  3
Paintbrush-Bild
 10
13.8511154363
 20
38.264191557
 30
0.0
 11
51.6290888628
 21
31.9806341108
 31
0.0
 71
     2
 72
     0
 73
     1
 90
    12928
310
80552BED0767C5B32B40DDAF6807D121434000000000000000006FFBDDFB85D0
310
4940DDAF6807D121434000000000000000006FFBDDFB85D04940416F4BD60AFB
310
3F4000000000000000002BED0767C5B32B40416F4BD60AFB3F40000000000000
310
0000000000000100000000010000010000000100000000000100000000320000
310
D0CF11E0A1B11AE1000000000000000000000000000000003E000300FEFF0900
310
0600000000000000000000000100000001000000000000000010000002000000
310
01000000FEFFFFFF0000000000000000FFFFFFFFFFFFFFFFFFFFFFFFFFFFFFFF
310
FFFFFFFFFFFFFFFFFFFFFFFFFFFFFFFFFFFFFFFFFFFFFFFFFFFFFFFFFFFFFFFF
310
FFFFFFFFFFFFFFFFFFFFFFFFFFFFFFFFFFFFFFFFFFFFFFFFFFFFFFFFFFFFFFFF
310
FFFFFFFFFFFFFFFFFFFFFFFFFFFFFFFFFFFFFFFFFFFFFFFFFFFFFFFFFFFFFFFF
310
FFFFFFFFFFFFFFFFFFFFFFFFFFFFFFFFFFFFFFFFFFFFFFFFFFFFFFFFFFFFFFFF
310
FFFFFFFFFFFFFFFFFFFFFFFFFFFFFFFFFFFFFFFFFFFFFFFFFFFFFFFFFFFFFFFF
310
FFFFFFFFFFFFFFFFFFFFFFFFFFFFFFFFFFFFFFFFFFFFFFFFFFFFFFFFFFFFFFFF
310
FFFFFFFFFFFFFFFFFFFFFFFFFFFFFFFFFFFFFFFFFFFFFFFFFFFFFFFFFFFFFFFF
310
FFFFFFFFFFFFFFFFFFFFFFFFFFFFFFFFFFFFFFFFFFFFFFFFFFFFFFFFFFFFFFFF
310
FFFFFFFFFFFFFFFFFFFFFFFFFFFFFFFFFFFFFFFFFFFFFFFFFFFFFFFFFFFFFFFF
310
FFFFFFFFFFFFFFFFFFFFFFFFFFFFFFFFFFFFFFFFFFFFFFFFFFFFFFFFFFFFFFFF
310
FFFFFFFFFFFFFFFFFFFFFFFFFFFFFFFFFFFFFFFFFFFFFFFFFFFFFFFFFFFFFFFF
310
FFFFFFFFFFFFFFFFFFFFFFFFFFFFFFFFFFFFFFFFFFFFFFFFFFFFFFFFFFFFFFFF
310
FFFFFFFFFFFFFFFFFFFFFFFFFFFFFFFFFFFFFFFFFFFFFFFFFFFFFFFFFFFFFFFF
310
FDFFFFFFFEFFFFFFFEFFFFFFFEFFFFFF05000000060000000700000008000000
310
090000000A0000000B0000000C0000000D0000000E0000000F00000010000000
310
11000000120000001300000014000000150000001600000017000000FEFFFFFF
310
FFFFFFFFFFFFFFFFFFFFFFFFFFFFFFFFFFFFFFFFFFFFFFFFFFFFFFFFFFFFFFFF
310
FFFFFFFFFFFFFFFFFFFFFFFFFFFFFFFFFFFFFFFFFFFFFFFFFFFFFFFFFFFFFFFF
310
FFFFFFFFFFFFFFFFFFFFFFFFFFFFFFFFFFFFFFFFFFFFFFFFFFFFFFFFFFFFFFFF
310
FFFFFFFFFFFFFFFFFFFFFFFFFFFFFFFFFFFFFFFFFFFFFFFFFFFFFFFFFFFFFFFF
310
FFFFFFFFFFFFFFFFFFFFFFFFFFFFFFFFFFFFFFFFFFFFFFFFFFFFFFFFFFFFFFFF
310
FFFFFFFFFFFFFFFFFFFFFFFFFFFFFFFFFFFFFFFFFFFFFFFFFFFFFFFFFFFFFFFF
310
FFFFFFFFFFFFFFFFFFFFFFFFFFFFFFFFFFFFFFFFFFFFFFFFFFFFFFFFFFFFFFFF
310
FFFFFFFFFFFFFFFFFFFFFFFFFFFFFFFFFFFFFFFFFFFFFFFFFFFFFFFFFFFFFFFF
310
FFFFFFFFFFFFFFFFFFFFFFFFFFFFFFFFFFFFFFFFFFFFFFFFFFFFFFFFFFFFFFFF
310
FFFFFFFFFFFFFFFFFFFFFFFFFFFFFFFFFFFFFFFFFFFFFFFFFFFFFFFFFFFFFFFF
310
FFFFFFFFFFFFFFFFFFFFFFFFFFFFFFFFFFFFFFFFFFFFFFFFFFFFFFFFFFFFFFFF
310
FFFFFFFFFFFFFFFFFFFFFFFFFFFFFFFFFFFFFFFFFFFFFFFFFFFFFFFFFFFFFFFF
310
FFFFFFFFFFFFFFFFFFFFFFFFFFFFFFFFFFFFFFFFFFFFFFFFFFFFFFFFFFFFFFFF
310
52006F006F007400200045006E00740072007900000000000000000000000000
310
0000000000000000000000000000000000000000000000000000000000000000
310
16000500FFFFFFFFFFFFFFFF020000000A00030000000000C000000000000046
310
00000000000000000000000080F371B8E71ED20103000000C000000000000000
310
01004F006C006500000000000000000000000000000000000000000000000000
310
0000000000000000000000000000000000000000000000000000000000000000
310
0A000200FFFFFFFFFFFFFFFFFFFFFFFF00000000000000000000000000000000
310
0000000000000000000000000000000000000000000000001400000000000000
310
010043006F006D0070004F0062006A0000000000000000000000000000000000
310
0000000000000000000000000000000000000000000000000000000000000000
310
120002010100000003000000FFFFFFFF00000000000000000000000000000000
310
0000000000000000000000000000000000000000010000004D00000000000000
310
01004F006C006500310030004E00610074006900760065000000000000000000
310
0000000000000000000000000000000000000000000000000000000000000000
310
1A000200FFFFFFFFFFFFFFFFFFFFFFFF00000000000000000000000000000000
310
0000000000000000000000000000000000000000040000002426000000000000
310
FEFFFFFF02000000FEFFFFFFFFFFFFFFFFFFFFFFFFFFFFFFFFFFFFFFFFFFFFFF
310
FFFFFFFFFFFFFFFFFFFFFFFFFFFFFFFFFFFFFFFFFFFFFFFFFFFFFFFFFFFFFFFF
310
FFFFFFFFFFFFFFFFFFFFFFFFFFFFFFFFFFFFFFFFFFFFFFFFFFFFFFFFFFFFFFFF
310
FFFFFFFFFFFFFFFFFFFFFFFFFFFFFFFFFFFFFFFFFFFFFFFFFFFFFFFFFFFFFFFF
310
FFFFFFFFFFFFFFFFFFFFFFFFFFFFFFFFFFFFFFFFFFFFFFFFFFFFFFFFFFFFFFFF
310
FFFFFFFFFFFFFFFFFFFFFFFFFFFFFFFFFFFFFFFFFFFFFFFFFFFFFFFFFFFFFFFF
310
FFFFFFFFFFFFFFFFFFFFFFFFFFFFFFFFFFFFFFFFFFFFFFFFFFFFFFFFFFFFFFFF
310
FFFFFFFFFFFFFFFFFFFFFFFFFFFFFFFFFFFFFFFFFFFFFFFFFFFFFFFFFFFFFFFF
310
FFFFFFFFFFFFFFFFFFFFFFFFFFFFFFFFFFFFFFFFFFFFFFFFFFFFFFFFFFFFFFFF
310
FFFFFFFFFFFFFFFFFFFFFFFFFFFFFFFFFFFFFFFFFFFFFFFFFFFFFFFFFFFFFFFF
310
FFFFFFFFFFFFFFFFFFFFFFFFFFFFFFFFFFFFFFFFFFFFFFFFFFFFFFFFFFFFFFFF
310
FFFFFFFFFFFFFFFFFFFFFFFFFFFFFFFFFFFFFFFFFFFFFFFFFFFFFFFFFFFFFFFF
310
FFFFFFFFFFFFFFFFFFFFFFFFFFFFFFFFFFFFFFFFFFFFFFFFFFFFFFFFFFFFFFFF
310
FFFFFFFFFFFFFFFFFFFFFFFFFFFFFFFFFFFFFFFFFFFFFFFFFFFFFFFFFFFFFFFF
310
FFFFFFFFFFFFFFFFFFFFFFFFFFFFFFFFFFFFFFFFFFFFFFFFFFFFFFFFFFFFFFFF
310
FFFFFFFFFFFFFFFFFFFFFFFFFFFFFFFFFFFFFFFFFFFFFFFFFFFFFFFFFFFFFFFF
310
0100000200000000000000000000000000000000000000000000000000000000
310
0000000000000000000000000000000000000000000000000000000000000000
310
0100FEFF030A0000FFFFFFFF0A00030000000000C00000000000004607000000
310
5042727573680007000000504272757368000700000050427275736800F439B2
310
7100000000000000000000000000000000000000000000000000000000000000
310
0000000000000000000000000000000000000000000000000000000000000000
310
0000000000000000000000000000000000000000000000000000000000000000
310
0000000000000000000000000000000000000000000000000000000000000000
310
0000000000000000000000000000000000000000000000000000000000000000
310
0000000000000000000000000000000000000000000000000000000000000000
310
0000000000000000000000000000000000000000000000000000000000000000
310
0000000000000000000000000000000000000000000000000000000000000000
310
0000000000000000000000000000000000000000000000000000000000000000
310
0000000000000000000000000000000000000000000000000000000000000000
310
0000000000000000000000000000000000000000000000000000000000000000
310
0000000000000000000000000000000000000000000000000000000000000000
310
20260000424D0E260000000000003E00000028000000B40200006E0000000100
310
01000000000000000000130B0000130B00000200000002000000000000FFFFFF
310
FFFFFFFFFFFFFFFFFFFFFFFFFFFFFFFFFFFFFFFFFFFFFFFFFFFFFFFFFFFFFFFF
310
FFFFFFFFFFFFFFFFFFFFFFFFFFFFFFFFFFFFFFFFFFFFFFFFFFFFFFFFFFFFFFFF
310
FFFFFFFFFFFFFFFFFFFFFFFFFFFFFFFFFFFFFFFFFFFFFFFFF000FFFFFFFFFFFF
310
FFFFFFFFFFFFFFFFFFFFFFFFFFFFFFFFFFFFFFFFFFFFFFFFFFFFFFFFFFFFFFFF
310
FFFFFFFFFFFFFFFFFFFFFFFFFFFFFFFFFFFFFFFFFFFFFFFFFFFFFFFFFFFFFFFF
310
FFFFFFFFFFFFFFFFFFFFFFFFFFFFFFFFF000FFFFFFFFFFFFFFFFFFFFFFFFFFFF
310
FFFFFFFFFFFFFFFFFFFFFFFFFFFFFFFFFFFFFFFFFFFFFFFFFFFFFFFFFFFFFFFF
310
FFFFFFFFFFFFFFFFFFFFFFFFFFFFFFFFFFFFFFFFFFFFFFFFFFFFFFFFFFFFFFFF
310
FFFFFFFFFFFFFFFFF000FFFFFFFFFFFFFFFFFFFFFFFFFFFFFFFFFFFFFFFFFFFF
310
FFFFFFFFFFFFFFFFFFFFFFFFFFFFFFFFFFFFFFFFFFFFFFFFFFFFFFFFFFFFFFFF
310
FFFFFFFFFFFFFFFFFFFFFFFFFFFFFFFFFFFFFFFFFFFFFFFFFFFFFFFFFFFFFFFF
310
F000FFFFFFFFFFFFFFFFFFFFFFFFFFFFFFFFFFFFFFFFFFFFFFFFFFFFFFFFFFFF
310
FFFFFFFFFFFFFFFFFFFFFFFFFFFFFFFFFFFFFFFFFFFFFFFFFFFFFFFFFFFFFFFF
310
FFFFFFFFFFFFFFFFFFFFFFFFFFFFFFFFFFFFFFFFFFFFFFFFF000FFFFFFFFFFFF
310
FFFFFFFFFFFFFFFFFFFFFFFFFFFFFFFFFFFFFFFFFFFFFFFFFFFFFFFFFFFFFFFF
310
FFFFFFFFFFFFFFFFFFFFFFFFFFFFFFFFFFFFFFFFFFFFFFFFFFFFFFFFFFFFFFFF
310
FFFFFFFFFFFFFFFFFFFFFFFFFFFFFFFFF000FFFFFFFFFFFFFFFFFFFFFFFFFFFF
310
FFFFFFFFFFFFFFFFFFFFFFFFFFFFFFFFFFFFFFFFFFFFFFFFFFFFFFFFFFFFFFFF
310
FFFFFFFFFFFFFFFFFFFFFFFFFFFFFFFFFFFFFFFFFFFFFFFFFFFFFFFFFFFFFFFF
310
FFFFFFFFFFFFFFFFF000FFFFFFFFFFFFFFFFFFFFFFFFFFFFFFFFFFFFFFFFFFFF
310
FFFFFFFFFFFFFFFFFFFFFFFFFFFFFFFFFFFFFFFFFFFFFFFFFFFFFFFFFFFFFFFF
310
FFFFFFFFFFFFFFFFFFFFFFFFFFFFFFFFFFFFFFFFFFFFFFFFFFFFFFFFFFFFFFFF
310
F000FFFFFFFFFFFFFFFFFFFFFFFFFFFFFFFFFFFFFFFFFFFFFFFFFFFFFFFFFFFF
310
FFFFFFFFFFFFFFFFFFFFFFFFFFFFFFFFFFFFFFFFFFFFFFFFFFFFFFFFFFFFFFFF
310
FFFFFFFFFFFFFFFFFFFFFFFFFFFFFFFFFFFFFFFFFFFFFFFFF000FFFFFFFFFFFF
310
FFFFFFFFFFFFFFFFFFFFFFFFFFFFFFFFFFFFFFFFFFFFFFFFFFFFFFFFFFFFFFFF
310
FFFFFFFFFFFFFFFFFFFFFFFFFFFFFFFFFFFFFFFFFFFFFFFFFFFFFFFFFFFFFFFF
310
FFFFFFFFFFFFFFFFFFFFFFFFFFFFFFFFF000FFFFFFFFFFFFFFFFFFFFFFFFFFFF
310
FFFFFFFFFFFFFFFFFFFFFFFFFFFFFFFFFFFFFFFFFFFFFFFFFFFFFFFFFFFFFFFF
310
FFFFFFFFFFFFFFFFFFFFFFFFFFFFFFFFFFFFFFFFFFFFFFFFFFFFFFFFFFFFFFFF
310
FFFFFFFFFFFFFFFFF000FFFFFFFFFFFFFFFFFFFFFFFFFFFFFFFFFFFFFFFFFFFF
310
FFFFFFFFFFFFFFFFFFFFFFFFFFFFFFFFFFFFFFFFFFFFFFFFFFFFFFFFFFFFFFFF
310
FFFFFFFFFFFFFFFFFFFFFFFFFFFFFFFFFFFFFFFFFFFFFFFFFFFFFFFFFFFFFFFF
310
F000FFFFFFFFFFFFFFFFFFFFFFFFFFFFFFFFFFFFFFFFFFFFFFFFFFFFFFFFFFFF
310
FFFFFFFFFFFFFFFFFFFFFFFFFFFFFFFFFFFFFFFFFFFFFFFFFFFFFFFFFFFFFFFF
310
FFFFFFFFFFFFFFFFFFFFFFFFFFFFFFFFFFFFFFFFFFFFFFFFF000FFFFFFFFFFFF
310
FFFFFFFFFFFFFFFFFFFFFFFFFFFFFFFFFFFFFFFFFFFFFFFFFFFFFFFFFFFFFFFF
310
FFFFFFFFFFFFFFFFFFFFFFFFFFFFFFFFFFFFFFFFFFFFFFFFFFFFFFFFFFFFFFFF
310
FFFFFFFFFFFFFFFFFFFFFFFFFFFFFFFFF000FFFFFFFFFFFFFFFFFFFFFFFFFFFF
310
FFFFFFFFFFFFFFFFFFFFFFFFFFFFFFFFFFFFFFFFFFFFFFFFFFFFFFFFFFFFFFFF
310
FFFFFFFFFFFFFFFFFFFFFFFFFFFFFFFFFFFFFFFFFFFFFFFFFFFFFFFFFFFFFFFF
310
FFFFFFFFFFFFFFFFF000FFFFFFFFFFFFFFFFFFFFFFFFFFFFFFFFFFFFFFFFFFFF
310
FFFFFFFFFFFFFFFFFFFFFFFFFFFFFFFFFFFFFFFFFFFFFFFFFFFFFFFFFFFFFFFF
310
FFFFFFFFFFFFFFFFFFFFFFFFFFFFFFFFFFFFFFFFFFFFFFFFFFFFFFFFFFFFFFFF
310
F000FFFFFFFFFFFFFFFFFFFFFFFFFFFFFFFFFFFFFFFFFFFFFFFFFFFFFFFFFFFF
310
FFFFFFFFFFFFFFFFFFFFFFFFFFFFFFFFFFFFFFFFFFFFFFFFFFFFFFFFFFFFFFFF
310
FFFFFFFFFFFFFFFFFFFFFFFFFFFFFFFFFFFFFFFFFFFFFFFFF000FFFFFFFFFFFF
310
FFFFFFFFFFFFFFFFFFFFFFFFFFFFFFFFFFFFFFFFFFFFFFFFFFFFFFFFFFFFFFFF
310
FFFFFFFFFFFFFFFFFFFFFFFFFFFFFFFFFFFFFFFFFFFFFFFFFFFFFFFFFFFFFFFF
310
FFFFFFFFFFFFFFFFFFFFFFFFFFFFFFFFF000FFFFFFFFFFFFFFFFFFFFFFFFFFFF
310
FFFFFFFFFFFFFFFFFFFFFFFFFFFFFFFFFFFFFFFFFFFFFFFFFFFFFFFFFFFFFFFF
310
FFFFFFFFFFFFFFFFFFFFFFFFFFFFFFFFFFFFFFFFFFFFFFFFFFFFFFFFFFFFFFFF
310
FFFFFFFFFFFFFFFFF000FFFFF80003FFFFFFFFFFFFFFFFFFFFFFFFFFFFFFFFFF
310
FFFFF00007FFFFFFFFFF00007FFFFFF800000000000000007FFFFFFFFFFFFFFF
310
FFFFFFFC001FFFFFFFFFFFFFFC001FFFFFFFFFFFFFFFFFFFFFFFFFFE0007FFFF
310
F000FFFF8000007FFFFFFFF8000FFFFFC0007FFFFF80007FFFFF0000007FFFFF
310
FFF8000007FFFFF800000000000000007FFFFFF0001FFFFFFFFFFFC00001FFFF
310
FFFFFFFFC00001FFFFFFFF000000000003FFFFE000007FFFF000FFFE0000000F
310
FFFFFFF0000FFFFF80007FFFFF80007FFFFC0000001FFFFFFFC0000001FFFFF8
310
00000000000000007FFFFFF0001FFFFFFFFFFE0000003FFFFFFFFFFE0000003F
310
FFFFFF000000000003FFFF0000000FFFF000FFF800000003FFFFFFF00007FFFF
310
80007FFFFF80007FFFF000000007FFFFFF000000003FFFF80000000000000000
310
7FFFFFF0001FFFFFFFFFF80000000FFFFFFFFFF80000000FFFFFFF0000000000
310
03FFFC00000003FFF000FFE000000000FFFFFFF00007FFFF80003FFFFF80007F
310
FFC000000001FFFFFC000000001FFFF800000000000000007FFFFFF0001FFFFF
310
FFFFE000000003FFFFFFFFE000000003FFFFFF000000000003FFF000000000FF
310
F000FF80000000007FFFFFF00007FFFF80003FFFFF80007FFF8000000000FFFF
310
F80000000007FFF800000000000000007FFFFFF0001FFFFFFFFFC000000001FF
310
FFFFFFC000000001FFFFFF000000000003FFC0000000007FF000FF0000000000
310
3FFFFFE00007FFFF00003FFFFF80007FFE00000000003FFFF00000000003FFF8
310
00000000000000007FFFFFF0001FFFFFFFFF8000000000FFFFFFFF8000000000
310
FFFFFF000000000003FF80000000003FF000FE00000000001FFFFFE00003FFFF
310
00003FFFFF80007FFC00000000001FFFE00000000001FFF8000001FFFE000000
310
7FFFFFF0001FFFFFFFFE00000000003FFFFFFE00000000003FFFFF0000000000
310
03FF00000000001FF000FC00000000000FFFFFE00003FFFF00001FFFFF80007F
310
F800000000001FFFC00000000000FFF8000001FFFE0000007FFFFFF0001FFFFF
310
FFFC00000000001FFFFFFC00000000001FFFFF000000000003FE00000000000F
310
F000F8000000000007FFFFE00003FFFF00001FFFFF80007FF800000000000FFF
310
800000000000FFF8000001FFFE0000007FFFFFF0001FFFFFFFF800000000000F
310
FFFFF800000000000FFFFF000000000003FC000000000007F000F80000000000
310
03FFFFC00003FFFE00001FFFFF80007FF0000000000007FF0000000000007FF8
310
000001FFFE0000007FFFFFF0001FFFFFFFF0000000000007FFFFF00000000000
310
07FFFF000000000003F8000000000003F000F0000000000003FFFFC00001FFFE
310
00001FFFFF80007FE0000000000007FE0000000000003FF8000001FFFE000000
310
7FFFFFF0001FFFFFFFF0000000000007FFFFF0000000000007FFFF0000000000
310
03F800001F800003F000E00001FFF00001FFFFC00001FFFE00000FFFFF80007F
310
E00001FFE00003FE00001FFF00003FF8000001FFFE0000007FFFFFF0001FFFFF
310
FFE000003E000003FFFFE000003E000003FFFF000000000003F00001FFF80001
310
F000E00007FFFC0001FFFFC00001FFFE00000FFFFF80007FC0000FFFFC0003FC
310
0000FFFFC0001FF8000001FFFE0000007FFFFFF0001FFFFFFFC00003FFE00001
310
FFFFC00003FFE00001FFFF0001FFFFFFFFF00007FFFE0001F000E0000FFFFF00
310
00FFFF800001FFFC00000FFFFF80007FC0001FFFFE0001FC0001FFFFE0001FF8
310
000001FFFE0000007FFFFFF0001FFFFFFF80000FFFF80000FFFF80000FFFF800
310
00FFFF0003FFFFFFFFE0000FFFFF8000F000C0003FFFFF8000FFFF800000FFFC
310
000007FFFF80007F80003FFFFF0001FC0003FFFFF0001FF8000001FFFE000000
310
7FFFFFF0001FFFFFFF80003FFFFE0000FFFF80003FFFFE0000FFFF0003FFFFFF
310
FFE0003FFFFF8000F000C0003FFFFF8000FFFF800000FFFC000007FFFF80007F
310
80007FFFFF8001F80007FFFFF8000FF8000001FFFE0000007FFFFFF0001FFFFF
310
FF00007FFFFF00007FFF00007FFFFF00007FFF0003FFFFFFFFE0003FFFFFC000
310
F000C0007FFFFFC000FFFF000000FFFC000007FFFF80007F8000FFFFFF8000F8
310
000FFFFFF8000FF8000001FFFE0000007FFFFFF0001FFFFFFF0000FFFFFF8000
310
7FFF0000FFFFFF80007FFF0003FFFFFFFFC0007FFFFFC00070008000FFFFFFC0
310
00FFFF000000FFF8000007FFFF80007F8000FFFFFF8000F8000FFFFFF8000FF8
310
000001FFFE0000007FFFFFF0001FFFFFFE0001FFFFFFC0003FFE0001FFFFFFC0
310
003FFF0003FFFFFFFFC0007FFFFFE00070008000FFFFFFC0007FFF0000007FF8
310
000003FFFF80007F0001FFFFFF8000F8000FFFFFF8000FF8000001FFFE000000
310
7FFFFFF0001FFFFFFE0001FFFFFFC0003FFE0001FFFFFFC0003FFF0003FFFFFF
310
FFC000FFFFFFE00070008000FFFFFFC0007FFF0000007FF8000003FFFF80007F
310
0001FFFFFF8000F8001FFFFFF8000FF8000001FFFE0000007FFFFFF0001FFFFF
310
FE0003FFFFFFE0003FFE0003FFFFFFE0003FFF0003FFFFFFFFC000FFFFFFE000
310
70008000FFFFFFC0007FFE0000007FF8000003FFFF80007F0001FFFFFF8000F0
310
001FFFFFF8000FF8000001FFFE0000007FFFFFF0001FFFFFFC0003FFFFFFE000
310
1FFC0003FFFFFFE0001FFF0003FFFFFFFFC000FFFFFFC00070008000FFFFFF80
310
007FFE0000007FF0000003FFFF80007F0001FFFFFF0000F0001FFFFFF8000FF8
310
000001FFFE0000007FFFFFF0001FFFFFFC0007FFFFFFF0001FFC0007FFFFFFF0
310
001FFF0003FFFFFFFFC000FFFFFFC00070008001FFFFFF0000FFFE0000003FF0
310
000001FFFF80007F0001FFFFFF0000F8001FFFFFF0000FF8000001FFFE000000
310
7FFFFFF0001FFFFFFC0007FFFFFFF0001FFC0007FFFFFFF0001FFF0003FFFFFF
310
FFC001FFFFFF80007000FFFFFFFFFE0000FFFE0008003FF0008001FFFF80007F
310
FFFFFFFFFC0000FFFFFFFFFFE0000FF8000001FFFE0000007FFFFFF0001FFFFF
310
F8000FFFFFFFF8000FF8000FFFFFFFF8000FFF0003FFFFFFFFFFFFFFFFFF0000
310
7000FFFFFFFFFC0000FFFC0008003FF0008001FFFF80007FFFFFFFFFF80001FF
310
FFFFFFFF80000FF8000001FFFE0000007FFFFFF0001FFFFFF8000FFFFFFFF800
310
0FF8000FFFFFFFF8000FFF0003FFFFFFFFFFFFFFFFFE0000F000FFFFFFFFE000
310
00FFFC000C003FE000C001FFFF80007FFFFFFFFFC00001FFFFFFFFFE00001FF8
310
000001FFFE0000007FFFFFF0001FFFFFF8000FFFFFFFF8000FF8000FFFFFFFF8
310
000FFF0003FFFFFFFFFFFFFFFFF00000F000FFFFFFFE000001FFFC000C001FE0
310
00C000FFFF80007FFFFFFFFE000001FFFFFFFFE000001FF80FFFFFFFFFFFFFC0
310
7FFFFFF0001FFFFFF8000FFFFFFFF8000FF8000FFFFFFFF8000FFF0003FFFFFF
310
FFFFFFFFFF800000F000FFFFFFC0000001FFFC001C001FE001C000FFFF80007F
310
FFFFFF80000003FFFFFFF80000001FF80FFFFFFFFFFFFFC07FFFFFF0001FFFFF
310
F8001FFFFFFFFC000FF8001FFFFFFFFC000FFF0003FFFFFFFFFFFFFFF0000001
310
F000FFFFF800000001FFF8001C001FE001C000FFFF80007FFFFFF800000003FF
310
FFFF800000003FF80FFFFFFFFFFFFFC07FFFFFF0001FFFFFF8001FFFFFFFFC00
310
0FF8001FFFFFFFFC000FFF0003FFFFFFFFFFFFFE00000001F000FFFFC0000000
310
03FFF8001E001FC001E000FFFF80007FFFFF8000000007FFFFFC000000003FF8
310
0FFFFFFFFFFFFFC07FFFFFF0001FFFFFF8001FFFFFFFFC000FF8001FFFFFFFFC
310
000FFF0003FFFFFFFFFFFFE000000003F000FFFE0000000007FFF8001E000FC0
310
01E0007FFF80007FFFFE0000000007FFFFE0000000007FF80FFFFFFFFFFFFFC0
310
7FFFFFF0001FFFFFF0001FFFFFFFFC0007F0001FFFFFFFFC0007FF0003FFFFFF
310
FFFFFF0000000003F000FFF80000000007FFF8001E000FC003E0007FFF80007F
310
FFF0000000000FFFFF8000000000FFF80FFFFFFFFFFFFFC07FFFFFF0001FFFFF
310
F0001FFFFFFFFC0007F0001FFFFFFFFC0007FF0003FFFFFFFFFFFC0000000007
310
F000FFE0000000000FFFF0003E000FC003E0007FFF80007FFFC0000000001FFF
310
FE0000000001FFF80FFFFFFFFFFFFFC07FFFFFF0001FFFFFF0001FFFFFFFFC00
310
07F0001FFFFFFFFC0007FF0003FFFFFFFFFFF0000000000FF000FFC000000000
310
1FFFF0003F000F8003F0003FFF80007FFF80000000003FFFF80000000003FFF8
310
0FFFFFFFFFFFFFC07FFFFFF0001FFFFFF0001FFFFFFFFC0007F0001FFFFFFFFC
310
0007FF0003FFFFFFFFFFE0000000001FF000FF00000000007FFFF0003F000780
310
03F0003FFF80007FFF00000000007FFFF00000000007FFF80FFFFFFFFFFFFFC0
310
7FFFFFF0001FFFFFF0001FFFFFFFFC0007F0001FFFFFFFFC0007FF0003FFFFFF
310
FFFF80000000007FF000FE0000000000FFFFE0003F00078007F0003FFF80007F
310
FE0000000001FFFFE0000000001FFFF80FFFFFFFFFFFFFC07FFFFFF0001FFFFF
310
F0001FFFFFFFFC0007F0001FFFFFFFFC0007FF0003FFFFFFFFFF0000000000FF
310
F000FC0000000003FFFFE0007F00078007F0003FFF80007FFC0000000007FFFF
310
C0000000007FFFF80FFFFFFFFFFFFFC07FFFFFF0001FFFFFF8001FFFFFFFFC00
310
0FF8001FFFFFFFFC000FFF0003FFFFFFFFFE0000000003FFF000FC000000000F
310
FFFFE0007F80070007F8001FFF80007FF8000000001FFFFF8000000001FFFFF8
310
0FFFFFFFFFFFFFC07FFFFFF0001FFFFFF8001FFFFFFFFC000FF8001FFFFFFFFC
310
000FFF0003FFFFFFFFFC000000000FFFF000F8000000007FFFFFE0007F800700
310
07F8001FFF80007FF000000000FFFFFF800000000FFFFFF80FFFFFFFFFFFFFC0
310
7FFFFFF0001FFFFFF8000FFFFFFFF8000FF8000FFFFFFFF8000FFF0003FFFFFF
310
FFFC000000007FFFF000F800000007FFFFFFC0007F8003000FF8001FFF80007F
310
F000000007FFFFFF000000007FFFFFF80FFFFFFFFFFFFFC07FFFFFF0001FFFFF
310
F8000FFFFFFFF8000FF8000FFFFFFFF8000FFF0003FFFFFFFFF80000000FFFFF
310
F000F0000000FFFFFFFFC000FF8003000FF8001FFF80007FE0000000FFFFFFFF
310
0000000FFFFFFFF8000001FFFE0000007FFFFFF0001FFFFFF8000FFFFFFFF800
310
0FF8000FFFFFFFF8000FFF0003FFFFFFFFF8000000FFFFFFF000F000000FFFFF
310
FFFFC000FFC002000FF8000FFF80007FE000001FFFFFFFFE000001FFFFFFFFF8
310
000001FFFE0000007FFFFFF0001FFFFFF8000FFFFFFFF8000FF8000FFFFFFFF8
310
000FFF0003FFFFFFFFF000001FFFFFFFF000E00000FFFFFFFFFFC000FFC00200
310
0FFC000FFF80007FE00001FFFFFFFFFE00001FFFFFFFFFF8000001FFFE000000
310
7FFFFFF0001FFFFFFC000FFFFFFFF8001FFC000FFFFFFFF8001FFF0003FFFFFF
310
FFF00001FFFFFFFFF000E00007FFFFFFFFFF8000FFC000001FFC000FFF80007F
310
C0000FFFFFFFFFFE0000FFFFFFFFFFF8000001FFFE0000007FFFFFF0001FFFFF
310
FC0007FFFFFFF0001FFC0007FFFFFFF0001FFF0003FFFFFFFFF00007FFFFFFFF
310
F000E0001FFFFFFFFFFF8000FFC000001FFC000FFF80007FC0003FFFFFFFFFFE
310
0001FFFFFFFFFFF8000001FFFE0000007FFFFFF0001FFFFFFC0007FFFFFFF000
310
1FFC0007FFFFFFF0001FFF0003FFFFFFFFF0001FFFFFFFFFF000E0003FFFFF00
310
03FF8001FFE000001FFC0007FF80007FC0007FFFFF0007FC0003FFFFF0003FF8
310
000001FFFE0000007FFFFFF0001FFFFFFC0003FFFFFFE0001FFC0003FFFFFFE0
310
001FFF0003FFFFFFFFF0003FFFFFFFFFF000E0003FFFFF0001FF8001FFE00000
310
1FFE0007FF80007FC0007FFFFE0003FC0007FFFFE0003FF8000001FFFE000000
310
7FFFFFF0001FFFFFFE0003FFFFFFE0003FFE0003FFFFFFE0003FFF0003FFFFFF
310
FFF0003FFFFF8001F000E0003FFFFF0001FF0001FFE000001FFE0007FF80007F
310
C0007FFFFE0003FC0007FFFFE0003FF8000001FFFE0000007FFFFFF0001FFFFF
310
FE0001FFFFFFC0003FFE0001FFFFFFC0003FFF0003FFFFFFFFF0003FFFFF0001
310
F000E0003FFFFF0003FF0001FFE000003FFE0007FF80007FC0007FFFFE0003FC
310
0007FFFFE0003FF8000001FFFE0000007FFFFFF0001FFFFFFF0001FFFFFFC000
310
7FFF0001FFFFFFC0007FFF0003FFFFFFFFF0003FFFFF0001F000E0003FFFFE00
310
03FF0003FFF000003FFE0003FF80007FC0007FFFFC0003FE0007FFFFE0003FF8
310
000001FFFE0000007FFFFFF0001FFFFFFF0000FFFFFF80007FFF0000FFFFFF80
310
007FFF0003FFFFFFFFF0003FFFFF0001F000E0003FFFFE0003FF0003FFF00000
310
3FFF0003FF80007FC0007FFFFC0007FE0007FFFFC0003FF8000001FFFE000000
310
7FFFFFF0001FFFFFFF80007FFFFF0000FFFF80007FFFFF0000FFFF0003FFFFFF
310
FFF0003FFFFF0003F000E0003FFFFC0003FE0003FFF000003FFF0003FF80007F
310
E0003FFFF80007FE0003FFFFC0007FF8000001FFFE0000007FFFFFF0001FFFFF
310
FF80003FFFFE0000FFFF80003FFFFE0000FFFF0003FFFFFFFFF0001FFFFE0003
310
F000F0001FFFF80003FE0003FFF000007FFF0001FF80007FE0003FFFF00007FE
310
0001FFFF80007FF8000001FFFE0000007FFFFFF0001FFFFFFFC0000FFFF80001
310
FFFFC0000FFFF80001FFFF0003FFFFFFFFF0001FFFFC0003F000F0000FFFF000
310
07FE0007FFF800007FFF0001FF80007FE0001FFFE00007FF0000FFFE00007FF8
310
000001FFFE0000007FFFFFF0001FFFFFFFC00003FFE00001FFFFC00003FFE000
310
01FFFF0003FFFFFFFFF8000FFFF80003F000F00003FFC00007FC0007FFF80000
310
7FFF8001FF80007FF00007FF80000FFF00007FF80000FFF8000001FFFE000000
310
7F80000000000001FFE000003E000003FFFFE000003E000003FFFF0003FFFFFF
310
FFF80003FFE00007F000F800000000000FFC0007FFF800007FFF8001FF80007F
310
F000000000000FFF000000000000FFF8000001FFFE0000007F80000000000001
310
FFF0000000000007FFFFF0000000000007FFFF0003FFFFFFFFFC00007E000007
310
F000F800000000000FFC0007FFF80000FFFF8000FF80007FF800000000001FFF
310
800000000001FFF8000001FFFE0000007F80000000000001FFF800000000000F
310
FFFFF800000000000FFFFF0003FFFFFFFFFC00000000000FF000FC0000000000
310
1FFC0007FFFC0000FFFF8000FF80007FF800000000003FFFC00000000001FFF8
310
000001FFFE0000007F80000000000001FFF800000000000FFFFFF80000000000
310
0FFFFF0003FFFFFFFFFE00000000001FF000FE00000000003FF8000FFFFC0000
310
FFFF8000FF80007FFC00000000003FFFC00000000003FFF8000001FFFE000000
310
7F80000000000001FFFC00000000001FFFFFFC00000000001FFFFF0003FFFFFF
310
FFFF00000000001FF000FF00000000003FF8000FFFFC0000FFFFC000FF80007F
310
FE00000000007FFFE00000000007FFF8000001FFFE0000007F80000000000001
310
FFFE00000000003FFFFFFE00000000003FFFFF0003FFFFFFFFFF80000000003F
310
F000FF80000000007FF8000FFFFC0001FFFFC0007F80007FFF0000000000FFFF
310
F0000000000FFFF800000000000000007F80000000000001FFFF8000000000FF
310
FFFFFF8000000000FFFFFF0003FFFFFFFFFFC0000000007FF000FFC000000000
310
FFF8000FFFFE0001FFFFC0007F80007FFF8000000001FFFFF8000000001FFFF8
310
00000000000000007F80000000000001FFFFC000000001FFFFFFFFC000000001
310
FFFFFF0003FFFFFFFFFFE000000000FFF000FFE000000003FFF0001FFFFE0001
310
FFFFC0007F80007FFFC000000007FFFFFE000000003FFFF80000000000000000
310
7F80000000000001FFFFE000000003FFFFFFFFE000000003FFFFFF0003FFFFFF
310
FFFFF000000003FFF000FFF80000000FFFF0001FFFFE0001FFFFE0007F80007F
310
FFF00000000FFFFFFF00000000FFFFF800000000000000007F80000000000001
310
FFFFF80000000FFFFFFFFFF80000000FFFFFFF0003FFFFFFFFFFFC0000000FFF
310
F000FFFE0000003FFFF0001FFFFE0003FFFFE0003F80007FFFFC0000003FFFFF
310
FFC0000003FFFFF800000000000000007F80000000000001FFFFFE0000003FFF
310
FFFFFFFE0000003FFFFFFF0003FFFFFFFFFFFF0000003FFFF000FFFF800000FF
310
FFF0001FFFFF0003FFFFE0003F80007FFFFF000001FFFFFFFFF800001FFFFFF8
310
00000000000000007F80000000000001FFFFFFC00001FFFFFFFFFFFFC00001FF
310
FFFFFF0003FFFFFFFFFFFFC00000FFFFF000FFFFF8000FFFFFFFFFFFFFFFFFFF
310
FFFFFFFFFFFFFFFFFFFFF0001FFFFFFFFFFF0000FFFFFFF80000000000000000
310
7FFFFFFFFFFFFFFFFFFFFFFC001FFFFFFFFFFFFFFC001FFFFFFFFFFFFFFFFFFF
310
FFFFFFFC001FFFFFF000FFFFFFFFFFFFFFFFFFFFFFFFFFFFFFFFFFFFFFFFFFFF
310
FFFFFFFFFFFFFFFFFFFFFFFFFFFFFFFFFFFFFFFFFFFFFFFFFFFFFFFFFFFFFFFF
310
FFFFFFFFFFFFFFFFFFFFFFFFFFFFFFFFFFFFFFFFFFFFFFFFFFFFFFFFFFFFFFFF
310
F000FFFFFFFFFFFFFFFFFFFFFFFFFFFFFFFFFFFFFFFFFFFFFFFFFFFFFFFFFFFF
310
FFFFFFFFFFFFFFFFFFFFFFFFFFFFFFFFFFFFFFFFFFFFFFFFFFFFFFFFFFFFFFFF
310
FFFFFFFFFFFFFFFFFFFFFFFFFFFFFFFFFFFFFFFFFFFFFFFFF000FFFFFFFFFFFF
310
FFFFFFFFFFFFFFFFFFFFFFFFFFFFFFFFFFFFFFFFFFFFFFFFFFFFFFFFFFFFFFFF
310
FFFFFFFFFFFFFFFFFFFFFFFFFFFFFFFFFFFFFFFFFFFFFFFFFFFFFFFFFFFFFFFF
310
FFFFFFFFFFFFFFFFFFFFFFFFFFFFFFFFF000FFFFFFFFFFFFFFFFFFFFFFFFFFFF
310
FFFFFFFFFFFFFFFFFFFFFFFFFFFFFFFFFFFFFFFFFFFFFFFFFFFFFFFFFFFFFFFF
310
FFFFFFFFFFFFFFFFFFFFFFFFFFFFFFFFFFFFFFFFFFFFFFFFFFFFFFFFFFFFFFFF
310
FFFFFFFFFFFFFFFFF000FFFFFFFFFFFFFFFFFFFFFFFFFFFFFFFFFFFFFFFFFFFF
310
FFFFFFFFFFFFFFFFFFFFFFFFFFFFFFFFFFFFFFFFFFFFFFFFFFFFFFFFFFFFFFFF
310
FFFFFFFFFFFFFFFFFFFFFFFFFFFFFFFFFFFFFFFFFFFFFFFFFFFFFFFFFFFFFFFF
310
F000FFFFFFFFFFFFFFFFFFFFFFFFFFFFFFFFFFFFFFFFFFFFFFFFFFFFFFFFFFFF
310
FFFFFFFFFFFFFFFFFFFFFFFFFFFFFFFFFFFFFFFFFFFFFFFFFFFFFFFFFFFFFFFF
310
FFFFFFFFFFFFFFFFFFFFFFFFFFFFFFFFFFFFFFFFFFFFFFFFF000FFFFFFFFFFFF
310
FFFFFFFFFFFFFFFFFFFFFFFFFFFFFFFFFFFFFFFFFFFFFFFFFFFFFFFFFFFFFFFF
310
FFFFFFFFFFFFFFFFFFFFFFFFFFFFFFFFFFFFFFFFFFFFFFFFFFFFFFFFFFFFFFFF
310
FFFFFFFFFFFFFFFFFFFFFFFFFFFFFFFFF000FFFFFFFFFFFFFFFFFFFFFFFFFFFF
310
FFFFFFFFFFFFFFFFFFFFFFFFFFFFFFFFFFFFFFFFFFFFFFFFFFFFFFFFFFFFFFFF
310
FFFFFFFFFFFFFFFFFFFFFFFFFFFFFFFFFFFFFFFFFFFFFFFFFFFFFFFFFFFFFFFF
310
FFFFFFFFFFFFFFFFF000FFFFFFFFFFFFFFFFFFFFFFFFFFFFFFFFFFFFFFFFFFFF
310
FFFFFFFFFFFFFFFFFFFFFFFFFFFFFFFFFFFFFFFFFFFFFFFFFFFFFFFFFFFFFFFF
310
FFFFFFFFFFFFFFFFFFFFFFFFFFFFFFFFFFFFFFFFFFFFFFFFFFFFFFFFFFFFFFFF
310
F000FFFFFFFFFFFFFFFFFFFFFFFFFFFFFFFFFFFFFFFFFFFFFFFFFFFFFFFFFFFF
310
FFFFFFFFFFFFFFFFFFFFFFFFFFFFFFFFFFFFFFFFFFFFFFFFFFFFFFFFFFFFFFFF
310
FFFFFFFFFFFFFFFFFFFFFFFFFFFFFFFFFFFFFFFFFFFFFFFFF000FFFFFFFFFFFF
310
FFFFFFFFFFFFFFFFFFFFFFFFFFFFFFFFFFFFFFFFFFFFFFFFFFFFFFFFFFFFFFFF
310
FFFFFFFFFFFFFFFFFFFFFFFFFFFFFFFFFFFFFFFFFFFFFFFFFFFFFFFFFFFFFFFF
310
FFFFFFFFFFFFFFFFFFFFFFFFFFFFFFFFF000FFFFFFFFFFFFFFFFFFFFFFFFFFFF
310
FFFFFFFFFFFFFFFFFFFFFFFFFFFFFFFFFFFFFFFFFFFFFFFFFFFFFFFFFFFFFFFF
310
FFFFFFFFFFFFFFFFFFFFFFFFFFFFFFFFFFFFFFFFFFFFFFFFFFFFFFFFFFFFFFFF
310
FFFFFFFFFFFFFFFFF000FFFFFFFFFFFFFFFFFFFFFFFFFFFFFFFFFFFFFFFFFFFF
310
FFFFFFFFFFFFFFFFFFFFFFFFFFFFFFFFFFFFFFFFFFFFFFFFFFFFFFFFFFFFFFFF
310
FFFFFFFFFFFFFFFFFFFFFFFFFFFFFFFFFFFFFFFFFFFFFFFFFFFFFFFFFFFFFFFF
310
F000FFFFFFFFFFFFFFFFFFFFFFFFFFFFFFFFFFFFFFFFFFFFFFFFFFFFFFFFFFFF
310
FFFFFFFFFFFFFFFFFFFFFFFFFFFFFFFFFFFFFFFFFFFFFFFFFFFFFFFFFFFFFFFF
310
FFFFFFFFFFFFFFFFFFFFFFFFFFFFFFFFFFFFFFFFFFFFFFFFF000FFFFFFFFFFFF
310
FFFFFFFFFFFFFFFFFFFFFFFFFFFFFFFFFFFFFFFFFFFFFFFFFFFFFFFFFFFFFFFF
310
FFFFFFFFFFFFFFFFFFFFFFFFFFFFFFFFFFFFFFFFFFFFFFFFFFFFFFFFFFFFFFFF
310
FFFFFFFFFFFFFFFFFFFFFFFFFFFFFFFFF000FFFFFFFFFFFFFFFFFFFFFFFFFFFF
310
FFFFFFFFFFFFFFFFFFFFFFFFFFFFFFFFFFFFFFFFFFFFFFFFFFFFFFFFFFFFFFFF
310
FFFFFFFFFFFFFFFFFFFFFFFFFFFFFFFFFFFFFFFFFFFFFFFFFFFFFFFFFFFFFFFF
310
FFFFFFFFFFFFFFFFF000FFFFFFFFFFFFFFFFFFFFFFFFFFFFFFFFFFFFFFFFFFFF
310
FFFFFFFFFFFFFFFFFFFFFFFFFFFFFFFFFFFFFFFFFFFFFFFFFFFFFFFFFFFFFFFF
310
FFFFFFFFFFFFFFFFFFFFFFFFFFFFFFFFFFFFFFFFFFFFFFFFFFFFFFFFFFFFFFFF
310
F000FFFFFFFFFFFFFFFFFFFFFFFFFFFFFFFFFFFFFFFFFFFFFFFFFFFFFFFFFFFF
310
FFFFFFFFFFFFFFFFFFFFFFFFFFFFFFFFFFFFFFFFFFFFFFFFFFFFFFFFFFFFFFFF
310
FFFFFFFFFFFFFFFFFFFFFFFFFFFFFFFFFFFFFFFFFFFFFFFFF000FFFFFFFFFFFF
310
FFFFFFFFFFFFFFFFFFFFFFFFFFFFFFFFFFFFFFFFFFFFFFFFFFFFFFFFFFFFFFFF
310
FFFFFFFFFFFFFFFFFFFFFFFFFFFFFFFFFFFFFFFFFFFFFFFFFFFFFFFFFFFFFFFF
310
FFFFFFFFFFFFFFFFFFFFFFFFFFFFFFFFF000FFFFFFFFFFFFFFFFFFFFFFFFFFFF
310
FFFFFFFFFFFFFFFFFFFFFFFFFFFFFFFFFFFFFFFFFFFFFFFFFFFFFFFFFFFFFFFF
310
FFFFFFFFFFFFFFFFFFFFFFFFFFFFFFFFFFFFFFFFFFFFFFFFFFFFFFFFFFFFFFFF
310
FFFFFFFFFFFFFFFFF000FFFFFFFFFFFFFFFFFFFFFFFFFFFFFFFFFFFFFFFFFFFF
310
FFFFFFFFFFFFFFFFFFFFFFFFFFFFFFFFFFFFFFFFFFFFFFFFFFFFFFFFFFFFFFFF
310
FFFFFFFFFFFFFFFFFFFFFFFFFFFFFFFFFFFFFFFFFFFFFFFFFFFFFFFFFFFFFFFF
310
F000FFFFFFFFFFFFFFFFFFFFFFFFFFFFFFFFFFFFFFFFFFFFFFFFFFFFFFFFFFFF
310
FFFFFFFFFFFFFFFFFFFFFFFFFFFFFFFFFFFFFFFFFFFFFFFFFFFFFFFFFFFFFFFF
310
FFFFFFFFFFFFFFFFFFFFFFFFFFFFFFFFFFFFFFFFFFFFFFFFF000FFFFFFFFFFFF
310
FFFFFFFFFFFFFFFFFFFFFFFFFFFFFFFFFFFFFFFFFFFFFFFFFFFFFFFFFFFFFFFF
310
FFFFFFFFFFFFFFFFFFFFFFFFFFFFFFFFFFFFFFFFFFFFFFFFFFFFFFFFFFFFFFFF
310
FFFFFFFFFFFFFFFFFFFFFFFFFFFFFFFFF0000000000000000000000000000000
310
0000000000000000000000000000000000000000000000000000000000000000
310
0000000000000000000000000000000000000000000000000000000000000000
310
0000000000000000000000000000000000000000000000000000000000000000
310
0000000000000000000000000000000000000000000000000000000000000000
310
0000000000000000000000000000000000000000000000000000000000000000
310
0000000000000000000000000000000000000000000000000000000000000000
310
0000000000000000000000000000000000000000000000000000000000000000
310
0000000000000000000000000000000000000000000000000000000000000000
310
0000000000000000000000000000000000000000000000000000000000000000
310
0000000000000000000000000000000000000000000000000000000000000000
310
0000000000000000000000000000000000000000000000000000000000000000
310
0000000000000000000000000000000000000000000000000000000000000000
310
0000000000000000000000000000000000000000000000000000000000000000
310
0000000000000000000000000000000000000000000000000000000000000000
310
0000000000000000000000000000000000000000000000000000000000000000
  1
OLE
  0
ENDSEC
  0
SECTION
  2
OBJECTS
  0
DICTIONARY
  5
C
330
0
100
AcDbDictionary
281
     1
  3
ACAD_GROUP
350
D
  3
ACAD_LAYOUT
350
1A
  3
ACAD_MLINESTYLE
350
17
  3
ACAD_PLOTSETTINGS
350
19
  3
ACAD_PLOTSTYLENAME
350
E
  3
ACAD_SCALELIST
350
47
  0
DICTIONARY
  5
D
102
{ACAD_REACTORS
330
C
102
}
330
C
100
AcDbDictionary
281
     1
  0
DICTIONARY
  5
1A
102
{ACAD_REACTORS
330
C
102
}
330
C
100
AcDbDictionary
281
     1
  3
Layout1
350
1E
  3
Layout2
350
26
  3
Model
350
22
  0
DICTIONARY
  5
17
102
{ACAD_REACTORS
330
C
102
}
330
C
100
AcDbDictionary
281
     1
  3
Standard
350
18
  0
DICTIONARY
  5
19
102
{ACAD_REACTORS
330
C
102
}
330
C
100
AcDbDictionary
281
     1
  0
ACDBDICTIONARYWDFLT
  5
E
102
{ACAD_REACTORS
330
C
102
}
330
C
100
AcDbDictionary
281
     1
  3
Normal
350
F
100
AcDbDictionaryWithDefault
340
F
  0
DICTIONARY
  5
47
102
{ACAD_REACTORS
330
C
102
}
330
C
100
AcDbDictionary
281
     1
  3
A0
350
48
  3
A1
350
49
  3
A2
350
4A
  3
A3
350
4B
  3
A4
350
4C
  3
A5
350
4D
  3
A6
350
4E
  3
A7
350
4F
  3
A8
350
50
  3
A9
350
51
  3
B0
350
52
  3
B1
350
53
  3
B2
350
54
  3
B3
350
55
  3
B4
350
56
  3
B5
350
57
  3
B6
350
58
  3
B7
350
59
  3
B8
350
5A
  3
B9
350
5B
  3
C0
350
5C
  3
C1
350
5D
  3
C2
350
5E
  3
C3
350
5F
  3
C4
350
60
  3
C5
350
61
  3
C6
350
62
  3
C7
350
63
  3
C8
350
64
  3
C9
350
65
  3
D0
350
66
  3
D1
350
67
  3
D2
350
68
  0
LAYOUT
  5
1E
102
{ACAD_REACTORS
330
1A
102
}
330
1A
100
AcDbPlotSettings
  1

  2
none_device
  4

  6

 40
0.0
 41
0.0
 42
0.0
 43
0.0
 44
0.0
 45
0.0
 46
0.0
 47
0.0
 48
0.0
 49
0.0
140
0.0
141
0.0
142
1.0
143
1.0
 70
   688
 72
     1
 73
     0
 74
     5
  7

 75
    16
147
1.0
148
0.0
149
0.0
100
AcDbLayout
  1
Layout1
 70
     1
 71
     1
 10
0.0
 20
0.0
 11
420.0
 21
297.0
 12
0.0
 22
0.0
 32
0.0
 14
1.0000000000E+20
 24
1.0000000000E+20
 34
1.0000000000E+20
 15
-1.0000000000E+20
 25
-1.0000000000E+20
 35
-1.0000000000E+20
146
0.0
 13
0.0
 23
0.0
 33
0.0
 16
1.0
 26
0.0
 36
0.0
 17
0.0
 27
1.0
 37
0.0
 76
     0
330
1B
  0
LAYOUT
  5
26
102
{ACAD_REACTORS
330
1A
102
}
330
1A
100
AcDbPlotSettings
  1

  2
none_device
  4

  6

 40
0.0
 41
0.0
 42
0.0
 43
0.0
 44
0.0
 45
0.0
 46
0.0
 47
0.0
 48
0.0
 49
0.0
140
0.0
141
0.0
142
1.0
143
1.0
 70
   688
 72
     1
 73
     0
 74
     5
  7

 75
    16
147
1.0
148
0.0
149
0.0
100
AcDbLayout
  1
Layout2
 70
     1
 71
     2
 10
0.0
 20
0.0
 11
0.0
 21
0.0
 12
0.0
 22
0.0
 32
0.0
 14
0.0
 24
0.0
 34
0.0
 15
0.0
 25
0.0
 35
0.0
146
0.0
 13
0.0
 23
0.0
 33
0.0
 16
1.0
 26
0.0
 36
0.0
 17
0.0
 27
1.0
 37
0.0
 76
     0
330
23
  0
LAYOUT
  5
22
102
{ACAD_REACTORS
330
1A
102
}
330
1A
100
AcDbPlotSettings
  1

  2
none_device
  4
Letter_(8.50_x_11.00_Inches)
  6

 40
6.35
 41
6.35
 42
6.35000508
 43
6.35000508
 44
215.9
 45
279.4
 46
0.0
 47
0.0
 48
0.0
 49
0.0
140
0.0
141
0.0
142
1.0
143
1.0
 70
  1712
 72
     1
 73
     0
 74
     0
  7

 75
     0
147
1.0
148
0.0
149
0.0
100
AcDbLayout
  1
Model
 70
     1
 71
     0
 10
0.0
 20
0.0
 11
297.0
 21
210.0
 12
0.0
 22
0.0
 32
0.0
 14
0.0
 24
0.0
 34
0.0
 15
297.0
 25
210.0
 35
0.0
146
0.0
 13
0.0
 23
0.0
 33
0.0
 16
1.0
 26
0.0
 36
0.0
 17
0.0
 27
1.0
 37
0.0
 76
     0
330
1F
331
29
  0
MLINESTYLE
  5
18
102
{ACAD_REACTORS
330
17
102
}
330
17
100
AcDbMlineStyle
  2
Standard
 70
     0
  3

 62
   256
 51
90.0
 52
90.0
 71
     2
 49
0.5
 62
   256
  6
BYLAYER
 49
-0.5
 62
   256
  6
BYLAYER
  0
ACDBPLACEHOLDER
  5
F
102
{ACAD_REACTORS
330
E
102
}
330
E
  0
SCALE
  5
48
102
{ACAD_REACTORS
330
47
102
}
330
47
100
AcDbScale
 70
     0
300
1:1
140
1.0
141
1.0
290
     1
  0
SCALE
  5
49
102
{ACAD_REACTORS
330
47
102
}
330
47
100
AcDbScale
 70
     0
300
1:2
140
1.0
141
2.0
290
     0
  0
SCALE
  5
4A
102
{ACAD_REACTORS
330
47
102
}
330
47
100
AcDbScale
 70
     0
300
1:4
140
1.0
141
4.0
290
     0
  0
SCALE
  5
4B
102
{ACAD_REACTORS
330
47
102
}
330
47
100
AcDbScale
 70
     0
300
1:5
140
1.0
141
5.0
290
     0
  0
SCALE
  5
4C
102
{ACAD_REACTORS
330
47
102
}
330
47
100
AcDbScale
 70
     0
300
1:8
140
1.0
141
8.0
290
     0
  0
SCALE
  5
4D
102
{ACAD_REACTORS
330
47
102
}
330
47
100
AcDbScale
 70
     0
300
1:10
140
1.0
141
10.0
290
     0
  0
SCALE
  5
4E
102
{ACAD_REACTORS
330
47
102
}
330
47
100
AcDbScale
 70
     0
300
1:16
140
1.0
141
16.0
290
     0
  0
SCALE
  5
4F
102
{ACAD_REACTORS
330
47
102
}
330
47
100
AcDbScale
 70
     0
300
1:20
140
1.0
141
20.0
290
     0
  0
SCALE
  5
50
102
{ACAD_REACTORS
330
47
102
}
330
47
100
AcDbScale
 70
     0
300
1:30
140
1.0
141
30.0
290
     0
  0
SCALE
  5
51
102
{ACAD_REACTORS
330
47
102
}
330
47
100
AcDbScale
 70
     0
300
1:40
140
1.0
141
40.0
290
     0
  0
SCALE
  5
52
102
{ACAD_REACTORS
330
47
102
}
330
47
100
AcDbScale
 70
     0
300
1:50
140
1.0
141
50.0
290
     0
  0
SCALE
  5
53
102
{ACAD_REACTORS
330
47
102
}
330
47
100
AcDbScale
 70
     0
300
1:100
140
1.0
141
100.0
290
     0
  0
SCALE
  5
54
102
{ACAD_REACTORS
330
47
102
}
330
47
100
AcDbScale
 70
     0
300
2:1
140
2.0
141
1.0
290
     0
  0
SCALE
  5
55
102
{ACAD_REACTORS
330
47
102
}
330
47
100
AcDbScale
 70
     0
300
4:1
140
4.0
141
1.0
290
     0
  0
SCALE
  5
56
102
{ACAD_REACTORS
330
47
102
}
330
47
100
AcDbScale
 70
     0
300
8:1
140
8.0
141
1.0
290
     0
  0
SCALE
  5
57
102
{ACAD_REACTORS
330
47
102
}
330
47
100
AcDbScale
 70
     0
300
10:1
140
10.0
141
1.0
290
     0
  0
SCALE
  5
58
102
{ACAD_REACTORS
330
47
102
}
330
47
100
AcDbScale
 70
     0
300
100:1
140
100.0
141
1.0
290
     0
  0
SCALE
  5
59
102
{ACAD_REACTORS
330
47
102
}
330
47
100
AcDbScale
 70
     0
300
1/128" = 1'-0"
140
0.0078125
141
12.0
290
     0
  0
SCALE
  5
5A
102
{ACAD_REACTORS
330
47
102
}
330
47
100
AcDbScale
 70
     0
300
1/64" = 1'-0"
140
0.015625
141
12.0
290
     0
  0
SCALE
  5
5B
102
{ACAD_REACTORS
330
47
102
}
330
47
100
AcDbScale
 70
     0
300
1/32" = 1'-0"
140
0.03125
141
12.0
290
     0
  0
SCALE
  5
5C
102
{ACAD_REACTORS
330
47
102
}
330
47
100
AcDbScale
 70
     0
300
1/16" = 1'-0"
140
0.0625
141
12.0
290
     0
  0
SCALE
  5
5D
102
{ACAD_REACTORS
330
47
102
}
330
47
100
AcDbScale
 70
     0
300
3/32" = 1'-0"
140
0.09375
141
12.0
290
     0
  0
SCALE
  5
5E
102
{ACAD_REACTORS
330
47
102
}
330
47
100
AcDbScale
 70
     0
300
1/8" = 1'-0"
140
0.125
141
12.0
290
     0
  0
SCALE
  5
5F
102
{ACAD_REACTORS
330
47
102
}
330
47
100
AcDbScale
 70
     0
300
3/16" = 1'-0"
140
0.1875
141
12.0
290
     0
  0
SCALE
  5
60
102
{ACAD_REACTORS
330
47
102
}
330
47
100
AcDbScale
 70
     0
300
1/4" = 1'-0"
140
0.25
141
12.0
290
     0
  0
SCALE
  5
61
102
{ACAD_REACTORS
330
47
102
}
330
47
100
AcDbScale
 70
     0
300
3/8" = 1'-0"
140
0.375
141
12.0
290
     0
  0
SCALE
  5
62
102
{ACAD_REACTORS
330
47
102
}
330
47
100
AcDbScale
 70
     0
300
1/2" = 1'-0"
140
0.5
141
12.0
290
     0
  0
SCALE
  5
63
102
{ACAD_REACTORS
330
47
102
}
330
47
100
AcDbScale
 70
     0
300
3/4" = 1'-0"
140
0.75
141
12.0
290
     0
  0
SCALE
  5
64
102
{ACAD_REACTORS
330
47
102
}
330
47
100
AcDbScale
 70
     0
300
1" = 1'-0"
140
1.0
141
12.0
290
     0
  0
SCALE
  5
65
102
{ACAD_REACTORS
330
47
102
}
330
47
100
AcDbScale
 70
     0
300
1-1/2" = 1'-0"
140
1.5
141
12.0
290
     0
  0
SCALE
  5
66
102
{ACAD_REACTORS
330
47
102
}
330
47
100
AcDbScale
 70
     0
300
3" = 1'-0"
140
3.0
141
12.0
290
     0
  0
SCALE
  5
67
102
{ACAD_REACTORS
330
47
102
}
330
47
100
AcDbScale
 70
     0
300
6" = 1'-0"
140
6.0
141
12.0
290
     0
  0
SCALE
  5
68
102
{ACAD_REACTORS
330
47
102
}
330
47
100
AcDbScale
 70
     0
300
1'-0" = 1'-0"
140
12.0
141
12.0
290
     0
  0
ENDSEC
  0
EOF
