  0
SECTION
  2
HEADER
  9
$ACADVER
  1
AC1015
  9
$ACADMAINTVER
 70
     6
  9
$DWGCODEPAGE
  3
ANSI_1252
  9
$INSBASE
 10
0.0
 20
0.0
 30
0.0
  9
$EXTMIN
 10
0.0
 20
0.0
 30
0.0
  9
$EXTMAX
 10
297.0
 20
210.0
 30
0.0
  9
$LIMMIN
 10
0.0
 20
0.0
  9
$LIMMAX
 10
297.0
 20
210.0
  9
$ORTHOMODE
 70
     0
  9
$REGENMODE
 70
     1
  9
$FILLMODE
 70
     1
  9
$QTEXTMODE
 70
     0
  9
$MIRRTEXT
 70
     1
  9
$LTSCALE
 40
1.0
  9
$ATTMODE
 70
     1
  9
$TEXTSIZE
 40
2.0
  9
$TRACEWID
 40
1.0
  9
$TEXTSTYLE
  7
Standard
  9
$CLAYER
  8
0
  9
$CELTYPE
  6
ByLayer
  9
$CECOLOR
 62
   256
  9
$CELTSCALE
 40
1.0
  9
$DISPSILH
 70
     0
  9
$DIMSCALE
 40
1.0
  9
$DIMASZ
 40
3.0
  9
$DIMEXO
 40
0.0
  9
$DIMDLI
 40
3.75
  9
$DIMRND
 40
0.0
  9
$DIMDLE
 40
0.0
  9
$DIMEXE
 40
1.0
  9
$DIMTP
 40
0.0
  9
$DIMTM
 40
0.0
  9
$DIMTXT
 40
2.0
  9
$DIMCEN
 40
2.5
  9
$DIMTSZ
 40
0.0
  9
$DIMTOL
 70
     0
  9
$DIMLIM
 70
     0
  9
$DIMTIH
 70
     1
  9
$DIMTOH
 70
     1
  9
$DIMSE1
 70
     0
  9
$DIMSE2
 70
     0
  9
$DIMTAD
 70
     1
  9
$DIMZIN
 70
     0
  9
$DIMBLK
  1

  9
$DIMASO
 70
     1
  9
$DIMSHO
 70
     1
  9
$DIMPOST
  1

  9
$DIMAPOST
  1

  9
$DIMALT
 70
     0
  9
$DIMALTD
 70
     3
  9
$DIMALTF
 40
0.0393700787
  9
$DIMLFAC
 40
1.0
  9
$DIMTOFL
 70
     1
  9
$DIMTVP
 40
0.0
  9
$DIMTIX
 70
     0
  9
$DIMSOXD
 70
     0
  9
$DIMSAH
 70
     0
  9
$DIMBLK1
  1

  9
$DIMBLK2
  1

  9
$DIMSTYLE
  2
ISO-25
  9
$DIMCLRD
 70
     0
  9
$DIMCLRE
 70
     0
  9
$DIMCLRT
 70
     0
  9
$DIMTFAC
 40
1.0
  9
$DIMGAP
 40
1.524
  9
$DIMJUST
 70
     0
  9
$DIMSD1
 70
     0
  9
$DIMSD2
 70
     0
  9
$DIMTOLJ
 70
     0
  9
$DIMTZIN
 70
     0
  9
$DIMALTZ
 70
     0
  9
$DIMALTTZ
 70
     0
  9
$DIMUPT
 70
     0
  9
$DIMDEC
 70
     2
  9
$DIMTDEC
 70
     3
  9
$DIMALTU
 70
     2
  9
$DIMALTTD
 70
     3
  9
$DIMTXSTY
  7
Standard
  9
$DIMAUNIT
 70
     0
  9
$DIMADEC
 70
     2
  9
$DIMALTRND
 40
0.0
  9
$DIMAZIN
 70
     0
  9
$DIMDSEP
 70
    44
  9
$DIMATFIT
 70
     3
  9
$DIMFRAC
 70
     0
  9
$DIMLDRBLK
  1

  9
$DIMLUNIT
 70
     2
  9
$DIMLWD
 70
    -2
  9
$DIMLWE
 70
    -2
  9
$DIMTMOVE
 70
     0
  9
$LUNITS
 70
     2
  9
$LUPREC
 70
     2
  9
$SKETCHINC
 40
1.0
  9
$FILLETRAD
 40
10.0
  9
$AUNITS
 70
     0
  9
$AUPREC
 70
     2
  9
$MENU
  1
.
  9
$ELEVATION
 40
0.0
  9
$PELEVATION
 40
0.0
  9
$THICKNESS
 40
0.0
  9
$LIMCHECK
 70
     0
  9
$CHAMFERA
 40
0.0
  9
$CHAMFERB
 40
0.0
  9
$CHAMFERC
 40
0.0
  9
$CHAMFERD
 40
0.0
  9
$SKPOLY
 70
     0
  9
$TDCREATE
 40
2457667.386145046
  9
$TDUCREATE
 40
2457667.302811713
  9
$TDUPDATE
 40
2457667.386146239
  9
$TDUUPDATE
 40
2457667.302812905
  9
$TDINDWG
 40
0.0000000116
  9
$TDUSRTIMER
 40
0.0000000116
  9
$USRTIMER
 70
     1
  9
$ANGBASE
 50
0.0
  9
$ANGDIR
 70
     0
  9
$PDMODE
 70
     0
  9
$PDSIZE
 40
-1.0
  9
$PLINEWID
 40
0.0
  9
$SPLFRAME
 70
     0
  9
$SPLINETYPE
 70
     6
  9
$SPLINESEGS
 70
     8
  9
$HANDSEED
  5
235
  9
$SURFTAB1
 70
     6
  9
$SURFTAB2
 70
     6
  9
$SURFTYPE
 70
     6
  9
$SURFU
 70
     6
  9
$SURFV
 70
     6
  9
$UCSBASE
  2

  9
$UCSNAME
  2

  9
$UCSORG
 10
0.0
 20
0.0
 30
0.0
  9
$UCSXDIR
 10
1.0
 20
0.0
 30
0.0
  9
$UCSYDIR
 10
0.0
 20
1.0
 30
0.0
  9
$UCSORTHOREF
  2

  9
$UCSORTHOVIEW
 70
     0
  9
$UCSORGTOP
 10
0.0
 20
0.0
 30
0.0
  9
$UCSORGBOTTOM
 10
0.0
 20
0.0
 30
0.0
  9
$UCSORGLEFT
 10
0.0
 20
0.0
 30
0.0
  9
$UCSORGRIGHT
 10
0.0
 20
0.0
 30
0.0
  9
$UCSORGFRONT
 10
0.0
 20
0.0
 30
0.0
  9
$UCSORGBACK
 10
0.0
 20
0.0
 30
0.0
  9
$PUCSBASE
  2

  9
$PUCSNAME
  2

  9
$PUCSORG
 10
0.0
 20
0.0
 30
0.0
  9
$PUCSXDIR
 10
1.0
 20
0.0
 30
0.0
  9
$PUCSYDIR
 10
0.0
 20
1.0
 30
0.0
  9
$PUCSORTHOREF
  2

  9
$PUCSORTHOVIEW
 70
     0
  9
$PUCSORGTOP
 10
0.0
 20
0.0
 30
0.0
  9
$PUCSORGBOTTOM
 10
0.0
 20
0.0
 30
0.0
  9
$PUCSORGLEFT
 10
0.0
 20
0.0
 30
0.0
  9
$PUCSORGRIGHT
 10
0.0
 20
0.0
 30
0.0
  9
$PUCSORGFRONT
 10
0.0
 20
0.0
 30
0.0
  9
$PUCSORGBACK
 10
0.0
 20
0.0
 30
0.0
  9
$USERI1
 70
     0
  9
$USERI2
 70
     0
  9
$USERI3
 70
     0
  9
$USERI4
 70
     0
  9
$USERI5
 70
     0
  9
$USERR1
 40
0.0
  9
$USERR2
 40
0.0
  9
$USERR3
 40
0.0
  9
$USERR4
 40
0.0
  9
$USERR5
 40
0.0
  9
$WORLDVIEW
 70
     1
  9
$SHADEDGE
 70
     3
  9
$SHADEDIF
 70
    70
  9
$TILEMODE
 70
     1
  9
$MAXACTVP
 70
    64
  9
$PINSBASE
 10
0.0
 20
0.0
 30
0.0
  9
$PLIMCHECK
 70
     0
  9
$PEXTMIN
 10
1.0000000000E+20
 20
1.0000000000E+20
 30
1.0000000000E+20
  9
$PEXTMAX
 10
-1.0000000000E+20
 20
-1.0000000000E+20
 30
-1.0000000000E+20
  9
$PLIMMIN
 10
0.0
 20
0.0
  9
$PLIMMAX
 10
420.0
 20
297.0
  9
$UNITMODE
 70
     0
  9
$VISRETAIN
 70
     1
  9
$PLINEGEN
 70
     0
  9
$PSLTSCALE
 70
     1
  9
$TREEDEPTH
 70
  3020
  9
$CMLSTYLE
  2
Standard
  9
$CMLJUST
 70
     0
  9
$CMLSCALE
 40
20.0
  9
$PROXYGRAPHICS
 70
     1
  9
$MEASUREMENT
 70
     1
  9
$CELWEIGHT
370
    -1
  9
$ENDCAPS
280
     0
  9
$JOINSTYLE
280
     0
  9
$LWDISPLAY
290
     1
  9
$INSUNITS
 70
     4
  9
$HYPERLINKBASE
  1

  9
$STYLESHEET
  1

  9
$XEDIT
290
     1
  9
$CEPSNTYPE
380
     0
  9
$PSTYLEMODE
290
     1
  9
$FINGERPRINTGUID
  2
{D998A66C-0520-4062-9BE9-551B5C2A98F8}
  9
$VERSIONGUID
  2
{FAEB1C32-E019-11D5-929B-00C0DF256EC4}
  9
$EXTNAMES
290
     1
  9
$PSVPSCALE
 40
0.0
  9
$OLESTARTUP
290
     0
  0
ENDSEC
  0
SECTION
  2
CLASSES
  0
CLASS
  1
ACDBDICTIONARYWDFLT
  2
AcDbDictionaryWithDefault
  3
ObjectDBX Classes
 90
        0
280
     0
281
     0
  0
CLASS
  1
VISUALSTYLE
  2
AcDbVisualStyle
  3
ObjectDBX Classes
 90
     4095
280
     0
281
     0
  0
CLASS
  1
MATERIAL
  2
AcDbMaterial
  3
ObjectDBX Classes
 90
     1153
280
     0
281
     0
  0
CLASS
  1
SCALE
  2
AcDbScale
  3
ObjectDBX Classes
 90
     1153
280
     0
281
     0
  0
CLASS
  1
TABLESTYLE
  2
AcDbTableStyle
  3
ObjectDBX Classes
 90
     4095
280
     0
281
     0
  0
CLASS
  1
MLEADERSTYLE
  2
AcDbMLeaderStyle
  3
ACDB_MLEADERSTYLE_CLASS
 90
     4095
280
     0
281
     0
  0
CLASS
  1
SUN
  2
AcDbSun
  3
SCENEOE
 90
     1153
280
     0
281
     0
  0
CLASS
  1
ACDBPLACEHOLDER
  2
AcDbPlaceHolder
  3
ObjectDBX Classes
 90
        0
280
     0
281
     0
  0
CLASS
  1
LAYOUT
  2
AcDbLayout
  3
ObjectDBX Classes
 90
        0
280
     0
281
     0
  0
ENDSEC
  0
SECTION
  2
TABLES
  0
TABLE
  2
VPORT
  5
8
330
0
100
AcDbSymbolTable
 70
     1
  0
VPORT
  5
29
330
8
100
AcDbSymbolTableRecord
100
AcDbViewportTableRecord
  2
*Active
 70
     0
 10
0.0
 20
0.0
 11
1.0
 21
1.0
 12
148.5
 22
105.0
 13
0.0
 23
0.0
 14
10.0
 24
10.0
 15
10.0
 25
10.0
 16
0.0
 26
0.0
 36
1.0
 17
0.0
 27
0.0
 37
0.0
 40
210.0
 41
1.4142857143
 42
50.0
 43
0.0
 44
0.0
 50
0.0
 51
0.0
 71
     0
 72
  2000
 73
     1
 74
     3
 75
     0
 76
     0
 77
     0
 78
     0
281
     0
 65
     1
110
0.0
120
0.0
130
0.0
111
1.0
121
0.0
131
0.0
112
0.0
122
1.0
132
0.0
 79
     0
146
0.0
  0
ENDTAB
  0
TABLE
  2
LTYPE
  5
5
330
0
100
AcDbSymbolTable
 70
     6
  0
LTYPE
  5
14
330
5
100
AcDbSymbolTableRecord
100
AcDbLinetypeTableRecord
  2
ByBlock
 70
     0
  3

 72
    65
 73
     0
 40
0.0
  0
LTYPE
  5
15
330
5
100
AcDbSymbolTableRecord
100
AcDbLinetypeTableRecord
  2
ByLayer
 70
     0
  3

 72
    65
 73
     0
 40
0.0
  0
LTYPE
  5
16
330
5
100
AcDbSymbolTableRecord
100
AcDbLinetypeTableRecord
  2
Continuous
 70
     0
  3
Solid line
 72
    65
 73
     0
 40
0.0
  0
LTYPE
  5
6E
330
5
100
AcDbSymbolTableRecord
100
AcDbLinetypeTableRecord
  2
HIDDEN
 70
     0
  3
Hidden __ __ __ __ __ __ __ __ __ __ __ __ __ __
 72
    65
 73
     2
 40
1.905
 49
1.27
 74
     0
 49
-0.635
 74
     0
  0
LTYPE
  5
6F
330
5
100
AcDbSymbolTableRecord
100
AcDbLinetypeTableRecord
  2
PHANTOM
 70
     0
  3
Phantom ______  __  __  ______  __  __  ______
 72
    65
 73
     6
 40
12.7
 49
6.35
 74
     0
 49
-1.27
 74
     0
 49
1.27
 74
     0
 49
-1.27
 74
     0
 49
1.27
 74
     0
 49
-1.27
 74
     0
  0
LTYPE
  5
70
330
5
100
AcDbSymbolTableRecord
100
AcDbLinetypeTableRecord
  2
CENTER
 70
     0
  3
Center ____ _ ____ _ ____ _ ____ _ ____ _ ____
 72
    65
 73
     4
 40
10.16
 49
6.35
 74
     0
 49
-1.27
 74
     0
 49
1.27
 74
     0
 49
-1.27
 74
     0
  0
LTYPE
  5
71
330
5
100
AcDbSymbolTableRecord
100
AcDbLinetypeTableRecord
  2
CENTERX2
 70
     0
  3
Center (2x) ________  __  ________  __  _____
 72
    65
 73
     4
 40
20.32
 49
12.7
 74
     0
 49
-2.54
 74
     0
 49
2.54
 74
     0
 49
-2.54
 74
     0
  0
LTYPE
  5
72
330
5
100
AcDbSymbolTableRecord
100
AcDbLinetypeTableRecord
  2
DOT2
 70
     0
  3
Dot (.5x) ........................................
 72
    65
 73
     2
 40
0.635
 49
0.0
 74
     0
 49
-0.635
 74
     0
  0
ENDTAB
  0
TABLE
  2
LAYER
  5
2
330
0
100
AcDbSymbolTable
 70
     5
  0
LAYER
  5
10
330
2
100
AcDbSymbolTableRecord
100
AcDbLayerTableRecord
  2
0
 70
     0
 62
     7
  6
Continuous
370
    -3
390
F
  0
LAYER
  5
73
330
2
100
AcDbSymbolTableRecord
100
AcDbLayerTableRecord
  2
FORMAT
 70
     0
 62
     7
  6
Continuous
370
    -3
390
F
  0
LAYER
  5
74
330
2
100
AcDbSymbolTableRecord
100
AcDbLayerTableRecord
  2
VERMASSUNG
 70
     0
 62
     7
  6
Continuous
370
    -3
390
F
  0
LAYER
  5
75
330
2
100
AcDbSymbolTableRecord
100
AcDbLayerTableRecord
  2
KOPF_DÜNN
 70
     0
 62
     7
  6
Continuous
370
    -3
390
F
  0
LAYER
  5
76
330
2
100
AcDbSymbolTableRecord
100
AcDbLayerTableRecord
  2
KOPF_DICK
 70
     0
 62
     7
  6
Continuous
370
    15
390
F
  0
ENDTAB
  0
TABLE
  2
STYLE
  5
3
330
0
100
AcDbSymbolTable
 70
     2
  0
STYLE
  5
11
330
3
100
AcDbSymbolTableRecord
100
AcDbTextStyleTableRecord
  2
Standard
 70
     0
 40
0.0
 41
1.0
 50
0.0
 71
     0
 42
2.0
  3
txt
  4

  0
STYLE
  5
77
330
3
100
AcDbSymbolTableRecord
100
AcDbTextStyleTableRecord
  2
SLDTEXTSTYLE0
 70
     0
 40
0.0
 41
0.7
 50
0.0
 71
     0
 42
2.0
  3
TXT
  4

  0
ENDTAB
  0
TABLE
  2
VIEW
  5
6
330
0
100
AcDbSymbolTable
 70
     0
  0
ENDTAB
  0
TABLE
  2
UCS
  5
7
330
0
100
AcDbSymbolTable
 70
     0
  0
ENDTAB
  0
TABLE
  2
APPID
  5
9
330
0
100
AcDbSymbolTable
 70
     1
  0
APPID
  5
12
330
9
100
AcDbSymbolTableRecord
100
AcDbRegAppTableRecord
  2
ACAD
 70
     0
  0
ENDTAB
  0
TABLE
  2
DIMSTYLE
  5
A
330
0
100
AcDbSymbolTable
 70
     2
100
AcDbDimStyleTable
  0
DIMSTYLE
105
27
330
A
100
AcDbSymbolTableRecord
100
AcDbDimStyleTableRecord
  2
ISO-25
 70
     0
 41
2.5
 42
0.625
 43
3.75
 44
1.25
 73
     0
 74
     0
 77
     1
 78
     8
140
2.5
141
2.5
143
0.0393700787
147
0.625
171
     3
172
     1
178
     0
271
     2
272
     2
274
     3
278
    44
283
     0
284
     8
340
11
  0
DIMSTYLE
105
13D
102
{ACAD_REACTORS
330
13C
330
148
330
154
330
15E
330
16A
330
176
102
}
330
A
100
AcDbSymbolTableRecord
100
AcDbDimStyleTableRecord
  2
SLDDIMSTYLE0
 70
     0
 41
3.0
 44
0.0
 45
0.000000001
 73
     0
 74
     0
 77
     1
 78
    12
 79
     3
140
2.0
147
0.5
173
     1
178
     0
271
     2
272
     3
276
     2
284
    12
340
77
  0
ENDTAB
  0
TABLE
  2
BLOCK_RECORD
  5
1
330
0
100
AcDbSymbolTable
 70
     7
  0
BLOCK_RECORD
  5
1F
330
1
100
AcDbSymbolTableRecord
100
AcDbBlockTableRecord
  2
*Model_Space
340
22
  0
BLOCK_RECORD
  5
1B
330
1
100
AcDbSymbolTableRecord
100
AcDbBlockTableRecord
  2
*Paper_Space
340
1E
  0
BLOCK_RECORD
  5
23
330
1
100
AcDbSymbolTableRecord
100
AcDbBlockTableRecord
  2
*Paper_Space0
340
26
  0
BLOCK_RECORD
  5
13E
330
1
100
AcDbSymbolTableRecord
100
AcDbBlockTableRecord
  2
_D
340
0
  0
BLOCK_RECORD
  5
149
330
1
100
AcDbSymbolTableRecord
100
AcDbBlockTableRecord
  2
_D_1
340
0
  0
BLOCK_RECORD
  5
155
330
1
100
AcDbSymbolTableRecord
100
AcDbBlockTableRecord
  2
_D_2
340
0
  0
BLOCK_RECORD
  5
15F
330
1
100
AcDbSymbolTableRecord
100
AcDbBlockTableRecord
  2
_D_3
340
0
  0
BLOCK_RECORD
  5
16B
330
1
100
AcDbSymbolTableRecord
100
AcDbBlockTableRecord
  2
_D_4
340
0
  0
BLOCK_RECORD
  5
177
330
1
100
AcDbSymbolTableRecord
100
AcDbBlockTableRecord
  2
_D_5
340
0
  0
ENDTAB
  0
ENDSEC
  0
SECTION
  2
BLOCKS
  0
BLOCK
  5
20
330
1F
100
AcDbEntity
  8
0
100
AcDbBlockBegin
  2
*Model_Space
 70
     0
 10
0.0
 20
0.0
 30
0.0
  3
*Model_Space
  1

  0
ENDBLK
  5
21
330
1F
100
AcDbEntity
  8
0
100
AcDbBlockEnd
  0
BLOCK
  5
1C
330
1B
100
AcDbEntity
 67
     1
  8
0
100
AcDbBlockBegin
  2
*Paper_Space
 70
     0
 10
0.0
 20
0.0
 30
0.0
  3
*Paper_Space
  1

  0
ENDBLK
  5
1D
330
1B
100
AcDbEntity
 67
     1
  8
0
100
AcDbBlockEnd
  0
BLOCK
  5
24
330
23
100
AcDbEntity
  8
0
100
AcDbBlockBegin
  2
*Paper_Space0
 70
     0
 10
0.0
 20
0.0
 30
0.0
  3
*Paper_Space0
  1

  0
ENDBLK
  5
25
330
23
100
AcDbEntity
  8
0
100
AcDbBlockEnd
  0
BLOCK
  5
13F
330
13E
100
AcDbEntity
  8
0
100
AcDbBlockBegin
  2
_D
 70
     0
 10
0.0
 20
0.0
 30
0.0
  3
_D
  1

  0
SOLID
  5
141
330
13E
100
AcDbEntity
  8
VERMASSUNG
100
AcDbTrace
 10
199.5586248949
 20
124.2043817347
 30
0.0
 11
199.1086248949
 21
121.2043817347
 31
0.0
 12
200.0086248949
 22
121.2043817347
 32
0.0
 13
200.0086248949
 23
121.2043817347
 33
0.0
  0
SOLID
  5
142
330
13E
100
AcDbEntity
  8
VERMASSUNG
100
AcDbTrace
 10
199.5586248949
 20
96.2043817347
 30
0.0
 11
200.0086248949
 21
99.2043817347
 31
0.0
 12
199.1086248949
 22
99.2043817347
 32
0.0
 13
199.1086248949
 23
99.2043817347
 33
0.0
  0
LINE
  5
143
330
13E
100
AcDbEntity
  8
VERMASSUNG
100
AcDbLine
 10
177.4563932147
 20
124.2043817347
 30
0.0
 11
200.5586248949
 21
124.2043817347
 31
0.0
  0
LINE
  5
144
330
13E
100
AcDbEntity
  8
VERMASSUNG
100
AcDbLine
 10
177.4563932147
 20
96.2043817347
 30
0.0
 11
200.5586248949
 21
96.2043817347
 31
0.0
  0
LINE
  5
145
330
13E
100
AcDbEntity
  8
VERMASSUNG
100
AcDbLine
 10
199.5586248949
 20
124.2043817347
 30
0.0
 11
199.5586248949
 21
96.2043817347
 31
0.0
  0
MTEXT
  5
146
330
13E
100
AcDbEntity
  8
VERMASSUNG
100
AcDbMText
 10
196.9804893572
 20
107.0002056276
 30
0.0
 40
2.0
 41
0.0
 71
     1
 72
     1
  1
%%c
  7
SLDTEXTSTYLE0
 11
-7.044195017643634E-15
 21
1.0
 31
0.0
 73
     1
 44
1.0
  0
MTEXT
  5
147
330
13E
100
AcDbEntity
  8
VERMASSUNG
100
AcDbMText
 10
196.980489299
 20
110.6091778212
 30
0.0
 40
2.0
 41
0.0
 71
     1
 72
     1
  1
28
  7
SLDTEXTSTYLE0
 11
-7.044195017643634E-15
 21
1.0
 31
0.0
 73
     1
 44
1.0
  0
ENDBLK
  5
140
330
13E
100
AcDbEntity
  8
0
100
AcDbBlockEnd
  0
BLOCK
  5
14A
330
149
100
AcDbEntity
  8
0
100
AcDbBlockBegin
  2
_D_1
 70
     0
 10
0.0
 20
0.0
 30
0.0
  3
_D_1
  1

  0
ARC
  5
14C
330
149
100
AcDbEntity
  8
VERMASSUNG
100
AcDbCircle
 10
174.6931867266
 20
142.2312179688
 30
0.0
 40
4.247059938537361
100
AcDbArc
 50
153.4349488229
 51
206.5650511771
  0
ARC
  5
14D
330
149
100
AcDbEntity
  8
VERMASSUNG
100
AcDbCircle
 10
176.4695997029
 20
142.2312179688
 30
0.0
 40
4.247059938537386
100
AcDbArc
 50
333.4349488229
 51
26.5650511771
  0
SOLID
  5
14E
330
149
100
AcDbEntity
  8
VERMASSUNG
100
AcDbTrace
 10
191.0563932147
 20
140.3318750234
 30
0.0
 11
188.0563932147
 21
140.7818750234
 31
0.0
 12
188.0563932147
 22
139.8818750234
 32
0.0
 13
188.0563932147
 23
139.8818750234
 33
0.0
  0
SOLID
  5
14F
330
149
100
AcDbEntity
  8
VERMASSUNG
100
AcDbTrace
 10
160.1063932147
 20
140.3318750234
 30
0.0
 11
163.1063932147
 21
139.8818750234
 31
0.0
 12
163.1063932147
 22
140.7818750234
 32
0.0
 13
163.1063932147
 23
140.7818750234
 33
0.0
  0
LINE
  5
150
330
149
100
AcDbEntity
  8
VERMASSUNG
100
AcDbLine
 10
191.0563932147
 20
134.7043817347
 30
0.0
 11
191.0563932147
 21
141.3318750234
 31
0.0
  0
LINE
  5
151
330
149
100
AcDbEntity
  8
VERMASSUNG
100
AcDbLine
 10
160.1063932147
 20
133.1157393486
 30
0.0
 11
160.1063932147
 21
141.3318750234
 31
0.0
  0
LINE
  5
152
330
149
100
AcDbEntity
  8
VERMASSUNG
100
AcDbLine
 10
191.0563932147
 20
140.3318750234
 30
0.0
 11
160.1063932147
 21
140.3318750234
 31
0.0
  0
MTEXT
  5
153
330
149
100
AcDbEntity
  8
VERMASSUNG
100
AcDbMText
 10
172.4820008358
 20
142.9100106193
 30
0.0
 40
2.0
 41
0.0
 71
     1
 72
     1
  1
30.95
  7
SLDTEXTSTYLE0
 73
     1
 44
1.0
  0
ENDBLK
  5
14B
330
149
100
AcDbEntity
  8
0
100
AcDbBlockEnd
  0
BLOCK
  5
156
330
155
100
AcDbEntity
  8
0
100
AcDbBlockBegin
  2
_D_2
 70
     0
 10
0.0
 20
0.0
 30
0.0
  3
_D_2
  1

  0
SOLID
  5
158
330
155
100
AcDbEntity
  8
VERMASSUNG
100
AcDbTrace
 10
141.0563932147
 20
146.3318750234
 30
0.0
 11
144.0563932147
 21
145.8818750234
 31
0.0
 12
144.0563932147
 22
146.7818750234
 32
0.0
 13
144.0563932147
 23
146.7818750234
 33
0.0
  0
SOLID
  5
159
330
155
100
AcDbEntity
  8
VERMASSUNG
100
AcDbTrace
 10
191.0563932147
 20
146.3318750234
 30
0.0
 11
188.0563932147
 21
146.7818750234
 31
0.0
 12
188.0563932147
 22
145.8818750234
 32
0.0
 13
188.0563932147
 23
145.8818750234
 33
0.0
  0
LINE
  5
15A
330
155
100
AcDbEntity
  8
VERMASSUNG
100
AcDbLine
 10
141.0563932147
 20
126.0793817347
 30
0.0
 11
141.0563932147
 21
147.3318750234
 31
0.0
  0
LINE
  5
15B
330
155
100
AcDbEntity
  8
VERMASSUNG
100
AcDbLine
 10
191.0563932147
 20
134.7043817347
 30
0.0
 11
191.0563932147
 21
147.3318750234
 31
0.0
  0
LINE
  5
15C
330
155
100
AcDbEntity
  8
VERMASSUNG
100
AcDbLine
 10
141.0563932147
 20
146.3318750234
 30
0.0
 11
191.0563932147
 21
146.3318750234
 31
0.0
  0
MTEXT
  5
15D
330
155
100
AcDbEntity
  8
VERMASSUNG
100
AcDbMText
 10
164.6567032044
 20
148.9100106193
 30
0.0
 40
2.0
 41
0.0
 71
     1
 72
     1
  1
50
  7
SLDTEXTSTYLE0
 73
     1
 44
1.0
  0
ENDBLK
  5
157
330
155
100
AcDbEntity
  8
0
100
AcDbBlockEnd
  0
BLOCK
  5
160
330
15F
100
AcDbEntity
  8
0
100
AcDbBlockBegin
  2
_D_3
 70
     0
 10
0.0
 20
0.0
 30
0.0
  3
_D_3
  1

  0
ARC
  5
162
330
15F
100
AcDbEntity
  8
VERMASSUNG
100
AcDbCircle
 10
141.3431867266
 20
154.2312179688
 30
0.0
 40
4.247059938537297
100
AcDbArc
 50
153.4349488229
 51
206.5650511771
  0
ARC
  5
163
330
15F
100
AcDbEntity
  8
VERMASSUNG
100
AcDbCircle
 10
143.1195997029
 20
154.2312179688
 30
0.0
 40
4.247059938537272
100
AcDbArc
 50
333.4349488229
 51
26.5650511771
  0
SOLID
  5
164
330
15F
100
AcDbEntity
  8
VERMASSUNG
100
AcDbTrace
 10
93.4063932147
 20
152.3318750234
 30
0.0
 11
96.4063932147
 21
151.8818750234
 31
0.0
 12
96.4063932147
 22
152.7818750234
 32
0.0
 13
96.4063932147
 23
152.7818750234
 33
0.0
  0
SOLID
  5
165
330
15F
100
AcDbEntity
  8
VERMASSUNG
100
AcDbTrace
 10
191.0563932147
 20
152.3318750234
 30
0.0
 11
188.0563932147
 21
152.7818750234
 31
0.0
 12
188.0563932147
 22
151.8818750234
 32
0.0
 13
188.0563932147
 23
151.8818750234
 33
0.0
  0
LINE
  5
166
330
15F
100
AcDbEntity
  8
VERMASSUNG
100
AcDbLine
 10
93.4063932147
 20
118.2656789984
 30
0.0
 11
93.4063932147
 21
153.3318750234
 31
0.0
  0
LINE
  5
167
330
15F
100
AcDbEntity
  8
VERMASSUNG
100
AcDbLine
 10
191.0563932147
 20
134.7043817347
 30
0.0
 11
191.0563932147
 21
153.3318750234
 31
0.0
  0
LINE
  5
168
330
15F
100
AcDbEntity
  8
VERMASSUNG
100
AcDbLine
 10
93.4063932147
 20
152.3318750234
 30
0.0
 11
191.0563932147
 21
152.3318750234
 31
0.0
  0
MTEXT
  5
169
330
15F
100
AcDbEntity
  8
VERMASSUNG
100
AcDbMText
 10
139.1320008358
 20
154.9100106193
 30
0.0
 40
2.0
 41
0.0
 71
     1
 72
     1
  1
97.65
  7
SLDTEXTSTYLE0
 73
     1
 44
1.0
  0
ENDBLK
  5
161
330
15F
100
AcDbEntity
  8
0
100
AcDbBlockEnd
  0
BLOCK
  5
16C
330
16B
100
AcDbEntity
  8
0
100
AcDbBlockBegin
  2
_D_4
 70
     0
 10
0.0
 20
0.0
 30
0.0
  3
_D_4
  1

  0
SOLID
  5
16E
330
16B
100
AcDbEntity
  8
VERMASSUNG
100
AcDbTrace
 10
88.2126604737
 20
85.2293817347
 30
0.0
 11
88.6626604737
 21
88.2293817347
 31
0.0
 12
87.7626604737
 22
88.2293817347
 32
0.0
 13
87.7626604737
 23
88.2293817347
 33
0.0
  0
SOLID
  5
16F
330
16B
100
AcDbEntity
  8
VERMASSUNG
100
AcDbTrace
 10
88.2126604737
 20
135.1793817347
 30
0.0
 11
87.7626604737
 21
132.1793817347
 31
0.0
 12
88.6626604737
 22
132.1793817347
 32
0.0
 13
88.6626604737
 23
132.1793817347
 33
0.0
  0
LINE
  5
170
330
16B
100
AcDbEntity
  8
VERMASSUNG
100
AcDbLine
 10
159.5063932147
 20
85.2293817347
 30
0.0
 11
87.2126604737
 21
85.2293817347
 31
0.0
  0
LINE
  5
171
330
16B
100
AcDbEntity
  8
VERMASSUNG
100
AcDbLine
 10
159.5063932147
 20
135.1793817347
 30
0.0
 11
87.2126604737
 21
135.1793817347
 31
0.0
  0
LINE
  5
172
330
16B
100
AcDbEntity
  8
VERMASSUNG
100
AcDbLine
 10
88.2126604737
 20
85.2293817347
 30
0.0
 11
88.2126604737
 21
135.1793817347
 31
0.0
  0
MTEXT
  5
173
330
16B
100
AcDbEntity
  8
VERMASSUNG
100
AcDbMText
 10
85.4345252175
 20
100.6999461013
 30
0.0
 40
2.0
 41
0.0
 71
     1
 72
     1
  1
ISO 30
  7
SLDTEXTSTYLE0
 11
3.391901413832837E-15
 21
1.0
 31
0.0
 73
     1
 44
1.0
  0
MTEXT
  5
174
330
16B
100
AcDbEntity
  8
VERMASSUNG
100
AcDbMText
 10
85.6345251688
 20
109.6999457139
 30
0.0
 40
2.0
 41
0.0
 71
     1
 72
     1
  1
%%c
  7
SLDTEXTSTYLE0
 11
3.391901413832837E-15
 21
1.0
 31
0.0
 73
     1
 44
1.0
  0
MTEXT
  5
175
330
16B
100
AcDbEntity
  8
VERMASSUNG
100
AcDbMText
 10
85.6345248778
 20
113.3092890467
 30
0.0
 40
2.0
 41
0.0
 71
     1
 72
     1
  1
49.95
  7
SLDTEXTSTYLE0
 11
3.391901413832837E-15
 21
1.0
 31
0.0
 73
     1
 44
1.0
  0
ENDBLK
  5
16D
330
16B
100
AcDbEntity
  8
0
100
AcDbBlockEnd
  0
BLOCK
  5
178
330
177
100
AcDbEntity
  8
0
100
AcDbBlockBegin
  2
_D_5
 70
     0
 10
0.0
 20
0.0
 30
0.0
  3
_D_5
  1

  0
SOLID
  5
17A
330
177
100
AcDbEntity
  8
VERMASSUNG
100
AcDbTrace
 10
205.5586248949
 20
135.2043817347
 30
0.0
 11
205.1086248949
 21
132.2043817347
 31
0.0
 12
206.0086248949
 22
132.2043817347
 32
0.0
 13
206.0086248949
 23
132.2043817347
 33
0.0
  0
SOLID
  5
17B
330
177
100
AcDbEntity
  8
VERMASSUNG
100
AcDbTrace
 10
205.5586248949
 20
85.2043817347
 30
0.0
 11
206.0086248949
 21
88.2043817347
 31
0.0
 12
205.1086248949
 22
88.2043817347
 32
0.0
 13
205.1086248949
 23
88.2043817347
 33
0.0
  0
LINE
  5
17C
330
177
100
AcDbEntity
  8
VERMASSUNG
100
AcDbLine
 10
190.5563932147
 20
135.2043817347
 30
0.0
 11
206.5586248949
 21
135.2043817347
 31
0.0
  0
LINE
  5
17D
330
177
100
AcDbEntity
  8
VERMASSUNG
100
AcDbLine
 10
190.5563932147
 20
85.2043817347
 30
0.0
 11
206.5586248949
 21
85.2043817347
 31
0.0
  0
LINE
  5
17E
330
177
100
AcDbEntity
  8
VERMASSUNG
100
AcDbLine
 10
205.5586248949
 20
135.2043817347
 30
0.0
 11
205.5586248949
 21
85.2043817347
 31
0.0
  0
MTEXT
  5
17F
330
177
100
AcDbEntity
  8
VERMASSUNG
100
AcDbMText
 10
202.7804896387
 20
104.0993825128
 30
0.0
 40
2.0
 41
0.0
 71
     1
 72
     1
  1
ST5
  7
SLDTEXTSTYLE0
 11
-7.044195017643634E-15
 21
1.0
 31
0.0
 73
     1
 44
1.0
  0
MTEXT
  5
180
330
177
100
AcDbEntity
  8
VERMASSUNG
100
AcDbMText
 10
202.98048959
 20
109.8993824391
 30
0.0
 40
2.0
 41
0.0
 71
     1
 72
     1
  1
%%c
  7
SLDTEXTSTYLE0
 11
-7.044195017643634E-15
 21
1.0
 31
0.0
 73
     1
 44
1.0
  0
MTEXT
  5
181
330
177
100
AcDbEntity
  8
VERMASSUNG
100
AcDbMText
 10
202.7804896387
 20
113.5093819877
 30
0.0
 40
2.0
 41
0.0
 71
     1
 72
     1
  1
50
  7
SLDTEXTSTYLE0
 11
-7.044195017643634E-15
 21
1.0
 31
0.0
 73
     1
 44
1.0
  0
ENDBLK
  5
179
330
177
100
AcDbEntity
  8
0
100
AcDbBlockEnd
  0
ENDSEC
  0
SECTION
  2
ENTITIES
  0
MTEXT
  5
78
330
1F
100
AcDbEntity
  8
KOPF_DÜNN
100
AcDbMText
 10
13.8892156294
 20
23.8442973028
 30
0.0
 40
3.0
 41
0.0
 71
     1
 72
     1
  1
114.430.050.050
  7
SLDTEXTSTYLE0
 73
     1
 44
1.0
  0
MTEXT
  5
79
330
1F
100
AcDbEntity
  8
VERMASSUNG
100
AcDbMText
 10
13.9329988022
 20
28.8834360957
 30
0.0
 40
3.0
 41
0.0
 71
     1
 72
     1
  1
Aufnahme_Master shank ST5
  7
SLDTEXTSTYLE0
 73
     1
 44
1.0
  0
MTEXT
  5
7A
330
1F
100
AcDbEntity
  8
VERMASSUNG
100
AcDbMText
 10
98.8601118557
 20
13.8365368761
 30
0.0
 40
2.0
 41
0.0
 71
     1
 72
     1
  1
Datum: 14.05.2008
  7
SLDTEXTSTYLE0
 73
     1
 44
1.0
  0
MTEXT
  5
7B
330
1F
100
AcDbEntity
  8
VERMASSUNG
100
AcDbMText
 10
13.933048693
 20
18.0482802738
 30
0.0
 40
2.0
 41
0.0
 71
     1
 72
     1
  1
DIN 69871 A/D ISO 30
  7
SLDTEXTSTYLE0
 73
     1
 44
1.0
  0
MTEXT
  5
7C
330
1F
100
AcDbEntity
  8
VERMASSUNG
100
AcDbMText
 10
13.9808475933
 20
13.9090974274
 30
0.0
 40
2.0
 41
0.0
 71
     1
 72
     1
  1
Gewicht: 623g
  7
SLDTEXTSTYLE0
 73
     1
 44
1.0
  0
LINE
  5
7D
330
1F
100
AcDbEntity
  8
0
  6
Continuous
 62
     7
370
    15
100
AcDbLine
 10
190.5563932147
 20
85.2043817347
 30
0.0
 11
191.0563932147
 21
85.7043817347
 31
0.0
  0
LINE
  5
7E
330
1F
100
AcDbEntity
  8
0
  6
Continuous
 62
     7
370
    15
100
AcDbLine
 10
191.0563932147
 20
134.7043817347
 30
0.0
 11
190.5563932147
 21
135.2043817347
 31
0.0
  0
LINE
  5
7F
330
1F
100
AcDbEntity
  8
0
  6
Continuous
 62
     7
370
    15
100
AcDbLine
 10
190.5563932147
 20
135.2043817347
 30
0.0
 11
177.0563932147
 21
135.2043817347
 31
0.0
  0
LINE
  5
80
330
1F
100
AcDbEntity
  8
0
  6
Continuous
 62
     7
370
    15
100
AcDbLine
 10
177.0563932147
 20
85.2043817347
 30
0.0
 11
190.5563932147
 21
85.2043817347
 31
0.0
  0
ARC
  5
81
330
1F
100
AcDbEntity
  8
0
  6
Continuous
 62
     7
370
    15
100
AcDbCircle
 10
177.0563932147
 20
86.2043817347
 30
0.0
 40
1.0
100
AcDbArc
 50
180.0
 51
270.0
  0
ARC
  5
82
330
1F
100
AcDbEntity
  8
0
  6
Continuous
 62
     7
370
    15
100
AcDbCircle
 10
177.0563932147
 20
134.2043817347
 30
0.0
 40
1.0
100
AcDbArc
 50
90.0
 51
180.0
  0
ARC
  5
83
330
1F
100
AcDbEntity
  8
0
  6
Continuous
 62
     7
370
    15
100
AcDbCircle
 10
175.0563932147
 20
86.7043817347
 30
0.0
 40
1.000000000000014
100
AcDbArc
 50
0.0
 51
90.0
  0
ARC
  5
84
330
1F
100
AcDbEntity
  8
0
  6
Continuous
 62
     7
370
    15
100
AcDbCircle
 10
175.0563932147
 20
133.7043817347
 30
0.0
 40
1.0
100
AcDbArc
 50
270.0
 51
0.0
  0
LINE
  5
85
330
1F
100
AcDbEntity
  8
0
  6
Continuous
 62
     7
370
    15
100
AcDbLine
 10
168.1462206274
 20
87.7043817347
 30
0.0
 11
175.0563932147
 21
87.7043817347
 31
0.0
  0
LINE
  5
86
330
1F
100
AcDbEntity
  8
0
  6
Continuous
 62
     7
370
    15
100
AcDbLine
 10
175.0563932147
 20
132.7043817347
 30
0.0
 11
168.1503087671
 21
132.7043817347
 31
0.0
  0
ARC
  5
87
330
1F
100
AcDbEntity
  8
0
  6
Continuous
 62
     7
370
    15
100
AcDbCircle
 10
143.6563932147
 20
93.7293817347
 30
0.0
 40
0.6000000000000126
100
AcDbArc
 50
27.2585299661
 51
90.0
  0
ARC
  5
88
330
1F
100
AcDbEntity
  8
0
  6
Continuous
 62
     7
370
    15
100
AcDbCircle
 10
143.6563932147
 20
126.6793817347
 30
0.0
 40
0.6000000000000227
100
AcDbArc
 50
270.0
 51
0.0
  0
LINE
  5
89
330
1F
100
AcDbEntity
  8
0
  6
Continuous
 62
     7
370
    15
100
AcDbLine
 10
141.0563932147
 20
94.3293817347
 30
0.0
 11
143.6563932147
 21
94.3293817347
 31
0.0
  0
LINE
  5
8A
330
1F
100
AcDbEntity
  8
0
  6
Continuous
 62
     7
370
    15
100
AcDbLine
 10
143.6563932147
 20
126.0793817347
 30
0.0
 11
141.0563932147
 21
126.0793817347
 31
0.0
  0
LINE
  5
8B
330
1F
100
AcDbEntity
  8
0
  6
Continuous
 62
     7
370
    15
100
AcDbLine
 10
141.0563932147
 20
126.0793817347
 30
0.0
 11
94.2620863217
 21
119.2552119794
 31
0.0
  0
LINE
  5
8C
330
1F
100
AcDbEntity
  8
0
  6
Continuous
 62
     7
370
    15
100
AcDbLine
 10
94.2620863217
 20
101.1535514899
 30
0.0
 11
141.0563932147
 21
94.3293817347
 31
0.0
  0
ARC
  5
8D
330
1F
100
AcDbEntity
  8
0
  6
Continuous
 62
     7
370
    15
100
AcDbCircle
 10
94.4063932147
 20
102.143084471
 30
0.0
 40
1.00000000000001
100
AcDbArc
 50
180.0
 51
261.7028550302
  0
ARC
  5
8E
330
1F
100
AcDbEntity
  8
0
  6
Continuous
 62
     7
370
    15
100
AcDbCircle
 10
94.4063932147
 20
118.2656789984
 30
0.0
 40
1.00000000000001
100
AcDbArc
 50
98.2971449698
 51
180.0
  0
SPLINE
  5
8F
330
1F
100
AcDbEntity
  8
0
  6
Continuous
 62
     7
370
    15
100
AcDbSpline
210
0.0
220
0.0
230
1.0
 70
    24
 71
     3
 72
    15
 73
    11
 74
     0
 42
0.000000001
 43
0.00000001
 40
0.0
 40
0.0
 40
0.0
 40
0.0
 40
0.0640504367340793
 40
0.1282061551362664
 40
0.301597118861527
 40
0.4801922626499453
 40
0.644912149973194
 40
0.8155191712969906
 40
0.9075602129381495
 40
1.0
 40
1.0
 40
1.0
 40
1.0
 10
177.8413563300188
 20
107.3223518666806
 30
0.0
 10
177.7929934368357
 20
107.3540930643275
 30
0.0
 10
177.6961881548979
 20
107.4176276336017
 30
0.0
 10
177.4631231745537
 20
107.570591220326
 30
0.0
 10
177.1298210496204
 20
107.7893417525481
 30
0.0
 10
176.6965959991709
 20
108.0736730041917
 30
0.0
 10
176.2634447042403
 20
108.3579558491263
 30
0.0
 10
175.9155571042054
 20
108.586279018912
 30
0.0
 10
175.6375581738473
 20
108.7687333431537
 30
0.0
 10
175.4979291196753
 20
108.860373712743
 30
0.0
 10
175.4279636922319
 20
108.9062929354105
 30
0.0
  0
SPLINE
  5
90
330
1F
100
AcDbEntity
  8
0
  6
Continuous
 62
     7
370
    15
100
AcDbSpline
210
0.0
220
0.0
230
1.0
 70
    24
 71
     3
 72
    15
 73
    11
 74
     0
 42
0.000000001
 43
0.00000001
 40
0.0
 40
0.0
 40
0.0
 40
0.0
 40
0.1077864249424418
 40
0.2161691032193857
 40
0.32731338034258
 40
0.4399575567902555
 40
0.5934881890594568
 40
0.7521499596953856
 40
0.8755072857156175
 40
1.0
 40
1.0
 40
1.0
 40
1.0
 10
180.5848227372539
 20
111.5024705339403
 30
0.0
 10
180.579235491012
 20
111.4049007659689
 30
0.0
 10
180.5680300909791
 20
111.2092214932314
 30
0.0
 10
180.5503637998554
 20
110.900716041494
 30
0.0
 10
180.5318926815712
 20
110.5781559381614
 30
0.0
 10
180.5103725408179
 20
110.2023509263415
 30
0.0
 10
180.4858221548257
 20
109.7736289117528
 30
0.0
 10
180.4612182600159
 20
109.3439724756812
 30
0.0
 10
180.4391150800402
 20
108.9579858825983
 30
0.0
 10
180.4262485752984
 20
108.7332988314313
 30
0.0
 10
180.4197858525299
 20
108.6204406659455
 30
0.0
  0
SPLINE
  5
91
330
1F
100
AcDbEntity
  8
0
  6
Continuous
 62
     7
370
    15
100
AcDbSpline
210
0.0
220
0.0
230
1.0
 70
    24
 71
     3
 72
    13
 73
     9
 74
     0
 42
0.000000001
 43
0.00000001
 40
0.0
 40
0.0
 40
0.0
 40
0.0
 40
0.1844095697098915
 40
0.3495005370884486
 40
0.5197705331556569
 40
0.6927076360809618
 40
0.8718061725834206
 40
1.0
 40
1.0
 40
1.0
 40
1.0
 10
178.1714300994671
 20
113.0864116026702
 30
0.0
 10
178.3120890041832
 20
112.9940953287353
 30
0.0
 10
178.5786714967398
 20
112.81913376154
 30
0.0
 10
179.0024304769134
 20
112.5410152152948
 30
0.0
 10
179.4306478252714
 20
112.2599705838548
 30
0.0
 10
179.8683122514415
 20
111.972725712018
 30
0.0
 10
180.2542611559713
 20
111.7194224116166
 30
0.0
 10
180.4875155088169
 20
111.5663345372494
 30
0.0
 10
180.5848227372539
 20
111.5024705339403
 30
0.0
  0
SPLINE
  5
92
330
1F
100
AcDbEntity
  8
0
  6
Continuous
 62
     7
370
    15
100
AcDbSpline
210
0.0
220
0.0
230
1.0
 70
    24
 71
     3
 72
    11
 73
     7
 74
     0
 42
0.000000001
 43
0.00000001
 40
0.0
 40
0.0
 40
0.0
 40
0.0
 40
0.2164543009645048
 40
0.4403089937225405
 40
0.751898748975949
 40
1.0
 40
1.0
 40
1.0
 40
1.0
 10
175.593000576956
 20
111.7883228034053
 30
0.0
 10
175.7696246016835
 20
111.8772426928877
 30
0.0
 10
176.1289112790489
 20
112.0581225686188
 30
0.0
 10
176.795652929083
 20
112.3937880814267
 30
0.0
 10
177.5108564189268
 20
112.753851302568
 30
0.0
 10
177.9685448216568
 20
112.9842707047469
 30
0.0
 10
178.1714300994671
 20
113.0864116026702
 30
0.0
  0
SPLINE
  5
93
330
1F
100
AcDbEntity
  8
0
  6
Continuous
 62
     7
370
    15
100
AcDbSpline
210
0.0
220
0.0
230
1.0
 70
    24
 71
     3
 72
    11
 73
     7
 74
     0
 42
0.000000001
 43
0.00000001
 40
0.0
 40
0.0
 40
0.0
 40
0.0
 40
0.216454300964504
 40
0.4403089937225356
 40
0.7518987489759473
 40
1.0
 40
1.0
 40
1.0
 40
1.0
 10
175.4279636922319
 20
108.9062929354105
 30
0.0
 10
175.4392688214022
 20
109.1037137724844
 30
0.0
 10
175.4622655926684
 20
109.5053051001897
 30
0.0
 10
175.5049415564195
 20
110.2505530632844
 30
0.0
 10
175.5507194048645
 20
111.049969064935
 30
0.0
 10
175.5800145504178
 20
111.5615485498061
 30
0.0
 10
175.593000576956
 20
111.7883228034053
 30
0.0
  0
CIRCLE
  5
94
330
1F
100
AcDbEntity
  8
0
  6
Continuous
 62
     7
370
    15
100
AcDbCircle
 10
178.0063932147
 20
110.2043817347
 30
0.0
 40
2.999999999999996
  0
SPLINE
  5
95
330
1F
100
AcDbEntity
  8
0
  6
Continuous
 62
     7
370
    15
100
AcDbSpline
210
0.0
220
0.0
230
1.0
 70
    24
 71
     3
 72
    15
 73
    11
 74
     0
 42
0.000000001
 43
0.00000001
 40
0.0
 40
0.0
 40
0.0
 40
0.0
 40
0.1077864249424421
 40
0.2161691032193831
 40
0.3273133803425815
 40
0.4399575567902569
 40
0.5934881890594558
 40
0.7521499596953848
 40
0.8755072857156159
 40
0.9999999999999999
 40
0.9999999999999999
 40
0.9999999999999999
 40
0.9999999999999999
 10
180.4197858525299
 20
108.6204406659455
 30
0.0
 10
180.3324943317043
 20
108.5764944791426
 30
0.0
 10
180.1574284105032
 20
108.4883590038619
 30
0.0
 10
179.8814217065307
 20
108.349405734897
 30
0.0
 10
179.5928409036552
 20
108.2041221409011
 30
0.0
 10
179.256624146173
 20
108.0348566235765
 30
0.0
 10
178.8730647973815
 20
107.8417568742241
 30
0.0
 10
178.4886694614391
 20
107.6482362541256
 30
0.0
 10
178.1433436763212
 20
107.4743848729476
 30
0.0
 10
177.9423257297383
 20
107.3731840673284
 30
0.0
 10
177.8413563300189
 20
107.3223518666806
 30
0.0
  0
CIRCLE
  5
96
330
1F
100
AcDbEntity
  8
0
  6
Continuous
 62
     7
370
    15
100
AcDbCircle
 10
178.0063932147
 20
110.2043817347
 30
0.0
 40
4.499999999999998
  0
ARC
  5
97
330
1F
100
AcDbEntity
  8
0
  6
Continuous
 62
     7
370
    15
100
AcDbCircle
 10
178.0063932147
 20
110.2043817347
 30
0.0
 40
2.500000000000024
100
AcDbArc
 50
116.7225872738
 51
176.7225872738
  0
ARC
  5
98
330
1F
100
AcDbEntity
  8
0
  6
Continuous
 62
     7
370
    15
100
AcDbCircle
 10
178.0063932147
 20
110.2043817347
 30
0.0
 40
2.500000000000024
100
AcDbArc
 50
296.7225872738
 51
356.7225872738
  0
ARC
  5
99
330
1F
100
AcDbEntity
  8
0
  6
Continuous
 62
     7
370
    15
100
AcDbCircle
 10
178.0063932147
 20
110.2043817347
 30
0.0
 40
2.500000000000024
100
AcDbArc
 50
56.7225872738
 51
116.7225872738
  0
ARC
  5
9A
330
1F
100
AcDbEntity
  8
0
  6
Continuous
 62
     7
370
    15
100
AcDbCircle
 10
178.0063932147
 20
110.2043817347
 30
0.0
 40
2.500000000000024
100
AcDbArc
 50
356.7225872738
 51
56.7225872738
  0
ARC
  5
9B
330
1F
100
AcDbEntity
  8
0
  6
Continuous
 62
     7
370
    15
100
AcDbCircle
 10
178.0063932147
 20
110.2043817347
 30
0.0
 40
2.499999999999999
100
AcDbArc
 50
236.7225872738
 51
296.7225872738
  0
ARC
  5
9C
330
1F
100
AcDbEntity
  8
0
  6
Continuous
 62
     7
370
    15
100
AcDbCircle
 10
178.0063932147
 20
110.2043817347
 30
0.0
 40
2.500000000000024
100
AcDbArc
 50
176.7225872738
 51
236.7225872738
  0
SPLINE
  5
9D
330
1F
100
AcDbEntity
  8
0
  6
Continuous
 62
     7
370
    15
100
AcDbSpline
210
0.0
220
0.0
230
1.0
 70
     8
 71
     3
 72
    14
 73
    10
 74
     0
 42
0.000000001
 43
0.00000001
 40
0.0
 40
0.0
 40
0.0
 40
0.0
 40
0.25
 40
0.25
 40
0.5
 40
0.5
 40
0.75
 40
0.75
 40
1.0
 40
1.0
 40
1.0
 40
1.0
 10
176.056393214743
 20
104.0569189458943
 30
0.0
 10
176.056393214743
 20
103.9497855331798
 30
0.0
 10
176.0793693765069
 20
103.842444682387
 30
0.0
 10
176.1687590589376
 20
103.628760439181
 30
0.0
 10
176.234830840819
 20
103.524906595256
 30
0.0
 10
176.4081970805301
 20
103.3360313255867
 30
0.0
 10
176.5158571168771
 20
103.2508949934936
 30
0.0
 10
176.7680883948145
 20
103.1192909874157
 30
0.0
 10
176.9084779729407
 20
103.0750032047352
 30
0.0
 10
177.056393214743
 20
103.0598836040083
 30
0.0
  0
SPLINE
  5
9E
330
1F
100
AcDbEntity
  8
0
  6
Continuous
 62
     7
370
    15
100
AcDbSpline
210
0.0
220
0.0
230
1.0
 70
    24
 71
     3
 72
     8
 73
     4
 74
     0
 42
0.000000001
 43
0.00000001
 40
0.0
 40
0.0
 40
0.0
 40
0.0
 40
1.0
 40
1.0
 40
1.0
 40
1.0
 10
176.056393214743
 20
104.0569189459027
 30
0.0
 10
176.056393214743
 20
104.1991792779302
 30
0.0
 10
176.056393214743
 20
104.3416550770262
 30
0.0
 10
176.056393214743
 20
104.4843955946942
 30
0.0
  0
SPLINE
  5
9F
330
1F
100
AcDbEntity
  8
0
  6
Continuous
 62
     7
370
    15
100
AcDbSpline
210
0.0
220
0.0
230
1.0
 70
     8
 71
     3
 72
    14
 73
    10
 74
     0
 42
0.000000001
 43
0.00000001
 40
0.0
 40
0.0
 40
0.0
 40
0.0
 40
0.25
 40
0.25
 40
0.5
 40
0.5
 40
0.75
 40
0.75
 40
1.0
 40
1.0
 40
1.0
 40
1.0
 10
175.056393214743
 20
105.7867481254962
 30
0.0
 10
175.1983432025657
 20
105.7103516064266
 30
0.0
 10
175.3282227334483
 20
105.6195688157422
 30
0.0
 10
175.5698539182796
 20
105.4166221061542
 30
0.0
 10
175.6766127226813
 20
105.3078255261912
 30
0.0
 10
175.8577251552822
 20
105.0781231177132
 30
0.0
 10
175.9288720179709
 20
104.9613580526775
 30
0.0
 10
176.0289584511652
 20
104.7216963377185
 30
0.0
 10
176.056393214743
 20
104.6017491485913
 30
0.0
 10
176.056393214743
 20
104.4843955946942
 30
0.0
  0
SPLINE
  5
A0
330
1F
100
AcDbEntity
  8
0
  6
Continuous
 62
     7
370
    15
100
AcDbSpline
210
0.0
220
0.0
230
1.0
 70
     8
 71
     3
 72
    34
 73
    30
 74
     0
 42
0.000000001
 43
0.00000001
 40
0.0
 40
0.0
 40
0.0
 40
0.0
 40
0.0624999999999994
 40
0.0624999999999994
 40
0.1249999999999989
 40
0.1249999999999989
 40
0.1874999999999983
 40
0.1874999999999983
 40
0.2499999999999978
 40
0.2499999999999978
 40
0.3749999999999977
 40
0.3749999999999977
 40
0.4374999999999978
 40
0.4374999999999978
 40
0.4999999999999978
 40
0.4999999999999978
 40
0.5624999999999979
 40
0.5624999999999979
 40
0.624999999999998
 40
0.624999999999998
 40
0.6874999999999981
 40
0.6874999999999981
 40
0.7499999999999982
 40
0.7499999999999982
 40
0.8749999999999984
 40
0.8749999999999984
 40
0.9374999999999992
 40
0.9374999999999992
 40
1.0
 40
1.0
 40
1.0
 40
1.0
 10
175.0563932147431
 20
114.6220153438547
 30
0.0
 10
174.8549503614421
 20
114.513600168766
 30
0.0
 10
174.6577953192812
 20
114.3922471559552
 30
0.0
 10
174.2842817487753
 20
114.1304193673956
 30
0.0
 10
174.1066274217167
 20
113.9893746060868
 30
0.0
 10
173.769752196499
 20
113.6865875436196
 30
0.0
 10
173.6105247646133
 20
113.5248531449519
 30
0.0
 10
173.311708699693
 20
113.1791436250518
 30
0.0
 10
173.1717380762722
 20
112.9941598464536
 30
0.0
 10
172.7966309400895
 20
112.4217449426061
 30
0.0
 10
172.6004860432412
 20
112.0123206379505
 30
0.0
 10
172.3959838477437
 20
111.3513922179606
 30
0.0
 10
172.3439382551604
 20
111.1252264292765
 30
0.0
 10
172.2747311231666
 20
110.6731303236071
 30
0.0
 10
172.2569975208147
 20
110.4454630013901
 30
0.0
 10
172.2558191413919
 20
109.9868338470781
 30
0.0
 10
172.2728162184843
 20
109.7538445146212
 30
0.0
 10
172.3408628631584
 20
109.2983235341058
 30
0.0
 10
172.3915691747086
 20
109.0750438384846
 30
0.0
 10
172.5250641294345
 20
108.6370764934495
 30
0.0
 10
172.6084844972427
 20
108.4211134790854
 30
0.0
 10
172.8048860673926
 20
108.0039376268395
 30
0.0
 10
172.9168249626405
 20
107.8043830343725
 30
0.0
 10
173.2911444131495
 20
107.2308739211292
 30
0.0
 10
173.5959088456116
 20
106.8789296617261
 30
0.0
 10
174.1043134804976
 20
106.4212216153441
 30
0.0
 10
174.2828129347696
 20
106.2794275793813
 30
0.0
 10
174.6574544397828
 20
106.0167016653226
 30
0.0
 10
174.8547613022037
 20
105.8952650509824
 30
0.0
 10
175.0563932147431
 20
105.7867481254961
 30
0.0
  0
SPLINE
  5
A1
330
1F
100
AcDbEntity
  8
0
  6
Continuous
 62
     7
370
    15
100
AcDbSpline
210
0.0
220
0.0
230
1.0
 70
     8
 71
     3
 72
    14
 73
    10
 74
     0
 42
0.000000001
 43
0.00000001
 40
0.0
 40
0.0
 40
0.0
 40
0.0
 40
0.25
 40
0.25
 40
0.5
 40
0.5
 40
0.75
 40
0.75
 40
1.0
 40
1.0
 40
1.0
 40
1.0
 10
176.056393214743
 20
115.9243678746566
 30
0.0
 10
176.056393214743
 20
115.8069788136698
 30
0.0
 10
176.02948422541
 20
115.6887644482122
 30
0.0
 10
175.92953179257
 20
115.4485521117997
 30
0.0
 10
175.8579685636618
 20
115.3310700369848
 30
0.0
 10
175.6775749400839
 20
115.1020381418488
 30
0.0
 10
175.5711041678112
 20
114.9934119033349
 30
0.0
 10
175.3310151706613
 20
114.7913232565575
 30
0.0
 10
175.1982081396866
 20
114.6983391730003
 30
0.0
 10
175.056393214743
 20
114.6220153438547
 30
0.0
  0
SPLINE
  5
A2
330
1F
100
AcDbEntity
  8
0
  6
Continuous
 62
     7
370
    15
100
AcDbSpline
210
0.0
220
0.0
230
1.0
 70
    24
 71
     3
 72
     8
 73
     4
 74
     0
 42
0.000000001
 43
0.00000001
 40
0.0
 40
0.0
 40
0.0
 40
0.0
 40
1.0
 40
1.0
 40
1.0
 40
1.0
 10
176.056393214743
 20
115.9243678746566
 30
0.0
 10
176.056393214743
 20
116.0670977248813
 30
0.0
 10
176.056393214743
 20
116.2095742613642
 30
0.0
 10
176.056393214743
 20
116.3518445234481
 30
0.0
  0
SPLINE
  5
A3
330
1F
100
AcDbEntity
  8
0
  6
Continuous
 62
     7
370
    15
100
AcDbSpline
210
0.0
220
0.0
230
1.0
 70
     8
 71
     3
 72
    14
 73
    10
 74
     0
 42
0.000000001
 43
0.00000001
 40
0.0
 40
0.0
 40
0.0
 40
0.0
 40
0.25
 40
0.25
 40
0.5
 40
0.5
 40
0.75
 40
0.75
 40
1.0
 40
1.0
 40
1.0
 40
1.0
 10
177.056393214743
 20
117.3488798653425
 30
0.0
 10
176.9090572952897
 20
117.3338194817896
 30
0.0
 10
176.767598414644
 20
117.2890856357143
 30
0.0
 10
176.5180690564676
 20
117.1591528679344
 30
0.0
 10
176.4096946231407
 20
117.0740671946487
 30
0.0
 10
176.2357144416569
 20
116.8851119459105
 30
0.0
 10
176.1694619278029
 20
116.7812783884553
 30
0.0
 10
176.0796581211441
 20
116.5674094075034
 30
0.0
 10
176.056393214743
 20
116.4586880887801
 30
0.0
 10
176.056393214743
 20
116.3518445234481
 30
0.0
  0
SPLINE
  5
A4
330
1F
100
AcDbEntity
  8
0
  6
Continuous
 62
     7
370
    15
100
AcDbSpline
210
0.0
220
0.0
230
1.0
 70
     8
 71
     3
 72
    53
 73
    49
 74
     0
 42
0.000000001
 43
0.00000001
 40
0.0
 40
0.0
 40
0.0
 40
0.0
 40
0.0625000000000006
 40
0.0625000000000006
 40
0.1250000000000012
 40
0.1250000000000012
 40
0.1562500000000014
 40
0.1562500000000014
 40
0.1875000000000017
 40
0.1875000000000017
 40
0.2500000000000023
 40
0.2500000000000023
 40
0.2812500000000023
 40
0.2812500000000023
 40
0.3125000000000022
 40
0.3125000000000022
 40
0.3750000000000017
 40
0.3750000000000017
 40
0.4375000000000011
 40
0.4375000000000011
 40
0.4687500000000009
 40
0.4687500000000009
 40
0.5000000000000008
 40
0.5312500000000007
 40
0.5312500000000007
 40
0.5625000000000004
 40
0.5625000000000004
 40
0.5937500000000003
 40
0.5937500000000003
 40
0.6250000000000001
 40
0.6250000000000001
 40
0.6874999999999998
 40
0.6874999999999998
 40
0.7187499999999996
 40
0.7187499999999996
 40
0.7499999999999994
 40
0.7499999999999994
 40
0.7812499999999993
 40
0.7812499999999993
 40
0.8124999999999991
 40
0.8124999999999991
 40
0.8749999999999989
 40
0.8749999999999989
 40
0.9062499999999992
 40
0.9062499999999992
 40
0.9374999999999996
 40
0.9374999999999996
 40
1.0
 40
1.0
 40
1.0
 40
1.0
 10
177.056393214743
 20
117.3488798653425
 30
0.0
 10
177.5983647818715
 20
117.4042791169712
 30
0.0
 10
178.1540121703649
 20
117.4120519201584
 30
0.0
 10
179.2429284711021
 20
117.3312096978019
 30
0.0
 10
179.7791487927149
 20
117.243840626374
 30
0.0
 10
180.5710552228927
 20
117.0413067773065
 30
0.0
 10
180.8340556587378
 20
116.96138969121
 30
0.0
 10
181.3503688824313
 20
116.7782002778899
 30
0.0
 10
181.6022251142051
 20
116.6755720650387
 30
0.0
 10
182.3392504754432
 20
116.3348984223387
 30
0.0
 10
182.8060989805973
 20
116.0644810522154
 30
0.0
 10
183.4673406279177
 20
115.5882829645912
 30
0.0
 10
183.6820836645443
 20
115.4167265083226
 30
0.0
 10
184.0878652161304
 20
115.056523444049
 30
0.0
 10
184.2800239921327
 20
114.8672266117551
 30
0.0
 10
184.8238636540727
 20
114.271068436751
 30
0.0
 10
185.1434662620655
 20
113.8364310653765
 30
0.0
 10
185.6832006696244
 20
112.8793766866948
 30
0.0
 10
185.8924369128993
 20
112.3752878784153
 30
0.0
 10
186.1076133050381
 20
111.5839117193895
 30
0.0
 10
186.163118164683
 20
111.3116867254532
 30
0.0
 10
186.236944270467
 20
110.7667320813813
 30
0.0
 10
186.2742883086065
 20
110.221602275284
 30
0.0
 10
186.239957069682
 20
109.6761279782526
 30
0.0
 10
186.1690622717085
 20
109.1304781134236
 30
0.0
 10
186.1150519477065
 20
108.8580845623491
 30
0.0
 10
185.974321448206
 20
108.3294406035851
 30
0.0
 10
185.8873887240372
 20
108.071053837538
 30
0.0
 10
185.6816592913614
 20
107.5656393845107
 30
0.0
 10
185.5620771009873
 20
107.3172761420944
 30
0.0
 10
185.1613825597972
 20
106.5991994769381
 30
0.0
 10
184.8421454278586
 20
106.1600961574962
 30
0.0
 10
184.2925843946655
 20
105.5541937335488
 30
0.0
 10
184.0970689250948
 20
105.3609817681458
 30
0.0
 10
183.6909517433893
 20
104.9993620059331
 30
0.0
 10
183.4794281254718
 20
104.8298517882699
 30
0.0
 10
183.0401674671865
 20
104.5122201054078
 30
0.0
 10
182.8124273541236
 20
104.3641032551724
 30
0.0
 10
182.3408375003278
 20
104.0888771826508
 30
0.0
 10
182.096799070601
 20
103.9618573184149
 30
0.0
 10
181.3548577527431
 20
103.6187317755967
 30
0.0
 10
180.8426872671161
 20
103.4373261193019
 30
0.0
 10
180.0486142387819
 20
103.2336442869172
 30
0.0
 10
179.7782570761471
 20
103.1770585470738
 30
0.0
 10
179.2357435113263
 20
103.0886024275365
 30
0.0
 10
178.9641359624093
 20
103.0566735417092
 30
0.0
 10
178.1482895628301
 20
102.9966578894048
 30
0.0
 10
177.6030356684362
 20
103.0040069036797
 30
0.0
 10
177.056393214743
 20
103.0598836040083
 30
0.0
  0
LINE
  5
A5
330
1F
100
AcDbEntity
  8
0
  6
Continuous
 62
     7
370
    15
100
AcDbLine
 10
191.0563932147
 20
110.2043817347
 30
0.0
 11
191.0563932147
 21
85.7043817347
 31
0.0
  0
LINE
  5
A6
330
1F
100
AcDbEntity
  8
0
  6
Continuous
 62
     7
370
    15
100
AcDbLine
 10
191.0563932147
 20
134.7043817347
 30
0.0
 11
191.0563932147
 21
110.2043817347
 31
0.0
  0
LINE
  5
A7
330
1F
100
AcDbEntity
  8
0
  6
Continuous
 62
     7
370
    15
100
AcDbLine
 10
190.5563932147
 20
110.2043817347
 30
0.0
 11
190.5563932147
 21
85.2043817347
 31
0.0
  0
LINE
  5
A8
330
1F
100
AcDbEntity
  8
0
  6
Continuous
 62
     7
370
    15
100
AcDbLine
 10
190.5563932147
 20
135.2043817347
 30
0.0
 11
190.5563932147
 21
110.2043817347
 31
0.0
  0
LINE
  5
A9
330
1F
100
AcDbEntity
  8
0
  6
Continuous
 62
     7
370
    15
100
AcDbLine
 10
155.5194585328
 20
86.8966466775
 30
0.0
 11
159.5063932147
 21
86.8966466775
 31
0.0
  0
LINE
  5
AA
330
1F
100
AcDbEntity
  8
0
  6
Continuous
 62
     7
370
    15
100
AcDbLine
 10
155.5194585328
 20
86.8966466775
 30
0.0
 11
155.5194585328
 21
125.0543817347
 31
0.0
  0
LINE
  5
AB
330
1F
100
AcDbEntity
  8
0
  6
Continuous
 62
     7
370
    15
100
AcDbLine
 10
159.5063932147
 20
125.0543817347
 30
0.0
 11
155.5194585328
 21
125.0543817347
 31
0.0
  0
SPLINE
  5
AC
330
1F
100
AcDbEntity
  8
0
  6
Continuous
 62
     7
370
    15
100
AcDbSpline
210
0.0
220
0.0
230
1.0
 70
     8
 71
     3
 72
    12
 73
     8
 74
     0
 42
0.000000001
 43
0.00000001
 40
0.0
 40
0.0
 40
0.0
 40
0.0
 40
0.2500000000000012
 40
0.2500000000000012
 40
0.5000000000000024
 40
0.5000000000000024
 40
1.0
 40
1.0
 40
1.0
 40
1.0
 10
159.506393214743
 20
86.89664667751282
 30
0.0
 10
159.6016072525248
 20
86.89664667751282
 30
0.0
 10
159.6935326514098
 20
86.9106537312058
 30
0.0
 10
159.8497734696726
 20
86.95704711213871
 30
0.0
 10
159.9135796393618
 20
86.98863575383555
 30
0.0
 10
160.0629058604134
 20
87.09491661764791
 30
0.0
 10
160.106393214743
 20
87.17785744661921
 30
0.0
 10
160.106393214743
 20
87.26122107249213
 30
0.0
  0
SPLINE
  5
AD
330
1F
100
AcDbEntity
  8
0
  6
Continuous
 62
     7
370
    15
100
AcDbSpline
210
0.0
220
0.0
230
1.0
 70
    24
 71
     3
 72
    14
 73
    10
 74
     0
 42
0.000000001
 43
0.00000001
 40
0.0
 40
0.0
 40
0.0
 40
0.0
 40
0.25
 40
0.25
 40
0.5
 40
0.5
 40
0.75
 40
0.75
 40
1.0
 40
1.0
 40
1.0
 40
1.0
 10
160.106393214743
 20
125.0543817346754
 30
0.0
 10
160.106393214743
 20
125.0543817346754
 30
0.0
 10
160.0940700229034
 20
125.0543817346754
 30
0.0
 10
160.0441259074454
 20
125.0543817346754
 30
0.0
 10
160.0058953556065
 20
125.0543817346754
 30
0.0
 10
159.9030506441677
 20
125.0543817346754
 30
0.0
 10
159.8379551313356
 20
125.0543817346754
 30
0.0
 10
159.6828671242597
 20
125.0543817346754
 30
0.0
 10
159.5950777213254
 20
125.0543817346754
 30
0.0
 10
159.5063932147429
 20
125.0543817346754
 30
0.0
  0
LINE
  5
AE
330
1F
100
AcDbEntity
  8
0
  6
Continuous
 62
     7
370
    15
100
AcDbLine
 10
160.1063932147
 20
87.2612210725
 30
0.0
 11
160.1063932147
 21
125.0543817347
 31
0.0
  0
LINE
  5
AF
330
1F
100
AcDbEntity
  8
0
  6
Continuous
 62
     7
370
    15
100
AcDbLine
 10
144.8563932147
 20
86.8966466775
 30
0.0
 11
148.7933278967
 21
86.8966466775
 31
0.0
  0
LINE
  5
B0
330
1F
100
AcDbEntity
  8
0
  6
Continuous
 62
     7
370
    15
100
AcDbLine
 10
148.7933278967
 20
125.0543817347
 30
0.0
 11
144.8563932147
 21
125.0543817347
 31
0.0
  0
LINE
  5
B1
330
1F
100
AcDbEntity
  8
0
  6
Continuous
 62
     7
370
    15
100
AcDbLine
 10
148.7933278967
 20
86.8966466775
 30
0.0
 11
148.7933278967
 21
125.0543817347
 31
0.0
  0
SPLINE
  5
B2
330
1F
100
AcDbEntity
  8
0
  6
Continuous
 62
     7
370
    15
100
AcDbSpline
210
0.0
220
0.0
230
1.0
 70
     8
 71
     3
 72
     8
 73
     4
 74
     0
 42
0.000000001
 43
0.00000001
 40
0.0
 40
0.0
 40
0.0
 40
0.0
 40
0.0011140524372172
 40
0.0011140524372172
 40
0.0011140524372172
 40
0.0011140524372172
 10
155.0895277621607
 20
87.35034964890046
 30
0.0
 10
155.2311369310862
 20
87.19880337286226
 30
0.0
 10
155.3745079758727
 20
87.04757604757899
 30
0.0
 10
155.5194585327725
 20
86.89664667751282
 30
0.0
  0
SPLINE
  5
B3
330
1F
100
AcDbEntity
  8
0
  6
Continuous
 62
     7
370
    15
100
AcDbSpline
210
0.0
220
0.0
230
1.0
 70
     8
 71
     3
 72
     8
 73
     4
 74
     0
 42
0.000000001
 43
0.00000001
 40
0.0
 40
0.0
 40
0.0
 40
0.0
 40
1.0
 40
1.0
 40
1.0
 40
1.0
 10
155.0895277621607
 20
87.35034964890046
 30
0.0
 10
154.7471800400851
 20
87.97902250659206
 30
0.0
 10
154.406010114499
 20
88.60837738014587
 30
0.0
 10
154.0663932147429
 20
89.23848054426415
 30
0.0
  0
LINE
  5
B4
330
1F
100
AcDbEntity
  8
0
  6
Continuous
 62
     7
370
    15
100
AcDbLine
 10
154.0663932147
 20
89.2384805443
 30
0.0
 11
154.0663932147
 21
125.0543817347
 31
0.0
  0
SPLINE
  5
B5
330
1F
100
AcDbEntity
  8
0
  6
Continuous
 62
     7
370
    15
100
AcDbSpline
210
0.0
220
0.0
230
1.0
 70
    24
 71
     3
 72
     8
 73
     4
 74
     0
 42
0.000000001
 43
0.00000001
 40
0.0
 40
0.0
 40
0.0
 40
0.0
 40
1.0
 40
1.0
 40
1.0
 40
1.0
 10
155.5194585327725
 20
125.0543817346754
 30
0.0
 10
155.0221029871758
 20
125.0543817346754
 30
0.0
 10
154.536021049157
 20
125.0543817346754
 30
0.0
 10
154.0663932147429
 20
125.0543817346754
 30
0.0
  0
SPLINE
  5
B6
330
1F
100
AcDbEntity
  8
0
  6
Continuous
 62
     7
370
    15
100
AcDbSpline
210
0.0
220
0.0
230
1.0
 70
     8
 71
     3
 72
    10
 73
     6
 74
     0
 42
0.000000001
 43
0.00000001
 40
0.0
 40
0.0
 40
0.0
 40
0.0
 40
0.5
 40
0.5
 40
1.0
 40
1.0
 40
1.0
 40
1.0
 10
144.488516074648
 20
86.9725643072858
 30
0.0
 10
144.536588909044
 20
86.9500363647834
 30
0.0
 10
144.5922787830481
 20
86.93104307409666
 30
0.0
 10
144.7175554184117
 20
86.90416279492973
 30
0.0
 10
144.7860011059099
 20
86.89664667751282
 30
0.0
 10
144.856393214743
 20
86.89664667751282
 30
0.0
  0
SPLINE
  5
B7
330
1F
100
AcDbEntity
  8
0
  6
Continuous
 62
     7
370
    15
100
AcDbSpline
210
0.0
220
0.0
230
1.0
 70
     8
 71
     3
 72
    10
 73
     6
 74
     0
 42
0.000000001
 43
0.00000001
 40
0.0
 40
0.0
 40
0.0
 40
0.0
 40
0.5
 40
0.5
 40
1.0
 40
1.0
 40
1.0
 40
1.0
 10
144.488516074648
 20
86.9725643072858
 30
0.0
 10
144.4260569993462
 20
87.0481220217107
 30
0.0
 10
144.370327846598
 20
87.13669053833408
 30
0.0
 10
144.2856524642085
 20
87.33880796717214
 30
0.0
 10
144.2563932147429
 20
87.45272179520838
 30
0.0
 10
144.256393214743
 20
87.57170347955064
 30
0.0
  0
LINE
  5
B8
330
1F
100
AcDbEntity
  8
0
  6
Continuous
 62
     7
370
    15
100
AcDbLine
 10
144.2563932147
 20
87.5717034796
 30
0.0
 11
144.2563932147
 21
125.0543817347
 31
0.0
  0
SPLINE
  5
B9
330
1F
100
AcDbEntity
  8
0
  6
Continuous
 62
     7
370
    15
100
AcDbSpline
210
0.0
220
0.0
230
1.0
 70
    24
 71
     3
 72
    12
 73
     8
 74
     0
 42
0.000000001
 43
0.00000001
 40
0.0
 40
0.0
 40
0.0
 40
0.0
 40
0.250000000000002
 40
0.250000000000002
 40
0.500000000000004
 40
0.500000000000004
 40
1.0
 40
1.0
 40
1.0
 40
1.0
 10
144.856393214743
 20
125.0543817346754
 30
0.0
 10
144.7682076916449
 20
125.0543817346754
 30
0.0
 10
144.6795082382481
 20
125.0543817346754
 30
0.0
 10
144.5253303338923
 20
125.0543817346754
 30
0.0
 10
144.4600144616158
 20
125.0543817346754
 30
0.0
 10
144.3056281585082
 20
125.0543817346754
 30
0.0
 10
144.256393214743
 20
125.0543817346754
 30
0.0
 10
144.256393214743
 20
125.0543817346754
 30
0.0
  0
SPLINE
  5
BA
330
1F
100
AcDbEntity
  8
0
  6
Continuous
 62
     7
370
    15
100
AcDbSpline
210
0.0
220
0.0
230
1.0
 70
     8
 71
     3
 72
     8
 73
     4
 74
     0
 42
0.000000001
 43
0.00000001
 40
0.0
 40
0.0
 40
0.0
 40
0.0
 40
1.0
 40
1.0
 40
1.0
 40
1.0
 10
150.2463932147429
 20
89.23848054426415
 30
0.0
 10
149.9067576995858
 20
88.60834284233842
 30
0.0
 10
149.5656009883585
 20
87.97901258834668
 30
0.0
 10
149.2232586673252
 20
87.35034964890046
 30
0.0
  0
SPLINE
  5
BB
330
1F
100
AcDbEntity
  8
0
  6
Continuous
 62
     7
370
    15
100
AcDbSpline
210
0.0
220
0.0
230
1.0
 70
     8
 71
     3
 72
     8
 73
     4
 74
     0
 42
0.000000001
 43
0.00000001
 40
0.0
 40
0.0
 40
0.0
 40
0.0
 40
0.0011140524372172
 40
0.0011140524372172
 40
0.0011140524372172
 40
0.0011140524372172
 10
148.7933278967134
 20
86.89664667751282
 30
0.0
 10
148.9382784536132
 20
87.04757604757899
 30
0.0
 10
149.0816494983996
 20
87.19880337286226
 30
0.0
 10
149.2232586673252
 20
87.35034964890046
 30
0.0
  0
SPLINE
  5
BC
330
1F
100
AcDbEntity
  8
0
  6
Continuous
 62
     7
370
    15
100
AcDbSpline
210
0.0
220
0.0
230
1.0
 70
    24
 71
     3
 72
     8
 73
     4
 74
     0
 42
0.000000001
 43
0.00000001
 40
0.0
 40
0.0
 40
0.0
 40
0.0
 40
1.0
 40
1.0
 40
1.0
 40
1.0
 10
150.2463932147429
 20
125.0543817346754
 30
0.0
 10
149.7767653803288
 20
125.0543817346754
 30
0.0
 10
149.2906834423101
 20
125.0543817346754
 30
0.0
 10
148.7933278967134
 20
125.0543817346754
 30
0.0
  0
LINE
  5
BD
330
1F
100
AcDbEntity
  8
0
  6
Continuous
 62
     7
370
    15
100
AcDbLine
 10
150.2463932147
 20
89.2384805443
 30
0.0
 11
150.2463932147
 21
125.0543817347
 31
0.0
  0
LINE
  5
BE
330
1F
100
AcDbEntity
  8
0
  6
Continuous
 62
     7
370
    15
100
AcDbLine
 10
176.0563932147
 20
116.3518445234
 30
0.0
 11
176.0563932147
 21
134.2043817347
 31
0.0
  0
LINE
  5
BF
330
1F
100
AcDbEntity
  8
0
  6
Continuous
 62
     7
370
    15
100
AcDbLine
 10
176.0563932147
 20
86.2043817347
 30
0.0
 11
176.0563932147
 21
104.0569189459
 31
0.0
  0
SPLINE
  5
C0
330
1F
100
AcDbEntity
  8
0
  6
Continuous
 62
     7
370
    15
100
AcDbSpline
210
0.0
220
0.0
230
1.0
 70
     8
 71
     3
 72
    14
 73
    10
 74
     0
 42
0.000000001
 43
0.00000001
 40
0.0
 40
0.0
 40
0.0
 40
0.0
 40
0.25
 40
0.25
 40
0.5
 40
0.5
 40
0.75
 40
0.75
 40
1.0
 40
1.0
 40
1.0
 40
1.0
 10
161.106393214743
 20
89.16994568328577
 30
0.0
 10
160.9714486190435
 20
89.17636109634319
 30
0.0
 10
160.8366817551104
 20
89.1516868809068
 30
0.0
 10
160.5900853638833
 20
89.04601801400382
 30
0.0
 10
160.4781920669286
 20
88.96479644916431
 30
0.0
 10
160.296493154072
 20
88.766273263919
 30
0.0
 10
160.2256577940383
 20
88.64882402790529
 30
0.0
 10
160.1304011646844
 20
88.3953389328453
 30
0.0
 10
160.106393214743
 20
88.26184234984952
 30
0.0
 10
160.106393214743
 20
88.12616849175197
 30
0.0
  0
SPLINE
  5
C1
330
1F
100
AcDbEntity
  8
0
  6
Continuous
 62
     7
370
    15
100
AcDbSpline
210
0.0
220
0.0
230
1.0
 70
    24
 71
     3
 72
    12
 73
     8
 74
     0
 42
0.000000001
 43
0.00000001
 40
0.0
 40
0.0
 40
0.0
 40
0.0
 40
0.2499999999999996
 40
0.2499999999999996
 40
0.4999999999999992
 40
0.4999999999999992
 40
1.0
 40
1.0
 40
1.0
 40
1.0
 10
161.106393214743
 20
125.0543817346754
 30
0.0
 10
160.9530792286732
 20
125.0543817346754
 30
0.0
 10
160.802482418973
 20
125.0543817346754
 30
0.0
 10
160.5476820515402
 20
125.0543817346754
 30
0.0
 10
160.4399791658429
 20
125.0543817346754
 30
0.0
 10
160.1857443873143
 20
125.0543817346754
 30
0.0
 10
160.1063932147429
 20
125.0543817346754
 30
0.0
 10
160.1063932147429
 20
125.0543817346754
 30
0.0
  0
SPLINE
  5
C2
330
1F
100
AcDbEntity
  8
0
  6
Continuous
 62
     7
370
    15
100
AcDbSpline
210
0.0
220
0.0
230
1.0
 70
     8
 71
     3
 72
    22
 73
    18
 74
     0
 42
0.000000001
 43
0.00000001
 40
0.0
 40
0.0
 40
0.0
 40
0.0
 40
0.0097393596441684
 40
0.0653859527283841
 40
0.1506738635484594
 40
0.2314822079890282
 40
0.2858251214930226
 40
0.3689024628581064
 40
0.4527973858430649
 40
0.5092021692867663
 40
0.5953971584766192
 40
0.6830493710400325
 40
0.7424422253734065
 40
0.8027211849935612
 40
0.8330156616588494
 40
0.9021252055458862
 40
1.0
 40
1.0
 40
1.0
 40
1.0
 10
168.1503087670918
 20
132.702209610253
 30
0.0
 10
168.1523305776192
 20
132.702931272811
 30
0.0
 10
168.1659041607297
 20
132.7077762108383
 30
0.0
 10
168.1149159288169
 20
132.6895434449251
 30
0.0
 10
167.9879839947875
 20
132.6444117397091
 30
0.0
 10
167.7485373452765
 20
132.5612318701313
 30
0.0
 10
167.4369928932672
 20
132.4564596183666
 30
0.0
 10
167.0431447336337
 20
132.3288638761266
 30
0.0
 10
166.5578692681636
 20
132.1814612908071
 30
0.0
 10
165.9973311632972
 20
132.0230905644288
 30
0.0
 10
165.360448874248
 20
131.8577925609252
 30
0.0
 10
164.6414527057582
 20
131.6950563528157
 30
0.0
 10
163.9544533801555
 20
131.5617193478932
 30
0.0
 10
163.4321409313319
 20
131.4746880794476
 30
0.0
 10
162.8586748538413
 20
131.3923550420705
 30
0.0
 10
162.1291348209958
 20
131.3031857646888
 30
0.0
 10
161.4843323231106
 20
131.2626040252283
 30
0.0
 10
161.106393214743
 20
131.2388177860651
 30
0.0
  0
SPLINE
  5
C3
330
1F
100
AcDbEntity
  8
0
  6
Continuous
 62
     7
370
    15
100
AcDbSpline
210
0.0
220
0.0
230
1.0
 70
     8
 71
     3
 72
    23
 73
    19
 74
     0
 42
0.000000001
 43
0.00000001
 40
0.0
 40
0.0
 40
0.0
 40
0.0
 40
0.0653777097461926
 40
0.1506139747525943
 40
0.2042325703048277
 40
0.2858035143841334
 40
0.3688358491181962
 40
0.4245099457922162
 40
0.5091734342631522
 40
0.5953233717356323
 40
0.6536097181684619
 40
0.7423620147359212
 40
0.7723636646725001
 40
0.8023654370843368
 40
0.8329472941764787
 40
0.8880551732292923
 40
0.9437965701483064
 40
1.0
 40
1.0
 40
1.0
 40
1.0
 10
168.1462206274442
 20
87.70801548112888
 30
0.0
 10
168.143235007531
 20
87.7090898484138
 30
0.0
 10
168.1363568821886
 20
87.71156492329413
 30
0.0
 10
168.0009875797855
 20
87.75973718297207
 30
0.0
 10
167.782793903205
 20
87.83565899921852
 30
0.0
 10
167.4849757866752
 20
87.93676450968921
 30
0.0
 10
167.0932421039116
 20
88.06366755448045
 30
0.0
 10
166.6230773797501
 20
88.2078323342181
 30
0.0
 10
166.0752231594185
 20
88.36546078208998
 30
0.0
 10
165.4414064384738
 20
88.52994789329874
 30
0.0
 10
164.7355946061317
 20
88.69332795546225
 30
0.0
 10
164.1556593175127
 20
88.81011560040116
 30
0.0
 10
163.6441409771087
 20
88.89871761210583
 30
0.0
 10
163.3254740127174
 20
88.94935194880956
 30
0.0
 10
162.9100758979059
 20
89.00924074039226
 30
0.0
 10
162.3886116143501
 20
89.07290868887416
 30
0.0
 10
161.7567985231664
 20
89.13316620404962
 30
0.0
 10
161.3237907058703
 20
89.1576521696761
 30
0.0
 10
161.106393214743
 20
89.16994568328577
 30
0.0
  0
LINE
  5
C4
330
1F
100
AcDbEntity
  8
0
  6
Continuous
 62
     7
370
    15
100
AcDbLine
 10
165.4579212215
 20
125.0543817347
 30
0.0
 11
161.1063932147
 21
125.0543817347
 31
0.0
  0
SPLINE
  5
C5
330
1F
100
AcDbEntity
  8
0
  6
Continuous
 62
     7
370
    15
100
AcDbSpline
210
0.0
220
0.0
230
1.0
 70
     8
 71
     3
 72
    16
 73
    12
 74
     0
 42
0.000000001
 43
0.00000001
 40
0.0
 40
0.0
 40
0.0
 40
0.0
 40
0.2499999999999997
 40
0.2499999999999997
 40
0.3749999999999999
 40
0.3749999999999999
 40
0.5000000000000001
 40
0.5000000000000001
 40
0.7499999999999998
 40
0.7499999999999998
 40
1.0
 40
1.0
 40
1.0
 40
1.0
 10
161.106393214743
 20
127.0525271740689
 30
0.0
 10
161.5476344738472
 20
127.0033219333915
 30
0.0
 10
161.9719033718006
 20
126.9228488916012
 30
0.0
 10
162.5849336377596
 20
126.7567060542822
 30
0.0
 10
162.7853511207233
 20
126.6936814170035
 30
0.0
 10
163.1783758596042
 20
126.5518296321104
 30
0.0
 10
163.3710869460669
 20
126.4728149497371
 30
0.0
 10
163.9250270342023
 20
126.2171232338523
 30
0.0
 10
164.266851247585
 20
126.020394309667
 30
0.0
 10
164.9014464489167
 20
125.5745196423355
 30
0.0
 10
165.1939240725892
 20
125.3248170650277
 30
0.0
 10
165.4579212214846
 20
125.0543817346754
 30
0.0
  0
SPLINE
  5
C6
330
1F
100
AcDbEntity
  8
0
  6
Continuous
 62
     7
370
    15
100
AcDbSpline
210
0.0
220
0.0
230
1.0
 70
     8
 71
     3
 72
    10
 73
     6
 74
     0
 42
0.000000001
 43
0.00000001
 40
0.0
 40
0.0
 40
0.0
 40
0.0
 40
0.5
 40
0.5
 40
1.0
 40
1.0
 40
1.0
 40
1.0
 10
154.066393214743
 20
89.23848054426416
 30
0.0
 10
154.0315117663043
 20
89.36760056052655
 30
0.0
 10
153.9588071395368
 20
89.4841483035721
 30
0.0
 10
153.7553456185977
 20
89.65303142749153
 30
0.0
 10
153.6235218562798
 20
89.70320798778958
 30
0.0
 10
153.4900396383048
 20
89.70320798778958
 30
0.0
  0
SPLINE
  5
C7
330
1F
100
AcDbEntity
  8
0
  6
Continuous
 62
     7
370
    15
100
AcDbSpline
210
0.0
220
0.0
230
1.0
 70
    24
 71
     3
 72
    14
 73
    10
 74
     0
 42
0.000000001
 43
0.00000001
 40
0.0
 40
0.0
 40
0.0
 40
0.0
 40
0.25
 40
0.25
 40
0.5
 40
0.5
 40
0.75
 40
0.75
 40
1.0
 40
1.0
 40
1.0
 40
1.0
 10
154.066393214743
 20
125.0543817346754
 30
0.0
 10
154.0508525755872
 20
125.0543817346754
 30
0.0
 10
154.0279264140972
 20
125.0543817346754
 30
0.0
 10
153.9648584364622
 20
125.0543817346754
 30
0.0
 10
153.924831933792
 20
125.0543817346754
 30
0.0
 10
153.8273476171169
 20
125.0543817346754
 30
0.0
 10
153.7694125951498
 20
125.0543817346754
 30
0.0
 10
153.6376631706877
 20
125.0543817346754
 30
0.0
 10
153.5645185761886
 20
125.0543817346754
 30
0.0
 10
153.4900396383048
 20
125.0543817346754
 30
0.0
  0
SPLINE
  5
C8
330
1F
100
AcDbEntity
  8
0
  6
Continuous
 62
     7
370
    15
100
AcDbSpline
210
0.0
220
0.0
230
1.0
 70
     8
 71
     3
 72
    12
 73
     8
 74
     0
 42
0.000000001
 43
0.00000001
 40
0.0
 40
0.0
 40
0.0
 40
0.0
 40
0.25
 40
0.25
 40
0.5
 40
0.5
 40
1.0
 40
1.0
 40
1.0
 40
1.0
 10
150.8227467911811
 20
89.7032079877896
 30
0.0
 10
150.7567500312657
 20
89.70320798778958
 30
0.0
 10
150.6900892193134
 20
89.69129186879073
 30
0.0
 10
150.5644838078468
 20
89.64480664179199
 30
0.0
 10
150.5075578693085
 20
89.61154723941823
 30
0.0
 10
150.3532854133741
 20
89.48372914009138
 30
0.0
 10
150.2810858244786
 20
89.36690153977197
 30
0.0
 10
150.2463932147429
 20
89.23848054426415
 30
0.0
  0
SPLINE
  5
C9
330
1F
100
AcDbEntity
  8
0
  6
Continuous
 62
     7
370
    15
100
AcDbSpline
210
0.0
220
0.0
230
1.0
 70
    24
 71
     3
 72
    12
 73
     8
 74
     0
 42
0.000000001
 43
0.00000001
 40
0.0
 40
0.0
 40
0.0
 40
0.0
 40
0.2500000000000012
 40
0.2500000000000012
 40
0.5000000000000024
 40
0.5000000000000024
 40
1.0
 40
1.0
 40
1.0
 40
1.0
 10
150.8227467911811
 20
125.0543817346754
 30
0.0
 10
150.7482507845695
 20
125.0543817346754
 30
0.0
 10
150.6749049191435
 20
125.0543817346754
 30
0.0
 10
150.544511683701
 20
125.0543817346754
 30
0.0
 10
150.4861945682587
 20
125.0543817346754
 30
0.0
 10
150.3398418404112
 20
125.0543817346754
 30
0.0
 10
150.2776146682443
 20
125.0543817346754
 30
0.0
 10
150.2463932147429
 20
125.0543817346754
 30
0.0
  0
LINE
  5
CA
330
1F
100
AcDbEntity
  8
0
  6
Continuous
 62
     7
370
    15
100
AcDbLine
 10
153.4900396383
 20
89.7032079878
 30
0.0
 11
150.8227467912
 21
89.7032079878
 31
0.0
  0
LINE
  5
CB
330
1F
100
AcDbEntity
  8
0
  6
Continuous
 62
     7
370
    15
100
AcDbLine
 10
153.4900396383
 20
125.0543817347
 30
0.0
 11
150.8227467912
 21
125.0543817347
 31
0.0
  0
SPLINE
  5
CC
330
1F
100
AcDbEntity
  8
0
  6
Continuous
 62
     7
370
    15
100
AcDbSpline
210
0.0
220
0.0
230
1.0
 70
     8
 71
     3
 72
    14
 73
    10
 74
     0
 42
0.000000001
 43
0.00000001
 40
0.0
 40
0.0
 40
0.0
 40
0.0
 40
0.25
 40
0.25
 40
0.5
 40
0.5
 40
0.75
 40
0.75
 40
1.0
 40
1.0
 40
1.0
 40
1.0
 10
160.1063932147429
 20
128.4177696677317
 30
0.0
 10
160.1063932147429
 20
128.2639110544348
 30
0.0
 10
160.127325119554
 20
128.1112944353356
 30
0.0
 10
160.2124413758437
 20
127.8143856426598
 30
0.0
 10
160.2747779587431
 20
127.6753266058232
 30
0.0
 10
160.445235062045
 20
127.4189888850591
 30
0.0
 10
160.5517549454212
 20
127.3051851852232
 30
0.0
 10
160.8074032456321
 20
127.1288815403951
 30
0.0
 10
160.952644585133
 20
127.0696725297381
 30
0.0
 10
161.1063932147428
 20
127.0525271740677
 30
0.0
  0
LINE
  5
CD
330
1F
100
AcDbEntity
  8
0
  6
Continuous
 62
     7
370
    15
100
AcDbLine
 10
141.0563932147
 20
94.3293817347
 30
0.0
 11
141.0563932147
 21
126.0793817347
 31
0.0
  0
SPLINE
  5
CE
330
1F
100
AcDbEntity
  8
0
  6
Continuous
 62
     7
370
    15
100
AcDbSpline
210
0.0
220
0.0
230
1.0
 70
     8
 71
     3
 72
    14
 73
    10
 74
     0
 42
0.000000001
 43
0.00000001
 40
0.0
 40
0.0
 40
0.0
 40
0.0
 40
0.25
 40
0.25
 40
0.5
 40
0.5
 40
0.75
 40
0.75
 40
1.0
 40
1.0
 40
1.0
 40
1.0
 10
161.106393214743
 20
131.2388177860651
 30
0.0
 10
160.9714486190435
 20
131.2324023730076
 30
0.0
 10
160.8366817551104
 20
131.257076588444
 30
0.0
 10
160.5900853638833
 20
131.362745455347
 30
0.0
 10
160.4781920669286
 20
131.4439670201865
 30
0.0
 10
160.296493154072
 20
131.6424902054318
 30
0.0
 10
160.2256577940383
 20
131.7599394414455
 30
0.0
 10
160.1304011646844
 20
132.0134245365055
 30
0.0
 10
160.106393214743
 20
132.1469211195013
 30
0.0
 10
160.106393214743
 20
132.2825949775989
 30
0.0
  0
SPLINE
  5
CF
330
1F
100
AcDbEntity
  8
0
  6
Continuous
 62
     7
370
    15
100
AcDbSpline
210
0.0
220
0.0
230
1.0
 70
     8
 71
     3
 72
    10
 73
     6
 74
     0
 42
0.000000001
 43
0.00000001
 40
0.0
 40
0.0
 40
0.0
 40
0.0
 40
0.5
 40
0.5
 40
1.0
 40
1.0
 40
1.0
 40
1.0
 10
144.5746317291033
 20
133.5282269905754
 30
0.0
 10
144.4901857369232
 20
133.4486516591442
 30
0.0
 10
144.416605217551
 20
133.3529647159975
 30
0.0
 10
144.2987471423982
 20
133.1181396168725
 30
0.0
 10
144.256393214744
 20
132.981950346488
 30
0.0
 10
144.256393214743
 20
132.8370599898051
 30
0.0
  0
SPLINE
  5
D0
330
1F
100
AcDbEntity
  8
0
  6
Continuous
 62
     7
370
    15
100
AcDbSpline
210
0.0
220
0.0
230
1.0
 70
     8
 71
     3
 72
     8
 73
     4
 74
     0
 42
0.000000001
 43
0.00000001
 40
0.0
 40
0.0
 40
0.0
 40
0.0
 40
1.0
 40
1.0
 40
1.0
 40
1.0
 10
144.856393214743
 20
133.5828079365176
 30
0.0
 10
144.7571196136128
 20
133.5828079365176
 30
0.0
 10
144.6603082686185
 20
133.5636323814847
 30
0.0
 10
144.5746317291033
 20
133.5282269905754
 30
0.0
  0
SPLINE
  5
D1
330
1F
100
AcDbEntity
  8
0
  6
Continuous
 62
     7
370
    15
100
AcDbSpline
210
0.0
220
0.0
230
1.0
 70
     8
 71
     3
 72
    12
 73
     8
 74
     0
 42
0.000000001
 43
0.00000001
 40
0.0
 40
0.0
 40
0.0
 40
0.0
 40
0.5
 40
0.5
 40
0.75
 40
0.75
 40
1.0
 40
1.0
 40
1.0
 40
1.0
 10
144.2563932147429
 20
129.5335856758624
 30
0.0
 10
144.2563932147429
 20
129.7110101954466
 30
0.0
 10
144.3045465424683
 20
129.8887141143728
 30
0.0
 10
144.459947556579
 20
130.106908577864
 30
0.0
 10
144.5250686096284
 20
130.1697581212591
 30
0.0
 10
144.6800802611385
 20
130.2598782433912
 30
0.0
 10
144.7679167534114
 20
130.2849226885444
 30
0.0
 10
144.856393214743
 20
130.2849226885444
 30
0.0
  0
LINE
  5
D2
330
1F
100
AcDbEntity
  8
0
  6
Continuous
 62
     7
370
    15
100
AcDbLine
 10
144.2563932147
 20
129.5335856759
 30
0.0
 11
144.2563932147
 21
132.8370599898
 31
0.0
  0
LINE
  5
D3
330
1F
100
AcDbEntity
  8
0
  6
Continuous
 62
     7
370
    15
100
AcDbLine
 10
148.7933278967
 20
133.5828079365
 30
0.0
 11
144.8563932147
 21
133.5828079365
 31
0.0
  0
LINE
  5
D4
330
1F
100
AcDbEntity
  8
0
  6
Continuous
 62
     7
370
    15
100
AcDbLine
 10
148.7933278967
 20
130.2849226885
 30
0.0
 11
148.7933278967
 21
133.5828079365
 31
0.0
  0
LINE
  5
D5
330
1F
100
AcDbEntity
  8
0
  6
Continuous
 62
     7
370
    15
100
AcDbLine
 10
144.8563932147
 20
130.2849226885
 30
0.0
 11
148.7933278967
 21
130.2849226885
 31
0.0
  0
SPLINE
  5
D6
330
1F
100
AcDbEntity
  8
0
  6
Continuous
 62
     7
370
    15
100
AcDbSpline
210
0.0
220
0.0
230
1.0
 70
     8
 71
     3
 72
    12
 73
     8
 74
     0
 42
0.000000001
 43
0.00000001
 40
0.0
 40
0.0
 40
0.0
 40
0.0
 40
0.5
 40
0.5
 40
0.75
 40
0.75
 40
1.0
 40
1.0
 40
1.0
 40
1.0
 10
160.106393214743
 20
133.1157393486157
 30
0.0
 10
160.1063932147429
 20
133.2335074591376
 30
0.0
 10
160.0498731528444
 20
133.3489964150819
 30
0.0
 10
159.8867681780705
 20
133.4823501848392
 30
0.0
 10
159.8210196325152
 20
133.5186081956376
 30
0.0
 10
159.6717304661555
 20
133.5692156428882
 30
0.0
 10
159.5899365391234
 20
133.5828079365176
 30
0.0
 10
159.506393214743
 20
133.5828079365176
 30
0.0
  0
LINE
  5
D7
330
1F
100
AcDbEntity
  8
0
  6
Continuous
 62
     7
370
    15
100
AcDbLine
 10
160.1063932147
 20
129.5335856759
 30
0.0
 11
160.1063932147
 21
133.1157393486
 31
0.0
  0
SPLINE
  5
D8
330
1F
100
AcDbEntity
  8
0
  6
Continuous
 62
     7
370
    15
100
AcDbSpline
210
0.0
220
0.0
230
1.0
 70
     8
 71
     3
 72
    12
 73
     8
 74
     0
 42
0.000000001
 43
0.00000001
 40
0.0
 40
0.0
 40
0.0
 40
0.0
 40
0.250000000000002
 40
0.250000000000002
 40
0.500000000000004
 40
0.500000000000004
 40
1.0
 40
1.0
 40
1.0
 40
1.0
 10
159.506393214743
 20
130.2849226885442
 30
0.0
 10
159.5949344887869
 20
130.2849226885442
 30
0.0
 10
159.6842511372446
 20
130.2590517255895
 30
0.0
 10
159.8368462172146
 20
130.1701928427775
 30
0.0
 10
159.9024563190057
 20
130.1073114171565
 30
0.0
 10
160.0579158720547
 20
129.8894362372658
 30
0.0
 10
160.106393214743
 20
129.7104977041868
 30
0.0
 10
160.106393214743
 20
129.5335856758624
 30
0.0
  0
LINE
  5
D9
330
1F
100
AcDbEntity
  8
0
  6
Continuous
 62
     7
370
    15
100
AcDbLine
 10
159.5063932147
 20
133.5828079365
 30
0.0
 11
155.5194585328
 21
133.5828079365
 31
0.0
  0
LINE
  5
DA
330
1F
100
AcDbEntity
  8
0
  6
Continuous
 62
     7
370
    15
100
AcDbLine
 10
155.5194585328
 20
130.2849226885
 30
0.0
 11
159.5063932147
 21
130.2849226885
 31
0.0
  0
LINE
  5
DB
330
1F
100
AcDbEntity
  8
0
  6
Continuous
 62
     7
370
    15
100
AcDbLine
 10
155.5194585328
 20
130.2849226885
 30
0.0
 11
155.5194585328
 21
133.5828079365
 31
0.0
  0
LINE
  5
DC
330
1F
100
AcDbEntity
  8
0
  6
Continuous
 62
     7
370
    15
100
AcDbLine
 10
153.4900396383
 20
130.7055554816
 30
0.0
 11
150.8227467912
 21
130.7055554816
 31
0.0
  0
LINE
  5
DD
330
1F
100
AcDbEntity
  8
0
  6
Continuous
 62
     7
370
    15
100
AcDbLine
 10
150.8227467912
 20
126.4702393819
 30
0.0
 11
153.4900396383
 21
126.4702393819
 31
0.0
  0
SPLINE
  5
DE
330
1F
100
AcDbEntity
  8
0
  6
Continuous
 62
     7
370
    15
100
AcDbSpline
210
0.0
220
0.0
230
1.0
 70
     8
 71
     3
 72
     8
 73
     4
 74
     0
 42
0.000000001
 43
0.00000001
 40
0.0
 40
0.0
 40
0.0
 40
0.0
 40
1.0
 40
1.0
 40
1.0
 40
1.0
 10
148.7933278967134
 20
130.2849226885441
 30
0.0
 10
149.291232306005
 20
129.2123254158279
 30
0.0
 10
149.7773384656392
 20
128.1351692650048
 30
0.0
 10
150.2463932147429
 20
127.0522009622813
 30
0.0
  0
SPLINE
  5
DF
330
1F
100
AcDbEntity
  8
0
  6
Continuous
 62
     7
370
    15
100
AcDbSpline
210
0.0
220
0.0
230
1.0
 70
     8
 71
     3
 72
    12
 73
     8
 74
     0
 42
0.000000001
 43
0.00000001
 40
0.0
 40
0.0
 40
0.0
 40
0.0
 40
0.4999999999999976
 40
0.4999999999999976
 40
0.7499999999999988
 40
0.7499999999999988
 40
1.0
 40
1.0
 40
1.0
 40
1.0
 10
150.2463932147428
 20
127.0522009622813
 30
0.0
 10
150.2773842406051
 20
126.9094415160411
 30
0.0
 10
150.339257013437
 20
126.770232448891
 30
0.0
 10
150.4864197401786
 20
126.6041123633023
 30
0.0
 10
150.5443803751134
 20
126.5566310249667
 30
0.0
 10
150.6756382461091
 20
126.4893345320575
 30
0.0
 10
150.7493242041961
 20
126.4702393819071
 30
0.0
 10
150.8227467911811
 20
126.4702393819071
 30
0.0
  0
SPLINE
  5
E0
330
1F
100
AcDbEntity
  8
0
  6
Continuous
 62
     7
370
    15
100
AcDbSpline
210
0.0
220
0.0
230
1.0
 70
     8
 71
     3
 72
    14
 73
    10
 74
     0
 42
0.000000001
 43
0.00000001
 40
0.0
 40
0.0
 40
0.0
 40
0.0
 40
0.25
 40
0.25
 40
0.5
 40
0.5
 40
0.75
 40
0.75
 40
1.0
 40
1.0
 40
1.0
 40
1.0
 10
153.4900396383051
 20
126.470239381907
 30
0.0
 10
153.5634982283398
 20
126.470239381907
 30
0.0
 10
153.6373474787989
 20
126.4893497736812
 30
0.0
 10
153.7691693540464
 20
126.5571099471867
 30
0.0
 10
153.8272885490299
 20
126.6050434445877
 30
0.0
 10
153.9244670289918
 20
126.7149604588177
 30
0.0
 10
153.9646320953294
 20
126.778047936793
 30
0.0
 10
154.027631726726
 20
126.9106427825315
 30
0.0
 10
154.0507296774564
 20
126.9800472388416
 30
0.0
 10
154.066393214743
 20
127.0522009622813
 30
0.0
  0
SPLINE
  5
E1
330
1F
100
AcDbEntity
  8
0
  6
Continuous
 62
     7
370
    15
100
AcDbSpline
210
0.0
220
0.0
230
1.0
 70
     8
 71
     3
 72
     8
 73
     4
 74
     0
 42
0.000000001
 43
0.00000001
 40
0.0
 40
0.0
 40
0.0
 40
0.0
 40
1.0
 40
1.0
 40
1.0
 40
1.0
 10
154.0663932147429
 20
127.0522009622813
 30
0.0
 10
154.5354479638466
 20
128.1351692650048
 30
0.0
 10
155.0215541234809
 20
129.2123254158279
 30
0.0
 10
155.5194585327725
 20
130.2849226885442
 30
0.0
  0
LINE
  5
E2
330
1F
100
AcDbEntity
  8
0
  6
Continuous
 62
     7
370
    15
100
AcDbLine
 10
160.1063932147
 20
129.5335856759
 30
0.0
 11
160.1063932147
 21
128.4177696677
 31
0.0
  0
LINE
  5
E3
330
1F
100
AcDbEntity
  8
0
  6
Continuous
 62
     7
370
    15
100
AcDbLine
 10
144.2563932147
 20
129.5335856759
 30
0.0
 11
144.2563932147
 21
125.0543817347
 31
0.0
  0
SPLINE
  5
E4
330
1F
100
AcDbEntity
  8
0
  6
Continuous
 62
     7
370
    15
100
AcDbSpline
210
0.0
220
0.0
230
1.0
 70
     8
 71
     3
 72
     8
 73
     4
 74
     0
 42
0.000000001
 43
0.00000001
 40
0.0
 40
0.0
 40
0.0
 40
0.0
 40
0.0011754745544621
 40
0.0011754745544621
 40
0.0011754745544621
 40
0.0011754745544621
 10
149.3386168798149
 20
132.8464655049357
 30
0.0
 10
149.1574592847585
 20
133.092136667261
 30
0.0
 10
148.9756718347732
 20
133.3375760029364
 30
0.0
 10
148.7933278967134
 20
133.5828079365176
 30
0.0
  0
SPLINE
  5
E5
330
1F
100
AcDbEntity
  8
0
  6
Continuous
 62
     7
370
    15
100
AcDbSpline
210
0.0
220
0.0
230
1.0
 70
     8
 71
     3
 72
     8
 73
     4
 74
     0
 42
0.000000001
 43
0.00000001
 40
0.0
 40
0.0
 40
0.0
 40
0.0
 40
1.0
 40
1.0
 40
1.0
 40
1.0
 10
150.2463932147428
 20
131.1702829250869
 30
0.0
 10
149.9449273319426
 20
131.7296031672849
 30
0.0
 10
149.6422593756322
 20
132.288290778109
 30
0.0
 10
149.3386168798149
 20
132.8464655049357
 30
0.0
  0
LINE
  5
E6
330
1F
100
AcDbEntity
  8
0
  6
Continuous
 62
     7
370
    15
100
AcDbLine
 10
150.2463932147
 20
127.0522009623
 30
0.0
 11
150.2463932147
 21
131.1702829251
 31
0.0
  0
SPLINE
  5
E7
330
1F
100
AcDbEntity
  8
0
  6
Continuous
 62
     7
370
    15
100
AcDbSpline
210
0.0
220
0.0
230
1.0
 70
     8
 71
     3
 72
    10
 73
     6
 74
     0
 42
0.000000001
 43
0.00000001
 40
0.0
 40
0.0
 40
0.0
 40
0.0
 40
0.5
 40
0.5
 40
1.0
 40
1.0
 40
1.0
 40
1.0
 10
150.8227467911811
 20
130.7055554815612
 30
0.0
 10
150.6904855984644
 20
130.7055554815612
 30
0.0
 10
150.5586466665873
 20
130.7549754885076
 30
0.0
 10
150.3540952171093
 20
130.9242761488109
 30
0.0
 10
150.2809306644806
 20
131.04243628249
 30
0.0
 10
150.2463932147429
 20
131.1702829250868
 30
0.0
  0
SPLINE
  5
E8
330
1F
100
AcDbEntity
  8
0
  6
Continuous
 62
     7
370
    15
100
AcDbSpline
210
0.0
220
0.0
230
1.0
 70
     8
 71
     3
 72
     8
 73
     4
 74
     0
 42
0.000000001
 43
0.00000001
 40
0.0
 40
0.0
 40
0.0
 40
0.0
 40
1.0
 40
1.0
 40
1.0
 40
1.0
 10
154.974169549671
 20
132.8464655049357
 30
0.0
 10
154.6705270538536
 20
132.2882907781089
 30
0.0
 10
154.3678590975432
 20
131.7296031672848
 30
0.0
 10
154.0663932147429
 20
131.1702829250867
 30
0.0
  0
SPLINE
  5
E9
330
1F
100
AcDbEntity
  8
0
  6
Continuous
 62
     7
370
    15
100
AcDbSpline
210
0.0
220
0.0
230
1.0
 70
     8
 71
     3
 72
     8
 73
     4
 74
     0
 42
0.000000001
 43
0.00000001
 40
0.0
 40
0.0
 40
0.0
 40
0.0
 40
0.0011754745544621
 40
0.0011754745544621
 40
0.0011754745544621
 40
0.0011754745544621
 10
155.5194585327725
 20
133.5828079365176
 30
0.0
 10
155.3371145947127
 20
133.3375760029364
 30
0.0
 10
155.1553271447273
 20
133.092136667261
 30
0.0
 10
154.974169549671
 20
132.8464655049357
 30
0.0
  0
LINE
  5
EA
330
1F
100
AcDbEntity
  8
0
  6
Continuous
 62
     7
370
    15
100
AcDbLine
 10
154.0663932147
 20
127.0522009623
 30
0.0
 11
154.0663932147
 21
131.1702829251
 31
0.0
  0
SPLINE
  5
EB
330
1F
100
AcDbEntity
  8
0
  6
Continuous
 62
     7
370
    15
100
AcDbSpline
210
0.0
220
0.0
230
1.0
 70
     8
 71
     3
 72
    10
 73
     6
 74
     0
 42
0.000000001
 43
0.00000001
 40
0.0
 40
0.0
 40
0.0
 40
0.0
 40
0.5
 40
0.5
 40
1.0
 40
1.0
 40
1.0
 40
1.0
 10
154.066393214743
 20
131.1702829250867
 30
0.0
 10
154.0316730660844
 20
131.0417599892543
 30
0.0
 10
153.9591590552908
 20
130.9247597137472
 30
0.0
 10
153.7541935327205
 20
130.7549238904947
 30
0.0
 10
153.6229499339829
 20
130.7055554815612
 30
0.0
 10
153.4900396383048
 20
130.7055554815612
 30
0.0
  0
LINE
  5
EC
330
1F
100
AcDbEntity
  8
0
  6
Continuous
 62
     7
370
    15
100
AcDbLine
 10
93.4063932147
 20
102.143084471
 30
0.0
 11
93.4063932147
 21
118.2656789472
 31
0.0
  0
CIRCLE
  5
ED
330
1F
100
AcDbEntity
  8
0
  6
HIDDEN
 62
     7
370
     0
100
AcDbCircle
 10
178.0063932147
 20
110.2043817347
 30
0.0
 40
4.999999999999995
  0
CIRCLE
  5
EE
330
1F
100
AcDbEntity
  8
0
  6
HIDDEN
 62
     7
370
     0
100
AcDbCircle
 10
178.0063932147
 20
110.2043817347
 30
0.0
 40
3.680384757729344
  0
CIRCLE
  5
EF
330
1F
100
AcDbEntity
  8
0
  6
HIDDEN
 62
     7
370
     0
100
AcDbCircle
 10
178.0063932147
 20
110.2043817347
 30
0.0
 40
3.380384757729335
  0
LINE
  5
F0
330
1F
100
AcDbEntity
  8
0
  6
HIDDEN
 62
     7
370
     0
100
AcDbLine
 10
176.0563932147
 20
104.5904618443
 30
0.0
 11
176.0563932147
 21
115.8085558331
 31
0.0
  0
SPLINE
  5
F1
330
1F
100
AcDbEntity
  8
0
  6
HIDDEN
 62
     7
370
     0
100
AcDbSpline
210
0.0
220
0.0
230
1.0
 70
     8
 71
     3
 72
    16
 73
    12
 74
     0
 42
0.000000001
 43
0.00000001
 40
0.0
 40
0.0
 40
0.0
 40
0.0
 40
0.2500000000000037
 40
0.2500000000000037
 40
0.5000000000000073
 40
0.5000000000000073
 40
0.6250000000000054
 40
0.6250000000000054
 40
0.7500000000000037
 40
0.7500000000000037
 40
1.0
 40
1.0
 40
1.0
 40
1.0
 10
191.056393214743
 20
123.272858192374
 30
0.0
 10
191.0563932147429
 20
123.1833378004721
 30
0.0
 10
191.0511657078659
 20
123.0920346922898
 30
0.0
 10
191.0218938721541
 20
122.9030123577794
 30
0.0
 10
190.9981503485571
 20
122.803167106344
 30
0.0
 10
190.9298412877185
 20
122.6629798212933
 30
0.0
 10
190.9009704460606
 20
122.6185425923596
 30
0.0
 10
190.8345194024663
 20
122.5486542640444
 30
0.0
 10
190.7967123859518
 20
122.5232541608444
 30
0.0
 10
190.6864901677482
 20
122.4784317793506
 30
0.0
 10
190.618479918566
 20
122.4842742203155
 30
0.0
 10
190.556393214726
 20
122.5004792748595
 30
0.0
  0
SPLINE
  5
F2
330
1F
100
AcDbEntity
  8
0
  6
HIDDEN
 62
     7
370
     0
100
AcDbSpline
210
0.0
220
0.0
230
1.0
 70
     8
 71
     3
 72
     8
 73
     4
 74
     0
 42
0.000000001
 43
0.00000001
 40
0.0
 40
0.0
 40
0.0
 40
0.0
 40
1.0
 40
1.0
 40
1.0
 40
1.0
 10
190.556393214726
 20
122.5004792748595
 30
0.0
 10
190.4701498299187
 20
122.4418224307129
 30
0.0
 10
190.3667705214997
 20
122.4017495947434
 30
0.0
 10
190.2563932147429
 20
122.4017495947434
 30
0.0
  0
SPLINE
  5
F3
330
1F
100
AcDbEntity
  8
0
  6
HIDDEN
 62
     7
370
     0
100
AcDbSpline
210
0.0
220
0.0
230
1.0
 70
     8
 71
     3
 72
     8
 73
     4
 74
     0
 42
0.000000001
 43
0.00000001
 40
0.0
 40
0.0
 40
0.0
 40
0.0
 40
1.0
 40
1.0
 40
1.0
 40
1.0
 10
190.5563932147592
 20
97.90828419446873
 30
0.0
 10
190.4701498299443
 20
97.96694103862785
 30
0.0
 10
190.3667705215138
 20
98.00701387460745
 30
0.0
 10
190.2563932147429
 20
98.00701387460745
 30
0.0
  0
SPLINE
  5
F4
330
1F
100
AcDbEntity
  8
0
  6
HIDDEN
 62
     7
370
     0
100
AcDbSpline
210
0.0
220
0.0
230
1.0
 70
     8
 71
     3
 72
    16
 73
    12
 74
     0
 42
0.000000001
 43
0.00000001
 40
0.0
 40
0.0
 40
0.0
 40
0.0
 40
0.2500000000000117
 40
0.2500000000000117
 40
0.3750000000000109
 40
0.3750000000000109
 40
0.5000000000000102
 40
0.5000000000000102
 40
0.7500000000000051
 40
0.7500000000000051
 40
1.0
 40
1.0
 40
1.0
 40
1.0
 10
190.5563932147492
 20
97.90828419447176
 30
0.0
 10
190.6184663641334
 20
97.9244857888608
 30
0.0
 10
190.6865279215278
 20
97.93031361197282
 30
0.0
 10
190.7966746034995
 20
97.88553066574202
 30
0.0
 10
190.834103370437
 20
97.86043411016357
 30
0.0
 10
190.9005137855705
 20
97.79082186647018
 30
0.0
 10
190.9295078016769
 20
97.74637577111221
 30
0.0
 10
190.9981064939997
 20
97.60588283625509
 30
0.0
 10
191.0216455648128
 20
97.50684382519924
 30
0.0
 10
191.0510461083313
 20
97.31801003843094
 30
0.0
 10
191.0563932147429
 20
97.22549993263604
 30
0.0
 10
191.0563932147429
 20
97.13590645672168
 30
0.0
  0
LINE
  5
F5
330
1F
100
AcDbEntity
  8
0
  6
HIDDEN
 62
     7
370
     0
100
AcDbLine
 10
160.5563932147
 20
110.2043817347
 30
0.0
 11
160.5563932147
 21
96.7043817347
 31
0.0
  0
LINE
  5
F6
330
1F
100
AcDbEntity
  8
0
  6
HIDDEN
 62
     7
370
     0
100
AcDbLine
 10
160.5563932147
 20
123.7043817347
 30
0.0
 11
160.5563932147
 21
110.2043817347
 31
0.0
  0
LINE
  5
F7
330
1F
100
AcDbEntity
  8
0
  6
HIDDEN
 62
     7
370
     0
100
AcDbLine
 10
165.4224186185
 20
110.2043817347
 30
0.0
 11
165.4224186185
 21
96.2043817347
 31
0.0
  0
LINE
  5
F8
330
1F
100
AcDbEntity
  8
0
  6
HIDDEN
 62
     7
370
     0
100
AcDbLine
 10
165.4224186185
 20
124.2043817347
 30
0.0
 11
165.4224186185
 21
110.2043817347
 31
0.0
  0
LINE
  5
F9
330
1F
100
AcDbEntity
  8
0
  6
HIDDEN
 62
     7
370
     0
100
AcDbLine
 10
177.4563932147
 20
122.4017495947
 30
0.0
 11
190.2563932147
 21
122.4017495947
 31
0.0
  0
LINE
  5
FA
330
1F
100
AcDbEntity
  8
0
  6
HIDDEN
 62
     7
370
     0
100
AcDbLine
 10
177.4563932147
 20
98.0070138746
 30
0.0
 11
190.2563932147
 21
98.0070138746
 31
0.0
  0
LINE
  5
FB
330
1F
100
AcDbEntity
  8
0
  6
HIDDEN
 62
     7
370
     0
100
AcDbLine
 10
144.2563932147
 20
129.0043817347
 30
0.0
 11
144.5936515149
 21
129.0043817347
 31
0.0
  0
ELLIPSE
  5
FC
330
1F
100
AcDbEntity
  8
0
  6
HIDDEN
 62
     7
370
     0
100
AcDbEllipse
 10
144.5936515149
 20
130.6043817347
 30
0.0
 11
0.0
 21
1.599999999999994
 31
0.0
210
0.0
220
0.0
230
1.0
 40
0.4142135624
 41
3.141592653589793
 42
4.712388980384695
  0
ELLIPSE
  5
FD
330
1F
100
AcDbEntity
  8
0
  6
HIDDEN
 62
     7
370
     0
100
AcDbEllipse
 10
144.5936515149
 20
92.4043817347
 30
0.0
 11
0.0
 21
1.599999999999994
 31
0.0
210
0.0
220
0.0
230
1.0
 40
0.4142135624
 41
4.712388980384695
 42
6.283185307179586
  0
LINE
  5
FE
330
1F
100
AcDbEntity
  8
0
  6
HIDDEN
 62
     7
370
     0
100
AcDbLine
 10
144.5936515149
 20
94.0043817347
 30
0.0
 11
144.2563932147
 21
94.0043817347
 31
0.0
  0
LINE
  5
FF
330
1F
100
AcDbEntity
  8
0
  6
HIDDEN
 62
     7
370
     0
100
AcDbLine
 10
145.2563932147
 20
87.3503496489
 30
0.0
 11
144.4885160746
 21
86.9725643073
 31
0.0
  0
LINE
  5
100
330
1F
100
AcDbEntity
  8
0
  6
HIDDEN
 62
     7
370
     0
100
AcDbLine
 10
144.5746317291
 20
133.5282269906
 30
0.0
 11
145.2563932147
 21
132.8464655049
 31
0.0
  0
LINE
  5
101
330
1F
100
AcDbEntity
  8
0
  6
HIDDEN
 62
     7
370
     0
100
AcDbLine
 10
190.497549997
 20
130.1023779338
 30
0.0
 11
190.4966822524
 21
130.1021526087
 31
0.0
  0
LINE
  5
102
330
1F
100
AcDbEntity
  8
0
  6
HIDDEN
 62
     7
370
     0
100
AcDbLine
 10
190.5563932161
 20
128.0043817347
 30
0.0
 11
190.5563932147
 21
122.5004792749
 31
0.0
  0
LINE
  5
103
330
1F
100
AcDbEntity
  8
0
  6
HIDDEN
 62
     7
370
     0
100
AcDbLine
 10
190.5563932141
 20
92.4043817347
 30
0.0
 11
190.5563932148
 21
97.9082841945
 31
0.0
  0
SPLINE
  5
104
330
1F
100
AcDbEntity
  8
0
  6
HIDDEN
 62
     7
370
     0
100
AcDbSpline
210
0.0
220
0.0
230
1.0
 70
     8
 71
     3
 72
    18
 73
    14
 74
     0
 42
0.000000001
 43
0.00000001
 40
0.0
 40
0.0
 40
0.0
 40
0.0
 40
0.0747076438570252
 40
0.1574075740179433
 40
0.2407198373529707
 40
0.3208961147898128
 40
0.4839738614536486
 40
0.5670684052470714
 40
0.6472759005216034
 40
0.7280374262988349
 40
0.8105472764107438
 40
0.8936636775857405
 40
1.0
 40
1.0
 40
1.0
 40
1.0
 10
190.4966501119906
 20
90.3059637134014
 30
0.0
 10
190.495437006566
 20
90.30968336721322
 30
0.0
 10
190.4928810166826
 20
90.31752060651671
 30
0.0
 10
190.4916292942487
 20
90.36658792377675
 30
0.0
 10
190.4924682498401
 20
90.4441543167037
 30
0.0
 10
190.4969095852321
 20
90.58621818756873
 30
0.0
 10
190.505686189747
 20
90.7840371182486
 30
0.0
 10
190.5180735076903
 20
91.0336377606104
 30
0.0
 10
190.528160082438
 20
91.24477921566695
 30
0.0
 10
190.5379822631673
 20
91.47793477294111
 30
0.0
 10
190.5467366363146
 20
91.73579120573817
 30
0.0
 10
190.554392836094
 20
92.04116135371042
 30
0.0
 10
190.5556740771471
 20
92.2738038107814
 30
0.0
 10
190.5563932141388
 20
92.4043817346754
 30
0.0
  0
LINE
  5
105
330
1F
100
AcDbEntity
  8
0
  6
HIDDEN
 62
     7
370
     0
100
AcDbLine
 10
149.2232586673
 20
87.3503496489
 30
0.0
 11
145.2563932147
 21
87.3503496489
 31
0.0
  0
LINE
  5
106
330
1F
100
AcDbEntity
  8
0
  6
HIDDEN
 62
     7
370
     0
100
AcDbLine
 10
160.1063932147
 20
87.3503496489
 30
0.0
 11
155.0895277622
 21
87.3503496489
 31
0.0
  0
LINE
  5
107
330
1F
100
AcDbEntity
  8
0
  6
HIDDEN
 62
     7
370
     0
100
AcDbLine
 10
145.2563932147
 20
87.3503496489
 30
0.0
 11
145.2563932147
 21
92.4043817347
 31
0.0
  0
LINE
  5
108
330
1F
100
AcDbEntity
  8
0
  6
HIDDEN
 62
     7
370
     0
100
AcDbLine
 10
160.1063932147
 20
94.0043817347
 30
0.0
 11
144.5936515149
 21
94.0043817347
 31
0.0
  0
LINE
  5
109
330
1F
100
AcDbEntity
  8
0
  6
HIDDEN
 62
     7
370
     0
100
AcDbLine
 10
166.5563932147
 20
94.0043817347
 30
0.0
 11
160.1063932147
 21
94.0043817347
 31
0.0
  0
LINE
  5
10A
330
1F
100
AcDbEntity
  8
0
  6
HIDDEN
 62
     7
370
     0
100
AcDbLine
 10
144.5936515149
 20
129.0043817347
 30
0.0
 11
160.1063932147
 21
129.0043817347
 31
0.0
  0
LINE
  5
10B
330
1F
100
AcDbEntity
  8
0
  6
HIDDEN
 62
     7
370
     0
100
AcDbLine
 10
160.1063932147
 20
129.0043817347
 30
0.0
 11
166.5563932147
 21
129.0043817347
 31
0.0
  0
LINE
  5
10C
330
1F
100
AcDbEntity
  8
0
  6
HIDDEN
 62
     7
370
     0
100
AcDbLine
 10
145.2563932147
 20
132.8464655049
 30
0.0
 11
149.3386168798
 21
132.8464655049
 31
0.0
  0
LINE
  5
10D
330
1F
100
AcDbEntity
  8
0
  6
HIDDEN
 62
     7
370
     0
100
AcDbLine
 10
154.9741695497
 20
132.8464655049
 30
0.0
 11
160.1063932147
 21
132.8464655049
 31
0.0
  0
LINE
  5
10E
330
1F
100
AcDbEntity
  8
0
  6
HIDDEN
 62
     7
370
     0
100
AcDbLine
 10
145.2563932147
 20
132.8464655049
 30
0.0
 11
145.2563932147
 21
130.6043817347
 31
0.0
  0
LINE
  5
10F
330
1F
100
AcDbEntity
  8
0
  6
HIDDEN
 62
     7
370
     0
100
AcDbLine
 10
177.4563932147
 20
92.4043817347
 30
0.0
 11
177.4563932147
 21
98.0070138746
 31
0.0
  0
LINE
  5
110
330
1F
100
AcDbEntity
  8
0
  6
HIDDEN
 62
     7
370
     0
100
AcDbLine
 10
177.4563932147
 20
128.0043817347
 30
0.0
 11
177.4563932147
 21
122.4017495947
 31
0.0
  0
LINE
  5
111
330
1F
100
AcDbEntity
  8
0
  6
HIDDEN
 62
     7
370
     0
100
AcDbLine
 10
97.4063932147
 20
103.7043817347
 30
0.0
 11
97.4063932147
 21
116.7043817347
 31
0.0
  0
LINE
  5
112
330
1F
100
AcDbEntity
  8
0
  6
HIDDEN
 62
     7
370
     0
100
AcDbLine
 10
100.3445874022
 20
105.1043817347
 30
0.0
 11
100.3445874022
 21
115.3043817347
 31
0.0
  0
LINE
  5
113
330
1F
100
AcDbEntity
  8
0
  6
HIDDEN
 62
     7
370
     0
100
AcDbLine
 10
177.4563932147
 20
130.1043817347
 30
0.0
 11
177.4563932147
 21
128.0043817347
 31
0.0
  0
LINE
  5
114
330
1F
100
AcDbEntity
  8
0
  6
HIDDEN
 62
     7
370
     0
100
AcDbLine
 10
177.4563932147
 20
90.3043817347
 30
0.0
 11
177.4563932147
 21
92.4043817347
 31
0.0
  0
LINE
  5
115
330
1F
100
AcDbEntity
  8
0
  6
HIDDEN
 62
     7
370
     0
100
AcDbLine
 10
160.1063932147
 20
128.4177696677
 30
0.0
 11
160.1063932147
 21
125.0543817347
 31
0.0
  0
LINE
  5
116
330
1F
100
AcDbEntity
  8
0
  6
HIDDEN
 62
     7
370
     0
100
AcDbLine
 10
154.0663932147
 20
127.0522009623
 30
0.0
 11
154.0663932147
 21
125.0543817347
 31
0.0
  0
LINE
  5
117
330
1F
100
AcDbEntity
  8
0
  6
HIDDEN
 62
     7
370
     0
100
AcDbLine
 10
150.2463932147
 20
127.0522009623
 30
0.0
 11
150.2463932147
 21
125.0543817347
 31
0.0
  0
LINE
  5
118
330
1F
100
AcDbEntity
  8
0
  6
HIDDEN
 62
     7
370
     0
100
AcDbLine
 10
148.7933278967
 20
130.2849226885
 30
0.0
 11
148.7933278967
 21
125.0543817347
 31
0.0
  0
LINE
  5
119
330
1F
100
AcDbEntity
  8
0
  6
HIDDEN
 62
     7
370
     0
100
AcDbLine
 10
155.5194585328
 20
130.2849226885
 30
0.0
 11
155.5194585328
 21
125.0543817347
 31
0.0
  0
LINE
  5
11A
330
1F
100
AcDbEntity
  8
0
  6
HIDDEN
 62
     7
370
     0
100
AcDbLine
 10
163.4247407172
 20
124.7043817347
 30
0.0
 11
161.5563932147
 21
124.7043817347
 31
0.0
  0
LINE
  5
11B
330
1F
100
AcDbEntity
  8
0
  6
HIDDEN
 62
     7
370
     0
100
AcDbLine
 10
161.5563932147
 20
95.7043817347
 30
0.0
 11
163.4247407172
 21
95.7043817347
 31
0.0
  0
ARC
  5
11C
330
1F
100
AcDbEntity
  8
0
  6
HIDDEN
 62
     7
370
     0
100
AcDbCircle
 10
161.5563932147
 20
123.7043817347
 30
0.0
 40
1.0
100
AcDbArc
 50
90.0
 51
180.0
  0
ARC
  5
11D
330
1F
100
AcDbEntity
  8
0
  6
HIDDEN
 62
     7
370
     0
100
AcDbCircle
 10
161.5563932147
 20
96.7043817347
 30
0.0
 40
1.0
100
AcDbArc
 50
180.0
 51
270.0
  0
ARC
  5
11E
330
1F
100
AcDbEntity
  8
0
  6
HIDDEN
 62
     7
370
     0
100
AcDbCircle
 10
163.4247407172
 20
123.7043817347
 30
0.0
 40
1.0
100
AcDbArc
 50
75.0
 51
90.0
  0
ARC
  5
11F
330
1F
100
AcDbEntity
  8
0
  6
HIDDEN
 62
     7
370
     0
100
AcDbCircle
 10
163.4247407172
 20
96.7043817347
 30
0.0
 40
1.0
100
AcDbArc
 50
270.0
 51
285.0
  0
LINE
  5
120
330
1F
100
AcDbEntity
  8
0
  6
HIDDEN
 62
     7
370
     0
100
AcDbLine
 10
163.6835597623
 20
95.7384559084
 30
0.0
 11
165.4224186185
 21
96.2043817347
 31
0.0
  0
LINE
  5
121
330
1F
100
AcDbEntity
  8
0
  6
HIDDEN
 62
     7
370
     0
100
AcDbLine
 10
165.4224186185
 20
124.2043817347
 30
0.0
 11
163.6835597623
 21
124.670307561
 31
0.0
  0
LINE
  5
122
330
1F
100
AcDbEntity
  8
0
  6
HIDDEN
 62
     7
370
     0
100
AcDbLine
 10
177.4563932147
 20
124.2043817347
 30
0.0
 11
165.4224186185
 21
124.2043817347
 31
0.0
  0
LINE
  5
123
330
1F
100
AcDbEntity
  8
0
  6
HIDDEN
 62
     7
370
     0
100
AcDbLine
 10
165.4224186185
 20
96.2043817347
 30
0.0
 11
177.4563932147
 21
96.2043817347
 31
0.0
  0
LINE
  5
124
330
1F
100
AcDbEntity
  8
0
  6
HIDDEN
 62
     7
370
     0
100
AcDbLine
 10
191.0563932147
 20
130.6636164027
 30
0.0
 11
190.4864425972
 21
130.0936890069
 31
0.0
  0
LINE
  5
125
330
1F
100
AcDbEntity
  8
0
  6
HIDDEN
 62
     7
370
     0
100
AcDbLine
 10
190.4867541793
 20
90.3147601997
 30
0.0
 11
191.0563932147
 21
89.7451456348
 31
0.0
  0
ARC
  5
126
330
1F
100
AcDbEntity
  8
0
  6
HIDDEN
 62
     7
370
     0
100
AcDbCircle
 10
166.5563932147
 20
92.4043817347
 30
0.0
 40
1.600000000000023
100
AcDbArc
 50
0.0
 51
90.0
  0
LINE
  5
127
330
1F
100
AcDbEntity
  8
0
  6
HIDDEN
 62
     7
370
     0
100
AcDbLine
 10
168.1563932147
 20
87.7043817347
 30
0.0
 11
168.1563932147
 21
92.4043817347
 31
0.0
  0
LINE
  5
128
330
1F
100
AcDbEntity
  8
0
  6
HIDDEN
 62
     7
370
     0
100
AcDbLine
 10
168.1563932147
 20
130.6043817347
 30
0.0
 11
168.1563932147
 21
132.7043817347
 31
0.0
  0
ARC
  5
129
330
1F
100
AcDbEntity
  8
0
  6
HIDDEN
 62
     7
370
     0
100
AcDbCircle
 10
166.5563932147
 20
130.6043817347
 30
0.0
 40
1.600000000000023
100
AcDbArc
 50
270.0
 51
0.0
  0
ARC
  5
12A
330
1F
100
AcDbEntity
  8
0
  6
HIDDEN
 62
     7
370
     0
100
AcDbCircle
 10
94.2063932147
 20
102.9043817347
 30
0.0
 40
0.8000000000000114
100
AcDbArc
 50
90.0
 51
180.0
  0
ARC
  5
12B
330
1F
100
AcDbEntity
  8
0
  6
HIDDEN
 62
     7
370
     0
100
AcDbCircle
 10
94.2063932147
 20
117.5043817347
 30
0.0
 40
0.8000000000000114
100
AcDbArc
 50
180.0
 51
270.0
  0
LINE
  5
12C
330
1F
100
AcDbEntity
  8
0
  6
HIDDEN
 62
     7
370
     0
100
AcDbLine
 10
98.2987656455
 20
103.4793817347
 30
0.0
 11
99.1754531071
 21
103.4793817347
 31
0.0
  0
LINE
  5
12D
330
1F
100
AcDbEntity
  8
0
  6
HIDDEN
 62
     7
370
     0
100
AcDbLine
 10
99.1754531071
 20
116.9293817347
 30
0.0
 11
98.2987656455
 21
116.9293817347
 31
0.0
  0
ARC
  5
12E
330
1F
100
AcDbEntity
  8
0
  6
HIDDEN
 62
     7
370
     0
100
AcDbCircle
 10
98.2987656455
 20
103.8793817347
 30
0.0
 40
0.3999999999999915
100
AcDbArc
 50
255.0
 51
270.0
  0
ARC
  5
12F
330
1F
100
AcDbEntity
  8
0
  6
HIDDEN
 62
     7
370
     0
100
AcDbCircle
 10
98.2987656455
 20
116.5293817347
 30
0.0
 40
0.3999999999999915
100
AcDbArc
 50
90.0
 51
105.0
  0
ARC
  5
130
330
1F
100
AcDbEntity
  8
0
  6
HIDDEN
 62
     7
370
     0
100
AcDbCircle
 10
99.1754531071
 20
103.8793817347
 30
0.0
 40
0.4000000000000121
100
AcDbArc
 50
270.0
 51
330.0
  0
ARC
  5
131
330
1F
100
AcDbEntity
  8
0
  6
HIDDEN
 62
     7
370
     0
100
AcDbCircle
 10
99.1754531071
 20
116.5293817347
 30
0.0
 40
0.4000000000000121
100
AcDbArc
 50
30.0
 51
90.0
  0
LINE
  5
132
330
1F
100
AcDbEntity
  8
0
  6
HIDDEN
 62
     7
370
     0
100
AcDbLine
 10
98.1952380274
 20
116.9157520652
 30
0.0
 11
97.4063932147
 21
116.7043817347
 31
0.0
  0
LINE
  5
133
330
1F
100
AcDbEntity
  8
0
  6
HIDDEN
 62
     7
370
     0
100
AcDbLine
 10
97.4063932147
 20
103.7043817347
 30
0.0
 11
98.1952380274
 21
103.4930114042
 31
0.0
  0
LINE
  5
134
330
1F
100
AcDbEntity
  8
0
  6
HIDDEN
 62
     7
370
     0
100
AcDbLine
 10
99.5218632686
 20
103.6793817347
 30
0.0
 11
100.3445874022
 21
105.1043817347
 31
0.0
  0
LINE
  5
135
330
1F
100
AcDbEntity
  8
0
  6
HIDDEN
 62
     7
370
     0
100
AcDbLine
 10
100.3445874022
 20
115.3043817347
 30
0.0
 11
99.5218632686
 21
116.7293817347
 31
0.0
  0
LINE
  5
136
330
1F
100
AcDbEntity
  8
0
  6
HIDDEN
 62
     7
370
     0
100
AcDbLine
 10
94.2063932147
 20
103.7043817347
 30
0.0
 11
97.4063932147
 21
103.7043817347
 31
0.0
  0
LINE
  5
137
330
1F
100
AcDbEntity
  8
0
  6
HIDDEN
 62
     7
370
     0
100
AcDbLine
 10
97.4063932147
 20
116.7043817347
 30
0.0
 11
94.2063932147
 21
116.7043817347
 31
0.0
  0
LINE
  5
138
330
1F
100
AcDbEntity
  8
0
  6
HIDDEN
 62
     7
370
     0
100
AcDbLine
 10
100.3445874022
 20
105.1043817347
 30
0.0
 11
160.5563932147
 21
105.1043817347
 31
0.0
  0
LINE
  5
139
330
1F
100
AcDbEntity
  8
0
  6
HIDDEN
 62
     7
370
     0
100
AcDbLine
 10
160.5563932147
 20
115.3043817347
 30
0.0
 11
100.3445874022
 21
115.3043817347
 31
0.0
  0
LINE
  5
13A
330
1F
100
AcDbEntity
  8
0
  6
HIDDEN
 62
     7
370
     0
100
AcDbLine
 10
190.497549997
 20
130.1043817347
 30
0.0
 11
177.4563932147
 21
130.1043817347
 31
0.0
  0
LINE
  5
13B
330
1F
100
AcDbEntity
  8
0
  6
HIDDEN
 62
     7
370
     0
100
AcDbLine
 10
177.4563932147
 20
90.3043817347
 30
0.0
 11
190.4975162694
 21
90.3043817347
 31
0.0
  0
DIMENSION
  5
13C
330
1F
100
AcDbEntity
  8
VERMASSUNG
100
AcDbDimension
  2
_D
 10
199.5586248949
 20
96.2043817347
 30
0.0
 11
199.5586248949
 21
110.2043817347
 31
0.0
 70
   160
  1
%%c<>
 71
     2
 42
-1.0
  3
SLDDIMSTYLE0
100
AcDbAlignedDimension
 13
177.4563932147
 23
124.2043817347
 33
0.0
 14
177.4563932147
 24
96.2043817347
 34
0.0
 50
90.0
100
AcDbRotatedDimension
  0
DIMENSION
  5
148
330
1F
100
AcDbEntity
  8
VERMASSUNG
100
AcDbDimension
  2
_D_1
 10
160.1063932147
 20
140.3318750234
 30
0.0
 11
175.5813932147
 21
140.3318750234
 31
0.0
 70
   160
  1
(<>)
 71
     2
 42
-1.0
  3
SLDDIMSTYLE0
100
AcDbAlignedDimension
 13
191.0563932147
 23
134.7043817347
 33
0.0
 14
160.1063932147
 24
133.1157393486
 34
0.0
100
AcDbRotatedDimension
  0
DIMENSION
  5
154
330
1F
100
AcDbEntity
  8
VERMASSUNG
100
AcDbDimension
  2
_D_2
 10
191.0563932147
 20
146.3318750234
 30
0.0
 11
166.0563932147
 21
146.3318750234
 31
0.0
 70
   160
  1
<>
 71
     2
 42
-1.0
  3
SLDDIMSTYLE0
100
AcDbAlignedDimension
 13
141.0563932147
 23
126.0793817347
 33
0.0
 14
191.0563932147
 24
134.7043817347
 34
0.0
100
AcDbRotatedDimension
  0
DIMENSION
  5
15E
330
1F
100
AcDbEntity
  8
VERMASSUNG
100
AcDbDimension
  2
_D_3
 10
191.0563932147
 20
152.3318750234
 30
0.0
 11
142.2313932147
 21
152.3318750234
 31
0.0
 70
   160
  1
(<>)
 71
     2
 42
-1.0
  3
SLDDIMSTYLE0
100
AcDbAlignedDimension
 13
93.4063932147
 23
118.2656789984
 33
0.0
 14
191.0563932147
 24
134.7043817347
 34
0.0
100
AcDbRotatedDimension
  0
DIMENSION
  5
16A
330
1F
100
AcDbEntity
  8
VERMASSUNG
100
AcDbDimension
  2
_D_4
 10
86.3133175283
 20
135.1793817347
 30
0.0
 11
86.3133175283
 21
110.2043817347
 31
0.0
 70
   160
  1
ISO 30 %%c<>
 71
     2
 42
-1.0
  3
SLDDIMSTYLE0
100
AcDbAlignedDimension
 13
159.5063932147
 23
85.2293817347
 33
0.0
 14
159.5063932147
 24
135.1793817347
 34
0.0
 50
90.0
100
AcDbRotatedDimension
  0
DIMENSION
  5
176
330
1F
100
AcDbEntity
  8
VERMASSUNG
100
AcDbDimension
  2
_D_5
 10
205.5586248949
 20
85.2043817347
 30
0.0
 11
205.5586248949
 21
110.2043817347
 31
0.0
 70
   160
  1
ST5 %%c<>
 71
     2
 42
-1.0
  3
SLDDIMSTYLE0
100
AcDbAlignedDimension
 13
190.5563932147
 23
135.2043817347
 33
0.0
 14
190.5563932147
 24
85.2043817347
 34
0.0
 50
90.0
100
AcDbRotatedDimension
  0
LINE
  5
182
330
1F
100
AcDbEntity
  8
VERMASSUNG
  6
CENTERX2
 62
     7
370
     0
100
AcDbLine
 10
193.0563932147
 20
110.2043817347
 30
0.0
 11
91.4063932147
 21
110.2043817347
 31
0.0
  0
LINE
  5
183
330
1F
100
AcDbEntity
  8
0
  6
Continuous
 62
     7
370
    15
100
AcDbLine
 10
276.9087138198
 20
12.4922986351
 30
0.0
 11
277.2622097481
 21
12.6964338354
 31
0.0
  0
LINE
  5
184
330
1F
100
AcDbEntity
  8
0
  6
Continuous
 62
     7
370
    15
100
AcDbLine
 10
294.5835102311
 20
42.7010573885
 30
0.0
 11
294.5835102311
 21
43.1092614444
 31
0.0
  0
LINE
  5
185
330
1F
100
AcDbEntity
  8
0
  6
Continuous
 62
     7
370
    15
100
AcDbLine
 10
289.4048248593
 20
54.5553816062
 30
0.0
 11
279.8588833133
 21
60.066136361
 31
0.0
  0
LINE
  5
186
330
1F
100
AcDbEntity
  8
0
  6
Continuous
 62
     7
370
    15
100
AcDbLine
 10
254.8609149974
 20
16.7636932419
 30
0.0
 11
264.4068565434
 21
11.2529384871
 31
0.0
  0
SPLINE
  5
187
330
1F
100
AcDbEntity
  8
0
  6
Continuous
 62
     7
370
    15
100
AcDbSpline
210
0.0
220
0.0
230
1.0
 70
     8
 71
     3
 72
    14
 73
    10
 74
     0
 42
0.000000001
 43
0.00000001
 40
0.0
 40
0.0
 40
0.0
 40
0.0
 40
0.0962212966410919
 40
0.2473665795832498
 40
0.3985932482690863
 40
0.5504655729219081
 40
0.7033933090466574
 40
0.8575374232461078
 40
1.0
 40
1.0
 40
1.0
 40
1.0
 10
280.102948495484
 20
59.89720169176525
 30
0.0
 10
279.8826172480071
 20
60.03556989219577
 30
0.0
 10
279.3161876844255
 20
60.39128811319683
 30
0.0
 10
278.3110518607978
 20
60.79943254858492
 30
0.0
 10
277.1104238068862
 20
61.13562554818571
 30
0.0
 10
275.8440857355477
 20
61.31505677329592
 30
0.0
 10
274.5223029202967
 20
61.33977082647448
 30
0.0
 10
273.191589038434
 20
61.22644961045399
 30
0.0
 10
272.2903642612429
 20
61.02822540487238
 30
0.0
 10
271.8574987598599
 20
60.93301672629745
 30
0.0
  0
SPLINE
  5
188
330
1F
100
AcDbEntity
  8
0
  6
Continuous
 62
     7
370
    15
100
AcDbSpline
210
0.0
220
0.0
230
1.0
 70
     8
 71
     3
 72
    33
 73
    29
 74
     0
 42
0.000000001
 43
0.00000001
 40
0.0
 40
0.0
 40
0.0
 40
0.0
 40
0.0358872230627328
 40
0.0755705595381997
 40
0.1152291305099105
 40
0.1548676418558817
 40
0.1944916377681294
 40
0.2341071007662446
 40
0.2737202415838331
 40
0.3133368161587725
 40
0.3529616963458043
 40
0.3926013296320728
 40
0.4322621269240302
 40
0.4719503052934466
 40
0.51167157890634
 40
0.5514305929726696
 40
0.5912299498519853
 40
0.6310686227920546
 40
0.6709395207533271
 40
0.7108232781883771
 40
0.7506786312272217
 40
0.7904510989391335
 40
0.8300681609673877
 40
0.8694486196726909
 40
0.9085235995862692
 40
0.9472651095805101
 40
0.9857091674062257
 40
1.0
 40
1.0
 40
1.0
 40
1.0
 10
262.0618177407002
 20
55.33342009614763
 30
0.0
 10
261.6426395409463
 20
54.94535690130753
 30
0.0
 10
260.759942904145
 20
54.12818158743656
 30
0.0
 10
259.4651908486605
 20
52.75071279815942
 30
0.0
 10
258.1770811462354
 20
51.24322642377817
 30
0.0
 10
256.9508823915298
 20
49.6486678160815
 30
0.0
 10
255.7933244167971
 20
47.98101790816563
 30
0.0
 10
254.7121412959111
 20
46.25032175474276
 30
0.0
 10
253.7142597941115
 20
44.46815878334866
 30
0.0
 10
252.8062357877114
 20
42.64611029498737
 30
0.0
 10
251.9940706451846
 20
40.79605879135108
 30
0.0
 10
251.2832085763324
 20
38.92999264308972
 30
0.0
 10
250.6785010021483
 20
37.05993992009185
 30
0.0
 10
250.1842042911375
 20
35.19790957664548
 30
0.0
 10
249.8039713903268
 20
33.35582544943806
 30
0.0
 10
249.5408521053155
 20
31.54546977125985
 30
0.0
 10
249.3972975104207
 20
29.77844623381191
 30
0.0
 10
249.3751615785949
 20
28.06617073132286
 30
0.0
 10
249.4756810194305
 20
26.41993196746265
 30
0.0
 10
249.6993896962416
 20
24.85105517382295
 30
0.0
 10
250.0459196622731
 20
23.37084744926663
 30
0.0
 10
250.5138050123955
 20
21.99066634271684
 30
0.0
 10
251.0999786939283
 20
20.7212965602835
 30
0.0
 10
251.8003078740265
 20
19.57409011211184
 30
0.0
 10
252.6064942881061
 20
18.55497954629647
 30
0.0
 10
253.5176594463127
 20
17.68374961019538
 30
0.0
 10
254.2958057202382
 20
17.07879961839219
 30
0.0
 10
254.7955301394922
 20
16.81708357377166
 30
0.0
 10
254.9309523990583
 20
16.74616012724461
 30
0.0
  0
LINE
  5
189
330
1F
100
AcDbEntity
  8
0
  6
Continuous
 62
     7
370
    15
100
AcDbLine
 10
244.8324602533
 20
25.4396700897
 30
0.0
 11
250.4749298658
 21
22.1823417165
 31
0.0
  0
LINE
  5
18A
330
1F
100
AcDbEntity
  8
0
  6
Continuous
 62
     7
370
    15
100
AcDbLine
 10
272.9727143134
 20
61.1547639552
 30
0.0
 11
269.4377209549
 21
63.1954721834
 31
0.0
  0
SPLINE
  5
18B
330
1F
100
AcDbEntity
  8
0
  6
Continuous
 62
     7
370
    15
100
AcDbSpline
210
0.0
220
0.0
230
1.0
 70
     8
 71
     3
 72
    26
 73
    22
 74
     0
 42
0.000000001
 43
0.00000001
 40
0.0
 40
0.0
 40
0.0
 40
0.0
 40
0.0051308565544176
 40
0.0629506493240983
 40
0.1208209341608359
 40
0.1787104235607634
 40
0.2365970094372282
 40
0.294452826991729
 40
0.3522562000407386
 40
0.4099858938310648
 40
0.4676224222670775
 40
0.5251509171186176
 40
0.5825667813366133
 40
0.6398860190214871
 40
0.6971627713020246
 40
0.7544701557065784
 40
0.8119904126682232
 40
0.8700245224853502
 40
0.9289770776011137
 40
0.9891946685474697
 40
1.0
 40
1.0
 40
1.0
 40
1.0
 10
268.3697980640456
 20
33.52539031476685
 30
0.0
 10
268.3851117434496
 20
33.5665429873703
 30
0.0
 10
268.5729957842127
 20
34.07144649311705
 30
0.0
 10
268.9997126689365
 20
35.03658200219458
 30
0.0
 10
269.6860430204086
 20
36.39880648570715
 30
0.0
 10
270.4631130317651
 20
37.72025091029303
 30
0.0
 10
271.3146036962647
 20
38.98477617307454
 30
0.0
 10
272.2317146860026
 20
40.17686641329414
 30
0.0
 10
273.2023648731745
 20
41.28206679093917
 30
0.0
 10
274.2142760786668
 20
42.28714188322106
 30
0.0
 10
275.2543031149879
 20
43.18026915766335
 30
0.0
 10
276.3088167192415
 20
43.95126733141394
 30
0.0
 10
277.3638708237074
 20
44.59183324083941
 30
0.0
 10
278.4055620038346
 20
45.09581473051482
 30
0.0
 10
279.420159870379
 20
45.45916848618739
 30
0.0
 10
280.3951736939376
 20
45.68064379837323
 30
0.0
 10
281.3192941506391
 20
45.75976686427245
 30
0.0
 10
282.1874000117207
 20
45.70235793361739
 30
0.0
 10
282.9863041666424
 20
45.49344215314349
 30
0.0
 10
283.5346234332571
 20
45.27555571327468
 30
0.0
 10
283.7919384459558
 20
45.08310262542512
 30
0.0
 10
283.8310860043216
 20
45.05382307266893
 30
0.0
  0
SPLINE
  5
18C
330
1F
100
AcDbEntity
  8
0
  6
Continuous
 62
     7
370
    15
100
AcDbSpline
210
0.0
220
0.0
230
1.0
 70
     8
 71
     3
 72
    10
 73
     6
 74
     0
 42
0.000000001
 43
0.00000001
 40
0.0
 40
0.0
 40
0.0
 40
0.0
 40
0.370239904202853
 40
0.8197428721679988
 40
1.0
 40
1.0
 40
1.0
 40
1.0
 10
269.556364760927
 20
20.99940705633882
 30
0.0
 10
269.3677296019987
 20
21.12671458422238
 30
0.0
 10
268.9500751967972
 20
21.40858435939036
 30
0.0
 10
268.5118437150694
 20
21.87812267120049
 30
0.0
 10
268.2758809907414
 20
22.23674569854259
 30
0.0
 10
268.208341044583
 20
22.3393948776737
 30
0.0
  0
SPLINE
  5
18D
330
1F
100
AcDbEntity
  8
0
  6
Continuous
 62
     7
370
    15
100
AcDbSpline
210
0.0
220
0.0
230
1.0
 70
     8
 71
     3
 72
    31
 73
    27
 74
     0
 42
0.000000001
 43
0.00000001
 40
0.0
 40
0.0
 40
0.0
 40
0.0
 40
0.0079344707344781
 40
0.0518257433630215
 40
0.0958515992511138
 40
0.1400980451561734
 40
0.184557847842227
 40
0.2291914443089095
 40
0.2739469344298295
 40
0.3187754080032354
 40
0.3636385232740219
 40
0.4085073431044911
 40
0.4533649785499847
 40
0.4982049853750464
 40
0.54302534280939
 40
0.5878267790688031
 40
0.6326116491510463
 40
0.677383227488969
 40
0.7221452854252425
 40
0.7669018531639917
 40
0.8116570951580635
 40
0.8564147731055212
 40
0.9011782316646478
 40
0.9459517759535652
 40
0.9907396851331381
 40
1.0
 40
1.0
 40
1.0
 40
1.0
 10
255.004530028375
 20
74.04922454986324
 30
0.0
 10
254.9335872074098
 20
74.07034133671172
 30
0.0
 10
254.4702085453887
 20
74.20827028150015
 30
0.0
 10
253.5680710786527
 20
74.35867890993042
 30
0.0
 10
252.2805137210847
 20
74.4373990267385
 30
0.0
 10
250.9387178083427
 20
74.35629584579931
 30
0.0
 10
249.5544056562718
 20
74.12366298142905
 30
0.0
 10
248.1359069225945
 20
73.73828740734392
 30
0.0
 10
246.6934573821645
 20
73.20321110797107
 30
0.0
 10
245.2371926394032
 20
72.52205421754087
 30
0.0
 10
243.7773314517821
 20
71.69985427033286
 30
0.0
 10
242.3238859040402
 20
70.7426201902391
 30
0.0
 10
240.8866048312152
 20
69.65723737246971
 30
0.0
 10
239.474934856682
 20
68.45131709937448
 30
0.0
 10
238.0980479179785
 20
67.13314285222067
 30
0.0
 10
236.7648636625831
 20
65.71165195809226
 30
0.0
 10
235.484018261405
 20
64.19639282596977
 30
0.0
 10
234.2638261917784
 20
62.59747730330183
 30
0.0
 10
233.1122251719312
 20
60.925524720284
 30
0.0
 10
232.0367607789649
 20
59.19160498132738
 30
0.0
 10
231.0444190990087
 20
57.4071592752955
 30
0.0
 10
230.1420423905677
 20
55.5840005012866
 30
0.0
 10
229.3345636129463
 20
53.73397661862069
 30
0.0
 10
228.631369410976
 20
51.86980700629256
 30
0.0
 10
228.1834778288517
 20
50.49578195612178
 30
0.0
 10
227.9758932868589
 20
49.74838554608178
 30
0.0
 10
227.9403269337685
 20
49.62033090211445
 30
0.0
  0
SPLINE
  5
18E
330
1F
100
AcDbEntity
  8
0
  6
Continuous
 62
     7
370
    15
100
AcDbSpline
210
0.0
220
0.0
230
1.0
 70
     8
 71
     3
 72
    11
 73
     7
 74
     0
 42
0.000000001
 43
0.00000001
 40
0.0
 40
0.0
 40
0.0
 40
0.0
 40
0.036867046538767
 40
0.4102515721791259
 40
0.7854866658945447
 40
1.0
 40
1.0
 40
1.0
 40
1.0
 10
245.6973928846845
 20
22.84557767757763
 30
0.0
 10
245.7376129932545
 20
22.83727426225524
 30
0.0
 10
246.1851769920883
 20
22.74487496504319
 30
0.0
 10
247.0978297024809
 20
22.71725945065356
 30
0.0
 10
248.2316225324642
 20
22.73920663130271
 30
0.0
 10
248.9535717763164
 20
22.86371806881991
 30
0.0
 10
249.2161714409325
 20
22.9090074877248
 30
0.0
  0
LINE
  5
18F
330
1F
100
AcDbEntity
  8
0
  6
Continuous
 62
     7
370
    15
100
AcDbLine
 10
239.644501422
 20
25.5768085526
 30
0.0
 11
242.4636899718
 21
23.9493256447
 31
0.0
  0
LINE
  5
190
330
1F
100
AcDbEntity
  8
0
  6
Continuous
 62
     7
370
    15
100
AcDbLine
 10
241.3713128395
 20
69.99992429
 30
0.0
 11
212.8496680038
 21
80.2779945299
 31
0.0
  0
LINE
  5
191
330
1F
100
AcDbEntity
  8
0
  6
Continuous
 62
     7
370
    15
100
AcDbLine
 10
203.847827669
 20
64.684660138
 30
0.0
 11
232.7116668772
 21
40.3122729244
 31
0.0
  0
LINE
  5
192
330
1F
100
AcDbEntity
  8
0
  6
Continuous
 62
     7
370
    15
100
AcDbLine
 10
232.1045756274
 20
29.9295150638
 30
0.0
 11
234.8884088381
 21
28.3224423588
 31
0.0
  0
SPLINE
  5
193
330
1F
100
AcDbEntity
  8
0
  6
Continuous
 62
     7
370
    15
100
AcDbSpline
210
0.0
220
0.0
230
1.0
 70
     8
 71
     3
 72
    11
 73
     7
 74
     0
 42
0.000000001
 43
0.00000001
 40
0.0
 40
0.0
 40
0.0
 40
0.0
 40
0.1433857363851968
 40
0.5723026049980459
 40
0.9998644894057463
 40
1.0
 40
1.0
 40
1.0
 40
1.0
 10
227.9354058264446
 20
34.94595235399109
 30
0.0
 10
227.9938134716222
 20
34.80201380273347
 30
0.0
 10
228.2269388042367
 20
34.2275047203023
 30
0.0
 10
228.7270463371781
 20
33.31510151063464
 30
0.0
 10
229.1877818574254
 20
32.56360129559954
 30
0.0
 10
229.4671417510105
 20
32.24854105942612
 30
0.0
 10
229.4672302627144
 20
32.24844123651317
 30
0.0
  0
SPLINE
  5
194
330
1F
100
AcDbEntity
  8
0
  6
Continuous
 62
     7
370
    15
100
AcDbSpline
210
0.0
220
0.0
230
1.0
 70
     8
 71
     3
 72
    12
 73
     8
 74
     0
 42
0.000000001
 43
0.00000001
 40
0.0
 40
0.0
 40
0.0
 40
0.0
 40
0.1145312093207676
 40
0.4069585302877306
 40
0.6984685881421063
 40
0.9884864575309474
 40
1.0
 40
1.0
 40
1.0
 40
1.0
 10
271.6477508097582
 20
62.09027866114516
 30
0.0
 10
271.5796318847826
 20
62.25917803307992
 30
0.0
 10
271.3375880108269
 20
62.85932047963859
 30
0.0
 10
270.8382442834788
 20
63.80982691643822
 30
0.0
 10
270.1089479638429
 20
64.88466160772009
 30
0.0
 10
269.5471970840889
 20
65.53641124455051
 30
0.0
 10
269.2361535445485
 20
65.8330798787058
 30
0.0
 10
269.2242767951905
 20
65.84440774301531
 30
0.0
  0
SPLINE
  5
195
330
1F
100
AcDbEntity
  8
0
  6
Continuous
 62
     7
370
    15
100
AcDbSpline
210
0.0
220
0.0
230
1.0
 70
     8
 71
     3
 72
    25
 73
    21
 74
     0
 42
0.000000001
 43
0.00000001
 40
0.0
 40
0.0
 40
0.0
 40
0.0
 40
0.0059783978562859
 40
0.0624654947945648
 40
0.1194460235283766
 40
0.177785302098672
 40
0.2377666248903204
 40
0.2990786214817683
 40
0.3611216206605441
 40
0.4233484484772877
 40
0.4854653999690181
 40
0.5474235736868606
 40
0.6092530566007318
 40
0.6710171290188368
 40
0.7327919929925084
 40
0.7946397396289854
 40
0.8566372491154635
 40
0.9188675620172945
 40
0.9814002953160873
 40
0.9999999999999999
 40
0.9999999999999999
 40
0.9999999999999999
 40
0.9999999999999999
 10
212.9342583257121
 20
80.2379397676874
 30
0.0
 10
212.9095790488771
 20
80.25028376781566
 30
0.0
 10
212.6517167794652
 20
80.37926047600602
 30
0.0
 10
212.0941007447842
 20
80.48283608789691
 30
0.0
 10
211.2811364486639
 20
80.53580155674831
 30
0.0
 10
210.4226573950138
 20
80.42176911265186
 30
0.0
 10
209.5364811621701
 20
80.16005533680135
 30
0.0
 10
208.6335160422177
 20
79.74617715877919
 30
0.0
 10
207.7328450397575
 20
79.18836190699008
 30
0.0
 10
206.8537520949041
 20
78.49859857834605
 30
0.0
 10
206.0138364605522
 20
77.69268281663831
 30
0.0
 10
205.2280139579504
 20
76.78732121061583
 30
0.0
 10
204.5093263172125
 20
75.79962374039768
 30
0.0
 10
203.8697023245954
 20
74.74733012832465
 30
0.0
 10
203.3200638371547
 20
73.64883217690124
 30
0.0
 10
202.8703675959858
 20
72.52300129037128
 30
0.0
 10
202.5288848209085
 20
71.38848571119908
 30
0.0
 10
202.3046467887065
 20
70.26459303051186
 30
0.0
 10
202.2236947383032
 20
69.42545729840454
 30
0.0
 10
202.2185135283294
 20
68.96734789174184
 30
0.0
 10
202.2173257299861
 20
68.86232578358498
 30
0.0
  0
SPLINE
  5
196
330
1F
100
AcDbEntity
  8
0
  6
Continuous
 62
     7
370
    15
100
AcDbSpline
210
0.0
220
0.0
230
1.0
 70
     8
 71
     3
 72
    13
 73
     9
 74
     0
 42
0.000000001
 43
0.00000001
 40
0.0
 40
0.0
 40
0.0
 40
0.0
 40
0.1107451031344306
 40
0.3193857206986919
 40
0.5278834551525823
 40
0.7334679445314699
 40
0.9335512640510606
 40
0.9999999999999999
 40
0.9999999999999999
 40
0.9999999999999999
 40
0.9999999999999999
 10
202.2173257299861
 20
68.86232578358498
 30
0.0
 10
202.221021057385
 20
68.6761725924287
 30
0.0
 10
202.2316782762698
 20
68.13931209534978
 30
0.0
 10
202.3517532656262
 20
67.30065291512825
 30
0.0
 10
202.6209325955247
 20
66.38636817412221
 30
0.0
 10
203.0335441662343
 20
65.59164334524824
 30
0.0
 10
203.4320962699167
 20
65.0407399356598
 30
0.0
 10
203.7248895289812
 20
64.8110216759139
 30
0.0
 10
203.797885409064
 20
64.75375093616115
 30
0.0
  0
LWPOLYLINE
  5
197
330
1F
100
AcDbEntity
  8
0
  6
Continuous
 62
     7
370
    15
100
AcDbPolyline
 90
       20
 70
   128
 43
0.0
 10
263.6255080368
 20
54.8508106494
 10
263.5317033435
 20
55.3911910644
 10
263.6345679382
 20
55.9310217665
 10
263.9296061447
 20
56.4467095635
 10
264.4039233776
 20
56.9157164242
 10
265.0367896978
 20
57.3175444981
 10
265.8005458102
 20
57.6346319704
 10
266.6618119079
 20
57.8531205968
 10
267.5829465295
 20
57.9634613761
 10
268.523691672
 20
57.9608318866
 10
269.4429322585
 20
57.8453470497
 10
270.3004930643
 20
57.6220541068
 10
271.0588945672
 20
57.3007120312
 10
271.6849909823
 20
56.8953650135
 10
272.1514188919
 20
56.4237286633
 10
272.4377931582
 20
55.9064157524
 10
272.5315978515
 20
55.3660353374
 10
272.4287332568
 20
54.8262046353
 10
272.1336950503
 20
54.3105168383
 10
272.0669024932
 20
54.2288476342
  0
LWPOLYLINE
  5
198
330
1F
100
AcDbEntity
  8
0
  6
Continuous
 62
     7
370
    15
100
AcDbPolyline
 90
        3
 70
   128
 43
0.0
 10
264.1505409229
 20
54.0638427884
 10
263.9118823031
 20
54.3334977385
 10
263.6255080368
 20
54.8508106494
  0
LWPOLYLINE
  5
199
330
1F
100
AcDbEntity
  8
0
  6
Continuous
 62
     7
370
    15
100
AcDbPolyline
 90
       26
 70
   128
 43
0.0
 10
265.0942222237
 20
55.0267448332
 10
265.0349254942
 20
55.4595131389
 10
265.1639240242
 20
55.887198204
 10
265.4731123615
 20
56.2829270028
 10
265.9430630658
 20
56.6218344397
 10
266.544247406
 20
56.8826257139
 10
267.238890759
 20
57.0489143505
 10
267.9833461283
 20
57.110251823
 10
268.730836645
 20
57.0627840723
 10
269.4343947309
 20
56.9094936718
 10
270.049813244
 20
56.6600124211
 10
270.5384231757
 20
56.3300161448
 10
270.869523367
 20
55.9402397225
 10
271.0223095753
 20
55.5151742403
 10
270.9871816812
 20
55.0815281258
 10
270.7663468993
 20
54.6665489592
 10
270.3736810914
 20
54.2963114076
 10
269.8338568941
 20
53.9940788582
 10
269.1807934471
 20
53.7788416935
 10
268.4555251286
 20
53.6641240561
 10
267.7036232145
 20
53.6571340771
 10
266.9723324672
 20
53.7583109627
 10
266.307602574
 20
53.9612973969
 10
265.7512009586
 20
54.2533389957
 10
265.338088381
 20
54.6160857112
 10
265.0942222237
 20
55.0267448332
  0
SPLINE
  5
19A
330
1F
100
AcDbEntity
  8
0
  6
Continuous
 62
     7
370
    15
100
AcDbSpline
210
0.0
220
0.0
230
1.0
 70
     8
 71
     3
 72
    15
 73
    11
 74
     0
 42
0.000000001
 43
0.00000001
 40
0.0
 40
0.0
 40
0.0
 40
0.0
 40
0.0640504367340793
 40
0.1282061551362664
 40
0.3015971188615269
 40
0.4801922626499452
 40
0.6449121499731939
 40
0.8155191712969905
 40
0.9075602129381493
 40
1.0
 40
1.0
 40
1.0
 40
1.0
 10
265.8770490339266
 20
54.17705349733784
 30
0.0
 10
265.865295720298
 20
54.18674463516893
 30
0.0
 10
265.8417697737587
 20
54.2061428404517
 30
0.0
 10
265.7851295351475
 20
54.26679077741699
 30
0.0
 10
265.7041293271458
 20
54.38516166104619
 30
0.0
 10
265.5988455123335
 20
54.62120768629745
 30
0.0
 10
265.4935796218365
 20
54.94681368669404
 30
0.0
 10
265.4090348024187
 20
55.27463469872849
 30
0.0
 10
265.341474563528
 20
55.56851571769305
 30
0.0
 10
265.3075414392393
 20
55.72857747037811
 30
0.0
 10
265.2905382047805
 20
55.80878132916918
 30
0.0
  0
LINE
  5
19B
330
1F
100
AcDbEntity
  8
0
  6
Continuous
 62
     7
370
    15
100
AcDbLine
 10
266.0520228111
 20
54.075540257
 30
0.0
 11
265.8770490339
 21
54.1770534973
 31
0.0
  0
SPLINE
  5
19C
330
1F
100
AcDbEntity
  8
0
  6
Continuous
 62
     7
370
    15
100
AcDbSpline
210
0.0
220
0.0
230
1.0
 70
     8
 71
     3
 72
    12
 73
     8
 74
     0
 42
0.000000001
 43
0.00000001
 40
0.0
 40
0.0
 40
0.0
 40
0.0
 40
0.2382374548089478
 40
0.47779279243022
 40
0.7234520181866183
 40
0.9724264313399905
 40
1.0
 40
1.0
 40
1.0
 40
1.0
 10
270.7727629902238
 20
54.76350077681406
 30
0.0
 10
270.6998192944534
 20
54.68783934091682
 30
0.0
 10
270.5535283927131
 20
54.53609792491819
 30
0.0
 10
270.3229003709091
 20
54.32320183372345
 30
0.0
 10
270.0817148258531
 20
54.13285793548501
 30
0.0
 10
269.9059002567816
 20
54.0043667402182
 30
0.0
 10
269.8120658994239
 20
53.95887287973977
 30
0.0
 10
269.8027100253427
 20
53.95433685645265
 30
0.0
  0
SPLINE
  5
19D
330
1F
100
AcDbEntity
  8
0
  6
Continuous
 62
     7
370
    15
100
AcDbSpline
210
0.0
220
0.0
230
1.0
 70
     8
 71
     3
 72
    13
 73
     9
 74
     0
 42
0.000000001
 43
0.00000001
 40
0.0
 40
0.0
 40
0.0
 40
0.0
 40
0.1844095697098917
 40
0.3495005370884486
 40
0.5197705331556595
 40
0.6927076360809646
 40
0.8718061725834209
 40
1.0
 40
1.0
 40
1.0
 40
1.0
 10
270.1862521610778
 20
56.39522860864539
 30
0.0
 10
270.2204355631236
 20
56.23637760006877
 30
0.0
 10
270.2852213407451
 20
55.935316690367
 30
0.0
 10
270.3882046791909
 20
55.53770832674475
 30
0.0
 10
270.4922715053293
 20
55.21353019725454
 30
0.0
 10
270.5986341922214
 20
54.97429547415138
 30
0.0
 10
270.6924287983952
 20
54.83398642347461
 30
0.0
 10
270.7491150589511
 20
54.78424959733496
 30
0.0
 10
270.7727629902238
 20
54.76350077681406
 30
0.0
  0
SPLINE
  5
19E
330
1F
100
AcDbEntity
  8
0
  6
Continuous
 62
     7
370
    15
100
AcDbSpline
210
0.0
220
0.0
230
1.0
 70
     8
 71
     3
 72
    11
 73
     7
 74
     0
 42
0.000000001
 43
0.00000001
 40
0.0
 40
0.0
 40
0.0
 40
0.0
 40
0.2164543009645049
 40
0.4403089937225402
 40
0.7518987489759484
 40
1.0
 40
1.0
 40
1.0
 40
1.0
 10
267.4451397683562
 20
56.91786888482295
 30
0.0
 10
267.6329076707968
 20
56.80813152251063
 30
0.0
 10
268.0148631034614
 20
56.58490496910786
 30
0.0
 10
268.723672005817
 20
56.32439817988215
 30
0.0
 10
269.4840003887388
 20
56.25500858247855
 30
0.0
 10
269.9705660837772
 20
56.35216213506117
 30
0.0
 10
270.1862521610778
 20
56.39522860864539
 30
0.0
  0
SPLINE
  5
19F
330
1F
100
AcDbEntity
  8
0
  6
Continuous
 62
     7
370
    15
100
AcDbSpline
210
0.0
220
0.0
230
1.0
 70
     8
 71
     3
 72
    11
 73
     7
 74
     0
 42
0.000000001
 43
0.00000001
 40
0.0
 40
0.0
 40
0.0
 40
0.0
 40
0.2164543009645037
 40
0.4403089937225351
 40
0.7518987489759468
 40
1.0
 40
1.0
 40
1.0
 40
1.0
 10
265.2905382047805
 20
55.80878132916918
 30
0.0
 10
265.4381297509215
 20
55.81081833741914
 30
0.0
 10
265.7383588749154
 20
55.81496199753006
 30
0.0
 10
266.2955052266472
 20
55.97639457003738
 30
0.0
 10
266.8931475294669
 20
56.35961282156362
 30
0.0
 10
267.2756036484118
 20
56.7464089253662
 30
0.0
 10
267.4451397683562
 20
56.91786888482295
 30
0.0
  0
LINE
  5
1A0
330
1F
100
AcDbEntity
  8
0
  6
Continuous
 62
     7
370
    15
100
AcDbLine
 10
270.1862521611
 20
54.2190138319
 30
0.0
 11
270.1862521611
 21
56.3952286086
 31
0.0
  0
LINE
  5
1A1
330
1F
100
AcDbEntity
  8
0
  6
Continuous
 62
     7
370
    15
100
AcDbLine
 10
267.4451397684
 20
53.6801698591
 30
0.0
 11
267.4451397684
 21
56.9178688848
 31
0.0
  0
LWPOLYLINE
  5
1A2
330
1F
100
AcDbEntity
  8
0
  6
Continuous
 62
     7
370
    15
100
AcDbPolyline
 90
       73
 70
   128
 43
0.0
 10
277.259394092
 20
52.7053079099
 10
275.7494978824
 20
51.757537366
 10
274.2510928947
 20
50.6647278971
 10
272.7755828956
 20
49.435196443
 10
271.3341974071
 20
48.0783004806
 10
269.9379062431
 20
46.6043668074
 10
268.5973360225
 20
45.0246129486
 10
267.322689294
 20
43.3510617851
 10
266.123666889
 20
41.5964500517
 10
265.009394092
 20
39.7741314031
 10
263.9883511917
 20
37.8979747846
 10
263.0683089412
 20
35.9822588809
 10
262.2562694174
 20
34.0415634468
 10
261.5584127316
 20
32.0906583464
 10
260.9800499945
 20
30.1443911454
 10
260.5255828956
 20
28.2175741126
 10
260.1984702041
 20
26.3248714888
 10
260.0012014451
 20
24.480687884
 10
259.9352779529
 20
22.6990586489
 10
260.0012014451
 20
20.9935430577
 10
260.1984702041
 20
19.377121114
 10
260.5255828956
 20
17.8620947648
 10
260.9800499945
 20
16.4599942753
 10
261.5584127316
 20
15.181490477
 10
262.2562694174
 20
14.0363135556
 10
263.0683089412
 20
13.0331789991
 10
263.9883511917
 20
12.1797212671
 10
265.009394092
 20
11.4824356883
 10
266.123666889
 20
10.9466290269
 10
267.322689294
 20
10.5763790953
 10
268.5973360225
 20
10.374503719
 10
269.9379062431
 20
10.3425392913
 10
271.3341974071
 20
10.4807290811
 10
272.7755828956
 20
10.7880213805
 10
274.2510928947
 20
11.2620775095
 10
275.7494978824
 20
11.8992896148
 10
277.259394092
 20
12.6948081275
 10
278.7692903015
 20
13.6425786714
 10
280.2676952892
 20
14.7353881403
 10
281.7432052883
 20
15.9649195944
 10
283.1845907769
 20
17.3218155568
 10
284.5808819409
 20
18.79574923
 10
285.9214521615
 20
20.3755030888
 10
287.19609889
 20
22.0490542523
 10
288.395121295
 20
23.8036659857
 10
289.509394092
 20
25.6259846343
 10
290.5304369923
 20
27.5021412528
 10
291.4504792428
 20
29.4178571565
 10
292.2625187665
 20
31.3585525906
 10
292.9603754524
 20
33.309457691
 10
293.5387381895
 20
35.255724892
 10
293.9932052883
 20
37.1825419248
 10
294.3203179798
 20
39.0752445486
 10
294.5175867389
 20
40.9194281534
 10
294.5835102311
 20
42.7010573885
 10
294.5175867389
 20
44.4065729797
 10
294.3203179798
 20
46.0229949234
 10
293.9932052883
 20
47.5380212726
 10
293.5387381895
 20
48.9401217621
 10
292.9603754524
 20
50.2186255604
 10
292.2625187665
 20
51.3638024818
 10
291.4504792428
 20
52.3669370383
 10
290.5304369923
 20
53.2203947703
 10
289.509394092
 20
53.9176803491
 10
288.395121295
 20
54.4534870105
 10
287.19609889
 20
54.8237369421
 10
285.9214521615
 20
55.0256123185
 10
284.5808819409
 20
55.0575767461
 10
283.1845907769
 20
54.9193869563
 10
281.7432052883
 20
54.6120946569
 10
280.2676952892
 20
54.1380385279
 10
278.7692903015
 20
53.5008264226
 10
277.259394092
 20
52.7053079099
  0
LWPOLYLINE
  5
1A3
330
1F
100
AcDbEntity
  8
0
  6
Continuous
 62
     7
370
    15
100
AcDbPolyline
 90
       38
 70
   128
 43
0.0
 10
276.9058407014
 20
53.3176803438
 10
275.3861833981
 20
52.3648335749
 10
273.8777771059
 20
51.267906788
 10
272.391789537
 20
50.035021245
 10
270.9392224237
 20
48.6753047993
 10
269.5308300645
 20
47.1988243157
 10
268.1770397038
 20
45.6165111391
 10
266.8878743318
 20
43.9400801627
 10
265.6728784778
 20
42.1819430949
 10
264.541047546
 20
40.3551165674
 10
263.5007612167
 20
38.4731257647
 10
262.5597214058
 20
36.5499042882
 10
261.724895243
 20
34.5996909968
 10
261.002463489
 20
32.6369245876
 10
260.3977747758
 20
30.6761366962
 10
259.915306007
 20
28.7318443101
 10
259.5586292126
 20
26.81844229
 10
259.3303851028
 20
24.950096795
 10
259.2322635172
 20
23.1406404014
 10
259.2649909136
 20
21.4034696913
 10
259.4283249899
 20
19.7514460688
 10
259.7210564776
 20
18.1968005389
 10
260.1410180953
 20
16.7510431532
 10
260.6851005941
 20
15.4248777934
 10
261.3492757775
 20
14.228122924
 10
262.1286263248
 20
13.1696388993
 10
263.0173821973
 20
12.2572623647
 10
264.0089633574
 20
11.4977482367
 10
265.0960284851
 20
10.8967196924
 10
266.2705293306
 20
10.4586265367
 10
267.5237703005
 20
10.1867122582
 10
268.8464728372
 20
10.0829900149
 10
270.2288441138
 20
10.1482277301
 10
271.6606495371
 20
10.3819424066
 10
273.1312885206
 20
10.7824037027
 10
274.6298729678
 20
11.346646743
 10
276.1453078839
 20
12.0704940695
 10
276.9087138198
 20
12.4922986351
  0
LWPOLYLINE
  5
1A4
330
1F
100
AcDbEntity
  8
0
  6
Continuous
 62
     7
370
    15
100
AcDbPolyline
 90
       20
 70
   128
 43
0.0
 10
294.5835102311
 20
43.1092614444
 10
294.5794178856
 20
43.5461182754
 10
294.4812962999
 20
45.2422858977
 10
294.2530521902
 20
46.8471063529
 10
293.8963753958
 20
48.3486981118
 10
293.413906627
 20
49.7359439145
 10
292.8092179138
 20
50.9985730783
 10
292.0867861598
 20
52.1272375388
 10
291.2519599969
 20
53.113581059
 10
290.3109201861
 20
53.9503010968
 10
289.2706338568
 20
54.6312028696
 10
288.138802925
 20
55.1512452189
 10
286.923807071
 20
55.5065779332
 10
285.6346416989
 20
55.6945702534
 10
284.2808513383
 20
55.7138303501
 10
282.8724589791
 20
55.5642156282
 10
281.4198918658
 20
55.2468337829
 10
279.9339042969
 20
54.7640345982
 10
278.4254980047
 20
54.1193925504
 10
276.9058407014
 20
53.3176803438
  0
LINE
  5
1A5
330
1F
100
AcDbEntity
  8
0
  6
Continuous
 62
     7
370
    15
100
AcDbLine
 10
254.8609149974
 20
16.7636932419
 30
0.0
 11
254.9174084621
 21
16.7313736994
 31
0.0
  0
SPLINE
  5
1A6
330
1F
100
AcDbEntity
  8
0
  6
Continuous
 62
     7
370
    15
100
AcDbSpline
210
0.0
220
0.0
230
1.0
 70
     8
 71
     3
 72
    53
 73
    49
 74
     0
 42
0.000000001
 43
0.00000001
 40
0.0
 40
0.0
 40
0.0
 40
0.0
 40
0.0625000000000006
 40
0.0625000000000006
 40
0.1250000000000012
 40
0.1250000000000012
 40
0.1562500000000014
 40
0.1562500000000014
 40
0.1875000000000017
 40
0.1875000000000017
 40
0.2500000000000023
 40
0.2500000000000023
 40
0.2812500000000023
 40
0.2812500000000023
 40
0.3125000000000022
 40
0.3125000000000022
 40
0.3750000000000017
 40
0.3750000000000017
 40
0.4375000000000011
 40
0.4375000000000011
 40
0.4687500000000009
 40
0.4687500000000009
 40
0.5000000000000008
 40
0.5312500000000007
 40
0.5312500000000007
 40
0.5625000000000004
 40
0.5625000000000004
 40
0.5937500000000003
 40
0.5937500000000003
 40
0.6250000000000001
 40
0.6250000000000001
 40
0.6874999999999998
 40
0.6874999999999998
 40
0.7187499999999996
 40
0.7187499999999996
 40
0.7499999999999994
 40
0.7499999999999994
 40
0.7812499999999993
 40
0.7812499999999993
 40
0.8124999999999991
 40
0.8124999999999991
 40
0.8749999999999989
 40
0.8749999999999989
 40
0.9062499999999992
 40
0.9062499999999992
 40
0.9374999999999996
 40
0.9374999999999996
 40
1.0
 40
1.0
 40
1.0
 40
1.0
 10
272.4118222317443
 20
60.89350796538243
 30
0.0
 10
272.8342271885705
 20
60.68139710386724
 30
0.0
 10
273.2326254267653
 20
60.45581599580614
 30
0.0
 10
273.9454414435266
 20
59.99806970648526
 30
0.0
 10
274.2628272062764
 20
59.76489979467645
 30
0.0
 10
274.6795765550249
 20
59.40648695871004
 30
0.0
 10
274.8090360331545
 20
59.28501213831125
 30
0.0
 10
275.0445901384443
 20
59.04085105938118
 30
0.0
 10
275.1501102825675
 20
58.91887720803516
 30
0.0
 10
275.4303732704806
 20
58.55210195196106
 30
0.0
 10
275.5692710580971
 20
58.30654329930383
 30
0.0
 10
275.7001166139733
 20
57.93064274891263
 30
0.0
 10
275.7306541378006
 20
57.80345230279741
 30
0.0
 10
275.7628829952555
 20
57.55121482468636
 30
0.0
 10
275.7649066950591
 20
57.42558045491415
 30
0.0
 10
275.7279119196898
 20
57.0485717695026
 30
0.0
 10
275.6465700584305
 20
56.79713525573936
 30
0.0
 10
275.351480276925
 20
56.28550955015629
 30
0.0
 10
275.14298802876
 20
56.03517098130421
 30
0.0
 10
274.7355532662761
 20
55.66686020318884
 30
0.0
 10
274.582308989699
 20
55.54422095785471
 30
0.0
 10
274.249170805465
 20
55.30649962580416
 30
0.0
 10
273.8901120455521
 20
55.07631862414628
 30
0.0
 10
273.4801276193081
 20
54.8606911468575
 30
0.0
 10
273.0441647073362
 20
54.65261019150036
 30
0.0
 10
272.813362313864
 20
54.55261589687485
 30
0.0
 10
272.3400430952722
 20
54.36640060294624
 30
0.0
 10
272.0958653420646
 20
54.27935135239012
 30
0.0
 10
271.5930106780846
 20
54.11745022418542
 30
0.0
 10
271.3328339674518
 20
54.04222866039009
 30
0.0
 10
270.541743260848
 20
53.83876506322549
 30
0.0
 10
270.0055155852289
 20
53.73327226899803
 30
0.0
 10
269.1884795392716
 20
53.62081683033963
 30
0.0
 10
268.9136077339684
 20
53.59111363006492
 30
0.0
 10
268.3707357347564
 20
53.54870033854397
 30
0.0
 10
268.1013041257557
 20
53.53575966059402
 30
0.0
 10
267.5661004187023
 20
53.52654416687296
 30
0.0
 10
267.3003294111979
 20
53.53027066641719
 30
0.0
 10
266.7722508054007
 20
53.55508447099681
 30
0.0
 10
266.5098729695242
 20
53.57629388292414
 30
0.0
 10
265.7426148342993
 20
53.66542888473059
 30
0.0
 10
265.2521824410772
 20
53.75879145043624
 30
0.0
 10
264.5466632131011
 20
53.95201238888863
 30
0.0
 10
264.3154796696978
 20
54.02575176023878
 30
0.0
 10
263.8693167271651
 20
54.18979938366347
 30
0.0
 10
263.6546840558203
 20
54.27984861848587
 30
0.0
 10
263.0353560595494
 20
54.57371587055573
 30
0.0
 10
262.6549998711839
 20
54.80112464354969
 30
0.0
 10
262.3079760790057
 20
55.06068173660365
 30
0.0
  0
LINE
  5
1A7
330
1F
100
AcDbEntity
  8
0
  6
Continuous
 62
     7
370
    15
100
AcDbLine
 10
286.5002962279
 20
32.3627579797
 30
0.0
 11
290.0226714924
 21
36.7445593222
 31
0.0
  0
SPLINE
  5
1A8
330
1F
100
AcDbEntity
  8
0
  6
Continuous
 62
     7
370
    15
100
AcDbSpline
210
0.0
220
0.0
230
1.0
 70
     8
 71
     3
 72
    22
 73
    18
 74
     0
 42
0.000000001
 43
0.00000001
 40
0.0
 40
0.0
 40
0.0
 40
0.0
 40
0.0500000000000109
 40
0.0999999999999998
 40
0.15
 40
0.2
 40
0.2500000000000001
 40
0.2968749999999668
 40
0.34375
 40
0.3906249999999996
 40
0.4374999999999986
 40
0.5292946909502638
 40
0.5292946909502638
 40
0.53125
 40
0.6250000000000003
 40
0.8125
 40
0.8968030376401427
 40
0.8968030376401427
 40
0.8968030376401427
 40
0.8968030376401427
 10
290.0226714924042
 20
36.74455932219697
 30
0.0
 10
290.1850708564109
 20
36.9465825871195
 30
0.0
 10
290.5042496396573
 20
37.38660929190534
 30
0.0
 10
290.9426011139048
 20
38.13900141718182
 30
0.0
 10
291.3163226823141
 20
38.97358123313285
 30
0.0
 10
291.5909923639306
 20
39.85289719195755
 30
0.0
 10
291.7323389873414
 20
40.7072192387788
 30
0.0
 10
291.7313801466243
 20
41.48622880799689
 30
0.0
 10
291.594735800152
 20
42.15057118656662
 30
0.0
 10
291.3312853753987
 20
42.68457131957158
 30
0.0
 10
290.8513296397112
 20
43.19100504439952
 30
0.0
 10
290.3622113042695
 20
43.35914936123744
 30
0.0
 10
290.0170515360473
 20
43.39214129114774
 30
0.0
 10
289.6888432237645
 20
43.42358736919056
 30
0.0
 10
288.8704151782722
 20
43.4928507247112
 30
0.0
 10
288.1791494808353
 20
43.55668238712017
 30
0.0
 10
286.9169490963141
 20
43.6695926231345
 30
0.0
 10
286.5002024149897
 20
43.70682621115553
 30
0.0
  0
SPLINE
  5
1A9
330
1F
100
AcDbEntity
  8
0
  6
Continuous
 62
     7
370
    15
100
AcDbSpline
210
0.0
220
0.0
230
1.0
 70
     8
 71
     3
 72
    22
 73
    18
 74
     0
 42
0.000000001
 43
0.00000001
 40
0.0
 40
0.0
 40
0.0
 40
0.0
 40
0.0500000000000109
 40
0.0999999999999998
 40
0.15
 40
0.2
 40
0.2500000000000001
 40
0.2968749999999668
 40
0.34375
 40
0.3906249999999996
 40
0.4374999999999986
 40
0.5292946909502638
 40
0.5292946909502638
 40
0.53125
 40
0.6250000000000003
 40
0.8125
 40
0.8955927989355436
 40
0.8955927989355436
 40
0.8955927989355436
 40
0.8955927989355436
 10
264.496116691569
 20
22.00839290379669
 30
0.0
 10
264.3356048344896
 20
22.0227450825739
 30
0.0
 10
264.0136625497786
 20
22.09450290868859
 30
0.0
 10
263.576421790558
 20
22.3406858723037
 30
0.0
 10
263.2024026142385
 20
22.74380258869811
 30
0.0
 10
262.9278126492361
 20
23.30598445046392
 30
0.0
 10
262.7864452101653
 20
23.99711340462585
 30
0.0
 10
262.7874083509889
 20
24.77722829699505
 30
0.0
 10
262.9240550222473
 20
25.59934162692591
 30
0.0
 10
263.1874919412304
 20
26.43749785070024
 30
0.0
 10
263.6675158891422
 20
27.49816168804015
 30
0.0
 10
264.1563278735977
 20
28.23064887246732
 30
0.0
 10
264.5017261014113
 20
28.66245041698237
 30
0.0
 10
264.8301875358131
 20
29.07315261535543
 30
0.0
 10
265.6508085820169
 20
30.09008097410324
 30
0.0
 10
266.3226745476046
 20
30.92789123375277
 30
0.0
 10
267.6040073711137
 20
32.52191380200496
 30
0.0
 10
268.0185866031773
 20
33.0376183157606
 30
0.0
  0
LINE
  5
1AA
330
1F
100
AcDbEntity
  8
0
  6
Continuous
 62
     7
370
    15
100
AcDbLine
 10
268.0184919561
 20
21.6934394765
 30
0.0
 11
264.4961166916
 21
22.0083929038
 31
0.0
  0
SPLINE
  5
1AB
330
1F
100
AcDbEntity
  8
0
  6
Continuous
 62
     7
370
    15
100
AcDbSpline
210
0.0
220
0.0
230
1.0
 70
     8
 71
     3
 72
    14
 73
    10
 74
     0
 42
0.000000001
 43
0.00000001
 40
0.0
 40
0.0
 40
0.0
 40
0.0
 40
0.25
 40
0.25
 40
0.5
 40
0.5
 40
0.75
 40
0.75
 40
1.0
 40
1.0
 40
1.0
 40
1.0
 10
272.4118222317443
 20
60.89350796538243
 30
0.0
 10
272.296990704649
 20
60.95117067446687
 30
0.0
 10
272.165332564977
 20
60.97355213403097
 30
0.0
 10
271.8970123225098
 20
60.95707491877287
 30
0.0
 10
271.760215369235
 20
60.918427658569
 30
0.0
 10
271.5035812653921
 20
60.79684071753574
 30
0.0
 10
271.383312250984
 20
60.71425684698623
 30
0.0
 10
271.1685831636027
 20
60.51640846763996
 30
0.0
 10
271.075254808794
 20
60.40250685166586
 30
0.0
 10
270.9997049992216
 20
60.2757341381483
 30
0.0
  0
SPLINE
  5
1AC
330
1F
100
AcDbEntity
  8
0
  6
Continuous
 62
     7
370
    15
100
AcDbSpline
210
0.0
220
0.0
230
1.0
 70
     8
 71
     3
 72
    14
 73
    10
 74
     0
 42
0.000000001
 43
0.00000001
 40
0.0
 40
0.0
 40
0.0
 40
0.0
 40
0.25
 40
0.25
 40
0.5
 40
0.5
 40
0.75
 40
0.75
 40
1.0
 40
1.0
 40
1.0
 40
1.0
 10
262.3058797491493
 20
55.25689565026074
 30
0.0
 10
262.2301249865272
 20
55.29654768816921
 30
0.0
 10
262.1704701428222
 20
55.3213620201712
 30
0.0
 10
262.0825806160335
 20
55.3447858584149
 30
0.0
 10
262.0558646637552
 20
55.34270931402472
 30
0.0
 10
262.0448981235022
 20
55.31033573050107
 30
0.0
 10
262.0608247875174
 20
55.27989999115749
 30
0.0
 10
262.1461211494454
 20
55.1894038228443
 30
0.0
 10
262.2140753806892
 20
55.13091493916813
 30
0.0
 10
262.3079760790057
 20
55.06068173660366
 30
0.0
  0
SPLINE
  5
1AD
330
1F
100
AcDbEntity
  8
0
  6
Continuous
 62
     7
370
    15
100
AcDbSpline
210
0.0
220
0.0
230
1.0
 70
     8
 71
     3
 72
    14
 73
    10
 74
     0
 42
0.000000001
 43
0.00000001
 40
0.0
 40
0.0
 40
0.0
 40
0.0
 40
0.25
 40
0.25
 40
0.5
 40
0.5
 40
0.75
 40
0.75
 40
1.0
 40
1.0
 40
1.0
 40
1.0
 10
262.8219469111536
 20
55.44259974513022
 30
0.0
 10
262.8683002134393
 20
55.34097887636695
 30
0.0
 10
262.8959457835558
 20
55.25964231103291
 30
0.0
 10
262.9232998383269
 20
55.12911549871287
 30
0.0
 10
262.921858913409
 20
55.082888091494
 30
0.0
 10
262.8875006119686
 20
55.02610550874663
 30
0.0
 10
262.8552436717435
 20
55.01641827125793
 30
0.0
 10
262.7565490435217
 20
55.03188013714861
 30
0.0
 10
262.6911328800716
 20
55.05701331191919
 30
0.0
 10
262.6081513863147
 20
55.09980745261869
 30
0.0
  0
SPLINE
  5
1AE
330
1F
100
AcDbEntity
  8
0
  6
Continuous
 62
     7
370
    15
100
AcDbSpline
210
0.0
220
0.0
230
1.0
 70
     8
 71
     3
 72
    14
 73
    10
 74
     0
 42
0.000000001
 43
0.00000001
 40
0.0
 40
0.0
 40
0.0
 40
0.0
 40
0.25
 40
0.25
 40
0.5
 40
0.5
 40
0.75
 40
0.75
 40
1.0
 40
1.0
 40
1.0
 40
1.0
 10
270.6974333620622
 20
59.76965053681281
 30
0.0
 10
270.6144267610013
 20
59.63100606647098
 30
0.0
 10
270.5118090527204
 20
59.50962526603973
 30
0.0
 10
270.2712762376612
 20
59.29773605688206
 30
0.0
 10
270.1376010214472
 20
59.21155652845795
 30
0.0
 10
269.8480934607737
 20
59.08101580140861
 30
0.0
 10
269.6959969058335
 20
59.03837261004197
 30
0.0
 10
269.3833300953235
 20
59.00282288399517
 30
0.0
 10
269.2236716671063
 20
59.00997887364371
 30
0.0
 10
269.0694242748501
 20
59.04919165872479
 30
0.0
  0
SPLINE
  5
1AF
330
1F
100
AcDbEntity
  8
0
  6
Continuous
 62
     7
370
    15
100
AcDbSpline
210
0.0
220
0.0
230
1.0
 70
     8
 71
     3
 72
    34
 73
    30
 74
     0
 42
0.000000001
 43
0.00000001
 40
0.0
 40
0.0
 40
0.0
 40
0.0
 40
0.0624999999999994
 40
0.0624999999999994
 40
0.1249999999999989
 40
0.1249999999999989
 40
0.1874999999999983
 40
0.1874999999999983
 40
0.2499999999999978
 40
0.2499999999999978
 40
0.3749999999999977
 40
0.3749999999999977
 40
0.4374999999999978
 40
0.4374999999999978
 40
0.4999999999999978
 40
0.4999999999999978
 40
0.5624999999999979
 40
0.5624999999999979
 40
0.624999999999998
 40
0.624999999999998
 40
0.6874999999999981
 40
0.6874999999999981
 40
0.7499999999999982
 40
0.7499999999999982
 40
0.8749999999999984
 40
0.8749999999999984
 40
0.9374999999999992
 40
0.9374999999999992
 40
1.0
 40
1.0
 40
1.0
 40
1.0
 10
269.0694242748503
 20
59.04919165872475
 30
0.0
 10
268.8503215617708
 20
59.10489196894069
 30
0.0
 10
268.6251023562378
 20
59.15498914525529
 30
0.0
 10
268.1758481728743
 20
59.23977088272017
 30
0.0
 10
267.9504938863317
 20
59.27485308946247
 30
0.0
 10
267.4981843450404
 20
59.3292263602544
 30
0.0
 10
267.2712300581541
 20
59.34852611158062
 30
0.0
 10
266.8154816464793
 20
59.36926632566373
 30
0.0
 10
266.5857041852353
 20
59.37051877880415
 30
0.0
 10
265.9157049254063
 20
59.34433012064923
 30
0.0
 10
265.487502836545
 20
59.28815073382235
 30
0.0
 10
264.8755509796874
 20
59.13469235365028
 30
0.0
 10
264.6788258253901
 20
59.07215477280144
 30
0.0
 10
264.3102087709839
 20
58.92726282859991
 30
0.0
 10
264.1366841131118
 20
58.844525773384
 30
0.0
 10
263.8115510879674
 20
58.6579883562
 30
0.0
 10
263.6588214995152
 20
58.55310620676936
 30
0.0
 10
263.3848357691061
 20
58.32816562067816
 30
0.0
 10
263.2628079589772
 20
58.20799995956507
 30
0.0
 10
263.0475134671055
 20
57.95325773270431
 30
0.0
 10
262.9537916629293
 20
57.81780437910865
 30
0.0
 10
262.7976806709478
 20
57.53706480579733
 30
0.0
 10
262.7357270173057
 20
57.39304220270542
 30
0.0
 10
262.594878656044
 20
56.95184340253748
 30
0.0
 10
262.5615174804788
 20
56.64218693136732
 30
0.0
 10
262.597365381993
 20
56.18670895513978
 30
0.0
 10
262.6233200321857
 20
56.03572276004015
 30
0.0
 10
262.7024563054702
 20
55.73622756835883
 30
0.0
 10
262.7561046723783
 20
55.58694642974019
 30
0.0
 10
262.8219469111537
 20
55.4425997451301
 30
0.0
  0
LINE
  5
1B0
330
1F
100
AcDbEntity
  8
0
  6
Continuous
 62
     7
370
    15
100
AcDbLine
 10
244.8324602533
 20
25.4396700897
 30
0.0
 11
244.764944586
 21
25.4791166691
 31
0.0
  0
SPLINE
  5
1B1
330
1F
100
AcDbEntity
  8
0
  6
Continuous
 62
     7
370
    15
100
AcDbSpline
210
0.0
220
0.0
230
1.0
 70
     8
 71
     3
 72
    48
 73
    44
 74
     0
 42
0.000000001
 43
0.00000001
 40
0.0
 40
0.0
 40
0.0
 40
0.0
 40
0.0625000000000009
 40
0.0625000000000009
 40
0.0937500000000011
 40
0.0937500000000011
 40
0.1250000000000014
 40
0.1250000000000014
 40
0.1875000000000014
 40
0.1875000000000014
 40
0.2187500000000012
 40
0.2187500000000012
 40
0.2500000000000011
 40
0.2500000000000011
 40
0.312500000000001
 40
0.312500000000001
 40
0.3750000000000009
 40
0.3750000000000009
 40
0.4375000000000009
 40
0.4375000000000009
 40
0.5000000000000009
 40
0.5000000000000009
 40
0.5625000000000009
 40
0.5625000000000009
 40
0.5937500000000009
 40
0.5937500000000009
 40
0.6250000000000009
 40
0.6250000000000009
 40
0.6875000000000009
 40
0.6875000000000009
 40
0.7500000000000009
 40
0.7500000000000009
 40
0.7812500000000009
 40
0.7812500000000009
 40
0.8125000000000008
 40
0.8125000000000008
 40
0.8750000000000006
 40
0.8750000000000006
 40
0.9062500000000004
 40
0.9062500000000004
 40
0.9375000000000003
 40
0.9375000000000003
 40
1.0
 40
1.0
 40
1.0
 40
1.0
 10
241.2079536250771
 20
29.81718785176903
 30
0.0
 10
241.5379214878788
 20
29.65776961157506
 30
0.0
 10
241.845915612037
 20
29.53322930163901
 30
0.0
 10
242.279294467675
 20
29.396923461467
 30
0.0
 10
242.418967127669
 20
29.35997149528857
 30
0.0
 10
242.6892737555406
 20
29.30350029178519
 30
0.0
 10
242.8205296671248
 20
29.28396261492164
 30
0.0
 10
243.1954087686625
 20
29.25328372627262
 30
0.0
 10
243.4210005828504
 20
29.2692732013574
 30
0.0
 10
243.7290010096698
 20
29.3486370867014
 30
0.0
 10
243.8265661248761
 20
29.38438417730052
 30
0.0
 10
244.0121125973565
 20
29.47536424233924
 30
0.0
 10
244.0998578403979
 20
29.53062289884981
 30
0.0
 10
244.3449153995381
 20
29.72314956125183
 30
0.0
 10
244.4860299554621
 20
29.88772922647509
 30
0.0
 10
244.7294723952742
 20
30.29314356756434
 30
0.0
 10
244.8322632201752
 20
30.5370116098262
 30
0.0
 10
244.9941387233538
 20
31.08835789511611
 30
0.0
 10
245.0544405892645
 20
31.39665263081887
 30
0.0
 10
245.1358968277956
 20
32.08152697091513
 30
0.0
 10
245.1566040364969
 20
32.4609750518193
 30
0.0
 10
245.1568869255447
 20
33.25731257203427
 30
0.0
 10
245.1371376928874
 20
33.6776100492235
 30
0.0
 10
245.0765142732305
 20
34.34133412583761
 30
0.0
 10
245.0509613685288
 20
34.56876048992749
 30
0.0
 10
244.9901721415042
 20
35.02510097228133
 30
0.0
 10
244.9548608437705
 20
35.25512736779422
 30
0.0
 10
244.8339383729568
 20
35.9503849435394
 30
0.0
 10
244.7332280897622
 20
36.42194050328261
 30
0.0
 10
244.487844578231
 20
37.3725129843217
 30
0.0
 10
244.3462258100248
 20
37.83997896544602
 30
0.0
 10
244.1023279626927
 20
38.52859718622293
 30
0.0
 10
244.0157468419096
 20
38.75602505283836
 30
0.0
 10
243.8310178078986
 20
39.20632458419072
 30
0.0
 10
243.7324033105475
 20
39.43008422011548
 30
0.0
 10
243.4229288043273
 20
40.08214476115062
 30
0.0
 10
243.1975545919003
 20
40.49436390684454
 30
0.0
 10
242.8262722357251
 20
41.0775557832191
 30
0.0
 10
242.6969476372033
 20
41.26606176551225
 30
0.0
 10
242.4260127995462
 20
41.63059684367474
 30
0.0
 10
242.2843023505484
 20
41.8065675528341
 30
0.0
 10
241.8473685583899
 20
42.30512315849632
 30
0.0
 10
241.537908812111
 20
42.60209054656658
 30
0.0
 10
241.2079536250771
 20
42.86166691475215
 30
0.0
  0
LINE
  5
1B2
330
1F
100
AcDbEntity
  8
0
  6
Continuous
 62
     7
370
    15
100
AcDbLine
 10
269.6590766582
 20
63.0136663372
 30
0.0
 11
266.5820816961
 21
64.7899777189
 31
0.0
  0
SPLINE
  5
1B3
330
1F
100
AcDbEntity
  8
0
  6
Continuous
 62
     7
370
    15
100
AcDbSpline
210
0.0
220
0.0
230
1.0
 70
     8
 71
     3
 72
    16
 73
    12
 74
     0
 42
0.000000001
 43
0.00000001
 40
0.0
 40
0.0
 40
0.0
 40
0.0
 40
0.2499999999999997
 40
0.2499999999999997
 40
0.3749999999999999
 40
0.3749999999999999
 40
0.5000000000000001
 40
0.5000000000000001
 40
0.7499999999999998
 40
0.7499999999999998
 40
1.0
 40
1.0
 40
1.0
 40
1.0
 10
267.9949838860619
 20
63.98011657702662
 30
0.0
 10
268.2721952131608
 20
63.82530678840661
 30
0.0
 10
268.5152955943977
 20
63.69319935575003
 30
0.0
 10
268.8312927256161
 20
63.52355887034659
 30
0.0
 10
268.9284441384864
 20
63.47178835312345
 30
0.0
 10
269.1060502375018
 20
63.37706016422524
 30
0.0
 10
269.18644573583
 20
63.33412678744325
 30
0.0
 10
269.3973391823263
 20
63.21977886604263
 30
0.0
 10
269.4999370452359
 20
63.16155768267068
 30
0.0
 10
269.6333826145767
 20
63.07049667140281
 30
0.0
 10
269.6636291399267
 20
63.03782829743245
 30
0.0
 10
269.65907665816
 20
63.01366633718004
 30
0.0
  0
SPLINE
  5
1B4
330
1F
100
AcDbEntity
  8
0
  6
Continuous
 62
     7
370
    15
100
AcDbSpline
210
0.0
220
0.0
230
1.0
 70
     8
 71
     3
 72
    20
 73
    16
 74
     0
 42
0.000000001
 43
0.00000001
 40
0.0
 40
0.0
 40
0.0
 40
0.0
 40
0.0689330687637989
 40
0.2086460660694029
 40
0.2795513568935785
 40
0.3568221062333895
 40
0.4346297180620444
 40
0.5141300326226641
 40
0.5942147550365564
 40
0.671484413799124
 40
0.7492896513559106
 40
0.8287838911782821
 40
0.9088620526380061
 40
0.9861853451224857
 40
1.0
 40
1.0
 40
1.0
 40
1.0
 10
264.3193399962728
 20
22.66811848889104
 30
0.0
 10
264.2569073658581
 20
22.67583804528453
 30
0.0
 10
264.0679367750519
 20
22.69920353737983
 30
0.0
 10
263.8350257745053
 20
22.78179289077781
 30
0.0
 10
263.6165424689851
 20
22.90743797422489
 30
0.0
 10
263.4585222782745
 20
23.02983423080267
 30
0.0
 10
263.3098099166898
 20
23.18144581356254
 30
0.0
 10
263.176105162196
 20
23.35917413815725
 30
0.0
 10
263.0611022345325
 20
23.55951966062931
 30
0.0
 10
262.9656700815505
 20
23.77952838427376
 30
0.0
 10
262.8901556438784
 20
24.01806791830606
 30
0.0
 10
262.8340236174108
 20
24.27689889839744
 30
0.0
 10
262.8017575375135
 20
24.55208839348299
 30
0.0
 10
262.7890574608053
 20
24.75811247904964
 30
0.0
 10
262.7936267840616
 20
24.87329160720914
 30
0.0
 10
262.7943194003169
 20
24.89075041499089
 30
0.0
  0
SPLINE
  5
1B5
330
1F
100
AcDbEntity
  8
0
  6
Continuous
 62
     7
370
    15
100
AcDbSpline
210
0.0
220
0.0
230
1.0
 70
     8
 71
     3
 72
    12
 73
     8
 74
     0
 42
0.000000001
 43
0.00000001
 40
0.0
 40
0.0
 40
0.0
 40
0.0
 40
0.1317350246579393
 40
0.3575024262011736
 40
0.5684929070045147
 40
0.7844507208647221
 40
1.0
 40
1.0
 40
1.0
 40
1.0
 10
268.3679881823994
 20
33.526093203461
 30
0.0
 10
268.3615539987882
 20
33.51215053639423
 30
0.0
 10
268.3440929153929
 20
33.47431293536877
 30
0.0
 10
268.2829412338168
 20
33.38291187260938
 30
0.0
 10
268.201391304283
 20
33.27109966002325
 30
0.0
 10
268.1128410480137
 20
33.15570386397933
 30
0.0
 10
268.0499849148464
 20
33.07695531310888
 30
0.0
 10
268.0185866031771
 20
33.03761831576026
 30
0.0
  0
LWPOLYLINE
  5
1B6
330
1F
100
AcDbEntity
  8
0
  6
Continuous
 62
     7
370
    15
100
AcDbPolyline
 90
       21
 70
   128
 43
0.0
 10
272.0793498827
 20
54.2435224945
 10
272.3783168158
 20
54.7062544562
 10
272.5254835039
 20
55.2426551309
 10
272.4762481302
 20
55.7849978258
 10
272.2327625167
 20
56.3095795625
 10
271.8056681533
 20
56.7934736019
 10
271.2136311128
 20
57.2155314525
 10
270.4825262551
 20
57.557307161
 10
269.6443063705
 20
57.803863489
 10
268.7356056902
 20
57.9444247417
 10
267.7961387944
 20
57.9728477179
 10
266.8669648945
 20
57.8878901973
 10
265.9886933487
 20
57.693265231
 10
265.1997088378
 20
57.3974788641
 10
264.5344937709
 20
57.0134583801
 10
264.0221212387
 20
56.557987317
 10
263.6849843792
 20
56.0509719457
 10
263.5378176911
 20
55.5145712709
 10
263.5870530648
 20
54.9722285761
 10
263.8305386783
 20
54.4476468394
 10
264.1082099183
 20
54.1064024158
  0
SPLINE
  5
1B7
330
1F
100
AcDbEntity
  8
0
  6
Continuous
 62
     7
370
    15
100
AcDbSpline
210
0.0
220
0.0
230
1.0
 70
     8
 71
     3
 72
     8
 73
     4
 74
     0
 42
0.000000001
 43
0.00000001
 40
0.0
 40
0.0
 40
0.0
 40
0.0
 40
1.0
 40
1.0
 40
1.0
 40
1.0
 10
270.6974333620622
 20
59.76965053681281
 30
0.0
 10
270.7983586070338
 20
59.93822420389908
 30
0.0
 10
270.8991047321409
 20
60.10692671281399
 30
0.0
 10
270.9997049992216
 20
60.2757341381483
 30
0.0
  0
SPLINE
  5
1B8
330
1F
100
AcDbEntity
  8
0
  6
Continuous
 62
     7
370
    15
100
AcDbSpline
210
0.0
220
0.0
230
1.0
 70
     8
 71
     3
 72
     8
 73
     4
 74
     0
 42
0.000000001
 43
0.00000001
 40
0.0
 40
0.0
 40
0.0
 40
0.0
 40
1.0
 40
1.0
 40
1.0
 40
1.0
 10
262.3058797491553
 20
55.256895650266
 30
0.0
 10
262.4064729946257
 20
55.20424249626388
 30
0.0
 10
262.5072185983216
 20
55.15185920217164
 30
0.0
 10
262.6081513863147
 20
55.09980745261869
 30
0.0
  0
SPLINE
  5
1B9
330
1F
100
AcDbEntity
  8
0
  6
Continuous
 62
     7
370
    15
100
AcDbSpline
210
0.0
220
0.0
230
1.0
 70
     8
 71
     3
 72
    16
 73
    12
 74
     0
 42
0.000000001
 43
0.00000001
 40
0.0
 40
0.0
 40
0.0
 40
0.0
 40
0.2500000000000037
 40
0.2500000000000037
 40
0.5000000000000073
 40
0.5000000000000073
 40
0.6250000000000054
 40
0.6250000000000054
 40
0.7500000000000037
 40
0.7500000000000037
 40
1.0
 40
1.0
 40
1.0
 40
1.0
 10
286.5002024150021
 20
43.70682621115441
 30
0.0
 10
286.4369019388337
 20
43.71248169434554
 30
0.0
 10
286.3686444863333
 20
43.71545192932918
 30
0.0
 10
286.2142871982755
 20
43.71172861912434
 30
0.0
 10
286.1268967373716
 20
43.70532958205673
 30
0.0
 10
285.9794675573407
 20
43.6776397481825
 30
0.0
 10
285.9276309235096
 20
43.66500212112211
 30
0.0
 10
285.8312244290898
 20
43.633873178907
 30
0.0
 10
285.7865302461203
 20
43.61525746086348
 30
0.0
 10
285.6768971582881
 20
43.55914436899876
 30
0.0
 10
285.632937879526
 20
43.52241115422748
 30
0.0
 10
285.6004946541768
 20
43.48819135035303
 30
0.0
  0
SPLINE
  5
1BA
330
1F
100
AcDbEntity
  8
0
  6
Continuous
 62
     7
370
    15
100
AcDbSpline
210
0.0
220
0.0
230
1.0
 70
     8
 71
     3
 72
     8
 73
     4
 74
     0
 42
0.000000001
 43
0.00000001
 40
0.0
 40
0.0
 40
0.0
 40
0.0
 40
1.0
 40
1.0
 40
1.0
 40
1.0
 10
285.6004946541768
 20
43.48819135035305
 30
0.0
 10
285.498034719688
 20
43.52710488755083
 30
0.0
 10
285.396598735615
 20
43.57183838573732
 30
0.0
 10
285.3185501935183
 20
43.61689485003599
 30
0.0
  0
LINE
  5
1BB
330
1F
100
AcDbEntity
  8
0
  6
Continuous
 62
     7
370
    15
100
AcDbLine
 10
283.8554369787
 20
45.0531646159
 30
0.0
 11
283.6931397955
 21
45.1513053368
 31
0.0
  0
LINE
  5
1BC
330
1F
100
AcDbEntity
  8
0
  6
Continuous
 62
     7
370
    15
100
AcDbLine
 10
276.2675833943
 20
48.8419067657
 30
0.0
 11
285.3185501935
 21
43.61689485
 31
0.0
  0
LWPOLYLINE
  5
1BD
330
1F
100
AcDbEntity
  8
0
  6
Continuous
 62
     7
370
    15
100
AcDbPolyline
 90
        9
 70
   128
 43
0.0
 10
276.2675833943
 20
48.8419067657
 10
276.8183059295
 20
47.839730409
 10
277.2182725325
 20
46.6800201367
 10
277.4609116904
 20
45.3818301672
 10
277.5422368045
 20
43.9664899619
 10
277.4609116904
 20
42.4572537785
 10
277.2182725325
 20
40.8789186003
 10
276.8183059295
 20
39.2574167176
 10
276.2675833943
 20
37.6193896563
  0
LINE
  5
1BE
330
1F
100
AcDbEntity
  8
0
  6
Continuous
 62
     7
370
    15
100
AcDbLine
 10
276.2675833943
 20
37.6193896563
 30
0.0
 11
285.3185501935
 21
32.3943777407
 31
0.0
  0
LINE
  5
1BF
330
1F
100
AcDbEntity
  8
0
  6
Continuous
 62
     7
370
    15
100
AcDbLine
 10
269.5320141774
 20
21.0000565095
 30
0.0
 11
269.6942775386
 21
20.9019371901
 31
0.0
  0
LINE
  5
1C0
330
1F
100
AcDbEntity
  8
0
  6
Continuous
 62
     7
370
    15
100
AcDbLine
 10
262.9249618274
 20
25.4058610062
 30
0.0
 11
268.0688671406
 21
22.4363476768
 31
0.0
  0
SPLINE
  5
1C1
330
1F
100
AcDbEntity
  8
0
  6
Continuous
 62
     7
370
    15
100
AcDbSpline
210
0.0
220
0.0
230
1.0
 70
     8
 71
     3
 72
    12
 73
     8
 74
     0
 42
0.000000001
 43
0.00000001
 40
0.0
 40
0.0
 40
0.0
 40
0.0
 40
0.2500000000000012
 40
0.2500000000000012
 40
0.5000000000000024
 40
0.5000000000000024
 40
1.0
 40
1.0
 40
1.0
 40
1.0
 10
238.469117632532
 20
43.390739578889
 30
0.0
 10
238.5364441243116
 20
43.35187282248676
 30
0.0
 10
238.6113496798773
 20
43.29681900189496
 30
0.0
 10
238.7546336962289
 20
43.17498063556877
 30
0.0
 10
238.8220880142499
 20
43.10940225241376
 30
0.0
 10
239.0028295172766
 20
42.9154386692835
 30
0.0
 10
239.0922277430217
 20
42.79388844825891
 30
0.0
 10
239.1511747281808
 20
42.68956082122378
 30
0.0
  0
SPLINE
  5
1C2
330
1F
100
AcDbEntity
  8
0
  6
Continuous
 62
     7
370
    15
100
AcDbSpline
210
0.0
220
0.0
230
1.0
 70
     8
 71
     3
 72
    14
 73
    10
 74
     0
 42
0.000000001
 43
0.00000001
 40
0.0
 40
0.0
 40
0.0
 40
0.0
 40
0.25
 40
0.25
 40
0.5
 40
0.5
 40
0.75
 40
0.75
 40
1.0
 40
1.0
 40
1.0
 40
1.0
 10
265.8749749148832
 20
67.17888765868288
 30
0.0
 10
265.8749749148832
 20
67.2514841167422
 30
0.0
 10
265.8662611023677
 20
67.32866682604349
 30
0.0
 10
265.8309452796469
 20
67.48733457874562
 30
0.0
 10
265.8039121971931
 20
67.56994989896091
 30
0.0
 10
265.7311900043256
 20
67.72974190946319
 30
0.0
 10
265.6851605257772
 20
67.80777797687551
 30
0.0
 10
265.5754967442932
 20
67.94477905556148
 30
0.0
 10
265.513420262162
 20
68.00110605128128
 30
0.0
 10
265.4507108461713
 20
68.03730742656475
 30
0.0
  0
LINE
  5
1C3
330
1F
100
AcDbEntity
  8
0
  6
Continuous
 62
     7
370
    15
100
AcDbLine
 10
235.6499290828
 20
45.0182224867
 30
0.0
 11
238.4691176325
 21
43.3907395789
 31
0.0
  0
LWPOLYLINE
  5
1C4
330
1F
100
AcDbEntity
  8
0
  6
Continuous
 62
     7
370
    15
100
AcDbPolyline
 90
       22
 70
   128
 43
0.0
 10
235.6499290828
 20
45.0182224867
 10
236.2683577994
 20
47.0126227628
 10
237.0085004141
 20
49.008509729
 10
237.8646778152
 20
50.9905689512
 10
238.8303205561
 20
52.9435920957
 10
239.8980192633
 20
54.8525936223
 10
241.0595814884
 20
56.7029257686
 10
242.306094568
 20
58.4803909423
 10
243.6279940115
 20
60.1713506589
 10
245.015136889
 20
61.7628301902
 10
246.4568796576
 20
63.242618119
 10
247.9421598298
 20
64.5993600374
 10
249.459580856
 20
65.8226456693
 10
250.9974995695
 20
66.9030887479
 10
252.5441155253
 20
67.8323990373
 10
254.0875615441
 20
68.6034459425
 10
255.6159947698
 20
69.2103132232
 10
257.1176875394
 20
69.6483443889
 10
258.5811173692
 20
69.9141784278
 10
259.995055367
 20
70.0057755963
 10
261.3486523912
 20
69.9224330695
 10
262.6315222964
 20
69.6647903344
  0
LINE
  5
1C5
330
1F
100
AcDbEntity
  8
0
  6
Continuous
 62
     7
370
    15
100
AcDbLine
 10
265.4507108462
 20
68.0373074266
 30
0.0
 11
262.6315222964
 21
69.6647903344
 31
0.0
  0
LINE
  5
1C6
330
1F
100
AcDbEntity
  8
0
  6
Continuous
 62
     7
370
    15
100
AcDbLine
 10
239.214198149
 20
42.5780184935
 30
0.0
 11
239.7627849137
 21
42.8947108918
 31
0.0
  0
LINE
  5
1C7
330
1F
100
AcDbEntity
  8
0
  6
Continuous
 62
     7
370
    15
100
AcDbLine
 10
239.1511747282
 20
42.6895608212
 30
0.0
 11
239.214198149
 21
42.5780184935
 31
0.0
  0
LINE
  5
1C8
330
1F
100
AcDbEntity
  8
0
  6
Continuous
 62
     7
370
    15
100
AcDbLine
 10
265.8749749149
 20
66.2677783495
 30
0.0
 11
265.8749749149
 21
67.1788876587
 31
0.0
  0
SPLINE
  5
1C9
330
1F
100
AcDbEntity
  8
0
  6
Continuous
 62
     7
370
    15
100
AcDbSpline
210
0.0
220
0.0
230
1.0
 70
     8
 71
     3
 72
    14
 73
    10
 74
     0
 42
0.000000001
 43
0.00000001
 40
0.0
 40
0.0
 40
0.0
 40
0.0
 40
0.25
 40
0.25
 40
0.5
 40
0.5
 40
0.75
 40
0.75
 40
1.0
 40
1.0
 40
1.0
 40
1.0
 10
241.2079536250771
 20
42.86166691475215
 30
0.0
 10
241.1170697684506
 20
42.93316541623621
 30
0.0
 10
241.0043279000287
 20
42.98889926109662
 30
0.0
 10
240.7552387472285
 20
43.06165254672569
 30
0.0
 10
240.6186859189059
 20
43.07867741696906
 30
0.0
 10
240.3498282949811
 20
43.076990841937
 30
0.0
 10
240.2166909803229
 20
43.05877034846633
 30
0.0
 10
239.9700933421072
 20
42.99487304024608
 30
0.0
 10
239.8587208187997
 20
42.95009351095694
 30
0.0
 10
239.7627849137092
 20
42.89471089180037
 30
0.0
  0
SPLINE
  5
1CA
330
1F
100
AcDbEntity
  8
0
  6
Continuous
 62
     7
370
    15
100
AcDbSpline
210
0.0
220
0.0
230
1.0
 70
     8
 71
     3
 72
    12
 73
     8
 74
     0
 42
0.000000001
 43
0.00000001
 40
0.0
 40
0.0
 40
0.0
 40
0.0
 40
0.2499999999999996
 40
0.2499999999999996
 40
0.4999999999999992
 40
0.4999999999999992
 40
1.0
 40
1.0
 40
1.0
 40
1.0
 10
266.5820816960698
 20
64.78997771894383
 30
0.0
 10
266.4736723368691
 20
64.85256110988544
 30
0.0
 10
266.3671843115051
 20
64.95417453735902
 30
0.0
 10
266.1870132438445
 20
65.19014070060092
 30
0.0
 10
266.1108558030146
 20
65.32568683217697
 30
0.0
 10
265.9310846671035
 20
65.74037476718988
 30
0.0
 10
265.8749749148832
 20
66.02028684333068
 30
0.0
 10
265.8749749148832
 20
66.2677783494887
 30
0.0
  0
LINE
  5
1CB
330
1F
100
AcDbEntity
  8
0
  6
Continuous
 62
     7
370
    15
100
AcDbLine
 10
268.2111867486
 20
22.320128743
 30
0.0
 11
264.3193399963
 21
22.6681184889
 31
0.0
  0
SPLINE
  5
1CC
330
1F
100
AcDbEntity
  8
0
  6
Continuous
 62
     7
370
    15
100
AcDbSpline
210
0.0
220
0.0
230
1.0
 70
     8
 71
     3
 72
    16
 73
    12
 74
     0
 42
0.000000001
 43
0.00000001
 40
0.0
 40
0.0
 40
0.0
 40
0.0
 40
0.2500000000000016
 40
0.2500000000000016
 40
0.5000000000000031
 40
0.5000000000000031
 40
0.625000000000002
 40
0.625000000000002
 40
0.7500000000000009
 40
0.7500000000000009
 40
1.0
 40
1.0
 40
1.0
 40
1.0
 10
268.0184919560716
 20
21.69343947645226
 30
0.0
 10
268.0810140733627
 20
21.68784905702021
 30
0.0
 10
268.142874358623
 20
21.6890560984578
 30
0.0
 10
268.2561861823804
 20
21.71686458925816
 30
0.0
 10
268.3098685535491
 20
21.74268243452454
 30
0.0
 10
268.3605727346236
 20
21.82650259364176
 30
0.0
 10
268.3714419761379
 20
21.86277649147956
 30
0.0
 10
268.3736851788219
 20
21.94803500025433
 30
0.0
 10
268.3649594837968
 20
21.99712102333221
 30
0.0
 10
268.3184723591608
 20
22.14368095824038
 30
0.0
 10
268.2662160243871
 20
22.23572905742382
 30
0.0
 10
268.2111867485897
 20
22.32012874296752
 30
0.0
  0
SPLINE
  5
1CD
330
1F
100
AcDbEntity
  8
0
  6
Continuous
 62
     7
370
    15
100
AcDbSpline
210
0.0
220
0.0
230
1.0
 70
     8
 71
     3
 72
     8
 73
     4
 74
     0
 42
0.000000001
 43
0.00000001
 40
0.0
 40
0.0
 40
0.0
 40
0.0
 40
1.0
 40
1.0
 40
1.0
 40
1.0
 10
268.0688671405564
 20
22.4363476768237
 30
0.0
 10
268.1468421219536
 20
22.39133367821301
 30
0.0
 10
268.1916774562006
 20
22.35162930357933
 30
0.0
 10
268.2111867485897
 20
22.32012874296755
 30
0.0
  0
SPLINE
  5
1CE
330
1F
100
AcDbEntity
  8
0
  6
Continuous
 62
     7
370
    15
100
AcDbSpline
210
0.0
220
0.0
230
1.0
 70
     8
 71
     3
 72
    12
 73
     8
 74
     0
 42
0.000000001
 43
0.00000001
 40
0.0
 40
0.0
 40
0.0
 40
0.0
 40
0.4999999999999998
 40
0.4999999999999998
 40
0.7499999999999999
 40
0.7499999999999999
 40
1.0
 40
1.0
 40
1.0
 40
1.0
 10
239.7627849137092
 20
29.74840382043979
 30
0.0
 10
239.9528036711906
 20
29.8580993141996
 30
0.0
 10
240.2144554594364
 20
29.92731637286153
 30
0.0
 10
240.6177515815486
 20
29.94558232510181
 30
0.0
 10
240.7532084214802
 20
29.93781530774238
 30
0.0
 10
241.0045121054793
 20
29.89528574133458
 30
0.0
 10
241.1168883307803
 20
29.86118446657958
 30
0.0
 10
241.2079536250772
 20
29.81718785176904
 30
0.0
  0
SPLINE
  5
1CF
330
1F
100
AcDbEntity
  8
0
  6
Continuous
 62
     7
370
    15
100
AcDbSpline
210
0.0
220
0.0
230
1.0
 70
     8
 71
     3
 72
     8
 73
     4
 74
     0
 42
0.000000001
 43
0.00000001
 40
0.0
 40
0.0
 40
0.0
 40
0.0
 40
1.0
 40
1.0
 40
1.0
 40
1.0
 10
233.5772354463367
 20
47.3736531743609
 30
0.0
 10
232.8915022283243
 20
47.25506900347083
 30
0.0
 10
232.2052643141647
 20
47.13743539450806
 30
0.0
 10
231.5186599099119
 20
47.02055815678086
 30
0.0
  0
SPLINE
  5
1D0
330
1F
100
AcDbEntity
  8
0
  6
Continuous
 62
     7
370
    15
100
AcDbSpline
210
0.0
220
0.0
230
1.0
 70
     8
 71
     3
 72
     8
 73
     4
 74
     0
 42
0.000000001
 43
0.00000001
 40
0.0
 40
0.0
 40
0.0
 40
0.0
 40
0.0011140524372172
 40
0.0011140524372172
 40
0.0011140524372172
 40
0.0011140524372172
 10
230.8938364988588
 20
47.76385629295196
 30
0.0
 10
231.1030552016334
 20
47.51580231289346
 30
0.0
 10
231.3113677068363
 20
47.26802021210403
 30
0.0
 10
231.5186599099119
 20
47.02055815678086
 30
0.0
  0
LWPOLYLINE
  5
1D1
330
1F
100
AcDbEntity
  8
0
  6
Continuous
 62
     7
370
    15
100
AcDbPolyline
 90
       22
 70
   128
 43
0.0
 10
230.8938364989
 20
47.763856293
 10
231.5122652155
 20
49.758256569
 10
232.2524078302
 20
51.7541435352
 10
233.1085852312
 20
53.7362027574
 10
234.0742279722
 20
55.6892259019
 10
235.1419266794
 20
57.5982274285
 10
236.3034889044
 20
59.4485595748
 10
237.5500019841
 20
61.2260247485
 10
238.8719014276
 20
62.9169844651
 10
240.2590443051
 20
64.5084639964
 10
241.7007870737
 20
65.9882519252
 10
243.1860672459
 20
67.3449938437
 10
244.7034882721
 20
68.5682794755
 10
246.2414069856
 20
69.6487225542
 10
247.7880229414
 20
70.5780328435
 10
249.3314689602
 20
71.3490797487
 10
250.8599021859
 20
71.9559470294
 10
252.3615949555
 20
72.3939781951
 10
253.8250247853
 20
72.659812234
 10
255.2389627831
 20
72.7514094025
 10
256.5925598073
 20
72.6680668757
 10
257.8754297125
 20
72.4104241406
  0
SPLINE
  5
1D2
330
1F
100
AcDbEntity
  8
0
  6
Continuous
 62
     7
370
    15
100
AcDbSpline
210
0.0
220
0.0
230
1.0
 70
     8
 71
     3
 72
     9
 73
     5
 74
     0
 42
0.000000001
 43
0.00000001
 40
0.0
 40
0.0
 40
0.0
 40
0.0
 40
0.4087217575871529
 40
1.0
 40
1.0
 40
1.0
 40
1.0
 10
258.6854883303997
 20
69.87307555215008
 30
0.0
 10
258.5774215988615
 20
70.21863480583843
 30
0.0
 10
258.3130198890624
 20
71.06409812476802
 30
0.0
 10
258.0380270154712
 20
71.91016387240128
 30
0.0
 10
257.8754297124982
 20
72.41042414062761
 30
0.0
  0
LWPOLYLINE
  5
1D3
330
1F
100
AcDbEntity
  8
0
  6
Continuous
 62
     7
370
    15
100
AcDbPolyline
 90
       21
 70
   128
 43
0.0
 10
233.5772354463
 20
47.3736531744
 10
234.1610857157
 20
49.2514904327
 10
234.8647235662
 20
51.1302308546
 10
235.6822304937
 20
52.9940718041
 10
236.6067302083
 20
54.8273359694
 10
237.6304464721
 20
56.6146032289
 10
238.7447685078
 20
58.3408403542
 10
239.9403234266
 20
59.9915274596
 10
241.2070550661
 20
61.5527801326
 10
242.5343085754
 20
63.0114662196
 10
243.9109200368
 20
64.3553162851
 10
245.3253103682
 20
65.5730268125
 10
246.7655827184
 20
66.6543552823
 10
248.2196225349
 20
67.5902063239
 10
249.6751994632
 20
68.3727082203
 10
251.1200702196
 20
68.9952791189
 10
252.542081573
 20
69.4526823937
 10
253.9292725696
 20
69.7410706917
 10
255.2699751398
 20
69.8580182945
 10
256.5529122417
 20
69.8025415217
 10
257.2866477036
 20
69.6873920276
  0
SPLINE
  5
1D4
330
1F
100
AcDbEntity
  8
0
  6
Continuous
 62
     7
370
    15
100
AcDbSpline
210
0.0
220
0.0
230
1.0
 70
     8
 71
     3
 72
     8
 73
     4
 74
     0
 42
0.000000001
 43
0.00000001
 40
0.0
 40
0.0
 40
0.0
 40
0.0
 40
1.0
 40
1.0
 40
1.0
 40
1.0
 10
285.3185501935183
 20
32.39437774066877
 30
0.0
 10
285.3965251749156
 20
32.34936374205806
 30
0.0
 10
285.4980207351529
 20
32.3423686196526
 30
0.0
 10
285.6004946541968
 20
32.35876251854642
 30
0.0
  0
SPLINE
  5
1D5
330
1F
100
AcDbEntity
  8
0
  6
Continuous
 62
     7
370
    15
100
AcDbSpline
210
0.0
220
0.0
230
1.0
 70
     8
 71
     3
 72
    16
 73
    12
 74
     0
 42
0.000000001
 43
0.00000001
 40
0.0
 40
0.0
 40
0.0
 40
0.0
 40
0.249999999999999
 40
0.249999999999999
 40
0.3749999999999992
 40
0.3749999999999992
 40
0.4999999999999993
 40
0.4999999999999993
 40
0.7499999999999997
 40
0.7499999999999997
 40
1.0
 40
1.0
 40
1.0
 40
1.0
 10
285.6004946541969
 20
32.35876251854636
 30
0.0
 10
285.632753099444
 20
32.26118439198252
 30
0.0
 10
285.6775657168874
 20
32.16293230978741
 30
0.0
 10
285.7862173613509
 20
32.05445312897952
 30
0.0
 10
285.8303503526764
 20
32.02581236135724
 30
0.0
 10
285.9270427311336
 20
31.99714217190792
 30
0.0
 10
285.9792126619218
 20
31.99718083438605
 30
0.0
 10
286.1266880084108
 20
32.02811793930128
 30
0.0
 10
286.2136403244893
 20
32.08351920734934
 30
0.0
 10
286.368255653919
 20
32.21026956688698
 30
0.0
 10
286.4375624587756
 20
32.28471776735572
 30
0.0
 10
286.5002962279016
 20
32.36275797974969
 30
0.0
  0
LINE
  5
1D6
330
1F
100
AcDbEntity
  8
0
  6
Continuous
 62
     7
370
    15
100
AcDbLine
 10
228.1100032881
 20
49.370928998
 30
0.0
 11
230.8938364989
 21
47.763856293
 31
0.0
  0
LINE
  5
1D7
330
1F
100
AcDbEntity
  8
0
  6
Continuous
 62
     7
370
    15
100
AcDbLine
 10
257.8754297125
 20
72.4104241406
 30
0.0
 11
255.0915965018
 21
74.0174968457
 31
0.0
  0
LINE
  5
1D8
330
1F
100
AcDbEntity
  8
0
  6
Continuous
 62
     7
370
    15
100
AcDbLine
 10
236.042918406
 20
46.3296519545
 30
0.0
 11
234.3133908953
 21
47.3280869342
 31
0.0
  0
SPLINE
  5
1D9
330
1F
100
AcDbEntity
  8
0
  6
Continuous
 62
     7
370
    15
100
AcDbSpline
210
0.0
220
0.0
230
1.0
 70
     8
 71
     3
 72
    12
 73
     8
 74
     0
 42
0.000000001
 43
0.00000001
 40
0.0
 40
0.0
 40
0.0
 40
0.0
 40
0.25
 40
0.25
 40
0.5
 40
0.5
 40
1.0
 40
1.0
 40
1.0
 40
1.0
 10
234.3133908953176
 20
47.32808693416023
 30
0.0
 10
234.2667241388451
 20
47.35502707923468
 30
0.0
 10
234.2111618581247
 20
47.37737408493788
 30
0.0
 10
234.0894754006871
 20
47.40967126514216
 30
0.0
 10
234.0257047345646
 20
47.41933204119389
 30
0.0
 10
233.8262365900306
 20
47.43013081685763
 30
0.0
 10
233.6925741827081
 20
47.41191348158713
 30
0.0
 10
233.5772354463367
 20
47.3736531743609
 30
0.0
  0
SPLINE
  5
1DA
330
1F
100
AcDbEntity
  8
0
  6
Continuous
 62
     7
370
    15
100
AcDbSpline
210
0.0
220
0.0
230
1.0
 70
     8
 71
     3
 72
    10
 73
     6
 74
     0
 42
0.000000001
 43
0.00000001
 40
0.0
 40
0.0
 40
0.0
 40
0.0
 40
0.5
 40
0.5
 40
1.0
 40
1.0
 40
1.0
 40
1.0
 10
227.9035567385685
 20
49.42608880149863
 30
0.0
 10
227.9216197048511
 20
49.43465846839716
 30
0.0
 10
227.9475681077612
 20
49.43569529479874
 30
0.0
 10
228.0171448384719
 20
49.41819690449967
 30
0.0
 10
228.0602285506512
 20
49.39966334232015
 30
0.0
 10
228.1100032881491
 20
49.37092899799036
 30
0.0
  0
LINE
  5
1DB
330
1F
100
AcDbEntity
  8
0
  6
Continuous
 62
     7
370
    15
100
AcDbLine
 10
227.9035567386
 20
49.4260888015
 30
0.0
 11
227.9434894307
 21
49.6195437871
 31
0.0
  0
LINE
  5
1DC
330
1F
100
AcDbEntity
  8
0
  6
Continuous
 62
     7
370
    15
100
AcDbLine
 10
239.214198149
 20
42.5780184935
 30
0.0
 11
235.6667385671
 21
44.6259233192
 31
0.0
  0
SPLINE
  5
1DD
330
1F
100
AcDbEntity
  8
0
  6
Continuous
 62
     7
370
    15
100
AcDbSpline
210
0.0
220
0.0
230
1.0
 70
     8
 71
     3
 72
     8
 73
     4
 74
     0
 42
0.000000001
 43
0.00000001
 40
0.0
 40
0.0
 40
0.0
 40
0.0
 40
0.0011140524372172
 40
0.0011140524372172
 40
0.0011140524372172
 40
0.0011140524372172
 10
235.6667385671351
 20
44.62592331920159
 30
0.0
 10
235.6597119713104
 20
44.75777450030545
 30
0.0
 10
235.6541567420962
 20
44.8885073171307
 30
0.0
 10
235.6499290827628
 20
45.01822248672298
 30
0.0
  0
SPLINE
  5
1DE
330
1F
100
AcDbEntity
  8
0
  6
Continuous
 62
     7
370
    15
100
AcDbSpline
210
0.0
220
0.0
230
1.0
 70
     8
 71
     3
 72
    11
 73
     7
 74
     0
 42
0.000000001
 43
0.00000001
 40
0.0
 40
0.0
 40
0.0
 40
0.0
 40
0.1784157389504764
 40
0.5470763410789858
 40
0.7660595473102813
 40
1.0
 40
1.0
 40
1.0
 40
1.0
 10
232.7116668772342
 20
42.74343677141034
 30
0.0
 10
232.7079232477874
 20
43.01170410327521
 30
0.0
 10
232.696444153442
 20
43.83429246465513
 30
0.0
 10
232.6519325438764
 20
45.00227347758375
 30
0.0
 10
232.6796631231304
 20
46.21179117015403
 30
0.0
 10
232.6945993570557
 20
46.87854877719792
 30
0.0
 10
232.7023140993907
 20
47.22293700544316
 30
0.0
  0
LINE
  5
1DF
330
1F
100
AcDbEntity
  8
0
  6
Continuous
 62
     7
370
    15
100
AcDbLine
 10
232.7116668772
 20
39.6490287267
 30
0.0
 11
232.7116668772
 21
42.7434367714
 31
0.0
  0
SPLINE
  5
1E0
330
1F
100
AcDbEntity
  8
0
  6
Continuous
 62
     7
370
    15
100
AcDbSpline
210
0.0
220
0.0
230
1.0
 70
     8
 71
     3
 72
    30
 73
    26
 74
     0
 42
0.000000001
 43
0.00000001
 40
0.0
 40
0.0
 40
0.0
 40
0.0
 40
0.1249999999999999
 40
0.1249999999999999
 40
0.1874999999999999
 40
0.1874999999999999
 40
0.2499999999999998
 40
0.2499999999999998
 40
0.3124999999999998
 40
0.3124999999999998
 40
0.3749999999999998
 40
0.3749999999999998
 40
0.4374999999999998
 40
0.4374999999999998
 40
0.4999999999999998
 40
0.4999999999999998
 40
0.6249999999999998
 40
0.6249999999999998
 40
0.6874999999999999
 40
0.6874999999999999
 40
0.7499999999999999
 40
0.7499999999999999
 40
0.875
 40
0.875
 40
1.0
 40
1.0
 40
1.0
 40
1.0
 10
289.4923414065139
 20
37.20018287933524
 30
0.0
 10
289.7189215873112
 20
37.48204647018962
 30
0.0
 10
289.9235179215647
 20
37.78162731356129
 30
0.0
 10
290.1952673013842
 20
38.25856036107277
 30
0.0
 10
290.2805699018101
 20
38.42340939724563
 30
0.0
 10
290.4354597493747
 20
38.75460602249348
 30
0.0
 10
290.5052168558649
 20
38.92115596315461
 30
0.0
 10
290.6297402599118
 20
39.25609048018168
 30
0.0
 10
290.6845483274627
 20
39.42445224097106
 30
0.0
 10
290.7788717485088
 20
39.76298588399364
 30
0.0
 10
290.8179786237153
 20
39.93207421656192
 30
0.0
 10
290.8793325214502
 20
40.2621288902668
 30
0.0
 10
290.9018260883882
 20
40.42424949181382
 30
0.0
 10
290.930764920462
 20
40.74250170645598
 30
0.0
 10
290.9372666869938
 20
40.89956619586571
 30
0.0
 10
290.9322312728195
 20
41.35374346044898
 30
0.0
 10
290.8972504627842
 20
41.63037369330579
 30
0.0
 10
290.7988377359046
 20
42.00576433185768
 30
0.0
 10
290.7581085472277
 20
42.12422498155114
 30
0.0
 10
290.6631676138971
 20
42.34085959190942
 30
0.0
 10
290.6087255717284
 20
42.44003578554543
 30
0.0
 10
290.4246757847909
 20
42.710360932123
 30
0.0
 10
290.2721984570342
 20
42.85493816191242
 30
0.0
 10
289.9208281102108
 20
43.05819089022056
 30
0.0
 10
289.7189420336676
 20
43.11994008755038
 30
0.0
 10
289.4923414075074
 20
43.1402016038483
 30
0.0
  0
LINE
  5
1E1
330
1F
100
AcDbEntity
  8
0
  6
Continuous
 62
     7
370
    15
100
AcDbLine
 10
289.4923414075
 20
43.1402016038
 30
0.0
 11
285.6004946542
 21
43.4881913504
 31
0.0
  0
LINE
  5
1E2
330
1F
100
AcDbEntity
  8
0
  6
Continuous
 62
     7
370
    15
100
AcDbLine
 10
228.7136624483
 20
48.6398487238
 30
0.0
 11
227.9035567386
 21
49.4260888015
 31
0.0
  0
LINE
  5
1E3
330
1F
100
AcDbEntity
  8
0
  6
Continuous
 62
     7
370
    15
100
AcDbLine
 10
231.5186599099
 20
47.0205581568
 30
0.0
 11
228.7136624483
 21
48.6398487238
 31
0.0
  0
ARC
  5
1E4
330
1F
100
AcDbEntity
  8
0
  6
Continuous
 62
     7
370
    15
100
AcDbCircle
 10
274.9734875252
 20
46.8355954021
 30
0.0
 40
6.783021844094604
100
AcDbArc
 50
320.7905073233
 51
350.5847266219
  0
LINE
  5
1E5
330
1F
100
AcDbEntity
  8
0
  6
Continuous
 62
     7
370
    15
100
AcDbLine
 10
235.6667385671
 20
31.4796162478
 30
0.0
 11
239.214198149
 21
29.4317114221
 31
0.0
  0
LINE
  5
1E6
330
1F
100
AcDbEntity
  8
0
  6
Continuous
 62
     7
370
    15
100
AcDbLine
 10
239.214198149
 20
29.4317114221
 30
0.0
 11
239.1511747282
 21
29.2474038016
 31
0.0
  0
SPLINE
  5
1E7
330
1F
100
AcDbEntity
  8
0
  6
Continuous
 62
     7
370
    15
100
AcDbSpline
210
0.0
220
0.0
230
1.0
 70
     8
 71
     3
 72
    14
 73
    10
 74
     0
 42
0.000000001
 43
0.00000001
 40
0.0
 40
0.0
 40
0.0
 40
0.0
 40
0.25
 40
0.25
 40
0.5
 40
0.5
 40
0.75
 40
0.75
 40
1.0
 40
1.0
 40
1.0
 40
1.0
 10
239.1511747281808
 20
29.24740380163255
 30
0.0
 10
239.1216954024383
 20
29.16119355923799
 30
0.0
 10
239.0848996932978
 20
29.08126817951861
 30
0.0
 10
238.9955847005594
 20
28.93492416253068
 30
0.0
 10
238.9427123125098
 20
28.8685734012201
 30
0.0
 10
238.823242377346
 20
28.76330949726342
 30
0.0
 10
238.7559451108751
 20
28.72361078796179
 30
0.0
 10
238.6113949474368
 20
28.6908578111932
 30
0.0
 10
238.5364709292581
 20
28.6995461870685
 30
0.0
 10
238.469117632532
 20
28.73842841763698
 30
0.0
  0
LINE
  5
1E8
330
1F
100
AcDbEntity
  8
0
  6
Continuous
 62
     7
370
    15
100
AcDbLine
 10
238.4691176325
 20
28.7384284176
 30
0.0
 11
235.6499290828
 21
30.3659113255
 31
0.0
  0
SPLINE
  5
1E9
330
1F
100
AcDbEntity
  8
0
  6
Continuous
 62
     7
370
    15
100
AcDbSpline
210
0.0
220
0.0
230
1.0
 70
     8
 71
     3
 72
     8
 73
     4
 74
     0
 42
0.000000001
 43
0.00000001
 40
0.0
 40
0.0
 40
0.0
 40
0.0
 40
0.0011140524372172
 40
0.0011140524372172
 40
0.0011140524372172
 40
0.0011140524372172
 10
235.6499290827628
 20
30.36591132547097
 30
0.0
 10
235.6541567420962
 20
30.73718526756377
 30
0.0
 10
235.6597119713104
 20
31.10843058344372
 30
0.0
 10
235.6667385671351
 20
31.47961624784101
 30
0.0
  0
LINE
  5
1EA
330
1F
100
AcDbEntity
  8
0
  6
Continuous
 62
     7
370
    15
100
AcDbLine
 10
230.6787348813
 20
46.6300214267
 30
0.0
 11
230.7027623409
 21
47.4915657977
 31
0.0
  0
ARC
  5
1EB
330
1F
100
AcDbEntity
  8
0
  6
Continuous
 62
     7
370
    15
100
AcDbCircle
 10
239.6718910081
 20
46.084826338
 30
0.0
 40
9.009666742227413
100
AcDbArc
 50
176.5307847916
 51
219.4185099443
  0
ARC
  5
1EC
330
1F
100
AcDbEntity
  8
0
  6
Continuous
 62
     7
370
    15
100
AcDbCircle
 10
246.774078051
 20
31.4171391687
 30
0.0
 40
8.61635306904244
100
AcDbArc
 50
217.6047845585
 51
261.8785310474
  0
LINE
  5
1ED
330
1F
100
AcDbEntity
  8
0
  6
Continuous
 62
     7
370
    15
100
AcDbLine
 10
285.6004946542
 20
32.3587625185
 30
0.0
 11
289.4923414065
 21
37.2001828793
 31
0.0
  0
LINE
  5
1EE
330
1F
100
AcDbEntity
  8
0
  6
Continuous
 62
     7
370
    15
100
AcDbLine
 10
239.214198149
 20
29.4317114221
 30
0.0
 11
239.7627849137
 21
29.7484038204
 31
0.0
  0
SPLINE
  5
1EF
330
1F
100
AcDbEntity
  8
0
  6
Continuous
 62
     7
370
    15
100
AcDbSpline
210
0.0
220
0.0
230
1.0
 70
     8
 71
     3
 72
     8
 73
     4
 74
     0
 42
0.000000001
 43
0.00000001
 40
0.0
 40
0.0
 40
0.0
 40
0.0
 40
1.0
 40
1.0
 40
1.0
 40
1.0
 10
236.2783833504693
 20
32.66800660941893
 30
0.0
 10
236.0729672842557
 20
32.27214124889152
 30
0.0
 10
235.8691978180084
 20
31.87598453347998
 30
0.0
 10
235.6667385671351
 20
31.479616247841
 30
0.0
  0
SPLINE
  5
1F0
330
1F
100
AcDbEntity
  8
0
  6
Continuous
 62
     7
370
    15
100
AcDbSpline
210
0.0
220
0.0
230
1.0
 70
     8
 71
     3
 72
    12
 73
     8
 74
     0
 42
0.000000001
 43
0.00000001
 40
0.0
 40
0.0
 40
0.0
 40
0.0
 40
0.2500000000000033
 40
0.2500000000000033
 40
0.5000000000000067
 40
0.5000000000000067
 40
1.0
 40
1.0
 40
1.0
 40
1.0
 10
236.1994517549291
 20
33.09298010430041
 30
0.0
 10
236.2461185114016
 20
33.06603995922595
 30
0.0
 10
236.2848288550229
 20
33.03396453731064
 30
0.0
 10
236.340775273989
 20
32.96371644070466
 30
0.0
 10
236.3575100421981
 20
32.92690241876063
 30
0.0
 10
236.3762160971472
 20
32.81175190996869
 30
0.0
 10
236.3446593276385
 20
32.73459024465364
 30
0.0
 10
236.2783833504693
 20
32.66800660941893
 30
0.0
  0
LINE
  5
1F1
330
1F
100
AcDbEntity
  8
0
  6
Continuous
 62
     7
370
    15
100
AcDbLine
 10
234.3133908953
 20
34.1817798628
 30
0.0
 11
236.1994517549
 21
33.0929801043
 31
0.0
  0
SPLINE
  5
1F2
330
1F
100
AcDbEntity
  8
0
  6
Continuous
 62
     7
370
    15
100
AcDbSpline
210
0.0
220
0.0
230
1.0
 70
     8
 71
     3
 72
    10
 73
     6
 74
     0
 42
0.000000001
 43
0.00000001
 40
0.0
 40
0.0
 40
0.0
 40
0.0
 40
0.5
 40
0.5
 40
1.0
 40
1.0
 40
1.0
 40
1.0
 10
233.5772354463367
 20
34.22734610300032
 30
0.0
 10
233.6932019941514
 20
34.26581466860925
 30
0.0
 10
233.8270236282018
 20
34.28371160649772
 30
0.0
 10
234.0903110515198
 20
34.26959656458738
 30
0.0
 10
234.2190047138197
 20
34.23626784556907
 30
0.0
 10
234.3133908953176
 20
34.18177986279964
 30
0.0
  0
SPLINE
  5
1F3
330
1F
100
AcDbEntity
  8
0
  6
Continuous
 62
     7
370
    15
100
AcDbSpline
210
0.0
220
0.0
230
1.0
 70
     8
 71
     3
 72
     8
 73
     4
 74
     0
 42
0.000000001
 43
0.00000001
 40
0.0
 40
0.0
 40
0.0
 40
0.0
 40
1.0
 40
1.0
 40
1.0
 40
1.0
 10
231.5186599099119
 20
33.87425108542028
 30
0.0
 10
232.205275146537
 20
33.9911301670881
 30
0.0
 10
232.8915398133185
 20
34.10876843170113
 30
0.0
 10
233.5772354463367
 20
34.22734610300032
 30
0.0
  0
LINE
  5
1F4
330
1F
100
AcDbEntity
  8
0
  6
Continuous
 62
     7
370
    15
100
AcDbLine
 10
228.7136624483
 20
35.4935416524
 30
0.0
 11
231.5186599099
 21
33.8742510854
 31
0.0
  0
LINE
  5
1F5
330
1F
100
AcDbEntity
  8
0
  6
Continuous
 62
     7
370
    15
100
AcDbLine
 10
228.7136624483
 20
35.4935416524
 30
0.0
 11
232.2874028085
 21
37.5566180485
 31
0.0
  0
LINE
  5
1F6
330
1F
100
AcDbEntity
  8
0
  6
Continuous
 62
     7
370
    15
100
AcDbLine
 10
276.2675833943
 20
37.6193896563
 30
0.0
 11
280.229242573
 21
42.5476560118
 31
0.0
  0
ARC
  5
1F7
330
1F
100
AcDbEntity
  8
0
  6
Continuous
 62
     7
370
    15
100
AcDbCircle
 10
244.6506502906
 20
33.8128983669
 30
0.0
 40
9.638189763874603
100
AcDbArc
 50
200.9552344837
 51
238.707478147
  0
LINE
  5
1F8
330
1F
100
AcDbEntity
  8
0
  6
Continuous
 62
     7
370
    15
100
AcDbLine
 10
203.847827669
 20
64.684660138
 30
0.0
 11
203.7964983151
 21
64.7289658591
 31
0.0
  0
ELLIPSE
  5
1F9
330
1F
100
AcDbEntity
  8
0
  6
Continuous
 62
     7
370
    15
100
AcDbEllipse
 10
231.8187736584
 20
39.1336171974
 30
0.0
 11
-0.0001201194077111722
 21
1.706897922965439
 31
0.0
210
0.0
220
0.0
230
1.0
 40
0.7174342186
 41
3.534193645557435
 42
5.10498997235235
  0
SPLINE
  5
1FA
330
1F
100
AcDbEntity
  8
0
  6
Continuous
 62
     7
370
    15
100
AcDbSpline
210
0.0
220
0.0
230
1.0
 70
     8
 71
     3
 72
    14
 73
    10
 74
     0
 42
0.000000001
 43
0.00000001
 40
0.0
 40
0.0
 40
0.0
 40
0.0
 40
0.25
 40
0.25
 40
0.5
 40
0.5
 40
0.75
 40
0.75
 40
1.0
 40
1.0
 40
1.0
 40
1.0
 10
268.2532493301083
 20
64.89438343182103
 30
0.0
 10
268.1444548613022
 20
64.83157772183634
 30
0.0
 10
268.0513397068504
 20
64.76066443309121
 30
0.0
 10
267.9015797681672
 20
64.60527185279514
 30
0.0
 10
267.8473288007188
 20
64.52365582105593
 30
0.0
 10
267.7866020337389
 20
64.35385106329834
 30
0.0
 10
267.7814515977272
 20
64.26771433622993
 30
0.0
 10
267.8375567415993
 20
64.10638471130828
 30
0.0
 10
267.8983907847261
 20
64.03405938577164
 30
0.0
 10
267.9949838860609
 20
63.98011657702608
 30
0.0
  0
LWPOLYLINE
  5
1FB
330
1F
100
AcDbEntity
  8
0
  6
Continuous
 62
     7
370
    15
100
AcDbPolyline
 90
        3
 70
   128
 43
0.0
 10
235.7937370922
 20
31.7344675454
 10
235.6003665124
 20
31.9713886887
 10
235.5986961647
 20
31.9735136101
  0
ARC
  5
1FC
330
1F
100
AcDbEntity
  8
0
  6
Continuous
 62
     7
370
    15
100
AcDbCircle
 10
242.2718843409
 20
37.672349388
 30
0.0
 40
9.352270688638647
100
AcDbArc
 50
201.6145153673
 51
224.7259495174
  0
ARC
  5
1FD
330
1F
100
AcDbEntity
  8
0
  6
Continuous
 62
     7
370
    15
100
AcDbCircle
 10
239.3797593263
 20
36.1646703564
 30
0.0
 40
9.018451079358057
100
AcDbArc
 50
199.7880748351
 51
257.9363582213
  0
SPLINE
  5
1FE
330
1F
100
AcDbEntity
  8
0
  6
Continuous
 62
     7
370
    15
100
AcDbSpline
210
0.0
220
0.0
230
1.0
 70
     8
 71
     3
 72
     8
 73
     4
 74
     0
 42
0.000000001
 43
0.00000001
 40
0.0
 40
0.0
 40
0.0
 40
0.0
 40
0.0011140524372172
 40
0.0011140524372172
 40
0.0011140524372172
 40
0.0011140524372172
 10
231.5186599099119
 20
33.87425108542028
 30
0.0
 10
231.3113677068363
 20
33.6186762952423
 30
0.0
 10
231.1030552016334
 20
33.36448026332653
 30
0.0
 10
230.8938364988588
 20
33.11154513169995
 30
0.0
  0
LINE
  5
1FF
330
1F
100
AcDbEntity
  8
0
  6
Continuous
 62
     7
370
    15
100
AcDbLine
 10
227.9035567386
 20
35.0257756833
 30
0.0
 11
228.7136624483
 21
35.4935416524
 31
0.0
  0
LINE
  5
200
330
1F
100
AcDbEntity
  8
0
  6
Continuous
 62
     7
370
    15
100
AcDbLine
 10
230.8938364989
 20
33.1115451317
 30
0.0
 11
228.1100032881
 21
34.7186178367
 31
0.0
  0
SPLINE
  5
201
330
1F
100
AcDbEntity
  8
0
  6
Continuous
 62
     7
370
    15
100
AcDbSpline
210
0.0
220
0.0
230
1.0
 70
     8
 71
     3
 72
     8
 73
     4
 74
     0
 42
0.000000001
 43
0.00000001
 40
0.0
 40
0.0
 40
0.0
 40
0.0
 40
1.0
 40
1.0
 40
1.0
 40
1.0
 10
228.1100032881491
 20
34.71861783673834
 30
0.0
 10
228.0106208057249
 20
34.77599012263839
 30
0.0
 10
227.9396661231093
 20
34.89341891139901
 30
0.0
 10
227.9035567385672
 20
35.02577568333912
 30
0.0
  0
ARC
  5
202
330
1F
100
AcDbEntity
  8
0
  6
Continuous
 62
     7
370
    15
100
AcDbCircle
 10
236.4939806268
 20
37.4635511305
 30
0.0
 40
8.719436661967071
100
AcDbArc
 50
217.5483984231
 51
239.7744930799
  0
SPLINE
  5
203
330
1F
100
AcDbEntity
  8
0
  6
Continuous
 62
     7
370
    15
100
AcDbSpline
210
0.0
220
0.0
230
1.0
 70
     8
 71
     3
 72
    14
 73
    10
 74
     0
 42
0.000000001
 43
0.00000001
 40
0.0
 40
0.0
 40
0.0
 40
0.0
 40
0.1729999330479732
 40
0.3728926148166307
 40
0.436722657295237
 40
0.5545256299438458
 40
0.6752737581606278
 40
0.9143320037011635
 40
0.9999999999999999
 40
0.9999999999999999
 40
0.9999999999999999
 40
0.9999999999999999
 10
258.037516466955
 20
71.90799073425019
 30
0.0
 10
258.0790385139289
 20
71.92035822971272
 30
0.0
 10
258.1685371882688
 20
71.94701574131115
 30
0.0
 10
258.284540005668
 20
71.96278712777081
 30
0.0
 10
258.3868536636789
 20
71.96843592667302
 30
0.0
 10
258.468740303149
 20
71.96765891426556
 30
0.0
 10
258.5956496302394
 20
71.95464876224591
 30
0.0
 10
258.7085217390569
 20
71.92484519549703
 30
0.0
 10
258.7731084644107
 20
71.89068636776977
 30
0.0
 10
258.790147479543
 20
71.88167472057201
 30
0.0
  0
LINE
  5
204
330
1F
100
AcDbEntity
  8
0
  6
Continuous
 62
     7
370
    15
100
AcDbLine
 10
258.7901474795
 20
71.8816747206
 30
0.0
 11
261.5739806903
 21
70.2746020155
 31
0.0
  0
SPLINE
  5
205
330
1F
100
AcDbEntity
  8
0
  6
Continuous
 62
     7
370
    15
100
AcDbSpline
210
0.0
220
0.0
230
1.0
 70
     8
 71
     3
 72
     9
 73
     5
 74
     0
 42
0.000000001
 43
0.00000001
 40
0.0
 40
0.0
 40
0.0
 40
0.0
 40
0.3055653509157
 40
1.0
 40
1.0
 40
1.0
 40
1.0
 10
261.5739806902527
 20
70.2746020155336
 30
0.0
 10
261.5493286439481
 20
70.23556481572186
 30
0.0
 10
261.4686518059795
 20
70.10781080272666
 30
0.0
 10
261.3839172517688
 20
69.98093205725326
 30
0.0
 10
261.3250746413502
 20
69.89282306016419
 30
0.0
  0
SPLINE
  5
206
330
1F
100
AcDbEntity
  8
0
  6
Continuous
 62
     7
370
    15
100
AcDbSpline
210
0.0
220
0.0
230
1.0
 70
     8
 71
     3
 72
     9
 73
     5
 74
     0
 42
0.000000001
 43
0.00000001
 40
0.0
 40
0.0
 40
0.0
 40
0.0
 40
0.5887067638840993
 40
1.0
 40
1.0
 40
1.0
 40
1.0
 10
265.8385062978148
 20
67.42258315498178
 30
0.0
 10
265.9346572744806
 20
67.44394166038758
 30
0.0
 10
266.097983029448
 20
67.48022204090316
 30
0.0
 10
266.2624352061958
 20
67.51476211177861
 30
0.0
 10
266.3300732741567
 20
67.52896820930465
 30
0.0
  0
LINE
  5
207
330
1F
100
AcDbEntity
  8
0
  6
Continuous
 62
     7
370
    15
100
AcDbLine
 10
266.3300732742
 20
67.5289682093
 30
0.0
 11
269.1492618239
 21
65.9014853015
 31
0.0
  0
SPLINE
  5
208
330
1F
100
AcDbEntity
  8
0
  6
Continuous
 62
     7
370
    15
100
AcDbSpline
210
0.0
220
0.0
230
1.0
 70
     8
 71
     3
 72
    12
 73
     8
 74
     0
 42
0.000000001
 43
0.00000001
 40
0.0
 40
0.0
 40
0.0
 40
0.0
 40
0.250000000000002
 40
0.250000000000002
 40
0.500000000000004
 40
0.500000000000004
 40
1.0
 40
1.0
 40
1.0
 40
1.0
 10
269.1492618239259
 20
65.90148530147066
 30
0.0
 10
269.2118699592173
 20
65.86534239429035
 30
0.0
 10
269.2567328336735
 20
65.81832234412109
 30
0.0
 10
269.301801130891
 20
65.7197598571976
 30
0.0
 10
269.3037305963144
 20
65.66730909455775
 30
0.0
 10
269.2595960833227
 20
65.5149123423592
 30
0.0
 10
269.1673460909158
 20
65.42208025949233
 30
0.0
 10
269.0422503960141
 20
65.34986405199083
 30
0.0
  0
LINE
  5
209
330
1F
100
AcDbEntity
  8
0
  6
Continuous
 62
     7
370
    15
100
AcDbLine
 10
269.042250396
 20
65.349864052
 30
0.0
 11
268.2532493301
 21
64.8943834318
 31
0.0
  0
ELLIPSE
  5
20A
330
1F
100
AcDbEntity
  8
0
  6
Continuous
 62
     7
370
    15
100
AcDbEllipse
 10
231.5802960273
 20
38.9959022372
 30
0.0
 11
0.5200151578418398
 21
1.941087241981862
 31
0.0
210
0.0
220
0.0
230
1.0
 40
0.5176380889
 41
3.619174351347704
 42
5.189970678142617
  0
SPLINE
  5
20B
330
1F
100
AcDbEntity
  8
0
  6
Continuous
 62
     7
370
    15
100
AcDbSpline
210
0.0
220
0.0
230
1.0
 70
     8
 71
     3
 72
    10
 73
     6
 74
     0
 42
0.000000001
 43
0.00000001
 40
0.0
 40
0.0
 40
0.0
 40
0.0
 40
0.1600081067287702
 40
0.670403239036253
 40
1.0
 40
1.0
 40
1.0
 40
1.0
 10
271.6866113503474
 20
61.89721539227997
 30
0.0
 10
271.6869430221993
 20
61.90829271359411
 30
0.0
 10
271.6883326635642
 20
61.95470456259762
 30
0.0
 10
271.6767327648346
 20
62.02139440907028
 30
0.0
 10
271.6569651799971
 20
62.07126536269958
 30
0.0
 10
271.6492087575999
 20
62.09083377153075
 30
0.0
  0
LWPOLYLINE
  5
20C
330
1F
100
AcDbEntity
  8
0
  6
Continuous
 62
     7
370
    15
100
AcDbPolyline
 90
        3
 70
   128
 43
0.0
 10
261.5739806903
 20
70.2746020155
 10
261.9293061037
 20
69.9042902146
 10
262.0109599545
 20
69.8130093568
  0
LWPOLYLINE
  5
20D
330
1F
100
AcDbEntity
  8
0
  6
Continuous
 62
     7
370
     0
100
AcDbPolyline
 90
       25
 70
   128
 43
0.0
 10
262.307976079
 20
55.0606817366
 10
260.8647027747
 20
53.6509864192
 10
259.4699051444
 20
52.1275795531
 10
258.1339929972
 20
50.5018307982
 10
256.8669366617
 20
48.785873624
 10
255.678192574
 20
46.9925147533
 10
254.5766327016
 20
45.1351385821
 10
253.5704783289
 20
43.2276072874
 10
252.6672386994
 20
41.2841573694
 10
251.873654972
 20
39.3192934004
 10
251.1956499091
 20
37.3476797721
 10
250.6382836738
 20
35.3840312513
 10
250.2057160639
 20
33.4430031586
 10
249.9011754662
 20
31.5390819914
 10
249.726934762
 20
29.6864773063
 10
249.6842943641
 20
27.8990156693
 10
249.773572511
 20
26.1900374634
 10
249.994102892
 20
24.5722973254
 10
250.3442396203
 20
23.0578689537
 10
250.8213695164
 20
21.6580549992
 10
251.4219316112
 20
20.3833027094
 10
252.1414437227
 20
19.2431259579
 10
252.9745359079
 20
18.2460342387
 10
253.9149905403
 20
17.3994691582
 10
254.8609149974
 20
16.7636932419
  0
ARC
  5
20E
330
1F
100
AcDbEntity
  8
0
  6
Continuous
 62
     7
370
     0
100
AcDbCircle
 10
275.1003754486
 20
51.1641297842
 30
0.0
 40
10.09401397817812
100
AcDbArc
 50
61.8735672043
 51
105.4472596207
  0
LWPOLYLINE
  5
20F
330
1F
100
AcDbEntity
  8
0
  6
Continuous
 62
     7
370
     0
100
AcDbPolyline
 90
       20
 70
   128
 43
0.0
 10
268.0184919561
 20
21.6934394765
 10
268.6367360978
 20
20.8740843163
 10
269.3667633264
 20
20.2080396373
 10
270.1991096578
 20
19.7039399614
 10
271.1229846559
 20
19.3683203754
 10
272.1264113177
 20
19.2055318107
 10
273.1963813423
 20
19.2176846385
 10
274.3190237688
 20
19.4046213108
 10
275.4797847976
 20
19.7639184035
 10
276.6636164643
 20
20.2909180329
 10
277.8551717196
 20
20.97878824
 10
279.0390033864
 20
21.8186115594
 10
280.1997644152
 20
22.7995006239
 10
281.3224068417
 20
23.9087393074
 10
282.3923768663
 20
25.1319475747
 10
283.3958035281
 20
26.453267903
 10
284.3196785261
 20
27.8555708567
 10
285.1520248576
 20
29.3206771513
 10
285.8820520862
 20
30.8295933274
 10
286.5002962279
 20
32.3627579797
  0
LWPOLYLINE
  5
210
330
1F
100
AcDbEntity
  8
0
  6
Continuous
 62
     7
370
     0
100
AcDbPolyline
 90
       20
 70
   128
 43
0.0
 10
286.500202415
 20
43.7068262112
 10
285.8819507947
 20
44.5261433115
 10
285.1519213593
 20
45.1921539134
 10
284.3195777862
 20
45.6962242424
 10
283.3957100939
 20
46.0318198235
 10
282.3922947662
 20
46.1945901908
 10
281.3223394966
 20
46.1824252837
 10
280.1997145634
 20
45.995482801
 10
279.038973024
 20
45.6361861564
 10
277.8551620574
 20
45.1091930629
 10
276.663627901
 20
44.4213351527
 10
275.4798169113
 20
43.5815294161
 10
274.3190753263
 20
42.6006626068
 10
273.1964503253
 20
41.4914501121
 10
272.1264949666
 20
40.2682711184
 10
271.1230795298
 20
38.9469822074
 10
270.1992117097
 20
37.5447118008
 10
269.3668679918
 20
36.0796381175
 10
268.6368383964
 20
34.5707535214
 10
268.0185866032
 20
33.0376183158
  0
LINE
  5
211
330
1F
100
AcDbEntity
  8
0
  6
Continuous
 62
     7
370
     0
100
AcDbLine
 10
269.0694242749
 20
59.0491916587
 30
0.0
 11
270.3089242915
 21
59.4179346569
 31
0.0
  0
LINE
  5
212
330
1F
100
AcDbEntity
  8
0
  6
Continuous
 62
     7
370
     0
100
AcDbLine
 10
262.4905918067
 20
55.170449462
 30
0.0
 11
262.8219469112
 21
55.4425997451
 31
0.0
  0
ARC
  5
213
330
1F
100
AcDbEntity
  8
0
  6
Continuous
 62
     7
370
     0
100
AcDbCircle
 10
249.3453111477
 20
32.8620857929
 30
0.0
 40
8.688382526301039
100
AcDbArc
 50
200.5152238118
 51
238.1846894572
  0
LWPOLYLINE
  5
214
330
1F
100
AcDbEntity
  8
0
  6
Continuous
 62
     7
370
     0
100
AcDbPolyline
 90
       22
 70
   128
 43
0.0
 10
241.2079536251
 20
42.8616669148
 10
241.7886481958
 20
44.7446295239
 10
242.4898194716
 20
46.6291189855
 10
243.3055571882
 20
48.4992506914
 10
244.2289853857
 20
50.3392610568
 10
245.252320367
 20
52.1336403938
 10
246.3669363076
 20
53.8672636441
 10
247.5634379641
 20
55.5255178705
 10
248.8317398673
 20
57.0944254314
 10
250.1611513348
 20
58.5607617996
 10
251.5404665833
 20
59.9121670341
 10
252.9580591841
 20
61.1372499634
 10
254.4019800639
 20
62.2256842032
 10
255.8600582246
 20
63.168295199
 10
257.3200033347
 20
63.9571375593
 10
258.7695093259
 20
64.5855620288
 10
260.1963581225
 20
65.0482715353
 10
261.5885226295
 20
65.3413658399
 10
262.9342681101
 20
65.4623744124
 10
264.2222510996
 20
65.4102772557
 10
265.4416150209
 20
65.1855135035
 10
266.5820816961
 20
64.7899777189
  0
LINE
  5
215
330
1F
100
AcDbEntity
  8
0
  6
Continuous
 62
     7
370
     0
100
AcDbLine
 10
264.3193399963
 20
22.6681184889
 30
0.0
 11
264.4961166916
 21
22.0083929038
 31
0.0
  0
ARC
  5
216
330
1F
100
AcDbEntity
  8
0
  6
Continuous
 62
     7
370
     0
100
AcDbCircle
 10
281.1943628534
 20
40.8789917546
 30
0.0
 40
4.950256011177014
100
AcDbArc
 50
33.5787868621
 51
57.4821094745
  0
LWPOLYLINE
  5
217
330
1F
100
AcDbEntity
  8
0
  6
Continuous
 62
     7
370
     0
100
AcDbPolyline
 90
       17
 70
   128
 43
0.0
 10
269.6942775386
 20
20.9019371901
 10
270.2773751081
 20
20.6172404062
 10
271.2055720284
 20
20.344347912
 10
272.2094844318
 20
20.2464227184
 10
273.2752621323
 20
20.324815822
 10
274.3882014376
 20
20.5784456949
 10
275.5329480036
 20
21.0038132063
 10
276.693708667
 20
21.595049897
 10
277.8544693304
 20
22.3439989417
 10
278.9992158965
 20
23.2403276823
 10
280.1121552017
 20
24.2716701798
 10
281.1779329023
 20
25.4237978169
 10
282.1818453056
 20
26.6808155994
 10
283.1100422259
 20
28.0253814466
 10
283.949718064
 20
29.4389454462
 10
284.689288476
 20
30.9020057732
 10
285.3185501935
 20
32.3943777407
  0
LINE
  5
218
330
1F
100
AcDbEntity
  8
0
  6
Continuous
 62
     7
370
     0
100
AcDbLine
 10
263.2279704969
 20
23.2981526902
 30
0.0
 11
264.3193399963
 21
22.6681184889
 31
0.0
  0
LWPOLYLINE
  5
219
330
1F
100
AcDbEntity
  8
0
  6
Continuous
 62
     7
370
     0
100
AcDbPolyline
 90
       22
 70
   128
 43
0.0
 10
238.4691176325
 20
43.3907395789
 10
239.0875463492
 20
45.3851398549
 10
239.8276889639
 20
47.3810268211
 10
240.6838663649
 20
49.3630860434
 10
241.6495091058
 20
51.3161091878
 10
242.7172078131
 20
53.2251107144
 10
243.8787700381
 20
55.0754428608
 10
245.1252831178
 20
56.8529080344
 10
246.4471825613
 20
58.5438677511
 10
247.8343254387
 20
60.1353472824
 10
249.2760682073
 20
61.6151352112
 10
250.7613483796
 20
62.9718771296
 10
252.2787694058
 20
64.1951627615
 10
253.8166881193
 20
65.2756058401
 10
255.363304075
 20
66.2049161294
 10
256.9067500939
 20
66.9759630346
 10
258.4351833196
 20
67.5828303154
 10
259.9368760892
 20
68.0208614811
 10
261.400305919
 20
68.28669552
 10
262.8142439168
 20
68.3782926884
 10
264.167840941
 20
68.2949501616
 10
265.4507108462
 20
68.0373074266
  0
LWPOLYLINE
  5
21A
330
1F
100
AcDbEntity
  8
0
  6
Continuous
 62
     7
370
     0
100
AcDbPolyline
 90
       22
 70
   128
 43
0.0
 10
239.1511747282
 20
42.6895608212
 10
239.7369949296
 20
44.6769611313
 10
240.4482479266
 20
46.6696315419
 10
241.2792285378
 20
48.6515882252
 10
242.2232712099
 20
50.6069332911
 10
243.2728034836
 20
52.5199823098
 10
244.4194067345
 20
54.3753901213
 10
245.6538837021
 20
56.1582739235
 10
246.9663322633
 20
57.8543326518
 10
248.3462248607
 20
59.4499616926
 10
249.7824929475
 20
60.9323620101
 10
251.2636157714
 20
62.289642811
 10
252.7777127864
 20
63.5109169247
 10
254.3126389502
 20
64.5863881322
 10
255.8560821437
 20
65.5074297453
 10
257.3956619296
 20
66.2666538031
 10
258.9190288606
 20
66.8579703338
 10
260.4139635376
 20
67.2766362039
 10
261.8684746255
 20
67.5192931644
 10
263.2708950391
 20
67.5839947886
 10
264.609975529
 20
67.4702220846
 10
265.8749749149
 20
67.1788876587
  0
LWPOLYLINE
  5
21B
330
1F
100
AcDbEntity
  8
0
  6
Continuous
 62
     7
370
     0
100
AcDbPolyline
 90
       22
 70
   128
 43
0.0
 10
239.7627849137
 20
42.8947108918
 10
240.3426947464
 20
44.8357448827
 10
241.0462411699
 20
46.7808768208
 10
241.8676374919
 20
48.714107932
 10
242.8001277006
 20
50.6195373271
 10
243.8360420335
 20
52.481492787
 10
244.9668600613
 20
54.284659667
 10
246.1832807687
 20
56.0142068603
 10
247.4752990556
 20
57.6559087847
 10
248.832288029
 20
59.1962623879
 10
250.2430864103
 20
60.6225982113
 10
251.6960903366
 20
61.9231845958
 10
253.179348803
 20
63.0873241759
 10
254.6806619599
 20
64.1054418653
 10
256.1876814574
 20
64.9691636127
 10
257.6880120109
 20
65.6713852784
 10
259.1693133523
 20
66.2063310662
 10
260.6194017295
 20
66.5696010295
 10
262.0263501182
 20
66.7582072609
 10
263.3785863217
 20
66.770598468
 10
264.664988153
 20
66.6066727327
 10
265.8749749149
 20
66.2677783495
  0
LINE
  5
21C
330
1F
100
AcDbEntity
  8
0
  6
Continuous
 62
     7
370
     0
100
AcDbLine
 10
239.7627849137
 20
29.7484038204
 30
0.0
 11
242.7879385091
 21
31.4947878183
 31
0.0
  0
ARC
  5
21D
330
1F
100
AcDbEntity
  8
0
  6
Continuous
 62
     7
370
     0
100
AcDbCircle
 10
245.6250478221
 20
36.1339154255
 30
0.0
 40
5.437894280866389
100
AcDbArc
 50
238.5516722102
 51
262.2394085578
  0
LWPOLYLINE
  5
21E
330
1F
100
AcDbEntity
  8
0
  6
Continuous
 62
     7
370
     0
100
AcDbPolyline
 90
       22
 70
   128
 43
0.0
 10
228.1100032881
 20
49.370928998
 10
228.7284320048
 20
51.365329274
 10
229.4685746195
 20
53.3612162402
 10
230.3247520205
 20
55.3432754625
 10
231.2903947615
 20
57.2962986069
 10
232.3580934687
 20
59.2053001335
 10
233.5196556937
 20
61.0556322799
 10
234.7661687734
 20
62.8330974535
 10
236.0880682169
 20
64.5240571702
 10
237.4752110943
 20
66.1155367015
 10
238.9169538629
 20
67.5953246303
 10
240.4022340352
 20
68.9520665487
 10
241.9196550614
 20
70.1753521806
 10
243.4575737749
 20
71.2557952592
 10
245.0041897307
 20
72.1851055485
 10
246.5476357495
 20
72.9561524537
 10
248.0760689752
 20
73.5630197345
 10
249.5777617448
 20
74.0010509002
 10
251.0411915746
 20
74.2668849391
 10
252.4551295724
 20
74.3584821075
 10
253.8087265966
 20
74.2751395807
 10
255.0915965018
 20
74.0174968457
  0
LWPOLYLINE
  5
21F
330
1F
100
AcDbEntity
  8
0
  6
Continuous
 62
     7
370
     0
100
AcDbPolyline
 90
       19
 70
   128
 43
0.0
 10
234.3133908953
 20
47.3280869342
 10
234.8991620313
 20
49.1798481622
 10
235.6031463632
 20
51.031131358
 10
236.4193614494
 20
52.866204362
 10
237.3408711139
 20
54.6694727687
 10
238.35984439
 20
56.425612447
 10
239.4676220678
 20
58.1196997649
 10
240.6547902795
 20
59.7373384097
 10
241.9112604986
 20
61.2647817275
 10
243.2263552719
 20
62.6890495423
 10
244.588898956
 20
63.9980384609
 10
245.987312688
 20
65.1806247276
 10
247.409712782
 20
66.2267587529
 10
248.8440117167
 20
67.1275505154
 10
250.2780208548
 20
67.8753451088
 10
251.6995540216
 20
68.4637877929
 10
253.0965310629
 20
68.8878779959
 10
254.4570805019
 20
69.1440118098
 10
255.6718801452
 20
69.2294760982
  0
LWPOLYLINE
  5
220
330
1F
100
AcDbEntity
  8
0
  6
Continuous
 62
     7
370
     0
100
AcDbPolyline
 90
        3
 70
   128
 43
0.0
 10
243.919309359
 20
33.4543796067
 10
244.7112906946
 20
33.077191342
 10
245.1559949441
 20
32.9377662125
  0
ARC
  5
221
330
1F
100
AcDbEntity
  8
0
  6
Continuous
 62
     7
370
     0
100
AcDbCircle
 10
241.4629635969
 20
33.5661569703
 30
0.0
 40
2.458887692115235
100
AcDbArc
 50
302.60547834
 51
357.3945215143
  0
LINE
  5
222
330
1F
100
AcDbEntity
  8
0
  6
Continuous
 62
     7
370
     0
100
AcDbLine
 10
232.9501445083
 20
39.7867436869
 30
0.0
 11
243.919309359
 21
33.4543796067
 31
0.0
  0
LINE
  5
223
330
1F
100
AcDbEntity
  8
0
  6
Continuous
 62
     7
370
     0
100
AcDbLine
 10
232.7116668772
 20
39.6490287267
 30
0.0
 11
232.9501445083
 21
39.7867436869
 31
0.0
  0
LINE
  5
224
330
1F
100
AcDbEntity
  8
0
  6
Continuous
 62
     7
370
     0
100
AcDbLine
 10
290.0226714924
 20
36.7445593222
 30
0.0
 11
289.4923414065
 21
37.2001828793
 31
0.0
  0
LWPOLYLINE
  5
225
330
1F
100
AcDbEntity
  8
0
  6
Continuous
 62
     7
370
     0
100
AcDbPolyline
 90
        3
 70
   128
 43
0.0
 10
232.5172125124
 20
45.5686908813
 10
232.5830158201
 20
47.0081803307
 10
232.5999880926
 20
47.1877659461
  0
LWPOLYLINE
  5
226
330
1F
100
AcDbEntity
  8
0
  6
Continuous
 62
     7
370
     0
100
AcDbPolyline
 90
        3
 70
   128
 43
0.0
 10
232.6276587292
 20
43.8185566145
 10
232.5830158201
 20
44.2051763138
 10
232.5172125124
 20
45.5686908813
  0
LINE
  5
227
330
1F
100
AcDbEntity
  8
0
  6
Continuous
 62
     7
370
     0
100
AcDbLine
 10
280.229242573
 20
42.5476560118
 30
0.0
 11
289.4923414065
 21
37.2001828793
 31
0.0
  0
ARC
  5
228
330
1F
100
AcDbEntity
  8
0
  6
Continuous
 62
     7
370
     0
100
AcDbCircle
 10
247.8762354021
 20
32.4264899688
 30
0.0
 40
8.544016868321716
100
AcDbArc
 50
198.2670132474
 51
267.5888913346
  0
ARC
  5
229
330
1F
100
AcDbEntity
  8
0
  6
Continuous
 62
     7
370
     0
100
AcDbCircle
 10
248.504778678
 20
32.7790314584
 30
0.0
 40
10.81854729401794
100
AcDbArc
 50
201.9309239043
 51
217.725803248
  0
ARC
  5
22A
330
1F
100
AcDbEntity
  8
0
  6
Continuous
 62
     7
370
     0
100
AcDbCircle
 10
247.6785494808
 20
32.0437672012
 30
0.0
 40
8.974172297994322
100
AcDbArc
 50
198.1557564047
 51
277.2638607838
  0
LINE
  5
22B
330
1F
100
AcDbEntity
  8
0
  6
Continuous
 62
     7
370
     0
100
AcDbLine
 10
242.7879385091
 20
31.4947878183
 30
0.0
 11
232.2874028085
 21
37.5566180485
 31
0.0
  0
LWPOLYLINE
  5
22C
330
1F
100
AcDbEntity
  8
0
  6
Continuous
 62
     7
370
     0
100
AcDbPolyline
 90
       17
 70
   128
 43
0.0
 10
202.4155798662
 20
68.5173010663
 10
202.4837812815
 20
69.6327197387
 10
202.6869319328
 20
70.8031088768
 10
203.0207020165
 20
72.0035236678
 10
203.4779778028
 20
73.2083793548
 10
204.0490132522
 20
74.3919965305
 10
204.7216377356
 20
75.5291484497
 10
205.4815154298
 20
76.5955986937
 10
206.312450861
 20
77.5686177268
 10
207.1967340832
 20
78.4274673379
 10
208.1155181348
 20
79.1538426384
 10
209.0492207287
 20
79.7322622
 10
209.9779416153
 20
80.1503980139
 10
210.8818867213
 20
80.3993382412
 10
211.7417900261
 20
80.4737771532
 10
212.5393241838
 20
80.3721282137
 10
212.8496680038
 20
80.2779945299
  0
ARC
  5
22D
330
1F
100
AcDbEntity
  8
0
  6
Continuous
 62
     7
370
     0
100
AcDbCircle
 10
207.3492393075
 20
68.1698586444
 30
0.0
 40
4.945878255579998
100
AcDbArc
 50
175.9717176574
 51
224.0837547217
  0
LINE
  5
22E
330
1F
100
AcDbEntity
  8
0
  6
Continuous
 62
     7
370
     0
100
AcDbLine
 10
268.2532493301
 20
64.8943834318
 30
0.0
 11
267.3272377154
 21
64.3598083054
 31
0.0
  0
LINE
  5
22F
330
1F
100
AcDbEntity
  8
0
  6
Continuous
 62
     7
370
     0
100
AcDbLine
 10
236.3373752034
 20
32.7806048881
 30
0.0
 11
236.1994517549
 21
33.0929801043
 31
0.0
  0
LWPOLYLINE
  5
230
330
1F
100
AcDbEntity
  8
0
  6
Continuous
 62
     7
370
     0
100
AcDbPolyline
 90
        3
 70
   128
 43
0.0
 10
235.5986961647
 20
31.9735136101
 10
234.8979826813
 20
33.0083605684
 10
234.3133908953
 20
34.1817798628
  0
ARC
  5
231
330
1F
100
AcDbEntity
  8
0
  6
Continuous
 62
     7
370
     0
100
AcDbCircle
 10
238.1495027906
 20
38.7612085657
 30
0.0
 40
10.82285036680552
100
AcDbArc
 50
201.9330956432
 51
217.6537804828
  0
ARC
  5
232
330
1F
100
AcDbEntity
  8
0
  6
Continuous
 62
     7
370
     0
100
AcDbCircle
 10
262.5312592861
 20
58.1541460965
 30
0.0
 40
8.841491356094147
100
AcDbArc
 50
32.1744933364
 51
49.6710720045
  0
ARC
  5
233
330
1F
100
AcDbEntity
  8
0
  6
Continuous
 62
     7
370
     0
100
AcDbCircle
 10
262.1697331443
 20
58.1171684494
 30
0.0
 40
9.977142830245606
100
AcDbArc
 50
23.6144708119
 51
46.4627369333
  0
OLE2FRAME
  5
234
330
1F
100
AcDbEntity
  8
0
100
AcDbOle2Frame
 70
     2
  3
Paintbrush-Bild
 10
13.8511154363
 20
38.264191557
 30
0.0
 11
51.6290888628
 21
31.9806341108
 31
0.0
 71
     2
 72
     0
 73
     1
 90
    12928
310
80552BED0767C5B32B40DDAF6807D121434000000000000000006FFBDDFB85D0
310
4940DDAF6807D121434000000000000000006FFBDDFB85D04940416F4BD60AFB
310
3F4000000000000000002BED0767C5B32B40416F4BD60AFB3F40000000000000
310
0000000000000100000000010000010000000100000000000100000000320000
310
D0CF11E0A1B11AE1000000000000000000000000000000003E000300FEFF0900
310
0600000000000000000000000100000001000000000000000010000002000000
310
01000000FEFFFFFF0000000000000000FFFFFFFFFFFFFFFFFFFFFFFFFFFFFFFF
310
FFFFFFFFFFFFFFFFFFFFFFFFFFFFFFFFFFFFFFFFFFFFFFFFFFFFFFFFFFFFFFFF
310
FFFFFFFFFFFFFFFFFFFFFFFFFFFFFFFFFFFFFFFFFFFFFFFFFFFFFFFFFFFFFFFF
310
FFFFFFFFFFFFFFFFFFFFFFFFFFFFFFFFFFFFFFFFFFFFFFFFFFFFFFFFFFFFFFFF
310
FFFFFFFFFFFFFFFFFFFFFFFFFFFFFFFFFFFFFFFFFFFFFFFFFFFFFFFFFFFFFFFF
310
FFFFFFFFFFFFFFFFFFFFFFFFFFFFFFFFFFFFFFFFFFFFFFFFFFFFFFFFFFFFFFFF
310
FFFFFFFFFFFFFFFFFFFFFFFFFFFFFFFFFFFFFFFFFFFFFFFFFFFFFFFFFFFFFFFF
310
FFFFFFFFFFFFFFFFFFFFFFFFFFFFFFFFFFFFFFFFFFFFFFFFFFFFFFFFFFFFFFFF
310
FFFFFFFFFFFFFFFFFFFFFFFFFFFFFFFFFFFFFFFFFFFFFFFFFFFFFFFFFFFFFFFF
310
FFFFFFFFFFFFFFFFFFFFFFFFFFFFFFFFFFFFFFFFFFFFFFFFFFFFFFFFFFFFFFFF
310
FFFFFFFFFFFFFFFFFFFFFFFFFFFFFFFFFFFFFFFFFFFFFFFFFFFFFFFFFFFFFFFF
310
FFFFFFFFFFFFFFFFFFFFFFFFFFFFFFFFFFFFFFFFFFFFFFFFFFFFFFFFFFFFFFFF
310
FFFFFFFFFFFFFFFFFFFFFFFFFFFFFFFFFFFFFFFFFFFFFFFFFFFFFFFFFFFFFFFF
310
FFFFFFFFFFFFFFFFFFFFFFFFFFFFFFFFFFFFFFFFFFFFFFFFFFFFFFFFFFFFFFFF
310
FDFFFFFFFEFFFFFFFEFFFFFFFEFFFFFF05000000060000000700000008000000
310
090000000A0000000B0000000C0000000D0000000E0000000F00000010000000
310
11000000120000001300000014000000150000001600000017000000FEFFFFFF
310
FFFFFFFFFFFFFFFFFFFFFFFFFFFFFFFFFFFFFFFFFFFFFFFFFFFFFFFFFFFFFFFF
310
FFFFFFFFFFFFFFFFFFFFFFFFFFFFFFFFFFFFFFFFFFFFFFFFFFFFFFFFFFFFFFFF
310
FFFFFFFFFFFFFFFFFFFFFFFFFFFFFFFFFFFFFFFFFFFFFFFFFFFFFFFFFFFFFFFF
310
FFFFFFFFFFFFFFFFFFFFFFFFFFFFFFFFFFFFFFFFFFFFFFFFFFFFFFFFFFFFFFFF
310
FFFFFFFFFFFFFFFFFFFFFFFFFFFFFFFFFFFFFFFFFFFFFFFFFFFFFFFFFFFFFFFF
310
FFFFFFFFFFFFFFFFFFFFFFFFFFFFFFFFFFFFFFFFFFFFFFFFFFFFFFFFFFFFFFFF
310
FFFFFFFFFFFFFFFFFFFFFFFFFFFFFFFFFFFFFFFFFFFFFFFFFFFFFFFFFFFFFFFF
310
FFFFFFFFFFFFFFFFFFFFFFFFFFFFFFFFFFFFFFFFFFFFFFFFFFFFFFFFFFFFFFFF
310
FFFFFFFFFFFFFFFFFFFFFFFFFFFFFFFFFFFFFFFFFFFFFFFFFFFFFFFFFFFFFFFF
310
FFFFFFFFFFFFFFFFFFFFFFFFFFFFFFFFFFFFFFFFFFFFFFFFFFFFFFFFFFFFFFFF
310
FFFFFFFFFFFFFFFFFFFFFFFFFFFFFFFFFFFFFFFFFFFFFFFFFFFFFFFFFFFFFFFF
310
FFFFFFFFFFFFFFFFFFFFFFFFFFFFFFFFFFFFFFFFFFFFFFFFFFFFFFFFFFFFFFFF
310
FFFFFFFFFFFFFFFFFFFFFFFFFFFFFFFFFFFFFFFFFFFFFFFFFFFFFFFFFFFFFFFF
310
52006F006F007400200045006E00740072007900000000000000000000000000
310
0000000000000000000000000000000000000000000000000000000000000000
310
16000500FFFFFFFFFFFFFFFF020000000A00030000000000C000000000000046
310
00000000000000000000000090C4B854D81ED20103000000C000000000000000
310
01004F006C006500000000000000000000000000000000000000000000000000
310
0000000000000000000000000000000000000000000000000000000000000000
310
0A000200FFFFFFFFFFFFFFFFFFFFFFFF00000000000000000000000000000000
310
0000000000000000000000000000000000000000000000001400000000000000
310
010043006F006D0070004F0062006A0000000000000000000000000000000000
310
0000000000000000000000000000000000000000000000000000000000000000
310
120002010100000003000000FFFFFFFF00000000000000000000000000000000
310
0000000000000000000000000000000000000000010000004D00000000000000
310
01004F006C006500310030004E00610074006900760065000000000000000000
310
0000000000000000000000000000000000000000000000000000000000000000
310
1A000200FFFFFFFFFFFFFFFFFFFFFFFF00000000000000000000000000000000
310
0000000000000000000000000000000000000000040000002426000000000000
310
FEFFFFFF02000000FEFFFFFFFFFFFFFFFFFFFFFFFFFFFFFFFFFFFFFFFFFFFFFF
310
FFFFFFFFFFFFFFFFFFFFFFFFFFFFFFFFFFFFFFFFFFFFFFFFFFFFFFFFFFFFFFFF
310
FFFFFFFFFFFFFFFFFFFFFFFFFFFFFFFFFFFFFFFFFFFFFFFFFFFFFFFFFFFFFFFF
310
FFFFFFFFFFFFFFFFFFFFFFFFFFFFFFFFFFFFFFFFFFFFFFFFFFFFFFFFFFFFFFFF
310
FFFFFFFFFFFFFFFFFFFFFFFFFFFFFFFFFFFFFFFFFFFFFFFFFFFFFFFFFFFFFFFF
310
FFFFFFFFFFFFFFFFFFFFFFFFFFFFFFFFFFFFFFFFFFFFFFFFFFFFFFFFFFFFFFFF
310
FFFFFFFFFFFFFFFFFFFFFFFFFFFFFFFFFFFFFFFFFFFFFFFFFFFFFFFFFFFFFFFF
310
FFFFFFFFFFFFFFFFFFFFFFFFFFFFFFFFFFFFFFFFFFFFFFFFFFFFFFFFFFFFFFFF
310
FFFFFFFFFFFFFFFFFFFFFFFFFFFFFFFFFFFFFFFFFFFFFFFFFFFFFFFFFFFFFFFF
310
FFFFFFFFFFFFFFFFFFFFFFFFFFFFFFFFFFFFFFFFFFFFFFFFFFFFFFFFFFFFFFFF
310
FFFFFFFFFFFFFFFFFFFFFFFFFFFFFFFFFFFFFFFFFFFFFFFFFFFFFFFFFFFFFFFF
310
FFFFFFFFFFFFFFFFFFFFFFFFFFFFFFFFFFFFFFFFFFFFFFFFFFFFFFFFFFFFFFFF
310
FFFFFFFFFFFFFFFFFFFFFFFFFFFFFFFFFFFFFFFFFFFFFFFFFFFFFFFFFFFFFFFF
310
FFFFFFFFFFFFFFFFFFFFFFFFFFFFFFFFFFFFFFFFFFFFFFFFFFFFFFFFFFFFFFFF
310
FFFFFFFFFFFFFFFFFFFFFFFFFFFFFFFFFFFFFFFFFFFFFFFFFFFFFFFFFFFFFFFF
310
FFFFFFFFFFFFFFFFFFFFFFFFFFFFFFFFFFFFFFFFFFFFFFFFFFFFFFFFFFFFFFFF
310
0100000200000000000000000000000000000000000000000000000000000000
310
0000000000000000000000000000000000000000000000000000000000000000
310
0100FEFF030A0000FFFFFFFF0A00030000000000C00000000000004607000000
310
5042727573680007000000504272757368000700000050427275736800F439B2
310
7100000000000000000000000000000000000000000000000000000000000000
310
0000000000000000000000000000000000000000000000000000000000000000
310
0000000000000000000000000000000000000000000000000000000000000000
310
0000000000000000000000000000000000000000000000000000000000000000
310
0000000000000000000000000000000000000000000000000000000000000000
310
0000000000000000000000000000000000000000000000000000000000000000
310
0000000000000000000000000000000000000000000000000000000000000000
310
0000000000000000000000000000000000000000000000000000000000000000
310
0000000000000000000000000000000000000000000000000000000000000000
310
0000000000000000000000000000000000000000000000000000000000000000
310
0000000000000000000000000000000000000000000000000000000000000000
310
0000000000000000000000000000000000000000000000000000000000000000
310
20260000424D0E260000000000003E00000028000000B40200006E0000000100
310
01000000000000000000130B0000130B00000200000002000000000000FFFFFF
310
FFFFFFFFFFFFFFFFFFFFFFFFFFFFFFFFFFFFFFFFFFFFFFFFFFFFFFFFFFFFFFFF
310
FFFFFFFFFFFFFFFFFFFFFFFFFFFFFFFFFFFFFFFFFFFFFFFFFFFFFFFFFFFFFFFF
310
FFFFFFFFFFFFFFFFFFFFFFFFFFFFFFFFFFFFFFFFFFFFFFFFF000FFFFFFFFFFFF
310
FFFFFFFFFFFFFFFFFFFFFFFFFFFFFFFFFFFFFFFFFFFFFFFFFFFFFFFFFFFFFFFF
310
FFFFFFFFFFFFFFFFFFFFFFFFFFFFFFFFFFFFFFFFFFFFFFFFFFFFFFFFFFFFFFFF
310
FFFFFFFFFFFFFFFFFFFFFFFFFFFFFFFFF000FFFFFFFFFFFFFFFFFFFFFFFFFFFF
310
FFFFFFFFFFFFFFFFFFFFFFFFFFFFFFFFFFFFFFFFFFFFFFFFFFFFFFFFFFFFFFFF
310
FFFFFFFFFFFFFFFFFFFFFFFFFFFFFFFFFFFFFFFFFFFFFFFFFFFFFFFFFFFFFFFF
310
FFFFFFFFFFFFFFFFF000FFFFFFFFFFFFFFFFFFFFFFFFFFFFFFFFFFFFFFFFFFFF
310
FFFFFFFFFFFFFFFFFFFFFFFFFFFFFFFFFFFFFFFFFFFFFFFFFFFFFFFFFFFFFFFF
310
FFFFFFFFFFFFFFFFFFFFFFFFFFFFFFFFFFFFFFFFFFFFFFFFFFFFFFFFFFFFFFFF
310
F000FFFFFFFFFFFFFFFFFFFFFFFFFFFFFFFFFFFFFFFFFFFFFFFFFFFFFFFFFFFF
310
FFFFFFFFFFFFFFFFFFFFFFFFFFFFFFFFFFFFFFFFFFFFFFFFFFFFFFFFFFFFFFFF
310
FFFFFFFFFFFFFFFFFFFFFFFFFFFFFFFFFFFFFFFFFFFFFFFFF000FFFFFFFFFFFF
310
FFFFFFFFFFFFFFFFFFFFFFFFFFFFFFFFFFFFFFFFFFFFFFFFFFFFFFFFFFFFFFFF
310
FFFFFFFFFFFFFFFFFFFFFFFFFFFFFFFFFFFFFFFFFFFFFFFFFFFFFFFFFFFFFFFF
310
FFFFFFFFFFFFFFFFFFFFFFFFFFFFFFFFF000FFFFFFFFFFFFFFFFFFFFFFFFFFFF
310
FFFFFFFFFFFFFFFFFFFFFFFFFFFFFFFFFFFFFFFFFFFFFFFFFFFFFFFFFFFFFFFF
310
FFFFFFFFFFFFFFFFFFFFFFFFFFFFFFFFFFFFFFFFFFFFFFFFFFFFFFFFFFFFFFFF
310
FFFFFFFFFFFFFFFFF000FFFFFFFFFFFFFFFFFFFFFFFFFFFFFFFFFFFFFFFFFFFF
310
FFFFFFFFFFFFFFFFFFFFFFFFFFFFFFFFFFFFFFFFFFFFFFFFFFFFFFFFFFFFFFFF
310
FFFFFFFFFFFFFFFFFFFFFFFFFFFFFFFFFFFFFFFFFFFFFFFFFFFFFFFFFFFFFFFF
310
F000FFFFFFFFFFFFFFFFFFFFFFFFFFFFFFFFFFFFFFFFFFFFFFFFFFFFFFFFFFFF
310
FFFFFFFFFFFFFFFFFFFFFFFFFFFFFFFFFFFFFFFFFFFFFFFFFFFFFFFFFFFFFFFF
310
FFFFFFFFFFFFFFFFFFFFFFFFFFFFFFFFFFFFFFFFFFFFFFFFF000FFFFFFFFFFFF
310
FFFFFFFFFFFFFFFFFFFFFFFFFFFFFFFFFFFFFFFFFFFFFFFFFFFFFFFFFFFFFFFF
310
FFFFFFFFFFFFFFFFFFFFFFFFFFFFFFFFFFFFFFFFFFFFFFFFFFFFFFFFFFFFFFFF
310
FFFFFFFFFFFFFFFFFFFFFFFFFFFFFFFFF000FFFFFFFFFFFFFFFFFFFFFFFFFFFF
310
FFFFFFFFFFFFFFFFFFFFFFFFFFFFFFFFFFFFFFFFFFFFFFFFFFFFFFFFFFFFFFFF
310
FFFFFFFFFFFFFFFFFFFFFFFFFFFFFFFFFFFFFFFFFFFFFFFFFFFFFFFFFFFFFFFF
310
FFFFFFFFFFFFFFFFF000FFFFFFFFFFFFFFFFFFFFFFFFFFFFFFFFFFFFFFFFFFFF
310
FFFFFFFFFFFFFFFFFFFFFFFFFFFFFFFFFFFFFFFFFFFFFFFFFFFFFFFFFFFFFFFF
310
FFFFFFFFFFFFFFFFFFFFFFFFFFFFFFFFFFFFFFFFFFFFFFFFFFFFFFFFFFFFFFFF
310
F000FFFFFFFFFFFFFFFFFFFFFFFFFFFFFFFFFFFFFFFFFFFFFFFFFFFFFFFFFFFF
310
FFFFFFFFFFFFFFFFFFFFFFFFFFFFFFFFFFFFFFFFFFFFFFFFFFFFFFFFFFFFFFFF
310
FFFFFFFFFFFFFFFFFFFFFFFFFFFFFFFFFFFFFFFFFFFFFFFFF000FFFFFFFFFFFF
310
FFFFFFFFFFFFFFFFFFFFFFFFFFFFFFFFFFFFFFFFFFFFFFFFFFFFFFFFFFFFFFFF
310
FFFFFFFFFFFFFFFFFFFFFFFFFFFFFFFFFFFFFFFFFFFFFFFFFFFFFFFFFFFFFFFF
310
FFFFFFFFFFFFFFFFFFFFFFFFFFFFFFFFF000FFFFFFFFFFFFFFFFFFFFFFFFFFFF
310
FFFFFFFFFFFFFFFFFFFFFFFFFFFFFFFFFFFFFFFFFFFFFFFFFFFFFFFFFFFFFFFF
310
FFFFFFFFFFFFFFFFFFFFFFFFFFFFFFFFFFFFFFFFFFFFFFFFFFFFFFFFFFFFFFFF
310
FFFFFFFFFFFFFFFFF000FFFFFFFFFFFFFFFFFFFFFFFFFFFFFFFFFFFFFFFFFFFF
310
FFFFFFFFFFFFFFFFFFFFFFFFFFFFFFFFFFFFFFFFFFFFFFFFFFFFFFFFFFFFFFFF
310
FFFFFFFFFFFFFFFFFFFFFFFFFFFFFFFFFFFFFFFFFFFFFFFFFFFFFFFFFFFFFFFF
310
F000FFFFFFFFFFFFFFFFFFFFFFFFFFFFFFFFFFFFFFFFFFFFFFFFFFFFFFFFFFFF
310
FFFFFFFFFFFFFFFFFFFFFFFFFFFFFFFFFFFFFFFFFFFFFFFFFFFFFFFFFFFFFFFF
310
FFFFFFFFFFFFFFFFFFFFFFFFFFFFFFFFFFFFFFFFFFFFFFFFF000FFFFFFFFFFFF
310
FFFFFFFFFFFFFFFFFFFFFFFFFFFFFFFFFFFFFFFFFFFFFFFFFFFFFFFFFFFFFFFF
310
FFFFFFFFFFFFFFFFFFFFFFFFFFFFFFFFFFFFFFFFFFFFFFFFFFFFFFFFFFFFFFFF
310
FFFFFFFFFFFFFFFFFFFFFFFFFFFFFFFFF000FFFFFFFFFFFFFFFFFFFFFFFFFFFF
310
FFFFFFFFFFFFFFFFFFFFFFFFFFFFFFFFFFFFFFFFFFFFFFFFFFFFFFFFFFFFFFFF
310
FFFFFFFFFFFFFFFFFFFFFFFFFFFFFFFFFFFFFFFFFFFFFFFFFFFFFFFFFFFFFFFF
310
FFFFFFFFFFFFFFFFF000FFFFF80003FFFFFFFFFFFFFFFFFFFFFFFFFFFFFFFFFF
310
FFFFF00007FFFFFFFFFF00007FFFFFF800000000000000007FFFFFFFFFFFFFFF
310
FFFFFFFC001FFFFFFFFFFFFFFC001FFFFFFFFFFFFFFFFFFFFFFFFFFE0007FFFF
310
F000FFFF8000007FFFFFFFF8000FFFFFC0007FFFFF80007FFFFF0000007FFFFF
310
FFF8000007FFFFF800000000000000007FFFFFF0001FFFFFFFFFFFC00001FFFF
310
FFFFFFFFC00001FFFFFFFF000000000003FFFFE000007FFFF000FFFE0000000F
310
FFFFFFF0000FFFFF80007FFFFF80007FFFFC0000001FFFFFFFC0000001FFFFF8
310
00000000000000007FFFFFF0001FFFFFFFFFFE0000003FFFFFFFFFFE0000003F
310
FFFFFF000000000003FFFF0000000FFFF000FFF800000003FFFFFFF00007FFFF
310
80007FFFFF80007FFFF000000007FFFFFF000000003FFFF80000000000000000
310
7FFFFFF0001FFFFFFFFFF80000000FFFFFFFFFF80000000FFFFFFF0000000000
310
03FFFC00000003FFF000FFE000000000FFFFFFF00007FFFF80003FFFFF80007F
310
FFC000000001FFFFFC000000001FFFF800000000000000007FFFFFF0001FFFFF
310
FFFFE000000003FFFFFFFFE000000003FFFFFF000000000003FFF000000000FF
310
F000FF80000000007FFFFFF00007FFFF80003FFFFF80007FFF8000000000FFFF
310
F80000000007FFF800000000000000007FFFFFF0001FFFFFFFFFC000000001FF
310
FFFFFFC000000001FFFFFF000000000003FFC0000000007FF000FF0000000000
310
3FFFFFE00007FFFF00003FFFFF80007FFE00000000003FFFF00000000003FFF8
310
00000000000000007FFFFFF0001FFFFFFFFF8000000000FFFFFFFF8000000000
310
FFFFFF000000000003FF80000000003FF000FE00000000001FFFFFE00003FFFF
310
00003FFFFF80007FFC00000000001FFFE00000000001FFF8000001FFFE000000
310
7FFFFFF0001FFFFFFFFE00000000003FFFFFFE00000000003FFFFF0000000000
310
03FF00000000001FF000FC00000000000FFFFFE00003FFFF00001FFFFF80007F
310
F800000000001FFFC00000000000FFF8000001FFFE0000007FFFFFF0001FFFFF
310
FFFC00000000001FFFFFFC00000000001FFFFF000000000003FE00000000000F
310
F000F8000000000007FFFFE00003FFFF00001FFFFF80007FF800000000000FFF
310
800000000000FFF8000001FFFE0000007FFFFFF0001FFFFFFFF800000000000F
310
FFFFF800000000000FFFFF000000000003FC000000000007F000F80000000000
310
03FFFFC00003FFFE00001FFFFF80007FF0000000000007FF0000000000007FF8
310
000001FFFE0000007FFFFFF0001FFFFFFFF0000000000007FFFFF00000000000
310
07FFFF000000000003F8000000000003F000F0000000000003FFFFC00001FFFE
310
00001FFFFF80007FE0000000000007FE0000000000003FF8000001FFFE000000
310
7FFFFFF0001FFFFFFFF0000000000007FFFFF0000000000007FFFF0000000000
310
03F800001F800003F000E00001FFF00001FFFFC00001FFFE00000FFFFF80007F
310
E00001FFE00003FE00001FFF00003FF8000001FFFE0000007FFFFFF0001FFFFF
310
FFE000003E000003FFFFE000003E000003FFFF000000000003F00001FFF80001
310
F000E00007FFFC0001FFFFC00001FFFE00000FFFFF80007FC0000FFFFC0003FC
310
0000FFFFC0001FF8000001FFFE0000007FFFFFF0001FFFFFFFC00003FFE00001
310
FFFFC00003FFE00001FFFF0001FFFFFFFFF00007FFFE0001F000E0000FFFFF00
310
00FFFF800001FFFC00000FFFFF80007FC0001FFFFE0001FC0001FFFFE0001FF8
310
000001FFFE0000007FFFFFF0001FFFFFFF80000FFFF80000FFFF80000FFFF800
310
00FFFF0003FFFFFFFFE0000FFFFF8000F000C0003FFFFF8000FFFF800000FFFC
310
000007FFFF80007F80003FFFFF0001FC0003FFFFF0001FF8000001FFFE000000
310
7FFFFFF0001FFFFFFF80003FFFFE0000FFFF80003FFFFE0000FFFF0003FFFFFF
310
FFE0003FFFFF8000F000C0003FFFFF8000FFFF800000FFFC000007FFFF80007F
310
80007FFFFF8001F80007FFFFF8000FF8000001FFFE0000007FFFFFF0001FFFFF
310
FF00007FFFFF00007FFF00007FFFFF00007FFF0003FFFFFFFFE0003FFFFFC000
310
F000C0007FFFFFC000FFFF000000FFFC000007FFFF80007F8000FFFFFF8000F8
310
000FFFFFF8000FF8000001FFFE0000007FFFFFF0001FFFFFFF0000FFFFFF8000
310
7FFF0000FFFFFF80007FFF0003FFFFFFFFC0007FFFFFC00070008000FFFFFFC0
310
00FFFF000000FFF8000007FFFF80007F8000FFFFFF8000F8000FFFFFF8000FF8
310
000001FFFE0000007FFFFFF0001FFFFFFE0001FFFFFFC0003FFE0001FFFFFFC0
310
003FFF0003FFFFFFFFC0007FFFFFE00070008000FFFFFFC0007FFF0000007FF8
310
000003FFFF80007F0001FFFFFF8000F8000FFFFFF8000FF8000001FFFE000000
310
7FFFFFF0001FFFFFFE0001FFFFFFC0003FFE0001FFFFFFC0003FFF0003FFFFFF
310
FFC000FFFFFFE00070008000FFFFFFC0007FFF0000007FF8000003FFFF80007F
310
0001FFFFFF8000F8001FFFFFF8000FF8000001FFFE0000007FFFFFF0001FFFFF
310
FE0003FFFFFFE0003FFE0003FFFFFFE0003FFF0003FFFFFFFFC000FFFFFFE000
310
70008000FFFFFFC0007FFE0000007FF8000003FFFF80007F0001FFFFFF8000F0
310
001FFFFFF8000FF8000001FFFE0000007FFFFFF0001FFFFFFC0003FFFFFFE000
310
1FFC0003FFFFFFE0001FFF0003FFFFFFFFC000FFFFFFC00070008000FFFFFF80
310
007FFE0000007FF0000003FFFF80007F0001FFFFFF0000F0001FFFFFF8000FF8
310
000001FFFE0000007FFFFFF0001FFFFFFC0007FFFFFFF0001FFC0007FFFFFFF0
310
001FFF0003FFFFFFFFC000FFFFFFC00070008001FFFFFF0000FFFE0000003FF0
310
000001FFFF80007F0001FFFFFF0000F8001FFFFFF0000FF8000001FFFE000000
310
7FFFFFF0001FFFFFFC0007FFFFFFF0001FFC0007FFFFFFF0001FFF0003FFFFFF
310
FFC001FFFFFF80007000FFFFFFFFFE0000FFFE0008003FF0008001FFFF80007F
310
FFFFFFFFFC0000FFFFFFFFFFE0000FF8000001FFFE0000007FFFFFF0001FFFFF
310
F8000FFFFFFFF8000FF8000FFFFFFFF8000FFF0003FFFFFFFFFFFFFFFFFF0000
310
7000FFFFFFFFFC0000FFFC0008003FF0008001FFFF80007FFFFFFFFFF80001FF
310
FFFFFFFF80000FF8000001FFFE0000007FFFFFF0001FFFFFF8000FFFFFFFF800
310
0FF8000FFFFFFFF8000FFF0003FFFFFFFFFFFFFFFFFE0000F000FFFFFFFFE000
310
00FFFC000C003FE000C001FFFF80007FFFFFFFFFC00001FFFFFFFFFE00001FF8
310
000001FFFE0000007FFFFFF0001FFFFFF8000FFFFFFFF8000FF8000FFFFFFFF8
310
000FFF0003FFFFFFFFFFFFFFFFF00000F000FFFFFFFE000001FFFC000C001FE0
310
00C000FFFF80007FFFFFFFFE000001FFFFFFFFE000001FF80FFFFFFFFFFFFFC0
310
7FFFFFF0001FFFFFF8000FFFFFFFF8000FF8000FFFFFFFF8000FFF0003FFFFFF
310
FFFFFFFFFF800000F000FFFFFFC0000001FFFC001C001FE001C000FFFF80007F
310
FFFFFF80000003FFFFFFF80000001FF80FFFFFFFFFFFFFC07FFFFFF0001FFFFF
310
F8001FFFFFFFFC000FF8001FFFFFFFFC000FFF0003FFFFFFFFFFFFFFF0000001
310
F000FFFFF800000001FFF8001C001FE001C000FFFF80007FFFFFF800000003FF
310
FFFF800000003FF80FFFFFFFFFFFFFC07FFFFFF0001FFFFFF8001FFFFFFFFC00
310
0FF8001FFFFFFFFC000FFF0003FFFFFFFFFFFFFE00000001F000FFFFC0000000
310
03FFF8001E001FC001E000FFFF80007FFFFF8000000007FFFFFC000000003FF8
310
0FFFFFFFFFFFFFC07FFFFFF0001FFFFFF8001FFFFFFFFC000FF8001FFFFFFFFC
310
000FFF0003FFFFFFFFFFFFE000000003F000FFFE0000000007FFF8001E000FC0
310
01E0007FFF80007FFFFE0000000007FFFFE0000000007FF80FFFFFFFFFFFFFC0
310
7FFFFFF0001FFFFFF0001FFFFFFFFC0007F0001FFFFFFFFC0007FF0003FFFFFF
310
FFFFFF0000000003F000FFF80000000007FFF8001E000FC003E0007FFF80007F
310
FFF0000000000FFFFF8000000000FFF80FFFFFFFFFFFFFC07FFFFFF0001FFFFF
310
F0001FFFFFFFFC0007F0001FFFFFFFFC0007FF0003FFFFFFFFFFFC0000000007
310
F000FFE0000000000FFFF0003E000FC003E0007FFF80007FFFC0000000001FFF
310
FE0000000001FFF80FFFFFFFFFFFFFC07FFFFFF0001FFFFFF0001FFFFFFFFC00
310
07F0001FFFFFFFFC0007FF0003FFFFFFFFFFF0000000000FF000FFC000000000
310
1FFFF0003F000F8003F0003FFF80007FFF80000000003FFFF80000000003FFF8
310
0FFFFFFFFFFFFFC07FFFFFF0001FFFFFF0001FFFFFFFFC0007F0001FFFFFFFFC
310
0007FF0003FFFFFFFFFFE0000000001FF000FF00000000007FFFF0003F000780
310
03F0003FFF80007FFF00000000007FFFF00000000007FFF80FFFFFFFFFFFFFC0
310
7FFFFFF0001FFFFFF0001FFFFFFFFC0007F0001FFFFFFFFC0007FF0003FFFFFF
310
FFFF80000000007FF000FE0000000000FFFFE0003F00078007F0003FFF80007F
310
FE0000000001FFFFE0000000001FFFF80FFFFFFFFFFFFFC07FFFFFF0001FFFFF
310
F0001FFFFFFFFC0007F0001FFFFFFFFC0007FF0003FFFFFFFFFF0000000000FF
310
F000FC0000000003FFFFE0007F00078007F0003FFF80007FFC0000000007FFFF
310
C0000000007FFFF80FFFFFFFFFFFFFC07FFFFFF0001FFFFFF8001FFFFFFFFC00
310
0FF8001FFFFFFFFC000FFF0003FFFFFFFFFE0000000003FFF000FC000000000F
310
FFFFE0007F80070007F8001FFF80007FF8000000001FFFFF8000000001FFFFF8
310
0FFFFFFFFFFFFFC07FFFFFF0001FFFFFF8001FFFFFFFFC000FF8001FFFFFFFFC
310
000FFF0003FFFFFFFFFC000000000FFFF000F8000000007FFFFFE0007F800700
310
07F8001FFF80007FF000000000FFFFFF800000000FFFFFF80FFFFFFFFFFFFFC0
310
7FFFFFF0001FFFFFF8000FFFFFFFF8000FF8000FFFFFFFF8000FFF0003FFFFFF
310
FFFC000000007FFFF000F800000007FFFFFFC0007F8003000FF8001FFF80007F
310
F000000007FFFFFF000000007FFFFFF80FFFFFFFFFFFFFC07FFFFFF0001FFFFF
310
F8000FFFFFFFF8000FF8000FFFFFFFF8000FFF0003FFFFFFFFF80000000FFFFF
310
F000F0000000FFFFFFFFC000FF8003000FF8001FFF80007FE0000000FFFFFFFF
310
0000000FFFFFFFF8000001FFFE0000007FFFFFF0001FFFFFF8000FFFFFFFF800
310
0FF8000FFFFFFFF8000FFF0003FFFFFFFFF8000000FFFFFFF000F000000FFFFF
310
FFFFC000FFC002000FF8000FFF80007FE000001FFFFFFFFE000001FFFFFFFFF8
310
000001FFFE0000007FFFFFF0001FFFFFF8000FFFFFFFF8000FF8000FFFFFFFF8
310
000FFF0003FFFFFFFFF000001FFFFFFFF000E00000FFFFFFFFFFC000FFC00200
310
0FFC000FFF80007FE00001FFFFFFFFFE00001FFFFFFFFFF8000001FFFE000000
310
7FFFFFF0001FFFFFFC000FFFFFFFF8001FFC000FFFFFFFF8001FFF0003FFFFFF
310
FFF00001FFFFFFFFF000E00007FFFFFFFFFF8000FFC000001FFC000FFF80007F
310
C0000FFFFFFFFFFE0000FFFFFFFFFFF8000001FFFE0000007FFFFFF0001FFFFF
310
FC0007FFFFFFF0001FFC0007FFFFFFF0001FFF0003FFFFFFFFF00007FFFFFFFF
310
F000E0001FFFFFFFFFFF8000FFC000001FFC000FFF80007FC0003FFFFFFFFFFE
310
0001FFFFFFFFFFF8000001FFFE0000007FFFFFF0001FFFFFFC0007FFFFFFF000
310
1FFC0007FFFFFFF0001FFF0003FFFFFFFFF0001FFFFFFFFFF000E0003FFFFF00
310
03FF8001FFE000001FFC0007FF80007FC0007FFFFF0007FC0003FFFFF0003FF8
310
000001FFFE0000007FFFFFF0001FFFFFFC0003FFFFFFE0001FFC0003FFFFFFE0
310
001FFF0003FFFFFFFFF0003FFFFFFFFFF000E0003FFFFF0001FF8001FFE00000
310
1FFE0007FF80007FC0007FFFFE0003FC0007FFFFE0003FF8000001FFFE000000
310
7FFFFFF0001FFFFFFE0003FFFFFFE0003FFE0003FFFFFFE0003FFF0003FFFFFF
310
FFF0003FFFFF8001F000E0003FFFFF0001FF0001FFE000001FFE0007FF80007F
310
C0007FFFFE0003FC0007FFFFE0003FF8000001FFFE0000007FFFFFF0001FFFFF
310
FE0001FFFFFFC0003FFE0001FFFFFFC0003FFF0003FFFFFFFFF0003FFFFF0001
310
F000E0003FFFFF0003FF0001FFE000003FFE0007FF80007FC0007FFFFE0003FC
310
0007FFFFE0003FF8000001FFFE0000007FFFFFF0001FFFFFFF0001FFFFFFC000
310
7FFF0001FFFFFFC0007FFF0003FFFFFFFFF0003FFFFF0001F000E0003FFFFE00
310
03FF0003FFF000003FFE0003FF80007FC0007FFFFC0003FE0007FFFFE0003FF8
310
000001FFFE0000007FFFFFF0001FFFFFFF0000FFFFFF80007FFF0000FFFFFF80
310
007FFF0003FFFFFFFFF0003FFFFF0001F000E0003FFFFE0003FF0003FFF00000
310
3FFF0003FF80007FC0007FFFFC0007FE0007FFFFC0003FF8000001FFFE000000
310
7FFFFFF0001FFFFFFF80007FFFFF0000FFFF80007FFFFF0000FFFF0003FFFFFF
310
FFF0003FFFFF0003F000E0003FFFFC0003FE0003FFF000003FFF0003FF80007F
310
E0003FFFF80007FE0003FFFFC0007FF8000001FFFE0000007FFFFFF0001FFFFF
310
FF80003FFFFE0000FFFF80003FFFFE0000FFFF0003FFFFFFFFF0001FFFFE0003
310
F000F0001FFFF80003FE0003FFF000007FFF0001FF80007FE0003FFFF00007FE
310
0001FFFF80007FF8000001FFFE0000007FFFFFF0001FFFFFFFC0000FFFF80001
310
FFFFC0000FFFF80001FFFF0003FFFFFFFFF0001FFFFC0003F000F0000FFFF000
310
07FE0007FFF800007FFF0001FF80007FE0001FFFE00007FF0000FFFE00007FF8
310
000001FFFE0000007FFFFFF0001FFFFFFFC00003FFE00001FFFFC00003FFE000
310
01FFFF0003FFFFFFFFF8000FFFF80003F000F00003FFC00007FC0007FFF80000
310
7FFF8001FF80007FF00007FF80000FFF00007FF80000FFF8000001FFFE000000
310
7F80000000000001FFE000003E000003FFFFE000003E000003FFFF0003FFFFFF
310
FFF80003FFE00007F000F800000000000FFC0007FFF800007FFF8001FF80007F
310
F000000000000FFF000000000000FFF8000001FFFE0000007F80000000000001
310
FFF0000000000007FFFFF0000000000007FFFF0003FFFFFFFFFC00007E000007
310
F000F800000000000FFC0007FFF80000FFFF8000FF80007FF800000000001FFF
310
800000000001FFF8000001FFFE0000007F80000000000001FFF800000000000F
310
FFFFF800000000000FFFFF0003FFFFFFFFFC00000000000FF000FC0000000000
310
1FFC0007FFFC0000FFFF8000FF80007FF800000000003FFFC00000000001FFF8
310
000001FFFE0000007F80000000000001FFF800000000000FFFFFF80000000000
310
0FFFFF0003FFFFFFFFFE00000000001FF000FE00000000003FF8000FFFFC0000
310
FFFF8000FF80007FFC00000000003FFFC00000000003FFF8000001FFFE000000
310
7F80000000000001FFFC00000000001FFFFFFC00000000001FFFFF0003FFFFFF
310
FFFF00000000001FF000FF00000000003FF8000FFFFC0000FFFFC000FF80007F
310
FE00000000007FFFE00000000007FFF8000001FFFE0000007F80000000000001
310
FFFE00000000003FFFFFFE00000000003FFFFF0003FFFFFFFFFF80000000003F
310
F000FF80000000007FF8000FFFFC0001FFFFC0007F80007FFF0000000000FFFF
310
F0000000000FFFF800000000000000007F80000000000001FFFF8000000000FF
310
FFFFFF8000000000FFFFFF0003FFFFFFFFFFC0000000007FF000FFC000000000
310
FFF8000FFFFE0001FFFFC0007F80007FFF8000000001FFFFF8000000001FFFF8
310
00000000000000007F80000000000001FFFFC000000001FFFFFFFFC000000001
310
FFFFFF0003FFFFFFFFFFE000000000FFF000FFE000000003FFF0001FFFFE0001
310
FFFFC0007F80007FFFC000000007FFFFFE000000003FFFF80000000000000000
310
7F80000000000001FFFFE000000003FFFFFFFFE000000003FFFFFF0003FFFFFF
310
FFFFF000000003FFF000FFF80000000FFFF0001FFFFE0001FFFFE0007F80007F
310
FFF00000000FFFFFFF00000000FFFFF800000000000000007F80000000000001
310
FFFFF80000000FFFFFFFFFF80000000FFFFFFF0003FFFFFFFFFFFC0000000FFF
310
F000FFFE0000003FFFF0001FFFFE0003FFFFE0003F80007FFFFC0000003FFFFF
310
FFC0000003FFFFF800000000000000007F80000000000001FFFFFE0000003FFF
310
FFFFFFFE0000003FFFFFFF0003FFFFFFFFFFFF0000003FFFF000FFFF800000FF
310
FFF0001FFFFF0003FFFFE0003F80007FFFFF000001FFFFFFFFF800001FFFFFF8
310
00000000000000007F80000000000001FFFFFFC00001FFFFFFFFFFFFC00001FF
310
FFFFFF0003FFFFFFFFFFFFC00000FFFFF000FFFFF8000FFFFFFFFFFFFFFFFFFF
310
FFFFFFFFFFFFFFFFFFFFF0001FFFFFFFFFFF0000FFFFFFF80000000000000000
310
7FFFFFFFFFFFFFFFFFFFFFFC001FFFFFFFFFFFFFFC001FFFFFFFFFFFFFFFFFFF
310
FFFFFFFC001FFFFFF000FFFFFFFFFFFFFFFFFFFFFFFFFFFFFFFFFFFFFFFFFFFF
310
FFFFFFFFFFFFFFFFFFFFFFFFFFFFFFFFFFFFFFFFFFFFFFFFFFFFFFFFFFFFFFFF
310
FFFFFFFFFFFFFFFFFFFFFFFFFFFFFFFFFFFFFFFFFFFFFFFFFFFFFFFFFFFFFFFF
310
F000FFFFFFFFFFFFFFFFFFFFFFFFFFFFFFFFFFFFFFFFFFFFFFFFFFFFFFFFFFFF
310
FFFFFFFFFFFFFFFFFFFFFFFFFFFFFFFFFFFFFFFFFFFFFFFFFFFFFFFFFFFFFFFF
310
FFFFFFFFFFFFFFFFFFFFFFFFFFFFFFFFFFFFFFFFFFFFFFFFF000FFFFFFFFFFFF
310
FFFFFFFFFFFFFFFFFFFFFFFFFFFFFFFFFFFFFFFFFFFFFFFFFFFFFFFFFFFFFFFF
310
FFFFFFFFFFFFFFFFFFFFFFFFFFFFFFFFFFFFFFFFFFFFFFFFFFFFFFFFFFFFFFFF
310
FFFFFFFFFFFFFFFFFFFFFFFFFFFFFFFFF000FFFFFFFFFFFFFFFFFFFFFFFFFFFF
310
FFFFFFFFFFFFFFFFFFFFFFFFFFFFFFFFFFFFFFFFFFFFFFFFFFFFFFFFFFFFFFFF
310
FFFFFFFFFFFFFFFFFFFFFFFFFFFFFFFFFFFFFFFFFFFFFFFFFFFFFFFFFFFFFFFF
310
FFFFFFFFFFFFFFFFF000FFFFFFFFFFFFFFFFFFFFFFFFFFFFFFFFFFFFFFFFFFFF
310
FFFFFFFFFFFFFFFFFFFFFFFFFFFFFFFFFFFFFFFFFFFFFFFFFFFFFFFFFFFFFFFF
310
FFFFFFFFFFFFFFFFFFFFFFFFFFFFFFFFFFFFFFFFFFFFFFFFFFFFFFFFFFFFFFFF
310
F000FFFFFFFFFFFFFFFFFFFFFFFFFFFFFFFFFFFFFFFFFFFFFFFFFFFFFFFFFFFF
310
FFFFFFFFFFFFFFFFFFFFFFFFFFFFFFFFFFFFFFFFFFFFFFFFFFFFFFFFFFFFFFFF
310
FFFFFFFFFFFFFFFFFFFFFFFFFFFFFFFFFFFFFFFFFFFFFFFFF000FFFFFFFFFFFF
310
FFFFFFFFFFFFFFFFFFFFFFFFFFFFFFFFFFFFFFFFFFFFFFFFFFFFFFFFFFFFFFFF
310
FFFFFFFFFFFFFFFFFFFFFFFFFFFFFFFFFFFFFFFFFFFFFFFFFFFFFFFFFFFFFFFF
310
FFFFFFFFFFFFFFFFFFFFFFFFFFFFFFFFF000FFFFFFFFFFFFFFFFFFFFFFFFFFFF
310
FFFFFFFFFFFFFFFFFFFFFFFFFFFFFFFFFFFFFFFFFFFFFFFFFFFFFFFFFFFFFFFF
310
FFFFFFFFFFFFFFFFFFFFFFFFFFFFFFFFFFFFFFFFFFFFFFFFFFFFFFFFFFFFFFFF
310
FFFFFFFFFFFFFFFFF000FFFFFFFFFFFFFFFFFFFFFFFFFFFFFFFFFFFFFFFFFFFF
310
FFFFFFFFFFFFFFFFFFFFFFFFFFFFFFFFFFFFFFFFFFFFFFFFFFFFFFFFFFFFFFFF
310
FFFFFFFFFFFFFFFFFFFFFFFFFFFFFFFFFFFFFFFFFFFFFFFFFFFFFFFFFFFFFFFF
310
F000FFFFFFFFFFFFFFFFFFFFFFFFFFFFFFFFFFFFFFFFFFFFFFFFFFFFFFFFFFFF
310
FFFFFFFFFFFFFFFFFFFFFFFFFFFFFFFFFFFFFFFFFFFFFFFFFFFFFFFFFFFFFFFF
310
FFFFFFFFFFFFFFFFFFFFFFFFFFFFFFFFFFFFFFFFFFFFFFFFF000FFFFFFFFFFFF
310
FFFFFFFFFFFFFFFFFFFFFFFFFFFFFFFFFFFFFFFFFFFFFFFFFFFFFFFFFFFFFFFF
310
FFFFFFFFFFFFFFFFFFFFFFFFFFFFFFFFFFFFFFFFFFFFFFFFFFFFFFFFFFFFFFFF
310
FFFFFFFFFFFFFFFFFFFFFFFFFFFFFFFFF000FFFFFFFFFFFFFFFFFFFFFFFFFFFF
310
FFFFFFFFFFFFFFFFFFFFFFFFFFFFFFFFFFFFFFFFFFFFFFFFFFFFFFFFFFFFFFFF
310
FFFFFFFFFFFFFFFFFFFFFFFFFFFFFFFFFFFFFFFFFFFFFFFFFFFFFFFFFFFFFFFF
310
FFFFFFFFFFFFFFFFF000FFFFFFFFFFFFFFFFFFFFFFFFFFFFFFFFFFFFFFFFFFFF
310
FFFFFFFFFFFFFFFFFFFFFFFFFFFFFFFFFFFFFFFFFFFFFFFFFFFFFFFFFFFFFFFF
310
FFFFFFFFFFFFFFFFFFFFFFFFFFFFFFFFFFFFFFFFFFFFFFFFFFFFFFFFFFFFFFFF
310
F000FFFFFFFFFFFFFFFFFFFFFFFFFFFFFFFFFFFFFFFFFFFFFFFFFFFFFFFFFFFF
310
FFFFFFFFFFFFFFFFFFFFFFFFFFFFFFFFFFFFFFFFFFFFFFFFFFFFFFFFFFFFFFFF
310
FFFFFFFFFFFFFFFFFFFFFFFFFFFFFFFFFFFFFFFFFFFFFFFFF000FFFFFFFFFFFF
310
FFFFFFFFFFFFFFFFFFFFFFFFFFFFFFFFFFFFFFFFFFFFFFFFFFFFFFFFFFFFFFFF
310
FFFFFFFFFFFFFFFFFFFFFFFFFFFFFFFFFFFFFFFFFFFFFFFFFFFFFFFFFFFFFFFF
310
FFFFFFFFFFFFFFFFFFFFFFFFFFFFFFFFF000FFFFFFFFFFFFFFFFFFFFFFFFFFFF
310
FFFFFFFFFFFFFFFFFFFFFFFFFFFFFFFFFFFFFFFFFFFFFFFFFFFFFFFFFFFFFFFF
310
FFFFFFFFFFFFFFFFFFFFFFFFFFFFFFFFFFFFFFFFFFFFFFFFFFFFFFFFFFFFFFFF
310
FFFFFFFFFFFFFFFFF000FFFFFFFFFFFFFFFFFFFFFFFFFFFFFFFFFFFFFFFFFFFF
310
FFFFFFFFFFFFFFFFFFFFFFFFFFFFFFFFFFFFFFFFFFFFFFFFFFFFFFFFFFFFFFFF
310
FFFFFFFFFFFFFFFFFFFFFFFFFFFFFFFFFFFFFFFFFFFFFFFFFFFFFFFFFFFFFFFF
310
F000FFFFFFFFFFFFFFFFFFFFFFFFFFFFFFFFFFFFFFFFFFFFFFFFFFFFFFFFFFFF
310
FFFFFFFFFFFFFFFFFFFFFFFFFFFFFFFFFFFFFFFFFFFFFFFFFFFFFFFFFFFFFFFF
310
FFFFFFFFFFFFFFFFFFFFFFFFFFFFFFFFFFFFFFFFFFFFFFFFF000FFFFFFFFFFFF
310
FFFFFFFFFFFFFFFFFFFFFFFFFFFFFFFFFFFFFFFFFFFFFFFFFFFFFFFFFFFFFFFF
310
FFFFFFFFFFFFFFFFFFFFFFFFFFFFFFFFFFFFFFFFFFFFFFFFFFFFFFFFFFFFFFFF
310
FFFFFFFFFFFFFFFFFFFFFFFFFFFFFFFFF000FFFFFFFFFFFFFFFFFFFFFFFFFFFF
310
FFFFFFFFFFFFFFFFFFFFFFFFFFFFFFFFFFFFFFFFFFFFFFFFFFFFFFFFFFFFFFFF
310
FFFFFFFFFFFFFFFFFFFFFFFFFFFFFFFFFFFFFFFFFFFFFFFFFFFFFFFFFFFFFFFF
310
FFFFFFFFFFFFFFFFF000FFFFFFFFFFFFFFFFFFFFFFFFFFFFFFFFFFFFFFFFFFFF
310
FFFFFFFFFFFFFFFFFFFFFFFFFFFFFFFFFFFFFFFFFFFFFFFFFFFFFFFFFFFFFFFF
310
FFFFFFFFFFFFFFFFFFFFFFFFFFFFFFFFFFFFFFFFFFFFFFFFFFFFFFFFFFFFFFFF
310
F000FFFFFFFFFFFFFFFFFFFFFFFFFFFFFFFFFFFFFFFFFFFFFFFFFFFFFFFFFFFF
310
FFFFFFFFFFFFFFFFFFFFFFFFFFFFFFFFFFFFFFFFFFFFFFFFFFFFFFFFFFFFFFFF
310
FFFFFFFFFFFFFFFFFFFFFFFFFFFFFFFFFFFFFFFFFFFFFFFFF000FFFFFFFFFFFF
310
FFFFFFFFFFFFFFFFFFFFFFFFFFFFFFFFFFFFFFFFFFFFFFFFFFFFFFFFFFFFFFFF
310
FFFFFFFFFFFFFFFFFFFFFFFFFFFFFFFFFFFFFFFFFFFFFFFFFFFFFFFFFFFFFFFF
310
FFFFFFFFFFFFFFFFFFFFFFFFFFFFFFFFF0000000000000000000000000000000
310
0000000000000000000000000000000000000000000000000000000000000000
310
0000000000000000000000000000000000000000000000000000000000000000
310
0000000000000000000000000000000000000000000000000000000000000000
310
0000000000000000000000000000000000000000000000000000000000000000
310
0000000000000000000000000000000000000000000000000000000000000000
310
0000000000000000000000000000000000000000000000000000000000000000
310
0000000000000000000000000000000000000000000000000000000000000000
310
0000000000000000000000000000000000000000000000000000000000000000
310
0000000000000000000000000000000000000000000000000000000000000000
310
0000000000000000000000000000000000000000000000000000000000000000
310
0000000000000000000000000000000000000000000000000000000000000000
310
0000000000000000000000000000000000000000000000000000000000000000
310
0000000000000000000000000000000000000000000000000000000000000000
310
0000000000000000000000000000000000000000000000000000000000000000
310
0000000000000000000000000000000000000000000000000000000000000000
  1
OLE
  0
ENDSEC
  0
SECTION
  2
OBJECTS
  0
DICTIONARY
  5
C
330
0
100
AcDbDictionary
281
     1
  3
ACAD_GROUP
350
D
  3
ACAD_LAYOUT
350
1A
  3
ACAD_MLINESTYLE
350
17
  3
ACAD_PLOTSETTINGS
350
19
  3
ACAD_PLOTSTYLENAME
350
E
  3
ACAD_SCALELIST
350
47
  0
DICTIONARY
  5
D
102
{ACAD_REACTORS
330
C
102
}
330
C
100
AcDbDictionary
281
     1
  0
DICTIONARY
  5
1A
102
{ACAD_REACTORS
330
C
102
}
330
C
100
AcDbDictionary
281
     1
  3
Layout1
350
1E
  3
Layout2
350
26
  3
Model
350
22
  0
DICTIONARY
  5
17
102
{ACAD_REACTORS
330
C
102
}
330
C
100
AcDbDictionary
281
     1
  3
Standard
350
18
  0
DICTIONARY
  5
19
102
{ACAD_REACTORS
330
C
102
}
330
C
100
AcDbDictionary
281
     1
  0
ACDBDICTIONARYWDFLT
  5
E
102
{ACAD_REACTORS
330
C
102
}
330
C
100
AcDbDictionary
281
     1
  3
Normal
350
F
100
AcDbDictionaryWithDefault
340
F
  0
DICTIONARY
  5
47
102
{ACAD_REACTORS
330
C
102
}
330
C
100
AcDbDictionary
281
     1
  3
A0
350
48
  3
A1
350
49
  3
A2
350
4A
  3
A3
350
4B
  3
A4
350
4C
  3
A5
350
4D
  3
A6
350
4E
  3
A7
350
4F
  3
A8
350
50
  3
A9
350
51
  3
B0
350
52
  3
B1
350
53
  3
B2
350
54
  3
B3
350
55
  3
B4
350
56
  3
B5
350
57
  3
B6
350
58
  3
B7
350
59
  3
B8
350
5A
  3
B9
350
5B
  3
C0
350
5C
  3
C1
350
5D
  3
C2
350
5E
  3
C3
350
5F
  3
C4
350
60
  3
C5
350
61
  3
C6
350
62
  3
C7
350
63
  3
C8
350
64
  3
C9
350
65
  3
D0
350
66
  3
D1
350
67
  3
D2
350
68
  0
LAYOUT
  5
1E
102
{ACAD_REACTORS
330
1A
102
}
330
1A
100
AcDbPlotSettings
  1

  2
none_device
  4

  6

 40
0.0
 41
0.0
 42
0.0
 43
0.0
 44
0.0
 45
0.0
 46
0.0
 47
0.0
 48
0.0
 49
0.0
140
0.0
141
0.0
142
1.0
143
1.0
 70
   688
 72
     1
 73
     0
 74
     5
  7

 75
    16
147
1.0
148
0.0
149
0.0
100
AcDbLayout
  1
Layout1
 70
     1
 71
     1
 10
0.0
 20
0.0
 11
420.0
 21
297.0
 12
0.0
 22
0.0
 32
0.0
 14
1.0000000000E+20
 24
1.0000000000E+20
 34
1.0000000000E+20
 15
-1.0000000000E+20
 25
-1.0000000000E+20
 35
-1.0000000000E+20
146
0.0
 13
0.0
 23
0.0
 33
0.0
 16
1.0
 26
0.0
 36
0.0
 17
0.0
 27
1.0
 37
0.0
 76
     0
330
1B
  0
LAYOUT
  5
26
102
{ACAD_REACTORS
330
1A
102
}
330
1A
100
AcDbPlotSettings
  1

  2
none_device
  4

  6

 40
0.0
 41
0.0
 42
0.0
 43
0.0
 44
0.0
 45
0.0
 46
0.0
 47
0.0
 48
0.0
 49
0.0
140
0.0
141
0.0
142
1.0
143
1.0
 70
   688
 72
     1
 73
     0
 74
     5
  7

 75
    16
147
1.0
148
0.0
149
0.0
100
AcDbLayout
  1
Layout2
 70
     1
 71
     2
 10
0.0
 20
0.0
 11
0.0
 21
0.0
 12
0.0
 22
0.0
 32
0.0
 14
0.0
 24
0.0
 34
0.0
 15
0.0
 25
0.0
 35
0.0
146
0.0
 13
0.0
 23
0.0
 33
0.0
 16
1.0
 26
0.0
 36
0.0
 17
0.0
 27
1.0
 37
0.0
 76
     0
330
23
  0
LAYOUT
  5
22
102
{ACAD_REACTORS
330
1A
102
}
330
1A
100
AcDbPlotSettings
  1

  2
none_device
  4
Letter_(8.50_x_11.00_Inches)
  6

 40
6.35
 41
6.35
 42
6.35000508
 43
6.35000508
 44
215.9
 45
279.4
 46
0.0
 47
0.0
 48
0.0
 49
0.0
140
0.0
141
0.0
142
1.0
143
1.0
 70
  1712
 72
     1
 73
     0
 74
     0
  7

 75
     0
147
1.0
148
0.0
149
0.0
100
AcDbLayout
  1
Model
 70
     1
 71
     0
 10
0.0
 20
0.0
 11
297.0
 21
210.0
 12
0.0
 22
0.0
 32
0.0
 14
0.0
 24
0.0
 34
0.0
 15
297.0
 25
210.0
 35
0.0
146
0.0
 13
0.0
 23
0.0
 33
0.0
 16
1.0
 26
0.0
 36
0.0
 17
0.0
 27
1.0
 37
0.0
 76
     0
330
1F
331
29
  0
MLINESTYLE
  5
18
102
{ACAD_REACTORS
330
17
102
}
330
17
100
AcDbMlineStyle
  2
Standard
 70
     0
  3

 62
   256
 51
90.0
 52
90.0
 71
     2
 49
0.5
 62
   256
  6
BYLAYER
 49
-0.5
 62
   256
  6
BYLAYER
  0
ACDBPLACEHOLDER
  5
F
102
{ACAD_REACTORS
330
E
102
}
330
E
  0
SCALE
  5
48
102
{ACAD_REACTORS
330
47
102
}
330
47
100
AcDbScale
 70
     0
300
1:1
140
1.0
141
1.0
290
     1
  0
SCALE
  5
49
102
{ACAD_REACTORS
330
47
102
}
330
47
100
AcDbScale
 70
     0
300
1:2
140
1.0
141
2.0
290
     0
  0
SCALE
  5
4A
102
{ACAD_REACTORS
330
47
102
}
330
47
100
AcDbScale
 70
     0
300
1:4
140
1.0
141
4.0
290
     0
  0
SCALE
  5
4B
102
{ACAD_REACTORS
330
47
102
}
330
47
100
AcDbScale
 70
     0
300
1:5
140
1.0
141
5.0
290
     0
  0
SCALE
  5
4C
102
{ACAD_REACTORS
330
47
102
}
330
47
100
AcDbScale
 70
     0
300
1:8
140
1.0
141
8.0
290
     0
  0
SCALE
  5
4D
102
{ACAD_REACTORS
330
47
102
}
330
47
100
AcDbScale
 70
     0
300
1:10
140
1.0
141
10.0
290
     0
  0
SCALE
  5
4E
102
{ACAD_REACTORS
330
47
102
}
330
47
100
AcDbScale
 70
     0
300
1:16
140
1.0
141
16.0
290
     0
  0
SCALE
  5
4F
102
{ACAD_REACTORS
330
47
102
}
330
47
100
AcDbScale
 70
     0
300
1:20
140
1.0
141
20.0
290
     0
  0
SCALE
  5
50
102
{ACAD_REACTORS
330
47
102
}
330
47
100
AcDbScale
 70
     0
300
1:30
140
1.0
141
30.0
290
     0
  0
SCALE
  5
51
102
{ACAD_REACTORS
330
47
102
}
330
47
100
AcDbScale
 70
     0
300
1:40
140
1.0
141
40.0
290
     0
  0
SCALE
  5
52
102
{ACAD_REACTORS
330
47
102
}
330
47
100
AcDbScale
 70
     0
300
1:50
140
1.0
141
50.0
290
     0
  0
SCALE
  5
53
102
{ACAD_REACTORS
330
47
102
}
330
47
100
AcDbScale
 70
     0
300
1:100
140
1.0
141
100.0
290
     0
  0
SCALE
  5
54
102
{ACAD_REACTORS
330
47
102
}
330
47
100
AcDbScale
 70
     0
300
2:1
140
2.0
141
1.0
290
     0
  0
SCALE
  5
55
102
{ACAD_REACTORS
330
47
102
}
330
47
100
AcDbScale
 70
     0
300
4:1
140
4.0
141
1.0
290
     0
  0
SCALE
  5
56
102
{ACAD_REACTORS
330
47
102
}
330
47
100
AcDbScale
 70
     0
300
8:1
140
8.0
141
1.0
290
     0
  0
SCALE
  5
57
102
{ACAD_REACTORS
330
47
102
}
330
47
100
AcDbScale
 70
     0
300
10:1
140
10.0
141
1.0
290
     0
  0
SCALE
  5
58
102
{ACAD_REACTORS
330
47
102
}
330
47
100
AcDbScale
 70
     0
300
100:1
140
100.0
141
1.0
290
     0
  0
SCALE
  5
59
102
{ACAD_REACTORS
330
47
102
}
330
47
100
AcDbScale
 70
     0
300
1/128" = 1'-0"
140
0.0078125
141
12.0
290
     0
  0
SCALE
  5
5A
102
{ACAD_REACTORS
330
47
102
}
330
47
100
AcDbScale
 70
     0
300
1/64" = 1'-0"
140
0.015625
141
12.0
290
     0
  0
SCALE
  5
5B
102
{ACAD_REACTORS
330
47
102
}
330
47
100
AcDbScale
 70
     0
300
1/32" = 1'-0"
140
0.03125
141
12.0
290
     0
  0
SCALE
  5
5C
102
{ACAD_REACTORS
330
47
102
}
330
47
100
AcDbScale
 70
     0
300
1/16" = 1'-0"
140
0.0625
141
12.0
290
     0
  0
SCALE
  5
5D
102
{ACAD_REACTORS
330
47
102
}
330
47
100
AcDbScale
 70
     0
300
3/32" = 1'-0"
140
0.09375
141
12.0
290
     0
  0
SCALE
  5
5E
102
{ACAD_REACTORS
330
47
102
}
330
47
100
AcDbScale
 70
     0
300
1/8" = 1'-0"
140
0.125
141
12.0
290
     0
  0
SCALE
  5
5F
102
{ACAD_REACTORS
330
47
102
}
330
47
100
AcDbScale
 70
     0
300
3/16" = 1'-0"
140
0.1875
141
12.0
290
     0
  0
SCALE
  5
60
102
{ACAD_REACTORS
330
47
102
}
330
47
100
AcDbScale
 70
     0
300
1/4" = 1'-0"
140
0.25
141
12.0
290
     0
  0
SCALE
  5
61
102
{ACAD_REACTORS
330
47
102
}
330
47
100
AcDbScale
 70
     0
300
3/8" = 1'-0"
140
0.375
141
12.0
290
     0
  0
SCALE
  5
62
102
{ACAD_REACTORS
330
47
102
}
330
47
100
AcDbScale
 70
     0
300
1/2" = 1'-0"
140
0.5
141
12.0
290
     0
  0
SCALE
  5
63
102
{ACAD_REACTORS
330
47
102
}
330
47
100
AcDbScale
 70
     0
300
3/4" = 1'-0"
140
0.75
141
12.0
290
     0
  0
SCALE
  5
64
102
{ACAD_REACTORS
330
47
102
}
330
47
100
AcDbScale
 70
     0
300
1" = 1'-0"
140
1.0
141
12.0
290
     0
  0
SCALE
  5
65
102
{ACAD_REACTORS
330
47
102
}
330
47
100
AcDbScale
 70
     0
300
1-1/2" = 1'-0"
140
1.5
141
12.0
290
     0
  0
SCALE
  5
66
102
{ACAD_REACTORS
330
47
102
}
330
47
100
AcDbScale
 70
     0
300
3" = 1'-0"
140
3.0
141
12.0
290
     0
  0
SCALE
  5
67
102
{ACAD_REACTORS
330
47
102
}
330
47
100
AcDbScale
 70
     0
300
6" = 1'-0"
140
6.0
141
12.0
290
     0
  0
SCALE
  5
68
102
{ACAD_REACTORS
330
47
102
}
330
47
100
AcDbScale
 70
     0
300
1'-0" = 1'-0"
140
12.0
141
12.0
290
     0
  0
ENDSEC
  0
EOF
