  0
SECTION
  2
HEADER
  9
$ACADVER
  1
AC1015
  9
$ACADMAINTVER
 70
     6
  9
$DWGCODEPAGE
  3
ANSI_1252
  9
$INSBASE
 10
0.0
 20
0.0
 30
0.0
  9
$EXTMIN
 10
0.0
 20
0.0
 30
0.0
  9
$EXTMAX
 10
297.0
 20
210.0
 30
0.0
  9
$LIMMIN
 10
0.0
 20
0.0
  9
$LIMMAX
 10
297.0
 20
210.0
  9
$ORTHOMODE
 70
     0
  9
$REGENMODE
 70
     1
  9
$FILLMODE
 70
     1
  9
$QTEXTMODE
 70
     0
  9
$MIRRTEXT
 70
     1
  9
$LTSCALE
 40
1.0
  9
$ATTMODE
 70
     1
  9
$TEXTSIZE
 40
2.0
  9
$TRACEWID
 40
1.0
  9
$TEXTSTYLE
  7
Standard
  9
$CLAYER
  8
0
  9
$CELTYPE
  6
ByLayer
  9
$CECOLOR
 62
   256
  9
$CELTSCALE
 40
1.0
  9
$DISPSILH
 70
     0
  9
$DIMSCALE
 40
1.0
  9
$DIMASZ
 40
3.0
  9
$DIMEXO
 40
0.0
  9
$DIMDLI
 40
3.75
  9
$DIMRND
 40
0.0
  9
$DIMDLE
 40
0.0
  9
$DIMEXE
 40
1.0
  9
$DIMTP
 40
0.0
  9
$DIMTM
 40
0.0
  9
$DIMTXT
 40
2.0
  9
$DIMCEN
 40
2.5
  9
$DIMTSZ
 40
0.0
  9
$DIMTOL
 70
     0
  9
$DIMLIM
 70
     0
  9
$DIMTIH
 70
     1
  9
$DIMTOH
 70
     1
  9
$DIMSE1
 70
     0
  9
$DIMSE2
 70
     0
  9
$DIMTAD
 70
     1
  9
$DIMZIN
 70
     0
  9
$DIMBLK
  1

  9
$DIMASO
 70
     1
  9
$DIMSHO
 70
     1
  9
$DIMPOST
  1

  9
$DIMAPOST
  1

  9
$DIMALT
 70
     0
  9
$DIMALTD
 70
     3
  9
$DIMALTF
 40
0.0393700787
  9
$DIMLFAC
 40
1.0
  9
$DIMTOFL
 70
     1
  9
$DIMTVP
 40
0.0
  9
$DIMTIX
 70
     0
  9
$DIMSOXD
 70
     0
  9
$DIMSAH
 70
     0
  9
$DIMBLK1
  1

  9
$DIMBLK2
  1

  9
$DIMSTYLE
  2
ISO-25
  9
$DIMCLRD
 70
     0
  9
$DIMCLRE
 70
     0
  9
$DIMCLRT
 70
     0
  9
$DIMTFAC
 40
1.0
  9
$DIMGAP
 40
1.524
  9
$DIMJUST
 70
     0
  9
$DIMSD1
 70
     0
  9
$DIMSD2
 70
     0
  9
$DIMTOLJ
 70
     0
  9
$DIMTZIN
 70
     0
  9
$DIMALTZ
 70
     0
  9
$DIMALTTZ
 70
     0
  9
$DIMUPT
 70
     0
  9
$DIMDEC
 70
     2
  9
$DIMTDEC
 70
     3
  9
$DIMALTU
 70
     2
  9
$DIMALTTD
 70
     3
  9
$DIMTXSTY
  7
Standard
  9
$DIMAUNIT
 70
     0
  9
$DIMADEC
 70
     2
  9
$DIMALTRND
 40
0.0
  9
$DIMAZIN
 70
     0
  9
$DIMDSEP
 70
    44
  9
$DIMATFIT
 70
     3
  9
$DIMFRAC
 70
     0
  9
$DIMLDRBLK
  1

  9
$DIMLUNIT
 70
     2
  9
$DIMLWD
 70
    -2
  9
$DIMLWE
 70
    -2
  9
$DIMTMOVE
 70
     0
  9
$LUNITS
 70
     2
  9
$LUPREC
 70
     2
  9
$SKETCHINC
 40
1.0
  9
$FILLETRAD
 40
10.0
  9
$AUNITS
 70
     0
  9
$AUPREC
 70
     2
  9
$MENU
  1
.
  9
$ELEVATION
 40
0.0
  9
$PELEVATION
 40
0.0
  9
$THICKNESS
 40
0.0
  9
$LIMCHECK
 70
     0
  9
$CHAMFERA
 40
0.0
  9
$CHAMFERB
 40
0.0
  9
$CHAMFERC
 40
0.0
  9
$CHAMFERD
 40
0.0
  9
$SKPOLY
 70
     0
  9
$TDCREATE
 40
2457662.612122187
  9
$TDUCREATE
 40
2457662.528788854
  9
$TDUPDATE
 40
2457662.612123345
  9
$TDUUPDATE
 40
2457662.528790012
  9
$TDINDWG
 40
0.0000000116
  9
$TDUSRTIMER
 40
0.0000000116
  9
$USRTIMER
 70
     1
  9
$ANGBASE
 50
0.0
  9
$ANGDIR
 70
     0
  9
$PDMODE
 70
     0
  9
$PDSIZE
 40
-1.0
  9
$PLINEWID
 40
0.0
  9
$SPLFRAME
 70
     0
  9
$SPLINETYPE
 70
     6
  9
$SPLINESEGS
 70
     8
  9
$HANDSEED
  5
212
  9
$SURFTAB1
 70
     6
  9
$SURFTAB2
 70
     6
  9
$SURFTYPE
 70
     6
  9
$SURFU
 70
     6
  9
$SURFV
 70
     6
  9
$UCSBASE
  2

  9
$UCSNAME
  2

  9
$UCSORG
 10
0.0
 20
0.0
 30
0.0
  9
$UCSXDIR
 10
1.0
 20
0.0
 30
0.0
  9
$UCSYDIR
 10
0.0
 20
1.0
 30
0.0
  9
$UCSORTHOREF
  2

  9
$UCSORTHOVIEW
 70
     0
  9
$UCSORGTOP
 10
0.0
 20
0.0
 30
0.0
  9
$UCSORGBOTTOM
 10
0.0
 20
0.0
 30
0.0
  9
$UCSORGLEFT
 10
0.0
 20
0.0
 30
0.0
  9
$UCSORGRIGHT
 10
0.0
 20
0.0
 30
0.0
  9
$UCSORGFRONT
 10
0.0
 20
0.0
 30
0.0
  9
$UCSORGBACK
 10
0.0
 20
0.0
 30
0.0
  9
$PUCSBASE
  2

  9
$PUCSNAME
  2

  9
$PUCSORG
 10
0.0
 20
0.0
 30
0.0
  9
$PUCSXDIR
 10
1.0
 20
0.0
 30
0.0
  9
$PUCSYDIR
 10
0.0
 20
1.0
 30
0.0
  9
$PUCSORTHOREF
  2

  9
$PUCSORTHOVIEW
 70
     0
  9
$PUCSORGTOP
 10
0.0
 20
0.0
 30
0.0
  9
$PUCSORGBOTTOM
 10
0.0
 20
0.0
 30
0.0
  9
$PUCSORGLEFT
 10
0.0
 20
0.0
 30
0.0
  9
$PUCSORGRIGHT
 10
0.0
 20
0.0
 30
0.0
  9
$PUCSORGFRONT
 10
0.0
 20
0.0
 30
0.0
  9
$PUCSORGBACK
 10
0.0
 20
0.0
 30
0.0
  9
$USERI1
 70
     0
  9
$USERI2
 70
     0
  9
$USERI3
 70
     0
  9
$USERI4
 70
     0
  9
$USERI5
 70
     0
  9
$USERR1
 40
0.0
  9
$USERR2
 40
0.0
  9
$USERR3
 40
0.0
  9
$USERR4
 40
0.0
  9
$USERR5
 40
0.0
  9
$WORLDVIEW
 70
     1
  9
$SHADEDGE
 70
     3
  9
$SHADEDIF
 70
    70
  9
$TILEMODE
 70
     1
  9
$MAXACTVP
 70
    64
  9
$PINSBASE
 10
0.0
 20
0.0
 30
0.0
  9
$PLIMCHECK
 70
     0
  9
$PEXTMIN
 10
1.0000000000E+20
 20
1.0000000000E+20
 30
1.0000000000E+20
  9
$PEXTMAX
 10
-1.0000000000E+20
 20
-1.0000000000E+20
 30
-1.0000000000E+20
  9
$PLIMMIN
 10
0.0
 20
0.0
  9
$PLIMMAX
 10
420.0
 20
297.0
  9
$UNITMODE
 70
     0
  9
$VISRETAIN
 70
     1
  9
$PLINEGEN
 70
     0
  9
$PSLTSCALE
 70
     1
  9
$TREEDEPTH
 70
  3020
  9
$CMLSTYLE
  2
Standard
  9
$CMLJUST
 70
     0
  9
$CMLSCALE
 40
20.0
  9
$PROXYGRAPHICS
 70
     1
  9
$MEASUREMENT
 70
     1
  9
$CELWEIGHT
370
    -1
  9
$ENDCAPS
280
     0
  9
$JOINSTYLE
280
     0
  9
$LWDISPLAY
290
     1
  9
$INSUNITS
 70
     4
  9
$HYPERLINKBASE
  1

  9
$STYLESHEET
  1

  9
$XEDIT
290
     1
  9
$CEPSNTYPE
380
     0
  9
$PSTYLEMODE
290
     1
  9
$FINGERPRINTGUID
  2
{621500A6-4A3A-438A-B83C-533B5B1C033D}
  9
$VERSIONGUID
  2
{FAEB1C32-E019-11D5-929B-00C0DF256EC4}
  9
$EXTNAMES
290
     1
  9
$PSVPSCALE
 40
0.0
  9
$OLESTARTUP
290
     0
  0
ENDSEC
  0
SECTION
  2
CLASSES
  0
CLASS
  1
ACDBDICTIONARYWDFLT
  2
AcDbDictionaryWithDefault
  3
ObjectDBX Classes
 90
        0
280
     0
281
     0
  0
CLASS
  1
VISUALSTYLE
  2
AcDbVisualStyle
  3
ObjectDBX Classes
 90
     4095
280
     0
281
     0
  0
CLASS
  1
MATERIAL
  2
AcDbMaterial
  3
ObjectDBX Classes
 90
     1153
280
     0
281
     0
  0
CLASS
  1
SCALE
  2
AcDbScale
  3
ObjectDBX Classes
 90
     1153
280
     0
281
     0
  0
CLASS
  1
TABLESTYLE
  2
AcDbTableStyle
  3
ObjectDBX Classes
 90
     4095
280
     0
281
     0
  0
CLASS
  1
MLEADERSTYLE
  2
AcDbMLeaderStyle
  3
ACDB_MLEADERSTYLE_CLASS
 90
     4095
280
     0
281
     0
  0
CLASS
  1
SUN
  2
AcDbSun
  3
SCENEOE
 90
     1153
280
     0
281
     0
  0
CLASS
  1
ACDBPLACEHOLDER
  2
AcDbPlaceHolder
  3
ObjectDBX Classes
 90
        0
280
     0
281
     0
  0
CLASS
  1
LAYOUT
  2
AcDbLayout
  3
ObjectDBX Classes
 90
        0
280
     0
281
     0
  0
ENDSEC
  0
SECTION
  2
TABLES
  0
TABLE
  2
VPORT
  5
8
330
0
100
AcDbSymbolTable
 70
     1
  0
VPORT
  5
29
330
8
100
AcDbSymbolTableRecord
100
AcDbViewportTableRecord
  2
*Active
 70
     0
 10
0.0
 20
0.0
 11
1.0
 21
1.0
 12
148.5
 22
105.0
 13
0.0
 23
0.0
 14
10.0
 24
10.0
 15
10.0
 25
10.0
 16
0.0
 26
0.0
 36
1.0
 17
0.0
 27
0.0
 37
0.0
 40
210.0
 41
1.4142857143
 42
50.0
 43
0.0
 44
0.0
 50
0.0
 51
0.0
 71
     0
 72
  2000
 73
     1
 74
     3
 75
     0
 76
     0
 77
     0
 78
     0
281
     0
 65
     1
110
0.0
120
0.0
130
0.0
111
1.0
121
0.0
131
0.0
112
0.0
122
1.0
132
0.0
 79
     0
146
0.0
  0
ENDTAB
  0
TABLE
  2
LTYPE
  5
5
330
0
100
AcDbSymbolTable
 70
     6
  0
LTYPE
  5
14
330
5
100
AcDbSymbolTableRecord
100
AcDbLinetypeTableRecord
  2
ByBlock
 70
     0
  3

 72
    65
 73
     0
 40
0.0
  0
LTYPE
  5
15
330
5
100
AcDbSymbolTableRecord
100
AcDbLinetypeTableRecord
  2
ByLayer
 70
     0
  3

 72
    65
 73
     0
 40
0.0
  0
LTYPE
  5
16
330
5
100
AcDbSymbolTableRecord
100
AcDbLinetypeTableRecord
  2
Continuous
 70
     0
  3
Solid line
 72
    65
 73
     0
 40
0.0
  0
LTYPE
  5
6E
330
5
100
AcDbSymbolTableRecord
100
AcDbLinetypeTableRecord
  2
HIDDEN
 70
     0
  3
Hidden __ __ __ __ __ __ __ __ __ __ __ __ __ __
 72
    65
 73
     2
 40
1.905
 49
1.27
 74
     0
 49
-0.635
 74
     0
  0
LTYPE
  5
6F
330
5
100
AcDbSymbolTableRecord
100
AcDbLinetypeTableRecord
  2
PHANTOM
 70
     0
  3
Phantom ______  __  __  ______  __  __  ______
 72
    65
 73
     6
 40
12.7
 49
6.35
 74
     0
 49
-1.27
 74
     0
 49
1.27
 74
     0
 49
-1.27
 74
     0
 49
1.27
 74
     0
 49
-1.27
 74
     0
  0
LTYPE
  5
70
330
5
100
AcDbSymbolTableRecord
100
AcDbLinetypeTableRecord
  2
CENTER
 70
     0
  3
Center ____ _ ____ _ ____ _ ____ _ ____ _ ____
 72
    65
 73
     4
 40
10.16
 49
6.35
 74
     0
 49
-1.27
 74
     0
 49
1.27
 74
     0
 49
-1.27
 74
     0
  0
LTYPE
  5
71
330
5
100
AcDbSymbolTableRecord
100
AcDbLinetypeTableRecord
  2
CENTERX2
 70
     0
  3
Center (2x) ________  __  ________  __  _____
 72
    65
 73
     4
 40
20.32
 49
12.7
 74
     0
 49
-2.54
 74
     0
 49
2.54
 74
     0
 49
-2.54
 74
     0
  0
LTYPE
  5
72
330
5
100
AcDbSymbolTableRecord
100
AcDbLinetypeTableRecord
  2
DOT2
 70
     0
  3
Dot (.5x) ........................................
 72
    65
 73
     2
 40
0.635
 49
0.0
 74
     0
 49
-0.635
 74
     0
  0
ENDTAB
  0
TABLE
  2
LAYER
  5
2
330
0
100
AcDbSymbolTable
 70
     5
  0
LAYER
  5
10
330
2
100
AcDbSymbolTableRecord
100
AcDbLayerTableRecord
  2
0
 70
     0
 62
     7
  6
Continuous
370
    -3
390
F
  0
LAYER
  5
73
330
2
100
AcDbSymbolTableRecord
100
AcDbLayerTableRecord
  2
FORMAT
 70
     0
 62
     7
  6
Continuous
370
    -3
390
F
  0
LAYER
  5
74
330
2
100
AcDbSymbolTableRecord
100
AcDbLayerTableRecord
  2
VERMASSUNG
 70
     0
 62
     7
  6
Continuous
370
    -3
390
F
  0
LAYER
  5
75
330
2
100
AcDbSymbolTableRecord
100
AcDbLayerTableRecord
  2
KOPF_DÜNN
 70
     0
 62
     7
  6
Continuous
370
    -3
390
F
  0
LAYER
  5
76
330
2
100
AcDbSymbolTableRecord
100
AcDbLayerTableRecord
  2
KOPF_DICK
 70
     0
 62
     7
  6
Continuous
370
    15
390
F
  0
ENDTAB
  0
TABLE
  2
STYLE
  5
3
330
0
100
AcDbSymbolTable
 70
     2
  0
STYLE
  5
11
330
3
100
AcDbSymbolTableRecord
100
AcDbTextStyleTableRecord
  2
Standard
 70
     0
 40
0.0
 41
1.0
 50
0.0
 71
     0
 42
2.0
  3
txt
  4

  0
STYLE
  5
77
330
3
100
AcDbSymbolTableRecord
100
AcDbTextStyleTableRecord
  2
SLDTEXTSTYLE0
 70
     0
 40
0.0
 41
0.7
 50
0.0
 71
     0
 42
2.0
  3
TXT
  4

  0
ENDTAB
  0
TABLE
  2
VIEW
  5
6
330
0
100
AcDbSymbolTable
 70
     0
  0
ENDTAB
  0
TABLE
  2
UCS
  5
7
330
0
100
AcDbSymbolTable
 70
     0
  0
ENDTAB
  0
TABLE
  2
APPID
  5
9
330
0
100
AcDbSymbolTable
 70
     1
  0
APPID
  5
12
330
9
100
AcDbSymbolTableRecord
100
AcDbRegAppTableRecord
  2
ACAD
 70
     0
  0
ENDTAB
  0
TABLE
  2
DIMSTYLE
  5
A
330
0
100
AcDbSymbolTable
 70
     2
100
AcDbDimStyleTable
  0
DIMSTYLE
105
27
330
A
100
AcDbSymbolTableRecord
100
AcDbDimStyleTableRecord
  2
ISO-25
 70
     0
 41
2.5
 42
0.625
 43
3.75
 44
1.25
 73
     0
 74
     0
 77
     1
 78
     8
140
2.5
141
2.5
143
0.0393700787
147
0.625
171
     3
172
     1
178
     0
271
     2
272
     2
274
     3
278
    44
283
     0
284
     8
340
11
  0
DIMSTYLE
105
11B
102
{ACAD_REACTORS
330
11A
330
127
330
132
330
13E
330
148
330
154
102
}
330
A
100
AcDbSymbolTableRecord
100
AcDbDimStyleTableRecord
  2
SLDDIMSTYLE0
 70
     0
 41
3.0
 44
0.0
 45
0.000000001
 73
     0
 74
     0
 77
     1
 78
    12
 79
     3
140
2.0
147
0.5
173
     1
178
     0
271
     2
272
     3
276
     2
284
    12
340
77
  0
ENDTAB
  0
TABLE
  2
BLOCK_RECORD
  5
1
330
0
100
AcDbSymbolTable
 70
     7
  0
BLOCK_RECORD
  5
1F
330
1
100
AcDbSymbolTableRecord
100
AcDbBlockTableRecord
  2
*Model_Space
340
22
  0
BLOCK_RECORD
  5
1B
330
1
100
AcDbSymbolTableRecord
100
AcDbBlockTableRecord
  2
*Paper_Space
340
1E
  0
BLOCK_RECORD
  5
23
330
1
100
AcDbSymbolTableRecord
100
AcDbBlockTableRecord
  2
*Paper_Space0
340
26
  0
BLOCK_RECORD
  5
11C
330
1
100
AcDbSymbolTableRecord
100
AcDbBlockTableRecord
  2
_D
340
0
  0
BLOCK_RECORD
  5
128
330
1
100
AcDbSymbolTableRecord
100
AcDbBlockTableRecord
  2
_D_1
340
0
  0
BLOCK_RECORD
  5
133
330
1
100
AcDbSymbolTableRecord
100
AcDbBlockTableRecord
  2
_D_2
340
0
  0
BLOCK_RECORD
  5
13F
330
1
100
AcDbSymbolTableRecord
100
AcDbBlockTableRecord
  2
_D_3
340
0
  0
BLOCK_RECORD
  5
149
330
1
100
AcDbSymbolTableRecord
100
AcDbBlockTableRecord
  2
_D_4
340
0
  0
BLOCK_RECORD
  5
155
330
1
100
AcDbSymbolTableRecord
100
AcDbBlockTableRecord
  2
_D_5
340
0
  0
ENDTAB
  0
ENDSEC
  0
SECTION
  2
BLOCKS
  0
BLOCK
  5
20
330
1F
100
AcDbEntity
  8
0
100
AcDbBlockBegin
  2
*Model_Space
 70
     0
 10
0.0
 20
0.0
 30
0.0
  3
*Model_Space
  1

  0
ENDBLK
  5
21
330
1F
100
AcDbEntity
  8
0
100
AcDbBlockEnd
  0
BLOCK
  5
1C
330
1B
100
AcDbEntity
 67
     1
  8
0
100
AcDbBlockBegin
  2
*Paper_Space
 70
     0
 10
0.0
 20
0.0
 30
0.0
  3
*Paper_Space
  1

  0
ENDBLK
  5
1D
330
1B
100
AcDbEntity
 67
     1
  8
0
100
AcDbBlockEnd
  0
BLOCK
  5
24
330
23
100
AcDbEntity
  8
0
100
AcDbBlockBegin
  2
*Paper_Space0
 70
     0
 10
0.0
 20
0.0
 30
0.0
  3
*Paper_Space0
  1

  0
ENDBLK
  5
25
330
23
100
AcDbEntity
  8
0
100
AcDbBlockEnd
  0
BLOCK
  5
11D
330
11C
100
AcDbEntity
  8
0
100
AcDbBlockBegin
  2
_D
 70
     0
 10
0.0
 20
0.0
 30
0.0
  3
_D
  1

  0
SOLID
  5
11F
330
11C
100
AcDbEntity
  8
VERMASSUNG
100
AcDbTrace
 10
46.4522557967
 20
72.9065676827
 30
0.0
 11
46.9022557967
 21
75.9065676827
 31
0.0
 12
46.0022557967
 22
75.9065676827
 32
0.0
 13
46.0022557967
 23
75.9065676827
 33
0.0
  0
SOLID
  5
120
330
11C
100
AcDbEntity
  8
VERMASSUNG
100
AcDbTrace
 10
46.4522557967
 20
171.3315676827
 30
0.0
 11
46.0022557967
 21
168.3315676827
 31
0.0
 12
46.9022557967
 22
168.3315676827
 32
0.0
 13
46.9022557967
 23
168.3315676827
 33
0.0
  0
LINE
  5
121
330
11C
100
AcDbEntity
  8
VERMASSUNG
100
AcDbLine
 10
170.6001872113
 20
72.9065676827
 30
0.0
 11
45.4522557967
 21
72.9065676827
 31
0.0
  0
LINE
  5
122
330
11C
100
AcDbEntity
  8
VERMASSUNG
100
AcDbLine
 10
170.6001872113
 20
171.3315676827
 30
0.0
 11
45.4522557967
 21
171.3315676827
 31
0.0
  0
LINE
  5
123
330
11C
100
AcDbEntity
  8
VERMASSUNG
100
AcDbLine
 10
46.4522557967
 20
72.9065676827
 30
0.0
 11
46.4522557967
 21
171.3315676827
 31
0.0
  0
MTEXT
  5
124
330
11C
100
AcDbEntity
  8
VERMASSUNG
100
AcDbMText
 10
43.6741205405
 20
112.1149791143
 30
0.0
 40
2.0
 41
0.0
 71
     1
 72
     1
  1
CAT 50
  7
SLDTEXTSTYLE0
 11
3.391901413832837E-15
 21
1.0
 31
0.0
 73
     1
 44
1.0
  0
MTEXT
  5
125
330
11C
100
AcDbEntity
  8
VERMASSUNG
100
AcDbMText
 10
43.8741204918
 20
122.1149788907
 30
0.0
 40
2.0
 41
0.0
 71
     1
 72
     1
  1
%%c
  7
SLDTEXTSTYLE0
 11
3.391901413832837E-15
 21
1.0
 31
0.0
 73
     1
 44
1.0
  0
MTEXT
  5
126
330
11C
100
AcDbEntity
  8
VERMASSUNG
100
AcDbMText
 10
43.8741202008
 20
125.7236279299
 30
0.0
 40
2.0
 41
0.0
 71
     1
 72
     1
  1
98.43
  7
SLDTEXTSTYLE0
 11
3.391901413832837E-15
 21
1.0
 31
0.0
 73
     1
 44
1.0
  0
ENDBLK
  5
11E
330
11C
100
AcDbEntity
  8
0
100
AcDbBlockEnd
  0
BLOCK
  5
129
330
128
100
AcDbEntity
  8
0
100
AcDbBlockBegin
  2
_D_1
 70
     0
 10
0.0
 20
0.0
 30
0.0
  3
_D_1
  1

  0
SOLID
  5
12B
330
128
100
AcDbEntity
  8
VERMASSUNG
100
AcDbTrace
 10
245.9360107907
 20
140.1190676827
 30
0.0
 11
245.4860107907
 21
137.1190676827
 31
0.0
 12
246.3860107907
 22
137.1190676827
 32
0.0
 13
246.3860107907
 23
137.1190676827
 33
0.0
  0
SOLID
  5
12C
330
128
100
AcDbEntity
  8
VERMASSUNG
100
AcDbTrace
 10
245.9360107907
 20
104.1190676827
 30
0.0
 11
246.3860107907
 21
107.1190676827
 31
0.0
 12
245.4860107907
 22
107.1190676827
 32
0.0
 13
245.4860107907
 23
107.1190676827
 33
0.0
  0
LINE
  5
12D
330
128
100
AcDbEntity
  8
VERMASSUNG
100
AcDbLine
 10
220.5501872112
 20
140.1190676827
 30
0.0
 11
246.9360107907
 21
140.1190676827
 31
0.0
  0
LINE
  5
12E
330
128
100
AcDbEntity
  8
VERMASSUNG
100
AcDbLine
 10
220.5501872112
 20
104.1190676827
 30
0.0
 11
246.9360107907
 21
104.1190676827
 31
0.0
  0
LINE
  5
12F
330
128
100
AcDbEntity
  8
VERMASSUNG
100
AcDbLine
 10
245.9360107907
 20
140.1190676827
 30
0.0
 11
245.9360107907
 21
104.1190676827
 31
0.0
  0
MTEXT
  5
130
330
128
100
AcDbEntity
  8
VERMASSUNG
100
AcDbMText
 10
243.357875253
 20
118.9148915756
 30
0.0
 40
2.0
 41
0.0
 71
     1
 72
     1
  1
%%c
  7
SLDTEXTSTYLE0
 11
-7.044195017643634E-15
 21
1.0
 31
0.0
 73
     1
 44
1.0
  0
MTEXT
  5
131
330
128
100
AcDbEntity
  8
VERMASSUNG
100
AcDbMText
 10
243.3578751947
 20
122.5238637693
 30
0.0
 40
2.0
 41
0.0
 71
     1
 72
     1
  1
36
  7
SLDTEXTSTYLE0
 11
-7.044195017643634E-15
 21
1.0
 31
0.0
 73
     1
 44
1.0
  0
ENDBLK
  5
12A
330
128
100
AcDbEntity
  8
0
100
AcDbBlockEnd
  0
BLOCK
  5
134
330
133
100
AcDbEntity
  8
0
100
AcDbBlockBegin
  2
_D_2
 70
     0
 10
0.0
 20
0.0
 30
0.0
  3
_D_2
  1

  0
ARC
  5
136
330
133
100
AcDbEntity
  8
VERMASSUNG
100
AcDbCircle
 10
212.9616830918
 20
175.1573618371
 30
0.0
 40
4.247059938537284
100
AcDbArc
 50
153.4349488229
 51
206.5650511771
  0
ARC
  5
137
330
133
100
AcDbEntity
  8
VERMASSUNG
100
AcDbCircle
 10
211.3386913308
 20
175.1573618371
 30
0.0
 40
4.247059938537284
100
AcDbArc
 50
333.4349488229
 51
26.5650511771
  0
SOLID
  5
138
330
133
100
AcDbEntity
  8
VERMASSUNG
100
AcDbTrace
 10
187.1501872113
 20
173.2580188916
 30
0.0
 11
190.1501872113
 21
172.8080188916
 31
0.0
 12
190.1501872113
 22
173.7080188916
 32
0.0
 13
190.1501872113
 23
173.7080188916
 33
0.0
  0
SOLID
  5
139
330
133
100
AcDbEntity
  8
VERMASSUNG
100
AcDbTrace
 10
237.1501872113
 20
173.2580188916
 30
0.0
 11
234.1501872113
 21
173.7080188916
 31
0.0
 12
234.1501872113
 22
172.8080188916
 32
0.0
 13
234.1501872113
 23
172.8080188916
 33
0.0
  0
LINE
  5
13A
330
133
100
AcDbEntity
  8
VERMASSUNG
100
AcDbLine
 10
187.1501872113
 20
156.0440676827
 30
0.0
 11
187.1501872113
 21
174.2580188916
 31
0.0
  0
LINE
  5
13B
330
133
100
AcDbEntity
  8
VERMASSUNG
100
AcDbLine
 10
237.1501872113
 20
153.5190676827
 30
0.0
 11
237.1501872113
 21
174.2580188916
 31
0.0
  0
LINE
  5
13C
330
133
100
AcDbEntity
  8
VERMASSUNG
100
AcDbLine
 10
187.1501872113
 20
173.2580188916
 30
0.0
 11
237.1501872113
 21
173.2580188916
 31
0.0
  0
MTEXT
  5
13D
330
133
100
AcDbEntity
  8
VERMASSUNG
100
AcDbMText
 10
210.750497201
 20
175.8361544876
 30
0.0
 40
2.0
 41
0.0
 71
     1
 72
     1
  1
50
  7
SLDTEXTSTYLE0
 73
     1
 44
1.0
  0
ENDBLK
  5
135
330
133
100
AcDbEntity
  8
0
100
AcDbBlockEnd
  0
BLOCK
  5
140
330
13F
100
AcDbEntity
  8
0
100
AcDbBlockBegin
  2
_D_3
 70
     0
 10
0.0
 20
0.0
 30
0.0
  3
_D_3
  1

  0
SOLID
  5
142
330
13F
100
AcDbEntity
  8
VERMASSUNG
100
AcDbTrace
 10
152.1501872113
 20
179.2580188916
 30
0.0
 11
155.1501872113
 21
178.8080188916
 31
0.0
 12
155.1501872113
 22
179.7080188916
 32
0.0
 13
155.1501872113
 23
179.7080188916
 33
0.0
  0
SOLID
  5
143
330
13F
100
AcDbEntity
  8
VERMASSUNG
100
AcDbTrace
 10
237.1501872113
 20
179.2580188916
 30
0.0
 11
234.1501872113
 21
179.7080188916
 31
0.0
 12
234.1501872113
 22
178.8080188916
 32
0.0
 13
234.1501872113
 23
178.8080188916
 33
0.0
  0
LINE
  5
144
330
13F
100
AcDbEntity
  8
VERMASSUNG
100
AcDbLine
 10
152.1501872113
 20
157.0440676827
 30
0.0
 11
152.1501872113
 21
180.2580188916
 31
0.0
  0
LINE
  5
145
330
13F
100
AcDbEntity
  8
VERMASSUNG
100
AcDbLine
 10
237.1501872113
 20
153.5190676827
 30
0.0
 11
237.1501872113
 21
180.2580188916
 31
0.0
  0
LINE
  5
146
330
13F
100
AcDbEntity
  8
VERMASSUNG
100
AcDbLine
 10
152.1501872113
 20
179.2580188916
 30
0.0
 11
237.1501872113
 21
179.2580188916
 31
0.0
  0
MTEXT
  5
147
330
13F
100
AcDbEntity
  8
VERMASSUNG
100
AcDbMText
 10
193.250497201
 20
181.8361544876
 30
0.0
 40
2.0
 41
0.0
 71
     1
 72
     1
  1
85
  7
SLDTEXTSTYLE0
 73
     1
 44
1.0
  0
ENDBLK
  5
141
330
13F
100
AcDbEntity
  8
0
100
AcDbBlockEnd
  0
BLOCK
  5
14A
330
149
100
AcDbEntity
  8
0
100
AcDbBlockBegin
  2
_D_4
 70
     0
 10
0.0
 20
0.0
 30
0.0
  3
_D_4
  1

  0
ARC
  5
14C
330
149
100
AcDbEntity
  8
VERMASSUNG
100
AcDbCircle
 10
143.1616212999
 20
187.1573618371
 30
0.0
 40
4.247059938537323
100
AcDbArc
 50
153.4349488229
 51
206.5650511771
  0
ARC
  5
14D
330
149
100
AcDbEntity
  8
VERMASSUNG
100
AcDbCircle
 10
144.5387531227
 20
187.1573618371
 30
0.0
 40
4.247059938537297
100
AcDbArc
 50
333.4349488229
 51
26.5650511771
  0
SOLID
  5
14E
330
149
100
AcDbEntity
  8
VERMASSUNG
100
AcDbTrace
 10
237.1501872113
 20
185.2580188916
 30
0.0
 11
234.1501872113
 21
185.7080188916
 31
0.0
 12
234.1501872113
 22
184.8080188916
 32
0.0
 13
234.1501872113
 23
184.8080188916
 33
0.0
  0
SOLID
  5
14F
330
149
100
AcDbEntity
  8
VERMASSUNG
100
AcDbTrace
 10
50.5501872113
 20
185.2580188916
 30
0.0
 11
53.5501872113
 21
184.8080188916
 31
0.0
 12
53.5501872113
 22
185.7080188916
 32
0.0
 13
53.5501872113
 23
185.7080188916
 33
0.0
  0
LINE
  5
150
330
149
100
AcDbEntity
  8
VERMASSUNG
100
AcDbLine
 10
237.1501872113
 20
153.5190676827
 30
0.0
 11
237.1501872113
 21
186.2580188916
 31
0.0
  0
LINE
  5
151
330
149
100
AcDbEntity
  8
VERMASSUNG
100
AcDbLine
 10
50.5501872113
 20
140.4979122101
 30
0.0
 11
50.5501872113
 21
186.2580188916
 31
0.0
  0
LINE
  5
152
330
149
100
AcDbEntity
  8
VERMASSUNG
100
AcDbLine
 10
237.1501872113
 20
185.2580188916
 30
0.0
 11
50.5501872113
 21
185.2580188916
 31
0.0
  0
MTEXT
  5
153
330
149
100
AcDbEntity
  8
VERMASSUNG
100
AcDbMText
 10
140.950435409
 20
187.8361544876
 30
0.0
 40
2.0
 41
0.0
 71
     1
 72
     1
  1
186.6
  7
SLDTEXTSTYLE0
 73
     1
 44
1.0
  0
ENDBLK
  5
14B
330
149
100
AcDbEntity
  8
0
100
AcDbBlockEnd
  0
BLOCK
  5
156
330
155
100
AcDbEntity
  8
0
100
AcDbBlockBegin
  2
_D_5
 70
     0
 10
0.0
 20
0.0
 30
0.0
  3
_D_5
  1

  0
SOLID
  5
158
330
155
100
AcDbEntity
  8
VERMASSUNG
100
AcDbTrace
 10
251.9360107907
 20
154.1190676827
 30
0.0
 11
251.4860107907
 21
151.1190676827
 31
0.0
 12
252.3860107907
 22
151.1190676827
 32
0.0
 13
252.3860107907
 23
151.1190676827
 33
0.0
  0
SOLID
  5
159
330
155
100
AcDbEntity
  8
VERMASSUNG
100
AcDbTrace
 10
251.9360107907
 20
90.1190676827
 30
0.0
 11
252.3860107907
 21
93.1190676827
 31
0.0
 12
251.4860107907
 22
93.1190676827
 32
0.0
 13
251.4860107907
 23
93.1190676827
 33
0.0
  0
LINE
  5
15A
330
155
100
AcDbEntity
  8
VERMASSUNG
100
AcDbLine
 10
236.5501872113
 20
154.1190676827
 30
0.0
 11
252.9360107907
 21
154.1190676827
 31
0.0
  0
LINE
  5
15B
330
155
100
AcDbEntity
  8
VERMASSUNG
100
AcDbLine
 10
236.5501872113
 20
90.1190676827
 30
0.0
 11
252.9360107907
 21
90.1190676827
 31
0.0
  0
LINE
  5
15C
330
155
100
AcDbEntity
  8
VERMASSUNG
100
AcDbLine
 10
251.9360107907
 20
154.1190676827
 30
0.0
 11
251.9360107907
 21
90.1190676827
 31
0.0
  0
MTEXT
  5
15D
330
155
100
AcDbEntity
  8
VERMASSUNG
100
AcDbMText
 10
249.1578755345
 20
115.9140681651
 30
0.0
 40
2.0
 41
0.0
 71
     1
 72
     1
  1
ST6
  7
SLDTEXTSTYLE0
 11
-7.044195017643634E-15
 21
1.0
 31
0.0
 73
     1
 44
1.0
  0
MTEXT
  5
15E
330
155
100
AcDbEntity
  8
VERMASSUNG
100
AcDbMText
 10
249.3578754858
 20
121.7140680913
 30
0.0
 40
2.0
 41
0.0
 71
     1
 72
     1
  1
%%c
  7
SLDTEXTSTYLE0
 11
-7.044195017643634E-15
 21
1.0
 31
0.0
 73
     1
 44
1.0
  0
MTEXT
  5
15F
330
155
100
AcDbEntity
  8
VERMASSUNG
100
AcDbMText
 10
249.1578755345
 20
125.32406764
 30
0.0
 40
2.0
 41
0.0
 71
     1
 72
     1
  1
64
  7
SLDTEXTSTYLE0
 11
-7.044195017643634E-15
 21
1.0
 31
0.0
 73
     1
 44
1.0
  0
ENDBLK
  5
157
330
155
100
AcDbEntity
  8
0
100
AcDbBlockEnd
  0
ENDSEC
  0
SECTION
  2
ENTITIES
  0
MTEXT
  5
78
330
1F
100
AcDbEntity
  8
KOPF_DÜNN
100
AcDbMText
 10
13.8892156294
 20
23.8442973028
 30
0.0
 40
3.0
 41
0.0
 71
     1
 72
     1
  1
104.350.064.085
  7
SLDTEXTSTYLE0
 73
     1
 44
1.0
  0
MTEXT
  5
79
330
1F
100
AcDbEntity
  8
VERMASSUNG
100
AcDbMText
 10
13.9329988022
 20
28.8834360957
 30
0.0
 40
3.0
 41
0.0
 71
     1
 72
     1
  1
Aufnahme_Master shank ST6+
  7
SLDTEXTSTYLE0
 73
     1
 44
1.0
  0
MTEXT
  5
7A
330
1F
100
AcDbEntity
  8
VERMASSUNG
100
AcDbMText
 10
98.8601118557
 20
13.8365368761
 30
0.0
 40
2.0
 41
0.0
 71
     1
 72
     1
  1
Datum: 07.05.2008
  7
SLDTEXTSTYLE0
 73
     1
 44
1.0
  0
MTEXT
  5
7B
330
1F
100
AcDbEntity
  8
VERMASSUNG
100
AcDbMText
 10
13.933048693
 20
18.0482802738
 30
0.0
 40
2.0
 41
0.0
 71
     1
 72
     1
  1
ANSI B5.50 CAT 50
  7
SLDTEXTSTYLE0
 73
     1
 44
1.0
  0
MTEXT
  5
7C
330
1F
100
AcDbEntity
  8
VERMASSUNG
100
AcDbMText
 10
13.9808475933
 20
13.9090974274
 30
0.0
 40
2.0
 41
0.0
 71
     1
 72
     1
  1
Gewicht: 3736g
  7
SLDTEXTSTYLE0
 73
     1
 44
1.0
  0
ARC
  5
7D
330
1F
100
AcDbEntity
  8
0
  6
Continuous
 62
     7
370
    15
100
AcDbCircle
 10
154.7251872113
 20
86.5940676827
 30
0.0
 40
0.6000000000000085
100
AcDbArc
 50
45.0645284179
 51
90.0
  0
ARC
  5
7E
330
1F
100
AcDbEntity
  8
0
  6
Continuous
 62
     7
370
    15
100
AcDbCircle
 10
154.7251872113
 20
157.6440676827
 30
0.0
 40
0.6000000000000227
100
AcDbArc
 50
270.0
 51
0.0
  0
ARC
  5
7F
330
1F
100
AcDbEntity
  8
0
  6
Continuous
 62
     7
370
    15
100
AcDbCircle
 10
171.8001872113
 20
86.5940676827
 30
0.0
 40
0.6000000000000085
100
AcDbArc
 50
90.0
 51
134.888558919
  0
ARC
  5
80
330
1F
100
AcDbEntity
  8
0
  6
Continuous
 62
     7
370
    15
100
AcDbCircle
 10
171.8001872113
 20
157.6440676827
 30
0.0
 40
0.6000000000000227
100
AcDbArc
 50
180.0
 51
270.0
  0
LINE
  5
81
330
1F
100
AcDbEntity
  8
0
  6
Continuous
 62
     7
370
    15
100
AcDbLine
 10
152.1501872113
 20
87.1940676827
 30
0.0
 11
154.7251872113
 21
87.1940676827
 31
0.0
  0
LINE
  5
82
330
1F
100
AcDbEntity
  8
0
  6
Continuous
 62
     7
370
    15
100
AcDbLine
 10
154.7251872113
 20
157.0440676827
 30
0.0
 11
152.1501872113
 21
157.0440676827
 31
0.0
  0
ARC
  5
83
330
1F
100
AcDbEntity
  8
0
  6
Continuous
 62
     7
370
    15
100
AcDbCircle
 10
186.1501872113
 20
88.1940676827
 30
0.0
 40
1.0
100
AcDbArc
 50
270.0
 51
0.0
  0
ARC
  5
84
330
1F
100
AcDbEntity
  8
0
  6
Continuous
 62
     7
370
    15
100
AcDbCircle
 10
186.1501872113
 20
156.0440676827
 30
0.0
 40
1.0
100
AcDbArc
 50
0.0
 51
90.0
  0
LINE
  5
85
330
1F
100
AcDbEntity
  8
0
  6
Continuous
 62
     7
370
    15
100
AcDbLine
 10
171.8001872113
 20
87.1940676827
 30
0.0
 11
186.1501872113
 21
87.1940676827
 31
0.0
  0
LINE
  5
86
330
1F
100
AcDbEntity
  8
0
  6
Continuous
 62
     7
370
    15
100
AcDbLine
 10
186.1501872113
 20
157.0440676827
 30
0.0
 11
171.8001872113
 21
157.0440676827
 31
0.0
  0
LINE
  5
87
330
1F
100
AcDbEntity
  8
0
  6
Continuous
 62
     7
370
    15
100
AcDbLine
 10
152.1501872113
 20
157.0440676827
 30
0.0
 11
52.2615734252
 21
142.4769781723
 31
0.0
  0
LINE
  5
88
330
1F
100
AcDbEntity
  8
0
  6
Continuous
 62
     7
370
    15
100
AcDbLine
 10
52.2615734252
 20
101.7611571932
 30
0.0
 11
152.1501872113
 21
87.1940676827
 31
0.0
  0
ARC
  5
89
330
1F
100
AcDbEntity
  8
0
  6
Continuous
 62
     7
370
    15
100
AcDbCircle
 10
188.1501872113
 20
89.1190676827
 30
0.0
 40
1.0
100
AcDbArc
 50
90.0
 51
180.0
  0
ARC
  5
8A
330
1F
100
AcDbEntity
  8
0
  6
Continuous
 62
     7
370
    15
100
AcDbCircle
 10
188.1501872113
 20
155.1190676827
 30
0.0
 40
1.0
100
AcDbArc
 50
180.0
 51
270.0
  0
LINE
  5
8B
330
1F
100
AcDbEntity
  8
0
  6
Continuous
 62
     7
370
    15
100
AcDbLine
 10
236.5501872113
 20
90.1190676827
 30
0.0
 11
237.1501872113
 21
90.7190676827
 31
0.0
  0
LINE
  5
8C
330
1F
100
AcDbEntity
  8
0
  6
Continuous
 62
     7
370
    15
100
AcDbLine
 10
237.1501872113
 20
153.5190676827
 30
0.0
 11
236.5501872113
 21
154.1190676827
 31
0.0
  0
LINE
  5
8D
330
1F
100
AcDbEntity
  8
0
  6
Continuous
 62
     7
370
    15
100
AcDbLine
 10
236.5501872113
 20
154.1190676827
 30
0.0
 11
188.1501872113
 21
154.1190676827
 31
0.0
  0
LINE
  5
8E
330
1F
100
AcDbEntity
  8
0
  6
Continuous
 62
     7
370
    15
100
AcDbLine
 10
188.1501872113
 20
90.1190676827
 30
0.0
 11
236.5501872113
 21
90.1190676827
 31
0.0
  0
ARC
  5
8F
330
1F
100
AcDbEntity
  8
0
  6
Continuous
 62
     7
370
    15
100
AcDbCircle
 10
52.5501872113
 20
103.7402231554
 30
0.0
 40
2.000000000000007
100
AcDbArc
 50
180.0
 51
261.7028550302
  0
ARC
  5
90
330
1F
100
AcDbEntity
  8
0
  6
Continuous
 62
     7
370
    15
100
AcDbCircle
 10
52.5501872113
 20
140.4979122101
 30
0.0
 40
2.000000000000021
100
AcDbArc
 50
98.2971449698
 51
180.0
  0
SPLINE
  5
91
330
1F
100
AcDbEntity
  8
0
  6
Continuous
 62
     7
370
    15
100
AcDbSpline
210
0.0
220
0.0
230
1.0
 70
    24
 71
     3
 72
    11
 73
     7
 74
     0
 42
0.000000001
 43
0.00000001
 40
0.0
 40
0.0
 40
0.0
 40
0.0
 40
0.1336647920874024
 40
0.4825473608259762
 40
0.8156356561503777
 40
1.0
 40
1.0
 40
1.0
 40
1.0
 10
222.832238018868
 20
119.1190676827482
 30
0.0
 10
222.6871163406401
 20
119.1190676827482
 30
0.0
 10
222.1632081241688
 20
119.1190676827482
 30
0.0
 10
221.1844841697991
 20
119.1190676827482
 30
0.0
 10
220.1333450210826
 20
119.1190676827482
 30
0.0
 10
219.5691534609671
 20
119.1190676827482
 30
0.0
 10
219.3681364037302
 20
119.1190676827482
 30
0.0
  0
SPLINE
  5
92
330
1F
100
AcDbEntity
  8
0
  6
Continuous
 62
     7
370
    15
100
AcDbSpline
210
0.0
220
0.0
230
1.0
 70
    24
 71
     3
 72
    11
 73
     7
 74
     0
 42
0.000000001
 43
0.00000001
 40
0.0
 40
0.0
 40
0.0
 40
0.0
 40
0.2164553779443429
 40
0.4403112895790528
 40
0.7519005688038674
 40
1.0
 40
1.0
 40
1.0
 40
1.0
 10
224.5642888264369
 20
122.1190676827482
 30
0.0
 10
224.4456416679168
 20
121.9135647760177
 30
0.0
 10
224.2042908460106
 20
121.4955328900277
 30
0.0
 10
223.7564081813582
 20
120.7197773590205
 30
0.0
 10
223.2759736827753
 20
119.887640397766
 30
0.0
 10
222.9685244535716
 20
119.3551227120372
 30
0.0
 10
222.832238018868
 20
119.1190676827482
 30
0.0
  0
SPLINE
  5
93
330
1F
100
AcDbEntity
  8
0
  6
Continuous
 62
     7
370
    15
100
AcDbSpline
210
0.0
220
0.0
230
1.0
 70
    24
 71
     3
 72
    11
 73
     7
 74
     0
 42
0.000000001
 43
0.00000001
 40
0.0
 40
0.0
 40
0.0
 40
0.0
 40
0.2164553779443423
 40
0.4403112895790519
 40
0.7519005688038665
 40
0.9999999999999999
 40
0.9999999999999999
 40
0.9999999999999999
 40
0.9999999999999999
 10
222.832238018868
 20
125.1190676827482
 30
0.0
 10
222.9508851773881
 20
124.9135647760177
 30
0.0
 10
223.1922359992942
 20
124.4955328900277
 30
0.0
 10
223.6401186639466
 20
123.7197773590205
 30
0.0
 10
224.1205531625295
 20
122.887640397766
 30
0.0
 10
224.4280023917333
 20
122.3551227120372
 30
0.0
 10
224.5642888264369
 20
122.1190676827482
 30
0.0
  0
SPLINE
  5
94
330
1F
100
AcDbEntity
  8
0
  6
Continuous
 62
     7
370
    15
100
AcDbSpline
210
0.0
220
0.0
230
1.0
 70
    24
 71
     3
 72
    11
 73
     7
 74
     0
 42
0.000000001
 43
0.00000001
 40
0.0
 40
0.0
 40
0.0
 40
0.0
 40
0.1843643438496195
 40
0.5174526391740221
 40
0.8663352079125972
 40
1.0
 40
1.0
 40
1.0
 40
1.0
 10
219.3681364037302
 20
125.1190676827482
 30
0.0
 10
219.5691534609671
 20
125.1190676827482
 30
0.0
 10
220.1333450210826
 20
125.1190676827482
 30
0.0
 10
221.1844841697991
 20
125.1190676827482
 30
0.0
 10
222.1632081241688
 20
125.1190676827482
 30
0.0
 10
222.68711634064
 20
125.1190676827482
 30
0.0
 10
222.832238018868
 20
125.1190676827482
 30
0.0
  0
SPLINE
  5
95
330
1F
100
AcDbEntity
  8
0
  6
Continuous
 62
     7
370
    15
100
AcDbSpline
210
0.0
220
0.0
230
1.0
 70
    24
 71
     3
 72
    12
 73
     8
 74
     0
 42
0.000000001
 43
0.00000001
 40
0.0
 40
0.0
 40
0.0
 40
0.0
 40
0.2161857461389861
 40
0.4397628073511857
 40
0.5934185666353837
 40
0.7522096186328758
 40
1.0
 40
1.0
 40
1.0
 40
1.0
 10
217.6360855961613
 20
122.1190676827482
 30
0.0
 10
217.7546794030822
 20
122.3244781817982
 30
0.0
 10
217.9959216977175
 20
122.742322093041
 30
0.0
 10
218.3505899247147
 20
123.3566254820304
 30
0.0
 10
218.6748515493738
 20
123.9182630908849
 30
0.0
 10
219.0078871296424
 20
124.4950976366382
 30
0.0
 10
219.2317211379687
 20
124.8827895115212
 30
0.0
 10
219.3681364037302
 20
125.1190676827482
 30
0.0
  0
SPLINE
  5
96
330
1F
100
AcDbEntity
  8
0
  6
Continuous
 62
     7
370
    15
100
AcDbSpline
210
0.0
220
0.0
230
1.0
 70
    24
 71
     3
 72
    12
 73
     8
 74
     0
 42
0.000000001
 43
0.00000001
 40
0.0
 40
0.0
 40
0.0
 40
0.0
 40
0.2161857461389835
 40
0.4397628073511839
 40
0.5934185666353806
 40
0.7522096186328752
 40
0.9999999999999999
 40
0.9999999999999999
 40
0.9999999999999999
 40
0.9999999999999999
 10
219.3681364037302
 20
119.1190676827482
 30
0.0
 10
219.2495425968093
 20
119.3244781817982
 30
0.0
 10
219.0083003021741
 20
119.742322093041
 30
0.0
 10
218.6536320751769
 20
120.3566254820304
 30
0.0
 10
218.3293704505178
 20
120.9182630908848
 30
0.0
 10
217.9963348702492
 20
121.4950976366382
 30
0.0
 10
217.7725008619229
 20
121.8827895115213
 30
0.0
 10
217.6360855961613
 20
122.1190676827482
 30
0.0
  0
CIRCLE
  5
97
330
1F
100
AcDbEntity
  8
0
  6
Continuous
 62
     7
370
    15
100
AcDbCircle
 10
221.1001872113
 20
122.1190676827
 30
0.0
 40
3.500000000000014
  0
CIRCLE
  5
98
330
1F
100
AcDbEntity
  8
0
  6
Continuous
 62
     7
370
    15
100
AcDbCircle
 10
221.1001872113
 20
122.1190676827
 30
0.0
 40
5.500000000000014
  0
CIRCLE
  5
99
330
1F
100
AcDbEntity
  8
0
  6
Continuous
 62
     7
370
    15
100
AcDbCircle
 10
221.1001872113
 20
122.1190676827
 30
0.0
 40
6.000000000000014
  0
ARC
  5
9A
330
1F
100
AcDbEntity
  8
0
  6
Continuous
 62
     7
370
    15
100
AcDbCircle
 10
221.1001872113
 20
122.1190676827
 30
0.0
 40
3.000000000000014
100
AcDbArc
 50
270.0
 51
330.0
  0
ARC
  5
9B
330
1F
100
AcDbEntity
  8
0
  6
Continuous
 62
     7
370
    15
100
AcDbCircle
 10
221.1001872113
 20
122.1190676827
 30
0.0
 40
3.0
100
AcDbArc
 50
330.0
 51
30.0
  0
ARC
  5
9C
330
1F
100
AcDbEntity
  8
0
  6
Continuous
 62
     7
370
    15
100
AcDbCircle
 10
221.1001872113
 20
122.1190676827
 30
0.0
 40
3.0
100
AcDbArc
 50
30.0
 51
90.0
  0
ARC
  5
9D
330
1F
100
AcDbEntity
  8
0
  6
Continuous
 62
     7
370
    15
100
AcDbCircle
 10
221.1001872113
 20
122.1190676827
 30
0.0
 40
3.000000000000025
100
AcDbArc
 50
210.0
 51
270.0
  0
ARC
  5
9E
330
1F
100
AcDbEntity
  8
0
  6
Continuous
 62
     7
370
    15
100
AcDbCircle
 10
221.1001872113
 20
122.1190676827
 30
0.0
 40
3.000000000000025
100
AcDbArc
 50
90.0
 51
150.0
  0
ARC
  5
9F
330
1F
100
AcDbEntity
  8
0
  6
Continuous
 62
     7
370
    15
100
AcDbCircle
 10
221.1001872113
 20
122.1190676827
 30
0.0
 40
3.000000000000025
100
AcDbArc
 50
150.0
 51
210.0
  0
LINE
  5
A0
330
1F
100
AcDbEntity
  8
0
  6
Continuous
 62
     7
370
    15
100
AcDbLine
 10
165.1601872113
 20
77.5201415048
 30
0.0
 11
165.1601872113
 21
166.7179938607
 31
0.0
  0
SPLINE
  5
A1
330
1F
100
AcDbEntity
  8
0
  6
Continuous
 62
     7
370
    15
100
AcDbSpline
210
0.0
220
0.0
230
1.0
 70
     8
 71
     3
 72
     8
 73
     4
 74
     0
 42
0.000000001
 43
0.00000001
 40
0.0
 40
0.0
 40
0.0
 40
0.0
 40
1.0
 40
1.0
 40
1.0
 40
1.0
 10
166.219440866319
 20
168.6243058807652
 30
0.0
 10
165.8659462522515
 20
167.9890920370886
 30
0.0
 10
165.5128451851029
 20
167.3536636985115
 30
0.0
 10
165.1601872112991
 20
166.7179938607424
 30
0.0
  0
SPLINE
  5
A2
330
1F
100
AcDbEntity
  8
0
  6
Continuous
 62
     7
370
    15
100
AcDbSpline
210
0.0
220
0.0
230
1.0
 70
     8
 71
     3
 72
     8
 73
     4
 74
     0
 42
0.000000001
 43
0.00000001
 40
0.0
 40
0.0
 40
0.0
 40
0.0
 40
0.0012377667921472
 40
0.0012377667921472
 40
0.0012377667921472
 40
0.0012377667921472
 10
166.7763539803748
 20
169.4059433974989
 30
0.0
 10
166.5902621809971
 20
169.1455595770016
 30
0.0
 10
166.4046145247816
 20
168.8850167761642
 30
0.0
 10
166.2194408663187
 20
168.6243058807641
 30
0.0
  0
LINE
  5
A3
330
1F
100
AcDbEntity
  8
0
  6
Continuous
 62
     7
370
    15
100
AcDbLine
 10
166.7763539804
 20
74.8819555549
 30
0.0
 11
166.7763539804
 21
169.4059433975
 31
0.0
  0
SPLINE
  5
A4
330
1F
100
AcDbEntity
  8
0
  6
Continuous
 62
     7
370
    15
100
AcDbSpline
210
0.0
220
0.0
230
1.0
 70
     8
 71
     3
 72
     8
 73
     4
 74
     0
 42
0.000000001
 43
0.00000001
 40
0.0
 40
0.0
 40
0.0
 40
0.0
 40
0.0011891741919631
 40
0.0011891741919631
 40
0.0011891741919631
 40
0.0011891741919631
 10
166.322195336378
 20
75.42921024486924
 30
0.0
 10
166.4725800287244
 20
75.24658673216375
 30
0.0
 10
166.6239855541014
 20
75.0641709100369
 30
0.0
 10
166.7763539803748
 20
74.88195555491706
 30
0.0
  0
SPLINE
  5
A5
330
1F
100
AcDbEntity
  8
0
  6
Continuous
 62
     7
370
    15
100
AcDbSpline
210
0.0
220
0.0
230
1.0
 70
     8
 71
     3
 72
     8
 73
     4
 74
     0
 42
0.000000001
 43
0.00000001
 40
0.0
 40
0.0
 40
0.0
 40
0.0
 40
1.0
 40
1.0
 40
1.0
 40
1.0
 10
166.322195336378
 20
75.42921024486924
 30
0.0
 10
165.9343731318242
 20
76.12591410909003
 30
0.0
 10
165.5470156015849
 20
76.82287911920473
 30
0.0
 10
165.1601872112991
 20
77.52014150475395
 30
0.0
  0
LINE
  5
A6
330
1F
100
AcDbEntity
  8
0
  6
Continuous
 62
     7
370
    15
100
AcDbLine
 10
170.6001872113
 20
169.4059433975
 30
0.0
 11
166.7763539804
 21
169.4059433975
 31
0.0
  0
LINE
  5
A7
330
1F
100
AcDbEntity
  8
0
  6
Continuous
 62
     7
370
    15
100
AcDbLine
 10
166.7763539804
 20
74.8819555549
 30
0.0
 11
170.6001872113
 21
74.8819555549
 31
0.0
  0
LINE
  5
A8
330
1F
100
AcDbEntity
  8
0
  6
Continuous
 62
     7
370
    15
100
AcDbLine
 10
155.3251872113
 20
75.5212924542
 30
0.0
 11
155.3251872113
 21
168.7168429113
 31
0.0
  0
SPLINE
  5
A9
330
1F
100
AcDbEntity
  8
0
  6
Continuous
 62
     7
370
    15
100
AcDbSpline
210
0.0
220
0.0
230
1.0
 70
     8
 71
     3
 72
    10
 73
     6
 74
     0
 42
0.000000001
 43
0.00000001
 40
0.0
 40
0.0
 40
0.0
 40
0.0
 40
0.5
 40
0.5
 40
1.0
 40
1.0
 40
1.0
 40
1.0
 10
155.6139033899702
 20
169.3355897020907
 30
0.0
 10
155.5377539662737
 20
169.2656374935401
 30
0.0
 10
155.4691218831775
 20
169.1788786888144
 30
0.0
 10
155.3630422032244
 20
168.9705509914917
 30
0.0
 10
155.3251872112991
 20
168.8456690806071
 30
0.0
 10
155.3251872112991
 20
168.7168429112931
 30
0.0
  0
SPLINE
  5
AA
330
1F
100
AcDbEntity
  8
0
  6
Continuous
 62
     7
370
    15
100
AcDbSpline
210
0.0
220
0.0
230
1.0
 70
     8
 71
     3
 72
     8
 73
     4
 74
     0
 42
0.000000001
 43
0.00000001
 40
0.0
 40
0.0
 40
0.0
 40
0.0
 40
1.0
 40
1.0
 40
1.0
 40
1.0
 10
155.9251872112991
 20
169.4059433974989
 30
0.0
 10
155.8136109030893
 20
169.4059433974989
 30
0.0
 10
155.7055027421674
 20
169.3805208954264
 30
0.0
 10
155.6139033899702
 20
169.3355897020907
 30
0.0
  0
SPLINE
  5
AB
330
1F
100
AcDbEntity
  8
0
  6
Continuous
 62
     7
370
    15
100
AcDbSpline
210
0.0
220
0.0
230
1.0
 70
     8
 71
     3
 72
    10
 73
     6
 74
     0
 42
0.000000001
 43
0.00000001
 40
0.0
 40
0.0
 40
0.0
 40
0.0
 40
0.5
 40
0.5
 40
1.0
 40
1.0
 40
1.0
 40
1.0
 10
155.540309440564
 20
74.9785430465738
 30
0.0
 10
155.5889809279356
 20
74.95036970108148
 30
0.0
 10
155.6464228172369
 20
74.92623280214653
 30
0.0
 10
155.7773151768711
 20
74.89183075410189
 30
0.0
 10
155.8501923358948
 20
74.88195555491703
 30
0.0
 10
155.9251872112991
 20
74.88195555491704
 30
0.0
  0
SPLINE
  5
AC
330
1F
100
AcDbEntity
  8
0
  6
Continuous
 62
     7
370
    15
100
AcDbSpline
210
0.0
220
0.0
230
1.0
 70
     8
 71
     3
 72
    10
 73
     6
 74
     0
 42
0.000000001
 43
0.00000001
 40
0.0
 40
0.0
 40
0.0
 40
0.0
 40
0.5
 40
0.5
 40
1.0
 40
1.0
 40
1.0
 40
1.0
 10
155.540309440564
 20
74.97854304657379
 30
0.0
 10
155.482257276097
 20
75.04586451898487
 30
0.0
 10
155.4299309058863
 20
75.12606109548767
 30
0.0
 10
155.3517720303835
 20
75.30852690852993
 30
0.0
 10
155.3251872112997
 20
75.41411330461722
 30
0.0
 10
155.3251872112991
 20
75.52129245419906
 30
0.0
  0
LINE
  5
AD
330
1F
100
AcDbEntity
  8
0
  6
Continuous
 62
     7
370
    15
100
AcDbLine
 10
159.7240204422
 20
169.4059433975
 30
0.0
 11
155.9251872113
 21
169.4059433975
 31
0.0
  0
LINE
  5
AE
330
1F
100
AcDbEntity
  8
0
  6
Continuous
 62
     7
370
    15
100
AcDbLine
 10
159.7240204422
 20
74.8819555549
 30
0.0
 11
159.7240204422
 21
169.4059433975
 31
0.0
  0
LINE
  5
AF
330
1F
100
AcDbEntity
  8
0
  6
Continuous
 62
     7
370
    15
100
AcDbLine
 10
155.9251872113
 20
74.8819555549
 30
0.0
 11
159.7240204422
 21
74.8819555549
 31
0.0
  0
SPLINE
  5
B0
330
1F
100
AcDbEntity
  8
0
  6
Continuous
 62
     7
370
    15
100
AcDbSpline
210
0.0
220
0.0
230
1.0
 70
     8
 71
     3
 72
    12
 73
     8
 74
     0
 42
0.000000001
 43
0.00000001
 40
0.0
 40
0.0
 40
0.0
 40
0.0
 40
0.5000000000000014
 40
0.5000000000000014
 40
0.7500000000000007
 40
0.7500000000000007
 40
1.0
 40
1.0
 40
1.0
 40
1.0
 10
171.2001872112991
 20
168.9203220898677
 30
0.0
 10
171.2001872112991
 20
169.0406197161996
 30
0.0
 10
171.146295019823
 20
169.1586568863811
 30
0.0
 10
170.9853400949619
 20
169.2982537559224
 30
0.0
 10
170.920621466735
 20
169.3365062240015
 30
0.0
 10
170.7684348088343
 20
169.3913419259067
 30
0.0
 10
170.6856667712481
 20
169.4059433974989
 30
0.0
 10
170.6001872112991
 20
169.4059433974989
 30
0.0
  0
LINE
  5
B1
330
1F
100
AcDbEntity
  8
0
  6
Continuous
 62
     7
370
    15
100
AcDbLine
 10
171.2001872113
 20
75.2986089687
 30
0.0
 11
171.2001872113
 21
168.9203220899
 31
0.0
  0
SPLINE
  5
B2
330
1F
100
AcDbEntity
  8
0
  6
Continuous
 62
     7
370
    15
100
AcDbSpline
210
0.0
220
0.0
230
1.0
 70
     8
 71
     3
 72
    12
 73
     8
 74
     0
 42
0.000000001
 43
0.00000001
 40
0.0
 40
0.0
 40
0.0
 40
0.0
 40
0.2499999999999988
 40
0.2499999999999988
 40
0.4999999999999976
 40
0.4999999999999976
 40
1.0
 40
1.0
 40
1.0
 40
1.0
 10
170.6001872112991
 20
74.88195555491706
 30
0.0
 10
170.6961680536991
 20
74.88195555491704
 30
0.0
 10
170.7886012716372
 20
74.89831200286758
 30
0.0
 10
170.945033229073
 20
74.95195268194676
 30
0.0
 10
171.0085080049034
 20
74.9882592531271
 30
0.0
 10
171.1567762600284
 20
75.1095475091863
 30
0.0
 10
171.2001872112991
 20
75.20384990607937
 30
0.0
 10
171.2001872112991
 20
75.29860896867572
 30
0.0
  0
SPLINE
  5
B3
330
1F
100
AcDbEntity
  8
0
  6
Continuous
 62
     7
370
    15
100
AcDbSpline
210
0.0
220
0.0
230
1.0
 70
     8
 71
     3
 72
     8
 73
     4
 74
     0
 42
0.000000001
 43
0.00000001
 40
0.0
 40
0.0
 40
0.0
 40
0.0
 40
0.0012377667921509
 40
0.0012377667921509
 40
0.0012377667921509
 40
0.0012377667921509
 10
160.2809335562812
 20
168.6243058807617
 30
0.0
 10
160.0957598978178
 20
168.8850167761626
 30
0.0
 10
159.9101122416017
 20
169.1455595770008
 30
0.0
 10
159.7240204422235
 20
169.4059433974989
 30
0.0
  0
SPLINE
  5
B4
330
1F
100
AcDbEntity
  8
0
  6
Continuous
 62
     7
370
    15
100
AcDbSpline
210
0.0
220
0.0
230
1.0
 70
     8
 71
     3
 72
     8
 73
     4
 74
     0
 42
0.000000001
 43
0.00000001
 40
0.0
 40
0.0
 40
0.0
 40
0.0
 40
1.0
 40
1.0
 40
1.0
 40
1.0
 10
161.3401872112991
 20
166.7179938607424
 30
0.0
 10
160.9875292374959
 20
167.3536636985103
 30
0.0
 10
160.6344281703481
 20
167.9890920370863
 30
0.0
 10
160.2809335562812
 20
168.6243058807617
 30
0.0
  0
LINE
  5
B5
330
1F
100
AcDbEntity
  8
0
  6
Continuous
 62
     7
370
    15
100
AcDbLine
 10
161.3401872113
 20
77.5201415048
 30
0.0
 11
161.3401872113
 21
166.7179938607
 31
0.0
  0
SPLINE
  5
B6
330
1F
100
AcDbEntity
  8
0
  6
Continuous
 62
     7
370
    15
100
AcDbSpline
210
0.0
220
0.0
230
1.0
 70
     8
 71
     3
 72
     8
 73
     4
 74
     0
 42
0.000000001
 43
0.00000001
 40
0.0
 40
0.0
 40
0.0
 40
0.0
 40
1.0
 40
1.0
 40
1.0
 40
1.0
 10
161.3401872112991
 20
77.52014150475394
 30
0.0
 10
160.9533588210134
 20
76.82287911920471
 30
0.0
 10
160.566001290774
 20
76.12591410909003
 30
0.0
 10
160.1781790862202
 20
75.42921024486924
 30
0.0
  0
SPLINE
  5
B7
330
1F
100
AcDbEntity
  8
0
  6
Continuous
 62
     7
370
    15
100
AcDbSpline
210
0.0
220
0.0
230
1.0
 70
     8
 71
     3
 72
     8
 73
     4
 74
     0
 42
0.000000001
 43
0.00000001
 40
0.0
 40
0.0
 40
0.0
 40
0.0
 40
0.0011891741919631
 40
0.0011891741919631
 40
0.0011891741919631
 40
0.0011891741919631
 10
159.7240204422235
 20
74.88195555491706
 30
0.0
 10
159.8763888684969
 20
75.0641709100369
 30
0.0
 10
160.0277943938738
 20
75.24658673216375
 30
0.0
 10
160.1781790862202
 20
75.42921024486924
 30
0.0
  0
SPLINE
  5
B8
330
1F
100
AcDbEntity
  8
0
  6
Continuous
 62
     7
370
    15
100
AcDbSpline
210
0.0
220
0.0
230
1.0
 70
     8
 71
     3
 72
    12
 73
     8
 74
     0
 42
0.000000001
 43
0.00000001
 40
0.0
 40
0.0
 40
0.0
 40
0.0
 40
0.4999999999999928
 40
0.4999999999999928
 40
0.7499999999999963
 40
0.7499999999999963
 40
1.0
 40
1.0
 40
1.0
 40
1.0
 10
162.1401872112991
 20
78.47130141687839
 30
0.0
 10
161.9260122448249
 20
78.47130141687839
 30
0.0
 10
161.7155124322055
 20
78.37734544426142
 30
0.0
 10
161.4947693368944
 20
78.14225373631575
 30
0.0
 10
161.4376222041741
 20
78.05062157160819
 30
0.0
 10
161.360047780527
 20
77.85141219768765
 30
0.0
 10
161.3401872112992
 20
77.74445283733408
 30
0.0
 10
161.3401872112991
 20
77.63797619434213
 30
0.0
  0
SPLINE
  5
B9
330
1F
100
AcDbEntity
  8
0
  6
Continuous
 62
     7
370
    15
100
AcDbSpline
210
0.0
220
0.0
230
1.0
 70
     8
 71
     3
 72
    12
 73
     8
 74
     0
 42
0.000000001
 43
0.00000001
 40
0.0
 40
0.0
 40
0.0
 40
0.0
 40
0.25
 40
0.25
 40
0.5
 40
0.5
 40
1.0
 40
1.0
 40
1.0
 40
1.0
 10
162.1401872112991
 20
165.7668339486179
 30
0.0
 10
162.0323823840504
 20
165.7668339486179
 30
0.0
 10
161.926169345991
 20
165.7896314885076
 30
0.0
 10
161.7304519329987
 20
165.8759922031648
 30
0.0
 10
161.6415171048016
 20
165.9396596922962
 30
0.0
 10
161.4227148378027
 20
166.1724907952883
 30
0.0
 10
161.3401872112991
 20
166.3867236965692
 30
0.0
 10
161.3401872112991
 20
166.6001591711549
 30
0.0
  0
SPLINE
  5
BA
330
1F
100
AcDbEntity
  8
0
  6
Continuous
 62
     7
370
    15
100
AcDbSpline
210
0.0
220
0.0
230
1.0
 70
     8
 71
     3
 72
    14
 73
    10
 74
     0
 42
0.000000001
 43
0.00000001
 40
0.0
 40
0.0
 40
0.0
 40
0.0
 40
0.25
 40
0.25
 40
0.5
 40
0.5
 40
0.75
 40
0.75
 40
1.0
 40
1.0
 40
1.0
 40
1.0
 10
165.1601872112991
 20
77.63797619434155
 30
0.0
 10
165.1601872112991
 20
77.74537969383931
 30
0.0
 10
165.1402742804423
 20
77.8516318080362
 30
0.0
 10
165.0626252361951
 20
78.05086231528921
 30
0.0
 10
165.0048457281612
 20
78.14310012993492
 30
0.0
 10
164.8589306593366
 20
78.29842446033508
 30
0.0
 10
164.7702670914231
 20
78.36198680077416
 30
0.0
 10
164.5739130460951
 20
78.44863704019319
 30
0.0
 10
164.4681229560737
 20
78.47130141687838
 30
0.0
 10
164.3601872112991
 20
78.47130141687839
 30
0.0
  0
SPLINE
  5
BB
330
1F
100
AcDbEntity
  8
0
  6
Continuous
 62
     7
370
    15
100
AcDbSpline
210
0.0
220
0.0
230
1.0
 70
     8
 71
     3
 72
    14
 73
    10
 74
     0
 42
0.000000001
 43
0.00000001
 40
0.0
 40
0.0
 40
0.0
 40
0.0
 40
0.25
 40
0.25
 40
0.5
 40
0.5
 40
0.75
 40
0.75
 40
1.0
 40
1.0
 40
1.0
 40
1.0
 10
165.1601872112991
 20
166.6001591711548
 30
0.0
 10
165.1601872112991
 20
166.4928167990073
 30
0.0
 10
165.1401910192349
 20
166.3861877921595
 30
0.0
 10
165.0624929348903
 20
166.1870360130083
 30
0.0
 10
165.0044997899967
 20
166.0945531146929
 30
0.0
 10
164.8584532971739
 20
165.9393172795837
 30
0.0
 10
164.7691155580061
 20
165.8755833379713
 30
0.0
 10
164.5743605459457
 20
165.7897530715761
 30
0.0
 10
164.4668302747369
 20
165.7668339486176
 30
0.0
 10
164.360187211297
 20
165.7668339486179
 30
0.0
  0
LINE
  5
BC
330
1F
100
AcDbEntity
  8
0
  6
Continuous
 62
     7
370
    15
100
AcDbLine
 10
164.3601872113
 20
78.4713014169
 30
0.0
 11
162.1401872113
 21
78.4713014169
 31
0.0
  0
LINE
  5
BD
330
1F
100
AcDbEntity
  8
0
  6
Continuous
 62
     7
370
    15
100
AcDbLine
 10
164.3601872113
 20
165.7668339486
 30
0.0
 11
162.1401872113
 21
165.7668339486
 31
0.0
  0
LINE
  5
BE
330
1F
100
AcDbEntity
  8
0
  6
Continuous
 62
     7
370
    15
100
AcDbLine
 10
152.1501872113
 20
87.1940676827
 30
0.0
 11
152.1501872113
 21
157.0440676827
 31
0.0
  0
LINE
  5
BF
330
1F
100
AcDbEntity
  8
0
  6
Continuous
 62
     7
370
    15
100
AcDbLine
 10
187.1501872113
 20
88.1940676827
 30
0.0
 11
187.1501872113
 21
156.0440676827
 31
0.0
  0
LINE
  5
C0
330
1F
100
AcDbEntity
  8
0
  6
Continuous
 62
     7
370
    15
100
AcDbLine
 10
237.1501872113
 20
122.1190676827
 30
0.0
 11
237.1501872113
 21
90.7190676827
 31
0.0
  0
LINE
  5
C1
330
1F
100
AcDbEntity
  8
0
  6
Continuous
 62
     7
370
    15
100
AcDbLine
 10
237.1501872113
 20
153.5190676827
 30
0.0
 11
237.1501872113
 21
122.1190676827
 31
0.0
  0
LINE
  5
C2
330
1F
100
AcDbEntity
  8
0
  6
Continuous
 62
     7
370
    15
100
AcDbLine
 10
236.5501872113
 20
122.1190676827
 30
0.0
 11
236.5501872113
 21
90.1190676827
 31
0.0
  0
LINE
  5
C3
330
1F
100
AcDbEntity
  8
0
  6
Continuous
 62
     7
370
    15
100
AcDbLine
 10
236.5501872113
 20
154.1190676827
 30
0.0
 11
236.5501872113
 21
122.1190676827
 31
0.0
  0
SPLINE
  5
C4
330
1F
100
AcDbEntity
  8
0
  6
Continuous
 62
     7
370
    15
100
AcDbSpline
210
0.0
220
0.0
230
1.0
 70
    11
 71
     3
 72
    94
 73
    90
 74
     0
 42
0.000000001
 43
0.00000001
 40
0.0
 40
0.0
 40
0.0
 40
0.0
 40
0.0312500000000017
 40
0.0312500000000017
 40
0.0625000000000034
 40
0.0625000000000034
 40
0.0937500000000051
 40
0.0937500000000051
 40
0.109375000000006
 40
0.109375000000006
 40
0.1250000000000069
 40
0.1250000000000069
 40
0.1562500000000076
 40
0.1562500000000076
 40
0.171875000000008
 40
0.171875000000008
 40
0.1875000000000084
 40
0.1875000000000084
 40
0.2187500000000092
 40
0.2187500000000092
 40
0.23437500000001
 40
0.23437500000001
 40
0.2500000000000108
 40
0.2500000000000108
 40
0.2812500000000117
 40
0.2812500000000117
 40
0.3125000000000127
 40
0.3125000000000127
 40
0.3281250000000129
 40
0.3281250000000129
 40
0.3437500000000132
 40
0.3437500000000132
 40
0.3750000000000137
 40
0.3750000000000137
 40
0.3906250000000139
 40
0.3906250000000139
 40
0.4062500000000142
 40
0.4062500000000142
 40
0.4218750000000144
 40
0.4218750000000144
 40
0.4375000000000147
 40
0.4375000000000147
 40
0.4687500000000152
 40
0.4687500000000152
 40
0.4843750000000154
 40
0.4843750000000154
 40
0.5000000000000157
 40
0.5000000000000157
 40
0.5312500000000153
 40
0.5312500000000153
 40
0.5625000000000151
 40
0.5625000000000151
 40
0.5781250000000145
 40
0.5781250000000145
 40
0.5937500000000139
 40
0.5937500000000139
 40
0.6250000000000128
 40
0.6250000000000128
 40
0.6562500000000115
 40
0.6562500000000115
 40
0.6875000000000104
 40
0.6875000000000104
 40
0.7187500000000092
 40
0.7187500000000092
 40
0.750000000000008
 40
0.750000000000008
 40
0.7812500000000069
 40
0.7812500000000069
 40
0.8125000000000057
 40
0.8125000000000057
 40
0.8281250000000052
 40
0.8281250000000052
 40
0.8437500000000048
 40
0.8437500000000048
 40
0.8593750000000043
 40
0.8593750000000043
 40
0.8750000000000038
 40
0.8750000000000038
 40
0.9062500000000029
 40
0.9062500000000029
 40
0.9218750000000023
 40
0.9218750000000023
 40
0.9375000000000019
 40
0.9375000000000019
 40
0.9531250000000014
 40
0.9531250000000014
 40
0.968750000000001
 40
0.968750000000001
 40
1.0
 40
1.0
 40
1.0
 40
1.0
 10
216.2109331591503
 20
126.9615746677888
 30
0.0
 10
216.5611780069466
 20
127.2520148995689
 30
0.0
 10
216.934524220392
 20
127.5052671530359
 30
0.0
 10
217.7244972016185
 20
127.9428773031255
 30
0.0
 10
218.1442854181413
 20
128.1276871371248
 30
0.0
 10
218.9990776908705
 20
128.417521446748
 30
0.0
 10
219.4366992696069
 20
128.5245393660939
 30
0.0
 10
220.1084191342203
 20
128.6287478523618
 30
0.0
 10
220.3360020252013
 20
128.6540786312774
 30
0.0
 10
220.7897253432181
 20
128.6848420848528
 30
0.0
 10
221.0159043751862
 20
128.6904053572958
 30
0.0
 10
221.6924443042608
 20
128.6783788179407
 30
0.0
 10
222.1408243939833
 20
128.6323189701696
 30
0.0
 10
222.8093285444785
 20
128.5046236806188
 30
0.0
 10
223.0322446488041
 20
128.4519310044083
 30
0.0
 10
223.4682531731308
 20
128.3285188739421
 30
0.0
 10
223.6822660553773
 20
128.2576938423188
 30
0.0
 10
224.31249009609
 20
128.0181227811441
 30
0.0
 10
224.7170025868542
 20
127.8225564293876
 30
0.0
 10
225.2989954621404
 20
127.4718384486623
 30
0.0
 10
225.4888438670137
 20
127.34511035192
 30
0.0
 10
225.8517050259673
 20
127.0774285791672
 30
0.0
 10
226.0258170888553
 20
126.9358607123198
 30
0.0
 10
226.5261265460534
 20
126.4877718154805
 30
0.0
 10
226.8305685727341
 20
126.1581579447843
 30
0.0
 10
227.3751321809036
 20
125.4299135438873
 30
0.0
 10
227.6069176413841
 20
125.041607774592
 30
0.0
 10
227.8880992191998
 20
124.4302206554914
 30
0.0
 10
227.970972062409
 20
124.2211571384001
 30
0.0
 10
228.1139486812831
 20
123.7919452262813
 30
0.0
 10
228.1743273701732
 20
123.5701562620714
 30
0.0
 10
228.3155137875717
 20
122.9026545297478
 30
0.0
 10
228.358056664112
 20
122.4537560738473
 30
0.0
 10
228.3444821575112
 20
121.7745517784995
 30
0.0
 10
228.3267231921357
 20
121.5456831439724
 30
0.0
 10
228.2651498094844
 20
121.0937069422979
 30
0.0
 10
228.2216474136034
 20
120.8713449025902
 30
0.0
 10
228.1102647013732
 20
120.4335611124407
 30
0.0
 10
228.0423812323841
 20
120.2181402731763
 30
0.0
 10
227.8824767926139
 20
119.7941528981749
 30
0.0
 10
227.7897973220232
 20
119.5844183873058
 30
0.0
 10
227.4809087933935
 20
118.9769962302396
 30
0.0
 10
227.2344600059542
 20
118.5995941322015
 30
0.0
 10
226.8079966830057
 20
118.0717433485286
 30
0.0
 10
226.6554708966781
 20
117.9014717825122
 30
0.0
 10
226.3367985326661
 20
117.5793717923572
 30
0.0
 10
226.1704426467765
 20
117.4270913975549
 30
0.0
 10
225.6512386682009
 20
116.9952646495818
 30
0.0
 10
225.2766216656524
 20
116.7395095911968
 30
0.0
 10
224.4818356099785
 20
116.2978983267631
 30
0.0
 10
224.0692931109594
 20
116.1158300881
 30
0.0
 10
223.4289111552754
 20
115.8973601315648
 30
0.0
 10
223.2118295019262
 20
115.8337114244883
 30
0.0
 10
222.7703192550796
 20
115.724963856471
 30
0.0
 10
222.5456717743085
 20
115.6799463665405
 30
0.0
 10
221.8734360227406
 20
115.5751521571759
 30
0.0
 10
221.4233517252246
 20
115.5441995286798
 30
0.0
 10
220.5193842045632
 20
115.5588563185248
 30
0.0
 10
220.0614112990895
 20
115.605646874262
 30
0.0
 10
219.1725742088457
 20
115.775058653439
 30
0.0
 10
218.739329617336
 20
115.8969818639551
 30
0.0
 10
217.8954144212042
 20
116.2165294382895
 30
0.0
 10
217.4818016267694
 20
116.4165922217509
 30
0.0
 10
216.7105632925158
 20
116.881218500174
 30
0.0
 10
216.3492220115622
 20
117.1464874873032
 30
0.0
 10
215.6774281919832
 20
117.7468791427716
 30
0.0
 10
215.3661882214793
 20
118.0847618199299
 30
0.0
 10
214.82829606282
 20
118.8041914573629
 30
0.0
 10
214.5972944186082
 20
119.1888252627038
 30
0.0
 10
214.3126614296172
 20
119.8067577864616
 30
0.0
 10
214.2280352126675
 20
120.0205735178452
 30
0.0
 10
214.0850362254325
 20
120.4508801706743
 30
0.0
 10
214.0259671642041
 20
120.6686344985716
 30
0.0
 10
213.9326333755121
 20
121.109344846381
 30
0.0
 10
213.8983671338406
 20
121.3323005366295
 30
0.0
 10
213.8553724604867
 20
121.7835743138872
 30
0.0
 10
213.8467288441326
 20
122.0135333829208
 30
0.0
 10
213.8609142322481
 20
122.6977232370666
 30
0.0
 10
213.9224631212164
 20
123.1455673361142
 30
0.0
 10
214.0902980871671
 20
123.8053550432463
 30
0.0
 10
214.1594917154922
 20
124.0245669890429
 30
0.0
 10
214.3204808033036
 20
124.4502178233591
 30
0.0
 10
214.412195672833
 20
124.6570852679734
 30
0.0
 10
214.6170217103636
 20
125.0594981844886
 30
0.0
 10
214.7301362666046
 20
125.2550417973861
 30
0.0
 10
214.9774469073948
 20
125.6350202765806
 30
0.0
 10
215.1122744005669
 20
125.8201136089681
 30
0.0
 10
215.5409085634201
 20
126.3493791312777
 30
0.0
 10
215.8606883113541
 20
126.6711344360088
 30
0.0
 10
216.2109331591503
 20
126.9615746677889
 30
0.0
  0
LINE
  5
C5
330
1F
100
AcDbEntity
  8
0
  6
Continuous
 62
     7
370
    15
100
AcDbLine
 10
50.5501872113
 20
103.7402231554
 30
0.0
 11
50.5501872113
 21
140.4979122099
 31
0.0
  0
CIRCLE
  5
C6
330
1F
100
AcDbEntity
  8
0
  6
HIDDEN
 62
     7
370
     0
100
AcDbCircle
 10
221.1001872113
 20
122.1190676827
 30
0.0
 40
4.080384757729348
  0
CIRCLE
  5
C7
330
1F
100
AcDbEntity
  8
0
  6
HIDDEN
 62
     7
370
     0
100
AcDbCircle
 10
221.1001872113
 20
122.1190676827
 30
0.0
 40
3.780384757729337
  0
SPLINE
  5
C8
330
1F
100
AcDbEntity
  8
0
  6
HIDDEN
 62
     7
370
     0
100
AcDbSpline
210
0.0
220
0.0
230
1.0
 70
     8
 71
     3
 72
    18
 73
    14
 74
     0
 42
0.000000001
 43
0.00000001
 40
0.0
 40
0.0
 40
0.0
 40
0.0
 40
0.2500000000000059
 40
0.2500000000000059
 40
0.5000000000000118
 40
0.5000000000000118
 40
0.6250000000000088
 40
0.6250000000000088
 40
0.7500000000000059
 40
0.7500000000000059
 40
0.8750000000000029
 40
0.8750000000000029
 40
1.0
 40
1.0
 40
1.0
 40
1.0
 10
237.1501872112991
 20
139.1167689268628
 30
0.0
 10
237.1501872112992
 20
139.0214492618451
 30
0.0
 10
237.1449291481361
 20
138.9244198756774
 30
0.0
 10
237.1174241582691
 20
138.7248357351527
 30
0.0
 10
237.0949406647956
 20
138.6198315654499
 30
0.0
 10
237.0366423126757
 20
138.4678228168657
 30
0.0
 10
237.0123155189683
 20
138.4167709166919
 30
0.0
 10
236.9534721597854
 20
138.3242200256134
 30
0.0
 10
236.9183494393326
 20
138.2823980489799
 30
0.0
 10
236.8433707673406
 20
138.2179257923752
 30
0.0
 10
236.8033839496863
 20
138.19476790662
 30
0.0
 10
236.7247761051386
 20
138.164781060822
 30
0.0
 10
236.6869267621353
 20
138.1577431043358
 30
0.0
 10
236.6501476312847
 20
138.1554837973595
 30
0.0
  0
SPLINE
  5
C9
330
1F
100
AcDbEntity
  8
0
  6
HIDDEN
 62
     7
370
     0
100
AcDbSpline
210
0.0
220
0.0
230
1.0
 70
     8
 71
     3
 72
    10
 73
     6
 74
     0
 42
0.000000001
 43
0.00000001
 40
0.0
 40
0.0
 40
0.0
 40
0.0
 40
0.5
 40
0.5
 40
1.0
 40
1.0
 40
1.0
 40
1.0
 10
236.6501476312848
 20
138.1554837973598
 30
0.0
 10
236.585326173552
 20
138.0946161929853
 30
0.0
 10
236.5104827772497
 20
138.039644361365
 30
0.0
 10
236.3418721213984
 20
137.9598193531067
 30
0.0
 10
236.2475815693627
 20
137.9355125790796
 30
0.0
 10
236.1501872112991
 20
137.9355125790796
 30
0.0
  0
SPLINE
  5
CA
330
1F
100
AcDbEntity
  8
0
  6
HIDDEN
 62
     7
370
     0
100
AcDbSpline
210
0.0
220
0.0
230
1.0
 70
     8
 71
     3
 72
    10
 73
     6
 74
     0
 42
0.000000001
 43
0.00000001
 40
0.0
 40
0.0
 40
0.0
 40
0.0
 40
0.5
 40
0.5
 40
1.0
 40
1.0
 40
1.0
 40
1.0
 10
236.6501374049943
 20
106.0826611705367
 30
0.0
 10
236.5853167188276
 20
106.1435264406186
 30
0.0
 10
236.5104744361701
 20
106.1984959828686
 30
0.0
 10
236.3418671624493
 20
106.2783173301775
 30
0.0
 10
236.2475790085444
 20
106.3026227864168
 30
0.0
 10
236.1501872112991
 20
106.3026227864168
 30
0.0
  0
SPLINE
  5
CB
330
1F
100
AcDbEntity
  8
0
  6
HIDDEN
 62
     7
370
     0
100
AcDbSpline
210
0.0
220
0.0
230
1.0
 70
     8
 71
     3
 72
    18
 73
    14
 74
     0
 42
0.000000001
 43
0.00000001
 40
0.0
 40
0.0
 40
0.0
 40
0.0
 40
0.124999999999999
 40
0.124999999999999
 40
0.249999999999998
 40
0.249999999999998
 40
0.374999999999997
 40
0.374999999999997
 40
0.499999999999996
 40
0.499999999999996
 40
0.749999999999998
 40
0.749999999999998
 40
1.0
 40
1.0
 40
1.0
 40
1.0
 10
236.6501374049942
 20
106.0826611705366
 30
0.0
 10
236.6866242850907
 20
106.0804271342498
 30
0.0
 10
236.7248799771191
 20
106.0732836437975
 30
0.0
 10
236.8024270141088
 20
106.0438217630637
 30
0.0
 10
236.8423744293164
 20
106.0208486819815
 30
0.0
 10
236.9167193395517
 20
105.9574237461208
 30
0.0
 10
236.9518625845529
 20
105.9160337477974
 30
0.0
 10
237.0108455451234
 20
105.8241264725563
 30
0.0
 10
237.0352631676309
 20
105.7734499478186
 30
0.0
 10
237.0943394826899
 20
105.6207989314592
 30
0.0
 10
237.1168283512768
 20
105.5165797298992
 30
0.0
 10
237.144832612747
 20
105.3154384891337
 30
0.0
 10
237.1501872112991
 20
105.2169442304271
 30
0.0
 10
237.1501872112991
 20
105.1213664386335
 30
0.0
  0
LINE
  5
CC
330
1F
100
AcDbEntity
  8
0
  6
HIDDEN
 62
     7
370
     0
100
AcDbLine
 10
196.6501872113
 20
122.1190676827
 30
0.0
 11
196.6501872113
 21
104.6190676827
 31
0.0
  0
LINE
  5
CD
330
1F
100
AcDbEntity
  8
0
  6
HIDDEN
 62
     7
370
     0
100
AcDbLine
 10
196.6501872113
 20
139.6190676827
 30
0.0
 11
196.6501872113
 21
122.1190676827
 31
0.0
  0
LINE
  5
CE
330
1F
100
AcDbEntity
  8
0
  6
HIDDEN
 62
     7
370
     0
100
AcDbLine
 10
201.5162126151
 20
122.1190676827
 30
0.0
 11
201.5162126151
 21
104.1190676827
 31
0.0
  0
LINE
  5
CF
330
1F
100
AcDbEntity
  8
0
  6
HIDDEN
 62
     7
370
     0
100
AcDbLine
 10
201.5162126151
 20
140.1190676827
 30
0.0
 11
201.5162126151
 21
122.1190676827
 31
0.0
  0
LINE
  5
D0
330
1F
100
AcDbEntity
  8
0
  6
HIDDEN
 62
     7
370
     0
100
AcDbLine
 10
220.5501872112
 20
137.9355125791
 30
0.0
 11
236.1501872113
 21
137.9355125791
 31
0.0
  0
LINE
  5
D1
330
1F
100
AcDbEntity
  8
0
  6
HIDDEN
 62
     7
370
     0
100
AcDbLine
 10
220.5501872112
 20
106.3026227864
 30
0.0
 11
236.1501872113
 21
106.3026227864
 31
0.0
  0
LINE
  5
D2
330
1F
100
AcDbEntity
  8
0
  6
HIDDEN
 62
     7
370
     0
100
AcDbLine
 10
192.6501872113
 20
122.1190676827
 30
0.0
 11
192.6501872113
 21
105.5190676827
 31
0.0
  0
LINE
  5
D3
330
1F
100
AcDbEntity
  8
0
  6
HIDDEN
 62
     7
370
     0
100
AcDbLine
 10
192.6501872113
 20
138.7190676827
 30
0.0
 11
192.6501872113
 21
122.1190676827
 31
0.0
  0
LINE
  5
D4
330
1F
100
AcDbEntity
  8
0
  6
HIDDEN
 62
     7
370
     0
100
AcDbLine
 10
191.6501872113
 20
122.1190676827
 30
0.0
 11
191.6501872113
 21
108.1190676827
 31
0.0
  0
LINE
  5
D5
330
1F
100
AcDbEntity
  8
0
  6
HIDDEN
 62
     7
370
     0
100
AcDbLine
 10
191.6501872113
 20
136.1190676827
 30
0.0
 11
191.6501872113
 21
122.1190676827
 31
0.0
  0
LINE
  5
D6
330
1F
100
AcDbEntity
  8
0
  6
HIDDEN
 62
     7
370
     0
100
AcDbLine
 10
158.9227129316
 20
122.1190676827
 30
0.0
 11
158.9227129316
 21
110.9940676827
 31
0.0
  0
LINE
  5
D7
330
1F
100
AcDbEntity
  8
0
  6
HIDDEN
 62
     7
370
     0
100
AcDbLine
 10
158.9227129316
 20
133.2440676827
 30
0.0
 11
158.9227129316
 21
122.1190676827
 31
0.0
  0
LINE
  5
D8
330
1F
100
AcDbEntity
  8
0
  6
HIDDEN
 62
     7
370
     0
100
AcDbLine
 10
160.6501872113
 20
122.1190676827
 30
0.0
 11
160.6501872113
 21
108.1190676827
 31
0.0
  0
LINE
  5
D9
330
1F
100
AcDbEntity
  8
0
  6
HIDDEN
 62
     7
370
     0
100
AcDbLine
 10
160.6501872113
 20
136.1190676827
 30
0.0
 11
160.6501872113
 21
122.1190676827
 31
0.0
  0
LINE
  5
DA
330
1F
100
AcDbEntity
  8
0
  6
HIDDEN
 62
     7
370
     0
100
AcDbLine
 10
155.3251872113
 20
159.6190676827
 30
0.0
 11
155.9938163614
 21
159.6190676827
 31
0.0
  0
ELLIPSE
  5
DB
330
1F
100
AcDbEntity
  8
0
  6
HIDDEN
 62
     7
370
     0
100
AcDbEllipse
 10
155.9938163614
 20
160.4190676827
 30
0.0
 11
0.0
 21
0.7999999999999829
 31
0.0
210
0.0
220
0.0
230
1.0
 40
0.4142135624
 41
3.141592653589793
 42
4.712388980384695
  0
LINE
  5
DC
330
1F
100
AcDbEntity
  8
0
  6
HIDDEN
 62
     7
370
     0
100
AcDbLine
 10
155.9938163614
 20
87.0190676827
 30
0.0
 11
155.3251872113
 21
87.0190676827
 31
0.0
  0
ELLIPSE
  5
DD
330
1F
100
AcDbEntity
  8
0
  6
HIDDEN
 62
     7
370
     0
100
AcDbEllipse
 10
155.9938163614
 20
86.2190676827
 30
0.0
 11
0.0
 21
0.8000000000000114
 31
0.0
210
0.0
220
0.0
230
1.0
 40
0.4142135624
 41
4.712388980384713
 42
6.283185307179586
  0
LINE
  5
DE
330
1F
100
AcDbEntity
  8
0
  6
HIDDEN
 62
     7
370
     0
100
AcDbLine
 10
156.3251872113
 20
75.4292102449
 30
0.0
 11
155.5403094406
 21
74.9785430466
 31
0.0
  0
LINE
  5
DF
330
1F
100
AcDbEntity
  8
0
  6
HIDDEN
 62
     7
370
     0
100
AcDbLine
 10
155.61390339
 20
169.3355897021
 30
0.0
 11
156.3251872113
 21
168.6243058808
 31
0.0
  0
LINE
  5
E0
330
1F
100
AcDbEntity
  8
0
  6
HIDDEN
 62
     7
370
     0
100
AcDbLine
 10
58.0981890199
 20
110.9940676827
 30
0.0
 11
58.0981890199
 21
133.2440676827
 31
0.0
  0
LINE
  5
E1
330
1F
100
AcDbEntity
  8
0
  6
HIDDEN
 62
     7
370
     0
100
AcDbLine
 10
171.2001872113
 20
87.0190676827
 30
0.0
 11
155.9938163614
 21
87.0190676827
 31
0.0
  0
LINE
  5
E2
330
1F
100
AcDbEntity
  8
0
  6
HIDDEN
 62
     7
370
     0
100
AcDbLine
 10
160.1781790862
 20
75.4292102449
 30
0.0
 11
156.3251872113
 21
75.4292102449
 31
0.0
  0
LINE
  5
E3
330
1F
100
AcDbEntity
  8
0
  6
HIDDEN
 62
     7
370
     0
100
AcDbLine
 10
171.2001872113
 20
75.4292102449
 30
0.0
 11
166.3221953364
 21
75.4292102449
 31
0.0
  0
LINE
  5
E4
330
1F
100
AcDbEntity
  8
0
  6
HIDDEN
 62
     7
370
     0
100
AcDbLine
 10
156.3251872113
 20
75.4292102449
 30
0.0
 11
156.3251872113
 21
86.2190676827
 31
0.0
  0
LINE
  5
E5
330
1F
100
AcDbEntity
  8
0
  6
HIDDEN
 62
     7
370
     0
100
AcDbLine
 10
156.3251872113
 20
168.6243058808
 30
0.0
 11
160.2809335563
 21
168.6243058808
 31
0.0
  0
LINE
  5
E6
330
1F
100
AcDbEntity
  8
0
  6
HIDDEN
 62
     7
370
     0
100
AcDbLine
 10
166.2194408663
 20
168.6243058808
 30
0.0
 11
171.2001872113
 21
168.6243058808
 31
0.0
  0
LINE
  5
E7
330
1F
100
AcDbEntity
  8
0
  6
HIDDEN
 62
     7
370
     0
100
AcDbLine
 10
156.3251872113
 20
168.6243058808
 30
0.0
 11
156.3251872113
 21
160.4190676827
 31
0.0
  0
LINE
  5
E8
330
1F
100
AcDbEntity
  8
0
  6
HIDDEN
 62
     7
370
     0
100
AcDbLine
 10
155.9938163614
 20
159.6190676827
 30
0.0
 11
171.2001872113
 21
159.6190676827
 31
0.0
  0
SPLINE
  5
E9
330
1F
100
AcDbEntity
  8
0
  6
HIDDEN
 62
     7
370
     0
100
AcDbSpline
210
0.0
220
0.0
230
1.0
 70
     8
 71
     3
 72
     9
 73
     5
 74
     0
 42
0.000000001
 43
0.00000001
 40
0.0
 40
0.0
 40
0.0
 40
0.0
 40
0.3794529432932747
 40
1.0
 40
1.0
 40
1.0
 40
1.0
 10
236.6501872111855
 20
145.0190676827482
 30
0.0
 10
236.650071566135
 20
145.1346294964919
 30
0.0
 10
236.6497667983043
 20
145.4391779676166
 30
0.0
 10
236.6488787269187
 20
145.7073210989965
 30
0.0
 10
236.6483276368342
 20
145.8737165299505
 30
0.0
  0
SPLINE
  5
EA
330
1F
100
AcDbEntity
  8
0
  6
HIDDEN
 62
     7
370
     0
100
AcDbSpline
210
0.0
220
0.0
230
1.0
 70
     8
 71
     3
 72
    19
 73
    15
 74
     0
 42
0.000000001
 43
0.00000001
 40
0.0
 40
0.0
 40
0.0
 40
0.0
 40
0.0115752053698289
 40
0.0922867432219148
 40
0.1747625053732057
 40
0.2578491255974413
 40
0.3377924573475525
 40
0.5003919716344651
 40
0.5832383784165842
 40
0.6632717637419496
 40
0.7438678777331678
 40
0.826192114509127
 40
0.9091396238122393
 40
1.0
 40
1.0
 40
1.0
 40
1.0
 10
236.5757466415258
 20
147.6163905507401
 30
0.0
 10
236.5754503313112
 20
147.6168185213141
 30
0.0
 10
236.5730879106183
 20
147.6202306431044
 30
0.0
 10
236.5705476631007
 20
147.5918603160699
 30
0.0
 10
236.5690605731631
 20
147.5279989437565
 30
0.0
 10
236.570657627068
 20
147.4237917606118
 30
0.0
 10
236.577411904082
 20
147.2396611805834
 30
0.0
 10
236.5896080505854
 20
146.9863025548866
 30
0.0
 10
236.6024905369689
 20
146.6695887023344
 30
0.0
 10
236.615636612103
 20
146.4026531940723
 30
0.0
 10
236.6354989362968
 20
146.1089267959958
 30
0.0
 10
236.6546656750361
 20
145.7850197051661
 30
0.0
 10
236.667623703993
 20
145.4234022655486
 30
0.0
 10
236.6597171809923
 20
145.1578753813591
 30
0.0
 10
236.6555839412826
 20
145.0190676827482
 30
0.0
  0
SPLINE
  5
EB
330
1F
100
AcDbEntity
  8
0
  6
HIDDEN
 62
     7
370
     0
100
AcDbSpline
210
0.0
220
0.0
230
1.0
 70
     8
 71
     3
 72
    14
 73
    10
 74
     0
 42
0.000000001
 43
0.00000001
 40
0.0
 40
0.0
 40
0.0
 40
0.0
 40
0.25
 40
0.25
 40
0.5
 40
0.5
 40
0.75
 40
0.75
 40
1.0
 40
1.0
 40
1.0
 40
1.0
 10
236.6555839412826
 20
145.0190676827482
 30
0.0
 10
236.6277660005629
 20
144.4472848885399
 30
0.0
 10
236.644865443877
 20
143.8753099400511
 30
0.0
 10
236.6575615255261
 20
142.7313936956321
 30
0.0
 10
236.6564580774782
 20
142.1593952420967
 30
0.0
 10
236.6517106489928
 20
141.015423193453
 30
0.0
 10
236.6489578204832
 20
140.4434377583631
 30
0.0
 10
236.6487988402728
 20
139.2994613885441
 30
0.0
 10
236.6499459992832
 20
138.7274726138096
 30
0.0
 10
236.6501476312847
 20
138.1554837973596
 30
0.0
  0
SPLINE
  5
EC
330
1F
100
AcDbEntity
  8
0
  6
HIDDEN
 62
     7
370
     0
100
AcDbSpline
210
0.0
220
0.0
230
1.0
 70
     8
 71
     3
 72
    14
 73
    10
 74
     0
 42
0.000000001
 43
0.00000001
 40
0.0
 40
0.0
 40
0.0
 40
0.0
 40
0.25
 40
0.25
 40
0.5
 40
0.5
 40
0.75
 40
0.75
 40
1.0
 40
1.0
 40
1.0
 40
1.0
 10
236.6555729672656
 20
99.21906768274815
 30
0.0
 10
236.6278143435276
 20
99.79077545993755
 30
0.0
 10
236.6448225904678
 20
100.3627692538113
 30
0.0
 10
236.6576188579838
 20
101.5066908533267
 30
0.0
 10
236.6564073935148
 20
102.0787031581347
 30
0.0
 10
236.6516216019171
 20
103.2226862789229
 30
0.0
 10
236.6490251579468
 20
103.7946775176363
 30
0.0
 10
236.6487474775666
 20
104.9386688090618
 30
0.0
 10
236.6498885006347
 20
105.5106650278227
 30
0.0
 10
236.6501374049943
 20
106.0826611705366
 30
0.0
  0
SPLINE
  5
ED
330
1F
100
AcDbEntity
  8
0
  6
HIDDEN
 62
     7
370
     0
100
AcDbSpline
210
0.0
220
0.0
230
1.0
 70
     8
 71
     3
 72
     9
 73
     5
 74
     0
 42
0.000000001
 43
0.00000001
 40
0.0
 40
0.0
 40
0.0
 40
0.0
 40
0.9349931520445334
 40
1.0
 40
1.0
 40
1.0
 40
1.0
 10
236.6501872111854
 20
99.21906768274815
 30
0.0
 10
236.6505838636582
 20
98.96822205388905
 30
0.0
 10
236.6510080940088
 20
98.69993599392104
 30
0.0
 10
236.6489878483092
 20
98.48120876959901
 30
0.0
 10
236.6488565185042
 20
98.4669900021838
 30
0.0
  0
SPLINE
  5
EE
330
1F
100
AcDbEntity
  8
0
  6
HIDDEN
 62
     7
370
     0
100
AcDbSpline
210
0.0
220
0.0
230
1.0
 70
     8
 71
     3
 72
    14
 73
    10
 74
     0
 42
0.000000001
 43
0.00000001
 40
0.0
 40
0.0
 40
0.0
 40
0.0
 40
0.1133565651202206
 40
0.2788681641818008
 40
0.4392491959455227
 40
0.6042651017111866
 40
0.7648716028542728
 40
0.9301055077567202
 40
1.0
 40
1.0
 40
1.0
 40
1.0
 10
236.5765297642682
 20
96.63447771073233
 30
0.0
 10
236.5740514688619
 20
96.63819922728979
 30
0.0
 10
236.5679546213652
 20
96.64735451961228
 30
0.0
 10
236.5697866640127
 20
96.83116896877891
 30
0.0
 10
236.5860514263516
 20
97.15833989042211
 30
0.0
 10
236.6025425474697
 20
97.61852712189368
 30
0.0
 10
236.6405410099042
 20
98.20107715260517
 30
0.0
 10
236.6711615750771
 20
98.75226908320474
 30
0.0
 10
236.6591450199399
 20
99.1121030835985
 30
0.0
 10
236.6555729672656
 20
99.21906768274815
 30
0.0
  0
LINE
  5
EF
330
1F
100
AcDbEntity
  8
0
  6
HIDDEN
 62
     7
370
     0
100
AcDbLine
 10
220.5501872112
 20
99.2190676827
 30
0.0
 11
220.5501872112
 21
106.3026227864
 31
0.0
  0
LINE
  5
F0
330
1F
100
AcDbEntity
  8
0
  6
HIDDEN
 62
     7
370
     0
100
AcDbLine
 10
220.5501872112
 20
145.0190676827
 30
0.0
 11
220.5501872112
 21
137.9355125791
 31
0.0
  0
LINE
  5
F1
330
1F
100
AcDbEntity
  8
0
  6
HIDDEN
 62
     7
370
     0
100
AcDbLine
 10
158.5001872113
 20
159.2190676827
 30
0.0
 11
168.0001872113
 21
159.2190676827
 31
0.0
  0
LINE
  5
F2
330
1F
100
AcDbEntity
  8
0
  6
HIDDEN
 62
     7
370
     0
100
AcDbLine
 10
220.5501872112
 20
147.6190676827
 30
0.0
 11
220.5501872112
 21
145.0190676827
 31
0.0
  0
LINE
  5
F3
330
1F
100
AcDbEntity
  8
0
  6
HIDDEN
 62
     7
370
     0
100
AcDbLine
 10
220.5501872112
 20
96.6190676827
 30
0.0
 11
220.5501872112
 21
99.2190676827
 31
0.0
  0
LINE
  5
F4
330
1F
100
AcDbEntity
  8
0
  6
HIDDEN
 62
     7
370
     0
100
AcDbLine
 10
199.5185347137
 20
140.6190676827
 30
0.0
 11
197.6501872113
 21
140.6190676827
 31
0.0
  0
LINE
  5
F5
330
1F
100
AcDbEntity
  8
0
  6
HIDDEN
 62
     7
370
     0
100
AcDbLine
 10
197.6501872113
 20
103.6190676827
 30
0.0
 11
199.5185347137
 21
103.6190676827
 31
0.0
  0
ARC
  5
F6
330
1F
100
AcDbEntity
  8
0
  6
HIDDEN
 62
     7
370
     0
100
AcDbCircle
 10
197.6501872113
 20
139.6190676827
 30
0.0
 40
1.0
100
AcDbArc
 50
90.0
 51
180.0
  0
ARC
  5
F7
330
1F
100
AcDbEntity
  8
0
  6
HIDDEN
 62
     7
370
     0
100
AcDbCircle
 10
197.6501872113
 20
104.6190676827
 30
0.0
 40
1.000000000000014
100
AcDbArc
 50
180.0
 51
270.0
  0
ARC
  5
F8
330
1F
100
AcDbEntity
  8
0
  6
HIDDEN
 62
     7
370
     0
100
AcDbCircle
 10
199.5185347137
 20
139.6190676827
 30
0.0
 40
1.000000000000023
100
AcDbArc
 50
75.0
 51
90.0
  0
ARC
  5
F9
330
1F
100
AcDbEntity
  8
0
  6
HIDDEN
 62
     7
370
     0
100
AcDbCircle
 10
199.5185347137
 20
104.6190676827
 30
0.0
 40
1.000000000000009
100
AcDbArc
 50
270.0
 51
285.0
  0
LINE
  5
FA
330
1F
100
AcDbEntity
  8
0
  6
HIDDEN
 62
     7
370
     0
100
AcDbLine
 10
199.7773537588
 20
103.6531418565
 30
0.0
 11
201.5162126151
 21
104.1190676827
 31
0.0
  0
LINE
  5
FB
330
1F
100
AcDbEntity
  8
0
  6
HIDDEN
 62
     7
370
     0
100
AcDbLine
 10
201.5162126151
 20
140.1190676827
 30
0.0
 11
199.7773537588
 21
140.584993509
 31
0.0
  0
LINE
  5
FC
330
1F
100
AcDbEntity
  8
0
  6
HIDDEN
 62
     7
370
     0
100
AcDbLine
 10
220.5501872112
 20
140.1190676827
 30
0.0
 11
201.5162126151
 21
140.1190676827
 31
0.0
  0
LINE
  5
FD
330
1F
100
AcDbEntity
  8
0
  6
HIDDEN
 62
     7
370
     0
100
AcDbLine
 10
201.5162126151
 20
104.1190676827
 30
0.0
 11
220.5501872112
 21
104.1190676827
 31
0.0
  0
ARC
  5
FE
330
1F
100
AcDbEntity
  8
0
  6
HIDDEN
 62
     7
370
     0
100
AcDbCircle
 10
193.0501872113
 20
138.7190676827
 30
0.0
 40
0.4000000000000057
100
AcDbArc
 50
90.0
 51
180.0
  0
ARC
  5
FF
330
1F
100
AcDbEntity
  8
0
  6
HIDDEN
 62
     7
370
     0
100
AcDbCircle
 10
193.0501872113
 20
105.5190676827
 30
0.0
 40
0.4000000000000057
100
AcDbArc
 50
180.0
 51
270.0
  0
LINE
  5
100
330
1F
100
AcDbEntity
  8
0
  6
HIDDEN
 62
     7
370
     0
100
AcDbLine
 10
196.6501872113
 20
139.1190676827
 30
0.0
 11
193.0501872113
 21
139.1190676827
 31
0.0
  0
LINE
  5
101
330
1F
100
AcDbEntity
  8
0
  6
HIDDEN
 62
     7
370
     0
100
AcDbLine
 10
193.0501872113
 20
105.1190676827
 30
0.0
 11
196.6501872113
 21
105.1190676827
 31
0.0
  0
LINE
  5
102
330
1F
100
AcDbEntity
  8
0
  6
HIDDEN
 62
     7
370
     0
100
AcDbLine
 10
192.6501872113
 20
137.1190676827
 30
0.0
 11
191.6501872113
 21
136.1190676827
 31
0.0
  0
LINE
  5
103
330
1F
100
AcDbEntity
  8
0
  6
HIDDEN
 62
     7
370
     0
100
AcDbLine
 10
191.6501872113
 20
108.1190676827
 30
0.0
 11
192.6501872113
 21
107.1190676827
 31
0.0
  0
ARC
  5
104
330
1F
100
AcDbEntity
  8
0
  6
HIDDEN
 62
     7
370
     0
100
AcDbCircle
 10
51.7501872113
 20
107.7190676827
 30
0.0
 40
1.20000000000001
100
AcDbArc
 50
90.0
 51
180.0
  0
ARC
  5
105
330
1F
100
AcDbEntity
  8
0
  6
HIDDEN
 62
     7
370
     0
100
AcDbCircle
 10
51.7501872113
 20
136.5190676827
 30
0.0
 40
1.200000000000017
100
AcDbArc
 50
180.0
 51
270.0
  0
LINE
  5
106
330
1F
100
AcDbEntity
  8
0
  6
HIDDEN
 62
     7
370
     0
100
AcDbLine
 10
160.6501872113
 20
136.1190676827
 30
0.0
 11
158.9227129316
 21
133.2440676827
 31
0.0
  0
LINE
  5
107
330
1F
100
AcDbEntity
  8
0
  6
HIDDEN
 62
     7
370
     0
100
AcDbLine
 10
158.9227129316
 20
110.9940676827
 30
0.0
 11
160.6501872113
 21
108.1190676827
 31
0.0
  0
LINE
  5
108
330
1F
100
AcDbEntity
  8
0
  6
HIDDEN
 62
     7
370
     0
100
AcDbLine
 10
191.6501872113
 20
136.1190676827
 30
0.0
 11
160.6501872113
 21
136.1190676827
 31
0.0
  0
LINE
  5
109
330
1F
100
AcDbEntity
  8
0
  6
HIDDEN
 62
     7
370
     0
100
AcDbLine
 10
160.6501872113
 20
108.1190676827
 30
0.0
 11
191.6501872113
 21
108.1190676827
 31
0.0
  0
LINE
  5
10A
330
1F
100
AcDbEntity
  8
0
  6
HIDDEN
 62
     7
370
     0
100
AcDbLine
 10
51.7501872113
 20
108.9190676827
 30
0.0
 11
56.6692471036
 21
108.9190676827
 31
0.0
  0
LINE
  5
10B
330
1F
100
AcDbEntity
  8
0
  6
HIDDEN
 62
     7
370
     0
100
AcDbLine
 10
56.6692471036
 20
135.3190676827
 30
0.0
 11
51.7501872113
 21
135.3190676827
 31
0.0
  0
ARC
  5
10C
330
1F
100
AcDbEntity
  8
0
  6
HIDDEN
 62
     7
370
     0
100
AcDbCircle
 10
56.6692471036
 20
109.3190676827
 30
0.0
 40
0.3999999999999865
100
AcDbArc
 50
270.0
 51
330.0
  0
ARC
  5
10D
330
1F
100
AcDbEntity
  8
0
  6
HIDDEN
 62
     7
370
     0
100
AcDbCircle
 10
56.6692471036
 20
134.9190676827
 30
0.0
 40
0.4000000000000007
100
AcDbArc
 50
30.0
 51
90.0
  0
LINE
  5
10E
330
1F
100
AcDbEntity
  8
0
  6
HIDDEN
 62
     7
370
     0
100
AcDbLine
 10
57.0156572651
 20
109.1190676827
 30
0.0
 11
58.0981890199
 21
110.9940676827
 31
0.0
  0
LINE
  5
10F
330
1F
100
AcDbEntity
  8
0
  6
HIDDEN
 62
     7
370
     0
100
AcDbLine
 10
58.0981890199
 20
133.2440676827
 30
0.0
 11
57.0156572651
 21
135.1190676827
 31
0.0
  0
LINE
  5
110
330
1F
100
AcDbEntity
  8
0
  6
HIDDEN
 62
     7
370
     0
100
AcDbLine
 10
58.0981890199
 20
110.9940676827
 30
0.0
 11
158.9227129316
 21
110.9940676827
 31
0.0
  0
LINE
  5
111
330
1F
100
AcDbEntity
  8
0
  6
HIDDEN
 62
     7
370
     0
100
AcDbLine
 10
158.9227129316
 20
133.2440676827
 30
0.0
 11
58.0981890199
 21
133.2440676827
 31
0.0
  0
LINE
  5
112
330
1F
100
AcDbEntity
  8
0
  6
HIDDEN
 62
     7
370
     0
100
AcDbLine
 10
237.1501872112
 20
148.1931492085
 30
0.0
 11
236.5634287418
 21
147.6063982189
 31
0.0
  0
LINE
  5
113
330
1F
100
AcDbEntity
  8
0
  6
HIDDEN
 62
     7
370
     0
100
AcDbLine
 10
236.5632276454
 20
96.6319334464
 30
0.0
 11
237.1501872112
 21
96.0449859227
 31
0.0
  0
LINE
  5
114
330
1F
100
AcDbEntity
  8
0
  6
HIDDEN
 62
     7
370
     0
100
AcDbLine
 10
158.5001872113
 20
159.2190676827
 30
0.0
 11
163.2501872113
 21
156.3649797424
 31
0.0
  0
LINE
  5
115
330
1F
100
AcDbEntity
  8
0
  6
HIDDEN
 62
     7
370
     0
100
AcDbLine
 10
163.2501872113
 20
156.3649797424
 30
0.0
 11
168.0001872113
 21
159.2190676827
 31
0.0
  0
LINE
  5
116
330
1F
100
AcDbEntity
  8
0
  6
HIDDEN
 62
     7
370
     0
100
AcDbLine
 10
158.5001872113
 20
159.6190676827
 30
0.0
 11
158.5001872113
 21
159.2190676827
 31
0.0
  0
LINE
  5
117
330
1F
100
AcDbEntity
  8
0
  6
HIDDEN
 62
     7
370
     0
100
AcDbLine
 10
168.0001872113
 20
159.2190676827
 30
0.0
 11
168.0001872113
 21
159.6190676827
 31
0.0
  0
LINE
  5
118
330
1F
100
AcDbEntity
  8
0
  6
HIDDEN
 62
     7
370
     0
100
AcDbLine
 10
236.5767292456
 20
147.6190676827
 30
0.0
 11
220.5501872112
 21
147.6190676827
 31
0.0
  0
LINE
  5
119
330
1F
100
AcDbEntity
  8
0
  6
HIDDEN
 62
     7
370
     0
100
AcDbLine
 10
220.5501872112
 20
96.6190676827
 30
0.0
 11
236.5772489458
 21
96.6190676827
 31
0.0
  0
DIMENSION
  5
11A
330
1F
100
AcDbEntity
  8
VERMASSUNG
100
AcDbDimension
  2
_D
 10
44.5529128513
 20
171.3315676827
 30
0.0
 11
44.5529128513
 21
122.1190676827
 31
0.0
 70
   160
  1
CAT 50 %%c<>
 71
     2
 42
-1.0
  3
SLDDIMSTYLE0
100
AcDbAlignedDimension
 13
170.6001872113
 23
72.9065676827
 33
0.0
 14
170.6001872113
 24
171.3315676827
 34
0.0
 50
90.0
100
AcDbRotatedDimension
  0
DIMENSION
  5
127
330
1F
100
AcDbEntity
  8
VERMASSUNG
100
AcDbDimension
  2
_D_1
 10
245.9360107907
 20
104.1190676827
 30
0.0
 11
245.9360107907
 21
122.1190676827
 31
0.0
 70
   160
  1
%%c<>
 71
     2
 42
-1.0
  3
SLDDIMSTYLE0
100
AcDbAlignedDimension
 13
220.5501872112
 23
140.1190676827
 33
0.0
 14
220.5501872112
 24
104.1190676827
 34
0.0
 50
90.0
100
AcDbRotatedDimension
  0
DIMENSION
  5
132
330
1F
100
AcDbEntity
  8
VERMASSUNG
100
AcDbDimension
  2
_D_2
 10
237.1501872113
 20
173.2580188916
 30
0.0
 11
212.1501872113
 21
173.2580188916
 31
0.0
 70
   160
  1
(<>)
 71
     2
 42
-1.0
  3
SLDDIMSTYLE0
100
AcDbAlignedDimension
 13
187.1501872113
 23
156.0440676827
 33
0.0
 14
237.1501872113
 24
153.5190676827
 34
0.0
100
AcDbRotatedDimension
  0
DIMENSION
  5
13E
330
1F
100
AcDbEntity
  8
VERMASSUNG
100
AcDbDimension
  2
_D_3
 10
237.1501872113
 20
179.2580188916
 30
0.0
 11
194.6501872113
 21
179.2580188916
 31
0.0
 70
   160
  1
<>
 71
     2
 42
-1.0
  3
SLDDIMSTYLE0
100
AcDbAlignedDimension
 13
152.1501872113
 23
157.0440676827
 33
0.0
 14
237.1501872113
 24
153.5190676827
 34
0.0
100
AcDbRotatedDimension
  0
DIMENSION
  5
148
330
1F
100
AcDbEntity
  8
VERMASSUNG
100
AcDbDimension
  2
_D_4
 10
50.5501872113
 20
185.2580188916
 30
0.0
 11
143.8501872113
 21
185.2580188916
 31
0.0
 70
   160
  1
(<>)
 71
     2
 42
-1.0
  3
SLDDIMSTYLE0
100
AcDbAlignedDimension
 13
237.1501872113
 23
153.5190676827
 33
0.0
 14
50.5501872113
 24
140.4979122101
 34
0.0
100
AcDbRotatedDimension
  0
DIMENSION
  5
154
330
1F
100
AcDbEntity
  8
VERMASSUNG
100
AcDbDimension
  2
_D_5
 10
251.9360107907
 20
90.1190676827
 30
0.0
 11
251.9360107907
 21
122.1190676827
 31
0.0
 70
   160
  1
ST6 %%c<>
 71
     2
 42
-1.0
  3
SLDDIMSTYLE0
100
AcDbAlignedDimension
 13
236.5501872113
 23
154.1190676827
 33
0.0
 14
236.5501872113
 24
90.1190676827
 34
0.0
 50
90.0
100
AcDbRotatedDimension
  0
LINE
  5
160
330
1F
100
AcDbEntity
  8
VERMASSUNG
  6
CENTERX2
 62
     7
370
     0
100
AcDbLine
 10
239.246732446
 20
122.1190676827
 30
0.0
 11
48.5501872113
 21
122.1190676827
 31
0.0
  0
LINE
  5
161
330
1F
100
AcDbEntity
  8
0
  6
Continuous
 62
     7
370
    15
100
AcDbLine
 10
272.7679106685
 20
49.1680636326
 30
0.0
 11
272.591105249
 21
49.2701644064
 31
0.0
  0
LINE
  5
162
330
1F
100
AcDbEntity
  8
0
  6
Continuous
 62
     7
370
    15
100
AcDbLine
 10
268.7013860205
 20
49.2701644064
 30
0.0
 11
268.524580601
 21
49.1680636326
 31
0.0
  0
LINE
  5
163
330
1F
100
AcDbEntity
  8
0
  6
Continuous
 62
     7
370
    15
100
AcDbLine
 10
273.6462456348
 20
47.6374476781
 30
0.0
 11
273.6462456348
 21
47.9436504826
 31
0.0
  0
LINE
  5
164
330
1F
100
AcDbEntity
  8
0
  6
Continuous
 62
     7
370
    15
100
AcDbLine
 10
267.6462456348
 20
47.9436504826
 30
0.0
 11
267.6462456348
 21
47.6374476781
 31
0.0
  0
LINE
  5
165
330
1F
100
AcDbEntity
  8
0
  6
Continuous
 62
     7
370
    15
100
AcDbLine
 10
276.1104843152
 20
18.8661650601
 30
0.0
 11
276.3225818722
 21
18.9886461803
 31
0.0
  0
LINE
  5
166
330
1F
100
AcDbEntity
  8
0
  6
Continuous
 62
     7
370
    15
100
AcDbLine
 10
287.4223540184
 20
38.2160988245
 30
0.0
 11
287.4223540184
 21
38.4610212581
 31
0.0
  0
LINE
  5
167
330
1F
100
AcDbEntity
  8
0
  6
Continuous
 62
     7
370
    15
100
AcDbLine
 10
284.1079953805
 20
45.7865381616
 30
0.0
 11
266.9960112758
 21
55.6650763146
 31
0.0
  0
LINE
  5
168
330
1F
100
AcDbEntity
  8
0
  6
Continuous
 62
     7
370
    15
100
AcDbLine
 10
250.9973115536
 20
27.9515127184
 30
0.0
 11
268.1092956583
 21
18.0729745654
 31
0.0
  0
SPLINE
  5
169
330
1F
100
AcDbEntity
  8
0
  6
Continuous
 62
     7
370
    15
100
AcDbSpline
210
0.0
220
0.0
230
1.0
 70
     8
 71
     3
 72
    23
 73
    19
 74
     0
 42
0.000000001
 43
0.00000001
 40
0.0
 40
0.0
 40
0.0
 40
0.0
 40
0.0131235422047512
 40
0.0830430301500402
 40
0.1530412750398036
 40
0.2230611777628601
 40
0.293060308097249
 40
0.3629939500036736
 40
0.4328246697843615
 40
0.5025180435018135
 40
0.5720497629326762
 40
0.641421696595723
 40
0.710694310147203
 40
0.7799853754371342
 40
0.8495845564016915
 40
0.9200353201056032
 40
0.9920324132286384
 40
1.0
 40
1.0
 40
1.0
 40
1.0
 10
270.5231453011158
 20
32.09705557294457
 30
0.0
 10
270.547324309563
 20
32.16498217658986
 30
0.0
 10
270.7003240177323
 20
32.59480751692098
 30
0.0
 10
271.0477520286803
 20
33.38475389580645
 30
0.0
 10
271.5972222929909
 20
34.44317498315864
 30
0.0
 10
272.2291093152882
 20
35.45848938204512
 30
0.0
 10
272.9268520179181
 20
36.4121770021214
 30
0.0
 10
273.6788983917338
 20
37.28714928988368
 30
0.0
 10
274.4707613347971
 20
38.06790404374731
 30
0.0
 10
275.2874439477598
 20
38.74090986832972
 30
0.0
 10
276.1131479915583
 20
39.29499180088525
 30
0.0
 10
276.9317665536643
 20
39.72160952834232
 30
0.0
 10
277.7275476157596
 20
40.01564354600494
 30
0.0
 10
278.484986877204
 20
40.17384891065298
 30
0.0
 10
279.1944143594512
 20
40.20157018658546
 30
0.0
 10
279.8385446693873
 20
40.08456696237926
 30
0.0
 10
280.2641618683151
 20
39.94645935501889
 30
0.0
 10
280.4529112093505
 20
39.80812671014164
 30
0.0
 10
280.4717179719702
 20
39.79434340790338
 30
0.0
  0
LINE
  5
16A
330
1F
100
AcDbEntity
  8
0
  6
Continuous
 62
     7
370
    15
100
AcDbLine
 10
269.5969976533
 20
60.4801194245
 30
0.0
 11
269.5466180059
 21
60.6537624066
 31
0.0
  0
LINE
  5
16B
330
1F
100
AcDbEntity
  8
0
  6
Continuous
 62
     7
370
    15
100
AcDbLine
 10
265.0939245673
 20
66.7004999271
 30
0.0
 11
263.7419953634
 21
67.4809520441
 31
0.0
  0
SPLINE
  5
16C
330
1F
100
AcDbEntity
  8
0
  6
Continuous
 62
     7
370
    15
100
AcDbSpline
210
0.0
220
0.0
230
1.0
 70
     8
 71
     3
 72
    10
 73
     6
 74
     0
 42
0.000000001
 43
0.00000001
 40
0.0
 40
0.0
 40
0.0
 40
0.0
 40
0.2574553418639254
 40
0.9503445574242002
 40
0.9999999999999999
 40
0.9999999999999999
 40
0.9999999999999999
 40
0.9999999999999999
 10
252.3215920635363
 20
26.27259672464517
 30
0.0
 10
252.4499637788165
 20
26.25835640249537
 30
0.0
 10
252.9238221189092
 20
26.20579112048161
 30
0.0
 10
253.4469094014038
 20
26.21832386922163
 30
0.0
 10
253.8472136490018
 20
26.28630005718163
 30
0.0
 10
253.8739827925969
 20
26.29084576047474
 30
0.0
  0
SPLINE
  5
16D
330
1F
100
AcDbEntity
  8
0
  6
Continuous
 62
     7
370
    15
100
AcDbSpline
210
0.0
220
0.0
230
1.0
 70
     8
 71
     3
 72
     9
 73
     5
 74
     0
 42
0.000000001
 43
0.00000001
 40
0.0
 40
0.0
 40
0.0
 40
0.0
 40
0.4343029809138826
 40
0.9999999999999999
 40
0.9999999999999999
 40
0.9999999999999999
 40
0.9999999999999999
 10
269.8544805893914
 20
54.01491710451614
 30
0.0
 10
269.7646385305335
 20
54.22759936158038
 30
0.0
 10
269.557773593367
 20
54.7173087727769
 30
0.0
 10
269.2747595801789
 20
55.12965005436079
 30
0.0
 10
269.1146593965588
 20
55.36291028819894
 30
0.0
  0
LINE
  5
16E
330
1F
100
AcDbEntity
  8
0
  6
Continuous
 62
     7
370
    15
100
AcDbLine
 10
261.2486189294
 20
68.9203476211
 30
0.0
 11
259.9055285603
 21
69.6956971874
 31
0.0
  0
LINE
  5
16F
330
1F
100
AcDbEntity
  8
0
  6
Continuous
 62
     7
370
    15
100
AcDbLine
 10
244.4855230442
 20
30.0219844143
 30
0.0
 11
249.5590141992
 21
27.0931203131
 31
0.0
  0
LINE
  5
170
330
1F
100
AcDbEntity
  8
0
  6
Continuous
 62
     7
370
    15
100
AcDbLine
 10
267.0200950679
 20
57.3398768318
 30
0.0
 11
261.9466039128
 21
60.2687409329
 31
0.0
  0
SPLINE
  5
171
330
1F
100
AcDbEntity
  8
0
  6
Continuous
 62
     7
370
    15
100
AcDbSpline
210
0.0
220
0.0
230
1.0
 70
     8
 71
     3
 72
    10
 73
     6
 74
     0
 42
0.000000001
 43
0.00000001
 40
0.0
 40
0.0
 40
0.0
 40
0.0
 40
0.1306269132820852
 40
0.6101689586233461
 40
1.0
 40
1.0
 40
1.0
 40
1.0
 10
231.8685347875127
 20
48.22596742042987
 30
0.0
 10
231.8103380516583
 20
48.06244614334161
 30
0.0
 10
231.538496355186
 20
47.29862493034057
 30
0.0
 10
231.1775429093357
 20
46.04660434384567
 30
0.0
 10
230.9321628307425
 20
44.97283753294158
 30
0.0
 10
230.8221332323658
 20
44.49135537012159
 30
0.0
  0
SPLINE
  5
172
330
1F
100
AcDbEntity
  8
0
  6
Continuous
 62
     7
370
    15
100
AcDbSpline
210
0.0
220
0.0
230
1.0
 70
     8
 71
     3
 72
    19
 73
    15
 74
     0
 42
0.000000001
 43
0.00000001
 40
0.0
 40
0.0
 40
0.0
 40
0.0
 40
0.0373859560613759
 40
0.1313174646929509
 40
0.2253288395505415
 40
0.3193792202160766
 40
0.4134382705514169
 40
0.507486751986485
 40
0.6015172693411899
 40
0.6955271450304762
 40
0.7895166821570487
 40
0.8834879826585875
 40
0.9774441876835122
 40
1.0
 40
1.0
 40
1.0
 40
1.0
 10
251.9422783758393
 20
70.38930331605874
 30
0.0
 10
251.7625953629262
 20
70.34483442406764
 30
0.0
 10
251.1314621730886
 20
70.18863828067113
 30
0.0
 10
250.0229726864555
 20
69.77266415485403
 30
0.0
 10
248.627719631118
 20
69.14762808694962
 30
0.0
 10
247.2245977000601
 20
68.37988648082325
 30
0.0
 10
245.8248337328085
 20
67.48589843597307
 30
0.0
 10
244.4369109294484
 20
66.46858193230942
 30
0.0
 10
243.0696963786191
 20
65.33559759788949
 30
0.0
 10
241.7322853477815
 20
64.09360520838554
 30
0.0
 10
240.4313541530324
 20
62.75262645260829
 30
0.0
 10
239.1817930562768
 20
61.31413196232881
 30
0.0
 10
238.2743794277804
 20
60.19398438142616
 30
0.0
 10
237.8066421624601
 20
59.53502570588403
 30
0.0
 10
237.716091898112
 20
59.40745647698385
 30
0.0
  0
SPLINE
  5
173
330
1F
100
AcDbEntity
  8
0
  6
Continuous
 62
     7
370
    15
100
AcDbSpline
210
0.0
220
0.0
230
1.0
 70
     8
 71
     3
 72
    10
 73
     6
 74
     0
 42
0.000000001
 43
0.00000001
 40
0.0
 40
0.0
 40
0.0
 40
0.0
 40
0.4145702369146779
 40
0.8817534847022765
 40
1.0
 40
1.0
 40
1.0
 40
1.0
 10
271.46287335034
 20
24.22842020495756
 30
0.0
 10
271.3023704816595
 20
24.33289817125603
 30
0.0
 10
270.9609953631342
 20
24.55511337788516
 30
0.0
 10
270.6390173277162
 20
24.92209911500456
 30
0.0
 10
270.4814042006735
 20
25.18340400708241
 30
0.0
 10
270.4495691211932
 20
25.23618299931474
 30
0.0
  0
LINE
  5
174
330
1F
100
AcDbEntity
  8
0
  6
Continuous
 62
     7
370
    15
100
AcDbLine
 10
246.0442889817
 20
67.6043032771
 30
0.0
 11
215.4897999014
 21
78.6149300036
 31
0.0
  0
LINE
  5
175
330
1F
100
AcDbEntity
  8
0
  6
Continuous
 62
     7
370
    15
100
AcDbLine
 10
205.3659408286
 20
61.0779915572
 30
0.0
 11
234.9777791394
 21
36.0740000851
 31
0.0
  0
SPLINE
  5
176
330
1F
100
AcDbEntity
  8
0
  6
Continuous
 62
     7
370
    15
100
AcDbSpline
210
0.0
220
0.0
230
1.0
 70
     8
 71
     3
 72
    12
 73
     8
 74
     0
 42
0.000000001
 43
0.00000001
 40
0.0
 40
0.0
 40
0.0
 40
0.0
 40
0.0664103844845198
 40
0.3088821504000518
 40
0.5515714558811257
 40
0.7943697802592754
 40
1.0
 40
1.0
 40
1.0
 40
1.0
 10
248.4960929326561
 20
23.39544715090635
 30
0.0
 10
248.6195571059552
 20
23.42523198012013
 30
0.0
 10
249.1938028303555
 20
23.56376456306273
 30
0.0
 10
250.2445071579462
 20
23.95247388791241
 30
0.0
 10
251.6381999233327
 20
24.56602083340146
 30
0.0
 10
252.9702552453886
 20
25.27393361909031
 30
0.0
 10
253.8309765519105
 20
25.83194345434362
 30
0.0
 10
254.2256666618886
 20
26.08782298419399
 30
0.0
  0
LINE
  5
177
330
1F
100
AcDbEntity
  8
0
  6
Continuous
 62
     7
370
    15
100
AcDbLine
 10
239.1377450485
 20
24.8605224042
 30
0.0
 11
240.4896742523
 21
24.0800702872
 31
0.0
  0
LINE
  5
178
330
1F
100
AcDbEntity
  8
0
  6
Continuous
 62
     7
370
    15
100
AcDbLine
 10
235.3012782454
 20
27.0752675475
 30
0.0
 11
236.6443686145
 21
26.2999179812
 31
0.0
  0
LINE
  5
179
330
1F
100
AcDbEntity
  8
0
  6
Continuous
 62
     7
370
    15
100
AcDbLine
 10
230.811613319
 20
33.2487428209
 30
0.0
 11
230.8590194337
 21
33.0908201436
 31
0.0
  0
SPLINE
  5
17A
330
1F
100
AcDbEntity
  8
0
  6
Continuous
 62
     7
370
    15
100
AcDbSpline
210
0.0
220
0.0
230
1.0
 70
     8
 71
     3
 72
    26
 73
    22
 74
     0
 42
0.000000001
 43
0.00000001
 40
0.0
 40
0.0
 40
0.0
 40
0.0
 40
0.0206098791860221
 40
0.0728944564701494
 40
0.1258584937597638
 40
0.1800156353427999
 40
0.2354401664158584
 40
0.2918299572325433
 40
0.3487416745558296
 40
0.4057939367786829
 40
0.4627674649539736
 40
0.519615804861231
 40
0.5763503967627234
 40
0.6330092593602912
 40
0.6896415292663793
 40
0.7462991841995963
 40
0.8030217103243683
 40
0.8598660618226273
 40
0.9168873030478779
 40
0.9741306240247116
 40
1.0
 40
1.0
 40
1.0
 40
1.0
 10
215.5411364074608
 20
78.57613015462496
 30
0.0
 10
215.4442639997325
 20
78.61773206350736
 30
0.0
 10
215.1016389195671
 20
78.76487259299478
 30
0.0
 10
214.4495316581625
 20
78.86771833002922
 30
0.0
 10
213.6039931459158
 20
78.88613786517418
 30
0.0
 10
212.7170800450947
 20
78.7511675187401
 30
0.0
 10
211.8028128329613
 20
78.47383595076393
 30
0.0
 10
210.8729127827804
 20
78.05260846009884
 30
0.0
 10
209.9440503875008
 20
77.49469239439424
 30
0.0
 10
209.0328665390762
 20
76.81042739949143
 30
0.0
 10
208.1545529709631
 20
76.01293381827331
 30
0.0
 10
207.3223075592375
 20
75.1162297368256
 30
0.0
 10
206.5478551458286
 20
74.13478720748925
 30
0.0
 10
205.8420384158253
 20
73.08370711743568
 30
0.0
 10
205.2149120444594
 20
71.97869510908963
 30
0.0
 10
204.6756844160836
 20
70.83600382112674
 30
0.0
 10
204.2327725872554
 20
69.67224260868727
 30
0.0
 10
203.8929542676013
 20
68.50370737345412
 30
0.0
 10
203.6644179859134
 20
67.34758870286024
 30
0.0
 10
203.5674940600646
 20
66.42453278748117
 30
0.0
 10
203.5594291186985
 20
65.89743327356607
 30
0.0
 10
203.5569188524207
 20
65.73337006779961
 30
0.0
  0
SPLINE
  5
17B
330
1F
100
AcDbEntity
  8
0
  6
Continuous
 62
     7
370
    15
100
AcDbSpline
210
0.0
220
0.0
230
1.0
 70
     8
 71
     3
 72
    13
 73
     9
 74
     0
 42
0.000000001
 43
0.00000001
 40
0.0
 40
0.0
 40
0.0
 40
0.0
 40
0.1013708190647097
 40
0.2925452625642218
 40
0.4837075732883072
 40
0.6730173308724617
 40
0.8585816115757523
 40
1.0
 40
1.0
 40
1.0
 40
1.0
 10
203.5569188524207
 20
65.73337006779961
 30
0.0
 10
203.5603755927894
 20
65.5426035547513
 30
0.0
 10
203.5703513730791
 20
64.99207195045837
 30
0.0
 10
203.6821975440714
 20
64.12818141307726
 30
0.0
 10
203.9338232118944
 20
63.17935039669351
 30
0.0
 10
204.3156964112186
 20
62.33399204257839
 30
0.0
 10
204.7675510993899
 20
61.64393257443675
 30
0.0
 10
205.1402327967806
 20
61.3008481894348
 30
0.0
 10
205.3014157890806
 20
61.15246588847078
 30
0.0
  0
LWPOLYLINE
  5
17C
330
1F
100
AcDbEntity
  8
0
  6
Continuous
 62
     7
370
    15
100
AcDbPolyline
 90
       25
 70
   128
 43
0.0
 10
268.7017019865
 20
47.0252245318
 10
268.2646757744
 20
47.3540150814
 10
267.9899496125
 20
47.736899786
 10
267.8962456348
 20
48.1477856856
 10
267.9899496125
 20
48.5586715851
 10
268.2646757744
 20
48.9415562897
 10
268.7017019865
 20
49.2703468393
 10
269.2712456348
 20
49.5226367015
 10
269.9344932607
 20
49.6812327389
 10
270.6462456348
 20
49.7353268938
 10
271.3579980088
 20
49.6812327389
 10
272.0212456348
 20
49.5226367015
 10
272.590789283
 20
49.2703468393
 10
273.0278154952
 20
48.9415562897
 10
273.3025416571
 20
48.5586715851
 10
273.3962456348
 20
48.1477856856
 10
273.3025416571
 20
47.736899786
 10
273.0278154952
 20
47.3540150814
 10
272.590789283
 20
47.0252245318
 10
272.0212456348
 20
46.7729346697
 10
271.3579980088
 20
46.6143386322
 10
270.6462456348
 20
46.5602444773
 10
269.9344932607
 20
46.6143386322
 10
269.2712456348
 20
46.7729346697
 10
268.7017019865
 20
47.0252245318
  0
LWPOLYLINE
  5
17D
330
1F
100
AcDbEntity
  8
0
  6
Continuous
 62
     7
370
    15
100
AcDbPolyline
 90
        8
 70
   128
 43
0.0
 10
268.5249252912
 20
46.7190383149
 10
268.0640195538
 20
47.0620604198
 10
267.7653645777
 20
47.4604760707
 10
267.6477259537
 20
47.8892513469
 10
267.7184953489
 20
48.3214447208
 10
267.9732260622
 20
48.7298998933
 10
268.3959124259
 20
49.0889521237
 10
268.524580601
 20
49.1680636326
  0
LWPOLYLINE
  5
17E
330
1F
100
AcDbEntity
  8
0
  6
Continuous
 62
     7
370
    15
100
AcDbPolyline
 90
       14
 70
   128
 43
0.0
 10
272.7679106685
 20
49.1680636326
 10
273.0167106719
 20
49.0051216148
 10
273.3995095118
 20
48.631456274
 10
273.6093106565
 20
48.2145735658
 10
273.6329315286
 20
47.7806677639
 10
273.4688879416
 20
47.3570027657
 10
273.1274873576
 20
46.970199001
 10
272.6301812307
 20
46.644560773
 10
272.008217134
 20
46.4005491292
 10
271.300675359
 20
46.2534962185
 10
270.5520133575
 20
46.2126419162
 10
269.8092723166
 20
46.2805532484
 10
269.1191213875
 20
46.4529630962
 10
268.5249252912
 20
46.7190383149
  0
LWPOLYLINE
  5
17F
330
1F
100
AcDbEntity
  8
0
  6
Continuous
 62
     7
370
    15
100
AcDbPolyline
 90
       20
 70
   128
 43
0.0
 10
269.4088087677
 20
47.4334285877
 10
269.0740614165
 20
47.7040857962
 10
268.9096846202
 20
48.0228247724
 10
268.9334911554
 20
48.3551052025
 10
269.1429012146
 20
48.664919346
 10
269.5152219685
 20
48.9186940333
 10
270.0101066863
 20
49.0889288393
 10
270.5739269298
 20
49.1571761811
 10
271.1455840272
 20
49.1160404005
 10
271.6631300617
 20
48.9699791975
 10
272.07048089
 20
48.7348205699
 10
272.3234937291
 20
48.4360476037
 10
272.3947507119
 20
48.1060369859
 10
272.2765300389
 20
47.7805504874
 10
271.9816427541
 20
47.494859621
 10
271.5420444707
 20
47.2799234248
 10
271.0053724836
 20
47.1590335708
 10
270.42978353
 20
47.1452903506
 10
269.8776516043
 20
47.2401830552
 10
269.4088087677
 20
47.4334285877
  0
SPLINE
  5
180
330
1F
100
AcDbEntity
  8
0
  6
Continuous
 62
     7
370
    15
100
AcDbSpline
210
0.0
220
0.0
230
1.0
 70
     8
 71
     3
 72
     9
 73
     5
 74
     0
 42
0.000000001
 43
0.00000001
 40
0.0
 40
0.0
 40
0.0
 40
0.0
 40
0.6311775999676758
 40
1.0
 40
1.0
 40
1.0
 40
1.0
 10
269.5857539811593
 20
47.33586750544662
 30
0.0
 10
269.4507861370067
 20
47.4288024366224
 30
0.0
 10
269.2369511654243
 20
47.57604297744726
 30
0.0
 10
269.0442759592544
 20
47.79396420552678
 30
0.0
 10
268.9732130272881
 20
47.87433843588504
 30
0.0
  0
SPLINE
  5
181
330
1F
100
AcDbEntity
  8
0
  6
Continuous
 62
     7
370
    15
100
AcDbSpline
210
0.0
220
0.0
230
1.0
 70
     8
 71
     3
 72
    11
 73
     7
 74
     0
 42
0.000000001
 43
0.00000001
 40
0.0
 40
0.0
 40
0.0
 40
0.0
 40
0.2164553779443423
 40
0.4403112895790519
 40
0.7519005688038665
 40
0.9999999999999999
 40
0.9999999999999999
 40
0.9999999999999999
 40
0.9999999999999999
 10
272.3192782422393
 20
48.39192043892496
 30
0.0
 10
272.288570097967
 20
48.28139883796225
 30
0.0
 10
272.2261039087065
 20
48.05657694114276
 30
0.0
 10
272.1101833451232
 20
47.73161427789586
 30
0.0
 10
271.9858377469657
 20
47.5090647855634
 30
0.0
 10
271.9062640310457
 20
47.45158082596367
 30
0.0
 10
271.8709905061552
 20
47.42609927271084
 30
0.0
  0
SPLINE
  5
182
330
1F
100
AcDbEntity
  8
0
  6
Continuous
 62
     7
370
    15
100
AcDbSpline
210
0.0
220
0.0
230
1.0
 70
     8
 71
     3
 72
    11
 73
     7
 74
     0
 42
0.000000001
 43
0.00000001
 40
0.0
 40
0.0
 40
0.0
 40
0.0
 40
0.1843643438496195
 40
0.5174526391740221
 40
0.8663352079125972
 40
1.0
 40
1.0
 40
1.0
 40
1.0
 10
271.0945333708477
 20
49.0989506036191
 30
0.0
 10
271.1656036330008
 20
49.01981669105596
 30
0.0
 10
271.3650754720238
 20
48.79771272534895
 30
0.0
 10
271.7367092820379
 20
48.50359026759948
 30
0.0
 10
272.0827404545602
 20
48.39926447681906
 30
0.0
 10
272.2679699808533
 20
48.39351346057109
 30
0.0
 10
272.3192782422393
 20
48.39192043892496
 30
0.0
  0
SPLINE
  5
183
330
1F
100
AcDbEntity
  8
0
  6
Continuous
 62
     7
370
    15
100
AcDbSpline
210
0.0
220
0.0
230
1.0
 70
     8
 71
     3
 72
    12
 73
     8
 74
     0
 42
0.000000001
 43
0.00000001
 40
0.0
 40
0.0
 40
0.0
 40
0.0
 40
0.2161857461389861
 40
0.4397628073511857
 40
0.5934185666353837
 40
0.7522096186328758
 40
1.0
 40
1.0
 40
1.0
 40
1.0
 10
269.4215007633721
 20
48.84015960209916
 30
0.0
 10
269.5360535843149
 20
48.813503233228
 30
0.0
 10
269.7690757470964
 20
48.75927912355414
 30
0.0
 10
270.1116589473171
 20
48.75303003111929
 30
0.0
 10
270.4248716250498
 20
48.80703928478093
 30
0.0
 10
270.7465592931044
 20
48.91179928593321
 30
0.0
 10
270.9627663425485
 20
49.02808218395504
 30
0.0
 10
271.0945333708477
 20
49.0989506036191
 30
0.0
  0
SPLINE
  5
184
330
1F
100
AcDbEntity
  8
0
  6
Continuous
 62
     7
370
    15
100
AcDbSpline
210
0.0
220
0.0
230
1.0
 70
     8
 71
     3
 72
    12
 73
     8
 74
     0
 42
0.000000001
 43
0.00000001
 40
0.0
 40
0.0
 40
0.0
 40
0.0
 40
0.2161857461389835
 40
0.4397628073511839
 40
0.5934185666353806
 40
0.7522096186328752
 40
0.9999999999999999
 40
0.9999999999999999
 40
0.9999999999999999
 40
0.9999999999999999
 10
268.9732130272881
 20
47.87433843588504
 30
0.0
 10
269.0039073631504
 20
47.89609254000498
 30
0.0
 10
269.0663454634862
 20
47.94034451345858
 30
0.0
 10
269.1581403553259
 20
48.07887242978688
 30
0.0
 10
269.2420654393835
 20
48.26524659381077
 30
0.0
 10
269.3282613902538
 20
48.50595306959148
 30
0.0
 10
269.3861938945503
 20
48.71360591766302
 30
0.0
 10
269.4215007633721
 20
48.84015960209916
 30
0.0
  0
LINE
  5
185
330
1F
100
AcDbEntity
  8
0
  6
Continuous
 62
     7
370
    15
100
AcDbLine
 10
269.4215007634
 20
47.4261760455
 30
0.0
 11
269.4215007634
 21
48.8401596021
 31
0.0
  0
LINE
  5
186
330
1F
100
AcDbEntity
  8
0
  6
Continuous
 62
     7
370
    15
100
AcDbLine
 10
271.0945333708
 20
47.1712410916
 30
0.0
 11
271.0945333708
 21
49.0989506036
 31
0.0
  0
LWPOLYLINE
  5
187
330
1F
100
AcDbEntity
  8
0
  6
Continuous
 62
     7
370
    15
100
AcDbPolyline
 90
       60
 70
   128
 43
0.0
 10
276.3207775538
 20
44.6269858933
 10
275.1407522952
 20
43.8731457022
 10
273.9740971943
 20
42.9825946031
 10
272.8340309195
 20
41.9654228957
 10
271.7334708774
 20
40.8331555419
 10
270.6848868528
 20
39.5986215833
 10
269.700159722
 20
38.275808783
 10
268.7904468366
 20
36.8797051384
 10
267.9660556072
 20
35.4261290618
 10
267.2363267158
 20
33.9315501509
 10
266.6095282824
 20
32.412902582
 10
266.0927621837
 20
30.8873932389
 10
265.691883586
 20
29.372306752
 10
265.411434604
 20
27.8848096565
 10
265.2545928369
 20
26.441755889
 10
265.2231353644
 20
25.0594958253
 10
265.3174186123
 20
23.7536910241
 10
265.5363743137
 20
22.5391367758
 10
265.877521613
 20
21.4295944651
 10
266.3369951751
 20
20.4376356499
 10
266.9095889809
 20
19.5744996198
 10
267.5888153137
 20
18.8499660511
 10
268.3669782678
 20
18.2722441985
 10
269.2352609459
 20
17.8478798814
 10
270.1838253585
 20
17.5816813172
 10
271.2019238917
 20
17.476664642
 10
272.2780210822
 20
17.5340197366
 10
273.399924319
 20
17.753096745
 10
274.55492199
 20
18.131413437
 10
275.7299275102
 20
18.6646833333
 10
276.9116275974
 20
19.3468642731
 10
278.0866331176
 20
20.1702268736
 10
279.2416307886
 20
21.1254421075
 10
280.3635340254
 20
22.2016870046
 10
281.4396312159
 20
23.3867672802
 10
282.457729749
 20
24.6672555012
 10
283.4062941616
 20
26.0286432244
 10
284.2745768398
 20
27.4555053829
 10
285.0527397939
 20
28.9316750583
 10
285.7319661267
 20
30.4404266583
 10
286.3045599324
 20
31.9646654245
 10
286.7640334945
 20
33.4871211226
 10
287.1051807939
 20
34.9905437211
 10
287.3241364953
 20
36.4578988414
 10
287.4184197432
 20
37.8725607634
 10
287.3869622707
 20
39.2185008025
 10
287.2301205035
 20
40.4804689201
 10
286.9496715216
 20
41.6441665133
 10
286.5487929239
 20
42.6964084233
 10
286.0320268252
 20
43.6252723287
 10
285.4052283917
 20
44.4202338305
 10
284.6754995004
 20
45.0722856971
 10
283.851108271
 20
45.5740399204
 10
282.9413953856
 20
45.9198114244
 10
281.9566682547
 20
46.10568248
 10
280.9080842302
 20
46.1295470937
 10
279.8075241881
 20
45.99113487
 10
278.6674579133
 20
45.6920140746
 10
277.5008028124
 20
45.2355738657
 10
276.3207775538
 20
44.6269858933
  0
LWPOLYLINE
  5
188
330
1F
100
AcDbEntity
  8
0
  6
Continuous
 62
     7
370
    15
100
AcDbPolyline
 90
       32
 70
   128
 43
0.0
 10
276.1086455194
 20
44.9944093537
 10
274.9260409562
 20
44.240136735
 10
273.756393256
 20
43.3509890128
 10
272.6125173238
 20
42.3367078757
 10
271.5069457038
 20
41.2084060001
 10
270.4517912699
 20
39.9784452973
 10
269.458614515
 20
38.6603014743
 10
268.5382968913
 20
37.2684163906
 10
267.7009215914
 20
35.8180398304
 10
266.9556630743
 20
34.3250624229
 10
266.3106865483
 20
32.805841541
 10
265.7730585111
 20
31.2770220865
 10
265.348669328
 20
29.7553541254
 10
265.0421686957
 20
28.2575093702
 10
264.8569146994
 20
26.7998985216
 10
264.7949370204
 20
25.3984914689
 10
264.8569146994
 20
24.0686423212
 10
265.0421686957
 20
22.824921184
 10
265.348669328
 20
21.6809545263
 10
265.7730585111
 20
20.6492758862
 10
266.3106865483
 20
19.7411885508
 10
266.9556630743
 20
18.9666417151
 10
267.7009215914
 20
18.3341214761
 10
268.5382968913
 20
17.850557858
 10
269.458614515
 20
17.521248885
 10
270.4517912699
 20
17.3498025351
 10
271.5069457038
 20
17.3380972104
 10
272.6125173238
 20
17.4862611568
 10
273.756393256
 20
17.7926710593
 10
274.9260409562
 20
18.2539698267
 10
276.1086455194
 20
18.8651033733
 10
276.1104843152
 20
18.8661650601
  0
LWPOLYLINE
  5
189
330
1F
100
AcDbEntity
  8
0
  6
Continuous
 62
     7
370
    15
100
AcDbPolyline
 90
       16
 70
   128
 43
0.0
 10
287.4223540184
 20
38.4610212581
 10
287.3603763395
 20
39.7908704058
 10
287.1751223431
 20
41.034591543
 10
286.8686217109
 20
42.1785582007
 10
286.4442325278
 20
43.2102368408
 10
285.9066044906
 20
44.1183241761
 10
285.2616279645
 20
44.8928710119
 10
284.5163694474
 20
45.5253912509
 10
283.6789941475
 20
46.008954869
 10
282.7586765239
 20
46.338263842
 10
281.7654997689
 20
46.5097101919
 10
280.710345335
 20
46.5214155166
 10
279.604773715
 20
46.3732515701
 10
278.4608977829
 20
46.0668416676
 10
277.2912500827
 20
45.6055429002
 10
276.1086455194
 20
44.9944093537
  0
SPLINE
  5
18A
330
1F
100
AcDbEntity
  8
0
  6
Continuous
 62
     7
370
    15
100
AcDbSpline
210
0.0
220
0.0
230
1.0
 70
    11
 71
     3
 72
    94
 73
    90
 74
     0
 42
0.000000001
 43
0.00000001
 40
0.0
 40
0.0
 40
0.0
 40
0.0
 40
0.0312500000000017
 40
0.0312500000000017
 40
0.0625000000000034
 40
0.0625000000000034
 40
0.0937500000000051
 40
0.0937500000000051
 40
0.109375000000006
 40
0.109375000000006
 40
0.1250000000000069
 40
0.1250000000000069
 40
0.1562500000000076
 40
0.1562500000000076
 40
0.171875000000008
 40
0.171875000000008
 40
0.1875000000000084
 40
0.1875000000000084
 40
0.2187500000000092
 40
0.2187500000000092
 40
0.23437500000001
 40
0.23437500000001
 40
0.2500000000000108
 40
0.2500000000000108
 40
0.2812500000000117
 40
0.2812500000000117
 40
0.3125000000000127
 40
0.3125000000000127
 40
0.3281250000000129
 40
0.3281250000000129
 40
0.3437500000000132
 40
0.3437500000000132
 40
0.3750000000000137
 40
0.3750000000000137
 40
0.3906250000000139
 40
0.3906250000000139
 40
0.4062500000000142
 40
0.4062500000000142
 40
0.4218750000000144
 40
0.4218750000000144
 40
0.4375000000000147
 40
0.4375000000000147
 40
0.4687500000000152
 40
0.4687500000000152
 40
0.4843750000000154
 40
0.4843750000000154
 40
0.5000000000000157
 40
0.5000000000000157
 40
0.5312500000000153
 40
0.5312500000000153
 40
0.5625000000000151
 40
0.5625000000000151
 40
0.5781250000000145
 40
0.5781250000000145
 40
0.5937500000000139
 40
0.5937500000000139
 40
0.6250000000000128
 40
0.6250000000000128
 40
0.6562500000000115
 40
0.6562500000000115
 40
0.6875000000000104
 40
0.6875000000000104
 40
0.7187500000000092
 40
0.7187500000000092
 40
0.750000000000008
 40
0.750000000000008
 40
0.7812500000000069
 40
0.7812500000000069
 40
0.8125000000000057
 40
0.8125000000000057
 40
0.8281250000000052
 40
0.8281250000000052
 40
0.8437500000000048
 40
0.8437500000000048
 40
0.8593750000000043
 40
0.8593750000000043
 40
0.8750000000000038
 40
0.8750000000000038
 40
0.9062500000000029
 40
0.9062500000000029
 40
0.9218750000000023
 40
0.9218750000000023
 40
0.9375000000000019
 40
0.9375000000000019
 40
0.9531250000000014
 40
0.9531250000000014
 40
0.968750000000001
 40
0.968750000000001
 40
1.0
 40
1.0
 40
1.0
 40
1.0
 10
270.6297180506873
 20
49.98359950306603
 30
0.0
 10
270.856234432874
 20
49.95323996303999
 30
0.0
 10
271.0777704453915
 20
49.91126148704696
 30
0.0
 10
271.5117866237034
 20
49.80755812180492
 30
0.0
 10
271.7255443144116
 20
49.74522523607197
 30
0.0
 10
272.1302309235655
 20
49.60672863841374
 30
0.0
 10
272.3227900647635
 20
49.5302936801702
 30
0.0
 10
272.597122164075
 20
49.40567293516343
 30
0.0
 10
272.6865406495943
 20
49.36223318097834
 30
0.0
 10
272.8578325903884
 20
49.27327960619991
 30
0.0
 10
272.9397658678568
 20
49.2277736103912
 30
0.0
 10
273.1747068298867
 20
49.08826540500277
 30
0.0
 10
273.3169485155329
 20
48.99132176585649
 30
0.0
 10
273.5081533219828
 20
48.83950641723145
 30
0.0
 10
273.5683363921512
 20
48.78762973814566
 30
0.0
 10
273.6788559070878
 20
48.68352033901851
 30
0.0
 10
273.7294804571675
 20
48.63108739166047
 30
0.0
 10
273.8675971426285
 20
48.47242054798275
 30
0.0
 10
273.9414707585261
 20
48.3648554558727
 30
0.0
 10
274.0232387816571
 20
48.19932755085183
 30
0.0
 10
274.0455551806122
 20
48.14341288914377
 30
0.0
 10
274.079206175318
 20
48.03233317404614
 30
0.0
 10
274.0907122861723
 20
47.97686337640469
 30
0.0
 10
274.1091750423459
 20
47.81026511809251
 30
0.0
 10
274.1002754515466
 20
47.69896359121395
 30
0.0
 10
274.035334484491
 20
47.47355343515054
 30
0.0
 10
273.9799961986128
 20
47.36271538109536
 30
0.0
 10
273.8632509098989
 20
47.20021865321312
 30
0.0
 10
273.8186357692866
 20
47.14656187669652
 30
0.0
 10
273.7174363108525
 20
47.0401310725581
 30
0.0
 10
273.6603691607365
 20
46.98698667689687
 30
0.0
 10
273.4742885966236
 20
46.83240251436311
 30
0.0
 10
273.3306202037544
 20
46.73534375328119
 30
0.0
 10
273.0856859093943
 20
46.59846382447402
 30
0.0
 10
272.9984898852348
 20
46.55403466720056
 30
0.0
 10
272.8169226884586
 20
46.46974162620504
 30
0.0
 10
272.7229254158181
 20
46.42998995883685
 30
0.0
 10
272.5287657369015
 20
46.35517052761732
 30
0.0
 10
272.4286025381488
 20
46.32010325889862
 30
0.0
 10
272.2221656072967
 20
46.25474871748632
 30
0.0
 10
272.1152461187887
 20
46.22431243373983
 30
0.0
 10
271.7912813690241
 20
46.14209102630804
 30
0.0
 10
271.5707167732389
 20
46.09898512365277
 30
0.0
 10
271.2333157851519
 20
46.05202682571925
 30
0.0
 10
271.1191896867562
 20
46.03931972683642
 30
0.0
 10
270.892642448342
 20
46.02045525485175
 30
0.0
 10
270.7799875109374
 20
46.01423175748605
 30
0.0
 10
270.4437473730077
 20
46.00511287314383
 30
0.0
 10
270.2208771935294
 20
46.01177807760189
 30
0.0
 10
269.7837447288849
 20
46.05181315250617
 30
0.0
 10
269.5735180864942
 20
46.08469603692737
 30
0.0
 10
269.2698680809116
 20
46.15334466308375
 30
0.0
 10
269.1706149101406
 20
46.17946677160667
 30
0.0
 10
268.976069393995
 20
46.23841037079848
 30
0.0
 10
268.8807284292793
 20
46.27129965970553
 30
0.0
 10
268.606006851999
 20
46.37827696742982
 30
0.0
 10
268.4359346158069
 20
46.46114324027641
 30
0.0
 10
268.1215157916357
 20
46.64989115331557
 30
0.0
 10
267.9761408777342
 20
46.75694912594061
 30
0.0
 10
267.721785619728
 20
46.98712428240053
 30
0.0
 10
267.6117168899135
 20
47.11052633161361
 30
0.0
 10
267.4263249393098
 20
47.37316290786353
 30
0.0
 10
267.3508236088688
 20
47.51366448059982
 30
0.0
 10
267.2424198769332
 20
47.7988180089886
 30
0.0
 10
267.2084531917096
 20
47.94444808725098
 30
0.0
 10
267.1832087144925
 20
48.24028223177623
 30
0.0
 10
267.1926283337648
 20
48.39129793247656
 30
0.0
 10
267.256811524905
 20
48.68187282084362
 30
0.0
 10
267.3111286963763
 20
48.82317538981814
 30
0.0
 10
267.4289678769763
 20
49.0273064357717
 30
0.0
 10
267.4746432678335
 20
49.09427357387393
 30
0.0
 10
267.5762218671478
 20
49.22164399954347
 30
0.0
 10
267.6323255812157
 20
49.28249527943415
 30
0.0
 10
267.7551417415044
 20
49.39841634564957
 30
0.0
 10
267.8218535358179
 20
49.45348661804879
 30
0.0
 10
267.9662019973115
 20
49.55759904575599
 30
0.0
 10
268.044448825997
 20
49.60695223885275
 30
0.0
 10
268.2913617608048
 20
49.74263192098699
 30
0.0
 10
268.4714593788623
 20
49.81679825893259
 30
0.0
 10
268.7640681810626
 20
49.90485022099153
 30
0.0
 10
268.8660349496593
 20
49.93041964007015
 30
0.0
 10
269.0734434831849
 20
49.97290848089582
 30
0.0
 10
269.1790082727216
 20
49.98993702274578
 30
0.0
 10
269.3936996638248
 20
50.0161494663791
 30
0.0
 10
269.5028268060581
 20
50.02533179944993
 30
0.0
 10
269.7246070013109
 20
50.03619771091697
 30
0.0
 10
269.8377160939089
 20
50.037849521323
 30
0.0
 10
270.1763847754465
 20
50.0320112094042
 30
0.0
 10
270.4032016685006
 20
50.01395904309207
 30
0.0
 10
270.6297180506873
 20
49.98359950306603
 30
0.0
  0
ARC
  5
18B
330
1F
100
AcDbEntity
  8
0
  6
Continuous
 62
     7
370
    15
100
AcDbCircle
 10
253.8024242875
 20
32.7704293101
 30
0.0
 40
5.575895853275966
100
AcDbArc
 50
217.4557540116
 51
239.7961252106
  0
ARC
  5
18C
330
1F
100
AcDbEntity
  8
0
  6
Continuous
 62
     7
370
    15
100
AcDbCircle
 10
264.1787924301
 20
50.6964568383
 30
0.0
 40
5.711733670717669
100
AcDbArc
 50
60.4466620989
 51
85.5200372719
  0
LINE
  5
18D
330
1F
100
AcDbEntity
  8
0
  6
Continuous
 62
     7
370
    15
100
AcDbLine
 10
282.3307468745
 20
31.8114734339
 30
0.0
 11
284.505538546
 21
34.5168935979
 31
0.0
  0
SPLINE
  5
18E
330
1F
100
AcDbEntity
  8
0
  6
Continuous
 62
     7
370
    15
100
AcDbSpline
210
0.0
220
0.0
230
1.0
 70
     8
 71
     3
 72
    20
 73
    16
 74
     0
 42
0.000000001
 43
0.00000001
 40
0.0
 40
0.0
 40
0.0
 40
0.0
 40
0.0469163091108928
 40
0.0977062414429353
 40
0.1516689633031517
 40
0.2078463383218545
 40
0.2651938476233437
 40
0.3192095203174511
 40
0.3728953068123819
 40
0.4259306594991029
 40
0.4781535685998887
 40
0.5793596734499802
 40
0.6698058354121875
 40
0.8327057026615148
 40
0.9074992363786762
 40
0.9074992363786762
 40
0.9074992363786762
 40
0.9074992363786762
 10
284.5055385459793
 20
34.51689359789123
 30
0.0
 10
284.6058698903184
 20
34.641704836417
 30
0.0
 10
284.8049225773504
 20
34.91720688204784
 30
0.0
 10
285.0708817006997
 20
35.3767762037211
 30
0.0
 10
285.2972959050238
 20
35.88681826225699
 30
0.0
 10
285.4623229836336
 20
36.42335420644133
 30
0.0
 10
285.5452577279258
 20
36.94441091919617
 30
0.0
 10
285.5402200701338
 20
37.4181580277187
 30
0.0
 10
285.4514865964141
 20
37.8208352888567
 30
0.0
 10
285.284215646752
 20
38.1408640346777
 30
0.0
 10
284.9816343609078
 20
38.44817047201079
 30
0.0
 10
284.4806224836763
 20
38.56644041251273
 30
0.0
 10
283.7686839091435
 20
38.60533630467683
 30
0.0
 10
283.267989110876
 20
38.6587930794207
 30
0.0
 10
282.5632751674367
 20
38.72203109748092
 30
0.0
 10
282.3303724609239
 20
38.74272935922804
 30
0.0
  0
SPLINE
  5
18F
330
1F
100
AcDbEntity
  8
0
  6
Continuous
 62
     7
370
    15
100
AcDbSpline
210
0.0
220
0.0
230
1.0
 70
     8
 71
     3
 72
    20
 73
    16
 74
     0
 42
0.000000001
 43
0.00000001
 40
0.0
 40
0.0
 40
0.0
 40
0.0
 40
0.0469163091108928
 40
0.0977062414429352
 40
0.1516689633031517
 40
0.2078463383218546
 40
0.2651938476233439
 40
0.3192095203174513
 40
0.372895306812382
 40
0.4259306594991031
 40
0.4781535685998889
 40
0.5793596734499805
 40
0.669805835412188
 40
0.8327057026615152
 40
0.9074992363786764
 40
0.9074992363786764
 40
0.9074992363786764
 40
0.9074992363786764
 10
268.1360165615118
 20
25.06696970354407
 30
0.0
 10
268.0356852171726
 20
25.07594083762174
 30
0.0
 10
267.8366325301407
 20
25.1216215426903
 30
0.0
 10
267.5706734067914
 20
25.27412099671039
 30
0.0
 10
267.3442592024673
 20
25.52275077925042
 30
0.0
 10
267.1792321238574
 20
25.86875051414903
 30
0.0
 10
267.0962973795653
 20
26.29405280933435
 30
0.0
 10
267.1013350373572
 20
26.77361627373878
 30
0.0
 10
267.190068511077
 20
27.27874302293496
 30
0.0
 10
267.3573394607391
 20
27.79189869641352
 30
0.0
 10
267.6599207465832
 20
28.44855805019638
 30
0.0
 10
268.1609326238148
 20
29.14528399136771
 30
0.0
 10
268.8728711983475
 20
30.00616666520667
 30
0.0
 10
269.3735659966151
 20
30.63771334904059
 30
0.0
 10
270.0782799400544
 20
31.51459676726654
 30
0.0
 10
270.3111826465671
 20
31.80419877017624
 30
0.0
  0
LINE
  5
190
330
1F
100
AcDbEntity
  8
0
  6
Continuous
 62
     7
370
    15
100
AcDbLine
 10
270.310808233
 20
24.8725105562
 30
0.0
 11
268.1360165615
 21
25.0669697035
 31
0.0
  0
SPLINE
  5
191
330
1F
100
AcDbEntity
  8
0
  6
Continuous
 62
     7
370
    15
100
AcDbSpline
210
0.0
220
0.0
230
1.0
 70
     8
 71
     3
 72
    18
 73
    14
 74
     0
 42
0.000000001
 43
0.00000001
 40
0.0
 40
0.0
 40
0.0
 40
0.0
 40
0.2500000000000059
 40
0.2500000000000059
 40
0.5000000000000118
 40
0.5000000000000118
 40
0.6250000000000088
 40
0.6250000000000088
 40
0.7500000000000059
 40
0.7500000000000059
 40
0.8750000000000029
 40
0.8750000000000029
 40
1.0
 40
1.0
 40
1.0
 40
1.0
 10
282.330372460934
 20
38.74272935926114
 30
0.0
 10
282.2966718701767
 20
38.74572435944371
 30
0.0
 10
282.2605077956507
 20
38.74736170108078
 30
0.0
 10
282.1802196636339
 20
38.74624839356819
 30
0.0
 10
282.1351459680591
 20
38.74351051197367
 30
0.0
 10
282.0607911795393
 20
38.73263764016087
 30
0.0
 10
282.0341407867391
 20
38.72771229759952
 30
0.0
 10
281.9806148362429
 20
38.714831900174
 30
0.0
 10
281.9534107776998
 20
38.70672466557579
 30
0.0
 10
281.9041074290731
 20
38.68864663118224
 30
0.0
 10
281.8817824050847
 20
38.67865660444943
 30
0.0
 10
281.8433883841125
 20
38.65853742046535
 30
0.0
 10
281.8275183271834
 20
38.64862119044567
 30
0.0
 10
281.8137161551263
 20
38.63884638664081
 30
0.0
  0
SPLINE
  5
192
330
1F
100
AcDbEntity
  8
0
  6
Continuous
 62
     7
370
    15
100
AcDbSpline
210
0.0
220
0.0
230
1.0
 70
     8
 71
     3
 72
    10
 73
     6
 74
     0
 42
0.000000001
 43
0.00000001
 40
0.0
 40
0.0
 40
0.0
 40
0.0
 40
0.5
 40
0.5
 40
1.0
 40
1.0
 40
1.0
 40
1.0
 10
281.8137161551264
 20
38.63884638664081
 30
0.0
 10
281.7692783610578
 20
38.65400078524598
 30
0.0
 10
281.7233817470752
 20
38.67101429876831
 30
0.0
 10
281.635546475685
 20
38.70795158361383
 30
0.0
 10
281.5936159889401
 20
38.72796488656858
 30
0.0
 10
281.5591818834221
 20
38.74784327256079
 30
0.0
  0
SPLINE
  5
193
330
1F
100
AcDbEntity
  8
0
  6
Continuous
 62
     7
370
    15
100
AcDbSpline
210
0.0
220
0.0
230
1.0
 70
     8
 71
     3
 72
    11
 73
     7
 74
     0
 42
0.000000001
 43
0.00000001
 40
0.0
 40
0.0
 40
0.0
 40
0.0
 40
0.1216778145489284
 40
0.3351495078617882
 40
0.7111789135815603
 40
0.9999999999999999
 40
0.9999999999999999
 40
0.9999999999999999
 40
0.9999999999999999
 10
270.519926002194
 20
32.09826264193282
 30
0.0
 10
270.5171112699221
 20
32.09123960694948
 30
0.0
 10
270.5093583682182
 20
32.07189535157236
 30
0.0
 10
270.4652936904943
 20
32.0043446173108
 30
0.0
 10
270.3957597806946
 20
31.91041396466433
 30
0.0
 10
270.3367969779164
 20
31.83636622551525
 30
0.0
 10
270.3111826466375
 20
31.80419877024409
 30
0.0
  0
SPLINE
  5
194
330
1F
100
AcDbEntity
  8
0
  6
Continuous
 62
     7
370
    15
100
AcDbSpline
210
0.0
220
0.0
230
1.0
 70
     8
 71
     3
 72
    11
 73
     7
 74
     0
 42
0.000000001
 43
0.00000001
 40
0.0
 40
0.0
 40
0.0
 40
0.0
 40
0.313741330749611
 40
0.6274591524876049
 40
0.9412153631443964
 40
1.0
 40
1.0
 40
1.0
 40
1.0
 10
268.0476282138629
 20
25.39683249608924
 30
0.0
 10
267.8776194399306
 20
25.4386836086287
 30
0.0
 10
267.5376146310259
 20
25.52238269775389
 30
0.0
 10
267.2234223696985
 20
25.9860867364836
 30
0.0
 10
267.0757328163979
 20
26.43635073929987
 30
0.0
 10
267.1133838252703
 20
26.73818718175669
 30
0.0
 10
267.1193249211221
 20
26.78581510169644
 30
0.0
  0
LINE
  5
195
330
1F
100
AcDbEntity
  8
0
  6
Continuous
 62
     7
370
    15
100
AcDbLine
 10
279.0879862083
 20
40.17443417
 30
0.0
 11
281.5591818834
 21
38.7478432726
 31
0.0
  0
ARC
  5
196
330
1F
100
AcDbEntity
  8
0
  6
Continuous
 62
     7
370
    15
100
AcDbCircle
 10
265.9053364329
 20
38.9124436669
 30
0.0
 40
10.89792316001988
100
AcDbArc
 50
338.4826977623
 51
3.7825969297
  0
LINE
  5
197
330
1F
100
AcDbEntity
  8
0
  6
Continuous
 62
     7
370
    15
100
AcDbLine
 10
276.0437489901
 20
34.9152796697
 30
0.0
 11
281.5591818834
 21
31.7312880335
 31
0.0
  0
LINE
  5
198
330
1F
100
AcDbEntity
  8
0
  6
Continuous
 62
     7
370
    15
100
AcDbLine
 10
267.1794397752
 20
27.119862542
 30
0.0
 11
270.375266443
 21
25.2749510768
 31
0.0
  0
SPLINE
  5
199
330
1F
100
AcDbEntity
  8
0
  6
Continuous
 62
     7
370
    15
100
AcDbSpline
210
0.0
220
0.0
230
1.0
 70
     8
 71
     3
 72
    10
 73
     6
 74
     0
 42
0.000000001
 43
0.00000001
 40
0.0
 40
0.0
 40
0.0
 40
0.0
 40
0.4072147692759658
 40
0.8155213877436914
 40
1.0
 40
1.0
 40
1.0
 40
1.0
 10
269.5506736238149
 20
60.18718419996766
 30
0.0
 10
269.5689538730094
 20
60.22605634843751
 30
0.0
 10
269.6055633855228
 20
60.30390487176361
 30
0.0
 10
269.6196207191078
 20
60.41081904959864
 30
0.0
 10
269.6017942265309
 20
60.46350872311364
 30
0.0
 10
269.5962465063085
 20
60.47990609158116
 30
0.0
  0
LWPOLYLINE
  5
19A
330
1F
100
AcDbEntity
  8
0
  6
Continuous
 62
     7
370
    15
100
AcDbPolyline
 90
       17
 70
   128
 43
0.0
 10
236.5287736894
 20
41.4100783101
 10
236.9118090228
 20
42.9488775348
 10
237.4935848329
 20
44.8642896352
 10
238.1913753642
 20
46.7827201024
 10
238.9999612636
 20
48.6898194069
 10
239.913294448
 20
50.5713227743
 10
240.9245433424
 20
52.4131568835
 10
242.0261439793
 20
54.2015451326
 10
243.2098565756
 20
55.9231106856
 10
244.466827165
 20
57.5649765285
 10
245.787653824
 20
59.1148617878
 10
247.1624569967
 20
60.5611735887
 10
248.5809533921
 20
61.8930937678
 10
250.0325329015
 20
63.1006597919
 10
251.5063379603
 20
64.1748392748
 10
252.9913447603
 20
65.1075975393
 10
253.265579331
 20
65.2636151531
  0
SPLINE
  5
19B
330
1F
100
AcDbEntity
  8
0
  6
Continuous
 62
     7
370
    15
100
AcDbSpline
210
0.0
220
0.0
230
1.0
 70
     8
 71
     3
 72
    12
 73
     8
 74
     0
 42
0.000000001
 43
0.00000001
 40
0.0
 40
0.0
 40
0.0
 40
0.0
 40
0.2499999999999988
 40
0.2499999999999988
 40
0.4999999999999976
 40
0.4999999999999976
 40
1.0
 40
1.0
 40
1.0
 40
1.0
 10
236.090958255174
 20
41.38448937132891
 30
0.0
 10
236.1248926074365
 20
41.36489948675016
 30
0.0
 10
236.163355562673
 20
41.33774197636568
 30
0.0
 10
236.2376274555837
 20
41.27862140413912
 30
0.0
 10
236.2729054891373
 20
41.24726089721196
 30
0.0
 10
236.368208107623
 20
41.15551343348914
 30
0.0
 10
236.4168971287963
 20
41.09884771253698
 30
0.0
 10
236.4503995166666
 20
41.05081075362826
 30
0.0
  0
LWPOLYLINE
  5
19C
330
1F
100
AcDbEntity
  8
0
  6
Continuous
 62
     7
370
    15
100
AcDbPolyline
 90
       13
 70
   128
 43
0.0
 10
257.2596692315
 20
67.3878233825
 10
258.6821427918
 20
67.6963214219
 10
260.064844535
 20
67.8413639028
 10
261.3939281033
 20
67.8208930601
 10
262.6595952574
 20
67.6350598083
 10
263.8525152753
 20
67.2852341431
 10
264.9638937395
 20
66.7739950412
 10
265.9855373715
 20
66.1051114476
 10
266.9099144338
 20
65.2835144905
 10
267.7302102551
 20
64.315261128
 10
268.4403774696
 20
63.2074894951
 10
269.035180599
 20
61.9683662802
 10
269.4655837666
 20
60.7570942324
  0
LINE
  5
19D
330
1F
100
AcDbEntity
  8
0
  6
Continuous
 62
     7
370
    15
100
AcDbLine
 10
234.7390290513
 20
42.1649414883
 30
0.0
 11
236.0909582552
 21
41.3844893713
 31
0.0
  0
LWPOLYLINE
  5
19E
330
1F
100
AcDbEntity
  8
0
  6
Continuous
 62
     7
370
    15
100
AcDbPolyline
 90
       26
 70
   128
 43
0.0
 10
234.7390290513
 20
42.1649414883
 10
235.2192182717
 20
44.0757305867
 10
235.8189890071
 20
46.0019644445
 10
236.5339196414
 20
47.9294425251
 10
237.3587395797
 20
49.8439551192
 10
238.2873681033
 20
51.7313881013
 10
239.3129591987
 20
53.5778269816
 10
240.4279520269
 20
55.3696594862
 10
241.6241266634
 20
57.0936759089
 10
242.8926646975
 20
58.7371664958
 10
244.2242142422
 20
60.2880151435
 10
245.6089588789
 20
61.7347887215
 10
247.0366900252
 20
63.0668213591
 10
248.4968821946
 20
64.2742930762
 10
249.9787705921
 20
65.3483021777
 10
251.4714304743
 20
66.2809308785
 10
252.9638576887
 20
67.0653036749
 10
254.4450497978
 20
67.6956380319
 10
255.9040871914
 20
68.1672870131
 10
257.3302135879
 20
68.4767735389
 10
258.7129153312
 20
68.6218160198
 10
260.0419988994
 20
68.6013451771
 10
261.3076660535
 20
68.4155119253
 10
262.5005860714
 20
68.0656862601
 10
263.6119645357
 20
67.5544471582
 10
263.7419953634
 20
67.4809520441
  0
ARC
  5
19F
330
1F
100
AcDbEntity
  8
0
  6
Continuous
 62
     7
370
    15
100
AcDbCircle
 10
239.9801209938
 20
33.2121286584
 30
0.0
 40
0.6147219230288615
100
AcDbArc
 50
302.60547834
 51
357.3945215143
  0
LINE
  5
1A0
330
1F
100
AcDbEntity
  8
0
  6
Continuous
 62
     7
370
    15
100
AcDbLine
 10
240.5942074343
 20
35.8670713351
 30
0.0
 11
240.5942074343
 21
33.1841843175
 31
0.0
  0
ARC
  5
1A1
330
1F
100
AcDbEntity
  8
0
  6
Continuous
 62
     7
370
    15
100
AcDbCircle
 10
270.1410780784
 20
35.3648267009
 30
0.0
 40
30.05133403985847
100
AcDbArc
 50
137.8865149099
 51
157.9306387885
  0
LINE
  5
1A2
330
1F
100
AcDbEntity
  8
0
  6
Continuous
 62
     7
370
    15
100
AcDbLine
 10
240.5942074343
 20
43.0235011007
 30
0.0
 11
240.5942074343
 21
40.3406140832
 31
0.0
  0
ARC
  5
1A3
330
1F
100
AcDbEntity
  8
0
  6
Continuous
 62
     7
370
    15
100
AcDbCircle
 10
240.4217776874
 20
43.0514719795
 30
0.0
 40
0.1746836789714125
100
AcDbArc
 50
350.7859630095
 51
129.2032852357
  0
LINE
  5
1A4
330
1F
100
AcDbEntity
  8
0
  6
Continuous
 62
     7
370
    15
100
AcDbLine
 10
240.3113647219
 20
43.1868358031
 30
0.0
 11
236.4965740407
 21
40.9846040187
 31
0.0
  0
LINE
  5
1A5
330
1F
100
AcDbEntity
  8
0
  6
Continuous
 62
     7
370
    15
100
AcDbLine
 10
236.4503995167
 20
41.0508107536
 30
0.0
 11
236.4965740407
 21
40.9846040187
 31
0.0
  0
LINE
  5
1A6
330
1F
100
AcDbEntity
  8
0
  6
Continuous
 62
     7
370
    15
100
AcDbLine
 10
269.4460160894
 20
60.0059120335
 30
0.0
 11
269.5506736238
 21
60.1871842
 31
0.0
  0
LINE
  5
1A7
330
1F
100
AcDbEntity
  8
0
  6
Continuous
 62
     7
370
    15
100
AcDbLine
 10
266.5450263039
 20
58.3312062775
 30
0.0
 11
269.4460160894
 21
60.0059120335
 31
0.0
  0
ARC
  5
1A8
330
1F
100
AcDbEntity
  8
0
  6
Continuous
 62
     7
370
    15
100
AcDbCircle
 10
266.876270032
 20
57.8133639894
 30
0.0
 40
0.614721923028825
100
AcDbArc
 50
122.60547834
 51
177.3945215143
  0
LINE
  5
1A9
330
1F
100
AcDbEntity
  8
0
  6
Continuous
 62
     7
370
    15
100
AcDbLine
 10
266.2621835914
 20
57.777409814
 30
0.0
 11
266.2621835914
 21
57.8413083303
 31
0.0
  0
LINE
  5
1AA
330
1F
100
AcDbEntity
  8
0
  6
Continuous
 62
     7
370
    15
100
AcDbLine
 10
236.4965740407
 20
30.492054586
 30
0.0
 11
236.4503995167
 21
30.3725358804
 31
0.0
  0
LINE
  5
1AB
330
1F
100
AcDbEntity
  8
0
  6
Continuous
 62
     7
370
    15
100
AcDbLine
 10
236.4965740407
 20
30.492054586
 30
0.0
 11
240.3113647219
 21
32.6942863704
 31
0.0
  0
LWPOLYLINE
  5
1AC
330
1F
100
AcDbEntity
  8
0
  6
Continuous
 62
     7
370
    15
100
AcDbPolyline
 90
       21
 70
   128
 43
0.0
 10
233.7497934459
 20
43.4238133248
 10
234.2159158177
 20
45.290267403
 10
234.8031221642
 20
47.1724682945
 10
235.506765944
 20
49.0555222158
 10
236.3212792509
 20
50.9245286336
 10
237.2402168723
 20
52.7646981716
 10
238.2563072901
 20
54.5614696389
 10
239.3615102197
 20
56.3006252517
 10
240.5470802327
 20
57.9684031384
 10
241.8036359591
 20
59.5516062365
 10
243.1212343216
 20
61.0377067206
 10
244.4894492149
 20
62.4149451345
 10
245.897454007
 20
63.6724234435
 10
247.33410721
 20
64.8001912699
 10
248.788040642
 20
65.7893246302
 10
250.2477493838
 20
66.6319965501
 10
251.7016828159
 20
67.3215389988
 10
253.1383360188
 20
67.8524956535
 10
254.5463408109
 20
68.2206650746
 10
255.9145557042
 20
68.4231339514
 10
257.2214283322
 20
68.4586994764
  0
SPLINE
  5
1AD
330
1F
100
AcDbEntity
  8
0
  6
Continuous
 62
     7
370
    15
100
AcDbSpline
210
0.0
220
0.0
230
1.0
 70
     8
 71
     3
 72
     8
 73
     4
 74
     0
 42
0.000000001
 43
0.00000001
 40
0.0
 40
0.0
 40
0.0
 40
0.0
 40
1.0
 40
1.0
 40
1.0
 40
1.0
 10
233.7497934458607
 20
43.42381332481649
 30
0.0
 10
233.3665094763533
 20
43.36045311683683
 30
0.0
 10
232.9831435657144
 20
43.29726160232403
 30
0.0
 10
232.5997056969124
 20
43.23421822918768
 30
0.0
  0
SPLINE
  5
1AE
330
1F
100
AcDbEntity
  8
0
  6
Continuous
 62
     7
370
    15
100
AcDbSpline
210
0.0
220
0.0
230
1.0
 70
     8
 71
     3
 72
     8
 73
     4
 74
     0
 42
0.000000001
 43
0.00000001
 40
0.0
 40
0.0
 40
0.0
 40
0.0
 40
0.0011891741919631
 40
0.0011891741919631
 40
0.0011891741919631
 40
0.0011891741919631
 10
232.2456526173094
 20
43.6043370652814
 30
0.0
 10
232.3639458476586
 20
43.48086649349066
 30
0.0
 10
232.4819695169209
 20
43.35749082740477
 30
0.0
 10
232.5997056969124
 20
43.23421822918768
 30
0.0
  0
LWPOLYLINE
  5
1AF
330
1F
100
AcDbEntity
  8
0
  6
Continuous
 62
     7
370
    15
100
AcDbPolyline
 90
       27
 70
   128
 43
0.0
 10
232.2456526173
 20
43.6043370653
 10
232.7258418377
 20
45.5151261636
 10
233.3256125731
 20
47.4413600215
 10
234.0405432074
 20
49.3688381021
 10
234.8653631457
 20
51.2833506961
 10
235.7939916693
 20
53.1707836782
 10
236.8195827647
 20
55.0172225586
 10
237.9345755928
 20
56.8090550632
 10
239.1307502294
 20
58.5330714859
 10
240.3992882635
 20
60.1765620727
 10
241.7308378082
 20
61.7274107204
 10
243.1155824449
 20
63.1741842984
 10
244.5433135912
 20
64.5062169361
 10
246.0035057606
 20
65.7136886532
 10
247.4853941581
 20
66.7876977546
 10
248.9780540403
 20
67.7203264554
 10
250.4704812547
 20
68.5046992518
 10
251.9516733638
 20
69.1350336088
 10
253.4107107574
 20
69.6066825901
 10
254.8368371539
 20
69.9161691159
 10
256.2195388972
 20
70.0612115968
 10
257.5486224654
 20
70.040740754
 10
258.8142896195
 20
69.8549075023
 10
260.0072096374
 20
69.5050818371
 10
261.1185881016
 20
68.9938427352
 10
262.1402317337
 20
68.3249591416
 10
262.4319955348
 20
68.0909790215
  0
ARC
  5
1B0
330
1F
100
AcDbEntity
  8
0
  6
Continuous
 62
     7
370
    15
100
AcDbCircle
 10
263.9681094745
 20
52.051897649
 30
0.0
 40
6.097442834660853
100
AcDbArc
 50
34.0578707072
 51
85.3794815645
  0
ARC
  5
1B1
330
1F
100
AcDbEntity
  8
0
  6
Continuous
 62
     7
370
    15
100
AcDbCircle
 10
252.6131044975
 20
32.3829932449
 30
0.0
 40
6.099992070455118
100
AcDbArc
 50
214.3356497142
 51
265.9194803482
  0
LINE
  5
1B2
330
1F
100
AcDbEntity
  8
0
  6
Continuous
 62
     7
370
    15
100
AcDbLine
 10
230.9025622482
 20
44.3796866316
 30
0.0
 11
232.2456526173
 21
43.6043370653
 31
0.0
  0
ARC
  5
1B3
330
1F
100
AcDbEntity
  8
0
  6
Continuous
 62
     7
370
    15
100
AcDbCircle
 10
255.1968141585
 20
61.0088548151
 30
0.0
 40
9.880952470209397
100
AcDbArc
 50
61.5400344227
 51
108.3845712921
  0
ARC
  5
1B4
330
1F
100
AcDbEntity
  8
0
  6
Continuous
 62
     7
370
    15
100
AcDbCircle
 10
258.7435348335
 20
54.5088957532
 30
0.0
 40
6.59055900673443
100
AcDbArc
 50
60.9214185167
 51
98.2465329379
  0
ARC
  5
1B5
330
1F
100
AcDbEntity
  8
0
  6
Continuous
 62
     7
370
    15
100
AcDbCircle
 10
248.3641897873
 20
36.1357378253
 30
0.0
 40
7.240306379892227
100
AcDbArc
 50
193.6914101772
 51
237.608279448
  0
LINE
  5
1B6
330
1F
100
AcDbEntity
  8
0
  6
Continuous
 62
     7
370
    15
100
AcDbLine
 10
270.4742584274
 20
25.1798551881
 30
0.0
 11
268.0476282139
 21
25.3968324961
 31
0.0
  0
SPLINE
  5
1B7
330
1F
100
AcDbEntity
  8
0
  6
Continuous
 62
     7
370
    15
100
AcDbSpline
210
0.0
220
0.0
230
1.0
 70
     8
 71
     3
 72
    18
 73
    14
 74
     0
 42
0.000000001
 43
0.00000001
 40
0.0
 40
0.0
 40
0.0
 40
0.0
 40
0.2500000000000037
 40
0.2500000000000037
 40
0.5000000000000073
 40
0.5000000000000073
 40
0.6250000000000054
 40
0.6250000000000054
 40
0.7500000000000037
 40
0.7500000000000037
 40
0.8750000000000018
 40
0.8750000000000018
 40
1.0
 40
1.0
 40
1.0
 40
1.0
 10
270.3108082329951
 20
24.87251055608828
 30
0.0
 10
270.3443309590781
 20
24.86951311922195
 30
0.0
 10
270.3773530671224
 20
24.86998897426187
 30
0.0
 10
270.4384574230968
 20
24.88244281975557
 30
0.0
 10
270.4674897536817
 20
24.89427624373992
 30
0.0
 10
270.500790684964
 20
24.92942550369726
 30
0.0
 10
270.5100631287067
 20
24.94427823919667
 30
0.0
 10
270.5217429149407
 20
24.98088533667661
 30
0.0
 10
270.5240708816087
 20
25.00330391206564
 30
0.0
 10
270.5203289824369
 20
25.05166727474151
 30
0.0
 10
270.5143658088448
 20
25.07795467766753
 30
0.0
 10
270.4973897400847
 20
25.12954058691688
 30
0.0
 10
270.4863846437522
 20
25.15521973850274
 30
0.0
 10
270.4742584274376
 20
25.17985518808772
 30
0.0
  0
SPLINE
  5
1B8
330
1F
100
AcDbEntity
  8
0
  6
Continuous
 62
     7
370
    15
100
AcDbSpline
210
0.0
220
0.0
230
1.0
 70
     8
 71
     3
 72
    10
 73
     6
 74
     0
 42
0.000000001
 43
0.00000001
 40
0.0
 40
0.0
 40
0.0
 40
0.0
 40
0.5
 40
0.5
 40
1.0
 40
1.0
 40
1.0
 40
1.0
 10
270.3752664429628
 20
25.27495107676011
 30
0.0
 10
270.409704684096
 20
25.25507030332805
 30
0.0
 10
270.4345439514768
 20
25.23650629242466
 30
0.0
 10
270.4658226311113
 20
25.20470538812024
 30
0.0
 10
270.4728633982838
 20
25.19115557830946
 30
0.0
 10
270.4742584274376
 20
25.17985518808771
 30
0.0
  0
LINE
  5
1B9
330
1F
100
AcDbEntity
  8
0
  6
Continuous
 62
     7
370
    15
100
AcDbLine
 10
234.9625408184
 20
43.1119765027
 30
0.0
 11
234.3689219703
 21
43.4546653694
 31
0.0
  0
SPLINE
  5
1BA
330
1F
100
AcDbEntity
  8
0
  6
Continuous
 62
     7
370
    15
100
AcDbSpline
210
0.0
220
0.0
230
1.0
 70
     8
 71
     3
 72
    12
 73
     8
 74
     0
 42
0.000000001
 43
0.00000001
 40
0.0
 40
0.0
 40
0.0
 40
0.0
 40
0.4999999999999928
 40
0.4999999999999928
 40
0.7499999999999963
 40
0.7499999999999963
 40
1.0
 40
1.0
 40
1.0
 40
1.0
 10
234.3689219702633
 20
43.45466536942669
 30
0.0
 10
234.2931996846861
 20
43.49837891442142
 30
0.0
 10
234.1855583095301
 20
43.52216574851165
 30
0.0
 10
234.0243963692882
 20
43.51923716757459
 30
0.0
 10
233.9717949442325
 20
43.51219870261188
 30
0.0
 10
233.8739370941412
 20
43.48737276259077
 30
0.0
 10
233.8290994780429
 20
43.46959572268952
 30
0.0
 10
233.7914542998941
 20
43.44786362392497
 30
0.0
  0
ARC
  5
1BB
330
1F
100
AcDbEntity
  8
0
  6
Continuous
 62
     7
370
    15
100
AcDbCircle
 10
271.0057803467
 20
34.8844121901
 30
0.0
 40
41.29894610063233
100
AcDbArc
 50
143.7829654161
 51
160.9307146593
  0
SPLINE
  5
1BC
330
1F
100
AcDbEntity
  8
0
  6
Continuous
 62
     7
370
    15
100
AcDbSpline
210
0.0
220
0.0
230
1.0
 70
     8
 71
     3
 72
    10
 73
     6
 74
     0
 42
0.000000001
 43
0.00000001
 40
0.0
 40
0.0
 40
0.0
 40
0.0
 40
0.5
 40
0.5
 40
1.0
 40
1.0
 40
1.0
 40
1.0
 10
230.8006362425745
 20
44.40927710622858
 30
0.0
 10
230.8078834301368
 20
44.41362529316878
 30
0.0
 10
230.8196585224045
 20
44.41413719560283
 30
0.0
 10
230.8537729992264
 20
44.40486150108076
 30
0.0
 10
230.8760475557414
 20
44.39499323773479
 30
0.0
 10
230.9025622482177
 20
44.37968663157849
 30
0.0
  0
LINE
  5
1BD
330
1F
100
AcDbEntity
  8
0
  6
Continuous
 62
     7
370
    15
100
AcDbLine
 10
233.7914542999
 20
43.4478636239
 30
0.0
 11
233.7497934459
 21
43.4238133248
 31
0.0
  0
SPLINE
  5
1BE
330
1F
100
AcDbEntity
  8
0
  6
Continuous
 62
     7
370
    15
100
AcDbSpline
210
0.0
220
0.0
230
1.0
 70
     8
 71
     3
 72
    10
 73
     6
 74
     0
 42
0.000000001
 43
0.00000001
 40
0.0
 40
0.0
 40
0.0
 40
0.0
 40
0.5
 40
0.5
 40
1.0
 40
1.0
 40
1.0
 40
1.0
 10
281.5591818834221
 20
31.731288033541
 30
0.0
 10
281.5936201245553
 20
31.71140726010895
 30
0.0
 10
281.6357778750576
 20
31.70284099670358
 30
0.0
 10
281.7233995659108
 20
31.70356622043753
 30
0.0
 10
281.7693245032576
 20
31.71246376426305
 30
0.0
 10
281.8137432894602
 20
31.72600046031335
 30
0.0
  0
SPLINE
  5
1BF
330
1F
100
AcDbEntity
  8
0
  6
Continuous
 62
     7
370
    15
100
AcDbSpline
210
0.0
220
0.0
230
1.0
 70
     8
 71
     3
 72
    16
 73
    12
 74
     0
 42
0.000000001
 43
0.00000001
 40
0.0
 40
0.0
 40
0.0
 40
0.0
 40
0.2500000000000074
 40
0.2500000000000074
 40
0.3750000000000125
 40
0.3750000000000125
 40
0.5000000000000177
 40
0.5000000000000177
 40
0.7500000000000088
 40
0.7500000000000088
 40
1.0
 40
1.0
 40
1.0
 40
1.0
 10
281.8137432894602
 20
31.72600046031335
 30
0.0
 10
281.8414679651383
 20
31.67815229222172
 30
0.0
 10
281.8789812327629
 20
31.63457153749997
 30
0.0
 10
281.9532022123905
 20
31.60091402983269
 30
0.0
 10
281.979968217329
 20
31.59562987316326
 30
0.0
 10
282.0334960538322
 20
31.5964184068492
 30
0.0
 10
282.0600859559661
 20
31.60232900294391
 30
0.0
 10
282.1348696626182
 20
31.6297625389942
 30
0.0
 10
282.179822753556
 20
31.66062076239068
 30
0.0
 10
282.2604859715178
 20
31.73000425429601
 30
0.0
 10
282.2972013939066
 20
31.76974317485331
 30
0.0
 10
282.3307468745773
 20
31.81147343389726
 30
0.0
  0
SPLINE
  5
1C0
330
1F
100
AcDbEntity
  8
0
  6
Continuous
 62
     7
370
    15
100
AcDbSpline
210
0.0
220
0.0
230
1.0
 70
     8
 71
     3
 72
    20
 73
    16
 74
     0
 42
0.000000001
 43
0.00000001
 40
0.0
 40
0.0
 40
0.0
 40
0.0
 40
0.25
 40
0.25
 40
0.5
 40
0.5
 40
0.53125
 40
0.53125
 40
0.5625
 40
0.5625
 40
0.625
 40
0.625
 40
0.75
 40
0.75
 40
1.0
 40
1.0
 40
1.0
 40
1.0
 10
240.5942074343354
 20
40.34061408321239
 30
0.0
 10
240.5942074343354
 20
39.9704172861916
 30
0.0
 10
240.6105669762014
 20
39.59081203581606
 30
0.0
 10
240.6417714393264
 20
38.83297554507165
 30
0.0
 10
240.6562296936458
 20
38.45467364740636
 30
0.0
 10
240.656637531692
 20
38.03762776276657
 30
0.0
 10
240.656483733292
 20
37.99030057439102
 30
0.0
 10
240.6557785135393
 20
37.89675761217737
 30
0.0
 10
240.6552282490873
 20
37.85010396773819
 30
0.0
 10
240.6530234315028
 20
37.71047332967767
 30
0.0
 10
240.6508093093797
 20
37.61782539467152
 30
0.0
 10
240.6425044981314
 20
37.34090605163234
 30
0.0
 10
240.6347556002173
 20
37.15767928025618
 30
0.0
 10
240.6110254915722
 20
36.6082647053916
 30
0.0
 10
240.5942074343354
 20
36.24257010196086
 30
0.0
 10
240.5942074343354
 20
35.86707133506252
 30
0.0
  0
LINE
  5
1C1
330
1F
100
AcDbEntity
  8
0
  6
Continuous
 62
     7
370
    15
100
AcDbLine
 10
236.4965740407
 20
40.9846040187
 30
0.0
 11
234.771943474
 21
41.9802120527
 31
0.0
  0
SPLINE
  5
1C2
330
1F
100
AcDbEntity
  8
0
  6
Continuous
 62
     7
370
    15
100
AcDbSpline
210
0.0
220
0.0
230
1.0
 70
     8
 71
     3
 72
     8
 73
     4
 74
     0
 42
0.000000001
 43
0.00000001
 40
0.0
 40
0.0
 40
0.0
 40
0.0
 40
0.0011891741919631
 40
0.0011891741919631
 40
0.0011891741919631
 40
0.0011891741919631
 10
234.7719434740158
 20
41.98021205273784
 30
0.0
 10
234.7605453297692
 20
42.04209700959215
 30
0.0
 10
234.7495815342099
 20
42.10366832613177
 30
0.0
 10
234.7390290513175
 20
42.16494148832489
 30
0.0
  0
SPLINE
  5
1C3
330
1F
100
AcDbEntity
  8
0
  6
Continuous
 62
     7
370
    15
100
AcDbSpline
210
0.0
220
0.0
230
1.0
 70
     8
 71
     3
 72
    32
 73
    28
 74
     0
 42
0.000000001
 43
0.00000001
 40
0.0
 40
0.0
 40
0.0
 40
0.0
 40
0.1250000000000005
 40
0.1250000000000005
 40
0.1875000000000005
 40
0.1875000000000005
 40
0.2500000000000004
 40
0.2500000000000004
 40
0.3750000000000002
 40
0.3750000000000002
 40
0.4375000000000003
 40
0.4375000000000003
 40
0.5000000000000003
 40
0.5000000000000003
 40
0.6250000000000004
 40
0.6250000000000004
 40
0.6875000000000004
 40
0.6875000000000004
 40
0.7500000000000003
 40
0.7500000000000003
 40
0.8125000000000003
 40
0.8125000000000003
 40
0.8750000000000002
 40
0.8750000000000002
 40
0.9375000000000002
 40
0.9375000000000002
 40
1.0
 40
1.0
 40
1.0
 40
1.0
 10
284.2403735030349
 20
34.74470537645925
 30
0.0
 10
284.380592890113
 20
34.91913696094368
 30
0.0
 10
284.5074293516802
 20
35.1049087035696
 30
0.0
 10
284.6763089833886
 20
35.40120416196534
 30
0.0
 10
284.7290264947585
 20
35.50330335379964
 30
0.0
 10
284.824458181214
 20
35.70766018616491
 30
0.0
 10
284.8675696585182
 20
35.81060761711785
 30
0.0
 10
284.9832085868324
 20
36.12174626040947
 30
0.0
 10
285.0421324829543
 20
36.33455946176522
 30
0.0
 10
285.0988725417623
 20
36.64051622088666
 30
0.0
 10
285.1127775514121
 20
36.74090440436478
 30
0.0
 10
285.1306706775536
 20
36.93832859506577
 30
0.0
 10
285.1346360185766
 20
37.03596781393494
 30
0.0
 10
285.1314241193386
 20
37.31594343724032
 30
0.0
 10
285.1098166440476
 20
37.48729023152551
 30
0.0
 10
285.0486556654027
 20
37.72047264668301
 30
0.0
 10
285.02365376761
 20
37.79322312489161
 30
0.0
 10
284.9652075921083
 20
37.92689532291439
 30
0.0
 10
284.9316034425519
 20
37.98824763636937
 30
0.0
 10
284.8550720352569
 20
38.10025788516987
 30
0.0
 10
284.8118250866041
 20
38.15119868965799
 30
0.0
 10
284.7188223087072
 20
38.2392704835397
 30
0.0
 10
284.6696156146778
 20
38.27620161369491
 30
0.0
 10
284.5640919347546
 20
38.33730623589615
 30
0.0
 10
284.5075716082106
 20
38.36159894136147
 30
0.0
 10
284.3834078090678
 20
38.39925630673545
 30
0.0
 10
284.3157698376984
 20
38.412524015348
 30
0.0
 10
284.242281535259
 20
38.42075834176535
 30
0.0
  0
SPLINE
  5
1C4
330
1F
100
AcDbEntity
  8
0
  6
Continuous
 62
     7
370
    15
100
AcDbSpline
210
0.0
220
0.0
230
1.0
 70
     8
 71
     3
 72
    14
 73
    10
 74
     0
 42
0.000000001
 43
0.00000001
 40
0.0
 40
0.0
 40
0.0
 40
0.0
 40
0.25
 40
0.25
 40
0.5
 40
0.5
 40
0.75
 40
0.75
 40
1.0
 40
1.0
 40
1.0
 40
1.0
 10
284.2422815352588
 20
38.42075834176521
 30
0.0
 10
284.0302906624229
 20
38.44451180982045
 30
0.0
 10
283.8341125462111
 20
38.45910362327735
 30
0.0
 10
283.4341658221563
 20
38.49267495243577
 30
0.0
 10
283.2315437016961
 20
38.51098275599936
 30
0.0
 10
282.8254100357166
 20
38.54811610508989
 30
0.0
 10
282.6222093739174
 20
38.56676013899847
 30
0.0
 10
282.2176964416168
 20
38.60295711309621
 30
0.0
 10
282.0158734528858
 20
38.62080525721915
 30
0.0
 10
281.8137161551263
 20
38.63884638664082
 30
0.0
  0
SPLINE
  5
1C5
330
1F
100
AcDbEntity
  8
0
  6
Continuous
 62
     7
370
    15
100
AcDbSpline
210
0.0
220
0.0
230
1.0
 70
     8
 71
     3
 72
    12
 73
     8
 74
     0
 42
0.000000001
 43
0.00000001
 40
0.0
 40
0.0
 40
0.0
 40
0.0
 40
0.0316027464897147
 40
0.42224646983488
 40
0.8128309791953661
 40
0.9907948645948642
 40
1.0
 40
1.0
 40
1.0
 40
1.0
 10
234.9815473586672
 20
39.10719102885889
 30
0.0
 10
234.9814778413615
 20
39.13623578350764
 30
0.0
 10
234.9805490158573
 20
39.52430474838853
 30
0.0
 10
234.945094516451
 20
40.28995950661066
 30
0.0
 10
234.9146548453878
 20
41.18732634509546
 30
0.0
 10
234.9205374274102
 20
41.71435840845021
 30
0.0
 10
234.9266886201369
 20
41.88243860910318
 30
0.0
 10
234.9269911411509
 20
41.89070493971325
 30
0.0
  0
LINE
  5
1C6
330
1F
100
AcDbEntity
  8
0
  6
Continuous
 62
     7
370
    15
100
AcDbLine
 10
233.9208871869
 20
42.0277041966
 30
0.0
 11
233.982626867
 21
43.4874515009
 31
0.0
  0
ARC
  5
1C7
330
1F
100
AcDbEntity
  8
0
  6
Continuous
 62
     7
370
    15
100
AcDbCircle
 10
245.4655186366
 20
41.7028840426
 30
0.0
 40
11.54920012126567
100
AcDbArc
 50
178.388349136
 51
204.8015669302
  0
LINE
  5
1C8
330
1F
100
AcDbEntity
  8
0
  6
Continuous
 62
     7
370
    15
100
AcDbLine
 10
215.4897999014
 20
78.6149300036
 30
0.0
 11
215.5394988119
 21
78.5965938825
 31
0.0
  0
LINE
  5
1C9
330
1F
100
AcDbEntity
  8
0
  6
Continuous
 62
     7
370
    15
100
AcDbLine
 10
205.3659408286
 20
61.0779915572
 30
0.0
 11
205.3043233075
 21
61.1312569691
 31
0.0
  0
LINE
  5
1CA
330
1F
100
AcDbEntity
  8
0
  6
Continuous
 62
     7
370
    15
100
AcDbLine
 10
231.2374673556
 20
44.0206216846
 30
0.0
 11
230.8006362426
 21
44.4092771062
 31
0.0
  0
LINE
  5
1CB
330
1F
100
AcDbEntity
  8
0
  6
Continuous
 62
     7
370
    15
100
AcDbLine
 10
232.5997056969
 20
43.2342182292
 30
0.0
 11
231.2374673556
 21
44.0206216846
 31
0.0
  0
LINE
  5
1CC
330
1F
100
AcDbEntity
  8
0
  6
Continuous
 62
     7
370
    15
100
AcDbLine
 10
234.9815473587
 20
36.1513225168
 30
0.0
 11
234.9815473587
 21
39.1071910289
 31
0.0
  0
ARC
  5
1CD
330
1F
100
AcDbEntity
  8
0
  6
Continuous
 62
     7
370
    15
100
AcDbCircle
 10
275.3233752054
 20
40.6730250973
 30
0.0
 40
4.169039498114603
100
AcDbArc
 50
320.6700295195
 51
350.3607260606
  0
LINE
  5
1CE
330
1F
100
AcDbEntity
  8
0
  6
Continuous
 62
     7
370
    15
100
AcDbLine
 10
281.8137432895
 20
31.7260004603
 30
0.0
 11
284.240373503
 21
34.7447053765
 31
0.0
  0
LINE
  5
1CF
330
1F
100
AcDbEntity
  8
0
  6
Continuous
 62
     7
370
    15
100
AcDbLine
 10
276.0437489901
 20
34.9152796697
 30
0.0
 11
278.5481639145
 21
38.0307480265
 31
0.0
  0
LINE
  5
1D0
330
1F
100
AcDbEntity
  8
0
  6
Continuous
 62
     7
370
    15
100
AcDbLine
 10
234.771943474
 20
31.48766262
 30
0.0
 11
236.4965740407
 21
30.492054586
 31
0.0
  0
SPLINE
  5
1D1
330
1F
100
AcDbEntity
  8
0
  6
Continuous
 62
     7
370
    15
100
AcDbSpline
210
0.0
220
0.0
230
1.0
 70
     8
 71
     3
 72
    14
 73
    10
 74
     0
 42
0.000000001
 43
0.00000001
 40
0.0
 40
0.0
 40
0.0
 40
0.0
 40
0.25
 40
0.25
 40
0.5
 40
0.5
 40
0.75
 40
0.75
 40
1.0
 40
1.0
 40
1.0
 40
1.0
 10
236.4503995166666
 20
30.3725358804207
 30
0.0
 10
236.4336442500888
 20
30.32916634244497
 30
0.0
 10
236.4132701593083
 20
30.28893898337234
 30
0.0
 10
236.3648196305506
 20
30.21517211506733
 30
0.0
 10
236.3365254732927
 20
30.18160394788001
 30
0.0
 10
236.2734645200792
 20
30.12805286917073
 30
0.0
 10
236.2382391036033
 20
30.10759497677804
 30
0.0
 10
236.1634618241
 20
30.09015814394815
 30
0.0
 10
236.1249048035809
 20
30.09410315759828
 30
0.0
 10
236.090958255174
 20
30.11370008286126
 30
0.0
  0
LINE
  5
1D2
330
1F
100
AcDbEntity
  8
0
  6
Continuous
 62
     7
370
    15
100
AcDbLine
 10
236.0909582552
 20
30.1137000829
 30
0.0
 11
234.7390290513
 21
30.8941521999
 31
0.0
  0
SPLINE
  5
1D3
330
1F
100
AcDbEntity
  8
0
  6
Continuous
 62
     7
370
    15
100
AcDbSpline
210
0.0
220
0.0
230
1.0
 70
     8
 71
     3
 72
     8
 73
     4
 74
     0
 42
0.000000001
 43
0.00000001
 40
0.0
 40
0.0
 40
0.0
 40
0.0
 40
0.0011891741919631
 40
0.0011891741919631
 40
0.0011891741919631
 40
0.0011891741919631
 10
234.7390290513175
 20
30.89415219985723
 30
0.0
 10
234.7495815342099
 20
31.09200381865722
 30
0.0
 10
234.7605453297692
 20
31.28984236319769
 30
0.0
 10
234.7719434740158
 20
31.48766262000595
 30
0.0
  0
LWPOLYLINE
  5
1D4
330
1F
100
AcDbEntity
  8
0
  6
Continuous
 62
     7
370
    15
100
AcDbPolyline
 90
       13
 70
   128
 43
0.0
 10
248.3583489665
 20
23.4020998915
 10
246.9608880828
 20
23.0940066911
 10
245.5761434461
 20
22.9419881429
 10
244.2445939013
 20
22.9554624101
 10
242.9760558673
 20
23.1343301582
 10
241.7798812307
 20
23.4772727425
 10
240.6648884026
 20
23.9817619296
 10
239.6392973072
 20
24.644078536
 10
238.7106687835
 20
25.4593398465
 10
237.8858488453
 20
26.4215356105
 10
237.170918211
 20
27.5235723507
 10
236.5711474756
 20
28.7573256574
 10
236.1213678196
 20
30.0124431697
  0
SPLINE
  5
1D5
330
1F
100
AcDbEntity
  8
0
  6
Continuous
 62
     7
370
    15
100
AcDbSpline
210
0.0
220
0.0
230
1.0
 70
     8
 71
     3
 72
     8
 73
     4
 74
     0
 42
0.000000001
 43
0.00000001
 40
0.0
 40
0.0
 40
0.0
 40
0.0
 40
1.0
 40
1.0
 40
1.0
 40
1.0
 10
235.100367397927
 20
32.15159414529391
 30
0.0
 10
234.9906124063462
 20
31.93032901945794
 30
0.0
 10
234.8811496320832
 20
31.70901659001364
 30
0.0
 10
234.7719434740158
 20
31.48766262000595
 30
0.0
  0
LINE
  5
1D6
330
1F
100
AcDbEntity
  8
0
  6
Continuous
 62
     7
370
    15
100
AcDbLine
 10
235.142028252
 20
32.1756444444
 30
0.0
 11
235.1003673979
 21
32.1515941453
 31
0.0
  0
SPLINE
  5
1D7
330
1F
100
AcDbEntity
  8
0
  6
Continuous
 62
     7
370
    15
100
AcDbSpline
210
0.0
220
0.0
230
1.0
 70
     8
 71
     3
 72
    12
 73
     8
 74
     0
 42
0.000000001
 43
0.00000001
 40
0.0
 40
0.0
 40
0.0
 40
0.0
 40
0.25
 40
0.25
 40
0.5
 40
0.5
 40
1.0
 40
1.0
 40
1.0
 40
1.0
 10
235.1538104973804
 20
32.5090094346332
 30
0.0
 10
235.1914182941955
 20
32.48729891565318
 30
0.0
 10
235.221655741601
 20
32.46040819327713
 30
0.0
 10
235.2601368583769
 20
32.40292901362432
 30
0.0
 10
235.2690344615523
 20
32.37180213193809
 30
0.0
 10
235.2639918633659
 20
32.27969868920844
 30
0.0
 10
235.2174036129429
 20
32.21915771409163
 30
0.0
 10
235.1420282519602
 20
32.17564444440227
 30
0.0
  0
LINE
  5
1D8
330
1F
100
AcDbEntity
  8
0
  6
Continuous
 62
     7
370
    15
100
AcDbLine
 10
234.3689219703
 20
32.9621159367
 30
0.0
 11
235.1538104974
 21
32.5090094346
 31
0.0
  0
SPLINE
  5
1D9
330
1F
100
AcDbEntity
  8
0
  6
Continuous
 62
     7
370
    15
100
AcDbSpline
210
0.0
220
0.0
230
1.0
 70
     8
 71
     3
 72
    12
 73
     8
 74
     0
 42
0.000000001
 43
0.00000001
 40
0.0
 40
0.0
 40
0.0
 40
0.0
 40
0.5000000000000073
 40
0.5000000000000073
 40
0.7500000000000037
 40
0.7500000000000037
 40
1.0
 40
1.0
 40
1.0
 40
1.0
 10
233.7914542998939
 20
32.95531419119295
 30
0.0
 10
233.8666596676077
 20
32.99872932585704
 30
0.0
 10
233.9709044666182
 20
33.02577362869995
 30
0.0
 10
234.1322964727137
 20
33.02861933947452
 30
0.0
 10
234.18571590848
 20
33.02343521799547
 30
0.0
 10
234.2855399014961
 20
33.00104009377849
 30
0.0
 10
234.3312725780852
 20
32.98385046816669
 30
0.0
 10
234.3689219702633
 20
32.96211593669481
 30
0.0
  0
LINE
  5
1DA
330
1F
100
AcDbEntity
  8
0
  6
Continuous
 62
     7
370
    15
100
AcDbLine
 10
233.7497934459
 20
32.9312638921
 30
0.0
 11
233.7914542999
 21
32.9553141912
 31
0.0
  0
SPLINE
  5
1DB
330
1F
100
AcDbEntity
  8
0
  6
Continuous
 62
     7
370
    15
100
AcDbSpline
210
0.0
220
0.0
230
1.0
 70
     8
 71
     3
 72
     8
 73
     4
 74
     0
 42
0.000000001
 43
0.00000001
 40
0.0
 40
0.0
 40
0.0
 40
0.0
 40
1.0
 40
1.0
 40
1.0
 40
1.0
 10
232.5997056969124
 20
32.74166879645578
 30
0.0
 10
232.9831435657144
 20
32.80471216959214
 30
0.0
 10
233.3665094763533
 20
32.86790368410495
 30
0.0
 10
233.7497934458607
 20
32.93126389208459
 30
0.0
  0
LINE
  5
1DC
330
1F
100
AcDbEntity
  8
0
  6
Continuous
 62
     7
370
    15
100
AcDbLine
 10
231.2374673556
 20
33.5280722518
 30
0.0
 11
232.5997056969
 21
32.7416687965
 31
0.0
  0
LINE
  5
1DD
330
1F
100
AcDbEntity
  8
0
  6
Continuous
 62
     7
370
    15
100
AcDbLine
 10
231.2374673556
 20
33.5280722518
 30
0.0
 11
235.0522580368
 21
35.7303040362
 31
0.0
  0
ARC
  5
1DE
330
1F
100
AcDbEntity
  8
0
  6
Continuous
 62
     7
370
    15
100
AcDbCircle
 10
244.4245452257
 20
33.3349946063
 30
0.0
 40
9.988339963079987
100
AcDbArc
 50
194.1445570664
 51
238.0420195839
  0
ARC
  5
1DF
330
1F
100
AcDbEntity
  8
0
  6
Continuous
 62
     7
370
    15
100
AcDbCircle
 10
244.6910884614
 20
36.0026280652
 30
0.0
 40
11.36420760553172
100
AcDbArc
 50
195.6801234515
 51
211.7759955533
  0
LWPOLYLINE
  5
1E0
330
1F
100
AcDbEntity
  8
0
  6
Continuous
 62
     7
370
    15
100
AcDbPolyline
 90
        9
 70
   128
 43
0.0
 10
237.9543684431
 20
25.6898910038
 10
237.9345755928
 20
25.6971204365
 10
236.8195827647
 20
26.2016096236
 10
235.7939916693
 20
26.8639262299
 10
234.8653631457
 20
27.6791875404
 10
234.0405432074
 20
28.6413833044
 10
233.3256125731
 20
29.7434200447
 10
232.7258418377
 20
30.9771733513
 10
232.2456526173
 20
32.3335477768
  0
SPLINE
  5
1E1
330
1F
100
AcDbEntity
  8
0
  6
Continuous
 62
     7
370
    15
100
AcDbSpline
210
0.0
220
0.0
230
1.0
 70
     8
 71
     3
 72
     8
 73
     4
 74
     0
 42
0.000000001
 43
0.00000001
 40
0.0
 40
0.0
 40
0.0
 40
0.0
 40
0.0011891741919631
 40
0.0011891741919631
 40
0.0011891741919631
 40
0.0011891741919631
 10
232.5997056969124
 20
32.74166879645578
 30
0.0
 10
232.4819695169209
 20
32.60523618101031
 30
0.0
 10
232.3639458476586
 20
32.46920198601612
 30
0.0
 10
232.2456526173094
 20
32.33354777681375
 30
0.0
  0
ELLIPSE
  5
1E2
330
1F
100
AcDbEntity
  8
0
  6
Continuous
 62
     7
370
    15
100
AcDbEllipse
 10
234.9351007493
 20
36.1245538235
 30
0.0
 11
-3.002985195621477E-5
 21
0.4267244807413632
 31
0.0
210
0.0
220
0.0
230
1.0
 40
0.7174342186
 41
3.534193645557309
 42
5.104989972352356
  0
LINE
  5
1E3
330
1F
100
AcDbEntity
  8
0
  6
Continuous
 62
     7
370
    15
100
AcDbLine
 10
230.8006362426
 20
33.2758429413
 30
0.0
 11
231.2374673556
 21
33.5280722518
 31
0.0
  0
LINE
  5
1E4
330
1F
100
AcDbEntity
  8
0
  6
Continuous
 62
     7
370
    15
100
AcDbLine
 10
232.2456526173
 20
32.3335477768
 30
0.0
 11
230.9025622482
 21
33.1088973431
 31
0.0
  0
SPLINE
  5
1E5
330
1F
100
AcDbEntity
  8
0
  6
Continuous
 62
     7
370
    15
100
AcDbSpline
210
0.0
220
0.0
230
1.0
 70
     8
 71
     3
 72
    10
 73
     6
 74
     0
 42
0.000000001
 43
0.00000001
 40
0.0
 40
0.0
 40
0.0
 40
0.0
 40
0.5
 40
0.5
 40
1.0
 40
1.0
 40
1.0
 40
1.0
 10
230.9025622482177
 20
33.10889734311083
 30
0.0
 10
230.8761025047936
 20
33.12417222785455
 30
0.0
 10
230.853801845753
 20
33.14809344156301
 30
0.0
 10
230.819730463407
 20
33.20616391988323
 30
0.0
 10
230.8078796549694
 20
33.24014498724305
 30
0.0
 10
230.8006362425745
 20
33.27584294134948
 30
0.0
  0
ARC
  5
1E6
330
1F
100
AcDbEntity
  8
0
  6
Continuous
 62
     7
370
    15
100
AcDbCircle
 10
240.5638669456
 20
35.5234364751
 30
0.0
 40
9.953210439802563
100
AcDbArc
 50
194.7636699143
 51
238.0801256949
  0
ELLIPSE
  5
1E7
330
1F
100
AcDbEntity
  8
0
  6
Continuous
 62
     7
370
    15
100
AcDbEllipse
 10
234.6987046462
 20
35.9880408944
 30
0.0
 11
0.1300037894604884
 21
0.485271810495476
 31
0.0
210
0.0
220
0.0
230
1.0
 40
0.5176380889
 41
3.619174351347829
 42
5.189970678142578
  0
ARC
  5
1E8
330
1F
100
AcDbEntity
  8
0
  6
Continuous
 62
     7
370
     0
100
AcDbCircle
 10
257.0845146785
 20
34.7843765541
 30
0.0
 40
9.414460718690172
100
AcDbArc
 50
177.0003762388
 51
215.0372128031
  0
LWPOLYLINE
  5
1E9
330
1F
100
AcDbEntity
  8
0
  6
Continuous
 62
     7
370
     0
100
AcDbPolyline
 90
       21
 70
   128
 43
0.0
 10
264.6249385324
 20
56.3907395131
 10
263.5983612303
 20
56.3999536696
 10
262.4927896103
 20
56.2517897232
 10
261.3489136782
 20
55.9453798207
 10
260.179265978
 20
55.4840810533
 10
258.9966614147
 20
54.8729475067
 10
257.8140568515
 20
54.118674888
 10
256.6444091513
 20
53.2295271659
 10
255.5005332191
 20
52.2152460288
 10
254.3949615991
 20
51.0869441531
 10
253.3398071652
 20
49.8569834504
 10
252.3466304103
 20
48.5388396273
 10
251.4263127866
 20
47.1469545436
 10
250.5889374867
 20
45.6965779835
 10
249.8436789696
 20
44.203600576
 10
249.1987024436
 20
42.6843796941
 10
248.6610744064
 20
41.1555602396
 10
248.2366852233
 20
39.6338922785
 10
247.930184591
 20
38.1360475233
 10
247.7449305947
 20
36.6784366746
 10
247.6829529157
 20
35.277029622
  0
LWPOLYLINE
  5
1EA
330
1F
100
AcDbEntity
  8
0
  6
Continuous
 62
     7
370
     0
100
AcDbPolyline
 90
       17
 70
   128
 43
0.0
 10
270.310808233
 20
24.8725105562
 10
270.7825079355
 20
24.2201109598
 10
271.3602162032
 20
23.7129384045
 10
272.032875065
 20
23.36070073
 10
272.7876090914
 20
23.1701401525
 10
273.6099718438
 20
23.1449042107
 10
274.4842223957
 20
23.2854759484
 10
275.3936266311
 20
23.589164668
 10
276.3207775538
 20
24.0501574338
 10
277.2479284764
 20
24.6596303378
 10
278.1573327118
 20
25.405917399
 10
279.0315832637
 20
26.2747338631
 10
279.8539460162
 20
27.2494496286
 10
280.6086800425
 20
28.3114075647
 10
281.2813389043
 20
29.4402806299
 10
281.859047172
 20
30.6144609534
 10
282.3307468745
 20
31.8114734339
  0
LWPOLYLINE
  5
1EB
330
1F
100
AcDbEntity
  8
0
  6
Continuous
 62
     7
370
     0
100
AcDbPolyline
 90
       17
 70
   128
 43
0.0
 10
282.3303724609
 20
38.7427293592
 10
281.8586321566
 20
39.3949378346
 10
281.2809150679
 20
39.9019431526
 10
280.6082768478
 20
40.2540428567
 10
279.8535896356
 20
40.4444988874
 10
279.0312957253
 20
40.4696665266
 10
278.1571311863
 20
40.3290641466
 10
277.2478247256
 20
40.025382426
 10
276.3207775538
 20
39.5644328596
 10
275.393730382
 20
38.9550365444
 10
274.4844239212
 20
38.2088553723
 10
273.6102593822
 20
37.3401688589
 10
272.7879654719
 20
36.3656008794
 10
272.0332782598
 20
35.3038015406
 10
271.3606400397
 20
34.1750902783
 10
270.7829229509
 20
33.0010670075
 10
270.3111826466
 20
31.8041987702
  0
LWPOLYLINE
  5
1EC
330
1F
100
AcDbEntity
  8
0
  6
Continuous
 62
     7
370
     0
100
AcDbPolyline
 90
        3
 70
   128
 43
0.0
 10
281.5591818834
 20
38.7478432726
 10
281.0688246701
 20
39.3497014726
 10
280.4761105391
 20
39.8004738182
  0
LINE
  5
1ED
330
1F
100
AcDbEntity
  8
0
  6
Continuous
 62
     7
370
     0
100
AcDbLine
 10
268.0476282139
 20
25.3968324961
 30
0.0
 11
268.1360165615
 21
25.0669697035
 31
0.0
  0
LWPOLYLINE
  5
1EE
330
1F
100
AcDbEntity
  8
0
  6
Continuous
 62
     7
370
     0
100
AcDbPolyline
 90
       14
 70
   128
 43
0.0
 10
271.4675898663
 20
24.2169574132
 10
272.1469776848
 20
23.9285420337
 10
272.9117868014
 20
23.8010661634
 10
273.73904148
 20
23.8413890968
 10
274.6118346866
 20
24.048686733
 10
275.5123286926
 20
24.4187224224
 10
276.4221196338
 20
24.9439335533
 10
277.3226136398
 20
25.6135861128
 10
278.1954068464
 20
26.4139940633
 10
279.022661525
 20
27.3287990514
 10
279.7874706416
 20
28.3393047319
 10
280.4742033948
 20
29.4248588749
 10
281.0688246701
 20
30.5632754459
 10
281.5591818834
 20
31.7312880335
  0
LINE
  5
1EF
330
1F
100
AcDbEntity
  8
0
  6
Continuous
 62
     7
370
     0
100
AcDbLine
 10
236.4503995167
 20
41.0508107536
 30
0.0
 11
236.5287736894
 21
41.4100783101
 31
0.0
  0
LWPOLYLINE
  5
1F0
330
1F
100
AcDbEntity
  8
0
  6
Continuous
 62
     7
370
     0
100
AcDbPolyline
 90
       16
 70
   128
 43
0.0
 10
253.265579331
 20
65.2636151531
 10
254.4764457066
 20
65.891957714
 10
255.9505324998
 20
66.52205292
 10
257.4025792247
 20
66.9931701536
 10
258.8217248217
 20
67.3017855391
 10
260.1973543264
 20
67.4455906867
 10
261.5191782669
 20
67.4235099584
 10
262.7773096278
 20
67.2357085144
 10
263.9623378032
 20
66.8835910772
 10
265.0653989865
 20
66.3697914245
 10
266.0782424701
 20
65.6981526891
 10
266.9932923591
 20
64.8736986133
 10
267.803704238
 20
63.9025959715
 10
268.5034163654
 20
62.7921084441
 10
269.0871950153
 20
61.5505422866
 10
269.5506736238
 20
60.1871842
  0
LWPOLYLINE
  5
1F1
330
1F
100
AcDbEntity
  8
0
  6
Continuous
 62
     7
370
     0
100
AcDbPolyline
 90
       20
 70
   128
 43
0.0
 10
236.0909582552
 20
41.3844893713
 10
236.5711474756
 20
43.2952784697
 10
237.170918211
 20
45.2215123275
 10
237.8858488453
 20
47.1489904081
 10
238.7106687835
 20
49.0635030022
 10
239.6392973072
 20
50.9509359843
 10
240.6648884026
 20
52.7973748646
 10
241.7798812307
 20
54.5892073692
 10
242.9760558673
 20
56.3132237919
 10
244.2445939013
 20
57.9567143788
 10
245.5761434461
 20
59.5075630265
 10
246.9608880828
 20
60.9543366045
 10
248.3886192291
 20
62.2863692421
 10
249.8488113984
 20
63.4938409592
 10
251.3306997959
 20
64.5678500607
 10
252.8233596782
 20
65.5004787615
 10
254.3157868925
 20
66.2848515579
 10
255.7969790017
 20
66.9151859149
 10
257.2560163953
 20
67.3868348961
 10
257.2596692315
 20
67.3878233825
  0
LINE
  5
1F2
330
1F
100
AcDbEntity
  8
0
  6
Continuous
 62
     7
370
     0
100
AcDbLine
 10
267.4439761531
 20
25.7453134132
 30
0.0
 11
268.0476282139
 21
25.3968324961
 31
0.0
  0
ARC
  5
1F3
330
1F
100
AcDbEntity
  8
0
  6
Continuous
 62
     7
370
     0
100
AcDbCircle
 10
265.7060232255
 20
36.976993951
 30
0.0
 40
25.33608558409563
100
AcDbArc
 50
157.5409136953
 51
172.3708853626
  0
LWPOLYLINE
  5
1F4
330
1F
100
AcDbEntity
  8
0
  6
Continuous
 62
     7
370
     0
100
AcDbPolyline
 90
       16
 70
   128
 43
0.0
 10
247.8484566819
 20
55.5172883086
 10
247.8781808751
 20
55.5498448855
 10
249.0432622771
 20
56.7451807862
 10
250.2475690022
 20
57.8268482606
 10
251.4791739444
 20
58.7841347865
 10
252.7258796444
 20
59.6075596748
 10
253.975339089
 20
60.2889679633
 10
255.215177993
 20
60.8216111812
 10
256.4331173501
 20
61.200214184
 10
257.6170950409
 20
61.4210273969
 10
258.7553852923
 20
61.4818639498
 10
259.8367148067
 20
61.3821213349
 10
260.850374409
 20
61.1227873743
 10
261.7863251074
 20
60.7064304366
 10
262.6352975166
 20
60.1371740006
 10
263.3599885284
 20
59.4528113619
  0
LWPOLYLINE
  5
1F5
330
1F
100
AcDbEntity
  8
0
  6
Continuous
 62
     7
370
     0
100
AcDbPolyline
 90
       10
 70
   128
 43
0.0
 10
245.8989076597
 20
29.2060548433
 10
245.7113458067
 20
29.2492782781
 10
244.7310518488
 20
29.5788598218
 10
243.8326901
 20
30.0638203324
 10
243.0251576755
 20
30.699356901
 10
242.316452143
 20
31.4791753572
 10
241.7135923174
 20
32.3955526043
 10
241.2225487482
 20
33.4394131068
 10
240.848184589
 20
34.600418772
 10
240.5942074343
 20
35.8670713351
  0
LWPOLYLINE
  5
1F6
330
1F
100
AcDbEntity
  8
0
  6
Continuous
 62
     7
370
     0
100
AcDbPolyline
 90
       17
 70
   128
 43
0.0
 10
254.1540105607
 20
26.1291891709
 10
252.9913447603
 20
25.4135179657
 10
251.5063379603
 20
24.631723874
 10
250.0325329015
 20
24.0042842562
 10
248.5809533921
 20
23.5358922524
 10
247.1624569967
 20
23.2300513541
 10
245.787653824
 20
23.0890491987
 10
244.466827165
 20
23.1139404579
 10
243.2098565756
 20
23.3045389495
 10
242.0261439793
 20
23.6594190295
 10
240.9245433424
 20
24.175926256
 10
239.913294448
 20
24.850197244
 10
238.9999612636
 20
25.6771885626
 10
238.1913753642
 20
26.6507144592
 10
237.4935848329
 20
27.7634931278
 10
236.9118090228
 20
29.0072011755
 10
236.4503995167
 20
30.3725358804
  0
LWPOLYLINE
  5
1F7
330
1F
100
AcDbEntity
  8
0
  6
Continuous
 62
     7
370
     0
100
AcDbPolyline
 90
       22
 70
   128
 43
0.0
 10
245.9417024671
 20
35.0882352461
 10
246.0050553033
 20
36.5673513736
 10
246.1944637263
 20
38.1044353959
 10
246.5079841493
 20
39.683714751
 10
246.9423994284
 20
41.2889838954
 10
247.4932518751
 20
42.9037705955
 10
248.1548889979
 20
44.5115049547
 10
248.9205215044
 20
46.0956894427
 10
249.7822929692
 20
47.640068183
 10
250.7313604508
 20
49.1287937599
 10
251.7579852326
 20
50.5465898343
 10
252.8516327551
 20
51.8789078999
 10
254.0010807148
 20
53.1120765706
 10
255.19453422
 20
54.2334418668
 10
256.419746823
 20
55.2314970634
 10
257.6641461844
 20
56.0960007633
 10
258.9149630827
 20
56.8180819888
 10
260.1593624441
 20
57.3903312093
 10
261.384575047
 20
57.8068763736
 10
262.5780285523
 20
58.0634431644
 10
263.7274765119
 20
58.1573988593
 10
264.4592943472
 20
58.1295243686
  0
ARC
  5
1F8
330
1F
100
AcDbEntity
  8
0
  6
Continuous
 62
     7
370
     0
100
AcDbCircle
 10
256.4511632476
 20
34.5927243365
 30
0.0
 40
10.52113572575201
100
AcDbArc
 50
177.3005585504
 51
212.4830078244
  0
LWPOLYLINE
  5
1F9
330
1F
100
AcDbEntity
  8
0
  6
Continuous
 62
     7
370
     0
100
AcDbPolyline
 90
       12
 70
   128
 43
0.0
 10
246.6488092482
 20
35.0882352461
 10
246.7123805237
 20
33.7008043818
 10
246.9024204786
 20
32.4014784622
 10
247.2169146423
 20
31.2040306651
 10
247.6525292983
 20
30.1211542351
 10
248.204646823
 20
29.1643279319
 10
248.8674146331
 20
28.3436943521
 10
249.6338072252
 20
27.667952416
 10
250.4957006469
 20
27.1442651561
 10
251.4439586137
 20
26.7781837876
 10
252.4685293551
 20
26.5735888643
 10
253.460296938
 20
26.529661521
  0
LWPOLYLINE
  5
1FA
330
1F
100
AcDbEntity
  8
0
  6
Continuous
 62
     7
370
     0
100
AcDbPolyline
 90
       28
 70
   128
 43
0.0
 10
269.4589966602
 20
54.2432251172
 10
269.3718533395
 20
54.398474832
 10
268.7636041884
 20
55.288384714
 10
268.0480752603
 20
56.0375658188
 10
267.2328513398
 20
56.6380766401
 10
266.3265740032
 20
57.0835516141
 10
265.3388500159
 20
57.369268595
 10
264.2801494977
 20
57.4921989119
 10
263.1616949376
 20
57.4510394727
 10
261.9953422321
 20
57.2462265778
 10
260.7934550101
 20
56.8799312949
 10
259.568773575
 20
56.3560364449
 10
258.3342798549
 20
55.6800954438
 10
257.1030597902
 20
54.8592734342
 10
255.8881646198
 20
53.9022713336
 10
254.7024725349
 20
52.8192336024
 10
253.5585521666
 20
51.62164071
 10
252.4685293551
 20
50.3221874389
 10
251.4439586137
 20
48.9346483171
 10
250.4957006469
 20
47.4737316045
 10
249.6338072252
 20
45.9549233816
 10
248.8674146331
 20
44.3943233934
 10
248.204646823
 20
42.8084743881
 10
247.6525292983
 20
41.2141867596
 10
247.2169146423
 20
39.6283603534
 10
246.9024204786
 20
38.0678053239
 10
246.7123805237
 20
36.5490639427
 10
246.6488092482
 20
35.0882352461
  0
LWPOLYLINE
  5
1FB
330
1F
100
AcDbEntity
  8
0
  6
Continuous
 62
     7
370
     0
100
AcDbPolyline
 90
       20
 70
   128
 43
0.0
 10
230.9025622482
 20
44.3796866316
 10
231.3827514686
 20
46.2904757299
 10
231.982522204
 20
48.2167095878
 10
232.6974528383
 20
50.1441876684
 10
233.5222727766
 20
52.0587002624
 10
234.4509013002
 20
53.9461332445
 10
235.4764923956
 20
55.7925721249
 10
236.5914852238
 20
57.5844046295
 10
237.7876598603
 20
59.3084210522
 10
239.0561978944
 20
60.951911639
 10
240.3877474391
 20
62.5027602867
 10
241.7724920758
 20
63.9495338647
 10
243.2002232221
 20
65.2815665024
 10
244.6604153915
 20
66.4890382195
 10
246.142303789
 20
67.5630473209
 10
247.6349636712
 20
68.4956760217
 10
249.1273908856
 20
69.2800488181
 10
250.6085829947
 20
69.9103831751
 10
252.0676203883
 20
70.3820321564
 10
252.0804258717
 20
70.3854931127
  0
LWPOLYLINE
  5
1FC
330
1F
100
AcDbEntity
  8
0
  6
Continuous
 62
     7
370
     0
100
AcDbPolyline
 90
       21
 70
   128
 43
0.0
 10
240.868211312
 20
38.0170993473
 10
240.9315641483
 20
39.4962154748
 10
241.1209725713
 20
41.0332994971
 10
241.4344929943
 20
42.6125788521
 10
241.8689082734
 20
44.2178479965
 10
242.4197607201
 20
45.8326346967
 10
243.0813978428
 20
47.4403690558
 10
243.8470303494
 20
49.0245535439
 10
244.7088018142
 20
50.5689322842
 10
245.6578692958
 20
52.0576578611
 10
246.6844940776
 20
53.4754539355
 10
247.7781416001
 20
54.8077720011
 10
248.9275895597
 20
56.0409406717
 10
250.121043065
 20
57.162305968
 10
251.346255668
 20
58.1603611646
 10
252.5906550293
 20
59.0248648645
 10
253.8414719277
 20
59.74694609
 10
255.085871289
 20
60.3191953105
 10
256.311083892
 20
60.7357404747
 10
257.5045373973
 20
60.9923072655
 10
257.7982329215
 20
61.0313088279
  0
ARC
  5
1FD
330
1F
100
AcDbEntity
  8
0
  6
Continuous
 62
     7
370
     0
100
AcDbCircle
 10
253.9804756856
 20
37.8728273947
 30
0.0
 40
13.11305804910834
100
AcDbArc
 50
179.3696099926
 51
195.2575728886
  0
LWPOLYLINE
  5
1FE
330
1F
100
AcDbEntity
  8
0
  6
Continuous
 62
     7
370
     0
100
AcDbPolyline
 90
       26
 70
   128
 43
0.0
 10
246.9758461345
 20
35.277029622
 10
247.0397606159
 20
36.722230645
 10
247.2308037997
 20
38.2253918327
 10
247.5468825767
 20
39.7700442365
 10
247.9845339218
 20
41.3392643214
 10
248.5389628351
 20
42.9158593838
 10
249.2040948776
 20
44.4825559183
 10
249.9726427234
 20
46.0221888698
 10
250.8361860014
 20
47.5178896974
 10
251.7852635508
 20
48.95327119
 10
252.8094770793
 20
50.3126070075
 10
253.8976050893
 20
51.5810039822
 10
255.0377258224
 20
52.7445652915
 10
256.2173478774
 20
53.7905427141
 10
257.4235470683
 20
54.7074763026
 10
258.6431080241
 20
55.4853199406
 10
259.86266898
 20
56.1155514105
 10
261.0688681708
 20
56.5912657644
 10
262.2484902258
 20
56.9072509763
 10
263.388610959
 20
57.0600450461
 10
264.4767389689
 20
57.04797393
 10
265.5009524975
 20
56.8711698817
 10
266.4500300468
 20
56.5315700033
 10
267.3135733249
 20
56.0328950221
 10
268.0821211706
 20
55.3806085257
 10
268.6581861086
 20
54.7055232083
  0
LWPOLYLINE
  5
1FF
330
1F
100
AcDbEntity
  8
0
  6
Continuous
 62
     7
370
     0
100
AcDbPolyline
 90
       11
 70
   128
 43
0.0
 10
252.6594863864
 20
26.9919596121
 10
251.7852635508
 20
27.1536232073
 10
250.8361860014
 20
27.4932230857
 10
249.9726427234
 20
27.9918980668
 10
249.2040948776
 20
28.6441845633
 10
248.5389628351
 20
29.4429359877
 10
247.9845339218
 20
30.3794010523
 10
247.5468825767
 20
31.4433196499
 10
247.2308037997
 20
32.6230352656
 10
247.0397606159
 20
33.9056226884
 10
246.9758461345
 20
35.277029622
  0
LWPOLYLINE
  5
200
330
1F
100
AcDbEntity
  8
0
  6
Continuous
 62
     7
370
     0
100
AcDbPolyline
 90
       19
 70
   128
 43
0.0
 10
234.3689219703
 20
43.4546653694
 10
234.8313614031
 20
45.2775844207
 10
235.4111933447
 20
47.1149284038
 10
236.10387065
 20
48.9522885406
 10
236.9039612206
 20
50.7752559266
 10
237.805190604
 20
52.5695345276
 10
238.8004911992
 20
54.321053292
 10
239.8820576821
 20
56.0160764984
 10
241.0414082163
 20
57.6413114738
 10
242.2694509688
 20
59.1840128366
 10
243.5565554101
 20
60.6320824487
 10
244.8926278387
 20
61.9741642909
 10
246.267190537
 20
63.1997335189
 10
247.6694639402
 20
64.2991790011
 10
249.0884511711
 20
65.2638786907
 10
250.5130242797
 20
66.0862672412
 10
251.9320115106
 20
66.7598953357
 10
253.3342849138
 20
67.2794802628
 10
253.6493386506
 20
67.3755877561
  0
LWPOLYLINE
  5
201
330
1F
100
AcDbEntity
  8
0
  6
Continuous
 62
     7
370
     0
100
AcDbPolyline
 90
       21
 70
   128
 43
0.0
 10
233.7914542999
 20
43.4478636239
 10
234.2571240475
 20
45.3089248174
 10
234.8434199216
 20
47.1855681673
 10
235.5457076478
 20
49.0629600706
 10
236.3584361141
 20
50.9262610074
 10
237.2751812487
 20
52.7607428376
 10
238.2886967983
 20
54.5519052165
 10
239.3909716044
 20
56.2855902108
 10
240.5732929262
 20
57.9480942071
 10
241.8263153093
 20
59.5262762298
 10
243.1401344547
 20
61.0076618119
 10
244.5043655061
 20
62.3805415972
 10
245.908225135
 20
63.6340638947
 10
247.3406167756
 20
64.7583204539
 10
248.7902183356
 20
65.7444247833
 10
250.2455716902
 20
66.5845823917
 10
251.6951732503
 20
67.2721523983
 10
253.1275648908
 20
67.801700025
 10
254.5314245197
 20
68.1690395541
 10
255.8956555711
 20
68.3712674137
 10
256.9673796706
 20
68.4128561548
  0
LINE
  5
202
330
1F
100
AcDbEntity
  8
0
  6
Continuous
 62
     7
370
     0
100
AcDbLine
 10
284.505538546
 20
34.5168935979
 30
0.0
 11
284.240373503
 21
34.7447053765
 31
0.0
  0
LINE
  5
203
330
1F
100
AcDbEntity
  8
0
  6
Continuous
 62
     7
370
     0
100
AcDbLine
 10
234.8312871677
 20
41.5021414746
 30
0.0
 11
234.8370905324
 21
41.9426034565
 31
0.0
  0
LWPOLYLINE
  5
204
330
1F
100
AcDbEntity
  8
0
  6
Continuous
 62
     7
370
     0
100
AcDbPolyline
 90
        3
 70
   128
 43
0.0
 10
234.9172990357
 20
39.8717335784
 10
234.8946400039
 20
40.0961709749
 10
234.8312871677
 20
41.5021414746
  0
LWPOLYLINE
  5
205
330
1F
100
AcDbEntity
  8
0
  6
Continuous
 62
     7
370
     0
100
AcDbPolyline
 90
       18
 70
   128
 43
0.0
 10
203.7551729886
 20
65.3883453505
 10
203.8193937338
 20
66.5332380429
 10
204.0109099484
 20
67.7318477922
 10
204.3263040212
 20
68.9627853788
 10
204.7599477375
 20
70.2040846926
 10
205.3041027148
 20
71.4335947177
 10
205.9490584947
 20
72.6293748187
 10
206.683305826
 20
73.7700862714
 10
207.4937420478
 20
74.8353730528
 10
208.3659049063
 20
75.8062250951
 10
209.2842306348
 20
76.6653175206
 10
210.2323316889
 20
77.3973198046
 10
211.1932891828
 20
77.989169349
 10
212.1499548072
 20
78.4303045847
 10
213.0852568414
 20
78.7128534429
 10
213.9825047986
 20
78.8317738326
 10
214.8256872675
 20
78.7849436167
 10
215.4897999014
 20
78.6149300036
  0
ARC
  5
206
330
1F
100
AcDbEntity
  8
0
  6
Continuous
 62
     7
370
     0
100
AcDbCircle
 10
209.1545334393
 20
64.9427560263
 30
0.0
 40
5.417715673794263
100
AcDbArc
 50
175.2822811927
 51
224.710513377
  0
LINE
  5
207
330
1F
100
AcDbEntity
  8
0
  6
Continuous
 62
     7
370
     0
100
AcDbLine
 10
240.5942074343
 20
43.0235011007
 30
0.0
 11
240.3113187482
 21
43.1868092631
 31
0.0
  0
LINE
  5
208
330
1F
100
AcDbEntity
  8
0
  6
Continuous
 62
     7
370
     0
100
AcDbLine
 10
235.2179434617
 20
36.2878354458
 30
0.0
 11
240.5942074343
 21
33.1841843175
 31
0.0
  0
LINE
  5
209
330
1F
100
AcDbEntity
  8
0
  6
Continuous
 62
     7
370
     0
100
AcDbLine
 10
234.9815473587
 20
36.1513225168
 30
0.0
 11
235.2179434617
 21
36.2878354458
 31
0.0
  0
LINE
  5
20A
330
1F
100
AcDbEntity
  8
0
  6
Continuous
 62
     7
370
     0
100
AcDbLine
 10
278.5481639145
 20
38.0307480265
 30
0.0
 11
284.240373503
 21
34.7447053765
 31
0.0
  0
LINE
  5
20B
330
1F
100
AcDbEntity
  8
0
  6
Continuous
 62
     7
370
     0
100
AcDbLine
 10
236.1213678196
 20
30.0124431697
 30
0.0
 11
236.0909582552
 21
30.1137000829
 31
0.0
  0
LINE
  5
20C
330
1F
100
AcDbEntity
  8
0
  6
Continuous
 62
     7
370
     0
100
AcDbLine
 10
240.3113647219
 20
32.6942863704
 30
0.0
 11
235.0522580368
 21
35.7303040362
 31
0.0
  0
LINE
  5
20D
330
1F
100
AcDbEntity
  8
0
  6
Continuous
 62
     7
370
     0
100
AcDbLine
 10
235.2300792106
 20
32.2626576228
 30
0.0
 11
235.1538104974
 21
32.5090094346
 31
0.0
  0
LWPOLYLINE
  5
20E
330
1F
100
AcDbEntity
  8
0
  6
Continuous
 62
     7
370
     0
100
AcDbPolyline
 90
        3
 70
   128
 43
0.0
 10
234.842831623
 20
31.6461757491
 10
234.8313614031
 20
31.6731180897
 10
234.3689219703
 20
32.9621159367
  0
ARC
  5
20F
330
1F
100
AcDbEntity
  8
0
  6
Continuous
 62
     7
370
     0
100
AcDbCircle
 10
244.78742894
 20
36.0616459582
 30
0.0
 40
11.42631853801515
100
AcDbArc
 50
195.7748360327
 51
210.5068960962
  0
LINE
  5
210
330
1F
100
AcDbEntity
  8
0
  6
Continuous
 62
     7
370
     0
100
AcDbLine
 10
230.9392600845
 20
32.9870333472
 30
0.0
 11
230.9025622482
 21
33.1088973431
 31
0.0
  0
OLE2FRAME
  5
211
330
1F
100
AcDbEntity
  8
0
100
AcDbOle2Frame
 70
     2
  3
Paintbrush-Bild
 10
13.8511154363
 20
38.264191557
 30
0.0
 11
51.6290888628
 21
31.9806341108
 31
0.0
 71
     2
 72
     0
 73
     1
 90
    12928
310
80552BED0767C5B32B40DDAF6807D121434000000000000000006FFBDDFB85D0
310
4940DDAF6807D121434000000000000000006FFBDDFB85D04940416F4BD60AFB
310
3F4000000000000000002BED0767C5B32B40416F4BD60AFB3F40000000000000
310
0000000000000100000000010000010000000100000000000100000000320000
310
D0CF11E0A1B11AE1000000000000000000000000000000003E000300FEFF0900
310
0600000000000000000000000100000001000000000000000010000002000000
310
01000000FEFFFFFF0000000000000000FFFFFFFFFFFFFFFFFFFFFFFFFFFFFFFF
310
FFFFFFFFFFFFFFFFFFFFFFFFFFFFFFFFFFFFFFFFFFFFFFFFFFFFFFFFFFFFFFFF
310
FFFFFFFFFFFFFFFFFFFFFFFFFFFFFFFFFFFFFFFFFFFFFFFFFFFFFFFFFFFFFFFF
310
FFFFFFFFFFFFFFFFFFFFFFFFFFFFFFFFFFFFFFFFFFFFFFFFFFFFFFFFFFFFFFFF
310
FFFFFFFFFFFFFFFFFFFFFFFFFFFFFFFFFFFFFFFFFFFFFFFFFFFFFFFFFFFFFFFF
310
FFFFFFFFFFFFFFFFFFFFFFFFFFFFFFFFFFFFFFFFFFFFFFFFFFFFFFFFFFFFFFFF
310
FFFFFFFFFFFFFFFFFFFFFFFFFFFFFFFFFFFFFFFFFFFFFFFFFFFFFFFFFFFFFFFF
310
FFFFFFFFFFFFFFFFFFFFFFFFFFFFFFFFFFFFFFFFFFFFFFFFFFFFFFFFFFFFFFFF
310
FFFFFFFFFFFFFFFFFFFFFFFFFFFFFFFFFFFFFFFFFFFFFFFFFFFFFFFFFFFFFFFF
310
FFFFFFFFFFFFFFFFFFFFFFFFFFFFFFFFFFFFFFFFFFFFFFFFFFFFFFFFFFFFFFFF
310
FFFFFFFFFFFFFFFFFFFFFFFFFFFFFFFFFFFFFFFFFFFFFFFFFFFFFFFFFFFFFFFF
310
FFFFFFFFFFFFFFFFFFFFFFFFFFFFFFFFFFFFFFFFFFFFFFFFFFFFFFFFFFFFFFFF
310
FFFFFFFFFFFFFFFFFFFFFFFFFFFFFFFFFFFFFFFFFFFFFFFFFFFFFFFFFFFFFFFF
310
FFFFFFFFFFFFFFFFFFFFFFFFFFFFFFFFFFFFFFFFFFFFFFFFFFFFFFFFFFFFFFFF
310
FDFFFFFFFEFFFFFFFEFFFFFFFEFFFFFF05000000060000000700000008000000
310
090000000A0000000B0000000C0000000D0000000E0000000F00000010000000
310
11000000120000001300000014000000150000001600000017000000FEFFFFFF
310
FFFFFFFFFFFFFFFFFFFFFFFFFFFFFFFFFFFFFFFFFFFFFFFFFFFFFFFFFFFFFFFF
310
FFFFFFFFFFFFFFFFFFFFFFFFFFFFFFFFFFFFFFFFFFFFFFFFFFFFFFFFFFFFFFFF
310
FFFFFFFFFFFFFFFFFFFFFFFFFFFFFFFFFFFFFFFFFFFFFFFFFFFFFFFFFFFFFFFF
310
FFFFFFFFFFFFFFFFFFFFFFFFFFFFFFFFFFFFFFFFFFFFFFFFFFFFFFFFFFFFFFFF
310
FFFFFFFFFFFFFFFFFFFFFFFFFFFFFFFFFFFFFFFFFFFFFFFFFFFFFFFFFFFFFFFF
310
FFFFFFFFFFFFFFFFFFFFFFFFFFFFFFFFFFFFFFFFFFFFFFFFFFFFFFFFFFFFFFFF
310
FFFFFFFFFFFFFFFFFFFFFFFFFFFFFFFFFFFFFFFFFFFFFFFFFFFFFFFFFFFFFFFF
310
FFFFFFFFFFFFFFFFFFFFFFFFFFFFFFFFFFFFFFFFFFFFFFFFFFFFFFFFFFFFFFFF
310
FFFFFFFFFFFFFFFFFFFFFFFFFFFFFFFFFFFFFFFFFFFFFFFFFFFFFFFFFFFFFFFF
310
FFFFFFFFFFFFFFFFFFFFFFFFFFFFFFFFFFFFFFFFFFFFFFFFFFFFFFFFFFFFFFFF
310
FFFFFFFFFFFFFFFFFFFFFFFFFFFFFFFFFFFFFFFFFFFFFFFFFFFFFFFFFFFFFFFF
310
FFFFFFFFFFFFFFFFFFFFFFFFFFFFFFFFFFFFFFFFFFFFFFFFFFFFFFFFFFFFFFFF
310
FFFFFFFFFFFFFFFFFFFFFFFFFFFFFFFFFFFFFFFFFFFFFFFFFFFFFFFFFFFFFFFF
310
52006F006F007400200045006E00740072007900000000000000000000000000
310
0000000000000000000000000000000000000000000000000000000000000000
310
16000500FFFFFFFFFFFFFFFF020000000A00030000000000C000000000000046
310
000000000000000000000000F0621EF6171BD20103000000C000000000000000
310
01004F006C006500000000000000000000000000000000000000000000000000
310
0000000000000000000000000000000000000000000000000000000000000000
310
0A000200FFFFFFFFFFFFFFFFFFFFFFFF00000000000000000000000000000000
310
0000000000000000000000000000000000000000000000001400000000000000
310
010043006F006D0070004F0062006A0000000000000000000000000000000000
310
0000000000000000000000000000000000000000000000000000000000000000
310
120002010100000003000000FFFFFFFF00000000000000000000000000000000
310
0000000000000000000000000000000000000000010000004D00000000000000
310
01004F006C006500310030004E00610074006900760065000000000000000000
310
0000000000000000000000000000000000000000000000000000000000000000
310
1A000200FFFFFFFFFFFFFFFFFFFFFFFF00000000000000000000000000000000
310
0000000000000000000000000000000000000000040000002426000000000000
310
FEFFFFFF02000000FEFFFFFFFFFFFFFFFFFFFFFFFFFFFFFFFFFFFFFFFFFFFFFF
310
FFFFFFFFFFFFFFFFFFFFFFFFFFFFFFFFFFFFFFFFFFFFFFFFFFFFFFFFFFFFFFFF
310
FFFFFFFFFFFFFFFFFFFFFFFFFFFFFFFFFFFFFFFFFFFFFFFFFFFFFFFFFFFFFFFF
310
FFFFFFFFFFFFFFFFFFFFFFFFFFFFFFFFFFFFFFFFFFFFFFFFFFFFFFFFFFFFFFFF
310
FFFFFFFFFFFFFFFFFFFFFFFFFFFFFFFFFFFFFFFFFFFFFFFFFFFFFFFFFFFFFFFF
310
FFFFFFFFFFFFFFFFFFFFFFFFFFFFFFFFFFFFFFFFFFFFFFFFFFFFFFFFFFFFFFFF
310
FFFFFFFFFFFFFFFFFFFFFFFFFFFFFFFFFFFFFFFFFFFFFFFFFFFFFFFFFFFFFFFF
310
FFFFFFFFFFFFFFFFFFFFFFFFFFFFFFFFFFFFFFFFFFFFFFFFFFFFFFFFFFFFFFFF
310
FFFFFFFFFFFFFFFFFFFFFFFFFFFFFFFFFFFFFFFFFFFFFFFFFFFFFFFFFFFFFFFF
310
FFFFFFFFFFFFFFFFFFFFFFFFFFFFFFFFFFFFFFFFFFFFFFFFFFFFFFFFFFFFFFFF
310
FFFFFFFFFFFFFFFFFFFFFFFFFFFFFFFFFFFFFFFFFFFFFFFFFFFFFFFFFFFFFFFF
310
FFFFFFFFFFFFFFFFFFFFFFFFFFFFFFFFFFFFFFFFFFFFFFFFFFFFFFFFFFFFFFFF
310
FFFFFFFFFFFFFFFFFFFFFFFFFFFFFFFFFFFFFFFFFFFFFFFFFFFFFFFFFFFFFFFF
310
FFFFFFFFFFFFFFFFFFFFFFFFFFFFFFFFFFFFFFFFFFFFFFFFFFFFFFFFFFFFFFFF
310
FFFFFFFFFFFFFFFFFFFFFFFFFFFFFFFFFFFFFFFFFFFFFFFFFFFFFFFFFFFFFFFF
310
FFFFFFFFFFFFFFFFFFFFFFFFFFFFFFFFFFFFFFFFFFFFFFFFFFFFFFFFFFFFFFFF
310
0100000200000000000000000000000000000000000000000000000000000000
310
0000000000000000000000000000000000000000000000000000000000000000
310
0100FEFF030A0000FFFFFFFF0A00030000000000C00000000000004607000000
310
5042727573680007000000504272757368000700000050427275736800F439B2
310
7100000000000000000000000000000000000000000000000000000000000000
310
0000000000000000000000000000000000000000000000000000000000000000
310
0000000000000000000000000000000000000000000000000000000000000000
310
0000000000000000000000000000000000000000000000000000000000000000
310
0000000000000000000000000000000000000000000000000000000000000000
310
0000000000000000000000000000000000000000000000000000000000000000
310
0000000000000000000000000000000000000000000000000000000000000000
310
0000000000000000000000000000000000000000000000000000000000000000
310
0000000000000000000000000000000000000000000000000000000000000000
310
0000000000000000000000000000000000000000000000000000000000000000
310
0000000000000000000000000000000000000000000000000000000000000000
310
0000000000000000000000000000000000000000000000000000000000000000
310
20260000424D0E260000000000003E00000028000000B40200006E0000000100
310
01000000000000000000130B0000130B00000200000002000000000000FFFFFF
310
FFFFFFFFFFFFFFFFFFFFFFFFFFFFFFFFFFFFFFFFFFFFFFFFFFFFFFFFFFFFFFFF
310
FFFFFFFFFFFFFFFFFFFFFFFFFFFFFFFFFFFFFFFFFFFFFFFFFFFFFFFFFFFFFFFF
310
FFFFFFFFFFFFFFFFFFFFFFFFFFFFFFFFFFFFFFFFFFFFFFFFF000FFFFFFFFFFFF
310
FFFFFFFFFFFFFFFFFFFFFFFFFFFFFFFFFFFFFFFFFFFFFFFFFFFFFFFFFFFFFFFF
310
FFFFFFFFFFFFFFFFFFFFFFFFFFFFFFFFFFFFFFFFFFFFFFFFFFFFFFFFFFFFFFFF
310
FFFFFFFFFFFFFFFFFFFFFFFFFFFFFFFFF000FFFFFFFFFFFFFFFFFFFFFFFFFFFF
310
FFFFFFFFFFFFFFFFFFFFFFFFFFFFFFFFFFFFFFFFFFFFFFFFFFFFFFFFFFFFFFFF
310
FFFFFFFFFFFFFFFFFFFFFFFFFFFFFFFFFFFFFFFFFFFFFFFFFFFFFFFFFFFFFFFF
310
FFFFFFFFFFFFFFFFF000FFFFFFFFFFFFFFFFFFFFFFFFFFFFFFFFFFFFFFFFFFFF
310
FFFFFFFFFFFFFFFFFFFFFFFFFFFFFFFFFFFFFFFFFFFFFFFFFFFFFFFFFFFFFFFF
310
FFFFFFFFFFFFFFFFFFFFFFFFFFFFFFFFFFFFFFFFFFFFFFFFFFFFFFFFFFFFFFFF
310
F000FFFFFFFFFFFFFFFFFFFFFFFFFFFFFFFFFFFFFFFFFFFFFFFFFFFFFFFFFFFF
310
FFFFFFFFFFFFFFFFFFFFFFFFFFFFFFFFFFFFFFFFFFFFFFFFFFFFFFFFFFFFFFFF
310
FFFFFFFFFFFFFFFFFFFFFFFFFFFFFFFFFFFFFFFFFFFFFFFFF000FFFFFFFFFFFF
310
FFFFFFFFFFFFFFFFFFFFFFFFFFFFFFFFFFFFFFFFFFFFFFFFFFFFFFFFFFFFFFFF
310
FFFFFFFFFFFFFFFFFFFFFFFFFFFFFFFFFFFFFFFFFFFFFFFFFFFFFFFFFFFFFFFF
310
FFFFFFFFFFFFFFFFFFFFFFFFFFFFFFFFF000FFFFFFFFFFFFFFFFFFFFFFFFFFFF
310
FFFFFFFFFFFFFFFFFFFFFFFFFFFFFFFFFFFFFFFFFFFFFFFFFFFFFFFFFFFFFFFF
310
FFFFFFFFFFFFFFFFFFFFFFFFFFFFFFFFFFFFFFFFFFFFFFFFFFFFFFFFFFFFFFFF
310
FFFFFFFFFFFFFFFFF000FFFFFFFFFFFFFFFFFFFFFFFFFFFFFFFFFFFFFFFFFFFF
310
FFFFFFFFFFFFFFFFFFFFFFFFFFFFFFFFFFFFFFFFFFFFFFFFFFFFFFFFFFFFFFFF
310
FFFFFFFFFFFFFFFFFFFFFFFFFFFFFFFFFFFFFFFFFFFFFFFFFFFFFFFFFFFFFFFF
310
F000FFFFFFFFFFFFFFFFFFFFFFFFFFFFFFFFFFFFFFFFFFFFFFFFFFFFFFFFFFFF
310
FFFFFFFFFFFFFFFFFFFFFFFFFFFFFFFFFFFFFFFFFFFFFFFFFFFFFFFFFFFFFFFF
310
FFFFFFFFFFFFFFFFFFFFFFFFFFFFFFFFFFFFFFFFFFFFFFFFF000FFFFFFFFFFFF
310
FFFFFFFFFFFFFFFFFFFFFFFFFFFFFFFFFFFFFFFFFFFFFFFFFFFFFFFFFFFFFFFF
310
FFFFFFFFFFFFFFFFFFFFFFFFFFFFFFFFFFFFFFFFFFFFFFFFFFFFFFFFFFFFFFFF
310
FFFFFFFFFFFFFFFFFFFFFFFFFFFFFFFFF000FFFFFFFFFFFFFFFFFFFFFFFFFFFF
310
FFFFFFFFFFFFFFFFFFFFFFFFFFFFFFFFFFFFFFFFFFFFFFFFFFFFFFFFFFFFFFFF
310
FFFFFFFFFFFFFFFFFFFFFFFFFFFFFFFFFFFFFFFFFFFFFFFFFFFFFFFFFFFFFFFF
310
FFFFFFFFFFFFFFFFF000FFFFFFFFFFFFFFFFFFFFFFFFFFFFFFFFFFFFFFFFFFFF
310
FFFFFFFFFFFFFFFFFFFFFFFFFFFFFFFFFFFFFFFFFFFFFFFFFFFFFFFFFFFFFFFF
310
FFFFFFFFFFFFFFFFFFFFFFFFFFFFFFFFFFFFFFFFFFFFFFFFFFFFFFFFFFFFFFFF
310
F000FFFFFFFFFFFFFFFFFFFFFFFFFFFFFFFFFFFFFFFFFFFFFFFFFFFFFFFFFFFF
310
FFFFFFFFFFFFFFFFFFFFFFFFFFFFFFFFFFFFFFFFFFFFFFFFFFFFFFFFFFFFFFFF
310
FFFFFFFFFFFFFFFFFFFFFFFFFFFFFFFFFFFFFFFFFFFFFFFFF000FFFFFFFFFFFF
310
FFFFFFFFFFFFFFFFFFFFFFFFFFFFFFFFFFFFFFFFFFFFFFFFFFFFFFFFFFFFFFFF
310
FFFFFFFFFFFFFFFFFFFFFFFFFFFFFFFFFFFFFFFFFFFFFFFFFFFFFFFFFFFFFFFF
310
FFFFFFFFFFFFFFFFFFFFFFFFFFFFFFFFF000FFFFFFFFFFFFFFFFFFFFFFFFFFFF
310
FFFFFFFFFFFFFFFFFFFFFFFFFFFFFFFFFFFFFFFFFFFFFFFFFFFFFFFFFFFFFFFF
310
FFFFFFFFFFFFFFFFFFFFFFFFFFFFFFFFFFFFFFFFFFFFFFFFFFFFFFFFFFFFFFFF
310
FFFFFFFFFFFFFFFFF000FFFFFFFFFFFFFFFFFFFFFFFFFFFFFFFFFFFFFFFFFFFF
310
FFFFFFFFFFFFFFFFFFFFFFFFFFFFFFFFFFFFFFFFFFFFFFFFFFFFFFFFFFFFFFFF
310
FFFFFFFFFFFFFFFFFFFFFFFFFFFFFFFFFFFFFFFFFFFFFFFFFFFFFFFFFFFFFFFF
310
F000FFFFFFFFFFFFFFFFFFFFFFFFFFFFFFFFFFFFFFFFFFFFFFFFFFFFFFFFFFFF
310
FFFFFFFFFFFFFFFFFFFFFFFFFFFFFFFFFFFFFFFFFFFFFFFFFFFFFFFFFFFFFFFF
310
FFFFFFFFFFFFFFFFFFFFFFFFFFFFFFFFFFFFFFFFFFFFFFFFF000FFFFFFFFFFFF
310
FFFFFFFFFFFFFFFFFFFFFFFFFFFFFFFFFFFFFFFFFFFFFFFFFFFFFFFFFFFFFFFF
310
FFFFFFFFFFFFFFFFFFFFFFFFFFFFFFFFFFFFFFFFFFFFFFFFFFFFFFFFFFFFFFFF
310
FFFFFFFFFFFFFFFFFFFFFFFFFFFFFFFFF000FFFFFFFFFFFFFFFFFFFFFFFFFFFF
310
FFFFFFFFFFFFFFFFFFFFFFFFFFFFFFFFFFFFFFFFFFFFFFFFFFFFFFFFFFFFFFFF
310
FFFFFFFFFFFFFFFFFFFFFFFFFFFFFFFFFFFFFFFFFFFFFFFFFFFFFFFFFFFFFFFF
310
FFFFFFFFFFFFFFFFF000FFFFF80003FFFFFFFFFFFFFFFFFFFFFFFFFFFFFFFFFF
310
FFFFF00007FFFFFFFFFF00007FFFFFF800000000000000007FFFFFFFFFFFFFFF
310
FFFFFFFC001FFFFFFFFFFFFFFC001FFFFFFFFFFFFFFFFFFFFFFFFFFE0007FFFF
310
F000FFFF8000007FFFFFFFF8000FFFFFC0007FFFFF80007FFFFF0000007FFFFF
310
FFF8000007FFFFF800000000000000007FFFFFF0001FFFFFFFFFFFC00001FFFF
310
FFFFFFFFC00001FFFFFFFF000000000003FFFFE000007FFFF000FFFE0000000F
310
FFFFFFF0000FFFFF80007FFFFF80007FFFFC0000001FFFFFFFC0000001FFFFF8
310
00000000000000007FFFFFF0001FFFFFFFFFFE0000003FFFFFFFFFFE0000003F
310
FFFFFF000000000003FFFF0000000FFFF000FFF800000003FFFFFFF00007FFFF
310
80007FFFFF80007FFFF000000007FFFFFF000000003FFFF80000000000000000
310
7FFFFFF0001FFFFFFFFFF80000000FFFFFFFFFF80000000FFFFFFF0000000000
310
03FFFC00000003FFF000FFE000000000FFFFFFF00007FFFF80003FFFFF80007F
310
FFC000000001FFFFFC000000001FFFF800000000000000007FFFFFF0001FFFFF
310
FFFFE000000003FFFFFFFFE000000003FFFFFF000000000003FFF000000000FF
310
F000FF80000000007FFFFFF00007FFFF80003FFFFF80007FFF8000000000FFFF
310
F80000000007FFF800000000000000007FFFFFF0001FFFFFFFFFC000000001FF
310
FFFFFFC000000001FFFFFF000000000003FFC0000000007FF000FF0000000000
310
3FFFFFE00007FFFF00003FFFFF80007FFE00000000003FFFF00000000003FFF8
310
00000000000000007FFFFFF0001FFFFFFFFF8000000000FFFFFFFF8000000000
310
FFFFFF000000000003FF80000000003FF000FE00000000001FFFFFE00003FFFF
310
00003FFFFF80007FFC00000000001FFFE00000000001FFF8000001FFFE000000
310
7FFFFFF0001FFFFFFFFE00000000003FFFFFFE00000000003FFFFF0000000000
310
03FF00000000001FF000FC00000000000FFFFFE00003FFFF00001FFFFF80007F
310
F800000000001FFFC00000000000FFF8000001FFFE0000007FFFFFF0001FFFFF
310
FFFC00000000001FFFFFFC00000000001FFFFF000000000003FE00000000000F
310
F000F8000000000007FFFFE00003FFFF00001FFFFF80007FF800000000000FFF
310
800000000000FFF8000001FFFE0000007FFFFFF0001FFFFFFFF800000000000F
310
FFFFF800000000000FFFFF000000000003FC000000000007F000F80000000000
310
03FFFFC00003FFFE00001FFFFF80007FF0000000000007FF0000000000007FF8
310
000001FFFE0000007FFFFFF0001FFFFFFFF0000000000007FFFFF00000000000
310
07FFFF000000000003F8000000000003F000F0000000000003FFFFC00001FFFE
310
00001FFFFF80007FE0000000000007FE0000000000003FF8000001FFFE000000
310
7FFFFFF0001FFFFFFFF0000000000007FFFFF0000000000007FFFF0000000000
310
03F800001F800003F000E00001FFF00001FFFFC00001FFFE00000FFFFF80007F
310
E00001FFE00003FE00001FFF00003FF8000001FFFE0000007FFFFFF0001FFFFF
310
FFE000003E000003FFFFE000003E000003FFFF000000000003F00001FFF80001
310
F000E00007FFFC0001FFFFC00001FFFE00000FFFFF80007FC0000FFFFC0003FC
310
0000FFFFC0001FF8000001FFFE0000007FFFFFF0001FFFFFFFC00003FFE00001
310
FFFFC00003FFE00001FFFF0001FFFFFFFFF00007FFFE0001F000E0000FFFFF00
310
00FFFF800001FFFC00000FFFFF80007FC0001FFFFE0001FC0001FFFFE0001FF8
310
000001FFFE0000007FFFFFF0001FFFFFFF80000FFFF80000FFFF80000FFFF800
310
00FFFF0003FFFFFFFFE0000FFFFF8000F000C0003FFFFF8000FFFF800000FFFC
310
000007FFFF80007F80003FFFFF0001FC0003FFFFF0001FF8000001FFFE000000
310
7FFFFFF0001FFFFFFF80003FFFFE0000FFFF80003FFFFE0000FFFF0003FFFFFF
310
FFE0003FFFFF8000F000C0003FFFFF8000FFFF800000FFFC000007FFFF80007F
310
80007FFFFF8001F80007FFFFF8000FF8000001FFFE0000007FFFFFF0001FFFFF
310
FF00007FFFFF00007FFF00007FFFFF00007FFF0003FFFFFFFFE0003FFFFFC000
310
F000C0007FFFFFC000FFFF000000FFFC000007FFFF80007F8000FFFFFF8000F8
310
000FFFFFF8000FF8000001FFFE0000007FFFFFF0001FFFFFFF0000FFFFFF8000
310
7FFF0000FFFFFF80007FFF0003FFFFFFFFC0007FFFFFC00070008000FFFFFFC0
310
00FFFF000000FFF8000007FFFF80007F8000FFFFFF8000F8000FFFFFF8000FF8
310
000001FFFE0000007FFFFFF0001FFFFFFE0001FFFFFFC0003FFE0001FFFFFFC0
310
003FFF0003FFFFFFFFC0007FFFFFE00070008000FFFFFFC0007FFF0000007FF8
310
000003FFFF80007F0001FFFFFF8000F8000FFFFFF8000FF8000001FFFE000000
310
7FFFFFF0001FFFFFFE0001FFFFFFC0003FFE0001FFFFFFC0003FFF0003FFFFFF
310
FFC000FFFFFFE00070008000FFFFFFC0007FFF0000007FF8000003FFFF80007F
310
0001FFFFFF8000F8001FFFFFF8000FF8000001FFFE0000007FFFFFF0001FFFFF
310
FE0003FFFFFFE0003FFE0003FFFFFFE0003FFF0003FFFFFFFFC000FFFFFFE000
310
70008000FFFFFFC0007FFE0000007FF8000003FFFF80007F0001FFFFFF8000F0
310
001FFFFFF8000FF8000001FFFE0000007FFFFFF0001FFFFFFC0003FFFFFFE000
310
1FFC0003FFFFFFE0001FFF0003FFFFFFFFC000FFFFFFC00070008000FFFFFF80
310
007FFE0000007FF0000003FFFF80007F0001FFFFFF0000F0001FFFFFF8000FF8
310
000001FFFE0000007FFFFFF0001FFFFFFC0007FFFFFFF0001FFC0007FFFFFFF0
310
001FFF0003FFFFFFFFC000FFFFFFC00070008001FFFFFF0000FFFE0000003FF0
310
000001FFFF80007F0001FFFFFF0000F8001FFFFFF0000FF8000001FFFE000000
310
7FFFFFF0001FFFFFFC0007FFFFFFF0001FFC0007FFFFFFF0001FFF0003FFFFFF
310
FFC001FFFFFF80007000FFFFFFFFFE0000FFFE0008003FF0008001FFFF80007F
310
FFFFFFFFFC0000FFFFFFFFFFE0000FF8000001FFFE0000007FFFFFF0001FFFFF
310
F8000FFFFFFFF8000FF8000FFFFFFFF8000FFF0003FFFFFFFFFFFFFFFFFF0000
310
7000FFFFFFFFFC0000FFFC0008003FF0008001FFFF80007FFFFFFFFFF80001FF
310
FFFFFFFF80000FF8000001FFFE0000007FFFFFF0001FFFFFF8000FFFFFFFF800
310
0FF8000FFFFFFFF8000FFF0003FFFFFFFFFFFFFFFFFE0000F000FFFFFFFFE000
310
00FFFC000C003FE000C001FFFF80007FFFFFFFFFC00001FFFFFFFFFE00001FF8
310
000001FFFE0000007FFFFFF0001FFFFFF8000FFFFFFFF8000FF8000FFFFFFFF8
310
000FFF0003FFFFFFFFFFFFFFFFF00000F000FFFFFFFE000001FFFC000C001FE0
310
00C000FFFF80007FFFFFFFFE000001FFFFFFFFE000001FF80FFFFFFFFFFFFFC0
310
7FFFFFF0001FFFFFF8000FFFFFFFF8000FF8000FFFFFFFF8000FFF0003FFFFFF
310
FFFFFFFFFF800000F000FFFFFFC0000001FFFC001C001FE001C000FFFF80007F
310
FFFFFF80000003FFFFFFF80000001FF80FFFFFFFFFFFFFC07FFFFFF0001FFFFF
310
F8001FFFFFFFFC000FF8001FFFFFFFFC000FFF0003FFFFFFFFFFFFFFF0000001
310
F000FFFFF800000001FFF8001C001FE001C000FFFF80007FFFFFF800000003FF
310
FFFF800000003FF80FFFFFFFFFFFFFC07FFFFFF0001FFFFFF8001FFFFFFFFC00
310
0FF8001FFFFFFFFC000FFF0003FFFFFFFFFFFFFE00000001F000FFFFC0000000
310
03FFF8001E001FC001E000FFFF80007FFFFF8000000007FFFFFC000000003FF8
310
0FFFFFFFFFFFFFC07FFFFFF0001FFFFFF8001FFFFFFFFC000FF8001FFFFFFFFC
310
000FFF0003FFFFFFFFFFFFE000000003F000FFFE0000000007FFF8001E000FC0
310
01E0007FFF80007FFFFE0000000007FFFFE0000000007FF80FFFFFFFFFFFFFC0
310
7FFFFFF0001FFFFFF0001FFFFFFFFC0007F0001FFFFFFFFC0007FF0003FFFFFF
310
FFFFFF0000000003F000FFF80000000007FFF8001E000FC003E0007FFF80007F
310
FFF0000000000FFFFF8000000000FFF80FFFFFFFFFFFFFC07FFFFFF0001FFFFF
310
F0001FFFFFFFFC0007F0001FFFFFFFFC0007FF0003FFFFFFFFFFFC0000000007
310
F000FFE0000000000FFFF0003E000FC003E0007FFF80007FFFC0000000001FFF
310
FE0000000001FFF80FFFFFFFFFFFFFC07FFFFFF0001FFFFFF0001FFFFFFFFC00
310
07F0001FFFFFFFFC0007FF0003FFFFFFFFFFF0000000000FF000FFC000000000
310
1FFFF0003F000F8003F0003FFF80007FFF80000000003FFFF80000000003FFF8
310
0FFFFFFFFFFFFFC07FFFFFF0001FFFFFF0001FFFFFFFFC0007F0001FFFFFFFFC
310
0007FF0003FFFFFFFFFFE0000000001FF000FF00000000007FFFF0003F000780
310
03F0003FFF80007FFF00000000007FFFF00000000007FFF80FFFFFFFFFFFFFC0
310
7FFFFFF0001FFFFFF0001FFFFFFFFC0007F0001FFFFFFFFC0007FF0003FFFFFF
310
FFFF80000000007FF000FE0000000000FFFFE0003F00078007F0003FFF80007F
310
FE0000000001FFFFE0000000001FFFF80FFFFFFFFFFFFFC07FFFFFF0001FFFFF
310
F0001FFFFFFFFC0007F0001FFFFFFFFC0007FF0003FFFFFFFFFF0000000000FF
310
F000FC0000000003FFFFE0007F00078007F0003FFF80007FFC0000000007FFFF
310
C0000000007FFFF80FFFFFFFFFFFFFC07FFFFFF0001FFFFFF8001FFFFFFFFC00
310
0FF8001FFFFFFFFC000FFF0003FFFFFFFFFE0000000003FFF000FC000000000F
310
FFFFE0007F80070007F8001FFF80007FF8000000001FFFFF8000000001FFFFF8
310
0FFFFFFFFFFFFFC07FFFFFF0001FFFFFF8001FFFFFFFFC000FF8001FFFFFFFFC
310
000FFF0003FFFFFFFFFC000000000FFFF000F8000000007FFFFFE0007F800700
310
07F8001FFF80007FF000000000FFFFFF800000000FFFFFF80FFFFFFFFFFFFFC0
310
7FFFFFF0001FFFFFF8000FFFFFFFF8000FF8000FFFFFFFF8000FFF0003FFFFFF
310
FFFC000000007FFFF000F800000007FFFFFFC0007F8003000FF8001FFF80007F
310
F000000007FFFFFF000000007FFFFFF80FFFFFFFFFFFFFC07FFFFFF0001FFFFF
310
F8000FFFFFFFF8000FF8000FFFFFFFF8000FFF0003FFFFFFFFF80000000FFFFF
310
F000F0000000FFFFFFFFC000FF8003000FF8001FFF80007FE0000000FFFFFFFF
310
0000000FFFFFFFF8000001FFFE0000007FFFFFF0001FFFFFF8000FFFFFFFF800
310
0FF8000FFFFFFFF8000FFF0003FFFFFFFFF8000000FFFFFFF000F000000FFFFF
310
FFFFC000FFC002000FF8000FFF80007FE000001FFFFFFFFE000001FFFFFFFFF8
310
000001FFFE0000007FFFFFF0001FFFFFF8000FFFFFFFF8000FF8000FFFFFFFF8
310
000FFF0003FFFFFFFFF000001FFFFFFFF000E00000FFFFFFFFFFC000FFC00200
310
0FFC000FFF80007FE00001FFFFFFFFFE00001FFFFFFFFFF8000001FFFE000000
310
7FFFFFF0001FFFFFFC000FFFFFFFF8001FFC000FFFFFFFF8001FFF0003FFFFFF
310
FFF00001FFFFFFFFF000E00007FFFFFFFFFF8000FFC000001FFC000FFF80007F
310
C0000FFFFFFFFFFE0000FFFFFFFFFFF8000001FFFE0000007FFFFFF0001FFFFF
310
FC0007FFFFFFF0001FFC0007FFFFFFF0001FFF0003FFFFFFFFF00007FFFFFFFF
310
F000E0001FFFFFFFFFFF8000FFC000001FFC000FFF80007FC0003FFFFFFFFFFE
310
0001FFFFFFFFFFF8000001FFFE0000007FFFFFF0001FFFFFFC0007FFFFFFF000
310
1FFC0007FFFFFFF0001FFF0003FFFFFFFFF0001FFFFFFFFFF000E0003FFFFF00
310
03FF8001FFE000001FFC0007FF80007FC0007FFFFF0007FC0003FFFFF0003FF8
310
000001FFFE0000007FFFFFF0001FFFFFFC0003FFFFFFE0001FFC0003FFFFFFE0
310
001FFF0003FFFFFFFFF0003FFFFFFFFFF000E0003FFFFF0001FF8001FFE00000
310
1FFE0007FF80007FC0007FFFFE0003FC0007FFFFE0003FF8000001FFFE000000
310
7FFFFFF0001FFFFFFE0003FFFFFFE0003FFE0003FFFFFFE0003FFF0003FFFFFF
310
FFF0003FFFFF8001F000E0003FFFFF0001FF0001FFE000001FFE0007FF80007F
310
C0007FFFFE0003FC0007FFFFE0003FF8000001FFFE0000007FFFFFF0001FFFFF
310
FE0001FFFFFFC0003FFE0001FFFFFFC0003FFF0003FFFFFFFFF0003FFFFF0001
310
F000E0003FFFFF0003FF0001FFE000003FFE0007FF80007FC0007FFFFE0003FC
310
0007FFFFE0003FF8000001FFFE0000007FFFFFF0001FFFFFFF0001FFFFFFC000
310
7FFF0001FFFFFFC0007FFF0003FFFFFFFFF0003FFFFF0001F000E0003FFFFE00
310
03FF0003FFF000003FFE0003FF80007FC0007FFFFC0003FE0007FFFFE0003FF8
310
000001FFFE0000007FFFFFF0001FFFFFFF0000FFFFFF80007FFF0000FFFFFF80
310
007FFF0003FFFFFFFFF0003FFFFF0001F000E0003FFFFE0003FF0003FFF00000
310
3FFF0003FF80007FC0007FFFFC0007FE0007FFFFC0003FF8000001FFFE000000
310
7FFFFFF0001FFFFFFF80007FFFFF0000FFFF80007FFFFF0000FFFF0003FFFFFF
310
FFF0003FFFFF0003F000E0003FFFFC0003FE0003FFF000003FFF0003FF80007F
310
E0003FFFF80007FE0003FFFFC0007FF8000001FFFE0000007FFFFFF0001FFFFF
310
FF80003FFFFE0000FFFF80003FFFFE0000FFFF0003FFFFFFFFF0001FFFFE0003
310
F000F0001FFFF80003FE0003FFF000007FFF0001FF80007FE0003FFFF00007FE
310
0001FFFF80007FF8000001FFFE0000007FFFFFF0001FFFFFFFC0000FFFF80001
310
FFFFC0000FFFF80001FFFF0003FFFFFFFFF0001FFFFC0003F000F0000FFFF000
310
07FE0007FFF800007FFF0001FF80007FE0001FFFE00007FF0000FFFE00007FF8
310
000001FFFE0000007FFFFFF0001FFFFFFFC00003FFE00001FFFFC00003FFE000
310
01FFFF0003FFFFFFFFF8000FFFF80003F000F00003FFC00007FC0007FFF80000
310
7FFF8001FF80007FF00007FF80000FFF00007FF80000FFF8000001FFFE000000
310
7F80000000000001FFE000003E000003FFFFE000003E000003FFFF0003FFFFFF
310
FFF80003FFE00007F000F800000000000FFC0007FFF800007FFF8001FF80007F
310
F000000000000FFF000000000000FFF8000001FFFE0000007F80000000000001
310
FFF0000000000007FFFFF0000000000007FFFF0003FFFFFFFFFC00007E000007
310
F000F800000000000FFC0007FFF80000FFFF8000FF80007FF800000000001FFF
310
800000000001FFF8000001FFFE0000007F80000000000001FFF800000000000F
310
FFFFF800000000000FFFFF0003FFFFFFFFFC00000000000FF000FC0000000000
310
1FFC0007FFFC0000FFFF8000FF80007FF800000000003FFFC00000000001FFF8
310
000001FFFE0000007F80000000000001FFF800000000000FFFFFF80000000000
310
0FFFFF0003FFFFFFFFFE00000000001FF000FE00000000003FF8000FFFFC0000
310
FFFF8000FF80007FFC00000000003FFFC00000000003FFF8000001FFFE000000
310
7F80000000000001FFFC00000000001FFFFFFC00000000001FFFFF0003FFFFFF
310
FFFF00000000001FF000FF00000000003FF8000FFFFC0000FFFFC000FF80007F
310
FE00000000007FFFE00000000007FFF8000001FFFE0000007F80000000000001
310
FFFE00000000003FFFFFFE00000000003FFFFF0003FFFFFFFFFF80000000003F
310
F000FF80000000007FF8000FFFFC0001FFFFC0007F80007FFF0000000000FFFF
310
F0000000000FFFF800000000000000007F80000000000001FFFF8000000000FF
310
FFFFFF8000000000FFFFFF0003FFFFFFFFFFC0000000007FF000FFC000000000
310
FFF8000FFFFE0001FFFFC0007F80007FFF8000000001FFFFF8000000001FFFF8
310
00000000000000007F80000000000001FFFFC000000001FFFFFFFFC000000001
310
FFFFFF0003FFFFFFFFFFE000000000FFF000FFE000000003FFF0001FFFFE0001
310
FFFFC0007F80007FFFC000000007FFFFFE000000003FFFF80000000000000000
310
7F80000000000001FFFFE000000003FFFFFFFFE000000003FFFFFF0003FFFFFF
310
FFFFF000000003FFF000FFF80000000FFFF0001FFFFE0001FFFFE0007F80007F
310
FFF00000000FFFFFFF00000000FFFFF800000000000000007F80000000000001
310
FFFFF80000000FFFFFFFFFF80000000FFFFFFF0003FFFFFFFFFFFC0000000FFF
310
F000FFFE0000003FFFF0001FFFFE0003FFFFE0003F80007FFFFC0000003FFFFF
310
FFC0000003FFFFF800000000000000007F80000000000001FFFFFE0000003FFF
310
FFFFFFFE0000003FFFFFFF0003FFFFFFFFFFFF0000003FFFF000FFFF800000FF
310
FFF0001FFFFF0003FFFFE0003F80007FFFFF000001FFFFFFFFF800001FFFFFF8
310
00000000000000007F80000000000001FFFFFFC00001FFFFFFFFFFFFC00001FF
310
FFFFFF0003FFFFFFFFFFFFC00000FFFFF000FFFFF8000FFFFFFFFFFFFFFFFFFF
310
FFFFFFFFFFFFFFFFFFFFF0001FFFFFFFFFFF0000FFFFFFF80000000000000000
310
7FFFFFFFFFFFFFFFFFFFFFFC001FFFFFFFFFFFFFFC001FFFFFFFFFFFFFFFFFFF
310
FFFFFFFC001FFFFFF000FFFFFFFFFFFFFFFFFFFFFFFFFFFFFFFFFFFFFFFFFFFF
310
FFFFFFFFFFFFFFFFFFFFFFFFFFFFFFFFFFFFFFFFFFFFFFFFFFFFFFFFFFFFFFFF
310
FFFFFFFFFFFFFFFFFFFFFFFFFFFFFFFFFFFFFFFFFFFFFFFFFFFFFFFFFFFFFFFF
310
F000FFFFFFFFFFFFFFFFFFFFFFFFFFFFFFFFFFFFFFFFFFFFFFFFFFFFFFFFFFFF
310
FFFFFFFFFFFFFFFFFFFFFFFFFFFFFFFFFFFFFFFFFFFFFFFFFFFFFFFFFFFFFFFF
310
FFFFFFFFFFFFFFFFFFFFFFFFFFFFFFFFFFFFFFFFFFFFFFFFF000FFFFFFFFFFFF
310
FFFFFFFFFFFFFFFFFFFFFFFFFFFFFFFFFFFFFFFFFFFFFFFFFFFFFFFFFFFFFFFF
310
FFFFFFFFFFFFFFFFFFFFFFFFFFFFFFFFFFFFFFFFFFFFFFFFFFFFFFFFFFFFFFFF
310
FFFFFFFFFFFFFFFFFFFFFFFFFFFFFFFFF000FFFFFFFFFFFFFFFFFFFFFFFFFFFF
310
FFFFFFFFFFFFFFFFFFFFFFFFFFFFFFFFFFFFFFFFFFFFFFFFFFFFFFFFFFFFFFFF
310
FFFFFFFFFFFFFFFFFFFFFFFFFFFFFFFFFFFFFFFFFFFFFFFFFFFFFFFFFFFFFFFF
310
FFFFFFFFFFFFFFFFF000FFFFFFFFFFFFFFFFFFFFFFFFFFFFFFFFFFFFFFFFFFFF
310
FFFFFFFFFFFFFFFFFFFFFFFFFFFFFFFFFFFFFFFFFFFFFFFFFFFFFFFFFFFFFFFF
310
FFFFFFFFFFFFFFFFFFFFFFFFFFFFFFFFFFFFFFFFFFFFFFFFFFFFFFFFFFFFFFFF
310
F000FFFFFFFFFFFFFFFFFFFFFFFFFFFFFFFFFFFFFFFFFFFFFFFFFFFFFFFFFFFF
310
FFFFFFFFFFFFFFFFFFFFFFFFFFFFFFFFFFFFFFFFFFFFFFFFFFFFFFFFFFFFFFFF
310
FFFFFFFFFFFFFFFFFFFFFFFFFFFFFFFFFFFFFFFFFFFFFFFFF000FFFFFFFFFFFF
310
FFFFFFFFFFFFFFFFFFFFFFFFFFFFFFFFFFFFFFFFFFFFFFFFFFFFFFFFFFFFFFFF
310
FFFFFFFFFFFFFFFFFFFFFFFFFFFFFFFFFFFFFFFFFFFFFFFFFFFFFFFFFFFFFFFF
310
FFFFFFFFFFFFFFFFFFFFFFFFFFFFFFFFF000FFFFFFFFFFFFFFFFFFFFFFFFFFFF
310
FFFFFFFFFFFFFFFFFFFFFFFFFFFFFFFFFFFFFFFFFFFFFFFFFFFFFFFFFFFFFFFF
310
FFFFFFFFFFFFFFFFFFFFFFFFFFFFFFFFFFFFFFFFFFFFFFFFFFFFFFFFFFFFFFFF
310
FFFFFFFFFFFFFFFFF000FFFFFFFFFFFFFFFFFFFFFFFFFFFFFFFFFFFFFFFFFFFF
310
FFFFFFFFFFFFFFFFFFFFFFFFFFFFFFFFFFFFFFFFFFFFFFFFFFFFFFFFFFFFFFFF
310
FFFFFFFFFFFFFFFFFFFFFFFFFFFFFFFFFFFFFFFFFFFFFFFFFFFFFFFFFFFFFFFF
310
F000FFFFFFFFFFFFFFFFFFFFFFFFFFFFFFFFFFFFFFFFFFFFFFFFFFFFFFFFFFFF
310
FFFFFFFFFFFFFFFFFFFFFFFFFFFFFFFFFFFFFFFFFFFFFFFFFFFFFFFFFFFFFFFF
310
FFFFFFFFFFFFFFFFFFFFFFFFFFFFFFFFFFFFFFFFFFFFFFFFF000FFFFFFFFFFFF
310
FFFFFFFFFFFFFFFFFFFFFFFFFFFFFFFFFFFFFFFFFFFFFFFFFFFFFFFFFFFFFFFF
310
FFFFFFFFFFFFFFFFFFFFFFFFFFFFFFFFFFFFFFFFFFFFFFFFFFFFFFFFFFFFFFFF
310
FFFFFFFFFFFFFFFFFFFFFFFFFFFFFFFFF000FFFFFFFFFFFFFFFFFFFFFFFFFFFF
310
FFFFFFFFFFFFFFFFFFFFFFFFFFFFFFFFFFFFFFFFFFFFFFFFFFFFFFFFFFFFFFFF
310
FFFFFFFFFFFFFFFFFFFFFFFFFFFFFFFFFFFFFFFFFFFFFFFFFFFFFFFFFFFFFFFF
310
FFFFFFFFFFFFFFFFF000FFFFFFFFFFFFFFFFFFFFFFFFFFFFFFFFFFFFFFFFFFFF
310
FFFFFFFFFFFFFFFFFFFFFFFFFFFFFFFFFFFFFFFFFFFFFFFFFFFFFFFFFFFFFFFF
310
FFFFFFFFFFFFFFFFFFFFFFFFFFFFFFFFFFFFFFFFFFFFFFFFFFFFFFFFFFFFFFFF
310
F000FFFFFFFFFFFFFFFFFFFFFFFFFFFFFFFFFFFFFFFFFFFFFFFFFFFFFFFFFFFF
310
FFFFFFFFFFFFFFFFFFFFFFFFFFFFFFFFFFFFFFFFFFFFFFFFFFFFFFFFFFFFFFFF
310
FFFFFFFFFFFFFFFFFFFFFFFFFFFFFFFFFFFFFFFFFFFFFFFFF000FFFFFFFFFFFF
310
FFFFFFFFFFFFFFFFFFFFFFFFFFFFFFFFFFFFFFFFFFFFFFFFFFFFFFFFFFFFFFFF
310
FFFFFFFFFFFFFFFFFFFFFFFFFFFFFFFFFFFFFFFFFFFFFFFFFFFFFFFFFFFFFFFF
310
FFFFFFFFFFFFFFFFFFFFFFFFFFFFFFFFF000FFFFFFFFFFFFFFFFFFFFFFFFFFFF
310
FFFFFFFFFFFFFFFFFFFFFFFFFFFFFFFFFFFFFFFFFFFFFFFFFFFFFFFFFFFFFFFF
310
FFFFFFFFFFFFFFFFFFFFFFFFFFFFFFFFFFFFFFFFFFFFFFFFFFFFFFFFFFFFFFFF
310
FFFFFFFFFFFFFFFFF000FFFFFFFFFFFFFFFFFFFFFFFFFFFFFFFFFFFFFFFFFFFF
310
FFFFFFFFFFFFFFFFFFFFFFFFFFFFFFFFFFFFFFFFFFFFFFFFFFFFFFFFFFFFFFFF
310
FFFFFFFFFFFFFFFFFFFFFFFFFFFFFFFFFFFFFFFFFFFFFFFFFFFFFFFFFFFFFFFF
310
F000FFFFFFFFFFFFFFFFFFFFFFFFFFFFFFFFFFFFFFFFFFFFFFFFFFFFFFFFFFFF
310
FFFFFFFFFFFFFFFFFFFFFFFFFFFFFFFFFFFFFFFFFFFFFFFFFFFFFFFFFFFFFFFF
310
FFFFFFFFFFFFFFFFFFFFFFFFFFFFFFFFFFFFFFFFFFFFFFFFF000FFFFFFFFFFFF
310
FFFFFFFFFFFFFFFFFFFFFFFFFFFFFFFFFFFFFFFFFFFFFFFFFFFFFFFFFFFFFFFF
310
FFFFFFFFFFFFFFFFFFFFFFFFFFFFFFFFFFFFFFFFFFFFFFFFFFFFFFFFFFFFFFFF
310
FFFFFFFFFFFFFFFFFFFFFFFFFFFFFFFFF000FFFFFFFFFFFFFFFFFFFFFFFFFFFF
310
FFFFFFFFFFFFFFFFFFFFFFFFFFFFFFFFFFFFFFFFFFFFFFFFFFFFFFFFFFFFFFFF
310
FFFFFFFFFFFFFFFFFFFFFFFFFFFFFFFFFFFFFFFFFFFFFFFFFFFFFFFFFFFFFFFF
310
FFFFFFFFFFFFFFFFF000FFFFFFFFFFFFFFFFFFFFFFFFFFFFFFFFFFFFFFFFFFFF
310
FFFFFFFFFFFFFFFFFFFFFFFFFFFFFFFFFFFFFFFFFFFFFFFFFFFFFFFFFFFFFFFF
310
FFFFFFFFFFFFFFFFFFFFFFFFFFFFFFFFFFFFFFFFFFFFFFFFFFFFFFFFFFFFFFFF
310
F000FFFFFFFFFFFFFFFFFFFFFFFFFFFFFFFFFFFFFFFFFFFFFFFFFFFFFFFFFFFF
310
FFFFFFFFFFFFFFFFFFFFFFFFFFFFFFFFFFFFFFFFFFFFFFFFFFFFFFFFFFFFFFFF
310
FFFFFFFFFFFFFFFFFFFFFFFFFFFFFFFFFFFFFFFFFFFFFFFFF000FFFFFFFFFFFF
310
FFFFFFFFFFFFFFFFFFFFFFFFFFFFFFFFFFFFFFFFFFFFFFFFFFFFFFFFFFFFFFFF
310
FFFFFFFFFFFFFFFFFFFFFFFFFFFFFFFFFFFFFFFFFFFFFFFFFFFFFFFFFFFFFFFF
310
FFFFFFFFFFFFFFFFFFFFFFFFFFFFFFFFF0000000000000000000000000000000
310
0000000000000000000000000000000000000000000000000000000000000000
310
0000000000000000000000000000000000000000000000000000000000000000
310
0000000000000000000000000000000000000000000000000000000000000000
310
0000000000000000000000000000000000000000000000000000000000000000
310
0000000000000000000000000000000000000000000000000000000000000000
310
0000000000000000000000000000000000000000000000000000000000000000
310
0000000000000000000000000000000000000000000000000000000000000000
310
0000000000000000000000000000000000000000000000000000000000000000
310
0000000000000000000000000000000000000000000000000000000000000000
310
0000000000000000000000000000000000000000000000000000000000000000
310
0000000000000000000000000000000000000000000000000000000000000000
310
0000000000000000000000000000000000000000000000000000000000000000
310
0000000000000000000000000000000000000000000000000000000000000000
310
0000000000000000000000000000000000000000000000000000000000000000
310
0000000000000000000000000000000000000000000000000000000000000000
  1
OLE
  0
ENDSEC
  0
SECTION
  2
OBJECTS
  0
DICTIONARY
  5
C
330
0
100
AcDbDictionary
281
     1
  3
ACAD_GROUP
350
D
  3
ACAD_LAYOUT
350
1A
  3
ACAD_MLINESTYLE
350
17
  3
ACAD_PLOTSETTINGS
350
19
  3
ACAD_PLOTSTYLENAME
350
E
  3
ACAD_SCALELIST
350
47
  0
DICTIONARY
  5
D
102
{ACAD_REACTORS
330
C
102
}
330
C
100
AcDbDictionary
281
     1
  0
DICTIONARY
  5
1A
102
{ACAD_REACTORS
330
C
102
}
330
C
100
AcDbDictionary
281
     1
  3
Layout1
350
1E
  3
Layout2
350
26
  3
Model
350
22
  0
DICTIONARY
  5
17
102
{ACAD_REACTORS
330
C
102
}
330
C
100
AcDbDictionary
281
     1
  3
Standard
350
18
  0
DICTIONARY
  5
19
102
{ACAD_REACTORS
330
C
102
}
330
C
100
AcDbDictionary
281
     1
  0
ACDBDICTIONARYWDFLT
  5
E
102
{ACAD_REACTORS
330
C
102
}
330
C
100
AcDbDictionary
281
     1
  3
Normal
350
F
100
AcDbDictionaryWithDefault
340
F
  0
DICTIONARY
  5
47
102
{ACAD_REACTORS
330
C
102
}
330
C
100
AcDbDictionary
281
     1
  3
A0
350
48
  3
A1
350
49
  3
A2
350
4A
  3
A3
350
4B
  3
A4
350
4C
  3
A5
350
4D
  3
A6
350
4E
  3
A7
350
4F
  3
A8
350
50
  3
A9
350
51
  3
B0
350
52
  3
B1
350
53
  3
B2
350
54
  3
B3
350
55
  3
B4
350
56
  3
B5
350
57
  3
B6
350
58
  3
B7
350
59
  3
B8
350
5A
  3
B9
350
5B
  3
C0
350
5C
  3
C1
350
5D
  3
C2
350
5E
  3
C3
350
5F
  3
C4
350
60
  3
C5
350
61
  3
C6
350
62
  3
C7
350
63
  3
C8
350
64
  3
C9
350
65
  3
D0
350
66
  3
D1
350
67
  3
D2
350
68
  0
LAYOUT
  5
1E
102
{ACAD_REACTORS
330
1A
102
}
330
1A
100
AcDbPlotSettings
  1

  2
none_device
  4

  6

 40
0.0
 41
0.0
 42
0.0
 43
0.0
 44
0.0
 45
0.0
 46
0.0
 47
0.0
 48
0.0
 49
0.0
140
0.0
141
0.0
142
1.0
143
1.0
 70
   688
 72
     1
 73
     0
 74
     5
  7

 75
    16
147
1.0
148
0.0
149
0.0
100
AcDbLayout
  1
Layout1
 70
     1
 71
     1
 10
0.0
 20
0.0
 11
420.0
 21
297.0
 12
0.0
 22
0.0
 32
0.0
 14
1.0000000000E+20
 24
1.0000000000E+20
 34
1.0000000000E+20
 15
-1.0000000000E+20
 25
-1.0000000000E+20
 35
-1.0000000000E+20
146
0.0
 13
0.0
 23
0.0
 33
0.0
 16
1.0
 26
0.0
 36
0.0
 17
0.0
 27
1.0
 37
0.0
 76
     0
330
1B
  0
LAYOUT
  5
26
102
{ACAD_REACTORS
330
1A
102
}
330
1A
100
AcDbPlotSettings
  1

  2
none_device
  4

  6

 40
0.0
 41
0.0
 42
0.0
 43
0.0
 44
0.0
 45
0.0
 46
0.0
 47
0.0
 48
0.0
 49
0.0
140
0.0
141
0.0
142
1.0
143
1.0
 70
   688
 72
     1
 73
     0
 74
     5
  7

 75
    16
147
1.0
148
0.0
149
0.0
100
AcDbLayout
  1
Layout2
 70
     1
 71
     2
 10
0.0
 20
0.0
 11
0.0
 21
0.0
 12
0.0
 22
0.0
 32
0.0
 14
0.0
 24
0.0
 34
0.0
 15
0.0
 25
0.0
 35
0.0
146
0.0
 13
0.0
 23
0.0
 33
0.0
 16
1.0
 26
0.0
 36
0.0
 17
0.0
 27
1.0
 37
0.0
 76
     0
330
23
  0
LAYOUT
  5
22
102
{ACAD_REACTORS
330
1A
102
}
330
1A
100
AcDbPlotSettings
  1

  2
none_device
  4
Letter_(8.50_x_11.00_Inches)
  6

 40
6.35
 41
6.35
 42
6.35000508
 43
6.35000508
 44
215.9
 45
279.4
 46
0.0
 47
0.0
 48
0.0
 49
0.0
140
0.0
141
0.0
142
1.0
143
1.0
 70
  1712
 72
     1
 73
     0
 74
     0
  7

 75
     0
147
1.0
148
0.0
149
0.0
100
AcDbLayout
  1
Model
 70
     1
 71
     0
 10
0.0
 20
0.0
 11
297.0
 21
210.0
 12
0.0
 22
0.0
 32
0.0
 14
0.0
 24
0.0
 34
0.0
 15
297.0
 25
210.0
 35
0.0
146
0.0
 13
0.0
 23
0.0
 33
0.0
 16
1.0
 26
0.0
 36
0.0
 17
0.0
 27
1.0
 37
0.0
 76
     0
330
1F
331
29
  0
MLINESTYLE
  5
18
102
{ACAD_REACTORS
330
17
102
}
330
17
100
AcDbMlineStyle
  2
Standard
 70
     0
  3

 62
   256
 51
90.0
 52
90.0
 71
     2
 49
0.5
 62
   256
  6
BYLAYER
 49
-0.5
 62
   256
  6
BYLAYER
  0
ACDBPLACEHOLDER
  5
F
102
{ACAD_REACTORS
330
E
102
}
330
E
  0
SCALE
  5
48
102
{ACAD_REACTORS
330
47
102
}
330
47
100
AcDbScale
 70
     0
300
1:1
140
1.0
141
1.0
290
     1
  0
SCALE
  5
49
102
{ACAD_REACTORS
330
47
102
}
330
47
100
AcDbScale
 70
     0
300
1:2
140
1.0
141
2.0
290
     0
  0
SCALE
  5
4A
102
{ACAD_REACTORS
330
47
102
}
330
47
100
AcDbScale
 70
     0
300
1:4
140
1.0
141
4.0
290
     0
  0
SCALE
  5
4B
102
{ACAD_REACTORS
330
47
102
}
330
47
100
AcDbScale
 70
     0
300
1:5
140
1.0
141
5.0
290
     0
  0
SCALE
  5
4C
102
{ACAD_REACTORS
330
47
102
}
330
47
100
AcDbScale
 70
     0
300
1:8
140
1.0
141
8.0
290
     0
  0
SCALE
  5
4D
102
{ACAD_REACTORS
330
47
102
}
330
47
100
AcDbScale
 70
     0
300
1:10
140
1.0
141
10.0
290
     0
  0
SCALE
  5
4E
102
{ACAD_REACTORS
330
47
102
}
330
47
100
AcDbScale
 70
     0
300
1:16
140
1.0
141
16.0
290
     0
  0
SCALE
  5
4F
102
{ACAD_REACTORS
330
47
102
}
330
47
100
AcDbScale
 70
     0
300
1:20
140
1.0
141
20.0
290
     0
  0
SCALE
  5
50
102
{ACAD_REACTORS
330
47
102
}
330
47
100
AcDbScale
 70
     0
300
1:30
140
1.0
141
30.0
290
     0
  0
SCALE
  5
51
102
{ACAD_REACTORS
330
47
102
}
330
47
100
AcDbScale
 70
     0
300
1:40
140
1.0
141
40.0
290
     0
  0
SCALE
  5
52
102
{ACAD_REACTORS
330
47
102
}
330
47
100
AcDbScale
 70
     0
300
1:50
140
1.0
141
50.0
290
     0
  0
SCALE
  5
53
102
{ACAD_REACTORS
330
47
102
}
330
47
100
AcDbScale
 70
     0
300
1:100
140
1.0
141
100.0
290
     0
  0
SCALE
  5
54
102
{ACAD_REACTORS
330
47
102
}
330
47
100
AcDbScale
 70
     0
300
2:1
140
2.0
141
1.0
290
     0
  0
SCALE
  5
55
102
{ACAD_REACTORS
330
47
102
}
330
47
100
AcDbScale
 70
     0
300
4:1
140
4.0
141
1.0
290
     0
  0
SCALE
  5
56
102
{ACAD_REACTORS
330
47
102
}
330
47
100
AcDbScale
 70
     0
300
8:1
140
8.0
141
1.0
290
     0
  0
SCALE
  5
57
102
{ACAD_REACTORS
330
47
102
}
330
47
100
AcDbScale
 70
     0
300
10:1
140
10.0
141
1.0
290
     0
  0
SCALE
  5
58
102
{ACAD_REACTORS
330
47
102
}
330
47
100
AcDbScale
 70
     0
300
100:1
140
100.0
141
1.0
290
     0
  0
SCALE
  5
59
102
{ACAD_REACTORS
330
47
102
}
330
47
100
AcDbScale
 70
     0
300
1/128" = 1'-0"
140
0.0078125
141
12.0
290
     0
  0
SCALE
  5
5A
102
{ACAD_REACTORS
330
47
102
}
330
47
100
AcDbScale
 70
     0
300
1/64" = 1'-0"
140
0.015625
141
12.0
290
     0
  0
SCALE
  5
5B
102
{ACAD_REACTORS
330
47
102
}
330
47
100
AcDbScale
 70
     0
300
1/32" = 1'-0"
140
0.03125
141
12.0
290
     0
  0
SCALE
  5
5C
102
{ACAD_REACTORS
330
47
102
}
330
47
100
AcDbScale
 70
     0
300
1/16" = 1'-0"
140
0.0625
141
12.0
290
     0
  0
SCALE
  5
5D
102
{ACAD_REACTORS
330
47
102
}
330
47
100
AcDbScale
 70
     0
300
3/32" = 1'-0"
140
0.09375
141
12.0
290
     0
  0
SCALE
  5
5E
102
{ACAD_REACTORS
330
47
102
}
330
47
100
AcDbScale
 70
     0
300
1/8" = 1'-0"
140
0.125
141
12.0
290
     0
  0
SCALE
  5
5F
102
{ACAD_REACTORS
330
47
102
}
330
47
100
AcDbScale
 70
     0
300
3/16" = 1'-0"
140
0.1875
141
12.0
290
     0
  0
SCALE
  5
60
102
{ACAD_REACTORS
330
47
102
}
330
47
100
AcDbScale
 70
     0
300
1/4" = 1'-0"
140
0.25
141
12.0
290
     0
  0
SCALE
  5
61
102
{ACAD_REACTORS
330
47
102
}
330
47
100
AcDbScale
 70
     0
300
3/8" = 1'-0"
140
0.375
141
12.0
290
     0
  0
SCALE
  5
62
102
{ACAD_REACTORS
330
47
102
}
330
47
100
AcDbScale
 70
     0
300
1/2" = 1'-0"
140
0.5
141
12.0
290
     0
  0
SCALE
  5
63
102
{ACAD_REACTORS
330
47
102
}
330
47
100
AcDbScale
 70
     0
300
3/4" = 1'-0"
140
0.75
141
12.0
290
     0
  0
SCALE
  5
64
102
{ACAD_REACTORS
330
47
102
}
330
47
100
AcDbScale
 70
     0
300
1" = 1'-0"
140
1.0
141
12.0
290
     0
  0
SCALE
  5
65
102
{ACAD_REACTORS
330
47
102
}
330
47
100
AcDbScale
 70
     0
300
1-1/2" = 1'-0"
140
1.5
141
12.0
290
     0
  0
SCALE
  5
66
102
{ACAD_REACTORS
330
47
102
}
330
47
100
AcDbScale
 70
     0
300
3" = 1'-0"
140
3.0
141
12.0
290
     0
  0
SCALE
  5
67
102
{ACAD_REACTORS
330
47
102
}
330
47
100
AcDbScale
 70
     0
300
6" = 1'-0"
140
6.0
141
12.0
290
     0
  0
SCALE
  5
68
102
{ACAD_REACTORS
330
47
102
}
330
47
100
AcDbScale
 70
     0
300
1'-0" = 1'-0"
140
12.0
141
12.0
290
     0
  0
ENDSEC
  0
EOF
