  0
SECTION
  2
HEADER
  9
$ACADVER
  1
AC1015
  9
$ACADMAINTVER
 70
     6
  9
$DWGCODEPAGE
  3
ANSI_1252
  9
$INSBASE
 10
0.0
 20
0.0
 30
0.0
  9
$EXTMIN
 10
0.0
 20
0.0
 30
0.0
  9
$EXTMAX
 10
297.0
 20
210.0
 30
0.0
  9
$LIMMIN
 10
0.0
 20
0.0
  9
$LIMMAX
 10
297.0
 20
210.0
  9
$ORTHOMODE
 70
     0
  9
$REGENMODE
 70
     1
  9
$FILLMODE
 70
     1
  9
$QTEXTMODE
 70
     0
  9
$MIRRTEXT
 70
     1
  9
$LTSCALE
 40
1.0
  9
$ATTMODE
 70
     1
  9
$TEXTSIZE
 40
2.0
  9
$TRACEWID
 40
1.0
  9
$TEXTSTYLE
  7
Standard
  9
$CLAYER
  8
0
  9
$CELTYPE
  6
ByLayer
  9
$CECOLOR
 62
   256
  9
$CELTSCALE
 40
1.0
  9
$DISPSILH
 70
     0
  9
$DIMSCALE
 40
1.0
  9
$DIMASZ
 40
3.0
  9
$DIMEXO
 40
0.0
  9
$DIMDLI
 40
3.75
  9
$DIMRND
 40
0.0
  9
$DIMDLE
 40
0.0
  9
$DIMEXE
 40
1.0
  9
$DIMTP
 40
0.0
  9
$DIMTM
 40
0.0
  9
$DIMTXT
 40
2.0
  9
$DIMCEN
 40
2.5
  9
$DIMTSZ
 40
0.0
  9
$DIMTOL
 70
     0
  9
$DIMLIM
 70
     0
  9
$DIMTIH
 70
     1
  9
$DIMTOH
 70
     1
  9
$DIMSE1
 70
     0
  9
$DIMSE2
 70
     0
  9
$DIMTAD
 70
     1
  9
$DIMZIN
 70
     0
  9
$DIMBLK
  1

  9
$DIMASO
 70
     1
  9
$DIMSHO
 70
     1
  9
$DIMPOST
  1

  9
$DIMAPOST
  1

  9
$DIMALT
 70
     0
  9
$DIMALTD
 70
     3
  9
$DIMALTF
 40
0.0393700787
  9
$DIMLFAC
 40
1.0
  9
$DIMTOFL
 70
     1
  9
$DIMTVP
 40
0.0
  9
$DIMTIX
 70
     0
  9
$DIMSOXD
 70
     0
  9
$DIMSAH
 70
     0
  9
$DIMBLK1
  1

  9
$DIMBLK2
  1

  9
$DIMSTYLE
  2
ISO-25
  9
$DIMCLRD
 70
     0
  9
$DIMCLRE
 70
     0
  9
$DIMCLRT
 70
     0
  9
$DIMTFAC
 40
1.0
  9
$DIMGAP
 40
1.524
  9
$DIMJUST
 70
     0
  9
$DIMSD1
 70
     0
  9
$DIMSD2
 70
     0
  9
$DIMTOLJ
 70
     0
  9
$DIMTZIN
 70
     0
  9
$DIMALTZ
 70
     0
  9
$DIMALTTZ
 70
     0
  9
$DIMUPT
 70
     0
  9
$DIMDEC
 70
     2
  9
$DIMTDEC
 70
     3
  9
$DIMALTU
 70
     2
  9
$DIMALTTD
 70
     3
  9
$DIMTXSTY
  7
Standard
  9
$DIMAUNIT
 70
     0
  9
$DIMADEC
 70
     2
  9
$DIMALTRND
 40
0.0
  9
$DIMAZIN
 70
     0
  9
$DIMDSEP
 70
    44
  9
$DIMATFIT
 70
     3
  9
$DIMFRAC
 70
     0
  9
$DIMLDRBLK
  1

  9
$DIMLUNIT
 70
     2
  9
$DIMLWD
 70
    -2
  9
$DIMLWE
 70
    -2
  9
$DIMTMOVE
 70
     0
  9
$LUNITS
 70
     2
  9
$LUPREC
 70
     2
  9
$SKETCHINC
 40
1.0
  9
$FILLETRAD
 40
10.0
  9
$AUNITS
 70
     0
  9
$AUPREC
 70
     2
  9
$MENU
  1
.
  9
$ELEVATION
 40
0.0
  9
$PELEVATION
 40
0.0
  9
$THICKNESS
 40
0.0
  9
$LIMCHECK
 70
     0
  9
$CHAMFERA
 40
0.0
  9
$CHAMFERB
 40
0.0
  9
$CHAMFERC
 40
0.0
  9
$CHAMFERD
 40
0.0
  9
$SKPOLY
 70
     0
  9
$TDCREATE
 40
2457632.450292292
  9
$TDUCREATE
 40
2457632.366958959
  9
$TDUPDATE
 40
2457632.450293669
  9
$TDUUPDATE
 40
2457632.366960336
  9
$TDINDWG
 40
0.0000000116
  9
$TDUSRTIMER
 40
0.0000000116
  9
$USRTIMER
 70
     1
  9
$ANGBASE
 50
0.0
  9
$ANGDIR
 70
     0
  9
$PDMODE
 70
     0
  9
$PDSIZE
 40
-1.0
  9
$PLINEWID
 40
0.0
  9
$SPLFRAME
 70
     0
  9
$SPLINETYPE
 70
     6
  9
$SPLINESEGS
 70
     8
  9
$HANDSEED
  5
2E5
  9
$SURFTAB1
 70
     6
  9
$SURFTAB2
 70
     6
  9
$SURFTYPE
 70
     6
  9
$SURFU
 70
     6
  9
$SURFV
 70
     6
  9
$UCSBASE
  2

  9
$UCSNAME
  2

  9
$UCSORG
 10
0.0
 20
0.0
 30
0.0
  9
$UCSXDIR
 10
1.0
 20
0.0
 30
0.0
  9
$UCSYDIR
 10
0.0
 20
1.0
 30
0.0
  9
$UCSORTHOREF
  2

  9
$UCSORTHOVIEW
 70
     0
  9
$UCSORGTOP
 10
0.0
 20
0.0
 30
0.0
  9
$UCSORGBOTTOM
 10
0.0
 20
0.0
 30
0.0
  9
$UCSORGLEFT
 10
0.0
 20
0.0
 30
0.0
  9
$UCSORGRIGHT
 10
0.0
 20
0.0
 30
0.0
  9
$UCSORGFRONT
 10
0.0
 20
0.0
 30
0.0
  9
$UCSORGBACK
 10
0.0
 20
0.0
 30
0.0
  9
$PUCSBASE
  2

  9
$PUCSNAME
  2

  9
$PUCSORG
 10
0.0
 20
0.0
 30
0.0
  9
$PUCSXDIR
 10
1.0
 20
0.0
 30
0.0
  9
$PUCSYDIR
 10
0.0
 20
1.0
 30
0.0
  9
$PUCSORTHOREF
  2

  9
$PUCSORTHOVIEW
 70
     0
  9
$PUCSORGTOP
 10
0.0
 20
0.0
 30
0.0
  9
$PUCSORGBOTTOM
 10
0.0
 20
0.0
 30
0.0
  9
$PUCSORGLEFT
 10
0.0
 20
0.0
 30
0.0
  9
$PUCSORGRIGHT
 10
0.0
 20
0.0
 30
0.0
  9
$PUCSORGFRONT
 10
0.0
 20
0.0
 30
0.0
  9
$PUCSORGBACK
 10
0.0
 20
0.0
 30
0.0
  9
$USERI1
 70
     0
  9
$USERI2
 70
     0
  9
$USERI3
 70
     0
  9
$USERI4
 70
     0
  9
$USERI5
 70
     0
  9
$USERR1
 40
0.0
  9
$USERR2
 40
0.0
  9
$USERR3
 40
0.0
  9
$USERR4
 40
0.0
  9
$USERR5
 40
0.0
  9
$WORLDVIEW
 70
     1
  9
$SHADEDGE
 70
     3
  9
$SHADEDIF
 70
    70
  9
$TILEMODE
 70
     1
  9
$MAXACTVP
 70
    64
  9
$PINSBASE
 10
0.0
 20
0.0
 30
0.0
  9
$PLIMCHECK
 70
     0
  9
$PEXTMIN
 10
1.0000000000E+20
 20
1.0000000000E+20
 30
1.0000000000E+20
  9
$PEXTMAX
 10
-1.0000000000E+20
 20
-1.0000000000E+20
 30
-1.0000000000E+20
  9
$PLIMMIN
 10
0.0
 20
0.0
  9
$PLIMMAX
 10
420.0
 20
297.0
  9
$UNITMODE
 70
     0
  9
$VISRETAIN
 70
     1
  9
$PLINEGEN
 70
     0
  9
$PSLTSCALE
 70
     1
  9
$TREEDEPTH
 70
  3020
  9
$CMLSTYLE
  2
Standard
  9
$CMLJUST
 70
     0
  9
$CMLSCALE
 40
20.0
  9
$PROXYGRAPHICS
 70
     1
  9
$MEASUREMENT
 70
     1
  9
$CELWEIGHT
370
    -1
  9
$ENDCAPS
280
     0
  9
$JOINSTYLE
280
     0
  9
$LWDISPLAY
290
     1
  9
$INSUNITS
 70
     4
  9
$HYPERLINKBASE
  1

  9
$STYLESHEET
  1

  9
$XEDIT
290
     1
  9
$CEPSNTYPE
380
     0
  9
$PSTYLEMODE
290
     1
  9
$FINGERPRINTGUID
  2
{B18DBD9E-CD4A-4665-B37D-B6DF0E4E4E95}
  9
$VERSIONGUID
  2
{FAEB1C32-E019-11D5-929B-00C0DF256EC4}
  9
$EXTNAMES
290
     1
  9
$PSVPSCALE
 40
0.0
  9
$OLESTARTUP
290
     0
  0
ENDSEC
  0
SECTION
  2
CLASSES
  0
CLASS
  1
ACDBDICTIONARYWDFLT
  2
AcDbDictionaryWithDefault
  3
ObjectDBX Classes
 90
        0
280
     0
281
     0
  0
CLASS
  1
VISUALSTYLE
  2
AcDbVisualStyle
  3
ObjectDBX Classes
 90
     4095
280
     0
281
     0
  0
CLASS
  1
MATERIAL
  2
AcDbMaterial
  3
ObjectDBX Classes
 90
     1153
280
     0
281
     0
  0
CLASS
  1
SCALE
  2
AcDbScale
  3
ObjectDBX Classes
 90
     1153
280
     0
281
     0
  0
CLASS
  1
TABLESTYLE
  2
AcDbTableStyle
  3
ObjectDBX Classes
 90
     4095
280
     0
281
     0
  0
CLASS
  1
MLEADERSTYLE
  2
AcDbMLeaderStyle
  3
ACDB_MLEADERSTYLE_CLASS
 90
     4095
280
     0
281
     0
  0
CLASS
  1
SUN
  2
AcDbSun
  3
SCENEOE
 90
     1153
280
     0
281
     0
  0
CLASS
  1
ACDBPLACEHOLDER
  2
AcDbPlaceHolder
  3
ObjectDBX Classes
 90
        0
280
     0
281
     0
  0
CLASS
  1
LAYOUT
  2
AcDbLayout
  3
ObjectDBX Classes
 90
        0
280
     0
281
     0
  0
ENDSEC
  0
SECTION
  2
TABLES
  0
TABLE
  2
VPORT
  5
8
330
0
100
AcDbSymbolTable
 70
     1
  0
VPORT
  5
29
330
8
100
AcDbSymbolTableRecord
100
AcDbViewportTableRecord
  2
*Active
 70
     0
 10
0.0
 20
0.0
 11
1.0
 21
1.0
 12
148.5
 22
105.0
 13
0.0
 23
0.0
 14
10.0
 24
10.0
 15
10.0
 25
10.0
 16
0.0
 26
0.0
 36
1.0
 17
0.0
 27
0.0
 37
0.0
 40
210.0
 41
1.4142857143
 42
50.0
 43
0.0
 44
0.0
 50
0.0
 51
0.0
 71
     0
 72
  2000
 73
     1
 74
     3
 75
     0
 76
     0
 77
     0
 78
     0
281
     0
 65
     1
110
0.0
120
0.0
130
0.0
111
1.0
121
0.0
131
0.0
112
0.0
122
1.0
132
0.0
 79
     0
146
0.0
  0
ENDTAB
  0
TABLE
  2
LTYPE
  5
5
330
0
100
AcDbSymbolTable
 70
     6
  0
LTYPE
  5
14
330
5
100
AcDbSymbolTableRecord
100
AcDbLinetypeTableRecord
  2
ByBlock
 70
     0
  3

 72
    65
 73
     0
 40
0.0
  0
LTYPE
  5
15
330
5
100
AcDbSymbolTableRecord
100
AcDbLinetypeTableRecord
  2
ByLayer
 70
     0
  3

 72
    65
 73
     0
 40
0.0
  0
LTYPE
  5
16
330
5
100
AcDbSymbolTableRecord
100
AcDbLinetypeTableRecord
  2
Continuous
 70
     0
  3
Solid line
 72
    65
 73
     0
 40
0.0
  0
LTYPE
  5
6E
330
5
100
AcDbSymbolTableRecord
100
AcDbLinetypeTableRecord
  2
HIDDEN
 70
     0
  3
Hidden __ __ __ __ __ __ __ __ __ __ __ __ __ __
 72
    65
 73
     2
 40
1.905
 49
1.27
 74
     0
 49
-0.635
 74
     0
  0
LTYPE
  5
6F
330
5
100
AcDbSymbolTableRecord
100
AcDbLinetypeTableRecord
  2
PHANTOM
 70
     0
  3
Phantom ______  __  __  ______  __  __  ______
 72
    65
 73
     6
 40
12.7
 49
6.35
 74
     0
 49
-1.27
 74
     0
 49
1.27
 74
     0
 49
-1.27
 74
     0
 49
1.27
 74
     0
 49
-1.27
 74
     0
  0
LTYPE
  5
70
330
5
100
AcDbSymbolTableRecord
100
AcDbLinetypeTableRecord
  2
CENTER
 70
     0
  3
Center ____ _ ____ _ ____ _ ____ _ ____ _ ____
 72
    65
 73
     4
 40
10.16
 49
6.35
 74
     0
 49
-1.27
 74
     0
 49
1.27
 74
     0
 49
-1.27
 74
     0
  0
LTYPE
  5
71
330
5
100
AcDbSymbolTableRecord
100
AcDbLinetypeTableRecord
  2
CENTERX2
 70
     0
  3
Center (2x) ________  __  ________  __  _____
 72
    65
 73
     4
 40
20.32
 49
12.7
 74
     0
 49
-2.54
 74
     0
 49
2.54
 74
     0
 49
-2.54
 74
     0
  0
LTYPE
  5
72
330
5
100
AcDbSymbolTableRecord
100
AcDbLinetypeTableRecord
  2
DOT2
 70
     0
  3
Dot (.5x) ........................................
 72
    65
 73
     2
 40
0.635
 49
0.0
 74
     0
 49
-0.635
 74
     0
  0
ENDTAB
  0
TABLE
  2
LAYER
  5
2
330
0
100
AcDbSymbolTable
 70
     5
  0
LAYER
  5
10
330
2
100
AcDbSymbolTableRecord
100
AcDbLayerTableRecord
  2
0
 70
     0
 62
     7
  6
Continuous
370
    -3
390
F
  0
LAYER
  5
73
330
2
100
AcDbSymbolTableRecord
100
AcDbLayerTableRecord
  2
FORMAT
 70
     0
 62
     7
  6
Continuous
370
    -3
390
F
  0
LAYER
  5
74
330
2
100
AcDbSymbolTableRecord
100
AcDbLayerTableRecord
  2
VERMASSUNG
 70
     0
 62
     7
  6
Continuous
370
    -3
390
F
  0
LAYER
  5
75
330
2
100
AcDbSymbolTableRecord
100
AcDbLayerTableRecord
  2
KOPF_DÜNN
 70
     0
 62
     7
  6
Continuous
370
    -3
390
F
  0
LAYER
  5
76
330
2
100
AcDbSymbolTableRecord
100
AcDbLayerTableRecord
  2
KOPF_DICK
 70
     0
 62
     7
  6
Continuous
370
    15
390
F
  0
ENDTAB
  0
TABLE
  2
STYLE
  5
3
330
0
100
AcDbSymbolTable
 70
     2
  0
STYLE
  5
11
330
3
100
AcDbSymbolTableRecord
100
AcDbTextStyleTableRecord
  2
Standard
 70
     0
 40
0.0
 41
1.0
 50
0.0
 71
     0
 42
2.0
  3
txt
  4

  0
STYLE
  5
77
330
3
100
AcDbSymbolTableRecord
100
AcDbTextStyleTableRecord
  2
SLDTEXTSTYLE0
 70
     0
 40
0.0
 41
0.7
 50
0.0
 71
     0
 42
2.0
  3
TXT
  4

  0
ENDTAB
  0
TABLE
  2
VIEW
  5
6
330
0
100
AcDbSymbolTable
 70
     0
  0
ENDTAB
  0
TABLE
  2
UCS
  5
7
330
0
100
AcDbSymbolTable
 70
     0
  0
ENDTAB
  0
TABLE
  2
APPID
  5
9
330
0
100
AcDbSymbolTable
 70
     1
  0
APPID
  5
12
330
9
100
AcDbSymbolTableRecord
100
AcDbRegAppTableRecord
  2
ACAD
 70
     0
  0
ENDTAB
  0
TABLE
  2
DIMSTYLE
  5
A
330
0
100
AcDbSymbolTable
 70
     2
100
AcDbDimStyleTable
  0
DIMSTYLE
105
27
330
A
100
AcDbSymbolTableRecord
100
AcDbDimStyleTableRecord
  2
ISO-25
 70
     0
 41
2.5
 42
0.625
 43
3.75
 44
1.25
 73
     0
 74
     0
 77
     1
 78
     8
140
2.5
141
2.5
143
0.0393700787
147
0.625
171
     3
172
     1
178
     0
271
     2
272
     2
274
     3
278
    44
283
     0
284
     8
340
11
  0
DIMSTYLE
105
1E8
102
{ACAD_REACTORS
330
1E7
330
1F4
330
200
330
20A
330
214
102
}
330
A
100
AcDbSymbolTableRecord
100
AcDbDimStyleTableRecord
  2
SLDDIMSTYLE0
 70
     0
 41
3.0
 44
0.0
 45
0.000000001
 73
     0
 74
     0
 77
     1
 78
    12
 79
     3
140
2.0
147
0.5
173
     1
178
     0
271
     2
272
     3
276
     2
284
    12
340
77
  0
ENDTAB
  0
TABLE
  2
BLOCK_RECORD
  5
1
330
0
100
AcDbSymbolTable
 70
     6
  0
BLOCK_RECORD
  5
1F
330
1
100
AcDbSymbolTableRecord
100
AcDbBlockTableRecord
  2
*Model_Space
340
22
  0
BLOCK_RECORD
  5
1B
330
1
100
AcDbSymbolTableRecord
100
AcDbBlockTableRecord
  2
*Paper_Space
340
1E
  0
BLOCK_RECORD
  5
23
330
1
100
AcDbSymbolTableRecord
100
AcDbBlockTableRecord
  2
*Paper_Space0
340
26
  0
BLOCK_RECORD
  5
1E9
330
1
100
AcDbSymbolTableRecord
100
AcDbBlockTableRecord
  2
_D
340
0
  0
BLOCK_RECORD
  5
1F5
330
1
100
AcDbSymbolTableRecord
100
AcDbBlockTableRecord
  2
_D_1
340
0
  0
BLOCK_RECORD
  5
201
330
1
100
AcDbSymbolTableRecord
100
AcDbBlockTableRecord
  2
_D_2
340
0
  0
BLOCK_RECORD
  5
20B
330
1
100
AcDbSymbolTableRecord
100
AcDbBlockTableRecord
  2
_D_3
340
0
  0
BLOCK_RECORD
  5
215
330
1
100
AcDbSymbolTableRecord
100
AcDbBlockTableRecord
  2
_D_4
340
0
  0
ENDTAB
  0
ENDSEC
  0
SECTION
  2
BLOCKS
  0
BLOCK
  5
20
330
1F
100
AcDbEntity
  8
0
100
AcDbBlockBegin
  2
*Model_Space
 70
     0
 10
0.0
 20
0.0
 30
0.0
  3
*Model_Space
  1

  0
ENDBLK
  5
21
330
1F
100
AcDbEntity
  8
0
100
AcDbBlockEnd
  0
BLOCK
  5
1C
330
1B
100
AcDbEntity
 67
     1
  8
0
100
AcDbBlockBegin
  2
*Paper_Space
 70
     0
 10
0.0
 20
0.0
 30
0.0
  3
*Paper_Space
  1

  0
ENDBLK
  5
1D
330
1B
100
AcDbEntity
 67
     1
  8
0
100
AcDbBlockEnd
  0
BLOCK
  5
24
330
23
100
AcDbEntity
  8
0
100
AcDbBlockBegin
  2
*Paper_Space0
 70
     0
 10
0.0
 20
0.0
 30
0.0
  3
*Paper_Space0
  1

  0
ENDBLK
  5
25
330
23
100
AcDbEntity
  8
0
100
AcDbBlockEnd
  0
BLOCK
  5
1EA
330
1E9
100
AcDbEntity
  8
0
100
AcDbBlockBegin
  2
_D
 70
     0
 10
0.0
 20
0.0
 30
0.0
  3
_D
  1

  0
SOLID
  5
1EC
330
1E9
100
AcDbEntity
  8
VERMASSUNG
100
AcDbTrace
 10
48.2742702259
 20
64.9837474333
 30
0.0
 11
48.7242702259
 21
67.9837474333
 31
0.0
 12
47.8242702259
 22
67.9837474333
 32
0.0
 13
47.8242702259
 23
67.9837474333
 33
0.0
  0
SOLID
  5
1ED
330
1E9
100
AcDbEntity
  8
VERMASSUNG
100
AcDbTrace
 10
48.2742702259
 20
162.4337474333
 30
0.0
 11
47.8242702259
 21
159.4337474333
 31
0.0
 12
48.7242702259
 22
159.4337474333
 32
0.0
 13
48.7242702259
 23
159.4337474333
 33
0.0
  0
LINE
  5
1EE
330
1E9
100
AcDbEntity
  8
VERMASSUNG
100
AcDbLine
 10
175.0897330595
 20
64.9837474333
 30
0.0
 11
47.2742702259
 21
64.9837474333
 31
0.0
  0
LINE
  5
1EF
330
1E9
100
AcDbEntity
  8
VERMASSUNG
100
AcDbLine
 10
175.0897330595
 20
162.4337474333
 30
0.0
 11
47.2742702259
 21
162.4337474333
 31
0.0
  0
LINE
  5
1F0
330
1E9
100
AcDbEntity
  8
VERMASSUNG
100
AcDbLine
 10
48.2742702259
 20
64.9837474333
 30
0.0
 11
48.2742702259
 21
162.4337474333
 31
0.0
  0
MTEXT
  5
1F1
330
1E9
100
AcDbEntity
  8
VERMASSUNG
100
AcDbMText
 10
45.4961349697
 20
104.2043117999
 30
0.0
 40
2.0
 41
0.0
 71
     1
 72
     1
  1
ISO 50
  7
SLDTEXTSTYLE0
 11
3.391901413832837E-15
 21
1.0
 31
0.0
 73
     1
 44
1.0
  0
MTEXT
  5
1F2
330
1E9
100
AcDbEntity
  8
VERMASSUNG
100
AcDbMText
 10
45.696134921
 20
113.2043114125
 30
0.0
 40
2.0
 41
0.0
 71
     1
 72
     1
  1
%%c
  7
SLDTEXTSTYLE0
 11
3.391901413832837E-15
 21
1.0
 31
0.0
 73
     1
 44
1.0
  0
MTEXT
  5
1F3
330
1E9
100
AcDbEntity
  8
VERMASSUNG
100
AcDbMText
 10
45.6961346299
 20
116.8136547453
 30
0.0
 40
2.0
 41
0.0
 71
     1
 72
     1
  1
97.45
  7
SLDTEXTSTYLE0
 11
3.391901413832837E-15
 21
1.0
 31
0.0
 73
     1
 44
1.0
  0
ENDBLK
  5
1EB
330
1E9
100
AcDbEntity
  8
0
100
AcDbBlockEnd
  0
BLOCK
  5
1F6
330
1F5
100
AcDbEntity
  8
0
100
AcDbBlockBegin
  2
_D_1
 70
     0
 10
0.0
 20
0.0
 30
0.0
  3
_D_1
  1

  0
ARC
  5
1F8
330
1F5
100
AcDbEntity
  8
VERMASSUNG
100
AcDbCircle
 10
144.7011671481
 20
182.844540586
 30
0.0
 40
4.247059938537297
100
AcDbArc
 50
153.4349488229
 51
206.5650511771
  0
ARC
  5
1F9
330
1F5
100
AcDbEntity
  8
VERMASSUNG
100
AcDbCircle
 10
146.078298971
 20
182.844540586
 30
0.0
 40
4.247059938537323
100
AcDbArc
 50
333.4349488229
 51
26.5650511771
  0
SOLID
  5
1FA
330
1F5
100
AcDbEntity
  8
VERMASSUNG
100
AcDbTrace
 10
235.7397330595
 20
180.9451976406
 30
0.0
 11
232.7397330595
 21
181.3951976406
 31
0.0
 12
232.7397330595
 22
180.4951976406
 32
0.0
 13
232.7397330595
 23
180.4951976406
 33
0.0
  0
SOLID
  5
1FB
330
1F5
100
AcDbEntity
  8
VERMASSUNG
100
AcDbTrace
 10
55.0397330595
 20
180.9451976406
 30
0.0
 11
58.0397330595
 21
180.4951976406
 31
0.0
 12
58.0397330595
 22
181.3951976406
 32
0.0
 13
58.0397330595
 23
181.3951976406
 33
0.0
  0
LINE
  5
1FC
330
1F5
100
AcDbEntity
  8
VERMASSUNG
100
AcDbLine
 10
235.7397330595
 20
159.8087474333
 30
0.0
 11
235.7397330595
 21
181.9451976406
 31
0.0
  0
LINE
  5
1FD
330
1F5
100
AcDbEntity
  8
VERMASSUNG
100
AcDbLine
 10
55.0397330595
 20
132.0875919607
 30
0.0
 11
55.0397330595
 21
181.9451976406
 31
0.0
  0
LINE
  5
1FE
330
1F5
100
AcDbEntity
  8
VERMASSUNG
100
AcDbLine
 10
235.7397330595
 20
180.9451976406
 30
0.0
 11
55.0397330595
 21
180.9451976406
 31
0.0
  0
MTEXT
  5
1FF
330
1F5
100
AcDbEntity
  8
VERMASSUNG
100
AcDbMText
 10
142.4899812573
 20
183.5233332366
 30
0.0
 40
2.0
 41
0.0
 71
     1
 72
     1
  1
180.7
  7
SLDTEXTSTYLE0
 73
     1
 44
1.0
  0
ENDBLK
  5
1F7
330
1F5
100
AcDbEntity
  8
0
100
AcDbBlockEnd
  0
BLOCK
  5
202
330
201
100
AcDbEntity
  8
0
100
AcDbBlockBegin
  2
_D_2
 70
     0
 10
0.0
 20
0.0
 30
0.0
  3
_D_2
  1

  0
SOLID
  5
204
330
201
100
AcDbEntity
  8
VERMASSUNG
100
AcDbTrace
 10
156.6397330595
 20
176.4755305637
 30
0.0
 11
159.6397330595
 21
176.0255305637
 31
0.0
 12
159.6397330595
 22
176.9255305637
 32
0.0
 13
159.6397330595
 23
176.9255305637
 33
0.0
  0
SOLID
  5
205
330
201
100
AcDbEntity
  8
VERMASSUNG
100
AcDbTrace
 10
235.7397330595
 20
176.4755305637
 30
0.0
 11
232.7397330595
 21
176.9255305637
 31
0.0
 12
232.7397330595
 22
176.0255305637
 32
0.0
 13
232.7397330595
 23
176.0255305637
 33
0.0
  0
LINE
  5
206
330
201
100
AcDbEntity
  8
VERMASSUNG
100
AcDbLine
 10
156.6397330595
 20
148.6337474333
 30
0.0
 11
156.6397330595
 21
177.4755305637
 31
0.0
  0
LINE
  5
207
330
201
100
AcDbEntity
  8
VERMASSUNG
100
AcDbLine
 10
235.7397330595
 20
159.8087474333
 30
0.0
 11
235.7397330595
 21
177.4755305637
 31
0.0
  0
LINE
  5
208
330
201
100
AcDbEntity
  8
VERMASSUNG
100
AcDbLine
 10
156.6397330595
 20
176.4755305637
 30
0.0
 11
235.7397330595
 21
176.4755305637
 31
0.0
  0
MTEXT
  5
209
330
201
100
AcDbEntity
  8
VERMASSUNG
100
AcDbMText
 10
193.9903777557
 20
179.0536661596
 30
0.0
 40
2.0
 41
0.0
 71
     1
 72
     1
  1
79.1
  7
SLDTEXTSTYLE0
 73
     1
 44
1.0
  0
ENDBLK
  5
203
330
201
100
AcDbEntity
  8
0
100
AcDbBlockEnd
  0
BLOCK
  5
20C
330
20B
100
AcDbEntity
  8
0
100
AcDbBlockBegin
  2
_D_3
 70
     0
 10
0.0
 20
0.0
 30
0.0
  3
_D_3
  1

  0
SOLID
  5
20E
330
20B
100
AcDbEntity
  8
VERMASSUNG
100
AcDbTrace
 10
175.6897330595
 20
170.4755305637
 30
0.0
 11
178.6897330595
 21
170.0255305637
 31
0.0
 12
178.6897330595
 22
170.9255305637
 32
0.0
 13
178.6897330595
 23
170.9255305637
 33
0.0
  0
SOLID
  5
20F
330
20B
100
AcDbEntity
  8
VERMASSUNG
100
AcDbTrace
 10
235.7397330595
 20
170.4755305637
 30
0.0
 11
232.7397330595
 21
170.9255305637
 31
0.0
 12
232.7397330595
 22
170.0255305637
 32
0.0
 13
232.7397330595
 23
170.0255305637
 33
0.0
  0
LINE
  5
210
330
20B
100
AcDbEntity
  8
VERMASSUNG
100
AcDbLine
 10
175.6897330595
 20
160.0037343865
 30
0.0
 11
175.6897330595
 21
171.4755305637
 31
0.0
  0
LINE
  5
211
330
20B
100
AcDbEntity
  8
VERMASSUNG
100
AcDbLine
 10
235.7397330595
 20
159.8087474333
 30
0.0
 11
235.7397330595
 21
171.4755305637
 31
0.0
  0
LINE
  5
212
330
20B
100
AcDbEntity
  8
VERMASSUNG
100
AcDbLine
 10
175.6897330595
 20
170.4755305637
 30
0.0
 11
235.7397330595
 21
170.4755305637
 31
0.0
  0
MTEXT
  5
213
330
20B
100
AcDbEntity
  8
VERMASSUNG
100
AcDbMText
 10
202.6153406806
 20
173.0536661596
 30
0.0
 40
2.0
 41
0.0
 71
     1
 72
     1
  1
60.05
  7
SLDTEXTSTYLE0
 73
     1
 44
1.0
  0
ENDBLK
  5
20D
330
20B
100
AcDbEntity
  8
0
100
AcDbBlockEnd
  0
BLOCK
  5
216
330
215
100
AcDbEntity
  8
0
100
AcDbBlockBegin
  2
_D_4
 70
     0
 10
0.0
 20
0.0
 30
0.0
  3
_D_4
  1

  0
SOLID
  5
218
330
215
100
AcDbEntity
  8
VERMASSUNG
100
AcDbTrace
 10
245.6887188972
 20
160.7087474333
 30
0.0
 11
245.2387188972
 21
157.7087474333
 31
0.0
 12
246.1387188972
 22
157.7087474333
 32
0.0
 13
246.1387188972
 23
157.7087474333
 33
0.0
  0
SOLID
  5
219
330
215
100
AcDbEntity
  8
VERMASSUNG
100
AcDbTrace
 10
245.6887188972
 20
66.7087474333
 30
0.0
 11
246.1387188972
 21
69.7087474333
 31
0.0
 12
245.2387188972
 22
69.7087474333
 32
0.0
 13
245.2387188972
 23
69.7087474333
 33
0.0
  0
LINE
  5
21A
330
215
100
AcDbEntity
  8
VERMASSUNG
100
AcDbLine
 10
234.8397330595
 20
160.7087474333
 30
0.0
 11
246.6887188972
 21
160.7087474333
 31
0.0
  0
LINE
  5
21B
330
215
100
AcDbEntity
  8
VERMASSUNG
100
AcDbLine
 10
234.8397330595
 20
66.7087474333
 30
0.0
 11
246.6887188972
 21
66.7087474333
 31
0.0
  0
LINE
  5
21C
330
215
100
AcDbEntity
  8
VERMASSUNG
100
AcDbLine
 10
245.6887188972
 20
160.7087474333
 30
0.0
 11
245.6887188972
 21
66.7087474333
 31
0.0
  0
MTEXT
  5
21D
330
215
100
AcDbEntity
  8
VERMASSUNG
100
AcDbMText
 10
242.910583641
 20
107.2037474939
 30
0.0
 40
2.0
 41
0.0
 71
     1
 72
     1
  1
MBM
  7
SLDTEXTSTYLE0
 11
-7.044195017643634E-15
 21
1.0
 31
0.0
 73
     1
 44
1.0
  0
MTEXT
  5
21E
330
215
100
AcDbEntity
  8
VERMASSUNG
100
AcDbMText
 10
243.1105835923
 20
113.6037473322
 30
0.0
 40
2.0
 41
0.0
 71
     1
 72
     1
  1
%%c
  7
SLDTEXTSTYLE0
 11
-7.044195017643634E-15
 21
1.0
 31
0.0
 73
     1
 44
1.0
  0
MTEXT
  5
21F
330
215
100
AcDbEntity
  8
VERMASSUNG
100
AcDbMText
 10
242.910583641
 20
117.2137478122
 30
0.0
 40
2.0
 41
0.0
 71
     1
 72
     1
  1
94
  7
SLDTEXTSTYLE0
 11
-7.044195017643634E-15
 21
1.0
 31
0.0
 73
     1
 44
1.0
  0
ENDBLK
  5
217
330
215
100
AcDbEntity
  8
0
100
AcDbBlockEnd
  0
ENDSEC
  0
SECTION
  2
ENTITIES
  0
MTEXT
  5
78
330
1F
100
AcDbEntity
  8
KOPF_DÜNN
100
AcDbMText
 10
13.8892156294
 20
23.8442973028
 30
0.0
 40
3.0
 41
0.0
 71
     1
 72
     1
  1
102.525.941
  7
SLDTEXTSTYLE0
 73
     1
 44
1.0
  0
MTEXT
  5
79
330
1F
100
AcDbEntity
  8
VERMASSUNG
100
AcDbMText
 10
13.9329988022
 20
28.8834360957
 30
0.0
 40
3.0
 41
0.0
 71
     1
 72
     1
  1
Aufnahme_Master shank MBM 94
  7
SLDTEXTSTYLE0
 73
     1
 44
1.0
  0
MTEXT
  5
7A
330
1F
100
AcDbEntity
  8
VERMASSUNG
100
AcDbMText
 10
98.8601118557
 20
13.8365368761
 30
0.0
 40
2.0
 41
0.0
 71
     1
 72
     1
  1
Datum: 01.11.2007
  7
SLDTEXTSTYLE0
 73
     1
 44
1.0
  0
MTEXT
  5
7B
330
1F
100
AcDbEntity
  8
VERMASSUNG
100
AcDbMText
 10
13.933048693
 20
18.0482802738
 30
0.0
 40
2.0
 41
0.0
 71
     1
 72
     1
  1
DIN 69871 B 50
  7
SLDTEXTSTYLE0
 73
     1
 44
1.0
  0
MTEXT
  5
7C
330
1F
100
AcDbEntity
  8
VERMASSUNG
100
AcDbMText
 10
13.9808475933
 20
13.9090974274
 30
0.0
 40
2.0
 41
0.0
 71
     1
 72
     1
  1
Gewicht: 4753g
  7
SLDTEXTSTYLE0
 73
     1
 44
1.0
  0
LINE
  5
7D
330
1F
100
AcDbEntity
  8
0
  6
Continuous
 62
     7
370
    15
100
AcDbLine
 10
234.8397306038
 20
160.7087458239
 30
0.0
 11
196.2585343851
 21
160.7087458239
 31
0.0
  0
LINE
  5
7E
330
1F
100
AcDbEntity
  8
0
  6
Continuous
 62
     7
370
    15
100
AcDbLine
 10
196.2585343851
 20
66.7087490426
 30
0.0
 11
234.8397306038
 21
66.7087490426
 31
0.0
  0
LINE
  5
7F
330
1F
100
AcDbEntity
  8
0
  6
Continuous
 62
     7
370
    15
100
AcDbLine
 10
234.8397306038
 20
66.7087490426
 30
0.0
 11
235.7397309376
 21
67.6087456511
 31
0.0
  0
LINE
  5
80
330
1F
100
AcDbEntity
  8
0
  6
Continuous
 62
     7
370
    15
100
AcDbLine
 10
235.7397309376
 20
159.8087492154
 30
0.0
 11
234.8397306038
 21
160.7087458239
 31
0.0
  0
ARC
  5
81
330
1F
100
AcDbEntity
  8
0
  6
Continuous
 62
     7
370
    15
100
AcDbCircle
 10
196.2585352131
 20
67.7087474333
 30
0.0
 40
1.000000000000001
100
AcDbArc
 50
210.0
 51
270.0
  0
ARC
  5
82
330
1F
100
AcDbEntity
  8
0
  6
Continuous
 62
     7
370
    15
100
AcDbCircle
 10
196.2585352131
 20
159.7087474333
 30
0.0
 40
1.000000000000008
100
AcDbArc
 50
90.0
 51
150.0
  0
LINE
  5
83
330
1F
100
AcDbEntity
  8
0
  6
Continuous
 62
     7
370
    15
100
AcDbLine
 10
195.3925086988
 20
160.208748536
 30
0.0
 11
191.9284096791
 21
154.2087475525
 31
0.0
  0
LINE
  5
84
330
1F
100
AcDbEntity
  8
0
  6
Continuous
 62
     7
370
    15
100
AcDbLine
 10
191.9284096791
 20
73.2087473141
 30
0.0
 11
195.3925086988
 21
67.2087463306
 31
0.0
  0
ARC
  5
85
330
1F
100
AcDbEntity
  8
0
  6
Continuous
 62
     7
370
    15
100
AcDbCircle
 10
191.0623827904
 20
154.7087474333
 30
0.0
 40
1.000000000000008
100
AcDbArc
 50
270.0
 51
330.0
  0
ARC
  5
86
330
1F
100
AcDbEntity
  8
0
  6
Continuous
 62
     7
370
    15
100
AcDbCircle
 10
191.0623827904
 20
72.7087474333
 30
0.0
 40
1.000000000000008
100
AcDbArc
 50
30.0
 51
90.0
  0
LINE
  5
87
330
1F
100
AcDbEntity
  8
0
  6
Continuous
 62
     7
370
    15
100
AcDbLine
 10
188.5329565836
 20
73.7087483273
 30
0.0
 11
191.0623839928
 21
73.7087483273
 31
0.0
  0
LINE
  5
88
330
1F
100
AcDbEntity
  8
0
  6
Continuous
 62
     7
370
    15
100
AcDbLine
 10
191.0623839928
 20
153.7087465392
 30
0.0
 11
188.5329565836
 21
153.7087465392
 31
0.0
  0
ARC
  5
89
330
1F
100
AcDbEntity
  8
0
  6
Continuous
 62
     7
370
    15
100
AcDbCircle
 10
159.2397330595
 20
78.1837474333
 30
0.0
 40
0.6000000000000227
100
AcDbArc
 50
0.0
 51
90.0
  0
ARC
  5
8A
330
1F
100
AcDbEntity
  8
0
  6
Continuous
 62
     7
370
    15
100
AcDbCircle
 10
159.2397330595
 20
149.2337474333
 30
0.0
 40
0.6000000000000227
100
AcDbArc
 50
270.0
 51
0.0
  0
LINE
  5
8B
330
1F
100
AcDbEntity
  8
0
  6
Continuous
 62
     7
370
    15
100
AcDbLine
 10
156.6397330595
 20
78.7837485538
 30
0.0
 11
159.2397330666
 21
78.7837485538
 31
0.0
  0
LINE
  5
8C
330
1F
100
AcDbEntity
  8
0
  6
Continuous
 62
     7
370
    15
100
AcDbLine
 10
159.2397330666
 20
148.6337463127
 30
0.0
 11
156.6397330595
 21
148.6337463127
 31
0.0
  0
LINE
  5
8D
330
1F
100
AcDbEntity
  8
0
  6
Continuous
 62
     7
370
    15
100
AcDbLine
 10
156.6397330595
 20
148.6337463127
 30
0.0
 11
56.7511177494
 21
134.0666579769
 31
0.0
  0
LINE
  5
8E
330
1F
100
AcDbEntity
  8
0
  6
Continuous
 62
     7
370
    15
100
AcDbLine
 10
56.7511177494
 20
93.3508368896
 30
0.0
 11
156.6397330595
 21
78.7837485538
 31
0.0
  0
ARC
  5
8F
330
1F
100
AcDbEntity
  8
0
  6
Continuous
 62
     7
370
    15
100
AcDbCircle
 10
57.0397330595
 20
95.3299029059
 30
0.0
 40
2.000000000000006
100
AcDbArc
 50
180.0
 51
261.7028550302
  0
ARC
  5
90
330
1F
100
AcDbEntity
  8
0
  6
Continuous
 62
     7
370
    15
100
AcDbCircle
 10
57.0397330595
 20
132.0875919607
 30
0.0
 40
1.999999999999986
100
AcDbArc
 50
98.2971449698
 51
180.0
  0
ARC
  5
91
330
1F
100
AcDbEntity
  8
0
  6
Continuous
 62
     7
370
    15
100
AcDbCircle
 10
170.8397330595
 20
99.2430054713
 30
0.0
 40
2.000000000000004
100
AcDbArc
 50
192.215685934
 51
340.3453161116
  0
SPLINE
  5
92
330
1F
100
AcDbEntity
  8
0
  6
Continuous
 62
     7
370
    15
100
AcDbSpline
210
0.0
220
0.0
230
1.0
 70
     8
 71
     3
 72
    12
 73
     8
 74
     0
 42
0.000000001
 43
0.00000001
 40
0.0
 40
0.0
 40
0.0
 40
0.0
 40
0.1283787934070498
 40
0.3048490127136278
 40
0.4808703410108421
 40
0.8153240597318632
 40
0.9999999999999999
 40
0.9999999999999999
 40
0.9999999999999999
 40
0.9999999999999999
 10
216.4685434533585
 20
111.370483528589
 30
0.0
 10
216.2805149557636
 20
111.2333252911893
 30
0.0
 10
215.8340214163509
 20
110.9076285608558
 30
0.0
 10
215.087690153387
 20
110.3632177795601
 30
0.0
 10
213.9784784955541
 20
109.5541032971785
 30
0.0
 10
212.8385360576598
 20
108.722568081846
 30
0.0
 10
212.0755651163933
 20
108.1660182329329
 30
0.0
 10
211.8041447235574
 20
107.9680303798515
 30
0.0
  0
SPLINE
  5
93
330
1F
100
AcDbEntity
  8
0
  6
Continuous
 62
     7
370
    15
100
AcDbSpline
210
0.0
220
0.0
230
1.0
 70
     8
 71
     3
 72
    11
 73
     7
 74
     0
 42
0.000000001
 43
0.00000001
 40
0.0
 40
0.0
 40
0.0
 40
0.0
 40
0.2164576479737354
 40
0.4403159162499113
 40
0.751904187999599
 40
1.0
 40
1.0
 40
1.0
 40
1.0
 10
215.8541350497235
 20
117.1112008148331
 30
0.0
 10
215.8962224763129
 20
116.7179521754798
 30
0.0
 10
215.9818362856412
 20
115.9180098469375
 30
0.0
 10
216.1407151342337
 20
114.4335358199841
 30
0.0
 10
216.3111406132073
 20
112.8411873084301
 30
0.0
 10
216.4201998567378
 20
111.8221851002563
 30
0.0
 10
216.4685434533585
 20
111.370483528589
 30
0.0
  0
SPLINE
  5
94
330
1F
100
AcDbEntity
  8
0
  6
Continuous
 62
     7
370
    15
100
AcDbSpline
210
0.0
220
0.0
230
1.0
 70
     8
 71
     3
 72
    11
 73
     7
 74
     0
 42
0.000000001
 43
0.00000001
 40
0.0
 40
0.0
 40
0.0
 40
0.0
 40
0.2164573635953273
 40
0.4403160245607184
 40
0.7519041151426306
 40
1.0
 40
1.0
 40
1.0
 40
1.0
 10
210.575324190997
 20
119.4494644866783
 30
0.0
 10
210.9369306867903
 20
119.2892894949007
 30
0.0
 10
211.6725080404013
 20
118.9634626695062
 30
0.0
 10
213.0375400860709
 20
118.3588198258063
 30
0.0
 10
214.501766257961
 20
117.7102360717131
 30
0.0
 10
215.4387779103135
 20
117.2951843348751
 30
0.0
 10
215.8541350497235
 20
117.1112008148331
 30
0.0
  0
SPLINE
  5
95
330
1F
100
AcDbEntity
  8
0
  6
Continuous
 62
     7
370
    15
100
AcDbSpline
210
0.0
220
0.0
230
1.0
 70
     8
 71
     3
 72
    12
 73
     8
 74
     0
 42
0.000000001
 43
0.00000001
 40
0.0
 40
0.0
 40
0.0
 40
0.0
 40
0.1846758777048097
 40
0.5191299383408158
 40
0.6951506683345995
 40
0.87162082957377
 40
0.9999999999999999
 40
0.9999999999999999
 40
0.9999999999999999
 40
0.9999999999999999
 10
205.9109217359055
 20
116.0470113379407
 30
0.0
 10
206.1823420255131
 20
116.2449994095159
 30
0.0
 10
206.9453133456421
 20
116.8015503606549
 30
0.0
 10
208.0852586386676
 20
117.6330819021125
 30
0.0
 10
209.1944677877369
 20
118.442199726088
 30
0.0
 10
209.9407984299465
 20
118.9866107679506
 30
0.0
 10
210.3872943397189
 20
119.3123064369376
 30
0.0
 10
210.575324190997
 20
119.4494644866783
 30
0.0
  0
SPLINE
  5
96
330
1F
100
AcDbEntity
  8
0
  6
Continuous
 62
     7
370
    15
100
AcDbSpline
210
0.0
220
0.0
230
1.0
 70
     8
 71
     3
 72
    11
 73
     7
 74
     0
 42
0.000000001
 43
0.00000001
 40
0.0
 40
0.0
 40
0.0
 40
0.0
 40
0.2164577719289525
 40
0.4403157588198295
 40
0.7519042467790137
 40
1.0
 40
1.0
 40
1.0
 40
1.0
 10
211.8041447235574
 20
107.9680303798515
 30
0.0
 10
211.4425368316695
 20
108.1282050971941
 30
0.0
 10
210.7069584696965
 20
108.4540305530416
 30
0.0
 10
209.3419274532961
 20
109.0586771061111
 30
0.0
 10
207.8776996032853
 20
109.7072578210826
 30
0.0
 10
206.9406871959994
 20
110.1223103607524
 30
0.0
 10
206.5253301395406
 20
110.3062940516967
 30
0.0
  0
CIRCLE
  5
97
330
1F
100
AcDbEntity
  8
0
  6
Continuous
 62
     7
370
    15
100
AcDbCircle
 10
211.1897330595
 20
113.7087474333
 30
0.0
 40
5.999999999999996
  0
SPLINE
  5
98
330
1F
100
AcDbEntity
  8
0
  6
Continuous
 62
     7
370
    15
100
AcDbSpline
210
0.0
220
0.0
230
1.0
 70
     8
 71
     3
 72
    11
 73
     7
 74
     0
 42
0.000000001
 43
0.00000001
 40
0.0
 40
0.0
 40
0.0
 40
0.0
 40
0.2164576479737354
 40
0.4403159162499113
 40
0.751904187999599
 40
1.0
 40
1.0
 40
1.0
 40
1.0
 10
206.5253301395406
 20
110.3062940516967
 30
0.0
 10
206.4832427129512
 20
110.69954269105
 30
0.0
 10
206.3976289036228
 20
111.4994850195923
 30
0.0
 10
206.2387500550304
 20
112.9839590465457
 30
0.0
 10
206.0683245760568
 20
114.5763075580997
 30
0.0
 10
205.9592653325263
 20
115.5953097662735
 30
0.0
 10
205.9109217359055
 20
116.0470113379407
 30
0.0
  0
CIRCLE
  5
99
330
1F
100
AcDbEntity
  8
0
  6
Continuous
 62
     7
370
    15
100
AcDbCircle
 10
211.1897330595
 20
113.7087474333
 30
0.0
 40
9.000000000000002
  0
CIRCLE
  5
9A
330
1F
100
AcDbEntity
  8
0
  6
Continuous
 62
     7
370
    15
100
AcDbCircle
 10
211.1897330595
 20
113.7087474333
 30
0.0
 40
10.00000000000001
  0
ARC
  5
9B
330
1F
100
AcDbEntity
  8
0
  6
Continuous
 62
     7
370
    15
100
AcDbCircle
 10
211.1897330595
 20
113.7087474333
 30
0.0
 40
5.000000000000008
100
AcDbArc
 50
6.1089242151
 51
66.1089242151
  0
ARC
  5
9C
330
1F
100
AcDbEntity
  8
0
  6
Continuous
 62
     7
370
    15
100
AcDbCircle
 10
211.1897330595
 20
113.7087474333
 30
0.0
 40
5.000000000000003
100
AcDbArc
 50
126.1089242151
 51
186.1089242151
  0
ARC
  5
9D
330
1F
100
AcDbEntity
  8
0
  6
Continuous
 62
     7
370
    15
100
AcDbCircle
 10
211.1897330595
 20
113.7087474333
 30
0.0
 40
5.000000000000008
100
AcDbArc
 50
306.1089242151
 51
6.1089242151
  0
ARC
  5
9E
330
1F
100
AcDbEntity
  8
0
  6
Continuous
 62
     7
370
    15
100
AcDbCircle
 10
211.1897330595
 20
113.7087474333
 30
0.0
 40
5.000000000000008
100
AcDbArc
 50
246.1089242151
 51
306.1089242151
  0
ARC
  5
9F
330
1F
100
AcDbEntity
  8
0
  6
Continuous
 62
     7
370
    15
100
AcDbCircle
 10
211.1897330595
 20
113.7087474333
 30
0.0
 40
5.000000000000008
100
AcDbArc
 50
66.1089242151
 51
126.1089242151
  0
ARC
  5
A0
330
1F
100
AcDbEntity
  8
0
  6
Continuous
 62
     7
370
    15
100
AcDbCircle
 10
211.1897330595
 20
113.7087474333
 30
0.0
 40
4.999999999999997
100
AcDbArc
 50
186.1089242151
 51
246.1089242151
  0
SPLINE
  5
A1
330
1F
100
AcDbEntity
  8
0
  6
Continuous
 62
     7
370
    15
100
AcDbSpline
210
0.0
220
0.0
230
1.0
 70
     8
 71
     3
 72
    12
 73
     8
 74
     0
 42
0.000000001
 43
0.00000001
 40
0.0
 40
0.0
 40
0.0
 40
0.0
 40
0.2499999999999984
 40
0.2499999999999984
 40
0.4999999999999969
 40
0.4999999999999969
 40
1.0
 40
1.0
 40
1.0
 40
1.0
 10
175.0897330595483
 20
66.9794880919189
 30
0.0
 10
175.1857058127231
 20
66.9794880919189
 30
0.0
 10
175.2781337768776
 20
66.99576141602748
 30
0.0
 10
175.434563876987
 20
67.04913513802389
 30
0.0
 10
175.4980423017599
 20
67.08526339555823
 30
0.0
 10
175.6463214625871
 20
67.20596459183753
 30
0.0
 10
175.6897330595483
 20
67.2998141782027
 30
0.0
 10
175.6897330595483
 20
67.3941184531499
 30
0.0
  0
SPLINE
  5
A2
330
1F
100
AcDbEntity
  8
0
  6
Continuous
 62
     7
370
    15
100
AcDbSpline
210
0.0
220
0.0
230
1.0
 70
    24
 71
     3
 72
    12
 73
     8
 74
     0
 42
0.000000001
 43
0.00000001
 40
0.0
 40
0.0
 40
0.0
 40
0.0
 40
0.5
 40
0.5
 40
0.75
 40
0.75
 40
1.0
 40
1.0
 40
1.0
 40
1.0
 10
175.6897330595483
 20
143.5587474332649
 30
0.0
 10
175.6897330595483
 20
143.5587474332649
 30
0.0
 10
175.6416023711629
 20
143.5587474332649
 30
0.0
 10
175.4877053153598
 20
143.5587474332649
 30
0.0
 10
175.422240750353
 20
143.5587474332649
 30
0.0
 10
175.2687114297429
 20
143.5587474332649
 30
0.0
 10
175.1803627690071
 20
143.5587474332649
 30
0.0
 10
175.0897330595481
 20
143.5587474332649
 30
0.0
  0
LINE
  5
A3
330
1F
100
AcDbEntity
  8
0
  6
Continuous
 62
     7
370
    15
100
AcDbLine
 10
175.689733295
 20
67.3941167758
 30
0.0
 11
175.689733295
 21
143.5587479488
 31
0.0
  0
SPLINE
  5
A4
330
1F
100
AcDbEntity
  8
0
  6
Continuous
 62
     7
370
    15
100
AcDbSpline
210
0.0
220
0.0
230
1.0
 70
     8
 71
     3
 72
    10
 73
     6
 74
     0
 42
0.000000001
 43
0.00000001
 40
0.0
 40
0.0
 40
0.0
 40
0.0
 40
0.5
 40
0.5
 40
1.0
 40
1.0
 40
1.0
 40
1.0
 10
160.0553930907023
 20
67.07529316607267
 30
0.0
 10
160.1040436592819
 20
67.04733617480524
 30
0.0
 10
160.1614288712414
 20
67.02339388977846
 30
0.0
 10
160.2921419794074
 20
66.98927542668274
 30
0.0
 10
160.364881513146
 20
66.9794880919189
 30
0.0
 10
160.4397330595482
 20
66.9794880919189
 30
0.0
  0
SPLINE
  5
A5
330
1F
100
AcDbEntity
  8
0
  6
Continuous
 62
     7
370
    15
100
AcDbSpline
210
0.0
220
0.0
230
1.0
 70
     8
 71
     3
 72
    10
 73
     6
 74
     0
 42
0.000000001
 43
0.00000001
 40
0.0
 40
0.0
 40
0.0
 40
0.0
 40
0.5
 40
0.5
 40
1.0
 40
1.0
 40
1.0
 40
1.0
 10
160.0553930907023
 20
67.07529316607267
 30
0.0
 10
159.9972050841201
 20
67.14287689625148
 30
0.0
 10
159.9447626175938
 20
67.22335313089323
 30
0.0
 10
159.8664103104151
 20
67.40638875387597
 30
0.0
 10
159.8397330595482
 20
67.51226445667159
 30
0.0
 10
159.8397330595482
 20
67.61977776589222
 30
0.0
  0
LINE
  5
A6
330
1F
100
AcDbEntity
  8
0
  6
Continuous
 62
     7
370
    15
100
AcDbLine
 10
159.8397329787
 20
67.6197762357
 30
0.0
 11
159.8397329787
 21
143.5587479488
 31
0.0
  0
SPLINE
  5
A7
330
1F
100
AcDbEntity
  8
0
  6
Continuous
 62
     7
370
    15
100
AcDbSpline
210
0.0
220
0.0
230
1.0
 70
    24
 71
     3
 72
    14
 73
    10
 74
     0
 42
0.000000001
 43
0.00000001
 40
0.0
 40
0.0
 40
0.0
 40
0.0
 40
0.25
 40
0.25
 40
0.5
 40
0.5
 40
0.75
 40
0.75
 40
1.0
 40
1.0
 40
1.0
 40
1.0
 10
160.4397330595482
 20
143.5587474332649
 30
0.0
 10
160.3507111072046
 20
143.5587474332649
 30
0.0
 10
160.261024407931
 20
143.5587474332649
 30
0.0
 10
160.1072975823738
 20
143.5587474332649
 30
0.0
 10
160.0420926877469
 20
143.5587474332649
 30
0.0
 10
159.9395019935765
 20
143.5587474332649
 30
0.0
 10
159.9018645392606
 20
143.5587474332649
 30
0.0
 10
159.8517726238755
 20
143.5587474332649
 30
0.0
 10
159.8397330595483
 20
143.5587474332649
 30
0.0
 10
159.8397330595483
 20
143.5587474332649
 30
0.0
  0
LINE
  5
A8
330
1F
100
AcDbEntity
  8
0
  6
Continuous
 62
     7
370
    15
100
AcDbLine
 10
160.4397331236
 20
66.9794882403
 30
0.0
 11
164.5065720065
 21
66.9794882403
 31
0.0
  0
LINE
  5
A9
330
1F
100
AcDbEntity
  8
0
  6
Continuous
 62
     7
370
    15
100
AcDbLine
 10
164.5065720065
 20
143.5587479488
 30
0.0
 11
160.4397331236
 21
143.5587479488
 31
0.0
  0
LINE
  5
AA
330
1F
100
AcDbEntity
  8
0
  6
Continuous
 62
     7
370
    15
100
AcDbLine
 10
164.5065720065
 20
66.9794882403
 30
0.0
 11
164.5065720065
 21
143.5587479488
 31
0.0
  0
SPLINE
  5
AB
330
1F
100
AcDbEntity
  8
0
  6
Continuous
 62
     7
370
    15
100
AcDbSpline
210
0.0
220
0.0
230
1.0
 70
     8
 71
     3
 72
     8
 73
     4
 74
     0
 42
0.000000001
 43
0.00000001
 40
0.0
 40
0.0
 40
0.0
 40
0.0
 40
1.0
 40
1.0
 40
1.0
 40
1.0
 10
165.8297330595483
 20
69.08900802443513
 30
0.0
 10
165.5400046135237
 20
68.5667880142716
 30
0.0
 10
165.249979463306
 20
68.04473463201164
 30
0.0
 10
164.9596852290441
 20
67.52283236628851
 30
0.0
  0
SPLINE
  5
AC
330
1F
100
AcDbEntity
  8
0
  6
Continuous
 62
     7
370
    15
100
AcDbSpline
210
0.0
220
0.0
230
1.0
 70
     8
 71
     3
 72
     8
 73
     4
 74
     0
 42
0.000000001
 43
0.00000001
 40
0.0
 40
0.0
 40
0.0
 40
0.0
 40
0.0011862984959113
 40
0.0011862984959113
 40
0.0011862984959113
 40
0.0011862984959113
 10
164.5065715520864
 20
66.9794880919189
 30
0.0
 10
164.6585963139572
 20
67.16039994153688
 30
0.0
 10
164.809653759173
 20
67.3415122719777
 30
0.0
 10
164.9596852290441
 20
67.52283236628851
 30
0.0
  0
SPLINE
  5
AD
330
1F
100
AcDbEntity
  8
0
  6
Continuous
 62
     7
370
    15
100
AcDbSpline
210
0.0
220
0.0
230
1.0
 70
    24
 71
     3
 72
     8
 73
     4
 74
     0
 42
0.000000001
 43
0.00000001
 40
0.0
 40
0.0
 40
0.0
 40
0.0
 40
1.0
 40
1.0
 40
1.0
 40
1.0
 10
165.8297330595483
 20
143.5587474332649
 30
0.0
 10
165.3945329548446
 20
143.5587474332649
 30
0.0
 10
164.9531732721057
 20
143.5587474332649
 30
0.0
 10
164.5065715520864
 20
143.5587474332649
 30
0.0
  0
LINE
  5
AE
330
1F
100
AcDbEntity
  8
0
  6
Continuous
 62
     7
370
    15
100
AcDbLine
 10
165.8297327219
 20
69.0890083776
 30
0.0
 11
165.8297327219
 21
143.5587479488
 31
0.0
  0
LINE
  5
AF
330
1F
100
AcDbEntity
  8
0
  6
Continuous
 62
     7
370
    15
100
AcDbLine
 10
169.6497329383
 20
99.9114856811
 30
0.0
 11
169.6497329383
 21
143.5587479488
 31
0.0
  0
SPLINE
  5
B0
330
1F
100
AcDbEntity
  8
0
  6
Continuous
 62
     7
370
    15
100
AcDbSpline
210
0.0
220
0.0
230
1.0
 70
    24
 71
     3
 72
     8
 73
     4
 74
     0
 42
0.000000001
 43
0.00000001
 40
0.0
 40
0.0
 40
0.0
 40
0.0
 40
1.0
 40
1.0
 40
1.0
 40
1.0
 10
170.9728945670101
 20
143.5587474332649
 30
0.0
 10
170.5262928469908
 20
143.5587474332649
 30
0.0
 10
170.0849331642519
 20
143.5587474332649
 30
0.0
 10
169.6497330595483
 20
143.5587474332649
 30
0.0
  0
LINE
  5
B1
330
1F
100
AcDbEntity
  8
0
  6
Continuous
 62
     7
370
    15
100
AcDbLine
 10
170.972894585
 20
99.4116001518
 30
0.0
 11
170.972894585
 21
143.5587479488
 31
0.0
  0
SPLINE
  5
B2
330
1F
100
AcDbEntity
  8
0
  6
Continuous
 62
     7
370
    15
100
AcDbSpline
210
0.0
220
0.0
230
1.0
 70
     8
 71
     3
 72
    10
 73
     6
 74
     0
 42
0.000000001
 43
0.00000001
 40
0.0
 40
0.0
 40
0.0
 40
0.0
 40
0.5
 40
0.5
 40
1.0
 40
1.0
 40
1.0
 40
1.0
 10
170.9728945670101
 20
99.41160036813379
 30
0.0
 10
170.7501675401367
 20
99.55508886842756
 30
0.0
 10
170.5284816529116
 20
99.66980961416044
 30
0.0
 10
170.0872608150596
 20
99.83957004351832
 30
0.0
 10
169.8677021676608
 20
99.8949900379057
 30
0.0
 10
169.6497330595486
 20
99.91148536727535
 30
0.0
  0
LINE
  5
B3
330
1F
100
AcDbEntity
  8
0
  6
Continuous
 62
     7
370
    15
100
AcDbLine
 10
175.0897324516
 20
143.5587479488
 30
0.0
 11
170.972894585
 21
143.5587479488
 31
0.0
  0
LINE
  5
B4
330
1F
100
AcDbEntity
  8
0
  6
Continuous
 62
     7
370
    15
100
AcDbLine
 10
170.972894585
 20
66.9794882403
 30
0.0
 11
175.0897324516
 21
66.9794882403
 31
0.0
  0
LINE
  5
B5
330
1F
100
AcDbEntity
  8
0
  6
Continuous
 62
     7
370
    15
100
AcDbLine
 10
170.972894585
 20
66.9794882403
 30
0.0
 11
170.972894585
 21
94.7198065685
 31
0.0
  0
SPLINE
  5
B6
330
1F
100
AcDbEntity
  8
0
  6
Continuous
 62
     7
370
    15
100
AcDbSpline
210
0.0
220
0.0
230
1.0
 70
     8
 71
     3
 72
    34
 73
    30
 74
     0
 42
0.000000001
 43
0.00000001
 40
0.0
 40
0.0
 40
0.0
 40
0.0
 40
0.0624999999999989
 40
0.0624999999999989
 40
0.1249999999999978
 40
0.1249999999999978
 40
0.1874999999999968
 40
0.1874999999999968
 40
0.2499999999999962
 40
0.2499999999999962
 40
0.3124999999999957
 40
0.3124999999999957
 40
0.3749999999999952
 40
0.3749999999999952
 40
0.499999999999995
 40
0.499999999999995
 40
0.6249999999999948
 40
0.6249999999999948
 40
0.6874999999999954
 40
0.6874999999999954
 40
0.749999999999996
 40
0.749999999999996
 40
0.8124999999999966
 40
0.8124999999999966
 40
0.8749999999999977
 40
0.8749999999999977
 40
0.9374999999999989
 40
0.9374999999999989
 40
1.0
 40
1.0
 40
1.0
 40
1.0
 10
170.9728945670101
 20
94.71980704526372
 30
0.0
 10
171.132286394798
 20
94.72764714118651
 30
0.0
 10
171.2882888782416
 20
94.74930578927695
 30
0.0
 10
171.5937983943188
 20
94.81915401676974
 30
0.0
 10
171.744692729331
 20
94.86797971909799
 30
0.0
 10
172.0325920740219
 20
94.9909036725053
 30
0.0
 10
172.1685384769816
 20
95.06421118063962
 30
0.0
 10
172.4247210925736
 20
95.23422180441096
 30
0.0
 10
172.5459033803327
 20
95.33209559661242
 30
0.0
 10
172.7630494522055
 20
95.54467977204438
 30
0.0
 10
172.8600113251658
 20
95.659725710574
 30
0.0
 10
173.0305737609914
 20
95.90758683069411
 30
0.0
 10
173.1038138142033
 20
96.04062032775971
 30
0.0
 10
173.2786942709521
 20
96.45012834388986
 30
0.0
 10
173.3397322319281
 20
96.74808899366491
 30
0.0
 10
173.3397338871511
 20
97.33953054953935
 30
0.0
 10
173.2786992775649
 20
97.63970409951594
 30
0.0
 10
173.103809510163
 20
98.05493537978371
 30
0.0
 10
173.0305658047386
 20
98.19029049803055
 30
0.0
 10
172.8600050890019
 20
98.4431898294172
 30
0.0
 10
172.7630413734084
 20
98.56095510702495
 30
0.0
 10
172.5458810448212
 20
98.77908540239359
 30
0.0
 10
172.4246997861344
 20
98.87978872754056
 30
0.0
 10
172.1685295591957
 20
99.05503242037379
 30
0.0
 10
172.032586209533
 20
99.13077738946438
 30
0.0
 10
171.7446835063499
 20
99.25794576476665
 30
0.0
 10
171.5937933104331
 20
99.30854703709412
 30
0.0
 10
171.2882878067275
 20
99.38097613684197
 30
0.0
 10
171.132286408464
 20
99.40346190823895
 30
0.0
 10
170.9728945670101
 20
99.41160036813379
 30
0.0
  0
LINE
  5
B7
330
1F
100
AcDbEntity
  8
0
  6
Continuous
 62
     7
370
    15
100
AcDbLine
 10
234.8397306038
 20
113.7087474333
 30
0.0
 11
234.8397306038
 21
66.7087490426
 31
0.0
  0
LINE
  5
B8
330
1F
100
AcDbEntity
  8
0
  6
Continuous
 62
     7
370
    15
100
AcDbLine
 10
234.8397306038
 20
160.7087458239
 30
0.0
 11
234.8397306038
 21
113.7087474333
 31
0.0
  0
SPLINE
  5
B9
330
1F
100
AcDbEntity
  8
0
  6
Continuous
 62
     7
370
    15
100
AcDbSpline
210
0.0
220
0.0
230
1.0
 70
     8
 71
     3
 72
    52
 73
    48
 74
     0
 42
0.000000001
 43
0.00000001
 40
0.0
 40
0.0
 40
0.0
 40
0.0
 40
0.0312499999999994
 40
0.0312499999999994
 40
0.0624999999999987
 40
0.0624999999999987
 40
0.1249999999999974
 40
0.1249999999999974
 40
0.156249999999997
 40
0.156249999999997
 40
0.1874999999999966
 40
0.1874999999999966
 40
0.2499999999999964
 40
0.2499999999999964
 40
0.3124999999999968
 40
0.3124999999999968
 40
0.3749999999999972
 40
0.3749999999999972
 40
0.4062499999999972
 40
0.4062499999999972
 40
0.4374999999999971
 40
0.4374999999999971
 40
0.4999999999999977
 40
0.4999999999999977
 40
0.5312499999999979
 40
0.5312499999999979
 40
0.5624999999999981
 40
0.5624999999999981
 40
0.6249999999999987
 40
0.6249999999999987
 40
0.6874999999999991
 40
0.6874999999999991
 40
0.7187499999999993
 40
0.7187499999999993
 40
0.7499999999999996
 40
0.7499999999999996
 40
0.8124999999999999
 40
0.8124999999999999
 40
0.8437499999999998
 40
0.8437499999999998
 40
0.8749999999999997
 40
0.8749999999999997
 40
0.9374999999999999
 40
0.9374999999999999
 40
0.96875
 40
0.96875
 40
1.0
 40
1.0
 40
1.0
 40
1.0
 10
223.4397330595482
 20
113.7087474332649
 30
0.0
 10
223.4397330595482
 20
114.0925775566586
 30
0.0
 10
223.4167790118586
 20
114.4768814374969
 30
0.0
 10
223.3271697030341
 20
115.2326306538362
 30
0.0
 10
223.2605347393952
 20
115.606213246144
 30
0.0
 10
222.9964411345071
 20
116.7143639828541
 30
0.0
 10
222.7307545006475
 20
117.4426366128077
 30
0.0
 10
222.2255827015499
 20
118.4625176942371
 30
0.0
 10
222.0392006009099
 20
118.7921976371037
 30
0.0
 10
221.6315920128924
 20
119.4317495416829
 30
0.0
 10
221.4095752153202
 20
119.742593649287
 30
0.0
 10
220.6965194143505
 20
120.6390344531908
 30
0.0
 10
220.1674156301756
 20
121.1793123650969
 30
0.0
 10
219.0106172346524
 20
122.1561035347078
 30
0.0
 10
218.3777945212694
 20
122.5941960779267
 30
0.0
 10
217.0598526520649
 20
123.3401995455447
 30
0.0
 10
216.3706371446404
 20
123.6525998575363
 30
0.0
 10
215.2919609473424
 20
124.0324338234824
 30
0.0
 10
214.9238862538548
 20
124.1442496411886
 30
0.0
 10
214.1859640524145
 20
124.3342163010296
 30
0.0
 10
213.8146077322723
 20
124.4129898085717
 30
0.0
 10
212.6935159800594
 20
124.60195067856
 30
0.0
 10
211.9368138777969
 20
124.6651778653703
 30
0.0
 10
210.7874101506396
 20
124.6635539301525
 30
0.0
 10
210.4035412422393
 20
124.6466800727509
 30
0.0
 10
209.6451924253502
 20
124.5813202384503
 30
0.0
 10
209.269106865109
 20
124.532849655061
 30
0.0
 10
208.150003828239
 20
124.3405395674527
 30
0.0
 10
207.4160582346272
 20
124.1502457507672
 30
0.0
 10
205.9736595792506
 20
123.6379976197402
 30
0.0
 10
205.282645725384
 20
123.3218568588634
 30
0.0
 10
204.2994475971052
 20
122.7613556552241
 30
0.0
 10
203.9801711435122
 20
122.5598694015616
 30
0.0
 10
203.3591032283279
 20
122.1263849434523
 30
0.0
 10
203.0558472501442
 20
121.8930985558792
 30
0.0
 10
202.1859603149495
 20
121.1545288292718
 30
0.0
 10
201.6597900433065
 20
120.6129700142016
 30
0.0
 10
200.9550095524696
 20
119.7222739364734
 30
0.0
 10
200.733174362436
 20
119.4104266369237
 30
0.0
 10
200.3255779236191
 20
118.7672808294571
 30
0.0
 10
200.1405038307435
 20
118.4375269616771
 30
0.0
 10
199.6414014608801
 20
117.4236225255183
 30
0.0
 10
199.3827974370269
 20
116.7151300876833
 30
0.0
 10
199.1172463913628
 20
115.5982737301273
 30
0.0
 10
199.0502770616373
 20
115.2196150984916
 30
0.0
 10
198.961811806259
 20
114.4653511370879
 30
0.0
 10
198.9397330595482
 20
114.0874385159584
 30
0.0
 10
198.9397330595482
 20
113.7087474332649
 30
0.0
  0
SPLINE
  5
BA
330
1F
100
AcDbEntity
  8
0
  6
Continuous
 62
     7
370
    15
100
AcDbSpline
210
0.0
220
0.0
230
1.0
 70
     8
 71
     3
 72
    52
 73
    48
 74
     0
 42
0.000000001
 43
0.00000001
 40
0.0
 40
0.0
 40
0.0
 40
0.0
 40
0.0312500000000002
 40
0.0312500000000002
 40
0.0625000000000003
 40
0.0625000000000003
 40
0.1250000000000005
 40
0.1250000000000005
 40
0.1875000000000007
 40
0.1875000000000007
 40
0.2500000000000009
 40
0.2500000000000009
 40
0.3125000000000011
 40
0.3125000000000011
 40
0.3437500000000011
 40
0.3437500000000011
 40
0.3750000000000011
 40
0.3750000000000011
 40
0.4062500000000012
 40
0.4062500000000012
 40
0.4375000000000012
 40
0.4375000000000012
 40
0.5000000000000012
 40
0.5000000000000012
 40
0.5312500000000013
 40
0.5312500000000013
 40
0.5625000000000013
 40
0.5625000000000013
 40
0.6250000000000008
 40
0.6250000000000008
 40
0.6562500000000009
 40
0.6562500000000009
 40
0.6875000000000009
 40
0.6875000000000009
 40
0.7500000000000013
 40
0.7500000000000013
 40
0.7812500000000012
 40
0.7812500000000012
 40
0.8125000000000011
 40
0.8125000000000011
 40
0.8750000000000007
 40
0.8750000000000007
 40
0.9062500000000004
 40
0.9062500000000004
 40
0.9375000000000003
 40
0.9375000000000003
 40
1.0
 40
1.0
 40
1.0
 40
1.0
 10
198.9397330595482
 20
113.7087474332649
 30
0.0
 10
198.9397330595482
 20
113.3295906968412
 30
0.0
 10
198.9618630753233
 20
112.9496536883214
 30
0.0
 10
199.0516599609605
 20
112.1881750813563
 30
0.0
 10
199.1194017626489
 20
111.8087348662426
 30
0.0
 10
199.3845002670489
 20
110.6980944003212
 30
0.0
 10
199.6440438818657
 20
109.9847913194653
 30
0.0
 10
200.3242229793253
 20
108.610574656402
 30
0.0
 10
200.7339923896465
 20
107.9718577344638
 30
0.0
 10
201.6767434926274
 20
106.7858716083544
 30
0.0
 10
202.2150757890753
 20
106.2353170344112
 30
0.0
 10
203.3715447084511
 20
105.2594274702965
 30
0.0
 10
203.9931526496521
 20
104.828397872678
 30
0.0
 10
204.9892070513842
 20
104.2641800328395
 30
0.0
 10
205.3302699343785
 20
104.0910282785481
 30
0.0
 10
206.0214413257923
 20
103.7776328306463
 30
0.0
 10
206.3728005468742
 20
103.6366696000899
 30
0.0
 10
207.0868197263713
 20
103.3853629185537
 30
0.0
 10
207.4494804503314
 20
103.2750218098409
 30
0.0
 10
208.1861587649567
 20
103.0849663322308
 30
0.0
 10
208.5617830053719
 20
103.0050033266487
 30
0.0
 10
209.6941651152529
 20
102.8141997808415
 30
0.0
 10
210.450762718393
 20
102.7523251792718
 30
0.0
 10
211.5880888816847
 20
102.7539369720571
 30
0.0
 10
211.9676050492893
 20
102.7703142428704
 30
0.0
 10
212.7274677723728
 20
102.8353758030502
 30
0.0
 10
213.1096195785564
 20
102.8844419490373
 30
0.0
 10
214.2387931956412
 20
103.0787118560208
 30
0.0
 10
214.9712001915053
 20
103.270087457021
 30
0.0
 10
216.0396690174261
 20
103.6494330961023
 30
0.0
 10
216.3907707350145
 20
103.791360612962
 30
0.0
 10
217.0825331138402
 20
104.107376502433
 30
0.0
 10
217.4245190433546
 20
104.2823657603417
 30
0.0
 10
218.4143344414252
 20
104.8468998872377
 30
0.0
 10
219.0319359235538
 20
105.2775400434863
 30
0.0
 10
219.8935395601889
 20
106.0078925836287
 30
0.0
 10
220.1698661815106
 20
106.2655067502571
 30
0.0
 10
220.6994827222535
 20
106.8109534831844
 30
0.0
 10
220.9528962540989
 20
107.0994004455416
 30
0.0
 10
221.6582790145154
 20
107.9904576857207
 30
0.0
 10
222.0628337250201
 20
108.6249774451547
 30
0.0
 10
222.5653846970298
 20
109.641723600219
 30
0.0
 10
222.7154428817504
 20
109.9916850121974
 30
0.0
 10
222.9774454193032
 20
110.7147588027873
 30
0.0
 10
223.0865667568505
 20
111.0800847861813
 30
0.0
 10
223.3495450560951
 20
112.187245771508
 30
0.0
 10
223.4397330595482
 20
112.9401432406764
 30
0.0
 10
223.4397330595482
 20
113.7087474332649
 30
0.0
  0
LINE
  5
BB
330
1F
100
AcDbEntity
  8
0
  6
Continuous
 62
     7
370
    15
100
AcDbLine
 10
235.7397309376
 20
113.7087474333
 30
0.0
 11
235.7397309376
 21
67.6087456511
 31
0.0
  0
LINE
  5
BC
330
1F
100
AcDbEntity
  8
0
  6
Continuous
 62
     7
370
    15
100
AcDbLine
 10
235.7397309376
 20
159.8087492154
 30
0.0
 11
235.7397309376
 21
113.7087474333
 31
0.0
  0
SPLINE
  5
BD
330
1F
100
AcDbEntity
  8
0
  6
Continuous
 62
     7
370
    15
100
AcDbSpline
210
0.0
220
0.0
230
1.0
 70
     8
 71
     3
 72
    14
 73
    10
 74
     0
 42
0.000000001
 43
0.00000001
 40
0.0
 40
0.0
 40
0.0
 40
0.0
 40
0.25
 40
0.25
 40
0.5
 40
0.5
 40
0.75
 40
0.75
 40
1.0
 40
1.0
 40
1.0
 40
1.0
 10
169.6497330595483
 20
99.95709958928785
 30
0.0
 10
169.6497330595483
 20
99.99907597114138
 30
0.0
 10
169.620090105577
 20
100.0269263587823
 30
0.0
 10
169.513435271847
 20
100.0404252340723
 30
0.0
 10
169.4371568772428
 20
100.0258097320346
 30
0.0
 10
169.2691053341763
 20
99.95372052786642
 30
0.0
 10
169.177985527568
 20
99.89658291738368
 30
0.0
 10
169.0053084153154
 20
99.75435521679242
 30
0.0
 10
168.9243859757873
 20
99.67079139128035
 30
0.0
 10
168.8497330595483
 20
99.57742171938446
 30
0.0
  0
SPLINE
  5
BE
330
1F
100
AcDbEntity
  8
0
  6
Continuous
 62
     7
370
    15
100
AcDbSpline
210
0.0
220
0.0
230
1.0
 70
     8
 71
     3
 72
    10
 73
     6
 74
     0
 42
0.000000001
 43
0.00000001
 40
0.0
 40
0.0
 40
0.0
 40
0.0
 40
0.5
 40
0.5
 40
1.0
 40
1.0
 40
1.0
 40
1.0
 10
169.6497330595486
 20
95.7794441686438
 30
0.0
 10
169.8666238920693
 20
95.54240522919525
 30
0.0
 10
170.0857765287282
 20
95.34023499420178
 30
0.0
 10
170.527261028997
 20
94.98948292268307
 30
0.0
 10
170.7504634942705
 20
94.84080683028623
 30
0.0
 10
170.9728945670102
 20
94.71980704526372
 30
0.0
  0
LINE
  5
BF
330
1F
100
AcDbEntity
  8
0
  6
Continuous
 62
     7
370
    15
100
AcDbLine
 10
169.6497329383
 20
95.8250592218
 30
0.0
 11
169.6497329383
 21
95.7794449048
 31
0.0
  0
SPLINE
  5
C0
330
1F
100
AcDbEntity
  8
0
  6
Continuous
 62
     7
370
    15
100
AcDbSpline
210
0.0
220
0.0
230
1.0
 70
     8
 71
     3
 72
    16
 73
    12
 74
     0
 42
0.000000001
 43
0.00000001
 40
0.0
 40
0.0
 40
0.0
 40
0.0
 40
0.2500000000000014
 40
0.2500000000000014
 40
0.5000000000000028
 40
0.5000000000000028
 40
0.6250000000000047
 40
0.6250000000000047
 40
0.7500000000000067
 40
0.7500000000000067
 40
1.0
 40
1.0
 40
1.0
 40
1.0
 10
168.8497330595483
 20
96.7334578763308
 30
0.0
 10
168.9237409497704
 20
96.64311029614515
 30
0.0
 10
169.0043589447594
 20
96.5551507233455
 30
0.0
 10
169.1781269302637
 20
96.37881579928391
 30
0.0
 10
169.2688780612051
 20
96.29320855861792
 30
0.0
 10
169.3949911586666
 20
96.17201286259292
 30
0.0
 10
169.4345679195299
 20
96.13348128360207
 30
0.0
 10
169.5070505762311
 20
96.05908529747275
 30
0.0
 10
169.5399785666999
 20
96.02306850955125
 30
0.0
 10
169.6197687366948
 20
95.92431583373425
 30
0.0
 10
169.6497330595483
 20
95.86755183195216
 30
0.0
 10
169.6497330595483
 20
95.82505839065661
 30
0.0
  0
SPLINE
  5
C1
330
1F
100
AcDbEntity
  8
0
  6
Continuous
 62
     7
370
    15
100
AcDbSpline
210
0.0
220
0.0
230
1.0
 70
     8
 71
     3
 72
    16
 73
    12
 74
     0
 42
0.000000001
 43
0.00000001
 40
0.0
 40
0.0
 40
0.0
 40
0.0
 40
0.2500000000000009
 40
0.2500000000000009
 40
0.5000000000000018
 40
0.5000000000000018
 40
0.7500000000000011
 40
0.7500000000000011
 40
0.8750000000000006
 40
0.8750000000000006
 40
1.0
 40
1.0
 40
1.0
 40
1.0
 10
168.8497330595483
 20
99.57742171938446
 30
0.0
 10
168.6843189530681
 20
99.3705354833591
 30
0.0
 10
168.5581216220925
 20
99.14466678555034
 30
0.0
 10
168.3837153237616
 20
98.65579753993745
 30
0.0
 10
168.3398852846647
 20
98.40403048659287
 30
0.0
 10
168.3395816116948
 20
97.89225116201054
 30
0.0
 10
168.3834384717551
 20
97.64119645292782
 30
0.0
 10
168.5133602310223
 20
97.28034788478574
 30
0.0
 10
168.5674750424303
 20
97.16307511643717
 30
0.0
 10
168.6941520325737
 20
96.94058616509834
 30
0.0
 10
168.7670257529344
 20
96.83442555685507
 30
0.0
 10
168.8497330595483
 20
96.7334578763308
 30
0.0
  0
SPLINE
  5
C2
330
1F
100
AcDbEntity
  8
0
  6
Continuous
 62
     7
370
    15
100
AcDbSpline
210
0.0
220
0.0
230
1.0
 70
    24
 71
     3
 72
    14
 73
    10
 74
     0
 42
0.000000001
 43
0.00000001
 40
0.0
 40
0.0
 40
0.0
 40
0.0
 40
0.25
 40
0.25
 40
0.5
 40
0.5
 40
0.75
 40
0.75
 40
1.0
 40
1.0
 40
1.0
 40
1.0
 10
169.6497330595483
 20
143.5587474332649
 30
0.0
 10
169.6497330595483
 20
143.5587474332649
 30
0.0
 10
169.6334520247725
 20
143.5587474332649
 30
0.0
 10
169.5687889622479
 20
143.5587474332649
 30
0.0
 10
169.5193091659591
 20
143.5587474332649
 30
0.0
 10
169.3853394088204
 20
143.5587474332649
 30
0.0
 10
169.2992246822209
 20
143.5587474332649
 30
0.0
 10
169.0937685665079
 20
143.5587474332649
 30
0.0
 10
168.9723480293151
 20
143.5587474332649
 30
0.0
 10
168.8497330595483
 20
143.5587474332649
 30
0.0
  0
SPLINE
  5
C3
330
1F
100
AcDbEntity
  8
0
  6
Continuous
 62
     7
370
    15
100
AcDbSpline
210
0.0
220
0.0
230
1.0
 70
     8
 71
     3
 72
    14
 73
    10
 74
     0
 42
0.000000001
 43
0.00000001
 40
0.0
 40
0.0
 40
0.0
 40
0.0
 40
0.25
 40
0.25
 40
0.5
 40
0.5
 40
0.75
 40
0.75
 40
1.0
 40
1.0
 40
1.0
 40
1.0
 10
166.6297330595482
 20
70.06098116739511
 30
0.0
 10
166.523288051639
 20
70.06098116739511
 30
0.0
 10
166.4163893003655
 20
70.03841161796201
 30
0.0
 10
166.220171044923
 20
69.9519685267201
 30
0.0
 10
166.1305127314586
 20
69.88766460905293
 30
0.0
 10
165.9850590185775
 20
69.73269509500999
 30
0.0
 10
165.9270232358513
 20
69.63992960876625
 30
0.0
 10
165.8497380814667
 20
69.44146272712287
 30
0.0
 10
165.8297330595482
 20
69.33443830532909
 30
0.0
 10
165.8297330595482
 20
69.22765594485826
 30
0.0
  0
SPLINE
  5
C4
330
1F
100
AcDbEntity
  8
0
  6
Continuous
 62
     7
370
    15
100
AcDbSpline
210
0.0
220
0.0
230
1.0
 70
    24
 71
     3
 72
    14
 73
    10
 74
     0
 42
0.000000001
 43
0.00000001
 40
0.0
 40
0.0
 40
0.0
 40
0.0
 40
0.25
 40
0.25
 40
0.5
 40
0.5
 40
0.75
 40
0.75
 40
1.0
 40
1.0
 40
1.0
 40
1.0
 10
166.6297330595482
 20
143.5587474332649
 30
0.0
 10
166.506751760002
 20
143.5587474332649
 30
0.0
 10
166.3865618716
 20
143.5587474332649
 30
0.0
 10
166.1815380419208
 20
143.5587474332649
 30
0.0
 10
166.0949435531187
 20
143.5587474332649
 30
0.0
 10
165.9598356663562
 20
143.5587474332649
 30
0.0
 10
165.9113125813281
 20
143.5587474332649
 30
0.0
 10
165.8456300726013
 20
143.5587474332649
 30
0.0
 10
165.8297330595483
 20
143.5587474332649
 30
0.0
 10
165.8297330595483
 20
143.5587474332649
 30
0.0
  0
LINE
  5
C5
330
1F
100
AcDbEntity
  8
0
  6
Continuous
 62
     7
370
    15
100
AcDbLine
 10
168.8497333659
 20
70.06098132
 30
0.0
 11
166.6297332255
 21
70.06098132
 31
0.0
  0
LINE
  5
C6
330
1F
100
AcDbEntity
  8
0
  6
Continuous
 62
     7
370
    15
100
AcDbLine
 10
168.8497333659
 20
143.5587479488
 30
0.0
 11
166.6297332255
 21
143.5587479488
 31
0.0
  0
SPLINE
  5
C7
330
1F
100
AcDbEntity
  8
0
  6
Continuous
 62
     7
370
    15
100
AcDbSpline
210
0.0
220
0.0
230
1.0
 70
     8
 71
     3
 72
     8
 73
     4
 74
     0
 42
0.000000001
 43
0.00000001
 40
0.0000000000000004
 40
0.0000000000000004
 40
0.0000000000000004
 40
0.0000000000000004
 40
0.0011862984959128
 40
0.0011862984959128
 40
0.0011862984959128
 40
0.0011862984959128
 10
170.5197808900484
 20
67.52283236628851
 30
0.0
 10
170.6698123599197
 20
67.34151227197749
 30
0.0
 10
170.8208698051391
 20
67.16039994153711
 30
0.0
 10
170.9728945670101
 20
66.9794880919189
 30
0.0
  0
SPLINE
  5
C8
330
1F
100
AcDbEntity
  8
0
  6
Continuous
 62
     7
370
    15
100
AcDbSpline
210
0.0
220
0.0
230
1.0
 70
     8
 71
     3
 72
     8
 73
     4
 74
     0
 42
0.000000001
 43
0.00000001
 40
0.0
 40
0.0
 40
0.0
 40
0.0
 40
1.0
 40
1.0
 40
1.0
 40
1.0
 10
170.5197808900514
 20
67.5228323662902
 30
0.0
 10
170.2294866557899
 20
68.04473463201275
 30
0.0
 10
169.9394615055725
 20
68.56678801427216
 30
0.0
 10
169.6497330595483
 20
69.08900802443513
 30
0.0
  0
LINE
  5
C9
330
1F
100
AcDbEntity
  8
0
  6
Continuous
 62
     7
370
    15
100
AcDbLine
 10
169.6497329383
 20
69.0890083776
 30
0.0
 11
169.6497329383
 21
95.7794449048
 31
0.0
  0
SPLINE
  5
CA
330
1F
100
AcDbEntity
  8
0
  6
Continuous
 62
     7
370
    15
100
AcDbSpline
210
0.0
220
0.0
230
1.0
 70
     8
 71
     3
 72
    14
 73
    10
 74
     0
 42
0.000000001
 43
0.00000001
 40
0.0
 40
0.0
 40
0.0
 40
0.0
 40
0.25
 40
0.25
 40
0.5
 40
0.5
 40
0.75
 40
0.75
 40
1.0
 40
1.0
 40
1.0
 40
1.0
 10
169.6497330595483
 20
69.22765594485827
 30
0.0
 10
169.6497330595483
 20
69.33471993119907
 30
0.0
 10
169.6297492333083
 20
69.44145925757358
 30
0.0
 10
169.5523141508748
 20
69.64020915976438
 30
0.0
 10
169.4943752287153
 20
69.7327633762569
 30
0.0
 10
169.3487374229546
 20
69.8878603196625
 30
0.0
 10
169.2599484266192
 20
69.95160047657535
 30
0.0
 10
169.0634000664147
 20
70.03834903366297
 30
0.0
 10
168.9572608367153
 20
70.06098116739511
 30
0.0
 10
168.8497330595483
 20
70.06098116739511
 30
0.0
  0
SPLINE
  5
CB
330
1F
100
AcDbEntity
  8
0
  6
Continuous
 62
     7
370
    15
100
AcDbSpline
210
0.0
220
0.0
230
1.0
 70
     8
 71
     3
 72
    14
 73
    10
 74
     0
 42
0.000000001
 43
0.00000001
 40
0.0
 40
0.0
 40
0.0
 40
0.0
 40
0.25
 40
0.25
 40
0.5
 40
0.5
 40
0.75
 40
0.75
 40
1.0
 40
1.0
 40
1.0
 40
1.0
 10
176.6897330595483
 20
75.81577315042455
 30
0.0
 10
176.5546917092972
 20
75.8193369073691
 30
0.0
 10
176.4209069456947
 20
75.79296447211966
 30
0.0
 10
176.1753032841382
 20
75.68655296956537
 30
0.0
 10
176.0636727645628
 20
75.60619538110372
 30
0.0
 10
175.8817669571474
 20
75.41013229093005
 30
0.0
 10
175.8100613839127
 20
75.29334436181
 30
0.0
 10
175.7142343586216
 20
75.04273462628305
 30
0.0
 10
175.6897330595483
 20
74.90914849330862
 30
0.0
 10
175.6897330595483
 20
74.77447589776614
 30
0.0
  0
SPLINE
  5
CC
330
1F
100
AcDbEntity
  8
0
  6
Continuous
 62
     7
370
    15
100
AcDbSpline
210
0.0
220
0.0
230
1.0
 70
     8
 71
     3
 72
    14
 73
    10
 74
     0
 42
0.000000001
 43
0.00000001
 40
0.0
 40
0.0
 40
0.0
 40
0.0
 40
0.25
 40
0.25
 40
0.5
 40
0.5
 40
0.75
 40
0.75
 40
1.0
 40
1.0
 40
1.0
 40
1.0
 10
176.6897330595483
 20
151.7951489943014
 30
0.0
 10
176.5556790728938
 20
151.7924860527984
 30
0.0
 10
176.4254201047663
 20
151.8115826448276
 30
0.0
 10
176.1853056146731
 20
151.8894777339894
 30
0.0
 10
176.0761450258815
 20
151.9484601158351
 30
0.0
 10
175.8938007520919
 20
152.1010712035198
 30
0.0
 10
175.8188901733004
 20
152.1967386320363
 30
0.0
 10
175.7174432127046
 20
152.413926986086
 30
0.0
 10
175.6897330595482
 20
152.538189152844
 30
0.0
 10
175.6897330595483
 20
152.6675647396524
 30
0.0
  0
SPLINE
  5
CD
330
1F
100
AcDbEntity
  8
0
  6
Continuous
 62
     7
370
    15
100
AcDbSpline
210
0.0
220
0.0
230
1.0
 70
     8
 71
     3
 72
    17
 73
    13
 74
     0
 42
0.000000001
 43
0.00000001
 40
0.0
 40
0.0
 40
0.0
 40
0.0
 40
0.0045085079287206
 40
0.1160981167433076
 40
0.2216418390647785
 40
0.3301078333418276
 40
0.4383786628823748
 40
0.5495442680163631
 40
0.6622529182566766
 40
0.7782389060721052
 40
0.8874741877179562
 40
1.0
 40
1.0
 40
1.0
 40
1.0
 10
188.5329565836419
 20
73.71091272099797
 30
0.0
 10
188.5352014277418
 20
73.71019527577016
 30
0.0
 10
188.5930081736754
 20
73.69172041864832
 30
0.0
 10
188.3836836206208
 20
73.75908496712916
 30
0.0
 10
187.8870902615462
 20
73.91518614361411
 30
0.0
 10
187.0472699123277
 20
74.16670631796998
 30
0.0
 10
185.9096492318281
 20
74.48096453470625
 30
0.0
 10
184.4842486932823
 20
74.8312873889149
 30
0.0
 10
182.7813216633371
 20
75.18524276461747
 30
0.0
 10
180.8792467582701
 20
75.49051854425403
 30
0.0
 10
178.8264811202388
 20
75.72364511723522
 30
0.0
 10
177.4089936565542
 20
75.78476110254722
 30
0.0
 10
176.6897334588994
 20
75.81577252014462
 30
0.0
  0
SPLINE
  5
CE
330
1F
100
AcDbEntity
  8
0
  6
Continuous
 62
     7
370
    15
100
AcDbSpline
210
0.0
220
0.0
230
1.0
 70
     8
 71
     3
 72
    20
 73
    16
 74
     0
 42
0.000000001
 43
0.00000001
 40
0.0
 40
0.0
 40
0.0
 40
0.0
 40
0.2499999999999993
 40
0.2499999999999993
 40
0.3749999999999994
 40
0.3749999999999994
 40
0.4999999999999996
 40
0.4999999999999996
 40
0.6249999999999997
 40
0.6249999999999997
 40
0.7499999999999998
 40
0.7499999999999998
 40
0.8749999999999999
 40
0.8749999999999999
 40
1.0
 40
1.0
 40
1.0
 40
1.0
 10
186.8867192612009
 20
153.2087474332649
 30
0.0
 10
186.3800882949248
 20
153.0651337639301
 30
0.0
 10
185.7658712684198
 20
152.9047692252605
 30
0.0
 10
184.6794560939192
 20
152.6633991851281
 30
0.0
 10
184.2871316403537
 20
152.5824209364634
 30
0.0
 10
183.4694528120251
 20
152.4287629012767
 30
0.0
 10
183.0419508907251
 20
152.3555363193503
 30
0.0
 10
182.1512595419926
 20
152.219226262063
 30
0.0
 10
181.6870852065753
 20
152.1560233714504
 30
0.0
 10
180.727753950124
 20
152.0427565753663
 30
0.0
 10
180.2398503526742
 20
151.993513927428
 30
0.0
 10
179.2491478558521
 20
151.9102853272749
 30
0.0
 10
178.7463482693333
 20
151.8762891750332
 30
0.0
 10
177.7267436571134
 20
151.8238765549682
 30
0.0
 10
177.2088552060758
 20
151.8054611971953
 30
0.0
 10
176.6897330595483
 20
151.7951489943014
 30
0.0
  0
SPLINE
  5
CF
330
1F
100
AcDbEntity
  8
0
  6
Continuous
 62
     7
370
    15
100
AcDbSpline
210
0.0
220
0.0
230
1.0
 70
     8
 71
     3
 72
    12
 73
     8
 74
     0
 42
0.000000001
 43
0.00000001
 40
0.0
 40
0.0
 40
0.0
 40
0.0
 40
0.0131684556703008
 40
0.3390995264753813
 40
0.6473717643514794
 40
0.9641793778578283
 40
1.0
 40
1.0
 40
1.0
 40
1.0
 10
188.5329565836419
 20
153.7065821455318
 30
0.0
 10
188.535201409241
 20
153.7072995916898
 30
0.0
 10
188.5930076787647
 20
153.7257744727629
 30
0.0
 10
188.3837524782693
 20
153.658406437609
 30
0.0
 10
187.8868593156192
 20
153.5023203336328
 30
0.0
 10
187.2980040114041
 20
153.3256882056858
 30
0.0
 10
186.9246455701831
 20
153.2195327199132
 30
0.0
 10
186.886719135784
 20
153.2087492512066
 30
0.0
  0
LINE
  5
D0
330
1F
100
AcDbEntity
  8
0
  6
Continuous
 62
     7
370
    15
100
AcDbLine
 10
156.6397330595
 20
78.7837485538
 30
0.0
 11
156.6397330595
 21
148.6337463127
 31
0.0
  0
SPLINE
  5
D1
330
1F
100
AcDbEntity
  8
0
  6
Continuous
 62
     7
370
    15
100
AcDbSpline
210
0.0
220
0.0
230
1.0
 70
     8
 71
     3
 72
    12
 73
     8
 74
     0
 42
0.000000001
 43
0.00000001
 40
0.0
 40
0.0
 40
0.0
 40
0.0
 40
0.4999999999999944
 40
0.4999999999999944
 40
0.7499999999999972
 40
0.7499999999999972
 40
1.0
 40
1.0
 40
1.0
 40
1.0
 10
175.6897330595483
 20
160.0037343864954
 30
0.0
 10
175.6897330595483
 20
160.1239269931605
 30
0.0
 10
175.6357646292792
 20
160.2418342936755
 30
0.0
 10
175.4746779883463
 20
160.3812138381589
 30
0.0
 10
175.4099155688732
 20
160.4193791357228
 30
0.0
 10
175.2578615673087
 20
160.4740313980563
 30
0.0
 10
175.1751317941596
 20
160.4885920880405
 30
0.0
 10
175.0897330595483
 20
160.4885920880405
 30
0.0
  0
SPLINE
  5
D2
330
1F
100
AcDbEntity
  8
0
  6
Continuous
 62
     7
370
    15
100
AcDbSpline
210
0.0
220
0.0
230
1.0
 70
     8
 71
     3
 72
    12
 73
     8
 74
     0
 42
0.000000001
 43
0.00000001
 40
0.0
 40
0.0
 40
0.0
 40
0.0
 40
0.2499999999999946
 40
0.2499999999999946
 40
0.4999999999999892
 40
0.4999999999999892
 40
1.0
 40
1.0
 40
1.0
 40
1.0
 10
175.0897330595488
 20
152.2198253849401
 30
0.0
 10
175.1792701177199
 20
152.21982538494
 30
0.0
 10
175.2691692965085
 20
152.192998086109
 30
0.0
 10
175.4225941555078
 20
152.1012911208495
 30
0.0
 10
175.4876432128855
 20
152.0370361792506
 30
0.0
 10
175.6409624441497
 20
151.817624033189
 30
0.0
 10
175.6897330595483
 20
151.6358087233922
 30
0.0
 10
175.6897330595483
 20
151.4578285479093
 30
0.0
  0
LINE
  5
D3
330
1F
100
AcDbEntity
  8
0
  6
Continuous
 62
     7
370
    15
100
AcDbLine
 10
175.689733295
 20
151.4578292833
 30
0.0
 11
175.689733295
 21
160.003734635
 31
0.0
  0
SPLINE
  5
D4
330
1F
100
AcDbEntity
  8
0
  6
Continuous
 62
     7
370
    15
100
AcDbSpline
210
0.0
220
0.0
230
1.0
 70
     8
 71
     3
 72
    10
 73
     6
 74
     0
 42
0.000000001
 43
0.00000001
 40
0.0
 40
0.0
 40
0.0
 40
0.0
 40
0.5
 40
0.5
 40
1.0
 40
1.0
 40
1.0
 40
1.0
 10
160.1296019784946
 20
160.4189117589877
 30
0.0
 10
160.0531488885758
 20
160.348648987767
 30
0.0
 10
159.9842871663067
 20
160.2615540727253
 30
0.0
 10
159.8777749352338
 20
160.052384944473
 30
0.0
 10
159.8397330595482
 20
159.9270673952335
 30
0.0
 10
159.8397330595482
 20
159.7977171006376
 30
0.0
  0
SPLINE
  5
D5
330
1F
100
AcDbEntity
  8
0
  6
Continuous
 62
     7
370
    15
100
AcDbSpline
210
0.0
220
0.0
230
1.0
 70
     8
 71
     3
 72
     8
 73
     4
 74
     0
 42
0.000000001
 43
0.00000001
 40
0.0
 40
0.0
 40
0.0
 40
0.0
 40
1.0
 40
1.0
 40
1.0
 40
1.0
 10
160.4397330595482
 20
160.4885920880405
 30
0.0
 10
160.3286548742108
 20
160.4885920880405
 30
0.0
 10
160.2209908703086
 20
160.4634429124859
 30
0.0
 10
160.1296019784946
 20
160.4189117589877
 30
0.0
  0
SPLINE
  5
D6
330
1F
100
AcDbEntity
  8
0
  6
Continuous
 62
     7
370
    15
100
AcDbSpline
210
0.0
220
0.0
230
1.0
 70
     8
 71
     3
 72
    12
 73
     8
 74
     0
 42
0.000000001
 43
0.00000001
 40
0.0
 40
0.0
 40
0.0
 40
0.0
 40
0.5
 40
0.5
 40
0.75
 40
0.75
 40
1.0
 40
1.0
 40
1.0
 40
1.0
 10
159.8397330595483
 20
151.4578285479093
 30
0.0
 10
159.8397330595483
 20
151.6361888151486
 30
0.0
 10
159.8870451809242
 20
151.8149612268525
 30
0.0
 10
160.0414052588056
 20
152.0367230922043
 30
0.0
 10
160.1062907937246
 20
152.1010151308207
 30
0.0
 10
160.2615234929529
 20
152.1936596149803
 30
0.0
 10
160.3505989056211
 20
152.2198253849401
 30
0.0
 10
160.4397330595482
 20
152.2198253849401
 30
0.0
  0
LINE
  5
D7
330
1F
100
AcDbEntity
  8
0
  6
Continuous
 62
     7
370
    15
100
AcDbLine
 10
159.8397329787
 20
151.4578292833
 30
0.0
 11
159.8397329787
 21
159.7977186309
 31
0.0
  0
SPLINE
  5
D8
330
1F
100
AcDbEntity
  8
0
  6
Continuous
 62
     7
370
    15
100
AcDbSpline
210
0.0
220
0.0
230
1.0
 70
     8
 71
     3
 72
     8
 73
     4
 74
     0
 42
0.000000001
 43
0.00000001
 40
0.0
 40
0.0
 40
0.0
 40
0.0
 40
1.0
 40
1.0
 40
1.0
 40
1.0
 10
170.4164040817147
 20
159.7087806779323
 30
0.0
 10
170.1606277709593
 20
159.2488023226675
 30
0.0
 10
169.9050643728533
 20
158.7887078623597
 30
0.0
 10
169.6497330595483
 20
158.3284868420947
 30
0.0
  0
SPLINE
  5
D9
330
1F
100
AcDbEntity
  8
0
  6
Continuous
 62
     7
370
    15
100
AcDbSpline
210
0.0
220
0.0
230
1.0
 70
     8
 71
     3
 72
     8
 73
     4
 74
     0
 42
0.000000001
 43
0.00000001
 40
0.0
 40
0.0
 40
0.0
 40
0.0
 40
0.0012352705496738
 40
0.0012352705496738
 40
0.0012352705496738
 40
0.0012352705496738
 10
170.9728945670101
 20
160.4885920880405
 30
0.0
 10
170.786946141688
 20
160.2288163322888
 30
0.0
 10
170.601439332517
 20
159.9688822536615
 30
0.0
 10
170.4164040817148
 20
159.7087806779328
 30
0.0
  0
LINE
  5
DA
330
1F
100
AcDbEntity
  8
0
  6
Continuous
 62
     7
370
    15
100
AcDbLine
 10
170.972894585
 20
152.219826238
 30
0.0
 11
170.972894585
 21
160.4885923432
 31
0.0
  0
SPLINE
  5
DB
330
1F
100
AcDbEntity
  8
0
  6
Continuous
 62
     7
370
    15
100
AcDbSpline
210
0.0
220
0.0
230
1.0
 70
     8
 71
     3
 72
     8
 73
     4
 74
     0
 42
0.000000001
 43
0.00000001
 40
0.0
 40
0.0
 40
0.0
 40
0.0
 40
1.0
 40
1.0
 40
1.0
 40
1.0
 10
169.6497330595483
 20
149.2758831755745
 30
0.0
 10
170.0846794811866
 20
150.2593874939569
 30
0.0
 10
170.5260458390825
 20
151.2405894866838
 30
0.0
 10
170.9728945670101
 20
152.2198253849401
 30
0.0
  0
LINE
  5
DC
330
1F
100
AcDbEntity
  8
0
  6
Continuous
 62
     7
370
    15
100
AcDbLine
 10
169.6497329383
 20
149.275882052
 30
0.0
 11
169.6497329383
 21
158.3284864889
 31
0.0
  0
LINE
  5
DD
330
1F
100
AcDbEntity
  8
0
  6
Continuous
 62
     7
370
    15
100
AcDbLine
 10
175.0897324516
 20
160.4885923432
 30
0.0
 11
170.972894585
 21
160.4885923432
 31
0.0
  0
LINE
  5
DE
330
1F
100
AcDbEntity
  8
0
  6
Continuous
 62
     7
370
    15
100
AcDbLine
 10
170.972894585
 20
152.219826238
 30
0.0
 11
175.0897324516
 21
152.219826238
 31
0.0
  0
SPLINE
  5
DF
330
1F
100
AcDbEntity
  8
0
  6
Continuous
 62
     7
370
    15
100
AcDbSpline
210
0.0
220
0.0
230
1.0
 70
     8
 71
     3
 72
    14
 73
    10
 74
     0
 42
0.000000001
 43
0.00000001
 40
0.0
 40
0.0
 40
0.0
 40
0.0
 40
0.25
 40
0.25
 40
0.5
 40
0.5
 40
0.75
 40
0.75
 40
1.0
 40
1.0
 40
1.0
 40
1.0
 10
169.6497330595483
 20
158.1898389216715
 30
0.0
 10
169.6497330595483
 20
158.0824965495241
 30
0.0
 10
169.6297368674841
 20
157.9758675426763
 30
0.0
 10
169.5520387831394
 20
157.7767157635251
 30
0.0
 10
169.4940456382458
 20
157.6842328652096
 30
0.0
 10
169.347999145423
 20
157.5289970301004
 30
0.0
 10
169.2586614062553
 20
157.465263088488
 30
0.0
 10
169.0639063941949
 20
157.3794328220928
 30
0.0
 10
168.956376122986
 20
157.3565136991344
 30
0.0
 10
168.8497330595462
 20
157.3565136991347
 30
0.0
  0
SPLINE
  5
E0
330
1F
100
AcDbEntity
  8
0
  6
Continuous
 62
     7
370
    15
100
AcDbSpline
210
0.0
220
0.0
230
1.0
 70
     8
 71
     3
 72
    14
 73
    10
 74
     0
 42
0.000000001
 43
0.00000001
 40
0.0
 40
0.0
 40
0.0
 40
0.0
 40
0.25
 40
0.25
 40
0.5
 40
0.5
 40
0.75
 40
0.75
 40
1.0
 40
1.0
 40
1.0
 40
1.0
 10
168.8497330595483
 20
148.048629494798
 30
0.0
 10
168.971059589534
 20
148.048629494798
 30
0.0
 10
169.0927642980962
 20
148.0874110102312
 30
0.0
 10
169.2992041769824
 20
148.218565631925
 30
0.0
 10
169.3851547154384
 20
148.3092177165121
 30
0.0
 10
169.5190664751867
 20
148.5113347514534
 30
0.0
 10
169.5686309120059
 20
148.6250696949926
 30
0.0
 10
169.6334849399738
 20
148.8580293120591
 30
0.0
 10
169.6497330595483
 20
148.9807275783883
 30
0.0
 10
169.6497330595483
 20
149.1017905349819
 30
0.0
  0
LINE
  5
E1
330
1F
100
AcDbEntity
  8
0
  6
Continuous
 62
     7
370
    15
100
AcDbLine
 10
168.8497333659
 20
157.3565135465
 30
0.0
 11
166.6297332255
 21
157.3565135465
 31
0.0
  0
LINE
  5
E2
330
1F
100
AcDbEntity
  8
0
  6
Continuous
 62
     7
370
    15
100
AcDbLine
 10
166.6297332255
 20
148.0486298667
 30
0.0
 11
168.8497333659
 21
148.0486298667
 31
0.0
  0
SPLINE
  5
E3
330
1F
100
AcDbEntity
  8
0
  6
Continuous
 62
     7
370
    15
100
AcDbSpline
210
0.0
220
0.0
230
1.0
 70
     8
 71
     3
 72
    12
 73
     8
 74
     0
 42
0.000000001
 43
0.00000001
 40
0.0
 40
0.0
 40
0.0
 40
0.0
 40
0.2500000000000007
 40
0.2500000000000007
 40
0.5000000000000014
 40
0.5000000000000014
 40
1.0
 40
1.0
 40
1.0
 40
1.0
 10
166.6297330595482
 20
157.3565136991347
 30
0.0
 10
166.5233880796723
 20
157.3565136991347
 30
0.0
 10
166.4161117322697
 20
157.3792289369942
 30
0.0
 10
166.2207359428736
 20
157.4652541038765
 30
0.0
 10
166.1321822067966
 20
157.5282328308049
 30
0.0
 10
165.9109242826654
 20
157.763424341242
 30
0.0
 10
165.8297330595483
 20
157.9766005557273
 30
0.0
 10
165.8297330595482
 20
158.1898389216714
 30
0.0
  0
SPLINE
  5
E4
330
1F
100
AcDbEntity
  8
0
  6
Continuous
 62
     7
370
    15
100
AcDbSpline
210
0.0
220
0.0
230
1.0
 70
     8
 71
     3
 72
    12
 73
     8
 74
     0
 42
0.000000001
 43
0.00000001
 40
0.0
 40
0.0
 40
0.0
 40
0.0
 40
0.499999999999994
 40
0.499999999999994
 40
0.749999999999997
 40
0.749999999999997
 40
1.0
 40
1.0
 40
1.0
 40
1.0
 10
165.8297330595483
 20
149.1017905349819
 30
0.0
 10
165.8297330595483
 20
148.8593674390012
 30
0.0
 10
165.8926542009901
 20
148.6135969183998
 30
0.0
 10
166.0946830979925
 20
148.3086507389829
 30
0.0
 10
166.1809768226397
 20
148.2180578723845
 30
0.0
 10
166.3864506172065
 20
148.0876243094477
 30
0.0
 10
166.5064011778061
 20
148.048629494798
 30
0.0
 10
166.6297330595482
 20
148.048629494798
 30
0.0
  0
LINE
  5
E5
330
1F
100
AcDbEntity
  8
0
  6
Continuous
 62
     7
370
    15
100
AcDbLine
 10
160.4397331236
 20
152.219826238
 30
0.0
 11
164.5065720065
 21
152.219826238
 31
0.0
  0
SPLINE
  5
E6
330
1F
100
AcDbEntity
  8
0
  6
Continuous
 62
     7
370
    15
100
AcDbSpline
210
0.0
220
0.0
230
1.0
 70
     8
 71
     3
 72
     8
 73
     4
 74
     0
 42
0.000000001
 43
0.00000001
 40
0.0
 40
0.0
 40
0.0
 40
0.0
 40
1.0
 40
1.0
 40
1.0
 40
1.0
 10
164.5065715520864
 20
152.2198253849401
 30
0.0
 10
164.953420280014
 20
151.2405894866837
 30
0.0
 10
165.3947866379099
 20
150.2593874939569
 30
0.0
 10
165.8297330595483
 20
149.2758831755745
 30
0.0
  0
LINE
  5
E7
330
1F
100
AcDbEntity
  8
0
  6
Continuous
 62
     7
370
    15
100
AcDbLine
 10
165.8297327219
 20
149.275882052
 30
0.0
 11
165.8297327219
 21
149.1017917858
 31
0.0
  0
LINE
  5
E8
330
1F
100
AcDbEntity
  8
0
  6
Continuous
 62
     7
370
    15
100
AcDbLine
 10
169.6497329383
 20
149.1017917858
 30
0.0
 11
169.6497329383
 21
149.275882052
 31
0.0
  0
LINE
  5
E9
330
1F
100
AcDbEntity
  8
0
  6
Continuous
 62
     7
370
    15
100
AcDbLine
 10
159.8397329787
 20
151.4578292833
 30
0.0
 11
159.8397329787
 21
143.5587479488
 31
0.0
  0
LINE
  5
EA
330
1F
100
AcDbEntity
  8
0
  6
Continuous
 62
     7
370
    15
100
AcDbLine
 10
175.689733295
 20
151.4578292833
 30
0.0
 11
175.689733295
 21
143.5587479488
 31
0.0
  0
SPLINE
  5
EB
330
1F
100
AcDbEntity
  8
0
  6
Continuous
 62
     7
370
    15
100
AcDbSpline
210
0.0
220
0.0
230
1.0
 70
     8
 71
     3
 72
     8
 73
     4
 74
     0
 42
0.000000001
 43
0.00000001
 40
0.0
 40
0.0
 40
0.0
 40
0.0
 40
0.0012352705496723
 40
0.0012352705496723
 40
0.0012352705496723
 40
0.0012352705496723
 10
165.0630620373809
 20
159.708780677934
 30
0.0
 10
164.8780267865789
 20
159.9688822536622
 30
0.0
 10
164.6925199774082
 20
160.2288163322892
 30
0.0
 10
164.5065715520864
 20
160.4885920880405
 30
0.0
  0
SPLINE
  5
EC
330
1F
100
AcDbEntity
  8
0
  6
Continuous
 62
     7
370
    15
100
AcDbSpline
210
0.0
220
0.0
230
1.0
 70
     8
 71
     3
 72
     8
 73
     4
 74
     0
 42
0.000000001
 43
0.00000001
 40
0.0
 40
0.0
 40
0.0
 40
0.0
 40
1.0
 40
1.0
 40
1.0
 40
1.0
 10
165.8297330595483
 20
158.3284868420947
 30
0.0
 10
165.5744017462429
 20
158.7887078623603
 30
0.0
 10
165.3188383481366
 20
159.2488023226686
 30
0.0
 10
165.0630620373809
 20
159.708780677934
 30
0.0
  0
LINE
  5
ED
330
1F
100
AcDbEntity
  8
0
  6
Continuous
 62
     7
370
    15
100
AcDbLine
 10
164.5065720065
 20
152.219826238
 30
0.0
 11
164.5065720065
 21
160.4885923432
 31
0.0
  0
LINE
  5
EE
330
1F
100
AcDbEntity
  8
0
  6
Continuous
 62
     7
370
    15
100
AcDbLine
 10
165.8297327219
 20
149.275882052
 30
0.0
 11
165.8297327219
 21
158.3284864889
 31
0.0
  0
LINE
  5
EF
330
1F
100
AcDbEntity
  8
0
  6
Continuous
 62
     7
370
    15
100
AcDbLine
 10
164.5065720065
 20
160.4885923432
 30
0.0
 11
160.4397331236
 21
160.4885923432
 31
0.0
  0
LINE
  5
F0
330
1F
100
AcDbEntity
  8
0
  6
Continuous
 62
     7
370
    15
100
AcDbLine
 10
55.0397342874
 20
95.3299029486
 30
0.0
 11
55.0397342874
 21
132.087591918
 31
0.0
  0
ARC
  5
F1
330
1F
100
AcDbEntity
  8
0
  6
Continuous
 62
     7
370
    15
100
AcDbCircle
 10
170.7055825288
 20
98.5198761907
 30
0.0
 40
2.369707250905896
100
AcDbArc
 50
185.6203299175
 51
252.2890843555
  0
ARC
  5
F2
330
1F
100
AcDbEntity
  8
0
  6
Continuous
 62
     7
370
    15
100
AcDbCircle
 10
170.8564408957
 20
98.6270397994
 30
0.0
 40
2.520135433679705
100
AcDbArc
 50
249.7622145608
 51
339.9433461867
  0
ARC
  5
F3
330
1F
100
AcDbEntity
  8
0
  6
Continuous
 62
     7
370
    15
100
AcDbCircle
 10
170.6686325058
 20
98.424830561
 30
0.0
 40
2.181399248729519
100
AcDbArc
 50
159.26752016
 51
253.0470182115
  0
ARC
  5
F4
330
1F
100
AcDbEntity
  8
0
  6
Continuous
 62
     7
370
    15
100
AcDbCircle
 10
170.8571639667
 20
98.5570155594
 30
0.0
 40
2.367064187020494
100
AcDbArc
 50
249.6127475989
 51
345.549823666
  0
ARC
  5
F5
330
1F
100
AcDbEntity
  8
0
  6
Continuous
 62
     7
370
    15
100
AcDbCircle
 10
170.6868310896
 20
98.4153814102
 30
0.0
 40
1.837698945659598
100
AcDbArc
 50
124.9990245476
 51
253.2004850097
  0
ARC
  5
F6
330
1F
100
AcDbEntity
  8
0
  6
Continuous
 62
     7
370
    15
100
AcDbCircle
 10
170.8635584869
 20
98.5029244701
 30
0.0
 40
1.977824793145195
100
AcDbArc
 50
249.0286405794
 51
357.659602652
  0
CIRCLE
  5
F7
330
1F
100
AcDbEntity
  8
0
  6
HIDDEN
 62
     7
370
     0
100
AcDbCircle
 10
211.1897330595
 20
113.7087474333
 30
0.0
 40
8.980667620239306
  0
CIRCLE
  5
F8
330
1F
100
AcDbEntity
  8
0
  6
HIDDEN
 62
     7
370
     0
100
AcDbCircle
 10
211.1897330595
 20
113.7087474333
 30
0.0
 40
6.375755334184844
  0
CIRCLE
  5
F9
330
1F
100
AcDbEntity
  8
0
  6
HIDDEN
 62
     7
370
     0
100
AcDbCircle
 10
211.1897330595
 20
113.7087474333
 30
0.0
 40
5.975755334184844
  0
CIRCLE
  5
FA
330
1F
100
AcDbEntity
  8
0
  6
HIDDEN
 62
     7
370
     0
100
AcDbCircle
 10
211.1897330595
 20
113.7087474333
 30
0.0
 40
9.25
  0
LWPOLYLINE
  5
FB
330
1F
100
AcDbEntity
  8
0
  6
HIDDEN
 62
     7
370
     0
100
AcDbPolyline
 90
       21
 70
   128
 43
0.0
 10
170.8397331519
 20
97.8514308797
 10
171.6122754721
 20
97.9664101021
 10
172.3091962619
 20
98.3000936673
 10
172.8622752114
 20
98.8198182301
 10
173.2173736079
 20
99.4747093634
 10
173.3397326304
 20
100.2006622718
 10
173.2173736079
 20
100.9266142489
 10
172.8622752114
 20
101.5815053822
 10
172.3091962619
 20
102.101229945
 10
171.6122754721
 20
102.4349135102
 10
170.8397331519
 20
102.549893664
 10
170.0671908317
 20
102.4349135102
 10
169.370270042
 20
102.101229945
 10
168.8171901612
 20
101.5815053822
 10
168.4620917647
 20
100.9266142489
 10
168.3397327422
 20
100.2006622718
 10
168.4620917647
 20
99.4747093634
 10
168.8171901612
 20
98.8198182301
 10
169.370270042
 20
98.3000936673
 10
170.0671908317
 20
97.9664101021
 10
170.8397331519
 20
97.8514308797
  0
LWPOLYLINE
  5
FC
330
1F
100
AcDbEntity
  8
0
  6
HIDDEN
 62
     7
370
     0
100
AcDbPolyline
 90
       23
 70
   128
 43
0.0
 10
160.111464035
 20
99.8038871901
 10
160.3167720011
 20
98.9751125441
 10
160.6390394142
 20
98.2134806679
 10
161.0521578102
 20
97.5806935446
 10
161.5226587152
 20
97.1280167566
 10
162.0124249591
 20
96.8921220617
 10
162.4817789404
 20
96.8921220617
 10
162.8926961555
 20
97.1280167566
 10
163.2118864788
 20
97.5806935446
 10
163.4134908079
 20
98.2134806679
 10
163.4811770043
 20
98.9751125441
 10
163.4094609751
 20
99.8038871901
 10
163.2041527761
 20
100.632661836
 10
162.881885363
 20
101.3942946435
 10
162.4687669671
 20
102.0270808355
 10
161.998266062
 20
102.4797585548
 10
161.5084998181
 20
102.7156523184
 10
161.0391458368
 20
102.7156523184
 10
160.6282286218
 20
102.4797585548
 10
160.3090385313
 20
102.0270808355
 10
160.1074339694
 20
101.3942946435
 10
160.0397480058
 20
100.632661836
 10
160.111464035
 20
99.8038871901
  0
LWPOLYLINE
  5
FD
330
1F
100
AcDbEntity
  8
0
  6
HIDDEN
 62
     7
370
     0
100
AcDbPolyline
 90
       20
 70
   128
 43
0.0
 10
160.8744959219
 20
99.868149379
 10
161.0487845598
 20
99.1995296197
 10
161.3292723766
 20
98.6033658253
 10
161.685564263
 20
98.1442601176
 10
162.0790508448
 20
97.8719646798
 10
162.4670910521
 20
97.8159866051
 10
162.8076352051
 20
97.9823934601
 10
163.0637801124
 20
98.3531501831
 10
163.2077677047
 20
98.8880804495
 10
163.2239955349
 20
99.5292168797
 10
163.1107048003
 20
100.207080947
 10
162.8801726608
 20
100.8482173772
 10
162.5573799817
 20
101.3831476436
 10
162.177307239
 20
101.7539043666
 10
161.7811407766
 20
101.9203102903
 10
161.4118113054
 20
101.8643331469
 10
161.1093414819
 20
101.5920377092
 10
160.9065087384
 20
101.1329329328
 10
160.8252932189
 20
100.5367682071
 10
160.8744959219
 20
99.868149379
  0
LINE
  5
FE
330
1F
100
AcDbEntity
  8
0
  6
HIDDEN
 62
     7
370
     0
100
AcDbLine
 10
234.989733143
 20
141.0427371727
 30
0.0
 11
234.989733143
 21
86.3747576938
 31
0.0
  0
SPLINE
  5
FF
330
1F
100
AcDbEntity
  8
0
  6
HIDDEN
 62
     7
370
     0
100
AcDbSpline
210
0.0
220
0.0
230
1.0
 70
     8
 71
     3
 72
    22
 73
    18
 74
     0
 42
0.000000001
 43
0.00000001
 40
0.0
 40
0.0
 40
0.0
 40
0.0
 40
0.125
 40
0.125
 40
0.25
 40
0.25
 40
0.375
 40
0.375
 40
0.5
 40
0.5
 40
0.625
 40
0.625
 40
0.75
 40
0.75
 40
0.875
 40
0.875
 40
1.0
 40
1.0
 40
1.0
 40
1.0
 10
234.9897330595482
 20
86.37475701206957
 30
0.0
 10
235.065123414125
 20
86.09086947763069
 30
0.0
 10
235.1317279282975
 20
85.81377216370028
 30
0.0
 10
235.2479399286262
 20
85.27324575773952
 30
0.0
 10
235.2977613743422
 20
85.00847812542433
 30
0.0
 10
235.378510685629
 20
84.49964907640492
 30
0.0
 10
235.4087426873603
 20
84.26050207438695
 30
0.0
 10
235.4495142765268
 20
83.81230803173587
 30
0.0
 10
235.4600373388423
 20
83.60159552760368
 30
0.0
 10
235.4601171405978
 20
83.22050310402206
 30
0.0
 10
235.4498755454331
 20
83.05187454782545
 30
0.0
 10
235.4093515286905
 20
82.75712958182889
 30
0.0
 10
235.3785862639667
 20
82.63012731072122
 30
0.0
 10
235.2983708951525
 20
82.4268903242056
 30
0.0
 10
235.2491520659594
 20
82.34992717380507
 30
0.0
 10
235.1327410672622
 20
82.24348168598853
 30
0.0
 10
235.0651402943078
 20
82.21420768741719
 30
0.0
 10
234.9897330595482
 20
82.20944887601463
 30
0.0
  0
LINE
  5
100
330
1F
100
AcDbEntity
  8
0
  6
HIDDEN
 62
     7
370
     0
100
AcDbLine
 10
234.989733143
 20
82.2094472812
 30
0.0
 11
234.989733143
 21
75.3171275125
 31
0.0
  0
LINE
  5
101
330
1F
100
AcDbEntity
  8
0
  6
HIDDEN
 62
     7
370
     0
100
AcDbLine
 10
234.989733143
 20
152.100367354
 30
0.0
 11
234.989733143
 21
145.2080475853
 31
0.0
  0
SPLINE
  5
102
330
1F
100
AcDbEntity
  8
0
  6
HIDDEN
 62
     7
370
     0
100
AcDbSpline
210
0.0
220
0.0
230
1.0
 70
     8
 71
     3
 72
    22
 73
    18
 74
     0
 42
0.000000001
 43
0.00000001
 40
0.0
 40
0.0
 40
0.0
 40
0.0
 40
0.125
 40
0.125
 40
0.25
 40
0.25
 40
0.375
 40
0.375
 40
0.5
 40
0.5
 40
0.625
 40
0.625
 40
0.75
 40
0.75
 40
0.875
 40
0.875
 40
1.0
 40
1.0
 40
1.0
 40
1.0
 10
234.9897330595482
 20
145.2080459905152
 30
0.0
 10
235.0651234141251
 20
145.2032882443898
 30
0.0
 10
235.1317279282975
 20
145.1745273144089
 30
0.0
 10
235.2479399286262
 20
145.0690805104614
 30
0.0
 10
235.2977613743422
 20
144.9918725572446
 30
0.0
 10
235.378510685629
 20
144.7878330006854
 30
0.0
 10
235.4087426873603
 20
144.6632696874325
 30
0.0
 10
235.4495142765268
 20
144.3697358858736
 30
0.0
 10
235.4600373388423
 20
144.1990396589282
 30
0.0
 10
235.4601171405978
 20
143.8182504608148
 30
0.0
 10
235.4498755454331
 20
143.6106748724058
 30
0.0
 10
235.4093515286904
 20
143.1622047248939
 30
0.0
 10
235.3785862639667
 20
142.9185993601105
 30
0.0
 10
235.2983708951525
 20
142.4125825722442
 30
0.0
 10
235.2491520659594
 20
142.1503135013061
 30
0.0
 10
235.1327410672621
 20
141.6080166052985
 30
0.0
 10
235.0651402943078
 20
141.3266889523814
 30
0.0
 10
234.9897330595482
 20
141.0427378544602
 30
0.0
  0
ELLIPSE
  5
103
330
1F
100
AcDbEntity
  8
0
  6
HIDDEN
 62
     7
370
     0
100
AcDbEllipse
 10
170.8397330595
 20
101.9782373219
 30
0.0
 11
1.760776919379083
 21
2.232245799914452
 31
0.0
210
0.0
220
0.0
230
1.0
 40
0.5126701559
 41
1.100887047646273
 42
4.029627027608266
  0
ARC
  5
104
330
1F
100
AcDbEntity
  8
0
  6
HIDDEN
 62
     7
370
     0
100
AcDbCircle
 10
170.143133591
 20
103.1557772031
 30
0.0
 40
0.7945949542257535
100
AcDbArc
 50
53.4208190544
 51
99.1663888759
  0
ELLIPSE
  5
105
330
1F
100
AcDbEntity
  8
0
  6
HIDDEN
 62
     7
370
     0
100
AcDbEllipse
 10
170.8397330595
 20
101.9782373219
 30
0.0
 11
1.760776919379083
 21
-1.388886188042946
 31
0.0
210
0.0
220
0.0
230
1.0
 40
0.8239737799
 41
2.54992626524856
 42
4.8859302738561
  0
ARC
  5
106
330
1F
100
AcDbEntity
  8
0
  6
HIDDEN
 62
     7
370
     0
100
AcDbCircle
 10
171.0857858215
 20
101.1387597579
 30
0.0
 40
1.353195702694776
100
AcDbArc
 50
217.8001040701
 51
249.7155767561
  0
LWPOLYLINE
  5
107
330
1F
100
AcDbEntity
  8
0
  6
HIDDEN
 62
     7
370
     0
100
AcDbPolyline
 90
       20
 70
   128
 43
0.0
 10
170.8397331519
 20
98.2771011756
 10
171.5216019063
 20
98.3840235264
 10
172.1295795275
 20
98.6932021321
 10
172.5977833255
 20
99.1711335944
 10
172.8754739149
 20
99.7660261334
 10
172.9325602634
 20
100.4134145321
 10
172.7628565265
 20
101.0431431921
 10
172.3847525997
 20
101.5869722457
 10
171.8392229511
 20
101.9859694631
 10
171.1853814183
 20
102.1968963312
 10
170.4940848856
 20
102.1968963312
 10
169.8402433528
 20
101.9859694631
 10
169.2947127728
 20
101.5869722457
 10
168.916608846
 20
101.0431431921
 10
168.7469060405
 20
100.4134145321
 10
168.803992389
 20
99.7660261334
 10
169.0816839097
 20
99.1711335944
 10
169.5498867764
 20
98.6932021321
 10
170.1578643976
 20
98.3840235264
 10
170.8397331519
 20
98.2771011756
  0
SPLINE
  5
108
330
1F
100
AcDbEntity
  8
0
  6
HIDDEN
 62
     7
370
     0
100
AcDbSpline
210
0.0
220
0.0
230
1.0
 70
    11
 71
     3
 72
    62
 73
    58
 74
     0
 42
0.000000001
 43
0.00000001
 40
0.0
 40
0.0
 40
0.0
 40
0.0
 40
0.0312499999999996
 40
0.0312499999999996
 40
0.0624999999999993
 40
0.0624999999999993
 40
0.1249999999999989
 40
0.1249999999999989
 40
0.1874999999999986
 40
0.1874999999999986
 40
0.2187499999999984
 40
0.2187499999999984
 40
0.2499999999999982
 40
0.2499999999999982
 40
0.281249999999998
 40
0.281249999999998
 40
0.3124999999999978
 40
0.3124999999999978
 40
0.3437499999999976
 40
0.3437499999999976
 40
0.3749999999999974
 40
0.3749999999999974
 40
0.4374999999999969
 40
0.4374999999999969
 40
0.4687499999999969
 40
0.4687499999999969
 40
0.4999999999999969
 40
0.4999999999999969
 40
0.5312499999999969
 40
0.5312499999999969
 40
0.5624999999999968
 40
0.5624999999999968
 40
0.5937499999999968
 40
0.5937499999999968
 40
0.6249999999999968
 40
0.6249999999999968
 40
0.6562499999999969
 40
0.6562499999999969
 40
0.6874999999999971
 40
0.6874999999999971
 40
0.7187499999999973
 40
0.7187499999999973
 40
0.7499999999999974
 40
0.7499999999999974
 40
0.7812499999999977
 40
0.7812499999999977
 40
0.8124999999999979
 40
0.8124999999999979
 40
0.8749999999999982
 40
0.8749999999999982
 40
0.9062499999999987
 40
0.9062499999999987
 40
0.9374999999999991
 40
0.9374999999999991
 40
0.9687499999999994
 40
0.9687499999999994
 40
1.0
 40
1.0
 40
1.0
 40
1.0
 10
170.8397330595483
 20
110.4716527980371
 30
0.0
 10
170.6985348355684
 20
110.4716527980372
 30
0.0
 10
170.5602569585546
 20
110.4821207344207
 30
0.0
 10
170.2890908873468
 20
110.5231442153561
 30
0.0
 10
170.1548875598872
 20
110.5542706687717
 30
0.0
 10
169.775824380097
 20
110.6756446566835
 30
0.0
 10
169.5468174584033
 20
110.7957994306916
 30
0.0
 10
169.1657868394005
 20
111.1045783297145
 30
0.0
 10
169.0101637624789
 20
111.2967474978784
 30
0.0
 10
168.8510932859103
 20
111.6267318097166
 30
0.0
 10
168.8093661407669
 20
111.7462311730287
 30
0.0
 10
168.7540954396248
 20
111.9928155721844
 30
0.0
 10
168.740015508135
 20
112.1199875026215
 30
0.0
 10
168.7394589418138
 20
112.3824766953177
 30
0.0
 10
168.7534482192344
 20
112.5176190640147
 30
0.0
 10
168.8079297384701
 20
112.7821041573745
 30
0.0
 10
168.848780196625
 20
112.9142540616205
 30
0.0
 10
168.9553941634844
 20
113.1709498125423
 30
0.0
 10
169.0201463057575
 20
113.2936876969963
 30
0.0
 10
169.1717048477101
 20
113.5280584457546
 30
0.0
 10
169.2590429708831
 20
113.6398759467681
 30
0.0
 10
169.5448193918446
 20
113.9450594118964
 30
0.0
 10
169.7743557403104
 20
114.1158737310762
 30
0.0
 10
170.1506738763047
 20
114.2923840940502
 30
0.0
 10
170.2830067846654
 20
114.338868901244
 30
0.0
 10
170.5570394436562
 20
114.4019726139841
 30
0.0
 10
170.6950646032784
 20
114.4179303037284
 30
0.0
 10
170.9731359844971
 20
114.4187761725901
 30
0.0
 10
171.1148489231674
 20
114.403051497617
 30
0.0
 10
171.3872711788478
 20
114.3416110551178
 30
0.0
 10
171.5190993233448
 20
114.2962894114314
 30
0.0
 10
171.7744982189494
 20
114.1777416084304
 30
0.0
 10
171.8946642221387
 20
114.106054525214
 30
0.0
 10
172.1198356346951
 20
113.9413259592157
 30
0.0
 10
172.2259866960294
 20
113.8470666861808
 30
0.0
 10
172.4174339847316
 20
113.6435020120371
 30
0.0
 10
172.5033679986511
 20
113.5340347217979
 30
0.0
 10
172.6557803166912
 20
113.299937119314
 30
0.0
 10
172.7219638069786
 20
113.1750428964161
 30
0.0
 10
172.8281455055297
 20
112.9213111448813
 30
0.0
 10
172.8691255687455
 20
112.7911414600976
 30
0.0
 10
172.9252057095429
 20
112.5240777649688
 30
0.0
 10
172.9394298849842
 20
112.3901245349535
 30
0.0
 10
172.9400265688556
 20
112.1286677924855
 30
0.0
 10
172.9262580013572
 20
111.998550423098
 30
0.0
 10
172.8714079344151
 20
111.7503595676142
 30
0.0
 10
172.8309114211387
 20
111.6330040765334
 30
0.0
 10
172.6714489499625
 20
111.2992549547937
 30
0.0
 10
172.5167805256483
 20
111.1074153828678
 30
0.0
 10
172.2284724943037
 20
110.873292814898
 30
0.0
 10
172.1244476789559
 20
110.8051364055348
 30
0.0
 10
171.9000284207771
 20
110.6864254663108
 30
0.0
 10
171.7780976329166
 20
110.6355035299424
 30
0.0
 10
171.5256404814906
 20
110.5545536951208
 30
0.0
 10
171.3947539515734
 20
110.5240183761218
 30
0.0
 10
171.1228130338606
 20
110.4824603473773
 30
0.0
 10
170.9809312835282
 20
110.4716527980372
 30
0.0
 10
170.8397330595483
 20
110.4716527980372
 30
0.0
  0
SPLINE
  5
109
330
1F
100
AcDbEntity
  8
0
  6
HIDDEN
 62
     7
370
     0
100
AcDbSpline
210
0.0
220
0.0
230
1.0
 70
     8
 71
     3
 72
     8
 73
     4
 74
     0
 42
0.000000001
 43
0.00000001
 40
0.0
 40
0.0
 40
0.0
 40
0.0
 40
1.0
 40
1.0
 40
1.0
 40
1.0
 10
170.0165528833888
 20
103.9402253977863
 30
0.0
 10
170.2279802733901
 20
103.9327158880038
 30
0.0
 10
170.4304488199228
 20
103.8785923583691
 30
0.0
 10
170.6166594190602
 20
103.793864071144
 30
0.0
  0
SPLINE
  5
10A
330
1F
100
AcDbEntity
  8
0
  6
HIDDEN
 62
     7
370
     0
100
AcDbSpline
210
0.0
220
0.0
230
1.0
 70
     8
 71
     3
 72
     8
 73
     4
 74
     0
 42
0.000000001
 43
0.00000001
 40
0.0
 40
0.0
 40
0.0
 40
0.0
 40
1.0
 40
1.0
 40
1.0
 40
1.0
 10
170.6166594190602
 20
99.86948530320971
 30
0.0
 10
170.4301350697758
 20
99.99180571911019
 30
0.0
 10
170.2275801712501
 20
100.1328908797749
 30
0.0
 10
170.0165528833889
 20
100.3093745155598
 30
0.0
  0
LINE
  5
10B
330
1F
100
AcDbEntity
  8
0
  6
HIDDEN
 62
     7
370
     0
100
AcDbLine
 10
230.1897338463
 20
126.6556036414
 30
0.0
 11
230.1897338463
 21
100.7618912251
 31
0.0
  0
LINE
  5
10C
330
1F
100
AcDbEntity
  8
0
  6
HIDDEN
 62
     7
370
     0
100
AcDbLine
 10
230.1897338463
 20
126.6556036414
 30
0.0
 11
230.1897338463
 21
140.0087474601
 31
0.0
  0
LINE
  5
10D
330
1F
100
AcDbEntity
  8
0
  6
HIDDEN
 62
     7
370
     0
100
AcDbLine
 10
234.989733143
 20
126.6556036414
 30
0.0
 11
230.1897338463
 21
126.6556036414
 31
0.0
  0
LINE
  5
10E
330
1F
100
AcDbEntity
  8
0
  6
HIDDEN
 62
     7
370
     0
100
AcDbLine
 10
230.1897338463
 20
145.0588087307
 30
0.0
 11
234.989733143
 21
145.0588087307
 31
0.0
  0
LINE
  5
10F
330
1F
100
AcDbEntity
  8
0
  6
HIDDEN
 62
     7
370
     0
100
AcDbLine
 10
234.989733143
 20
145.0588087307
 30
0.0
 11
234.989733143
 21
145.2081034647
 31
0.0
  0
LINE
  5
110
330
1F
100
AcDbEntity
  8
0
  6
HIDDEN
 62
     7
370
     0
100
AcDbLine
 10
230.1897338463
 20
140.0087474601
 30
0.0
 11
230.1897338463
 21
145.2087479399
 31
0.0
  0
LINE
  5
111
330
1F
100
AcDbEntity
  8
0
  6
HIDDEN
 62
     7
370
     0
100
AcDbLine
 10
230.1897338463
 20
87.4087474064
 30
0.0
 11
230.1897338463
 21
100.7618912251
 31
0.0
  0
LINE
  5
112
330
1F
100
AcDbEntity
  8
0
  6
HIDDEN
 62
     7
370
     0
100
AcDbLine
 10
230.1897338463
 20
100.7618912251
 30
0.0
 11
234.989733143
 21
100.7618912251
 31
0.0
  0
LINE
  5
113
330
1F
100
AcDbEntity
  8
0
  6
HIDDEN
 62
     7
370
     0
100
AcDbLine
 10
230.1897338463
 20
82.3586861358
 30
0.0
 11
234.989733143
 21
82.3586861358
 31
0.0
  0
LINE
  5
114
330
1F
100
AcDbEntity
  8
0
  6
HIDDEN
 62
     7
370
     0
100
AcDbLine
 10
234.989733143
 20
82.3586861358
 30
0.0
 11
234.989733143
 21
82.2093914018
 31
0.0
  0
LINE
  5
115
330
1F
100
AcDbEntity
  8
0
  6
HIDDEN
 62
     7
370
     0
100
AcDbLine
 10
230.1897338463
 20
82.2087469266
 30
0.0
 11
230.1897338463
 21
87.4087474064
 31
0.0
  0
LINE
  5
116
330
1F
100
AcDbEntity
  8
0
  6
HIDDEN
 62
     7
370
     0
100
AcDbLine
 10
228.6897308065
 20
113.7087474333
 30
0.0
 11
228.6897308065
 21
88.7087470607
 31
0.0
  0
LINE
  5
117
330
1F
100
AcDbEntity
  8
0
  6
HIDDEN
 62
     7
370
     0
100
AcDbLine
 10
228.6897308065
 20
138.7087478058
 30
0.0
 11
228.6897308065
 21
113.7087474333
 31
0.0
  0
LINE
  5
118
330
1F
100
AcDbEntity
  8
0
  6
HIDDEN
 62
     7
370
     0
100
AcDbLine
 10
184.7397337539
 20
113.7087474333
 30
0.0
 11
184.7397337539
 21
89.0087465511
 31
0.0
  0
LINE
  5
119
330
1F
100
AcDbEntity
  8
0
  6
HIDDEN
 62
     7
370
     0
100
AcDbLine
 10
184.7397337539
 20
138.4087483154
 30
0.0
 11
184.7397337539
 21
113.7087474333
 31
0.0
  0
LINE
  5
11A
330
1F
100
AcDbEntity
  8
0
  6
HIDDEN
 62
     7
370
     0
100
AcDbLine
 10
187.2397332324
 20
113.7087474333
 30
0.0
 11
187.2397332324
 21
88.7087470607
 31
0.0
  0
LINE
  5
11B
330
1F
100
AcDbEntity
  8
0
  6
HIDDEN
 62
     7
370
     0
100
AcDbLine
 10
187.2397332324
 20
138.7087478058
 30
0.0
 11
187.2397332324
 21
113.7087474333
 31
0.0
  0
LINE
  5
11C
330
1F
100
AcDbEntity
  8
0
  6
HIDDEN
 62
     7
370
     0
100
AcDbLine
 10
230.1897338463
 20
145.2087479399
 30
0.0
 11
230.1897338463
 21
151.2337456213
 31
0.0
  0
LINE
  5
11D
330
1F
100
AcDbEntity
  8
0
  6
HIDDEN
 62
     7
370
     0
100
AcDbLine
 10
230.1897338463
 20
76.1837492452
 30
0.0
 11
230.1897338463
 21
82.2087469266
 31
0.0
  0
ELLIPSE
  5
11E
330
1F
100
AcDbEntity
  8
0
  6
HIDDEN
 62
     7
370
     0
100
AcDbEllipse
 10
160.0113059348
 20
76.4087474333
 30
0.0
 11
0.0
 21
2.0
 31
0.0
210
0.0
220
0.0
230
1.0
 40
0.4142135624
 41
4.712388980384695
 42
6.283185307179586
  0
LINE
  5
11F
330
1F
100
AcDbEntity
  8
0
  6
HIDDEN
 62
     7
370
     0
100
AcDbLine
 10
160.01130588
 20
78.4087459312
 30
0.0
 11
159.8397329787
 21
78.4087459312
 31
0.0
  0
LINE
  5
120
330
1F
100
AcDbEntity
  8
0
  6
HIDDEN
 62
     7
370
     0
100
AcDbLine
 10
159.8397329787
 20
151.2087489234
 30
0.0
 11
160.01130588
 21
151.2087489234
 31
0.0
  0
ELLIPSE
  5
121
330
1F
100
AcDbEntity
  8
0
  6
HIDDEN
 62
     7
370
     0
100
AcDbEllipse
 10
160.0113059348
 20
153.2087474333
 30
0.0
 11
0.0
 21
2.0
 31
0.0
210
0.0
220
0.0
230
1.0
 40
0.4142135624
 41
3.141592653589793
 42
4.712388980384695
  0
LINE
  5
122
330
1F
100
AcDbEntity
  8
0
  6
HIDDEN
 62
     7
370
     0
100
AcDbLine
 10
160.8397329098
 20
67.5228330062
 30
0.0
 11
160.0553930609
 21
67.0752915309
 31
0.0
  0
LINE
  5
123
330
1F
100
AcDbEntity
  8
0
  6
HIDDEN
 62
     7
370
     0
100
AcDbLine
 10
160.1296020078
 20
160.4189107881
 30
0.0
 11
160.8397329098
 21
159.7087810503
 31
0.0
  0
LINE
  5
124
330
1F
100
AcDbEntity
  8
0
  6
HIDDEN
 62
     7
370
     0
100
AcDbLine
 10
175.689733295
 20
151.2087489234
 30
0.0
 11
186.5397325589
 21
151.2087489234
 31
0.0
  0
LINE
  5
125
330
1F
100
AcDbEntity
  8
0
  6
HIDDEN
 62
     7
370
     0
100
AcDbLine
 10
160.8397329098
 20
159.7087810503
 30
0.0
 11
165.0630623905
 21
159.7087810503
 31
0.0
  0
LINE
  5
126
330
1F
100
AcDbEntity
  8
0
  6
HIDDEN
 62
     7
370
     0
100
AcDbLine
 10
170.4164042009
 20
159.7087810503
 30
0.0
 11
175.689733295
 21
159.7087810503
 31
0.0
  0
LINE
  5
127
330
1F
100
AcDbEntity
  8
0
  6
HIDDEN
 62
     7
370
     0
100
AcDbLine
 10
160.8397329098
 20
159.7087810503
 30
0.0
 11
160.8397329098
 21
153.2087492512
 31
0.0
  0
LINE
  5
128
330
1F
100
AcDbEntity
  8
0
  6
HIDDEN
 62
     7
370
     0
100
AcDbLine
 10
175.689733295
 20
78.4087459312
 30
0.0
 11
160.01130588
 21
78.4087459312
 31
0.0
  0
LINE
  5
129
330
1F
100
AcDbEntity
  8
0
  6
HIDDEN
 62
     7
370
     0
100
AcDbLine
 10
164.9596855847
 20
67.5228330062
 30
0.0
 11
160.8397329098
 21
67.5228330062
 31
0.0
  0
LINE
  5
12A
330
1F
100
AcDbEntity
  8
0
  6
HIDDEN
 62
     7
370
     0
100
AcDbLine
 10
175.689733295
 20
67.5228330062
 30
0.0
 11
170.5197810067
 21
67.5228330062
 31
0.0
  0
LINE
  5
12B
330
1F
100
AcDbEntity
  8
0
  6
HIDDEN
 62
     7
370
     0
100
AcDbLine
 10
160.8397329098
 20
67.5228330062
 30
0.0
 11
160.8397329098
 21
76.4087456034
 31
0.0
  0
LINE
  5
12C
330
1F
100
AcDbEntity
  8
0
  6
HIDDEN
 62
     7
370
     0
100
AcDbLine
 10
160.01130588
 20
151.2087489234
 30
0.0
 11
175.689733295
 21
151.2087489234
 31
0.0
  0
LINE
  5
12D
330
1F
100
AcDbEntity
  8
0
  6
HIDDEN
 62
     7
370
     0
100
AcDbLine
 10
186.5397325589
 20
78.4087459312
 30
0.0
 11
175.689733295
 21
78.4087459312
 31
0.0
  0
LINE
  5
12E
330
1F
100
AcDbEntity
  8
0
  6
HIDDEN
 62
     7
370
     0
100
AcDbLine
 10
65.0397322012
 20
101.208747247
 30
0.0
 11
65.0397322012
 21
126.2087476195
 31
0.0
  0
LINE
  5
12F
330
1F
100
AcDbEntity
  8
0
  6
HIDDEN
 62
     7
370
     0
100
AcDbLine
 10
68.3243355586
 20
103.2087475748
 30
0.0
 11
68.3243355586
 21
124.2087472917
 31
0.0
  0
LINE
  5
130
330
1F
100
AcDbEntity
  8
0
  6
HIDDEN
 62
     7
370
     0
100
AcDbLine
 10
117.0397332741
 20
103.2087475748
 30
0.0
 11
117.0397332741
 21
124.2087472917
 31
0.0
  0
LINE
  5
131
330
1F
100
AcDbEntity
  8
0
  6
HIDDEN
 62
     7
370
     0
100
AcDbLine
 10
120.7951127423
 20
109.4587472023
 30
0.0
 11
120.7951127423
 21
117.9587476642
 31
0.0
  0
SPLINE
  5
132
330
1F
100
AcDbEntity
  8
0
  6
HIDDEN
 62
     7
370
     0
100
AcDbSpline
210
0.0
220
0.0
230
1.0
 70
    11
 71
     3
 72
    62
 73
    58
 74
     0
 42
0.000000001
 43
0.00000001
 40
0.0
 40
0.0
 40
0.0
 40
0.0
 40
0.0312500000000004
 40
0.0312500000000004
 40
0.0625000000000007
 40
0.0625000000000007
 40
0.1250000000000011
 40
0.1250000000000011
 40
0.1875000000000015
 40
0.1875000000000015
 40
0.2187500000000016
 40
0.2187500000000016
 40
0.2500000000000016
 40
0.2500000000000016
 40
0.2812500000000017
 40
0.2812500000000017
 40
0.3125000000000017
 40
0.3125000000000017
 40
0.3437500000000017
 40
0.3437500000000017
 40
0.3750000000000018
 40
0.3750000000000018
 40
0.4375000000000019
 40
0.4375000000000019
 40
0.4687500000000018
 40
0.4687500000000018
 40
0.5000000000000017
 40
0.5000000000000017
 40
0.5312500000000016
 40
0.5312500000000016
 40
0.5625000000000016
 40
0.5625000000000016
 40
0.5937500000000014
 40
0.5937500000000014
 40
0.6250000000000013
 40
0.6250000000000013
 40
0.6562500000000013
 40
0.6562500000000013
 40
0.6875000000000012
 40
0.6875000000000012
 40
0.7187500000000012
 40
0.7187500000000012
 40
0.7500000000000011
 40
0.7500000000000011
 40
0.781250000000001
 40
0.781250000000001
 40
0.812500000000001
 40
0.812500000000001
 40
0.8750000000000008
 40
0.8750000000000008
 40
0.9062500000000007
 40
0.9062500000000007
 40
0.9375000000000004
 40
0.9375000000000004
 40
0.9687500000000003
 40
0.9687500000000003
 40
1.0
 40
1.0
 40
1.0
 40
1.0
 10
170.8397330595483
 20
112.9991330611918
 30
0.0
 10
170.9809312835282
 20
112.9991330611918
 30
0.0
 10
171.1192091605419
 20
113.0151444711833
 30
0.0
 10
171.3903752317497
 20
113.0768740368062
 30
0.0
 10
171.5245785592093
 20
113.1234118002609
 30
0.0
 10
171.9036417389995
 20
113.3003881289959
 30
0.0
 10
172.1326486606933
 20
113.4708144227051
 30
0.0
 10
172.513679279696
 20
113.8767007001284
 30
0.0
 10
172.6693023566176
 20
114.1163711414644
 30
0.0
 10
172.8283728331863
 20
114.496847968781
 30
0.0
 10
172.8700999783297
 20
114.6301167040861
 30
0.0
 10
172.9253706794717
 20
114.8950979397149
 30
0.0
 10
172.9394506109615
 20
115.0270632544328
 30
0.0
 10
172.9400071772827
 20
115.289740564247
 30
0.0
 10
172.9260178998621
 20
115.4201204282046
 30
0.0
 10
172.8715363806264
 20
115.6664643589277
 30
0.0
 10
172.8306859224715
 20
115.7851186289106
 30
0.0
 10
172.7240719556121
 20
116.0079448956659
 30
0.0
 10
172.6593198133391
 20
116.1106300066504
 30
0.0
 10
172.5077612713865
 20
116.3007532595637
 30
0.0
 10
172.4204231482134
 20
116.388260050783
 30
0.0
 10
172.1346467272519
 20
116.6205275462317
 30
0.0
 10
171.9051103787861
 20
116.7409762888743
 30
0.0
 10
171.5287922427918
 20
116.8620728811759
 30
0.0
 10
171.3964593344311
 20
116.8931810146122
 30
0.0
 10
171.1224266754403
 20
116.9351282541678
 30
0.0
 10
170.9844015158182
 20
116.9455584887774
 30
0.0
 10
170.7063301345995
 20
116.9461143876443
 30
0.0
 10
170.5646171959291
 20
116.9358359288142
 30
0.0
 10
170.2921949402488
 20
116.895012744121
 30
0.0
 10
170.1603667957517
 20
116.8647194082463
 30
0.0
 10
169.9049679001471
 20
116.7834522179554
 30
0.0
 10
169.7848018969578
 20
116.7335043670971
 30
0.0
 10
169.5596304844015
 20
116.6151831558991
 30
0.0
 10
169.4534794230671
 20
116.5458900468165
 30
0.0
 10
169.2620321343649
 20
116.3910753982228
 30
0.0
 10
169.1760981204454
 20
116.3054894103521
 30
0.0
 10
169.0236858024054
 20
116.1158057382751
 30
0.0
 10
168.9575023121179
 20
116.0113844772045
 30
0.0
 10
168.8513206135668
 20
115.7913531373972
 30
0.0
 10
168.810340550351
 20
115.6747046512877
 30
0.0
 10
168.7542604095537
 20
115.4263032702985
 30
0.0
 10
168.7400362341124
 20
115.2971932814943
 30
0.0
 10
168.7394395502409
 20
115.0359382156622
 30
0.0
 10
168.7532081177393
 20
114.9011319249895
 30
0.0
 10
168.8080581846814
 20
114.634676810635
 30
0.0
 10
168.8485546979578
 20
114.5039428759364
 30
0.0
 10
169.008017169134
 20
114.1195274219329
 30
0.0
 10
169.1626855934482
 20
113.8803683900561
 30
0.0
 10
169.4509936247928
 20
113.5727090306122
 30
0.0
 10
169.5550184401407
 20
113.4800359138479
 30
0.0
 10
169.7794376983194
 20
113.3148930712083
 30
0.0
 10
169.9013684861799
 20
113.2418522025292
 30
0.0
 10
170.1538256376059
 20
113.1238302862568
 30
0.0
 10
170.2847121675231
 20
113.0781825806391
 30
0.0
 10
170.5566530852359
 20
113.0156621411719
 30
0.0
 10
170.6985348355684
 20
112.9991330611918
 30
0.0
 10
170.8397330595483
 20
112.9991330611918
 30
0.0
  0
SPLINE
  5
133
330
1F
100
AcDbEntity
  8
0
  6
HIDDEN
 62
     7
370
     0
100
AcDbSpline
210
0.0
220
0.0
230
1.0
 70
     8
 71
     3
 72
     8
 73
     4
 74
     0
 42
0.000000001
 43
0.00000001
 40
0.0
 40
0.0
 40
0.0
 40
0.0
 40
1.0
 40
1.0
 40
1.0
 40
1.0
 10
170.0165528833888
 20
123.4772694687435
 30
0.0
 10
170.22798027339
 20
123.484778978526
 30
0.0
 10
170.4304488199228
 20
123.5389025081607
 30
0.0
 10
170.6166594190601
 20
123.6236307953858
 30
0.0
  0
ELLIPSE
  5
134
330
1F
100
AcDbEntity
  8
0
  6
HIDDEN
 62
     7
370
     0
100
AcDbEllipse
 10
170.8397330595
 20
125.4392575446
 30
0.0
 11
-1.760776919379055
 21
2.232245799914466
 31
0.0
210
0.0
220
0.0
230
1.0
 40
0.5126701559
 41
5.395150933160687
 42
8.323890913123114
  0
SPLINE
  5
135
330
1F
100
AcDbEntity
  8
0
  6
HIDDEN
 62
     7
370
     0
100
AcDbSpline
210
0.0
220
0.0
230
1.0
 70
     8
 71
     3
 72
     8
 73
     4
 74
     0
 42
0.000000001
 43
0.00000001
 40
0.0
 40
0.0
 40
0.0
 40
0.0
 40
1.0
 40
1.0
 40
1.0
 40
1.0
 10
170.6166594190611
 20
127.5480095633206
 30
0.0
 10
170.4301350697762
 20
127.4256891474198
 30
0.0
 10
170.2275801712499
 20
127.2846039867547
 30
0.0
 10
170.0165528833881
 20
127.1081203509693
 30
0.0
  0
ELLIPSE
  5
136
330
1F
100
AcDbEntity
  8
0
  6
HIDDEN
 62
     7
370
     0
100
AcDbEllipse
 10
170.8397330595
 20
125.4392575446
 30
0.0
 11
1.760776919379055
 21
1.388886188042946
 31
0.0
210
0.0
220
0.0
230
1.0
 40
0.8239737799
 41
1.39725503332397
 42
3.733259041931049
  0
LWPOLYLINE
  5
137
330
1F
100
AcDbEntity
  8
0
  6
HIDDEN
 62
     7
370
     0
100
AcDbPolyline
 90
       20
 70
   128
 43
0.0
 10
170.8397331519
 20
125.1936842443
 10
171.5216019063
 20
125.3006065951
 10
172.1295795275
 20
125.6097852008
 10
172.5977833255
 20
126.087716663
 10
172.8754739149
 20
126.6826092021
 10
172.9325602634
 20
127.3299976008
 10
172.7628565265
 20
127.9597262607
 10
172.3847525997
 20
128.5035553144
 10
171.8392229511
 20
128.9025525318
 10
171.1853814183
 20
129.1134793998
 10
170.4940848856
 20
129.1134793998
 10
169.8402433528
 20
128.9025525318
 10
169.2947127728
 20
128.5035553144
 10
168.916608846
 20
127.9597262607
 10
168.7469060405
 20
127.3299976008
 10
168.803992389
 20
126.6826092021
 10
169.0816839097
 20
126.087716663
 10
169.5498867764
 20
125.6097852008
 10
170.1578643976
 20
125.3006065951
 10
170.8397331519
 20
125.1936842443
  0
LINE
  5
138
330
1F
100
AcDbEntity
  8
0
  6
HIDDEN
 62
     7
370
     0
100
AcDbLine
 10
165.8297327219
 20
149.1017917858
 30
0.0
 11
165.8297327219
 21
143.5587479488
 31
0.0
  0
LINE
  5
139
330
1F
100
AcDbEntity
  8
0
  6
HIDDEN
 62
     7
370
     0
100
AcDbLine
 10
169.6497329383
 20
149.1017917858
 30
0.0
 11
169.6497329383
 21
143.5587479488
 31
0.0
  0
SPLINE
  5
13A
330
1F
100
AcDbEntity
  8
0
  6
HIDDEN
 62
     7
370
     0
100
AcDbSpline
210
0.0
220
0.0
230
1.0
 70
     8
 71
     3
 72
    14
 73
    10
 74
     0
 42
0.000000001
 43
0.00000001
 40
0.0
 40
0.0
 40
0.0
 40
0.0
 40
0.25
 40
0.25
 40
0.5
 40
0.5
 40
0.75
 40
0.75
 40
1.0
 40
1.0
 40
1.0
 40
1.0
 10
168.8497330595481
 20
130.6840369901987
 30
0.0
 10
168.9241586116827
 20
130.7748944449803
 30
0.0
 10
169.0060368712961
 20
130.8641050281861
 30
0.0
 10
169.1790230174717
 20
131.039529346978
 30
0.0
 10
169.2696948373327
 20
131.1250643026047
 30
0.0
 10
169.4370583866771
 20
131.2859159155432
 30
0.0
 10
169.5135092116436
 20
131.3616480044397
 30
0.0
 10
169.619802296482
 20
131.4932390280151
 30
0.0
 10
169.6497330595483
 20
131.5502392029214
 30
0.0
 10
169.6497330595483
 20
131.5924364758735
 30
0.0
  0
LINE
  5
13B
330
1F
100
AcDbEntity
  8
0
  6
HIDDEN
 62
     7
370
     0
100
AcDbLine
 10
169.6497329383
 20
99.9114856811
 30
0.0
 11
169.6497329383
 21
95.7794449048
 31
0.0
  0
SPLINE
  5
13C
330
1F
100
AcDbEntity
  8
0
  6
HIDDEN
 62
     7
370
     0
100
AcDbSpline
210
0.0
220
0.0
230
1.0
 70
     8
 71
     3
 72
    14
 73
    10
 74
     0
 42
0.000000001
 43
0.00000001
 40
0.0
 40
0.0
 40
0.0
 40
0.0
 40
0.25
 40
0.25
 40
0.5
 40
0.5
 40
0.75
 40
0.75
 40
1.0
 40
1.0
 40
1.0
 40
1.0
 10
169.6497330595483
 20
127.460395277242
 30
0.0
 10
169.6497330595483
 20
127.4178948595874
 30
0.0
 10
169.6200196007315
 20
127.3906229531048
 30
0.0
 10
169.5139382338394
 20
127.3770701791376
 30
0.0
 10
169.4375713046748
 20
127.3915157362786
 30
0.0
 10
169.2688117601463
 20
127.4638919002984
 30
0.0
 10
169.1780149476745
 20
127.5209648354159
 30
0.0
 10
169.0064500074671
 20
127.6621227689328
 30
0.0
 10
168.9243887671726
 20
127.7466999840164
 30
0.0
 10
168.8497330595481
 20
127.8400731471456
 30
0.0
  0
LINE
  5
13D
330
1F
100
AcDbEntity
  8
0
  6
HIDDEN
 62
     7
370
     0
100
AcDbLine
 10
164.5065720065
 20
152.219826238
 30
0.0
 11
164.5065720065
 21
143.5587479488
 31
0.0
  0
LINE
  5
13E
330
1F
100
AcDbEntity
  8
0
  6
HIDDEN
 62
     7
370
     0
100
AcDbLine
 10
170.972894585
 20
99.4116001518
 30
0.0
 11
170.972894585
 21
94.7198065685
 31
0.0
  0
LINE
  5
13F
330
1F
100
AcDbEntity
  8
0
  6
HIDDEN
 62
     7
370
     0
100
AcDbLine
 10
170.972894585
 20
152.219826238
 30
0.0
 11
170.972894585
 21
143.5587479488
 31
0.0
  0
ARC
  5
140
330
1F
100
AcDbEntity
  8
0
  6
HIDDEN
 62
     7
370
     0
100
AcDbCircle
 10
171.0857858215
 20
126.2787351086
 30
0.0
 40
1.353195702694764
100
AcDbArc
 50
110.2844232439
 51
142.1998959299
  0
ARC
  5
141
330
1F
100
AcDbEntity
  8
0
  6
HIDDEN
 62
     7
370
     0
100
AcDbCircle
 10
170.143133591
 20
124.2617176635
 30
0.0
 40
0.7945949542257815
100
AcDbArc
 50
260.8336111241
 51
306.5791809456
  0
LWPOLYLINE
  5
142
330
1F
100
AcDbEntity
  8
0
  6
HIDDEN
 62
     7
370
     0
100
AcDbPolyline
 90
       20
 70
   128
 43
0.0
 10
160.8744959219
 20
126.4216991828
 10
161.0487845598
 20
125.9233438165
 10
161.3292723766
 20
125.6011909561
 10
161.685564263
 20
125.4901521595
 10
162.0790508448
 20
125.6022573204
 10
162.4670910521
 20
125.9253610612
 10
162.8076352051
 20
126.4244475157
 10
163.0637801124
 20
127.045434782
 10
163.2077677047
 20
127.7210292162
 10
163.2239955349
 20
128.3780186193
 10
163.1107048003
 20
128.945208037
 10
162.8801726608
 20
129.3611339049
 10
162.5573799817
 20
129.5807248668
 10
162.177307239
 20
129.5801846997
 10
161.7811407766
 20
129.3595711456
 10
161.4118113054
 20
128.9427921863
 10
161.1093414819
 20
128.3750113787
 10
160.9065087384
 20
127.7177565487
 10
160.8252932189
 20
127.0422515215
 10
160.8744959219
 20
126.4216991828
  0
LWPOLYLINE
  5
143
330
1F
100
AcDbEntity
  8
0
  6
HIDDEN
 62
     7
370
     0
100
AcDbPolyline
 90
       23
 70
   128
 43
0.0
 10
160.111464035
 20
126.0026831867
 10
160.3167720011
 20
125.3744763078
 10
160.6390394142
 20
124.9276705773
 10
161.0521578102
 20
124.6984637098
 10
161.5226587152
 20
124.7054234834
 10
162.0124249591
 20
124.9479883106
 10
162.4817789404
 20
125.4065044911
 10
162.8926961555
 20
126.0438280867
 10
163.2118864788
 20
126.8083256425
 10
163.4134908079
 20
127.6380623446
 10
163.4811770043
 20
128.4658171923
 10
163.4094609751
 20
129.2245321663
 10
163.2041527761
 20
129.8527381138
 10
162.881885363
 20
130.2995438443
 10
162.4687669671
 20
130.5287516431
 10
161.998266062
 20
130.5217909382
 10
161.5084998181
 20
130.279226111
 10
161.0391458368
 20
129.8207099305
 10
160.6282286218
 20
129.1833872662
 10
160.3090385313
 20
128.4188897104
 10
160.1074339694
 20
127.5891530083
 10
160.0397480058
 20
126.7613972293
 10
160.111464035
 20
126.0026831867
  0
LWPOLYLINE
  5
144
330
1F
100
AcDbEntity
  8
0
  6
HIDDEN
 62
     7
370
     0
100
AcDbPolyline
 90
       21
 70
   128
 43
0.0
 10
170.8397331519
 20
124.8676012026
 10
171.6122754721
 20
124.9825813563
 10
172.3091962619
 20
125.3162649216
 10
172.8622752114
 20
125.8359894843
 10
173.2173736079
 20
126.4908806176
 10
173.3397326304
 20
127.2168325947
 10
173.2173736079
 20
127.9427855031
 10
172.8622752114
 20
128.5976766364
 10
172.3091962619
 20
129.1174011992
 10
171.6122754721
 20
129.4510847644
 10
170.8397331519
 20
129.5660639869
 10
170.0671908317
 20
129.4510847644
 10
169.370270042
 20
129.1174011992
 10
168.8171901612
 20
128.5976766364
 10
168.4620917647
 20
127.9427855031
 10
168.3397327422
 20
127.2168325947
 10
168.4620917647
 20
126.4908806176
 10
168.8171901612
 20
125.8359894843
 10
169.370270042
 20
125.3162649216
 10
170.0671908317
 20
124.9825813563
 10
170.8397331519
 20
124.8676012026
  0
SPLINE
  5
145
330
1F
100
AcDbEntity
  8
0
  6
HIDDEN
 62
     7
370
     0
100
AcDbSpline
210
0.0
220
0.0
230
1.0
 70
     8
 71
     3
 72
    34
 73
    30
 74
     0
 42
0.000000001
 43
0.00000001
 40
0.0
 40
0.0
 40
0.0
 40
0.0
 40
0.062499999999999
 40
0.062499999999999
 40
0.124999999999998
 40
0.124999999999998
 40
0.1874999999999971
 40
0.1874999999999971
 40
0.2499999999999966
 40
0.2499999999999966
 40
0.3124999999999962
 40
0.3124999999999962
 40
0.3749999999999957
 40
0.3749999999999957
 40
0.4999999999999958
 40
0.4999999999999958
 40
0.6249999999999958
 40
0.6249999999999958
 40
0.6874999999999964
 40
0.6874999999999964
 40
0.7499999999999971
 40
0.7499999999999971
 40
0.8124999999999979
 40
0.8124999999999979
 40
0.8749999999999986
 40
0.8749999999999986
 40
0.9374999999999992
 40
0.9374999999999992
 40
1.0
 40
1.0
 40
1.0
 40
1.0
 10
170.9728945670102
 20
132.6976878212661
 30
0.0
 10
171.132286394798
 20
132.6898477253433
 30
0.0
 10
171.2882888782416
 20
132.6681890772529
 30
0.0
 10
171.5937983943188
 20
132.59834084976
 30
0.0
 10
171.744692729331
 20
132.5495151474318
 30
0.0
 10
172.0325920740219
 20
132.4265911940245
 30
0.0
 10
172.1685384769816
 20
132.3532836858902
 30
0.0
 10
172.4247210925736
 20
132.1832730621188
 30
0.0
 10
172.5459033803327
 20
132.0853992699174
 30
0.0
 10
172.7630494522055
 20
131.8728150944854
 30
0.0
 10
172.8600113251658
 20
131.7577691559558
 30
0.0
 10
173.0305737609914
 20
131.5099080358357
 30
0.0
 10
173.1038138142033
 20
131.3768745387701
 30
0.0
 10
173.2786942709521
 20
130.9673665226399
 30
0.0
 10
173.3397322319281
 20
130.6694058728649
 30
0.0
 10
173.3397338871511
 20
130.0779643169904
 30
0.0
 10
173.2786992775649
 20
129.7777907670138
 30
0.0
 10
173.103809510163
 20
129.3625594867461
 30
0.0
 10
173.0305658047386
 20
129.2272043684992
 30
0.0
 10
172.8600050890019
 20
128.9743050371126
 30
0.0
 10
172.7630413734084
 20
128.8565397595048
 30
0.0
 10
172.5458810448212
 20
128.6384094641362
 30
0.0
 10
172.4246997861344
 20
128.5377061389893
 30
0.0
 10
172.1685295591957
 20
128.362462446156
 30
0.0
 10
172.032586209533
 20
128.2867174770654
 30
0.0
 10
171.7446835063499
 20
128.1595491017631
 30
0.0
 10
171.5937933104331
 20
128.1089478294357
 30
0.0
 10
171.2882878067275
 20
128.0365187296878
 30
0.0
 10
171.132286408464
 20
128.0140329582909
 30
0.0
 10
170.9728945670102
 20
128.005894498396
 30
0.0
  0
SPLINE
  5
146
330
1F
100
AcDbEntity
  8
0
  6
HIDDEN
 62
     7
370
     0
100
AcDbSpline
210
0.0
220
0.0
230
1.0
 70
     8
 71
     3
 72
    10
 73
     6
 74
     0
 42
0.000000001
 43
0.00000001
 40
0.0
 40
0.0
 40
0.0
 40
0.0
 40
0.5
 40
0.5
 40
1.0
 40
1.0
 40
1.0
 40
1.0
 10
170.9728945670102
 20
128.005894498396
 30
0.0
 10
170.7501675401367
 20
127.8624059981022
 30
0.0
 10
170.5284816529116
 20
127.7476852523694
 30
0.0
 10
170.0872608150596
 20
127.5779248230115
 30
0.0
 10
169.8677021676608
 20
127.5225048286241
 30
0.0
 10
169.6497330595486
 20
127.5060094992545
 30
0.0
  0
SPLINE
  5
147
330
1F
100
AcDbEntity
  8
0
  6
HIDDEN
 62
     7
370
     0
100
AcDbSpline
210
0.0
220
0.0
230
1.0
 70
     8
 71
     3
 72
    10
 73
     6
 74
     0
 42
0.000000001
 43
0.00000001
 40
0.0
 40
0.0
 40
0.0
 40
0.0
 40
0.5
 40
0.5
 40
1.0
 40
1.0
 40
1.0
 40
1.0
 10
169.6497330595486
 20
131.638050697886
 30
0.0
 10
169.8666238920693
 20
131.8750896373346
 30
0.0
 10
170.0857765287282
 20
132.077259872328
 30
0.0
 10
170.5272610289971
 20
132.4280119438467
 30
0.0
 10
170.7504634942705
 20
132.5766880362436
 30
0.0
 10
170.9728945670102
 20
132.6976878212661
 30
0.0
  0
SPLINE
  5
148
330
1F
100
AcDbEntity
  8
0
  6
HIDDEN
 62
     7
370
     0
100
AcDbSpline
210
0.0
220
0.0
230
1.0
 70
     8
 71
     3
 72
    16
 73
    12
 74
     0
 42
0.000000001
 43
0.00000001
 40
0.0
 40
0.0
 40
0.0
 40
0.0
 40
0.2499999999999994
 40
0.2499999999999994
 40
0.4999999999999989
 40
0.4999999999999989
 40
0.7499999999999983
 40
0.7499999999999983
 40
0.8749999999999991
 40
0.8749999999999991
 40
1.0
 40
1.0
 40
1.0
 40
1.0
 10
168.8497330595483
 20
127.8400731471453
 30
0.0
 10
168.6843189530681
 20
128.0469593831707
 30
0.0
 10
168.5581216220925
 20
128.2728280809797
 30
0.0
 10
168.3837153237616
 20
128.7616973265924
 30
0.0
 10
168.3398852846648
 20
129.013464379937
 30
0.0
 10
168.3395816116948
 20
129.5252437045192
 30
0.0
 10
168.3834384717551
 20
129.7762984136019
 30
0.0
 10
168.5133602310222
 20
130.1371469817439
 30
0.0
 10
168.5674750424302
 20
130.2544197500925
 30
0.0
 10
168.6941520325736
 20
130.4769087014313
 30
0.0
 10
168.7670257529345
 20
130.5830693096747
 30
0.0
 10
168.8497330595483
 20
130.684036990199
 30
0.0
  0
LWPOLYLINE
  5
149
330
1F
100
AcDbEntity
  8
0
  6
HIDDEN
 62
     7
370
     0
100
AcDbPolyline
 90
       19
 70
   128
 43
0.0
 10
162.1636014303
 20
97.7923608141
 10
162.5181158876
 20
97.9545227007
 10
162.7812461799
 20
98.3397456573
 10
162.9212546965
 20
98.9015660004
 10
162.9212546965
 20
99.572218837
 10
162.7812461799
 20
100.2708141448
 10
162.5181158876
 20
100.9130914451
 10
162.1636014303
 20
101.421582395
 10
161.7604621558
 20
101.7349556775
 10
161.3573233469
 20
101.8154135661
 10
161.0028088896
 20
101.6532516794
 10
160.7396785973
 20
101.2680287228
 10
160.5996700807
 20
100.706209311
 10
160.5996700807
 20
100.0355564745
 10
160.7396785973
 20
99.3369602354
 10
161.0028088896
 20
98.694682935
 10
161.3573233469
 20
98.1861919852
 10
161.7604621558
 20
97.8728196339
 10
162.1636014303
 20
97.7923608141
  0
LWPOLYLINE
  5
14A
330
1F
100
AcDbEntity
  8
0
  6
HIDDEN
 62
     7
370
     0
100
AcDbPolyline
 90
       21
 70
   128
 43
0.0
 10
162.4613564333
 20
97.4071769731
 10
162.8537417261
 20
97.5718497054
 10
163.1597105285
 20
97.9599429981
 10
163.3493124379
 20
98.5334691347
 10
163.4039871266
 20
99.2362861277
 10
163.3183836809
 20
99.9995971785
 10
163.1008807442
 20
100.748685071
 10
162.7727692819
 20
101.4102221222
 10
162.36616735
 20
101.9194544049
 10
161.92087595
 20
102.2265338094
 10
161.4804828411
 20
102.3014009686
 10
161.0880975483
 20
102.1367282362
 10
160.7821287459
 20
101.7486340122
 10
160.5925268365
 20
101.1751078756
 10
160.5378521478
 20
100.4722918139
 10
160.6234555936
 20
99.7089798318
 10
160.8409585303
 20
98.9598928706
 10
161.1690699926
 20
98.2983558194
 10
161.5756719245
 20
97.7891235368
 10
162.0209633245
 20
97.4820441322
 10
162.4613564333
 20
97.4071769731
  0
LWPOLYLINE
  5
14B
330
1F
100
AcDbEntity
  8
0
  6
HIDDEN
 62
     7
370
     0
100
AcDbPolyline
 90
       21
 70
   128
 43
0.0
 10
165.7322949602
 20
98.1905179785
 10
166.1246807186
 20
98.3551907109
 10
166.4306499867
 20
98.7432849349
 10
166.6202514304
 20
99.3168101402
 10
166.6749265848
 20
100.0196271332
 10
166.5893222077
 20
100.782938184
 10
166.371819271
 20
101.5320260765
 10
166.0437078087
 20
102.1935631277
 10
165.6371063425
 20
102.7027954103
 10
165.1918149425
 20
103.0098748149
 10
164.751421368
 20
103.084741974
 10
164.3590360752
 20
102.9200692417
 10
164.0530677384
 20
102.5319750176
 10
163.863465829
 20
101.958448881
 10
163.8087911403
 20
101.2556328194
 10
163.8943945861
 20
100.4923217685
 10
164.1118975228
 20
99.7432338761
 10
164.4400089851
 20
99.0816968249
 10
164.846610917
 20
98.5724645422
 10
165.291902317
 20
98.2653851376
 10
165.7322949602
 20
98.1905179785
  0
LINE
  5
14C
330
1F
100
AcDbEntity
  8
0
  6
HIDDEN
 62
     7
370
     0
100
AcDbLine
 10
162.2926175466
 20
100.5829618068
 30
0.0
 11
161.4773084281
 21
101.2167277501
 31
0.0
  0
LINE
  5
14D
330
1F
100
AcDbEntity
  8
0
  6
HIDDEN
 62
     7
370
     0
100
AcDbLine
 10
160.945153503
 20
100.4376531334
 30
0.0
 11
161.4773084281
 21
101.2167277501
 31
0.0
  0
LINE
  5
14E
330
1F
100
AcDbEntity
  8
0
  6
HIDDEN
 62
     7
370
     0
100
AcDbLine
 10
161.2283072306
 20
99.0248125733
 30
0.0
 11
160.945153503
 21
100.4376531334
 31
0.0
  0
LINE
  5
14F
330
1F
100
AcDbEntity
  8
0
  6
HIDDEN
 62
     7
370
     0
100
AcDbLine
 10
161.2283072306
 20
99.0248125733
 30
0.0
 11
162.0436163491
 21
98.39104663
 31
0.0
  0
LINE
  5
150
330
1F
100
AcDbEntity
  8
0
  6
HIDDEN
 62
     7
370
     0
100
AcDbLine
 10
162.5757712743
 20
99.1701212467
 30
0.0
 11
162.0436163491
 21
98.39104663
 31
0.0
  0
LINE
  5
151
330
1F
100
AcDbEntity
  8
0
  6
HIDDEN
 62
     7
370
     0
100
AcDbLine
 10
162.5757712743
 20
99.1701212467
 30
0.0
 11
162.2926175466
 21
100.5829618068
 31
0.0
  0
LINE
  5
152
330
1F
100
AcDbEntity
  8
0
  6
HIDDEN
 62
     7
370
     0
100
AcDbLine
 10
163.9309215231
 20
100.9753112437
 30
0.0
 11
162.2926175466
 21
100.5829618068
 31
0.0
  0
LINE
  5
153
330
1F
100
AcDbEntity
  8
0
  6
HIDDEN
 62
     7
370
     0
100
AcDbLine
 10
164.2140752508
 20
99.5624706836
 30
0.0
 11
162.5757712743
 21
99.1701212467
 31
0.0
  0
LINE
  5
154
330
1F
100
AcDbEntity
  8
0
  6
HIDDEN
 62
     7
370
     0
100
AcDbLine
 10
162.5834574795
 20
100.8300025703
 30
0.0
 11
163.1156128703
 21
101.609077187
 31
0.0
  0
LINE
  5
155
330
1F
100
AcDbEntity
  8
0
  6
HIDDEN
 62
     7
370
     0
100
AcDbLine
 10
162.5834574795
 20
100.8300025703
 30
0.0
 11
160.945153503
 21
100.4376531334
 31
0.0
  0
LINE
  5
156
330
1F
100
AcDbEntity
  8
0
  6
HIDDEN
 62
     7
370
     0
100
AcDbLine
 10
163.1156128703
 20
101.609077187
 30
0.0
 11
161.4773084281
 21
101.2167277501
 31
0.0
  0
LINE
  5
157
330
1F
100
AcDbEntity
  8
0
  6
HIDDEN
 62
     7
370
     0
100
AcDbLine
 10
162.8666112071
 20
99.4171620102
 30
0.0
 11
163.6819203256
 21
98.7833960669
 31
0.0
  0
LINE
  5
158
330
1F
100
AcDbEntity
  8
0
  6
HIDDEN
 62
     7
370
     0
100
AcDbLine
 10
162.8666112071
 20
99.4171620102
 30
0.0
 11
162.5834574795
 21
100.8300025703
 31
0.0
  0
LINE
  5
159
330
1F
100
AcDbEntity
  8
0
  6
HIDDEN
 62
     7
370
     0
100
AcDbLine
 10
164.2140752508
 20
99.5624706836
 30
0.0
 11
163.6819203256
 21
98.7833960669
 31
0.0
  0
LINE
  5
15A
330
1F
100
AcDbEntity
  8
0
  6
HIDDEN
 62
     7
370
     0
100
AcDbLine
 10
164.2140752508
 20
99.5624706836
 30
0.0
 11
163.9309215231
 21
100.9753112437
 31
0.0
  0
LINE
  5
15B
330
1F
100
AcDbEntity
  8
0
  6
HIDDEN
 62
     7
370
     0
100
AcDbLine
 10
163.9309215231
 20
100.9753112437
 30
0.0
 11
163.1156128703
 21
101.609077187
 31
0.0
  0
LINE
  5
15C
330
1F
100
AcDbEntity
  8
0
  6
HIDDEN
 62
     7
370
     0
100
AcDbLine
 10
162.8666112071
 20
99.4171620102
 30
0.0
 11
161.2283072306
 21
99.0248125733
 31
0.0
  0
LINE
  5
15D
330
1F
100
AcDbEntity
  8
0
  6
HIDDEN
 62
     7
370
     0
100
AcDbLine
 10
163.6819203256
 20
98.7833960669
 30
0.0
 11
162.0436163491
 21
98.39104663
 31
0.0
  0
LWPOLYLINE
  5
15E
330
1F
100
AcDbEntity
  8
0
  6
HIDDEN
 62
     7
370
     0
100
AcDbPolyline
 90
       18
 70
   128
 43
0.0
 10
166.19952832
 20
99.0717828961
 10
166.517077653
 20
99.2242003547
 10
166.7453746183
 20
99.5873798372
 10
166.8535868509
 20
100.1122732402
 10
166.8271000369
 20
100.7279892208
 10
166.6694904549
 20
101.35137278
 10
166.4020444138
 20
101.8982323573
 10
166.0608823283
 20
102.2947112785
 10
165.6920795201
 20
102.4872631521
 10
165.3454449831
 20
102.449882658
 10
165.0677944405
 20
102.1876175643
 10
164.8966248019
 20
101.7358897941
 10
164.8550552188
 20
101.1557065637
 10
164.948697841
 20
100.5254246981
 10
165.1649071707
 20
99.9301680119
 10
165.4744825198
 20
99.4503292011
 10
165.8356140239
 20
99.1507124843
 10
166.19952832
 20
99.0717828961
  0
LWPOLYLINE
  5
15F
330
1F
100
AcDbEntity
  8
0
  6
HIDDEN
 62
     7
370
     0
100
AcDbPolyline
 90
       21
 70
   128
 43
0.0
 10
164.751421368
 20
128.7478645088
 10
165.1918149425
 20
129.1032208817
 10
165.6371063425
 20
129.2311520071
 10
166.0437078087
 20
129.1191343905
 10
166.371819271
 20
128.7781315611
 10
166.5893222077
 20
128.2415258454
 10
166.6749265848
 20
127.5618419738
 10
166.6202514304
 20
126.8056126998
 10
166.4306499867
 20
126.0468623356
 10
166.1246807186
 20
125.3598647879
 10
165.7322949602
 20
124.8118662031
 10
165.291902317
 20
124.4565088989
 10
164.846610917
 20
124.3285777734
 10
164.4400089851
 20
124.4405963214
 10
164.1118975228
 20
124.7815982194
 10
163.8943945861
 20
125.3182048665
 10
163.8087911403
 20
125.9978887381
 10
163.863465829
 20
126.754118012
 10
164.0530677384
 20
127.5128674449
 10
164.3590360752
 20
128.1998649926
 10
164.751421368
 20
128.7478645088
  0
LWPOLYLINE
  5
160
330
1F
100
AcDbEntity
  8
0
  6
HIDDEN
 62
     7
370
     0
100
AcDbPolyline
 90
       18
 70
   128
 43
0.0
 10
165.5129172711
 20
128.0103333981
 10
165.8768315671
 20
128.2869157137
 10
166.2379630713
 20
128.3400923701
 10
166.5475384204
 20
128.1626800762
 10
166.7637477501
 20
127.7786408307
 10
166.8573903723
 20
127.2398399876
 10
166.8158198579
 20
126.6190464364
 10
166.6446511505
 20
126.0001006292
 10
166.3669996767
 20
125.4665962176
 10
166.020366071
 20
125.0905849726
 10
165.6515632628
 20
124.9228500517
 10
165.3104011773
 20
124.9860440136
 10
165.0429551361
 20
125.2716322185
 10
164.8853455542
 20
125.7410448731
 10
164.8588578089
 20
126.3308859186
 10
164.9670700414
 20
126.9614918844
 10
165.1953679381
 20
127.5476979779
 10
165.5129172711
 20
128.0103333981
  0
LWPOLYLINE
  5
161
330
1F
100
AcDbEntity
  8
0
  6
HIDDEN
 62
     7
370
     0
100
AcDbPolyline
 90
       21
 70
   128
 43
0.0
 10
161.4804828411
 20
129.5312045829
 10
161.92087595
 20
129.8865618871
 10
162.36616735
 20
130.0144939439
 10
162.7727692819
 20
129.9024744646
 10
163.1008807442
 20
129.5614725666
 10
163.3183836809
 20
129.0248668508
 10
163.4039871266
 20
128.3451829792
 10
163.3493124379
 20
127.5889537053
 10
163.1597105285
 20
126.8302042724
 10
162.8537417261
 20
126.1432057933
 10
162.4613564333
 20
125.5952072085
 10
162.0209633245
 20
125.2398499043
 10
161.5756719245
 20
125.1119187789
 10
161.1690699926
 20
125.2239373268
 10
160.8409585303
 20
125.5649392249
 10
160.6234555936
 20
126.1015458719
 10
160.5378521478
 20
126.7812297435
 10
160.5925268365
 20
127.5374590175
 10
160.7821287459
 20
128.2962084503
 10
161.0880975483
 20
128.9832069294
 10
161.4804828411
 20
129.5312045829
  0
LINE
  5
162
330
1F
100
AcDbEntity
  8
0
  6
HIDDEN
 62
     7
370
     0
100
AcDbLine
 10
162.5834574795
 20
127.0585403533
 30
0.0
 11
163.1156128703
 21
128.3574829565
 31
0.0
  0
LINE
  5
163
330
1F
100
AcDbEntity
  8
0
  6
HIDDEN
 62
     7
370
     0
100
AcDbLine
 10
160.945153503
 20
127.4508897902
 30
0.0
 11
161.4773084281
 21
128.7498323934
 31
0.0
  0
LWPOLYLINE
  5
164
330
1F
100
AcDbEntity
  8
0
  6
HIDDEN
 62
     7
370
     0
100
AcDbPolyline
 90
       19
 70
   128
 43
0.0
 10
161.3573233469
 20
129.2313028814
 10
161.7604621558
 20
129.5446752326
 10
162.1636014303
 20
129.6251340525
 10
162.5181158876
 20
129.4629721658
 10
162.7812461799
 20
129.0777492092
 10
162.9212546965
 20
128.5159288661
 10
162.9212546965
 20
127.8452760295
 10
162.7812461799
 20
127.1466807218
 10
162.5181158876
 20
126.5044034214
 10
162.1636014303
 20
125.9959124716
 10
161.7604621558
 20
125.682539189
 10
161.3573233469
 20
125.6020813005
 10
161.0028088896
 20
125.7642431871
 10
160.7396785973
 20
126.1494661437
 10
160.5996700807
 20
126.7112855555
 10
160.5996700807
 20
127.3819383921
 10
160.7396785973
 20
128.0805346312
 10
161.0028088896
 20
128.7228119315
 10
161.3573233469
 20
129.2313028814
  0
LINE
  5
165
330
1F
100
AcDbEntity
  8
0
  6
HIDDEN
 62
     7
370
     0
100
AcDbLine
 10
160.945153503
 20
127.4508897902
 30
0.0
 11
161.2283072306
 21
126.3146650733
 31
0.0
  0
LINE
  5
166
330
1F
100
AcDbEntity
  8
0
  6
HIDDEN
 62
     7
370
     0
100
AcDbLine
 10
162.5834574795
 20
127.0585403533
 30
0.0
 11
162.8666112071
 21
125.9223156364
 31
0.0
  0
LINE
  5
167
330
1F
100
AcDbEntity
  8
0
  6
HIDDEN
 62
     7
370
     0
100
AcDbLine
 10
162.5834574795
 20
127.0585403533
 30
0.0
 11
160.945153503
 21
127.4508897902
 31
0.0
  0
LINE
  5
168
330
1F
100
AcDbEntity
  8
0
  6
HIDDEN
 62
     7
370
     0
100
AcDbLine
 10
162.2926175466
 20
128.9125502796
 30
0.0
 11
161.4773084281
 21
128.7498323934
 31
0.0
  0
LINE
  5
169
330
1F
100
AcDbEntity
  8
0
  6
HIDDEN
 62
     7
370
     0
100
AcDbLine
 10
163.9309215231
 20
128.5202008428
 30
0.0
 11
163.1156128703
 21
128.3574829565
 31
0.0
  0
LINE
  5
16A
330
1F
100
AcDbEntity
  8
0
  6
HIDDEN
 62
     7
370
     0
100
AcDbLine
 10
163.1156128703
 20
128.3574829565
 30
0.0
 11
161.4773084281
 21
128.7498323934
 31
0.0
  0
LINE
  5
16B
330
1F
100
AcDbEntity
  8
0
  6
HIDDEN
 62
     7
370
     0
100
AcDbLine
 10
163.6819203256
 20
126.0850335227
 30
0.0
 11
162.0436163491
 21
126.4773829596
 31
0.0
  0
LINE
  5
16C
330
1F
100
AcDbEntity
  8
0
  6
HIDDEN
 62
     7
370
     0
100
AcDbLine
 10
162.8666112071
 20
125.9223156364
 30
0.0
 11
161.2283072306
 21
126.3146650733
 31
0.0
  0
LINE
  5
16D
330
1F
100
AcDbEntity
  8
0
  6
HIDDEN
 62
     7
370
     0
100
AcDbLine
 10
161.2283072306
 20
126.3146650733
 30
0.0
 11
162.0436163491
 21
126.4773829596
 31
0.0
  0
LINE
  5
16E
330
1F
100
AcDbEntity
  8
0
  6
HIDDEN
 62
     7
370
     0
100
AcDbLine
 10
162.8666112071
 20
125.9223156364
 30
0.0
 11
163.6819203256
 21
126.0850335227
 31
0.0
  0
LINE
  5
16F
330
1F
100
AcDbEntity
  8
0
  6
HIDDEN
 62
     7
370
     0
100
AcDbLine
 10
164.2140752508
 20
127.3839761259
 30
0.0
 11
162.5757712743
 21
127.7763255627
 31
0.0
  0
LINE
  5
170
330
1F
100
AcDbEntity
  8
0
  6
HIDDEN
 62
     7
370
     0
100
AcDbLine
 10
163.9309215231
 20
128.5202008428
 30
0.0
 11
162.2926175466
 21
128.9125502796
 31
0.0
  0
LINE
  5
171
330
1F
100
AcDbEntity
  8
0
  6
HIDDEN
 62
     7
370
     0
100
AcDbLine
 10
162.2926175466
 20
128.9125502796
 30
0.0
 11
162.5757712743
 21
127.7763255627
 31
0.0
  0
LINE
  5
172
330
1F
100
AcDbEntity
  8
0
  6
HIDDEN
 62
     7
370
     0
100
AcDbLine
 10
163.9309215231
 20
128.5202008428
 30
0.0
 11
164.2140752508
 21
127.3839761259
 31
0.0
  0
LINE
  5
173
330
1F
100
AcDbEntity
  8
0
  6
HIDDEN
 62
     7
370
     0
100
AcDbLine
 10
162.5757712743
 20
127.7763255627
 30
0.0
 11
162.0436163491
 21
126.4773829596
 31
0.0
  0
LINE
  5
174
330
1F
100
AcDbEntity
  8
0
  6
HIDDEN
 62
     7
370
     0
100
AcDbLine
 10
164.2140752508
 20
127.3839761259
 30
0.0
 11
163.6819203256
 21
126.0850335227
 31
0.0
  0
LWPOLYLINE
  5
175
330
1F
100
AcDbEntity
  8
0
  6
HIDDEN
 62
     7
370
     0
100
AcDbPolyline
 90
       19
 70
   128
 43
0.0
 10
171.5170645027
 20
128.8629508333
 10
170.8397331519
 20
128.9751798601
 10
170.1624018012
 20
128.8629508333
 10
169.5667660667
 20
128.539799595
 10
169.1246691032
 20
128.0447038577
 10
168.8894347159
 20
127.4373781623
 10
168.8894347159
 20
126.7910756858
 10
169.1246691032
 20
126.1837509216
 10
169.5667660667
 20
125.688654253
 10
170.1624018012
 20
125.3655030148
 10
170.8397331519
 20
125.2532739879
 10
171.5170645027
 20
125.3655030148
 10
172.1127002372
 20
125.688654253
 10
172.5547972007
 20
126.1837509216
 10
172.7900306566
 20
126.7910756858
 10
172.7900306566
 20
127.4373781623
 10
172.5547972007
 20
128.0447038577
 10
172.1127002372
 20
128.539799595
 10
171.5170645027
 20
128.8629508333
  0
LWPOLYLINE
  5
176
330
1F
100
AcDbEntity
  8
0
  6
HIDDEN
 62
     7
370
     0
100
AcDbPolyline
 90
       21
 70
   128
 43
0.0
 10
171.6947832017
 20
129.4243893342
 10
170.9269822447
 20
129.5646334754
 10
170.1506401284
 20
129.4750588702
 10
169.4417509122
 20
129.1644339205
 10
168.8697065099
 20
128.6631644459
 10
168.4905017598
 20
128.0203171761
 10
168.3412563859
 20
127.2988197149
 10
168.436579114
 20
126.5692970471
 10
168.7671390234
 20
125.9031592624
 10
169.3005791737
 20
125.3656129108
 10
169.9846831022
 20
125.0092777179
 10
170.7524840592
 20
124.8690326454
 10
171.5288261755
 20
124.9586063193
 10
172.2377153917
 20
125.2692322002
 10
172.809759794
 20
125.7705016749
 10
173.1889645441
 20
126.4133489446
 10
173.3382108493
 20
127.1348464058
 10
173.2428881212
 20
127.8643690736
 10
172.9123263492
 20
128.5305068584
 10
172.3788871302
 20
129.0680522786
 10
171.6947832017
 20
129.4243893342
  0
LWPOLYLINE
  5
177
330
1F
100
AcDbEntity
  8
0
  6
HIDDEN
 62
     7
370
     0
100
AcDbPolyline
 90
       21
 70
   128
 43
0.0
 10
171.6947832017
 20
130.0229242758
 10
170.9269822447
 20
130.1631684171
 10
170.1506401284
 20
130.0735938118
 10
169.4417509122
 20
129.7629697935
 10
168.8697065099
 20
129.2616993876
 10
168.4905017598
 20
128.6188530491
 10
168.3412563859
 20
127.8973555879
 10
168.436579114
 20
127.1678319888
 10
168.7671390234
 20
126.5016942041
 10
169.3005791737
 20
125.9641487838
 10
169.9846831022
 20
125.6078126596
 10
170.7524840592
 20
125.467567587
 10
171.5288261755
 20
125.5571421923
 10
172.2377153917
 20
125.8677671419
 10
172.809759794
 20
126.3690366165
 10
173.1889645441
 20
127.0118838863
 10
173.3382108493
 20
127.7333813475
 10
173.2428881212
 20
128.4629040153
 10
172.9123263492
 20
129.1290418
 10
172.3788871302
 20
129.6665872203
 10
171.6947832017
 20
130.0229242758
  0
LWPOLYLINE
  5
178
330
1F
100
AcDbEntity
  8
0
  6
HIDDEN
 62
     7
370
     0
100
AcDbPolyline
 90
       19
 70
   128
 43
0.0
 10
171.5237737505
 20
130.7613829838
 10
170.8397331519
 20
130.8747230784
 10
170.1556925534
 20
130.7613829838
 10
169.5541578217
 20
130.4350307898
 10
169.1076827107
 20
129.9350297765
 10
168.8701172231
 20
129.3216895999
 10
168.8701172231
 20
128.6689861433
 10
169.1076827107
 20
128.0556450353
 10
169.5541578217
 20
127.5556449534
 10
170.1556925534
 20
127.2292936908
 10
170.8397331519
 20
127.1159526648
 10
171.5237737505
 20
127.2292936908
 10
172.1253084822
 20
127.5556449534
 10
172.5717845245
 20
128.0556450353
 10
172.8093481494
 20
128.6689861433
 10
172.8093481494
 20
129.3216895999
 10
172.5717845245
 20
129.9350297765
 10
172.1253084822
 20
130.4350307898
 10
171.5237737505
 20
130.7613829838
  0
LWPOLYLINE
  5
179
330
1F
100
AcDbEntity
  8
0
  6
HIDDEN
 62
     7
370
     0
100
AcDbPolyline
 90
       19
 70
   128
 43
0.0
 10
171.5237737505
 20
129.343606414
 10
170.8397331519
 20
129.4569465087
 10
170.1556925534
 20
129.343606414
 10
169.5541578217
 20
129.0172542201
 10
169.1076827107
 20
128.5172541381
 10
168.8701172231
 20
127.9039139615
 10
168.8701172231
 20
127.2512095736
 10
169.1076827107
 20
126.6378693969
 10
169.5541578217
 20
126.137869315
 10
170.1556925534
 20
125.811517121
 10
170.8397331519
 20
125.6981770264
 10
171.5237737505
 20
125.811517121
 10
172.1253084822
 20
126.137869315
 10
172.5717845245
 20
126.6378693969
 10
172.8093481494
 20
127.2512095736
 10
172.8093481494
 20
127.9039139615
 10
172.5717845245
 20
128.5172541381
 10
172.1253084822
 20
129.0172542201
 10
171.5237737505
 20
129.343606414
  0
LWPOLYLINE
  5
17A
330
1F
100
AcDbEntity
  8
0
  6
HIDDEN
 62
     7
370
     0
100
AcDbPolyline
 90
       21
 70
   128
 43
0.0
 10
171.6947832017
 20
130.258917691
 10
170.9269822447
 20
130.3991618322
 10
170.1506401284
 20
130.3095890896
 10
169.4417509122
 20
129.9989632086
 10
168.8697065099
 20
129.497693734
 10
168.4905017598
 20
128.8548464642
 10
168.3412563859
 20
128.133349003
 10
168.436579114
 20
127.4038263352
 10
168.7671390234
 20
126.7376885505
 10
169.3005791737
 20
126.2001421989
 10
169.9846831022
 20
125.843807006
 10
170.7524840592
 20
125.7035619335
 10
171.5288261755
 20
125.7931356074
 10
172.2377153917
 20
126.103760557
 10
172.809759794
 20
126.605030963
 10
173.1889645441
 20
127.2478773014
 10
173.3382108493
 20
127.9693747626
 10
173.2428881212
 20
128.6988983618
 10
172.9123263492
 20
129.3650361465
 10
172.3788871302
 20
129.902582498
 10
171.6947832017
 20
130.258917691
  0
LWPOLYLINE
  5
17B
330
1F
100
AcDbEntity
  8
0
  6
HIDDEN
 62
     7
370
     0
100
AcDbPolyline
 90
       20
 70
   128
 43
0.0
 10
171.6263794212
 20
129.9077941792
 10
170.8819863258
 20
130.0377714203
 10
170.1330139173
 20
129.9335769133
 10
169.4606260268
 20
129.6065057383
 10
168.9376856072
 20
129.0919975133
 10
168.6208608432
 20
128.4458086581
 10
168.5444858728
 20
127.7379634546
 10
168.7168373598
 20
127.0451674925
 10
169.1192366986
 20
126.4424974786
 10
169.7080784349
 20
125.9952596144
 10
170.4195530026
 20
125.7519217895
 10
171.1765599309
 20
125.7388506772
 10
171.8970673962
 20
125.957465613
 10
172.5029951765
 20
126.3840737508
 10
172.9286840989
 20
126.9724470319
 10
173.128002031
 20
127.6588252501
 10
173.0793497397
 20
128.3688292594
 10
172.7880003734
 20
129.0255187766
 10
172.28552763
 20
129.5577305125
 10
171.6263794212
 20
129.9077941792
  0
LWPOLYLINE
  5
17C
330
1F
100
AcDbEntity
  8
0
  6
HIDDEN
 62
     7
370
     0
100
AcDbPolyline
 90
       21
 70
   128
 43
0.0
 10
171.6947832017
 20
130.4949111061
 10
170.9269822447
 20
130.6351571099
 10
170.1506401284
 20
130.5455825047
 10
169.4417509122
 20
130.2349566238
 10
168.8697065099
 20
129.7336871491
 10
168.4905017598
 20
129.0908408107
 10
168.3412563859
 20
128.3693433495
 10
168.436579114
 20
127.6398197503
 10
168.7671390234
 20
126.9736819656
 10
169.3005791737
 20
126.4361365454
 10
169.9846831022
 20
126.0798004211
 10
170.7524840592
 20
125.9395553486
 10
171.5288261755
 20
126.0291299538
 10
172.2377153917
 20
126.3397549035
 10
172.809759794
 20
126.8410243781
 10
173.1889645441
 20
127.4838716479
 10
173.3382108493
 20
128.2053691091
 10
173.2428881212
 20
128.9348917769
 10
172.9123263492
 20
129.6010295616
 10
172.3788871302
 20
130.1385759132
 10
171.6947832017
 20
130.4949111061
  0
LWPOLYLINE
  5
17D
330
1F
100
AcDbEntity
  8
0
  6
HIDDEN
 62
     7
370
     0
100
AcDbPolyline
 90
       20
 70
   128
 43
0.0
 10
171.6263794212
 20
130.1437875943
 10
170.8819863258
 20
130.2737648354
 10
170.1330139173
 20
130.1695721911
 10
169.4606260268
 20
129.8424991535
 10
168.9376856072
 20
129.3279918598
 10
168.6208608432
 20
128.6818020733
 10
168.5444858728
 20
127.9739568697
 10
168.7168373598
 20
127.2811618389
 10
169.1192366986
 20
126.6784908937
 10
169.7080784349
 20
126.2312539609
 10
170.4195530026
 20
125.9879152046
 10
171.1765599309
 20
125.9748450236
 10
171.8970673962
 20
126.1934590281
 10
172.5029951765
 20
126.6200671659
 10
172.9286840989
 20
127.208440447
 10
173.128002031
 20
127.8948186652
 10
173.0793497397
 20
128.6048226745
 10
172.7880003734
 20
129.2615121917
 10
172.28552763
 20
129.7937257902
 10
171.6263794212
 20
130.1437875943
  0
LWPOLYLINE
  5
17E
330
1F
100
AcDbEntity
  8
0
  6
HIDDEN
 62
     7
370
     0
100
AcDbPolyline
 90
       21
 70
   128
 43
0.0
 10
171.6947832017
 20
130.7309063838
 10
170.9269822447
 20
130.8711505251
 10
170.1506401284
 20
130.7815759198
 10
169.4417509122
 20
130.4709519015
 10
168.8697065099
 20
129.9696805642
 10
168.4905017598
 20
129.3268342258
 10
168.3412563859
 20
128.6053367646
 10
168.436579114
 20
127.8758140968
 10
168.7671390234
 20
127.209676312
 10
169.3005791737
 20
126.6721299605
 10
169.9846831022
 20
126.3157947676
 10
170.7524840592
 20
126.175549695
 10
171.5288261755
 20
126.2651233689
 10
172.2377153917
 20
126.5757483186
 10
172.809759794
 20
127.0770187245
 10
173.1889645441
 20
127.719865063
 10
173.3382108493
 20
128.4413625242
 10
173.2428881212
 20
129.1708861233
 10
172.9123263492
 20
129.8370229767
 10
172.3788871302
 20
130.3745693283
 10
171.6947832017
 20
130.7309063838
  0
LWPOLYLINE
  5
17F
330
1F
100
AcDbEntity
  8
0
  6
HIDDEN
 62
     7
370
     0
100
AcDbPolyline
 90
       20
 70
   128
 43
0.0
 10
171.6263794212
 20
130.3797810094
 10
170.8819863258
 20
130.5097582506
 10
170.1330139173
 20
130.4055656062
 10
169.4606260268
 20
130.0784925686
 10
168.9376856072
 20
129.5639852749
 10
168.6208608432
 20
128.9177964197
 10
168.5444858728
 20
128.2099512161
 10
168.7168373598
 20
127.517155254
 10
169.1192366986
 20
126.9144852401
 10
169.7080784349
 20
126.467247376
 10
170.4195530026
 20
126.223909551
 10
171.1765599309
 20
126.2108384387
 10
171.8970673962
 20
126.4294533746
 10
172.5029951765
 20
126.8560615124
 10
172.9286840989
 20
127.4444347934
 10
173.128002031
 20
128.1308130117
 10
173.0793497397
 20
128.840817021
 10
172.7880003734
 20
129.4975056068
 10
172.28552763
 20
130.0297192053
 10
171.6263794212
 20
130.3797810094
  0
LWPOLYLINE
  5
180
330
1F
100
AcDbEntity
  8
0
  6
HIDDEN
 62
     7
370
     0
100
AcDbPolyline
 90
       21
 70
   128
 43
0.0
 10
171.6947832017
 20
130.9668997989
 10
170.9269822447
 20
131.1071439402
 10
170.1506401284
 20
131.0175693349
 10
169.4417509122
 20
130.7069453166
 10
168.8697065099
 20
130.205675842
 10
168.4905017598
 20
129.5628285722
 10
168.3412563859
 20
128.841331111
 10
168.436579114
 20
128.1118075119
 10
168.7671390234
 20
127.4456706585
 10
169.3005791737
 20
126.9081243069
 10
169.9846831022
 20
126.5517881827
 10
170.7524840592
 20
126.4115431102
 10
171.5288261755
 20
126.5011177154
 10
172.2377153917
 20
126.811742665
 10
172.809759794
 20
127.3130121396
 10
173.1889645441
 20
127.9558594094
 10
173.3382108493
 20
128.6773568706
 10
173.2428881212
 20
129.4068804698
 10
172.9123263492
 20
130.0730182545
 10
172.3788871302
 20
130.6105627434
 10
171.6947832017
 20
130.9668997989
  0
LWPOLYLINE
  5
181
330
1F
100
AcDbEntity
  8
0
  6
HIDDEN
 62
     7
370
     0
100
AcDbPolyline
 90
       20
 70
   128
 43
0.0
 10
171.6263794212
 20
130.6157744245
 10
170.8819863258
 20
130.7457516657
 10
170.1330139173
 20
130.6415590213
 10
169.4606260268
 20
130.3144878463
 10
168.9376856072
 20
129.79997869
 10
168.6208608432
 20
129.1537907661
 10
168.5444858728
 20
128.4459446312
 10
168.7168373598
 20
127.7531496005
 10
169.1192366986
 20
127.1504786552
 10
169.7080784349
 20
126.7032417224
 10
170.4195530026
 20
126.4599029662
 10
171.1765599309
 20
126.4468327851
 10
171.8970673962
 20
126.6654467897
 10
172.5029951765
 20
127.0920549275
 10
172.9286840989
 20
127.6804282085
 10
173.128002031
 20
128.3668064268
 10
173.0793497397
 20
129.0768104361
 10
172.7880003734
 20
129.7335008846
 10
172.28552763
 20
130.2657126205
 10
171.6263794212
 20
130.6157744245
  0
LWPOLYLINE
  5
182
330
1F
100
AcDbEntity
  8
0
  6
HIDDEN
 62
     7
370
     0
100
AcDbPolyline
 90
       21
 70
   128
 43
0.0
 10
171.6947832017
 20
131.1550101952
 10
170.9269822447
 20
131.2952561991
 10
170.1506401284
 20
131.2056815939
 10
169.4417509122
 20
130.8950557129
 10
168.8697065099
 20
130.3937862383
 10
168.4905017598
 20
129.7509389685
 10
168.3412563859
 20
129.0294415073
 10
168.436579114
 20
128.2999188395
 10
168.7671390234
 20
127.6337810548
 10
169.3005791737
 20
127.0962356345
 10
169.9846831022
 20
126.7398995103
 10
170.7524840592
 20
126.5996544377
 10
171.5288261755
 20
126.689229043
 10
172.2377153917
 20
126.9998539926
 10
172.809759794
 20
127.5011234672
 10
173.1889645441
 20
128.143970737
 10
173.3382108493
 20
128.8654681982
 10
173.2428881212
 20
129.594990866
 10
172.9123263492
 20
130.2611286507
 10
172.3788871302
 20
130.7986750023
 10
171.6947832017
 20
131.1550101952
  0
LWPOLYLINE
  5
183
330
1F
100
AcDbEntity
  8
0
  6
HIDDEN
 62
     7
370
     0
100
AcDbPolyline
 90
       21
 70
   128
 43
0.0
 10
171.6469001828
 20
131.0792694555
 10
170.9220955951
 20
131.2116606848
 10
170.189228548
 20
131.1271040456
 10
169.5200378878
 20
130.8338734077
 10
168.9800272567
 20
130.3606739955
 10
168.622058524
 20
129.7538279311
 10
168.4811708389
 20
129.0727331059
 10
168.5711552261
 20
128.3840638341
 10
168.8832041679
 20
127.7552301751
 10
169.3867721467
 20
127.2477860318
 10
170.0325651897
 20
126.9114053564
 10
170.7573707087
 20
126.7790141271
 10
171.4902368246
 20
126.8635716976
 10
172.159428416
 20
127.1568023355
 10
172.6994390471
 20
127.6300008164
 10
173.0574077798
 20
128.2368487434
 10
173.1982945336
 20
128.917941706
 10
173.1083101465
 20
129.6066119091
 10
172.7962612046
 20
130.2354464994
 10
172.2926932259
 20
130.7428887801
 10
171.6469001828
 20
131.0792694555
  0
ARC
  5
184
330
1F
100
AcDbEntity
  8
0
  6
HIDDEN
 62
     7
370
     0
100
AcDbCircle
 10
170.8246245811
 20
98.3886304886
 30
0.0
 40
2.479408675144696
100
AcDbArc
 50
345.3788411692
 51
182.3307801969
  0
ARC
  5
185
330
1F
100
AcDbEntity
  8
0
  6
HIDDEN
 62
     7
370
     0
100
AcDbCircle
 10
170.8201203881
 20
98.3289760117
 30
0.0
 40
2.357285514969171
100
AcDbArc
 50
351.1507649568
 51
158.3919933761
  0
ARC
  5
186
330
1F
100
AcDbEntity
  8
0
  6
HIDDEN
 62
     7
370
     0
100
AcDbCircle
 10
170.8453530672
 20
98.3349204621
 30
0.0
 40
1.996287435241675
100
AcDbArc
 50
2.5046012683
 51
127.4021823473
  0
LWPOLYLINE
  5
187
330
1F
100
AcDbEntity
  8
0
  6
HIDDEN
 62
     7
370
     0
100
AcDbPolyline
 90
       21
 70
   128
 43
0.0
 10
169.9846831022
 20
96.4505950676
 10
169.3005791737
 20
96.8069321231
 10
168.7671390234
 20
97.3444766121
 10
168.436579114
 20
98.0106143968
 10
168.3412563859
 20
98.7401379959
 10
168.4905017598
 20
99.4616354571
 10
168.8697065099
 20
100.1044827269
 10
169.4417509122
 20
100.6057522015
 10
170.1506401284
 20
100.9163771512
 10
170.9269822447
 20
101.0059517564
 10
171.6947832017
 20
100.8657066838
 10
172.3788871302
 20
100.5093705596
 10
172.9123263492
 20
99.971824208
 10
173.2428881212
 20
99.3056873546
 10
173.3382108493
 20
98.5761637555
 10
173.1889645441
 20
97.8546662943
 10
172.809759794
 20
97.2118190245
 10
172.2377153917
 20
96.7105495499
 10
171.5288261755
 20
96.3999255316
 10
170.7524840592
 20
96.3103509264
 10
169.9846831022
 20
96.4505950676
  0
LWPOLYLINE
  5
188
330
1F
100
AcDbEntity
  8
0
  6
HIDDEN
 62
     7
370
     0
100
AcDbPolyline
 90
       19
 70
   128
 43
0.0
 10
170.1556925534
 20
98.0738884525
 10
169.5541578217
 20
98.4002406464
 10
169.1076827107
 20
98.9002407284
 10
168.8701172231
 20
99.513580905
 10
168.8701172231
 20
100.1662852929
 10
169.1076827107
 20
100.7796254696
 10
169.5541578217
 20
101.2796255515
 10
170.1556925534
 20
101.6059777455
 10
170.8397331519
 20
101.7193178402
 10
171.5237737505
 20
101.6059777455
 10
172.1253084822
 20
101.2796255515
 10
172.5717845245
 20
100.7796254696
 10
172.8093481494
 20
100.1662852929
 10
172.8093481494
 20
99.513580905
 10
172.5717845245
 20
98.9002407284
 10
172.1253084822
 20
98.4002406464
 10
171.5237737505
 20
98.0738884525
 10
170.8397331519
 20
97.9605483578
 10
170.1556925534
 20
98.0738884525
  0
LWPOLYLINE
  5
189
330
1F
100
AcDbEntity
  8
0
  6
HIDDEN
 62
     7
370
     0
100
AcDbPolyline
 90
       21
 70
   128
 43
0.0
 10
169.9846831022
 20
96.6865884827
 10
169.3005791737
 20
97.0429255383
 10
168.7671390234
 20
97.5804718898
 10
168.436579114
 20
98.2466087432
 10
168.3412563859
 20
98.9761323424
 10
168.4905017598
 20
99.6976298036
 10
168.8697065099
 20
100.340476142
 10
169.4417509122
 20
100.841746548
 10
170.1506401284
 20
101.1523714976
 10
170.9269822447
 20
101.2419451715
 10
171.6947832017
 20
101.101700099
 10
172.3788871302
 20
100.745364906
 10
172.9123263492
 20
100.2078185545
 10
173.2428881212
 20
99.5416807698
 10
173.3382108493
 20
98.8121581019
 10
173.1889645441
 20
98.0906606407
 10
172.809759794
 20
97.4478143023
 10
172.2377153917
 20
96.946542965
 10
171.5288261755
 20
96.6359189467
 10
170.7524840592
 20
96.5463443415
 10
169.9846831022
 20
96.6865884827
  0
LWPOLYLINE
  5
18A
330
1F
100
AcDbEntity
  8
0
  6
HIDDEN
 62
     7
370
     0
100
AcDbPolyline
 90
       20
 70
   128
 43
0.0
 10
170.0530868827
 20
96.801720442
 10
169.3939386739
 20
97.1517822461
 10
168.8914649992
 20
97.6839939819
 10
168.6001165642
 20
98.3406844304
 10
168.5514652042
 20
99.0506884397
 10
168.7507831363
 20
99.737066658
 10
169.1764711274
 20
100.325439939
 10
169.7823989077
 20
100.7520480768
 10
170.502906373
 20
100.9706620814
 10
171.2599133013
 20
100.9575919004
 10
171.971387869
 20
100.7142531441
 10
172.5602305366
 20
100.2670162113
 10
172.9626289441
 20
99.6643452661
 10
173.1349794997
 20
98.9715502353
 10
173.0586054607
 20
98.2637041004
 10
172.7417806967
 20
97.6175161765
 10
172.218840277
 20
97.1030070202
 10
171.5464523865
 20
96.7759358452
 10
170.797479978
 20
96.6717432009
 10
170.0530868827
 20
96.801720442
  0
LWPOLYLINE
  5
18B
330
1F
100
AcDbEntity
  8
0
  6
HIDDEN
 62
     7
370
     0
100
AcDbPolyline
 90
       21
 70
   128
 43
0.0
 10
169.9846831022
 20
96.9225837605
 10
169.3005791737
 20
97.2789189534
 10
168.7671390234
 20
97.8164653049
 10
168.436579114
 20
98.4826030897
 10
168.3412563859
 20
99.2121257575
 10
168.4905017598
 20
99.9336232187
 10
168.8697065099
 20
100.5764704884
 10
169.4417509122
 20
101.0777399631
 10
170.1506401284
 20
101.3883649127
 10
170.9269822447
 20
101.4779395179
 10
171.6947832017
 20
101.3376944454
 10
172.3788871302
 20
100.9813583211
 10
172.9123263492
 20
100.4438129009
 10
173.2428881212
 20
99.7776751162
 10
173.3382108493
 20
99.0481515171
 10
173.1889645441
 20
98.3266540559
 10
172.809759794
 20
97.6838077174
 10
172.2377153917
 20
97.1825382428
 10
171.5288261755
 20
96.8719123618
 10
170.7524840592
 20
96.7823377566
 10
169.9846831022
 20
96.9225837605
  0
LWPOLYLINE
  5
18C
330
1F
100
AcDbEntity
  8
0
  6
HIDDEN
 62
     7
370
     0
100
AcDbPolyline
 90
       20
 70
   128
 43
0.0
 10
170.0530868827
 20
97.0377138571
 10
169.3939386739
 20
97.3877756612
 10
168.8914649992
 20
97.9199892597
 10
168.6001165642
 20
98.5766778456
 10
168.5514652042
 20
99.2866818549
 10
168.7507831363
 20
99.9730600731
 10
169.1764711274
 20
100.5614333542
 10
169.7823989077
 20
100.9880414919
 10
170.502906373
 20
101.2066564278
 10
171.2599133013
 20
101.1935853155
 10
171.971387869
 20
100.9502474905
 10
172.5602305366
 20
100.5030096264
 10
172.9626289441
 20
99.9003396125
 10
173.1349794997
 20
99.2075436504
 10
173.0586054607
 20
98.4996984468
 10
172.7417806967
 20
97.8535095917
 10
172.218840277
 20
97.339002298
 10
171.5464523865
 20
97.0119292603
 10
170.797479978
 20
96.907736616
 10
170.0530868827
 20
97.0377138571
  0
LWPOLYLINE
  5
18D
330
1F
100
AcDbEntity
  8
0
  6
HIDDEN
 62
     7
370
     0
100
AcDbPolyline
 90
       21
 70
   128
 43
0.0
 10
169.9846831022
 20
97.1585771756
 10
169.3005791737
 20
97.5149123685
 10
168.7671390234
 20
98.05245872
 10
168.436579114
 20
98.7185965048
 10
168.3412563859
 20
99.4481201039
 10
168.4905017598
 20
100.1696175651
 10
168.8697065099
 20
100.8124639036
 10
169.4417509122
 20
101.3137343095
 10
170.1506401284
 20
101.6243592591
 10
170.9269822447
 20
101.7139329331
 10
171.6947832017
 20
101.5736878605
 10
172.3788871302
 20
101.2173526676
 10
172.9123263492
 20
100.679806316
 10
173.2428881212
 20
100.0136685313
 10
173.3382108493
 20
99.2841458635
 10
173.1889645441
 20
98.5626484023
 10
172.809759794
 20
97.9198011325
 10
172.2377153917
 20
97.4185316579
 10
171.5288261755
 20
97.1079057769
 10
170.7524840592
 20
97.0183330344
 10
169.9846831022
 20
97.1585771756
  0
LWPOLYLINE
  5
18E
330
1F
100
AcDbEntity
  8
0
  6
HIDDEN
 62
     7
370
     0
100
AcDbPolyline
 90
       20
 70
   128
 43
0.0
 10
170.0530868827
 20
97.2737072723
 10
169.3939386739
 20
97.6237690763
 10
168.8914649992
 20
98.1559826748
 10
168.6001165642
 20
98.812672192
 10
168.5514652042
 20
99.5226762013
 10
168.7507831363
 20
100.2090544195
 10
169.1764711274
 20
100.7974277006
 10
169.7823989077
 20
101.2240358384
 10
170.502906373
 20
101.4426498429
 10
171.2599133013
 20
101.4295796619
 10
171.971387869
 20
101.1862409057
 10
172.5602305366
 20
100.7390039728
 10
172.9626289441
 20
100.1363330276
 10
173.1349794997
 20
99.4435379968
 10
173.0586054607
 20
98.7356927933
 10
172.7417806967
 20
98.0895030068
 10
172.218840277
 20
97.5749957131
 10
171.5464523865
 20
97.2479226755
 10
170.797479978
 20
97.1437300311
 10
170.0530868827
 20
97.2737072723
  0
LWPOLYLINE
  5
18F
330
1F
100
AcDbEntity
  8
0
  6
HIDDEN
 62
     7
370
     0
100
AcDbPolyline
 90
       21
 70
   128
 43
0.0
 10
169.9846831022
 20
97.3945705907
 10
169.3005791737
 20
97.7509076463
 10
168.7671390234
 20
98.2884530665
 10
168.436579114
 20
98.9545908512
 10
168.3412563859
 20
99.684113519
 10
168.4905017598
 20
100.4056109802
 10
168.8697065099
 20
101.04845825
 10
169.4417509122
 20
101.5497277246
 10
170.1506401284
 20
101.8603526743
 10
170.9269822447
 20
101.9499272795
 10
171.6947832017
 20
101.8096822069
 10
172.3788871302
 20
101.4533460827
 10
172.9123263492
 20
100.9158006625
 10
173.2428881212
 20
100.2496628778
 10
173.3382108493
 20
99.5201392786
 10
173.1889645441
 20
98.7986418174
 10
172.809759794
 20
98.155795479
 10
172.2377153917
 20
97.654525073
 10
171.5288261755
 20
97.3439010547
 10
170.7524840592
 20
97.2543264495
 10
169.9846831022
 20
97.3945705907
  0
LWPOLYLINE
  5
190
330
1F
100
AcDbEntity
  8
0
  6
HIDDEN
 62
     7
370
     0
100
AcDbPolyline
 90
       20
 70
   128
 43
0.0
 10
170.0530868827
 20
97.5097006874
 10
169.3939386739
 20
97.8597643541
 10
168.8914649992
 20
98.3919760899
 10
168.6001165642
 20
99.0486656071
 10
168.5514652042
 20
99.7586696164
 10
168.7507831363
 20
100.4450478347
 10
169.1764711274
 20
101.0334211157
 10
169.7823989077
 20
101.4600292535
 10
170.502906373
 20
101.6786441894
 10
171.2599133013
 20
101.665573077
 10
171.971387869
 20
101.4222352521
 10
172.5602305366
 20
100.974997388
 10
172.9626289441
 20
100.3723273741
 10
173.1349794997
 20
99.679531412
 10
173.0586054607
 20
98.9716862084
 10
172.7417806967
 20
98.3254973532
 10
172.218840277
 20
97.8109891282
 10
171.5464523865
 20
97.4839179532
 10
170.797479978
 20
97.3797234462
 10
170.0530868827
 20
97.5097006874
  0
LWPOLYLINE
  5
191
330
1F
100
AcDbEntity
  8
0
  6
HIDDEN
 62
     7
370
     0
100
AcDbPolyline
 90
       21
 70
   128
 43
0.0
 10
169.9846831022
 20
97.9931055324
 10
169.3005791737
 20
98.3494425879
 10
168.7671390234
 20
98.8869880082
 10
168.436579114
 20
99.5531257929
 10
168.3412563859
 20
100.2826484607
 10
168.4905017598
 20
101.0041459219
 10
168.8697065099
 20
101.6469931917
 10
169.4417509122
 20
102.1482626663
 10
170.1506401284
 20
102.4588885473
 10
170.9269822447
 20
102.5484622212
 10
171.6947832017
 20
102.4082171486
 10
172.3788871302
 20
102.0518819557
 10
172.9123263492
 20
101.5143356042
 10
173.2428881212
 20
100.8481978194
 10
173.3382108493
 20
100.1186751516
 10
173.1889645441
 20
99.3971776904
 10
172.809759794
 20
98.7543304206
 10
172.2377153917
 20
98.253060946
 10
171.5288261755
 20
97.9424359964
 10
170.7524840592
 20
97.8528613911
 10
169.9846831022
 20
97.9931055324
  0
LWPOLYLINE
  5
192
330
1F
100
AcDbEntity
  8
0
  6
HIDDEN
 62
     7
370
     0
100
AcDbPolyline
 90
       19
 70
   128
 43
0.0
 10
170.1624018012
 20
98.5545440332
 10
169.5667660667
 20
98.8776952715
 10
169.1246691032
 20
99.3727910088
 10
168.8894347159
 20
99.9801167042
 10
168.8894347159
 20
100.6264191808
 10
169.1246691032
 20
101.2337439449
 10
169.5667660667
 20
101.7288406135
 10
170.1624018012
 20
102.0519918518
 10
170.8397331519
 20
102.1642208786
 10
171.5170645027
 20
102.0519918518
 10
172.1127002372
 20
101.7288406135
 10
172.5547972007
 20
101.2337439449
 10
172.7900306566
 20
100.6264191808
 10
172.7900306566
 20
99.9801167042
 10
172.5547972007
 20
99.3727910088
 10
172.1127002372
 20
98.8776952715
 10
171.5170645027
 20
98.5545440332
 10
170.8397331519
 20
98.4423150064
 10
170.1624018012
 20
98.5545440332
  0
LINE
  5
193
330
1F
100
AcDbEntity
  8
0
  6
HIDDEN
 62
     7
370
     0
100
AcDbLine
 10
173.3397326304
 20
97.0444342808
 30
0.0
 11
173.3397326304
 21
100.2006622718
 31
0.0
  0
LINE
  5
194
330
1F
100
AcDbEntity
  8
0
  6
HIDDEN
 62
     7
370
     0
100
AcDbLine
 10
168.3397327422
 20
100.2006622718
 30
0.0
 11
168.3397327422
 21
98.1470028625
 31
0.0
  0
LINE
  5
195
330
1F
100
AcDbEntity
  8
0
  6
HIDDEN
 62
     7
370
     0
100
AcDbLine
 10
159.8397329787
 20
96.2590704428
 30
0.0
 11
162.4591608404
 21
96.8863851146
 31
0.0
  0
LINE
  5
196
330
1F
100
AcDbEntity
  8
0
  6
HIDDEN
 62
     7
370
     0
100
AcDbLine
 10
161.0617639369
 20
102.7213901968
 30
0.0
 11
159.8397329787
 21
102.428731391
 31
0.0
  0
LINE
  5
197
330
1F
100
AcDbEntity
  8
0
  6
HIDDEN
 62
     7
370
     0
100
AcDbLine
 10
235.7397309376
 20
153.7087465392
 30
0.0
 11
234.989733143
 21
152.100367354
 31
0.0
  0
LINE
  5
198
330
1F
100
AcDbEntity
  8
0
  6
HIDDEN
 62
     7
370
     0
100
AcDbLine
 10
234.989733143
 20
75.3171275125
 30
0.0
 11
235.7397309376
 21
73.7087483273
 31
0.0
  0
LINE
  5
199
330
1F
100
AcDbEntity
  8
0
  6
HIDDEN
 62
     7
370
     0
100
AcDbLine
 10
162.5178835227
 20
97.82589774
 30
0.0
 11
169.9870328291
 21
99.6146470995
 31
0.0
  0
LINE
  5
19A
330
1F
100
AcDbEntity
  8
0
  6
HIDDEN
 62
     7
370
     0
100
AcDbLine
 10
169.9870328291
 20
103.9334096701
 30
0.0
 11
161.5397056436
 21
101.9104010181
 31
0.0
  0
LINE
  5
19B
330
1F
100
AcDbEntity
  8
0
  6
HIDDEN
 62
     7
370
     0
100
AcDbLine
 10
172.9397333099
 20
100.2504563646
 30
0.0
 11
172.9397333099
 21
112.2597461788
 31
0.0
  0
LINE
  5
19C
330
1F
100
AcDbEntity
  8
0
  6
HIDDEN
 62
     7
370
     0
100
AcDbLine
 10
168.739732994
 20
100.5985065119
 30
0.0
 11
168.739732994
 21
100.2504563646
 31
0.0
  0
LINE
  5
19D
330
1F
100
AcDbEntity
  8
0
  6
HIDDEN
 62
     7
370
     0
100
AcDbLine
 10
168.739732994
 20
112.2580291692
 30
0.0
 11
168.739732994
 21
102.3521310405
 31
0.0
  0
LINE
  5
19E
330
1F
100
AcDbEntity
  8
0
  6
HIDDEN
 62
     7
370
     0
100
AcDbLine
 10
234.9725819065
 20
145.2087479399
 30
0.0
 11
230.1897338463
 21
145.2087479399
 31
0.0
  0
LINE
  5
19F
330
1F
100
AcDbEntity
  8
0
  6
HIDDEN
 62
     7
370
     0
100
AcDbLine
 10
230.1897338463
 20
82.2087469266
 30
0.0
 11
234.989733143
 21
82.2087469266
 31
0.0
  0
LINE
  5
1A0
330
1F
100
AcDbEntity
  8
0
  6
HIDDEN
 62
     7
370
     0
100
AcDbLine
 10
230.1897338463
 20
139.5747734921
 30
0.0
 11
228.6897308065
 21
138.7087478058
 31
0.0
  0
LINE
  5
1A1
330
1F
100
AcDbEntity
  8
0
  6
HIDDEN
 62
     7
370
     0
100
AcDbLine
 10
228.6897308065
 20
88.7087470607
 30
0.0
 11
230.1897338463
 21
87.8427213745
 31
0.0
  0
LINE
  5
1A2
330
1F
100
AcDbEntity
  8
0
  6
HIDDEN
 62
     7
370
     0
100
AcDbLine
 10
186.0411266668
 20
139.0087472962
 30
0.0
 11
185.3397327347
 21
139.0087472962
 31
0.0
  0
LINE
  5
1A3
330
1F
100
AcDbEntity
  8
0
  6
HIDDEN
 62
     7
370
     0
100
AcDbLine
 10
185.3397327347
 20
88.4087475704
 30
0.0
 11
186.0411266668
 21
88.4087475704
 31
0.0
  0
ARC
  5
1A4
330
1F
100
AcDbEntity
  8
0
  6
HIDDEN
 62
     7
370
     0
100
AcDbCircle
 10
185.3397330595
 20
138.4087474333
 30
0.0
 40
0.6000000000000227
100
AcDbArc
 50
90.0
 51
180.0
  0
ARC
  5
1A5
330
1F
100
AcDbEntity
  8
0
  6
HIDDEN
 62
     7
370
     0
100
AcDbCircle
 10
185.3397330595
 20
89.0087474333
 30
0.0
 40
0.6000000000000085
100
AcDbArc
 50
180.0
 51
270.0
  0
ARC
  5
1A6
330
1F
100
AcDbEntity
  8
0
  6
HIDDEN
 62
     7
370
     0
100
AcDbCircle
 10
186.0411263187
 20
138.4087474333
 30
0.0
 40
0.5999999999999943
100
AcDbArc
 50
75.0
 51
90.0
  0
ARC
  5
1A7
330
1F
100
AcDbEntity
  8
0
  6
HIDDEN
 62
     7
370
     0
100
AcDbCircle
 10
186.0411263187
 20
89.0087474333
 30
0.0
 40
0.5999999999999943
100
AcDbArc
 50
270.0
 51
285.0
  0
LINE
  5
1A8
330
1F
100
AcDbEntity
  8
0
  6
HIDDEN
 62
     7
370
     0
100
AcDbLine
 10
186.1964172555
 20
88.4291919635
 30
0.0
 11
187.2397332324
 21
88.7087470607
 31
0.0
  0
LINE
  5
1A9
330
1F
100
AcDbEntity
  8
0
  6
HIDDEN
 62
     7
370
     0
100
AcDbLine
 10
187.2397332324
 20
138.7087478058
 30
0.0
 11
186.1964172555
 21
138.988302903
 31
0.0
  0
LINE
  5
1AA
330
1F
100
AcDbEntity
  8
0
  6
HIDDEN
 62
     7
370
     0
100
AcDbLine
 10
228.6897308065
 20
138.7087478058
 30
0.0
 11
187.2397332324
 21
138.7087478058
 31
0.0
  0
LINE
  5
1AB
330
1F
100
AcDbEntity
  8
0
  6
HIDDEN
 62
     7
370
     0
100
AcDbLine
 10
187.2397332324
 20
88.7087470607
 30
0.0
 11
228.6897308065
 21
88.7087470607
 31
0.0
  0
LINE
  5
1AC
330
1F
100
AcDbEntity
  8
0
  6
HIDDEN
 62
     7
370
     0
100
AcDbLine
 10
234.989733143
 20
151.2337456213
 30
0.0
 11
230.1897338463
 21
151.2337456213
 31
0.0
  0
LINE
  5
1AD
330
1F
100
AcDbEntity
  8
0
  6
HIDDEN
 62
     7
370
     0
100
AcDbLine
 10
230.1897338463
 20
76.1837492452
 30
0.0
 11
234.989733143
 21
76.1837492452
 31
0.0
  0
ARC
  5
1AE
330
1F
100
AcDbEntity
  8
0
  6
HIDDEN
 62
     7
370
     0
100
AcDbCircle
 10
56.2397330595
 20
100.0087474333
 30
0.0
 40
1.200000000000017
100
AcDbArc
 50
90.0
 51
180.0
  0
ARC
  5
1AF
330
1F
100
AcDbEntity
  8
0
  6
HIDDEN
 62
     7
370
     0
100
AcDbCircle
 10
56.2397330595
 20
127.4087474333
 30
0.0
 40
1.20000000000001
100
AcDbArc
 50
180.0
 51
270.0
  0
ARC
  5
1B0
330
1F
100
AcDbEntity
  8
0
  6
HIDDEN
 62
     7
370
     0
100
AcDbCircle
 10
186.5397330595
 20
153.2087474333
 30
0.0
 40
2.0
100
AcDbArc
 50
270.0
 51
0.0
  0
LINE
  5
1B1
330
1F
100
AcDbEntity
  8
0
  6
HIDDEN
 62
     7
370
     0
100
AcDbLine
 10
188.5397328867
 20
73.7087483273
 30
0.0
 11
188.5397328867
 21
76.4087456034
 31
0.0
  0
ARC
  5
1B2
330
1F
100
AcDbEntity
  8
0
  6
HIDDEN
 62
     7
370
     0
100
AcDbCircle
 10
186.5397330595
 20
76.4087474333
 30
0.0
 40
2.0
100
AcDbArc
 50
0.0
 51
90.0
  0
LINE
  5
1B3
330
1F
100
AcDbEntity
  8
0
  6
HIDDEN
 62
     7
370
     0
100
AcDbLine
 10
65.9321031405
 20
100.9837471636
 30
0.0
 11
66.8087906076
 21
100.9837471636
 31
0.0
  0
LINE
  5
1B4
330
1F
100
AcDbEntity
  8
0
  6
HIDDEN
 62
     7
370
     0
100
AcDbLine
 10
66.8087906076
 20
126.433747703
 30
0.0
 11
65.9321031405
 21
126.433747703
 31
0.0
  0
ARC
  5
1B5
330
1F
100
AcDbEntity
  8
0
  6
HIDDEN
 62
     7
370
     0
100
AcDbCircle
 10
65.9321054903
 20
101.3837474333
 30
0.0
 40
0.3999999999999923
100
AcDbArc
 50
255.0
 51
270.0
  0
ARC
  5
1B6
330
1F
100
AcDbEntity
  8
0
  6
HIDDEN
 62
     7
370
     0
100
AcDbCircle
 10
65.9321054903
 20
126.0337474333
 30
0.0
 40
0.4000000000000199
100
AcDbArc
 50
90.0
 51
105.0
  0
ARC
  5
1B7
330
1F
100
AcDbEntity
  8
0
  6
HIDDEN
 62
     7
370
     0
100
AcDbCircle
 10
66.8087929519
 20
101.3837474333
 30
0.0
 40
0.3999999999999998
100
AcDbArc
 50
270.0
 51
330.0
  0
ARC
  5
1B8
330
1F
100
AcDbEntity
  8
0
  6
HIDDEN
 62
     7
370
     0
100
AcDbCircle
 10
66.8087929519
 20
126.0337474333
 30
0.0
 40
0.4000000000000069
100
AcDbArc
 50
30.0
 51
90.0
  0
LINE
  5
1B9
330
1F
100
AcDbEntity
  8
0
  6
HIDDEN
 62
     7
370
     0
100
AcDbLine
 10
65.8285773231
 20
126.4201177971
 30
0.0
 11
65.0397322012
 21
126.2087476195
 31
0.0
  0
LINE
  5
1BA
330
1F
100
AcDbEntity
  8
0
  6
HIDDEN
 62
     7
370
     0
100
AcDbLine
 10
65.0397322012
 20
101.208747247
 30
0.0
 11
65.8285773231
 21
100.9973770694
 31
0.0
  0
LINE
  5
1BB
330
1F
100
AcDbEntity
  8
0
  6
HIDDEN
 62
     7
370
     0
100
AcDbLine
 10
67.1552053524
 20
101.1837477551
 30
0.0
 11
68.3243355586
 21
103.2087475748
 31
0.0
  0
LINE
  5
1BC
330
1F
100
AcDbEntity
  8
0
  6
HIDDEN
 62
     7
370
     0
100
AcDbLine
 10
68.3243355586
 20
124.2087472917
 30
0.0
 11
67.1552053524
 21
126.2337471114
 31
0.0
  0
LINE
  5
1BD
330
1F
100
AcDbEntity
  8
0
  6
HIDDEN
 62
     7
370
     0
100
AcDbLine
 10
56.2397322489
 20
101.208747247
 30
0.0
 11
65.0397322012
 21
101.208747247
 31
0.0
  0
LINE
  5
1BE
330
1F
100
AcDbEntity
  8
0
  6
HIDDEN
 62
     7
370
     0
100
AcDbLine
 10
65.0397322012
 20
126.2087476195
 30
0.0
 11
56.2397322489
 21
126.2087476195
 31
0.0
  0
LINE
  5
1BF
330
1F
100
AcDbEntity
  8
0
  6
HIDDEN
 62
     7
370
     0
100
AcDbLine
 10
68.3243355586
 20
103.2087475748
 30
0.0
 11
117.0397332741
 21
103.2087475748
 31
0.0
  0
LINE
  5
1C0
330
1F
100
AcDbEntity
  8
0
  6
HIDDEN
 62
     7
370
     0
100
AcDbLine
 10
117.0397332741
 20
124.2087472917
 30
0.0
 11
68.3243355586
 21
124.2087472917
 31
0.0
  0
LINE
  5
1C1
330
1F
100
AcDbEntity
  8
0
  6
HIDDEN
 62
     7
370
     0
100
AcDbLine
 10
117.0397332741
 20
103.2087475748
 30
0.0
 11
120.7951127423
 21
109.4587472023
 31
0.0
  0
LINE
  5
1C2
330
1F
100
AcDbEntity
  8
0
  6
HIDDEN
 62
     7
370
     0
100
AcDbLine
 10
120.7951127423
 20
117.9587476642
 30
0.0
 11
117.0397332741
 21
124.2087472917
 31
0.0
  0
LINE
  5
1C3
330
1F
100
AcDbEntity
  8
0
  6
HIDDEN
 62
     7
370
     0
100
AcDbLine
 10
188.5397328867
 20
153.2087492512
 30
0.0
 11
188.5397328867
 21
153.7087465392
 31
0.0
  0
LINE
  5
1C4
330
1F
100
AcDbEntity
  8
0
  6
HIDDEN
 62
     7
370
     0
100
AcDbLine
 10
120.7951127423
 20
109.4587472023
 30
0.0
 11
184.7397337539
 21
109.4587472023
 31
0.0
  0
LINE
  5
1C5
330
1F
100
AcDbEntity
  8
0
  6
HIDDEN
 62
     7
370
     0
100
AcDbLine
 10
184.7397337539
 20
117.9587476642
 30
0.0
 11
120.7951127423
 21
117.9587476642
 31
0.0
  0
LINE
  5
1C6
330
1F
100
AcDbEntity
  8
0
  6
HIDDEN
 62
     7
370
     0
100
AcDbLine
 10
172.9397333099
 20
115.1594656974
 30
0.0
 11
172.9397333099
 21
127.1670385019
 31
0.0
  0
LINE
  5
1C7
330
1F
100
AcDbEntity
  8
0
  6
HIDDEN
 62
     7
370
     0
100
AcDbLine
 10
168.739732994
 20
125.065363826
 30
0.0
 11
168.739732994
 21
115.1577486878
 31
0.0
  0
LINE
  5
1C8
330
1F
100
AcDbEntity
  8
0
  6
HIDDEN
 62
     7
370
     0
100
AcDbLine
 10
168.739732994
 20
127.1670385019
 30
0.0
 11
168.739732994
 21
126.8189883546
 31
0.0
  0
LINE
  5
1C9
330
1F
100
AcDbEntity
  8
0
  6
HIDDEN
 62
     7
370
     0
100
AcDbLine
 10
234.9742806388
 20
145.2087479399
 30
0.0
 11
234.9725819065
 21
145.2087479399
 31
0.0
  0
LINE
  5
1CA
330
1F
100
AcDbEntity
  8
0
  6
HIDDEN
 62
     7
370
     0
100
AcDbLine
 10
161.5397056436
 20
125.5070938484
 30
0.0
 11
169.9870328291
 21
123.4840851964
 31
0.0
  0
LINE
  5
1CB
330
1F
100
AcDbEntity
  8
0
  6
HIDDEN
 62
     7
370
     0
100
AcDbLine
 10
169.9870328291
 20
127.802847767
 30
0.0
 11
162.5178835227
 21
129.5915971266
 31
0.0
  0
LINE
  5
1CC
330
1F
100
AcDbEntity
  8
0
  6
HIDDEN
 62
     7
370
     0
100
AcDbLine
 10
159.8397329787
 20
124.9887634756
 30
0.0
 11
161.0617639369
 21
124.6961046697
 31
0.0
  0
LINE
  5
1CD
330
1F
100
AcDbEntity
  8
0
  6
HIDDEN
 62
     7
370
     0
100
AcDbLine
 10
162.4591608404
 20
130.5311097519
 30
0.0
 11
159.8397329787
 21
131.1584244238
 31
0.0
  0
LINE
  5
1CE
330
1F
100
AcDbEntity
  8
0
  6
HIDDEN
 62
     7
370
     0
100
AcDbLine
 10
173.3397326304
 20
127.2168325947
 30
0.0
 11
173.3397326304
 21
130.3730605857
 31
0.0
  0
LINE
  5
1CF
330
1F
100
AcDbEntity
  8
0
  6
HIDDEN
 62
     7
370
     0
100
AcDbLine
 10
168.3397327422
 20
129.270492004
 30
0.0
 11
168.3397327422
 21
127.2168325947
 31
0.0
  0
LINE
  5
1D0
330
1F
100
AcDbEntity
  8
0
  6
HIDDEN
 62
     7
370
     0
100
AcDbLine
 10
162.5531680754
 20
97.4230373965
 30
0.0
 11
165.8241075335
 21
98.2063774706
 31
0.0
  0
LINE
  5
1D1
330
1F
100
AcDbEntity
  8
0
  6
HIDDEN
 62
     7
370
     0
100
AcDbLine
 10
164.6596097259
 20
103.0688815506
 30
0.0
 11
161.3886711991
 21
102.2855405451
 31
0.0
  0
LINE
  5
1D2
330
1F
100
AcDbEntity
  8
0
  6
HIDDEN
 62
     7
370
     0
100
AcDbLine
 10
166.5278120769
 20
98.9700973721
 30
0.0
 11
166.7563903017
 21
99.6174876334
 31
0.0
  0
LINE
  5
1D3
330
1F
100
AcDbEntity
  8
0
  6
HIDDEN
 62
     7
370
     0
100
AcDbLine
 10
166.1299734248
 20
102.2331694828
 30
0.0
 11
165.6329312234
 21
102.7067851962
 31
0.0
  0
LINE
  5
1D4
330
1F
100
AcDbEntity
  8
0
  6
HIDDEN
 62
     7
370
     0
100
AcDbLine
 10
165.6329312234
 20
124.7107096703
 30
0.0
 11
166.1299734248
 21
125.1843253837
 31
0.0
  0
LINE
  5
1D5
330
1F
100
AcDbEntity
  8
0
  6
HIDDEN
 62
     7
370
     0
100
AcDbLine
 10
166.7563903017
 20
127.8000072332
 30
0.0
 11
166.5278120769
 21
128.4473974945
 31
0.0
  0
LINE
  5
1D6
330
1F
100
AcDbEntity
  8
0
  6
HIDDEN
 62
     7
370
     0
100
AcDbLine
 10
161.3886711991
 20
125.1319543214
 30
0.0
 11
164.6596097259
 21
124.348613316
 31
0.0
  0
LINE
  5
1D7
330
1F
100
AcDbEntity
  8
0
  6
HIDDEN
 62
     7
370
     0
100
AcDbLine
 10
165.8241075335
 20
129.2111173959
 30
0.0
 11
162.5531680754
 21
129.99445747
 31
0.0
  0
LINE
  5
1D8
330
1F
100
AcDbEntity
  8
0
  6
HIDDEN
 62
     7
370
     0
100
AcDbLine
 10
173.3397326304
 20
127.2168325947
 30
0.0
 11
173.3397326304
 21
127.8153684677
 31
0.0
  0
LINE
  5
1D9
330
1F
100
AcDbEntity
  8
0
  6
HIDDEN
 62
     7
370
     0
100
AcDbLine
 10
168.3397327422
 20
127.8153684677
 30
0.0
 11
168.3397327422
 21
127.2168325947
 31
0.0
  0
LINE
  5
1DA
330
1F
100
AcDbEntity
  8
0
  6
HIDDEN
 62
     7
370
     0
100
AcDbLine
 10
172.8397334798
 20
127.5775617675
 30
0.0
 11
172.8397334798
 21
128.9953374059
 31
0.0
  0
LINE
  5
1DB
330
1F
100
AcDbEntity
  8
0
  6
HIDDEN
 62
     7
370
     0
100
AcDbLine
 10
168.8397328241
 20
128.9953374059
 30
0.0
 11
168.8397328241
 21
127.5775617675
 31
0.0
  0
LINE
  5
1DC
330
1F
100
AcDbEntity
  8
0
  6
HIDDEN
 62
     7
370
     0
100
AcDbLine
 10
173.3397326304
 20
128.7593439908
 30
0.0
 11
173.3397326304
 21
128.9474553184
 31
0.0
  0
LINE
  5
1DD
330
1F
100
AcDbEntity
  8
0
  6
HIDDEN
 62
     7
370
     0
100
AcDbLine
 10
168.3397327422
 20
128.9474553184
 30
0.0
 11
168.3397327422
 21
128.7593439908
 31
0.0
  0
LINE
  5
1DE
330
1F
100
AcDbEntity
  8
0
  6
HIDDEN
 62
     7
370
     0
100
AcDbLine
 10
168.3397327422
 20
98.6581508757
 30
0.0
 11
168.3397327422
 21
98.4700395481
 31
0.0
  0
LINE
  5
1DF
330
1F
100
AcDbEntity
  8
0
  6
HIDDEN
 62
     7
370
     0
100
AcDbLine
 10
173.3397326304
 20
98.4700395481
 30
0.0
 11
173.3397326304
 21
98.6581508757
 31
0.0
  0
LINE
  5
1E0
330
1F
100
AcDbEntity
  8
0
  6
HIDDEN
 62
     7
370
     0
100
AcDbLine
 10
168.8397328241
 20
99.839933099
 30
0.0
 11
168.8397328241
 21
98.4221574606
 31
0.0
  0
LINE
  5
1E1
330
1F
100
AcDbEntity
  8
0
  6
HIDDEN
 62
     7
370
     0
100
AcDbLine
 10
172.8397334798
 20
98.4221574606
 30
0.0
 11
172.8397334798
 21
99.839933099
 31
0.0
  0
LINE
  5
1E2
330
1F
100
AcDbEntity
  8
0
  6
HIDDEN
 62
     7
370
     0
100
AcDbLine
 10
168.3397327422
 20
100.2006622718
 30
0.0
 11
168.3397327422
 21
99.6021263988
 31
0.0
  0
LINE
  5
1E3
330
1F
100
AcDbEntity
  8
0
  6
HIDDEN
 62
     7
370
     0
100
AcDbLine
 10
173.3397326304
 20
99.6021263988
 30
0.0
 11
173.3397326304
 21
100.2006622718
 31
0.0
  0
CIRCLE
  5
1E4
330
1F
100
AcDbEntity
  8
0
  6
HIDDEN
 62
     7
370
     0
100
AcDbCircle
 10
170.8397330595
 20
128.1744893952
 30
0.0
 40
2.000000000000016
  0
ARC
  5
1E5
330
1F
100
AcDbEntity
  8
0
  6
HIDDEN
 62
     7
370
     0
100
AcDbCircle
 10
170.8397330595
 20
99.2430054713
 30
0.0
 40
2.000000000000004
100
AcDbArc
 50
71.1182787691
 51
192.215685934
  0
ARC
  5
1E6
330
1F
100
AcDbEntity
  8
0
  6
HIDDEN
 62
     7
370
     0
100
AcDbCircle
 10
170.8397330595
 20
99.2430054713
 30
0.0
 40
2.000000000000003
100
AcDbArc
 50
340.3453161116
 51
71.1182787691
  0
DIMENSION
  5
1E7
330
1F
100
AcDbEntity
  8
VERMASSUNG
100
AcDbDimension
  2
_D
 10
48.2742702259
 20
162.4337474333
 30
0.0
 11
48.2742702259
 21
113.7087474333
 31
0.0
 70
   160
  1
ISO 50 %%c<>
 71
     2
 42
-1.0
  3
SLDDIMSTYLE0
100
AcDbAlignedDimension
 13
175.0897330595
 23
64.9837474333
 33
0.0
 14
175.0897330595
 24
162.4337474333
 34
0.0
 50
90.0
100
AcDbRotatedDimension
  0
DIMENSION
  5
1F4
330
1F
100
AcDbEntity
  8
VERMASSUNG
100
AcDbDimension
  2
_D_1
 10
55.0397330595
 20
180.9451976406
 30
0.0
 11
145.3897330595
 21
180.9451976406
 31
0.0
 70
   160
  1
(<>)
 71
     2
 42
-1.0
  3
SLDDIMSTYLE0
100
AcDbAlignedDimension
 13
235.7397330595
 23
159.8087474333
 33
0.0
 14
55.0397330595
 24
132.0875919607
 34
0.0
100
AcDbRotatedDimension
  0
DIMENSION
  5
200
330
1F
100
AcDbEntity
  8
VERMASSUNG
100
AcDbDimension
  2
_D_2
 10
235.7397330595
 20
176.4755305637
 30
0.0
 11
196.1897330595
 21
176.4755305637
 31
0.0
 70
   160
  1
<>
 71
     2
 42
-1.0
  3
SLDDIMSTYLE0
100
AcDbAlignedDimension
 13
156.6397330595
 23
148.6337474333
 33
0.0
 14
235.7397330595
 24
159.8087474333
 34
0.0
100
AcDbRotatedDimension
  0
DIMENSION
  5
20A
330
1F
100
AcDbEntity
  8
VERMASSUNG
100
AcDbDimension
  2
_D_3
 10
235.7397330595
 20
170.4755305637
 30
0.0
 11
205.7147330595
 21
170.4755305637
 31
0.0
 70
   160
  1
<>
 71
     2
 42
-1.0
  3
SLDDIMSTYLE0
100
AcDbAlignedDimension
 13
175.6897330595
 23
160.0037343865
 33
0.0
 14
235.7397330595
 24
159.8087474333
 34
0.0
100
AcDbRotatedDimension
  0
DIMENSION
  5
214
330
1F
100
AcDbEntity
  8
VERMASSUNG
100
AcDbDimension
  2
_D_4
 10
245.6887188972
 20
66.7087474333
 30
0.0
 11
245.6887188972
 21
113.7087474333
 31
0.0
 70
   160
  1
MBM %%c<>
 71
     2
 42
-1.0
  3
SLDDIMSTYLE0
100
AcDbAlignedDimension
 13
234.8397330595
 23
160.7087474333
 33
0.0
 14
234.8397330595
 24
66.7087474333
 34
0.0
 50
90.0
100
AcDbRotatedDimension
  0
LINE
  5
220
330
1F
100
AcDbEntity
  8
VERMASSUNG
  6
CENTERX2
 62
     7
370
     0
100
AcDbLine
 10
237.7397330595
 20
113.7087474333
 30
0.0
 11
53.0397330595
 21
113.7087474333
 31
0.0
  0
LINE
  5
221
330
1F
100
AcDbEntity
  8
VERMASSUNG
  6
CENTERX2
370
     0
100
AcDbLine
 10
157.8947314134
 20
128.5393923328
 30
0.0
 11
169.1571031043
 21
125.8422223184
 31
0.0
  0
LINE
  5
222
330
1F
100
AcDbEntity
  8
VERMASSUNG
  6
CENTERX2
370
     0
100
AcDbLine
 10
157.8947314134
 20
98.8781025337
 30
0.0
 11
169.1571031043
 21
101.5752725481
 31
0.0
  0
LINE
  5
223
330
1F
100
AcDbEntity
  8
0
  6
Continuous
 62
     7
370
    15
100
AcDbLine
 10
272.6069920927
 20
34.8284732781
 30
0.0
 11
272.4655480593
 21
34.9101534164
 31
0.0
  0
LINE
  5
224
330
1F
100
AcDbEntity
  8
0
  6
Continuous
 62
     7
370
    15
100
AcDbLine
 10
269.9195498793
 20
34.9101535407
 30
0.0
 11
269.7781057821
 21
34.8284730615
 31
0.0
  0
LINE
  5
225
330
1F
100
AcDbEntity
  8
0
  6
Continuous
 62
     7
370
    15
100
AcDbLine
 10
273.192548664
 20
33.8080628555
 30
0.0
 11
273.192548664
 21
34.0121978638
 31
0.0
  0
LINE
  5
226
330
1F
100
AcDbEntity
  8
0
  6
Continuous
 62
     7
370
    15
100
AcDbLine
 10
269.1925490591
 20
34.0121977117
 30
0.0
 11
269.1925490591
 21
33.8080627034
 31
0.0
  0
LINE
  5
227
330
1F
100
AcDbEntity
  8
0
  6
Continuous
 62
     7
370
    15
100
AcDbLine
 10
274.5382439475
 20
16.8943575525
 30
0.0
 11
274.665502529
 21
16.9678462538
 31
0.0
  0
LINE
  5
228
330
1F
100
AcDbEntity
  8
0
  6
Continuous
 62
     7
370
    15
100
AcDbLine
 10
281.1839676975
 20
28.2593820655
 30
0.0
 11
281.1839671706
 21
28.406335276
 31
0.0
  0
LINE
  5
229
330
1F
100
AcDbEntity
  8
0
  6
Continuous
 62
     7
370
    15
100
AcDbLine
 10
279.2367817157
 20
32.7100766522
 30
0.0
 11
273.7805766212
 21
35.8598768079
 31
0.0
  0
LINE
  5
22A
330
1F
100
AcDbEntity
  8
0
  6
Continuous
 62
     7
370
    15
100
AcDbLine
 10
264.3813404999
 20
19.5781580672
 30
0.0
 11
269.8375455944
 21
16.4283579115
 31
0.0
  0
SPLINE
  5
22B
330
1F
100
AcDbEntity
  8
0
  6
Continuous
 62
     7
370
    15
100
AcDbSpline
210
0.0
220
0.0
230
1.0
 70
     8
 71
     3
 72
    12
 73
     8
 74
     0
 42
0.000000001
 43
0.00000001
 40
0.0
 40
0.0
 40
0.0
 40
0.0
 40
0.1827777919153263
 40
0.4294208508640861
 40
0.675624799860973
 40
0.9211126734178373
 40
1.0
 40
1.0
 40
1.0
 40
1.0
 10
262.5060559880398
 20
22.54848583333439
 30
0.0
 10
262.5330867465833
 20
22.40973521573775
 30
0.0
 10
262.5965932109717
 20
22.0837524601639
 30
0.0
 10
262.7481547419471
 20
21.61199756210969
 30
0.0
 10
262.954787494153
 20
21.13547466319987
 30
0.0
 10
263.1404057094026
 20
20.79176254643374
 30
0.0
 10
263.269436056272
 20
20.62343710977759
 30
0.0
 10
263.3008159493961
 20
20.58250073829208
 30
0.0
  0
SPLINE
  5
22C
330
1F
100
AcDbEntity
  8
0
  6
Continuous
 62
     7
370
    15
100
AcDbSpline
210
0.0
220
0.0
230
1.0
 70
     8
 71
     3
 72
    13
 73
     9
 74
     0
 42
0.000000001
 43
0.00000001
 40
0.0
 40
0.0
 40
0.0
 40
0.0
 40
0.1158625528363712
 40
0.3352329658213785
 40
0.555566956987756
 40
0.7767054373932722
 40
0.998421204018879
 40
1.0
 40
1.0
 40
1.0
 40
1.0
 10
272.3271825898416
 20
36.29643364682225
 30
0.0
 10
272.2429162352996
 20
36.30474608741243
 30
0.0
 10
271.9991026884675
 20
36.32879703436676
 30
0.0
 10
271.5744130255101
 20
36.30512882181402
 30
0.0
 10
271.0582390004708
 20
36.23203486846881
 30
0.0
 10
270.5270957741461
 20
36.09211823491694
 30
0.0
 10
270.1669421968198
 20
35.97799911871774
 30
0.0
 10
269.9839634506266
 20
35.89568655482831
 30
0.0
 10
269.9826697061407
 20
35.89510456687685
 30
0.0
  0
LINE
  5
22D
330
1F
100
AcDbEntity
  8
0
  6
Continuous
 62
     7
370
    15
100
AcDbLine
 10
262.3138373829
 20
22.3882395244
 30
0.0
 11
262.5713975644
 21
22.2395531965
 31
0.0
  0
LINE
  5
22E
330
1F
100
AcDbEntity
  8
0
  6
Continuous
 62
     7
370
    15
100
AcDbLine
 10
270.5683126785
 20
36.0977399969
 30
0.0
 11
270.3131870044
 21
36.2450209136
 31
0.0
  0
SPLINE
  5
22F
330
1F
100
AcDbEntity
  8
0
  6
Continuous
 62
     7
370
    15
100
AcDbSpline
210
0.0
220
0.0
230
1.0
 70
     8
 71
     3
 72
    12
 73
     8
 74
     0
 42
0.000000001
 43
0.00000001
 40
0.0
 40
0.0
 40
0.0
 40
0.0
 40
0.0713029965286648
 40
0.3085096894083202
 40
0.5457473499192452
 40
0.7830269530965979
 40
1.0
 40
1.0
 40
1.0
 40
1.0
 10
258.3916447786579
 20
32.1063352239954
 30
0.0
 10
258.3581467956544
 20
32.03605496889408
 30
0.0
 10
258.213209656469
 20
31.73197041805576
 30
0.0
 10
257.9933524763932
 20
31.18496287967089
 30
0.0
 10
257.7363136691789
 20
30.47109807401439
 30
0.0
 10
257.5251416413019
 20
29.77721318822083
 30
0.0
 10
257.4189252380451
 20
29.32671128114797
 30
0.0
 10
257.3681911440521
 20
29.11152977060309
 30
0.0
  0
SPLINE
  5
230
330
1F
100
AcDbEntity
  8
0
  6
Continuous
 62
     7
370
    15
100
AcDbSpline
210
0.0
220
0.0
230
1.0
 70
     8
 71
     3
 72
    19
 73
    15
 74
     0
 42
0.000000001
 43
0.00000001
 40
0.0
 40
0.0
 40
0.0
 40
0.0
 40
0.0301123725597358
 40
0.1240138893885772
 40
0.2180029585725478
 40
0.312036446547045
 40
0.4060826881539244
 40
0.500119785246504
 40
0.5941393880957049
 40
0.6881382871270987
 40
0.7821164566425524
 40
0.8760759037843544
 40
0.9700195373990783
 40
1.0
 40
1.0
 40
1.0
 40
1.0
 10
265.7670027346993
 20
39.36729202702659
 30
0.0
 10
265.7097543767081
 20
39.35382939559565
 30
0.0
 10
265.4739844611526
 20
39.29838529925807
 30
0.0
 10
265.049200321962
 20
39.14358135457356
 30
0.0
 10
264.4966635195334
 20
38.90359143350325
 30
0.0
 10
263.9403896705414
 20
38.606195503261
 30
0.0
 10
263.3849949495236
 20
38.25851607104767
 30
0.0
 10
262.8338177560651
 20
37.86150618035322
 30
0.0
 10
262.2904096306332
 20
37.41821422638446
 30
0.0
 10
261.7583661749204
 20
36.93126151421347
 30
0.0
 10
261.2404488270238
 20
36.4045158636989
 30
0.0
 10
260.7422270786557
 20
35.83885285071493
 30
0.0
 10
260.3681188187743
 20
35.3815499704241
 30
0.0
 10
260.1696115918539
 20
35.10484758370741
 30
0.0
 10
260.1215875297511
 20
35.03790607830309
 30
0.0
  0
LINE
  5
231
330
1F
100
AcDbEntity
  8
0
  6
Continuous
 62
     7
370
    15
100
AcDbLine
 10
263.4703068665
 20
38.303287052
 30
0.0
 11
251.1664379668
 21
42.7371135073
 31
0.0
  0
LINE
  5
232
330
1F
100
AcDbEntity
  8
0
  6
Continuous
 62
     7
370
    15
100
AcDbLine
 10
247.1168942146
 20
35.7223381471
 30
0.0
 11
258.9038986621
 21
25.7694891718
 31
0.0
  0
LINE
  5
233
330
1F
100
AcDbEntity
  8
0
  6
Continuous
 62
     7
370
    15
100
AcDbLine
 10
260.6329250485
 20
21.3437114923
 30
0.0
 11
261.215133843
 21
21.0076095094
 31
0.0
  0
LINE
  5
234
330
1F
100
AcDbEntity
  8
0
  6
Continuous
 62
     7
370
    15
100
AcDbLine
 10
259.1433110691
 20
22.2036473383
 30
0.0
 11
259.7184489396
 21
21.871627313
 31
0.0
  0
LINE
  5
235
330
1F
100
AcDbEntity
  8
0
  6
Continuous
 62
     7
370
    15
100
AcDbLine
 10
257.3705500176
 20
24.62986909
 30
0.0
 11
257.3941804055
 21
24.552143004
 31
0.0
  0
SPLINE
  5
236
330
1F
100
AcDbEntity
  8
0
  6
Continuous
 62
     7
370
    15
100
AcDbSpline
210
0.0
220
0.0
230
1.0
 70
     8
 71
     3
 72
    26
 73
    22
 74
     0
 42
0.000000001
 43
0.00000001
 40
0.0
 40
0.0
 40
0.0
 40
0.0
 40
0.0175468821974999
 40
0.0694215611120332
 40
0.1218807804386748
 40
0.1754785677456914
 40
0.2303451840953077
 40
0.286220867236112
 40
0.3426721363805568
 40
0.3993123156212069
 40
0.455888780924081
 40
0.5123434427163874
 40
0.5686814079999172
 40
0.624937380566647
 40
0.6811585451985503
 40
0.7373974260185548
 40
0.7936921030975838
 40
0.8500973883235894
 40
0.9066681907862363
 40
0.9634517151762374
 40
1.0
 40
1.0
 40
1.0
 40
1.0
 10
251.2071044072711
 20
42.71438420598986
 30
0.0
 10
251.1743370985735
 20
42.72929776445429
 30
0.0
 10
251.0446982432131
 20
42.78830098215889
 30
0.0
 10
250.7924711955183
 20
42.83323277334514
 30
0.0
 10
250.4578127085599
 20
42.8482809780426
 30
0.0
 10
250.1061385263808
 20
42.80212782290708
 30
0.0
 10
249.7430795611218
 20
42.6995533038885
 30
0.0
 10
249.3729862835845
 20
42.53962574372737
 30
0.0
 10
249.002350825159
 20
42.32496528056255
 30
0.0
 10
248.6378016184876
 20
42.05945305766581
 30
0.0
 10
248.2854560096465
 20
41.74818027303653
 30
0.0
 10
247.9506446351427
 20
41.39666689910387
 30
0.0
 10
247.6380668585525
 20
41.01059222466898
 30
0.0
 10
247.3520593034231
 20
40.59588864501423
 30
0.0
 10
247.0966504961245
 20
40.15872579889578
 30
0.0
 10
246.8755331786182
 20
39.70550160592354
 30
0.0
 10
246.6921192723454
 20
39.24277512724746
 30
0.0
 10
246.5491085624855
 20
38.77698474320474
 30
0.0
 10
246.4499856366556
 20
38.31501552749256
 30
0.0
 10
246.4002984186593
 20
37.9160361741473
 30
0.0
 10
246.395259321985
 20
37.67778673689031
 30
0.0
 10
246.3932860361133
 20
37.58448941023047
 30
0.0
  0
SPLINE
  5
237
330
1F
100
AcDbEntity
  8
0
  6
Continuous
 62
     7
370
    15
100
AcDbSpline
210
0.0
220
0.0
230
1.0
 70
     8
 71
     3
 72
    13
 73
     9
 74
     0
 42
0.000000001
 43
0.00000001
 40
0.0
 40
0.0
 40
0.0
 40
0.0
 40
0.1024131910414045
 40
0.2955478727109621
 40
0.4886726742952661
 40
0.6799449932991901
 40
0.8674665595294285
 40
1.0
 40
1.0
 40
1.0
 40
1.0
 10
246.3932860361133
 20
37.58448941023047
 30
0.0
 10
246.3946578459967
 20
37.50846942717277
 30
0.0
 10
246.3986166670108
 20
37.28908807553474
 30
0.0
 10
246.4430230190437
 20
36.94476901418845
 30
0.0
 10
246.542863424527
 20
36.5663857256674
 30
0.0
 10
246.6945946513233
 20
36.22918617263092
 30
0.0
 10
246.8699662134574
 20
35.95855009278166
 30
0.0
 10
247.0131608933542
 20
35.82528258795094
 30
0.0
 10
247.0724572117572
 20
35.77009707124801
 30
0.0
  0
LWPOLYLINE
  5
238
330
1F
100
AcDbEntity
  8
0
  6
Continuous
 62
     7
370
    15
100
AcDbPolyline
 90
       32
 70
   128
 43
0.0
 10
270.914347261
 20
33.1488737979
 10
270.5620586131
 20
33.2022179869
 10
270.2355820122
 20
33.2954089738
 10
269.9482840681
 20
33.4246309196
 10
269.7119267807
 20
33.5845936117
 10
269.5361856176
 20
33.7687487797
 10
269.4282569558
 20
33.9695561768
 10
269.392557719
 20
34.1787955848
 10
269.4305511273
 20
34.3878999185
 10
269.5406807437
 20
34.5883088789
 10
269.7184375797
 20
34.7718179105
 10
269.956545015
 20
34.9309136637
 10
270.245254681
 20
35.0590828818
 10
270.5727468563
 20
35.1510782161
 10
270.925613377
 20
35.2031337441
 10
271.2894083781
 20
35.2131180636
 10
271.6492380192
 20
35.1806223022
 10
271.9903710549
 20
35.1069768256
 10
272.2988404147
 20
34.9951970634
 10
272.5620186394
 20
34.8498588897
 10
272.7691303604
 20
34.6769127197
 10
272.9116972121
 20
34.483438529
 10
272.9838811317
 20
34.2773580267
 10
272.9827279544
 20
34.0671075195
 10
272.9082845027
 20
33.8612949228
 10
272.7635994755
 20
33.6683456514
 10
272.554594151
 20
33.4961603387
 10
272.2898274264
 20
33.3517869832
 10
271.9801376684
 20
33.2411369427
 10
271.6382043694
 20
33.1687397911
 10
271.2780253704
 20
33.1375601391
 10
270.914347261
 20
33.1488737979
  0
LWPOLYLINE
  5
239
330
1F
100
AcDbEntity
  8
0
  6
Continuous
 62
     7
370
    15
100
AcDbPolyline
 90
       13
 70
   128
 43
0.0
 10
270.8834359721
 20
32.8714957046
 10
270.5150677746
 20
32.9258809502
 10
270.1711853155
 20
33.0195285969
 10
269.8642174372
 20
33.1490540702
 10
269.6052592974
 20
33.3097755048
 10
269.4036696039
 20
33.4958845167
 10
269.2667352833
 20
33.70065408
 10
269.1994044416
 20
33.9166840023
 10
269.2041110592
 20
34.136165903
 10
269.2806847048
 20
34.3511674664
 10
269.4263586025
 20
34.5539175114
 10
269.6358670303
 20
34.7370884963
 10
269.7781057821
 20
34.8284730615
  0
LWPOLYLINE
  5
23A
330
1F
100
AcDbEntity
  8
0
  6
Continuous
 62
     7
370
    15
100
AcDbPolyline
 90
       15
 70
   128
 43
0.0
 10
272.6069920927
 20
34.8284732781
 10
272.6569906356
 20
34.7985413048
 10
272.8883117698
 20
34.6243373816
 10
273.0583441422
 20
34.4280088772
 10
273.1609411618
 20
34.2166521904
 10
273.1923956841
 20
33.9979058039
 10
273.1515700735
 20
33.77967622
 10
273.0399412147
 20
33.5698500772
 10
272.8615428904
 20
33.3760114939
 10
272.6228219314
 20
33.2051668121
 10
272.3324067905
 20
33.0634905601
 10
272.000795123
 20
32.9561025177
 10
271.6399712443
 20
32.8868845919
 10
271.2629762454
 20
32.8583384891
 10
270.8834359721
 20
32.8714957046
  0
LWPOLYLINE
  5
23B
330
1F
100
AcDbEntity
  8
0
  6
Continuous
 62
     7
370
    15
100
AcDbPolyline
 90
       27
 70
   128
 43
0.0
 10
271.0070811279
 20
33.4910844228
 10
270.7287426159
 20
33.5365954823
 10
270.4773582648
 20
33.6192379779
 10
270.2675386089
 20
33.73420858
 10
270.1114771923
 20
33.874825693
 10
270.0182438853
 20
34.0329171139
 10
269.9932565994
 20
34.199295473
 10
270.0379682482
 20
34.3642910219
 10
270.1497792275
 20
34.518315464
 10
270.3221930574
 20
34.6524165238
 10
270.5451882174
 20
34.758801605
 10
270.8058056259
 20
34.8312876402
 10
271.0888991915
 20
34.8656619909
 10
271.3780165953
 20
34.8599269226
 10
271.6563556341
 20
34.8144155589
 10
271.9077394584
 20
34.7317733675
 10
272.1175591143
 20
34.6168027654
 10
272.2736205308
 20
34.4761856524
 10
272.3668538378
 20
34.3180942314
 10
272.3918411238
 20
34.1517158724
 10
272.3471300018
 20
33.9867200193
 10
272.2353184956
 20
33.8326958814
 10
272.0629051926
 20
33.6985945174
 10
271.8399095058
 20
33.5922097404
 10
271.5792920972
 20
33.5197237052
 10
271.2961985317
 20
33.4853493545
 10
271.0070811279
 20
33.4910844228
  0
SPLINE
  5
23C
330
1F
100
AcDbEntity
  8
0
  6
Continuous
 62
     7
370
    15
100
AcDbSpline
210
0.0
220
0.0
230
1.0
 70
     8
 71
     3
 72
    10
 73
     6
 74
     0
 42
0.000000001
 43
0.00000001
 40
0.0
 40
0.0
 40
0.0
 40
0.0
 40
0.3667062394046305
 40
0.7459500521672549
 40
0.9999999999999999
 40
0.9999999999999999
 40
0.9999999999999999
 40
0.9999999999999999
 10
272.3333745545779
 20
34.03549081998831
 30
0.0
 10
272.2837729578554
 20
33.97109371715283
 30
0.0
 10
272.1828739010987
 20
33.84009779437405
 30
0.0
 10
272.0348680800204
 20
33.68540168872406
 30
0.0
 10
271.9413421743009
 20
33.6388543624157
 30
0.0
 10
271.9038236434902
 20
33.62018159701648
 30
0.0
  0
SPLINE
  5
23D
330
1F
100
AcDbEntity
  8
0
  6
Continuous
 62
     7
370
    15
100
AcDbSpline
210
0.0
220
0.0
230
1.0
 70
     8
 71
     3
 72
    11
 73
     7
 74
     0
 42
0.000000001
 43
0.00000001
 40
0.0
 40
0.0
 40
0.0
 40
0.0
 40
0.2164573635953273
 40
0.4403160245607184
 40
0.7519041151426306
 40
1.0
 40
1.0
 40
1.0
 40
1.0
 10
271.9175183833294
 20
34.6573549635
 30
0.0
 10
271.9460050998161
 20
34.5851812009133
 30
0.0
 10
272.0039525752355
 20
34.43836584803313
 30
0.0
 10
272.1114878474462
 20
34.22741710332534
 30
0.0
 10
272.2268371043757
 20
34.08515964998843
 30
0.0
 10
272.3006533835293
 20
34.05074575878337
 30
0.0
 10
272.3333745545779
 20
34.03549081998832
 30
0.0
  0
SPLINE
  5
23E
330
1F
100
AcDbEntity
  8
0
  6
Continuous
 62
     7
370
    15
100
AcDbSpline
210
0.0
220
0.0
230
1.0
 70
     8
 71
     3
 72
    11
 73
     7
 74
     0
 42
0.000000001
 43
0.00000001
 40
0.0
 40
0.0
 40
0.0
 40
0.0
 40
0.1849307882989579
 40
0.5198465003664969
 40
0.8714436260807296
 40
1.0
 40
1.0
 40
1.0
 40
1.0
 10
270.7766927232653
 20
34.76038152854164
 30
0.0
 10
270.8430943066311
 20
34.72890718341046
 30
0.0
 10
271.0297513313971
 20
34.6404317688066
 30
0.0
 10
271.378182497743
 20
34.55605158046669
 30
0.0
 10
271.699972874926
 20
34.5917877045398
 30
0.0
 10
271.8715738982177
 20
34.64350749785837
 30
0.0
 10
271.9175183833294
 20
34.6573549635
 30
0.0
  0
SPLINE
  5
23F
330
1F
100
AcDbEntity
  8
0
  6
Continuous
 62
     7
370
    15
100
AcDbSpline
210
0.0
220
0.0
230
1.0
 70
     8
 71
     3
 72
    11
 73
     7
 74
     0
 42
0.000000001
 43
0.00000001
 40
0.0
 40
0.0
 40
0.0
 40
0.0
 40
0.2164576479737354
 40
0.4403159162499113
 40
0.751904187999599
 40
1.0
 40
1.0
 40
1.0
 40
1.0
 10
270.0517231685953
 20
34.24154391205462
 30
0.0
 10
270.1013848635623
 20
34.247510011469
 30
0.0
 10
270.2024061715485
 20
34.25964618939881
 30
0.0
 10
270.389873639494
 20
34.34366778994272
 30
0.0
 10
270.5909639232266
 20
34.51781617881958
 30
0.0
 10
270.7196492913851
 20
34.68588172021632
 30
0.0
 10
270.7766927232653
 20
34.76038152854164
 30
0.0
  0
SPLINE
  5
240
330
1F
100
AcDbEntity
  8
0
  6
Continuous
 62
     7
370
    15
100
AcDbSpline
210
0.0
220
0.0
230
1.0
 70
     8
 71
     3
 72
    11
 73
     7
 74
     0
 42
0.000000001
 43
0.00000001
 40
0.0
 40
0.0
 40
0.0
 40
0.0
 40
0.1085193576075136
 40
0.3632153456584248
 40
0.717727324025939
 40
1.0
 40
1.0
 40
1.0
 40
1.0
 10
270.4190972931662
 20
33.64671339081422
 30
0.0
 10
270.406477422681
 20
33.65296576339286
 30
0.0
 10
270.3642385933926
 20
33.67389251524066
 30
0.0
 10
270.273402915083
 20
33.77144146695016
 30
0.0
 10
270.158305755402
 20
33.97223963994443
 30
0.0
 10
270.0844581797832
 20
34.15883172965607
 30
0.0
 10
270.0517231685953
 20
34.24154391205462
 30
0.0
  0
LINE
  5
241
330
1F
100
AcDbEntity
  8
0
  6
Continuous
 62
     7
370
    15
100
AcDbLine
 10
271.9175183833
 20
33.6234728109
 30
0.0
 11
271.9175183833
 21
34.6573549635
 31
0.0
  0
LINE
  5
242
330
1F
100
AcDbEntity
  8
0
  6
Continuous
 62
     7
370
    15
100
AcDbLine
 10
270.7766927233
 20
33.5256878947
 30
0.0
 11
270.7766927233
 21
34.7603815285
 31
0.0
  0
LWPOLYLINE
  5
243
330
1F
100
AcDbEntity
  8
0
  6
Continuous
 62
     7
370
    15
100
AcDbPolyline
 90
       73
 70
   128
 43
0.0
 10
274.6644429229
 20
32.0242471012
 10
274.0962289236
 20
31.6675753751
 10
273.5323393226
 20
31.25632216
 10
272.9770657887
 20
30.7936171563
 10
272.4346341362
 20
30.2829809489
 10
271.9091727805
 20
29.7283007125
 10
271.4046805356
 20
29.1337976298
 10
270.9249972428
 20
28.5039959424
 10
270.4737733461
 20
27.8436889617
 10
270.0544427598
 20
27.1579021127
 10
269.6701973177
 20
26.4518544569
 10
269.3239609572
 20
25.730919759
 10
269.01836891
 20
25.0005846637
 10
268.7557471554
 20
24.266407328
 10
268.5380939808
 20
23.5339754458
 10
268.3670657574
 20
22.8088629026
 10
268.2439648228
 20
22.0965888637
 10
268.1697273638
 20
21.4025735927
 10
268.1449181483
 20
20.7320989835
 10
268.1697273638
 20
20.0902684849
 10
268.2439648228
 20
19.4819659596
 10
268.3670657574
 20
18.9118212345
 10
268.5380939808
 20
18.3841736748
 10
268.7557471554
 20
17.903038799
 10
269.01836891
 20
17.4720780871
 10
269.3239609572
 20
17.0945720592
 10
269.6701973177
 20
16.7733933541
 10
270.0544427598
 20
16.5109860427
 10
270.4737733461
 20
16.3093479831
 10
270.9249972428
 20
16.1700130245
 10
271.4046805356
 20
16.0940418783
 10
271.9091727805
 20
16.0820131432
 10
272.4346341362
 20
16.1340176745
 10
272.9770657887
 20
16.2496597224
 10
273.5323393226
 20
16.4280598946
 10
274.0962289236
 20
16.6678597547
 10
274.6644429229
 20
16.9672339479
 10
275.2326569222
 20
17.3239056739
 10
275.7965465231
 20
17.7351588891
 10
276.351820057
 20
18.1978638927
 10
276.8942517096
 20
18.7085001002
 10
277.4197130653
 20
19.2631803365
 10
277.9242053102
 20
19.8576834193
 10
278.4038886029
 20
20.4874851067
 10
278.8551124997
 20
21.1477920873
 10
279.2744430859
 20
21.8335789364
 10
279.6586885281
 20
22.5396265922
 10
280.0049248886
 20
23.26056129
 10
280.3105169358
 20
23.9908963854
 10
280.5731386903
 20
24.725073721
 10
280.7907918649
 20
25.4575056032
 10
280.9618200883
 20
26.1826181464
 10
281.0849210229
 20
26.8948921853
 10
281.1591584819
 20
27.5889074564
 10
281.1839676975
 20
28.2593820655
 10
281.1591584819
 20
28.9012125641
 10
281.0849210229
 20
29.5095150895
 10
280.9618200883
 20
30.0796598146
 10
280.7907918649
 20
30.6073073742
 10
280.5731386903
 20
31.08844225
 10
280.3105169358
 20
31.519402962
 10
280.0049248886
 20
31.8969089898
 10
279.6586885281
 20
32.2180876949
 10
279.2744430859
 20
32.4804950064
 10
278.8551124997
 20
32.6821330659
 10
278.4038886029
 20
32.8214680246
 10
277.9242053102
 20
32.8974391708
 10
277.4197130653
 20
32.9094679059
 10
276.8942517096
 20
32.8574633746
 10
276.351820057
 20
32.7418213267
 10
275.7965465231
 20
32.5634211544
 10
275.2326569222
 20
32.3236212944
 10
274.6644429229
 20
32.0242471012
  0
LWPOLYLINE
  5
244
330
1F
100
AcDbEntity
  8
0
  6
Continuous
 62
     7
370
    15
100
AcDbPolyline
 90
       38
 70
   128
 43
0.0
 10
274.5371636551
 20
32.2447006507
 10
273.9657725078
 20
31.8864302355
 10
273.3986117187
 20
31.4739857961
 10
272.839880431
 20
31.0104211094
 10
272.2937150945
 20
30.4991674522
 10
271.7641596993
 20
29.9440109419
 10
271.2551345609
 20
29.3490611323
 10
270.7704083977
 20
28.7187233355
 10
270.3135697504
 20
28.0576638713
 10
269.8880011672
 20
27.3707769136
 10
269.4968536518
 20
26.6631484468
 10
269.143022956
 20
25.9400173321
 10
268.8291279797
 20
25.2067366785
 10
268.5574936484
 20
24.4687365811
 10
268.3301308936
 20
23.731480625
 10
268.1487224282
 20
23.0004264946
 10
268.0146122099
 20
22.2809874948
 10
267.9287922701
 20
21.5784894345
 10
267.8918984995
 20
20.8981338201
 10
267.9042043256
 20
20.244957818
 10
267.9656175522
 20
19.6237967263
 10
268.0756845739
 20
19.039249981
 10
268.233590376
 20
18.4956453389
 10
268.4381653835
 20
17.9970072033
 10
268.6878954708
 20
17.5470273074
 10
268.9809309181
 20
17.1490371084
 10
269.3151032701
 20
16.8059837556
 10
269.6879379799
 20
16.520406819
 10
270.0966744289
 20
16.2944200359
 10
270.5382864734
 20
16.1296967088
 10
271.0095050985
 20
16.0274566226
 10
271.5068413354
 20
15.9884573736
 10
272.0266128665
 20
16.0129866104
 10
272.5649718164
 20
16.1008634756
 10
273.1179320151
 20
16.2514367026
 10
273.6813998183
 20
16.4635920651
 10
274.2512033136
 20
16.7357588953
 10
274.5382439475
 20
16.8943575525
  0
LWPOLYLINE
  5
245
330
1F
100
AcDbEntity
  8
0
  6
Continuous
 62
     7
370
    15
100
AcDbPolyline
 90
       20
 70
   128
 43
0.0
 10
281.1839671706
 20
28.406335276
 10
281.1824288106
 20
28.5705936558
 10
281.14553504
 20
29.2083526293
 10
281.0597151002
 20
29.8117650963
 10
280.9256048819
 20
30.3763637339
 10
280.7441964165
 20
30.8979681085
 10
280.5168336617
 20
31.3727166155
 10
280.2451993304
 20
31.7970943896
 10
279.9313043541
 20
32.1679596178
 10
279.5774736583
 20
32.4825665068
 10
279.1863261429
 20
32.738585665
 10
278.7607575597
 20
32.9341215952
 10
278.3039189125
 20
33.0677263845
 10
277.8191927493
 20
33.1384112658
 10
277.3101676108
 20
33.1456531603
 10
276.7806122156
 20
33.0893980256
 10
276.2344468791
 20
32.9700626077
 10
275.6757155914
 20
32.7885298809
 10
275.1085548023
 20
32.5461444118
 10
274.5371636551
 20
32.2447006507
  0
SPLINE
  5
246
330
1F
100
AcDbEntity
  8
0
  6
Continuous
 62
     7
370
    15
100
AcDbSpline
210
0.0
220
0.0
230
1.0
 70
     8
 71
     3
 72
    52
 73
    48
 74
     0
 42
0.000000001
 43
0.00000001
 40
0.0
 40
0.0
 40
0.0
 40
0.0
 40
0.0312499999999994
 40
0.0312499999999994
 40
0.0624999999999987
 40
0.0624999999999987
 40
0.1249999999999974
 40
0.1249999999999974
 40
0.156249999999997
 40
0.156249999999997
 40
0.1874999999999966
 40
0.1874999999999966
 40
0.2499999999999964
 40
0.2499999999999964
 40
0.3124999999999968
 40
0.3124999999999968
 40
0.3749999999999972
 40
0.3749999999999972
 40
0.4062499999999972
 40
0.4062499999999972
 40
0.4374999999999971
 40
0.4374999999999971
 40
0.4999999999999977
 40
0.4999999999999977
 40
0.5312499999999979
 40
0.5312499999999979
 40
0.5624999999999981
 40
0.5624999999999981
 40
0.6249999999999987
 40
0.6249999999999987
 40
0.6874999999999991
 40
0.6874999999999991
 40
0.7187499999999993
 40
0.7187499999999993
 40
0.7499999999999996
 40
0.7499999999999996
 40
0.8124999999999999
 40
0.8124999999999999
 40
0.8437499999999998
 40
0.8437499999999998
 40
0.8749999999999997
 40
0.8749999999999997
 40
0.9374999999999999
 40
0.9374999999999999
 40
0.96875
 40
0.96875
 40
1.0
 40
1.0
 40
1.0
 40
1.0
 10
272.9249605412427
 20
33.17540596055643
 30
0.0
 10
272.9792423178578
 20
33.20674216318648
 30
0.0
 10
273.0303449013378
 20
33.23921413860832
 30
0.0
 10
273.1245513105023
 20
33.30521962911648
 30
0.0
 10
273.1679602604426
 20
33.33892673516119
 30
0.0
 10
273.2873279647666
 20
33.44221936892318
 30
0.0
 10
273.3527475037106
 20
33.51467816627967
 30
0.0
 10
273.4255383884859
 20
33.62347397609783
 30
0.0
 10
273.4458037636795
 20
33.65991766690377
 30
0.0
 10
273.4786055020778
 20
33.73332143524664
 30
0.0
 10
273.4911675807334
 20
33.77040315411878
 30
0.0
 10
273.5171021365619
 20
33.88189720510459
 30
0.0
 10
273.5186823968604
 20
33.95531671344926
 30
0.0
 10
273.4932255308394
 20
34.10209614847005
 30
0.0
 10
273.4656865260744
 20
34.17592650243961
 30
0.0
 10
273.3848022216379
 20
34.31995025889761
 30
0.0
 10
273.331512505649
 20
34.3907231705011
 30
0.0
 10
273.2326812894952
 20
34.49601077561719
 30
0.0
 10
273.1964408117344
 20
34.53104162188045
 30
0.0
 10
273.1189481958837
 20
34.59966308440947
 30
0.0
 10
273.077570737714
 20
34.63340532022057
 30
0.0
 10
272.9457475241592
 20
34.73309647785168
 30
0.0
 10
272.8476753610994
 20
34.79753857725374
 30
0.0
 10
272.6848954680196
 20
34.89130781809258
 30
0.0
 10
272.6282218825776
 20
34.92193154802887
 30
0.0
 10
272.511731887982
 20
34.98105381973708
 30
0.0
 10
272.4516905823509
 20
35.00968405741217
 30
0.0
 10
272.2662287596997
 20
35.09273427385931
 30
0.0
 10
272.1355215688076
 20
35.14435899170454
 30
0.0
 10
271.8590927693094
 20
35.23886726425173
 30
0.0
 10
271.7166595977517
 20
35.28058086774338
 30
0.0
 10
271.4983475446093
 20
35.333442486702
 30
0.0
 10
271.4247005762714
 20
35.34946470767536
 30
0.0
 10
271.2755643494169
 20
35.3780094775054
 30
0.0
 10
271.1996858003728
 20
35.390582233595
 30
0.0
 10
270.9722156778118
 20
35.42197143179287
 30
0.0
 10
270.8212159822748
 20
35.43456836987109
 30
0.0
 10
270.5955815221035
 20
35.43909833611389
 30
0.0
 10
270.5201074206265
 20
35.43817278353477
 30
0.0
 10
270.3715100271013
 20
35.43104482609294
 30
0.0
 10
270.2987023586765
 20
35.42488887162623
 30
0.0
 10
270.0847308841726
 20
35.39839658981408
 30
0.0
 10
269.9479627909483
 20
35.37012593376171
 30
0.0
 10
269.7524608611124
 20
35.30941221686889
 30
0.0
 10
269.6894395504394
 20
35.28620991451608
 30
0.0
 10
269.5702596416613
 20
35.23482572404668
 30
0.0
 10
269.5136923199382
 20
35.20652248170065
 30
0.0
 10
269.4601373134287
 20
35.17560583452206
 30
0.0
  0
SPLINE
  5
247
330
1F
100
AcDbEntity
  8
0
  6
Continuous
 62
     7
370
    15
100
AcDbSpline
210
0.0
220
0.0
230
1.0
 70
     8
 71
     3
 72
    52
 73
    48
 74
     0
 42
0.000000001
 43
0.00000001
 40
0.0
 40
0.0
 40
0.0
 40
0.0
 40
0.0312500000000002
 40
0.0312500000000002
 40
0.0625000000000003
 40
0.0625000000000003
 40
0.1250000000000005
 40
0.1250000000000005
 40
0.1875000000000007
 40
0.1875000000000007
 40
0.2500000000000009
 40
0.2500000000000009
 40
0.3125000000000011
 40
0.3125000000000011
 40
0.3437500000000011
 40
0.3437500000000011
 40
0.3750000000000011
 40
0.3750000000000011
 40
0.4062500000000012
 40
0.4062500000000012
 40
0.4375000000000012
 40
0.4375000000000012
 40
0.5000000000000012
 40
0.5000000000000012
 40
0.5312500000000013
 40
0.5312500000000013
 40
0.5625000000000013
 40
0.5625000000000013
 40
0.6250000000000008
 40
0.6250000000000008
 40
0.6562500000000009
 40
0.6562500000000009
 40
0.6875000000000009
 40
0.6875000000000009
 40
0.7500000000000013
 40
0.7500000000000013
 40
0.7812500000000012
 40
0.7812500000000012
 40
0.8125000000000011
 40
0.8125000000000011
 40
0.8750000000000007
 40
0.8750000000000007
 40
0.9062500000000004
 40
0.9062500000000004
 40
0.9375000000000003
 40
0.9375000000000003
 40
1.0
 40
1.0
 40
1.0
 40
1.0
 10
269.4601373134287
 20
35.17560583452207
 30
0.0
 10
269.4065164535371
 20
35.14465117099522
 30
0.0
 10
269.3559149033519
 20
35.11107696607638
 30
0.0
 10
269.2609247633619
 20
35.03856141226671
 30
0.0
 10
269.2168439509983
 20
34.99978345495292
 30
0.0
 10
269.0972662600444
 20
34.87869579236178
 30
0.0
 10
269.0330949809516
 20
34.79077776754205
 30
0.0
 10
268.9349432471444
 20
34.60189941354908
 30
0.0
 10
268.9025651795443
 20
34.50399046462931
 30
0.0
 10
268.868166552689
 20
34.30387412989537
 30
0.0
 10
268.8664380616294
 20
34.20084426121661
 30
0.0
 10
268.8919758389588
 20
33.9993649827715
 30
0.0
 10
268.9189276867777
 20
33.90005075228642
 30
0.0
 10
268.9799985990336
 20
33.75415939790265
 30
0.0
 10
269.0037448185821
 20
33.70630278082293
 30
0.0
 10
269.0571704048673
 20
33.6134074895794
 30
0.0
 10
269.0869248911944
 20
33.56818415107133
 30
0.0
 10
269.152362320204
 20
33.48025219158911
 30
0.0
 10
269.1880457023975
 20
33.43754356273893
 30
0.0
 10
269.2653498453585
 20
33.35475002855337
 30
0.0
 10
269.3071626581754
 20
33.31450398818544
 30
0.0
 10
269.4403219757107
 20
33.19914453124898
 30
0.0
 10
269.538570644802
 20
33.12987825088076
 30
0.0
 10
269.6996407952206
 20
33.03722070066179
 30
0.0
 10
269.7556285822071
 20
33.00821627848438
 30
0.0
 10
269.8722904931392
 20
32.95402677729562
 30
0.0
 10
269.9332739207692
 20
32.92874022085849
 30
0.0
 10
270.1204370988464
 20
32.85987495368477
 30
0.0
 10
270.2510796865633
 20
32.82298054129974
 30
0.0
 10
270.455831571784
 20
32.78047256139353
 30
0.0
 10
270.5255564347842
 20
32.76845282673816
 30
0.0
 10
270.6680778042732
 20
32.74873156172655
 30
0.0
 10
270.7411891364196
 20
32.74102380208904
 30
0.0
 10
270.9610073543072
 20
32.72478526495206
 30
0.0
 10
271.109251108471
 20
32.72285469504402
 30
0.0
 10
271.3343877100612
 20
32.73259393694764
 30
0.0
 10
271.4098983404435
 20
32.73796038417666
 30
0.0
 10
271.5619352466468
 20
32.75300354021417
 30
0.0
 10
271.6385658926284
 20
32.76272737969162
 30
0.0
 10
271.8643366026641
 20
32.79760830578407
 30
0.0
 10
272.0112839234344
 20
32.82855136784698
 30
0.0
 10
272.2261449836727
 20
32.88616495517201
 30
0.0
 10
272.296858433183
 20
32.90726112963928
 30
0.0
 10
272.4361692635063
 20
32.953355426329
 30
0.0
 10
272.503266247097
 20
32.97785607439899
 30
0.0
 10
272.6970332029551
 20
33.05547858533612
 30
0.0
 10
272.8162634939172
 20
33.11265649079541
 30
0.0
 10
272.9249605412427
 20
33.17540596055643
 30
0.0
  0
ARC
  5
248
330
1F
100
AcDbEntity
  8
0
  6
Continuous
 62
     7
370
    15
100
AcDbCircle
 10
272.1306346782
 20
32.9580017658
 30
0.0
 40
3.338141275452417
100
AcDbArc
 50
60.3783977855
 51
85.6653809967
  0
ARC
  5
249
330
1F
100
AcDbEntity
  8
0
  6
Continuous
 62
     7
370
    15
100
AcDbCircle
 10
266.0775259372
 20
22.4661413373
 30
0.0
 40
3.349252514595741
100
AcDbArc
 50
215.095602966
 51
239.573209009
  0
LWPOLYLINE
  5
24A
330
1F
100
AcDbEntity
  8
0
  6
Continuous
 62
     7
370
    15
100
AcDbPolyline
 90
       68
 70
   128
 43
0.0
 10
274.6644429229
 20
31.0280668736
 10
274.1347266782
 20
30.6935652833
 10
273.6096655529
 20
30.3045964704
 10
273.0938739355
 20
29.8645798606
 10
272.5918844231
 20
29.3773810509
 10
272.1081088031
 20
28.8472825923
 10
271.6467981118
 20
28.2789426816
 10
271.2120067445
 20
27.6773555826
 10
270.8075555763
 20
27.0478084351
 10
270.4369986402
 20
26.3958334255
 10
270.1035928341
 20
25.7271607922
 10
269.8102676272
 20
25.0476657487
 10
269.559601353
 20
24.3633207287
 10
269.3537967112
 20
23.6801397222
 10
269.1946623285
 20
23.00412611
 10
269.0835958996
 20
22.3412204209
 10
269.0215747047
 20
21.6972490398
 10
269.0091434917
 20
21.0778711093
 10
269.0464107888
 20
20.4885292331
 10
269.1330494311
 20
19.9344028216
 10
269.268298668
 20
19.4203619315
 10
269.4509689046
 20
18.9509233677
 10
269.6794553998
 20
18.5302129441
 10
269.9517503829
 20
18.1619277634
 10
270.2654607034
 20
17.8493044282
 10
270.6178294304
 20
17.5950902932
 10
271.0057598242
 20
17.4015192806
 10
271.4258427316
 20
17.2702924095
 10
271.8743868791
 20
17.202562736
 10
272.3474499556
 20
17.1989262245
 10
272.8408748332
 20
17.2594146722
 10
273.3503253914
 20
17.3834954015
 10
273.8713243837
 20
17.5700791272
 10
274.3992933617
 20
17.81752597
 10
274.9295924841
 20
18.1236611371
 10
275.457561462
 20
18.485794301
 10
275.9785604543
 20
18.9007432078
 10
276.4880110125
 20
19.3648615728
 10
276.9814358901
 20
19.8740693625
 10
277.4544989667
 20
20.4238928763
 10
277.9030431141
 20
21.009500599
 10
278.3231260216
 20
21.6257448712
 10
278.7110564154
 20
22.2672107827
 10
279.0634251424
 20
22.9282611902
 10
279.3771354628
 20
23.6030867517
 10
279.649430446
 20
24.2857570281
 10
279.8779169411
 20
24.9702723437
 10
280.0605871778
 20
25.6506174734
 10
280.1958364146
 20
26.3208138085
 10
280.2824750569
 20
26.9749710672
 10
280.3197423541
 20
27.6073408488
 10
280.3073111411
 20
28.2123660064
 10
280.2452899462
 20
28.78472924
 10
280.1342235173
 20
29.3194003599
 10
279.9750891345
 20
29.8116813247
 10
279.7692844927
 20
30.2572453495
 10
279.5186182186
 20
30.6521772497
 10
279.2252930117
 20
30.993006218
 10
278.8918872055
 20
31.2767367013
 10
278.5213302695
 20
31.5008757793
 10
278.1168791013
 20
31.6634535477
 10
277.682087734
 20
31.7630412194
 10
277.2207770427
 20
31.798763143
 10
276.7370014226
 20
31.7703061599
 10
276.2350119103
 20
31.6779202155
 10
275.7192202929
 20
31.5224164998
 10
275.1941591676
 20
31.3051626412
 10
274.6644429229
 20
31.0280668736
  0
LWPOLYLINE
  5
24B
330
1F
100
AcDbEntity
  8
0
  6
Continuous
 62
     7
370
    15
100
AcDbPolyline
 90
       17
 70
   128
 43
0.0
 10
278.4239871179
 20
31.1911094612
 10
278.0280725305
 20
31.3823526856
 10
277.5981525486
 20
31.506702245
 10
277.13844054
 20
31.5629396344
 10
276.6534422662
 20
31.550513704
 10
276.1479109697
 20
31.4695463662
 10
275.6268010127
 20
31.3208310793
 10
275.0952198358
 20
31.1058251905
 10
274.5583772176
 20
30.8266358528
 10
274.0215345993
 20
30.4859998968
 10
273.4899534225
 20
30.0872552228
 10
272.9688434654
 20
29.63430976
 10
272.463312169
 20
29.1316030869
 10
271.9783138952
 20
28.5840619296
 10
271.5186018866
 20
27.9970523528
 10
271.0886819047
 20
27.376327748
 10
270.6927673173
 20
26.7279712709
  0
SPLINE
  5
24C
330
1F
100
AcDbEntity
  8
0
  6
Continuous
 62
     7
370
    15
100
AcDbSpline
210
0.0
220
0.0
230
1.0
 70
     8
 71
     3
 72
    22
 73
    18
 74
     0
 42
0.000000001
 43
0.00000001
 40
0.0
 40
0.0
 40
0.0
 40
0.0
 40
0.125
 40
0.125
 40
0.25
 40
0.25
 40
0.375
 40
0.375
 40
0.5
 40
0.5
 40
0.625
 40
0.625
 40
0.75
 40
0.75
 40
0.875
 40
0.875
 40
1.0
 40
1.0
 40
1.0
 40
1.0
 10
270.6927672090405
 20
26.7279713069898
 30
0.0
 10
270.6632812550928
 20
26.68923308010081
 30
0.0
 10
270.6335130778729
 20
26.64798554556706
 30
0.0
 10
270.5735059591573
 20
26.56044830166195
 30
0.0
 10
270.5431079779304
 20
26.51390449947104
 30
0.0
 10
270.4825683608426
 20
26.41643558951235
 30
0.0
 10
270.4530233181637
 20
26.36649443903339
 30
0.0
 10
270.3954050822304
 20
26.26421455071011
 30
0.0
 10
270.3670940198643
 20
26.21140399104051
 30
0.0
 10
270.3132106981421
 20
26.10546751034122
 30
0.0
 10
270.2879146387463
 20
26.05293941188264
 30
0.0
 10
270.2405004445029
 20
25.94874593378902
 30
0.0
 10
270.2181887456155
 20
25.89657048766441
 30
0.0
 10
270.1781025290961
 20
25.79630680763735
 30
0.0
 10
270.1602577024092
 20
25.74814175901858
 30
0.0
 10
270.1287410358402
 20
25.65564666112851
 30
0.0
 10
270.1150408742658
 20
25.61115739543716
 30
0.0
 10
270.1037036832934
 20
25.56961518401334
 30
0.0
  0
LWPOLYLINE
  5
24D
330
1F
100
AcDbEntity
  8
0
  6
Continuous
 62
     7
370
    15
100
AcDbPolyline
 90
       13
 70
   128
 43
0.0
 10
270.1037034696
 20
25.5696149433
 10
269.812319125
 20
24.8621298164
 10
269.5697171235
 20
24.1515079175
 10
269.3783909778
 20
23.4450535629
 10
269.2403073654
 20
22.7500281522
 10
269.1568850545
 20
22.0735751885
 10
269.1289822602
 20
21.4226479599
 10
269.1568850545
 20
20.8039366118
 10
269.2403073654
 20
20.2238009982
 10
269.3783909778
 20
19.6882035329
 10
269.5697171235
 20
19.2026496441
 10
269.812319125
 20
18.772130054
 10
270.1037034696
 20
18.4010701302
  0
SPLINE
  5
24E
330
1F
100
AcDbEntity
  8
0
  6
Continuous
 62
     7
370
    15
100
AcDbSpline
210
0.0
220
0.0
230
1.0
 70
     8
 71
     3
 72
    22
 73
    18
 74
     0
 42
0.000000001
 43
0.00000001
 40
0.0
 40
0.0
 40
0.0
 40
0.0
 40
0.125
 40
0.125
 40
0.25
 40
0.25
 40
0.375
 40
0.375
 40
0.5
 40
0.5
 40
0.625
 40
0.625
 40
0.75
 40
0.75
 40
0.875
 40
0.875
 40
1.0
 40
1.0
 40
1.0
 40
1.0
 10
270.1037036832934
 20
18.40107016356391
 30
0.0
 10
270.1150383363945
 20
18.34800424461487
 30
0.0
 10
270.1285250468449
 20
18.29801461968788
 30
0.0
 10
270.1598723355675
 20
18.20415144733669
 30
0.0
 10
270.1778370054466
 20
18.16006487190053
 30
0.0
 10
270.2181122333787
 20
18.07941880414782
 30
0.0
 10
270.2400035967629
 20
18.04361608872081
 30
0.0
 10
270.2872815185167
 20
17.98089574924967
 30
0.0
 10
270.3129097961805
 20
17.95379134645249
 30
0.0
 10
270.3667728066906
 20
17.91001433536643
 30
0.0
 10
270.3946800476469
 20
17.89348705570969
 30
0.0
 10
270.4523723427321
 20
17.87083903850924
 30
0.0
 10
270.4824724783442
 20
17.86474961240316
 30
0.0
 10
270.5426898925143
 20
17.86349349168397
 30
0.0
 10
270.5728197466486
 20
17.86817961797871
 30
0.0
 10
270.6330491078486
 20
17.88781685547181
 30
0.0
 10
270.6632746530773
 20
17.90290259964346
 30
0.0
 10
270.6927672090405
 20
17.9228323106907
 30
0.0
  0
LWPOLYLINE
  5
24F
330
1F
100
AcDbEntity
  8
0
  6
Continuous
 62
     7
370
    15
100
AcDbPolyline
 90
       17
 70
   128
 43
0.0
 10
270.6927673173
 20
17.9228324445
 10
271.0886819047
 20
17.7315892201
 10
271.5186018866
 20
17.6072396608
 10
271.9783138952
 20
17.5510022713
 10
272.463312169
 20
17.5634282017
 10
272.9688434654
 20
17.6443955396
 10
273.4899534225
 20
17.7931108265
 10
274.0215345993
 20
18.0081167153
 10
274.5583772176
 20
18.2873060529
 10
275.0952198358
 20
18.6279420089
 10
275.6268010127
 20
19.0266866829
 10
276.1479109697
 20
19.4796321457
 10
276.6534422662
 20
19.9823388189
 10
277.13844054
 20
20.5298799761
 10
277.5981525486
 20
21.1168895529
 10
278.0280725305
 20
21.7376141577
 10
278.4239871179
 20
22.3859706348
  0
SPLINE
  5
250
330
1F
100
AcDbEntity
  8
0
  6
Continuous
 62
     7
370
    15
100
AcDbSpline
210
0.0
220
0.0
230
1.0
 70
     8
 71
     3
 72
    22
 73
    18
 74
     0
 42
0.000000001
 43
0.00000001
 40
0.0
 40
0.0
 40
0.0
 40
0.0
 40
0.1249999999999999
 40
0.1249999999999999
 40
0.2499999999999998
 40
0.2499999999999998
 40
0.3749999999999997
 40
0.3749999999999997
 40
0.4999999999999996
 40
0.4999999999999996
 40
0.6249999999999994
 40
0.6249999999999994
 40
0.7499999999999993
 40
0.7499999999999993
 40
0.8749999999999997
 40
0.8749999999999997
 40
1.0
 40
1.0
 40
1.0
 40
1.0
 10
278.4239872025267
 20
22.38597061236032
 30
0.0
 10
278.4747967688574
 20
22.41239897984337
 30
0.0
 10
278.523403547529
 20
22.44277122124625
 30
0.0
 10
278.6162803836395
 20
22.51133318119945
 30
0.0
 10
278.6607699977122
 20
22.54974205690532
 30
0.0
 10
278.7441489690348
 20
22.63402608831226
 30
0.0
 10
278.7822449130869
 20
22.67903090850122
 30
0.0
 10
278.851395095892
 20
22.77465354559902
 30
0.0
 10
278.8826825297469
 20
22.8257458825815
 30
0.0
 10
278.9365884228141
 20
22.93166933312067
 30
0.0
 10
278.9589877216536
 20
22.98586969585335
 30
0.0
 10
278.994939993081
 20
23.09668000114544
 30
0.0
 10
279.008549961044
 20
23.15387884960662
 30
0.0
 10
279.0259478450658
 20
23.26724022519224
 30
0.0
 10
279.0298714845989
 20
23.32344180409254
 30
0.0
 10
279.0284621485346
 20
23.43494467871096
 30
0.0
 10
279.0230419241211
 20
23.4904719082834
 30
0.0
 10
279.0130507282739
 20
23.54432673533679
 30
0.0
  0
LWPOLYLINE
  5
251
330
1F
100
AcDbEntity
  8
0
  6
Continuous
 62
     7
370
    15
100
AcDbPolyline
 90
       13
 70
   128
 43
0.0
 10
279.0130509656
 20
23.5443269624
 10
279.3044353101
 20
24.2518120894
 10
279.5470373117
 20
24.9624339883
 10
279.7383634573
 20
25.6688883429
 10
279.8764470698
 20
26.3639137536
 10
279.9598693807
 20
27.0403667172
 10
279.9877721749
 20
27.6912939458
 10
279.9598693807
 20
28.3100052939
 10
279.8764470698
 20
28.8901409075
 10
279.7383634573
 20
29.4257383728
 10
279.5470373117
 20
29.9112922617
 10
279.3044353101
 20
30.3418118517
 10
279.0130509656
 20
30.7128717755
  0
SPLINE
  5
252
330
1F
100
AcDbEntity
  8
0
  6
Continuous
 62
     7
370
    15
100
AcDbSpline
210
0.0
220
0.0
230
1.0
 70
     8
 71
     3
 72
    22
 73
    18
 74
     0
 42
0.000000001
 43
0.00000001
 40
0.0
 40
0.0
 40
0.0
 40
0.0
 40
0.125
 40
0.125
 40
0.25
 40
0.25
 40
0.375
 40
0.375
 40
0.5
 40
0.5
 40
0.625
 40
0.625
 40
0.75
 40
0.75
 40
0.875
 40
0.875
 40
1.0
 40
1.0
 40
1.0
 40
1.0
 10
279.0130507282739
 20
30.71287175578622
 30
0.0
 10
279.0230396875557
 20
30.75362781532932
 30
0.0
 10
279.028391578557
 20
30.79274214712543
 30
0.0
 10
279.0299140072293
 20
30.86763003552471
 30
0.0
 10
279.0260409701959
 20
30.90358168447582
 30
0.0
 10
279.0086050964987
 20
30.97104287367679
 30
0.0
 10
278.9952646344877
 20
31.00190925881381
 30
0.0
 10
278.9595186596056
 20
31.05797234705947
 30
0.0
 10
278.9368667534308
 20
31.08335852716951
 30
0.0
 10
278.8830263142656
 20
31.12712250809545
 30
0.0
 10
278.8522223127528
 20
31.14532205202629
 30
0.0
 10
278.7830680948518
 20
31.17458689642522
 30
0.0
 10
278.7442662283152
 20
31.18569972486786
 30
0.0
 10
278.6613604816476
 20
31.20005354114561
 30
0.0
 10
278.6173094403595
 20
31.2034039451324
 30
0.0
 10
278.5241540765261
 20
31.20277448436766
 30
0.0
 10
278.4748081453096
 20
31.19872670407709
 30
0.0
 10
278.4239872025267
 20
31.19110960865942
 30
0.0
  0
LINE
  5
253
330
1F
100
AcDbEntity
  8
0
  6
Continuous
 62
     7
370
    15
100
AcDbLine
 10
278.2777588904
 20
31.1236514164
 30
0.0
 11
276.3893391816
 21
30.0334899233
 31
0.0
  0
LWPOLYLINE
  5
254
330
1F
100
AcDbEntity
  8
0
  6
Continuous
 62
     7
370
    15
100
AcDbPolyline
 90
        9
 70
   128
 43
0.0
 10
276.3893391816
 20
30.0334899233
 10
275.9518948018
 20
29.9888640414
 10
275.4971263551
 20
29.8767096918
 10
275.0306876436
 20
29.6984215272
 10
274.5583772176
 20
29.4562157147
 10
274.0860667916
 20
29.1531035167
 10
273.6196280801
 20
28.7928530082
 10
273.1648596334
 20
28.3799428855
 10
272.7274152536
 20
27.9195062371
  0
LINE
  5
255
330
1F
100
AcDbEntity
  8
0
  6
Continuous
 62
     7
370
    15
100
AcDbLine
 10
272.7274152536
 20
27.9195062371
 30
0.0
 11
270.8389955448
 21
26.8293447439
 31
0.0
  0
ARC
  5
256
330
1F
100
AcDbEntity
  8
0
  6
Continuous
 62
     7
370
    15
100
AcDbCircle
 10
271.4067942996
 20
25.8541602075
 30
0.0
 40
1.128441538536787
100
AcDbArc
 50
120.2099965849
 51
129.2536723413
  0
ARC
  5
257
330
1F
100
AcDbEntity
  8
0
  6
Continuous
 62
     7
370
    15
100
AcDbCircle
 10
278.6999323744
 20
30.4007274234
 30
0.0
 40
0.8371675759851016
100
AcDbArc
 50
109.2455734938
 51
120.2840933907
  0
LWPOLYLINE
  5
258
330
1F
100
AcDbEntity
  8
0
  6
Continuous
 62
     7
370
    15
100
AcDbPolyline
 90
       50
 70
   128
 43
0.0
 10
272.0173107936
 20
27.5095714154
 10
271.8694463465
 20
27.3176477262
 10
271.5282324415
 20
26.8273309137
 10
271.2188158312
 20
26.3116108205
 10
270.9453815661
 20
25.7774619434
 10
270.7116267149
 20
25.2321074205
 10
270.5207125547
 20
24.6829220764
 10
270.3752211068
 20
24.1373330338
 10
270.2771198388
 20
23.6027183472
 10
270.2277350593
 20
23.0863076128
 10
270.2277350593
 20
22.5950846311
 10
270.2771198388
 20
22.1356923494
 10
270.3752211068
 20
21.7143429759
 10
270.5207125547
 20
21.3367347835
 10
270.7116267149
 20
21.0079742369
 10
270.9453815661
 20
20.7325073205
 10
271.2188158312
 20
20.5140589261
 10
271.5282324415
 20
20.3555836469
 10
271.8694463465
 20
20.2592240234
 10
272.2378436516
 20
20.2262839981
 10
272.6284422044
 20
20.2572082248
 10
273.0359600168
 20
20.3515789826
 10
273.4548859603
 20
20.5081195721
 10
273.8795548071
 20
20.7247136055
 10
274.3042236539
 20
20.998431786
 10
274.7231495974
 20
21.3255727955
 10
275.1306674098
 20
21.7017120888
 10
275.5212659626
 20
22.1217633518
 10
275.8896632678
 20
22.580045852
 10
276.2308771727
 20
23.0703626645
 10
276.540293783
 20
23.5860827578
 10
276.8137280481
 20
24.1202316348
 10
277.0474828993
 20
24.6655861577
 10
277.2383970596
 20
25.2147715018
 10
277.3838885074
 20
25.7603605444
 10
277.4819897755
 20
26.294975231
 10
277.5313745549
 20
26.8113859654
 10
277.5313745549
 20
27.3026089472
 10
277.4819897755
 20
27.7620012288
 10
277.3838885074
 20
28.1833506023
 10
277.2383970596
 20
28.5609587948
 10
277.0474828993
 20
28.8897193414
 10
276.8137280481
 20
29.1651862577
 10
276.540293783
 20
29.3836346521
 10
276.2308771727
 20
29.5421099313
 10
275.8896632678
 20
29.6384695548
 10
275.5212659626
 20
29.6714095801
 10
275.1306674098
 20
29.6404853534
 10
274.7231495974
 20
29.5461145956
 10
274.7164739976
 20
29.5440804895
  0
LWPOLYLINE
  5
259
330
1F
100
AcDbEntity
  8
0
  6
Continuous
 62
     7
370
    15
100
AcDbPolyline
 90
        3
 70
   128
 43
0.0
 10
278.3322940148
 20
31.1527956639
 10
278.3342522627
 20
31.0786835044
 10
278.3131229939
 20
30.8761605308
  0
LWPOLYLINE
  5
25A
330
1F
100
AcDbEntity
  8
0
  6
Continuous
 62
     7
370
    15
100
AcDbPolyline
 90
       13
 70
   128
 43
0.0
 10
278.3131229939
 20
30.8761605308
 10
278.5746789601
 20
30.5156184784
 10
278.7921156052
 20
30.1027660421
 10
278.9633888072
 20
29.6414822309
 10
279.08688961
 20
29.1361020623
 10
279.1614573949
 20
28.5913745458
 10
279.1863909437
 20
28.0124180808
 10
279.1614573949
 20
27.4046739532
 10
279.08688961
 20
26.7738523048
 10
278.9633888072
 20
26.1258811444
 10
278.7921156052
 20
25.4668495033
 10
278.5746789601
 20
24.8029500603
 10
278.3131229939
 20
24.1404219173
  0
ARC
  5
25B
330
1F
100
AcDbEntity
  8
0
  6
Continuous
 62
     7
370
    15
100
AcDbCircle
 10
276.8067447197
 20
23.9691253948
 30
0.0
 40
1.516086410326977
100
AcDbArc
 50
301.5017191795
 51
6.4874735737
  0
LINE
  5
25C
330
1F
100
AcDbEntity
  8
0
  6
Continuous
 62
     7
370
    15
100
AcDbLine
 10
277.5989364799
 20
22.6764729981
 30
0.0
 11
275.7105167711
 21
21.5863115049
 31
0.0
  0
LWPOLYLINE
  5
25D
330
1F
100
AcDbEntity
  8
0
  6
Continuous
 62
     7
370
    15
100
AcDbPolyline
 90
        9
 70
   128
 43
0.0
 10
272.0485928431
 20
19.4723278187
 10
272.4860372229
 20
19.5169537006
 10
272.9408056696
 20
19.6291080502
 10
273.4072443811
 20
19.8073962148
 10
273.8795548071
 20
20.0496020273
 10
274.3518652331
 20
20.3527142253
 10
274.8183039446
 20
20.7129647338
 10
275.2730723913
 20
21.1258748565
 10
275.7105167711
 20
21.5863115049
  0
LINE
  5
25E
330
1F
100
AcDbEntity
  8
0
  6
Continuous
 62
     7
370
    15
100
AcDbLine
 10
272.0485928431
 20
19.4723278187
 30
0.0
 11
270.1601731343
 21
18.3821663255
 31
0.0
  0
ARC
  5
25F
330
1F
100
AcDbEntity
  8
0
  6
Continuous
 62
     7
370
    15
100
AcDbCircle
 10
270.9242032721
 20
25.5512114864
 30
0.0
 40
0.8207061673692473
100
AcDbArc
 50
178.7150958032
 51
193.0857748737
  0
LWPOLYLINE
  5
260
330
1F
100
AcDbEntity
  8
0
  6
Continuous
 62
     7
370
    15
100
AcDbPolyline
 90
       13
 70
   128
 43
0.0
 10
270.1248090308
 20
25.3653958246
 10
269.8632530646
 20
24.7028676817
 10
269.6458164195
 20
24.0389682386
 10
269.4745432175
 20
23.3799365976
 10
269.3510424147
 20
22.7319654372
 10
269.2764746298
 20
22.1011437888
 10
269.251541081
 20
21.4933996612
 10
269.2764746298
 20
20.9144431962
 10
269.3510424147
 20
20.3697156797
 10
269.4745432175
 20
19.8643355111
 10
269.6458164195
 20
19.4030516998
 10
269.8632530646
 20
18.9901992636
 10
270.1248090308
 20
18.6296572112
  0
ARC
  5
261
330
1F
100
AcDbEntity
  8
0
  6
Continuous
 62
     7
370
    15
100
AcDbCircle
 10
271.2494582743
 20
18.4105498916
 30
0.0
 40
1.145794020974873
100
AcDbArc
 50
168.9755719698
 51
180.4740437654
  0
LWPOLYLINE
  5
262
330
1F
100
AcDbEntity
  8
0
  6
Continuous
 62
     7
370
    15
100
AcDbPolyline
 90
       24
 70
   128
 43
0.0
 10
262.497675614
 20
22.6442936458
 10
262.4822967559
 20
22.7324424719
 10
262.4074149769
 20
23.3460229744
 10
262.3823908125
 20
23.993422667
 10
262.4074149769
 20
24.669714645
 10
262.4822967559
 20
25.3697518092
 10
262.6064661131
 20
26.0882063339
 10
262.7789779056
 20
26.8196101995
 10
262.9985197858
 20
27.558397245
 10
263.2634206312
 20
28.2989452207
 10
263.5716637151
 20
29.0356168524
 10
263.9209046191
 20
29.7628074445
 10
264.308483877
 20
30.4749810766
 10
264.7314527899
 20
31.1667180542
 10
265.1865921289
 20
31.8327549074
 10
265.670437423
 20
32.4680205864
 10
266.1793071449
 20
33.0676825429
 10
266.709327736
 20
33.6271757773
 10
267.2564658744
 20
34.1422421521
 10
267.8165574516
 20
34.6089623279
 10
268.3853397748
 20
35.0237840884
 10
268.9584840335
 20
35.3835502077
 10
269.5316282921
 20
35.6855223639
 10
269.9166184164
 20
35.8556344878
  0
LWPOLYLINE
  5
263
330
1F
100
AcDbEntity
  8
0
  6
Continuous
 62
     7
370
    15
100
AcDbPolyline
 90
       35
 70
   128
 43
0.0
 10
270.4155611726
 20
21.5917140553
 10
270.4755500992
 20
21.472850662
 10
270.6777891176
 20
21.1659868859
 10
270.9219958604
 20
20.9139450482
 10
271.2047424717
 20
20.7202637522
 10
271.5220599038
 20
20.5876613408
 10
271.8694933665
 20
20.517999617
 10
272.2421658109
 20
20.5122563093
 10
272.6348457595
 20
20.5705122136
 10
273.0420207995
 20
20.6919495128
 10
273.4579750938
 20
20.8748630631
 10
273.8768695919
 20
21.1166857095
 10
274.2928238863
 20
21.414022765
 10
274.6999989262
 20
21.7626997603
 10
275.0926788748
 20
22.1578224742
 10
275.4653513192
 20
22.5938442275
 10
275.8127847819
 20
23.0646440888
 10
276.130102214
 20
23.563613409
 10
276.4128488254
 20
24.0837469937
 10
276.6570555682
 20
24.6177439351
 10
276.8592945866
 20
25.1581079117
 10
277.0167267635
 20
25.6972535725
 10
277.1271420235
 20
26.2276121617
 10
277.1889904164
 20
26.741738855
 10
277.2014034535
 20
27.2324162281
 10
277.1642075426
 20
27.6927566043
 10
277.0779242509
 20
28.1162974735
 10
276.9437647735
 20
28.4970932996
 10
276.7636128111
 20
28.8297987262
 10
276.5399971745
 20
29.1097430572
 10
276.2760570138
 20
29.3329966862
 10
275.975497037
 20
29.4964257022
 10
275.6425369337
 20
29.5977356969
 10
275.2818505262
 20
29.6355043182
 10
275.0544813177
 20
29.6274299932
  0
SPLINE
  5
264
330
1F
100
AcDbEntity
  8
0
  6
Continuous
 62
     7
370
    15
100
AcDbSpline
210
0.0
220
0.0
230
1.0
 70
     8
 71
     3
 72
    12
 73
     8
 74
     0
 42
0.000000001
 43
0.00000001
 40
0.0
 40
0.0
 40
0.0
 40
0.0
 40
0.2499999999999984
 40
0.2499999999999984
 40
0.4999999999999969
 40
0.4999999999999969
 40
1.0
 40
1.0
 40
1.0
 40
1.0
 10
259.4787227351507
 20
27.88626005649631
 30
0.0
 10
259.4922953320665
 20
27.87842476307572
 30
0.0
 10
259.5076680156774
 20
27.86754988750116
 30
0.0
 10
259.5373387567434
 20
27.84386031648683
 30
0.0
 10
259.5514252688455
 20
27.83128724488012
 30
0.0
 10
259.5894648357488
 20
27.79449015815933
 30
0.0
 10
259.6088764984535
 20
27.77174749194947
 30
0.0
 10
259.6222131369155
 20
27.75245596954854
 30
0.0
  0
ARC
  5
265
330
1F
100
AcDbEntity
  8
0
  6
Continuous
 62
     7
370
    15
100
AcDbCircle
 10
269.108777758
 20
34.0149286951
 30
0.0
 40
4.328126072365572
100
AcDbArc
 50
73.9050304541
 51
106.3052783935
  0
SPLINE
  5
266
330
1F
100
AcDbEntity
  8
0
  6
Continuous
 62
     7
370
    15
100
AcDbSpline
210
0.0
220
0.0
230
1.0
 70
     8
 71
     3
 72
    12
 73
     8
 74
     0
 42
0.000000001
 43
0.00000001
 40
0.0
 40
0.0
 40
0.0
 40
0.0
 40
0.5
 40
0.5
 40
0.75
 40
0.75
 40
1.0
 40
1.0
 40
1.0
 40
1.0
 10
270.3935182645949
 20
37.99998234483306
 30
0.0
 10
270.3935182645949
 20
38.02905554371018
 30
0.0
 10
270.3867115573668
 20
38.0624886824063
 30
0.0
 10
270.3649472270142
 20
38.11106635355657
 30
0.0
 10
270.3556891394455
 20
38.12695230462911
 30
0.0
 10
270.3339768147026
 20
38.15444421337543
 30
0.0
 10
270.3214824272796
 20
38.1660080517377
 30
0.0
 10
270.3086654508525
 20
38.17340713473513
 30
0.0
  0
LWPOLYLINE
  5
267
330
1F
100
AcDbEntity
  8
0
  6
Continuous
 62
     7
370
    15
100
AcDbPolyline
 90
       17
 70
   128
 43
0.0
 10
259.6558371619
 20
27.9049006622
 10
259.8038637427
 20
28.49484491
 10
260.0319540575
 20
29.2438216602
 10
260.3048222378
 20
29.9939251692
 10
260.6204768451
 20
30.7396842454
 10
260.9766171881
 20
31.4756614909
 10
261.3706454407
 20
32.1964891939
 10
261.7996885047
 20
32.8969111524
 10
262.2606172402
 20
33.5718190225
 10
262.7500704358
 20
34.2162914037
 10
263.2644787805
 20
34.8256280577
 10
263.8000909413
 20
35.3953856477
 10
264.3530009589
 20
35.9214093709
 10
264.9191768288
 20
36.3998628422
 10
265.494489477
 20
36.8272569891
 10
266.0747435303
 20
37.2004751153
 10
266.1966709694
 20
37.2716148818
  0
SPLINE
  5
268
330
1F
100
AcDbEntity
  8
0
  6
Continuous
 62
     7
370
    15
100
AcDbSpline
210
0.0
220
0.0
230
1.0
 70
     8
 71
     3
 72
    51
 73
    47
 74
     0
 42
0.000000001
 43
0.00000001
 40
0.0
 40
0.0
 40
0.0
 40
0.0
 40
0.0625000000000002
 40
0.0625000000000002
 40
0.0937500000000003
 40
0.0937500000000003
 40
0.1250000000000004
 40
0.1250000000000004
 40
0.1875000000000006
 40
0.1875000000000006
 40
0.2500000000000008
 40
0.2500000000000008
 40
0.3125000000000011
 40
0.3125000000000011
 40
0.3437500000000012
 40
0.3437500000000012
 40
0.3750000000000012
 40
0.3750000000000012
 40
0.4375000000000013
 40
0.4375000000000013
 40
0.4687500000000013
 40
0.4687500000000013
 40
0.5000000000000013
 40
0.5312500000000013
 40
0.5312500000000013
 40
0.5625000000000013
 40
0.5625000000000013
 40
0.6250000000000013
 40
0.6250000000000013
 40
0.6562500000000014
 40
0.6562500000000014
 40
0.6875000000000014
 40
0.6875000000000014
 40
0.7500000000000013
 40
0.7500000000000013
 40
0.7812500000000011
 40
0.7812500000000011
 40
0.8125000000000009
 40
0.8125000000000009
 40
0.8750000000000006
 40
0.8750000000000006
 40
0.9062500000000006
 40
0.9062500000000006
 40
0.9375000000000004
 40
0.9375000000000004
 40
1.0
 40
1.0
 40
1.0
 40
1.0
 10
260.9546363222037
 20
24.13087125968425
 30
0.0
 10
261.0662070110006
 20
24.0733006109771
 30
0.0
 10
261.1712694076098
 20
24.02758984472499
 30
0.0
 10
261.3202039421757
 20
23.97618118092385
 30
0.0
 10
261.3684005931848
 20
23.96192767794604
 30
0.0
 10
261.4620288485011
 20
23.93935328789921
 30
0.0
 10
261.5076384865177
 20
23.93103219865367
 30
0.0
 10
261.6379527156196
 20
23.91567607049134
 30
0.0
 10
261.7169467639217
 20
23.91788143076432
 30
0.0
 10
261.8615397306779
 20
23.94757045861006
 30
0.0
 10
261.9275160842787
 20
23.97556184828903
 30
0.0
 10
262.0430587357384
 20
24.05646002818279
 30
0.0
 10
262.0932602330852
 20
24.10927361531662
 30
0.0
 10
262.1584610108472
 20
24.20819359822528
 30
0.0
 10
262.1785904971287
 20
24.24469851217475
 30
0.0
 10
262.2149245356796
 20
24.32345726026898
 30
0.0
 10
262.2311529316292
 20
24.36566100669144
 30
0.0
 10
262.2743906206744
 20
24.50073577805309
 30
0.0
 10
262.2960153452881
 20
24.60200116325417
 30
0.0
 10
262.3179298871988
 20
24.77188765231447
 30
0.0
 10
262.3234385838246
 20
24.83159134959176
 30
0.0
 10
262.3306956494425
 20
24.95437568910696
 30
0.0
 10
262.3342920763909
 20
25.08118178722243
 30
0.0
 10
262.33072400819
 20
25.21592614728195
 30
0.0
 10
262.3235167105609
 20
25.35466897775233
 30
0.0
 10
262.3180654898048
 20
25.42631344220239
 30
0.0
 10
262.2961475132597
 20
25.64555471336513
 30
0.0
 10
262.2744862610172
 20
25.79493641300086
 30
0.0
 10
262.2311875706592
 20
26.0233213244607
 30
0.0
 10
262.2149376300103
 20
26.10017198964847
 30
0.0
 10
262.1785651352346
 20
26.25527004265007
 30
0.0
 10
262.1584506721845
 20
26.3333846918084
 30
0.0
 10
262.0932481497958
 20
26.56496869512792
 30
0.0
 10
262.0430058403492
 20
26.71727559919701
 30
0.0
 10
261.9561654874636
 20
26.94215319065462
 30
0.0
 10
261.9251447464459
 20
27.01683271796729
 30
0.0
 10
261.8595577807875
 20
27.16326804306779
 30
0.0
 10
261.8251566031793
 20
27.23470567965741
 30
0.0
 10
261.7168653067262
 20
27.44367694893124
 30
0.0
 10
261.6379348639496
 20
27.57591900097768
 30
0.0
 10
261.5076016534558
 20
27.76278482775355
 30
0.0
 10
261.4619852288112
 20
27.8233077302672
 30
0.0
 10
261.3683804738573
 20
27.93779813215073
 30
0.0
 10
261.3201933568972
 20
27.99208281956031
 30
0.0
 10
261.1712793452983
 20
28.14605154060347
 30
0.0
 10
261.0662200480385
 20
28.236924390007
 30
0.0
 10
260.9546363222037
 20
28.31516292639865
 30
0.0
  0
ARC
  5
269
330
1F
100
AcDbEntity
  8
0
  6
Continuous
 62
     7
370
    15
100
AcDbCircle
 10
268.928099233
 20
33.8247915807
 30
0.0
 40
2.788544092935978
100
AcDbArc
 50
60.2176628955
 51
82.1677258138
  0
ARC
  5
26A
330
1F
100
AcDbEntity
  8
0
  6
Continuous
 62
     7
370
    15
100
AcDbCircle
 10
263.7267206236
 20
24.8102558759
 30
0.0
 40
2.803997549747591
100
AcDbArc
 50
216.7499235909
 51
239.7428503178
  0
LWPOLYLINE
  5
26B
330
1F
100
AcDbEntity
  8
0
  6
Continuous
 62
     7
370
    15
100
AcDbPolyline
 90
       12
 70
   128
 43
0.0
 10
263.4831071278
 20
36.2230578657
 10
264.0632499365
 20
36.73209919
 10
264.6543027203
 20
37.1885588049
 10
265.2517930237
 20
37.5889824136
 10
265.8511996257
 20
37.9303401955
 10
266.4479867187
 20
38.2100495783
 10
267.0376383833
 20
38.425992707
 10
267.6156925522
 20
38.576536659
 10
268.1777751729
 20
38.6605416067
 10
268.7196329697
 20
38.6773718219
 10
269.2371654495
 20
38.6269007682
 10
269.7264566433
 20
38.5095093487
  0
LINE
  5
26C
330
1F
100
AcDbEntity
  8
0
  6
Continuous
 62
     7
370
    15
100
AcDbLine
 10
270.3086654378
 20
38.1734073658
 30
0.0
 11
269.7264566433
 21
38.5095093487
 31
0.0
  0
LINE
  5
26D
330
1F
100
AcDbEntity
  8
0
  6
Continuous
 62
     7
370
    15
100
AcDbLine
 10
258.8965138757
 20
28.2223621135
 30
0.0
 11
259.4787226702
 21
27.8862601305
 31
0.0
  0
ARC
  5
26E
330
1F
100
AcDbEntity
  8
0
  6
Continuous
 62
     7
370
    15
100
AcDbCircle
 10
274.6296034243
 20
24.5299217675
 30
0.0
 40
16.16057617953654
100
AcDbArc
 50
136.9528122493
 51
166.7921386576
  0
SPLINE
  5
26F
330
1F
100
AcDbEntity
  8
0
  6
Continuous
 62
     7
370
    15
100
AcDbSpline
210
0.0
220
0.0
230
1.0
 70
     8
 71
     3
 72
    34
 73
    30
 74
     0
 42
0.000000001
 43
0.00000001
 40
0.0
 40
0.0
 40
0.0
 40
0.0
 40
0.0624999999999989
 40
0.0624999999999989
 40
0.1249999999999978
 40
0.1249999999999978
 40
0.1874999999999968
 40
0.1874999999999968
 40
0.2499999999999962
 40
0.2499999999999962
 40
0.3124999999999957
 40
0.3124999999999957
 40
0.3749999999999952
 40
0.3749999999999952
 40
0.499999999999995
 40
0.499999999999995
 40
0.6249999999999948
 40
0.6249999999999948
 40
0.6874999999999954
 40
0.6874999999999954
 40
0.749999999999996
 40
0.749999999999996
 40
0.8124999999999966
 40
0.8124999999999966
 40
0.8749999999999977
 40
0.8749999999999977
 40
0.9374999999999989
 40
0.9374999999999989
 40
1.0
 40
1.0
 40
1.0
 40
1.0
 10
262.8195873809636
 20
35.56113881290924
 30
0.0
 10
262.8432375464209
 20
35.54930781936594
 30
0.0
 10
262.8683626245931
 20
35.53983741048773
 30
0.0
 10
262.921446225763
 20
35.52540560631984
 30
0.0
 10
262.9496909043114
 20
35.52042645026414
 30
0.0
 10
263.0077900923023
 20
35.51534249277399
 30
0.0
 10
263.0373830642072
 20
35.51520562081505
 30
0.0
 10
263.0976558901372
 20
35.51960815874411
 30
0.0
 10
263.1286350980571
 20
35.52424282433829
 30
0.0
 10
263.1894081324472
 20
35.53791264143381
 30
0.0
 10
263.219390564681
 20
35.54691760238981
 30
0.0
 10
263.2785645914445
 20
35.56924243142904
 30
0.0
 10
263.3077360766807
 20
35.58262036991155
 30
0.0
 10
263.3903810870846
 20
35.62756527363928
 30
0.0
 10
263.4411511575044
 20
35.66518023404758
 30
0.0
 10
263.5247938585551
 20
35.74862076011794
 30
0.0
 10
263.5586132118343
 20
35.79539039777542
 30
0.0
 10
263.5926026345439
 20
35.86680049776448
 30
0.0
 10
263.601386514783
 20
35.89128712933515
 30
0.0
 10
263.613030953479
 20
35.93960952234069
 30
0.0
 10
263.6159727385909
 20
35.96344973291875
 30
0.0
 10
263.6161099126086
 20
36.01054624897206
 30
0.0
 10
263.6132138954745
 20
36.03392680422689
 30
0.0
 10
263.6017691552657
 20
36.07823185398348
 30
0.0
 10
263.5932558186419
 20
36.09939683187253
 30
0.0
 10
263.5705245519991
 20
36.13976411479624
 30
0.0
 10
263.5563415564095
 20
36.15877012064868
 30
0.0
 10
263.5233795752549
 20
36.19327411180205
 30
0.0
 10
263.5044976142246
 20
36.20897233277007
 30
0.0
 10
263.483107155869
 20
36.22305758401552
 30
0.0
  0
LINE
  5
270
330
1F
100
AcDbEntity
  8
0
  6
Continuous
 62
     7
370
    15
100
AcDbLine
 10
259.6404161569
 20
27.7261253444
 30
0.0
 11
260.6659532946
 21
28.3181553323
 31
0.0
  0
LINE
  5
271
330
1F
100
AcDbEntity
  8
0
  6
Continuous
 62
     7
370
    15
100
AcDbLine
 10
259.622212933
 20
27.7524557987
 30
0.0
 11
259.6404161569
 21
27.7261253444
 31
0.0
  0
LINE
  5
272
330
1F
100
AcDbEntity
  8
0
  6
Continuous
 62
     7
370
    15
100
AcDbLine
 10
270.3935183708
 20
36.7099980306
 30
0.0
 11
270.3935183708
 21
37.9999824878
 31
0.0
  0
LINE
  5
273
330
1F
100
AcDbEntity
  8
0
  6
Continuous
 62
     7
370
    15
100
AcDbLine
 10
271.5106171662
 20
37.3548854383
 30
0.0
 11
270.3935183708
 21
36.7099980306
 31
0.0
  0
SPLINE
  5
274
330
1F
100
AcDbEntity
  8
0
  6
Continuous
 62
     7
370
    15
100
AcDbSpline
210
0.0
220
0.0
230
1.0
 70
     8
 71
     3
 72
     8
 73
     4
 74
     0
 42
0.000000001
 43
0.00000001
 40
0.0
 40
0.0
 40
0.0
 40
0.0
 40
1.0
 40
1.0
 40
1.0
 40
1.0
 10
258.4674921462593
 20
28.6589676275089
 30
0.0
 10
258.3526652943904
 20
28.63998682761956
 30
0.0
 10
258.2378200469562
 20
28.62104385453845
 30
0.0
 10
258.1229581163971
 20
28.60213518697362
 30
0.0
  0
SPLINE
  5
275
330
1F
100
AcDbEntity
  8
0
  6
Continuous
 62
     7
370
    15
100
AcDbSpline
210
0.0
220
0.0
230
1.0
 70
     8
 71
     3
 72
     8
 73
     4
 74
     0
 42
0.000000001
 43
0.00000001
 40
0.0
 40
0.0
 40
0.0
 40
0.0
 40
0.0011862984959113
 40
0.0011862984959113
 40
0.0011862984959113
 40
0.0011862984959113
 10
257.982037681487
 20
28.75027794683849
 30
0.0
 10
258.0291220286248
 20
28.70085796639351
 30
0.0
 10
258.0760979287991
 20
28.6514759467474
 30
0.0
 10
258.1229581163971
 20
28.60213518697362
 30
0.0
  0
LWPOLYLINE
  5
276
330
1F
100
AcDbEntity
  8
0
  6
Continuous
 62
     7
370
    15
100
AcDbPolyline
 90
       24
 70
   128
 43
0.0
 10
257.9820377667
 20
28.7502779342
 10
258.170301417
 20
29.494822033
 10
258.404354984
 20
30.2451892624
 10
258.6825289257
 20
30.9960274891
 10
259.002839706
 20
31.7419823278
 10
259.3630029658
 20
32.4777328821
 10
259.7604493278
 20
33.1980325031
 10
260.1923444164
 20
33.897742857
 10
260.6556083506
 20
34.5718743796
 10
261.1469365542
 20
35.2156186698
 10
261.6628250436
 20
35.8243849898
 10
262.1995946621
 20
36.3938306814
 10
262.7534166322
 20
36.919895384
 10
263.3203412672
 20
37.398826736
 10
263.8963251698
 20
37.8272082429
 10
264.4772604627
 20
38.2019858863
 10
265.0590037403
 20
38.5204854451
 10
265.63740595
 20
38.7804364381
 10
266.2083419772
 20
38.9799843361
 10
266.7677395802
 20
39.1177060488
 10
267.3116093622
 20
39.1926193183
 10
267.8360723644
 20
39.2041901314
 10
268.3373877906
 20
39.1523353402
 10
268.8119805344
 20
39.0374251694
  0
LINE
  5
277
330
1F
100
AcDbEntity
  8
0
  6
Continuous
 62
     7
370
    15
100
AcDbLine
 10
268.9356019826
 20
38.6484432701
 30
0.0
 11
268.8119805344
 21
39.0374251694
 31
0.0
  0
LWPOLYLINE
  5
278
330
1F
100
AcDbEntity
  8
0
  6
Continuous
 62
     7
370
    15
100
AcDbPolyline
 90
       22
 70
   128
 43
0.0
 10
258.4674921485
 20
28.6589676172
 10
258.6572957392
 20
29.4177390718
 10
258.8970733751
 20
30.1829244482
 10
259.1848668081
 20
30.948275967
 10
259.5183258247
 20
31.7075437563
 10
259.8947282652
 20
32.4545290822
 10
260.3110005707
 20
33.1831324083
 10
260.7637435979
 20
33.8874048001
 10
261.2492608048
 20
34.5615955279
 10
261.7635880168
 20
35.2001996685
 10
262.3025258273
 20
35.7980035783
 10
262.8616731834
 20
36.3501255745
 10
263.4364650545
 20
36.8520571489
 10
264.0222081257
 20
37.2997006073
 10
264.6141196021
 20
37.6894012052
 10
265.207366574
 20
38.0179759557
 10
265.7971050346
 20
38.2827428471
 10
266.3785197562
 20
38.4815402116
 10
266.9468634229
 20
38.6127438418
 10
267.4974955351
 20
38.6752833654
 10
268.0259198143
 20
38.6686474126
 10
268.1439046483
 20
38.6573249124
  0
LINE
  5
279
330
1F
100
AcDbEntity
  8
0
  6
Continuous
 62
     7
370
    15
100
AcDbLine
 10
257.4068998963
 20
29.0822979595
 30
0.0
 11
257.9820377667
 21
28.7502779342
 31
0.0
  0
ARC
  5
27A
330
1F
100
AcDbEntity
  8
0
  6
Continuous
 62
     7
370
    15
100
AcDbCircle
 10
267.0369566202
 20
35.2109758629
 30
0.0
 40
4.32811664608385
100
AcDbArc
 50
73.9050169896
 51
106.304765222
  0
LINE
  5
27B
330
1F
100
AcDbEntity
  8
0
  6
Continuous
 62
     7
370
    15
100
AcDbLine
 10
268.8119805344
 20
39.0374251694
 30
0.0
 11
268.236842664
 21
39.3694451947
 31
0.0
  0
LINE
  5
27C
330
1F
100
AcDbEntity
  8
0
  6
Continuous
 62
     7
370
    15
100
AcDbLine
 10
258.9685284835
 20
28.5284308166
 30
0.0
 11
258.7180870364
 21
28.6730075866
 31
0.0
  0
SPLINE
  5
27D
330
1F
100
AcDbEntity
  8
0
  6
Continuous
 62
     7
370
    15
100
AcDbSpline
210
0.0
220
0.0
230
1.0
 70
     8
 71
     3
 72
    11
 73
     7
 74
     0
 42
0.000000001
 43
0.00000001
 40
0.0
 40
0.0
 40
0.0
 40
0.0
 40
0.3165694752064712
 40
0.6331520400060429
 40
0.9494411625907934
 40
1.0
 40
1.0
 40
1.0
 40
1.0
 10
263.2062975586345
 20
35.86606628581039
 30
0.0
 10
263.152861486553
 20
35.84719482064236
 30
0.0
 10
263.045987132902
 20
35.8094511100043
 30
0.0
 10
262.9196070532226
 20
35.70552483032702
 30
0.0
 10
262.8473259768399
 20
35.61624827613803
 30
0.0
 10
262.8333519914199
 20
35.56474860513891
 30
0.0
 10
262.8314261024036
 20
35.55765094132006
 30
0.0
  0
SPLINE
  5
27E
330
1F
100
AcDbEntity
  8
0
  6
Continuous
 62
     7
370
    15
100
AcDbSpline
210
0.0
220
0.0
230
1.0
 70
     8
 71
     3
 72
    14
 73
    10
 74
     0
 42
0.000000001
 43
0.00000001
 40
0.0
 40
0.0
 40
0.0
 40
0.0
 40
0.25
 40
0.25
 40
0.5
 40
0.5
 40
0.75
 40
0.75
 40
1.0
 40
1.0
 40
1.0
 40
1.0
 10
258.7180869913528
 20
28.67300765440172
 30
0.0
 10
258.7030333939696
 20
28.68169791119374
 30
0.0
 10
258.6847238112939
 20
28.68858261563834
 30
0.0
 10
258.6447494602899
 20
28.69754474909134
 30
0.0
 10
258.622975912754
 20
28.69961470253127
 30
0.0
 10
258.5804896525572
 20
28.69883782480536
 30
0.0
 10
258.5591631325772
 20
28.69600246363807
 30
0.0
 10
258.5201659056568
 20
28.6861090891242
 30
0.0
 10
258.502201229445
 20
28.67900475472978
 30
0.0
 10
258.487099923205
 20
28.67028695620098
 30
0.0
  0
LINE
  5
27F
330
1F
100
AcDbEntity
  8
0
  6
Continuous
 62
     7
370
    15
100
AcDbLine
 10
258.4870999161
 20
28.6702869405
 30
0.0
 11
258.4674921485
 21
28.6589676172
 31
0.0
  0
SPLINE
  5
280
330
1F
100
AcDbEntity
  8
0
  6
Continuous
 62
     7
370
    15
100
AcDbSpline
210
0.0
220
0.0
230
1.0
 70
     8
 71
     3
 72
    14
 73
    10
 74
     0
 42
0.000000001
 43
0.00000001
 40
0.0
 40
0.0
 40
0.0
 40
0.0
 40
0.25
 40
0.25
 40
0.5
 40
0.5
 40
0.75
 40
0.75
 40
1.0
 40
1.0
 40
1.0
 40
1.0
 10
260.9546363222037
 20
28.31516292639865
 30
0.0
 10
260.9360425826436
 20
28.3282001946773
 30
0.0
 10
260.9133929343707
 20
28.33830832268484
 30
0.0
 10
260.8636104724461
 20
28.35157314480949
 30
0.0
 10
260.836459253826
 20
28.35469283418599
 30
0.0
 10
260.7830063797135
 20
28.35419139133339
 30
0.0
 10
260.7563493729685
 20
28.35061516073741
 30
0.0
 10
260.7073558164032
 20
28.33806676628656
 30
0.0
 10
260.6849988773589
 20
28.3291502183253
 30
0.0
 10
260.6659532962493
 20
28.31815543838119
 30
0.0
  0
SPLINE
  5
281
330
1F
100
AcDbEntity
  8
0
  6
Continuous
 62
     7
370
    15
100
AcDbSpline
210
0.0
220
0.0
230
1.0
 70
     8
 71
     3
 72
    10
 73
     6
 74
     0
 42
0.000000001
 43
0.00000001
 40
0.0
 40
0.0
 40
0.0
 40
0.0
 40
0.5
 40
0.5
 40
1.0
 40
1.0
 40
1.0
 40
1.0
 10
257.3660948701449
 20
29.09407723107238
 30
0.0
 10
257.3690213839139
 20
29.09582443102965
 30
0.0
 10
257.3737509279972
 20
29.09603725206496
 30
0.0
 10
257.3874114737083
 20
29.09234523220963
 30
0.0
 10
257.3963142590654
 20
29.08840888128311
 30
0.0
 10
257.4068998662741
 20
29.08229794031659
 30
0.0
  0
ARC
  5
282
330
1F
100
AcDbEntity
  8
0
  6
Continuous
 62
     7
370
    15
100
AcDbCircle
 10
273.4504879181
 20
25.1960223705
 30
0.0
 40
16.55009591090078
100
AcDbArc
 50
143.7084918296
 51
155.2111579739
  0
ARC
  5
283
330
1F
100
AcDbEntity
  8
0
  6
Continuous
 62
     7
370
    15
100
AcDbCircle
 10
270.4168220607
 20
18.7132144823
 30
0.0
 40
0.8371675759873717
100
AcDbArc
 50
289.2455734938
 51
300.2840933907
  0
SPLINE
  5
284
330
1F
100
AcDbEntity
  8
0
  6
Continuous
 62
     7
370
    15
100
AcDbSpline
210
0.0
220
0.0
230
1.0
 70
     8
 71
     3
 72
    12
 73
     8
 74
     0
 42
0.000000001
 43
0.00000001
 40
0.0
 40
0.0
 40
0.0
 40
0.0
 40
0.5000000000000022
 40
0.5000000000000022
 40
0.7500000000000011
 40
0.7500000000000011
 40
1.0
 40
1.0
 40
1.0
 40
1.0
 10
260.6659532962491
 20
24.12113566528832
 30
0.0
 10
260.7037888208711
 20
24.14297764873286
 30
0.0
 10
260.7559110442444
 20
24.15660023197286
 30
0.0
 10
260.8364613085112
 20
24.15935398350893
 30
0.0
 10
260.8632177040228
 20
24.15742483536605
 30
0.0
 10
260.913583535186
 20
24.14786823697893
 30
0.0
 10
260.9360238015226
 20
24.14047534926408
 30
0.0
 10
260.9546363222037
 20
24.13087125968426
 30
0.0
  0
SPLINE
  5
285
330
1F
100
AcDbEntity
  8
0
  6
Continuous
 62
     7
370
    15
100
AcDbSpline
210
0.0
220
0.0
230
1.0
 70
     8
 71
     3
 72
    14
 73
    10
 74
     0
 42
0.000000001
 43
0.00000001
 40
0.0
 40
0.0
 40
0.0
 40
0.0
 40
0.25
 40
0.25
 40
0.5
 40
0.5
 40
0.75
 40
0.75
 40
1.0
 40
1.0
 40
1.0
 40
1.0
 10
263.3731291006447
 20
35.98864700946569
 30
0.0
 10
263.3790654574964
 20
35.97323980193145
 30
0.0
 10
263.3788119503349
 20
35.95807234667006
 30
0.0
 10
263.3656377083506
 20
35.93169596676235
 30
0.0
 10
263.3527833702139
 20
35.92038654374557
 30
0.0
 10
263.3188223400521
 20
35.90121893327057
 30
0.0
 10
263.2978555750549
 20
35.89326809429148
 30
0.0
 10
263.2533213093368
 20
35.87892532388493
 30
0.0
 10
263.2300594386524
 20
35.87257651441155
 30
0.0
 10
263.2062974563599
 20
35.86606637618966
 30
0.0
  0
LINE
  5
286
330
1F
100
AcDbEntity
  8
0
  6
Continuous
 62
     7
370
    15
100
AcDbLine
 10
263.3666783027
 20
36.0053893465
 30
0.0
 11
263.3731291413
 21
35.9886471506
 31
0.0
  0
SPLINE
  5
287
330
1F
100
AcDbEntity
  8
0
  6
Continuous
 62
     7
370
    15
100
AcDbSpline
210
0.0
220
0.0
230
1.0
 70
     8
 71
     3
 72
    10
 73
     6
 74
     0
 42
0.000000001
 43
0.00000001
 40
0.0
 40
0.0
 40
0.0
 40
0.0
 40
0.5
 40
0.5
 40
1.0
 40
1.0
 40
1.0
 40
1.0
 10
263.483107155869
 20
36.22305758401553
 30
0.0
 10
263.4719011359738
 20
36.19424714294031
 30
0.0
 10
263.4567739805939
 20
36.16186854881894
 30
0.0
 10
263.41838368146
 20
36.08971053428297
 30
0.0
 10
263.3951709705401
 20
36.04998005149305
 30
0.0
 10
263.3666782755041
 20
36.00538946686742
 30
0.0
  0
LINE
  5
288
330
1F
100
AcDbEntity
  8
0
  6
Continuous
 62
     7
370
    15
100
AcDbLine
 10
259.6404161569
 20
27.7261253444
 30
0.0
 11
258.9092744926
 21
28.148204443
 31
0.0
  0
SPLINE
  5
289
330
1F
100
AcDbEntity
  8
0
  6
Continuous
 62
     7
370
    15
100
AcDbSpline
210
0.0
220
0.0
230
1.0
 70
     8
 71
     3
 72
     8
 73
     4
 74
     0
 42
0.000000001
 43
0.00000001
 40
0.0000000000000004
 40
0.0000000000000004
 40
0.0000000000000004
 40
0.0000000000000004
 40
0.0011862984959128
 40
0.0011862984959128
 40
0.0011862984959128
 40
0.0011862984959128
 10
258.9092743855855
 20
28.14820446695821
 30
0.0
 10
258.9048495058825
 20
28.17304784492572
 30
0.0
 10
258.9005991032529
 20
28.19776495984636
 30
0.0
 10
258.896513852126
 20
28.22236209053352
 30
0.0
  0
LINE
  5
28A
330
1F
100
AcDbEntity
  8
0
  6
Continuous
 62
     7
370
    15
100
AcDbLine
 10
278.3131229939
 20
30.8761605308
 30
0.0
 11
278.9919454044
 21
30.4842846945
 31
0.0
  0
ARC
  5
28B
330
1F
100
AcDbEntity
  8
0
  6
Continuous
 62
     7
370
    15
100
AcDbCircle
 10
277.8672961609
 20
30.7033920142
 30
0.0
 40
1.145794020970102
100
AcDbArc
 50
348.9755719698
 51
0.4740437654
  0
LINE
  5
28C
330
1F
100
AcDbEntity
  8
0
  6
Continuous
 62
     7
370
    15
100
AcDbLine
 10
270.8389955448
 20
17.9902904893
 30
0.0
 11
272.7274152536
 21
19.0804519825
 31
0.0
  0
LWPOLYLINE
  5
28D
330
1F
100
AcDbEntity
  8
0
  6
Continuous
 62
     7
370
    15
100
AcDbPolyline
 90
        9
 70
   128
 43
0.0
 10
272.7274152536
 20
19.0804519825
 10
273.1648596334
 20
19.1250778643
 10
273.6196280801
 20
19.2372322139
 10
274.0860667916
 20
19.4155203786
 10
274.5583772176
 20
19.6577261911
 10
275.0306876436
 20
19.960838389
 10
275.4971263551
 20
20.3210888976
 10
275.9518948018
 20
20.7339990202
 10
276.3893391816
 20
21.1944356687
  0
LINE
  5
28E
330
1F
100
AcDbEntity
  8
0
  6
Continuous
 62
     7
370
    15
100
AcDbLine
 10
276.3893391816
 20
21.1944356687
 30
0.0
 11
278.2777588904
 21
22.2845971618
 31
0.0
  0
ARC
  5
28F
330
1F
100
AcDbEntity
  8
0
  6
Continuous
 62
     7
370
    15
100
AcDbCircle
 10
277.7099601356
 20
23.2597816982
 30
0.0
 40
1.128441538538138
100
AcDbArc
 50
300.209996585
 51
309.2536723413
  0
LINE
  5
290
330
1F
100
AcDbEntity
  8
0
  6
Continuous
 62
     7
370
    15
100
AcDbLine
 10
272.7274152536
 20
19.0804519825
 30
0.0
 11
272.0485928431
 21
19.4723278187
 31
0.0
  0
LINE
  5
291
330
1F
100
AcDbEntity
  8
0
  6
Continuous
 62
     7
370
    15
100
AcDbLine
 10
258.9383881855
 20
28.4622744011
 30
0.0
 11
258.9383881855
 21
28.4042144662
 31
0.0
  0
LINE
  5
292
330
1F
100
AcDbEntity
  8
0
  6
Continuous
 62
     7
370
    15
100
AcDbLine
 10
258.9383881855
 20
28.1313971872
 30
0.0
 11
258.9383881855
 21
27.1584399374
 31
0.0
  0
LINE
  5
293
330
1F
100
AcDbEntity
  8
0
  6
Continuous
 62
     7
370
    15
100
AcDbLine
 10
258.9383881855
 20
28.5458302613
 30
0.0
 11
258.9383881855
 21
28.4622744011
 31
0.0
  0
LINE
  5
294
330
1F
100
AcDbEntity
  8
0
  6
Continuous
 62
     7
370
    15
100
AcDbLine
 10
258.9383881855
 20
27.1584399374
 30
0.0
 11
258.9383881855
 21
26.0104443204
 31
0.0
  0
LINE
  5
295
330
1F
100
AcDbEntity
  8
0
  6
Continuous
 62
     7
370
    15
100
AcDbLine
 10
258.9383881855
 20
28.4622744011
 30
0.0
 11
258.9304308605
 21
28.3705360985
 31
0.0
  0
ARC
  5
296
330
1F
100
AcDbEntity
  8
0
  6
Continuous
 62
     7
370
    15
100
AcDbCircle
 10
265.3315014503
 20
27.7996160261
 30
0.0
 40
6.425185132995879
100
AcDbArc
 50
176.9225000953
 51
185.727139394
  0
LINE
  5
297
330
1F
100
AcDbEntity
  8
0
  6
Continuous
 62
     7
370
    15
100
AcDbLine
 10
258.5388732365
 20
28.1022232767
 30
0.0
 11
258.5635886753
 21
28.6863577897
 31
0.0
  0
ARC
  5
298
330
1F
100
AcDbEntity
  8
0
  6
Continuous
 62
     7
370
    15
100
AcDbCircle
 10
263.2728683252
 20
27.9922795236
 30
0.0
 40
4.735271600305351
100
AcDbArc
 50
178.6695844123
 51
203.7430473282
  0
LINE
  5
299
330
1F
100
AcDbEntity
  8
0
  6
Continuous
 62
     7
370
    15
100
AcDbLine
 10
247.1168942146
 20
35.7223381471
 30
0.0
 11
247.0759585612
 21
35.7582837458
 31
0.0
  0
ARC
  5
29A
330
1F
100
AcDbEntity
  8
0
  6
Continuous
 62
     7
370
    15
100
AcDbCircle
 10
278.1925511631
 20
23.5627304193
 30
0.0
 40
0.820706167365959
100
AcDbArc
 50
358.7150958031
 51
13.0857748738
  0
LWPOLYLINE
  5
29B
330
1F
100
AcDbEntity
  8
0
  6
Continuous
 62
     7
370
    15
100
AcDbPolyline
 90
       13
 70
   128
 43
0.0
 10
278.9919454044
 20
23.7485460811
 10
279.2535013705
 20
24.4110742241
 10
279.4709380157
 20
25.0749736671
 10
279.6422112177
 20
25.7340053081
 10
279.7657120205
 20
26.3819764686
 10
279.8402798054
 20
27.0127981169
 10
279.8652133541
 20
27.6205422445
 10
279.8402798054
 20
28.1994987096
 10
279.7657120205
 20
28.744226226
 10
279.6422112177
 20
29.2496063947
 10
279.4709380157
 20
29.7108902059
 10
279.2535013705
 20
30.1237426421
 10
278.9919454044
 20
30.4842846945
  0
LINE
  5
29C
330
1F
100
AcDbEntity
  8
0
  6
Continuous
 62
     7
370
    15
100
AcDbLine
 10
257.5403089623
 20
28.9384914219
 30
0.0
 11
257.3660946347
 21
29.0940770898
 31
0.0
  0
LINE
  5
29D
330
1F
100
AcDbEntity
  8
0
  6
Continuous
 62
     7
370
    15
100
AcDbLine
 10
258.1229582572
 20
28.6021351435
 30
0.0
 11
257.5403089623
 21
28.9384914219
 31
0.0
  0
LINE
  5
29E
330
1F
100
AcDbEntity
  8
0
  6
Continuous
 62
     7
370
    15
100
AcDbLine
 10
278.3131229939
 20
24.1404219173
 30
0.0
 11
278.9919454044
 21
23.7485460811
 31
0.0
  0
LINE
  5
29F
330
1F
100
AcDbEntity
  8
0
  6
Continuous
 62
     7
370
    15
100
AcDbLine
 10
275.7105167711
 20
21.5863115049
 30
0.0
 11
276.3893391816
 21
21.1944356687
 31
0.0
  0
LINE
  5
2A0
330
1F
100
AcDbEntity
  8
0
  6
Continuous
 62
     7
370
    15
100
AcDbLine
 10
258.9092744926
 20
23.9511848033
 30
0.0
 11
259.6404161569
 21
23.5291057047
 31
0.0
  0
LINE
  5
2A1
330
1F
100
AcDbEntity
  8
0
  6
Continuous
 62
     7
370
    15
100
AcDbLine
 10
259.6404161569
 20
23.5291057047
 30
0.0
 11
259.622212933
 21
23.4817582555
 31
0.0
  0
SPLINE
  5
2A2
330
1F
100
AcDbEntity
  8
0
  6
Continuous
 62
     7
370
    15
100
AcDbSpline
210
0.0
220
0.0
230
1.0
 70
     8
 71
     3
 72
    14
 73
    10
 74
     0
 42
0.000000001
 43
0.00000001
 40
0.0
 40
0.0
 40
0.0
 40
0.0
 40
0.25
 40
0.25
 40
0.5
 40
0.5
 40
0.75
 40
0.75
 40
1.0
 40
1.0
 40
1.0
 40
1.0
 10
259.6222131369155
 20
23.48175839693393
 30
0.0
 10
259.615543199689
 20
23.4644093496913
 30
0.0
 10
259.6074251025226
 20
23.44831721791297
 30
0.0
 10
259.5881063108945
 20
23.41880846284411
 30
0.0
 10
259.5768187717724
 20
23.40538062017326
 30
0.0
 10
259.5516486324032
 20
23.38396005790822
 30
0.0
 10
259.5375833619963
 20
23.37577764616436
 30
0.0
 10
259.507710166313
 20
23.36880472875961
 30
0.0
 10
259.4923002162296
 20
23.37038365235356
 30
0.0
 10
259.4787227351507
 20
23.37822176534149
 30
0.0
  0
LINE
  5
2A3
330
1F
100
AcDbEntity
  8
0
  6
Continuous
 62
     7
370
    15
100
AcDbLine
 10
259.4787226702
 20
23.3782218148
 30
0.0
 11
258.8965138757
 21
23.7143237977
 31
0.0
  0
SPLINE
  5
2A4
330
1F
100
AcDbEntity
  8
0
  6
Continuous
 62
     7
370
    15
100
AcDbSpline
210
0.0
220
0.0
230
1.0
 70
     8
 71
     3
 72
     8
 73
     4
 74
     0
 42
0.000000001
 43
0.00000001
 40
0.0
 40
0.0
 40
0.0
 40
0.0
 40
0.0011862984959113
 40
0.0011862984959113
 40
0.0011862984959113
 40
0.0011862984959113
 10
258.896513852126
 20
23.7143237993787
 30
0.0
 10
258.9005991032529
 20
23.79328336013428
 30
0.0
 10
258.9048495058831
 20
23.87223769492499
 30
0.0
 10
258.9092743855861
 20
23.95118469386513
 30
0.0
  0
LWPOLYLINE
  5
2A5
330
1F
100
AcDbEntity
  8
0
  6
Continuous
 62
     7
370
    15
100
AcDbPolyline
 90
       12
 70
   128
 43
0.0
 10
263.2886895108
 20
20.5602884648
 10
263.235769401
 20
20.5572068637
 10
262.709312326
 20
20.5617042102
 10
262.207647081
 20
20.6314159197
 10
261.7344551931
 20
20.7658293987
 10
261.2932098262
 20
20.9639589137
 10
260.8871491752
 20
21.2243496995
 10
260.5192540761
 20
21.5450914977
 10
260.1922235076
 20
21.9238290536
 10
259.9084587864
 20
22.3577837146
 10
259.6700419669
 20
22.8437704669
 10
259.4946689303
 20
23.3259959857
  0
LINE
  5
2A6
330
1F
100
AcDbEntity
  8
0
  6
Continuous
 62
     7
370
    15
100
AcDbLine
 10
259.6404161569
 20
23.5291057047
 30
0.0
 11
260.6659532946
 21
24.1211356926
 31
0.0
  0
SPLINE
  5
2A7
330
1F
100
AcDbEntity
  8
0
  6
Continuous
 62
     7
370
    15
100
AcDbSpline
210
0.0
220
0.0
230
1.0
 70
     8
 71
     3
 72
     8
 73
     4
 74
     0
 42
0.000000001
 43
0.00000001
 40
0.0
 40
0.0
 40
0.0
 40
0.0
 40
1.0
 40
1.0
 40
1.0
 40
1.0
 10
259.0077217270858
 20
24.15007995569987
 30
0.0
 10
258.9748424547715
 20
24.08379182509848
 30
0.0
 10
258.9420287075108
 20
24.0174930749633
 30
0.0
 10
258.9092743855861
 20
23.95118469386513
 30
0.0
  0
LINE
  5
2A8
330
1F
100
AcDbEntity
  8
0
  6
Continuous
 62
     7
370
    15
100
AcDbLine
 10
259.0273295275
 20
24.1613993844
 30
0.0
 11
259.0077217599
 21
24.1500800611
 31
0.0
  0
SPLINE
  5
2A9
330
1F
100
AcDbEntity
  8
0
  6
Continuous
 62
     7
370
    15
100
AcDbSpline
210
0.0
220
0.0
230
1.0
 70
     8
 71
     3
 72
    12
 73
     8
 74
     0
 42
0.000000001
 43
0.00000001
 40
0.0
 40
0.0
 40
0.0
 40
0.0
 40
0.249999999999997
 40
0.249999999999997
 40
0.499999999999994
 40
0.499999999999994
 40
1.0
 40
1.0
 40
1.0
 40
1.0
 10
259.0320424021996
 20
24.29474528048433
 30
0.0
 10
259.0470819160295
 20
24.28606315395461
 30
0.0
 10
259.0591529397281
 20
24.27534240572534
 30
0.0
 10
259.0745888336004
 20
24.25229292379334
 30
0.0
 10
259.0781326276763
 20
24.23987367356479
 30
0.0
 10
259.076113654141
 20
24.20299808300267
 30
0.0
 10
259.0574327393109
 20
24.17877751221273
 30
0.0
 10
259.0273295040316
 20
24.16139928439195
 30
0.0
  0
LINE
  5
2AA
330
1F
100
AcDbEntity
  8
0
  6
Continuous
 62
     7
370
    15
100
AcDbLine
 10
258.7180870364
 20
24.4759879469
 30
0.0
 11
259.0320424671
 21
24.2947453346
 31
0.0
  0
SPLINE
  5
2AB
330
1F
100
AcDbEntity
  8
0
  6
Continuous
 62
     7
370
    15
100
AcDbSpline
210
0.0
220
0.0
230
1.0
 70
     8
 71
     3
 72
    10
 73
     6
 74
     0
 42
0.000000001
 43
0.00000001
 40
0.0
 40
0.0
 40
0.0
 40
0.0
 40
0.5
 40
0.5
 40
1.0
 40
1.0
 40
1.0
 40
1.0
 10
258.487099923205
 20
24.47326718310823
 30
0.0
 10
258.5175548793405
 20
24.49084845505731
 30
0.0
 10
258.5589579916142
 20
24.50144312152883
 30
0.0
 10
258.6447561084485
 20
24.50297434968376
 30
0.0
 10
258.6877282062158
 20
24.4935136349224
 30
0.0
 10
258.7180869913528
 20
24.47598788130897
 30
0.0
  0
LINE
  5
2AC
330
1F
100
AcDbEntity
  8
0
  6
Continuous
 62
     7
370
    15
100
AcDbLine
 10
258.4674921485
 20
24.4619479775
 30
0.0
 11
258.4870999161
 21
24.4732673008
 31
0.0
  0
SPLINE
  5
2AD
330
1F
100
AcDbEntity
  8
0
  6
Continuous
 62
     7
370
    15
100
AcDbSpline
210
0.0
220
0.0
230
1.0
 70
     8
 71
     3
 72
     8
 73
     4
 74
     0
 42
0.000000001
 43
0.00000001
 40
0.0
 40
0.0
 40
0.0
 40
0.0
 40
1.0
 40
1.0
 40
1.0
 40
1.0
 10
258.1229581163975
 20
24.40511541388092
 30
0.0
 10
258.2378200469565
 20
24.42402408144573
 30
0.0
 10
258.3526652943905
 20
24.44296705452683
 30
0.0
 10
258.4674921462593
 20
24.46194785441615
 30
0.0
  0
LINE
  5
2AE
330
1F
100
AcDbEntity
  8
0
  6
Continuous
 62
     7
370
    15
100
AcDbLine
 10
257.5403089623
 20
24.7414717822
 30
0.0
 11
258.1229582572
 21
24.4051155038
 31
0.0
  0
LINE
  5
2AF
330
1F
100
AcDbEntity
  8
0
  6
Continuous
 62
     7
370
    15
100
AcDbLine
 10
257.5403089623
 20
24.7414717822
 30
0.0
 11
258.7969667732
 21
25.4669248947
 31
0.0
  0
ARC
  5
2B0
330
1F
100
AcDbEntity
  8
0
  6
Continuous
 62
     7
370
    15
100
AcDbCircle
 10
262.71268277
 20
24.6883232443
 30
0.0
 40
3.938504786307488
100
AcDbArc
 50
194.3179057184
 51
238.1256858466
  0
ELLIPSE
  5
2B1
330
1F
100
AcDbEntity
  8
0
  6
Continuous
 62
     7
370
    15
100
AcDbEllipse
 10
258.6798097656
 20
25.8611747524
 30
0.0
 11
-3.002985187094964E-5
 21
0.4267244807413597
 31
0.0
210
0.0
220
0.0
230
1.0
 40
0.7174342186
 41
3.534193645557683
 42
5.104989972352445
  0
ARC
  5
2B2
330
1F
100
AcDbEntity
  8
0
  6
Continuous
 62
     7
370
    15
100
AcDbCircle
 10
262.7376954317
 20
25.6489307071
 30
0.0
 40
4.432106054756248
100
AcDbArc
 50
195.5342643695
 51
215.7345697398
  0
ARC
  5
2B3
330
1F
100
AcDbEntity
  8
0
  6
Continuous
 62
     7
370
    15
100
AcDbCircle
 10
261.7065108016
 20
25.1754044076
 30
0.0
 40
3.839595800477811
100
AcDbArc
 50
194.065870688
 51
246.8527503441
  0
SPLINE
  5
2B4
330
1F
100
AcDbEntity
  8
0
  6
Continuous
 62
     7
370
    15
100
AcDbSpline
210
0.0
220
0.0
230
1.0
 70
     8
 71
     3
 72
     8
 73
     4
 74
     0
 42
0.000000001
 43
0.00000001
 40
0.0000000000000004
 40
0.0000000000000004
 40
0.0000000000000004
 40
0.0000000000000004
 40
0.0011862984959128
 40
0.0011862984959128
 40
0.0011862984959128
 40
0.0011862984959128
 10
258.1229581163977
 20
24.40511541388054
 30
0.0
 10
258.0760979287996
 20
24.35066579674663
 30
0.0
 10
258.0291220286248
 20
24.29637636668146
 30
0.0
 10
257.982037681487
 20
24.24223965568367
 30
0.0
  0
LINE
  5
2B5
330
1F
100
AcDbEntity
  8
0
  6
Continuous
 62
     7
370
    15
100
AcDbLine
 10
257.3660946347
 20
24.6408790992
 30
0.0
 11
257.5403089623
 21
24.7414717822
 31
0.0
  0
LINE
  5
2B6
330
1F
100
AcDbEntity
  8
0
  6
Continuous
 62
     7
370
    15
100
AcDbLine
 10
257.9820377667
 20
24.2422396184
 30
0.0
 11
257.4068998963
 21
24.5742596437
 31
0.0
  0
SPLINE
  5
2B7
330
1F
100
AcDbEntity
  8
0
  6
Continuous
 62
     7
370
    15
100
AcDbSpline
210
0.0
220
0.0
230
1.0
 70
     8
 71
     3
 72
    10
 73
     6
 74
     0
 42
0.000000001
 43
0.00000001
 40
0.0
 40
0.0
 40
0.0
 40
0.0
 40
0.5
 40
0.5
 40
1.0
 40
1.0
 40
1.0
 40
1.0
 10
257.4068998662741
 20
24.57425964916176
 30
0.0
 10
257.3963360945619
 20
24.58035798476454
 30
0.0
 10
257.3874227328782
 20
24.58990095372944
 30
0.0
 10
257.3737798789496
 20
24.61307139042315
 30
0.0
 10
257.3690198669276
 20
24.62663080301549
 30
0.0
 10
257.3660948701449
 20
24.64087921999723
 30
0.0
  0
ARC
  5
2B8
330
1F
100
AcDbEntity
  8
0
  6
Continuous
 62
     7
370
    15
100
AcDbCircle
 10
261.217716881
 20
25.539873971
 30
0.0
 40
3.928557956396288
100
AcDbArc
 50
195.1809039552
 51
238.1273931069
  0
ELLIPSE
  5
2B9
330
1F
100
AcDbEntity
  8
0
  6
Continuous
 62
     7
370
    15
100
AcDbEllipse
 10
258.6555456969
 20
25.8471628502
 30
0.0
 11
0.1300037894604884
 21
0.485271810495469
 31
0.0
210
0.0
220
0.0
230
1.0
 40
0.5176380889
 41
3.619174351347918
 42
5.189970678142518
  0
SPLINE
  5
2BA
330
1F
100
AcDbEntity
  8
0
  6
Continuous
 62
     7
370
    15
100
AcDbSpline
210
0.0
220
0.0
230
1.0
 70
     8
 71
     3
 72
    12
 73
     8
 74
     0
 42
0.000000001
 43
0.00000001
 40
0.0
 40
0.0
 40
0.0
 40
0.0
 40
0.5
 40
0.5
 40
0.75
 40
0.75
 40
1.0
 40
1.0
 40
1.0
 40
1.0
 10
269.2690885324951
 20
38.64889217056556
 30
0.0
 10
269.2943124833869
 20
38.66345364746566
 30
0.0
 10
269.3262856646793
 20
38.67418617220629
 30
0.0
 10
269.379477340002
 20
38.67968890881051
 30
0.0
 10
269.3977458076468
 20
38.67964045529093
 30
0.0
 10
269.4328009351018
 20
38.67453070264228
 30
0.0
 10
269.4490984994435
 20
38.66939470838038
 30
0.0
 10
269.4617039723789
 20
38.66211772374972
 30
0.0
  0
LINE
  5
2BB
330
1F
100
AcDbEntity
  8
0
  6
Continuous
 62
     7
370
    15
100
AcDbLine
 10
269.4617041021
 20
38.6621178724
 30
0.0
 11
269.7255714278
 21
38.5097905076
 31
0.0
  0
LINE
  5
2BC
330
1F
100
AcDbEntity
  8
0
  6
Continuous
 62
     7
370
    15
100
AcDbLine
 10
270.3935182391
 20
37.679872021
 30
0.0
 11
270.9513180814
 21
37.8021820263
 31
0.0
  0
LINE
  5
2BD
330
1F
100
AcDbEntity
  8
0
  6
Continuous
 62
     7
370
    15
100
AcDbLine
 10
270.9513180814
 20
37.8021820263
 30
0.0
 11
271.5335268759
 21
37.4660800434
 31
0.0
  0
SPLINE
  5
2BE
330
1F
100
AcDbEntity
  8
0
  6
Continuous
 62
     7
370
    15
100
AcDbSpline
210
0.0
220
0.0
230
1.0
 70
     8
 71
     3
 72
    12
 73
     8
 74
     0
 42
0.000000001
 43
0.00000001
 40
0.0
 40
0.0
 40
0.0
 40
0.0
 40
0.2499999999999946
 40
0.2499999999999946
 40
0.4999999999999892
 40
0.4999999999999892
 40
1.0
 40
1.0
 40
1.0
 40
1.0
 10
271.5335268412555
 20
37.46607983992941
 30
0.0
 10
271.5461892934556
 20
37.45876996186944
 30
0.0
 10
271.5551090042597
 20
37.44924031755012
 30
0.0
 10
271.5638372324964
 20
37.42922755657104
 30
0.0
 10
271.5639495374269
 20
37.41867107320548
 30
0.0
 10
271.5546025877786
 20
37.38824098120752
 30
0.0
 10
271.5357872266566
 20
37.36941575922735
 30
0.0
 10
271.5106170288564
 20
37.35488531332656
 30
0.0
  0
LINE
  5
2BF
330
1F
100
AcDbEntity
  8
0
  6
Continuous
 62
     7
370
    15
100
AcDbLine
 10
269.2690886251
 20
38.6488923214
 30
0.0
 11
269.232372398
 21
38.6276964947
 31
0.0
  0
ARC
  5
2C0
330
1F
100
AcDbEntity
  8
0
  6
Continuous
 62
     7
370
    15
100
AcDbCircle
 10
268.863134538
 20
34.6035858148
 30
0.0
 40
3.914699023803923
100
AcDbArc
 50
25.4412839189
 51
46.9885114007
  0
LWPOLYLINE
  5
2C1
330
1F
100
AcDbEntity
  8
0
  6
Continuous
 62
     7
370
    15
100
AcDbPolyline
 90
        3
 70
   128
 43
0.0
 10
270.3935181074
 20
37.9522679356
 10
270.4089001266
 20
37.9332822966
 10
270.5611798513
 20
37.7305167377
  0
ARC
  5
2C2
330
1F
100
AcDbEntity
  8
0
  6
Continuous
 62
     7
370
    15
100
AcDbCircle
 10
263.4211959066
 20
35.1538504857
 30
0.0
 40
0.6230297263810672
100
AcDbArc
 50
79.5861017376
 51
142.8221932109
  0
ARC
  5
2C3
330
1F
100
AcDbEntity
  8
0
  6
Continuous
 62
     7
370
    15
100
AcDbCircle
 10
263.4083591467
 20
35.1873166427
 30
0.0
 40
0.5853759564342154
100
AcDbArc
 50
78.2685922876
 51
144.4072601207
  0
ARC
  5
2C4
330
1F
100
AcDbEntity
  8
0
  6
Continuous
 62
     7
370
    15
100
AcDbCircle
 10
263.397008663
 20
35.216768319
 30
0.0
 40
0.4998188980740399
100
AcDbArc
 50
80.705870252
 51
142.2259793291
  0
LWPOLYLINE
  5
2C5
330
1F
100
AcDbEntity
  8
0
  6
Continuous
 62
     7
370
     0
100
AcDbPolyline
 90
       32
 70
   128
 43
0.0
 10
272.3829354947
 20
36.2865947828
 10
272.1112808802
 20
36.2997773457
 10
271.5915093491
 20
36.2752481089
 10
271.0531503992
 20
36.1873712437
 10
270.5001902005
 20
36.0367980167
 10
269.9367223973
 20
35.8246426542
 10
269.366918902
 20
35.5524758241
 10
268.7949982191
 20
35.2223130415
 10
268.2251947238
 20
34.8365987594
 10
267.6617269206
 20
34.3981880441
 10
267.1087667219
 20
33.9103270151
 10
266.570407772
 20
33.3766278674
 10
266.0506362409
 20
32.8010416681
 10
265.553300004
 20
32.1878302225
 10
265.0820813789
 20
31.5415326924
 10
264.6404693344
 20
30.8669349516
 10
264.2317328854
 20
30.1690311096
 10
263.8588981756
 20
29.4529883797
 10
263.5247258236
 20
28.7241078419
 10
263.2316903763
 20
27.9877861171
 10
262.981960289
 20
27.2494739997
 10
262.7773852815
 20
26.514638588
 10
262.6194794794
 20
25.7887197875
 10
262.5094124577
 20
25.0770923639
 10
262.4479992311
 20
24.38502507
 10
262.435693405
 20
23.7176410636
 10
262.4725871756
 20
23.0798820901
 10
262.5584071154
 20
22.4764696231
 10
262.6925173337
 20
21.9118709855
 10
262.8739257991
 20
21.3902666109
 10
263.1012885539
 20
20.9155181039
 10
263.3371881528
 20
20.5405138463
  0
LWPOLYLINE
  5
2C6
330
1F
100
AcDbEntity
  8
0
  6
Continuous
 62
     7
370
     0
100
AcDbPolyline
 90
       20
 70
   128
 43
0.0
 10
259.4787226702
 20
27.8862601305
 10
259.6669863204
 20
28.6308042294
 10
259.9010398874
 20
29.3811714588
 10
260.1792138291
 20
30.1320096855
 10
260.4995246094
 20
30.8779645242
 10
260.8596878692
 20
31.6137150784
 10
261.2571342312
 20
32.3340146995
 10
261.6890293198
 20
33.0337250534
 10
262.152293254
 20
33.707856576
 10
262.6436214577
 20
34.3516008662
 10
263.159509947
 20
34.9603671862
 10
263.6962795656
 20
35.5298128778
 10
264.2501015356
 20
36.0558775804
 10
264.8170261706
 20
36.5348089324
 10
265.3930100732
 20
36.9631904393
 10
265.9739453661
 20
37.3379680826
 10
266.5556886437
 20
37.6564676414
 10
267.1340908534
 20
37.9164186345
 10
267.7050268806
 20
38.1159665325
 10
267.8936341594
 20
38.1689750758
  0
LINE
  5
2C7
330
1F
100
AcDbEntity
  8
0
  6
Continuous
 62
     7
370
     0
100
AcDbLine
 10
259.622212933
 20
27.7524557987
 30
0.0
 11
259.6558371619
 21
27.9049006622
 31
0.0
  0
LWPOLYLINE
  5
2C8
330
1F
100
AcDbEntity
  8
0
  6
Continuous
 62
     7
370
     0
100
AcDbPolyline
 90
        9
 70
   128
 43
0.0
 10
266.1966709694
 20
37.2716148818
 10
266.6557075275
 20
37.5167952083
 10
267.233144706
 20
37.7739113623
 10
267.8028441842
 20
37.969948129
 10
268.3606512705
 20
38.1034755818
 10
268.9024982672
 20
38.1735197973
 10
269.4244337757
 20
38.1795706474
 10
269.9226516719
 20
38.1215839262
 10
270.3935183708
 20
37.9999824878
  0
LWPOLYLINE
  5
2C9
330
1F
100
AcDbEntity
  8
0
  6
Continuous
 62
     7
370
     0
100
AcDbPolyline
 90
       20
 70
   128
 43
0.0
 10
260.9546362895
 20
28.3151628191
 10
261.1537748804
 20
29.0157115984
 10
261.4007727983
 20
29.7190518047
 10
261.6933377814
 20
30.4186590337
 10
262.0287574166
 20
31.1080448142
 10
262.4039196861
 20
31.7808139453
 10
262.8153451041
 20
32.4307268513
 10
263.2592178002
 20
33.0517558529
 10
263.7314200273
 20
33.638138853
 10
264.2275724646
 20
34.184439105
 10
264.7430729395
 20
34.6855876428
 10
265.2731398262
 20
35.1369369281
 10
265.812856662
 20
35.5342999901
 10
266.3572172572
 20
35.8739922857
 10
266.9011724854
 20
36.1528617517
 10
267.4396769078
 20
36.3683224131
 10
267.9677356948
 20
36.5183753866
 10
268.4804507898
 20
36.6016288383
 10
268.9730665796
 20
36.6173109644
 10
269.3081042591
 20
36.5873220038
  0
ARC
  5
2CA
330
1F
100
AcDbEntity
  8
0
  6
Continuous
 62
     7
370
     0
100
AcDbCircle
 10
264.3673544006
 20
25.2894393795
 30
0.0
 40
3.604015140767624
100
AcDbArc
 50
198.7516030104
 51
216.7601256214
  0
LWPOLYLINE
  5
2CB
330
1F
100
AcDbEntity
  8
0
  6
Continuous
 62
     7
370
     0
100
AcDbPolyline
 90
       25
 70
   128
 43
0.0
 10
260.6659532946
 20
28.3181553323
 10
260.8580744352
 20
29.0093135096
 10
261.0959380773
 20
29.7038195152
 10
261.3774969377
 20
30.3956950861
 10
261.7003280996
 20
31.0789854168
 10
262.0616514514
 20
31.7478078273
 10
262.4583576093
 20
32.3964059052
 10
262.8870313616
 20
33.0191958921
 10
263.3439827516
 20
33.6108171749
 10
263.8252784248
 20
34.1661768465
 10
264.3267752141
 20
34.6804946456
 10
264.8441564922
 20
35.1493434103
 10
265.372968654
 20
35.5686871736
 10
265.9086595602
 20
35.9349161315
 10
266.4466180822
 20
36.2448779896
 10
266.9822134994
 20
36.495904357
 10
267.5108354078
 20
36.6858350011
 10
268.0279333799
 20
36.8130340514
 10
268.5290563794
 20
36.8764072771
 10
269.009890808
 20
36.8754088427
 10
269.46629745
 20
36.8100480338
 10
269.8943476924
 20
36.6808864407
 10
270.2903571102
 20
36.4890366622
 10
270.6509162869
 20
36.236149679
 10
270.738965795
 20
36.1602079806
  0
ARC
  5
2CC
330
1F
100
AcDbEntity
  8
0
  6
Continuous
 62
     7
370
     0
100
AcDbCircle
 10
268.9932042925
 20
34.5542900942
 30
0.0
 40
3.76572726816431
100
AcDbArc
 50
27.9670179032
 51
48.0481056268
  0
LWPOLYLINE
  5
2CD
330
1F
100
AcDbEntity
  8
0
  6
Continuous
 62
     7
370
     0
100
AcDbPolyline
 90
       20
 70
   128
 43
0.0
 10
257.4068998963
 20
29.0822979595
 10
257.5951635466
 20
29.8268420584
 10
257.8292171136
 20
30.5772092878
 10
258.1073910553
 20
31.3280475144
 10
258.4277018356
 20
32.0740023532
 10
258.7878650954
 20
32.8097529074
 10
259.1853114573
 20
33.5300525284
 10
259.6172065459
 20
34.2297628824
 10
260.0804704802
 20
34.9038944049
 10
260.5717986838
 20
35.5476386951
 10
261.0876871731
 20
36.1564050152
 10
261.6244567917
 20
36.7258507067
 10
262.1782787618
 20
37.2519154093
 10
262.7452033968
 20
37.7308467613
 10
263.3211872994
 20
38.1592282682
 10
263.9021225923
 20
38.5340059116
 10
264.4838658699
 20
38.8525054704
 10
265.0622680796
 20
39.1124564635
 10
265.6332041067
 20
39.3120043615
 10
265.8218528738
 20
39.3650240797
  0
LWPOLYLINE
  5
2CE
330
1F
100
AcDbEntity
  8
0
  6
Continuous
 62
     7
370
     0
100
AcDbPolyline
 90
       19
 70
   128
 43
0.0
 10
258.7180870364
 20
28.6730075866
 10
258.9085602352
 20
29.4214260366
 10
259.1484416577
 20
30.1757623355
 10
259.435750402
 20
30.9297860445
 10
259.7681136005
 20
31.6772698036
 10
260.1427859128
 20
32.4120401286
 10
260.5566729701
 20
33.1280280554
 10
261.0063563996
 20
33.819320089
 10
261.4881222735
 20
34.480207783
 10
261.997991666
 20
35.1052312352
 10
262.5317530533
 20
35.6892288186
 10
263.0849985335
 20
36.2273775587
 10
263.6531584663
 20
36.7152325987
 10
264.2315404587
 20
37.148764914
 10
264.8153674946
 20
37.524393667
 10
265.3998176124
 20
37.839015804
 10
265.9800637796
 20
38.0900339418
 10
266.5513136691
 20
38.2753744624
 10
266.7244376446
 20
38.3189129693
  0
LINE
  5
2CF
330
1F
100
AcDbEntity
  8
0
  6
Continuous
 62
     7
370
     0
100
AcDbLine
 10
263.2062975586
 20
35.8660662858
 30
0.0
 11
263.3503441599
 21
36.0014201832
 31
0.0
  0
LWPOLYLINE
  5
2D0
330
1F
100
AcDbEntity
  8
0
  6
Continuous
 62
     7
370
     0
100
AcDbPolyline
 90
       21
 70
   128
 43
0.0
 10
258.4870999161
 20
28.6702869405
 10
258.6769951762
 20
29.4275760923
 10
258.9167833488
 20
30.1912092108
 10
259.204502498
 20
30.9549403422
 10
259.537799776
 20
31.7125241777
 10
259.9139498623
 20
32.4577650254
 10
260.3298760368
 20
33.1845676078
 10
260.7821767855
 20
33.8869889224
 10
261.2671537225
 20
34.559284171
 10
261.7808400389
 20
35.1959548188
 10
262.3190350113
 20
35.7917943706
 10
262.8773371913
 20
36.341930041
 10
263.4511806267
 20
36.8418625235
 10
264.0358723315
 20
37.2875040479
 10
264.6266305978
 20
37.6752084058
 10
265.2186241618
 20
38.0018063366
 10
265.8070115855
 20
38.2646270451
 10
266.3869809994
 20
38.4615199279
 10
266.9537892038
 20
38.5908753211
 10
267.5028007696
 20
38.6516355135
 10
268.0228852412
 20
38.6438517401
  0
LINE
  5
2D1
330
1F
100
AcDbEntity
  8
0
  6
Continuous
 62
     7
370
     0
100
AcDbLine
 10
270.1601731343
 20
18.3821663255
 30
0.0
 11
270.8389955448
 21
17.9902904893
 31
0.0
  0
LINE
  5
2D2
330
1F
100
AcDbEntity
  8
0
  6
Continuous
 62
     7
370
     0
100
AcDbLine
 10
260.6659532946
 20
24.1211356926
 30
0.0
 11
260.8970739678
 21
24.2545588172
 31
0.0
  0
ARC
  5
2D3
330
1F
100
AcDbEntity
  8
0
  6
Continuous
 62
     7
370
     0
100
AcDbCircle
 10
261.6652726574
 20
25.3548789006
 30
0.0
 40
1.341951382375051
100
AcDbArc
 50
235.0788228001
 51
288.7223789039
  0
ARC
  5
2D4
330
1F
100
AcDbEntity
  8
0
  6
Continuous
 62
     7
370
     0
100
AcDbCircle
 10
261.8039575846
 20
25.5633946267
 30
0.0
 40
1.029604939991766
100
AcDbArc
 50
232.6921499765
 51
300.1594962826
  0
ARC
  5
2D5
330
1F
100
AcDbEntity
  8
0
  6
Continuous
 62
     7
370
     0
100
AcDbCircle
 10
260.5658327287
 20
24.7723997304
 30
0.0
 40
0.6147194236512594
100
AcDbArc
 50
302.6053519586
 51
357.394632491
  0
LINE
  5
2D6
330
1F
100
AcDbEntity
  8
0
  6
Continuous
 62
     7
370
     0
100
AcDbLine
 10
258.9626522579
 20
26.0244562248
 30
0.0
 11
261.1799167266
 21
24.7444566925
 31
0.0
  0
LINE
  5
2D7
330
1F
100
AcDbEntity
  8
0
  6
Continuous
 62
     7
370
     0
100
AcDbLine
 10
258.9383881855
 20
26.0104443204
 30
0.0
 11
258.9626522579
 21
26.0244562248
 31
0.0
  0
LWPOLYLINE
  5
2D8
330
1F
100
AcDbEntity
  8
0
  6
Continuous
 62
     7
370
     0
100
AcDbPolyline
 90
        3
 70
   128
 43
0.0
 10
258.9067494683
 20
27.8412856002
 10
258.9065687637
 20
27.8899571671
 10
258.9114746569
 20
28.1469345323
  0
LWPOLYLINE
  5
2D9
330
1F
100
AcDbEntity
  8
0
  6
Continuous
 62
     7
370
     0
100
AcDbPolyline
 90
       19
 70
   128
 43
0.0
 10
246.4725871755
 20
37.4464797668
 10
246.4972177938
 20
37.8946477814
 10
246.5706881801
 20
38.3635853864
 10
246.6917413047
 20
38.8452690178
 10
246.8583059135
 20
39.3314569349
 10
247.0675318257
 20
39.8138300935
 10
247.3158394568
 20
40.2841352974
 10
247.5989800095
 20
40.7343253468
 10
247.9121088351
 20
41.1566971311
 10
248.2498683449
 20
41.544024208
 10
248.6064792839
 20
41.8896790014
 10
248.9758399409
 20
42.1877472604
 10
249.3516304948
 20
42.4331290583
 10
249.7274210486
 20
42.6216257985
 10
250.0967817056
 20
42.7500122768
 10
250.4533926446
 20
42.8160917096
 10
250.7911521544
 20
42.8187334619
 10
251.10428098
 20
42.7578925242
 10
251.1664379668
 20
42.7371135073
  0
ARC
  5
2DA
330
1F
100
AcDbEntity
  8
0
  6
Continuous
 62
     7
370
     0
100
AcDbCircle
 10
248.650608883
 20
37.2729955045
 30
0.0
 40
2.184919986575262
100
AcDbArc
 50
175.4458789432
 51
223.8885097296
  0
LINE
  5
2DB
330
1F
100
AcDbEntity
  8
0
  6
Continuous
 62
     7
370
     0
100
AcDbLine
 10
259.4946689303
 20
23.3259959857
 30
0.0
 11
259.4787226702
 21
23.3782218148
 31
0.0
  0
LWPOLYLINE
  5
2DC
330
1F
100
AcDbEntity
  8
0
  6
Continuous
 62
     7
370
     0
100
AcDbPolyline
 90
       11
 70
   128
 43
0.0
 10
263.2536214889
 20
20.6135265455
 10
262.7980288079
 20
20.6250431593
 10
262.3009828575
 20
20.6994498374
 10
261.8327671954
 20
20.8386408379
 10
261.396868683
 20
21.0415805394
 10
260.9965336814
 20
21.3067562287
 10
260.6347440801
 20
21.632194377
 10
260.3141935896
 20
22.0154700716
 10
260.0372703556
 20
22.4537295274
 10
259.8060358859
 20
22.9437086443
 10
259.622212933
 20
23.4817582555
  0
ARC
  5
2DD
330
1F
100
AcDbEntity
  8
0
  6
Continuous
 62
     7
370
     0
100
AcDbCircle
 10
263.6623421629
 20
24.9972064406
 30
0.0
 40
3.121833788941457
100
AcDbArc
 50
196.2976276191
 51
249.9323138529
  0
LINE
  5
2DE
330
1F
100
AcDbEntity
  8
0
  6
Continuous
 62
     7
370
     0
100
AcDbLine
 10
260.8970739678
 20
24.2545588172
 30
0.0
 11
258.7969667732
 21
25.4669248947
 31
0.0
  0
LINE
  5
2DF
330
1F
100
AcDbEntity
  8
0
  6
Continuous
 62
     7
370
     0
100
AcDbLine
 10
259.0629935321
 20
24.1948204962
 30
0.0
 11
259.0320424671
 21
24.2947453346
 31
0.0
  0
LWPOLYLINE
  5
2E0
330
1F
100
AcDbEntity
  8
0
  6
Continuous
 62
     7
370
     0
100
AcDbPolyline
 90
        3
 70
   128
 43
0.0
 10
258.9060366927
 20
23.9533942047
 10
258.9030627057
 20
23.960388613
 10
258.7180870364
 20
24.4759879469
  0
ARC
  5
2E1
330
1F
100
AcDbEntity
  8
0
  6
Continuous
 62
     7
370
     0
100
AcDbCircle
 10
262.782556696
 20
25.6763944354
 30
0.0
 40
4.460769423568173
100
AcDbArc
 50
195.6471844777
 51
214.1548056384
  0
LINE
  5
2E2
330
1F
100
AcDbEntity
  8
0
  6
Continuous
 62
     7
370
     0
100
AcDbLine
 10
257.4262505681
 20
24.5111121835
 30
0.0
 11
257.4068998963
 21
24.5742596437
 31
0.0
  0
LINE
  5
2E3
330
1F
100
AcDbEntity
  8
0
  6
Continuous
 62
     7
370
     0
100
AcDbLine
 10
277.5989364799
 20
22.6764729981
 30
0.0
 11
278.2777588904
 21
22.2845971618
 31
0.0
  0
OLE2FRAME
  5
2E4
330
1F
100
AcDbEntity
  8
0
100
AcDbOle2Frame
 70
     2
  3
Paintbrush-Bild
 10
13.8511154363
 20
38.264191557
 30
0.0
 11
51.6290888628
 21
31.9806341108
 31
0.0
 71
     2
 72
     0
 73
     1
 90
    12928
310
80552BED0767C5B32B40DDAF6807D121434000000000000000006FFBDDFB85D0
310
4940DDAF6807D121434000000000000000006FFBDDFB85D04940416F4BD60AFB
310
3F4000000000000000002BED0767C5B32B40416F4BD60AFB3F40000000000000
310
0000000000000100000000010000010000000100000000000100000000320000
310
D0CF11E0A1B11AE1000000000000000000000000000000003E000300FEFF0900
310
0600000000000000000000000100000001000000000000000010000002000000
310
01000000FEFFFFFF0000000000000000FFFFFFFFFFFFFFFFFFFFFFFFFFFFFFFF
310
FFFFFFFFFFFFFFFFFFFFFFFFFFFFFFFFFFFFFFFFFFFFFFFFFFFFFFFFFFFFFFFF
310
FFFFFFFFFFFFFFFFFFFFFFFFFFFFFFFFFFFFFFFFFFFFFFFFFFFFFFFFFFFFFFFF
310
FFFFFFFFFFFFFFFFFFFFFFFFFFFFFFFFFFFFFFFFFFFFFFFFFFFFFFFFFFFFFFFF
310
FFFFFFFFFFFFFFFFFFFFFFFFFFFFFFFFFFFFFFFFFFFFFFFFFFFFFFFFFFFFFFFF
310
FFFFFFFFFFFFFFFFFFFFFFFFFFFFFFFFFFFFFFFFFFFFFFFFFFFFFFFFFFFFFFFF
310
FFFFFFFFFFFFFFFFFFFFFFFFFFFFFFFFFFFFFFFFFFFFFFFFFFFFFFFFFFFFFFFF
310
FFFFFFFFFFFFFFFFFFFFFFFFFFFFFFFFFFFFFFFFFFFFFFFFFFFFFFFFFFFFFFFF
310
FFFFFFFFFFFFFFFFFFFFFFFFFFFFFFFFFFFFFFFFFFFFFFFFFFFFFFFFFFFFFFFF
310
FFFFFFFFFFFFFFFFFFFFFFFFFFFFFFFFFFFFFFFFFFFFFFFFFFFFFFFFFFFFFFFF
310
FFFFFFFFFFFFFFFFFFFFFFFFFFFFFFFFFFFFFFFFFFFFFFFFFFFFFFFFFFFFFFFF
310
FFFFFFFFFFFFFFFFFFFFFFFFFFFFFFFFFFFFFFFFFFFFFFFFFFFFFFFFFFFFFFFF
310
FFFFFFFFFFFFFFFFFFFFFFFFFFFFFFFFFFFFFFFFFFFFFFFFFFFFFFFFFFFFFFFF
310
FFFFFFFFFFFFFFFFFFFFFFFFFFFFFFFFFFFFFFFFFFFFFFFFFFFFFFFFFFFFFFFF
310
FDFFFFFFFEFFFFFFFEFFFFFFFEFFFFFF05000000060000000700000008000000
310
090000000A0000000B0000000C0000000D0000000E0000000F00000010000000
310
11000000120000001300000014000000150000001600000017000000FEFFFFFF
310
FFFFFFFFFFFFFFFFFFFFFFFFFFFFFFFFFFFFFFFFFFFFFFFFFFFFFFFFFFFFFFFF
310
FFFFFFFFFFFFFFFFFFFFFFFFFFFFFFFFFFFFFFFFFFFFFFFFFFFFFFFFFFFFFFFF
310
FFFFFFFFFFFFFFFFFFFFFFFFFFFFFFFFFFFFFFFFFFFFFFFFFFFFFFFFFFFFFFFF
310
FFFFFFFFFFFFFFFFFFFFFFFFFFFFFFFFFFFFFFFFFFFFFFFFFFFFFFFFFFFFFFFF
310
FFFFFFFFFFFFFFFFFFFFFFFFFFFFFFFFFFFFFFFFFFFFFFFFFFFFFFFFFFFFFFFF
310
FFFFFFFFFFFFFFFFFFFFFFFFFFFFFFFFFFFFFFFFFFFFFFFFFFFFFFFFFFFFFFFF
310
FFFFFFFFFFFFFFFFFFFFFFFFFFFFFFFFFFFFFFFFFFFFFFFFFFFFFFFFFFFFFFFF
310
FFFFFFFFFFFFFFFFFFFFFFFFFFFFFFFFFFFFFFFFFFFFFFFFFFFFFFFFFFFFFFFF
310
FFFFFFFFFFFFFFFFFFFFFFFFFFFFFFFFFFFFFFFFFFFFFFFFFFFFFFFFFFFFFFFF
310
FFFFFFFFFFFFFFFFFFFFFFFFFFFFFFFFFFFFFFFFFFFFFFFFFFFFFFFFFFFFFFFF
310
FFFFFFFFFFFFFFFFFFFFFFFFFFFFFFFFFFFFFFFFFFFFFFFFFFFFFFFFFFFFFFFF
310
FFFFFFFFFFFFFFFFFFFFFFFFFFFFFFFFFFFFFFFFFFFFFFFFFFFFFFFFFFFFFFFF
310
FFFFFFFFFFFFFFFFFFFFFFFFFFFFFFFFFFFFFFFFFFFFFFFFFFFFFFFFFFFFFFFF
310
52006F006F007400200045006E00740072007900000000000000000000000000
310
0000000000000000000000000000000000000000000000000000000000000000
310
16000500FFFFFFFFFFFFFFFF020000000A00030000000000C000000000000046
310
000000000000000000000000B02EC16F6403D20103000000C000000000000000
310
01004F006C006500000000000000000000000000000000000000000000000000
310
0000000000000000000000000000000000000000000000000000000000000000
310
0A000200FFFFFFFFFFFFFFFFFFFFFFFF00000000000000000000000000000000
310
0000000000000000000000000000000000000000000000001400000000000000
310
010043006F006D0070004F0062006A0000000000000000000000000000000000
310
0000000000000000000000000000000000000000000000000000000000000000
310
120002010100000003000000FFFFFFFF00000000000000000000000000000000
310
0000000000000000000000000000000000000000010000004D00000000000000
310
01004F006C006500310030004E00610074006900760065000000000000000000
310
0000000000000000000000000000000000000000000000000000000000000000
310
1A000200FFFFFFFFFFFFFFFFFFFFFFFF00000000000000000000000000000000
310
0000000000000000000000000000000000000000040000002426000000000000
310
FEFFFFFF02000000FEFFFFFFFFFFFFFFFFFFFFFFFFFFFFFFFFFFFFFFFFFFFFFF
310
FFFFFFFFFFFFFFFFFFFFFFFFFFFFFFFFFFFFFFFFFFFFFFFFFFFFFFFFFFFFFFFF
310
FFFFFFFFFFFFFFFFFFFFFFFFFFFFFFFFFFFFFFFFFFFFFFFFFFFFFFFFFFFFFFFF
310
FFFFFFFFFFFFFFFFFFFFFFFFFFFFFFFFFFFFFFFFFFFFFFFFFFFFFFFFFFFFFFFF
310
FFFFFFFFFFFFFFFFFFFFFFFFFFFFFFFFFFFFFFFFFFFFFFFFFFFFFFFFFFFFFFFF
310
FFFFFFFFFFFFFFFFFFFFFFFFFFFFFFFFFFFFFFFFFFFFFFFFFFFFFFFFFFFFFFFF
310
FFFFFFFFFFFFFFFFFFFFFFFFFFFFFFFFFFFFFFFFFFFFFFFFFFFFFFFFFFFFFFFF
310
FFFFFFFFFFFFFFFFFFFFFFFFFFFFFFFFFFFFFFFFFFFFFFFFFFFFFFFFFFFFFFFF
310
FFFFFFFFFFFFFFFFFFFFFFFFFFFFFFFFFFFFFFFFFFFFFFFFFFFFFFFFFFFFFFFF
310
FFFFFFFFFFFFFFFFFFFFFFFFFFFFFFFFFFFFFFFFFFFFFFFFFFFFFFFFFFFFFFFF
310
FFFFFFFFFFFFFFFFFFFFFFFFFFFFFFFFFFFFFFFFFFFFFFFFFFFFFFFFFFFFFFFF
310
FFFFFFFFFFFFFFFFFFFFFFFFFFFFFFFFFFFFFFFFFFFFFFFFFFFFFFFFFFFFFFFF
310
FFFFFFFFFFFFFFFFFFFFFFFFFFFFFFFFFFFFFFFFFFFFFFFFFFFFFFFFFFFFFFFF
310
FFFFFFFFFFFFFFFFFFFFFFFFFFFFFFFFFFFFFFFFFFFFFFFFFFFFFFFFFFFFFFFF
310
FFFFFFFFFFFFFFFFFFFFFFFFFFFFFFFFFFFFFFFFFFFFFFFFFFFFFFFFFFFFFFFF
310
FFFFFFFFFFFFFFFFFFFFFFFFFFFFFFFFFFFFFFFFFFFFFFFFFFFFFFFFFFFFFFFF
310
0100000200000000000000000000000000000000000000000000000000000000
310
0000000000000000000000000000000000000000000000000000000000000000
310
0100FEFF030A0000FFFFFFFF0A00030000000000C00000000000004607000000
310
5042727573680007000000504272757368000700000050427275736800F439B2
310
7100000000000000000000000000000000000000000000000000000000000000
310
0000000000000000000000000000000000000000000000000000000000000000
310
0000000000000000000000000000000000000000000000000000000000000000
310
0000000000000000000000000000000000000000000000000000000000000000
310
0000000000000000000000000000000000000000000000000000000000000000
310
0000000000000000000000000000000000000000000000000000000000000000
310
0000000000000000000000000000000000000000000000000000000000000000
310
0000000000000000000000000000000000000000000000000000000000000000
310
0000000000000000000000000000000000000000000000000000000000000000
310
0000000000000000000000000000000000000000000000000000000000000000
310
0000000000000000000000000000000000000000000000000000000000000000
310
0000000000000000000000000000000000000000000000000000000000000000
310
20260000424D0E260000000000003E00000028000000B40200006E0000000100
310
01000000000000000000130B0000130B00000200000002000000000000FFFFFF
310
FFFFFFFFFFFFFFFFFFFFFFFFFFFFFFFFFFFFFFFFFFFFFFFFFFFFFFFFFFFFFFFF
310
FFFFFFFFFFFFFFFFFFFFFFFFFFFFFFFFFFFFFFFFFFFFFFFFFFFFFFFFFFFFFFFF
310
FFFFFFFFFFFFFFFFFFFFFFFFFFFFFFFFFFFFFFFFFFFFFFFFF000FFFFFFFFFFFF
310
FFFFFFFFFFFFFFFFFFFFFFFFFFFFFFFFFFFFFFFFFFFFFFFFFFFFFFFFFFFFFFFF
310
FFFFFFFFFFFFFFFFFFFFFFFFFFFFFFFFFFFFFFFFFFFFFFFFFFFFFFFFFFFFFFFF
310
FFFFFFFFFFFFFFFFFFFFFFFFFFFFFFFFF000FFFFFFFFFFFFFFFFFFFFFFFFFFFF
310
FFFFFFFFFFFFFFFFFFFFFFFFFFFFFFFFFFFFFFFFFFFFFFFFFFFFFFFFFFFFFFFF
310
FFFFFFFFFFFFFFFFFFFFFFFFFFFFFFFFFFFFFFFFFFFFFFFFFFFFFFFFFFFFFFFF
310
FFFFFFFFFFFFFFFFF000FFFFFFFFFFFFFFFFFFFFFFFFFFFFFFFFFFFFFFFFFFFF
310
FFFFFFFFFFFFFFFFFFFFFFFFFFFFFFFFFFFFFFFFFFFFFFFFFFFFFFFFFFFFFFFF
310
FFFFFFFFFFFFFFFFFFFFFFFFFFFFFFFFFFFFFFFFFFFFFFFFFFFFFFFFFFFFFFFF
310
F000FFFFFFFFFFFFFFFFFFFFFFFFFFFFFFFFFFFFFFFFFFFFFFFFFFFFFFFFFFFF
310
FFFFFFFFFFFFFFFFFFFFFFFFFFFFFFFFFFFFFFFFFFFFFFFFFFFFFFFFFFFFFFFF
310
FFFFFFFFFFFFFFFFFFFFFFFFFFFFFFFFFFFFFFFFFFFFFFFFF000FFFFFFFFFFFF
310
FFFFFFFFFFFFFFFFFFFFFFFFFFFFFFFFFFFFFFFFFFFFFFFFFFFFFFFFFFFFFFFF
310
FFFFFFFFFFFFFFFFFFFFFFFFFFFFFFFFFFFFFFFFFFFFFFFFFFFFFFFFFFFFFFFF
310
FFFFFFFFFFFFFFFFFFFFFFFFFFFFFFFFF000FFFFFFFFFFFFFFFFFFFFFFFFFFFF
310
FFFFFFFFFFFFFFFFFFFFFFFFFFFFFFFFFFFFFFFFFFFFFFFFFFFFFFFFFFFFFFFF
310
FFFFFFFFFFFFFFFFFFFFFFFFFFFFFFFFFFFFFFFFFFFFFFFFFFFFFFFFFFFFFFFF
310
FFFFFFFFFFFFFFFFF000FFFFFFFFFFFFFFFFFFFFFFFFFFFFFFFFFFFFFFFFFFFF
310
FFFFFFFFFFFFFFFFFFFFFFFFFFFFFFFFFFFFFFFFFFFFFFFFFFFFFFFFFFFFFFFF
310
FFFFFFFFFFFFFFFFFFFFFFFFFFFFFFFFFFFFFFFFFFFFFFFFFFFFFFFFFFFFFFFF
310
F000FFFFFFFFFFFFFFFFFFFFFFFFFFFFFFFFFFFFFFFFFFFFFFFFFFFFFFFFFFFF
310
FFFFFFFFFFFFFFFFFFFFFFFFFFFFFFFFFFFFFFFFFFFFFFFFFFFFFFFFFFFFFFFF
310
FFFFFFFFFFFFFFFFFFFFFFFFFFFFFFFFFFFFFFFFFFFFFFFFF000FFFFFFFFFFFF
310
FFFFFFFFFFFFFFFFFFFFFFFFFFFFFFFFFFFFFFFFFFFFFFFFFFFFFFFFFFFFFFFF
310
FFFFFFFFFFFFFFFFFFFFFFFFFFFFFFFFFFFFFFFFFFFFFFFFFFFFFFFFFFFFFFFF
310
FFFFFFFFFFFFFFFFFFFFFFFFFFFFFFFFF000FFFFFFFFFFFFFFFFFFFFFFFFFFFF
310
FFFFFFFFFFFFFFFFFFFFFFFFFFFFFFFFFFFFFFFFFFFFFFFFFFFFFFFFFFFFFFFF
310
FFFFFFFFFFFFFFFFFFFFFFFFFFFFFFFFFFFFFFFFFFFFFFFFFFFFFFFFFFFFFFFF
310
FFFFFFFFFFFFFFFFF000FFFFFFFFFFFFFFFFFFFFFFFFFFFFFFFFFFFFFFFFFFFF
310
FFFFFFFFFFFFFFFFFFFFFFFFFFFFFFFFFFFFFFFFFFFFFFFFFFFFFFFFFFFFFFFF
310
FFFFFFFFFFFFFFFFFFFFFFFFFFFFFFFFFFFFFFFFFFFFFFFFFFFFFFFFFFFFFFFF
310
F000FFFFFFFFFFFFFFFFFFFFFFFFFFFFFFFFFFFFFFFFFFFFFFFFFFFFFFFFFFFF
310
FFFFFFFFFFFFFFFFFFFFFFFFFFFFFFFFFFFFFFFFFFFFFFFFFFFFFFFFFFFFFFFF
310
FFFFFFFFFFFFFFFFFFFFFFFFFFFFFFFFFFFFFFFFFFFFFFFFF000FFFFFFFFFFFF
310
FFFFFFFFFFFFFFFFFFFFFFFFFFFFFFFFFFFFFFFFFFFFFFFFFFFFFFFFFFFFFFFF
310
FFFFFFFFFFFFFFFFFFFFFFFFFFFFFFFFFFFFFFFFFFFFFFFFFFFFFFFFFFFFFFFF
310
FFFFFFFFFFFFFFFFFFFFFFFFFFFFFFFFF000FFFFFFFFFFFFFFFFFFFFFFFFFFFF
310
FFFFFFFFFFFFFFFFFFFFFFFFFFFFFFFFFFFFFFFFFFFFFFFFFFFFFFFFFFFFFFFF
310
FFFFFFFFFFFFFFFFFFFFFFFFFFFFFFFFFFFFFFFFFFFFFFFFFFFFFFFFFFFFFFFF
310
FFFFFFFFFFFFFFFFF000FFFFFFFFFFFFFFFFFFFFFFFFFFFFFFFFFFFFFFFFFFFF
310
FFFFFFFFFFFFFFFFFFFFFFFFFFFFFFFFFFFFFFFFFFFFFFFFFFFFFFFFFFFFFFFF
310
FFFFFFFFFFFFFFFFFFFFFFFFFFFFFFFFFFFFFFFFFFFFFFFFFFFFFFFFFFFFFFFF
310
F000FFFFFFFFFFFFFFFFFFFFFFFFFFFFFFFFFFFFFFFFFFFFFFFFFFFFFFFFFFFF
310
FFFFFFFFFFFFFFFFFFFFFFFFFFFFFFFFFFFFFFFFFFFFFFFFFFFFFFFFFFFFFFFF
310
FFFFFFFFFFFFFFFFFFFFFFFFFFFFFFFFFFFFFFFFFFFFFFFFF000FFFFFFFFFFFF
310
FFFFFFFFFFFFFFFFFFFFFFFFFFFFFFFFFFFFFFFFFFFFFFFFFFFFFFFFFFFFFFFF
310
FFFFFFFFFFFFFFFFFFFFFFFFFFFFFFFFFFFFFFFFFFFFFFFFFFFFFFFFFFFFFFFF
310
FFFFFFFFFFFFFFFFFFFFFFFFFFFFFFFFF000FFFFFFFFFFFFFFFFFFFFFFFFFFFF
310
FFFFFFFFFFFFFFFFFFFFFFFFFFFFFFFFFFFFFFFFFFFFFFFFFFFFFFFFFFFFFFFF
310
FFFFFFFFFFFFFFFFFFFFFFFFFFFFFFFFFFFFFFFFFFFFFFFFFFFFFFFFFFFFFFFF
310
FFFFFFFFFFFFFFFFF000FFFFF80003FFFFFFFFFFFFFFFFFFFFFFFFFFFFFFFFFF
310
FFFFF00007FFFFFFFFFF00007FFFFFF800000000000000007FFFFFFFFFFFFFFF
310
FFFFFFFC001FFFFFFFFFFFFFFC001FFFFFFFFFFFFFFFFFFFFFFFFFFE0007FFFF
310
F000FFFF8000007FFFFFFFF8000FFFFFC0007FFFFF80007FFFFF0000007FFFFF
310
FFF8000007FFFFF800000000000000007FFFFFF0001FFFFFFFFFFFC00001FFFF
310
FFFFFFFFC00001FFFFFFFF000000000003FFFFE000007FFFF000FFFE0000000F
310
FFFFFFF0000FFFFF80007FFFFF80007FFFFC0000001FFFFFFFC0000001FFFFF8
310
00000000000000007FFFFFF0001FFFFFFFFFFE0000003FFFFFFFFFFE0000003F
310
FFFFFF000000000003FFFF0000000FFFF000FFF800000003FFFFFFF00007FFFF
310
80007FFFFF80007FFFF000000007FFFFFF000000003FFFF80000000000000000
310
7FFFFFF0001FFFFFFFFFF80000000FFFFFFFFFF80000000FFFFFFF0000000000
310
03FFFC00000003FFF000FFE000000000FFFFFFF00007FFFF80003FFFFF80007F
310
FFC000000001FFFFFC000000001FFFF800000000000000007FFFFFF0001FFFFF
310
FFFFE000000003FFFFFFFFE000000003FFFFFF000000000003FFF000000000FF
310
F000FF80000000007FFFFFF00007FFFF80003FFFFF80007FFF8000000000FFFF
310
F80000000007FFF800000000000000007FFFFFF0001FFFFFFFFFC000000001FF
310
FFFFFFC000000001FFFFFF000000000003FFC0000000007FF000FF0000000000
310
3FFFFFE00007FFFF00003FFFFF80007FFE00000000003FFFF00000000003FFF8
310
00000000000000007FFFFFF0001FFFFFFFFF8000000000FFFFFFFF8000000000
310
FFFFFF000000000003FF80000000003FF000FE00000000001FFFFFE00003FFFF
310
00003FFFFF80007FFC00000000001FFFE00000000001FFF8000001FFFE000000
310
7FFFFFF0001FFFFFFFFE00000000003FFFFFFE00000000003FFFFF0000000000
310
03FF00000000001FF000FC00000000000FFFFFE00003FFFF00001FFFFF80007F
310
F800000000001FFFC00000000000FFF8000001FFFE0000007FFFFFF0001FFFFF
310
FFFC00000000001FFFFFFC00000000001FFFFF000000000003FE00000000000F
310
F000F8000000000007FFFFE00003FFFF00001FFFFF80007FF800000000000FFF
310
800000000000FFF8000001FFFE0000007FFFFFF0001FFFFFFFF800000000000F
310
FFFFF800000000000FFFFF000000000003FC000000000007F000F80000000000
310
03FFFFC00003FFFE00001FFFFF80007FF0000000000007FF0000000000007FF8
310
000001FFFE0000007FFFFFF0001FFFFFFFF0000000000007FFFFF00000000000
310
07FFFF000000000003F8000000000003F000F0000000000003FFFFC00001FFFE
310
00001FFFFF80007FE0000000000007FE0000000000003FF8000001FFFE000000
310
7FFFFFF0001FFFFFFFF0000000000007FFFFF0000000000007FFFF0000000000
310
03F800001F800003F000E00001FFF00001FFFFC00001FFFE00000FFFFF80007F
310
E00001FFE00003FE00001FFF00003FF8000001FFFE0000007FFFFFF0001FFFFF
310
FFE000003E000003FFFFE000003E000003FFFF000000000003F00001FFF80001
310
F000E00007FFFC0001FFFFC00001FFFE00000FFFFF80007FC0000FFFFC0003FC
310
0000FFFFC0001FF8000001FFFE0000007FFFFFF0001FFFFFFFC00003FFE00001
310
FFFFC00003FFE00001FFFF0001FFFFFFFFF00007FFFE0001F000E0000FFFFF00
310
00FFFF800001FFFC00000FFFFF80007FC0001FFFFE0001FC0001FFFFE0001FF8
310
000001FFFE0000007FFFFFF0001FFFFFFF80000FFFF80000FFFF80000FFFF800
310
00FFFF0003FFFFFFFFE0000FFFFF8000F000C0003FFFFF8000FFFF800000FFFC
310
000007FFFF80007F80003FFFFF0001FC0003FFFFF0001FF8000001FFFE000000
310
7FFFFFF0001FFFFFFF80003FFFFE0000FFFF80003FFFFE0000FFFF0003FFFFFF
310
FFE0003FFFFF8000F000C0003FFFFF8000FFFF800000FFFC000007FFFF80007F
310
80007FFFFF8001F80007FFFFF8000FF8000001FFFE0000007FFFFFF0001FFFFF
310
FF00007FFFFF00007FFF00007FFFFF00007FFF0003FFFFFFFFE0003FFFFFC000
310
F000C0007FFFFFC000FFFF000000FFFC000007FFFF80007F8000FFFFFF8000F8
310
000FFFFFF8000FF8000001FFFE0000007FFFFFF0001FFFFFFF0000FFFFFF8000
310
7FFF0000FFFFFF80007FFF0003FFFFFFFFC0007FFFFFC00070008000FFFFFFC0
310
00FFFF000000FFF8000007FFFF80007F8000FFFFFF8000F8000FFFFFF8000FF8
310
000001FFFE0000007FFFFFF0001FFFFFFE0001FFFFFFC0003FFE0001FFFFFFC0
310
003FFF0003FFFFFFFFC0007FFFFFE00070008000FFFFFFC0007FFF0000007FF8
310
000003FFFF80007F0001FFFFFF8000F8000FFFFFF8000FF8000001FFFE000000
310
7FFFFFF0001FFFFFFE0001FFFFFFC0003FFE0001FFFFFFC0003FFF0003FFFFFF
310
FFC000FFFFFFE00070008000FFFFFFC0007FFF0000007FF8000003FFFF80007F
310
0001FFFFFF8000F8001FFFFFF8000FF8000001FFFE0000007FFFFFF0001FFFFF
310
FE0003FFFFFFE0003FFE0003FFFFFFE0003FFF0003FFFFFFFFC000FFFFFFE000
310
70008000FFFFFFC0007FFE0000007FF8000003FFFF80007F0001FFFFFF8000F0
310
001FFFFFF8000FF8000001FFFE0000007FFFFFF0001FFFFFFC0003FFFFFFE000
310
1FFC0003FFFFFFE0001FFF0003FFFFFFFFC000FFFFFFC00070008000FFFFFF80
310
007FFE0000007FF0000003FFFF80007F0001FFFFFF0000F0001FFFFFF8000FF8
310
000001FFFE0000007FFFFFF0001FFFFFFC0007FFFFFFF0001FFC0007FFFFFFF0
310
001FFF0003FFFFFFFFC000FFFFFFC00070008001FFFFFF0000FFFE0000003FF0
310
000001FFFF80007F0001FFFFFF0000F8001FFFFFF0000FF8000001FFFE000000
310
7FFFFFF0001FFFFFFC0007FFFFFFF0001FFC0007FFFFFFF0001FFF0003FFFFFF
310
FFC001FFFFFF80007000FFFFFFFFFE0000FFFE0008003FF0008001FFFF80007F
310
FFFFFFFFFC0000FFFFFFFFFFE0000FF8000001FFFE0000007FFFFFF0001FFFFF
310
F8000FFFFFFFF8000FF8000FFFFFFFF8000FFF0003FFFFFFFFFFFFFFFFFF0000
310
7000FFFFFFFFFC0000FFFC0008003FF0008001FFFF80007FFFFFFFFFF80001FF
310
FFFFFFFF80000FF8000001FFFE0000007FFFFFF0001FFFFFF8000FFFFFFFF800
310
0FF8000FFFFFFFF8000FFF0003FFFFFFFFFFFFFFFFFE0000F000FFFFFFFFE000
310
00FFFC000C003FE000C001FFFF80007FFFFFFFFFC00001FFFFFFFFFE00001FF8
310
000001FFFE0000007FFFFFF0001FFFFFF8000FFFFFFFF8000FF8000FFFFFFFF8
310
000FFF0003FFFFFFFFFFFFFFFFF00000F000FFFFFFFE000001FFFC000C001FE0
310
00C000FFFF80007FFFFFFFFE000001FFFFFFFFE000001FF80FFFFFFFFFFFFFC0
310
7FFFFFF0001FFFFFF8000FFFFFFFF8000FF8000FFFFFFFF8000FFF0003FFFFFF
310
FFFFFFFFFF800000F000FFFFFFC0000001FFFC001C001FE001C000FFFF80007F
310
FFFFFF80000003FFFFFFF80000001FF80FFFFFFFFFFFFFC07FFFFFF0001FFFFF
310
F8001FFFFFFFFC000FF8001FFFFFFFFC000FFF0003FFFFFFFFFFFFFFF0000001
310
F000FFFFF800000001FFF8001C001FE001C000FFFF80007FFFFFF800000003FF
310
FFFF800000003FF80FFFFFFFFFFFFFC07FFFFFF0001FFFFFF8001FFFFFFFFC00
310
0FF8001FFFFFFFFC000FFF0003FFFFFFFFFFFFFE00000001F000FFFFC0000000
310
03FFF8001E001FC001E000FFFF80007FFFFF8000000007FFFFFC000000003FF8
310
0FFFFFFFFFFFFFC07FFFFFF0001FFFFFF8001FFFFFFFFC000FF8001FFFFFFFFC
310
000FFF0003FFFFFFFFFFFFE000000003F000FFFE0000000007FFF8001E000FC0
310
01E0007FFF80007FFFFE0000000007FFFFE0000000007FF80FFFFFFFFFFFFFC0
310
7FFFFFF0001FFFFFF0001FFFFFFFFC0007F0001FFFFFFFFC0007FF0003FFFFFF
310
FFFFFF0000000003F000FFF80000000007FFF8001E000FC003E0007FFF80007F
310
FFF0000000000FFFFF8000000000FFF80FFFFFFFFFFFFFC07FFFFFF0001FFFFF
310
F0001FFFFFFFFC0007F0001FFFFFFFFC0007FF0003FFFFFFFFFFFC0000000007
310
F000FFE0000000000FFFF0003E000FC003E0007FFF80007FFFC0000000001FFF
310
FE0000000001FFF80FFFFFFFFFFFFFC07FFFFFF0001FFFFFF0001FFFFFFFFC00
310
07F0001FFFFFFFFC0007FF0003FFFFFFFFFFF0000000000FF000FFC000000000
310
1FFFF0003F000F8003F0003FFF80007FFF80000000003FFFF80000000003FFF8
310
0FFFFFFFFFFFFFC07FFFFFF0001FFFFFF0001FFFFFFFFC0007F0001FFFFFFFFC
310
0007FF0003FFFFFFFFFFE0000000001FF000FF00000000007FFFF0003F000780
310
03F0003FFF80007FFF00000000007FFFF00000000007FFF80FFFFFFFFFFFFFC0
310
7FFFFFF0001FFFFFF0001FFFFFFFFC0007F0001FFFFFFFFC0007FF0003FFFFFF
310
FFFF80000000007FF000FE0000000000FFFFE0003F00078007F0003FFF80007F
310
FE0000000001FFFFE0000000001FFFF80FFFFFFFFFFFFFC07FFFFFF0001FFFFF
310
F0001FFFFFFFFC0007F0001FFFFFFFFC0007FF0003FFFFFFFFFF0000000000FF
310
F000FC0000000003FFFFE0007F00078007F0003FFF80007FFC0000000007FFFF
310
C0000000007FFFF80FFFFFFFFFFFFFC07FFFFFF0001FFFFFF8001FFFFFFFFC00
310
0FF8001FFFFFFFFC000FFF0003FFFFFFFFFE0000000003FFF000FC000000000F
310
FFFFE0007F80070007F8001FFF80007FF8000000001FFFFF8000000001FFFFF8
310
0FFFFFFFFFFFFFC07FFFFFF0001FFFFFF8001FFFFFFFFC000FF8001FFFFFFFFC
310
000FFF0003FFFFFFFFFC000000000FFFF000F8000000007FFFFFE0007F800700
310
07F8001FFF80007FF000000000FFFFFF800000000FFFFFF80FFFFFFFFFFFFFC0
310
7FFFFFF0001FFFFFF8000FFFFFFFF8000FF8000FFFFFFFF8000FFF0003FFFFFF
310
FFFC000000007FFFF000F800000007FFFFFFC0007F8003000FF8001FFF80007F
310
F000000007FFFFFF000000007FFFFFF80FFFFFFFFFFFFFC07FFFFFF0001FFFFF
310
F8000FFFFFFFF8000FF8000FFFFFFFF8000FFF0003FFFFFFFFF80000000FFFFF
310
F000F0000000FFFFFFFFC000FF8003000FF8001FFF80007FE0000000FFFFFFFF
310
0000000FFFFFFFF8000001FFFE0000007FFFFFF0001FFFFFF8000FFFFFFFF800
310
0FF8000FFFFFFFF8000FFF0003FFFFFFFFF8000000FFFFFFF000F000000FFFFF
310
FFFFC000FFC002000FF8000FFF80007FE000001FFFFFFFFE000001FFFFFFFFF8
310
000001FFFE0000007FFFFFF0001FFFFFF8000FFFFFFFF8000FF8000FFFFFFFF8
310
000FFF0003FFFFFFFFF000001FFFFFFFF000E00000FFFFFFFFFFC000FFC00200
310
0FFC000FFF80007FE00001FFFFFFFFFE00001FFFFFFFFFF8000001FFFE000000
310
7FFFFFF0001FFFFFFC000FFFFFFFF8001FFC000FFFFFFFF8001FFF0003FFFFFF
310
FFF00001FFFFFFFFF000E00007FFFFFFFFFF8000FFC000001FFC000FFF80007F
310
C0000FFFFFFFFFFE0000FFFFFFFFFFF8000001FFFE0000007FFFFFF0001FFFFF
310
FC0007FFFFFFF0001FFC0007FFFFFFF0001FFF0003FFFFFFFFF00007FFFFFFFF
310
F000E0001FFFFFFFFFFF8000FFC000001FFC000FFF80007FC0003FFFFFFFFFFE
310
0001FFFFFFFFFFF8000001FFFE0000007FFFFFF0001FFFFFFC0007FFFFFFF000
310
1FFC0007FFFFFFF0001FFF0003FFFFFFFFF0001FFFFFFFFFF000E0003FFFFF00
310
03FF8001FFE000001FFC0007FF80007FC0007FFFFF0007FC0003FFFFF0003FF8
310
000001FFFE0000007FFFFFF0001FFFFFFC0003FFFFFFE0001FFC0003FFFFFFE0
310
001FFF0003FFFFFFFFF0003FFFFFFFFFF000E0003FFFFF0001FF8001FFE00000
310
1FFE0007FF80007FC0007FFFFE0003FC0007FFFFE0003FF8000001FFFE000000
310
7FFFFFF0001FFFFFFE0003FFFFFFE0003FFE0003FFFFFFE0003FFF0003FFFFFF
310
FFF0003FFFFF8001F000E0003FFFFF0001FF0001FFE000001FFE0007FF80007F
310
C0007FFFFE0003FC0007FFFFE0003FF8000001FFFE0000007FFFFFF0001FFFFF
310
FE0001FFFFFFC0003FFE0001FFFFFFC0003FFF0003FFFFFFFFF0003FFFFF0001
310
F000E0003FFFFF0003FF0001FFE000003FFE0007FF80007FC0007FFFFE0003FC
310
0007FFFFE0003FF8000001FFFE0000007FFFFFF0001FFFFFFF0001FFFFFFC000
310
7FFF0001FFFFFFC0007FFF0003FFFFFFFFF0003FFFFF0001F000E0003FFFFE00
310
03FF0003FFF000003FFE0003FF80007FC0007FFFFC0003FE0007FFFFE0003FF8
310
000001FFFE0000007FFFFFF0001FFFFFFF0000FFFFFF80007FFF0000FFFFFF80
310
007FFF0003FFFFFFFFF0003FFFFF0001F000E0003FFFFE0003FF0003FFF00000
310
3FFF0003FF80007FC0007FFFFC0007FE0007FFFFC0003FF8000001FFFE000000
310
7FFFFFF0001FFFFFFF80007FFFFF0000FFFF80007FFFFF0000FFFF0003FFFFFF
310
FFF0003FFFFF0003F000E0003FFFFC0003FE0003FFF000003FFF0003FF80007F
310
E0003FFFF80007FE0003FFFFC0007FF8000001FFFE0000007FFFFFF0001FFFFF
310
FF80003FFFFE0000FFFF80003FFFFE0000FFFF0003FFFFFFFFF0001FFFFE0003
310
F000F0001FFFF80003FE0003FFF000007FFF0001FF80007FE0003FFFF00007FE
310
0001FFFF80007FF8000001FFFE0000007FFFFFF0001FFFFFFFC0000FFFF80001
310
FFFFC0000FFFF80001FFFF0003FFFFFFFFF0001FFFFC0003F000F0000FFFF000
310
07FE0007FFF800007FFF0001FF80007FE0001FFFE00007FF0000FFFE00007FF8
310
000001FFFE0000007FFFFFF0001FFFFFFFC00003FFE00001FFFFC00003FFE000
310
01FFFF0003FFFFFFFFF8000FFFF80003F000F00003FFC00007FC0007FFF80000
310
7FFF8001FF80007FF00007FF80000FFF00007FF80000FFF8000001FFFE000000
310
7F80000000000001FFE000003E000003FFFFE000003E000003FFFF0003FFFFFF
310
FFF80003FFE00007F000F800000000000FFC0007FFF800007FFF8001FF80007F
310
F000000000000FFF000000000000FFF8000001FFFE0000007F80000000000001
310
FFF0000000000007FFFFF0000000000007FFFF0003FFFFFFFFFC00007E000007
310
F000F800000000000FFC0007FFF80000FFFF8000FF80007FF800000000001FFF
310
800000000001FFF8000001FFFE0000007F80000000000001FFF800000000000F
310
FFFFF800000000000FFFFF0003FFFFFFFFFC00000000000FF000FC0000000000
310
1FFC0007FFFC0000FFFF8000FF80007FF800000000003FFFC00000000001FFF8
310
000001FFFE0000007F80000000000001FFF800000000000FFFFFF80000000000
310
0FFFFF0003FFFFFFFFFE00000000001FF000FE00000000003FF8000FFFFC0000
310
FFFF8000FF80007FFC00000000003FFFC00000000003FFF8000001FFFE000000
310
7F80000000000001FFFC00000000001FFFFFFC00000000001FFFFF0003FFFFFF
310
FFFF00000000001FF000FF00000000003FF8000FFFFC0000FFFFC000FF80007F
310
FE00000000007FFFE00000000007FFF8000001FFFE0000007F80000000000001
310
FFFE00000000003FFFFFFE00000000003FFFFF0003FFFFFFFFFF80000000003F
310
F000FF80000000007FF8000FFFFC0001FFFFC0007F80007FFF0000000000FFFF
310
F0000000000FFFF800000000000000007F80000000000001FFFF8000000000FF
310
FFFFFF8000000000FFFFFF0003FFFFFFFFFFC0000000007FF000FFC000000000
310
FFF8000FFFFE0001FFFFC0007F80007FFF8000000001FFFFF8000000001FFFF8
310
00000000000000007F80000000000001FFFFC000000001FFFFFFFFC000000001
310
FFFFFF0003FFFFFFFFFFE000000000FFF000FFE000000003FFF0001FFFFE0001
310
FFFFC0007F80007FFFC000000007FFFFFE000000003FFFF80000000000000000
310
7F80000000000001FFFFE000000003FFFFFFFFE000000003FFFFFF0003FFFFFF
310
FFFFF000000003FFF000FFF80000000FFFF0001FFFFE0001FFFFE0007F80007F
310
FFF00000000FFFFFFF00000000FFFFF800000000000000007F80000000000001
310
FFFFF80000000FFFFFFFFFF80000000FFFFFFF0003FFFFFFFFFFFC0000000FFF
310
F000FFFE0000003FFFF0001FFFFE0003FFFFE0003F80007FFFFC0000003FFFFF
310
FFC0000003FFFFF800000000000000007F80000000000001FFFFFE0000003FFF
310
FFFFFFFE0000003FFFFFFF0003FFFFFFFFFFFF0000003FFFF000FFFF800000FF
310
FFF0001FFFFF0003FFFFE0003F80007FFFFF000001FFFFFFFFF800001FFFFFF8
310
00000000000000007F80000000000001FFFFFFC00001FFFFFFFFFFFFC00001FF
310
FFFFFF0003FFFFFFFFFFFFC00000FFFFF000FFFFF8000FFFFFFFFFFFFFFFFFFF
310
FFFFFFFFFFFFFFFFFFFFF0001FFFFFFFFFFF0000FFFFFFF80000000000000000
310
7FFFFFFFFFFFFFFFFFFFFFFC001FFFFFFFFFFFFFFC001FFFFFFFFFFFFFFFFFFF
310
FFFFFFFC001FFFFFF000FFFFFFFFFFFFFFFFFFFFFFFFFFFFFFFFFFFFFFFFFFFF
310
FFFFFFFFFFFFFFFFFFFFFFFFFFFFFFFFFFFFFFFFFFFFFFFFFFFFFFFFFFFFFFFF
310
FFFFFFFFFFFFFFFFFFFFFFFFFFFFFFFFFFFFFFFFFFFFFFFFFFFFFFFFFFFFFFFF
310
F000FFFFFFFFFFFFFFFFFFFFFFFFFFFFFFFFFFFFFFFFFFFFFFFFFFFFFFFFFFFF
310
FFFFFFFFFFFFFFFFFFFFFFFFFFFFFFFFFFFFFFFFFFFFFFFFFFFFFFFFFFFFFFFF
310
FFFFFFFFFFFFFFFFFFFFFFFFFFFFFFFFFFFFFFFFFFFFFFFFF000FFFFFFFFFFFF
310
FFFFFFFFFFFFFFFFFFFFFFFFFFFFFFFFFFFFFFFFFFFFFFFFFFFFFFFFFFFFFFFF
310
FFFFFFFFFFFFFFFFFFFFFFFFFFFFFFFFFFFFFFFFFFFFFFFFFFFFFFFFFFFFFFFF
310
FFFFFFFFFFFFFFFFFFFFFFFFFFFFFFFFF000FFFFFFFFFFFFFFFFFFFFFFFFFFFF
310
FFFFFFFFFFFFFFFFFFFFFFFFFFFFFFFFFFFFFFFFFFFFFFFFFFFFFFFFFFFFFFFF
310
FFFFFFFFFFFFFFFFFFFFFFFFFFFFFFFFFFFFFFFFFFFFFFFFFFFFFFFFFFFFFFFF
310
FFFFFFFFFFFFFFFFF000FFFFFFFFFFFFFFFFFFFFFFFFFFFFFFFFFFFFFFFFFFFF
310
FFFFFFFFFFFFFFFFFFFFFFFFFFFFFFFFFFFFFFFFFFFFFFFFFFFFFFFFFFFFFFFF
310
FFFFFFFFFFFFFFFFFFFFFFFFFFFFFFFFFFFFFFFFFFFFFFFFFFFFFFFFFFFFFFFF
310
F000FFFFFFFFFFFFFFFFFFFFFFFFFFFFFFFFFFFFFFFFFFFFFFFFFFFFFFFFFFFF
310
FFFFFFFFFFFFFFFFFFFFFFFFFFFFFFFFFFFFFFFFFFFFFFFFFFFFFFFFFFFFFFFF
310
FFFFFFFFFFFFFFFFFFFFFFFFFFFFFFFFFFFFFFFFFFFFFFFFF000FFFFFFFFFFFF
310
FFFFFFFFFFFFFFFFFFFFFFFFFFFFFFFFFFFFFFFFFFFFFFFFFFFFFFFFFFFFFFFF
310
FFFFFFFFFFFFFFFFFFFFFFFFFFFFFFFFFFFFFFFFFFFFFFFFFFFFFFFFFFFFFFFF
310
FFFFFFFFFFFFFFFFFFFFFFFFFFFFFFFFF000FFFFFFFFFFFFFFFFFFFFFFFFFFFF
310
FFFFFFFFFFFFFFFFFFFFFFFFFFFFFFFFFFFFFFFFFFFFFFFFFFFFFFFFFFFFFFFF
310
FFFFFFFFFFFFFFFFFFFFFFFFFFFFFFFFFFFFFFFFFFFFFFFFFFFFFFFFFFFFFFFF
310
FFFFFFFFFFFFFFFFF000FFFFFFFFFFFFFFFFFFFFFFFFFFFFFFFFFFFFFFFFFFFF
310
FFFFFFFFFFFFFFFFFFFFFFFFFFFFFFFFFFFFFFFFFFFFFFFFFFFFFFFFFFFFFFFF
310
FFFFFFFFFFFFFFFFFFFFFFFFFFFFFFFFFFFFFFFFFFFFFFFFFFFFFFFFFFFFFFFF
310
F000FFFFFFFFFFFFFFFFFFFFFFFFFFFFFFFFFFFFFFFFFFFFFFFFFFFFFFFFFFFF
310
FFFFFFFFFFFFFFFFFFFFFFFFFFFFFFFFFFFFFFFFFFFFFFFFFFFFFFFFFFFFFFFF
310
FFFFFFFFFFFFFFFFFFFFFFFFFFFFFFFFFFFFFFFFFFFFFFFFF000FFFFFFFFFFFF
310
FFFFFFFFFFFFFFFFFFFFFFFFFFFFFFFFFFFFFFFFFFFFFFFFFFFFFFFFFFFFFFFF
310
FFFFFFFFFFFFFFFFFFFFFFFFFFFFFFFFFFFFFFFFFFFFFFFFFFFFFFFFFFFFFFFF
310
FFFFFFFFFFFFFFFFFFFFFFFFFFFFFFFFF000FFFFFFFFFFFFFFFFFFFFFFFFFFFF
310
FFFFFFFFFFFFFFFFFFFFFFFFFFFFFFFFFFFFFFFFFFFFFFFFFFFFFFFFFFFFFFFF
310
FFFFFFFFFFFFFFFFFFFFFFFFFFFFFFFFFFFFFFFFFFFFFFFFFFFFFFFFFFFFFFFF
310
FFFFFFFFFFFFFFFFF000FFFFFFFFFFFFFFFFFFFFFFFFFFFFFFFFFFFFFFFFFFFF
310
FFFFFFFFFFFFFFFFFFFFFFFFFFFFFFFFFFFFFFFFFFFFFFFFFFFFFFFFFFFFFFFF
310
FFFFFFFFFFFFFFFFFFFFFFFFFFFFFFFFFFFFFFFFFFFFFFFFFFFFFFFFFFFFFFFF
310
F000FFFFFFFFFFFFFFFFFFFFFFFFFFFFFFFFFFFFFFFFFFFFFFFFFFFFFFFFFFFF
310
FFFFFFFFFFFFFFFFFFFFFFFFFFFFFFFFFFFFFFFFFFFFFFFFFFFFFFFFFFFFFFFF
310
FFFFFFFFFFFFFFFFFFFFFFFFFFFFFFFFFFFFFFFFFFFFFFFFF000FFFFFFFFFFFF
310
FFFFFFFFFFFFFFFFFFFFFFFFFFFFFFFFFFFFFFFFFFFFFFFFFFFFFFFFFFFFFFFF
310
FFFFFFFFFFFFFFFFFFFFFFFFFFFFFFFFFFFFFFFFFFFFFFFFFFFFFFFFFFFFFFFF
310
FFFFFFFFFFFFFFFFFFFFFFFFFFFFFFFFF000FFFFFFFFFFFFFFFFFFFFFFFFFFFF
310
FFFFFFFFFFFFFFFFFFFFFFFFFFFFFFFFFFFFFFFFFFFFFFFFFFFFFFFFFFFFFFFF
310
FFFFFFFFFFFFFFFFFFFFFFFFFFFFFFFFFFFFFFFFFFFFFFFFFFFFFFFFFFFFFFFF
310
FFFFFFFFFFFFFFFFF000FFFFFFFFFFFFFFFFFFFFFFFFFFFFFFFFFFFFFFFFFFFF
310
FFFFFFFFFFFFFFFFFFFFFFFFFFFFFFFFFFFFFFFFFFFFFFFFFFFFFFFFFFFFFFFF
310
FFFFFFFFFFFFFFFFFFFFFFFFFFFFFFFFFFFFFFFFFFFFFFFFFFFFFFFFFFFFFFFF
310
F000FFFFFFFFFFFFFFFFFFFFFFFFFFFFFFFFFFFFFFFFFFFFFFFFFFFFFFFFFFFF
310
FFFFFFFFFFFFFFFFFFFFFFFFFFFFFFFFFFFFFFFFFFFFFFFFFFFFFFFFFFFFFFFF
310
FFFFFFFFFFFFFFFFFFFFFFFFFFFFFFFFFFFFFFFFFFFFFFFFF000FFFFFFFFFFFF
310
FFFFFFFFFFFFFFFFFFFFFFFFFFFFFFFFFFFFFFFFFFFFFFFFFFFFFFFFFFFFFFFF
310
FFFFFFFFFFFFFFFFFFFFFFFFFFFFFFFFFFFFFFFFFFFFFFFFFFFFFFFFFFFFFFFF
310
FFFFFFFFFFFFFFFFFFFFFFFFFFFFFFFFF000FFFFFFFFFFFFFFFFFFFFFFFFFFFF
310
FFFFFFFFFFFFFFFFFFFFFFFFFFFFFFFFFFFFFFFFFFFFFFFFFFFFFFFFFFFFFFFF
310
FFFFFFFFFFFFFFFFFFFFFFFFFFFFFFFFFFFFFFFFFFFFFFFFFFFFFFFFFFFFFFFF
310
FFFFFFFFFFFFFFFFF000FFFFFFFFFFFFFFFFFFFFFFFFFFFFFFFFFFFFFFFFFFFF
310
FFFFFFFFFFFFFFFFFFFFFFFFFFFFFFFFFFFFFFFFFFFFFFFFFFFFFFFFFFFFFFFF
310
FFFFFFFFFFFFFFFFFFFFFFFFFFFFFFFFFFFFFFFFFFFFFFFFFFFFFFFFFFFFFFFF
310
F000FFFFFFFFFFFFFFFFFFFFFFFFFFFFFFFFFFFFFFFFFFFFFFFFFFFFFFFFFFFF
310
FFFFFFFFFFFFFFFFFFFFFFFFFFFFFFFFFFFFFFFFFFFFFFFFFFFFFFFFFFFFFFFF
310
FFFFFFFFFFFFFFFFFFFFFFFFFFFFFFFFFFFFFFFFFFFFFFFFF000FFFFFFFFFFFF
310
FFFFFFFFFFFFFFFFFFFFFFFFFFFFFFFFFFFFFFFFFFFFFFFFFFFFFFFFFFFFFFFF
310
FFFFFFFFFFFFFFFFFFFFFFFFFFFFFFFFFFFFFFFFFFFFFFFFFFFFFFFFFFFFFFFF
310
FFFFFFFFFFFFFFFFFFFFFFFFFFFFFFFFF0000000000000000000000000000000
310
0000000000000000000000000000000000000000000000000000000000000000
310
0000000000000000000000000000000000000000000000000000000000000000
310
0000000000000000000000000000000000000000000000000000000000000000
310
0000000000000000000000000000000000000000000000000000000000000000
310
0000000000000000000000000000000000000000000000000000000000000000
310
0000000000000000000000000000000000000000000000000000000000000000
310
0000000000000000000000000000000000000000000000000000000000000000
310
0000000000000000000000000000000000000000000000000000000000000000
310
0000000000000000000000000000000000000000000000000000000000000000
310
0000000000000000000000000000000000000000000000000000000000000000
310
0000000000000000000000000000000000000000000000000000000000000000
310
0000000000000000000000000000000000000000000000000000000000000000
310
0000000000000000000000000000000000000000000000000000000000000000
310
0000000000000000000000000000000000000000000000000000000000000000
310
0000000000000000000000000000000000000000000000000000000000000000
  1
OLE
  0
ENDSEC
  0
SECTION
  2
OBJECTS
  0
DICTIONARY
  5
C
330
0
100
AcDbDictionary
281
     1
  3
ACAD_GROUP
350
D
  3
ACAD_LAYOUT
350
1A
  3
ACAD_MLINESTYLE
350
17
  3
ACAD_PLOTSETTINGS
350
19
  3
ACAD_PLOTSTYLENAME
350
E
  3
ACAD_SCALELIST
350
47
  0
DICTIONARY
  5
D
102
{ACAD_REACTORS
330
C
102
}
330
C
100
AcDbDictionary
281
     1
  0
DICTIONARY
  5
1A
102
{ACAD_REACTORS
330
C
102
}
330
C
100
AcDbDictionary
281
     1
  3
Layout1
350
1E
  3
Layout2
350
26
  3
Model
350
22
  0
DICTIONARY
  5
17
102
{ACAD_REACTORS
330
C
102
}
330
C
100
AcDbDictionary
281
     1
  3
Standard
350
18
  0
DICTIONARY
  5
19
102
{ACAD_REACTORS
330
C
102
}
330
C
100
AcDbDictionary
281
     1
  0
ACDBDICTIONARYWDFLT
  5
E
102
{ACAD_REACTORS
330
C
102
}
330
C
100
AcDbDictionary
281
     1
  3
Normal
350
F
100
AcDbDictionaryWithDefault
340
F
  0
DICTIONARY
  5
47
102
{ACAD_REACTORS
330
C
102
}
330
C
100
AcDbDictionary
281
     1
  3
A0
350
48
  3
A1
350
49
  3
A2
350
4A
  3
A3
350
4B
  3
A4
350
4C
  3
A5
350
4D
  3
A6
350
4E
  3
A7
350
4F
  3
A8
350
50
  3
A9
350
51
  3
B0
350
52
  3
B1
350
53
  3
B2
350
54
  3
B3
350
55
  3
B4
350
56
  3
B5
350
57
  3
B6
350
58
  3
B7
350
59
  3
B8
350
5A
  3
B9
350
5B
  3
C0
350
5C
  3
C1
350
5D
  3
C2
350
5E
  3
C3
350
5F
  3
C4
350
60
  3
C5
350
61
  3
C6
350
62
  3
C7
350
63
  3
C8
350
64
  3
C9
350
65
  3
D0
350
66
  3
D1
350
67
  3
D2
350
68
  0
LAYOUT
  5
1E
102
{ACAD_REACTORS
330
1A
102
}
330
1A
100
AcDbPlotSettings
  1

  2
none_device
  4

  6

 40
0.0
 41
0.0
 42
0.0
 43
0.0
 44
0.0
 45
0.0
 46
0.0
 47
0.0
 48
0.0
 49
0.0
140
0.0
141
0.0
142
1.0
143
1.0
 70
   688
 72
     1
 73
     0
 74
     5
  7

 75
    16
147
1.0
148
0.0
149
0.0
100
AcDbLayout
  1
Layout1
 70
     1
 71
     1
 10
0.0
 20
0.0
 11
420.0
 21
297.0
 12
0.0
 22
0.0
 32
0.0
 14
1.0000000000E+20
 24
1.0000000000E+20
 34
1.0000000000E+20
 15
-1.0000000000E+20
 25
-1.0000000000E+20
 35
-1.0000000000E+20
146
0.0
 13
0.0
 23
0.0
 33
0.0
 16
1.0
 26
0.0
 36
0.0
 17
0.0
 27
1.0
 37
0.0
 76
     0
330
1B
  0
LAYOUT
  5
26
102
{ACAD_REACTORS
330
1A
102
}
330
1A
100
AcDbPlotSettings
  1

  2
none_device
  4

  6

 40
0.0
 41
0.0
 42
0.0
 43
0.0
 44
0.0
 45
0.0
 46
0.0
 47
0.0
 48
0.0
 49
0.0
140
0.0
141
0.0
142
1.0
143
1.0
 70
   688
 72
     1
 73
     0
 74
     5
  7

 75
    16
147
1.0
148
0.0
149
0.0
100
AcDbLayout
  1
Layout2
 70
     1
 71
     2
 10
0.0
 20
0.0
 11
0.0
 21
0.0
 12
0.0
 22
0.0
 32
0.0
 14
0.0
 24
0.0
 34
0.0
 15
0.0
 25
0.0
 35
0.0
146
0.0
 13
0.0
 23
0.0
 33
0.0
 16
1.0
 26
0.0
 36
0.0
 17
0.0
 27
1.0
 37
0.0
 76
     0
330
23
  0
LAYOUT
  5
22
102
{ACAD_REACTORS
330
1A
102
}
330
1A
100
AcDbPlotSettings
  1

  2
none_device
  4
Letter_(8.50_x_11.00_Inches)
  6

 40
6.35
 41
6.35
 42
6.35000508
 43
6.35000508
 44
215.9
 45
279.4
 46
0.0
 47
0.0
 48
0.0
 49
0.0
140
0.0
141
0.0
142
1.0
143
1.0
 70
  1712
 72
     1
 73
     0
 74
     0
  7

 75
     0
147
1.0
148
0.0
149
0.0
100
AcDbLayout
  1
Model
 70
     1
 71
     0
 10
0.0
 20
0.0
 11
297.0
 21
210.0
 12
0.0
 22
0.0
 32
0.0
 14
0.0
 24
0.0
 34
0.0
 15
297.0
 25
210.0
 35
0.0
146
0.0
 13
0.0
 23
0.0
 33
0.0
 16
1.0
 26
0.0
 36
0.0
 17
0.0
 27
1.0
 37
0.0
 76
     0
330
1F
331
29
  0
MLINESTYLE
  5
18
102
{ACAD_REACTORS
330
17
102
}
330
17
100
AcDbMlineStyle
  2
Standard
 70
     0
  3

 62
   256
 51
90.0
 52
90.0
 71
     2
 49
0.5
 62
   256
  6
BYLAYER
 49
-0.5
 62
   256
  6
BYLAYER
  0
ACDBPLACEHOLDER
  5
F
102
{ACAD_REACTORS
330
E
102
}
330
E
  0
SCALE
  5
48
102
{ACAD_REACTORS
330
47
102
}
330
47
100
AcDbScale
 70
     0
300
1:1
140
1.0
141
1.0
290
     1
  0
SCALE
  5
49
102
{ACAD_REACTORS
330
47
102
}
330
47
100
AcDbScale
 70
     0
300
1:2
140
1.0
141
2.0
290
     0
  0
SCALE
  5
4A
102
{ACAD_REACTORS
330
47
102
}
330
47
100
AcDbScale
 70
     0
300
1:4
140
1.0
141
4.0
290
     0
  0
SCALE
  5
4B
102
{ACAD_REACTORS
330
47
102
}
330
47
100
AcDbScale
 70
     0
300
1:5
140
1.0
141
5.0
290
     0
  0
SCALE
  5
4C
102
{ACAD_REACTORS
330
47
102
}
330
47
100
AcDbScale
 70
     0
300
1:8
140
1.0
141
8.0
290
     0
  0
SCALE
  5
4D
102
{ACAD_REACTORS
330
47
102
}
330
47
100
AcDbScale
 70
     0
300
1:10
140
1.0
141
10.0
290
     0
  0
SCALE
  5
4E
102
{ACAD_REACTORS
330
47
102
}
330
47
100
AcDbScale
 70
     0
300
1:16
140
1.0
141
16.0
290
     0
  0
SCALE
  5
4F
102
{ACAD_REACTORS
330
47
102
}
330
47
100
AcDbScale
 70
     0
300
1:20
140
1.0
141
20.0
290
     0
  0
SCALE
  5
50
102
{ACAD_REACTORS
330
47
102
}
330
47
100
AcDbScale
 70
     0
300
1:30
140
1.0
141
30.0
290
     0
  0
SCALE
  5
51
102
{ACAD_REACTORS
330
47
102
}
330
47
100
AcDbScale
 70
     0
300
1:40
140
1.0
141
40.0
290
     0
  0
SCALE
  5
52
102
{ACAD_REACTORS
330
47
102
}
330
47
100
AcDbScale
 70
     0
300
1:50
140
1.0
141
50.0
290
     0
  0
SCALE
  5
53
102
{ACAD_REACTORS
330
47
102
}
330
47
100
AcDbScale
 70
     0
300
1:100
140
1.0
141
100.0
290
     0
  0
SCALE
  5
54
102
{ACAD_REACTORS
330
47
102
}
330
47
100
AcDbScale
 70
     0
300
2:1
140
2.0
141
1.0
290
     0
  0
SCALE
  5
55
102
{ACAD_REACTORS
330
47
102
}
330
47
100
AcDbScale
 70
     0
300
4:1
140
4.0
141
1.0
290
     0
  0
SCALE
  5
56
102
{ACAD_REACTORS
330
47
102
}
330
47
100
AcDbScale
 70
     0
300
8:1
140
8.0
141
1.0
290
     0
  0
SCALE
  5
57
102
{ACAD_REACTORS
330
47
102
}
330
47
100
AcDbScale
 70
     0
300
10:1
140
10.0
141
1.0
290
     0
  0
SCALE
  5
58
102
{ACAD_REACTORS
330
47
102
}
330
47
100
AcDbScale
 70
     0
300
100:1
140
100.0
141
1.0
290
     0
  0
SCALE
  5
59
102
{ACAD_REACTORS
330
47
102
}
330
47
100
AcDbScale
 70
     0
300
1/128" = 1'-0"
140
0.0078125
141
12.0
290
     0
  0
SCALE
  5
5A
102
{ACAD_REACTORS
330
47
102
}
330
47
100
AcDbScale
 70
     0
300
1/64" = 1'-0"
140
0.015625
141
12.0
290
     0
  0
SCALE
  5
5B
102
{ACAD_REACTORS
330
47
102
}
330
47
100
AcDbScale
 70
     0
300
1/32" = 1'-0"
140
0.03125
141
12.0
290
     0
  0
SCALE
  5
5C
102
{ACAD_REACTORS
330
47
102
}
330
47
100
AcDbScale
 70
     0
300
1/16" = 1'-0"
140
0.0625
141
12.0
290
     0
  0
SCALE
  5
5D
102
{ACAD_REACTORS
330
47
102
}
330
47
100
AcDbScale
 70
     0
300
3/32" = 1'-0"
140
0.09375
141
12.0
290
     0
  0
SCALE
  5
5E
102
{ACAD_REACTORS
330
47
102
}
330
47
100
AcDbScale
 70
     0
300
1/8" = 1'-0"
140
0.125
141
12.0
290
     0
  0
SCALE
  5
5F
102
{ACAD_REACTORS
330
47
102
}
330
47
100
AcDbScale
 70
     0
300
3/16" = 1'-0"
140
0.1875
141
12.0
290
     0
  0
SCALE
  5
60
102
{ACAD_REACTORS
330
47
102
}
330
47
100
AcDbScale
 70
     0
300
1/4" = 1'-0"
140
0.25
141
12.0
290
     0
  0
SCALE
  5
61
102
{ACAD_REACTORS
330
47
102
}
330
47
100
AcDbScale
 70
     0
300
3/8" = 1'-0"
140
0.375
141
12.0
290
     0
  0
SCALE
  5
62
102
{ACAD_REACTORS
330
47
102
}
330
47
100
AcDbScale
 70
     0
300
1/2" = 1'-0"
140
0.5
141
12.0
290
     0
  0
SCALE
  5
63
102
{ACAD_REACTORS
330
47
102
}
330
47
100
AcDbScale
 70
     0
300
3/4" = 1'-0"
140
0.75
141
12.0
290
     0
  0
SCALE
  5
64
102
{ACAD_REACTORS
330
47
102
}
330
47
100
AcDbScale
 70
     0
300
1" = 1'-0"
140
1.0
141
12.0
290
     0
  0
SCALE
  5
65
102
{ACAD_REACTORS
330
47
102
}
330
47
100
AcDbScale
 70
     0
300
1-1/2" = 1'-0"
140
1.5
141
12.0
290
     0
  0
SCALE
  5
66
102
{ACAD_REACTORS
330
47
102
}
330
47
100
AcDbScale
 70
     0
300
3" = 1'-0"
140
3.0
141
12.0
290
     0
  0
SCALE
  5
67
102
{ACAD_REACTORS
330
47
102
}
330
47
100
AcDbScale
 70
     0
300
6" = 1'-0"
140
6.0
141
12.0
290
     0
  0
SCALE
  5
68
102
{ACAD_REACTORS
330
47
102
}
330
47
100
AcDbScale
 70
     0
300
1'-0" = 1'-0"
140
12.0
141
12.0
290
     0
  0
ENDSEC
  0
EOF
