  0
SECTION
  2
HEADER
  9
$ACADVER
  1
AC1015
  9
$ACADMAINTVER
 70
     6
  9
$DWGCODEPAGE
  3
ANSI_1252
  9
$INSBASE
 10
0.0
 20
0.0
 30
0.0
  9
$EXTMIN
 10
0.0
 20
0.0
 30
0.0
  9
$EXTMAX
 10
297.0
 20
210.0
 30
0.0
  9
$LIMMIN
 10
0.0
 20
0.0
  9
$LIMMAX
 10
297.0
 20
210.0
  9
$ORTHOMODE
 70
     0
  9
$REGENMODE
 70
     1
  9
$FILLMODE
 70
     1
  9
$QTEXTMODE
 70
     0
  9
$MIRRTEXT
 70
     1
  9
$LTSCALE
 40
1.0
  9
$ATTMODE
 70
     1
  9
$TEXTSIZE
 40
2.0
  9
$TRACEWID
 40
1.0
  9
$TEXTSTYLE
  7
Standard
  9
$CLAYER
  8
0
  9
$CELTYPE
  6
ByLayer
  9
$CECOLOR
 62
   256
  9
$CELTSCALE
 40
1.0
  9
$DISPSILH
 70
     0
  9
$DIMSCALE
 40
1.0
  9
$DIMASZ
 40
3.0
  9
$DIMEXO
 40
0.0
  9
$DIMDLI
 40
3.75
  9
$DIMRND
 40
0.0
  9
$DIMDLE
 40
0.0
  9
$DIMEXE
 40
1.0
  9
$DIMTP
 40
0.0
  9
$DIMTM
 40
0.0
  9
$DIMTXT
 40
2.0
  9
$DIMCEN
 40
2.5
  9
$DIMTSZ
 40
0.0
  9
$DIMTOL
 70
     0
  9
$DIMLIM
 70
     0
  9
$DIMTIH
 70
     1
  9
$DIMTOH
 70
     1
  9
$DIMSE1
 70
     0
  9
$DIMSE2
 70
     0
  9
$DIMTAD
 70
     1
  9
$DIMZIN
 70
     0
  9
$DIMBLK
  1

  9
$DIMASO
 70
     1
  9
$DIMSHO
 70
     1
  9
$DIMPOST
  1

  9
$DIMAPOST
  1

  9
$DIMALT
 70
     0
  9
$DIMALTD
 70
     3
  9
$DIMALTF
 40
0.0393700787
  9
$DIMLFAC
 40
1.0
  9
$DIMTOFL
 70
     1
  9
$DIMTVP
 40
0.0
  9
$DIMTIX
 70
     0
  9
$DIMSOXD
 70
     0
  9
$DIMSAH
 70
     0
  9
$DIMBLK1
  1

  9
$DIMBLK2
  1

  9
$DIMSTYLE
  2
ISO-25
  9
$DIMCLRD
 70
     0
  9
$DIMCLRE
 70
     0
  9
$DIMCLRT
 70
     0
  9
$DIMTFAC
 40
1.0
  9
$DIMGAP
 40
1.524
  9
$DIMJUST
 70
     0
  9
$DIMSD1
 70
     0
  9
$DIMSD2
 70
     0
  9
$DIMTOLJ
 70
     0
  9
$DIMTZIN
 70
     0
  9
$DIMALTZ
 70
     0
  9
$DIMALTTZ
 70
     0
  9
$DIMUPT
 70
     0
  9
$DIMDEC
 70
     2
  9
$DIMTDEC
 70
     3
  9
$DIMALTU
 70
     2
  9
$DIMALTTD
 70
     3
  9
$DIMTXSTY
  7
Standard
  9
$DIMAUNIT
 70
     0
  9
$DIMADEC
 70
     2
  9
$DIMALTRND
 40
0.0
  9
$DIMAZIN
 70
     0
  9
$DIMDSEP
 70
    44
  9
$DIMATFIT
 70
     3
  9
$DIMFRAC
 70
     0
  9
$DIMLDRBLK
  1

  9
$DIMLUNIT
 70
     2
  9
$DIMLWD
 70
    -2
  9
$DIMLWE
 70
    -2
  9
$DIMTMOVE
 70
     0
  9
$LUNITS
 70
     2
  9
$LUPREC
 70
     2
  9
$SKETCHINC
 40
1.0
  9
$FILLETRAD
 40
10.0
  9
$AUNITS
 70
     0
  9
$AUPREC
 70
     2
  9
$MENU
  1
.
  9
$ELEVATION
 40
0.0
  9
$PELEVATION
 40
0.0
  9
$THICKNESS
 40
0.0
  9
$LIMCHECK
 70
     0
  9
$CHAMFERA
 40
0.0
  9
$CHAMFERB
 40
0.0
  9
$CHAMFERC
 40
0.0
  9
$CHAMFERD
 40
0.0
  9
$SKPOLY
 70
     0
  9
$TDCREATE
 40
2457632.479576551
  9
$TDUCREATE
 40
2457632.396243217
  9
$TDUPDATE
 40
2457632.479577859
  9
$TDUUPDATE
 40
2457632.396244525
  9
$TDINDWG
 40
0.0000000116
  9
$TDUSRTIMER
 40
0.0000000116
  9
$USRTIMER
 70
     1
  9
$ANGBASE
 50
0.0
  9
$ANGDIR
 70
     0
  9
$PDMODE
 70
     0
  9
$PDSIZE
 40
-1.0
  9
$PLINEWID
 40
0.0
  9
$SPLFRAME
 70
     0
  9
$SPLINETYPE
 70
     6
  9
$SPLINESEGS
 70
     8
  9
$HANDSEED
  5
2D9
  9
$SURFTAB1
 70
     6
  9
$SURFTAB2
 70
     6
  9
$SURFTYPE
 70
     6
  9
$SURFU
 70
     6
  9
$SURFV
 70
     6
  9
$UCSBASE
  2

  9
$UCSNAME
  2

  9
$UCSORG
 10
0.0
 20
0.0
 30
0.0
  9
$UCSXDIR
 10
1.0
 20
0.0
 30
0.0
  9
$UCSYDIR
 10
0.0
 20
1.0
 30
0.0
  9
$UCSORTHOREF
  2

  9
$UCSORTHOVIEW
 70
     0
  9
$UCSORGTOP
 10
0.0
 20
0.0
 30
0.0
  9
$UCSORGBOTTOM
 10
0.0
 20
0.0
 30
0.0
  9
$UCSORGLEFT
 10
0.0
 20
0.0
 30
0.0
  9
$UCSORGRIGHT
 10
0.0
 20
0.0
 30
0.0
  9
$UCSORGFRONT
 10
0.0
 20
0.0
 30
0.0
  9
$UCSORGBACK
 10
0.0
 20
0.0
 30
0.0
  9
$PUCSBASE
  2

  9
$PUCSNAME
  2

  9
$PUCSORG
 10
0.0
 20
0.0
 30
0.0
  9
$PUCSXDIR
 10
1.0
 20
0.0
 30
0.0
  9
$PUCSYDIR
 10
0.0
 20
1.0
 30
0.0
  9
$PUCSORTHOREF
  2

  9
$PUCSORTHOVIEW
 70
     0
  9
$PUCSORGTOP
 10
0.0
 20
0.0
 30
0.0
  9
$PUCSORGBOTTOM
 10
0.0
 20
0.0
 30
0.0
  9
$PUCSORGLEFT
 10
0.0
 20
0.0
 30
0.0
  9
$PUCSORGRIGHT
 10
0.0
 20
0.0
 30
0.0
  9
$PUCSORGFRONT
 10
0.0
 20
0.0
 30
0.0
  9
$PUCSORGBACK
 10
0.0
 20
0.0
 30
0.0
  9
$USERI1
 70
     0
  9
$USERI2
 70
     0
  9
$USERI3
 70
     0
  9
$USERI4
 70
     0
  9
$USERI5
 70
     0
  9
$USERR1
 40
0.0
  9
$USERR2
 40
0.0
  9
$USERR3
 40
0.0
  9
$USERR4
 40
0.0
  9
$USERR5
 40
0.0
  9
$WORLDVIEW
 70
     1
  9
$SHADEDGE
 70
     3
  9
$SHADEDIF
 70
    70
  9
$TILEMODE
 70
     1
  9
$MAXACTVP
 70
    64
  9
$PINSBASE
 10
0.0
 20
0.0
 30
0.0
  9
$PLIMCHECK
 70
     0
  9
$PEXTMIN
 10
1.0000000000E+20
 20
1.0000000000E+20
 30
1.0000000000E+20
  9
$PEXTMAX
 10
-1.0000000000E+20
 20
-1.0000000000E+20
 30
-1.0000000000E+20
  9
$PLIMMIN
 10
0.0
 20
0.0
  9
$PLIMMAX
 10
420.0
 20
297.0
  9
$UNITMODE
 70
     0
  9
$VISRETAIN
 70
     1
  9
$PLINEGEN
 70
     0
  9
$PSLTSCALE
 70
     1
  9
$TREEDEPTH
 70
  3020
  9
$CMLSTYLE
  2
Standard
  9
$CMLJUST
 70
     0
  9
$CMLSCALE
 40
20.0
  9
$PROXYGRAPHICS
 70
     1
  9
$MEASUREMENT
 70
     1
  9
$CELWEIGHT
370
    -1
  9
$ENDCAPS
280
     0
  9
$JOINSTYLE
280
     0
  9
$LWDISPLAY
290
     1
  9
$INSUNITS
 70
     4
  9
$HYPERLINKBASE
  1

  9
$STYLESHEET
  1

  9
$XEDIT
290
     1
  9
$CEPSNTYPE
380
     0
  9
$PSTYLEMODE
290
     1
  9
$FINGERPRINTGUID
  2
{151B7F40-9BAC-49FF-9716-9C322DBF9C6E}
  9
$VERSIONGUID
  2
{FAEB1C32-E019-11D5-929B-00C0DF256EC4}
  9
$EXTNAMES
290
     1
  9
$PSVPSCALE
 40
0.0
  9
$OLESTARTUP
290
     0
  0
ENDSEC
  0
SECTION
  2
CLASSES
  0
CLASS
  1
ACDBDICTIONARYWDFLT
  2
AcDbDictionaryWithDefault
  3
ObjectDBX Classes
 90
        0
280
     0
281
     0
  0
CLASS
  1
VISUALSTYLE
  2
AcDbVisualStyle
  3
ObjectDBX Classes
 90
     4095
280
     0
281
     0
  0
CLASS
  1
MATERIAL
  2
AcDbMaterial
  3
ObjectDBX Classes
 90
     1153
280
     0
281
     0
  0
CLASS
  1
SCALE
  2
AcDbScale
  3
ObjectDBX Classes
 90
     1153
280
     0
281
     0
  0
CLASS
  1
TABLESTYLE
  2
AcDbTableStyle
  3
ObjectDBX Classes
 90
     4095
280
     0
281
     0
  0
CLASS
  1
MLEADERSTYLE
  2
AcDbMLeaderStyle
  3
ACDB_MLEADERSTYLE_CLASS
 90
     4095
280
     0
281
     0
  0
CLASS
  1
SUN
  2
AcDbSun
  3
SCENEOE
 90
     1153
280
     0
281
     0
  0
CLASS
  1
ACDBPLACEHOLDER
  2
AcDbPlaceHolder
  3
ObjectDBX Classes
 90
        0
280
     0
281
     0
  0
CLASS
  1
LAYOUT
  2
AcDbLayout
  3
ObjectDBX Classes
 90
        0
280
     0
281
     0
  0
ENDSEC
  0
SECTION
  2
TABLES
  0
TABLE
  2
VPORT
  5
8
330
0
100
AcDbSymbolTable
 70
     1
  0
VPORT
  5
29
330
8
100
AcDbSymbolTableRecord
100
AcDbViewportTableRecord
  2
*Active
 70
     0
 10
0.0
 20
0.0
 11
1.0
 21
1.0
 12
148.5
 22
105.0
 13
0.0
 23
0.0
 14
10.0
 24
10.0
 15
10.0
 25
10.0
 16
0.0
 26
0.0
 36
1.0
 17
0.0
 27
0.0
 37
0.0
 40
210.0
 41
1.4142857143
 42
50.0
 43
0.0
 44
0.0
 50
0.0
 51
0.0
 71
     0
 72
  2000
 73
     1
 74
     3
 75
     0
 76
     0
 77
     0
 78
     0
281
     0
 65
     1
110
0.0
120
0.0
130
0.0
111
1.0
121
0.0
131
0.0
112
0.0
122
1.0
132
0.0
 79
     0
146
0.0
  0
ENDTAB
  0
TABLE
  2
LTYPE
  5
5
330
0
100
AcDbSymbolTable
 70
     6
  0
LTYPE
  5
14
330
5
100
AcDbSymbolTableRecord
100
AcDbLinetypeTableRecord
  2
ByBlock
 70
     0
  3

 72
    65
 73
     0
 40
0.0
  0
LTYPE
  5
15
330
5
100
AcDbSymbolTableRecord
100
AcDbLinetypeTableRecord
  2
ByLayer
 70
     0
  3

 72
    65
 73
     0
 40
0.0
  0
LTYPE
  5
16
330
5
100
AcDbSymbolTableRecord
100
AcDbLinetypeTableRecord
  2
Continuous
 70
     0
  3
Solid line
 72
    65
 73
     0
 40
0.0
  0
LTYPE
  5
6E
330
5
100
AcDbSymbolTableRecord
100
AcDbLinetypeTableRecord
  2
HIDDEN
 70
     0
  3
Hidden __ __ __ __ __ __ __ __ __ __ __ __ __ __
 72
    65
 73
     2
 40
1.905
 49
1.27
 74
     0
 49
-0.635
 74
     0
  0
LTYPE
  5
6F
330
5
100
AcDbSymbolTableRecord
100
AcDbLinetypeTableRecord
  2
PHANTOM
 70
     0
  3
Phantom ______  __  __  ______  __  __  ______
 72
    65
 73
     6
 40
12.7
 49
6.35
 74
     0
 49
-1.27
 74
     0
 49
1.27
 74
     0
 49
-1.27
 74
     0
 49
1.27
 74
     0
 49
-1.27
 74
     0
  0
LTYPE
  5
70
330
5
100
AcDbSymbolTableRecord
100
AcDbLinetypeTableRecord
  2
CENTER
 70
     0
  3
Center ____ _ ____ _ ____ _ ____ _ ____ _ ____
 72
    65
 73
     4
 40
10.16
 49
6.35
 74
     0
 49
-1.27
 74
     0
 49
1.27
 74
     0
 49
-1.27
 74
     0
  0
LTYPE
  5
71
330
5
100
AcDbSymbolTableRecord
100
AcDbLinetypeTableRecord
  2
CENTERX2
 70
     0
  3
Center (2x) ________  __  ________  __  _____
 72
    65
 73
     4
 40
20.32
 49
12.7
 74
     0
 49
-2.54
 74
     0
 49
2.54
 74
     0
 49
-2.54
 74
     0
  0
LTYPE
  5
72
330
5
100
AcDbSymbolTableRecord
100
AcDbLinetypeTableRecord
  2
DOT2
 70
     0
  3
Dot (.5x) ........................................
 72
    65
 73
     2
 40
0.635
 49
0.0
 74
     0
 49
-0.635
 74
     0
  0
ENDTAB
  0
TABLE
  2
LAYER
  5
2
330
0
100
AcDbSymbolTable
 70
     5
  0
LAYER
  5
10
330
2
100
AcDbSymbolTableRecord
100
AcDbLayerTableRecord
  2
0
 70
     0
 62
     7
  6
Continuous
370
    -3
390
F
  0
LAYER
  5
73
330
2
100
AcDbSymbolTableRecord
100
AcDbLayerTableRecord
  2
FORMAT
 70
     0
 62
     7
  6
Continuous
370
    -3
390
F
  0
LAYER
  5
74
330
2
100
AcDbSymbolTableRecord
100
AcDbLayerTableRecord
  2
VERMASSUNG
 70
     0
 62
     7
  6
Continuous
370
    -3
390
F
  0
LAYER
  5
75
330
2
100
AcDbSymbolTableRecord
100
AcDbLayerTableRecord
  2
KOPF_DÜNN
 70
     0
 62
     7
  6
Continuous
370
    -3
390
F
  0
LAYER
  5
76
330
2
100
AcDbSymbolTableRecord
100
AcDbLayerTableRecord
  2
KOPF_DICK
 70
     0
 62
     7
  6
Continuous
370
    15
390
F
  0
ENDTAB
  0
TABLE
  2
STYLE
  5
3
330
0
100
AcDbSymbolTable
 70
     2
  0
STYLE
  5
11
330
3
100
AcDbSymbolTableRecord
100
AcDbTextStyleTableRecord
  2
Standard
 70
     0
 40
0.0
 41
1.0
 50
0.0
 71
     0
 42
2.0
  3
txt
  4

  0
STYLE
  5
77
330
3
100
AcDbSymbolTableRecord
100
AcDbTextStyleTableRecord
  2
SLDTEXTSTYLE0
 70
     0
 40
0.0
 41
0.7
 50
0.0
 71
     0
 42
2.0
  3
TXT
  4

  0
ENDTAB
  0
TABLE
  2
VIEW
  5
6
330
0
100
AcDbSymbolTable
 70
     0
  0
ENDTAB
  0
TABLE
  2
UCS
  5
7
330
0
100
AcDbSymbolTable
 70
     0
  0
ENDTAB
  0
TABLE
  2
APPID
  5
9
330
0
100
AcDbSymbolTable
 70
     1
  0
APPID
  5
12
330
9
100
AcDbSymbolTableRecord
100
AcDbRegAppTableRecord
  2
ACAD
 70
     0
  0
ENDTAB
  0
TABLE
  2
DIMSTYLE
  5
A
330
0
100
AcDbSymbolTable
 70
     2
100
AcDbDimStyleTable
  0
DIMSTYLE
105
27
330
A
100
AcDbSymbolTableRecord
100
AcDbDimStyleTableRecord
  2
ISO-25
 70
     0
 41
2.5
 42
0.625
 43
3.75
 44
1.25
 73
     0
 74
     0
 77
     1
 78
     8
140
2.5
141
2.5
143
0.0393700787
147
0.625
171
     3
172
     1
178
     0
271
     2
272
     2
274
     3
278
    44
283
     0
284
     8
340
11
  0
DIMSTYLE
105
1D9
102
{ACAD_REACTORS
330
1D8
330
1E5
330
1F1
330
1FB
330
205
102
}
330
A
100
AcDbSymbolTableRecord
100
AcDbDimStyleTableRecord
  2
SLDDIMSTYLE0
 70
     0
 41
3.0
 44
0.0
 45
0.000000001
 73
     0
 74
     0
 77
     1
 78
    12
 79
     3
140
2.0
147
0.5
173
     1
178
     0
271
     2
272
     3
276
     2
284
    12
340
77
  0
ENDTAB
  0
TABLE
  2
BLOCK_RECORD
  5
1
330
0
100
AcDbSymbolTable
 70
     6
  0
BLOCK_RECORD
  5
1F
330
1
100
AcDbSymbolTableRecord
100
AcDbBlockTableRecord
  2
*Model_Space
340
22
  0
BLOCK_RECORD
  5
1B
330
1
100
AcDbSymbolTableRecord
100
AcDbBlockTableRecord
  2
*Paper_Space
340
1E
  0
BLOCK_RECORD
  5
23
330
1
100
AcDbSymbolTableRecord
100
AcDbBlockTableRecord
  2
*Paper_Space0
340
26
  0
BLOCK_RECORD
  5
1DA
330
1
100
AcDbSymbolTableRecord
100
AcDbBlockTableRecord
  2
_D
340
0
  0
BLOCK_RECORD
  5
1E6
330
1
100
AcDbSymbolTableRecord
100
AcDbBlockTableRecord
  2
_D_1
340
0
  0
BLOCK_RECORD
  5
1F2
330
1
100
AcDbSymbolTableRecord
100
AcDbBlockTableRecord
  2
_D_2
340
0
  0
BLOCK_RECORD
  5
1FC
330
1
100
AcDbSymbolTableRecord
100
AcDbBlockTableRecord
  2
_D_3
340
0
  0
BLOCK_RECORD
  5
206
330
1
100
AcDbSymbolTableRecord
100
AcDbBlockTableRecord
  2
_D_4
340
0
  0
ENDTAB
  0
ENDSEC
  0
SECTION
  2
BLOCKS
  0
BLOCK
  5
20
330
1F
100
AcDbEntity
  8
0
100
AcDbBlockBegin
  2
*Model_Space
 70
     0
 10
0.0
 20
0.0
 30
0.0
  3
*Model_Space
  1

  0
ENDBLK
  5
21
330
1F
100
AcDbEntity
  8
0
100
AcDbBlockEnd
  0
BLOCK
  5
1C
330
1B
100
AcDbEntity
 67
     1
  8
0
100
AcDbBlockBegin
  2
*Paper_Space
 70
     0
 10
0.0
 20
0.0
 30
0.0
  3
*Paper_Space
  1

  0
ENDBLK
  5
1D
330
1B
100
AcDbEntity
 67
     1
  8
0
100
AcDbBlockEnd
  0
BLOCK
  5
24
330
23
100
AcDbEntity
  8
0
100
AcDbBlockBegin
  2
*Paper_Space0
 70
     0
 10
0.0
 20
0.0
 30
0.0
  3
*Paper_Space0
  1

  0
ENDBLK
  5
25
330
23
100
AcDbEntity
  8
0
100
AcDbBlockEnd
  0
BLOCK
  5
1DB
330
1DA
100
AcDbEntity
  8
0
100
AcDbBlockBegin
  2
_D
 70
     0
 10
0.0
 20
0.0
 30
0.0
  3
_D
  1

  0
SOLID
  5
1DD
330
1DA
100
AcDbEntity
  8
VERMASSUNG
100
AcDbTrace
 10
50.5816495069
 20
71.8391613297
 30
0.0
 11
51.0316495069
 21
74.8391613297
 31
0.0
 12
50.1316495069
 22
74.8391613297
 32
0.0
 13
50.1316495069
 23
74.8391613297
 33
0.0
  0
SOLID
  5
1DE
330
1DA
100
AcDbEntity
  8
VERMASSUNG
100
AcDbTrace
 10
50.5816495069
 20
169.2891613297
 30
0.0
 11
50.1316495069
 21
166.2891613297
 31
0.0
 12
51.0316495069
 22
166.2891613297
 32
0.0
 13
51.0316495069
 23
166.2891613297
 33
0.0
  0
LINE
  5
1DF
330
1DA
100
AcDbEntity
  8
VERMASSUNG
100
AcDbLine
 10
177.2787063655
 20
71.8391613297
 30
0.0
 11
49.5816495069
 21
71.8391613297
 31
0.0
  0
LINE
  5
1E0
330
1DA
100
AcDbEntity
  8
VERMASSUNG
100
AcDbLine
 10
177.2787063655
 20
169.2891613297
 30
0.0
 11
49.5816495069
 21
169.2891613297
 31
0.0
  0
LINE
  5
1E1
330
1DA
100
AcDbEntity
  8
VERMASSUNG
100
AcDbLine
 10
50.5816495069
 20
71.8391613297
 30
0.0
 11
50.5816495069
 21
169.2891613297
 31
0.0
  0
MTEXT
  5
1E2
330
1DA
100
AcDbEntity
  8
VERMASSUNG
100
AcDbMText
 10
47.8035142507
 20
111.0597256964
 30
0.0
 40
2.0
 41
0.0
 71
     1
 72
     1
  1
ISO 50
  7
SLDTEXTSTYLE0
 11
3.391901413832837E-15
 21
1.0
 31
0.0
 73
     1
 44
1.0
  0
MTEXT
  5
1E3
330
1DA
100
AcDbEntity
  8
VERMASSUNG
100
AcDbMText
 10
48.003514202
 20
120.0597253089
 30
0.0
 40
2.0
 41
0.0
 71
     1
 72
     1
  1
%%c
  7
SLDTEXTSTYLE0
 11
3.391901413832837E-15
 21
1.0
 31
0.0
 73
     1
 44
1.0
  0
MTEXT
  5
1E4
330
1DA
100
AcDbEntity
  8
VERMASSUNG
100
AcDbMText
 10
48.003513911
 20
123.6690686418
 30
0.0
 40
2.0
 41
0.0
 71
     1
 72
     1
  1
97.45
  7
SLDTEXTSTYLE0
 11
3.391901413832837E-15
 21
1.0
 31
0.0
 73
     1
 44
1.0
  0
ENDBLK
  5
1DC
330
1DA
100
AcDbEntity
  8
0
100
AcDbBlockEnd
  0
BLOCK
  5
1E7
330
1E6
100
AcDbEntity
  8
0
100
AcDbBlockBegin
  2
_D_1
 70
     0
 10
0.0
 20
0.0
 30
0.0
  3
_D_1
  1

  0
ARC
  5
1E9
330
1E6
100
AcDbEntity
  8
VERMASSUNG
100
AcDbCircle
 10
144.3901404541
 20
187.449178576
 30
0.0
 40
4.247059938537361
100
AcDbArc
 50
153.4349488229
 51
206.5650511771
  0
ARC
  5
1EA
330
1E6
100
AcDbEntity
  8
VERMASSUNG
100
AcDbCircle
 10
145.7672722769
 20
187.449178576
 30
0.0
 40
4.247059938537386
100
AcDbArc
 50
333.4349488229
 51
26.5650511771
  0
SOLID
  5
1EB
330
1E6
100
AcDbEntity
  8
VERMASSUNG
100
AcDbTrace
 10
57.2287063655
 20
185.5498356306
 30
0.0
 11
60.2287063655
 21
185.0998356306
 31
0.0
 12
60.2287063655
 22
185.9998356306
 32
0.0
 13
60.2287063655
 23
185.9998356306
 33
0.0
  0
SOLID
  5
1EC
330
1E6
100
AcDbEntity
  8
VERMASSUNG
100
AcDbTrace
 10
232.9287063655
 20
185.5498356306
 30
0.0
 11
229.9287063655
 21
185.9998356306
 31
0.0
 12
229.9287063655
 22
185.0998356306
 32
0.0
 13
229.9287063655
 23
185.0998356306
 33
0.0
  0
LINE
  5
1ED
330
1E6
100
AcDbEntity
  8
VERMASSUNG
100
AcDbLine
 10
57.2287063655
 20
138.9430058571
 30
0.0
 11
57.2287063655
 21
186.5498356306
 31
0.0
  0
LINE
  5
1EE
330
1E6
100
AcDbEntity
  8
VERMASSUNG
100
AcDbLine
 10
232.9287063655
 20
132.8641613297
 30
0.0
 11
232.9287063655
 21
186.5498356306
 31
0.0
  0
LINE
  5
1EF
330
1E6
100
AcDbEntity
  8
VERMASSUNG
100
AcDbLine
 10
57.2287063655
 20
185.5498356306
 30
0.0
 11
232.9287063655
 21
185.5498356306
 31
0.0
  0
MTEXT
  5
1F0
330
1E6
100
AcDbEntity
  8
VERMASSUNG
100
AcDbMText
 10
142.1789545632
 20
188.1279712266
 30
0.0
 40
2.0
 41
0.0
 71
     1
 72
     1
  1
175.7
  7
SLDTEXTSTYLE0
 73
     1
 44
1.0
  0
ENDBLK
  5
1E8
330
1E6
100
AcDbEntity
  8
0
100
AcDbBlockEnd
  0
BLOCK
  5
1F3
330
1F2
100
AcDbEntity
  8
0
100
AcDbBlockBegin
  2
_D_2
 70
     0
 10
0.0
 20
0.0
 30
0.0
  3
_D_2
  1

  0
SOLID
  5
1F5
330
1F2
100
AcDbEntity
  8
VERMASSUNG
100
AcDbTrace
 10
158.8287063655
 20
179.5498356306
 30
0.0
 11
161.8287063655
 21
179.0998356306
 31
0.0
 12
161.8287063655
 22
179.9998356306
 32
0.0
 13
161.8287063655
 23
179.9998356306
 33
0.0
  0
SOLID
  5
1F6
330
1F2
100
AcDbEntity
  8
VERMASSUNG
100
AcDbTrace
 10
232.9287063655
 20
179.5498356306
 30
0.0
 11
229.9287063655
 21
179.9998356306
 31
0.0
 12
229.9287063655
 22
179.0998356306
 32
0.0
 13
229.9287063655
 23
179.0998356306
 33
0.0
  0
LINE
  5
1F7
330
1F2
100
AcDbEntity
  8
VERMASSUNG
100
AcDbLine
 10
158.8287063655
 20
155.4891613297
 30
0.0
 11
158.8287063655
 21
180.5498356306
 31
0.0
  0
LINE
  5
1F8
330
1F2
100
AcDbEntity
  8
VERMASSUNG
100
AcDbLine
 10
232.9287063655
 20
132.8641613297
 30
0.0
 11
232.9287063655
 21
180.5498356306
 31
0.0
  0
LINE
  5
1F9
330
1F2
100
AcDbEntity
  8
VERMASSUNG
100
AcDbLine
 10
158.8287063655
 20
179.5498356306
 30
0.0
 11
232.9287063655
 21
179.5498356306
 31
0.0
  0
MTEXT
  5
1FA
330
1F2
100
AcDbEntity
  8
VERMASSUNG
100
AcDbMText
 10
193.57897928
 20
182.1279712266
 30
0.0
 40
2.0
 41
0.0
 71
     1
 72
     1
  1
74.1
  7
SLDTEXTSTYLE0
 73
     1
 44
1.0
  0
ENDBLK
  5
1F4
330
1F2
100
AcDbEntity
  8
0
100
AcDbBlockEnd
  0
BLOCK
  5
1FD
330
1FC
100
AcDbEntity
  8
0
100
AcDbBlockBegin
  2
_D_3
 70
     0
 10
0.0
 20
0.0
 30
0.0
  3
_D_3
  1

  0
SOLID
  5
1FF
330
1FC
100
AcDbEntity
  8
VERMASSUNG
100
AcDbTrace
 10
177.8787063655
 20
173.5498356306
 30
0.0
 11
180.8787063655
 21
173.0998356306
 31
0.0
 12
180.8787063655
 22
173.9998356306
 32
0.0
 13
180.8787063655
 23
173.9998356306
 33
0.0
  0
SOLID
  5
200
330
1FC
100
AcDbEntity
  8
VERMASSUNG
100
AcDbTrace
 10
232.9287063655
 20
173.5498356306
 30
0.0
 11
229.9287063655
 21
173.9998356306
 31
0.0
 12
229.9287063655
 22
173.0998356306
 32
0.0
 13
229.9287063655
 23
173.0998356306
 33
0.0
  0
LINE
  5
201
330
1FC
100
AcDbEntity
  8
VERMASSUNG
100
AcDbLine
 10
177.8787063655
 20
166.859148283
 30
0.0
 11
177.8787063655
 21
174.5498356306
 31
0.0
  0
LINE
  5
202
330
1FC
100
AcDbEntity
  8
VERMASSUNG
100
AcDbLine
 10
232.9287063655
 20
132.8641613297
 30
0.0
 11
232.9287063655
 21
174.5498356306
 31
0.0
  0
LINE
  5
203
330
1FC
100
AcDbEntity
  8
VERMASSUNG
100
AcDbLine
 10
177.8787063655
 20
173.5498356306
 30
0.0
 11
232.9287063655
 21
173.5498356306
 31
0.0
  0
MTEXT
  5
204
330
1FC
100
AcDbEntity
  8
VERMASSUNG
100
AcDbMText
 10
202.3043139865
 20
176.1279712266
 30
0.0
 40
2.0
 41
0.0
 71
     1
 72
     1
  1
55.05
  7
SLDTEXTSTYLE0
 73
     1
 44
1.0
  0
ENDBLK
  5
1FE
330
1FC
100
AcDbEntity
  8
0
100
AcDbBlockEnd
  0
BLOCK
  5
207
330
206
100
AcDbEntity
  8
0
100
AcDbBlockBegin
  2
_D_4
 70
     0
 10
0.0
 20
0.0
 30
0.0
  3
_D_4
  1

  0
SOLID
  5
209
330
206
100
AcDbEntity
  8
VERMASSUNG
100
AcDbTrace
 10
241.0033567577
 20
133.0641613297
 30
0.0
 11
240.5533567577
 21
130.0641613297
 31
0.0
 12
241.4533567577
 22
130.0641613297
 32
0.0
 13
241.4533567577
 23
130.0641613297
 33
0.0
  0
SOLID
  5
20A
330
206
100
AcDbEntity
  8
VERMASSUNG
100
AcDbTrace
 10
241.0033567577
 20
108.0641613297
 30
0.0
 11
241.4533567577
 21
111.0641613297
 31
0.0
 12
240.5533567577
 22
111.0641613297
 32
0.0
 13
240.5533567577
 23
111.0641613297
 33
0.0
  0
LINE
  5
20B
330
206
100
AcDbEntity
  8
VERMASSUNG
100
AcDbLine
 10
232.7287063655
 20
133.0641613297
 30
0.0
 11
242.0033567577
 21
133.0641613297
 31
0.0
  0
LINE
  5
20C
330
206
100
AcDbEntity
  8
VERMASSUNG
100
AcDbLine
 10
232.7287063655
 20
108.0641613297
 30
0.0
 11
242.0033567577
 21
108.0641613297
 31
0.0
  0
LINE
  5
20D
330
206
100
AcDbEntity
  8
VERMASSUNG
100
AcDbLine
 10
241.0033567577
 20
133.0641613297
 30
0.0
 11
241.0033567577
 21
108.0641613297
 31
0.0
  0
MTEXT
  5
20E
330
206
100
AcDbEntity
  8
VERMASSUNG
100
AcDbMText
 10
238.2252215015
 20
114.1591616862
 30
0.0
 40
2.0
 41
0.0
 71
     1
 72
     1
  1
MBM
  7
SLDTEXTSTYLE0
 11
-7.044195017643634E-15
 21
1.0
 31
0.0
 73
     1
 44
1.0
  0
MTEXT
  5
20F
330
206
100
AcDbEntity
  8
VERMASSUNG
100
AcDbMText
 10
238.4252214528
 20
120.5591615245
 30
0.0
 40
2.0
 41
0.0
 71
     1
 72
     1
  1
%%c
  7
SLDTEXTSTYLE0
 11
-7.044195017643634E-15
 21
1.0
 31
0.0
 73
     1
 44
1.0
  0
MTEXT
  5
210
330
206
100
AcDbEntity
  8
VERMASSUNG
100
AcDbMText
 10
238.2252215015
 20
124.1691620045
 30
0.0
 40
2.0
 41
0.0
 71
     1
 72
     1
  1
25
  7
SLDTEXTSTYLE0
 11
-7.044195017643634E-15
 21
1.0
 31
0.0
 73
     1
 44
1.0
  0
ENDBLK
  5
208
330
206
100
AcDbEntity
  8
0
100
AcDbBlockEnd
  0
ENDSEC
  0
SECTION
  2
ENTITIES
  0
MTEXT
  5
78
330
1F
100
AcDbEntity
  8
KOPF_DÜNN
100
AcDbMText
 10
13.8892156294
 20
23.8442973028
 30
0.0
 40
3.0
 41
0.0
 71
     1
 72
     1
  1
102.525.252
  7
SLDTEXTSTYLE0
 73
     1
 44
1.0
  0
MTEXT
  5
79
330
1F
100
AcDbEntity
  8
VERMASSUNG
100
AcDbMText
 10
13.9329988022
 20
28.8834360957
 30
0.0
 40
3.0
 41
0.0
 71
     1
 72
     1
  1
Aufnahme_Master shank MBM 25
  7
SLDTEXTSTYLE0
 73
     1
 44
1.0
  0
MTEXT
  5
7A
330
1F
100
AcDbEntity
  8
VERMASSUNG
100
AcDbMText
 10
98.8601118557
 20
13.8365368761
 30
0.0
 40
2.0
 41
0.0
 71
     1
 72
     1
  1
Datum: 01.11.2007
  7
SLDTEXTSTYLE0
 73
     1
 44
1.0
  0
MTEXT
  5
7B
330
1F
100
AcDbEntity
  8
VERMASSUNG
100
AcDbMText
 10
13.933048693
 20
18.0482802738
 30
0.0
 40
2.0
 41
0.0
 71
     1
 72
     1
  1
DIN 69871 B 50
  7
SLDTEXTSTYLE0
 73
     1
 44
1.0
  0
MTEXT
  5
7C
330
1F
100
AcDbEntity
  8
VERMASSUNG
100
AcDbMText
 10
13.9808475933
 20
13.9090974274
 30
0.0
 40
2.0
 41
0.0
 71
     1
 72
     1
  1
Gewicht: 2809g
  7
SLDTEXTSTYLE0
 73
     1
 44
1.0
  0
ARC
  5
7D
330
1F
100
AcDbEntity
  8
0
  6
Continuous
 62
     7
370
    15
100
AcDbCircle
 10
161.4287063655
 20
85.0391613297
 30
0.0
 40
0.6000000000000227
100
AcDbArc
 50
0.0
 51
90.0
  0
ARC
  5
7E
330
1F
100
AcDbEntity
  8
0
  6
Continuous
 62
     7
370
    15
100
AcDbCircle
 10
161.4287063655
 20
156.0891613297
 30
0.0
 40
0.5999999999999943
100
AcDbArc
 50
270.0
 51
0.0
  0
LINE
  5
7F
330
1F
100
AcDbEntity
  8
0
  6
Continuous
 62
     7
370
    15
100
AcDbLine
 10
158.8287063655
 20
155.4891602092
 30
0.0
 11
58.9400910553
 21
140.9220718734
 31
0.0
  0
LINE
  5
80
330
1F
100
AcDbEntity
  8
0
  6
Continuous
 62
     7
370
    15
100
AcDbLine
 10
58.9400910553
 20
100.2062507861
 30
0.0
 11
158.8287063655
 21
85.6391624503
 31
0.0
  0
LINE
  5
81
330
1F
100
AcDbEntity
  8
0
  6
Continuous
 62
     7
370
    15
100
AcDbLine
 10
158.8287063655
 20
85.6391624503
 30
0.0
 11
161.4287063726
 21
85.6391624503
 31
0.0
  0
LINE
  5
82
330
1F
100
AcDbEntity
  8
0
  6
Continuous
 62
     7
370
    15
100
AcDbLine
 10
161.4287063726
 20
155.4891602092
 30
0.0
 11
158.8287063655
 21
155.4891602092
 31
0.0
  0
ARC
  5
83
330
1F
100
AcDbEntity
  8
0
  6
Continuous
 62
     7
370
    15
100
AcDbCircle
 10
59.2287063655
 20
102.1853168023
 30
0.0
 40
1.999999999999986
100
AcDbArc
 50
180.0
 51
261.7028550302
  0
ARC
  5
84
330
1F
100
AcDbEntity
  8
0
  6
Continuous
 62
     7
370
    15
100
AcDbCircle
 10
59.2287063655
 20
138.9430058571
 30
0.0
 40
2.000000000000021
100
AcDbArc
 50
98.2971449698
 51
180.0
  0
ARC
  5
85
330
1F
100
AcDbEntity
  8
0
  6
Continuous
 62
     7
370
    15
100
AcDbCircle
 10
181.8787063655
 20
104.0641613297
 30
0.0
 40
4.0
100
AcDbArc
 50
90.0
 51
180.0
  0
ARC
  5
86
330
1F
100
AcDbEntity
  8
0
  6
Continuous
 62
     7
370
    15
100
AcDbCircle
 10
181.8787063655
 20
137.0641613297
 30
0.0
 40
4.0
100
AcDbArc
 50
180.0
 51
270.0
  0
LINE
  5
87
330
1F
100
AcDbEntity
  8
0
  6
Continuous
 62
     7
370
    15
100
AcDbLine
 10
181.8787072566
 20
108.0641611435
 30
0.0
 11
232.7287056264
 21
108.0641611435
 31
0.0
  0
LINE
  5
88
330
1F
100
AcDbEntity
  8
0
  6
Continuous
 62
     7
370
    15
100
AcDbLine
 10
232.7287056264
 20
133.064161516
 30
0.0
 11
181.8787072566
 21
133.064161516
 31
0.0
  0
LINE
  5
89
330
1F
100
AcDbEntity
  8
0
  6
Continuous
 62
     7
370
    15
100
AcDbLine
 10
232.7287056264
 20
108.0641611435
 30
0.0
 11
232.9287090119
 21
108.264161735
 31
0.0
  0
LINE
  5
8A
330
1F
100
AcDbEntity
  8
0
  6
Continuous
 62
     7
370
    15
100
AcDbLine
 10
232.9287090119
 20
132.8641609244
 30
0.0
 11
232.7287056264
 21
133.064161516
 31
0.0
  0
ARC
  5
8B
330
1F
100
AcDbEntity
  8
0
  6
Continuous
 62
     7
370
    15
100
AcDbCircle
 10
173.0287063655
 20
106.0984193678
 30
0.0
 40
2.000000000000029
100
AcDbArc
 50
192.2156859339
 51
340.3453161116
  0
LINE
  5
8C
330
1F
100
AcDbEntity
  8
0
  6
Continuous
 62
     7
370
    15
100
AcDbLine
 10
162.6287064296
 20
73.8349021368
 30
0.0
 11
166.6955453124
 21
73.8349021368
 31
0.0
  0
LINE
  5
8D
330
1F
100
AcDbEntity
  8
0
  6
Continuous
 62
     7
370
    15
100
AcDbLine
 10
166.6955453124
 20
150.4141618453
 30
0.0
 11
162.6287064296
 21
150.4141618453
 31
0.0
  0
LINE
  5
8E
330
1F
100
AcDbEntity
  8
0
  6
Continuous
 62
     7
370
    15
100
AcDbLine
 10
166.6955453124
 20
73.8349021368
 30
0.0
 11
166.6955453124
 21
150.4141618453
 31
0.0
  0
SPLINE
  5
8F
330
1F
100
AcDbEntity
  8
0
  6
Continuous
 62
     7
370
    15
100
AcDbSpline
210
0.0
220
0.0
230
1.0
 70
     8
 71
     3
 72
     8
 73
     4
 74
     0
 42
0.000000001
 43
0.00000001
 40
0.0
 40
0.0
 40
0.0
 40
0.0
 40
1.0
 40
1.0
 40
1.0
 40
1.0
 10
168.0187063655031
 20
75.94442192090503
 30
0.0
 10
167.7289779194785
 20
75.4222019107415
 30
0.0
 10
167.4389527692608
 20
74.90014852848154
 30
0.0
 10
167.148658534999
 20
74.37824626275844
 30
0.0
  0
SPLINE
  5
90
330
1F
100
AcDbEntity
  8
0
  6
Continuous
 62
     7
370
    15
100
AcDbSpline
210
0.0
220
0.0
230
1.0
 70
     8
 71
     3
 72
     8
 73
     4
 74
     0
 42
0.000000001
 43
0.00000001
 40
0.0
 40
0.0
 40
0.0
 40
0.0
 40
0.0011862984959113
 40
0.0011862984959113
 40
0.0011862984959113
 40
0.0011862984959113
 10
166.6955448580412
 20
73.83490198838881
 30
0.0
 10
166.847569619912
 20
74.0158138380068
 30
0.0
 10
166.9986270651278
 20
74.19692616844765
 30
0.0
 10
167.148658534999
 20
74.37824626275844
 30
0.0
  0
SPLINE
  5
91
330
1F
100
AcDbEntity
  8
0
  6
Continuous
 62
     7
370
    15
100
AcDbSpline
210
0.0
220
0.0
230
1.0
 70
    24
 71
     3
 72
     8
 73
     4
 74
     0
 42
0.000000001
 43
0.00000001
 40
0.0
 40
0.0
 40
0.0
 40
0.0
 40
1.0
 40
1.0
 40
1.0
 40
1.0
 10
168.0187063655031
 20
150.4141613297348
 30
0.0
 10
167.5835062607994
 20
150.4141613297348
 30
0.0
 10
167.1421465780605
 20
150.4141613297348
 30
0.0
 10
166.6955448580412
 20
150.4141613297348
 30
0.0
  0
LINE
  5
92
330
1F
100
AcDbEntity
  8
0
  6
Continuous
 62
     7
370
    15
100
AcDbLine
 10
168.0187060278
 20
75.9444222741
 30
0.0
 11
168.0187060278
 21
150.4141618453
 31
0.0
  0
LINE
  5
93
330
1F
100
AcDbEntity
  8
0
  6
Continuous
 62
     7
370
    15
100
AcDbLine
 10
173.1618678909
 20
106.2670140483
 30
0.0
 11
173.1618678909
 21
150.4141618453
 31
0.0
  0
LINE
  5
94
330
1F
100
AcDbEntity
  8
0
  6
Continuous
 62
     7
370
    15
100
AcDbLine
 10
177.2787057575
 20
150.4141618453
 30
0.0
 11
173.1618678909
 21
150.4141618453
 31
0.0
  0
LINE
  5
95
330
1F
100
AcDbEntity
  8
0
  6
Continuous
 62
     7
370
    15
100
AcDbLine
 10
173.1618678909
 20
73.8349021368
 30
0.0
 11
177.2787057575
 21
73.8349021368
 31
0.0
  0
LINE
  5
96
330
1F
100
AcDbEntity
  8
0
  6
Continuous
 62
     7
370
    15
100
AcDbLine
 10
173.1618678909
 20
73.8349021368
 30
0.0
 11
173.1618678909
 21
101.5752204649
 31
0.0
  0
SPLINE
  5
97
330
1F
100
AcDbEntity
  8
0
  6
Continuous
 62
     7
370
    15
100
AcDbSpline
210
0.0
220
0.0
230
1.0
 70
     8
 71
     3
 72
    34
 73
    30
 74
     0
 42
0.000000001
 43
0.00000001
 40
0.0
 40
0.0
 40
0.0
 40
0.0
 40
0.0624999999999992
 40
0.0624999999999992
 40
0.1249999999999984
 40
0.1249999999999984
 40
0.1874999999999976
 40
0.1874999999999976
 40
0.2499999999999973
 40
0.2499999999999973
 40
0.3124999999999971
 40
0.3124999999999971
 40
0.3749999999999968
 40
0.3749999999999968
 40
0.4999999999999972
 40
0.4999999999999972
 40
0.6249999999999976
 40
0.6249999999999976
 40
0.687499999999998
 40
0.687499999999998
 40
0.7499999999999984
 40
0.7499999999999984
 40
0.8124999999999989
 40
0.8124999999999989
 40
0.8749999999999992
 40
0.8749999999999992
 40
0.9374999999999997
 40
0.9374999999999997
 40
1.0
 40
1.0
 40
1.0
 40
1.0
 10
173.161867872965
 20
101.5752209417336
 30
0.0
 10
173.3212597007528
 20
101.5830610376564
 30
0.0
 10
173.4772621841964
 20
101.6047196857468
 30
0.0
 10
173.7827717002737
 20
101.6745679132396
 30
0.0
 10
173.9336660352859
 20
101.7233936155679
 30
0.0
 10
174.2215653799767
 20
101.8463175689752
 30
0.0
 10
174.3575117829364
 20
101.9196250771095
 30
0.0
 10
174.6136943985284
 20
102.0896357008809
 30
0.0
 10
174.7348766862875
 20
102.1875094930823
 30
0.0
 10
174.9520227581603
 20
102.4000936685143
 30
0.0
 10
175.0489846311206
 20
102.5151396070439
 30
0.0
 10
175.2195470669462
 20
102.763000727164
 30
0.0
 10
175.2927871201582
 20
102.8960342242296
 30
0.0
 10
175.4676675769069
 20
103.3055422403598
 30
0.0
 10
175.5287055378829
 20
103.6035028901348
 30
0.0
 10
175.528707193106
 20
104.1949444460093
 30
0.0
 10
175.4676725835197
 20
104.4951179959859
 30
0.0
 10
175.2927828161178
 20
104.9103492762536
 30
0.0
 10
175.2195391106934
 20
105.0457043945004
 30
0.0
 10
175.0489783949567
 20
105.2986037258871
 30
0.0
 10
174.9520146793632
 20
105.4163690034949
 30
0.0
 10
174.7348543507761
 20
105.6344992988635
 30
0.0
 10
174.6136730920892
 20
105.7352026240105
 30
0.0
 10
174.3575028651505
 20
105.9104463168437
 30
0.0
 10
174.2215595154878
 20
105.9861912859343
 30
0.0
 10
173.9336568123047
 20
106.1133596612366
 30
0.0
 10
173.7827666163879
 20
106.163960933564
 30
0.0
 10
173.4772611126823
 20
106.2363900333119
 30
0.0
 10
173.3212597144188
 20
106.2588758047089
 30
0.0
 10
173.161867872965
 20
106.2670142646037
 30
0.0
  0
LINE
  5
98
330
1F
100
AcDbEntity
  8
0
  6
Continuous
 62
     7
370
    15
100
AcDbLine
 10
171.8387062442
 20
106.7668995775
 30
0.0
 11
171.8387062442
 21
150.4141618453
 31
0.0
  0
SPLINE
  5
99
330
1F
100
AcDbEntity
  8
0
  6
Continuous
 62
     7
370
    15
100
AcDbSpline
210
0.0
220
0.0
230
1.0
 70
    24
 71
     3
 72
     8
 73
     4
 74
     0
 42
0.000000001
 43
0.00000001
 40
0.0
 40
0.0
 40
0.0
 40
0.0
 40
1.0
 40
1.0
 40
1.0
 40
1.0
 10
173.161867872965
 20
150.4141613297348
 30
0.0
 10
172.7152661529456
 20
150.4141613297348
 30
0.0
 10
172.2739064702067
 20
150.4141613297348
 30
0.0
 10
171.8387063655031
 20
150.4141613297348
 30
0.0
  0
SPLINE
  5
9A
330
1F
100
AcDbEntity
  8
0
  6
Continuous
 62
     7
370
    15
100
AcDbSpline
210
0.0
220
0.0
230
1.0
 70
     8
 71
     3
 72
    10
 73
     6
 74
     0
 42
0.000000001
 43
0.00000001
 40
0.0
 40
0.0
 40
0.0
 40
0.0
 40
0.5
 40
0.5
 40
1.0
 40
1.0
 40
1.0
 40
1.0
 10
173.161867872965
 20
106.2670142646037
 30
0.0
 10
172.9391408460915
 20
106.4105027648975
 30
0.0
 10
172.7174549588665
 20
106.5252235106304
 30
0.0
 10
172.2762341210145
 20
106.6949839399882
 30
0.0
 10
172.0566754736156
 20
106.7504039343756
 30
0.0
 10
171.8387063655034
 20
106.7668992637453
 30
0.0
  0
SPLINE
  5
9B
330
1F
100
AcDbEntity
  8
0
  6
Continuous
 62
     7
370
    15
100
AcDbSpline
210
0.0
220
0.0
230
1.0
 70
     8
 71
     3
 72
    12
 73
     8
 74
     0
 42
0.000000001
 43
0.00000001
 40
0.0
 40
0.0
 40
0.0
 40
0.0
 40
0.2499999999999992
 40
0.2499999999999992
 40
0.4999999999999984
 40
0.4999999999999984
 40
1.0
 40
1.0
 40
1.0
 40
1.0
 10
177.2787063655031
 20
73.83490198838881
 30
0.0
 10
177.3746791186779
 20
73.8349019883888
 30
0.0
 10
177.4671070828324
 20
73.85117531249739
 30
0.0
 10
177.6235371829418
 20
73.90454903449381
 30
0.0
 10
177.6870156077147
 20
73.94067729202814
 30
0.0
 10
177.8352947685418
 20
74.06137848830741
 30
0.0
 10
177.8787063655031
 20
74.15522807467259
 30
0.0
 10
177.8787063655031
 20
74.24953234961981
 30
0.0
  0
SPLINE
  5
9C
330
1F
100
AcDbEntity
  8
0
  6
Continuous
 62
     7
370
    15
100
AcDbSpline
210
0.0
220
0.0
230
1.0
 70
    24
 71
     3
 72
    12
 73
     8
 74
     0
 42
0.000000001
 43
0.00000001
 40
0.0
 40
0.0
 40
0.0
 40
0.0
 40
0.5
 40
0.5
 40
0.75
 40
0.75
 40
1.0
 40
1.0
 40
1.0
 40
1.0
 10
177.8787063655031
 20
150.4141613297348
 30
0.0
 10
177.8787063655031
 20
150.4141613297348
 30
0.0
 10
177.8305756771177
 20
150.4141613297348
 30
0.0
 10
177.6766786213147
 20
150.4141613297348
 30
0.0
 10
177.6112140563079
 20
150.4141613297348
 30
0.0
 10
177.4576847356977
 20
150.4141613297348
 30
0.0
 10
177.3693360749619
 20
150.4141613297348
 30
0.0
 10
177.2787063655029
 20
150.4141613297348
 30
0.0
  0
LINE
  5
9D
330
1F
100
AcDbEntity
  8
0
  6
Continuous
 62
     7
370
    15
100
AcDbLine
 10
177.8787066009
 20
74.2495306723
 30
0.0
 11
177.8787066009
 21
150.4141618453
 31
0.0
  0
SPLINE
  5
9E
330
1F
100
AcDbEntity
  8
0
  6
Continuous
 62
     7
370
    15
100
AcDbSpline
210
0.0
220
0.0
230
1.0
 70
     8
 71
     3
 72
    10
 73
     6
 74
     0
 42
0.000000001
 43
0.00000001
 40
0.0
 40
0.0
 40
0.0
 40
0.0
 40
0.5
 40
0.5
 40
1.0
 40
1.0
 40
1.0
 40
1.0
 10
162.2443663966571
 20
73.9307070625426
 30
0.0
 10
162.2930169652367
 20
73.90275007127516
 30
0.0
 10
162.3504021771961
 20
73.87880778624839
 30
0.0
 10
162.4811152853623
 20
73.84468932315264
 30
0.0
 10
162.5538548191008
 20
73.8349019883888
 30
0.0
 10
162.6287063655031
 20
73.8349019883888
 30
0.0
  0
SPLINE
  5
9F
330
1F
100
AcDbEntity
  8
0
  6
Continuous
 62
     7
370
    15
100
AcDbSpline
210
0.0
220
0.0
230
1.0
 70
     8
 71
     3
 72
    10
 73
     6
 74
     0
 42
0.000000001
 43
0.00000001
 40
0.0
 40
0.0
 40
0.0
 40
0.0
 40
0.5
 40
0.5
 40
1.0
 40
1.0
 40
1.0
 40
1.0
 10
162.2443663966571
 20
73.93070706254257
 30
0.0
 10
162.1861783900749
 20
73.99829079272138
 30
0.0
 10
162.1337359235486
 20
74.07876702736316
 30
0.0
 10
162.05538361637
 20
74.26180265034587
 30
0.0
 10
162.028706365503
 20
74.36767835314151
 30
0.0
 10
162.028706365503
 20
74.47519166236214
 30
0.0
  0
LINE
  5
A0
330
1F
100
AcDbEntity
  8
0
  6
Continuous
 62
     7
370
    15
100
AcDbLine
 10
162.0287062847
 20
74.4751901321
 30
0.0
 11
162.0287062847
 21
150.4141618453
 31
0.0
  0
SPLINE
  5
A1
330
1F
100
AcDbEntity
  8
0
  6
Continuous
 62
     7
370
    15
100
AcDbSpline
210
0.0
220
0.0
230
1.0
 70
    24
 71
     3
 72
    14
 73
    10
 74
     0
 42
0.000000001
 43
0.00000001
 40
0.0
 40
0.0
 40
0.0
 40
0.0
 40
0.25
 40
0.25
 40
0.5
 40
0.5
 40
0.75
 40
0.75
 40
1.0
 40
1.0
 40
1.0
 40
1.0
 10
162.6287063655031
 20
150.4141613297348
 30
0.0
 10
162.5396844131594
 20
150.4141613297348
 30
0.0
 10
162.4499977138859
 20
150.4141613297348
 30
0.0
 10
162.2962708883286
 20
150.4141613297348
 30
0.0
 10
162.2310659937018
 20
150.4141613297348
 30
0.0
 10
162.1284752995313
 20
150.4141613297348
 30
0.0
 10
162.0908378452154
 20
150.4141613297348
 30
0.0
 10
162.0407459298303
 20
150.4141613297348
 30
0.0
 10
162.0287063655031
 20
150.4141613297348
 30
0.0
 10
162.0287063655031
 20
150.4141613297348
 30
0.0
  0
SPLINE
  5
A2
330
1F
100
AcDbEntity
  8
0
  6
Continuous
 62
     7
370
    15
100
AcDbSpline
210
0.0
220
0.0
230
1.0
 70
     8
 71
     3
 72
    14
 73
    10
 74
     0
 42
0.000000001
 43
0.00000001
 40
0.0
 40
0.0
 40
0.0
 40
0.0
 40
0.25
 40
0.25
 40
0.5
 40
0.5
 40
0.75
 40
0.75
 40
1.0
 40
1.0
 40
1.0
 40
1.0
 10
171.8387063655031
 20
106.8125134857577
 30
0.0
 10
171.8387063655031
 20
106.8544898676113
 30
0.0
 10
171.8090634115319
 20
106.8823402552522
 30
0.0
 10
171.7024085778018
 20
106.8958391305422
 30
0.0
 10
171.6261301831976
 20
106.8812236285045
 30
0.0
 10
171.4580786401311
 20
106.8091344243363
 30
0.0
 10
171.3669588335229
 20
106.7519968138536
 30
0.0
 10
171.1942817212702
 20
106.6097691132623
 30
0.0
 10
171.1133592817421
 20
106.5262052877503
 30
0.0
 10
171.0387063655031
 20
106.4328356158544
 30
0.0
  0
SPLINE
  5
A3
330
1F
100
AcDbEntity
  8
0
  6
Continuous
 62
     7
370
    15
100
AcDbSpline
210
0.0
220
0.0
230
1.0
 70
     8
 71
     3
 72
    10
 73
     6
 74
     0
 42
0.000000001
 43
0.00000001
 40
0.0
 40
0.0
 40
0.0
 40
0.0
 40
0.5
 40
0.5
 40
1.0
 40
1.0
 40
1.0
 40
1.0
 10
171.8387063655034
 20
102.6348580651137
 30
0.0
 10
172.0555971980241
 20
102.3978191256652
 30
0.0
 10
172.274749834683
 20
102.1956488906717
 30
0.0
 10
172.7162343349519
 20
101.844896819153
 30
0.0
 10
172.9394368002253
 20
101.6962207267561
 30
0.0
 10
173.161867872965
 20
101.5752209417336
 30
0.0
  0
LINE
  5
A4
330
1F
100
AcDbEntity
  8
0
  6
Continuous
 62
     7
370
    15
100
AcDbLine
 10
171.8387062442
 20
102.6804731183
 30
0.0
 11
171.8387062442
 21
102.6348588012
 31
0.0
  0
SPLINE
  5
A5
330
1F
100
AcDbEntity
  8
0
  6
Continuous
 62
     7
370
    15
100
AcDbSpline
210
0.0
220
0.0
230
1.0
 70
     8
 71
     3
 72
    16
 73
    12
 74
     0
 42
0.000000001
 43
0.00000001
 40
0.0
 40
0.0
 40
0.0
 40
0.0
 40
0.2500000000000061
 40
0.2500000000000061
 40
0.5000000000000122
 40
0.5000000000000122
 40
0.6250000000000117
 40
0.6250000000000117
 40
0.7500000000000112
 40
0.7500000000000112
 40
1.0
 40
1.0
 40
1.0
 40
1.0
 10
171.0387063655031
 20
103.5888717728007
 30
0.0
 10
171.1127142557253
 20
103.4985241926151
 30
0.0
 10
171.1933322507142
 20
103.4105646198154
 30
0.0
 10
171.3671002362185
 20
103.2342296957538
 30
0.0
 10
171.45785136716
 20
103.1486224550878
 30
0.0
 10
171.5839644646214
 20
103.0274267590628
 30
0.0
 10
171.6235412254847
 20
102.988895180072
 30
0.0
 10
171.6960238821859
 20
102.9144991939427
 30
0.0
 10
171.7289518726547
 20
102.8784824060212
 30
0.0
 10
171.8087420426496
 20
102.7797297302042
 30
0.0
 10
171.8387063655031
 20
102.7229657284221
 30
0.0
 10
171.8387063655031
 20
102.6804722871265
 30
0.0
  0
SPLINE
  5
A6
330
1F
100
AcDbEntity
  8
0
  6
Continuous
 62
     7
370
    15
100
AcDbSpline
210
0.0
220
0.0
230
1.0
 70
     8
 71
     3
 72
    16
 73
    12
 74
     0
 42
0.000000001
 43
0.00000001
 40
0.0
 40
0.0
 40
0.0
 40
0.0
 40
0.2499999999999994
 40
0.2499999999999994
 40
0.4999999999999988
 40
0.4999999999999988
 40
0.7499999999999997
 40
0.7499999999999997
 40
0.8749999999999999
 40
0.8749999999999999
 40
1.0
 40
1.0
 40
1.0
 40
1.0
 10
171.0387063655031
 20
106.4328356158544
 30
0.0
 10
170.8732922590229
 20
106.225949379829
 30
0.0
 10
170.7470949280473
 20
106.0000806820202
 30
0.0
 10
170.5726886297165
 20
105.5112114364074
 30
0.0
 10
170.5288585906196
 20
105.2594443830628
 30
0.0
 10
170.5285549176496
 20
104.7476650584805
 30
0.0
 10
170.5724117777099
 20
104.4966103493977
 30
0.0
 10
170.7023335369771
 20
104.1357617812556
 30
0.0
 10
170.7564483483851
 20
104.0184890129071
 30
0.0
 10
170.8831253385285
 20
103.7960000615683
 30
0.0
 10
170.9559990588893
 20
103.689839453325
 30
0.0
 10
171.0387063655031
 20
103.5888717728007
 30
0.0
  0
SPLINE
  5
A7
330
1F
100
AcDbEntity
  8
0
  6
Continuous
 62
     7
370
    15
100
AcDbSpline
210
0.0
220
0.0
230
1.0
 70
     8
 71
     3
 72
    14
 73
    10
 74
     0
 42
0.000000001
 43
0.00000001
 40
0.0
 40
0.0
 40
0.0
 40
0.0
 40
0.25
 40
0.25
 40
0.5
 40
0.5
 40
0.75
 40
0.75
 40
1.0
 40
1.0
 40
1.0
 40
1.0
 10
168.8187063655031
 20
76.91639506386502
 30
0.0
 10
168.7122613575938
 20
76.91639506386502
 30
0.0
 10
168.6053626063203
 20
76.89382551443191
 30
0.0
 10
168.4091443508778
 20
76.80738242318999
 30
0.0
 10
168.3194860374134
 20
76.74307850552285
 30
0.0
 10
168.1740323245323
 20
76.58810899147988
 30
0.0
 10
168.1159965418061
 20
76.49534350523615
 30
0.0
 10
168.0387113874215
 20
76.29687662359278
 30
0.0
 10
168.018706365503
 20
76.189852201799
 30
0.0
 10
168.018706365503
 20
76.08306984132818
 30
0.0
  0
SPLINE
  5
A8
330
1F
100
AcDbEntity
  8
0
  6
Continuous
 62
     7
370
    15
100
AcDbSpline
210
0.0
220
0.0
230
1.0
 70
    24
 71
     3
 72
    14
 73
    10
 74
     0
 42
0.000000001
 43
0.00000001
 40
0.0
 40
0.0
 40
0.0
 40
0.0
 40
0.25
 40
0.25
 40
0.5
 40
0.5
 40
0.75
 40
0.75
 40
1.0
 40
1.0
 40
1.0
 40
1.0
 10
168.8187063655031
 20
150.4141613297348
 30
0.0
 10
168.6957250659568
 20
150.4141613297348
 30
0.0
 10
168.5755351775547
 20
150.4141613297348
 30
0.0
 10
168.3705113478755
 20
150.4141613297348
 30
0.0
 10
168.2839168590735
 20
150.4141613297348
 30
0.0
 10
168.1488089723111
 20
150.4141613297348
 30
0.0
 10
168.1002858872829
 20
150.4141613297348
 30
0.0
 10
168.0346033785561
 20
150.4141613297348
 30
0.0
 10
168.018706365503
 20
150.4141613297348
 30
0.0
 10
168.018706365503
 20
150.4141613297348
 30
0.0
  0
SPLINE
  5
A9
330
1F
100
AcDbEntity
  8
0
  6
Continuous
 62
     7
370
    15
100
AcDbSpline
210
0.0
220
0.0
230
1.0
 70
    24
 71
     3
 72
    14
 73
    10
 74
     0
 42
0.000000001
 43
0.00000001
 40
0.0
 40
0.0
 40
0.0
 40
0.0
 40
0.25
 40
0.25
 40
0.5
 40
0.5
 40
0.75
 40
0.75
 40
1.0
 40
1.0
 40
1.0
 40
1.0
 10
171.8387063655031
 20
150.4141613297348
 30
0.0
 10
171.8387063655031
 20
150.4141613297348
 30
0.0
 10
171.8224253307273
 20
150.4141613297348
 30
0.0
 10
171.7577622682027
 20
150.4141613297348
 30
0.0
 10
171.708282471914
 20
150.4141613297348
 30
0.0
 10
171.5743127147752
 20
150.4141613297348
 30
0.0
 10
171.4881979881758
 20
150.4141613297348
 30
0.0
 10
171.2827418724628
 20
150.4141613297348
 30
0.0
 10
171.1613213352699
 20
150.4141613297348
 30
0.0
 10
171.0387063655031
 20
150.4141613297348
 30
0.0
  0
LINE
  5
AA
330
1F
100
AcDbEntity
  8
0
  6
Continuous
 62
     7
370
    15
100
AcDbLine
 10
171.0387066719
 20
76.9163952165
 30
0.0
 11
168.8187065315
 21
76.9163952165
 31
0.0
  0
LINE
  5
AB
330
1F
100
AcDbEntity
  8
0
  6
Continuous
 62
     7
370
    15
100
AcDbLine
 10
171.0387066719
 20
150.4141618453
 30
0.0
 11
168.8187065315
 21
150.4141618453
 31
0.0
  0
SPLINE
  5
AC
330
1F
100
AcDbEntity
  8
0
  6
Continuous
 62
     7
370
    15
100
AcDbSpline
210
0.0
220
0.0
230
1.0
 70
     8
 71
     3
 72
     8
 73
     4
 74
     0
 42
0.000000001
 43
0.00000001
 40
0.0000000000000004
 40
0.0000000000000004
 40
0.0000000000000004
 40
0.0000000000000004
 40
0.0011862984959128
 40
0.0011862984959128
 40
0.0011862984959128
 40
0.0011862984959128
 10
172.7087541960032
 20
74.37824626275844
 30
0.0
 10
172.8587856658746
 20
74.1969261684474
 30
0.0
 10
173.0098431110939
 20
74.01581383800703
 30
0.0
 10
173.161867872965
 20
73.83490198838881
 30
0.0
  0
SPLINE
  5
AD
330
1F
100
AcDbEntity
  8
0
  6
Continuous
 62
     7
370
    15
100
AcDbSpline
210
0.0
220
0.0
230
1.0
 70
     8
 71
     3
 72
     8
 73
     4
 74
     0
 42
0.000000001
 43
0.00000001
 40
0.0
 40
0.0
 40
0.0
 40
0.0
 40
1.0
 40
1.0
 40
1.0
 40
1.0
 10
172.7087541960062
 20
74.3782462627601
 30
0.0
 10
172.4184599617448
 20
74.90014852848265
 30
0.0
 10
172.1284348115273
 20
75.42220191074206
 30
0.0
 10
171.8387063655031
 20
75.94442192090503
 30
0.0
  0
LINE
  5
AE
330
1F
100
AcDbEntity
  8
0
  6
Continuous
 62
     7
370
    15
100
AcDbLine
 10
171.8387062442
 20
75.9444222741
 30
0.0
 11
171.8387062442
 21
102.6348588012
 31
0.0
  0
SPLINE
  5
AF
330
1F
100
AcDbEntity
  8
0
  6
Continuous
 62
     7
370
    15
100
AcDbSpline
210
0.0
220
0.0
230
1.0
 70
     8
 71
     3
 72
    14
 73
    10
 74
     0
 42
0.000000001
 43
0.00000001
 40
0.0
 40
0.0
 40
0.0
 40
0.0
 40
0.25
 40
0.25
 40
0.5
 40
0.5
 40
0.75
 40
0.75
 40
1.0
 40
1.0
 40
1.0
 40
1.0
 10
171.8387063655031
 20
76.08306984132818
 30
0.0
 10
171.8387063655031
 20
76.19013382766899
 30
0.0
 10
171.8187225392631
 20
76.2968731540435
 30
0.0
 10
171.7412874568296
 20
76.4956230562343
 30
0.0
 10
171.6833485346702
 20
76.58817727272682
 30
0.0
 10
171.5377107289094
 20
76.74327421613239
 30
0.0
 10
171.448921732574
 20
76.80701437304526
 30
0.0
 10
171.2523733723695
 20
76.89376293013287
 30
0.0
 10
171.1462341426701
 20
76.91639506386502
 30
0.0
 10
171.0387063655031
 20
76.91639506386502
 30
0.0
  0
LINE
  5
B0
330
1F
100
AcDbEntity
  8
0
  6
Continuous
 62
     7
370
    15
100
AcDbLine
 10
158.8287063655
 20
85.6391624503
 30
0.0
 11
158.8287063655
 21
155.4891602092
 31
0.0
  0
SPLINE
  5
B1
330
1F
100
AcDbEntity
  8
0
  6
Continuous
 62
     7
370
    15
100
AcDbSpline
210
0.0
220
0.0
230
1.0
 70
     8
 71
     3
 72
    12
 73
     8
 74
     0
 42
0.000000001
 43
0.00000001
 40
0.0
 40
0.0
 40
0.0
 40
0.0
 40
0.5000000000000003
 40
0.5000000000000003
 40
0.7500000000000001
 40
0.7500000000000001
 40
1.0
 40
1.0
 40
1.0
 40
1.0
 10
162.0287063655031
 20
158.3132424443792
 30
0.0
 10
162.0287063655031
 20
158.4916027116185
 30
0.0
 10
162.076018486879
 20
158.6703751233224
 30
0.0
 10
162.2303785647604
 20
158.8921369886742
 30
0.0
 10
162.2952640996794
 20
158.9564290272906
 30
0.0
 10
162.4504967989077
 20
159.0490735114502
 30
0.0
 10
162.5395722115759
 20
159.07523928141
 30
0.0
 10
162.6287063655031
 20
159.07523928141
 30
0.0
  0
LINE
  5
B2
330
1F
100
AcDbEntity
  8
0
  6
Continuous
 62
     7
370
    15
100
AcDbLine
 10
162.6287064296
 20
159.0752401345
 30
0.0
 11
166.6955453124
 21
159.0752401345
 31
0.0
  0
SPLINE
  5
B3
330
1F
100
AcDbEntity
  8
0
  6
Continuous
 62
     7
370
    15
100
AcDbSpline
210
0.0
220
0.0
230
1.0
 70
     8
 71
     3
 72
     8
 73
     4
 74
     0
 42
0.000000001
 43
0.00000001
 40
0.0
 40
0.0
 40
0.0
 40
0.0
 40
1.0
 40
1.0
 40
1.0
 40
1.0
 10
166.6955448580412
 20
159.0752392814099
 30
0.0
 10
167.1423935859688
 20
158.0960033831537
 30
0.0
 10
167.5837599438647
 20
157.1148013904268
 30
0.0
 10
168.0187063655031
 20
156.1312970720444
 30
0.0
  0
LINE
  5
B4
330
1F
100
AcDbEntity
  8
0
  6
Continuous
 62
     7
370
    15
100
AcDbLine
 10
168.0187060278
 20
156.1312959485
 30
0.0
 11
168.0187060278
 21
155.9572056823
 31
0.0
  0
SPLINE
  5
B5
330
1F
100
AcDbEntity
  8
0
  6
Continuous
 62
     7
370
    15
100
AcDbSpline
210
0.0
220
0.0
230
1.0
 70
     8
 71
     3
 72
    12
 73
     8
 74
     0
 42
0.000000001
 43
0.00000001
 40
0.0
 40
0.0
 40
0.0
 40
0.0
 40
0.499999999999994
 40
0.499999999999994
 40
0.749999999999997
 40
0.749999999999997
 40
1.0
 40
1.0
 40
1.0
 40
1.0
 10
168.018706365503
 20
155.9572044314518
 30
0.0
 10
168.018706365503
 20
155.7147813354711
 30
0.0
 10
168.0816275069449
 20
155.4690108148697
 30
0.0
 10
168.2836564039474
 20
155.1640646354529
 30
0.0
 10
168.3699501285946
 20
155.0734717688544
 30
0.0
 10
168.5754239231613
 20
154.9430382059176
 30
0.0
 10
168.695374483761
 20
154.9040433912679
 30
0.0
 10
168.8187063655031
 20
154.9040433912679
 30
0.0
  0
LINE
  5
B6
330
1F
100
AcDbEntity
  8
0
  6
Continuous
 62
     7
370
    15
100
AcDbLine
 10
168.8187065315
 20
154.9040437631
 30
0.0
 11
171.0387066719
 21
154.9040437631
 31
0.0
  0
SPLINE
  5
B7
330
1F
100
AcDbEntity
  8
0
  6
Continuous
 62
     7
370
    15
100
AcDbSpline
210
0.0
220
0.0
230
1.0
 70
     8
 71
     3
 72
    14
 73
    10
 74
     0
 42
0.000000001
 43
0.00000001
 40
0.0
 40
0.0
 40
0.0
 40
0.0
 40
0.25
 40
0.25
 40
0.5
 40
0.5
 40
0.75
 40
0.75
 40
1.0
 40
1.0
 40
1.0
 40
1.0
 10
171.0387063655031
 20
154.9040433912679
 30
0.0
 10
171.1600328954888
 20
154.9040433912679
 30
0.0
 10
171.281737604051
 20
154.942824906701
 30
0.0
 10
171.4881774829371
 20
155.0739795283949
 30
0.0
 10
171.5741280213932
 20
155.164631612982
 30
0.0
 10
171.7080397811415
 20
155.3667486479233
 30
0.0
 10
171.7576042179606
 20
155.4804835914625
 30
0.0
 10
171.8224582459286
 20
155.713443208529
 30
0.0
 10
171.8387063655031
 20
155.8361414748582
 30
0.0
 10
171.8387063655031
 20
155.9572044314518
 30
0.0
  0
LINE
  5
B8
330
1F
100
AcDbEntity
  8
0
  6
Continuous
 62
     7
370
    15
100
AcDbLine
 10
171.8387062442
 20
155.9572056823
 30
0.0
 11
171.8387062442
 21
156.1312959485
 31
0.0
  0
SPLINE
  5
B9
330
1F
100
AcDbEntity
  8
0
  6
Continuous
 62
     7
370
    15
100
AcDbSpline
210
0.0
220
0.0
230
1.0
 70
     8
 71
     3
 72
     8
 73
     4
 74
     0
 42
0.000000001
 43
0.00000001
 40
0.0
 40
0.0
 40
0.0
 40
0.0
 40
1.0
 40
1.0
 40
1.0
 40
1.0
 10
171.8387063655031
 20
156.1312970720444
 30
0.0
 10
172.2736527871414
 20
157.1148013904268
 30
0.0
 10
172.7150191450373
 20
158.0960033831537
 30
0.0
 10
173.161867872965
 20
159.0752392814099
 30
0.0
  0
LINE
  5
BA
330
1F
100
AcDbEntity
  8
0
  6
Continuous
 62
     7
370
    15
100
AcDbLine
 10
173.1618678909
 20
159.0752401345
 30
0.0
 11
177.2787057575
 21
159.0752401345
 31
0.0
  0
SPLINE
  5
BB
330
1F
100
AcDbEntity
  8
0
  6
Continuous
 62
     7
370
    15
100
AcDbSpline
210
0.0
220
0.0
230
1.0
 70
     8
 71
     3
 72
    12
 73
     8
 74
     0
 42
0.000000001
 43
0.00000001
 40
0.0
 40
0.0
 40
0.0
 40
0.0
 40
0.2499999999999946
 40
0.2499999999999946
 40
0.4999999999999892
 40
0.4999999999999892
 40
1.0
 40
1.0
 40
1.0
 40
1.0
 10
177.2787063655036
 20
159.07523928141
 30
0.0
 10
177.3682434236747
 20
159.0752392814099
 30
0.0
 10
177.4581426024633
 20
159.0484119825789
 30
0.0
 10
177.6115674614626
 20
158.9567050173194
 30
0.0
 10
177.6766165188403
 20
158.8924500757205
 30
0.0
 10
177.8299357501046
 20
158.673037929659
 30
0.0
 10
177.8787063655031
 20
158.4912226198621
 30
0.0
 10
177.8787063655031
 20
158.3132424443792
 30
0.0
  0
LINE
  5
BC
330
1F
100
AcDbEntity
  8
0
  6
Continuous
 62
     7
370
    15
100
AcDbLine
 10
162.0287062847
 20
158.3132431798
 30
0.0
 11
162.0287062847
 21
150.4141618453
 31
0.0
  0
LINE
  5
BD
330
1F
100
AcDbEntity
  8
0
  6
Continuous
 62
     7
370
    15
100
AcDbLine
 10
177.8787066009
 20
158.3132431798
 30
0.0
 11
177.8787066009
 21
150.4141618453
 31
0.0
  0
LINE
  5
BE
330
1F
100
AcDbEntity
  8
0
  6
Continuous
 62
     7
370
    15
100
AcDbLine
 10
171.0387066719
 20
164.211927443
 30
0.0
 11
168.8187065315
 21
164.211927443
 31
0.0
  0
SPLINE
  5
BF
330
1F
100
AcDbEntity
  8
0
  6
Continuous
 62
     7
370
    15
100
AcDbSpline
210
0.0
220
0.0
230
1.0
 70
     8
 71
     3
 72
    14
 73
    10
 74
     0
 42
0.000000001
 43
0.00000001
 40
0.0
 40
0.0
 40
0.0
 40
0.0
 40
0.25
 40
0.25
 40
0.5
 40
0.5
 40
0.75
 40
0.75
 40
1.0
 40
1.0
 40
1.0
 40
1.0
 10
171.8387063655031
 20
165.0452528181414
 30
0.0
 10
171.8387063655031
 20
164.937910445994
 30
0.0
 10
171.8187101734389
 20
164.8312814391462
 30
0.0
 10
171.7410120890942
 20
164.632129659995
 30
0.0
 10
171.6830189442007
 20
164.5396467616795
 30
0.0
 10
171.5369724513778
 20
164.3844109265703
 30
0.0
 10
171.4476347122101
 20
164.3206769849579
 30
0.0
 10
171.2528797001497
 20
164.2348467185627
 30
0.0
 10
171.1453494289408
 20
164.2119275956043
 30
0.0
 10
171.038706365501
 20
164.2119275956046
 30
0.0
  0
SPLINE
  5
C0
330
1F
100
AcDbEntity
  8
0
  6
Continuous
 62
     7
370
    15
100
AcDbSpline
210
0.0
220
0.0
230
1.0
 70
     8
 71
     3
 72
     8
 73
     4
 74
     0
 42
0.000000001
 43
0.00000001
 40
0.0
 40
0.0
 40
0.0
 40
0.0
 40
1.0
 40
1.0
 40
1.0
 40
1.0
 10
172.6053773876695
 20
166.5641945744022
 30
0.0
 10
172.3496010769141
 20
166.1042162191374
 30
0.0
 10
172.0940376788081
 20
165.6441217588296
 30
0.0
 10
171.8387063655031
 20
165.1839007385646
 30
0.0
  0
SPLINE
  5
C1
330
1F
100
AcDbEntity
  8
0
  6
Continuous
 62
     7
370
    15
100
AcDbSpline
210
0.0
220
0.0
230
1.0
 70
     8
 71
     3
 72
     8
 73
     4
 74
     0
 42
0.000000001
 43
0.00000001
 40
0.0
 40
0.0
 40
0.0
 40
0.0
 40
0.0012352705496738
 40
0.0012352705496738
 40
0.0012352705496738
 40
0.0012352705496738
 10
173.161867872965
 20
167.3440059845103
 30
0.0
 10
172.9759194476429
 20
167.0842302287587
 30
0.0
 10
172.7904126384718
 20
166.8242961501314
 30
0.0
 10
172.6053773876696
 20
166.5641945744027
 30
0.0
  0
LINE
  5
C2
330
1F
100
AcDbEntity
  8
0
  6
Continuous
 62
     7
370
    15
100
AcDbLine
 10
173.1618678909
 20
159.0752401345
 30
0.0
 11
173.1618678909
 21
167.3440062396
 31
0.0
  0
LINE
  5
C3
330
1F
100
AcDbEntity
  8
0
  6
Continuous
 62
     7
370
    15
100
AcDbLine
 10
171.8387062442
 20
156.1312959485
 30
0.0
 11
171.8387062442
 21
165.1839003854
 31
0.0
  0
LINE
  5
C4
330
1F
100
AcDbEntity
  8
0
  6
Continuous
 62
     7
370
    15
100
AcDbLine
 10
177.2787057575
 20
167.3440062396
 30
0.0
 11
173.1618678909
 21
167.3440062396
 31
0.0
  0
SPLINE
  5
C5
330
1F
100
AcDbEntity
  8
0
  6
Continuous
 62
     7
370
    15
100
AcDbSpline
210
0.0
220
0.0
230
1.0
 70
     8
 71
     3
 72
    12
 73
     8
 74
     0
 42
0.000000001
 43
0.00000001
 40
0.0
 40
0.0
 40
0.0
 40
0.0
 40
0.2500000000000007
 40
0.2500000000000007
 40
0.5000000000000014
 40
0.5000000000000014
 40
1.0
 40
1.0
 40
1.0
 40
1.0
 10
168.8187063655031
 20
164.2119275956046
 30
0.0
 10
168.7123613856271
 20
164.2119275956046
 30
0.0
 10
168.6050850382245
 20
164.2346428334641
 30
0.0
 10
168.4097092488284
 20
164.3206680003464
 30
0.0
 10
168.3211555127515
 20
164.3836467272749
 30
0.0
 10
168.0998975886202
 20
164.6188382377119
 30
0.0
 10
168.0187063655031
 20
164.8320144521972
 30
0.0
 10
168.018706365503
 20
165.0452528181413
 30
0.0
  0
SPLINE
  5
C6
330
1F
100
AcDbEntity
  8
0
  6
Continuous
 62
     7
370
    15
100
AcDbSpline
210
0.0
220
0.0
230
1.0
 70
     8
 71
     3
 72
    12
 73
     8
 74
     0
 42
0.000000001
 43
0.00000001
 40
0.0
 40
0.0
 40
0.0
 40
0.0
 40
0.4999999999999982
 40
0.4999999999999982
 40
0.7499999999999991
 40
0.7499999999999991
 40
1.0
 40
1.0
 40
1.0
 40
1.0
 10
177.8787063655031
 20
166.8591482829653
 30
0.0
 10
177.8787063655031
 20
166.9793408896305
 30
0.0
 10
177.824737935234
 20
167.0972481901454
 30
0.0
 10
177.6636512943011
 20
167.2366277346288
 30
0.0
 10
177.598888874828
 20
167.2747930321927
 30
0.0
 10
177.4468348732636
 20
167.3294452945262
 30
0.0
 10
177.3641051001144
 20
167.3440059845103
 30
0.0
 10
177.2787063655031
 20
167.3440059845103
 30
0.0
  0
LINE
  5
C7
330
1F
100
AcDbEntity
  8
0
  6
Continuous
 62
     7
370
    15
100
AcDbLine
 10
177.8787066009
 20
158.3132431798
 30
0.0
 11
177.8787066009
 21
166.8591485314
 31
0.0
  0
SPLINE
  5
C8
330
1F
100
AcDbEntity
  8
0
  6
Continuous
 62
     7
370
    15
100
AcDbSpline
210
0.0
220
0.0
230
1.0
 70
     8
 71
     3
 72
    10
 73
     6
 74
     0
 42
0.000000001
 43
0.00000001
 40
0.0
 40
0.0
 40
0.0
 40
0.0
 40
0.5
 40
0.5
 40
1.0
 40
1.0
 40
1.0
 40
1.0
 10
162.3185752844494
 20
167.2743256554576
 30
0.0
 10
162.2421221945306
 20
167.2040628842369
 30
0.0
 10
162.1732604722615
 20
167.1169679691952
 30
0.0
 10
162.0667482411886
 20
166.9077988409429
 30
0.0
 10
162.028706365503
 20
166.7824812917034
 30
0.0
 10
162.028706365503
 20
166.6531309971075
 30
0.0
  0
SPLINE
  5
C9
330
1F
100
AcDbEntity
  8
0
  6
Continuous
 62
     7
370
    15
100
AcDbSpline
210
0.0
220
0.0
230
1.0
 70
     8
 71
     3
 72
     8
 73
     4
 74
     0
 42
0.000000001
 43
0.00000001
 40
0.0
 40
0.0
 40
0.0
 40
0.0
 40
1.0
 40
1.0
 40
1.0
 40
1.0
 10
162.6287063655031
 20
167.3440059845103
 30
0.0
 10
162.5176281801656
 20
167.3440059845103
 30
0.0
 10
162.4099641762633
 20
167.3188568089558
 30
0.0
 10
162.3185752844494
 20
167.2743256554576
 30
0.0
  0
LINE
  5
CA
330
1F
100
AcDbEntity
  8
0
  6
Continuous
 62
     7
370
    15
100
AcDbLine
 10
162.0287062847
 20
158.3132431798
 30
0.0
 11
162.0287062847
 21
166.6531325273
 31
0.0
  0
SPLINE
  5
CB
330
1F
100
AcDbEntity
  8
0
  6
Continuous
 62
     7
370
    15
100
AcDbSpline
210
0.0
220
0.0
230
1.0
 70
     8
 71
     3
 72
     8
 73
     4
 74
     0
 42
0.000000001
 43
0.00000001
 40
0.0
 40
0.0
 40
0.0
 40
0.0
 40
0.0012352705496723
 40
0.0012352705496723
 40
0.0012352705496723
 40
0.0012352705496723
 10
167.2520353433357
 20
166.5641945744039
 30
0.0
 10
167.0670000925338
 20
166.8242961501322
 30
0.0
 10
166.881493283363
 20
167.0842302287591
 30
0.0
 10
166.6955448580412
 20
167.3440059845103
 30
0.0
  0
SPLINE
  5
CC
330
1F
100
AcDbEntity
  8
0
  6
Continuous
 62
     7
370
    15
100
AcDbSpline
210
0.0
220
0.0
230
1.0
 70
     8
 71
     3
 72
     8
 73
     4
 74
     0
 42
0.000000001
 43
0.00000001
 40
0.0
 40
0.0
 40
0.0
 40
0.0
 40
1.0
 40
1.0
 40
1.0
 40
1.0
 10
168.0187063655031
 20
165.1839007385646
 30
0.0
 10
167.7633750521977
 20
165.6441217588302
 30
0.0
 10
167.5078116540914
 20
166.1042162191386
 30
0.0
 10
167.2520353433357
 20
166.5641945744039
 30
0.0
  0
LINE
  5
CD
330
1F
100
AcDbEntity
  8
0
  6
Continuous
 62
     7
370
    15
100
AcDbLine
 10
166.6955453124
 20
159.0752401345
 30
0.0
 11
166.6955453124
 21
167.3440062396
 31
0.0
  0
LINE
  5
CE
330
1F
100
AcDbEntity
  8
0
  6
Continuous
 62
     7
370
    15
100
AcDbLine
 10
168.0187060278
 20
156.1312959485
 30
0.0
 11
168.0187060278
 21
165.1839003854
 31
0.0
  0
LINE
  5
CF
330
1F
100
AcDbEntity
  8
0
  6
Continuous
 62
     7
370
    15
100
AcDbLine
 10
166.6955453124
 20
167.3440062396
 30
0.0
 11
162.6287064296
 21
167.3440062396
 31
0.0
  0
LINE
  5
D0
330
1F
100
AcDbEntity
  8
0
  6
Continuous
 62
     7
370
    15
100
AcDbLine
 10
57.2287075934
 20
102.185316845
 30
0.0
 11
57.2287075934
 21
138.9430058144
 31
0.0
  0
LINE
  5
D1
330
1F
100
AcDbEntity
  8
0
  6
Continuous
 62
     7
370
    15
100
AcDbLine
 10
232.7287056264
 20
108.0641611435
 30
0.0
 11
232.7287056264
 21
133.064161516
 31
0.0
  0
SPLINE
  5
D2
330
1F
100
AcDbEntity
  8
0
  6
Continuous
 62
     7
370
    15
100
AcDbSpline
210
0.0
220
0.0
230
1.0
 70
     8
 71
     3
 72
    38
 73
    34
 74
     0
 42
0.000000001
 43
0.00000001
 40
0.0
 40
0.0
 40
0.0
 40
0.0
 40
0.0625
 40
0.0625
 40
0.125
 40
0.125
 40
0.1874999999999999
 40
0.1874999999999999
 40
0.25
 40
0.25
 40
0.3125000000000001
 40
0.3125000000000001
 40
0.3750000000000001
 40
0.3750000000000001
 40
0.4375000000000001
 40
0.4375000000000001
 40
0.5000000000000001
 40
0.5000000000000001
 40
0.5625000000000001
 40
0.5625000000000001
 40
0.6250000000000001
 40
0.6250000000000001
 40
0.6875000000000001
 40
0.6875000000000001
 40
0.75
 40
0.75
 40
0.8125
 40
0.8125
 40
0.875
 40
0.875
 40
0.9375
 40
0.9375
 40
1.0
 40
1.0
 40
1.0
 40
1.0
 10
229.428706365503
 20
120.5641613297348
 30
0.0
 10
229.4287063655031
 20
120.3332121391088
 30
0.0
 10
229.4007532120431
 20
120.1012976237762
 30
0.0
 10
229.2901535502835
 20
119.6483750961345
 30
0.0
 10
229.2092442094364
 20
119.4322268331502
 30
0.0
 10
228.9999394073795
 20
119.0188838559555
 30
0.0
 10
228.8718406331447
 20
118.8235944556309
 30
0.0
 10
228.5816745336179
 20
118.4667585657773
 30
0.0
 10
228.4167115684706
 20
118.3016826745033
 30
0.0
 10
228.0611517390856
 20
118.0080212835546
 30
0.0
 10
227.871040943964
 20
117.8791370398789
 30
0.0
 10
227.4672912148066
 20
117.6549856280654
 30
0.0
 10
227.253534287581
 20
117.560224629163
 30
0.0
 10
226.8179825140301
 20
117.4099884557178
 30
0.0
 10
226.5943372760578
 20
117.3533949732556
 30
0.0
 10
226.135151753221
 20
117.2773492667652
 30
0.0
 10
225.9023785572522
 20
117.2586536445142
 30
0.0
 10
225.4409794251752
 20
117.2594235822344
 30
0.0
 10
225.2107611744787
 20
117.2786036563746
 30
0.0
 10
224.7513211114932
 20
117.3560254507172
 30
0.0
 10
224.5261696952917
 20
117.4137985363762
 30
0.0
 10
224.0923094233189
 20
117.5650240510206
 30
0.0
 10
223.8823538028095
 20
117.6586514640494
 30
0.0
 10
223.4772820465915
 20
117.8848574839911
 30
0.0
 10
223.286759038612
 20
118.0150968822109
 30
0.0
 10
222.93528767761
 20
118.3069593625407
 30
0.0
 10
222.7733779166888
 20
118.4690412722978
 30
0.0
 10
222.4806951831271
 20
118.8302272947518
 30
0.0
 10
222.3552264102659
 20
119.0229987038147
 30
0.0
 10
222.1486130023592
 20
119.431674320081
 30
0.0
 10
222.0664873843464
 20
119.6508081855093
 30
0.0
 10
221.9563907968529
 20
120.1031325145066
 30
0.0
 10
221.928706365503
 20
120.3321820033014
 30
0.0
 10
221.928706365503
 20
120.5641613297348
 30
0.0
  0
SPLINE
  5
D3
330
1F
100
AcDbEntity
  8
0
  6
Continuous
 62
     7
370
    15
100
AcDbSpline
210
0.0
220
0.0
230
1.0
 70
     8
 71
     3
 72
    34
 73
    30
 74
     0
 42
0.000000001
 43
0.00000001
 40
0.0
 40
0.0
 40
0.0
 40
0.0
 40
0.0624999999999993
 40
0.0624999999999993
 40
0.1249999999999985
 40
0.1249999999999985
 40
0.2499999999999987
 40
0.2499999999999987
 40
0.3749999999999988
 40
0.3749999999999988
 40
0.4374999999999989
 40
0.4374999999999989
 40
0.499999999999999
 40
0.499999999999999
 40
0.5624999999999991
 40
0.5624999999999991
 40
0.6249999999999992
 40
0.6249999999999992
 40
0.6874999999999994
 40
0.6874999999999994
 40
0.7499999999999996
 40
0.7499999999999996
 40
0.8124999999999997
 40
0.8124999999999997
 40
0.8749999999999998
 40
0.8749999999999998
 40
0.9375
 40
0.9375
 40
1.0
 40
1.0
 40
1.0
 40
1.0
 10
221.928706365503
 20
120.5641613297348
 30
0.0
 10
221.928706365503
 20
120.7962143964181
 30
0.0
 10
221.957508995983
 20
121.0314087610826
 30
0.0
 10
222.067717900905
 20
121.4809102780217
 30
0.0
 10
222.1502778684729
 20
121.7011955437601
 30
0.0
 10
222.4657251868161
 20
122.3213152145891
 30
0.0
 10
222.7661750034861
 20
122.6839098296166
 30
0.0
 10
223.4840857141767
 20
123.2739885307854
 30
0.0
 10
223.8870910456656
 20
123.4940510131556
 30
0.0
 10
224.5475354582284
 20
123.7207577363869
 30
0.0
 10
224.7713509231588
 20
123.7766334816453
 30
0.0
 10
225.2259730556573
 20
123.85124389401
 30
0.0
 10
225.4581392712952
 20
123.8699488257956
 30
0.0
 10
225.9237553720209
 20
123.8685954120898
 30
0.0
 10
226.1535666925256
 20
123.8487839602251
 30
0.0
 10
226.6073684350945
 20
123.7718476043787
 30
0.0
 10
226.8329518963134
 20
123.7141555887823
 30
0.0
 10
227.2705435395297
 20
123.5611715285615
 30
0.0
 10
227.4797723871181
 20
123.4671846320223
 30
0.0
 10
227.8791931486345
 20
123.2438417506894
 30
0.0
 10
228.0710441887604
 20
123.1131108448696
 30
0.0
 10
228.4256601545602
 20
122.8182160762675
 30
0.0
 10
228.5865175713336
 20
122.6562024919648
 30
0.0
 10
228.8740589005753
 20
122.3013913086738
 30
0.0
 10
229.0021837892722
 20
122.1055952047654
 30
0.0
 10
229.2102734117264
 20
121.6934653050867
 30
0.0
 10
229.2903722364077
 20
121.4786757506873
 30
0.0
 10
229.3999941458538
 20
121.0305079356557
 30
0.0
 10
229.428706365503
 20
120.795183933157
 30
0.0
 10
229.428706365503
 20
120.5641613297348
 30
0.0
  0
LINE
  5
D4
330
1F
100
AcDbEntity
  8
0
  6
Continuous
 62
     7
370
    15
100
AcDbLine
 10
232.9287090119
 20
108.264161735
 30
0.0
 11
232.9287090119
 21
132.8641609244
 31
0.0
  0
SPLINE
  5
D5
330
1F
100
AcDbEntity
  8
0
  6
Continuous
 62
     7
370
    15
100
AcDbSpline
210
0.0
220
0.0
230
1.0
 70
    24
 71
     3
 72
    11
 73
     7
 74
     0
 42
0.000000001
 43
0.00000001
 40
0.0
 40
0.0
 40
0.0
 40
0.0
 40
0.133665875648932
 40
0.4825477972514859
 40
0.8156366778439156
 40
1.0
 40
1.0
 40
1.0
 40
1.0
 10
226.5447311815393
 20
119.0641613166963
 30
0.0
 10
226.4721695917632
 20
119.0641613166963
 30
0.0
 10
226.2102146601735
 20
119.0641613166963
 30
0.0
 10
225.7208525116269
 20
119.0641613166963
 30
0.0
 10
225.1952829961601
 20
119.0641613166963
 30
0.0
 10
224.9131876948404
 20
119.0641613166963
 30
0.0
 10
224.8126798090112
 20
119.0641613166963
 30
0.0
  0
SPLINE
  5
D6
330
1F
100
AcDbEntity
  8
0
  6
Continuous
 62
     7
370
    15
100
AcDbSpline
210
0.0
220
0.0
230
1.0
 70
     8
 71
     3
 72
    10
 73
     6
 74
     0
 42
0.000000001
 43
0.00000001
 40
0.0
 40
0.0
 40
0.0
 40
0.0
 40
0.4391159106004128
 40
0.7513675167092324
 40
1.0
 40
1.0
 40
1.0
 40
1.0
 10
227.4107568678033
 20
120.5641613297348
 30
0.0
 10
227.2867802244468
 20
120.3494242662086
 30
0.0
 10
227.0746448396885
 20
119.9819894949509
 30
0.0
 10
226.7662584169342
 20
119.4478643446946
 30
0.0
 10
226.6127703897666
 20
119.1820107096746
 30
0.0
 10
226.5447311815393
 20
119.0641613166963
 30
0.0
  0
SPLINE
  5
D7
330
1F
100
AcDbEntity
  8
0
  6
Continuous
 62
     7
370
    15
100
AcDbSpline
210
0.0
220
0.0
230
1.0
 70
     8
 71
     3
 72
    10
 73
     6
 74
     0
 42
0.000000001
 43
0.00000001
 40
0.0
 40
0.0
 40
0.0
 40
0.0
 40
0.4391159106004129
 40
0.7513675167092322
 40
1.0
 40
1.0
 40
1.0
 40
1.0
 10
226.5447311815393
 20
122.0641613427733
 30
0.0
 10
226.6687078248958
 20
121.8494242792471
 30
0.0
 10
226.8808432096542
 20
121.4819895079894
 30
0.0
 10
227.1892296324085
 20
120.9478643577331
 30
0.0
 10
227.342717659576
 20
120.6820107227131
 30
0.0
 10
227.4107568678033
 20
120.5641613297348
 30
0.0
  0
SPLINE
  5
D8
330
1F
100
AcDbEntity
  8
0
  6
Continuous
 62
     7
370
    15
100
AcDbSpline
210
0.0
220
0.0
230
1.0
 70
    24
 71
     3
 72
    11
 73
     7
 74
     0
 42
0.000000001
 43
0.00000001
 40
0.0
 40
0.0
 40
0.0
 40
0.0
 40
0.1843633221560843
 40
0.517452202748514
 40
0.8663341243510679
 40
1.0
 40
1.0
 40
1.0
 40
1.0
 10
224.8126798090112
 20
122.0641613427733
 30
0.0
 10
224.9131876948404
 20
122.0641613427733
 30
0.0
 10
225.1952829961601
 20
122.0641613427733
 30
0.0
 10
225.7208525116268
 20
122.0641613427733
 30
0.0
 10
226.2102146601735
 20
122.0641613427733
 30
0.0
 10
226.4721695917632
 20
122.0641613427733
 30
0.0
 10
226.5447311815393
 20
122.0641613427733
 30
0.0
  0
SPLINE
  5
D9
330
1F
100
AcDbEntity
  8
0
  6
Continuous
 62
     7
370
    15
100
AcDbSpline
210
0.0
220
0.0
230
1.0
 70
     8
 71
     3
 72
    10
 73
     6
 74
     0
 42
0.000000001
 43
0.00000001
 40
0.0
 40
0.0
 40
0.0
 40
0.0
 40
0.439115910600413
 40
0.7513675167092325
 40
1.0
 40
1.0
 40
1.0
 40
1.0
 10
223.9466541227472
 20
120.5641613297348
 30
0.0
 10
224.0706307661037
 20
120.778898393261
 30
0.0
 10
224.282766150862
 20
121.1463331645187
 30
0.0
 10
224.5911525736163
 20
121.680458314775
 30
0.0
 10
224.7446406007839
 20
121.946311949795
 30
0.0
 10
224.8126798090112
 20
122.0641613427733
 30
0.0
  0
SPLINE
  5
DA
330
1F
100
AcDbEntity
  8
0
  6
Continuous
 62
     7
370
    15
100
AcDbSpline
210
0.0
220
0.0
230
1.0
 70
     8
 71
     3
 72
    10
 73
     6
 74
     0
 42
0.000000001
 43
0.00000001
 40
0.0
 40
0.0
 40
0.0
 40
0.0
 40
0.4391159106004131
 40
0.7513675167092325
 40
1.0
 40
1.0
 40
1.0
 40
1.0
 10
224.8126798090112
 20
119.0641613166963
 30
0.0
 10
224.6887031656547
 20
119.2788983802225
 30
0.0
 10
224.4765677808964
 20
119.6463331514802
 30
0.0
 10
224.1681813581421
 20
120.1804583017365
 30
0.0
 10
224.0146933309745
 20
120.4463119367565
 30
0.0
 10
223.9466541227472
 20
120.5641613297348
 30
0.0
  0
CIRCLE
  5
DB
330
1F
100
AcDbEntity
  8
0
  6
Continuous
 62
     7
370
    15
100
AcDbCircle
 10
225.6787063655
 20
120.5641613297
 30
0.0
 40
1.749999999999986
  0
CIRCLE
  5
DC
330
1F
100
AcDbEntity
  8
0
  6
Continuous
 62
     7
370
    15
100
AcDbCircle
 10
225.6787063655
 20
120.5641613297
 30
0.0
 40
2.599999999999994
  0
CIRCLE
  5
DD
330
1F
100
AcDbEntity
  8
0
  6
Continuous
 62
     7
370
    15
100
AcDbCircle
 10
225.6787063655
 20
120.5641613297
 30
0.0
 40
3.0
  0
ARC
  5
DE
330
1F
100
AcDbEntity
  8
0
  6
Continuous
 62
     7
370
    15
100
AcDbCircle
 10
225.6787063655
 20
120.5641613297
 30
0.0
 40
1.5
100
AcDbArc
 50
270.0
 51
330.0
  0
ARC
  5
DF
330
1F
100
AcDbEntity
  8
0
  6
Continuous
 62
     7
370
    15
100
AcDbCircle
 10
225.6787063655
 20
120.5641613297
 30
0.0
 40
1.499999999999993
100
AcDbArc
 50
330.0
 51
30.0
  0
ARC
  5
E0
330
1F
100
AcDbEntity
  8
0
  6
Continuous
 62
     7
370
    15
100
AcDbCircle
 10
225.6787063655
 20
120.5641613297
 30
0.0
 40
1.5
100
AcDbArc
 50
90.0
 51
150.0
  0
ARC
  5
E1
330
1F
100
AcDbEntity
  8
0
  6
Continuous
 62
     7
370
    15
100
AcDbCircle
 10
225.6787063655
 20
120.5641613297
 30
0.0
 40
1.499999999999993
100
AcDbArc
 50
30.0
 51
90.0
  0
ARC
  5
E2
330
1F
100
AcDbEntity
  8
0
  6
Continuous
 62
     7
370
    15
100
AcDbCircle
 10
225.6787063655
 20
120.5641613297
 30
0.0
 40
1.5
100
AcDbArc
 50
210.0
 51
270.0
  0
ARC
  5
E3
330
1F
100
AcDbEntity
  8
0
  6
Continuous
 62
     7
370
    15
100
AcDbCircle
 10
225.6787063655
 20
120.5641613297
 30
0.0
 40
1.5
100
AcDbArc
 50
150.0
 51
210.0
  0
ARC
  5
E4
330
1F
100
AcDbEntity
  8
0
  6
Continuous
 62
     7
370
    15
100
AcDbCircle
 10
172.897661746
 20
105.3778011418
 30
0.0
 40
2.373045168760899
100
AcDbArc
 50
185.6733221437
 51
252.2360921293
  0
ARC
  5
E5
330
1F
100
AcDbEntity
  8
0
  6
Continuous
 62
     7
370
    15
100
AcDbCircle
 10
173.0428481582
 20
105.4879937141
 30
0.0
 40
2.524449504549644
100
AcDbArc
 50
249.8603539676
 51
339.8452067799
  0
ARC
  5
E6
330
1F
100
AcDbEntity
  8
0
  6
Continuous
 62
     7
370
    15
100
AcDbCircle
 10
172.8576058118
 20
105.2802444574
 30
0.0
 40
2.18139924872954
100
AcDbArc
 50
159.26752016
 51
253.0470182115
  0
ARC
  5
E7
330
1F
100
AcDbEntity
  8
0
  6
Continuous
 62
     7
370
    15
100
AcDbCircle
 10
173.0461372727
 20
105.4124294558
 30
0.0
 40
2.367064187020494
100
AcDbArc
 50
249.6127475989
 51
345.549823666
  0
ARC
  5
E8
330
1F
100
AcDbEntity
  8
0
  6
Continuous
 62
     7
370
    15
100
AcDbCircle
 10
172.8758043956
 20
105.2707953067
 30
0.0
 40
1.83769894565959
100
AcDbArc
 50
124.9990245476
 51
253.2004850097
  0
ARC
  5
E9
330
1F
100
AcDbEntity
  8
0
  6
Continuous
 62
     7
370
    15
100
AcDbCircle
 10
173.0525317928
 20
105.3583383665
 30
0.0
 40
1.977824793145185
100
AcDbArc
 50
249.0286405794
 51
357.659602652
  0
LWPOLYLINE
  5
EA
330
1F
100
AcDbEntity
  8
0
  6
HIDDEN
 62
     7
370
     0
100
AcDbPolyline
 90
       22
 70
   128
 43
0.0
 10
173.0287064579
 20
104.7068447761
 10
173.7655940246
 20
104.8112143718
 10
174.4370068204
 20
105.1150499799
 10
174.9832843211
 20
105.5913534902
 10
175.355891582
 20
106.1978046738
 10
175.5217154291
 20
106.8805172064
 10
175.4660260644
 20
107.5788293921
 10
175.1937706736
 20
108.2306918644
 10
174.7291375664
 20
108.778184741
 10
174.1134159979
 20
109.1726603873
 10
173.4013118562
 20
109.3790684782
 10
172.6561010596
 20
109.3790684782
 10
171.9439969179
 20
109.1726603873
 10
171.3282744181
 20
108.778184741
 10
170.8636431736
 20
108.2306918644
 10
170.5913868513
 20
107.5788293921
 10
170.5356965554
 20
106.8805172064
 10
170.7015222651
 20
106.1978046738
 10
171.0741276634
 20
105.5913534902
 10
171.6204060954
 20
105.1150499799
 10
172.2918188911
 20
104.8112143718
 10
173.0287064579
 20
104.7068447761
  0
LWPOLYLINE
  5
EB
330
1F
100
AcDbEntity
  8
0
  6
HIDDEN
 62
     7
370
     0
100
AcDbPolyline
 90
       24
 70
   128
 43
0.0
 10
162.3004373409
 20
106.6593010865
 10
162.4942304347
 20
105.865638233
 10
162.7959496122
 20
105.1308377601
 10
163.1832177531
 20
104.5093969397
 10
163.6273124036
 20
104.0474032007
 10
164.0952978064
 20
103.7791226946
 10
164.5524649662
 20
103.7244521968
 10
164.9649086189
 20
103.8874466859
 10
165.302039009
 20
104.2560157322
 10
165.5388529193
 20
104.802825018
 10
165.657787003
 20
105.4873219647
 10
165.6500207041
 20
106.2587392472
 10
165.5161295798
 20
107.0598638572
 10
165.2660443228
 20
107.8312802084
 10
164.9183117565
 20
108.515777155
 10
164.4987225313
 20
109.0625873722
 10
164.0383949284
 20
109.4311564185
 10
163.5714693707
 20
109.5941499762
 10
163.1325761568
 20
109.5394794785
 10
162.7542659421
 20
109.2711989723
 10
162.4645955176
 20
108.8092061646
 10
162.285049098
 20
108.1877653443
 10
162.2289427337
 20
107.4529639401
 10
162.3004373409
 20
106.6593010865
  0
LWPOLYLINE
  5
EC
330
1F
100
AcDbEntity
  8
0
  6
HIDDEN
 62
     7
370
     0
100
AcDbPolyline
 90
       20
 70
   128
 43
0.0
 10
163.0634692278
 20
106.7235632755
 10
163.2377578658
 20
106.0549435161
 10
163.5182456825
 20
105.4587797217
 10
163.874537569
 20
104.999674014
 10
164.2680241507
 20
104.7273785763
 10
164.656064358
 20
104.6714005016
 10
164.996608511
 20
104.8378073566
 10
165.2527534184
 20
105.2085640796
 10
165.3967410107
 20
105.743494346
 10
165.4129688409
 20
106.3846307762
 10
165.2996781063
 20
107.0624948435
 10
165.0691459667
 20
107.7036312737
 10
164.7463532877
 20
108.2385615401
 10
164.366280545
 20
108.6093182631
 10
163.9701140825
 20
108.7757241868
 10
163.6007846114
 20
108.7197470434
 10
163.2983147879
 20
108.4474516057
 10
163.0954820443
 20
107.9883468293
 10
163.0142665249
 20
107.3921821036
 10
163.0634692278
 20
106.7235632755
  0
ELLIPSE
  5
ED
330
1F
100
AcDbEntity
  8
0
  6
HIDDEN
 62
     7
370
     0
100
AcDbEllipse
 10
173.0287063655
 20
108.8336512184
 30
0.0
 11
1.760776919379083
 21
2.232245799914452
 31
0.0
210
0.0
220
0.0
230
1.0
 40
0.5126701559
 41
1.100887047646269
 42
4.029627027608322
  0
ARC
  5
EE
330
1F
100
AcDbEntity
  8
0
  6
HIDDEN
 62
     7
370
     0
100
AcDbCircle
 10
172.3321068969
 20
110.0111910995
 30
0.0
 40
0.7945949542257933
100
AcDbArc
 50
53.4208190544
 51
99.1663888759
  0
ELLIPSE
  5
EF
330
1F
100
AcDbEntity
  8
0
  6
HIDDEN
 62
     7
370
     0
100
AcDbEllipse
 10
173.0287063655
 20
108.8336512184
 30
0.0
 11
1.760776919379083
 21
-1.388886188042946
 31
0.0
210
0.0
220
0.0
230
1.0
 40
0.8239737799
 41
2.549926265248529
 42
4.885930273856072
  0
ARC
  5
F0
330
1F
100
AcDbEntity
  8
0
  6
HIDDEN
 62
     7
370
     0
100
AcDbCircle
 10
173.2747591274
 20
107.9941736544
 30
0.0
 40
1.353195702694764
100
AcDbArc
 50
217.8001040701
 51
249.7155767561
  0
LWPOLYLINE
  5
F1
330
1F
100
AcDbEntity
  8
0
  6
HIDDEN
 62
     7
370
     0
100
AcDbPolyline
 90
       20
 70
   128
 43
0.0
 10
173.0287064579
 20
105.1325150721
 10
173.7105752122
 20
105.2394374229
 10
174.3185528335
 20
105.5486160286
 10
174.7867566314
 20
106.0265474908
 10
175.0644472208
 20
106.6214400299
 10
175.1215335694
 20
107.2688284286
 10
174.9518298325
 20
107.8985570885
 10
174.5737259057
 20
108.4423861422
 10
174.028196257
 20
108.8413833596
 10
173.3743547243
 20
109.0523102276
 10
172.6830581915
 20
109.0523102276
 10
172.0292166587
 20
108.8413833596
 10
171.4836860788
 20
108.4423861422
 10
171.105582152
 20
107.8985570885
 10
170.9358793464
 20
107.2688284286
 10
170.9929656949
 20
106.6214400299
 10
171.2706572157
 20
106.0265474908
 10
171.7388600823
 20
105.5486160286
 10
172.3468377036
 20
105.2394374229
 10
173.0287064579
 20
105.1325150721
  0
SPLINE
  5
F2
330
1F
100
AcDbEntity
  8
0
  6
HIDDEN
 62
     7
370
     0
100
AcDbSpline
210
0.0
220
0.0
230
1.0
 70
    11
 71
     3
 72
    62
 73
    58
 74
     0
 42
0.000000001
 43
0.00000001
 40
0.0
 40
0.0
 40
0.0
 40
0.0
 40
0.0312499999999996
 40
0.0312499999999996
 40
0.0624999999999993
 40
0.0624999999999993
 40
0.1249999999999989
 40
0.1249999999999989
 40
0.1874999999999986
 40
0.1874999999999986
 40
0.2187499999999984
 40
0.2187499999999984
 40
0.2499999999999982
 40
0.2499999999999982
 40
0.281249999999998
 40
0.281249999999998
 40
0.3124999999999978
 40
0.3124999999999978
 40
0.3437499999999976
 40
0.3437499999999976
 40
0.3749999999999974
 40
0.3749999999999974
 40
0.4374999999999969
 40
0.4374999999999969
 40
0.4687499999999969
 40
0.4687499999999969
 40
0.4999999999999969
 40
0.4999999999999969
 40
0.5312499999999969
 40
0.5312499999999969
 40
0.5624999999999968
 40
0.5624999999999968
 40
0.5937499999999968
 40
0.5937499999999968
 40
0.6249999999999968
 40
0.6249999999999968
 40
0.6562499999999969
 40
0.6562499999999969
 40
0.6874999999999971
 40
0.6874999999999971
 40
0.7187499999999973
 40
0.7187499999999973
 40
0.7499999999999974
 40
0.7499999999999974
 40
0.7812499999999977
 40
0.7812499999999977
 40
0.8124999999999979
 40
0.8124999999999979
 40
0.8749999999999982
 40
0.8749999999999982
 40
0.9062499999999987
 40
0.9062499999999987
 40
0.9374999999999991
 40
0.9374999999999991
 40
0.9687499999999994
 40
0.9687499999999994
 40
1.0
 40
1.0
 40
1.0
 40
1.0
 10
173.028706365503
 20
117.327066694507
 30
0.0
 10
172.8875081415232
 20
117.3270666945071
 30
0.0
 10
172.7492302645094
 20
117.3375346308906
 30
0.0
 10
172.4780641933016
 20
117.378558111826
 30
0.0
 10
172.3438608658421
 20
117.4096845652416
 30
0.0
 10
171.9647976860519
 20
117.5310585531534
 30
0.0
 10
171.7357907643581
 20
117.6512133271616
 30
0.0
 10
171.3547601453553
 20
117.9599922261844
 30
0.0
 10
171.1991370684337
 20
118.1521613943483
 30
0.0
 10
171.040066591865
 20
118.4821457061865
 30
0.0
 10
170.9983394467217
 20
118.6016450694986
 30
0.0
 10
170.9430687455797
 20
118.8482294686543
 30
0.0
 10
170.9289888140898
 20
118.9754013990915
 30
0.0
 10
170.9284322477687
 20
119.2378905917876
 30
0.0
 10
170.9424215251893
 20
119.3730329604846
 30
0.0
 10
170.9969030444249
 20
119.6375180538444
 30
0.0
 10
171.0377535025798
 20
119.7696679580904
 30
0.0
 10
171.1443674694392
 20
120.0263637090122
 30
0.0
 10
171.2091196117123
 20
120.1491015934662
 30
0.0
 10
171.3606781536648
 20
120.3834723422245
 30
0.0
 10
171.4480162768379
 20
120.495289843238
 30
0.0
 10
171.7337926977995
 20
120.8004733083663
 30
0.0
 10
171.9633290462652
 20
120.9712876275461
 30
0.0
 10
172.3396471822595
 20
121.1477979905201
 30
0.0
 10
172.4719800906202
 20
121.1942827977139
 30
0.0
 10
172.746012749611
 20
121.257386510454
 30
0.0
 10
172.8840379092331
 20
121.2733442001983
 30
0.0
 10
173.1621092904519
 20
121.27419006906
 30
0.0
 10
173.3038222291222
 20
121.2584653940869
 30
0.0
 10
173.5762444848025
 20
121.1970249515877
 30
0.0
 10
173.7080726292997
 20
121.1517033079013
 30
0.0
 10
173.9634715249042
 20
121.0331555049003
 30
0.0
 10
174.0836375280936
 20
120.961468421684
 30
0.0
 10
174.3088089406499
 20
120.7967398556856
 30
0.0
 10
174.4149600019842
 20
120.7024805826507
 30
0.0
 10
174.6064072906864
 20
120.498915908507
 30
0.0
 10
174.6923413046059
 20
120.3894486182678
 30
0.0
 10
174.844753622646
 20
120.1553510157839
 30
0.0
 10
174.9109371129335
 20
120.030456792886
 30
0.0
 10
175.0171188114845
 20
119.7767250413512
 30
0.0
 10
175.0580988747003
 20
119.6465553565675
 30
0.0
 10
175.1141790154977
 20
119.3794916614387
 30
0.0
 10
175.128403190939
 20
119.2455384314234
 30
0.0
 10
175.1289998748105
 20
118.9840816889554
 30
0.0
 10
175.1152313073121
 20
118.853964319568
 30
0.0
 10
175.06038124037
 20
118.6057734640841
 30
0.0
 10
175.0198847270935
 20
118.4884179730034
 30
0.0
 10
174.8604222559173
 20
118.1546688512637
 30
0.0
 10
174.7057538316031
 20
117.9628292793377
 30
0.0
 10
174.4174458002585
 20
117.7287067113679
 30
0.0
 10
174.3134209849107
 20
117.6605503020047
 30
0.0
 10
174.0890017267319
 20
117.5418393627807
 30
0.0
 10
173.9670709388714
 20
117.4909174264123
 30
0.0
 10
173.7146137874454
 20
117.4099675915907
 30
0.0
 10
173.5837272575283
 20
117.3794322725917
 30
0.0
 10
173.3117863398154
 20
117.3378742438472
 30
0.0
 10
173.1699045894829
 20
117.3270666945071
 30
0.0
 10
173.0287063655031
 20
117.3270666945071
 30
0.0
  0
SPLINE
  5
F3
330
1F
100
AcDbEntity
  8
0
  6
HIDDEN
 62
     7
370
     0
100
AcDbSpline
210
0.0
220
0.0
230
1.0
 70
     8
 71
     3
 72
     8
 73
     4
 74
     0
 42
0.000000001
 43
0.00000001
 40
0.0
 40
0.0
 40
0.0
 40
0.0
 40
1.0
 40
1.0
 40
1.0
 40
1.0
 10
172.2055261893437
 20
110.7956392942562
 30
0.0
 10
172.4169535793449
 20
110.7881297844737
 30
0.0
 10
172.6194221258777
 20
110.7340062548391
 30
0.0
 10
172.805632725015
 20
110.6492779676139
 30
0.0
  0
SPLINE
  5
F4
330
1F
100
AcDbEntity
  8
0
  6
HIDDEN
 62
     7
370
     0
100
AcDbSpline
210
0.0
220
0.0
230
1.0
 70
     8
 71
     3
 72
     8
 73
     4
 74
     0
 42
0.000000001
 43
0.00000001
 40
0.0
 40
0.0
 40
0.0
 40
0.0
 40
1.0
 40
1.0
 40
1.0
 40
1.0
 10
172.8056327250151
 20
106.7248991996796
 30
0.0
 10
172.6191083757306
 20
106.8472196155801
 30
0.0
 10
172.4165534772049
 20
106.9883047762448
 30
0.0
 10
172.2055261893436
 20
107.1647884120297
 30
0.0
  0
LINE
  5
F5
330
1F
100
AcDbEntity
  8
0
  6
HIDDEN
 62
     7
370
     0
100
AcDbLine
 10
162.200279186
 20
85.2641598277
 30
0.0
 11
162.0287062847
 21
85.2641598277
 31
0.0
  0
ELLIPSE
  5
F6
330
1F
100
AcDbEntity
  8
0
  6
HIDDEN
 62
     7
370
     0
100
AcDbEllipse
 10
162.2002792408
 20
83.2641613297
 30
0.0
 11
0.0
 21
2.0
 31
0.0
210
0.0
220
0.0
230
1.0
 40
0.4142135624
 41
4.712388980384695
 42
6.283185307179586
  0
LINE
  5
F7
330
1F
100
AcDbEntity
  8
0
  6
HIDDEN
 62
     7
370
     0
100
AcDbLine
 10
162.0287062847
 20
158.0641628199
 30
0.0
 11
162.200279186
 21
158.0641628199
 31
0.0
  0
ELLIPSE
  5
F8
330
1F
100
AcDbEntity
  8
0
  6
HIDDEN
 62
     7
370
     0
100
AcDbEllipse
 10
162.2002792408
 20
160.0641613297
 30
0.0
 11
0.0
 21
2.0
 31
0.0
210
0.0
220
0.0
230
1.0
 40
0.4142135624
 41
3.141592653589793
 42
4.712388980384695
  0
LINE
  5
F9
330
1F
100
AcDbEntity
  8
0
  6
HIDDEN
 62
     7
370
     0
100
AcDbLine
 10
163.0287062157
 20
74.3782469027
 30
0.0
 11
162.2443663668
 21
73.9307054274
 31
0.0
  0
LINE
  5
FA
330
1F
100
AcDbEntity
  8
0
  6
HIDDEN
 62
     7
370
     0
100
AcDbLine
 10
162.3185753137
 20
167.2743246846
 30
0.0
 11
163.0287062157
 21
166.5641949468
 31
0.0
  0
LINE
  5
FB
330
1F
100
AcDbEntity
  8
0
  6
HIDDEN
 62
     7
370
     0
100
AcDbLine
 10
162.200279186
 20
158.0641628199
 30
0.0
 11
177.8787066009
 21
158.0641628199
 31
0.0
  0
LINE
  5
FC
330
1F
100
AcDbEntity
  8
0
  6
HIDDEN
 62
     7
370
     0
100
AcDbLine
 10
167.1486588907
 20
74.3782469027
 30
0.0
 11
163.0287062157
 21
74.3782469027
 31
0.0
  0
LINE
  5
FD
330
1F
100
AcDbEntity
  8
0
  6
HIDDEN
 62
     7
370
     0
100
AcDbLine
 10
177.8787066009
 20
74.3782469027
 30
0.0
 11
172.7087543127
 21
74.3782469027
 31
0.0
  0
LINE
  5
FE
330
1F
100
AcDbEntity
  8
0
  6
HIDDEN
 62
     7
370
     0
100
AcDbLine
 10
163.0287062157
 20
74.3782469027
 30
0.0
 11
163.0287062157
 21
83.2641594999
 31
0.0
  0
LINE
  5
FF
330
1F
100
AcDbEntity
  8
0
  6
HIDDEN
 62
     7
370
     0
100
AcDbLine
 10
163.0287062157
 20
166.5641949468
 30
0.0
 11
167.2520356965
 21
166.5641949468
 31
0.0
  0
LINE
  5
100
330
1F
100
AcDbEntity
  8
0
  6
HIDDEN
 62
     7
370
     0
100
AcDbLine
 10
172.6053775069
 20
166.5641949468
 30
0.0
 11
177.8787066009
 21
166.5641949468
 31
0.0
  0
LINE
  5
101
330
1F
100
AcDbEntity
  8
0
  6
HIDDEN
 62
     7
370
     0
100
AcDbLine
 10
163.0287062157
 20
166.5641949468
 30
0.0
 11
163.0287062157
 21
160.0641631477
 31
0.0
  0
LINE
  5
102
330
1F
100
AcDbEntity
  8
0
  6
HIDDEN
 62
     7
370
     0
100
AcDbLine
 10
177.8787066009
 20
85.2641598277
 30
0.0
 11
162.200279186
 21
85.2641598277
 31
0.0
  0
LINE
  5
103
330
1F
100
AcDbEntity
  8
0
  6
HIDDEN
 62
     7
370
     0
100
AcDbLine
 10
67.2287055072
 20
108.0641611435
 30
0.0
 11
67.2287055072
 21
133.064161516
 31
0.0
  0
LINE
  5
104
330
1F
100
AcDbEntity
  8
0
  6
HIDDEN
 62
     7
370
     0
100
AcDbLine
 10
70.5133088645
 20
110.0641614713
 30
0.0
 11
70.5133088645
 21
131.0641611882
 31
0.0
  0
CIRCLE
  5
105
330
1F
100
AcDbEntity
  8
0
  6
HIDDEN
 62
     7
370
     0
100
AcDbCircle
 10
225.6787063655
 20
120.5641613297
 30
0.0
 40
2.625
  0
LINE
  5
106
330
1F
100
AcDbEntity
  8
0
  6
HIDDEN
 62
     7
370
     0
100
AcDbLine
 10
119.2287065801
 20
110.0641614713
 30
0.0
 11
119.2287065801
 21
131.0641611882
 31
0.0
  0
LINE
  5
107
330
1F
100
AcDbEntity
  8
0
  6
HIDDEN
 62
     7
370
     0
100
AcDbLine
 10
122.9840860483
 20
116.3141610988
 30
0.0
 11
122.9840860483
 21
124.8141615607
 31
0.0
  0
LINE
  5
108
330
1F
100
AcDbEntity
  8
0
  6
HIDDEN
 62
     7
370
     0
100
AcDbLine
 10
232.5906314668
 20
111.039161212
 30
0.0
 11
232.5906314668
 21
112.3710130297
 31
0.0
  0
LINE
  5
109
330
1F
100
AcDbEntity
  8
0
  6
HIDDEN
 62
     7
370
     0
100
AcDbLine
 10
232.5906314668
 20
128.7573096298
 30
0.0
 11
232.5906314668
 21
130.0891614475
 31
0.0
  0
LINE
  5
10A
330
1F
100
AcDbEntity
  8
0
  6
HIDDEN
 62
     7
370
     0
100
AcDbLine
 10
232.6315500554
 20
128.7384624548
 30
0.0
 11
232.5906314668
 21
128.7573096298
 31
0.0
  0
SPLINE
  5
10B
330
1F
100
AcDbEntity
  8
0
  6
HIDDEN
 62
     7
370
     0
100
AcDbSpline
210
0.0
220
0.0
230
1.0
 70
     8
 71
     3
 72
     8
 73
     4
 74
     0
 42
0.000000001
 43
0.00000001
 40
0.0
 40
0.0
 40
0.0
 40
0.0
 40
1.0
 40
1.0
 40
1.0
 40
1.0
 10
232.4787063655031
 20
125.677692684831
 30
0.0
 10
232.5118563114382
 20
125.8067759511652
 30
0.0
 10
232.5458116795969
 20
125.9355918384675
 30
0.0
 10
232.5805092631834
 20
126.0641613297348
 30
0.0
  0
LINE
  5
10C
330
1F
100
AcDbEntity
  8
0
  6
HIDDEN
 62
     7
370
     0
100
AcDbLine
 10
232.4787088451
 20
115.45062996
 30
0.0
 11
232.4787088451
 21
125.6776926995
 31
0.0
  0
SPLINE
  5
10D
330
1F
100
AcDbEntity
  8
0
  6
HIDDEN
 62
     7
370
     0
100
AcDbSpline
210
0.0
220
0.0
230
1.0
 70
     8
 71
     3
 72
     8
 73
     4
 74
     0
 42
0.000000001
 43
0.00000001
 40
0.0
 40
0.0
 40
0.0
 40
0.0
 40
1.0
 40
1.0
 40
1.0
 40
1.0
 10
232.5805092631834
 20
115.0641613297348
 30
0.0
 10
232.5458070045981
 20
115.1927481438858
 30
0.0
 10
232.5118517229268
 20
115.3215645756049
 30
0.0
 10
232.4787063655031
 20
115.4506299746386
 30
0.0
  0
LINE
  5
10E
330
1F
100
AcDbEntity
  8
0
  6
HIDDEN
 62
     7
370
     0
100
AcDbLine
 10
232.5906314668
 20
112.3710130297
 30
0.0
 11
232.6320119914
 21
112.3884976797
 31
0.0
  0
LINE
  5
10F
330
1F
100
AcDbEntity
  8
0
  6
HIDDEN
 62
     7
370
     0
100
AcDbLine
 10
230.0787054714
 20
118.5798477337
 30
0.0
 11
230.0787054714
 21
122.5484749258
 31
0.0
  0
LINE
  5
110
330
1F
100
AcDbEntity
  8
0
  6
HIDDEN
 62
     7
370
     0
100
AcDbLine
 10
230.7466574725
 20
118.5798477337
 30
0.0
 11
230.7466574725
 21
122.5484749258
 31
0.0
  0
LINE
  5
111
330
1F
100
AcDbEntity
  8
0
  6
HIDDEN
 62
     7
370
     0
100
AcDbLine
 10
230.7466574725
 20
118.5798477337
 30
0.0
 11
230.0787054714
 21
118.5798477337
 31
0.0
  0
LINE
  5
112
330
1F
100
AcDbEntity
  8
0
  6
HIDDEN
 62
     7
370
     0
100
AcDbLine
 10
230.0787054714
 20
118.5798477337
 30
0.0
 11
230.0787054714
 21
115.0641613595
 31
0.0
  0
SPLINE
  5
113
330
1F
100
AcDbEntity
  8
0
  6
HIDDEN
 62
     7
370
     0
100
AcDbSpline
210
0.0
220
0.0
230
1.0
 70
     8
 71
     3
 72
    10
 73
     6
 74
     0
 42
0.000000001
 43
0.00000001
 40
0.0
 40
0.0
 40
0.0
 40
0.0
 40
0.5
 40
0.5
 40
1.0
 40
1.0
 40
1.0
 40
1.0
 10
232.4787063655031
 20
115.988410025304
 30
0.0
 10
232.1354582865783
 20
116.3781972358037
 30
0.0
 10
231.8075066021084
 20
116.7867831556629
 30
0.0
 10
231.2162117574528
 20
117.6478627461823
 30
0.0
 10
230.9537746388279
 20
118.0977455652604
 30
0.0
 10
230.7466555579342
 20
118.5798478464364
 30
0.0
  0
LINE
  5
114
330
1F
100
AcDbEntity
  8
0
  6
HIDDEN
 62
     7
370
     0
100
AcDbLine
 10
230.0787054714
 20
128.7573096298
 30
0.0
 11
232.5906314668
 21
128.7573096298
 31
0.0
  0
LINE
  5
115
330
1F
100
AcDbEntity
  8
0
  6
HIDDEN
 62
     7
370
     0
100
AcDbLine
 10
230.0787054714
 20
128.76416137
 30
0.0
 11
230.0787054714
 21
126.0641612999
 31
0.0
  0
LINE
  5
116
330
1F
100
AcDbEntity
  8
0
  6
HIDDEN
 62
     7
370
     0
100
AcDbLine
 10
230.0787054714
 20
122.5484749258
 30
0.0
 11
230.7466574725
 21
122.5484749258
 31
0.0
  0
LINE
  5
117
330
1F
100
AcDbEntity
  8
0
  6
HIDDEN
 62
     7
370
     0
100
AcDbLine
 10
230.0787054714
 20
126.0641612999
 30
0.0
 11
230.0787054714
 21
122.5484749258
 31
0.0
  0
SPLINE
  5
118
330
1F
100
AcDbEntity
  8
0
  6
HIDDEN
 62
     7
370
     0
100
AcDbSpline
210
0.0
220
0.0
230
1.0
 70
     8
 71
     3
 72
    10
 73
     6
 74
     0
 42
0.000000001
 43
0.00000001
 40
0.0
 40
0.0
 40
0.0
 40
0.0
 40
0.5
 40
0.5
 40
1.0
 40
1.0
 40
1.0
 40
1.0
 10
230.7466555579342
 20
122.5484748130332
 30
0.0
 10
230.9526218581872
 20
123.0278938157098
 30
0.0
 10
231.2150705866687
 20
123.4789384054606
 30
0.0
 10
231.8104169598565
 20
124.3456369917843
 30
0.0
 10
232.1363115526078
 20
124.7510943793743
 30
0.0
 10
232.4787063655031
 20
125.1399126341656
 30
0.0
  0
LINE
  5
119
330
1F
100
AcDbEntity
  8
0
  6
HIDDEN
 62
     7
370
     0
100
AcDbLine
 10
230.0787054714
 20
112.3710130297
 30
0.0
 11
232.5906314668
 21
112.3710130297
 31
0.0
  0
LINE
  5
11A
330
1F
100
AcDbEntity
  8
0
  6
HIDDEN
 62
     7
370
     0
100
AcDbLine
 10
230.0787054714
 20
115.0641613595
 30
0.0
 11
230.0787054714
 21
112.3641612895
 31
0.0
  0
LINE
  5
11B
330
1F
100
AcDbEntity
  8
0
  6
HIDDEN
 62
     7
370
     0
100
AcDbLine
 10
229.4787027654
 20
113.5641611137
 30
0.0
 11
229.4787027654
 21
127.5641615458
 31
0.0
  0
LINE
  5
11C
330
1F
100
AcDbEntity
  8
0
  6
HIDDEN
 62
     7
370
     0
100
AcDbLine
 10
217.9287046906
 20
113.9641613655
 30
0.0
 11
217.9287046906
 21
127.164161294
 31
0.0
  0
LINE
  5
11D
330
1F
100
AcDbEntity
  8
0
  6
HIDDEN
 62
     7
370
     0
100
AcDbLine
 10
219.9287050184
 20
113.5641611137
 30
0.0
 11
219.9287050184
 21
127.5641615458
 31
0.0
  0
LINE
  5
11E
330
1F
100
AcDbEntity
  8
0
  6
HIDDEN
 62
     7
370
     0
100
AcDbLine
 10
230.0787054714
 20
130.0891614475
 30
0.0
 11
230.0787054714
 21
128.7573096298
 31
0.0
  0
LINE
  5
11F
330
1F
100
AcDbEntity
  8
0
  6
HIDDEN
 62
     7
370
     0
100
AcDbLine
 10
230.0787054714
 20
112.3710130297
 30
0.0
 11
230.0787054714
 21
111.039161212
 31
0.0
  0
SPLINE
  5
120
330
1F
100
AcDbEntity
  8
0
  6
HIDDEN
 62
     7
370
     0
100
AcDbSpline
210
0.0
220
0.0
230
1.0
 70
    11
 71
     3
 72
    62
 73
    58
 74
     0
 42
0.000000001
 43
0.00000001
 40
0.0
 40
0.0
 40
0.0
 40
0.0
 40
0.0312500000000004
 40
0.0312500000000004
 40
0.0625000000000007
 40
0.0625000000000007
 40
0.1250000000000011
 40
0.1250000000000011
 40
0.1875000000000015
 40
0.1875000000000015
 40
0.2187500000000016
 40
0.2187500000000016
 40
0.2500000000000016
 40
0.2500000000000016
 40
0.2812500000000017
 40
0.2812500000000017
 40
0.3125000000000017
 40
0.3125000000000017
 40
0.3437500000000017
 40
0.3437500000000017
 40
0.3750000000000018
 40
0.3750000000000018
 40
0.4375000000000019
 40
0.4375000000000019
 40
0.4687500000000018
 40
0.4687500000000018
 40
0.5000000000000017
 40
0.5000000000000017
 40
0.5312500000000016
 40
0.5312500000000016
 40
0.5625000000000016
 40
0.5625000000000016
 40
0.5937500000000014
 40
0.5937500000000014
 40
0.6250000000000013
 40
0.6250000000000013
 40
0.6562500000000013
 40
0.6562500000000013
 40
0.6875000000000012
 40
0.6875000000000012
 40
0.7187500000000012
 40
0.7187500000000012
 40
0.7500000000000011
 40
0.7500000000000011
 40
0.781250000000001
 40
0.781250000000001
 40
0.812500000000001
 40
0.812500000000001
 40
0.8750000000000008
 40
0.8750000000000008
 40
0.9062500000000007
 40
0.9062500000000007
 40
0.9375000000000004
 40
0.9375000000000004
 40
0.9687500000000003
 40
0.9687500000000003
 40
1.0
 40
1.0
 40
1.0
 40
1.0
 10
173.0287063655031
 20
119.8545469576617
 30
0.0
 10
173.1699045894829
 20
119.8545469576617
 30
0.0
 10
173.3081824664967
 20
119.8705583676532
 30
0.0
 10
173.5793485377046
 20
119.9322879332761
 30
0.0
 10
173.7135518651641
 20
119.9788256967308
 30
0.0
 10
174.0926150449543
 20
120.1558020254658
 30
0.0
 10
174.3216219666481
 20
120.326228319175
 30
0.0
 10
174.7026525856508
 20
120.7321145965983
 30
0.0
 10
174.8582756625725
 20
120.9717850379343
 30
0.0
 10
175.0173461391411
 20
121.352261865251
 30
0.0
 10
175.0590732842845
 20
121.485530600556
 30
0.0
 10
175.1143439854265
 20
121.7505118361848
 30
0.0
 10
175.1284239169163
 20
121.8824771509027
 30
0.0
 10
175.1289804832375
 20
122.1451544607169
 30
0.0
 10
175.1149912058169
 20
122.2755343246745
 30
0.0
 10
175.0605096865812
 20
122.5218782553977
 30
0.0
 10
175.0196592284263
 20
122.6405325253805
 30
0.0
 10
174.9130452615669
 20
122.8633587921358
 30
0.0
 10
174.8482931192939
 20
122.9660439031203
 30
0.0
 10
174.6967345773413
 20
123.1561671560336
 30
0.0
 10
174.6093964541683
 20
123.2436739472529
 30
0.0
 10
174.3236200332067
 20
123.4759414427016
 30
0.0
 10
174.0940836847409
 20
123.5963901853442
 30
0.0
 10
173.7177655487467
 20
123.7174867776458
 30
0.0
 10
173.585432640386
 20
123.7485949110821
 30
0.0
 10
173.3113999813951
 20
123.7905421506377
 30
0.0
 10
173.173374821773
 20
123.8009723852473
 30
0.0
 10
172.8953034405543
 20
123.8015282841142
 30
0.0
 10
172.7535905018839
 20
123.7912498252841
 30
0.0
 10
172.4811682462036
 20
123.7504266405909
 30
0.0
 10
172.3493401017065
 20
123.7201333047162
 30
0.0
 10
172.0939412061019
 20
123.6388661144253
 30
0.0
 10
171.9737752029126
 20
123.588918263567
 30
0.0
 10
171.7486037903563
 20
123.470597052369
 30
0.0
 10
171.6424527290219
 20
123.4013039432864
 30
0.0
 10
171.4510054403197
 20
123.2464892946927
 30
0.0
 10
171.3650714264002
 20
123.160903306822
 30
0.0
 10
171.2126591083602
 20
122.971219634745
 30
0.0
 10
171.1464756180727
 20
122.8667983736744
 30
0.0
 10
171.0402939195216
 20
122.6467670338671
 30
0.0
 10
170.9993138563058
 20
122.5301185477576
 30
0.0
 10
170.9432337155085
 20
122.2817171667684
 30
0.0
 10
170.9290095400672
 20
122.1526071779642
 30
0.0
 10
170.9284128561957
 20
121.8913521121321
 30
0.0
 10
170.9421814236941
 20
121.7565458214594
 30
0.0
 10
170.9970314906362
 20
121.4900907071049
 30
0.0
 10
171.0375280039127
 20
121.3593567724064
 30
0.0
 10
171.1969904750888
 20
120.9749413184028
 30
0.0
 10
171.351658899403
 20
120.735782286526
 30
0.0
 10
171.6399669307476
 20
120.4281229270821
 30
0.0
 10
171.7439917460954
 20
120.3354498103179
 30
0.0
 10
171.9684110042742
 20
120.1703069676783
 30
0.0
 10
172.0903417921347
 20
120.0972660989991
 30
0.0
 10
172.3427989435607
 20
119.9792441827267
 30
0.0
 10
172.4736854734779
 20
119.933596477109
 30
0.0
 10
172.7456263911907
 20
119.8710760376418
 30
0.0
 10
172.8875081415232
 20
119.8545469576617
 30
0.0
 10
173.0287063655031
 20
119.8545469576617
 30
0.0
  0
SPLINE
  5
121
330
1F
100
AcDbEntity
  8
0
  6
HIDDEN
 62
     7
370
     0
100
AcDbSpline
210
0.0
220
0.0
230
1.0
 70
     8
 71
     3
 72
     8
 73
     4
 74
     0
 42
0.000000001
 43
0.00000001
 40
0.0
 40
0.0
 40
0.0
 40
0.0
 40
1.0
 40
1.0
 40
1.0
 40
1.0
 10
172.2055261893436
 20
130.3326833652135
 30
0.0
 10
172.4169535793448
 20
130.3401928749959
 30
0.0
 10
172.6194221258776
 20
130.3943164046306
 30
0.0
 10
172.8056327250149
 20
130.4790446918557
 30
0.0
  0
ELLIPSE
  5
122
330
1F
100
AcDbEntity
  8
0
  6
HIDDEN
 62
     7
370
     0
100
AcDbEllipse
 10
173.0287063655
 20
132.2946714411
 30
0.0
 11
-1.760776919379055
 21
2.232245799914466
 31
0.0
210
0.0
220
0.0
230
1.0
 40
0.5126701559
 41
5.395150933160693
 42
8.32389091312313
  0
SPLINE
  5
123
330
1F
100
AcDbEntity
  8
0
  6
HIDDEN
 62
     7
370
     0
100
AcDbSpline
210
0.0
220
0.0
230
1.0
 70
     8
 71
     3
 72
     8
 73
     4
 74
     0
 42
0.000000001
 43
0.00000001
 40
0.0
 40
0.0
 40
0.0
 40
0.0
 40
1.0
 40
1.0
 40
1.0
 40
1.0
 10
172.8056327250158
 20
134.4034234597905
 30
0.0
 10
172.619108375731
 20
134.2811030438897
 30
0.0
 10
172.4165534772048
 20
134.1400178832247
 30
0.0
 10
172.2055261893429
 20
133.9635342474393
 30
0.0
  0
ELLIPSE
  5
124
330
1F
100
AcDbEntity
  8
0
  6
HIDDEN
 62
     7
370
     0
100
AcDbEllipse
 10
173.0287063655
 20
132.2946714411
 30
0.0
 11
1.760776919379112
 21
1.388886188042932
 31
0.0
210
0.0
220
0.0
230
1.0
 40
0.8239737799
 41
1.397255033323959
 42
3.733259041931102
  0
LWPOLYLINE
  5
125
330
1F
100
AcDbEntity
  8
0
  6
HIDDEN
 62
     7
370
     0
100
AcDbPolyline
 90
       20
 70
   128
 43
0.0
 10
173.0287064579
 20
132.0490981408
 10
173.7105752122
 20
132.1560204916
 10
174.3185528335
 20
132.4651990973
 10
174.7867566314
 20
132.9431305595
 10
175.0644472208
 20
133.5380230986
 10
175.1215335694
 20
134.1854114972
 10
174.9518298325
 20
134.8151401572
 10
174.5737259057
 20
135.3589692109
 10
174.028196257
 20
135.7579664283
 10
173.3743547243
 20
135.9688932963
 10
172.6830581915
 20
135.9688932963
 10
172.0292166587
 20
135.7579664283
 10
171.4836860788
 20
135.3589692109
 10
171.105582152
 20
134.8151401572
 10
170.9358793464
 20
134.1854114972
 10
170.9929656949
 20
133.5380230986
 10
171.2706572157
 20
132.9431305595
 10
171.7388600823
 20
132.4651990973
 10
172.3468377036
 20
132.1560204916
 10
173.0287064579
 20
132.0490981408
  0
LINE
  5
126
330
1F
100
AcDbEntity
  8
0
  6
HIDDEN
 62
     7
370
     0
100
AcDbLine
 10
168.0187060278
 20
155.9572056823
 30
0.0
 11
168.0187060278
 21
150.4141618453
 31
0.0
  0
LINE
  5
127
330
1F
100
AcDbEntity
  8
0
  6
HIDDEN
 62
     7
370
     0
100
AcDbLine
 10
171.8387062442
 20
155.9572056823
 30
0.0
 11
171.8387062442
 21
150.4141618453
 31
0.0
  0
SPLINE
  5
128
330
1F
100
AcDbEntity
  8
0
  6
HIDDEN
 62
     7
370
     0
100
AcDbSpline
210
0.0
220
0.0
230
1.0
 70
     8
 71
     3
 72
    14
 73
    10
 74
     0
 42
0.000000001
 43
0.00000001
 40
0.0
 40
0.0
 40
0.0
 40
0.0
 40
0.25
 40
0.25
 40
0.5
 40
0.5
 40
0.75
 40
0.75
 40
1.0
 40
1.0
 40
1.0
 40
1.0
 10
171.0387063655029
 20
137.5394508866686
 30
0.0
 10
171.1131319176375
 20
137.6303083414503
 30
0.0
 10
171.1950101772509
 20
137.719518924656
 30
0.0
 10
171.3679963234265
 20
137.8949432434479
 30
0.0
 10
171.4586681432876
 20
137.9804781990746
 30
0.0
 10
171.6260316926319
 20
138.1413298120131
 30
0.0
 10
171.7024825175984
 20
138.2170619009096
 30
0.0
 10
171.8087756024368
 20
138.348652924485
 30
0.0
 10
171.8387063655031
 20
138.4056530993913
 30
0.0
 10
171.8387063655031
 20
138.4478503723434
 30
0.0
  0
LINE
  5
129
330
1F
100
AcDbEntity
  8
0
  6
HIDDEN
 62
     7
370
     0
100
AcDbLine
 10
171.8387062442
 20
106.7668995775
 30
0.0
 11
171.8387062442
 21
102.6348588012
 31
0.0
  0
SPLINE
  5
12A
330
1F
100
AcDbEntity
  8
0
  6
HIDDEN
 62
     7
370
     0
100
AcDbSpline
210
0.0
220
0.0
230
1.0
 70
     8
 71
     3
 72
    14
 73
    10
 74
     0
 42
0.000000001
 43
0.00000001
 40
0.0
 40
0.0
 40
0.0
 40
0.0
 40
0.25
 40
0.25
 40
0.5
 40
0.5
 40
0.75
 40
0.75
 40
1.0
 40
1.0
 40
1.0
 40
1.0
 10
171.8387063655031
 20
134.3158091737119
 30
0.0
 10
171.8387063655031
 20
134.2733087560573
 30
0.0
 10
171.8089929066863
 20
134.2460368495747
 30
0.0
 10
171.7029115397942
 20
134.2324840756075
 30
0.0
 10
171.6265446106297
 20
134.2469296327485
 30
0.0
 10
171.4577850661012
 20
134.3193057967684
 30
0.0
 10
171.3669882536292
 20
134.3763787318858
 30
0.0
 10
171.1954233134219
 20
134.5175366654027
 30
0.0
 10
171.1133620731274
 20
134.6021138804863
 30
0.0
 10
171.0387063655029
 20
134.6954870436155
 30
0.0
  0
LINE
  5
12B
330
1F
100
AcDbEntity
  8
0
  6
HIDDEN
 62
     7
370
     0
100
AcDbLine
 10
173.1618678909
 20
106.2670140483
 30
0.0
 11
173.1618678909
 21
101.5752204649
 31
0.0
  0
LINE
  5
12C
330
1F
100
AcDbEntity
  8
0
  6
HIDDEN
 62
     7
370
     0
100
AcDbLine
 10
173.1618678909
 20
159.0752401345
 30
0.0
 11
173.1618678909
 21
150.4141618453
 31
0.0
  0
LINE
  5
12D
330
1F
100
AcDbEntity
  8
0
  6
HIDDEN
 62
     7
370
     0
100
AcDbLine
 10
166.6955453124
 20
159.0752401345
 30
0.0
 11
166.6955453124
 21
150.4141618453
 31
0.0
  0
ARC
  5
12E
330
1F
100
AcDbEntity
  8
0
  6
HIDDEN
 62
     7
370
     0
100
AcDbCircle
 10
173.2747591274
 20
133.1341490051
 30
0.0
 40
1.353195702694764
100
AcDbArc
 50
110.2844232439
 51
142.1998959299
  0
ARC
  5
12F
330
1F
100
AcDbEntity
  8
0
  6
HIDDEN
 62
     7
370
     0
100
AcDbCircle
 10
172.3321068969
 20
131.1171315599
 30
0.0
 40
0.7945949542257705
100
AcDbArc
 50
260.8336111241
 51
306.5791809456
  0
LWPOLYLINE
  5
130
330
1F
100
AcDbEntity
  8
0
  6
HIDDEN
 62
     7
370
     0
100
AcDbPolyline
 90
       20
 70
   128
 43
0.0
 10
163.0634692278
 20
133.2771130793
 10
163.2377578658
 20
132.778757713
 10
163.5182456825
 20
132.4566048525
 10
163.874537569
 20
132.3455660559
 10
164.2680241507
 20
132.4576712169
 10
164.656064358
 20
132.7807749577
 10
164.996608511
 20
133.2798614122
 10
165.2527534184
 20
133.9008486785
 10
165.3967410107
 20
134.5764431127
 10
165.4129688409
 20
135.2334325157
 10
165.2996781063
 20
135.8006219335
 10
165.0691459667
 20
136.2165478014
 10
164.7463532877
 20
136.4361387633
 10
164.366280545
 20
136.4355985962
 10
163.9701140825
 20
136.2149850421
 10
163.6007846114
 20
135.7982060827
 10
163.2983147879
 20
135.2304252751
 10
163.0954820443
 20
134.5731704451
 10
163.0142665249
 20
133.897665418
 10
163.0634692278
 20
133.2771130793
  0
LWPOLYLINE
  5
131
330
1F
100
AcDbEntity
  8
0
  6
HIDDEN
 62
     7
370
     0
100
AcDbPolyline
 90
       24
 70
   128
 43
0.0
 10
162.3004373409
 20
132.8580970831
 10
162.4942304347
 20
132.2537525512
 10
162.7959496122
 20
131.8137044974
 10
163.1832177531
 20
131.5705892585
 10
163.6273124036
 20
131.5424372398
 10
164.0952978064
 20
131.7313373976
 10
164.5524649662
 20
132.1232779838
 10
164.9649086189
 20
132.689192421
 10
165.302039009
 20
133.3871078633
 10
165.5388529193
 20
134.165264196
 10
165.657787003
 20
134.9659492217
 10
165.6500207041
 20
135.7297790192
 10
165.5161295798
 20
136.4001040302
 10
165.2660443228
 20
136.9272102557
 10
164.9183117565
 20
137.2720026367
 10
164.4987225313
 20
137.4089107804
 10
164.0383949284
 20
137.3277814083
 10
163.5714693707
 20
137.0346308641
 10
163.1325761568
 20
136.5512018047
 10
162.7542659421
 20
135.9133454926
 10
162.4645955176
 20
135.1683703207
 10
162.285049098
 20
134.3715279319
 10
162.2289427337
 20
133.5819163315
 10
162.3004373409
 20
132.8580970831
  0
LWPOLYLINE
  5
132
330
1F
100
AcDbEntity
  8
0
  6
HIDDEN
 62
     7
370
     0
100
AcDbPolyline
 90
       22
 70
   128
 43
0.0
 10
173.0287064579
 20
131.723015099
 10
173.7655940246
 20
131.8273846947
 10
174.4370068204
 20
132.1312203027
 10
174.9832843211
 20
132.6075247444
 10
175.355891582
 20
133.213975928
 10
175.5217154291
 20
133.8966884606
 10
175.4660260644
 20
134.594999715
 10
175.1937706736
 20
135.2468631186
 10
174.7291375664
 20
135.7943550639
 10
174.1134159979
 20
136.1888316415
 10
173.4013118562
 20
136.3952388011
 10
172.6561010596
 20
136.3952388011
 10
171.9439969179
 20
136.1888316415
 10
171.3282744181
 20
135.7943550639
 10
170.8636431736
 20
135.2468631186
 10
170.5913868513
 20
134.594999715
 10
170.5356965554
 20
133.8966884606
 10
170.7015222651
 20
133.213975928
 10
171.0741276634
 20
132.6075247444
 10
171.6204060954
 20
132.1312203027
 10
172.2918188911
 20
131.8273846947
 10
173.0287064579
 20
131.723015099
  0
SPLINE
  5
133
330
1F
100
AcDbEntity
  8
0
  6
HIDDEN
 62
     7
370
     0
100
AcDbSpline
210
0.0
220
0.0
230
1.0
 70
     8
 71
     3
 72
    34
 73
    30
 74
     0
 42
0.000000001
 43
0.00000001
 40
0.0
 40
0.0
 40
0.0
 40
0.0
 40
0.0624999999999991
 40
0.0624999999999991
 40
0.1249999999999981
 40
0.1249999999999981
 40
0.1874999999999972
 40
0.1874999999999972
 40
0.2499999999999957
 40
0.2499999999999957
 40
0.3124999999999952
 40
0.3124999999999952
 40
0.3749999999999946
 40
0.3749999999999946
 40
0.4999999999999944
 40
0.4999999999999944
 40
0.6249999999999956
 40
0.6249999999999956
 40
0.6874999999999963
 40
0.6874999999999963
 40
0.749999999999997
 40
0.749999999999997
 40
0.8124999999999978
 40
0.8124999999999978
 40
0.8749999999999986
 40
0.8749999999999986
 40
0.9374999999999992
 40
0.9374999999999992
 40
1.0
 40
1.0
 40
1.0
 40
1.0
 10
173.161867872965
 20
139.553101717736
 30
0.0
 10
173.3212597007528
 20
139.5452616218132
 30
0.0
 10
173.4772621841964
 20
139.5236029737228
 30
0.0
 10
173.7827717002737
 20
139.4537547462299
 30
0.0
 10
173.9336660352859
 20
139.4049290439017
 30
0.0
 10
174.2215653799767
 20
139.2820050904944
 30
0.0
 10
174.3575117829364
 20
139.2086975823601
 30
0.0
 10
174.6136943985284
 20
139.0386869585887
 30
0.0
 10
174.7348766862875
 20
138.9408131663873
 30
0.0
 10
174.9520227581603
 20
138.7282289909553
 30
0.0
 10
175.0489846311206
 20
138.6131830524257
 30
0.0
 10
175.2195470669462
 20
138.3653219323056
 30
0.0
 10
175.2927871201582
 20
138.23228843524
 30
0.0
 10
175.4676675769069
 20
137.8227804191099
 30
0.0
 10
175.5287055378829
 20
137.5248197693348
 30
0.0
 10
175.528707193106
 20
136.9333782134603
 30
0.0
 10
175.4676725835197
 20
136.6332046634838
 30
0.0
 10
175.2927828161178
 20
136.217973383216
 30
0.0
 10
175.2195391106934
 20
136.0826182649692
 30
0.0
 10
175.0489783949567
 20
135.8297189335825
 30
0.0
 10
174.9520146793632
 20
135.7119536559748
 30
0.0
 10
174.7348543507761
 20
135.4938233606061
 30
0.0
 10
174.6136730920892
 20
135.3931200354592
 30
0.0
 10
174.3575028651505
 20
135.2178763426259
 30
0.0
 10
174.2215595154878
 20
135.1421313735353
 30
0.0
 10
173.9336568123047
 20
135.0149629982331
 30
0.0
 10
173.7827666163879
 20
134.9643617259056
 30
0.0
 10
173.4772611126823
 20
134.8919326261577
 30
0.0
 10
173.3212597144188
 20
134.8694468547608
 30
0.0
 10
173.161867872965
 20
134.8613083948659
 30
0.0
  0
SPLINE
  5
134
330
1F
100
AcDbEntity
  8
0
  6
HIDDEN
 62
     7
370
     0
100
AcDbSpline
210
0.0
220
0.0
230
1.0
 70
     8
 71
     3
 72
    10
 73
     6
 74
     0
 42
0.000000001
 43
0.00000001
 40
0.0
 40
0.0
 40
0.0
 40
0.0
 40
0.5
 40
0.5
 40
1.0
 40
1.0
 40
1.0
 40
1.0
 10
173.161867872965
 20
134.8613083948659
 30
0.0
 10
172.9391408460915
 20
134.7178198945722
 30
0.0
 10
172.7174549588665
 20
134.6030991488393
 30
0.0
 10
172.2762341210145
 20
134.4333387194814
 30
0.0
 10
172.0566754736156
 20
134.377918725094
 30
0.0
 10
171.8387063655034
 20
134.3614233957244
 30
0.0
  0
SPLINE
  5
135
330
1F
100
AcDbEntity
  8
0
  6
HIDDEN
 62
     7
370
     0
100
AcDbSpline
210
0.0
220
0.0
230
1.0
 70
     8
 71
     3
 72
    10
 73
     6
 74
     0
 42
0.000000001
 43
0.00000001
 40
0.0
 40
0.0
 40
0.0
 40
0.0
 40
0.5
 40
0.5
 40
1.0
 40
1.0
 40
1.0
 40
1.0
 10
171.8387063655034
 20
138.4934645943559
 30
0.0
 10
172.0555971980241
 20
138.7305035338044
 30
0.0
 10
172.274749834683
 20
138.9326737687979
 30
0.0
 10
172.7162343349519
 20
139.2834258403166
 30
0.0
 10
172.9394368002253
 20
139.4321019327135
 30
0.0
 10
173.161867872965
 20
139.553101717736
 30
0.0
  0
SPLINE
  5
136
330
1F
100
AcDbEntity
  8
0
  6
HIDDEN
 62
     7
370
     0
100
AcDbSpline
210
0.0
220
0.0
230
1.0
 70
     8
 71
     3
 72
    16
 73
    12
 74
     0
 42
0.000000001
 43
0.00000001
 40
0.0
 40
0.0
 40
0.0
 40
0.0
 40
0.2500000000000006
 40
0.2500000000000006
 40
0.5000000000000011
 40
0.5000000000000011
 40
0.7500000000000017
 40
0.7500000000000017
 40
0.8750000000000008
 40
0.8750000000000008
 40
1.0
 40
1.0
 40
1.0
 40
1.0
 10
171.0387063655031
 20
134.6954870436153
 30
0.0
 10
170.8732922590229
 20
134.9023732796406
 30
0.0
 10
170.7470949280473
 20
135.1282419774495
 30
0.0
 10
170.5726886297165
 20
135.6171112230623
 30
0.0
 10
170.5288585906196
 20
135.8688782764069
 30
0.0
 10
170.5285549176496
 20
136.3806576009891
 30
0.0
 10
170.5724117777099
 20
136.6317123100718
 30
0.0
 10
170.7023335369771
 20
136.9925608782138
 30
0.0
 10
170.756448348385
 20
137.1098336465624
 30
0.0
 10
170.8831253385284
 20
137.3323225979012
 30
0.0
 10
170.9559990588893
 20
137.4384832061447
 30
0.0
 10
171.0387063655031
 20
137.5394508866689
 30
0.0
  0
CIRCLE
  5
137
330
1F
100
AcDbEntity
  8
0
  6
HIDDEN
 62
     7
370
     0
100
AcDbCircle
 10
225.6787063655
 20
120.5641613297
 30
0.0
 40
2.477364010367808
  0
CIRCLE
  5
138
330
1F
100
AcDbEntity
  8
0
  6
HIDDEN
 62
     7
370
     0
100
AcDbCircle
 10
225.6787063655
 20
120.5641613297
 30
0.0
 40
1.84553422183545
  0
ARC
  5
139
330
1F
100
AcDbEntity
  8
0
  6
HIDDEN
 62
     7
370
     0
100
AcDbCircle
 10
225.6787063655
 20
120.5641613297
 30
0.0
 40
1.545534221835452
100
AcDbArc
 50
223.3142371015
 51
270.0
  0
LWPOLYLINE
  5
13A
330
1F
100
AcDbEntity
  8
0
  6
HIDDEN
 62
     7
370
     0
100
AcDbPolyline
 90
        3
 70
   128
 43
0.0
 10
224.2107176003
 20
120.0807537781
 10
224.1331719574
 20
120.5641613297
 10
224.2236294564
 20
121.085141781
  0
ARC
  5
13B
330
1F
100
AcDbEntity
  8
0
  6
HIDDEN
 62
     7
370
     0
100
AcDbCircle
 10
225.6787063655
 20
120.5641613297
 30
0.0
 40
1.545534221835448
100
AcDbArc
 50
97.9675884445
 51
141.8264383524
  0
ARC
  5
13C
330
1F
100
AcDbEntity
  8
0
  6
HIDDEN
 62
     7
370
     0
100
AcDbCircle
 10
225.6787063655
 20
120.5641613297
 30
0.0
 40
1.545534221835425
100
AcDbArc
 50
338.9988521981
 51
80.2855745786
  0
ARC
  5
13D
330
1F
100
AcDbEntity
  8
0
  6
HIDDEN
 62
     7
370
     0
100
AcDbCircle
 10
225.6787063655
 20
120.5641613297
 30
0.0
 40
1.545534221835439
100
AcDbArc
 50
270.0
 51
321.8186002493
  0
ARC
  5
13E
330
1F
100
AcDbEntity
  8
0
  6
HIDDEN
 62
     7
370
     0
100
AcDbCircle
 10
173.0147832311
 20
105.2550537441
 30
0.0
 40
2.481064946127805
100
AcDbArc
 50
345.1259223678
 51
182.5836989983
  0
ARC
  5
13F
330
1F
100
AcDbEntity
  8
0
  6
HIDDEN
 62
     7
370
     0
100
AcDbCircle
 10
173.0090936941
 20
105.1843899082
 30
0.0
 40
2.35728551496916
100
AcDbArc
 50
351.1507649568
 51
158.3919933761
  0
ARC
  5
140
330
1F
100
AcDbEntity
  8
0
  6
HIDDEN
 62
     7
370
     0
100
AcDbCircle
 10
173.0343263731
 20
105.1903343586
 30
0.0
 40
1.996287435241654
100
AcDbArc
 50
2.5046012683
 51
127.4021823473
  0
LWPOLYLINE
  5
141
330
1F
100
AcDbEntity
  8
0
  6
HIDDEN
 62
     7
370
     0
100
AcDbPolyline
 90
       22
 70
   128
 43
0.0
 10
172.1736564082
 20
103.3060089641
 10
171.5191955459
 20
103.6409162872
 10
170.9988609668
 20
104.1422155641
 10
170.6588881802
 20
104.7653653614
 10
170.5294837025
 20
105.4549966894
 10
170.622145642
 20
106.149832248
 10
170.9286411074
 20
106.7881318696
 10
171.4217372951
 20
107.3131808035
 10
172.0576192033
 20
107.678326308
 10
172.7797862854
 20
107.8511229672
 10
173.5240713474
 20
107.8162169971
 10
174.2243411731
 20
107.5767106332
 10
174.8183731702
 20
107.1538845964
 10
175.2533864942
 20
106.5853093706
 10
175.4907266018
 20
105.921504549
 10
175.5093046245
 20
105.2214526527
 10
175.3074702587
 20
104.5473557852
 10
174.9031589147
 20
103.959111958
 10
174.3322944981
 20
103.5089869939
 10
173.6455996302
 20
103.2369774722
 10
172.9040917721
 20
103.1672530763
 10
172.1736564082
 20
103.3060089641
  0
LWPOLYLINE
  5
142
330
1F
100
AcDbEntity
  8
0
  6
HIDDEN
 62
     7
370
     0
100
AcDbPolyline
 90
       19
 70
   128
 43
0.0
 10
172.3446658593
 20
104.929302349
 10
171.7431311276
 20
105.2556545429
 10
171.2966560167
 20
105.7556546249
 10
171.0590905291
 20
106.3689948015
 10
171.0590905291
 20
107.0216991894
 10
171.2966560167
 20
107.6350393661
 10
171.7431311276
 20
108.135039448
 10
172.3446658593
 20
108.461391642
 10
173.0287064579
 20
108.5747317366
 10
173.7127470565
 20
108.461391642
 10
174.3142817881
 20
108.135039448
 10
174.7607578304
 20
107.6350393661
 10
174.9983214554
 20
107.0216991894
 10
174.9983214554
 20
106.3689948015
 10
174.7607578304
 20
105.7556546249
 10
174.3142817881
 20
105.2556545429
 10
173.7127470565
 20
104.929302349
 10
173.0287064579
 20
104.8159622543
 10
172.3446658593
 20
104.929302349
  0
LWPOLYLINE
  5
143
330
1F
100
AcDbEntity
  8
0
  6
HIDDEN
 62
     7
370
     0
100
AcDbPolyline
 90
       22
 70
   128
 43
0.0
 10
172.1736564082
 20
103.5420023792
 10
171.5191955459
 20
103.8769097023
 10
170.9988609668
 20
104.3782089792
 10
170.6588881802
 20
105.0013597079
 10
170.5294837025
 20
105.6909910359
 10
170.622145642
 20
106.3858256631
 10
170.9286411074
 20
107.0241252847
 10
171.4217372951
 20
107.5491742186
 10
172.0576192033
 20
107.9143197231
 10
172.7797862854
 20
108.0871163823
 10
173.5240713474
 20
108.0522113435
 10
174.2243411731
 20
107.8127049796
 10
174.8183731702
 20
107.3898789428
 10
175.2533864942
 20
106.8213037171
 10
175.4907266018
 20
106.1574988954
 10
175.5093046245
 20
105.4574469991
 10
175.3074702587
 20
104.783351063
 10
174.9031589147
 20
104.1951053731
 10
174.3322944981
 20
103.744980409
 10
173.6455996302
 20
103.4729727499
 10
172.9040917721
 20
103.4032483541
 10
172.1736564082
 20
103.5420023792
  0
LWPOLYLINE
  5
144
330
1F
100
AcDbEntity
  8
0
  6
HIDDEN
 62
     7
370
     0
100
AcDbPolyline
 90
       21
 70
   128
 43
0.0
 10
172.2420601886
 20
103.6571343385
 10
171.6126854312
 20
103.9849617474
 10
171.1219203439
 20
104.4795052104
 10
170.8178044078
 20
105.0923517861
 10
170.7301073488
 20
105.7635131248
 10
170.8674131673
 20
106.4272909381
 10
171.2162819472
 20
107.0187096439
 10
171.7425630209
 20
107.4798782312
 10
172.3947402802
 20
107.7656527005
 10
173.108975288
 20
107.8480607785
 10
173.8153527272
 20
107.7190362804
 10
174.4447274846
 20
107.3912070088
 10
174.9354925719
 20
106.8966644772
 10
175.239608508
 20
106.2838179015
 10
175.3273055669
 20
105.6126565628
 10
175.1899988171
 20
104.9488787495
 10
174.8411309686
 20
104.3574591123
 10
174.3148498949
 20
103.8962923877
 10
173.6626726356
 20
103.6105160557
 10
172.9484376278
 20
103.528108909
 10
172.2420601886
 20
103.6571343385
  0
LWPOLYLINE
  5
145
330
1F
100
AcDbEntity
  8
0
  6
HIDDEN
 62
     7
370
     0
100
AcDbPolyline
 90
       22
 70
   128
 43
0.0
 10
172.1736564082
 20
103.7779976569
 10
171.5191955459
 20
104.1129031174
 10
170.9988609668
 20
104.614204257
 10
170.6588881802
 20
105.2373540543
 10
170.5294837025
 20
105.926984451
 10
170.622145642
 20
106.6218200095
 10
170.9286411074
 20
107.2601196312
 10
171.4217372951
 20
107.7851685651
 10
172.0576192033
 20
108.1503140696
 10
172.7797862854
 20
108.3231107287
 10
173.5240713474
 20
108.2882047586
 10
174.2243411731
 20
108.0486983948
 10
174.8183731702
 20
107.625872358
 10
175.2533864942
 20
107.0572971322
 10
175.4907266018
 20
106.3934923105
 10
175.5093046245
 20
105.6934404142
 10
175.3074702587
 20
105.0193444781
 10
174.9031589147
 20
104.4310987882
 10
174.3322944981
 20
103.9809756868
 10
173.6455996302
 20
103.7089661651
 10
172.9040917721
 20
103.6392417692
 10
172.1736564082
 20
103.7779976569
  0
LWPOLYLINE
  5
146
330
1F
100
AcDbEntity
  8
0
  6
HIDDEN
 62
     7
370
     0
100
AcDbPolyline
 90
       21
 70
   128
 43
0.0
 10
172.2420601886
 20
103.8931277536
 10
171.6126854312
 20
104.2209570252
 10
171.1219203439
 20
104.7154986255
 10
170.8178044078
 20
105.3283452012
 10
170.7301073488
 20
105.9995065399
 10
170.8674131673
 20
106.6632843532
 10
171.2162819472
 20
107.2547039904
 10
171.7425630209
 20
107.7158716463
 10
172.3947402802
 20
108.001647047
 10
173.108975288
 20
108.084055125
 10
173.8153527272
 20
107.9550296955
 10
174.4447274846
 20
107.6272004239
 10
174.9354925719
 20
107.1326588236
 10
175.239608508
 20
106.5198122479
 10
175.3273055669
 20
105.8486509092
 10
175.1899988171
 20
105.1848730959
 10
174.8411309686
 20
104.59345439
 10
174.3148498949
 20
104.1322858028
 10
173.6626726356
 20
103.8465113335
 10
172.9484376278
 20
103.7641023241
 10
172.2420601886
 20
103.8931277536
  0
LWPOLYLINE
  5
147
330
1F
100
AcDbEntity
  8
0
  6
HIDDEN
 62
     7
370
     0
100
AcDbPolyline
 90
       22
 70
   128
 43
0.0
 10
172.1736564082
 20
104.013991072
 10
171.5191955459
 20
104.3488983952
 10
170.9988609668
 20
104.8501976721
 10
170.6588881802
 20
105.4733474694
 10
170.5294837025
 20
106.1629787974
 10
170.622145642
 20
106.8578134246
 10
170.9286411074
 20
107.4961130463
 10
171.4217372951
 20
108.0211619802
 10
172.0576192033
 20
108.3863074847
 10
172.7797862854
 20
108.5591041438
 10
173.5240713474
 20
108.5241991051
 10
174.2243411731
 20
108.2846927412
 10
174.8183731702
 20
107.8618667044
 10
175.2533864942
 20
107.2932914786
 10
175.4907266018
 20
106.629486657
 10
175.5093046245
 20
105.9294347607
 10
175.3074702587
 20
105.2553378932
 10
174.9031589147
 20
104.667094066
 10
174.3322944981
 20
104.2169691019
 10
173.6455996302
 20
103.9449595802
 10
172.9040917721
 20
103.8752351843
 10
172.1736564082
 20
104.013991072
  0
LWPOLYLINE
  5
148
330
1F
100
AcDbEntity
  8
0
  6
HIDDEN
 62
     7
370
     0
100
AcDbPolyline
 90
       21
 70
   128
 43
0.0
 10
172.2420601886
 20
104.1291211687
 10
171.6126854312
 20
104.4569504403
 10
171.1219203439
 20
104.9514929719
 10
170.8178044078
 20
105.5643395476
 10
170.7301073488
 20
106.2355008863
 10
170.8674131673
 20
106.8992786996
 10
171.2162819472
 20
107.4906974055
 10
171.7425630209
 20
107.9518659927
 10
172.3947402802
 20
108.2376404621
 10
173.108975288
 20
108.3200494714
 10
173.8153527272
 20
108.1910240419
 10
174.4447274846
 20
107.8631947704
 10
174.9354925719
 20
107.3686522387
 10
175.239608508
 20
106.755805663
 10
175.3273055669
 20
106.0846443244
 10
175.1899988171
 20
105.420866511
 10
174.8411309686
 20
104.8294478052
 10
174.3148498949
 20
104.3682792179
 10
173.6626726356
 20
104.0825047486
 10
172.9484376278
 20
104.0000957392
 10
172.2420601886
 20
104.1291211687
  0
LWPOLYLINE
  5
149
330
1F
100
AcDbEntity
  8
0
  6
HIDDEN
 62
     7
370
     0
100
AcDbPolyline
 90
       22
 70
   128
 43
0.0
 10
172.1736564082
 20
104.2499844872
 10
171.5191955459
 20
104.5848918103
 10
170.9988609668
 20
105.0861910872
 10
170.6588881802
 20
105.7093418159
 10
170.5294837025
 20
106.3989722125
 10
170.622145642
 20
107.0938077711
 10
170.9286411074
 20
107.7321073927
 10
171.4217372951
 20
108.2571563266
 10
172.0576192033
 20
108.6223018311
 10
172.7797862854
 20
108.7950984903
 10
173.5240713474
 20
108.7601925202
 10
174.2243411731
 20
108.5206861563
 10
174.8183731702
 20
108.0978601195
 10
175.2533864942
 20
107.5292848937
 10
175.4907266018
 20
106.8654800721
 10
175.5093046245
 20
106.1654281758
 10
175.3074702587
 20
105.4913322397
 10
174.9031589147
 20
104.9030874811
 10
174.3322944981
 20
104.452962517
 10
173.6455996302
 20
104.1809529953
 10
172.9040917721
 20
104.1112285994
 10
172.1736564082
 20
104.2499844872
  0
LWPOLYLINE
  5
14A
330
1F
100
AcDbEntity
  8
0
  6
HIDDEN
 62
     7
370
     0
100
AcDbPolyline
 90
       21
 70
   128
 43
0.0
 10
172.2420601886
 20
104.3651145838
 10
171.6126854312
 20
104.6929438554
 10
171.1219203439
 20
105.1874863871
 10
170.8178044078
 20
105.8003329627
 10
170.7301073488
 20
106.4714943014
 10
170.8674131673
 20
107.1352721147
 10
171.2162819472
 20
107.7266917519
 10
171.7425630209
 20
108.1878594078
 10
172.3947402802
 20
108.4736348085
 10
173.108975288
 20
108.5560428865
 10
173.8153527272
 20
108.4270174571
 10
174.4447274846
 20
108.0991891168
 10
174.9354925719
 20
107.6046465852
 10
175.239608508
 20
106.9918000095
 10
175.3273055669
 20
106.3206386708
 10
175.1899988171
 20
105.6568608575
 10
174.8411309686
 20
105.0654412203
 10
174.3148498949
 20
104.6042726331
 10
173.6626726356
 20
104.3184981637
 10
172.9484376278
 20
104.2360891544
 10
172.2420601886
 20
104.3651145838
  0
LWPOLYLINE
  5
14B
330
1F
100
AcDbEntity
  8
0
  6
HIDDEN
 62
     7
370
     0
100
AcDbPolyline
 90
       22
 70
   128
 43
0.0
 10
172.1736564082
 20
104.8485194288
 10
171.5191955459
 20
105.183426752
 10
170.9988609668
 20
105.6847269602
 10
170.6588881802
 20
106.3078767576
 10
170.5294837025
 20
106.9975080855
 10
170.622145642
 20
107.6923427127
 10
170.9286411074
 20
108.3306423344
 10
171.4217372951
 20
108.8556912683
 10
172.0576192033
 20
109.2208367728
 10
172.7797862854
 20
109.393633432
 10
173.5240713474
 20
109.3587274619
 10
174.2243411731
 20
109.1192220293
 10
174.8183731702
 20
108.6963959925
 10
175.2533864942
 20
108.1278198354
 10
175.4907266018
 20
107.4640159451
 10
175.5093046245
 20
106.7639640488
 10
175.3074702587
 20
106.0898671813
 10
174.9031589147
 20
105.5016224228
 10
174.3322944981
 20
105.0514974587
 10
173.6455996302
 20
104.779487937
 10
172.9040917721
 20
104.7097654037
 10
172.1736564082
 20
104.8485194288
  0
LWPOLYLINE
  5
14C
330
1F
100
AcDbEntity
  8
0
  6
HIDDEN
 62
     7
370
     0
100
AcDbPolyline
 90
       19
 70
   128
 43
0.0
 10
172.3513751071
 20
105.4099579297
 10
171.7557393726
 20
105.733109168
 10
171.3136424091
 20
106.2282049053
 10
171.0784080219
 20
106.8355306007
 10
171.0784080219
 20
107.4818330772
 10
171.3136424091
 20
108.0891578414
 10
171.7557393726
 20
108.58425451
 10
172.3513751071
 20
108.9074057482
 10
173.0287064579
 20
109.0196347751
 10
173.7060378086
 20
108.9074057482
 10
174.3016735431
 20
108.58425451
 10
174.7437705067
 20
108.0891578414
 10
174.9790039626
 20
107.4818330772
 10
174.9790039626
 20
106.8355306007
 10
174.7437705067
 20
106.2282049053
 10
174.3016735431
 20
105.733109168
 10
173.7060378086
 20
105.4099579297
 10
173.0287064579
 20
105.2977289029
 10
172.3513751071
 20
105.4099579297
  0
LWPOLYLINE
  5
14D
330
1F
100
AcDbEntity
  8
0
  6
HIDDEN
 62
     7
370
     0
100
AcDbPolyline
 90
       19
 70
   128
 43
0.0
 10
173.7060378086
 20
135.7183647298
 10
173.0287064579
 20
135.8305937566
 10
172.3513751071
 20
135.7183647298
 10
171.7557393726
 20
135.3952134915
 10
171.3136424091
 20
134.9001177542
 10
171.0784080219
 20
134.2927920588
 10
171.0784080219
 20
133.6464895822
 10
171.3136424091
 20
133.0391648181
 10
171.7557393726
 20
132.5440681495
 10
172.3513751071
 20
132.2209169112
 10
173.0287064579
 20
132.1086878844
 10
173.7060378086
 20
132.2209169112
 10
174.3016735431
 20
132.5440681495
 10
174.7437705067
 20
133.0391648181
 10
174.9790039626
 20
133.6464895822
 10
174.9790039626
 20
134.2927920588
 10
174.7437705067
 20
134.9001177542
 10
174.3016735431
 20
135.3952134915
 10
173.7060378086
 20
135.7183647298
  0
LWPOLYLINE
  5
14E
330
1F
100
AcDbEntity
  8
0
  6
HIDDEN
 62
     7
370
     0
100
AcDbPolyline
 90
       22
 70
   128
 43
0.0
 10
173.8837565076
 20
136.2798032306
 10
173.1533211437
 20
136.4185572557
 10
172.4118132856
 20
136.3488347225
 10
171.7251184177
 20
136.0768252008
 10
171.1542530697
 20
135.6267002367
 10
170.7499417257
 20
135.0384554781
 10
170.5481082913
 20
134.3643586107
 10
170.5666872453
 20
133.6643067144
 10
170.8040264216
 20
133.0005028241
 10
171.2390388143
 20
132.431926667
 10
171.8330717426
 20
132.0091006302
 10
172.5333406371
 20
131.7695951976
 10
173.277625699
 20
131.7346892275
 10
173.9997937125
 20
131.9074858867
 10
174.6356756207
 20
132.2726313912
 10
175.1287718084
 20
132.7976803251
 10
175.4352663424
 20
133.4359799467
 10
175.5279292133
 20
134.1308145739
 10
175.3985238042
 20
134.8204459019
 10
175.0585519489
 20
135.4435956992
 10
174.5382183012
 20
135.9448959075
 10
173.8837565076
 20
136.2798032306
  0
LWPOLYLINE
  5
14F
330
1F
100
AcDbEntity
  8
0
  6
HIDDEN
 62
     7
370
     0
100
AcDbPolyline
 90
       22
 70
   128
 43
0.0
 10
173.8837565076
 20
136.8783381723
 10
173.1533211437
 20
137.0170940601
 10
172.4118132856
 20
136.9473696642
 10
171.7251184177
 20
136.6753601425
 10
171.1542530697
 20
136.2252351783
 10
170.7499417257
 20
135.6369904198
 10
170.5481082913
 20
134.9628944837
 10
170.5666872453
 20
134.2628425874
 10
170.8040264216
 20
133.5990377657
 10
171.2390388143
 20
133.03046254
 10
171.8330717426
 20
132.6076365031
 10
172.5333406371
 20
132.3681301393
 10
173.277625699
 20
132.3332241692
 10
173.9997937125
 20
132.5060208284
 10
174.6356756207
 20
132.8711663328
 10
175.1287718084
 20
133.3962152668
 10
175.4352663424
 20
134.0345148884
 10
175.5279292133
 20
134.7293504469
 10
175.3985238042
 20
135.4189808436
 10
175.0585519489
 20
136.0421315722
 10
174.5382183012
 20
136.5434308492
 10
173.8837565076
 20
136.8783381723
  0
LWPOLYLINE
  5
150
330
1F
100
AcDbEntity
  8
0
  6
HIDDEN
 62
     7
370
     0
100
AcDbPolyline
 90
       19
 70
   128
 43
0.0
 10
173.7127470565
 20
137.6167968802
 10
173.0287064579
 20
137.7301369749
 10
172.3446658593
 20
137.6167968802
 10
171.7431311276
 20
137.2904446863
 10
171.2966560167
 20
136.790443673
 10
171.0590905291
 20
136.1771034964
 10
171.0590905291
 20
135.5244000398
 10
171.2966560167
 20
134.9110589318
 10
171.7431311276
 20
134.4110588499
 10
172.3446658593
 20
134.0847075872
 10
173.0287064579
 20
133.9713665612
 10
173.7127470565
 20
134.0847075872
 10
174.3142817881
 20
134.4110588499
 10
174.7607578304
 20
134.9110589318
 10
174.9983214554
 20
135.5244000398
 10
174.9983214554
 20
136.1771034964
 10
174.7607578304
 20
136.790443673
 10
174.3142817881
 20
137.2904446863
 10
173.7127470565
 20
137.6167968802
  0
LWPOLYLINE
  5
151
330
1F
100
AcDbEntity
  8
0
  6
HIDDEN
 62
     7
370
     0
100
AcDbPolyline
 90
       19
 70
   128
 43
0.0
 10
173.7127470565
 20
136.1990203105
 10
173.0287064579
 20
136.3123604052
 10
172.3446658593
 20
136.1990203105
 10
171.7431311276
 20
135.8726681166
 10
171.2966560167
 20
135.3726680346
 10
171.0590905291
 20
134.759327858
 10
171.0590905291
 20
134.1066234701
 10
171.2966560167
 20
133.4932832934
 10
171.7431311276
 20
132.9932832115
 10
172.3446658593
 20
132.6669310175
 10
173.0287064579
 20
132.5535909228
 10
173.7127470565
 20
132.6669310175
 10
174.3142817881
 20
132.9932832115
 10
174.7607578304
 20
133.4932832934
 10
174.9983214554
 20
134.1066234701
 10
174.9983214554
 20
134.759327858
 10
174.7607578304
 20
135.3726680346
 10
174.3142817881
 20
135.8726681166
 10
173.7127470565
 20
136.1990203105
  0
LWPOLYLINE
  5
152
330
1F
100
AcDbEntity
  8
0
  6
HIDDEN
 62
     7
370
     0
100
AcDbPolyline
 90
       22
 70
   128
 43
0.0
 10
173.8837565076
 20
137.1143315874
 10
173.1533211437
 20
137.2530874752
 10
172.4118132856
 20
137.1833630793
 10
171.7251184177
 20
136.9113535576
 10
171.1542530697
 20
136.4612285935
 10
170.7499417257
 20
135.8729847662
 10
170.5481082913
 20
135.1988878988
 10
170.5666872453
 20
134.4988360025
 10
170.8040264216
 20
133.8350311808
 10
171.2390388143
 20
133.2664559551
 10
171.8330717426
 20
132.8436299183
 10
172.5333406371
 20
132.6041235544
 10
173.277625699
 20
132.5692185156
 10
173.9997937125
 20
132.7420151748
 10
174.6356756207
 20
133.1071606793
 10
175.1287718084
 20
133.6322096132
 10
175.4352663424
 20
134.2705092348
 10
175.5279292133
 20
134.965343862
 10
175.3985238042
 20
135.65497519
 10
175.0585519489
 20
136.2781249874
 10
174.5382183012
 20
136.7794242643
 10
173.8837565076
 20
137.1143315874
  0
LWPOLYLINE
  5
153
330
1F
100
AcDbEntity
  8
0
  6
HIDDEN
 62
     7
370
     0
100
AcDbPolyline
 90
       21
 70
   128
 43
0.0
 10
173.8153527272
 20
136.7632080756
 10
173.108975288
 20
136.8922335051
 10
172.3947402802
 20
136.8098244958
 10
171.7425630209
 20
136.5240500264
 10
171.2162819472
 20
136.0628814392
 10
170.8674131673
 20
135.471461802
 10
170.7301073488
 20
134.8076839887
 10
170.8178044078
 20
134.13652265
 10
171.1219203439
 20
133.5236760743
 10
171.6126854312
 20
133.0291335426
 10
172.2420601886
 20
132.7013052024
 10
172.9484376278
 20
132.5722797729
 10
173.6626726356
 20
132.6546878509
 10
174.3148498949
 20
132.9404632516
 10
174.8411309686
 20
133.4016309075
 10
175.1899988171
 20
133.9930505447
 10
175.3273055669
 20
134.656828358
 10
175.239608508
 20
135.3279896967
 10
174.9354925719
 20
135.9408362724
 10
174.4447274846
 20
136.4353788041
 10
173.8153527272
 20
136.7632080756
  0
LWPOLYLINE
  5
154
330
1F
100
AcDbEntity
  8
0
  6
HIDDEN
 62
     7
370
     0
100
AcDbPolyline
 90
       22
 70
   128
 43
0.0
 10
173.8837565076
 20
137.3503250025
 10
173.1533211437
 20
137.4890808903
 10
172.4118132856
 20
137.4193564944
 10
171.7251184177
 20
137.1473469727
 10
171.1542530697
 20
136.6972238712
 10
170.7499417257
 20
136.1089781814
 10
170.5481082913
 20
135.4348822452
 10
170.5666872453
 20
134.734830349
 10
170.8040264216
 20
134.0710255273
 10
171.2390388143
 20
133.5024503015
 10
171.8330717426
 20
133.0796242647
 10
172.5333406371
 20
132.8401179008
 10
173.277625699
 20
132.8052119307
 10
173.9997937125
 20
132.9780085899
 10
174.6356756207
 20
133.3431540944
 10
175.1287718084
 20
133.8682030283
 10
175.4352663424
 20
134.50650265
 10
175.5279292133
 20
135.2013382085
 10
175.3985238042
 20
135.8909686051
 10
175.0585519489
 20
136.5141184025
 10
174.5382183012
 20
137.0154195421
 10
173.8837565076
 20
137.3503250025
  0
LWPOLYLINE
  5
155
330
1F
100
AcDbEntity
  8
0
  6
HIDDEN
 62
     7
370
     0
100
AcDbPolyline
 90
       21
 70
   128
 43
0.0
 10
173.8153527272
 20
136.9992014907
 10
173.108975288
 20
137.1282269202
 10
172.3947402802
 20
137.0458179109
 10
171.7425630209
 20
136.7600434415
 10
171.2162819472
 20
136.2988748543
 10
170.8674131673
 20
135.7074561484
 10
170.7301073488
 20
135.0436783351
 10
170.8178044078
 20
134.3725169964
 10
171.1219203439
 20
133.7596704208
 10
171.6126854312
 20
133.2651278891
 10
172.2420601886
 20
132.9372986175
 10
172.9484376278
 20
132.808273188
 10
173.6626726356
 20
132.8906821974
 10
174.3148498949
 20
133.1764566668
 10
174.8411309686
 20
133.637625254
 10
175.1899988171
 20
134.2290439598
 10
175.3273055669
 20
134.8928217732
 10
175.239608508
 20
135.5639831118
 10
174.9354925719
 20
136.1768296875
 10
174.4447274846
 20
136.6713722192
 10
173.8153527272
 20
136.9992014907
  0
LWPOLYLINE
  5
156
330
1F
100
AcDbEntity
  8
0
  6
HIDDEN
 62
     7
370
     0
100
AcDbPolyline
 90
       22
 70
   128
 43
0.0
 10
173.8837565076
 20
137.5863202803
 10
173.1533211437
 20
137.7250743054
 10
172.4118132856
 20
137.6553499095
 10
171.7251184177
 20
137.3833422505
 10
171.1542530697
 20
136.9332172863
 10
170.7499417257
 20
136.3449715965
 10
170.5481082913
 20
135.6708756603
 10
170.5666872453
 20
134.9708237641
 10
170.8040264216
 20
134.3070189424
 10
171.2390388143
 20
133.7384437166
 10
171.8330717426
 20
133.3156176798
 10
172.5333406371
 20
133.076111316
 10
173.277625699
 20
133.0412062772
 10
173.9997937125
 20
133.2140029364
 10
174.6356756207
 20
133.5791484408
 10
175.1287718084
 20
134.1041973747
 10
175.4352663424
 20
134.7424969964
 10
175.5279292133
 20
135.4373316236
 10
175.3985238042
 20
136.1269629516
 10
175.0585519489
 20
136.7501136802
 10
174.5382183012
 20
137.2514129572
 10
173.8837565076
 20
137.5863202803
  0
LWPOLYLINE
  5
157
330
1F
100
AcDbEntity
  8
0
  6
HIDDEN
 62
     7
370
     0
100
AcDbPolyline
 90
       21
 70
   128
 43
0.0
 10
173.8153527272
 20
137.2351949059
 10
173.108975288
 20
137.3642203354
 10
172.3947402802
 20
137.281811326
 10
171.7425630209
 20
136.9960368566
 10
171.2162819472
 20
136.5348682694
 10
170.8674131673
 20
135.9434495636
 10
170.7301073488
 20
135.2796717502
 10
170.8178044078
 20
134.6085104115
 10
171.1219203439
 20
133.9956638359
 10
171.6126854312
 20
133.5011222355
 10
172.2420601886
 20
133.173292964
 10
172.9484376278
 20
133.0442675345
 10
173.6626726356
 20
133.1266756125
 10
174.3148498949
 20
133.4124510132
 10
174.8411309686
 20
133.8736186691
 10
175.1899988171
 20
134.4650383063
 10
175.3273055669
 20
135.1288161196
 10
175.239608508
 20
135.7999774583
 10
174.9354925719
 20
136.412824034
 10
174.4447274846
 20
136.9073656343
 10
173.8153527272
 20
137.2351949059
  0
LWPOLYLINE
  5
158
330
1F
100
AcDbEntity
  8
0
  6
HIDDEN
 62
     7
370
     0
100
AcDbPolyline
 90
       22
 70
   128
 43
0.0
 10
173.8837565076
 20
137.8223136954
 10
173.1533211437
 20
137.9610695832
 10
172.4118132856
 20
137.8913451873
 10
171.7251184177
 20
137.6193356656
 10
171.1542530697
 20
137.1692107015
 10
170.7499417257
 20
136.5809668742
 10
170.5481082913
 20
135.9068700068
 10
170.5666872453
 20
135.2068181105
 10
170.8040264216
 20
134.5430132888
 10
171.2390388143
 20
133.9744380631
 10
171.8330717426
 20
133.5516120263
 10
172.5333406371
 20
133.3121056624
 10
173.277625699
 20
133.2771996923
 10
173.9997937125
 20
133.4499963515
 10
174.6356756207
 20
133.8151418559
 10
175.1287718084
 20
134.3401907899
 10
175.4352663424
 20
134.9784904115
 10
175.5279292133
 20
135.67332597
 10
175.3985238042
 20
136.362957298
 10
175.0585519489
 20
136.9861070953
 10
174.5382183012
 20
137.4874063723
 10
173.8837565076
 20
137.8223136954
  0
LWPOLYLINE
  5
159
330
1F
100
AcDbEntity
  8
0
  6
HIDDEN
 62
     7
370
     0
100
AcDbPolyline
 90
       21
 70
   128
 43
0.0
 10
173.8153527272
 20
137.471188321
 10
173.108975288
 20
137.6002137505
 10
172.3947402802
 20
137.5178066038
 10
171.7425630209
 20
137.2320302718
 10
171.2162819472
 20
136.7708635472
 10
170.8674131673
 20
136.17944391
 10
170.7301073488
 20
135.5156660967
 10
170.8178044078
 20
134.844504758
 10
171.1219203439
 20
134.2316581823
 10
171.6126854312
 20
133.7371156506
 10
172.2420601886
 20
133.4092863791
 10
172.9484376278
 20
133.2802618809
 10
173.6626726356
 20
133.3626699589
 10
174.3148498949
 20
133.6484444283
 10
174.8411309686
 20
134.1096130155
 10
175.1899988171
 20
134.7010317214
 10
175.3273055669
 20
135.3648095347
 10
175.239608508
 20
136.0359708734
 10
174.9354925719
 20
136.6488174491
 10
174.4447274846
 20
137.1433609121
 10
173.8153527272
 20
137.471188321
  0
LWPOLYLINE
  5
15A
330
1F
100
AcDbEntity
  8
0
  6
HIDDEN
 62
     7
370
     0
100
AcDbPolyline
 90
       22
 70
   128
 43
0.0
 10
173.8837565076
 20
138.0104240917
 10
173.1533211437
 20
138.1491799794
 10
172.4118132856
 20
138.0794555836
 10
171.7251184177
 20
137.8074460618
 10
171.1542530697
 20
137.3573229604
 10
170.7499417257
 20
136.7690772705
 10
170.5481082913
 20
136.0949813344
 10
170.5666872453
 20
135.3949294381
 10
170.8040264216
 20
134.7311246164
 10
171.2390388143
 20
134.1625484593
 10
171.8330717426
 20
133.7397233539
 10
172.5333406371
 20
133.50021699
 10
173.277625699
 20
133.4653110199
 10
173.9997937125
 20
133.6381076791
 10
174.6356756207
 20
134.0032531835
 10
175.1287718084
 20
134.5283021175
 10
175.4352663424
 20
135.1666017391
 10
175.5279292133
 20
135.8614363663
 10
175.3985238042
 20
136.5510676943
 10
175.0585519489
 20
137.1742174916
 10
174.5382183012
 20
137.6755167686
 10
173.8837565076
 20
138.0104240917
  0
LWPOLYLINE
  5
15B
330
1F
100
AcDbEntity
  8
0
  6
HIDDEN
 62
     7
370
     0
100
AcDbPolyline
 90
       21
 70
   128
 43
0.0
 10
173.8358734888
 20
137.934683352
 10
173.1110689011
 20
138.0670745813
 10
172.3782018539
 20
137.9825179421
 10
171.7090111938
 20
137.6892873042
 10
171.1690005627
 20
137.2160878919
 10
170.81103183
 20
136.6092418276
 10
170.6701441449
 20
135.9281470023
 10
170.760128532
 20
135.2394777306
 10
171.0721774739
 20
134.6106440716
 10
171.5757454526
 20
134.1031999283
 10
172.2215384957
 20
133.7668192528
 10
172.9463440147
 20
133.6344280236
 10
173.6792101305
 20
133.7189855941
 10
174.348401722
 20
134.012216232
 10
174.8884123531
 20
134.4854147129
 10
175.2463810858
 20
135.0922626399
 10
175.3872678396
 20
135.7733556025
 10
175.2972834524
 20
136.4620258056
 10
174.9852345106
 20
137.0908603959
 10
174.4816665318
 20
137.5983026765
 10
173.8358734888
 20
137.934683352
  0
LWPOLYLINE
  5
15C
330
1F
100
AcDbEntity
  8
0
  6
HIDDEN
 62
     7
370
     0
100
AcDbPolyline
 90
       21
 70
   128
 43
0.0
 10
164.4291806747
 20
104.2655357115
 10
164.8130122353
 20
104.4266191267
 10
165.1123109054
 20
104.8062522851
 10
165.2977791396
 20
105.3672763474
 10
165.351262201
 20
106.0547712214
 10
165.2675246601
 20
106.8014423318
 10
165.0547635522
 20
107.534199483
 10
164.733805113
 20
108.1813150041
 10
164.3360670437
 20
108.6794459216
 10
163.9004828189
 20
108.9798309796
 10
163.4696902488
 20
109.0530664616
 10
163.0858586882
 20
108.8919830464
 10
162.7865604837
 20
108.512349888
 10
162.6010920167
 20
107.9513267569
 10
162.5476089553
 20
107.2638318829
 10
162.6313464962
 20
106.5171607726
 10
162.8441078369
 20
105.7844036214
 10
163.1650662762
 20
105.137287169
 10
163.5628043455
 20
104.6391562514
 10
163.9983885702
 20
104.3387711935
 10
164.4291806747
 20
104.2655357115
  0
LWPOLYLINE
  5
15D
330
1F
100
AcDbEntity
  8
0
  6
HIDDEN
 62
     7
370
     0
100
AcDbPolyline
 90
       24
 70
   128
 43
0.0
 10
164.8002037559
 20
103.7855711721
 10
165.2146292631
 20
103.9415099614
 10
165.5546705019
 20
104.3036733709
 10
165.795108654
 20
104.8452001952
 10
165.9181107548
 20
105.5259290107
 10
165.9145549652
 20
106.2953728207
 10
165.7847043839
 20
107.0964648344
 10
165.5381898176
 20
107.8697922595
 10
165.1932940599
 20
108.5580014579
 10
164.7755968165
 20
109.1100503646
 10
164.3160757389
 20
109.4849971079
 10
163.8488125768
 20
109.6550314643
 10
163.4084613774
 20
109.6075451888
 10
163.0276812953
 20
109.3460577496
 10
162.7347130575
 20
108.8899648704
 10
162.5512844198
 20
108.2730912559
 10
162.4909999095
 20
107.5411881276
 10
162.5583301079
 20
106.7485376217
 10
162.7482817289
 20
105.9539257504
 10
163.0467668888
 20
105.2162875377
 10
163.4316485156
 20
104.5903288715
 10
163.8743811068
 20
104.1224733882
 10
164.3421299536
 20
103.8474203043
 10
164.8002037559
 20
103.7855711721
  0
LWPOLYLINE
  5
15E
330
1F
100
AcDbEntity
  8
0
  6
HIDDEN
 62
     7
370
     0
100
AcDbPolyline
 90
       24
 70
   128
 43
0.0
 10
167.8145675701
 20
104.5074653767
 10
168.2289940086
 20
104.663404166
 10
168.5690347817
 20
105.0255685069
 10
168.8094724682
 20
105.5670953311
 10
168.9324750346
 20
106.2478241466
 10
168.928919245
 20
107.0172679566
 10
168.7990686637
 20
107.8183599703
 10
168.5525540975
 20
108.5916883268
 10
168.2076583397
 20
109.2798965939
 10
167.7899610963
 20
109.8319464319
 10
167.3304400188
 20
110.2068922438
 10
166.8631768566
 20
110.3769266002
 10
166.4228256573
 20
110.3294403248
 10
166.0420455751
 20
110.0679538168
 10
165.7490771045
 20
109.6118600063
 10
165.5656489324
 20
108.9949863918
 10
165.5053639565
 20
108.2630832635
 10
165.5726943877
 20
107.4704327576
 10
165.7626460087
 20
106.6758218177
 10
166.0611311686
 20
105.9381826736
 10
166.4460127954
 20
105.3122230761
 10
166.8887453866
 20
104.8443675928
 10
167.3564937678
 20
104.5693163715
 10
167.8145675701
 20
104.5074653767
  0
LINE
  5
15F
330
1F
100
AcDbEntity
  8
0
  6
HIDDEN
 62
     7
370
     0
100
AcDbLine
 10
164.5880219307
 20
107.5941906266
 30
0.0
 11
163.609651268
 21
108.3547105037
 31
0.0
  0
LINE
  5
160
330
1F
100
AcDbEntity
  8
0
  6
HIDDEN
 62
     7
370
     0
100
AcDbLine
 10
162.9710652646
 20
107.4198209636
 30
0.0
 11
163.609651268
 21
108.3547105037
 31
0.0
  0
LINE
  5
161
330
1F
100
AcDbEntity
  8
0
  6
HIDDEN
 62
     7
370
     0
100
AcDbLine
 10
163.3108494584
 20
105.7244115465
 30
0.0
 11
162.9710652646
 21
107.4198209636
 31
0.0
  0
LINE
  5
162
330
1F
100
AcDbEntity
  8
0
  6
HIDDEN
 62
     7
370
     0
100
AcDbLine
 10
163.3108494584
 20
105.7244115465
 30
0.0
 11
164.2892201212
 21
104.9638926007
 31
0.0
  0
LINE
  5
163
330
1F
100
AcDbEntity
  8
0
  6
HIDDEN
 62
     7
370
     0
100
AcDbLine
 10
164.9278061245
 20
105.8987821408
 30
0.0
 11
164.2892201212
 21
104.9638926007
 31
0.0
  0
LINE
  5
164
330
1F
100
AcDbEntity
  8
0
  6
HIDDEN
 62
     7
370
     0
100
AcDbLine
 10
164.9278061245
 20
105.8987821408
 30
0.0
 11
164.5880219307
 21
107.5941906266
 31
0.0
  0
LINE
  5
165
330
1F
100
AcDbEntity
  8
0
  6
HIDDEN
 62
     7
370
     0
100
AcDbLine
 10
166.2263259072
 20
107.9865400635
 30
0.0
 11
164.5880219307
 21
107.5941906266
 31
0.0
  0
LINE
  5
166
330
1F
100
AcDbEntity
  8
0
  6
HIDDEN
 62
     7
370
     0
100
AcDbLine
 10
166.5661105667
 20
106.2911315777
 30
0.0
 11
164.9278061245
 21
105.8987821408
 31
0.0
  0
LWPOLYLINE
  5
167
330
1F
100
AcDbEntity
  8
0
  6
HIDDEN
 62
     7
370
     0
100
AcDbPolyline
 90
       19
 70
   128
 43
0.0
 10
168.4375450727
 20
105.6824852668
 10
168.7825712156
 20
105.8403071903
 10
169.0386597779
 20
106.2152194746
 10
169.1749206525
 20
106.7620026834
 10
169.1749206525
 20
107.41470614
 10
169.0386597779
 20
108.0946051471
 10
168.7825712156
 20
108.7196920954
 10
168.4375450727
 20
109.2145736285
 10
168.0451956358
 20
109.5195603512
 10
167.652846199
 20
109.5978640907
 10
167.3078200561
 20
109.4400421672
 10
167.0517324251
 20
109.0651298829
 10
166.9154706192
 20
108.518346674
 10
166.9154706192
 20
107.8656432174
 10
167.0517324251
 20
107.1857451417
 10
167.3078200561
 20
106.5606572621
 10
167.652846199
 20
106.065775729
 10
168.0451956358
 20
105.7607899375
 10
168.4375450727
 20
105.6824852668
  0
LINE
  5
168
330
1F
100
AcDbEntity
  8
0
  6
HIDDEN
 62
     7
370
     0
100
AcDbLine
 10
164.9491539006
 20
106.1167609833
 30
0.0
 11
165.9275240977
 21
105.3562420376
 31
0.0
  0
LINE
  5
169
330
1F
100
AcDbEntity
  8
0
  6
HIDDEN
 62
     7
370
     0
100
AcDbLine
 10
164.9491539006
 20
106.1167609833
 30
0.0
 11
164.6093692411
 21
107.8121704005
 31
0.0
  0
LINE
  5
16A
330
1F
100
AcDbEntity
  8
0
  6
HIDDEN
 62
     7
370
     0
100
AcDbLine
 10
164.6093692411
 20
107.8121704005
 30
0.0
 11
165.2479552445
 21
108.7470599406
 31
0.0
  0
LINE
  5
16B
330
1F
100
AcDbEntity
  8
0
  6
HIDDEN
 62
     7
370
     0
100
AcDbLine
 10
166.5661105667
 20
106.2911315777
 30
0.0
 11
165.9275240977
 21
105.3562420376
 31
0.0
  0
LINE
  5
16C
330
1F
100
AcDbEntity
  8
0
  6
HIDDEN
 62
     7
370
     0
100
AcDbLine
 10
166.5661105667
 20
106.2911315777
 30
0.0
 11
166.2263259072
 21
107.9865400635
 31
0.0
  0
LINE
  5
16D
330
1F
100
AcDbEntity
  8
0
  6
HIDDEN
 62
     7
370
     0
100
AcDbLine
 10
166.2263259072
 20
107.9865400635
 30
0.0
 11
165.2479552445
 21
108.7470599406
 31
0.0
  0
LINE
  5
16E
330
1F
100
AcDbEntity
  8
0
  6
HIDDEN
 62
     7
370
     0
100
AcDbLine
 10
164.6093692411
 20
107.8121704005
 30
0.0
 11
162.9710652646
 21
107.4198209636
 31
0.0
  0
LINE
  5
16F
330
1F
100
AcDbEntity
  8
0
  6
HIDDEN
 62
     7
370
     0
100
AcDbLine
 10
165.2479552445
 20
108.7470599406
 30
0.0
 11
163.609651268
 21
108.3547105037
 31
0.0
  0
LINE
  5
170
330
1F
100
AcDbEntity
  8
0
  6
HIDDEN
 62
     7
370
     0
100
AcDbLine
 10
164.9491539006
 20
106.1167609833
 30
0.0
 11
163.3108494584
 21
105.7244115465
 31
0.0
  0
LINE
  5
171
330
1F
100
AcDbEntity
  8
0
  6
HIDDEN
 62
     7
370
     0
100
AcDbLine
 10
165.9275240977
 20
105.3562420376
 30
0.0
 11
164.2892201212
 21
104.9638926007
 31
0.0
  0
LWPOLYLINE
  5
172
330
1F
100
AcDbEntity
  8
0
  6
HIDDEN
 62
     7
370
     0
100
AcDbPolyline
 90
       24
 70
   128
 43
0.0
 10
166.6375197251
 20
136.0459211238
 10
167.0955930617
 20
136.4315678321
 10
167.5633423742
 20
136.6134644441
 10
168.0060744998
 20
136.5781207524
 10
168.3909565922
 20
136.3281556361
 10
168.6894417521
 20
135.8821098648
 10
168.8793933731
 20
135.2730649479
 10
168.9467233386
 20
134.5461900301
 10
168.8864388284
 20
133.7553937875
 10
168.7030101907
 20
132.9593271904
 10
168.4100421858
 20
132.2170295708
 10
168.0292616379
 20
131.5835551314
 10
167.5889109042
 20
131.1058844395
 10
167.1216477421
 20
130.8194450058
 10
166.6621266645
 20
130.7454802983
 10
166.2444294211
 20
130.8894758068
 10
165.8995336634
 20
131.2407529868
 10
165.6530190971
 20
131.7732580893
 10
165.5231685158
 20
132.4474974491
 10
165.5196127262
 20
133.2134674259
 10
165.642614827
 20
134.0143582739
 10
165.8830525134
 20
134.790772102
 10
166.2230942179
 20
135.4851252355
 10
166.6375197251
 20
136.0459211238
  0
LWPOLYLINE
  5
173
330
1F
100
AcDbEntity
  8
0
  6
HIDDEN
 62
     7
370
     0
100
AcDbPolyline
 90
       19
 70
   128
 43
0.0
 10
167.652846199
 20
135.0625469305
 10
168.0451956358
 20
135.3675327219
 10
168.4375450727
 20
135.4458373927
 10
168.7825712156
 20
135.2880154692
 10
169.0386597779
 20
134.9131031849
 10
169.1749206525
 20
134.366319976
 10
169.1749206525
 20
133.7136165194
 10
169.0386597779
 20
133.0337175124
 10
168.7825712156
 20
132.4086305641
 10
168.4375450727
 20
131.913749031
 10
168.0451956358
 20
131.6087623082
 10
167.652846199
 20
131.5304585688
 10
167.3078200561
 20
131.6882804923
 10
167.0517324251
 20
132.0631927766
 10
166.9154706192
 20
132.6099759855
 10
166.9154706192
 20
133.262679442
 10
167.0517324251
 20
133.9425775178
 10
167.3078200561
 20
134.5676653974
 10
167.652846199
 20
135.0625469305
  0
LWPOLYLINE
  5
174
330
1F
100
AcDbEntity
  8
0
  6
HIDDEN
 62
     7
370
     0
100
AcDbPolyline
 90
       24
 70
   128
 43
0.0
 10
163.6231554453
 20
136.7678162597
 10
164.0812292476
 20
137.1534638994
 10
164.5489780944
 20
137.3353605114
 10
164.9917106856
 20
137.3000149571
 10
165.3765923124
 20
137.0500517033
 10
165.6750774723
 20
136.6040059321
 10
165.8650290933
 20
135.9949600838
 10
165.9323595245
 20
135.2680851661
 10
165.8720745486
 20
134.4772889234
 10
165.6886463766
 20
133.6812223263
 10
165.395677906
 20
132.9389256381
 10
165.0148978238
 20
132.3054502674
 10
164.5745466244
 20
131.8277795755
 10
164.1072834623
 20
131.5413401418
 10
163.6477623847
 20
131.4673754342
 10
163.2300651413
 20
131.6113709428
 10
162.8851693836
 20
131.9626481228
 10
162.6386548173
 20
132.4951532252
 10
162.508804236
 20
133.1693935164
 10
162.5052484464
 20
133.9353625618
 10
162.6282505472
 20
134.7362534099
 10
162.8686886993
 20
135.512667238
 10
163.2087299381
 20
136.2070203714
 10
163.6231554453
 20
136.7678162597
  0
LINE
  5
175
330
1F
100
AcDbEntity
  8
0
  6
HIDDEN
 62
     7
370
     0
100
AcDbLine
 10
164.6093692411
 20
133.8814101137
 30
0.0
 11
165.2479552445
 21
135.4401414238
 31
0.0
  0
LINE
  5
176
330
1F
100
AcDbEntity
  8
0
  6
HIDDEN
 62
     7
370
     0
100
AcDbLine
 10
162.9710652646
 20
134.2737595506
 30
0.0
 11
163.609651268
 21
135.8324908607
 31
0.0
  0
LWPOLYLINE
  5
177
330
1F
100
AcDbEntity
  8
0
  6
HIDDEN
 62
     7
370
     0
100
AcDbPolyline
 90
       21
 70
   128
 43
0.0
 10
163.4696902488
 20
136.3941174887
 10
163.9004828189
 20
136.7417280518
 10
164.3360670437
 20
136.8668698661
 10
164.733805113
 20
136.7572941773
 10
165.0547635522
 20
136.423726096
 10
165.2675246601
 20
135.8988177918
 10
165.351262201
 20
135.2339512624
 10
165.2977791396
 20
134.4942073293
 10
165.1123109054
 20
133.7519981854
 10
164.8130122353
 20
133.079977236
 10
164.4291806747
 20
132.5439247258
 10
163.9983885702
 20
132.1963141628
 10
163.5628043455
 20
132.0711723484
 10
163.1650662762
 20
132.1807480373
 10
162.8441078369
 20
132.5143170498
 10
162.6313464962
 20
133.0392253541
 10
162.5476089553
 20
133.7040918835
 10
162.6010920167
 20
134.4438348852
 10
162.7865604837
 20
135.1860440292
 10
163.0858586882
 20
135.8580659099
 10
163.4696902488
 20
136.3941174887
  0
LINE
  5
178
330
1F
100
AcDbEntity
  8
0
  6
HIDDEN
 62
     7
370
     0
100
AcDbLine
 10
162.9710652646
 20
134.2737595506
 30
0.0
 11
163.3108494584
 21
132.9102902629
 31
0.0
  0
LINE
  5
179
330
1F
100
AcDbEntity
  8
0
  6
HIDDEN
 62
     7
370
     0
100
AcDbLine
 10
164.6093692411
 20
133.8814101137
 30
0.0
 11
164.9491539006
 21
132.517940826
 31
0.0
  0
LINE
  5
17A
330
1F
100
AcDbEntity
  8
0
  6
HIDDEN
 62
     7
370
     0
100
AcDbLine
 10
164.6093692411
 20
133.8814101137
 30
0.0
 11
162.9710652646
 21
134.2737595506
 31
0.0
  0
LINE
  5
17B
330
1F
100
AcDbEntity
  8
0
  6
HIDDEN
 62
     7
370
     0
100
AcDbLine
 10
164.5880219307
 20
136.027752883
 30
0.0
 11
163.609651268
 21
135.8324908607
 31
0.0
  0
LINE
  5
17C
330
1F
100
AcDbEntity
  8
0
  6
HIDDEN
 62
     7
370
     0
100
AcDbLine
 10
166.2263259072
 20
135.6354034461
 30
0.0
 11
165.2479552445
 21
135.4401414238
 31
0.0
  0
LINE
  5
17D
330
1F
100
AcDbEntity
  8
0
  6
HIDDEN
 62
     7
370
     0
100
AcDbLine
 10
165.2479552445
 20
135.4401414238
 30
0.0
 11
163.609651268
 21
135.8324908607
 31
0.0
  0
LINE
  5
17E
330
1F
100
AcDbEntity
  8
0
  6
HIDDEN
 62
     7
370
     0
100
AcDbLine
 10
165.9275240977
 20
132.713201917
 30
0.0
 11
164.2892201212
 21
133.1055513539
 31
0.0
  0
LINE
  5
17F
330
1F
100
AcDbEntity
  8
0
  6
HIDDEN
 62
     7
370
     0
100
AcDbLine
 10
164.9491539006
 20
132.517940826
 30
0.0
 11
163.3108494584
 21
132.9102902629
 31
0.0
  0
LINE
  5
180
330
1F
100
AcDbEntity
  8
0
  6
HIDDEN
 62
     7
370
     0
100
AcDbLine
 10
163.3108494584
 20
132.9102902629
 30
0.0
 11
164.2892201212
 21
133.1055513539
 31
0.0
  0
LINE
  5
181
330
1F
100
AcDbEntity
  8
0
  6
HIDDEN
 62
     7
370
     0
100
AcDbLine
 10
164.9491539006
 20
132.517940826
 30
0.0
 11
165.9275240977
 21
132.713201917
 31
0.0
  0
LINE
  5
182
330
1F
100
AcDbEntity
  8
0
  6
HIDDEN
 62
     7
370
     0
100
AcDbLine
 10
166.5661105667
 20
134.2719332271
 30
0.0
 11
164.9278061245
 21
134.6642826639
 31
0.0
  0
LINE
  5
183
330
1F
100
AcDbEntity
  8
0
  6
HIDDEN
 62
     7
370
     0
100
AcDbLine
 10
166.2263259072
 20
135.6354034461
 30
0.0
 11
164.5880219307
 21
136.027752883
 31
0.0
  0
LINE
  5
184
330
1F
100
AcDbEntity
  8
0
  6
HIDDEN
 62
     7
370
     0
100
AcDbLine
 10
164.5880219307
 20
136.027752883
 30
0.0
 11
164.9278061245
 21
134.6642826639
 31
0.0
  0
LINE
  5
185
330
1F
100
AcDbEntity
  8
0
  6
HIDDEN
 62
     7
370
     0
100
AcDbLine
 10
166.2263259072
 20
135.6354034461
 30
0.0
 11
166.5661105667
 21
134.2719332271
 31
0.0
  0
LINE
  5
186
330
1F
100
AcDbEntity
  8
0
  6
HIDDEN
 62
     7
370
     0
100
AcDbLine
 10
164.9278061245
 20
134.6642826639
 30
0.0
 11
164.2892201212
 21
133.1055513539
 31
0.0
  0
LINE
  5
187
330
1F
100
AcDbEntity
  8
0
  6
HIDDEN
 62
     7
370
     0
100
AcDbLine
 10
166.5661105667
 20
134.2719332271
 30
0.0
 11
165.9275240977
 21
132.713201917
 31
0.0
  0
LINE
  5
188
330
1F
100
AcDbEntity
  8
0
  6
HIDDEN
 62
     7
370
     0
100
AcDbLine
 10
175.5287059363
 20
103.8998481773
 30
0.0
 11
175.5287059363
 21
107.0560761683
 31
0.0
  0
LINE
  5
189
330
1F
100
AcDbEntity
  8
0
  6
HIDDEN
 62
     7
370
     0
100
AcDbLine
 10
170.5287060481
 20
107.0560761683
 30
0.0
 11
170.5287060481
 21
105.002416759
 31
0.0
  0
LINE
  5
18A
330
1F
100
AcDbEntity
  8
0
  6
HIDDEN
 62
     7
370
     0
100
AcDbLine
 10
162.0287062847
 20
103.1144843392
 30
0.0
 11
164.6481341463
 21
103.7417990111
 31
0.0
  0
LINE
  5
18B
330
1F
100
AcDbEntity
  8
0
  6
HIDDEN
 62
     7
370
     0
100
AcDbLine
 10
163.2507372428
 20
109.5768040933
 30
0.0
 11
162.0287062847
 21
109.2841452874
 31
0.0
  0
LINE
  5
18C
330
1F
100
AcDbEntity
  8
0
  6
HIDDEN
 62
     7
370
     0
100
AcDbLine
 10
164.7068568286
 20
104.6813116364
 30
0.0
 11
172.176006135
 21
106.470060996
 31
0.0
  0
LINE
  5
18D
330
1F
100
AcDbEntity
  8
0
  6
HIDDEN
 62
     7
370
     0
100
AcDbLine
 10
172.176006135
 20
110.7888235666
 30
0.0
 11
163.7286789496
 21
108.7658149146
 31
0.0
  0
LINE
  5
18E
330
1F
100
AcDbEntity
  8
0
  6
HIDDEN
 62
     7
370
     0
100
AcDbLine
 10
175.1287066158
 20
107.1058702611
 30
0.0
 11
175.1287066158
 21
119.1151600752
 31
0.0
  0
LINE
  5
18F
330
1F
100
AcDbEntity
  8
0
  6
HIDDEN
 62
     7
370
     0
100
AcDbLine
 10
170.9287062999
 20
107.4539204084
 30
0.0
 11
170.9287062999
 21
107.1058702611
 31
0.0
  0
LINE
  5
190
330
1F
100
AcDbEntity
  8
0
  6
HIDDEN
 62
     7
370
     0
100
AcDbLine
 10
170.9287062999
 20
119.1134430656
 30
0.0
 11
170.9287062999
 21
109.207544937
 31
0.0
  0
ARC
  5
191
330
1F
100
AcDbEntity
  8
0
  6
HIDDEN
 62
     7
370
     0
100
AcDbCircle
 10
58.4287063655
 20
106.8641613297
 30
0.0
 40
1.200000000000003
100
AcDbArc
 50
90.0
 51
180.0
  0
ARC
  5
192
330
1F
100
AcDbEntity
  8
0
  6
HIDDEN
 62
     7
370
     0
100
AcDbCircle
 10
58.4287063655
 20
134.2641613297
 30
0.0
 40
1.200000000000003
100
AcDbArc
 50
180.0
 51
270.0
  0
ARC
  5
193
330
1F
100
AcDbEntity
  8
0
  6
HIDDEN
 62
     7
370
     0
100
AcDbCircle
 10
68.1210787962
 20
108.2391613297
 30
0.0
 40
0.4000000000000199
100
AcDbArc
 50
255.0
 51
270.0
  0
ARC
  5
194
330
1F
100
AcDbEntity
  8
0
  6
HIDDEN
 62
     7
370
     0
100
AcDbCircle
 10
68.1210787962
 20
132.8891613297
 30
0.0
 40
0.400000000000006
100
AcDbArc
 50
90.0
 51
105.0
  0
LINE
  5
195
330
1F
100
AcDbEntity
  8
0
  6
HIDDEN
 62
     7
370
     0
100
AcDbLine
 10
68.1210764465
 20
107.83916106
 30
0.0
 11
68.9977639135
 21
107.83916106
 31
0.0
  0
LINE
  5
196
330
1F
100
AcDbEntity
  8
0
  6
HIDDEN
 62
     7
370
     0
100
AcDbLine
 10
68.9977639135
 20
133.2891615994
 30
0.0
 11
68.1210764465
 21
133.2891615994
 31
0.0
  0
ARC
  5
197
330
1F
100
AcDbEntity
  8
0
  6
HIDDEN
 62
     7
370
     0
100
AcDbCircle
 10
68.9977662578
 20
108.2391613297
 30
0.0
 40
0.4000000000000199
100
AcDbArc
 50
270.0
 51
330.0
  0
ARC
  5
198
330
1F
100
AcDbEntity
  8
0
  6
HIDDEN
 62
     7
370
     0
100
AcDbCircle
 10
68.9977662578
 20
132.8891613297
 30
0.0
 40
0.4000000000000057
100
AcDbArc
 50
30.0
 51
90.0
  0
LINE
  5
199
330
1F
100
AcDbEntity
  8
0
  6
HIDDEN
 62
     7
370
     0
100
AcDbLine
 10
68.0175506291
 20
133.2755316936
 30
0.0
 11
67.2287055072
 21
133.064161516
 31
0.0
  0
LINE
  5
19A
330
1F
100
AcDbEntity
  8
0
  6
HIDDEN
 62
     7
370
     0
100
AcDbLine
 10
67.2287055072
 20
108.0641611435
 30
0.0
 11
68.0175506291
 21
107.8527909659
 31
0.0
  0
LINE
  5
19B
330
1F
100
AcDbEntity
  8
0
  6
HIDDEN
 62
     7
370
     0
100
AcDbLine
 10
69.3441786584
 20
108.0391616516
 30
0.0
 11
70.5133088645
 21
110.0641614713
 31
0.0
  0
LINE
  5
19C
330
1F
100
AcDbEntity
  8
0
  6
HIDDEN
 62
     7
370
     0
100
AcDbLine
 10
70.5133088645
 20
131.0641611882
 30
0.0
 11
69.3441786584
 21
133.0891610079
 31
0.0
  0
LINE
  5
19D
330
1F
100
AcDbEntity
  8
0
  6
HIDDEN
 62
     7
370
     0
100
AcDbLine
 10
58.4287055549
 20
108.0641611435
 30
0.0
 11
67.2287055072
 21
108.0641611435
 31
0.0
  0
LINE
  5
19E
330
1F
100
AcDbEntity
  8
0
  6
HIDDEN
 62
     7
370
     0
100
AcDbLine
 10
67.2287055072
 20
133.064161516
 30
0.0
 11
58.4287055549
 21
133.064161516
 31
0.0
  0
LINE
  5
19F
330
1F
100
AcDbEntity
  8
0
  6
HIDDEN
 62
     7
370
     0
100
AcDbLine
 10
70.5133088645
 20
110.0641614713
 30
0.0
 11
119.2287065801
 21
110.0641614713
 31
0.0
  0
LINE
  5
1A0
330
1F
100
AcDbEntity
  8
0
  6
HIDDEN
 62
     7
370
     0
100
AcDbLine
 10
119.2287065801
 20
131.0641611882
 30
0.0
 11
70.5133088645
 21
131.0641611882
 31
0.0
  0
LINE
  5
1A1
330
1F
100
AcDbEntity
  8
0
  6
HIDDEN
 62
     7
370
     0
100
AcDbLine
 10
119.2287065801
 20
110.0641614713
 30
0.0
 11
122.9840860483
 21
116.3141610988
 31
0.0
  0
LINE
  5
1A2
330
1F
100
AcDbEntity
  8
0
  6
HIDDEN
 62
     7
370
     0
100
AcDbLine
 10
122.9840860483
 20
124.8141615607
 30
0.0
 11
119.2287065801
 21
131.0641611882
 31
0.0
  0
LINE
  5
1A3
330
1F
100
AcDbEntity
  8
0
  6
HIDDEN
 62
     7
370
     0
100
AcDbLine
 10
232.9287090119
 20
130.8141616129
 30
0.0
 11
232.5906314668
 21
130.0891614475
 31
0.0
  0
LINE
  5
1A4
330
1F
100
AcDbEntity
  8
0
  6
HIDDEN
 62
     7
370
     0
100
AcDbLine
 10
232.5906314668
 20
111.039161212
 30
0.0
 11
232.9287090119
 21
110.3141610466
 31
0.0
  0
LINE
  5
1A5
330
1F
100
AcDbEntity
  8
0
  6
HIDDEN
 62
     7
370
     0
100
AcDbLine
 10
232.6315500554
 20
128.76416137
 30
0.0
 11
230.0787054714
 21
128.76416137
 31
0.0
  0
LINE
  5
1A6
330
1F
100
AcDbEntity
  8
0
  6
HIDDEN
 62
     7
370
     0
100
AcDbLine
 10
230.0787054714
 20
112.3641612895
 30
0.0
 11
232.6320119914
 21
112.3641612895
 31
0.0
  0
LINE
  5
1A7
330
1F
100
AcDbEntity
  8
0
  6
HIDDEN
 62
     7
370
     0
100
AcDbLine
 10
230.0787054714
 20
127.910571634
 30
0.0
 11
229.4787027654
 21
127.5641615458
 31
0.0
  0
LINE
  5
1A8
330
1F
100
AcDbEntity
  8
0
  6
HIDDEN
 62
     7
370
     0
100
AcDbLine
 10
229.4787027654
 20
113.5641611137
 30
0.0
 11
230.0787054714
 21
113.2177510254
 31
0.0
  0
ARC
  5
1A9
330
1F
100
AcDbEntity
  8
0
  6
HIDDEN
 62
     7
370
     0
100
AcDbCircle
 10
218.5287063655
 20
113.9641613297
 30
0.0
 40
0.5999999999999943
100
AcDbArc
 50
180.0
 51
270.0
  0
ARC
  5
1AA
330
1F
100
AcDbEntity
  8
0
  6
HIDDEN
 62
     7
370
     0
100
AcDbCircle
 10
218.5287063655
 20
127.1641613297
 30
0.0
 40
0.6000000000000085
100
AcDbArc
 50
90.0
 51
180.0
  0
LINE
  5
1AB
330
1F
100
AcDbEntity
  8
0
  6
HIDDEN
 62
     7
370
     0
100
AcDbLine
 10
218.5287073967
 20
113.3641614534
 30
0.0
 11
219.1033036229
 21
113.3641614534
 31
0.0
  0
LINE
  5
1AC
330
1F
100
AcDbEntity
  8
0
  6
HIDDEN
 62
     7
370
     0
100
AcDbLine
 10
219.1033036229
 20
127.7641612061
 30
0.0
 11
218.5287073967
 21
127.7641612061
 31
0.0
  0
ARC
  5
1AD
330
1F
100
AcDbEntity
  8
0
  6
HIDDEN
 62
     7
370
     0
100
AcDbCircle
 10
219.1033047054
 20
113.9641613297
 30
0.0
 40
0.5999999999999943
100
AcDbArc
 50
270.0
 51
285.0
  0
ARC
  5
1AE
330
1F
100
AcDbEntity
  8
0
  6
HIDDEN
 62
     7
370
     0
100
AcDbCircle
 10
219.1033047054
 20
127.1641613297
 30
0.0
 40
0.6000000000000208
100
AcDbArc
 50
75.0
 51
90.0
  0
LINE
  5
1AF
330
1F
100
AcDbEntity
  8
0
  6
HIDDEN
 62
     7
370
     0
100
AcDbLine
 10
219.2585960743
 20
113.3846058466
 30
0.0
 11
219.9287050184
 21
113.5641611137
 31
0.0
  0
LINE
  5
1B0
330
1F
100
AcDbEntity
  8
0
  6
HIDDEN
 62
     7
370
     0
100
AcDbLine
 10
219.9287050184
 20
127.5641615458
 30
0.0
 11
219.2585960743
 21
127.7437168129
 31
0.0
  0
LINE
  5
1B1
330
1F
100
AcDbEntity
  8
0
  6
HIDDEN
 62
     7
370
     0
100
AcDbLine
 10
219.9287050184
 20
113.5641611137
 30
0.0
 11
229.4787027654
 21
113.5641611137
 31
0.0
  0
LINE
  5
1B2
330
1F
100
AcDbEntity
  8
0
  6
HIDDEN
 62
     7
370
     0
100
AcDbLine
 10
229.4787027654
 20
127.5641615458
 30
0.0
 11
219.9287050184
 21
127.5641615458
 31
0.0
  0
LINE
  5
1B3
330
1F
100
AcDbEntity
  8
0
  6
HIDDEN
 62
     7
370
     0
100
AcDbLine
 10
232.5906314668
 20
130.0891614475
 30
0.0
 11
230.0787054714
 21
130.0891614475
 31
0.0
  0
LINE
  5
1B4
330
1F
100
AcDbEntity
  8
0
  6
HIDDEN
 62
     7
370
     0
100
AcDbLine
 10
230.0787054714
 20
111.039161212
 30
0.0
 11
232.5906314668
 21
111.039161212
 31
0.0
  0
LINE
  5
1B5
330
1F
100
AcDbEntity
  8
0
  6
HIDDEN
 62
     7
370
     0
100
AcDbLine
 10
122.9840860483
 20
116.3141610988
 30
0.0
 11
217.9287046906
 21
116.3141610988
 31
0.0
  0
LINE
  5
1B6
330
1F
100
AcDbEntity
  8
0
  6
HIDDEN
 62
     7
370
     0
100
AcDbLine
 10
217.9287046906
 20
124.8141615607
 30
0.0
 11
122.9840860483
 21
124.8141615607
 31
0.0
  0
LINE
  5
1B7
330
1F
100
AcDbEntity
  8
0
  6
HIDDEN
 62
     7
370
     0
100
AcDbLine
 10
175.1287066158
 20
122.0148795938
 30
0.0
 11
175.1287066158
 21
134.0224523984
 31
0.0
  0
LINE
  5
1B8
330
1F
100
AcDbEntity
  8
0
  6
HIDDEN
 62
     7
370
     0
100
AcDbLine
 10
170.9287062999
 20
131.9207777225
 30
0.0
 11
170.9287062999
 21
122.0131625842
 31
0.0
  0
LINE
  5
1B9
330
1F
100
AcDbEntity
  8
0
  6
HIDDEN
 62
     7
370
     0
100
AcDbLine
 10
170.9287062999
 20
134.0224523984
 30
0.0
 11
170.9287062999
 21
133.6744022511
 31
0.0
  0
LINE
  5
1BA
330
1F
100
AcDbEntity
  8
0
  6
HIDDEN
 62
     7
370
     0
100
AcDbLine
 10
232.6320119914
 20
128.76416137
 30
0.0
 11
232.6315500554
 21
128.76416137
 31
0.0
  0
LINE
  5
1BB
330
1F
100
AcDbEntity
  8
0
  6
HIDDEN
 62
     7
370
     0
100
AcDbLine
 10
163.7286789496
 20
132.3625077449
 30
0.0
 11
172.176006135
 21
130.3394990929
 31
0.0
  0
LINE
  5
1BC
330
1F
100
AcDbEntity
  8
0
  6
HIDDEN
 62
     7
370
     0
100
AcDbLine
 10
172.176006135
 20
134.6582616635
 30
0.0
 11
164.7068568286
 21
136.447011023
 31
0.0
  0
LINE
  5
1BD
330
1F
100
AcDbEntity
  8
0
  6
HIDDEN
 62
     7
370
     0
100
AcDbLine
 10
162.0287062847
 20
131.844177372
 30
0.0
 11
163.2507372428
 21
131.5515185662
 31
0.0
  0
LINE
  5
1BE
330
1F
100
AcDbEntity
  8
0
  6
HIDDEN
 62
     7
370
     0
100
AcDbLine
 10
164.6481341463
 20
137.3865236484
 30
0.0
 11
162.0287062847
 21
138.0138383202
 31
0.0
  0
LINE
  5
1BF
330
1F
100
AcDbEntity
  8
0
  6
HIDDEN
 62
     7
370
     0
100
AcDbLine
 10
175.5287059363
 20
134.0722464912
 30
0.0
 11
175.5287059363
 21
137.2284744822
 31
0.0
  0
LINE
  5
1C0
330
1F
100
AcDbEntity
  8
0
  6
HIDDEN
 62
     7
370
     0
100
AcDbLine
 10
170.5287060481
 20
136.1259059005
 30
0.0
 11
170.5287060481
 21
134.0722464912
 31
0.0
  0
LINE
  5
1C1
330
1F
100
AcDbEntity
  8
0
  6
HIDDEN
 62
     7
370
     0
100
AcDbLine
 10
170.5287060481
 20
105.5135647722
 30
0.0
 11
170.5287060481
 21
105.3254534446
 31
0.0
  0
LINE
  5
1C2
330
1F
100
AcDbEntity
  8
0
  6
HIDDEN
 62
     7
370
     0
100
AcDbLine
 10
175.5287059363
 20
105.3254534446
 30
0.0
 11
175.5287059363
 21
105.5135647722
 31
0.0
  0
LINE
  5
1C3
330
1F
100
AcDbEntity
  8
0
  6
HIDDEN
 62
     7
370
     0
100
AcDbLine
 10
171.0287061301
 20
106.6953469955
 30
0.0
 11
171.0287061301
 21
105.2775713571
 31
0.0
  0
LINE
  5
1C4
330
1F
100
AcDbEntity
  8
0
  6
HIDDEN
 62
     7
370
     0
100
AcDbLine
 10
175.0287067857
 20
105.2775713571
 30
0.0
 11
175.0287067857
 21
106.6953469955
 31
0.0
  0
LINE
  5
1C5
330
1F
100
AcDbEntity
  8
0
  6
HIDDEN
 62
     7
370
     0
100
AcDbLine
 10
170.5287060481
 20
107.0560761683
 30
0.0
 11
170.5287060481
 21
106.4575402953
 31
0.0
  0
LINE
  5
1C6
330
1F
100
AcDbEntity
  8
0
  6
HIDDEN
 62
     7
370
     0
100
AcDbLine
 10
175.5287059363
 20
106.4575402953
 30
0.0
 11
175.5287059363
 21
107.0560761683
 31
0.0
  0
LINE
  5
1C7
330
1F
100
AcDbEntity
  8
0
  6
HIDDEN
 62
     7
370
     0
100
AcDbLine
 10
175.5287059363
 20
134.0722464912
 30
0.0
 11
175.5287059363
 21
134.6707823642
 31
0.0
  0
LINE
  5
1C8
330
1F
100
AcDbEntity
  8
0
  6
HIDDEN
 62
     7
370
     0
100
AcDbLine
 10
170.5287060481
 20
134.6707823642
 30
0.0
 11
170.5287060481
 21
134.0722464912
 31
0.0
  0
LINE
  5
1C9
330
1F
100
AcDbEntity
  8
0
  6
HIDDEN
 62
     7
370
     0
100
AcDbLine
 10
175.0287067857
 20
134.432975664
 30
0.0
 11
175.0287067857
 21
135.8507513024
 31
0.0
  0
LINE
  5
1CA
330
1F
100
AcDbEntity
  8
0
  6
HIDDEN
 62
     7
370
     0
100
AcDbLine
 10
171.0287061301
 20
135.8507513024
 30
0.0
 11
171.0287061301
 21
134.432975664
 31
0.0
  0
LINE
  5
1CB
330
1F
100
AcDbEntity
  8
0
  6
HIDDEN
 62
     7
370
     0
100
AcDbLine
 10
175.5287059363
 20
135.6147578873
 30
0.0
 11
175.5287059363
 21
135.8028692149
 31
0.0
  0
LINE
  5
1CC
330
1F
100
AcDbEntity
  8
0
  6
HIDDEN
 62
     7
370
     0
100
AcDbLine
 10
170.5287060481
 20
135.8028692149
 30
0.0
 11
170.5287060481
 21
135.6147578873
 31
0.0
  0
ARC
  5
1CD
330
1F
100
AcDbEntity
  8
0
  6
HIDDEN
 62
     7
370
     0
100
AcDbCircle
 10
173.0287063655
 20
106.0984193678
 30
0.0
 40
2.000000000000029
100
AcDbArc
 50
71.1182787691
 51
192.2156859339
  0
ARC
  5
1CE
330
1F
100
AcDbEntity
  8
0
  6
HIDDEN
 62
     7
370
     0
100
AcDbCircle
 10
173.0287063655
 20
106.0984193678
 30
0.0
 40
2.000000000000003
100
AcDbArc
 50
340.3453161116
 51
71.1182787691
  0
CIRCLE
  5
1CF
330
1F
100
AcDbEntity
  8
0
  6
HIDDEN
 62
     7
370
     0
100
AcDbCircle
 10
173.0287063655
 20
135.0299032917
 30
0.0
 40
1.999999999999989
  0
LINE
  5
1D0
330
1F
100
AcDbEntity
  8
0
  6
HIDDEN
 62
     7
370
     0
100
AcDbLine
 10
164.9103778195
 20
103.8046018176
 30
0.0
 11
167.9247420993
 21
104.5264978849
 31
0.0
  0
LINE
  5
1D1
330
1F
100
AcDbEntity
  8
0
  6
HIDDEN
 62
     7
370
     0
100
AcDbLine
 10
166.5273456615
 20
110.361502967
 30
0.0
 11
163.5129813817
 21
109.6396068998
 31
0.0
  0
LINE
  5
1D2
330
1F
100
AcDbEntity
  8
0
  6
HIDDEN
 62
     7
370
     0
100
AcDbLine
 10
168.7691881102
 20
105.4429612078
 30
0.0
 11
169.0739587661
 21
106.3061482229
 31
0.0
  0
LINE
  5
1D3
330
1F
100
AcDbEntity
  8
0
  6
HIDDEN
 62
     7
370
     0
100
AcDbLine
 10
168.358053897
 20
109.2954990409
 30
0.0
 11
167.6953303408
 21
109.926986038
 31
0.0
  0
LINE
  5
1D4
330
1F
100
AcDbEntity
  8
0
  6
HIDDEN
 62
     7
370
     0
100
AcDbLine
 10
167.6953303408
 20
131.2013366215
 30
0.0
 11
168.358053897
 21
131.8328236185
 31
0.0
  0
LINE
  5
1D5
330
1F
100
AcDbEntity
  8
0
  6
HIDDEN
 62
     7
370
     0
100
AcDbLine
 10
169.0739587661
 20
134.8221744366
 30
0.0
 11
168.7691881102
 21
135.6853614517
 31
0.0
  0
LINE
  5
1D6
330
1F
100
AcDbEntity
  8
0
  6
HIDDEN
 62
     7
370
     0
100
AcDbLine
 10
163.5129813817
 20
131.4887157597
 30
0.0
 11
166.5273456615
 21
130.7668196924
 31
0.0
  0
LINE
  5
1D7
330
1F
100
AcDbEntity
  8
0
  6
HIDDEN
 62
     7
370
     0
100
AcDbLine
 10
167.9247420993
 20
136.6018247746
 30
0.0
 11
164.9103778195
 21
137.3237208419
 31
0.0
  0
DIMENSION
  5
1D8
330
1F
100
AcDbEntity
  8
VERMASSUNG
100
AcDbDimension
  2
_D
 10
50.5816495069
 20
169.2891613297
 30
0.0
 11
50.5816495069
 21
120.5641613297
 31
0.0
 70
   160
  1
ISO 50 %%c<>
 71
     2
 42
-1.0
  3
SLDDIMSTYLE0
100
AcDbAlignedDimension
 13
177.2787063655
 23
71.8391613297
 33
0.0
 14
177.2787063655
 24
169.2891613297
 34
0.0
 50
90.0
100
AcDbRotatedDimension
  0
DIMENSION
  5
1E5
330
1F
100
AcDbEntity
  8
VERMASSUNG
100
AcDbDimension
  2
_D_1
 10
232.9287063655
 20
185.5498356306
 30
0.0
 11
145.0787063655
 21
185.5498356306
 31
0.0
 70
   160
  1
(<>)
 71
     2
 42
-1.0
  3
SLDDIMSTYLE0
100
AcDbAlignedDimension
 13
57.2287063655
 23
138.9430058571
 33
0.0
 14
232.9287063655
 24
132.8641613297
 34
0.0
100
AcDbRotatedDimension
  0
DIMENSION
  5
1F1
330
1F
100
AcDbEntity
  8
VERMASSUNG
100
AcDbDimension
  2
_D_2
 10
232.9287063655
 20
179.5498356306
 30
0.0
 11
195.8787063655
 21
179.5498356306
 31
0.0
 70
   160
  1
<>
 71
     2
 42
-1.0
  3
SLDDIMSTYLE0
100
AcDbAlignedDimension
 13
158.8287063655
 23
155.4891613297
 33
0.0
 14
232.9287063655
 24
132.8641613297
 34
0.0
100
AcDbRotatedDimension
  0
DIMENSION
  5
1FB
330
1F
100
AcDbEntity
  8
VERMASSUNG
100
AcDbDimension
  2
_D_3
 10
232.9287063655
 20
173.5498356306
 30
0.0
 11
205.4037063655
 21
173.5498356306
 31
0.0
 70
   160
  1
<>
 71
     2
 42
-1.0
  3
SLDDIMSTYLE0
100
AcDbAlignedDimension
 13
177.8787063655
 23
166.859148283
 33
0.0
 14
232.9287063655
 24
132.8641613297
 34
0.0
100
AcDbRotatedDimension
  0
DIMENSION
  5
205
330
1F
100
AcDbEntity
  8
VERMASSUNG
100
AcDbDimension
  2
_D_4
 10
241.0033567577
 20
108.0641613297
 30
0.0
 11
241.0033567577
 21
120.5641613297
 31
0.0
 70
   160
  1
MBM %%c<>
 71
     2
 42
-1.0
  3
SLDDIMSTYLE0
100
AcDbAlignedDimension
 13
232.7287063655
 23
133.0641613297
 33
0.0
 14
232.7287063655
 24
108.0641613297
 34
0.0
 50
90.0
100
AcDbRotatedDimension
  0
LINE
  5
211
330
1F
100
AcDbEntity
  8
VERMASSUNG
  6
CENTERX2
 62
     7
370
     0
100
AcDbLine
 10
55.2287063655
 20
120.5641613297
 30
0.0
 11
234.9287063655
 21
120.5641613297
 31
0.0
  0
LINE
  5
212
330
1F
100
AcDbEntity
  8
VERMASSUNG
  6
CENTERX2
370
     0
100
AcDbLine
 10
160.0837047193
 20
135.3948062293
 30
0.0
 11
171.3460764103
 21
132.6976362149
 31
0.0
  0
LINE
  5
213
330
1F
100
AcDbEntity
  8
VERMASSUNG
  6
CENTERX2
370
     0
100
AcDbLine
 10
160.0837047193
 20
105.7335164302
 30
0.0
 11
171.3460764103
 21
108.4306864446
 31
0.0
  0
SPLINE
  5
214
330
1F
100
AcDbEntity
  8
0
  6
Continuous
 62
     7
370
    15
100
AcDbSpline
210
0.0
220
0.0
230
1.0
 70
     8
 71
     3
 72
    15
 73
    11
 74
     0
 42
0.000000001
 43
0.00000001
 40
0.0
 40
0.0
 40
0.0
 40
0.0
 40
0.0351254504993289
 40
0.1927372737043964
 40
0.3503546718005722
 40
0.5079840155981784
 40
0.6656326476442253
 40
0.8233077263554938
 40
0.981016245627252
 40
1.0
 40
1.0
 40
1.0
 40
1.0
 10
233.8151473783778
 20
60.65460006279653
 30
0.0
 10
233.7406670311992
 20
60.53135954468981
 30
0.0
 10
233.3319850397743
 20
59.85512504428795
 30
0.0
 10
232.6650997065205
 20
58.58110129556577
 30
0.0
 10
231.8254584528889
 20
56.84405324727339
 30
0.0
 10
231.0819941061246
 20
55.08150157760772
 30
0.0
 10
230.430607868326
 20
53.30937509228838
 30
0.0
 10
229.8802743116323
 20
51.53815431722894
 30
0.0
 10
229.5579160805222
 20
50.29324350928462
 30
0.0
 10
229.415624531136
 20
49.64189233612156
 30
0.0
 10
229.400336778213
 20
49.57191140018881
 30
0.0
  0
SPLINE
  5
215
330
1F
100
AcDbEntity
  8
0
  6
Continuous
 62
     7
370
    15
100
AcDbSpline
210
0.0
220
0.0
230
1.0
 70
     8
 71
     3
 72
    17
 73
    13
 74
     0
 42
0.000000001
 43
0.00000001
 40
0.0
 40
0.0
 40
0.0
 40
0.0
 40
0.0401957399667814
 40
0.1543524167533848
 40
0.2686171256799906
 40
0.3829375126533323
 40
0.4972753234715265
 40
0.6116029825687006
 40
0.7259100071681739
 40
0.8401921432862253
 40
0.9544491863286919
 40
1.0
 40
1.0
 40
1.0
 40
1.0
 10
250.5004169397097
 20
75.2690782665548
 30
0.0
 10
250.3446160171382
 20
75.23314263870053
 30
0.0
 10
249.7463374694318
 20
75.09514913462671
 30
0.0
 10
248.6791221263373
 20
74.71217494152131
 30
0.0
 10
247.308849298042
 20
74.1234915455179
 30
0.0
 10
245.9289509847386
 20
73.39368120158204
 30
0.0
 10
244.5505771241633
 20
72.53968974427669
 30
0.0
 10
243.182147628878
 20
71.56346610193937
 30
0.0
 10
241.8314672599429
 20
70.47411998754363
 30
0.0
 10
240.5106236412259
 20
69.2714713359493
 30
0.0
 10
239.4739057156251
 20
68.24622447882328
 30
0.0
 10
238.8966730052991
 20
67.59342983281758
 30
0.0
 10
238.7321415474989
 20
67.40736058755456
 30
0.0
  0
LINE
  5
216
330
1F
100
AcDbEntity
  8
0
  6
Continuous
 62
     7
370
    15
100
AcDbLine
 10
270.8113215365
 20
34.0243168787
 30
0.0
 11
270.8820219192
 21
34.0651434703
 31
0.0
  0
LINE
  5
217
330
1F
100
AcDbEntity
  8
0
  6
Continuous
 62
     7
370
    15
100
AcDbLine
 10
275.230021693
 20
41.5969161395
 30
0.0
 11
275.2300207052
 21
41.6785577625
 31
0.0
  0
LINE
  5
218
330
1F
100
AcDbEntity
  8
0
  6
Continuous
 62
     7
370
    15
100
AcDbLine
 10
249.7076679757
 20
44.0930647435
 30
0.0
 11
267.685857311
 21
33.7144769547
 31
0.0
  0
LINE
  5
219
330
1F
100
AcDbEntity
  8
0
  6
Continuous
 62
     7
370
    15
100
AcDbLine
 10
273.9353492028
 20
44.5400877953
 30
0.0
 11
255.9571598675
 21
54.9186755841
 31
0.0
  0
LINE
  5
21A
330
1F
100
AcDbEntity
  8
0
  6
Continuous
 62
     7
370
    15
100
AcDbLine
 10
244.6600425308
 20
72.5861500929
 30
0.0
 11
213.904068009
 21
83.6693845687
 31
0.0
  0
LINE
  5
21B
330
1F
100
AcDbEntity
  8
0
  6
Continuous
 62
     7
370
    15
100
AcDbLine
 10
203.7802086285
 20
66.1324461683
 30
0.0
 11
233.2477197471
 21
41.25032373
 31
0.0
  0
SPLINE
  5
21C
330
1F
100
AcDbEntity
  8
0
  6
Continuous
 62
     7
370
    15
100
AcDbSpline
210
0.0
220
0.0
230
1.0
 70
     8
 71
     3
 72
    11
 73
     7
 74
     0
 42
0.000000001
 43
0.00000001
 40
0.0
 40
0.0
 40
0.0
 40
0.0
 40
0.3035986141220717
 40
0.6322218958905129
 40
0.9609155232459675
 40
1.0
 40
1.0
 40
1.0
 40
1.0
 10
266.210161472309
 20
48.9997438724282
 30
0.0
 10
266.4155167362385
 20
49.54504131813157
 30
0.0
 10
266.8431540450188
 20
50.68058334273455
 30
0.0
 10
267.3686654127992
 20
52.40698637163802
 30
0.0
 10
267.6921400387247
 20
53.65110342739129
 30
0.0
 10
267.8305237242818
 20
54.30072910958427
 30
0.0
 10
267.8452300210429
 20
54.3697660630918
 30
0.0
  0
SPLINE
  5
21D
330
1F
100
AcDbEntity
  8
0
  6
Continuous
 62
     7
370
    15
100
AcDbSpline
210
0.0
220
0.0
230
1.0
 70
     8
 71
     3
 72
    18
 73
    14
 74
     0
 42
0.000000001
 43
0.00000001
 40
0.0
 40
0.0
 40
0.0
 40
0.0
 40
0.0388505951166857
 40
0.1393471967611514
 40
0.2399369599454148
 40
0.3405742938086953
 40
0.4412257690148723
 40
0.5418678352799654
 40
0.6424915186243019
 40
0.7430932642371542
 40
0.843672884627693
 40
0.9442323884053534
 40
1.0
 40
1.0
 40
1.0
 40
1.0
 10
246.7357652710352
 20
28.61201421292206
 30
0.0
 10
246.9069396561348
 20
28.65200090854186
 30
0.0
 10
247.5208986096412
 20
28.79542300865708
 30
0.0
 10
248.6040909643443
 20
29.18679888290004
 30
0.0
 10
249.9749010183893
 20
29.78088493857953
 30
0.0
 10
251.3549065942924
 20
30.51535627959431
 30
0.0
 10
252.7330222834456
 20
31.37408183468748
 30
0.0
 10
254.1011202232577
 20
32.35430920505989
 30
0.0
 10
255.4501868966035
 20
33.44916504119897
 30
0.0
 10
256.7727198470378
 20
34.65054154755842
 30
0.0
 10
258.0571256845537
 20
35.95540190094599
 30
0.0
 10
259.1222026098004
 20
37.13267409977473
 30
0.0
 10
259.7349684943304
 20
37.90331711737184
 30
0.0
 10
259.95356454381
 20
38.17823372656743
 30
0.0
  0
LINE
  5
21E
330
1F
100
AcDbEntity
  8
0
  6
Continuous
 62
     7
370
    15
100
AcDbLine
 10
237.5702857131
 20
30.1858795313
 30
0.0
 11
239.0258076994
 21
29.345624574
 31
0.0
  0
LINE
  5
21F
330
1F
100
AcDbEntity
  8
0
  6
Continuous
 62
     7
370
    15
100
AcDbLine
 10
233.8462507648
 20
32.3357191463
 30
0.0
 11
235.2840954408
 21
31.505669083
 31
0.0
  0
LINE
  5
220
330
1F
100
AcDbEntity
  8
0
  6
Continuous
 62
     7
370
    15
100
AcDbLine
 10
229.4143091994
 20
38.4012218652
 30
0.0
 11
229.4964688829
 21
38.1307911682
 31
0.0
  0
LINE
  5
221
330
1F
100
AcDbEntity
  8
0
  6
Continuous
 62
     7
370
    15
100
AcDbLine
 10
267.8333162923
 20
65.4327317101
 30
0.0
 11
267.7194118001
 21
65.7992669957
 31
0.0
  0
SPLINE
  5
222
330
1F
100
AcDbEntity
  8
0
  6
Continuous
 62
     7
370
    15
100
AcDbSpline
210
0.0
220
0.0
230
1.0
 70
     8
 71
     3
 72
    25
 73
    21
 74
     0
 42
0.000000001
 43
0.00000001
 40
0.0
 40
0.0
 40
0.0
 40
0.0
 40
0.0435855356865376
 40
0.0961276022633116
 40
0.1497029057687069
 40
0.2045539545491248
 40
0.2605101431154587
 40
0.317162347800891
 40
0.3741053850221377
 40
0.4310303224047367
 40
0.4878420236247556
 40
0.5445309535551821
 40
0.6011248332360584
 40
0.6576676025835478
 40
0.7142100047779927
 40
0.7707951728489355
 40
0.8274710759146234
 40
0.8842929020543749
 40
0.9413113070893175
 40
1.0
 40
1.0
 40
1.0
 40
1.0
 10
213.8191203772368
 20
83.68811725760328
 30
0.0
 10
213.6068158989195
 20
83.75331704366698
 30
0.0
 10
213.1385798171793
 20
83.89711472800563
 30
0.0
 10
212.3556381098108
 20
83.94872685692799
 30
0.0
 10
211.4946127336393
 20
83.8775285424363
 30
0.0
 10
210.6000810509041
 20
83.66065191431355
 30
0.0
 10
209.6851964452454
 20
83.303698920659
 30
0.0
 10
208.7641641317128
 20
82.80937649156179
 30
0.0
 10
207.8535189493143
 20
82.18677685462708
 30
0.0
 10
206.9686439205558
 20
81.44757731067845
 30
0.0
 10
206.1231471436612
 20
80.60510809041426
 30
0.0
 10
205.3288572829417
 20
79.67307622794202
 30
0.0
 10
204.5966227498995
 20
78.66578094952865
 30
0.0
 10
203.9365456765873
 20
77.59811138031665
 30
0.0
 10
203.357890130522
 20
76.48551709913208
 30
0.0
 10
202.8693563053602
 20
75.34396306491139
 30
0.0
 10
202.4777153807516
 20
74.1891238951733
 30
0.0
 10
202.1924397325087
 20
73.0381574567439
 30
0.0
 10
202.0068556238427
 20
71.89224622744217
 30
0.0
 10
201.9831911985546
 20
71.15949085255205
 30
0.0
 10
201.971188182203
 20
70.78782432613215
 30
0.0
  0
SPLINE
  5
223
330
1F
100
AcDbEntity
  8
0
  6
Continuous
 62
     7
370
    15
100
AcDbSpline
210
0.0
220
0.0
230
1.0
 70
     8
 71
     3
 72
    14
 73
    10
 74
     0
 42
0.000000001
 43
0.00000001
 40
0.0
 40
0.0
 40
0.0
 40
0.0
 40
0.0962770642066694
 40
0.2778296391374591
 40
0.4593772979828419
 40
0.6392186960394969
 40
0.8155962188231879
 40
0.9873480563161785
 40
1.0
 40
1.0
 40
1.0
 40
1.0
 10
201.971188182203
 20
70.78782432613215
 30
0.0
 10
201.9745759446724
 20
70.5992135502112
 30
0.0
 10
201.9843521134005
 20
70.05493372361552
 30
0.0
 10
202.0933318570073
 20
69.1997875720346
 30
0.0
 10
202.340562804726
 20
68.26166470985179
 30
0.0
 10
202.7088783158048
 20
67.4156944299299
 30
0.0
 10
203.2022275504674
 20
66.70024466129759
 30
0.0
 10
203.592595333781
 20
66.25335894520316
 30
0.0
 10
203.83786902789
 20
66.08934399740984
 30
0.0
 10
203.854697256385
 20
66.07809093161292
 30
0.0
  0
LINE
  5
224
330
1F
100
AcDbEntity
  8
0
  6
Continuous
 62
     7
370
    15
100
AcDbLine
 10
269.3788858436
 20
46.1184793084
 30
0.0
 11
269.2374407731
 21
46.2001604446
 31
0.0
  0
LINE
  5
225
330
1F
100
AcDbEntity
  8
0
  6
Continuous
 62
     7
370
    15
100
AcDbLine
 10
267.3986638579
 20
46.2001607467
 30
0.0
 11
267.2572197607
 21
46.1184798873
 31
0.0
  0
LINE
  5
226
330
1F
100
AcDbEntity
  8
0
  6
Continuous
 62
     7
370
    15
100
AcDbLine
 10
269.8180523008
 20
45.3633784718
 30
0.0
 11
269.8180523008
 21
45.5062732513
 31
0.0
  0
LINE
  5
227
330
1F
100
AcDbEntity
  8
0
  6
Continuous
 62
     7
370
    15
100
AcDbLine
 10
266.818051313
 20
45.5062739166
 30
0.0
 11
266.818051313
 21
45.3633791371
 31
0.0
  0
SPLINE
  5
228
330
1F
100
AcDbEntity
  8
0
  6
Continuous
 62
     7
370
    15
100
AcDbSpline
210
0.0
220
0.0
230
1.0
 70
     8
 71
     3
 72
    12
 73
     8
 74
     0
 42
0.000000001
 43
0.00000001
 40
0.0
 40
0.0
 40
0.0
 40
0.0
 40
0.2499999999999992
 40
0.2499999999999992
 40
0.4999999999999984
 40
0.4999999999999984
 40
1.0
 40
1.0
 40
1.0
 40
1.0
 10
234.6847799297965
 20
46.54225094179674
 30
0.0
 10
234.718711422086
 20
46.52266270824527
 30
0.0
 10
234.7571431311133
 20
46.49547551930886
 30
0.0
 10
234.8313199837783
 20
46.43625159177303
 30
0.0
 10
234.8665362640337
 20
46.40481891275627
 30
0.0
 10
234.9616351812917
 20
46.31282619595428
 30
0.0
 10
235.0101643380536
 20
46.25596953042964
 30
0.0
 10
235.0435059342086
 20
46.20774072442731
 30
0.0
  0
ARC
  5
229
330
1F
100
AcDbEntity
  8
0
  6
Continuous
 62
     7
370
    15
100
AcDbCircle
 10
258.7645031048
 20
61.8959472603
 30
0.0
 40
10.7882753709166
100
AcDbArc
 50
73.8812781379
 51
105.8630419265
  0
SPLINE
  5
22A
330
1F
100
AcDbEntity
  8
0
  6
Continuous
 62
     7
370
    15
100
AcDbSpline
210
0.0
220
0.0
230
1.0
 70
     8
 71
     3
 72
    12
 73
     8
 74
     0
 42
0.000000001
 43
0.00000001
 40
0.0
 40
0.0
 40
0.0
 40
0.0
 40
0.5
 40
0.5
 40
0.75
 40
0.75
 40
1.0
 40
1.0
 40
1.0
 40
1.0
 10
261.971768753407
 20
71.82655666263861
 30
0.0
 10
261.971768753407
 20
71.89923965983141
 30
0.0
 10
261.9547519853368
 20
71.98282250657171
 30
0.0
 10
261.9003411594553
 20
72.10426668444738
 30
0.0
 10
261.8771959405335
 20
72.14398156212874
 30
0.0
 10
261.8229151286762
 20
72.21271133399453
 30
0.0
 10
261.7916791601187
 20
72.2416209299002
 30
0.0
 10
261.759636719051
 20
72.2601186373938
 30
0.0
  0
LWPOLYLINE
  5
22B
330
1F
100
AcDbEntity
  8
0
  6
Continuous
 62
     7
370
    15
100
AcDbPolyline
 90
       17
 70
   128
 43
0.0
 10
235.1353657978
 20
46.6231470797
 10
235.4976324488
 20
48.0637130755
 10
236.0678582357
 20
49.9361549511
 10
236.7500286865
 20
51.8114137235
 10
237.5391652045
 20
53.6758114141
 10
238.4295160623
 20
55.5157545277
 10
239.4145866936
 20
57.3178237852
 10
240.4871943537
 20
59.0688786816
 10
241.6395161923
 20
60.7561483569
 10
242.8631491815
 20
62.3673293099
 10
244.1491700433
 20
63.8906709449
 10
245.4882004451
 20
65.3150649198
 10
246.8704754892
 20
66.6301242278
 10
248.285915164
 20
67.8262579061
 10
249.7241967843
 20
68.8947432732
 10
251.1748319176
 20
69.8277885887
 10
251.2040978207
 20
69.8451381918
  0
LWPOLYLINE
  5
22C
330
1F
100
AcDbEntity
  8
0
  6
Continuous
 62
     7
370
    15
100
AcDbPolyline
 90
       12
 70
   128
 43
0.0
 10
244.6957409115
 20
67.3842454648
 10
246.1460979331
 20
68.6568487755
 10
247.6237298927
 20
69.7979978127
 10
249.1174556511
 20
70.7990568346
 10
250.6159721561
 20
71.6524512893
 10
252.1079398888
 20
72.3517247464
 10
253.5820690501
 20
72.8915825681
 10
255.0272044724
 20
73.2679424481
 10
256.4324110241
 20
73.4779548173
 10
257.7870555162
 20
73.5200303554
 10
259.0808867158
 20
73.3938527212
 10
260.3041147001
 20
73.1003741723
  0
LINE
  5
22D
330
1F
100
AcDbEntity
  8
0
  6
Continuous
 62
     7
370
    15
100
AcDbLine
 10
261.7596366864
 20
72.260119215
 30
0.0
 11
260.3041147001
 21
73.1003741723
 31
0.0
  0
LINE
  5
22E
330
1F
100
AcDbEntity
  8
0
  6
Continuous
 62
     7
370
    15
100
AcDbLine
 10
233.2292577811
 20
47.3825060843
 30
0.0
 11
234.6847797673
 21
46.5422511269
 31
0.0
  0
ARC
  5
22F
330
1F
100
AcDbEntity
  8
0
  6
Continuous
 62
     7
370
    15
100
AcDbCircle
 10
272.5619816527
 20
38.1514052193
 30
0.0
 40
40.40144044883815
100
AcDbArc
 50
136.9528122493
 51
166.7921386576
  0
SPLINE
  5
230
330
1F
100
AcDbEntity
  8
0
  6
Continuous
 62
     7
370
    15
100
AcDbSpline
210
0.0
220
0.0
230
1.0
 70
     8
 71
     3
 72
    34
 73
    30
 74
     0
 42
0.000000001
 43
0.00000001
 40
0.0
 40
0.0
 40
0.0
 40
0.0
 40
0.0624999999999992
 40
0.0624999999999992
 40
0.1249999999999984
 40
0.1249999999999984
 40
0.1874999999999976
 40
0.1874999999999976
 40
0.2499999999999973
 40
0.2499999999999973
 40
0.3124999999999971
 40
0.3124999999999971
 40
0.3749999999999968
 40
0.3749999999999968
 40
0.4999999999999972
 40
0.4999999999999972
 40
0.6249999999999976
 40
0.6249999999999976
 40
0.687499999999998
 40
0.687499999999998
 40
0.7499999999999984
 40
0.7499999999999984
 40
0.8124999999999989
 40
0.8124999999999989
 40
0.8749999999999992
 40
0.8749999999999992
 40
0.9374999999999997
 40
0.9374999999999997
 40
1.0
 40
1.0
 40
1.0
 40
1.0
 10
243.0369415443287
 20
65.72944783282907
 30
0.0
 10
243.096066957972
 20
65.69987034897083
 30
0.0
 10
243.1588796534025
 20
65.67619432677529
 30
0.0
 10
243.2915886563271
 20
65.64011481635556
 30
0.0
 10
243.3622003526983
 20
65.6276669262163
 30
0.0
 10
243.5074483226756
 20
65.61495703249093
 30
0.0
 10
243.5814307524378
 20
65.61461485259359
 30
0.0
 10
243.7321128172626
 20
65.62562119741622
 30
0.0
 10
243.8095608370627
 20
65.6372078614017
 30
0.0
 10
243.9614934230378
 20
65.6713824041405
 30
0.0
 10
244.0364495036224
 20
65.69389480653048
 30
0.0
 10
244.1843845705311
 20
65.74970687912855
 30
0.0
 10
244.2573132836214
 20
65.78315172533485
 30
0.0
 10
244.4639258096313
 20
65.89551398465416
 30
0.0
 10
244.5908509856807
 20
65.9895513856749
 30
0.0
 10
244.7999577383076
 20
66.1981527008508
 30
0.0
 10
244.8845061215054
 20
66.31507679499451
 30
0.0
 10
244.9694796782795
 20
66.49360204496716
 30
0.0
 10
244.9914393788774
 20
66.55481862389384
 30
0.0
 10
245.0205504756172
 20
66.6756246064077
 30
0.0
 10
245.027904938397
 20
66.73522513285285
 30
0.0
 10
245.0282478734413
 20
66.8529664229861
 30
0.0
 10
245.021007830606
 20
66.9114178111232
 30
0.0
 10
244.992395980084
 20
67.02218043551467
 30
0.0
 10
244.9711126385245
 20
67.0750928802373
 30
0.0
 10
244.9142844719175
 20
67.17601108754654
 30
0.0
 10
244.8788269829436
 20
67.22352610217766
 30
0.0
 10
244.796422030057
 20
67.30978608006107
 30
0.0
 10
244.7492171274812
 20
67.34903163248114
 30
0.0
 10
244.6957409815923
 20
67.38424476059477
 30
0.0
  0
LINE
  5
231
330
1F
100
AcDbEntity
  8
0
  6
Continuous
 62
     7
370
    15
100
AcDbLine
 10
267.6816679801
 20
64.9572531064
 30
0.0
 11
267.7859498201
 21
65.1378749312
 31
0.0
  0
LINE
  5
232
330
1F
100
AcDbEntity
  8
0
  6
Continuous
 62
     7
370
    15
100
AcDbLine
 10
265.3835596986
 20
63.6305834344
 30
0.0
 11
267.6816679801
 21
64.9572531064
 31
0.0
  0
ARC
  5
233
330
1F
100
AcDbEntity
  8
0
  6
Continuous
 62
     7
370
    15
100
AcDbCircle
 10
266.2116627962
 20
62.3359811515
 30
0.0
 40
1.536798559128585
100
AcDbArc
 50
122.6053519586
 51
177.394632491
  0
LINE
  5
234
330
1F
100
AcDbEntity
  8
0
  6
Continuous
 62
     7
370
    15
100
AcDbLine
 10
264.6764528015
 20
53.5463707778
 30
0.0
 11
264.6764528015
 21
62.4058387461
 31
0.0
  0
ARC
  5
235
330
1F
100
AcDbEntity
  8
0
  6
Continuous
 62
     7
370
    15
100
AcDbCircle
 10
265.1075262846
 20
53.4764422307
 30
0.0
 40
0.4367085406723384
100
AcDbArc
 50
170.7857695821
 51
309.2035248725
  0
LINE
  5
236
330
1F
100
AcDbEntity
  8
0
  6
Continuous
 62
     7
370
    15
100
AcDbLine
 10
267.6816679801
 20
54.4647040071
 30
0.0
 11
265.3835596986
 21
53.1380343351
 31
0.0
  0
LINE
  5
237
330
1F
100
AcDbEntity
  8
0
  6
Continuous
 62
     7
370
    15
100
AcDbLine
 10
267.7859498201
 20
54.4044834319
 30
0.0
 11
267.6816679801
 21
54.4647040071
 31
0.0
  0
LINE
  5
238
330
1F
100
AcDbEntity
  8
0
  6
Continuous
 62
     7
370
    15
100
AcDbLine
 10
235.0890134841
 20
35.6493650622
 30
0.0
 11
235.0435054244
 21
35.5309964392
 31
0.0
  0
LINE
  5
239
330
1F
100
AcDbEntity
  8
0
  6
Continuous
 62
     7
370
    15
100
AcDbLine
 10
235.0890134841
 20
35.6493650622
 30
0.0
 11
238.2306580114
 21
37.4629978436
 31
0.0
  0
ARC
  5
23A
330
1F
100
AcDbEntity
  8
0
  6
Continuous
 62
     7
370
    15
100
AcDbCircle
 10
237.4025549138
 20
38.7576001265
 30
0.0
 40
1.536798559128379
100
AcDbArc
 50
302.6053519586
 51
357.394632491
  0
LINE
  5
23B
330
1F
100
AcDbEntity
  8
0
  6
Continuous
 62
     7
370
    15
100
AcDbLine
 10
238.9377649084
 20
47.5472105002
 30
0.0
 11
238.9377649084
 21
38.6877425319
 31
0.0
  0
ARC
  5
23C
330
1F
100
AcDbEntity
  8
0
  6
Continuous
 62
     7
370
    15
100
AcDbCircle
 10
238.5066914254
 20
47.6171390473
 30
0.0
 40
0.4367085406723178
100
AcDbArc
 50
350.7857695821
 51
129.2035248725
  0
LINE
  5
23D
330
1F
100
AcDbEntity
  8
0
  6
Continuous
 62
     7
370
    15
100
AcDbLine
 10
238.2306580114
 20
47.9555469429
 30
0.0
 11
235.0890134841
 21
46.1419141616
 31
0.0
  0
LINE
  5
23E
330
1F
100
AcDbEntity
  8
0
  6
Continuous
 62
     7
370
    15
100
AcDbLine
 10
235.0435054244
 20
46.2077402973
 30
0.0
 11
235.0890134841
 21
46.1419141616
 31
0.0
  0
LINE
  5
23F
330
1F
100
AcDbEntity
  8
0
  6
Continuous
 62
     7
370
    15
100
AcDbLine
 10
261.9717690189
 20
68.6015958771
 30
0.0
 11
261.9717690189
 21
71.8265570201
 31
0.0
  0
LINE
  5
240
330
1F
100
AcDbEntity
  8
0
  6
Continuous
 62
     7
370
    15
100
AcDbLine
 10
264.7645160073
 20
70.2138143964
 30
0.0
 11
261.9717690189
 21
68.6015958771
 31
0.0
  0
SPLINE
  5
241
330
1F
100
AcDbEntity
  8
0
  6
Continuous
 62
     7
370
    15
100
AcDbSpline
210
0.0
220
0.0
230
1.0
 70
     8
 71
     3
 72
     8
 73
     4
 74
     0
 42
0.000000001
 43
0.00000001
 40
0.0
 40
0.0
 40
0.0
 40
0.0
 40
1.0
 40
1.0
 40
1.0
 40
1.0
 10
232.156703457568
 20
48.47401986932822
 30
0.0
 10
231.8696363278957
 20
48.42656786960487
 30
0.0
 10
231.5825232093102
 20
48.37921043690208
 30
0.0
 10
231.2953683829126
 20
48.33193876799001
 30
0.0
  0
SPLINE
  5
242
330
1F
100
AcDbEntity
  8
0
  6
Continuous
 62
     7
370
    15
100
AcDbSpline
210
0.0
220
0.0
230
1.0
 70
     8
 71
     3
 72
     8
 73
     4
 74
     0
 42
0.000000001
 43
0.00000001
 40
0.0
 40
0.0
 40
0.0
 40
0.0
 40
0.0011862984959113
 40
0.0011862984959113
 40
0.0011862984959113
 40
0.0011862984959113
 10
230.9430672956371
 20
48.70229566765219
 30
0.0
 10
231.0607781634816
 20
48.57874571653974
 30
0.0
 10
231.1782179139176
 20
48.45529066742446
 30
0.0
 10
231.2953683829126
 20
48.33193876799001
 30
0.0
  0
LWPOLYLINE
  5
243
330
1F
100
AcDbEntity
  8
0
  6
Continuous
 62
     7
370
    15
100
AcDbPolyline
 90
       24
 70
   128
 43
0.0
 10
230.9430675088
 20
48.702295636
 10
231.4137266344
 20
50.5636558831
 10
231.9988605519
 20
52.4395739567
 10
232.6942954062
 20
54.3166695233
 10
233.495072357
 20
56.1815566202
 10
234.3954805064
 20
58.0209330057
 10
235.3890964113
 20
59.8216820583
 10
236.4688341328
 20
61.5709579431
 10
237.6269939685
 20
63.2562867495
 10
238.8553144775
 20
64.865647475
 10
240.1450357008
 20
66.3875632751
 10
241.4869597473
 20
67.8111775041
 10
242.8715146724
 20
69.1263392606
 10
244.28882626
 20
70.3236676405
 10
245.7287860163
 20
71.3946214078
 10
247.1811242486
 20
72.3315655162
 10
248.6354824426
 20
73.1278144132
 10
250.0814879669
 20
73.7776918958
 10
251.5088280348
 20
74.2765616409
 10
252.9073220423
 20
74.6208659226
 10
254.2669964974
 20
74.8081490964
 10
255.578154003
 20
74.8370761291
 10
256.8314425685
 20
74.7074391511
 10
258.0179244278
 20
74.420163724
  0
LINE
  5
244
330
1F
100
AcDbEntity
  8
0
  6
Continuous
 62
     7
370
    15
100
AcDbLine
 10
258.3240626718
 20
73.4568825464
 30
0.0
 11
258.0179244278
 21
74.420163724
 31
0.0
  0
LWPOLYLINE
  5
245
330
1F
100
AcDbEntity
  8
0
  6
Continuous
 62
     7
370
    15
100
AcDbPolyline
 90
       23
 70
   128
 43
0.0
 10
232.1567034631
 20
48.4740198436
 10
232.6079526479
 20
50.2880275077
 10
233.1736884784
 20
52.1173257029
 10
233.8496844158
 20
53.9482485473
 10
234.630890741
 20
55.7671165477
 10
235.5114701152
 20
57.56034078
 10
236.4848436791
 20
59.3145247869
 10
237.5437404425
 20
61.0165630527
 10
238.6802486519
 20
62.65374062
 10
239.8858776928
 20
64.2138235782
 10
241.151620652
 20
65.6851590588
 10
242.4680201718
 20
67.0567527967
 10
243.8252425365
 20
68.3183590473
 10
245.2131476422
 20
69.4605529196
 10
246.6213662941
 20
70.4747993334
 10
248.0393778528
 20
71.353522178
 10
249.4565884978
 20
72.090155577
 10
250.8624099654
 20
72.6791969472
 10
252.2463399318
 20
73.116245798
 10
253.5980387544
 20
73.3980358657
 10
254.9074076531
 20
73.5224635171
 10
256.1646652664
 20
73.488596962
 10
256.3477347127
 20
73.4699130817
  0
LINE
  5
246
330
1F
100
AcDbEntity
  8
0
  6
Continuous
 62
     7
370
    15
100
AcDbLine
 10
229.5052228327
 20
49.5323456993
 30
0.0
 11
230.9430675088
 21
48.702295636
 31
0.0
  0
ARC
  5
247
330
1F
100
AcDbEntity
  8
0
  6
Continuous
 62
     7
370
    15
100
AcDbCircle
 10
253.5849447816
 20
64.8860236681
 30
0.0
 40
10.78829320689538
100
AcDbArc
 50
73.8812978359
 51
105.8629927988
  0
LINE
  5
248
330
1F
100
AcDbEntity
  8
0
  6
Continuous
 62
     7
370
    15
100
AcDbLine
 10
258.0179244278
 20
74.420163724
 30
0.0
 11
256.5800797518
 21
75.2502137874
 31
0.0
  0
LINE
  5
249
330
1F
100
AcDbEntity
  8
0
  6
Continuous
 62
     7
370
    15
100
AcDbLine
 10
233.4092943006
 20
48.1476778421
 30
0.0
 11
232.7831906829
 21
48.5091197671
 31
0.0
  0
SPLINE
  5
24A
330
1F
100
AcDbEntity
  8
0
  6
Continuous
 62
     7
370
    15
100
AcDbSpline
210
0.0
220
0.0
230
1.0
 70
     8
 71
     3
 72
    11
 73
     7
 74
     0
 42
0.000000001
 43
0.00000001
 40
0.0
 40
0.0
 40
0.0
 40
0.0
 40
0.3165694752064712
 40
0.6331520400060429
 40
0.9494411625907934
 40
1.0
 40
1.0
 40
1.0
 40
1.0
 10
244.0037169885059
 20
66.49176651508195
 30
0.0
 10
243.8701268083022
 20
66.44458785216187
 30
0.0
 10
243.6029409241749
 20
66.35022857556672
 30
0.0
 10
243.2869907249762
 20
66.09041287637352
 30
0.0
 10
243.1062880340195
 20
65.86722149090104
 30
0.0
 10
243.0713530704695
 20
65.73847231340324
 30
0.0
 10
243.0665383479287
 20
65.72072815385609
 30
0.0
  0
SPLINE
  5
24B
330
1F
100
AcDbEntity
  8
0
  6
Continuous
 62
     7
370
    15
100
AcDbSpline
210
0.0
220
0.0
230
1.0
 70
     8
 71
     3
 72
    14
 73
    10
 74
     0
 42
0.000000001
 43
0.00000001
 40
0.0
 40
0.0
 40
0.0
 40
0.0
 40
0.25
 40
0.25
 40
0.5
 40
0.5
 40
0.75
 40
0.75
 40
1.0
 40
1.0
 40
1.0
 40
1.0
 10
232.7831905703017
 20
48.50911993656026
 30
0.0
 10
232.7455565768437
 20
48.53084557854031
 30
0.0
 10
232.6997826201545
 20
48.54805733965181
 30
0.0
 10
232.5998467426446
 20
48.57046267328431
 30
0.0
 10
232.5454128738047
 20
48.57563755688413
 30
0.0
 10
232.4391972233127
 20
48.57369536256937
 30
0.0
 10
232.3858809233627
 20
48.56660695965115
 30
0.0
 10
232.2883878560619
 20
48.54187352336646
 30
0.0
 10
232.2434761655323
 20
48.52411268738041
 30
0.0
 10
232.2057228999323
 20
48.50231819105842
 30
0.0
  0
LINE
  5
24C
330
1F
100
AcDbEntity
  8
0
  6
Continuous
 62
     7
370
    15
100
AcDbLine
 10
232.2057228821
 20
48.5023181519
 30
0.0
 11
232.1567034631
 21
48.4740198436
 31
0.0
  0
SPLINE
  5
24D
330
1F
100
AcDbEntity
  8
0
  6
Continuous
 62
     7
370
    15
100
AcDbSpline
210
0.0
220
0.0
230
1.0
 70
     8
 71
     3
 72
    10
 73
     6
 74
     0
 42
0.000000001
 43
0.00000001
 40
0.0
 40
0.0
 40
0.0
 40
0.0
 40
0.5
 40
0.5
 40
1.0
 40
1.0
 40
1.0
 40
1.0
 10
229.4032102672822
 20
49.56179387823691
 30
0.0
 10
229.4105265517044
 20
49.5661618781301
 30
0.0
 10
229.4223504119128
 20
49.56669393071835
 30
0.0
 10
229.4565017761905
 20
49.55746388108005
 30
0.0
 10
229.4787587395834
 20
49.54762300376375
 30
0.0
 10
229.5052227576051
 20
49.53234565134743
 30
0.0
  0
ARC
  5
24E
330
1F
100
AcDbEntity
  8
0
  6
Continuous
 62
     7
370
    15
100
AcDbCircle
 10
268.6227660481
 20
40.4683632327
 30
0.0
 40
40.19000389694027
100
AcDbArc
 50
138.2553398508
 51
149.7272566549
  0
LWPOLYLINE
  5
24F
330
1F
100
AcDbEntity
  8
0
  6
Continuous
 62
     7
370
    15
100
AcDbPolyline
 90
       38
 70
   128
 43
0.0
 10
266.532608571
 20
36.5760064173
 10
266.5951607504
 20
37.4607928479
 10
266.7810178156
 20
38.3923468228
 10
267.0848327145
 20
39.3438689905
 10
267.4978659031
 20
40.287986359
 10
268.008234604
 20
41.1975376395
 10
268.6012565676
 20
42.046357442
 10
269.2598717045
 20
42.8100263374
 10
269.9651327837
 20
43.4665750473
 10
270.6967507897
 20
43.9971156249
 10
271.4336783931
 20
44.3863858913
 10
272.1547154821
 20
44.6231868352
 10
272.839119222
 20
44.7007066557
 10
273.4672004488
 20
44.616714481
 10
274.0208905124
 20
44.3736271417
 10
274.4842605382
 20
43.9784372579
 10
274.8439805975
 20
43.4425146205
 10
275.0897019927
 20
42.7812761141
 10
275.2143555777
 20
42.0137443831
 10
275.2143555777
 20
41.1620001843
 10
275.0897019927
 20
40.2505464875
 10
274.8439805975
 20
39.305604097
 10
274.4842605382
 20
38.3543575195
 10
274.0208905124
 20
37.4241719917
 10
273.4672004488
 20
36.5418077124
 10
272.839119222
 20
35.7326483888
 10
272.1547154821
 20
35.019972471
 10
271.4336783931
 20
34.424281712
 10
270.6967507897
 20
33.9627134781
 10
269.9651327837
 20
33.648545886
 10
269.2598717045
 20
33.4908174863
 10
268.6012565676
 20
33.4940655307
 10
268.008234604
 20
33.658196748
 10
267.4978659031
 20
33.9784888691
 10
267.0848327145
 20
34.4457282688
 10
266.7810178156
 20
35.0464732207
 10
266.5951607504
 20
35.7634411957
 10
266.532608571
 20
36.5760064173
  0
LWPOLYLINE
  5
250
330
1F
100
AcDbEntity
  8
0
  6
Continuous
 62
     7
370
    15
100
AcDbPolyline
 90
       20
 70
   128
 43
0.0
 10
266.3911858087
 20
36.5760069875
 10
266.45475511
 20
37.4751801399
 10
266.643634236
 20
38.4218813014
 10
266.9523895358
 20
39.3888755737
 10
267.3721385612
 20
40.3483443468
 10
267.8908059108
 20
41.2726852814
 10
268.4934706124
 20
42.135307151
 10
269.1627948354
 20
42.9113933055
 10
269.879523644
 20
43.5786173631
 10
270.6230378655
 20
44.1177848106
 10
271.3719480361
 20
44.5133846279
 10
272.1047093165
 20
44.7540362876
 10
272.800241553
 20
44.8328161489
 10
273.4385354881
 20
44.7474583653
 10
274.0012286783
 20
44.5004181506
 10
274.4721331118
 20
44.0988027891
 10
274.8377023635
 20
43.5541658388
 10
275.0874191482
 20
42.8821754381
 10
275.2140997332
 20
42.1021636554
 10
275.2300207052
 20
41.6785577625
  0
LWPOLYLINE
  5
251
330
1F
100
AcDbEntity
  8
0
  6
Continuous
 62
     7
370
    15
100
AcDbPolyline
 90
       11
 70
   128
 43
0.0
 10
270.8113215365
 20
34.0243168787
 10
270.6230378655
 20
33.9202215481
 10
269.879523644
 20
33.6009457479
 10
269.1627948354
 20
33.4406523373
 10
268.4934706124
 20
33.4439531931
 10
267.8908059108
 20
33.6107532092
 10
267.3721385612
 20
33.9362535687
 10
266.9523895358
 20
34.4110904327
 10
266.643634236
 20
35.0216034237
 10
266.45475511
 20
35.7502293882
 10
266.3911858087
 20
36.5760069875
  0
SPLINE
  5
252
330
1F
100
AcDbEntity
  8
0
  6
Continuous
 62
     7
370
    15
100
AcDbSpline
210
0.0
220
0.0
230
1.0
 70
     8
 71
     3
 72
    38
 73
    34
 74
     0
 42
0.000000001
 43
0.00000001
 40
0.0
 40
0.0
 40
0.0
 40
0.0
 40
0.0625
 40
0.0625
 40
0.125
 40
0.125
 40
0.1874999999999999
 40
0.1874999999999999
 40
0.25
 40
0.25
 40
0.3125000000000001
 40
0.3125000000000001
 40
0.3750000000000001
 40
0.3750000000000001
 40
0.4375000000000001
 40
0.4375000000000001
 40
0.5000000000000001
 40
0.5000000000000001
 40
0.5625000000000001
 40
0.5625000000000001
 40
0.6250000000000001
 40
0.6250000000000001
 40
0.6875000000000001
 40
0.6875000000000001
 40
0.75
 40
0.75
 40
0.8125
 40
0.8125
 40
0.875
 40
0.875
 40
0.9375
 40
0.9375
 40
1.0
 40
1.0
 40
1.0
 40
1.0
 10
269.643877329281
 20
44.90419899068605
 30
0.0
 10
269.5622244598804
 20
44.85706179252455
 30
0.0
 10
269.4703473644732
 20
44.81277348789009
 30
0.0
 10
269.2711121837359
 20
44.73269184120768
 30
0.0
 10
269.1660864606998
 20
44.69770267872433
 30
0.0
 10
268.9459472272
 20
44.63788175865432
 30
0.0
 10
268.8316122416067
 20
44.61342322521362
 30
0.0
 10
268.6028624945407
 20
44.57718201274622
 30
0.0
 10
268.4861761378255
 20
44.5650540560696
 30
0.0
 10
268.2566417741314
 20
44.55413726257316
 30
0.0
 10
268.1438599965821
 20
44.55519887052634
 30
0.0
 10
267.9218634192345
 20
44.57084447780667
 30
0.0
 10
267.8127858603931
 20
44.58559282547775
 30
0.0
 10
267.6056785455639
 20
44.6282371823022
 30
0.0
 10
267.5065991957788
 20
44.6561745396029
 30
0.0
 10
267.3173663798988
 20
44.72601771385951
 30
0.0
 10
267.2284587265887
 20
44.76759855527786
 30
0.0
 10
267.0656017131176
 20
44.86201438220046
 30
0.0
 10
266.9909884502515
 20
44.91508422923664
 30
0.0
 10
266.8559245961042
 20
45.03316102172962
 30
0.0
 10
266.7967474198291
 20
45.09718516519134
 30
0.0
 10
266.6968209430761
 20
45.23227080246836
 30
0.0
 10
266.6556927108997
 20
45.30364762922941
 30
0.0
 10
266.5924541233783
 20
45.45365861863657
 30
0.0
 10
266.5711406487505
 20
45.53064256570066
 30
0.0
 10
266.5500657268794
 20
45.68529212648016
 30
0.0
 10
266.550126590684
 20
45.76330473933709
 30
0.0
 10
266.5743461607387
 20
45.91961587759339
 30
0.0
 10
266.5981412359637
 20
45.99511399335718
 30
0.0
 10
266.66958101484
 20
46.13864261411188
 30
0.0
 10
266.7180207452529
 20
46.20762397731045
 30
0.0
 10
266.8390165236167
 20
46.33258292307661
 30
0.0
 10
266.9102098224234
 20
46.38761674938478
 30
0.0
 10
266.9922268998315
 20
46.43496420035363
 30
0.0
  0
SPLINE
  5
253
330
1F
100
AcDbEntity
  8
0
  6
Continuous
 62
     7
370
    15
100
AcDbSpline
210
0.0
220
0.0
230
1.0
 70
     8
 71
     3
 72
    34
 73
    30
 74
     0
 42
0.000000001
 43
0.00000001
 40
0.0
 40
0.0
 40
0.0
 40
0.0
 40
0.0624999999999993
 40
0.0624999999999993
 40
0.1249999999999985
 40
0.1249999999999985
 40
0.2499999999999987
 40
0.2499999999999987
 40
0.3749999999999988
 40
0.3749999999999988
 40
0.4374999999999989
 40
0.4374999999999989
 40
0.499999999999999
 40
0.499999999999999
 40
0.5624999999999991
 40
0.5624999999999991
 40
0.6249999999999992
 40
0.6249999999999992
 40
0.6874999999999994
 40
0.6874999999999994
 40
0.7499999999999996
 40
0.7499999999999996
 40
0.8124999999999997
 40
0.8124999999999997
 40
0.8749999999999998
 40
0.8749999999999998
 40
0.9375
 40
0.9375
 40
1.0
 40
1.0
 40
1.0
 40
1.0
 10
266.9922268998315
 20
46.43496420035363
 30
0.0
 10
267.0742700483549
 20
46.48232670185703
 30
0.0
 10
267.1676070810947
 20
46.52171304494318
 30
0.0
 10
267.365494598494
 20
46.58078821207469
 30
0.0
 10
267.4725665575544
 20
46.60136372087923
 30
0.0
 10
267.8033394387035
 20
46.63617304484273
 30
0.0
 10
268.0377610456441
 20
46.6242631933335
 30
0.0
 10
268.5002051370672
 20
46.55073885638356
 30
0.0
 10
268.7204928752265
 20
46.49149077345805
 30
0.0
 10
269.0341481672552
 20
46.37942394447438
 30
0.0
 10
269.1330339429366
 20
46.33905963143965
 30
0.0
 10
269.3201459035853
 20
46.25329707526267
 30
0.0
 10
269.4088422483589
 20
46.20761612818455
 30
0.0
 10
269.5729838954807
 20
46.11245819626213
 30
0.0
 10
269.6472300610625
 20
46.06374647555355
 30
0.0
 10
269.7804720963355
 20
45.96386871097494
 30
0.0
 10
269.8398306861869
 20
45.91232347027613
 30
0.0
 10
269.9404546621436
 20
45.80762956917839
 30
0.0
 10
269.9811988446756
 20
45.75517740085736
 30
0.0
 10
270.043451776223
 20
45.64895978202643
 30
0.0
 10
270.0650610069404
 20
45.59469271038768
 30
0.0
 10
270.0861756386999
 20
45.4856959781911
 30
0.0
 10
270.0857668717499
 20
45.4316334184498
 30
0.0
 10
270.061983386766
 20
45.32298108205692
 30
0.0
 10
270.0380579991824
 20
45.26761873185102
 30
0.0
 10
269.9659188673521
 20
45.15910930845951
 30
0.0
 10
269.9182985031788
 20
45.10623581155052
 30
0.0
 10
269.7986044503876
 20
45.00251169717989
 30
0.0
 10
269.7255561540247
 20
44.95135117254813
 30
0.0
 10
269.643877329281
 20
44.90419899068605
 30
0.0
  0
LWPOLYLINE
  5
254
330
1F
100
AcDbEntity
  8
0
  6
Continuous
 62
     7
370
    15
100
AcDbPolyline
 90
       35
 70
   128
 43
0.0
 10
267.2573927783
 20
36.9944154341
 10
267.3190970816
 20
37.7989863223
 10
267.5021082468
 20
38.6474005821
 10
267.800194467
 20
39.5107666268
 10
268.2032042789
 20
40.3596831568
 10
268.6974141086
 20
41.1652419877
 10
269.2659940282
 20
41.9000101445
 10
269.8895817589
 20
42.5389663649
 10
270.5469417717
 20
43.0603519366
 10
271.2156884923
 20
43.4464112009
 10
271.8730485051
 20
43.6839973449
 10
272.4966362359
 20
43.7650201931
 10
273.0652161554
 20
43.6867204382
 10
273.5594259852
 20
43.4517641311
 10
273.962435797
 20
43.0681528255
 10
274.2605220173
 20
42.548949805
 10
274.4435331824
 20
41.9118357388
 10
274.5052374857
 20
41.1785071227
 10
274.4435331824
 20
40.3739362345
 10
274.2605220173
 20
39.5255219747
 10
273.962435797
 20
38.66215593
 10
273.5594259852
 20
37.8132394
 10
273.0652161554
 20
37.0076805691
 10
272.4966362359
 20
36.2729124123
 10
271.8730485051
 20
35.6339561919
 10
271.2156884923
 20
35.1125706202
 10
270.5469417717
 20
34.7265113559
 10
269.8895817589
 20
34.488925212
 10
269.2659940282
 20
34.4079023637
 10
268.6974141086
 20
34.4862021186
 10
268.2032042789
 20
34.7211584258
 10
267.800194467
 20
35.1047697313
 10
267.5021082468
 20
35.6239727518
 10
267.3190970816
 20
36.261086818
 10
267.2573927783
 20
36.9944154341
  0
ARC
  5
255
330
1F
100
AcDbEntity
  8
0
  6
Continuous
 62
     7
370
    15
100
AcDbCircle
 10
271.7278200029
 20
37.4832254076
 30
0.0
 40
4.34214743674938
100
AcDbArc
 50
152.8222845666
 51
207.1777154334
  0
SPLINE
  5
256
330
1F
100
AcDbEntity
  8
0
  6
Continuous
 62
     7
370
    15
100
AcDbSpline
210
0.0
220
0.0
230
1.0
 70
     8
 71
     3
 72
    22
 73
    18
 74
     0
 42
0.000000001
 43
0.00000001
 40
0.0
 40
0.0
 40
0.0
 40
0.0
 40
0.1250000000000001
 40
0.1250000000000001
 40
0.2500000000000003
 40
0.2500000000000003
 40
0.3750000000000004
 40
0.3750000000000004
 40
0.5000000000000006
 40
0.5000000000000006
 40
0.6250000000000007
 40
0.6250000000000007
 40
0.7500000000000004
 40
0.7500000000000004
 40
0.8750000000000003
 40
0.8750000000000003
 40
1.0
 40
1.0
 40
1.0
 40
1.0
 10
268.8136642819746
 20
34.87087275345346
 30
0.0
 10
268.7666266081907
 20
34.82364458350741
 30
0.0
 10
268.7181458430096
 20
34.78540466530712
 30
0.0
 10
268.6186892588441
 20
34.72679864030968
 30
0.0
 10
268.5670885256068
 20
34.70639874279394
 30
0.0
 10
268.4656491958885
 20
34.68610487395503
 30
0.0
 10
268.4156170746715
 20
34.68583229986097
 30
0.0
 10
268.3171679856717
 20
34.70561576414698
 30
0.0
 10
268.2692771855397
 20
34.72583771470337
 30
0.0
 10
268.179893181199
 20
34.78505710053984
 30
0.0
 10
268.1374080489318
 20
34.82469767534763
 30
0.0
 10
268.0600548094807
 20
34.92143886398833
 30
0.0
 10
268.0254994241876
 20
34.97781806867545
 30
0.0
 10
267.9642408780433
 20
35.10621874765671
 30
0.0
 10
267.9377021679237
 20
35.17840295103916
 30
0.0
 10
267.8945954762374
 20
35.33146614831964
 30
0.0
 10
267.8776202004203
 20
35.41311334931619
 30
0.0
 10
267.8650719311293
 20
35.49994064638363
 30
0.0
  0
SPLINE
  5
257
330
1F
100
AcDbEntity
  8
0
  6
Continuous
 62
     7
370
    15
100
AcDbSpline
210
0.0
220
0.0
230
1.0
 70
     8
 71
     3
 72
     8
 73
     4
 74
     0
 42
0.000000001
 43
0.00000001
 40
0.0
 40
0.0
 40
0.0
 40
0.0
 40
1.0
 40
1.0
 40
1.0
 40
1.0
 10
268.9143088220912
 20
34.97052996548793
 30
0.0
 10
268.8803912713933
 20
34.93741783786201
 30
0.0
 10
268.8468530132166
 20
34.90419589452952
 30
0.0
 10
268.8136642819746
 20
34.87087275345346
 30
0.0
  0
LWPOLYLINE
  5
258
330
1F
100
AcDbEntity
  8
0
  6
Continuous
 62
     7
370
    15
100
AcDbPolyline
 90
        9
 70
   128
 43
0.0
 10
272.5301224009
 20
37.0578937533
 10
272.1128262892
 20
36.5472386366
 10
271.6660172583
 20
36.0924223739
 10
271.1991779378
 20
35.7030979143
 10
270.7222160472
 20
35.3875278504
 10
270.2452541567
 20
35.1524094372
 10
269.7784148361
 20
35.0027326903
 10
269.3316058053
 20
34.9416742267
 10
268.9143096936
 20
34.9705295081
  0
SPLINE
  5
259
330
1F
100
AcDbEntity
  8
0
  6
Continuous
 62
     7
370
    15
100
AcDbSpline
210
0.0
220
0.0
230
1.0
 70
     8
 71
     3
 72
     8
 73
     4
 74
     0
 42
0.000000001
 43
0.00000001
 40
0.0
 40
0.0
 40
0.0
 40
0.0
 40
1.0
 40
1.0
 40
1.0
 40
1.0
 10
272.7027515785006
 20
37.11599506096591
 30
0.0
 10
272.6450201731879
 20
37.09683303278124
 30
0.0
 10
272.587471682026
 20
37.07747167968228
 30
0.0
 10
272.5301215190898
 20
37.0578942046681
 30
0.0
  0
SPLINE
  5
25A
330
1F
100
AcDbEntity
  8
0
  6
Continuous
 62
     7
370
    15
100
AcDbSpline
210
0.0
220
0.0
230
1.0
 70
     8
 71
     3
 72
    22
 73
    18
 74
     0
 42
0.000000001
 43
0.00000001
 40
0.0
 40
0.0
 40
0.0
 40
0.0
 40
0.1250000000000002
 40
0.1250000000000002
 40
0.2500000000000004
 40
0.2500000000000004
 40
0.3750000000000007
 40
0.3750000000000007
 40
0.5000000000000006
 40
0.5000000000000006
 40
0.6250000000000004
 40
0.6250000000000004
 40
0.7500000000000003
 40
0.7500000000000003
 40
0.8750000000000002
 40
0.8750000000000002
 40
1.0
 40
1.0
 40
1.0
 40
1.0
 10
273.6585027138652
 20
38.8444170480752
 30
0.0
 10
273.6802343678285
 20
38.76288903365686
 30
0.0
 10
273.6934057074153
 20
38.67897156998259
 30
0.0
 10
273.7029101246479
 20
38.50624094989749
 30
0.0
 10
273.6990061740902
 20
38.41633394516123
 30
0.0
 10
273.6738711391145
 20
38.23841994471621
 30
0.0
 10
273.6528905925794
 20
38.1500723207543
 30
0.0
 10
273.5937011450292
 20
37.97456455091034
 30
0.0
 10
273.5555943131118
 20
37.88837724250247
 30
0.0
 10
273.4655520046025
 20
37.72557437938022
 30
0.0
 10
273.4126193379892
 20
37.64715644128375
 30
0.0
 10
273.2946996110214
 20
37.50244131378855
 30
0.0
 10
273.2304313970046
 20
37.43668980200645
 30
0.0
 10
273.0914227653778
 20
37.31814626235536
 30
0.0
 10
273.0166576968877
 20
37.2656778665346
 30
0.0
 10
272.8636499683561
 20
37.17857022322377
 30
0.0
 10
272.78456019394
 20
37.14314872172142
 30
0.0
 10
272.7027515785006
 20
37.11599506096591
 30
0.0
  0
ARC
  5
25B
330
1F
100
AcDbEntity
  8
0
  6
Continuous
 62
     7
370
    15
100
AcDbCircle
 10
269.7957533364
 20
40.8277017744
 30
0.0
 40
4.342147436750038
100
AcDbArc
 50
332.8222845666
 51
27.1777154334
  0
SPLINE
  5
25C
330
1F
100
AcDbEntity
  8
0
  6
Continuous
 62
     7
370
    15
100
AcDbSpline
210
0.0
220
0.0
230
1.0
 70
     8
 71
     3
 72
    22
 73
    18
 74
     0
 42
0.000000001
 43
0.00000001
 40
0.0
 40
0.0
 40
0.0
 40
0.0
 40
0.1250000000000001
 40
0.1250000000000001
 40
0.2500000000000003
 40
0.2500000000000003
 40
0.3750000000000004
 40
0.3750000000000004
 40
0.5000000000000006
 40
0.5000000000000006
 40
0.6250000000000007
 40
0.6250000000000007
 40
0.7500000000000004
 40
0.7500000000000004
 40
0.8750000000000003
 40
0.8750000000000003
 40
1.0
 40
1.0
 40
1.0
 40
1.0
 10
272.7027515785006
 20
43.44418635308048
 30
0.0
 10
272.7845620327288
 20
43.47134062416099
 30
0.0
 10
272.8637208101984
 20
43.49187050283593
 30
0.0
 10
273.0169745970717
 20
43.51942006376555
 30
0.0
 10
273.0918793302886
 20
43.52636684845062
 30
0.0
 10
273.2305563427659
 20
43.52516386060628
 30
0.0
 10
273.2947433036538
 20
43.51726501969175
 30
0.0
 10
273.4126158880725
 20
43.48626861017464
 30
0.0
 10
273.465560515372
 20
43.46312914729547
 30
0.0
 10
273.5555979914236
 20
43.40353252027013
 30
0.0
 10
273.5936958369429
 20
43.36642467219128
 30
0.0
 10
273.6529067881796
 20
43.28015680360589
 30
0.0
 10
273.6739156856952
 20
43.23159781985456
 30
0.0
 10
273.6990581426645
 20
43.12404651536264
 30
0.0
 10
273.7029048787981
 20
43.06496210972529
 30
0.0
 10
273.6933884067847
 20
42.9422776182197
 30
0.0
 10
273.6802338659702
 20
42.87802399013201
 30
0.0
 10
273.6585027138652
 20
42.81098578181386
 30
0.0
  0
SPLINE
  5
25D
330
1F
100
AcDbEntity
  8
0
  6
Continuous
 62
     7
370
    15
100
AcDbSpline
210
0.0
220
0.0
230
1.0
 70
     8
 71
     3
 72
     8
 73
     4
 74
     0
 42
0.000000001
 43
0.00000001
 40
0.0
 40
0.0
 40
0.0
 40
0.0
 40
1.0
 40
1.0
 40
1.0
 40
1.0
 10
272.5301215190898
 20
43.38608549678266
 30
0.0
 10
272.5874796213544
 20
43.40566568202461
 30
0.0
 10
272.6450279506138
 20
43.42502690635477
 30
0.0
 10
272.7027515785006
 20
43.44418635308048
 30
0.0
  0
LWPOLYLINE
  5
25E
330
1F
100
AcDbEntity
  8
0
  6
Continuous
 62
     7
370
    15
100
AcDbPolyline
 90
        9
 70
   128
 43
0.0
 10
268.9143096936
 20
41.2987206968
 10
269.3316058053
 20
41.8093758135
 10
269.7784148361
 20
42.2641920762
 10
270.2452541567
 20
42.6535165358
 10
270.7222160472
 20
42.9690865997
 10
271.1991779378
 20
43.2042050129
 10
271.6660172583
 20
43.3538817598
 10
272.1128262892
 20
43.4149402234
 10
272.5301224009
 20
43.386084942
  0
SPLINE
  5
25F
330
1F
100
AcDbEntity
  8
0
  6
Continuous
 62
     7
370
    15
100
AcDbSpline
210
0.0
220
0.0
230
1.0
 70
     8
 71
     3
 72
     8
 73
     4
 74
     0
 42
0.000000001
 43
0.00000001
 40
0.0
 40
0.0
 40
0.0
 40
0.0
 40
1.0
 40
1.0
 40
1.0
 40
1.0
 10
268.8136642819746
 20
41.19906404556803
 30
0.0
 10
268.8468574849192
 20
41.23239167645649
 30
0.0
 10
268.8803959661541
 20
41.26561371325332
 30
0.0
 10
268.9143088220912
 20
41.29872125760249
 30
0.0
  0
SPLINE
  5
260
330
1F
100
AcDbEntity
  8
0
  6
Continuous
 62
     7
370
    15
100
AcDbSpline
210
0.0
220
0.0
230
1.0
 70
     8
 71
     3
 72
    22
 73
    18
 74
     0
 42
0.000000001
 43
0.00000001
 40
0.0
 40
0.0
 40
0.0
 40
0.0
 40
0.1250000000000002
 40
0.1250000000000002
 40
0.2500000000000004
 40
0.2500000000000004
 40
0.3750000000000007
 40
0.3750000000000007
 40
0.5000000000000006
 40
0.5000000000000006
 40
0.6250000000000004
 40
0.6250000000000004
 40
0.7500000000000003
 40
0.7500000000000003
 40
0.8750000000000002
 40
0.8750000000000002
 40
1.0
 40
1.0
 40
1.0
 40
1.0
 10
267.8650719311293
 20
39.46650938012229
 30
0.0
 10
267.8776204902094
 20
39.52824784878298
 30
0.0
 10
267.8946057315639
 20
39.59475628884136
 30
0.0
 10
267.9377942027559
 20
39.73706795192467
 30
0.0
 10
267.9644103438671
 20
39.81386348813972
 30
0.0
 10
268.0255649485207
 20
39.97098383361519
 30
0.0
 10
268.0600768490876
 20
40.05151997316661
 30
0.0
 10
268.1374002326204
 20
40.21655924459607
 30
0.0
 10
268.1798972486212
 20
40.30021215367879
 30
0.0
 10
268.2692852186769
 20
40.4633927583499
 30
0.0
 10
268.3171659292906
 20
40.54472712856696
 30
0.0
 10
268.4156527421382
 20
40.70066063859373
 30
0.0
 10
268.4657493143041
 20
40.77459326507636
 30
0.0
 10
268.5674137334956
 20
40.91469515968393
 30
0.0
 10
268.6188998352386
 20
40.98060221695782
 30
0.0
 10
268.7181868857463
 20
41.09872214757672
 30
0.0
 10
268.7666276654192
 20
41.1518369371321
 30
0.0
 10
268.8136642819746
 20
41.19906404556803
 30
0.0
  0
LWPOLYLINE
  5
261
330
1F
100
AcDbEntity
  8
0
  6
Continuous
 62
     7
370
    15
100
AcDbPolyline
 90
       20
 70
   128
 43
0.0
 10
271.0476396848
 20
43.0213386776
 10
271.3312849295
 20
42.9921119507
 10
271.7593498903
 20
42.8193549769
 10
272.0992431501
 20
42.499251097
 10
272.3350720544
 20
42.0467683772
 10
272.4558091105
 20
41.4830640487
 10
272.4558091105
 20
40.8344965704
 10
272.3350720544
 20
40.1313922041
 10
272.0992431501
 20
39.4066272272
 10
271.7593498903
 20
38.6940909426
 10
271.3312849295
 20
38.0271006851
 10
270.8350643988
 20
37.4368442015
 10
270.293890879
 20
36.9509211234
 10
269.733069118
 20
36.5920529491
 10
269.1788224917
 20
36.3770195706
 10
268.6570668976
 20
36.315876171
 10
268.192199177
 20
36.4114813639
 10
267.8059557437
 20
36.6593649152
 10
267.5163973455
 20
37.0479360558
 10
267.401361803
 20
37.3215655807
  0
LINE
  5
262
330
1F
100
AcDbEntity
  8
0
  6
Continuous
 62
     7
370
    15
100
AcDbLine
 10
267.9291430793
 20
35.3814960387
 30
0.0
 11
269.1721259172
 21
36.0990547573
 31
0.0
  0
LINE
  5
263
330
1F
100
AcDbEntity
  8
0
  6
Continuous
 62
     7
370
    15
100
AcDbLine
 10
272.7704020782
 20
43.3236753326
 30
0.0
 11
272.7721771849
 21
43.4437695571
 31
0.0
  0
ARC
  5
264
330
1F
100
AcDbEntity
  8
0
  6
Continuous
 62
     7
370
    15
100
AcDbCircle
 10
268.9076533838
 20
41.3403909641
 30
0.0
 40
4.342147436750038
100
AcDbArc
 50
332.8222845666
 51
27.1777154334
  0
ARC
  5
265
330
1F
100
AcDbEntity
  8
0
  6
Continuous
 62
     7
370
    15
100
AcDbCircle
 10
270.720932617
 20
39.3575900209
 30
0.0
 40
2.049469518178455
100
AcDbArc
 50
302.3714316784
 51
359.9864851711
  0
LINE
  5
266
330
1F
100
AcDbEntity
  8
0
  6
Continuous
 62
     7
370
    15
100
AcDbLine
 10
270.5752475169
 20
36.9090596154
 30
0.0
 11
271.8182303548
 21
37.626618334
 31
0.0
  0
ARC
  5
267
330
1F
100
AcDbEntity
  8
0
  6
Continuous
 62
     7
370
    15
100
AcDbCircle
 10
268.0473988936
 20
39.6676232648
 30
0.0
 40
3.74161623773005
100
AcDbArc
 50
287.4935988326
 51
312.5010246347
  0
LINE
  5
268
330
1F
100
AcDbEntity
  8
0
  6
Continuous
 62
     7
370
    15
100
AcDbLine
 10
272.3399884184
 20
43.2763229302
 30
0.0
 11
272.5301224009
 21
43.386084942
 31
0.0
  0
ARC
  5
269
330
1F
100
AcDbEntity
  8
0
  6
Continuous
 62
     7
370
    15
100
AcDbCircle
 10
272.5484930618
 20
39.1788554645
 30
0.0
 40
4.102769042837948
100
AcDbArc
 50
92.9130531898
 51
147.0815702775
  0
LINE
  5
26A
330
1F
100
AcDbEntity
  8
0
  6
Continuous
 62
     7
370
    15
100
AcDbLine
 10
268.9143096936
 20
41.2987206968
 30
0.0
 11
269.1044436761
 21
41.4084827086
 31
0.0
  0
SPLINE
  5
26B
330
1F
100
AcDbEntity
  8
0
  6
Continuous
 62
     7
370
    15
100
AcDbSpline
210
0.0
220
0.0
230
1.0
 70
     8
 71
     3
 72
     9
 73
     5
 74
     0
 42
0.000000001
 43
0.00000001
 40
0.0
 40
0.0
 40
0.0
 40
0.0
 40
0.2251348358338469
 40
1.0
 40
1.0
 40
1.0
 40
1.0
 10
271.3501769250963
 20
43.18807604966519
 30
0.0
 10
271.4224465567561
 20
43.20055011410967
 30
0.0
 10
271.7434525503072
 20
43.25595719670651
 30
0.0
 10
272.079554627311
 20
43.26743172103354
 30
0.0
 10
272.3399884183851
 20
43.27632293020994
 30
0.0
  0
LWPOLYLINE
  5
26C
330
1F
100
AcDbEntity
  8
0
  6
Continuous
 62
     7
370
    15
100
AcDbPolyline
 90
       19
 70
   128
 43
0.0
 10
270.9494485584
 20
42.9745404687
 10
271.2046122471
 20
42.9157938191
 10
271.5964878822
 20
42.6894952884
 10
271.8913378502
 20
42.31783473
 10
272.0743771681
 20
41.8194488645
 10
272.1364275365
 20
41.2193287896
 10
272.0743771681
 20
40.5475668842
 10
271.8913378502
 20
39.8378483206
 10
271.5964878822
 20
39.1257612354
 10
271.2046122471
 20
38.447012727
 10
270.7353611719
 20
37.8356379873
 10
270.2122649458
 20
37.3222939153
 10
269.661553726
 20
36.93272162
 10
269.1108425061
 20
36.6864562751
 10
268.5877462801
 20
36.5958463
 10
268.1184952049
 20
36.6654352805
 10
267.7266195697
 20
36.8917338112
 10
267.4317696018
 20
37.2633943696
 10
267.3958076387
 20
37.3328435004
  0
SPLINE
  5
26D
330
1F
100
AcDbEntity
  8
0
  6
Continuous
 62
     7
370
    15
100
AcDbSpline
210
0.0
220
0.0
230
1.0
 70
     8
 71
     3
 72
    14
 73
    10
 74
     0
 42
0.000000001
 43
0.00000001
 40
0.0
 40
0.0
 40
0.0
 40
0.0
 40
0.25
 40
0.25
 40
0.5
 40
0.5
 40
0.75
 40
0.75
 40
1.0
 40
1.0
 40
1.0
 40
1.0
 10
244.4207958435316
 20
66.79821832422019
 30
0.0
 10
244.4356367356608
 20
66.75970030538458
 30
0.0
 10
244.4350029677569
 20
66.72178166723111
 30
0.0
 10
244.4020673627964
 20
66.65584071746184
 30
0.0
 10
244.3699315174545
 20
66.62756715991988
 30
0.0
 10
244.28502894205
 20
66.57964813373239
 30
0.0
 10
244.2326120295569
 20
66.55977103628464
 30
0.0
 10
244.1212763652618
 20
66.52391411026827
 30
0.0
 10
244.0631216885508
 20
66.50804208658484
 30
0.0
 10
244.0037167328194
 20
66.4917667410301
 30
0.0
  0
LINE
  5
26E
330
1F
100
AcDbEntity
  8
0
  6
Continuous
 62
     7
370
    15
100
AcDbLine
 10
244.4046688487
 20
66.8400741668
 30
0.0
 11
244.4207959452
 21
66.7982186772
 31
0.0
  0
SPLINE
  5
26F
330
1F
100
AcDbEntity
  8
0
  6
Continuous
 62
     7
370
    15
100
AcDbSpline
210
0.0
220
0.0
230
1.0
 70
     8
 71
     3
 72
    10
 73
     6
 74
     0
 42
0.000000001
 43
0.00000001
 40
0.0
 40
0.0
 40
0.0
 40
0.0
 40
0.5
 40
0.5
 40
1.0
 40
1.0
 40
1.0
 40
1.0
 10
244.6957409815923
 20
67.38424476059477
 30
0.0
 10
244.6677259318544
 20
67.31221865790674
 30
0.0
 10
244.6299080434046
 20
67.23127217260328
 30
0.0
 10
244.5339322955697
 20
67.05087713626337
 30
0.0
 10
244.47590051827
 20
66.95155092928857
 30
0.0
 10
244.40466878068
 20
66.8400744677245
 30
0.0
  0
LINE
  5
270
330
1F
100
AcDbEntity
  8
0
  6
Continuous
 62
     7
370
    15
100
AcDbLine
 10
235.0890134841
 20
46.1419141616
 30
0.0
 11
233.2611593234
 21
47.1971119081
 31
0.0
  0
SPLINE
  5
271
330
1F
100
AcDbEntity
  8
0
  6
Continuous
 62
     7
370
    15
100
AcDbSpline
210
0.0
220
0.0
230
1.0
 70
     8
 71
     3
 72
     8
 73
     4
 74
     0
 42
0.000000001
 43
0.00000001
 40
0.0000000000000004
 40
0.0000000000000004
 40
0.0000000000000004
 40
0.0000000000000004
 40
0.0011862984959128
 40
0.0011862984959128
 40
0.0011862984959128
 40
0.0011862984959128
 10
233.2611590558836
 20
47.19711196795148
 30
0.0
 10
233.2500968566259
 20
47.25922041287026
 30
0.0
 10
233.2394708500522
 20
47.32101320017188
 30
0.0
 10
233.2292577222348
 20
47.38250602688976
 30
0.0
  0
LINE
  5
272
330
1F
100
AcDbEntity
  8
0
  6
Continuous
 62
     7
370
    15
100
AcDbLine
 10
272.7704020782
 20
43.3236753326
 30
0.0
 11
273.6585020308
 21
42.8109861429
 31
0.0
  0
LINE
  5
273
330
1F
100
AcDbEntity
  8
0
  6
Continuous
 62
     7
370
    15
100
AcDbLine
 10
233.3339435557
 20
47.9822868033
 30
0.0
 11
233.3140502432
 21
47.7529410468
 31
0.0
  0
ARC
  5
274
330
1F
100
AcDbEntity
  8
0
  6
Continuous
 62
     7
370
    15
100
AcDbCircle
 10
249.3167267177
 20
46.3256408657
 30
0.0
 40
16.06296283247861
100
AcDbArc
 50
176.9225000953
 51
185.727139394
  0
LWPOLYLINE
  5
275
330
1F
100
AcDbEntity
  8
0
  6
Continuous
 62
     7
370
    15
100
AcDbPolyline
 90
        3
 70
   128
 43
0.0
 10
232.3351561831
 20
47.0821589924
 10
232.3965154091
 20
48.5373033499
 10
232.3969750732
 20
48.5428736024
  0
ARC
  5
276
330
1F
100
AcDbEntity
  8
0
  6
Continuous
 62
     7
370
    15
100
AcDbCircle
 10
243.9864507954
 20
46.770906351
 30
0.0
 40
11.65545127176297
100
AcDbArc
 50
178.4697646986
 51
203.9428670419
  0
LINE
  5
277
330
1F
100
AcDbEntity
  8
0
  6
Continuous
 62
     7
370
    15
100
AcDbLine
 10
269.1721259172
 20
36.0990547573
 30
0.0
 11
269.4082826119
 21
35.9627243993
 31
0.0
  0
SPLINE
  5
278
330
1F
100
AcDbEntity
  8
0
  6
Continuous
 62
     7
370
    15
100
AcDbSpline
210
0.0
220
0.0
230
1.0
 70
     8
 71
     3
 72
    10
 73
     6
 74
     0
 42
0.000000001
 43
0.00000001
 40
0.0
 40
0.0
 40
0.0
 40
0.0
 40
0.5
 40
0.5
 40
1.0
 40
1.0
 40
1.0
 40
1.0
 10
269.4082819748746
 20
35.96272476138408
 30
0.0
 10
269.3116018447659
 20
35.82283623112514
 30
0.0
 10
269.2449231385622
 20
35.6772107979411
 30
0.0
 10
269.148985643563
 20
35.37880445674244
 30
0.0
 10
269.1208559476827
 20
35.22953403440538
 30
0.0
 10
269.1044427823974
 20
35.08029196442286
 30
0.0
  0
LINE
  5
279
330
1F
100
AcDbEntity
  8
0
  6
Continuous
 62
     7
370
    15
100
AcDbLine
 10
269.1044436761
 20
35.0802915199
 30
0.0
 11
268.9143096936
 21
34.9705295081
 31
0.0
  0
ARC
  5
27A
330
1F
100
AcDbEntity
  8
0
  6
Continuous
 62
     7
370
    15
100
AcDbCircle
 10
268.8959390327
 20
39.1777589856
 30
0.0
 40
4.102769042837751
100
AcDbArc
 50
272.9130531898
 51
327.0815702775
  0
LINE
  5
27B
330
1F
100
AcDbEntity
  8
0
  6
Continuous
 62
     7
370
    15
100
AcDbLine
 10
272.5301224009
 20
37.0578937533
 30
0.0
 11
272.3399884184
 21
36.9481317415
 31
0.0
  0
ARC
  5
27C
330
1F
100
AcDbEntity
  8
0
  6
Continuous
 62
     7
370
    15
100
AcDbCircle
 10
268.2835555883
 20
39.5312929068
 30
0.0
 40
3.7416162377298
100
AcDbArc
 50
287.4935988326
 51
312.5010246347
  0
SPLINE
  5
27D
330
1F
100
AcDbEntity
  8
0
  6
Continuous
 62
     7
370
    15
100
AcDbSpline
210
0.0
220
0.0
230
1.0
 70
     8
 71
     3
 72
    10
 73
     6
 74
     0
 42
0.000000001
 43
0.00000001
 40
0.0
 40
0.0
 40
0.0
 40
0.0
 40
0.5
 40
0.5
 40
1.0
 40
1.0
 40
1.0
 40
1.0
 10
272.3399875587836
 20
36.94813220573316
 30
0.0
 10
272.080820446783
 20
36.93863347459943
 30
0.0
 10
271.8204150794731
 20
36.92217586363381
 30
0.0
 10
271.3069231735059
 20
36.86711224989151
 30
0.0
 10
271.0550800443439
 20
36.82885420229744
 30
0.0
 10
270.8114034949148
 20
36.7727295734661
 30
0.0
  0
LINE
  5
27E
330
1F
100
AcDbEntity
  8
0
  6
Continuous
 62
     7
370
    15
100
AcDbLine
 10
272.7704020782
 20
39.3571065956
 30
0.0
 11
273.6585020308
 21
38.8444174058
 31
0.0
  0
LINE
  5
27F
330
1F
100
AcDbEntity
  8
0
  6
Continuous
 62
     7
370
    15
100
AcDbLine
 10
213.835991629
 20
83.6931303266
 30
0.0
 11
213.904068009
 21
83.6693845687
 31
0.0
  0
LINE
  5
280
330
1F
100
AcDbEntity
  8
0
  6
Continuous
 62
     7
370
    15
100
AcDbLine
 10
229.8387454976
 20
49.1728293553
 30
0.0
 11
229.4032096786
 21
49.561793525
 31
0.0
  0
LINE
  5
281
330
1F
100
AcDbEntity
  8
0
  6
Continuous
 62
     7
370
    15
100
AcDbLine
 10
231.2953687349
 20
48.3319386593
 30
0.0
 11
229.8387454976
 21
49.1728293553
 31
0.0
  0
LINE
  5
282
330
1F
100
AcDbEntity
  8
0
  6
Continuous
 62
     7
370
    15
100
AcDbLine
 10
270.8114042117
 20
36.7727292574
 30
0.0
 11
270.5752475169
 21
36.9090596154
 31
0.0
  0
LINE
  5
283
330
1F
100
AcDbEntity
  8
0
  6
Continuous
 62
     7
370
    15
100
AcDbLine
 10
233.3339435557
 20
47.9822868033
 30
0.0
 11
233.3339435557
 21
47.8371369661
 31
0.0
  0
LINE
  5
284
330
1F
100
AcDbEntity
  8
0
  6
Continuous
 62
     7
370
    15
100
AcDbLine
 10
233.3339435557
 20
47.1550937687
 30
0.0
 11
233.3339435557
 21
44.7227006441
 31
0.0
  0
LINE
  5
285
330
1F
100
AcDbEntity
  8
0
  6
Continuous
 62
     7
370
    15
100
AcDbLine
 10
233.3339435557
 20
48.1911764537
 30
0.0
 11
233.3339435557
 21
47.9822868033
 31
0.0
  0
LINE
  5
286
330
1F
100
AcDbEntity
  8
0
  6
Continuous
 62
     7
370
    15
100
AcDbLine
 10
233.3339435557
 20
44.7227006441
 30
0.0
 11
233.3339435557
 21
41.8527116015
 31
0.0
  0
LINE
  5
287
330
1F
100
AcDbEntity
  8
0
  6
Continuous
 62
     7
370
    15
100
AcDbLine
 10
233.2611593234
 20
36.7045628087
 30
0.0
 11
235.0890134841
 21
35.6493650622
 31
0.0
  0
SPLINE
  5
288
330
1F
100
AcDbEntity
  8
0
  6
Continuous
 62
     7
370
    15
100
AcDbSpline
210
0.0
220
0.0
230
1.0
 70
     8
 71
     3
 72
    14
 73
    10
 74
     0
 42
0.000000001
 43
0.00000001
 40
0.0
 40
0.0
 40
0.0
 40
0.0
 40
0.25
 40
0.25
 40
0.5
 40
0.5
 40
0.75
 40
0.75
 40
1.0
 40
1.0
 40
1.0
 40
1.0
 10
235.0435059342086
 20
35.5309967928908
 30
0.0
 10
235.0268310911422
 20
35.48762417478422
 30
0.0
 10
235.0065358482263
 20
35.44739384533838
 30
0.0
 10
234.9582388691559
 20
35.37362195766624
 30
0.0
 10
234.9300200213508
 20
35.34005235098913
 30
0.0
 10
234.8670946729276
 20
35.2865009453265
 30
0.0
 10
234.8319314969106
 20
35.26604491596684
 30
0.0
 10
234.7572485077022
 20
35.24861262245498
 30
0.0
 10
234.7187236324938
 20
35.25255993143987
 30
0.0
 10
234.6847799297965
 20
35.27215521390968
 30
0.0
  0
LINE
  5
289
330
1F
100
AcDbEntity
  8
0
  6
Continuous
 62
     7
370
    15
100
AcDbLine
 10
234.6847797673
 20
35.2721553375
 30
0.0
 11
233.2292577811
 21
36.1124102949
 31
0.0
  0
SPLINE
  5
28A
330
1F
100
AcDbEntity
  8
0
  6
Continuous
 62
     7
370
    15
100
AcDbSpline
210
0.0
220
0.0
230
1.0
 70
     8
 71
     3
 72
     8
 73
     4
 74
     0
 42
0.000000001
 43
0.00000001
 40
0.0
 40
0.0
 40
0.0
 40
0.0
 40
0.0011862984959113
 40
0.0011862984959113
 40
0.0011862984959113
 40
0.0011862984959113
 10
233.2292577222348
 20
36.11241029900271
 30
0.0
 10
233.2394708500522
 20
36.30980920089165
 30
0.0
 10
233.2500968566274
 20
36.50719503786844
 30
0.0
 10
233.2611590558849
 20
36.70456253521878
 30
0.0
  0
SPLINE
  5
28B
330
1F
100
AcDbEntity
  8
0
  6
Continuous
 62
     7
370
    15
100
AcDbSpline
210
0.0
220
0.0
230
1.0
 70
     8
 71
     3
 72
    10
 73
     6
 74
     0
 42
0.000000001
 43
0.00000001
 40
0.0
 40
0.0
 40
0.0
 40
0.0
 40
0.0093153909399913
 40
0.4822859345958009
 40
0.9999999999999999
 40
0.9999999999999999
 40
0.9999999999999999
 40
0.9999999999999999
 10
267.8463646932302
 20
54.36958697253608
 30
0.0
 10
267.846448546188
 20
54.36953822889117
 30
0.0
 10
267.8507898671708
 20
54.36701462311944
 30
0.0
 10
267.8341995384046
 20
54.37662947778502
 30
0.0
 10
267.8025101354921
 20
54.39492337055214
 30
0.0
 10
267.7859498200678
 20
54.40448343185714
 30
0.0
  0
LWPOLYLINE
  5
28C
330
1F
100
AcDbEntity
  8
0
  6
Continuous
 62
     7
370
    15
100
AcDbPolyline
 90
       13
 70
   128
 43
0.0
 10
246.600062297
 20
28.6170153187
 10
245.4458586675
 20
28.3714901149
 10
244.0773965944
 20
28.2196179597
 10
242.7612539069
 20
28.2308613261
 10
241.5070907943
 20
28.4051405997
 10
240.3241110747
 20
28.7411742974
 10
239.2209976573
 20
29.2364980849
 10
238.2058460299
 20
29.8874750492
 10
237.2861082821
 20
30.6893295447
 10
236.4685318609
 20
31.6361734344
 10
235.759120058
 20
32.7210600871
 10
235.1630780093
 20
33.9360269678
 10
234.7469108075
 20
35.0705758904
  0
SPLINE
  5
28D
330
1F
100
AcDbEntity
  8
0
  6
Continuous
 62
     7
370
    15
100
AcDbSpline
210
0.0
220
0.0
230
1.0
 70
     8
 71
     3
 72
     8
 73
     4
 74
     0
 42
0.000000001
 43
0.00000001
 40
0.0
 40
0.0
 40
0.0
 40
0.0
 40
1.0
 40
1.0
 40
1.0
 40
1.0
 10
233.5072774096343
 20
37.20180068980564
 30
0.0
 10
233.4250792288486
 20
37.03608036330217
 30
0.0
 10
233.3430448606968
 20
36.87033348796421
 30
0.0
 10
233.261159055885
 20
36.70456253521879
 30
0.0
  0
LINE
  5
28E
330
1F
100
AcDbEntity
  8
0
  6
Continuous
 62
     7
370
    15
100
AcDbLine
 10
233.5562969106
 20
37.2300992616
 30
0.0
 11
233.5072774916
 21
37.2018009533
 31
0.0
  0
SPLINE
  5
28F
330
1F
100
AcDbEntity
  8
0
  6
Continuous
 62
     7
370
    15
100
AcDbSpline
210
0.0
220
0.0
230
1.0
 70
     8
 71
     3
 72
    12
 73
     8
 74
     0
 42
0.000000001
 43
0.00000001
 40
0.0
 40
0.0
 40
0.0
 40
0.0
 40
0.249999999999997
 40
0.249999999999997
 40
0.499999999999994
 40
0.499999999999994
 40
1.0
 40
1.0
 40
1.0
 40
1.0
 10
233.5680790974188
 20
37.56346400176677
 30
0.0
 10
233.6056778819934
 20
37.54175868544249
 30
0.0
 10
233.6358554412398
 20
37.51495681486931
 30
0.0
 10
233.6744451759208
 20
37.45733311003932
 30
0.0
 10
233.6833046611106
 20
37.42628498446794
 30
0.0
 10
233.6782572272722
 20
37.33409600806264
 30
0.0
 10
233.6315549401969
 20
37.2735445810878
 30
0.0
 10
233.5562968519986
 20
37.23009901153584
 30
0.0
  0
LINE
  5
290
330
1F
100
AcDbEntity
  8
0
  6
Continuous
 62
     7
370
    15
100
AcDbLine
 10
232.7831906829
 20
38.0165706678
 30
0.0
 11
233.5680792597
 21
37.5634641371
 31
0.0
  0
SPLINE
  5
291
330
1F
100
AcDbEntity
  8
0
  6
Continuous
 62
     7
370
    15
100
AcDbSpline
210
0.0
220
0.0
230
1.0
 70
     8
 71
     3
 72
    10
 73
     6
 74
     0
 42
0.000000001
 43
0.00000001
 40
0.0
 40
0.0
 40
0.0
 40
0.0
 40
0.5
 40
0.5
 40
1.0
 40
1.0
 40
1.0
 40
1.0
 10
232.2057228999323
 20
38.00976875832654
 30
0.0
 10
232.2818602902709
 20
38.05372193819925
 30
0.0
 10
232.3853680709552
 20
38.08020860437804
 30
0.0
 10
232.599863363041
 20
38.08403667476536
 30
0.0
 10
232.7072936074592
 20
38.06038488786196
 30
0.0
 10
232.7831905703017
 20
38.01657050382838
 30
0.0
  0
LINE
  5
292
330
1F
100
AcDbEntity
  8
0
  6
Continuous
 62
     7
370
    15
100
AcDbLine
 10
232.1567034631
 20
37.9814707443
 30
0.0
 11
232.2057228821
 21
38.0097690525
 31
0.0
  0
SPLINE
  5
293
330
1F
100
AcDbEntity
  8
0
  6
Continuous
 62
     7
370
    15
100
AcDbSpline
210
0.0
220
0.0
230
1.0
 70
     8
 71
     3
 72
     8
 73
     4
 74
     0
 42
0.000000001
 43
0.00000001
 40
0.0
 40
0.0
 40
0.0
 40
0.0
 40
1.0
 40
1.0
 40
1.0
 40
1.0
 10
231.2953683829135
 20
37.83938933525828
 30
0.0
 10
231.5825232093108
 20
37.8866610041703
 30
0.0
 10
231.869636327896
 20
37.93401843687304
 30
0.0
 10
232.156703457568
 20
37.98147043659633
 30
0.0
  0
LINE
  5
294
330
1F
100
AcDbEntity
  8
0
  6
Continuous
 62
     7
370
    15
100
AcDbLine
 10
229.8387454976
 20
38.680280256
 30
0.0
 11
231.2953687349
 21
37.83938956
 31
0.0
  0
LINE
  5
295
330
1F
100
AcDbEntity
  8
0
  6
Continuous
 62
     7
370
    15
100
AcDbLine
 10
229.8387454976
 20
38.680280256
 30
0.0
 11
232.9803900249
 21
40.4939130373
 31
0.0
  0
ARC
  5
296
330
1F
100
AcDbEntity
  8
0
  6
Continuous
 62
     7
370
    15
100
AcDbCircle
 10
242.7696800168
 20
38.5474089113
 30
0.0
 40
9.846261965767248
100
AcDbArc
 50
194.3179057184
 51
238.1256858466
  0
ELLIPSE
  5
297
330
1F
100
AcDbEntity
  8
0
  6
Continuous
 62
     7
370
    15
100
AcDbEllipse
 10
232.6874975059
 20
41.4795376816
 30
0.0
 11
-7.507462979106094E-5
 21
1.06681120185339
 31
0.0
210
0.0
220
0.0
230
1.0
 40
0.7174342186
 41
3.534193645557485
 42
5.104989972352367
  0
ARC
  5
298
330
1F
100
AcDbEntity
  8
0
  6
Continuous
 62
     7
370
    15
100
AcDbCircle
 10
242.8556060843
 20
40.9601535768
 30
0.0
 40
11.10581238431476
100
AcDbArc
 50
195.5577410858
 51
215.7110930235
  0
ARC
  5
299
330
1F
100
AcDbEntity
  8
0
  6
Continuous
 62
     7
370
    15
100
AcDbCircle
 10
240.2542500958
 20
39.7651118197
 30
0.0
 40
9.598989501195769
100
AcDbArc
 50
194.065870688
 51
246.8527503441
  0
SPLINE
  5
29A
330
1F
100
AcDbEntity
  8
0
  6
Continuous
 62
     7
370
    15
100
AcDbSpline
210
0.0
220
0.0
230
1.0
 70
     8
 71
     3
 72
     8
 73
     4
 74
     0
 42
0.000000001
 43
0.00000001
 40
0.0000000000000004
 40
0.0000000000000004
 40
0.0000000000000004
 40
0.0000000000000004
 40
0.0011862984959128
 40
0.0011862984959128
 40
0.0011862984959128
 40
0.0011862984959128
 10
231.295368382914
 20
37.83938933525732
 30
0.0
 10
231.1782179139189
 20
37.70326529242254
 30
0.0
 10
231.0607781634818
 20
37.56754171725961
 30
0.0
 10
230.9430672956371
 20
37.43219993976513
 30
0.0
  0
LINE
  5
29B
330
1F
100
AcDbEntity
  8
0
  6
Continuous
 62
     7
370
    15
100
AcDbLine
 10
229.4032096786
 20
38.4287985484
 30
0.0
 11
229.8387454976
 21
38.680280256
 31
0.0
  0
LINE
  5
29C
330
1F
100
AcDbEntity
  8
0
  6
Continuous
 62
     7
370
    15
100
AcDbLine
 10
230.9430675088
 20
37.4321998466
 30
0.0
 11
229.5052228327
 21
38.2622499099
 31
0.0
  0
SPLINE
  5
29D
330
1F
100
AcDbEntity
  8
0
  6
Continuous
 62
     7
370
    15
100
AcDbSpline
210
0.0
220
0.0
230
1.0
 70
     8
 71
     3
 72
    10
 73
     6
 74
     0
 42
0.000000001
 43
0.00000001
 40
0.0
 40
0.0
 40
0.0
 40
0.0
 40
0.5
 40
0.5
 40
1.0
 40
1.0
 40
1.0
 40
1.0
 10
229.5052227576051
 20
38.26224992346036
 30
0.0
 10
229.4788133283244
 20
38.27749576246729
 30
0.0
 10
229.4565299241153
 20
38.30135318487955
 30
0.0
 10
229.4224227892938
 20
38.35927927661384
 30
0.0
 10
229.4105227592389
 20
38.3931778080947
 30
0.0
 10
229.4032102672821
 20
38.42879885054905
 30
0.0
  0
ARC
  5
29E
330
1F
100
AcDbEntity
  8
0
  6
Continuous
 62
     7
370
    15
100
AcDbCircle
 10
239.0175055067
 20
40.6601971364
 30
0.0
 40
9.799939255552253
100
AcDbArc
 50
195.5717556947
 51
238.1510077213
  0
ELLIPSE
  5
29F
330
1F
100
AcDbEntity
  8
0
  6
Continuous
 62
     7
370
    15
100
AcDbEllipse
 10
232.6268373342
 20
41.444507926
 30
0.0
 11
0.3250094736511642
 21
1.213179526238676
 31
0.0
210
0.0
220
0.0
230
1.0
 40
0.5176380889
 41
3.619174351347721
 42
5.189970678142617
  0
SPLINE
  5
2A0
330
1F
100
AcDbEntity
  8
0
  6
Continuous
 62
     7
370
    15
100
AcDbSpline
210
0.0
220
0.0
230
1.0
 70
     8
 71
     3
 72
    12
 73
     8
 74
     0
 42
0.000000001
 43
0.00000001
 40
0.0
 40
0.0
 40
0.0
 40
0.0
 40
0.5000000000000003
 40
0.5000000000000003
 40
0.7500000000000001
 40
0.7500000000000001
 40
1.0
 40
1.0
 40
1.0
 40
1.0
 10
259.1606944231575
 20
73.44883122696986
 30
0.0
 10
259.223754300387
 20
73.48523491922012
 30
0.0
 10
259.3036872536181
 20
73.5120662310717
 30
0.0
 10
259.4366664419248
 20
73.52582307258224
 30
0.0
 10
259.4823376110368
 20
73.5257019387833
 30
0.0
 10
259.5699754296743
 20
73.51292755716166
 30
0.0
 10
259.6107193405284
 20
73.5000875715069
 30
0.0
 10
259.6422330228671
 20
73.48189510993025
 30
0.0
  0
LINE
  5
2A1
330
1F
100
AcDbEntity
  8
0
  6
Continuous
 62
     7
370
    15
100
AcDbLine
 10
259.6422333471
 20
73.4818954815
 30
0.0
 11
260.3019016613
 21
73.1010770696
 31
0.0
  0
LINE
  5
2A2
330
1F
100
AcDbEntity
  8
0
  6
Continuous
 62
     7
370
    15
100
AcDbLine
 10
261.9717686897
 20
71.026280853
 30
0.0
 11
263.3662682954
 21
71.3320558664
 31
0.0
  0
LINE
  5
2A3
330
1F
100
AcDbEntity
  8
0
  6
Continuous
 62
     7
370
    15
100
AcDbLine
 10
263.3662682954
 20
71.3320558664
 30
0.0
 11
264.8217902817
 21
70.4918009091
 31
0.0
  0
SPLINE
  5
2A4
330
1F
100
AcDbEntity
  8
0
  6
Continuous
 62
     7
370
    15
100
AcDbSpline
210
0.0
220
0.0
230
1.0
 70
     8
 71
     3
 72
    12
 73
     8
 74
     0
 42
0.000000001
 43
0.00000001
 40
0.0
 40
0.0
 40
0.0
 40
0.0
 40
0.2499999999999946
 40
0.2499999999999946
 40
0.4999999999999892
 40
0.4999999999999892
 40
1.0
 40
1.0
 40
1.0
 40
1.0
 10
264.8217901950587
 20
70.49180040037947
 30
0.0
 10
264.8534463255588
 20
70.47352570522955
 30
0.0
 10
264.8757456025689
 20
70.44970159443126
 30
0.0
 10
264.8975661731608
 20
70.39966969198355
 30
0.0
 10
264.8978469354869
 20
70.37327848356966
 30
0.0
 10
264.8744795613662
 20
70.29720325357475
 30
0.0
 10
264.8274411585612
 20
70.25014019862432
 30
0.0
 10
264.7645156640609
 20
70.21381408387236
 30
0.0
  0
LINE
  5
2A5
330
1F
100
AcDbEntity
  8
0
  6
Continuous
 62
     7
370
    15
100
AcDbLine
 10
259.1606946546
 20
73.4488316041
 30
0.0
 11
259.0689040869
 21
73.3958420372
 31
0.0
  0
SPLINE
  5
2A6
330
1F
100
AcDbEntity
  8
0
  6
Continuous
 62
     7
370
    15
100
AcDbSpline
210
0.0
220
0.0
230
1.0
 70
     8
 71
     3
 72
    10
 73
     6
 74
     0
 42
0.000000001
 43
0.00000001
 40
0.0
 40
0.0
 40
0.0
 40
0.0
 40
0.4038556982101845
 40
0.8087738818602858
 40
1.0
 40
1.0
 40
1.0
 40
1.0
 10
267.7859498200678
 20
65.13787493116088
 30
0.0
 10
267.8041908237702
 20
65.17663883965194
 30
0.0
 10
267.8407208205954
 20
65.25426863882362
 30
0.0
 10
267.8546595545235
 20
65.36165669561146
 30
0.0
 10
267.8366091480322
 20
65.41492097884662
 30
0.0
 10
267.8308190915747
 20
65.43200664432725
 30
0.0
  0
ARC
  5
2A7
330
1F
100
AcDbEntity
  8
0
  6
Continuous
 62
     7
370
    15
100
AcDbCircle
 10
257.545712727
 20
62.8669449593
 30
0.0
 40
10.53943702656799
100
AcDbArc
 50
16.7251671738
 51
46.3408476591
  0
LWPOLYLINE
  5
2A8
330
1F
100
AcDbEntity
  8
0
  6
Continuous
 62
     7
370
    15
100
AcDbPolyline
 90
        3
 70
   128
 43
0.0
 10
261.9717683604
 20
71.7072706395
 10
262.0102234084
 20
71.6598065421
 10
262.3918064868
 20
71.1516317144
  0
LINE
  5
2A9
330
1F
100
AcDbEntity
  8
0
  6
Continuous
 62
     7
370
    15
100
AcDbLine
 10
267.6816679801
 20
54.4647040071
 30
0.0
 11
265.8172645992
 21
55.5410011692
 31
0.0
  0
LINE
  5
2AA
330
1F
100
AcDbEntity
  8
0
  6
Continuous
 62
     7
370
    15
100
AcDbLine
 10
265.0091781336
 20
55.3874611013
 30
0.0
 11
265.0581975526
 21
55.4157594096
 31
0.0
  0
SPLINE
  5
2AB
330
1F
100
AcDbEntity
  8
0
  6
Continuous
 62
     7
370
    15
100
AcDbSpline
210
0.0
220
0.0
230
1.0
 70
     8
 71
     3
 72
    10
 73
     6
 74
     0
 42
0.000000001
 43
0.00000001
 40
0.0
 40
0.0
 40
0.0
 40
0.0
 40
0.348286225286859
 40
0.7262043038763673
 40
0.9999999999999999
 40
0.9999999999999999
 40
0.9999999999999999
 40
0.9999999999999999
 10
264.6764528015212
 20
55.31628859028466
 30
0.0
 10
264.7191004611973
 20
55.31637621365936
 30
0.0
 10
264.8080242019554
 20
55.31655891532025
 30
0.0
 10
264.9239811566836
 20
55.34478208932021
 30
0.0
 10
264.9839741067248
 20
55.37483526639467
 30
0.0
 10
265.0091781336401
 20
55.38746110131959
 30
0.0
  0
SPLINE
  5
2AC
330
1F
100
AcDbEntity
  8
0
  6
Continuous
 62
     7
370
    15
100
AcDbSpline
210
0.0
220
0.0
230
1.0
 70
     8
 71
     3
 72
     8
 73
     4
 74
     0
 42
0.000000001
 43
0.00000001
 40
0.0
 40
0.0
 40
0.0
 40
0.0
 40
1.0
 40
1.0
 40
1.0
 40
1.0
 10
265.0581977203945
 20
55.41575929019763
 30
0.0
 10
265.3111836740755
 20
55.45757769489546
 30
0.0
 10
265.5642069364227
 20
55.49932289947083
 30
0.0
 10
265.8172644254274
 20
55.54100095086793
 30
0.0
  0
LWPOLYLINE
  5
2AD
330
1F
100
AcDbEntity
  8
0
  6
Continuous
 62
     7
370
    15
100
AcDbPolyline
 90
       18
 70
   128
 43
0.0
 10
267.3988129888
 20
45.1389165751
 10
267.1288200303
 20
45.3664494901
 10
267.0194387922
 20
45.634922471
 10
267.0854419917
 20
45.9080765997
 10
267.3179188683
 20
46.1490190755
 10
267.6854673909
 20
46.3252119413
 10
268.1384484038
 20
46.4128592111
 10
268.6156874181
 20
46.4001218408
 10
269.0527300692
 20
46.2887204899
 10
269.3905475967
 20
46.0937025824
 10
269.5835213055
 20
45.8414032302
 10
269.6055854688
 20
45.5658990115
 10
269.4537621278
 20
45.3043971183
 10
269.1485540625
 20
45.0922158726
 10
268.7311815956
 20
44.9580113491
 10
268.2580134977
 20
44.919908513
 10
267.7929542641
 20
44.9830529578
 10
267.3988129888
 20
45.1389165751
  0
LWPOLYLINE
  5
2AE
330
1F
100
AcDbEntity
  8
0
  6
Continuous
 62
     7
370
    15
100
AcDbPolyline
 90
        6
 70
   128
 43
0.0
 10
267.2573916259
 20
44.8939674948
 10
266.958591461
 20
45.1403143406
 10
266.8237610585
 20
45.430801972
 10
266.8691627632
 20
45.7303933359
 10
267.0893236794
 20
46.0029515605
 10
267.2572197607
 20
46.1184798873
  0
LWPOLYLINE
  5
2AF
330
1F
100
AcDbEntity
  8
0
  6
Continuous
 62
     7
370
    15
100
AcDbPolyline
 90
       10
 70
   128
 43
0.0
 10
269.3788858436
 20
46.1184793084
 10
269.6775147869
 20
45.8722313067
 10
269.8123451895
 20
45.5817436753
 10
269.7669408505
 20
45.2821538321
 10
269.5467799344
 20
45.0095956075
 10
269.1784165195
 20
44.7969439345
 10
268.7062806695
 20
44.6698477429
 10
268.1873196091
 20
44.643636376
 10
267.6841257506
 20
44.7214723106
 10
267.2573916259
 20
44.8939674948
  0
LWPOLYLINE
  5
2B0
330
1F
100
AcDbEntity
  8
0
  6
Continuous
 62
     7
370
    15
100
AcDbPolyline
 90
       17
 70
   128
 43
0.0
 10
267.6993333542
 20
45.3124032892
 10
267.5096574306
 20
45.4762781028
 10
267.443051704
 20
45.6695818967
 10
267.5096566074
 20
45.8628858332
 10
267.6993334366
 20
46.0267603616
 10
267.9832032038
 20
46.1362584644
 10
268.3180517246
 20
46.1747086567
 10
268.6528999984
 20
46.1362579891
 10
268.9367702595
 20
46.0267604091
 10
269.1264461832
 20
45.8628855955
 10
269.1930519098
 20
45.6695818017
 10
269.1264470064
 20
45.4762778652
 10
268.9367701772
 20
45.3124033368
 10
268.65290041
 20
45.202905234
 10
268.3180518892
 20
45.1644550417
 10
267.9832036154
 20
45.2029057092
 10
267.6993333542
 20
45.3124032892
  0
SPLINE
  5
2B1
330
1F
100
AcDbEntity
  8
0
  6
Continuous
 62
     7
370
    15
100
AcDbSpline
210
0.0
220
0.0
230
1.0
 70
     8
 71
     3
 72
     9
 73
     5
 74
     0
 42
0.000000001
 43
0.00000001
 40
0.0
 40
0.0
 40
0.0
 40
0.0
 40
0.6311797480948284
 40
1.0
 40
1.0
 40
1.0
 40
1.0
 10
267.7878060100816
 20
45.26362262080304
 30
0.0
 10
267.7203217895601
 20
45.31009017177681
 30
0.0
 10
267.6134041948097
 20
45.38371032691333
 30
0.0
 10
267.5170666399254
 20
45.49267121907055
 30
0.0
 10
267.481535398665
 20
45.53285820276379
 30
0.0
  0
SPLINE
  5
2B2
330
1F
100
AcDbEntity
  8
0
  6
Continuous
 62
     7
370
    15
100
AcDbSpline
210
0.0
220
0.0
230
1.0
 70
     8
 71
     3
 72
    10
 73
     6
 74
     0
 42
0.000000001
 43
0.00000001
 40
0.0
 40
0.0
 40
0.0
 40
0.0
 40
0.4391159106004129
 40
0.7513675167092322
 40
1.0
 40
1.0
 40
1.0
 40
1.0
 10
269.1545682151035
 20
45.7916490942968
 30
0.0
 10
269.1224795608209
 20
45.68057357361666
 30
0.0
 10
269.0675729361669
 20
45.49051319063827
 30
0.0
 10
268.9877622436704
 20
45.35045543111261
 30
0.0
 10
268.9480350020281
 20
45.32155127860597
 30
0.0
 10
268.9304244423233
 20
45.3087384508739
 30
0.0
  0
SPLINE
  5
2B3
330
1F
100
AcDbEntity
  8
0
  6
Continuous
 62
     7
370
    15
100
AcDbSpline
210
0.0
220
0.0
230
1.0
 70
     8
 71
     3
 72
    11
 73
     7
 74
     0
 42
0.000000001
 43
0.00000001
 40
0.0
 40
0.0
 40
0.0
 40
0.0
 40
0.1843633221560843
 40
0.517452202748514
 40
0.8663341243510679
 40
1.0
 40
1.0
 40
1.0
 40
1.0
 10
268.5421955796645
 20
46.1451642919532
 30
0.0
 10
268.5777304834807
 20
46.10559746443482
 30
0.0
 10
268.6774662337327
 20
45.99454532122262
 30
0.0
 10
268.8632831179185
 20
45.84748432392033
 30
0.0
 10
269.0362987647651
 20
45.79532184007631
 30
0.0
 10
269.1289138190113
 20
45.79244576727282
 30
0.0
 10
269.1545682151035
 20
45.7916490942968
 30
0.0
  0
SPLINE
  5
2B4
330
1F
100
AcDbEntity
  8
0
  6
Continuous
 62
     7
370
    15
100
AcDbSpline
210
0.0
220
0.0
230
1.0
 70
     8
 71
     3
 72
    10
 73
     6
 74
     0
 42
0.000000001
 43
0.00000001
 40
0.0
 40
0.0
 40
0.0
 40
0.0
 40
0.439115910600413
 40
0.7513675167092325
 40
1.0
 40
1.0
 40
1.0
 40
1.0
 10
267.7056791714452
 20
46.01576884618669
 30
0.0
 10
267.825432550954
 20
45.99234986579244
 30
0.0
 10
268.0303415447002
 20
45.95227784672432
 30
0.0
 10
268.3282143679521
 20
46.03025213989753
 30
0.0
 10
268.4764740344356
 20
46.10987051948486
 30
0.0
 10
268.5421955796645
 20
46.1451642919532
 30
0.0
  0
SPLINE
  5
2B5
330
1F
100
AcDbEntity
  8
0
  6
Continuous
 62
     7
370
    15
100
AcDbSpline
210
0.0
220
0.0
230
1.0
 70
     8
 71
     3
 72
    10
 73
     6
 74
     0
 42
0.000000001
 43
0.00000001
 40
0.0
 40
0.0
 40
0.0
 40
0.0
 40
0.4391159106004131
 40
0.7513675167092325
 40
1.0
 40
1.0
 40
1.0
 40
1.0
 10
267.481535398665
 20
45.53285820276379
 30
0.0
 10
267.5136240529476
 20
45.56004699102594
 30
0.0
 10
267.5685306776016
 20
45.60656949641849
 30
0.0
 10
267.6483413700981
 20
45.810428378148
 30
0.0
 10
267.6880686117404
 20
45.95270119295895
 30
0.0
 10
267.7056791714452
 20
46.01576884618669
 30
0.0
  0
LINE
  5
2B6
330
1F
100
AcDbEntity
  8
0
  6
Continuous
 62
     7
370
    15
100
AcDbLine
 10
267.7056791714
 20
45.3087771427
 30
0.0
 11
267.7056791714
 21
46.0157688462
 31
0.0
  0
LINE
  5
2B7
330
1F
100
AcDbEntity
  8
0
  6
Continuous
 62
     7
370
    15
100
AcDbLine
 10
268.5421955797
 20
45.1813095168
 30
0.0
 11
268.5421955797
 21
46.145164292
 31
0.0
  0
ARC
  5
2B8
330
1F
100
AcDbEntity
  8
0
  6
Continuous
 62
     7
370
    15
100
AcDbCircle
 10
244.5409628584
 20
64.7112270147
 30
0.0
 40
1.557574315952633
100
AcDbArc
 50
79.5861017376
 51
142.8221932109
  0
ARC
  5
2B9
330
1F
100
AcDbEntity
  8
0
  6
Continuous
 62
     7
370
    15
100
AcDbCircle
 10
244.5088709587
 20
64.7948924073
 30
0.0
 40
1.463439891085738
100
AcDbArc
 50
78.2685922876
 51
144.4072601206
  0
ARC
  5
2BA
330
1F
100
AcDbEntity
  8
0
  6
Continuous
 62
     7
370
    15
100
AcDbCircle
 10
244.4804947495
 20
64.868521598
 30
0.0
 40
1.249547245185086
100
AcDbArc
 50
80.705870252
 51
142.2259793291
  0
LWPOLYLINE
  5
2BB
330
1F
100
AcDbEntity
  8
0
  6
Continuous
 62
     7
370
     0
100
AcDbPolyline
 90
       20
 70
   128
 43
0.0
 10
234.6847797673
 20
46.5422511269
 10
235.155438893
 20
48.4036113741
 10
235.7405728105
 20
50.2795294476
 10
236.4360076647
 20
52.1566250143
 10
237.2367846155
 20
54.0215121111
 10
238.137192765
 20
55.8608884967
 10
239.1308086699
 20
57.6616375492
 10
240.2105463914
 20
59.4109134341
 10
241.368706227
 20
61.0962422405
 10
242.5970267361
 20
62.705602966
 10
243.8867479594
 20
64.2275187661
 10
245.2286720058
 20
65.651132995
 10
246.613226931
 20
66.9662947515
 10
248.0305385185
 20
68.1636231315
 10
249.4704982749
 20
69.2345768988
 10
250.9228365071
 20
70.1715210072
 10
252.3771947012
 20
70.9677699042
 10
253.8232002254
 20
71.6176473868
 10
255.2505402934
 20
72.1165171319
 10
255.8156488602
 20
72.2733816312
  0
LINE
  5
2BC
330
1F
100
AcDbEntity
  8
0
  6
Continuous
 62
     7
370
     0
100
AcDbLine
 10
235.0435054244
 20
46.2077402973
 30
0.0
 11
235.1353657978
 21
46.6231470797
 31
0.0
  0
LWPOLYLINE
  5
2BD
330
1F
100
AcDbEntity
  8
0
  6
Continuous
 62
     7
370
     0
100
AcDbPolyline
 90
        9
 70
   128
 43
0.0
 10
251.2040978207
 20
69.8451381918
 10
252.6272419106
 20
70.6185888212
 10
254.070834857
 20
71.2613792062
 10
255.4950835524
 20
71.7514711232
 10
256.8896012682
 20
72.0852897552
 10
258.24421876
 20
72.2604002938
 10
259.549057531
 20
72.275527419
 10
260.7946022717
 20
72.130560616
 10
261.9717690189
 20
71.8265570201
  0
ARC
  5
2BE
330
1F
100
AcDbEntity
  8
0
  6
Continuous
 62
     7
370
     0
100
AcDbCircle
 10
232.7314094323
 20
62.0564042615
 30
0.0
 40
35.87997622877203
100
AcDbArc
 50
338.7076549506
 51
347.6862779023
  0
LWPOLYLINE
  5
2BF
330
1F
100
AcDbEntity
  8
0
  6
Continuous
 62
     7
370
     0
100
AcDbPolyline
 90
       23
 70
   128
 43
0.0
 10
259.9127176622
 20
38.2018150423
 10
259.8312069742
 20
38.1008704814
 10
258.5247653059
 20
36.5726558152
 10
257.1653970739
 20
35.1468420633
 10
255.763227071
 20
33.8340468091
 10
254.3286971787
 20
32.6440501466
 10
252.8724911294
 20
31.5857101808
 10
251.40545423
 20
30.666912123
 10
249.9385123565
 20
29.8944987129
 10
248.4825904691
 20
29.2742216578
 10
247.0485314362
 20
28.8106993337
 10
245.6470156972
 20
28.5073856162
 10
244.2884811827
 20
28.3665388612
 10
242.9830451118
 20
28.3892086988
 10
241.7404302357
 20
28.575225394
 10
240.5698910803
 20
28.9232028952
 10
239.4801447994
 20
29.430552149
 10
238.4793072954
 20
30.0934913724
 10
237.5748332922
 20
30.9070867431
 10
236.7734570659
 20
31.8652759796
 10
236.081148981
 20
32.9609246191
 10
235.5030628068
 20
34.1858724113
 10
235.0435054244
 20
35.5309964392
  0
ARC
  5
2C0
330
1F
100
AcDbEntity
  8
0
  6
Continuous
 62
     7
370
     0
100
AcDbCircle
 10
257.6058104173
 20
62.5154036367
 30
0.0
 40
10.51249703684875
100
AcDbArc
 50
14.4456939373
 51
47.0804331381
  0
LWPOLYLINE
  5
2C1
330
1F
100
AcDbEntity
  8
0
  6
Continuous
 62
     7
370
     0
100
AcDbPolyline
 90
       22
 70
   128
 43
0.0
 10
245.5845692143
 20
46.9545949664
 10
245.6467358158
 20
47.9713196536
 10
245.831911946
 20
49.0381514855
 10
246.1361493013
 20
50.1323516613
 10
246.5529645109
 20
51.2306000541
 10
247.0734741387
 20
52.309489119
 10
247.6865836855
 20
53.3460242594
 10
248.379226311
 20
54.3181133536
 10
249.1366395877
 20
55.2050383096
 10
249.9426801201
 20
55.9878960102
 10
250.7801688693
 20
56.6499999468
 10
251.6312561304
 20
57.1772403478
 10
252.4778025213
 20
57.5583790243
 10
253.3017651779
 20
57.7852924678
 10
254.0855831259
 20
57.8531452713
 10
254.8125502436
 20
57.7604902254
 10
255.4671727898
 20
57.5093028506
 10
256.0354986758
 20
57.1049364988
 10
256.505414634
 20
56.556009492
 10
256.8669055195
 20
55.8742213507
 10
257.1122663616
 20
55.0741029623
 10
257.2357474081
 20
54.1805627829
  0
LWPOLYLINE
  5
2C2
330
1F
100
AcDbEntity
  8
0
  6
Continuous
 62
     7
370
     0
100
AcDbPolyline
 90
       12
 70
   128
 43
0.0
 10
250.9862553105
 20
43.3549517285
 10
250.7801688693
 20
43.2579016616
 10
249.9426801201
 20
42.9530616704
 10
249.1366395877
 20
42.8052847813
 10
248.379226311
 20
42.8177189822
 10
247.6865836855
 20
42.9900999231
 10
247.0734741387
 20
43.3187538486
 10
246.5529645109
 20
43.7966752891
 10
246.1361493013
 20
44.4136790845
 10
245.831911946
 20
45.1566142868
 10
245.6467358158
 20
46.0096463096
 10
245.5845692143
 20
46.9545949664
  0
LWPOLYLINE
  5
2C3
330
1F
100
AcDbEntity
  8
0
  6
Continuous
 62
     7
370
     0
100
AcDbPolyline
 90
       20
 70
   128
 43
0.0
 10
229.5052228327
 20
49.5323456993
 10
229.9758819584
 20
51.3937059465
 10
230.5610158759
 20
53.26962402
 10
231.2564507301
 20
55.1467195867
 10
232.057227681
 20
57.0116066835
 10
232.9576358304
 20
58.8509830691
 10
233.9512517353
 20
60.6517321216
 10
235.0309894568
 20
62.4010080065
 10
236.1891492925
 20
64.0863368129
 10
237.4174698015
 20
65.6956975384
 10
238.7071910248
 20
67.2176133385
 10
240.0491150712
 20
68.6412275674
 10
241.4336699964
 20
69.9563893239
 10
242.8509815839
 20
71.1537177039
 10
244.2909413403
 20
72.2246714712
 10
245.7432795726
 20
73.1616155796
 10
247.1976377666
 20
73.9578644766
 10
248.6436432908
 20
74.6077419592
 10
250.0709833588
 20
75.1066117043
 10
250.6360945598
 20
75.2634777242
  0
LWPOLYLINE
  5
2C4
330
1F
100
AcDbEntity
  8
0
  6
Continuous
 62
     7
370
     0
100
AcDbPolyline
 90
       20
 70
   128
 43
0.0
 10
232.7831906829
 20
48.5091197671
 10
233.2360691069
 20
50.2983962646
 10
233.8021447463
 20
52.1018272827
 10
234.477138379
 20
53.905784207
 10
235.2559489193
 20
55.6966346979
 10
236.1326916132
 20
57.4608445891
 10
237.1007415033
 20
59.1850828273
 10
238.1527821598
 20
60.8563188069
 10
239.2808629751
 20
62.4619238864
 10
240.476459749
 20
63.9897618779
 10
241.7305372508
 20
65.4282898027
 10
243.033617708
 20
66.7666339306
 10
244.3758542338
 20
67.9946823599
 10
245.7471034318
 20
69.1031527869
 10
247.1370026103
 20
70.0836720615
 10
248.5350483136
 20
70.9288260858
 10
249.9306753476
 20
71.6322297689
 10
251.313337122
 20
72.1885688452
 10
252.6725848403
 20
72.5936364636
 10
252.7990672034
 20
72.6238832237
  0
LINE
  5
2C5
330
1F
100
AcDbEntity
  8
0
  6
Continuous
 62
     7
370
     0
100
AcDbLine
 10
244.0037169885
 20
66.4917665151
 30
0.0
 11
244.3636141963
 21
66.8299486157
 31
0.0
  0
LWPOLYLINE
  5
2C6
330
1F
100
AcDbEntity
  8
0
  6
Continuous
 62
     7
370
     0
100
AcDbPolyline
 90
       22
 70
   128
 43
0.0
 10
232.2057228821
 20
48.5023181519
 10
232.657195972
 20
50.3127850797
 10
233.222968681
 20
52.1383813381
 10
233.898810519
 20
53.9654471291
 10
234.6796612301
 20
55.7803105653
 10
235.5596808416
 20
57.5693910879
 10
236.5322812742
 20
59.3192998449
 10
237.5901862696
 20
61.0169450097
 10
238.7254788058
 20
62.6496215112
 10
239.9296649756
 20
64.2051133101
 10
241.1937325976
 20
65.6717797058
 10
242.5082233262
 20
67.0386456348
 10
243.8633008114
 20
68.2954836041
 10
245.2488251141
 20
69.4328901107
 10
246.6544287681
 20
70.4423508442
 10
248.0695935623
 20
71.3163154306
 10
249.4837299158
 20
72.048241734
 10
250.8862561913
 20
72.6326538104
 10
252.2666771033
 20
73.0651780461
 10
253.614663052
 20
73.3425783099
 10
254.9201280988
 20
73.4627796748
 10
256.0451861948
 20
73.4362301508
  0
ARC
  5
2C7
330
1F
100
AcDbEntity
  8
0
  6
Continuous
 62
     7
370
     0
100
AcDbCircle
 10
251.4686341254
 20
46.613442591
 30
0.0
 40
3.074622948291452
100
AcDbArc
 50
173.6294912659
 51
235.0583337552
  0
LWPOLYLINE
  5
2C8
330
1F
100
AcDbEntity
  8
0
  6
Continuous
 62
     7
370
     0
100
AcDbPolyline
 90
       15
 70
   128
 43
0.0
 10
255.9571598675
 20
54.9186755841
 10
255.4603461528
 20
55.1260461541
 10
254.8220522177
 20
55.2114039377
 10
254.1265199812
 20
55.1326240764
 10
253.3937587008
 20
54.8919724167
 10
252.6448485302
 20
54.4963725994
 10
251.9013343087
 20
53.9572051519
 10
251.1846055001
 20
53.2899810943
 10
250.5152812771
 20
52.5138949398
 10
249.9126165755
 20
51.6512730703
 10
249.3939492259
 20
50.7269321356
 10
248.9742002005
 20
49.7674633626
 10
248.6654449007
 20
48.8004690902
 10
248.4765657747
 20
47.8537679288
 10
248.4129964733
 20
46.9545947764
  0
LINE
  5
2C9
330
1F
100
AcDbEntity
  8
0
  6
Continuous
 62
     7
370
     0
100
AcDbLine
 10
267.9291430793
 20
35.3814960387
 30
0.0
 11
268.813663184
 21
34.8708734512
 31
0.0
  0
LWPOLYLINE
  5
2CA
330
1F
100
AcDbEntity
  8
0
  6
Continuous
 62
     7
370
     0
100
AcDbPolyline
 90
        3
 70
   128
 43
0.0
 10
233.2548467627
 20
46.429814801
 10
233.2543950012
 20
46.5514937183
 10
233.2666597341
 20
47.1939371313
  0
LWPOLYLINE
  5
2CB
330
1F
100
AcDbEntity
  8
0
  6
Continuous
 62
     7
370
     0
100
AcDbPolyline
 90
       19
 70
   128
 43
0.0
 10
202.1694410307
 20
70.4428002177
 10
202.2310175764
 20
71.5632202542
 10
202.4146935422
 20
72.7355642666
 10
202.7173263537
 20
73.9397733449
 10
203.1337378756
 20
75.1552431379
 10
203.6568026561
 20
76.3611760343
 10
204.277571734
 20
77.536939044
 10
204.9854231157
 20
78.6624141675
 10
205.7682451798
 20
79.7183436283
 10
206.6126439541
 20
80.6866613207
 10
207.5041713016
 20
81.5507983041
 10
208.4275729441
 20
82.2959689515
 10
209.3670493288
 20
82.9094234464
 10
210.3065257135
 20
83.3806652969
 10
211.229927356
 20
83.7016314925
 10
212.1214547035
 20
83.8668300745
 10
212.9658534779
 20
83.8734344552
 10
213.7486755419
 20
83.7213321111
 10
213.835991629
 20
83.6931303266
  0
ARC
  5
2CC
330
1F
100
AcDbEntity
  8
0
  6
Continuous
 62
     7
370
     0
100
AcDbCircle
 10
207.5518189468
 20
69.9980334598
 30
0.0
 40
5.400723053540409
100
AcDbArc
 50
175.2761600835
 51
225.7049984126
  0
LINE
  5
2CD
330
1F
100
AcDbEntity
  8
0
  6
Continuous
 62
     7
370
     0
100
AcDbLine
 10
238.9377649084
 20
47.5472105002
 30
0.0
 11
238.2305434246
 21
47.9554807726
 31
0.0
  0
LINE
  5
2CE
330
1F
100
AcDbEntity
  8
0
  6
Continuous
 62
     7
370
     0
100
AcDbLine
 10
233.3946037367
 20
41.8877413624
 30
0.0
 11
238.9377649084
 21
38.6877425319
 31
0.0
  0
LINE
  5
2CF
330
1F
100
AcDbEntity
  8
0
  6
Continuous
 62
     7
370
     0
100
AcDbLine
 10
233.3339435557
 20
41.8527116015
 30
0.0
 11
233.3946037367
 21
41.8877413624
 31
0.0
  0
LINE
  5
2D0
330
1F
100
AcDbEntity
  8
0
  6
Continuous
 62
     7
370
     0
100
AcDbLine
 10
271.8182303548
 20
37.626618334
 30
0.0
 11
272.7027504594
 21
37.1159957465
 31
0.0
  0
LINE
  5
2D1
330
1F
100
AcDbEntity
  8
0
  6
Continuous
 62
     7
370
     0
100
AcDbLine
 10
234.7469108075
 20
35.0705758904
 30
0.0
 11
234.6847797673
 21
35.2721553375
 31
0.0
  0
LINE
  5
2D2
330
1F
100
AcDbEntity
  8
0
  6
Continuous
 62
     7
370
     0
100
AcDbLine
 10
238.2306580114
 20
37.4629978436
 30
0.0
 11
232.9803900249
 21
40.4939130373
 31
0.0
  0
LINE
  5
2D3
330
1F
100
AcDbEntity
  8
0
  6
Continuous
 62
     7
370
     0
100
AcDbLine
 10
233.6453238963
 20
37.3140695477
 30
0.0
 11
233.5680792597
 21
37.5634641371
 31
0.0
  0
LWPOLYLINE
  5
2D4
330
1F
100
AcDbEntity
  8
0
  6
Continuous
 62
     7
370
     0
100
AcDbPolyline
 90
        3
 70
   128
 43
0.0
 10
233.2501962037
 20
36.7168227617
 10
233.2456298561
 20
36.7275723331
 10
232.7831906829
 20
38.0165706678
  0
ARC
  5
2D5
330
1F
100
AcDbEntity
  8
0
  6
Continuous
 62
     7
370
     0
100
AcDbCircle
 10
242.9443648319
 20
41.0175868891
 30
0.0
 40
11.15192355892289
100
AcDbArc
 50
195.6471844777
 51
214.1548056384
  0
LINE
  5
2D6
330
1F
100
AcDbEntity
  8
0
  6
Continuous
 62
     7
370
     0
100
AcDbLine
 10
229.5772728703
 20
38.0294525304
 30
0.0
 11
229.5052228327
 21
38.2622499099
 31
0.0
  0
LINE
  5
2D7
330
1F
100
AcDbEntity
  8
0
  6
Continuous
 62
     7
370
     0
100
AcDbLine
 10
264.6764528015
 20
53.5462384579
 30
0.0
 11
265.3835596986
 21
53.1380343351
 31
0.0
  0
OLE2FRAME
  5
2D8
330
1F
100
AcDbEntity
  8
0
100
AcDbOle2Frame
 70
     2
  3
Paintbrush-Bild
 10
13.8511154363
 20
38.264191557
 30
0.0
 11
51.6290888628
 21
31.9806341108
 31
0.0
 71
     2
 72
     0
 73
     1
 90
    12928
310
80552BED0767C5B32B40DDAF6807D121434000000000000000006FFBDDFB85D0
310
4940DDAF6807D121434000000000000000006FFBDDFB85D04940416F4BD60AFB
310
3F4000000000000000002BED0767C5B32B40416F4BD60AFB3F40000000000000
310
0000000000000100000000010000010000000100000000000100000000320000
310
D0CF11E0A1B11AE1000000000000000000000000000000003E000300FEFF0900
310
0600000000000000000000000100000001000000000000000010000002000000
310
01000000FEFFFFFF0000000000000000FFFFFFFFFFFFFFFFFFFFFFFFFFFFFFFF
310
FFFFFFFFFFFFFFFFFFFFFFFFFFFFFFFFFFFFFFFFFFFFFFFFFFFFFFFFFFFFFFFF
310
FFFFFFFFFFFFFFFFFFFFFFFFFFFFFFFFFFFFFFFFFFFFFFFFFFFFFFFFFFFFFFFF
310
FFFFFFFFFFFFFFFFFFFFFFFFFFFFFFFFFFFFFFFFFFFFFFFFFFFFFFFFFFFFFFFF
310
FFFFFFFFFFFFFFFFFFFFFFFFFFFFFFFFFFFFFFFFFFFFFFFFFFFFFFFFFFFFFFFF
310
FFFFFFFFFFFFFFFFFFFFFFFFFFFFFFFFFFFFFFFFFFFFFFFFFFFFFFFFFFFFFFFF
310
FFFFFFFFFFFFFFFFFFFFFFFFFFFFFFFFFFFFFFFFFFFFFFFFFFFFFFFFFFFFFFFF
310
FFFFFFFFFFFFFFFFFFFFFFFFFFFFFFFFFFFFFFFFFFFFFFFFFFFFFFFFFFFFFFFF
310
FFFFFFFFFFFFFFFFFFFFFFFFFFFFFFFFFFFFFFFFFFFFFFFFFFFFFFFFFFFFFFFF
310
FFFFFFFFFFFFFFFFFFFFFFFFFFFFFFFFFFFFFFFFFFFFFFFFFFFFFFFFFFFFFFFF
310
FFFFFFFFFFFFFFFFFFFFFFFFFFFFFFFFFFFFFFFFFFFFFFFFFFFFFFFFFFFFFFFF
310
FFFFFFFFFFFFFFFFFFFFFFFFFFFFFFFFFFFFFFFFFFFFFFFFFFFFFFFFFFFFFFFF
310
FFFFFFFFFFFFFFFFFFFFFFFFFFFFFFFFFFFFFFFFFFFFFFFFFFFFFFFFFFFFFFFF
310
FFFFFFFFFFFFFFFFFFFFFFFFFFFFFFFFFFFFFFFFFFFFFFFFFFFFFFFFFFFFFFFF
310
FDFFFFFFFEFFFFFFFEFFFFFFFEFFFFFF05000000060000000700000008000000
310
090000000A0000000B0000000C0000000D0000000E0000000F00000010000000
310
11000000120000001300000014000000150000001600000017000000FEFFFFFF
310
FFFFFFFFFFFFFFFFFFFFFFFFFFFFFFFFFFFFFFFFFFFFFFFFFFFFFFFFFFFFFFFF
310
FFFFFFFFFFFFFFFFFFFFFFFFFFFFFFFFFFFFFFFFFFFFFFFFFFFFFFFFFFFFFFFF
310
FFFFFFFFFFFFFFFFFFFFFFFFFFFFFFFFFFFFFFFFFFFFFFFFFFFFFFFFFFFFFFFF
310
FFFFFFFFFFFFFFFFFFFFFFFFFFFFFFFFFFFFFFFFFFFFFFFFFFFFFFFFFFFFFFFF
310
FFFFFFFFFFFFFFFFFFFFFFFFFFFFFFFFFFFFFFFFFFFFFFFFFFFFFFFFFFFFFFFF
310
FFFFFFFFFFFFFFFFFFFFFFFFFFFFFFFFFFFFFFFFFFFFFFFFFFFFFFFFFFFFFFFF
310
FFFFFFFFFFFFFFFFFFFFFFFFFFFFFFFFFFFFFFFFFFFFFFFFFFFFFFFFFFFFFFFF
310
FFFFFFFFFFFFFFFFFFFFFFFFFFFFFFFFFFFFFFFFFFFFFFFFFFFFFFFFFFFFFFFF
310
FFFFFFFFFFFFFFFFFFFFFFFFFFFFFFFFFFFFFFFFFFFFFFFFFFFFFFFFFFFFFFFF
310
FFFFFFFFFFFFFFFFFFFFFFFFFFFFFFFFFFFFFFFFFFFFFFFFFFFFFFFFFFFFFFFF
310
FFFFFFFFFFFFFFFFFFFFFFFFFFFFFFFFFFFFFFFFFFFFFFFFFFFFFFFFFFFFFFFF
310
FFFFFFFFFFFFFFFFFFFFFFFFFFFFFFFFFFFFFFFFFFFFFFFFFFFFFFFFFFFFFFFF
310
FFFFFFFFFFFFFFFFFFFFFFFFFFFFFFFFFFFFFFFFFFFFFFFFFFFFFFFFFFFFFFFF
310
52006F006F007400200045006E00740072007900000000000000000000000000
310
0000000000000000000000000000000000000000000000000000000000000000
310
16000500FFFFFFFFFFFFFFFF020000000A00030000000000C000000000000046
310
000000000000000000000000500BD8536A03D20103000000C000000000000000
310
01004F006C006500000000000000000000000000000000000000000000000000
310
0000000000000000000000000000000000000000000000000000000000000000
310
0A000200FFFFFFFFFFFFFFFFFFFFFFFF00000000000000000000000000000000
310
0000000000000000000000000000000000000000000000001400000000000000
310
010043006F006D0070004F0062006A0000000000000000000000000000000000
310
0000000000000000000000000000000000000000000000000000000000000000
310
120002010100000003000000FFFFFFFF00000000000000000000000000000000
310
0000000000000000000000000000000000000000010000004D00000000000000
310
01004F006C006500310030004E00610074006900760065000000000000000000
310
0000000000000000000000000000000000000000000000000000000000000000
310
1A000200FFFFFFFFFFFFFFFFFFFFFFFF00000000000000000000000000000000
310
0000000000000000000000000000000000000000040000002426000000000000
310
FEFFFFFF02000000FEFFFFFFFFFFFFFFFFFFFFFFFFFFFFFFFFFFFFFFFFFFFFFF
310
FFFFFFFFFFFFFFFFFFFFFFFFFFFFFFFFFFFFFFFFFFFFFFFFFFFFFFFFFFFFFFFF
310
FFFFFFFFFFFFFFFFFFFFFFFFFFFFFFFFFFFFFFFFFFFFFFFFFFFFFFFFFFFFFFFF
310
FFFFFFFFFFFFFFFFFFFFFFFFFFFFFFFFFFFFFFFFFFFFFFFFFFFFFFFFFFFFFFFF
310
FFFFFFFFFFFFFFFFFFFFFFFFFFFFFFFFFFFFFFFFFFFFFFFFFFFFFFFFFFFFFFFF
310
FFFFFFFFFFFFFFFFFFFFFFFFFFFFFFFFFFFFFFFFFFFFFFFFFFFFFFFFFFFFFFFF
310
FFFFFFFFFFFFFFFFFFFFFFFFFFFFFFFFFFFFFFFFFFFFFFFFFFFFFFFFFFFFFFFF
310
FFFFFFFFFFFFFFFFFFFFFFFFFFFFFFFFFFFFFFFFFFFFFFFFFFFFFFFFFFFFFFFF
310
FFFFFFFFFFFFFFFFFFFFFFFFFFFFFFFFFFFFFFFFFFFFFFFFFFFFFFFFFFFFFFFF
310
FFFFFFFFFFFFFFFFFFFFFFFFFFFFFFFFFFFFFFFFFFFFFFFFFFFFFFFFFFFFFFFF
310
FFFFFFFFFFFFFFFFFFFFFFFFFFFFFFFFFFFFFFFFFFFFFFFFFFFFFFFFFFFFFFFF
310
FFFFFFFFFFFFFFFFFFFFFFFFFFFFFFFFFFFFFFFFFFFFFFFFFFFFFFFFFFFFFFFF
310
FFFFFFFFFFFFFFFFFFFFFFFFFFFFFFFFFFFFFFFFFFFFFFFFFFFFFFFFFFFFFFFF
310
FFFFFFFFFFFFFFFFFFFFFFFFFFFFFFFFFFFFFFFFFFFFFFFFFFFFFFFFFFFFFFFF
310
FFFFFFFFFFFFFFFFFFFFFFFFFFFFFFFFFFFFFFFFFFFFFFFFFFFFFFFFFFFFFFFF
310
FFFFFFFFFFFFFFFFFFFFFFFFFFFFFFFFFFFFFFFFFFFFFFFFFFFFFFFFFFFFFFFF
310
0100000200000000000000000000000000000000000000000000000000000000
310
0000000000000000000000000000000000000000000000000000000000000000
310
0100FEFF030A0000FFFFFFFF0A00030000000000C00000000000004607000000
310
5042727573680007000000504272757368000700000050427275736800F439B2
310
7100000000000000000000000000000000000000000000000000000000000000
310
0000000000000000000000000000000000000000000000000000000000000000
310
0000000000000000000000000000000000000000000000000000000000000000
310
0000000000000000000000000000000000000000000000000000000000000000
310
0000000000000000000000000000000000000000000000000000000000000000
310
0000000000000000000000000000000000000000000000000000000000000000
310
0000000000000000000000000000000000000000000000000000000000000000
310
0000000000000000000000000000000000000000000000000000000000000000
310
0000000000000000000000000000000000000000000000000000000000000000
310
0000000000000000000000000000000000000000000000000000000000000000
310
0000000000000000000000000000000000000000000000000000000000000000
310
0000000000000000000000000000000000000000000000000000000000000000
310
20260000424D0E260000000000003E00000028000000B40200006E0000000100
310
01000000000000000000130B0000130B00000200000002000000000000FFFFFF
310
FFFFFFFFFFFFFFFFFFFFFFFFFFFFFFFFFFFFFFFFFFFFFFFFFFFFFFFFFFFFFFFF
310
FFFFFFFFFFFFFFFFFFFFFFFFFFFFFFFFFFFFFFFFFFFFFFFFFFFFFFFFFFFFFFFF
310
FFFFFFFFFFFFFFFFFFFFFFFFFFFFFFFFFFFFFFFFFFFFFFFFF000FFFFFFFFFFFF
310
FFFFFFFFFFFFFFFFFFFFFFFFFFFFFFFFFFFFFFFFFFFFFFFFFFFFFFFFFFFFFFFF
310
FFFFFFFFFFFFFFFFFFFFFFFFFFFFFFFFFFFFFFFFFFFFFFFFFFFFFFFFFFFFFFFF
310
FFFFFFFFFFFFFFFFFFFFFFFFFFFFFFFFF000FFFFFFFFFFFFFFFFFFFFFFFFFFFF
310
FFFFFFFFFFFFFFFFFFFFFFFFFFFFFFFFFFFFFFFFFFFFFFFFFFFFFFFFFFFFFFFF
310
FFFFFFFFFFFFFFFFFFFFFFFFFFFFFFFFFFFFFFFFFFFFFFFFFFFFFFFFFFFFFFFF
310
FFFFFFFFFFFFFFFFF000FFFFFFFFFFFFFFFFFFFFFFFFFFFFFFFFFFFFFFFFFFFF
310
FFFFFFFFFFFFFFFFFFFFFFFFFFFFFFFFFFFFFFFFFFFFFFFFFFFFFFFFFFFFFFFF
310
FFFFFFFFFFFFFFFFFFFFFFFFFFFFFFFFFFFFFFFFFFFFFFFFFFFFFFFFFFFFFFFF
310
F000FFFFFFFFFFFFFFFFFFFFFFFFFFFFFFFFFFFFFFFFFFFFFFFFFFFFFFFFFFFF
310
FFFFFFFFFFFFFFFFFFFFFFFFFFFFFFFFFFFFFFFFFFFFFFFFFFFFFFFFFFFFFFFF
310
FFFFFFFFFFFFFFFFFFFFFFFFFFFFFFFFFFFFFFFFFFFFFFFFF000FFFFFFFFFFFF
310
FFFFFFFFFFFFFFFFFFFFFFFFFFFFFFFFFFFFFFFFFFFFFFFFFFFFFFFFFFFFFFFF
310
FFFFFFFFFFFFFFFFFFFFFFFFFFFFFFFFFFFFFFFFFFFFFFFFFFFFFFFFFFFFFFFF
310
FFFFFFFFFFFFFFFFFFFFFFFFFFFFFFFFF000FFFFFFFFFFFFFFFFFFFFFFFFFFFF
310
FFFFFFFFFFFFFFFFFFFFFFFFFFFFFFFFFFFFFFFFFFFFFFFFFFFFFFFFFFFFFFFF
310
FFFFFFFFFFFFFFFFFFFFFFFFFFFFFFFFFFFFFFFFFFFFFFFFFFFFFFFFFFFFFFFF
310
FFFFFFFFFFFFFFFFF000FFFFFFFFFFFFFFFFFFFFFFFFFFFFFFFFFFFFFFFFFFFF
310
FFFFFFFFFFFFFFFFFFFFFFFFFFFFFFFFFFFFFFFFFFFFFFFFFFFFFFFFFFFFFFFF
310
FFFFFFFFFFFFFFFFFFFFFFFFFFFFFFFFFFFFFFFFFFFFFFFFFFFFFFFFFFFFFFFF
310
F000FFFFFFFFFFFFFFFFFFFFFFFFFFFFFFFFFFFFFFFFFFFFFFFFFFFFFFFFFFFF
310
FFFFFFFFFFFFFFFFFFFFFFFFFFFFFFFFFFFFFFFFFFFFFFFFFFFFFFFFFFFFFFFF
310
FFFFFFFFFFFFFFFFFFFFFFFFFFFFFFFFFFFFFFFFFFFFFFFFF000FFFFFFFFFFFF
310
FFFFFFFFFFFFFFFFFFFFFFFFFFFFFFFFFFFFFFFFFFFFFFFFFFFFFFFFFFFFFFFF
310
FFFFFFFFFFFFFFFFFFFFFFFFFFFFFFFFFFFFFFFFFFFFFFFFFFFFFFFFFFFFFFFF
310
FFFFFFFFFFFFFFFFFFFFFFFFFFFFFFFFF000FFFFFFFFFFFFFFFFFFFFFFFFFFFF
310
FFFFFFFFFFFFFFFFFFFFFFFFFFFFFFFFFFFFFFFFFFFFFFFFFFFFFFFFFFFFFFFF
310
FFFFFFFFFFFFFFFFFFFFFFFFFFFFFFFFFFFFFFFFFFFFFFFFFFFFFFFFFFFFFFFF
310
FFFFFFFFFFFFFFFFF000FFFFFFFFFFFFFFFFFFFFFFFFFFFFFFFFFFFFFFFFFFFF
310
FFFFFFFFFFFFFFFFFFFFFFFFFFFFFFFFFFFFFFFFFFFFFFFFFFFFFFFFFFFFFFFF
310
FFFFFFFFFFFFFFFFFFFFFFFFFFFFFFFFFFFFFFFFFFFFFFFFFFFFFFFFFFFFFFFF
310
F000FFFFFFFFFFFFFFFFFFFFFFFFFFFFFFFFFFFFFFFFFFFFFFFFFFFFFFFFFFFF
310
FFFFFFFFFFFFFFFFFFFFFFFFFFFFFFFFFFFFFFFFFFFFFFFFFFFFFFFFFFFFFFFF
310
FFFFFFFFFFFFFFFFFFFFFFFFFFFFFFFFFFFFFFFFFFFFFFFFF000FFFFFFFFFFFF
310
FFFFFFFFFFFFFFFFFFFFFFFFFFFFFFFFFFFFFFFFFFFFFFFFFFFFFFFFFFFFFFFF
310
FFFFFFFFFFFFFFFFFFFFFFFFFFFFFFFFFFFFFFFFFFFFFFFFFFFFFFFFFFFFFFFF
310
FFFFFFFFFFFFFFFFFFFFFFFFFFFFFFFFF000FFFFFFFFFFFFFFFFFFFFFFFFFFFF
310
FFFFFFFFFFFFFFFFFFFFFFFFFFFFFFFFFFFFFFFFFFFFFFFFFFFFFFFFFFFFFFFF
310
FFFFFFFFFFFFFFFFFFFFFFFFFFFFFFFFFFFFFFFFFFFFFFFFFFFFFFFFFFFFFFFF
310
FFFFFFFFFFFFFFFFF000FFFFFFFFFFFFFFFFFFFFFFFFFFFFFFFFFFFFFFFFFFFF
310
FFFFFFFFFFFFFFFFFFFFFFFFFFFFFFFFFFFFFFFFFFFFFFFFFFFFFFFFFFFFFFFF
310
FFFFFFFFFFFFFFFFFFFFFFFFFFFFFFFFFFFFFFFFFFFFFFFFFFFFFFFFFFFFFFFF
310
F000FFFFFFFFFFFFFFFFFFFFFFFFFFFFFFFFFFFFFFFFFFFFFFFFFFFFFFFFFFFF
310
FFFFFFFFFFFFFFFFFFFFFFFFFFFFFFFFFFFFFFFFFFFFFFFFFFFFFFFFFFFFFFFF
310
FFFFFFFFFFFFFFFFFFFFFFFFFFFFFFFFFFFFFFFFFFFFFFFFF000FFFFFFFFFFFF
310
FFFFFFFFFFFFFFFFFFFFFFFFFFFFFFFFFFFFFFFFFFFFFFFFFFFFFFFFFFFFFFFF
310
FFFFFFFFFFFFFFFFFFFFFFFFFFFFFFFFFFFFFFFFFFFFFFFFFFFFFFFFFFFFFFFF
310
FFFFFFFFFFFFFFFFFFFFFFFFFFFFFFFFF000FFFFFFFFFFFFFFFFFFFFFFFFFFFF
310
FFFFFFFFFFFFFFFFFFFFFFFFFFFFFFFFFFFFFFFFFFFFFFFFFFFFFFFFFFFFFFFF
310
FFFFFFFFFFFFFFFFFFFFFFFFFFFFFFFFFFFFFFFFFFFFFFFFFFFFFFFFFFFFFFFF
310
FFFFFFFFFFFFFFFFF000FFFFF80003FFFFFFFFFFFFFFFFFFFFFFFFFFFFFFFFFF
310
FFFFF00007FFFFFFFFFF00007FFFFFF800000000000000007FFFFFFFFFFFFFFF
310
FFFFFFFC001FFFFFFFFFFFFFFC001FFFFFFFFFFFFFFFFFFFFFFFFFFE0007FFFF
310
F000FFFF8000007FFFFFFFF8000FFFFFC0007FFFFF80007FFFFF0000007FFFFF
310
FFF8000007FFFFF800000000000000007FFFFFF0001FFFFFFFFFFFC00001FFFF
310
FFFFFFFFC00001FFFFFFFF000000000003FFFFE000007FFFF000FFFE0000000F
310
FFFFFFF0000FFFFF80007FFFFF80007FFFFC0000001FFFFFFFC0000001FFFFF8
310
00000000000000007FFFFFF0001FFFFFFFFFFE0000003FFFFFFFFFFE0000003F
310
FFFFFF000000000003FFFF0000000FFFF000FFF800000003FFFFFFF00007FFFF
310
80007FFFFF80007FFFF000000007FFFFFF000000003FFFF80000000000000000
310
7FFFFFF0001FFFFFFFFFF80000000FFFFFFFFFF80000000FFFFFFF0000000000
310
03FFFC00000003FFF000FFE000000000FFFFFFF00007FFFF80003FFFFF80007F
310
FFC000000001FFFFFC000000001FFFF800000000000000007FFFFFF0001FFFFF
310
FFFFE000000003FFFFFFFFE000000003FFFFFF000000000003FFF000000000FF
310
F000FF80000000007FFFFFF00007FFFF80003FFFFF80007FFF8000000000FFFF
310
F80000000007FFF800000000000000007FFFFFF0001FFFFFFFFFC000000001FF
310
FFFFFFC000000001FFFFFF000000000003FFC0000000007FF000FF0000000000
310
3FFFFFE00007FFFF00003FFFFF80007FFE00000000003FFFF00000000003FFF8
310
00000000000000007FFFFFF0001FFFFFFFFF8000000000FFFFFFFF8000000000
310
FFFFFF000000000003FF80000000003FF000FE00000000001FFFFFE00003FFFF
310
00003FFFFF80007FFC00000000001FFFE00000000001FFF8000001FFFE000000
310
7FFFFFF0001FFFFFFFFE00000000003FFFFFFE00000000003FFFFF0000000000
310
03FF00000000001FF000FC00000000000FFFFFE00003FFFF00001FFFFF80007F
310
F800000000001FFFC00000000000FFF8000001FFFE0000007FFFFFF0001FFFFF
310
FFFC00000000001FFFFFFC00000000001FFFFF000000000003FE00000000000F
310
F000F8000000000007FFFFE00003FFFF00001FFFFF80007FF800000000000FFF
310
800000000000FFF8000001FFFE0000007FFFFFF0001FFFFFFFF800000000000F
310
FFFFF800000000000FFFFF000000000003FC000000000007F000F80000000000
310
03FFFFC00003FFFE00001FFFFF80007FF0000000000007FF0000000000007FF8
310
000001FFFE0000007FFFFFF0001FFFFFFFF0000000000007FFFFF00000000000
310
07FFFF000000000003F8000000000003F000F0000000000003FFFFC00001FFFE
310
00001FFFFF80007FE0000000000007FE0000000000003FF8000001FFFE000000
310
7FFFFFF0001FFFFFFFF0000000000007FFFFF0000000000007FFFF0000000000
310
03F800001F800003F000E00001FFF00001FFFFC00001FFFE00000FFFFF80007F
310
E00001FFE00003FE00001FFF00003FF8000001FFFE0000007FFFFFF0001FFFFF
310
FFE000003E000003FFFFE000003E000003FFFF000000000003F00001FFF80001
310
F000E00007FFFC0001FFFFC00001FFFE00000FFFFF80007FC0000FFFFC0003FC
310
0000FFFFC0001FF8000001FFFE0000007FFFFFF0001FFFFFFFC00003FFE00001
310
FFFFC00003FFE00001FFFF0001FFFFFFFFF00007FFFE0001F000E0000FFFFF00
310
00FFFF800001FFFC00000FFFFF80007FC0001FFFFE0001FC0001FFFFE0001FF8
310
000001FFFE0000007FFFFFF0001FFFFFFF80000FFFF80000FFFF80000FFFF800
310
00FFFF0003FFFFFFFFE0000FFFFF8000F000C0003FFFFF8000FFFF800000FFFC
310
000007FFFF80007F80003FFFFF0001FC0003FFFFF0001FF8000001FFFE000000
310
7FFFFFF0001FFFFFFF80003FFFFE0000FFFF80003FFFFE0000FFFF0003FFFFFF
310
FFE0003FFFFF8000F000C0003FFFFF8000FFFF800000FFFC000007FFFF80007F
310
80007FFFFF8001F80007FFFFF8000FF8000001FFFE0000007FFFFFF0001FFFFF
310
FF00007FFFFF00007FFF00007FFFFF00007FFF0003FFFFFFFFE0003FFFFFC000
310
F000C0007FFFFFC000FFFF000000FFFC000007FFFF80007F8000FFFFFF8000F8
310
000FFFFFF8000FF8000001FFFE0000007FFFFFF0001FFFFFFF0000FFFFFF8000
310
7FFF0000FFFFFF80007FFF0003FFFFFFFFC0007FFFFFC00070008000FFFFFFC0
310
00FFFF000000FFF8000007FFFF80007F8000FFFFFF8000F8000FFFFFF8000FF8
310
000001FFFE0000007FFFFFF0001FFFFFFE0001FFFFFFC0003FFE0001FFFFFFC0
310
003FFF0003FFFFFFFFC0007FFFFFE00070008000FFFFFFC0007FFF0000007FF8
310
000003FFFF80007F0001FFFFFF8000F8000FFFFFF8000FF8000001FFFE000000
310
7FFFFFF0001FFFFFFE0001FFFFFFC0003FFE0001FFFFFFC0003FFF0003FFFFFF
310
FFC000FFFFFFE00070008000FFFFFFC0007FFF0000007FF8000003FFFF80007F
310
0001FFFFFF8000F8001FFFFFF8000FF8000001FFFE0000007FFFFFF0001FFFFF
310
FE0003FFFFFFE0003FFE0003FFFFFFE0003FFF0003FFFFFFFFC000FFFFFFE000
310
70008000FFFFFFC0007FFE0000007FF8000003FFFF80007F0001FFFFFF8000F0
310
001FFFFFF8000FF8000001FFFE0000007FFFFFF0001FFFFFFC0003FFFFFFE000
310
1FFC0003FFFFFFE0001FFF0003FFFFFFFFC000FFFFFFC00070008000FFFFFF80
310
007FFE0000007FF0000003FFFF80007F0001FFFFFF0000F0001FFFFFF8000FF8
310
000001FFFE0000007FFFFFF0001FFFFFFC0007FFFFFFF0001FFC0007FFFFFFF0
310
001FFF0003FFFFFFFFC000FFFFFFC00070008001FFFFFF0000FFFE0000003FF0
310
000001FFFF80007F0001FFFFFF0000F8001FFFFFF0000FF8000001FFFE000000
310
7FFFFFF0001FFFFFFC0007FFFFFFF0001FFC0007FFFFFFF0001FFF0003FFFFFF
310
FFC001FFFFFF80007000FFFFFFFFFE0000FFFE0008003FF0008001FFFF80007F
310
FFFFFFFFFC0000FFFFFFFFFFE0000FF8000001FFFE0000007FFFFFF0001FFFFF
310
F8000FFFFFFFF8000FF8000FFFFFFFF8000FFF0003FFFFFFFFFFFFFFFFFF0000
310
7000FFFFFFFFFC0000FFFC0008003FF0008001FFFF80007FFFFFFFFFF80001FF
310
FFFFFFFF80000FF8000001FFFE0000007FFFFFF0001FFFFFF8000FFFFFFFF800
310
0FF8000FFFFFFFF8000FFF0003FFFFFFFFFFFFFFFFFE0000F000FFFFFFFFE000
310
00FFFC000C003FE000C001FFFF80007FFFFFFFFFC00001FFFFFFFFFE00001FF8
310
000001FFFE0000007FFFFFF0001FFFFFF8000FFFFFFFF8000FF8000FFFFFFFF8
310
000FFF0003FFFFFFFFFFFFFFFFF00000F000FFFFFFFE000001FFFC000C001FE0
310
00C000FFFF80007FFFFFFFFE000001FFFFFFFFE000001FF80FFFFFFFFFFFFFC0
310
7FFFFFF0001FFFFFF8000FFFFFFFF8000FF8000FFFFFFFF8000FFF0003FFFFFF
310
FFFFFFFFFF800000F000FFFFFFC0000001FFFC001C001FE001C000FFFF80007F
310
FFFFFF80000003FFFFFFF80000001FF80FFFFFFFFFFFFFC07FFFFFF0001FFFFF
310
F8001FFFFFFFFC000FF8001FFFFFFFFC000FFF0003FFFFFFFFFFFFFFF0000001
310
F000FFFFF800000001FFF8001C001FE001C000FFFF80007FFFFFF800000003FF
310
FFFF800000003FF80FFFFFFFFFFFFFC07FFFFFF0001FFFFFF8001FFFFFFFFC00
310
0FF8001FFFFFFFFC000FFF0003FFFFFFFFFFFFFE00000001F000FFFFC0000000
310
03FFF8001E001FC001E000FFFF80007FFFFF8000000007FFFFFC000000003FF8
310
0FFFFFFFFFFFFFC07FFFFFF0001FFFFFF8001FFFFFFFFC000FF8001FFFFFFFFC
310
000FFF0003FFFFFFFFFFFFE000000003F000FFFE0000000007FFF8001E000FC0
310
01E0007FFF80007FFFFE0000000007FFFFE0000000007FF80FFFFFFFFFFFFFC0
310
7FFFFFF0001FFFFFF0001FFFFFFFFC0007F0001FFFFFFFFC0007FF0003FFFFFF
310
FFFFFF0000000003F000FFF80000000007FFF8001E000FC003E0007FFF80007F
310
FFF0000000000FFFFF8000000000FFF80FFFFFFFFFFFFFC07FFFFFF0001FFFFF
310
F0001FFFFFFFFC0007F0001FFFFFFFFC0007FF0003FFFFFFFFFFFC0000000007
310
F000FFE0000000000FFFF0003E000FC003E0007FFF80007FFFC0000000001FFF
310
FE0000000001FFF80FFFFFFFFFFFFFC07FFFFFF0001FFFFFF0001FFFFFFFFC00
310
07F0001FFFFFFFFC0007FF0003FFFFFFFFFFF0000000000FF000FFC000000000
310
1FFFF0003F000F8003F0003FFF80007FFF80000000003FFFF80000000003FFF8
310
0FFFFFFFFFFFFFC07FFFFFF0001FFFFFF0001FFFFFFFFC0007F0001FFFFFFFFC
310
0007FF0003FFFFFFFFFFE0000000001FF000FF00000000007FFFF0003F000780
310
03F0003FFF80007FFF00000000007FFFF00000000007FFF80FFFFFFFFFFFFFC0
310
7FFFFFF0001FFFFFF0001FFFFFFFFC0007F0001FFFFFFFFC0007FF0003FFFFFF
310
FFFF80000000007FF000FE0000000000FFFFE0003F00078007F0003FFF80007F
310
FE0000000001FFFFE0000000001FFFF80FFFFFFFFFFFFFC07FFFFFF0001FFFFF
310
F0001FFFFFFFFC0007F0001FFFFFFFFC0007FF0003FFFFFFFFFF0000000000FF
310
F000FC0000000003FFFFE0007F00078007F0003FFF80007FFC0000000007FFFF
310
C0000000007FFFF80FFFFFFFFFFFFFC07FFFFFF0001FFFFFF8001FFFFFFFFC00
310
0FF8001FFFFFFFFC000FFF0003FFFFFFFFFE0000000003FFF000FC000000000F
310
FFFFE0007F80070007F8001FFF80007FF8000000001FFFFF8000000001FFFFF8
310
0FFFFFFFFFFFFFC07FFFFFF0001FFFFFF8001FFFFFFFFC000FF8001FFFFFFFFC
310
000FFF0003FFFFFFFFFC000000000FFFF000F8000000007FFFFFE0007F800700
310
07F8001FFF80007FF000000000FFFFFF800000000FFFFFF80FFFFFFFFFFFFFC0
310
7FFFFFF0001FFFFFF8000FFFFFFFF8000FF8000FFFFFFFF8000FFF0003FFFFFF
310
FFFC000000007FFFF000F800000007FFFFFFC0007F8003000FF8001FFF80007F
310
F000000007FFFFFF000000007FFFFFF80FFFFFFFFFFFFFC07FFFFFF0001FFFFF
310
F8000FFFFFFFF8000FF8000FFFFFFFF8000FFF0003FFFFFFFFF80000000FFFFF
310
F000F0000000FFFFFFFFC000FF8003000FF8001FFF80007FE0000000FFFFFFFF
310
0000000FFFFFFFF8000001FFFE0000007FFFFFF0001FFFFFF8000FFFFFFFF800
310
0FF8000FFFFFFFF8000FFF0003FFFFFFFFF8000000FFFFFFF000F000000FFFFF
310
FFFFC000FFC002000FF8000FFF80007FE000001FFFFFFFFE000001FFFFFFFFF8
310
000001FFFE0000007FFFFFF0001FFFFFF8000FFFFFFFF8000FF8000FFFFFFFF8
310
000FFF0003FFFFFFFFF000001FFFFFFFF000E00000FFFFFFFFFFC000FFC00200
310
0FFC000FFF80007FE00001FFFFFFFFFE00001FFFFFFFFFF8000001FFFE000000
310
7FFFFFF0001FFFFFFC000FFFFFFFF8001FFC000FFFFFFFF8001FFF0003FFFFFF
310
FFF00001FFFFFFFFF000E00007FFFFFFFFFF8000FFC000001FFC000FFF80007F
310
C0000FFFFFFFFFFE0000FFFFFFFFFFF8000001FFFE0000007FFFFFF0001FFFFF
310
FC0007FFFFFFF0001FFC0007FFFFFFF0001FFF0003FFFFFFFFF00007FFFFFFFF
310
F000E0001FFFFFFFFFFF8000FFC000001FFC000FFF80007FC0003FFFFFFFFFFE
310
0001FFFFFFFFFFF8000001FFFE0000007FFFFFF0001FFFFFFC0007FFFFFFF000
310
1FFC0007FFFFFFF0001FFF0003FFFFFFFFF0001FFFFFFFFFF000E0003FFFFF00
310
03FF8001FFE000001FFC0007FF80007FC0007FFFFF0007FC0003FFFFF0003FF8
310
000001FFFE0000007FFFFFF0001FFFFFFC0003FFFFFFE0001FFC0003FFFFFFE0
310
001FFF0003FFFFFFFFF0003FFFFFFFFFF000E0003FFFFF0001FF8001FFE00000
310
1FFE0007FF80007FC0007FFFFE0003FC0007FFFFE0003FF8000001FFFE000000
310
7FFFFFF0001FFFFFFE0003FFFFFFE0003FFE0003FFFFFFE0003FFF0003FFFFFF
310
FFF0003FFFFF8001F000E0003FFFFF0001FF0001FFE000001FFE0007FF80007F
310
C0007FFFFE0003FC0007FFFFE0003FF8000001FFFE0000007FFFFFF0001FFFFF
310
FE0001FFFFFFC0003FFE0001FFFFFFC0003FFF0003FFFFFFFFF0003FFFFF0001
310
F000E0003FFFFF0003FF0001FFE000003FFE0007FF80007FC0007FFFFE0003FC
310
0007FFFFE0003FF8000001FFFE0000007FFFFFF0001FFFFFFF0001FFFFFFC000
310
7FFF0001FFFFFFC0007FFF0003FFFFFFFFF0003FFFFF0001F000E0003FFFFE00
310
03FF0003FFF000003FFE0003FF80007FC0007FFFFC0003FE0007FFFFE0003FF8
310
000001FFFE0000007FFFFFF0001FFFFFFF0000FFFFFF80007FFF0000FFFFFF80
310
007FFF0003FFFFFFFFF0003FFFFF0001F000E0003FFFFE0003FF0003FFF00000
310
3FFF0003FF80007FC0007FFFFC0007FE0007FFFFC0003FF8000001FFFE000000
310
7FFFFFF0001FFFFFFF80007FFFFF0000FFFF80007FFFFF0000FFFF0003FFFFFF
310
FFF0003FFFFF0003F000E0003FFFFC0003FE0003FFF000003FFF0003FF80007F
310
E0003FFFF80007FE0003FFFFC0007FF8000001FFFE0000007FFFFFF0001FFFFF
310
FF80003FFFFE0000FFFF80003FFFFE0000FFFF0003FFFFFFFFF0001FFFFE0003
310
F000F0001FFFF80003FE0003FFF000007FFF0001FF80007FE0003FFFF00007FE
310
0001FFFF80007FF8000001FFFE0000007FFFFFF0001FFFFFFFC0000FFFF80001
310
FFFFC0000FFFF80001FFFF0003FFFFFFFFF0001FFFFC0003F000F0000FFFF000
310
07FE0007FFF800007FFF0001FF80007FE0001FFFE00007FF0000FFFE00007FF8
310
000001FFFE0000007FFFFFF0001FFFFFFFC00003FFE00001FFFFC00003FFE000
310
01FFFF0003FFFFFFFFF8000FFFF80003F000F00003FFC00007FC0007FFF80000
310
7FFF8001FF80007FF00007FF80000FFF00007FF80000FFF8000001FFFE000000
310
7F80000000000001FFE000003E000003FFFFE000003E000003FFFF0003FFFFFF
310
FFF80003FFE00007F000F800000000000FFC0007FFF800007FFF8001FF80007F
310
F000000000000FFF000000000000FFF8000001FFFE0000007F80000000000001
310
FFF0000000000007FFFFF0000000000007FFFF0003FFFFFFFFFC00007E000007
310
F000F800000000000FFC0007FFF80000FFFF8000FF80007FF800000000001FFF
310
800000000001FFF8000001FFFE0000007F80000000000001FFF800000000000F
310
FFFFF800000000000FFFFF0003FFFFFFFFFC00000000000FF000FC0000000000
310
1FFC0007FFFC0000FFFF8000FF80007FF800000000003FFFC00000000001FFF8
310
000001FFFE0000007F80000000000001FFF800000000000FFFFFF80000000000
310
0FFFFF0003FFFFFFFFFE00000000001FF000FE00000000003FF8000FFFFC0000
310
FFFF8000FF80007FFC00000000003FFFC00000000003FFF8000001FFFE000000
310
7F80000000000001FFFC00000000001FFFFFFC00000000001FFFFF0003FFFFFF
310
FFFF00000000001FF000FF00000000003FF8000FFFFC0000FFFFC000FF80007F
310
FE00000000007FFFE00000000007FFF8000001FFFE0000007F80000000000001
310
FFFE00000000003FFFFFFE00000000003FFFFF0003FFFFFFFFFF80000000003F
310
F000FF80000000007FF8000FFFFC0001FFFFC0007F80007FFF0000000000FFFF
310
F0000000000FFFF800000000000000007F80000000000001FFFF8000000000FF
310
FFFFFF8000000000FFFFFF0003FFFFFFFFFFC0000000007FF000FFC000000000
310
FFF8000FFFFE0001FFFFC0007F80007FFF8000000001FFFFF8000000001FFFF8
310
00000000000000007F80000000000001FFFFC000000001FFFFFFFFC000000001
310
FFFFFF0003FFFFFFFFFFE000000000FFF000FFE000000003FFF0001FFFFE0001
310
FFFFC0007F80007FFFC000000007FFFFFE000000003FFFF80000000000000000
310
7F80000000000001FFFFE000000003FFFFFFFFE000000003FFFFFF0003FFFFFF
310
FFFFF000000003FFF000FFF80000000FFFF0001FFFFE0001FFFFE0007F80007F
310
FFF00000000FFFFFFF00000000FFFFF800000000000000007F80000000000001
310
FFFFF80000000FFFFFFFFFF80000000FFFFFFF0003FFFFFFFFFFFC0000000FFF
310
F000FFFE0000003FFFF0001FFFFE0003FFFFE0003F80007FFFFC0000003FFFFF
310
FFC0000003FFFFF800000000000000007F80000000000001FFFFFE0000003FFF
310
FFFFFFFE0000003FFFFFFF0003FFFFFFFFFFFF0000003FFFF000FFFF800000FF
310
FFF0001FFFFF0003FFFFE0003F80007FFFFF000001FFFFFFFFF800001FFFFFF8
310
00000000000000007F80000000000001FFFFFFC00001FFFFFFFFFFFFC00001FF
310
FFFFFF0003FFFFFFFFFFFFC00000FFFFF000FFFFF8000FFFFFFFFFFFFFFFFFFF
310
FFFFFFFFFFFFFFFFFFFFF0001FFFFFFFFFFF0000FFFFFFF80000000000000000
310
7FFFFFFFFFFFFFFFFFFFFFFC001FFFFFFFFFFFFFFC001FFFFFFFFFFFFFFFFFFF
310
FFFFFFFC001FFFFFF000FFFFFFFFFFFFFFFFFFFFFFFFFFFFFFFFFFFFFFFFFFFF
310
FFFFFFFFFFFFFFFFFFFFFFFFFFFFFFFFFFFFFFFFFFFFFFFFFFFFFFFFFFFFFFFF
310
FFFFFFFFFFFFFFFFFFFFFFFFFFFFFFFFFFFFFFFFFFFFFFFFFFFFFFFFFFFFFFFF
310
F000FFFFFFFFFFFFFFFFFFFFFFFFFFFFFFFFFFFFFFFFFFFFFFFFFFFFFFFFFFFF
310
FFFFFFFFFFFFFFFFFFFFFFFFFFFFFFFFFFFFFFFFFFFFFFFFFFFFFFFFFFFFFFFF
310
FFFFFFFFFFFFFFFFFFFFFFFFFFFFFFFFFFFFFFFFFFFFFFFFF000FFFFFFFFFFFF
310
FFFFFFFFFFFFFFFFFFFFFFFFFFFFFFFFFFFFFFFFFFFFFFFFFFFFFFFFFFFFFFFF
310
FFFFFFFFFFFFFFFFFFFFFFFFFFFFFFFFFFFFFFFFFFFFFFFFFFFFFFFFFFFFFFFF
310
FFFFFFFFFFFFFFFFFFFFFFFFFFFFFFFFF000FFFFFFFFFFFFFFFFFFFFFFFFFFFF
310
FFFFFFFFFFFFFFFFFFFFFFFFFFFFFFFFFFFFFFFFFFFFFFFFFFFFFFFFFFFFFFFF
310
FFFFFFFFFFFFFFFFFFFFFFFFFFFFFFFFFFFFFFFFFFFFFFFFFFFFFFFFFFFFFFFF
310
FFFFFFFFFFFFFFFFF000FFFFFFFFFFFFFFFFFFFFFFFFFFFFFFFFFFFFFFFFFFFF
310
FFFFFFFFFFFFFFFFFFFFFFFFFFFFFFFFFFFFFFFFFFFFFFFFFFFFFFFFFFFFFFFF
310
FFFFFFFFFFFFFFFFFFFFFFFFFFFFFFFFFFFFFFFFFFFFFFFFFFFFFFFFFFFFFFFF
310
F000FFFFFFFFFFFFFFFFFFFFFFFFFFFFFFFFFFFFFFFFFFFFFFFFFFFFFFFFFFFF
310
FFFFFFFFFFFFFFFFFFFFFFFFFFFFFFFFFFFFFFFFFFFFFFFFFFFFFFFFFFFFFFFF
310
FFFFFFFFFFFFFFFFFFFFFFFFFFFFFFFFFFFFFFFFFFFFFFFFF000FFFFFFFFFFFF
310
FFFFFFFFFFFFFFFFFFFFFFFFFFFFFFFFFFFFFFFFFFFFFFFFFFFFFFFFFFFFFFFF
310
FFFFFFFFFFFFFFFFFFFFFFFFFFFFFFFFFFFFFFFFFFFFFFFFFFFFFFFFFFFFFFFF
310
FFFFFFFFFFFFFFFFFFFFFFFFFFFFFFFFF000FFFFFFFFFFFFFFFFFFFFFFFFFFFF
310
FFFFFFFFFFFFFFFFFFFFFFFFFFFFFFFFFFFFFFFFFFFFFFFFFFFFFFFFFFFFFFFF
310
FFFFFFFFFFFFFFFFFFFFFFFFFFFFFFFFFFFFFFFFFFFFFFFFFFFFFFFFFFFFFFFF
310
FFFFFFFFFFFFFFFFF000FFFFFFFFFFFFFFFFFFFFFFFFFFFFFFFFFFFFFFFFFFFF
310
FFFFFFFFFFFFFFFFFFFFFFFFFFFFFFFFFFFFFFFFFFFFFFFFFFFFFFFFFFFFFFFF
310
FFFFFFFFFFFFFFFFFFFFFFFFFFFFFFFFFFFFFFFFFFFFFFFFFFFFFFFFFFFFFFFF
310
F000FFFFFFFFFFFFFFFFFFFFFFFFFFFFFFFFFFFFFFFFFFFFFFFFFFFFFFFFFFFF
310
FFFFFFFFFFFFFFFFFFFFFFFFFFFFFFFFFFFFFFFFFFFFFFFFFFFFFFFFFFFFFFFF
310
FFFFFFFFFFFFFFFFFFFFFFFFFFFFFFFFFFFFFFFFFFFFFFFFF000FFFFFFFFFFFF
310
FFFFFFFFFFFFFFFFFFFFFFFFFFFFFFFFFFFFFFFFFFFFFFFFFFFFFFFFFFFFFFFF
310
FFFFFFFFFFFFFFFFFFFFFFFFFFFFFFFFFFFFFFFFFFFFFFFFFFFFFFFFFFFFFFFF
310
FFFFFFFFFFFFFFFFFFFFFFFFFFFFFFFFF000FFFFFFFFFFFFFFFFFFFFFFFFFFFF
310
FFFFFFFFFFFFFFFFFFFFFFFFFFFFFFFFFFFFFFFFFFFFFFFFFFFFFFFFFFFFFFFF
310
FFFFFFFFFFFFFFFFFFFFFFFFFFFFFFFFFFFFFFFFFFFFFFFFFFFFFFFFFFFFFFFF
310
FFFFFFFFFFFFFFFFF000FFFFFFFFFFFFFFFFFFFFFFFFFFFFFFFFFFFFFFFFFFFF
310
FFFFFFFFFFFFFFFFFFFFFFFFFFFFFFFFFFFFFFFFFFFFFFFFFFFFFFFFFFFFFFFF
310
FFFFFFFFFFFFFFFFFFFFFFFFFFFFFFFFFFFFFFFFFFFFFFFFFFFFFFFFFFFFFFFF
310
F000FFFFFFFFFFFFFFFFFFFFFFFFFFFFFFFFFFFFFFFFFFFFFFFFFFFFFFFFFFFF
310
FFFFFFFFFFFFFFFFFFFFFFFFFFFFFFFFFFFFFFFFFFFFFFFFFFFFFFFFFFFFFFFF
310
FFFFFFFFFFFFFFFFFFFFFFFFFFFFFFFFFFFFFFFFFFFFFFFFF000FFFFFFFFFFFF
310
FFFFFFFFFFFFFFFFFFFFFFFFFFFFFFFFFFFFFFFFFFFFFFFFFFFFFFFFFFFFFFFF
310
FFFFFFFFFFFFFFFFFFFFFFFFFFFFFFFFFFFFFFFFFFFFFFFFFFFFFFFFFFFFFFFF
310
FFFFFFFFFFFFFFFFFFFFFFFFFFFFFFFFF000FFFFFFFFFFFFFFFFFFFFFFFFFFFF
310
FFFFFFFFFFFFFFFFFFFFFFFFFFFFFFFFFFFFFFFFFFFFFFFFFFFFFFFFFFFFFFFF
310
FFFFFFFFFFFFFFFFFFFFFFFFFFFFFFFFFFFFFFFFFFFFFFFFFFFFFFFFFFFFFFFF
310
FFFFFFFFFFFFFFFFF000FFFFFFFFFFFFFFFFFFFFFFFFFFFFFFFFFFFFFFFFFFFF
310
FFFFFFFFFFFFFFFFFFFFFFFFFFFFFFFFFFFFFFFFFFFFFFFFFFFFFFFFFFFFFFFF
310
FFFFFFFFFFFFFFFFFFFFFFFFFFFFFFFFFFFFFFFFFFFFFFFFFFFFFFFFFFFFFFFF
310
F000FFFFFFFFFFFFFFFFFFFFFFFFFFFFFFFFFFFFFFFFFFFFFFFFFFFFFFFFFFFF
310
FFFFFFFFFFFFFFFFFFFFFFFFFFFFFFFFFFFFFFFFFFFFFFFFFFFFFFFFFFFFFFFF
310
FFFFFFFFFFFFFFFFFFFFFFFFFFFFFFFFFFFFFFFFFFFFFFFFF000FFFFFFFFFFFF
310
FFFFFFFFFFFFFFFFFFFFFFFFFFFFFFFFFFFFFFFFFFFFFFFFFFFFFFFFFFFFFFFF
310
FFFFFFFFFFFFFFFFFFFFFFFFFFFFFFFFFFFFFFFFFFFFFFFFFFFFFFFFFFFFFFFF
310
FFFFFFFFFFFFFFFFFFFFFFFFFFFFFFFFF000FFFFFFFFFFFFFFFFFFFFFFFFFFFF
310
FFFFFFFFFFFFFFFFFFFFFFFFFFFFFFFFFFFFFFFFFFFFFFFFFFFFFFFFFFFFFFFF
310
FFFFFFFFFFFFFFFFFFFFFFFFFFFFFFFFFFFFFFFFFFFFFFFFFFFFFFFFFFFFFFFF
310
FFFFFFFFFFFFFFFFF000FFFFFFFFFFFFFFFFFFFFFFFFFFFFFFFFFFFFFFFFFFFF
310
FFFFFFFFFFFFFFFFFFFFFFFFFFFFFFFFFFFFFFFFFFFFFFFFFFFFFFFFFFFFFFFF
310
FFFFFFFFFFFFFFFFFFFFFFFFFFFFFFFFFFFFFFFFFFFFFFFFFFFFFFFFFFFFFFFF
310
F000FFFFFFFFFFFFFFFFFFFFFFFFFFFFFFFFFFFFFFFFFFFFFFFFFFFFFFFFFFFF
310
FFFFFFFFFFFFFFFFFFFFFFFFFFFFFFFFFFFFFFFFFFFFFFFFFFFFFFFFFFFFFFFF
310
FFFFFFFFFFFFFFFFFFFFFFFFFFFFFFFFFFFFFFFFFFFFFFFFF000FFFFFFFFFFFF
310
FFFFFFFFFFFFFFFFFFFFFFFFFFFFFFFFFFFFFFFFFFFFFFFFFFFFFFFFFFFFFFFF
310
FFFFFFFFFFFFFFFFFFFFFFFFFFFFFFFFFFFFFFFFFFFFFFFFFFFFFFFFFFFFFFFF
310
FFFFFFFFFFFFFFFFFFFFFFFFFFFFFFFFF0000000000000000000000000000000
310
0000000000000000000000000000000000000000000000000000000000000000
310
0000000000000000000000000000000000000000000000000000000000000000
310
0000000000000000000000000000000000000000000000000000000000000000
310
0000000000000000000000000000000000000000000000000000000000000000
310
0000000000000000000000000000000000000000000000000000000000000000
310
0000000000000000000000000000000000000000000000000000000000000000
310
0000000000000000000000000000000000000000000000000000000000000000
310
0000000000000000000000000000000000000000000000000000000000000000
310
0000000000000000000000000000000000000000000000000000000000000000
310
0000000000000000000000000000000000000000000000000000000000000000
310
0000000000000000000000000000000000000000000000000000000000000000
310
0000000000000000000000000000000000000000000000000000000000000000
310
0000000000000000000000000000000000000000000000000000000000000000
310
0000000000000000000000000000000000000000000000000000000000000000
310
0000000000000000000000000000000000000000000000000000000000000000
  1
OLE
  0
ENDSEC
  0
SECTION
  2
OBJECTS
  0
DICTIONARY
  5
C
330
0
100
AcDbDictionary
281
     1
  3
ACAD_GROUP
350
D
  3
ACAD_LAYOUT
350
1A
  3
ACAD_MLINESTYLE
350
17
  3
ACAD_PLOTSETTINGS
350
19
  3
ACAD_PLOTSTYLENAME
350
E
  3
ACAD_SCALELIST
350
47
  0
DICTIONARY
  5
D
102
{ACAD_REACTORS
330
C
102
}
330
C
100
AcDbDictionary
281
     1
  0
DICTIONARY
  5
1A
102
{ACAD_REACTORS
330
C
102
}
330
C
100
AcDbDictionary
281
     1
  3
Layout1
350
1E
  3
Layout2
350
26
  3
Model
350
22
  0
DICTIONARY
  5
17
102
{ACAD_REACTORS
330
C
102
}
330
C
100
AcDbDictionary
281
     1
  3
Standard
350
18
  0
DICTIONARY
  5
19
102
{ACAD_REACTORS
330
C
102
}
330
C
100
AcDbDictionary
281
     1
  0
ACDBDICTIONARYWDFLT
  5
E
102
{ACAD_REACTORS
330
C
102
}
330
C
100
AcDbDictionary
281
     1
  3
Normal
350
F
100
AcDbDictionaryWithDefault
340
F
  0
DICTIONARY
  5
47
102
{ACAD_REACTORS
330
C
102
}
330
C
100
AcDbDictionary
281
     1
  3
A0
350
48
  3
A1
350
49
  3
A2
350
4A
  3
A3
350
4B
  3
A4
350
4C
  3
A5
350
4D
  3
A6
350
4E
  3
A7
350
4F
  3
A8
350
50
  3
A9
350
51
  3
B0
350
52
  3
B1
350
53
  3
B2
350
54
  3
B3
350
55
  3
B4
350
56
  3
B5
350
57
  3
B6
350
58
  3
B7
350
59
  3
B8
350
5A
  3
B9
350
5B
  3
C0
350
5C
  3
C1
350
5D
  3
C2
350
5E
  3
C3
350
5F
  3
C4
350
60
  3
C5
350
61
  3
C6
350
62
  3
C7
350
63
  3
C8
350
64
  3
C9
350
65
  3
D0
350
66
  3
D1
350
67
  3
D2
350
68
  0
LAYOUT
  5
1E
102
{ACAD_REACTORS
330
1A
102
}
330
1A
100
AcDbPlotSettings
  1

  2
none_device
  4

  6

 40
0.0
 41
0.0
 42
0.0
 43
0.0
 44
0.0
 45
0.0
 46
0.0
 47
0.0
 48
0.0
 49
0.0
140
0.0
141
0.0
142
1.0
143
1.0
 70
   688
 72
     1
 73
     0
 74
     5
  7

 75
    16
147
1.0
148
0.0
149
0.0
100
AcDbLayout
  1
Layout1
 70
     1
 71
     1
 10
0.0
 20
0.0
 11
420.0
 21
297.0
 12
0.0
 22
0.0
 32
0.0
 14
1.0000000000E+20
 24
1.0000000000E+20
 34
1.0000000000E+20
 15
-1.0000000000E+20
 25
-1.0000000000E+20
 35
-1.0000000000E+20
146
0.0
 13
0.0
 23
0.0
 33
0.0
 16
1.0
 26
0.0
 36
0.0
 17
0.0
 27
1.0
 37
0.0
 76
     0
330
1B
  0
LAYOUT
  5
26
102
{ACAD_REACTORS
330
1A
102
}
330
1A
100
AcDbPlotSettings
  1

  2
none_device
  4

  6

 40
0.0
 41
0.0
 42
0.0
 43
0.0
 44
0.0
 45
0.0
 46
0.0
 47
0.0
 48
0.0
 49
0.0
140
0.0
141
0.0
142
1.0
143
1.0
 70
   688
 72
     1
 73
     0
 74
     5
  7

 75
    16
147
1.0
148
0.0
149
0.0
100
AcDbLayout
  1
Layout2
 70
     1
 71
     2
 10
0.0
 20
0.0
 11
0.0
 21
0.0
 12
0.0
 22
0.0
 32
0.0
 14
0.0
 24
0.0
 34
0.0
 15
0.0
 25
0.0
 35
0.0
146
0.0
 13
0.0
 23
0.0
 33
0.0
 16
1.0
 26
0.0
 36
0.0
 17
0.0
 27
1.0
 37
0.0
 76
     0
330
23
  0
LAYOUT
  5
22
102
{ACAD_REACTORS
330
1A
102
}
330
1A
100
AcDbPlotSettings
  1

  2
none_device
  4
Letter_(8.50_x_11.00_Inches)
  6

 40
6.35
 41
6.35
 42
6.35000508
 43
6.35000508
 44
215.9
 45
279.4
 46
0.0
 47
0.0
 48
0.0
 49
0.0
140
0.0
141
0.0
142
1.0
143
1.0
 70
  1712
 72
     1
 73
     0
 74
     0
  7

 75
     0
147
1.0
148
0.0
149
0.0
100
AcDbLayout
  1
Model
 70
     1
 71
     0
 10
0.0
 20
0.0
 11
297.0
 21
210.0
 12
0.0
 22
0.0
 32
0.0
 14
0.0
 24
0.0
 34
0.0
 15
297.0
 25
210.0
 35
0.0
146
0.0
 13
0.0
 23
0.0
 33
0.0
 16
1.0
 26
0.0
 36
0.0
 17
0.0
 27
1.0
 37
0.0
 76
     0
330
1F
331
29
  0
MLINESTYLE
  5
18
102
{ACAD_REACTORS
330
17
102
}
330
17
100
AcDbMlineStyle
  2
Standard
 70
     0
  3

 62
   256
 51
90.0
 52
90.0
 71
     2
 49
0.5
 62
   256
  6
BYLAYER
 49
-0.5
 62
   256
  6
BYLAYER
  0
ACDBPLACEHOLDER
  5
F
102
{ACAD_REACTORS
330
E
102
}
330
E
  0
SCALE
  5
48
102
{ACAD_REACTORS
330
47
102
}
330
47
100
AcDbScale
 70
     0
300
1:1
140
1.0
141
1.0
290
     1
  0
SCALE
  5
49
102
{ACAD_REACTORS
330
47
102
}
330
47
100
AcDbScale
 70
     0
300
1:2
140
1.0
141
2.0
290
     0
  0
SCALE
  5
4A
102
{ACAD_REACTORS
330
47
102
}
330
47
100
AcDbScale
 70
     0
300
1:4
140
1.0
141
4.0
290
     0
  0
SCALE
  5
4B
102
{ACAD_REACTORS
330
47
102
}
330
47
100
AcDbScale
 70
     0
300
1:5
140
1.0
141
5.0
290
     0
  0
SCALE
  5
4C
102
{ACAD_REACTORS
330
47
102
}
330
47
100
AcDbScale
 70
     0
300
1:8
140
1.0
141
8.0
290
     0
  0
SCALE
  5
4D
102
{ACAD_REACTORS
330
47
102
}
330
47
100
AcDbScale
 70
     0
300
1:10
140
1.0
141
10.0
290
     0
  0
SCALE
  5
4E
102
{ACAD_REACTORS
330
47
102
}
330
47
100
AcDbScale
 70
     0
300
1:16
140
1.0
141
16.0
290
     0
  0
SCALE
  5
4F
102
{ACAD_REACTORS
330
47
102
}
330
47
100
AcDbScale
 70
     0
300
1:20
140
1.0
141
20.0
290
     0
  0
SCALE
  5
50
102
{ACAD_REACTORS
330
47
102
}
330
47
100
AcDbScale
 70
     0
300
1:30
140
1.0
141
30.0
290
     0
  0
SCALE
  5
51
102
{ACAD_REACTORS
330
47
102
}
330
47
100
AcDbScale
 70
     0
300
1:40
140
1.0
141
40.0
290
     0
  0
SCALE
  5
52
102
{ACAD_REACTORS
330
47
102
}
330
47
100
AcDbScale
 70
     0
300
1:50
140
1.0
141
50.0
290
     0
  0
SCALE
  5
53
102
{ACAD_REACTORS
330
47
102
}
330
47
100
AcDbScale
 70
     0
300
1:100
140
1.0
141
100.0
290
     0
  0
SCALE
  5
54
102
{ACAD_REACTORS
330
47
102
}
330
47
100
AcDbScale
 70
     0
300
2:1
140
2.0
141
1.0
290
     0
  0
SCALE
  5
55
102
{ACAD_REACTORS
330
47
102
}
330
47
100
AcDbScale
 70
     0
300
4:1
140
4.0
141
1.0
290
     0
  0
SCALE
  5
56
102
{ACAD_REACTORS
330
47
102
}
330
47
100
AcDbScale
 70
     0
300
8:1
140
8.0
141
1.0
290
     0
  0
SCALE
  5
57
102
{ACAD_REACTORS
330
47
102
}
330
47
100
AcDbScale
 70
     0
300
10:1
140
10.0
141
1.0
290
     0
  0
SCALE
  5
58
102
{ACAD_REACTORS
330
47
102
}
330
47
100
AcDbScale
 70
     0
300
100:1
140
100.0
141
1.0
290
     0
  0
SCALE
  5
59
102
{ACAD_REACTORS
330
47
102
}
330
47
100
AcDbScale
 70
     0
300
1/128" = 1'-0"
140
0.0078125
141
12.0
290
     0
  0
SCALE
  5
5A
102
{ACAD_REACTORS
330
47
102
}
330
47
100
AcDbScale
 70
     0
300
1/64" = 1'-0"
140
0.015625
141
12.0
290
     0
  0
SCALE
  5
5B
102
{ACAD_REACTORS
330
47
102
}
330
47
100
AcDbScale
 70
     0
300
1/32" = 1'-0"
140
0.03125
141
12.0
290
     0
  0
SCALE
  5
5C
102
{ACAD_REACTORS
330
47
102
}
330
47
100
AcDbScale
 70
     0
300
1/16" = 1'-0"
140
0.0625
141
12.0
290
     0
  0
SCALE
  5
5D
102
{ACAD_REACTORS
330
47
102
}
330
47
100
AcDbScale
 70
     0
300
3/32" = 1'-0"
140
0.09375
141
12.0
290
     0
  0
SCALE
  5
5E
102
{ACAD_REACTORS
330
47
102
}
330
47
100
AcDbScale
 70
     0
300
1/8" = 1'-0"
140
0.125
141
12.0
290
     0
  0
SCALE
  5
5F
102
{ACAD_REACTORS
330
47
102
}
330
47
100
AcDbScale
 70
     0
300
3/16" = 1'-0"
140
0.1875
141
12.0
290
     0
  0
SCALE
  5
60
102
{ACAD_REACTORS
330
47
102
}
330
47
100
AcDbScale
 70
     0
300
1/4" = 1'-0"
140
0.25
141
12.0
290
     0
  0
SCALE
  5
61
102
{ACAD_REACTORS
330
47
102
}
330
47
100
AcDbScale
 70
     0
300
3/8" = 1'-0"
140
0.375
141
12.0
290
     0
  0
SCALE
  5
62
102
{ACAD_REACTORS
330
47
102
}
330
47
100
AcDbScale
 70
     0
300
1/2" = 1'-0"
140
0.5
141
12.0
290
     0
  0
SCALE
  5
63
102
{ACAD_REACTORS
330
47
102
}
330
47
100
AcDbScale
 70
     0
300
3/4" = 1'-0"
140
0.75
141
12.0
290
     0
  0
SCALE
  5
64
102
{ACAD_REACTORS
330
47
102
}
330
47
100
AcDbScale
 70
     0
300
1" = 1'-0"
140
1.0
141
12.0
290
     0
  0
SCALE
  5
65
102
{ACAD_REACTORS
330
47
102
}
330
47
100
AcDbScale
 70
     0
300
1-1/2" = 1'-0"
140
1.5
141
12.0
290
     0
  0
SCALE
  5
66
102
{ACAD_REACTORS
330
47
102
}
330
47
100
AcDbScale
 70
     0
300
3" = 1'-0"
140
3.0
141
12.0
290
     0
  0
SCALE
  5
67
102
{ACAD_REACTORS
330
47
102
}
330
47
100
AcDbScale
 70
     0
300
6" = 1'-0"
140
6.0
141
12.0
290
     0
  0
SCALE
  5
68
102
{ACAD_REACTORS
330
47
102
}
330
47
100
AcDbScale
 70
     0
300
1'-0" = 1'-0"
140
12.0
141
12.0
290
     0
  0
ENDSEC
  0
EOF
