  0
SECTION
  2
HEADER
  9
$ACADVER
  1
AC1015
  9
$ACADMAINTVER
 70
     6
  9
$DWGCODEPAGE
  3
ANSI_1252
  9
$INSBASE
 10
0.0
 20
0.0
 30
0.0
  9
$EXTMIN
 10
0.0
 20
0.0
 30
0.0
  9
$EXTMAX
 10
297.0
 20
210.0
 30
0.0
  9
$LIMMIN
 10
0.0
 20
0.0
  9
$LIMMAX
 10
297.0
 20
210.0
  9
$ORTHOMODE
 70
     0
  9
$REGENMODE
 70
     1
  9
$FILLMODE
 70
     1
  9
$QTEXTMODE
 70
     0
  9
$MIRRTEXT
 70
     1
  9
$LTSCALE
 40
1.0
  9
$ATTMODE
 70
     1
  9
$TEXTSIZE
 40
2.0
  9
$TRACEWID
 40
1.0
  9
$TEXTSTYLE
  7
Standard
  9
$CLAYER
  8
0
  9
$CELTYPE
  6
ByLayer
  9
$CECOLOR
 62
   256
  9
$CELTSCALE
 40
1.0
  9
$DISPSILH
 70
     0
  9
$DIMSCALE
 40
1.0
  9
$DIMASZ
 40
3.0
  9
$DIMEXO
 40
0.0
  9
$DIMDLI
 40
3.75
  9
$DIMRND
 40
0.0
  9
$DIMDLE
 40
0.0
  9
$DIMEXE
 40
1.0
  9
$DIMTP
 40
0.0
  9
$DIMTM
 40
0.0
  9
$DIMTXT
 40
2.0
  9
$DIMCEN
 40
2.5
  9
$DIMTSZ
 40
0.0
  9
$DIMTOL
 70
     0
  9
$DIMLIM
 70
     0
  9
$DIMTIH
 70
     1
  9
$DIMTOH
 70
     1
  9
$DIMSE1
 70
     0
  9
$DIMSE2
 70
     0
  9
$DIMTAD
 70
     1
  9
$DIMZIN
 70
     0
  9
$DIMBLK
  1

  9
$DIMASO
 70
     1
  9
$DIMSHO
 70
     1
  9
$DIMPOST
  1

  9
$DIMAPOST
  1

  9
$DIMALT
 70
     0
  9
$DIMALTD
 70
     3
  9
$DIMALTF
 40
0.0393700787
  9
$DIMLFAC
 40
1.0
  9
$DIMTOFL
 70
     1
  9
$DIMTVP
 40
0.0
  9
$DIMTIX
 70
     0
  9
$DIMSOXD
 70
     0
  9
$DIMSAH
 70
     0
  9
$DIMBLK1
  1

  9
$DIMBLK2
  1

  9
$DIMSTYLE
  2
ISO-25
  9
$DIMCLRD
 70
     0
  9
$DIMCLRE
 70
     0
  9
$DIMCLRT
 70
     0
  9
$DIMTFAC
 40
1.0
  9
$DIMGAP
 40
1.524
  9
$DIMJUST
 70
     0
  9
$DIMSD1
 70
     0
  9
$DIMSD2
 70
     0
  9
$DIMTOLJ
 70
     0
  9
$DIMTZIN
 70
     0
  9
$DIMALTZ
 70
     0
  9
$DIMALTTZ
 70
     0
  9
$DIMUPT
 70
     0
  9
$DIMDEC
 70
     2
  9
$DIMTDEC
 70
     3
  9
$DIMALTU
 70
     2
  9
$DIMALTTD
 70
     3
  9
$DIMTXSTY
  7
Standard
  9
$DIMAUNIT
 70
     0
  9
$DIMADEC
 70
     2
  9
$DIMALTRND
 40
0.0
  9
$DIMAZIN
 70
     0
  9
$DIMDSEP
 70
    44
  9
$DIMATFIT
 70
     3
  9
$DIMFRAC
 70
     0
  9
$DIMLDRBLK
  1

  9
$DIMLUNIT
 70
     2
  9
$DIMLWD
 70
    -2
  9
$DIMLWE
 70
    -2
  9
$DIMTMOVE
 70
     0
  9
$LUNITS
 70
     2
  9
$LUPREC
 70
     2
  9
$SKETCHINC
 40
1.0
  9
$FILLETRAD
 40
10.0
  9
$AUNITS
 70
     0
  9
$AUPREC
 70
     2
  9
$MENU
  1
.
  9
$ELEVATION
 40
0.0
  9
$PELEVATION
 40
0.0
  9
$THICKNESS
 40
0.0
  9
$LIMCHECK
 70
     0
  9
$CHAMFERA
 40
0.0
  9
$CHAMFERB
 40
0.0
  9
$CHAMFERC
 40
0.0
  9
$CHAMFERD
 40
0.0
  9
$SKPOLY
 70
     0
  9
$TDCREATE
 40
2457632.480580405
  9
$TDUCREATE
 40
2457632.397247072
  9
$TDUPDATE
 40
2457632.480581678
  9
$TDUUPDATE
 40
2457632.397248345
  9
$TDINDWG
 40
0.0000000116
  9
$TDUSRTIMER
 40
0.0000000116
  9
$USRTIMER
 70
     1
  9
$ANGBASE
 50
0.0
  9
$ANGDIR
 70
     0
  9
$PDMODE
 70
     0
  9
$PDSIZE
 40
-1.0
  9
$PLINEWID
 40
0.0
  9
$SPLFRAME
 70
     0
  9
$SPLINETYPE
 70
     6
  9
$SPLINESEGS
 70
     8
  9
$HANDSEED
  5
2D9
  9
$SURFTAB1
 70
     6
  9
$SURFTAB2
 70
     6
  9
$SURFTYPE
 70
     6
  9
$SURFU
 70
     6
  9
$SURFV
 70
     6
  9
$UCSBASE
  2

  9
$UCSNAME
  2

  9
$UCSORG
 10
0.0
 20
0.0
 30
0.0
  9
$UCSXDIR
 10
1.0
 20
0.0
 30
0.0
  9
$UCSYDIR
 10
0.0
 20
1.0
 30
0.0
  9
$UCSORTHOREF
  2

  9
$UCSORTHOVIEW
 70
     0
  9
$UCSORGTOP
 10
0.0
 20
0.0
 30
0.0
  9
$UCSORGBOTTOM
 10
0.0
 20
0.0
 30
0.0
  9
$UCSORGLEFT
 10
0.0
 20
0.0
 30
0.0
  9
$UCSORGRIGHT
 10
0.0
 20
0.0
 30
0.0
  9
$UCSORGFRONT
 10
0.0
 20
0.0
 30
0.0
  9
$UCSORGBACK
 10
0.0
 20
0.0
 30
0.0
  9
$PUCSBASE
  2

  9
$PUCSNAME
  2

  9
$PUCSORG
 10
0.0
 20
0.0
 30
0.0
  9
$PUCSXDIR
 10
1.0
 20
0.0
 30
0.0
  9
$PUCSYDIR
 10
0.0
 20
1.0
 30
0.0
  9
$PUCSORTHOREF
  2

  9
$PUCSORTHOVIEW
 70
     0
  9
$PUCSORGTOP
 10
0.0
 20
0.0
 30
0.0
  9
$PUCSORGBOTTOM
 10
0.0
 20
0.0
 30
0.0
  9
$PUCSORGLEFT
 10
0.0
 20
0.0
 30
0.0
  9
$PUCSORGRIGHT
 10
0.0
 20
0.0
 30
0.0
  9
$PUCSORGFRONT
 10
0.0
 20
0.0
 30
0.0
  9
$PUCSORGBACK
 10
0.0
 20
0.0
 30
0.0
  9
$USERI1
 70
     0
  9
$USERI2
 70
     0
  9
$USERI3
 70
     0
  9
$USERI4
 70
     0
  9
$USERI5
 70
     0
  9
$USERR1
 40
0.0
  9
$USERR2
 40
0.0
  9
$USERR3
 40
0.0
  9
$USERR4
 40
0.0
  9
$USERR5
 40
0.0
  9
$WORLDVIEW
 70
     1
  9
$SHADEDGE
 70
     3
  9
$SHADEDIF
 70
    70
  9
$TILEMODE
 70
     1
  9
$MAXACTVP
 70
    64
  9
$PINSBASE
 10
0.0
 20
0.0
 30
0.0
  9
$PLIMCHECK
 70
     0
  9
$PEXTMIN
 10
1.0000000000E+20
 20
1.0000000000E+20
 30
1.0000000000E+20
  9
$PEXTMAX
 10
-1.0000000000E+20
 20
-1.0000000000E+20
 30
-1.0000000000E+20
  9
$PLIMMIN
 10
0.0
 20
0.0
  9
$PLIMMAX
 10
420.0
 20
297.0
  9
$UNITMODE
 70
     0
  9
$VISRETAIN
 70
     1
  9
$PLINEGEN
 70
     0
  9
$PSLTSCALE
 70
     1
  9
$TREEDEPTH
 70
  3020
  9
$CMLSTYLE
  2
Standard
  9
$CMLJUST
 70
     0
  9
$CMLSCALE
 40
20.0
  9
$PROXYGRAPHICS
 70
     1
  9
$MEASUREMENT
 70
     1
  9
$CELWEIGHT
370
    -1
  9
$ENDCAPS
280
     0
  9
$JOINSTYLE
280
     0
  9
$LWDISPLAY
290
     1
  9
$INSUNITS
 70
     4
  9
$HYPERLINKBASE
  1

  9
$STYLESHEET
  1

  9
$XEDIT
290
     1
  9
$CEPSNTYPE
380
     0
  9
$PSTYLEMODE
290
     1
  9
$FINGERPRINTGUID
  2
{E51BB58A-B57C-48DF-B422-1F8B61FD36F6}
  9
$VERSIONGUID
  2
{FAEB1C32-E019-11D5-929B-00C0DF256EC4}
  9
$EXTNAMES
290
     1
  9
$PSVPSCALE
 40
0.0
  9
$OLESTARTUP
290
     0
  0
ENDSEC
  0
SECTION
  2
CLASSES
  0
CLASS
  1
ACDBDICTIONARYWDFLT
  2
AcDbDictionaryWithDefault
  3
ObjectDBX Classes
 90
        0
280
     0
281
     0
  0
CLASS
  1
VISUALSTYLE
  2
AcDbVisualStyle
  3
ObjectDBX Classes
 90
     4095
280
     0
281
     0
  0
CLASS
  1
MATERIAL
  2
AcDbMaterial
  3
ObjectDBX Classes
 90
     1153
280
     0
281
     0
  0
CLASS
  1
SCALE
  2
AcDbScale
  3
ObjectDBX Classes
 90
     1153
280
     0
281
     0
  0
CLASS
  1
TABLESTYLE
  2
AcDbTableStyle
  3
ObjectDBX Classes
 90
     4095
280
     0
281
     0
  0
CLASS
  1
MLEADERSTYLE
  2
AcDbMLeaderStyle
  3
ACDB_MLEADERSTYLE_CLASS
 90
     4095
280
     0
281
     0
  0
CLASS
  1
SUN
  2
AcDbSun
  3
SCENEOE
 90
     1153
280
     0
281
     0
  0
CLASS
  1
ACDBPLACEHOLDER
  2
AcDbPlaceHolder
  3
ObjectDBX Classes
 90
        0
280
     0
281
     0
  0
CLASS
  1
LAYOUT
  2
AcDbLayout
  3
ObjectDBX Classes
 90
        0
280
     0
281
     0
  0
ENDSEC
  0
SECTION
  2
TABLES
  0
TABLE
  2
VPORT
  5
8
330
0
100
AcDbSymbolTable
 70
     1
  0
VPORT
  5
29
330
8
100
AcDbSymbolTableRecord
100
AcDbViewportTableRecord
  2
*Active
 70
     0
 10
0.0
 20
0.0
 11
1.0
 21
1.0
 12
148.5
 22
105.0
 13
0.0
 23
0.0
 14
10.0
 24
10.0
 15
10.0
 25
10.0
 16
0.0
 26
0.0
 36
1.0
 17
0.0
 27
0.0
 37
0.0
 40
210.0
 41
1.4142857143
 42
50.0
 43
0.0
 44
0.0
 50
0.0
 51
0.0
 71
     0
 72
  2000
 73
     1
 74
     3
 75
     0
 76
     0
 77
     0
 78
     0
281
     0
 65
     1
110
0.0
120
0.0
130
0.0
111
1.0
121
0.0
131
0.0
112
0.0
122
1.0
132
0.0
 79
     0
146
0.0
  0
ENDTAB
  0
TABLE
  2
LTYPE
  5
5
330
0
100
AcDbSymbolTable
 70
     6
  0
LTYPE
  5
14
330
5
100
AcDbSymbolTableRecord
100
AcDbLinetypeTableRecord
  2
ByBlock
 70
     0
  3

 72
    65
 73
     0
 40
0.0
  0
LTYPE
  5
15
330
5
100
AcDbSymbolTableRecord
100
AcDbLinetypeTableRecord
  2
ByLayer
 70
     0
  3

 72
    65
 73
     0
 40
0.0
  0
LTYPE
  5
16
330
5
100
AcDbSymbolTableRecord
100
AcDbLinetypeTableRecord
  2
Continuous
 70
     0
  3
Solid line
 72
    65
 73
     0
 40
0.0
  0
LTYPE
  5
6E
330
5
100
AcDbSymbolTableRecord
100
AcDbLinetypeTableRecord
  2
HIDDEN
 70
     0
  3
Hidden __ __ __ __ __ __ __ __ __ __ __ __ __ __
 72
    65
 73
     2
 40
1.905
 49
1.27
 74
     0
 49
-0.635
 74
     0
  0
LTYPE
  5
6F
330
5
100
AcDbSymbolTableRecord
100
AcDbLinetypeTableRecord
  2
PHANTOM
 70
     0
  3
Phantom ______  __  __  ______  __  __  ______
 72
    65
 73
     6
 40
12.7
 49
6.35
 74
     0
 49
-1.27
 74
     0
 49
1.27
 74
     0
 49
-1.27
 74
     0
 49
1.27
 74
     0
 49
-1.27
 74
     0
  0
LTYPE
  5
70
330
5
100
AcDbSymbolTableRecord
100
AcDbLinetypeTableRecord
  2
CENTER
 70
     0
  3
Center ____ _ ____ _ ____ _ ____ _ ____ _ ____
 72
    65
 73
     4
 40
10.16
 49
6.35
 74
     0
 49
-1.27
 74
     0
 49
1.27
 74
     0
 49
-1.27
 74
     0
  0
LTYPE
  5
71
330
5
100
AcDbSymbolTableRecord
100
AcDbLinetypeTableRecord
  2
CENTERX2
 70
     0
  3
Center (2x) ________  __  ________  __  _____
 72
    65
 73
     4
 40
20.32
 49
12.7
 74
     0
 49
-2.54
 74
     0
 49
2.54
 74
     0
 49
-2.54
 74
     0
  0
LTYPE
  5
72
330
5
100
AcDbSymbolTableRecord
100
AcDbLinetypeTableRecord
  2
DOT2
 70
     0
  3
Dot (.5x) ........................................
 72
    65
 73
     2
 40
0.635
 49
0.0
 74
     0
 49
-0.635
 74
     0
  0
ENDTAB
  0
TABLE
  2
LAYER
  5
2
330
0
100
AcDbSymbolTable
 70
     5
  0
LAYER
  5
10
330
2
100
AcDbSymbolTableRecord
100
AcDbLayerTableRecord
  2
0
 70
     0
 62
     7
  6
Continuous
370
    -3
390
F
  0
LAYER
  5
73
330
2
100
AcDbSymbolTableRecord
100
AcDbLayerTableRecord
  2
FORMAT
 70
     0
 62
     7
  6
Continuous
370
    -3
390
F
  0
LAYER
  5
74
330
2
100
AcDbSymbolTableRecord
100
AcDbLayerTableRecord
  2
VERMASSUNG
 70
     0
 62
     7
  6
Continuous
370
    -3
390
F
  0
LAYER
  5
75
330
2
100
AcDbSymbolTableRecord
100
AcDbLayerTableRecord
  2
KOPF_DÜNN
 70
     0
 62
     7
  6
Continuous
370
    -3
390
F
  0
LAYER
  5
76
330
2
100
AcDbSymbolTableRecord
100
AcDbLayerTableRecord
  2
KOPF_DICK
 70
     0
 62
     7
  6
Continuous
370
    15
390
F
  0
ENDTAB
  0
TABLE
  2
STYLE
  5
3
330
0
100
AcDbSymbolTable
 70
     2
  0
STYLE
  5
11
330
3
100
AcDbSymbolTableRecord
100
AcDbTextStyleTableRecord
  2
Standard
 70
     0
 40
0.0
 41
1.0
 50
0.0
 71
     0
 42
2.0
  3
txt
  4

  0
STYLE
  5
77
330
3
100
AcDbSymbolTableRecord
100
AcDbTextStyleTableRecord
  2
SLDTEXTSTYLE0
 70
     0
 40
0.0
 41
0.7
 50
0.0
 71
     0
 42
2.0
  3
TXT
  4

  0
ENDTAB
  0
TABLE
  2
VIEW
  5
6
330
0
100
AcDbSymbolTable
 70
     0
  0
ENDTAB
  0
TABLE
  2
UCS
  5
7
330
0
100
AcDbSymbolTable
 70
     0
  0
ENDTAB
  0
TABLE
  2
APPID
  5
9
330
0
100
AcDbSymbolTable
 70
     1
  0
APPID
  5
12
330
9
100
AcDbSymbolTableRecord
100
AcDbRegAppTableRecord
  2
ACAD
 70
     0
  0
ENDTAB
  0
TABLE
  2
DIMSTYLE
  5
A
330
0
100
AcDbSymbolTable
 70
     2
100
AcDbDimStyleTable
  0
DIMSTYLE
105
27
330
A
100
AcDbSymbolTableRecord
100
AcDbDimStyleTableRecord
  2
ISO-25
 70
     0
 41
2.5
 42
0.625
 43
3.75
 44
1.25
 73
     0
 74
     0
 77
     1
 78
     8
140
2.5
141
2.5
143
0.0393700787
147
0.625
171
     3
172
     1
178
     0
271
     2
272
     2
274
     3
278
    44
283
     0
284
     8
340
11
  0
DIMSTYLE
105
1DF
102
{ACAD_REACTORS
330
1DE
330
1EB
330
1F7
330
201
330
20B
102
}
330
A
100
AcDbSymbolTableRecord
100
AcDbDimStyleTableRecord
  2
SLDDIMSTYLE0
 70
     0
 41
3.0
 44
0.0
 45
0.000000001
 73
     0
 74
     0
 77
     1
 78
    12
 79
     3
140
2.0
147
0.5
173
     1
178
     0
271
     2
272
     3
276
     2
284
    12
340
77
  0
ENDTAB
  0
TABLE
  2
BLOCK_RECORD
  5
1
330
0
100
AcDbSymbolTable
 70
     6
  0
BLOCK_RECORD
  5
1F
330
1
100
AcDbSymbolTableRecord
100
AcDbBlockTableRecord
  2
*Model_Space
340
22
  0
BLOCK_RECORD
  5
1B
330
1
100
AcDbSymbolTableRecord
100
AcDbBlockTableRecord
  2
*Paper_Space
340
1E
  0
BLOCK_RECORD
  5
23
330
1
100
AcDbSymbolTableRecord
100
AcDbBlockTableRecord
  2
*Paper_Space0
340
26
  0
BLOCK_RECORD
  5
1E0
330
1
100
AcDbSymbolTableRecord
100
AcDbBlockTableRecord
  2
_D
340
0
  0
BLOCK_RECORD
  5
1EC
330
1
100
AcDbSymbolTableRecord
100
AcDbBlockTableRecord
  2
_D_1
340
0
  0
BLOCK_RECORD
  5
1F8
330
1
100
AcDbSymbolTableRecord
100
AcDbBlockTableRecord
  2
_D_2
340
0
  0
BLOCK_RECORD
  5
202
330
1
100
AcDbSymbolTableRecord
100
AcDbBlockTableRecord
  2
_D_3
340
0
  0
BLOCK_RECORD
  5
20C
330
1
100
AcDbSymbolTableRecord
100
AcDbBlockTableRecord
  2
_D_4
340
0
  0
ENDTAB
  0
ENDSEC
  0
SECTION
  2
BLOCKS
  0
BLOCK
  5
20
330
1F
100
AcDbEntity
  8
0
100
AcDbBlockBegin
  2
*Model_Space
 70
     0
 10
0.0
 20
0.0
 30
0.0
  3
*Model_Space
  1

  0
ENDBLK
  5
21
330
1F
100
AcDbEntity
  8
0
100
AcDbBlockEnd
  0
BLOCK
  5
1C
330
1B
100
AcDbEntity
 67
     1
  8
0
100
AcDbBlockBegin
  2
*Paper_Space
 70
     0
 10
0.0
 20
0.0
 30
0.0
  3
*Paper_Space
  1

  0
ENDBLK
  5
1D
330
1B
100
AcDbEntity
 67
     1
  8
0
100
AcDbBlockEnd
  0
BLOCK
  5
24
330
23
100
AcDbEntity
  8
0
100
AcDbBlockBegin
  2
*Paper_Space0
 70
     0
 10
0.0
 20
0.0
 30
0.0
  3
*Paper_Space0
  1

  0
ENDBLK
  5
25
330
23
100
AcDbEntity
  8
0
100
AcDbBlockEnd
  0
BLOCK
  5
1E1
330
1E0
100
AcDbEntity
  8
0
100
AcDbBlockBegin
  2
_D
 70
     0
 10
0.0
 20
0.0
 30
0.0
  3
_D
  1

  0
SOLID
  5
1E3
330
1E0
100
AcDbEntity
  8
VERMASSUNG
100
AcDbTrace
 10
63.9679307433
 20
65.5898410837
 30
0.0
 11
64.4179307433
 21
68.5898410837
 31
0.0
 12
63.5179307433
 22
68.5898410837
 32
0.0
 13
63.5179307433
 23
68.5898410837
 33
0.0
  0
SOLID
  5
1E4
330
1E0
100
AcDbEntity
  8
VERMASSUNG
100
AcDbTrace
 10
63.9679307433
 20
163.0398410837
 30
0.0
 11
63.5179307433
 21
160.0398410837
 31
0.0
 12
64.4179307433
 22
160.0398410837
 32
0.0
 13
64.4179307433
 23
160.0398410837
 33
0.0
  0
LINE
  5
1E5
330
1E0
100
AcDbEntity
  8
VERMASSUNG
100
AcDbLine
 10
190.7235728953
 20
65.5898410837
 30
0.0
 11
62.9679307433
 21
65.5898410837
 31
0.0
  0
LINE
  5
1E6
330
1E0
100
AcDbEntity
  8
VERMASSUNG
100
AcDbLine
 10
190.7235728953
 20
163.0398410837
 30
0.0
 11
62.9679307433
 21
163.0398410837
 31
0.0
  0
LINE
  5
1E7
330
1E0
100
AcDbEntity
  8
VERMASSUNG
100
AcDbLine
 10
63.9679307433
 20
65.5898410837
 30
0.0
 11
63.9679307433
 21
163.0398410837
 31
0.0
  0
MTEXT
  5
1E8
330
1E0
100
AcDbEntity
  8
VERMASSUNG
100
AcDbMText
 10
61.1897954871
 20
104.8104054503
 30
0.0
 40
2.0
 41
0.0
 71
     1
 72
     1
  1
ISO 50
  7
SLDTEXTSTYLE0
 11
3.391901413832837E-15
 21
1.0
 31
0.0
 73
     1
 44
1.0
  0
MTEXT
  5
1E9
330
1E0
100
AcDbEntity
  8
VERMASSUNG
100
AcDbMText
 10
61.3897954384
 20
113.8104050629
 30
0.0
 40
2.0
 41
0.0
 71
     1
 72
     1
  1
%%c
  7
SLDTEXTSTYLE0
 11
3.391901413832837E-15
 21
1.0
 31
0.0
 73
     1
 44
1.0
  0
MTEXT
  5
1EA
330
1E0
100
AcDbEntity
  8
VERMASSUNG
100
AcDbMText
 10
61.3897951474
 20
117.4197483957
 30
0.0
 40
2.0
 41
0.0
 71
     1
 72
     1
  1
97.45
  7
SLDTEXTSTYLE0
 11
3.391901413832837E-15
 21
1.0
 31
0.0
 73
     1
 44
1.0
  0
ENDBLK
  5
1E2
330
1E0
100
AcDbEntity
  8
0
100
AcDbBlockEnd
  0
BLOCK
  5
1ED
330
1EC
100
AcDbEntity
  8
0
100
AcDbBlockBegin
  2
_D_1
 70
     0
 10
0.0
 20
0.0
 30
0.0
  3
_D_1
  1

  0
ARC
  5
1EF
330
1EC
100
AcDbEntity
  8
VERMASSUNG
100
AcDbCircle
 10
142.7357381888
 20
180.9208480251
 30
0.0
 40
4.247059938537323
100
AcDbArc
 50
153.4349488229
 51
206.5650511771
  0
ARC
  5
1F0
330
1EC
100
AcDbEntity
  8
VERMASSUNG
100
AcDbCircle
 10
144.3114076018
 20
180.9208480251
 30
0.0
 40
4.247059938537297
100
AcDbArc
 50
333.4349488229
 51
26.5650511771
  0
SOLID
  5
1F1
330
1EC
100
AcDbEntity
  8
VERMASSUNG
100
AcDbTrace
 10
70.6735728953
 20
179.0215050797
 30
0.0
 11
73.6735728953
 21
178.5715050797
 31
0.0
 12
73.6735728953
 22
179.4715050797
 32
0.0
 13
73.6735728953
 23
179.4715050797
 33
0.0
  0
SOLID
  5
1F2
330
1EC
100
AcDbEntity
  8
VERMASSUNG
100
AcDbTrace
 10
216.3735728953
 20
179.0215050797
 30
0.0
 11
213.3735728953
 21
179.4715050797
 31
0.0
 12
213.3735728953
 22
178.5715050797
 32
0.0
 13
213.3735728953
 23
178.5715050797
 33
0.0
  0
LINE
  5
1F3
330
1EC
100
AcDbEntity
  8
VERMASSUNG
100
AcDbLine
 10
70.6735728953
 20
132.6936856111
 30
0.0
 11
70.6735728953
 21
180.0215050797
 31
0.0
  0
LINE
  5
1F4
330
1EC
100
AcDbEntity
  8
VERMASSUNG
100
AcDbLine
 10
216.3735728953
 20
126.6148410837
 30
0.0
 11
216.3735728953
 21
180.0215050797
 31
0.0
  0
LINE
  5
1F5
330
1EC
100
AcDbEntity
  8
VERMASSUNG
100
AcDbLine
 10
70.6735728953
 20
179.0215050797
 30
0.0
 11
216.3735728953
 21
179.0215050797
 31
0.0
  0
MTEXT
  5
1F6
330
1EC
100
AcDbEntity
  8
VERMASSUNG
100
AcDbMText
 10
140.524552298
 20
181.5996406757
 30
0.0
 40
2.0
 41
0.0
 71
     1
 72
     1
  1
145.7
  7
SLDTEXTSTYLE0
 73
     1
 44
1.0
  0
ENDBLK
  5
1EE
330
1EC
100
AcDbEntity
  8
0
100
AcDbBlockEnd
  0
BLOCK
  5
1F9
330
1F8
100
AcDbEntity
  8
0
100
AcDbBlockBegin
  2
_D_2
 70
     0
 10
0.0
 20
0.0
 30
0.0
  3
_D_2
  1

  0
SOLID
  5
1FB
330
1F8
100
AcDbEntity
  8
VERMASSUNG
100
AcDbTrace
 10
172.2735728953
 20
173.0215050797
 30
0.0
 11
175.2735728953
 21
172.5715050797
 31
0.0
 12
175.2735728953
 22
173.4715050797
 32
0.0
 13
175.2735728953
 23
173.4715050797
 33
0.0
  0
SOLID
  5
1FC
330
1F8
100
AcDbEntity
  8
VERMASSUNG
100
AcDbTrace
 10
216.3735728953
 20
173.0215050797
 30
0.0
 11
213.3735728953
 21
173.4715050797
 31
0.0
 12
213.3735728953
 22
172.5715050797
 32
0.0
 13
213.3735728953
 23
172.5715050797
 33
0.0
  0
LINE
  5
1FD
330
1F8
100
AcDbEntity
  8
VERMASSUNG
100
AcDbLine
 10
172.2735728953
 20
149.2398410837
 30
0.0
 11
172.2735728953
 21
174.0215050797
 31
0.0
  0
LINE
  5
1FE
330
1F8
100
AcDbEntity
  8
VERMASSUNG
100
AcDbLine
 10
216.3735728953
 20
126.6148410837
 30
0.0
 11
216.3735728953
 21
174.0215050797
 31
0.0
  0
LINE
  5
1FF
330
1F8
100
AcDbEntity
  8
VERMASSUNG
100
AcDbLine
 10
172.2735728953
 20
173.0215050797
 30
0.0
 11
216.3735728953
 21
173.0215050797
 31
0.0
  0
MTEXT
  5
200
330
1F8
100
AcDbEntity
  8
VERMASSUNG
100
AcDbMText
 10
191.9245770147
 20
175.5996406757
 30
0.0
 40
2.0
 41
0.0
 71
     1
 72
     1
  1
44.1
  7
SLDTEXTSTYLE0
 73
     1
 44
1.0
  0
ENDBLK
  5
1FA
330
1F8
100
AcDbEntity
  8
0
100
AcDbBlockEnd
  0
BLOCK
  5
203
330
202
100
AcDbEntity
  8
0
100
AcDbBlockBegin
  2
_D_3
 70
     0
 10
0.0
 20
0.0
 30
0.0
  3
_D_3
  1

  0
SOLID
  5
205
330
202
100
AcDbEntity
  8
VERMASSUNG
100
AcDbTrace
 10
191.3235728953
 20
167.0215050797
 30
0.0
 11
194.3235728953
 21
166.5715050797
 31
0.0
 12
194.3235728953
 22
167.4715050797
 32
0.0
 13
194.3235728953
 23
167.4715050797
 33
0.0
  0
SOLID
  5
206
330
202
100
AcDbEntity
  8
VERMASSUNG
100
AcDbTrace
 10
216.3735728953
 20
167.0215050797
 30
0.0
 11
213.3735728953
 21
167.4715050797
 31
0.0
 12
213.3735728953
 22
166.5715050797
 32
0.0
 13
213.3735728953
 23
166.5715050797
 33
0.0
  0
LINE
  5
207
330
202
100
AcDbEntity
  8
VERMASSUNG
100
AcDbLine
 10
191.3235728953
 20
160.6098280369
 30
0.0
 11
191.3235728953
 21
168.0215050797
 31
0.0
  0
LINE
  5
208
330
202
100
AcDbEntity
  8
VERMASSUNG
100
AcDbLine
 10
216.3735728953
 20
126.6148410837
 30
0.0
 11
216.3735728953
 21
168.0215050797
 31
0.0
  0
LINE
  5
209
330
202
100
AcDbEntity
  8
VERMASSUNG
100
AcDbLine
 10
191.3235728953
 20
167.0215050797
 30
0.0
 11
216.3735728953
 21
167.0215050797
 31
0.0
  0
MTEXT
  5
20A
330
202
100
AcDbEntity
  8
VERMASSUNG
100
AcDbMText
 10
200.7491805163
 20
169.5996406757
 30
0.0
 40
2.0
 41
0.0
 71
     1
 72
     1
  1
25.05
  7
SLDTEXTSTYLE0
 73
     1
 44
1.0
  0
ENDBLK
  5
204
330
202
100
AcDbEntity
  8
0
100
AcDbBlockEnd
  0
BLOCK
  5
20D
330
20C
100
AcDbEntity
  8
0
100
AcDbBlockBegin
  2
_D_4
 70
     0
 10
0.0
 20
0.0
 30
0.0
  3
_D_4
  1

  0
SOLID
  5
20F
330
20C
100
AcDbEntity
  8
VERMASSUNG
100
AcDbTrace
 10
223.8616610522
 20
126.8148410837
 30
0.0
 11
223.4116610522
 21
123.8148410837
 31
0.0
 12
224.3116610522
 22
123.8148410837
 32
0.0
 13
224.3116610522
 23
123.8148410837
 33
0.0
  0
SOLID
  5
210
330
20C
100
AcDbEntity
  8
VERMASSUNG
100
AcDbTrace
 10
223.8616610522
 20
101.8148410837
 30
0.0
 11
224.3116610522
 21
104.8148410837
 31
0.0
 12
223.4116610522
 22
104.8148410837
 32
0.0
 13
223.4116610522
 23
104.8148410837
 33
0.0
  0
LINE
  5
211
330
20C
100
AcDbEntity
  8
VERMASSUNG
100
AcDbLine
 10
216.1735728953
 20
126.8148410837
 30
0.0
 11
224.8616610522
 21
126.8148410837
 31
0.0
  0
LINE
  5
212
330
20C
100
AcDbEntity
  8
VERMASSUNG
100
AcDbLine
 10
216.1735728953
 20
101.8148410837
 30
0.0
 11
224.8616610522
 21
101.8148410837
 31
0.0
  0
LINE
  5
213
330
20C
100
AcDbEntity
  8
VERMASSUNG
100
AcDbLine
 10
223.8616610522
 20
126.8148410837
 30
0.0
 11
223.8616610522
 21
101.8148410837
 31
0.0
  0
MTEXT
  5
214
330
20C
100
AcDbEntity
  8
VERMASSUNG
100
AcDbMText
 10
221.083525796
 20
107.9098414401
 30
0.0
 40
2.0
 41
0.0
 71
     1
 72
     1
  1
MBM
  7
SLDTEXTSTYLE0
 11
-7.044195017643634E-15
 21
1.0
 31
0.0
 73
     1
 44
1.0
  0
MTEXT
  5
215
330
20C
100
AcDbEntity
  8
VERMASSUNG
100
AcDbMText
 10
221.2835257473
 20
114.3098412784
 30
0.0
 40
2.0
 41
0.0
 71
     1
 72
     1
  1
%%c
  7
SLDTEXTSTYLE0
 11
-7.044195017643634E-15
 21
1.0
 31
0.0
 73
     1
 44
1.0
  0
MTEXT
  5
216
330
20C
100
AcDbEntity
  8
VERMASSUNG
100
AcDbMText
 10
221.083525796
 20
117.9198417584
 30
0.0
 40
2.0
 41
0.0
 71
     1
 72
     1
  1
25
  7
SLDTEXTSTYLE0
 11
-7.044195017643634E-15
 21
1.0
 31
0.0
 73
     1
 44
1.0
  0
ENDBLK
  5
20E
330
20C
100
AcDbEntity
  8
0
100
AcDbBlockEnd
  0
ENDSEC
  0
SECTION
  2
ENTITIES
  0
MTEXT
  5
78
330
1F
100
AcDbEntity
  8
KOPF_DÜNN
100
AcDbMText
 10
13.8892156294
 20
23.8442973028
 30
0.0
 40
3.0
 41
0.0
 71
     1
 72
     1
  1
102.525.251
  7
SLDTEXTSTYLE0
 73
     1
 44
1.0
  0
MTEXT
  5
79
330
1F
100
AcDbEntity
  8
VERMASSUNG
100
AcDbMText
 10
13.9329988022
 20
28.8834360957
 30
0.0
 40
3.0
 41
0.0
 71
     1
 72
     1
  1
Aufnahme_Master shank MBM 25
  7
SLDTEXTSTYLE0
 73
     1
 44
1.0
  0
MTEXT
  5
7A
330
1F
100
AcDbEntity
  8
VERMASSUNG
100
AcDbMText
 10
98.8601118557
 20
13.8365368761
 30
0.0
 40
2.0
 41
0.0
 71
     1
 72
     1
  1
Datum: 01.11.2007
  7
SLDTEXTSTYLE0
 73
     1
 44
1.0
  0
MTEXT
  5
7B
330
1F
100
AcDbEntity
  8
VERMASSUNG
100
AcDbMText
 10
13.933048693
 20
18.0482802738
 30
0.0
 40
2.0
 41
0.0
 71
     1
 72
     1
  1
DIN 69871 B 50
  7
SLDTEXTSTYLE0
 73
     1
 44
1.0
  0
MTEXT
  5
7C
330
1F
100
AcDbEntity
  8
VERMASSUNG
100
AcDbMText
 10
13.9808475933
 20
13.9090974274
 30
0.0
 40
2.0
 41
0.0
 71
     1
 72
     1
  1
Gewicht: 2707g
  7
SLDTEXTSTYLE0
 73
     1
 44
1.0
  0
ARC
  5
7D
330
1F
100
AcDbEntity
  8
0
  6
Continuous
 62
     7
370
    15
100
AcDbCircle
 10
174.8735728953
 20
78.7898410837
 30
0.0
 40
0.6000000000000227
100
AcDbArc
 50
0.0
 51
90.0
  0
ARC
  5
7E
330
1F
100
AcDbEntity
  8
0
  6
Continuous
 62
     7
370
    15
100
AcDbCircle
 10
174.8735728953
 20
149.8398410837
 30
0.0
 40
0.5999999999999943
100
AcDbArc
 50
270.0
 51
0.0
  0
LINE
  5
7F
330
1F
100
AcDbEntity
  8
0
  6
Continuous
 62
     7
370
    15
100
AcDbLine
 10
172.2735728953
 20
149.2398399631
 30
0.0
 11
72.3849575851
 21
134.6727516273
 31
0.0
  0
LINE
  5
80
330
1F
100
AcDbEntity
  8
0
  6
Continuous
 62
     7
370
    15
100
AcDbLine
 10
72.3849575851
 20
93.95693054
 30
0.0
 11
172.2735728953
 21
79.3898422042
 31
0.0
  0
LINE
  5
81
330
1F
100
AcDbEntity
  8
0
  6
Continuous
 62
     7
370
    15
100
AcDbLine
 10
172.2735728953
 20
79.3898422042
 30
0.0
 11
174.8735729024
 21
79.3898422042
 31
0.0
  0
LINE
  5
82
330
1F
100
AcDbEntity
  8
0
  6
Continuous
 62
     7
370
    15
100
AcDbLine
 10
174.8735729024
 20
149.2398399631
 30
0.0
 11
172.2735728953
 21
149.2398399631
 31
0.0
  0
ARC
  5
83
330
1F
100
AcDbEntity
  8
0
  6
Continuous
 62
     7
370
    15
100
AcDbCircle
 10
72.6735728953
 20
95.9359965563
 30
0.0
 40
1.999999999999992
100
AcDbArc
 50
180.0
 51
261.7028550302
  0
ARC
  5
84
330
1F
100
AcDbEntity
  8
0
  6
Continuous
 62
     7
370
    15
100
AcDbCircle
 10
72.6735728953
 20
132.6936856111
 30
0.0
 40
1.999999999999992
100
AcDbArc
 50
98.2971449698
 51
180.0
  0
ARC
  5
85
330
1F
100
AcDbEntity
  8
0
  6
Continuous
 62
     7
370
    15
100
AcDbCircle
 10
195.3235728953
 20
97.8148410837
 30
0.0
 40
4.0
100
AcDbArc
 50
90.0
 51
180.0
  0
ARC
  5
86
330
1F
100
AcDbEntity
  8
0
  6
Continuous
 62
     7
370
    15
100
AcDbCircle
 10
195.3235728953
 20
130.8148410837
 30
0.0
 40
4.0
100
AcDbArc
 50
180.0
 51
270.0
  0
LINE
  5
87
330
1F
100
AcDbEntity
  8
0
  6
Continuous
 62
     7
370
    15
100
AcDbLine
 10
195.3235737864
 20
101.8148408974
 30
0.0
 11
216.1735746894
 21
101.8148408974
 31
0.0
  0
LINE
  5
88
330
1F
100
AcDbEntity
  8
0
  6
Continuous
 62
     7
370
    15
100
AcDbLine
 10
216.1735746894
 20
126.8148412699
 30
0.0
 11
195.3235737864
 21
126.8148412699
 31
0.0
  0
LINE
  5
89
330
1F
100
AcDbEntity
  8
0
  6
Continuous
 62
     7
370
    15
100
AcDbLine
 10
216.1735746894
 20
101.8148408974
 30
0.0
 11
216.3735743496
 21
102.014841489
 31
0.0
  0
LINE
  5
8A
330
1F
100
AcDbEntity
  8
0
  6
Continuous
 62
     7
370
    15
100
AcDbLine
 10
216.3735743496
 20
126.6148406784
 30
0.0
 11
216.1735746894
 21
126.8148412699
 31
0.0
  0
ARC
  5
8B
330
1F
100
AcDbEntity
  8
0
  6
Continuous
 62
     7
370
    15
100
AcDbCircle
 10
186.4735728953
 20
99.8490991217
 30
0.0
 40
2.000000000000016
100
AcDbArc
 50
192.2156859339
 51
340.3453161116
  0
SPLINE
  5
8C
330
1F
100
AcDbEntity
  8
0
  6
Continuous
 62
     7
370
    15
100
AcDbSpline
210
0.0
220
0.0
230
1.0
 70
     8
 71
     3
 72
    11
 73
     7
 74
     0
 42
0.000000001
 43
0.00000001
 40
0.0
 40
0.0
 40
0.0
 40
0.0
 40
0.1336654004686806
 40
0.4825478966402566
 40
0.8156346299562477
 40
0.9999999999999999
 40
0.9999999999999999
 40
0.9999999999999999
 40
0.9999999999999999
 10
207.5937319431192
 20
115.1269907485194
 30
0.0
 10
207.6552424127389
 20
115.1654823025936
 30
0.0
 10
207.8773024793847
 20
115.3044413629921
 30
0.0
 10
208.2921351340607
 20
115.5640341570597
 30
0.0
 10
208.7376591933299
 20
115.842837118305
 30
0.0
 10
208.9767933206734
 20
115.9924799459922
 30
0.0
 10
209.0619955096132
 20
116.045796871601
 30
0.0
  0
SPLINE
  5
8D
330
1F
100
AcDbEntity
  8
0
  6
Continuous
 62
     7
370
    15
100
AcDbSpline
210
0.0
220
0.0
230
1.0
 70
     8
 71
     3
 72
    10
 73
     6
 74
     0
 42
0.000000001
 43
0.00000001
 40
0.0
 40
0.0
 40
0.0
 40
0.0
 40
0.4391165457593121
 40
0.7513669821993728
 40
1.0
 40
1.0
 40
1.0
 40
1.0
 10
207.6553109917528
 20
113.396034960585
 30
0.0
 10
207.6464950489496
 20
113.6438346290055
 30
0.0
 10
207.6314101964128
 20
114.067841628626
 30
0.0
 10
207.6094833442389
 20
114.6842105998836
 30
0.0
 10
207.5985697920454
 20
114.9909962772767
 30
0.0
 10
207.5937319431192
 20
115.1269907485194
 30
0.0
  0
SPLINE
  5
8E
330
1F
100
AcDbEntity
  8
0
  6
Continuous
 62
     7
370
    15
100
AcDbSpline
210
0.0
220
0.0
230
1.0
 70
     8
 71
     3
 72
    10
 73
     6
 74
     0
 42
0.000000001
 43
0.00000001
 40
0.0
 40
0.0
 40
0.0
 40
0.0
 40
0.4391164019505296
 40
0.7513674622311382
 40
1.0
 40
1.0
 40
1.0
 40
1.0
 10
209.18514988159
 20
112.5838852957322
 30
0.0
 10
208.9661418048326
 20
112.7001508991377
 30
0.0
 10
208.5913993854869
 20
112.8990917516941
 30
0.0
 10
208.0466444969207
 20
113.1882857245604
 30
0.0
 10
207.7755040777195
 20
113.3322274371931
 30
0.0
 10
207.6553109917528
 20
113.396034960585
 30
0.0
  0
SPLINE
  5
8F
330
1F
100
AcDbEntity
  8
0
  6
Continuous
 62
     7
370
    15
100
AcDbSpline
210
0.0
220
0.0
230
1.0
 70
     8
 71
     3
 72
    11
 73
     7
 74
     0
 42
0.000000001
 43
0.00000001
 40
0.0
 40
0.0
 40
0.0
 40
0.0
 40
0.184363753684648
 40
0.5174521745995544
 40
0.8663346464923777
 40
1.0
 40
1.0
 40
1.0
 40
1.0
 10
210.653413448084
 20
113.5026914188138
 30
0.0
 10
210.5682126300286
 20
113.449374291051
 30
0.0
 10
210.3290802208683
 20
113.2997295634246
 30
0.0
 10
209.8835531623143
 20
113.0209301719071
 30
0.0
 10
209.4687205406237
 20
112.7613356560212
 30
0.0
 10
209.246660368028
 20
112.6223767885304
 30
0.0
 10
209.18514988159
 20
112.5838852957322
 30
0.0
  0
SPLINE
  5
90
330
1F
100
AcDbEntity
  8
0
  6
Continuous
 62
     7
370
    15
100
AcDbSpline
210
0.0
220
0.0
230
1.0
 70
     8
 71
     3
 72
    10
 73
     6
 74
     0
 42
0.000000001
 43
0.00000001
 40
0.0
 40
0.0
 40
0.0
 40
0.0
 40
0.4391165457593121
 40
0.7513669821993728
 40
1.0
 40
1.0
 40
1.0
 40
1.0
 10
210.5918343994505
 20
115.2336472067482
 30
0.0
 10
210.6006503422537
 20
114.9858475383277
 30
0.0
 10
210.6157351947905
 20
114.5618405387072
 30
0.0
 10
210.6376620469643
 20
113.9454715674497
 30
0.0
 10
210.6485755991579
 20
113.6386858900566
 30
0.0
 10
210.653413448084
 20
113.5026914188138
 30
0.0
  0
CIRCLE
  5
91
330
1F
100
AcDbEntity
  8
0
  6
Continuous
 62
     7
370
    15
100
AcDbCircle
 10
209.1235728953
 20
114.3148410837
 30
0.0
 40
1.74999999999999
  0
SPLINE
  5
92
330
1F
100
AcDbEntity
  8
0
  6
Continuous
 62
     7
370
    15
100
AcDbSpline
210
0.0
220
0.0
230
1.0
 70
     8
 71
     3
 72
    10
 73
     6
 74
     0
 42
0.000000001
 43
0.00000001
 40
0.0
 40
0.0
 40
0.0
 40
0.0
 40
0.4391164019505296
 40
0.7513674622311382
 40
1.0
 40
1.0
 40
1.0
 40
1.0
 10
209.0619955096132
 20
116.045796871601
 30
0.0
 10
209.2810035863706
 20
115.9295312681955
 30
0.0
 10
209.6557460057163
 20
115.7305904156391
 30
0.0
 10
210.2005008942825
 20
115.4413964427728
 30
0.0
 10
210.4716413134837
 20
115.2974547301401
 30
0.0
 10
210.5918343994505
 20
115.2336472067482
 30
0.0
  0
CIRCLE
  5
93
330
1F
100
AcDbEntity
  8
0
  6
Continuous
 62
     7
370
    15
100
AcDbCircle
 10
209.1235728953
 20
114.3148410837
 30
0.0
 40
2.599999999999992
  0
CIRCLE
  5
94
330
1F
100
AcDbEntity
  8
0
  6
Continuous
 62
     7
370
    15
100
AcDbCircle
 10
209.1235728953
 20
114.3148410837
 30
0.0
 40
2.999999999999984
  0
ARC
  5
95
330
1F
100
AcDbEntity
  8
0
  6
Continuous
 62
     7
370
    15
100
AcDbCircle
 10
209.1235728953
 20
114.3148410837
 30
0.0
 40
1.500000000000025
100
AcDbArc
 50
302.0374176748
 51
2.0374176748
  0
ARC
  5
96
330
1F
100
AcDbEntity
  8
0
  6
Continuous
 62
     7
370
    15
100
AcDbCircle
 10
209.1235728953
 20
114.3148410837
 30
0.0
 40
1.499999999999987
100
AcDbArc
 50
122.0374176748
 51
182.0374176748
  0
ARC
  5
97
330
1F
100
AcDbEntity
  8
0
  6
Continuous
 62
     7
370
    15
100
AcDbCircle
 10
209.1235728953
 20
114.3148410837
 30
0.0
 40
1.500000000000014
100
AcDbArc
 50
182.0374176748
 51
242.0374176748
  0
ARC
  5
98
330
1F
100
AcDbEntity
  8
0
  6
Continuous
 62
     7
370
    15
100
AcDbCircle
 10
209.1235728953
 20
114.3148410837
 30
0.0
 40
1.500000000000002
100
AcDbArc
 50
62.0374176748
 51
122.0374176748
  0
ARC
  5
99
330
1F
100
AcDbEntity
  8
0
  6
Continuous
 62
     7
370
    15
100
AcDbCircle
 10
209.1235728953
 20
114.3148410837
 30
0.0
 40
1.500000000000025
100
AcDbArc
 50
242.0374176748
 51
302.0374176748
  0
ARC
  5
9A
330
1F
100
AcDbEntity
  8
0
  6
Continuous
 62
     7
370
    15
100
AcDbCircle
 10
209.1235728953
 20
114.3148410837
 30
0.0
 40
1.500000000000015
100
AcDbArc
 50
2.0374176748
 51
62.0374176748
  0
SPLINE
  5
9B
330
1F
100
AcDbEntity
  8
0
  6
Continuous
 62
     7
370
    15
100
AcDbSpline
210
0.0
220
0.0
230
1.0
 70
     8
 71
     3
 72
    10
 73
     6
 74
     0
 42
0.000000001
 43
0.00000001
 40
0.0
 40
0.0
 40
0.0
 40
0.0
 40
0.5
 40
0.5
 40
1.0
 40
1.0
 40
1.0
 40
1.0
 10
175.6892329264312
 20
67.6813868164744
 30
0.0
 10
175.7378834950109
 20
67.65342982520697
 30
0.0
 10
175.7952687069703
 20
67.6294875401802
 30
0.0
 10
175.9259818151364
 20
67.59536907708444
 30
0.0
 10
175.9987213488749
 20
67.5855817423206
 30
0.0
 10
176.0735728952772
 20
67.5855817423206
 30
0.0
  0
SPLINE
  5
9C
330
1F
100
AcDbEntity
  8
0
  6
Continuous
 62
     7
370
    15
100
AcDbSpline
210
0.0
220
0.0
230
1.0
 70
     8
 71
     3
 72
    10
 73
     6
 74
     0
 42
0.000000001
 43
0.00000001
 40
0.0
 40
0.0
 40
0.0
 40
0.0
 40
0.5
 40
0.5
 40
1.0
 40
1.0
 40
1.0
 40
1.0
 10
175.6892329264312
 20
67.68138681647437
 30
0.0
 10
175.631044919849
 20
67.74897054665318
 30
0.0
 10
175.5786024533227
 20
67.82944678129496
 30
0.0
 10
175.5002501461441
 20
68.01248240427768
 30
0.0
 10
175.4735728952772
 20
68.1183581070733
 30
0.0
 10
175.4735728952771
 20
68.22587141629394
 30
0.0
  0
LINE
  5
9D
330
1F
100
AcDbEntity
  8
0
  6
Continuous
 62
     7
370
    15
100
AcDbLine
 10
175.4735728144
 20
68.2258698861
 30
0.0
 11
175.4735728144
 21
144.1648415992
 31
0.0
  0
SPLINE
  5
9E
330
1F
100
AcDbEntity
  8
0
  6
Continuous
 62
     7
370
    15
100
AcDbSpline
210
0.0
220
0.0
230
1.0
 70
    24
 71
     3
 72
    14
 73
    10
 74
     0
 42
0.000000001
 43
0.00000001
 40
0.0
 40
0.0
 40
0.0
 40
0.0
 40
0.25
 40
0.25
 40
0.5
 40
0.5
 40
0.75
 40
0.75
 40
1.0
 40
1.0
 40
1.0
 40
1.0
 10
176.0735728952772
 20
144.1648410836666
 30
0.0
 10
175.9845509429335
 20
144.1648410836666
 30
0.0
 10
175.89486424366
 20
144.1648410836666
 30
0.0
 10
175.7411374181027
 20
144.1648410836666
 30
0.0
 10
175.6759325234759
 20
144.1648410836666
 30
0.0
 10
175.5733418293055
 20
144.1648410836666
 30
0.0
 10
175.5357043749896
 20
144.1648410836666
 30
0.0
 10
175.4856124596044
 20
144.1648410836666
 30
0.0
 10
175.4735728952772
 20
144.1648410836666
 30
0.0
 10
175.4735728952772
 20
144.1648410836666
 30
0.0
  0
LINE
  5
9F
330
1F
100
AcDbEntity
  8
0
  6
Continuous
 62
     7
370
    15
100
AcDbLine
 10
176.0735729594
 20
67.5855818907
 30
0.0
 11
180.1404118422
 21
67.5855818907
 31
0.0
  0
LINE
  5
A0
330
1F
100
AcDbEntity
  8
0
  6
Continuous
 62
     7
370
    15
100
AcDbLine
 10
180.1404118422
 20
144.1648415992
 30
0.0
 11
176.0735729594
 21
144.1648415992
 31
0.0
  0
LINE
  5
A1
330
1F
100
AcDbEntity
  8
0
  6
Continuous
 62
     7
370
    15
100
AcDbLine
 10
180.1404118422
 20
67.5855818907
 30
0.0
 11
180.1404118422
 21
144.1648415992
 31
0.0
  0
SPLINE
  5
A2
330
1F
100
AcDbEntity
  8
0
  6
Continuous
 62
     7
370
    15
100
AcDbSpline
210
0.0
220
0.0
230
1.0
 70
     8
 71
     3
 72
     8
 73
     4
 74
     0
 42
0.000000001
 43
0.00000001
 40
0.0
 40
0.0
 40
0.0
 40
0.0
 40
1.0
 40
1.0
 40
1.0
 40
1.0
 10
181.4635728952772
 20
69.69510167483683
 30
0.0
 10
181.1738444492526
 20
69.17288166467331
 30
0.0
 10
180.8838192990349
 20
68.65082828241334
 30
0.0
 10
180.5935250647731
 20
68.12892601669024
 30
0.0
  0
SPLINE
  5
A3
330
1F
100
AcDbEntity
  8
0
  6
Continuous
 62
     7
370
    15
100
AcDbSpline
210
0.0
220
0.0
230
1.0
 70
     8
 71
     3
 72
     8
 73
     4
 74
     0
 42
0.000000001
 43
0.00000001
 40
0.0
 40
0.0
 40
0.0
 40
0.0
 40
0.0011862984959113
 40
0.0011862984959113
 40
0.0011862984959113
 40
0.0011862984959113
 10
180.1404113878153
 20
67.58558174232061
 30
0.0
 10
180.2924361496861
 20
67.76649359193861
 30
0.0
 10
180.443493594902
 20
67.94760592237944
 30
0.0
 10
180.5935250647731
 20
68.12892601669024
 30
0.0
  0
SPLINE
  5
A4
330
1F
100
AcDbEntity
  8
0
  6
Continuous
 62
     7
370
    15
100
AcDbSpline
210
0.0
220
0.0
230
1.0
 70
    24
 71
     3
 72
     8
 73
     4
 74
     0
 42
0.000000001
 43
0.00000001
 40
0.0
 40
0.0
 40
0.0
 40
0.0
 40
1.0
 40
1.0
 40
1.0
 40
1.0
 10
181.4635728952772
 20
144.1648410836666
 30
0.0
 10
181.0283727905735
 20
144.1648410836666
 30
0.0
 10
180.5870131078347
 20
144.1648410836666
 30
0.0
 10
180.1404113878153
 20
144.1648410836666
 30
0.0
  0
LINE
  5
A5
330
1F
100
AcDbEntity
  8
0
  6
Continuous
 62
     7
370
    15
100
AcDbLine
 10
181.4635725576
 20
69.695102028
 30
0.0
 11
181.4635725576
 21
144.1648415992
 31
0.0
  0
LINE
  5
A6
330
1F
100
AcDbEntity
  8
0
  6
Continuous
 62
     7
370
    15
100
AcDbLine
 10
185.283572774
 20
100.5175793315
 30
0.0
 11
185.283572774
 21
144.1648415992
 31
0.0
  0
SPLINE
  5
A7
330
1F
100
AcDbEntity
  8
0
  6
Continuous
 62
     7
370
    15
100
AcDbSpline
210
0.0
220
0.0
230
1.0
 70
    24
 71
     3
 72
     8
 73
     4
 74
     0
 42
0.000000001
 43
0.00000001
 40
0.0
 40
0.0
 40
0.0
 40
0.0
 40
1.0
 40
1.0
 40
1.0
 40
1.0
 10
186.6067344027391
 20
144.1648410836666
 30
0.0
 10
186.1601326827197
 20
144.1648410836666
 30
0.0
 10
185.7187729999808
 20
144.1648410836666
 30
0.0
 10
185.2835728952772
 20
144.1648410836666
 30
0.0
  0
LINE
  5
A8
330
1F
100
AcDbEntity
  8
0
  6
Continuous
 62
     7
370
    15
100
AcDbLine
 10
186.6067344207
 20
100.0176938022
 30
0.0
 11
186.6067344207
 21
144.1648415992
 31
0.0
  0
SPLINE
  5
A9
330
1F
100
AcDbEntity
  8
0
  6
Continuous
 62
     7
370
    15
100
AcDbSpline
210
0.0
220
0.0
230
1.0
 70
     8
 71
     3
 72
    10
 73
     6
 74
     0
 42
0.000000001
 43
0.00000001
 40
0.0
 40
0.0
 40
0.0
 40
0.0
 40
0.5
 40
0.5
 40
1.0
 40
1.0
 40
1.0
 40
1.0
 10
186.6067344027391
 20
100.0176940185355
 30
0.0
 10
186.3840073758656
 20
100.1611825188293
 30
0.0
 10
186.1623214886405
 20
100.2759032645621
 30
0.0
 10
185.7211006507886
 20
100.44566369392
 30
0.0
 10
185.5015420033897
 20
100.5010836883074
 30
0.0
 10
185.2835728952775
 20
100.5175790176771
 30
0.0
  0
SPLINE
  5
AA
330
1F
100
AcDbEntity
  8
0
  6
Continuous
 62
     7
370
    15
100
AcDbSpline
210
0.0
220
0.0
230
1.0
 70
     8
 71
     3
 72
    12
 73
     8
 74
     0
 42
0.000000001
 43
0.00000001
 40
0.0
 40
0.0
 40
0.0
 40
0.0
 40
0.2499999999999992
 40
0.2499999999999992
 40
0.4999999999999984
 40
0.4999999999999984
 40
1.0
 40
1.0
 40
1.0
 40
1.0
 10
190.7235728952772
 20
67.58558174232061
 30
0.0
 10
190.819545648452
 20
67.5855817423206
 30
0.0
 10
190.9119736126065
 20
67.6018550664292
 30
0.0
 10
191.068403712716
 20
67.65522878842562
 30
0.0
 10
191.1318821374888
 20
67.69135704595993
 30
0.0
 10
191.280161298316
 20
67.8120582422392
 30
0.0
 10
191.3235728952772
 20
67.9059078286044
 30
0.0
 10
191.3235728952772
 20
68.00021210355162
 30
0.0
  0
SPLINE
  5
AB
330
1F
100
AcDbEntity
  8
0
  6
Continuous
 62
     7
370
    15
100
AcDbSpline
210
0.0
220
0.0
230
1.0
 70
    24
 71
     3
 72
    12
 73
     8
 74
     0
 42
0.000000001
 43
0.00000001
 40
0.0
 40
0.0
 40
0.0
 40
0.0
 40
0.5
 40
0.5
 40
0.75
 40
0.75
 40
1.0
 40
1.0
 40
1.0
 40
1.0
 10
191.3235728952772
 20
144.1648410836666
 30
0.0
 10
191.3235728952772
 20
144.1648410836666
 30
0.0
 10
191.2754422068918
 20
144.1648410836666
 30
0.0
 10
191.1215451510888
 20
144.1648410836666
 30
0.0
 10
191.056080586082
 20
144.1648410836666
 30
0.0
 10
190.9025512654719
 20
144.1648410836666
 30
0.0
 10
190.814202604736
 20
144.1648410836666
 30
0.0
 10
190.723572895277
 20
144.1648410836666
 30
0.0
  0
LINE
  5
AC
330
1F
100
AcDbEntity
  8
0
  6
Continuous
 62
     7
370
    15
100
AcDbLine
 10
191.3235731307
 20
68.0002104262
 30
0.0
 11
191.3235731307
 21
144.1648415992
 31
0.0
  0
LINE
  5
AD
330
1F
100
AcDbEntity
  8
0
  6
Continuous
 62
     7
370
    15
100
AcDbLine
 10
190.7235722873
 20
144.1648415992
 30
0.0
 11
186.6067344207
 21
144.1648415992
 31
0.0
  0
LINE
  5
AE
330
1F
100
AcDbEntity
  8
0
  6
Continuous
 62
     7
370
    15
100
AcDbLine
 10
186.6067344207
 20
67.5855818907
 30
0.0
 11
190.7235722873
 21
67.5855818907
 31
0.0
  0
LINE
  5
AF
330
1F
100
AcDbEntity
  8
0
  6
Continuous
 62
     7
370
    15
100
AcDbLine
 10
186.6067344207
 20
67.5855818907
 30
0.0
 11
186.6067344207
 21
95.3259002189
 31
0.0
  0
SPLINE
  5
B0
330
1F
100
AcDbEntity
  8
0
  6
Continuous
 62
     7
370
    15
100
AcDbSpline
210
0.0
220
0.0
230
1.0
 70
     8
 71
     3
 72
    34
 73
    30
 74
     0
 42
0.000000001
 43
0.00000001
 40
0.0
 40
0.0
 40
0.0
 40
0.0
 40
0.062499999999999
 40
0.062499999999999
 40
0.124999999999998
 40
0.124999999999998
 40
0.1874999999999971
 40
0.1874999999999971
 40
0.2499999999999966
 40
0.2499999999999966
 40
0.3124999999999962
 40
0.3124999999999962
 40
0.3749999999999957
 40
0.3749999999999957
 40
0.4999999999999958
 40
0.4999999999999958
 40
0.6249999999999958
 40
0.6249999999999958
 40
0.6874999999999964
 40
0.6874999999999964
 40
0.7499999999999971
 40
0.7499999999999971
 40
0.8124999999999979
 40
0.8124999999999979
 40
0.8749999999999986
 40
0.8749999999999986
 40
0.9374999999999992
 40
0.9374999999999992
 40
1.0
 40
1.0
 40
1.0
 40
1.0
 10
186.6067344027391
 20
95.32590069566545
 30
0.0
 10
186.766126230527
 20
95.33374079158821
 30
0.0
 10
186.9221287139705
 20
95.35539943967865
 30
0.0
 10
187.2276382300478
 20
95.42524766717145
 30
0.0
 10
187.37853256506
 20
95.4740733694997
 30
0.0
 10
187.6664319097508
 20
95.59699732290703
 30
0.0
 10
187.8023783127105
 20
95.67030483104134
 30
0.0
 10
188.0585609283025
 20
95.84031545481267
 30
0.0
 10
188.1797432160616
 20
95.93818924701414
 30
0.0
 10
188.3968892879344
 20
96.15077342244612
 30
0.0
 10
188.4938511608947
 20
96.2658193609757
 30
0.0
 10
188.6644135967203
 20
96.51368048109583
 30
0.0
 10
188.7376536499322
 20
96.64671397816143
 30
0.0
 10
188.9125341066811
 20
97.05622199429156
 30
0.0
 10
188.973572067657
 20
97.35418264406661
 30
0.0
 10
188.9735737228801
 20
97.94562419994108
 30
0.0
 10
188.9125391132938
 20
98.24579774991766
 30
0.0
 10
188.7376493458919
 20
98.66102903018542
 30
0.0
 10
188.6644056404675
 20
98.79638414843225
 30
0.0
 10
188.4938449247308
 20
99.0492834798189
 30
0.0
 10
188.3968812091373
 20
99.16704875742666
 30
0.0
 10
188.1797208805501
 20
99.3851790527953
 30
0.0
 10
188.0585396218633
 20
99.48588237794226
 30
0.0
 10
187.8023693949247
 20
99.6611260707755
 30
0.0
 10
187.6664260452619
 20
99.73687103986609
 30
0.0
 10
187.3785233420788
 20
99.86403941516836
 30
0.0
 10
187.227633146162
 20
99.91464068749582
 30
0.0
 10
186.9221276424564
 20
99.98706978724367
 30
0.0
 10
186.7661262441929
 20
100.0095555586407
 30
0.0
 10
186.6067344027391
 20
100.0176940185355
 30
0.0
  0
SPLINE
  5
B1
330
1F
100
AcDbEntity
  8
0
  6
Continuous
 62
     7
370
    15
100
AcDbSpline
210
0.0
220
0.0
230
1.0
 70
     8
 71
     3
 72
    14
 73
    10
 74
     0
 42
0.000000001
 43
0.00000001
 40
0.0
 40
0.0
 40
0.0
 40
0.0
 40
0.25
 40
0.25
 40
0.5
 40
0.5
 40
0.75
 40
0.75
 40
1.0
 40
1.0
 40
1.0
 40
1.0
 10
185.2835728952772
 20
100.5631932396896
 30
0.0
 10
185.2835728952772
 20
100.6051696215431
 30
0.0
 10
185.253929941306
 20
100.633020009184
 30
0.0
 10
185.1472751075759
 20
100.646518884474
 30
0.0
 10
185.0709967129717
 20
100.6319033824363
 30
0.0
 10
184.9029451699053
 20
100.5598141782681
 30
0.0
 10
184.8118253632969
 20
100.5026765677854
 30
0.0
 10
184.6391482510443
 20
100.3604488671941
 30
0.0
 10
184.5582258115162
 20
100.276885041682
 30
0.0
 10
184.4835728952772
 20
100.1835153697862
 30
0.0
  0
SPLINE
  5
B2
330
1F
100
AcDbEntity
  8
0
  6
Continuous
 62
     7
370
    15
100
AcDbSpline
210
0.0
220
0.0
230
1.0
 70
     8
 71
     3
 72
    10
 73
     6
 74
     0
 42
0.000000001
 43
0.00000001
 40
0.0
 40
0.0
 40
0.0
 40
0.0
 40
0.5
 40
0.5
 40
1.0
 40
1.0
 40
1.0
 40
1.0
 10
185.2835728952775
 20
96.38553781904554
 30
0.0
 10
185.5004637277982
 20
96.14849887959697
 30
0.0
 10
185.7196163644571
 20
95.9463286446035
 30
0.0
 10
186.161100864726
 20
95.59557657308478
 30
0.0
 10
186.3843033299994
 20
95.44690048068794
 30
0.0
 10
186.6067344027391
 20
95.32590069566544
 30
0.0
  0
LINE
  5
B3
330
1F
100
AcDbEntity
  8
0
  6
Continuous
 62
     7
370
    15
100
AcDbLine
 10
185.283572774
 20
96.4311528722
 30
0.0
 11
185.283572774
 21
96.3855385552
 31
0.0
  0
SPLINE
  5
B4
330
1F
100
AcDbEntity
  8
0
  6
Continuous
 62
     7
370
    15
100
AcDbSpline
210
0.0
220
0.0
230
1.0
 70
     8
 71
     3
 72
    16
 73
    12
 74
     0
 42
0.000000001
 43
0.00000001
 40
0.0
 40
0.0
 40
0.0
 40
0.0
 40
0.2500000000000038
 40
0.2500000000000038
 40
0.5000000000000075
 40
0.5000000000000075
 40
0.6250000000000082
 40
0.6250000000000082
 40
0.7500000000000089
 40
0.7500000000000089
 40
1.0
 40
1.0
 40
1.0
 40
1.0
 10
184.4835728952772
 20
97.33955152673255
 30
0.0
 10
184.5575807854994
 20
97.24920394654687
 30
0.0
 10
184.6381987804884
 20
97.16124437374724
 30
0.0
 10
184.8119667659926
 20
96.98490944968565
 30
0.0
 10
184.9027178969341
 20
96.89930220901964
 30
0.0
 10
185.0288309943955
 20
96.77810651299465
 30
0.0
 10
185.0684077552588
 20
96.73957493400378
 30
0.0
 10
185.14089041196
 20
96.66517894787447
 30
0.0
 10
185.1738184024289
 20
96.62916215995298
 30
0.0
 10
185.2536085724238
 20
96.53040948413597
 30
0.0
 10
185.2835728952772
 20
96.47364548235387
 30
0.0
 10
185.2835728952772
 20
96.43115204105833
 30
0.0
  0
SPLINE
  5
B5
330
1F
100
AcDbEntity
  8
0
  6
Continuous
 62
     7
370
    15
100
AcDbSpline
210
0.0
220
0.0
230
1.0
 70
     8
 71
     3
 72
    16
 73
    12
 74
     0
 42
0.000000001
 43
0.00000001
 40
0.0
 40
0.0
 40
0.0
 40
0.0
 40
0.25
 40
0.25
 40
0.5
 40
0.5
 40
0.75
 40
0.75
 40
0.875
 40
0.875
 40
1.0
 40
1.0
 40
1.0
 40
1.0
 10
184.4835728952772
 20
100.1835153697862
 30
0.0
 10
184.318158788797
 20
99.97662913376081
 30
0.0
 10
184.1919614578215
 20
99.75076043595203
 30
0.0
 10
184.0175551594906
 20
99.26189119033917
 30
0.0
 10
183.9737251203937
 20
99.01012413699458
 30
0.0
 10
183.9734214474237
 20
98.49834481241226
 30
0.0
 10
184.017278307484
 20
98.24729010332956
 30
0.0
 10
184.1472000667512
 20
97.88644153518744
 30
0.0
 10
184.2013148781592
 20
97.76916876683889
 30
0.0
 10
184.3279918683027
 20
97.54667981550006
 30
0.0
 10
184.4008655886634
 20
97.44051920725678
 30
0.0
 10
184.4835728952772
 20
97.33955152673255
 30
0.0
  0
SPLINE
  5
B6
330
1F
100
AcDbEntity
  8
0
  6
Continuous
 62
     7
370
    15
100
AcDbSpline
210
0.0
220
0.0
230
1.0
 70
     8
 71
     3
 72
    14
 73
    10
 74
     0
 42
0.000000001
 43
0.00000001
 40
0.0
 40
0.0
 40
0.0
 40
0.0
 40
0.25
 40
0.25
 40
0.5
 40
0.5
 40
0.75
 40
0.75
 40
1.0
 40
1.0
 40
1.0
 40
1.0
 10
182.2635728952772
 20
70.66707481779683
 30
0.0
 10
182.1571278873679
 20
70.66707481779683
 30
0.0
 10
182.0502291360944
 20
70.64450526836372
 30
0.0
 10
181.8540108806519
 20
70.5580621771218
 30
0.0
 10
181.7643525671875
 20
70.49375825945465
 30
0.0
 10
181.6188988543064
 20
70.33878874541169
 30
0.0
 10
181.5608630715802
 20
70.24602325916796
 30
0.0
 10
181.4835779171956
 20
70.04755637752457
 30
0.0
 10
181.4635728952772
 20
69.9405319557308
 30
0.0
 10
181.4635728952772
 20
69.83374959525997
 30
0.0
  0
SPLINE
  5
B7
330
1F
100
AcDbEntity
  8
0
  6
Continuous
 62
     7
370
    15
100
AcDbSpline
210
0.0
220
0.0
230
1.0
 70
    24
 71
     3
 72
    14
 73
    10
 74
     0
 42
0.000000001
 43
0.00000001
 40
0.0
 40
0.0
 40
0.0
 40
0.0
 40
0.25
 40
0.25
 40
0.5
 40
0.5
 40
0.75
 40
0.75
 40
1.0
 40
1.0
 40
1.0
 40
1.0
 10
182.2635728952772
 20
144.1648410836666
 30
0.0
 10
182.1405915957309
 20
144.1648410836666
 30
0.0
 10
182.0204017073289
 20
144.1648410836666
 30
0.0
 10
181.8153778776497
 20
144.1648410836666
 30
0.0
 10
181.7287833888476
 20
144.1648410836666
 30
0.0
 10
181.5936755020851
 20
144.1648410836666
 30
0.0
 10
181.545152417057
 20
144.1648410836666
 30
0.0
 10
181.4794699083303
 20
144.1648410836666
 30
0.0
 10
181.4635728952772
 20
144.1648410836666
 30
0.0
 10
181.4635728952772
 20
144.1648410836666
 30
0.0
  0
SPLINE
  5
B8
330
1F
100
AcDbEntity
  8
0
  6
Continuous
 62
     7
370
    15
100
AcDbSpline
210
0.0
220
0.0
230
1.0
 70
    24
 71
     3
 72
    14
 73
    10
 74
     0
 42
0.000000001
 43
0.00000001
 40
0.0
 40
0.0
 40
0.0
 40
0.0
 40
0.25
 40
0.25
 40
0.5
 40
0.5
 40
0.75
 40
0.75
 40
1.0
 40
1.0
 40
1.0
 40
1.0
 10
185.2835728952772
 20
144.1648410836666
 30
0.0
 10
185.2835728952772
 20
144.1648410836666
 30
0.0
 10
185.2672918605014
 20
144.1648410836666
 30
0.0
 10
185.2026287979768
 20
144.1648410836666
 30
0.0
 10
185.1531490016881
 20
144.1648410836666
 30
0.0
 10
185.0191792445493
 20
144.1648410836666
 30
0.0
 10
184.9330645179499
 20
144.1648410836666
 30
0.0
 10
184.7276084022369
 20
144.1648410836666
 30
0.0
 10
184.606187865044
 20
144.1648410836666
 30
0.0
 10
184.4835728952772
 20
144.1648410836666
 30
0.0
  0
LINE
  5
B9
330
1F
100
AcDbEntity
  8
0
  6
Continuous
 62
     7
370
    15
100
AcDbLine
 10
184.4835732016
 20
70.6670749704
 30
0.0
 11
182.2635730613
 21
70.6670749704
 31
0.0
  0
LINE
  5
BA
330
1F
100
AcDbEntity
  8
0
  6
Continuous
 62
     7
370
    15
100
AcDbLine
 10
184.4835732016
 20
144.1648415992
 30
0.0
 11
182.2635730613
 21
144.1648415992
 31
0.0
  0
SPLINE
  5
BB
330
1F
100
AcDbEntity
  8
0
  6
Continuous
 62
     7
370
    15
100
AcDbSpline
210
0.0
220
0.0
230
1.0
 70
     8
 71
     3
 72
     8
 73
     4
 74
     0
 42
0.000000001
 43
0.00000001
 40
0.0000000000000004
 40
0.0000000000000004
 40
0.0000000000000004
 40
0.0000000000000004
 40
0.0011862984959128
 40
0.0011862984959128
 40
0.0011862984959128
 40
0.0011862984959128
 10
186.1536207257774
 20
68.12892601669024
 30
0.0
 10
186.3036521956487
 20
67.94760592237921
 30
0.0
 10
186.4547096408681
 20
67.76649359193884
 30
0.0
 10
186.6067344027391
 20
67.58558174232061
 30
0.0
  0
SPLINE
  5
BC
330
1F
100
AcDbEntity
  8
0
  6
Continuous
 62
     7
370
    15
100
AcDbSpline
210
0.0
220
0.0
230
1.0
 70
     8
 71
     3
 72
     8
 73
     4
 74
     0
 42
0.000000001
 43
0.00000001
 40
0.0
 40
0.0
 40
0.0
 40
0.0
 40
1.0
 40
1.0
 40
1.0
 40
1.0
 10
186.1536207257803
 20
68.1289260166919
 30
0.0
 10
185.8633264915189
 20
68.65082828241445
 30
0.0
 10
185.5733013413015
 20
69.17288166467387
 30
0.0
 10
185.2835728952772
 20
69.69510167483683
 30
0.0
  0
LINE
  5
BD
330
1F
100
AcDbEntity
  8
0
  6
Continuous
 62
     7
370
    15
100
AcDbLine
 10
185.283572774
 20
69.695102028
 30
0.0
 11
185.283572774
 21
96.3855385552
 31
0.0
  0
SPLINE
  5
BE
330
1F
100
AcDbEntity
  8
0
  6
Continuous
 62
     7
370
    15
100
AcDbSpline
210
0.0
220
0.0
230
1.0
 70
     8
 71
     3
 72
    14
 73
    10
 74
     0
 42
0.000000001
 43
0.00000001
 40
0.0
 40
0.0
 40
0.0
 40
0.0
 40
0.25
 40
0.25
 40
0.5
 40
0.5
 40
0.75
 40
0.75
 40
1.0
 40
1.0
 40
1.0
 40
1.0
 10
185.2835728952772
 20
69.83374959525997
 30
0.0
 10
185.2835728952772
 20
69.94081358160079
 30
0.0
 10
185.2635890690372
 20
70.0475529079753
 30
0.0
 10
185.1861539866037
 20
70.2463028101661
 30
0.0
 10
185.1282150644443
 20
70.33885702665863
 30
0.0
 10
184.9825772586835
 20
70.4939539700642
 30
0.0
 10
184.8937882623482
 20
70.55769412697707
 30
0.0
 10
184.6972399021436
 20
70.64444268406467
 30
0.0
 10
184.5911006724442
 20
70.66707481779683
 30
0.0
 10
184.4835728952772
 20
70.66707481779683
 30
0.0
  0
LINE
  5
BF
330
1F
100
AcDbEntity
  8
0
  6
Continuous
 62
     7
370
    15
100
AcDbLine
 10
172.2735728953
 20
79.3898422042
 30
0.0
 11
172.2735728953
 21
149.2398399631
 31
0.0
  0
LINE
  5
C0
330
1F
100
AcDbEntity
  8
0
  6
Continuous
 62
     7
370
    15
100
AcDbLine
 10
180.1404118422
 20
161.0946859936
 30
0.0
 11
176.0735729594
 21
161.0946859936
 31
0.0
  0
LINE
  5
C1
330
1F
100
AcDbEntity
  8
0
  6
Continuous
 62
     7
370
    15
100
AcDbLine
 10
180.1404118422
 20
152.8259198884
 30
0.0
 11
180.1404118422
 21
161.0946859936
 31
0.0
  0
LINE
  5
C2
330
1F
100
AcDbEntity
  8
0
  6
Continuous
 62
     7
370
    15
100
AcDbLine
 10
176.0735729594
 20
152.8259198884
 30
0.0
 11
180.1404118422
 21
152.8259198884
 31
0.0
  0
LINE
  5
C3
330
1F
100
AcDbEntity
  8
0
  6
Continuous
 62
     7
370
    15
100
AcDbLine
 10
190.7235722873
 20
161.0946859936
 30
0.0
 11
186.6067344207
 21
161.0946859936
 31
0.0
  0
LINE
  5
C4
330
1F
100
AcDbEntity
  8
0
  6
Continuous
 62
     7
370
    15
100
AcDbLine
 10
186.6067344207
 20
152.8259198884
 30
0.0
 11
190.7235722873
 21
152.8259198884
 31
0.0
  0
LINE
  5
C5
330
1F
100
AcDbEntity
  8
0
  6
Continuous
 62
     7
370
    15
100
AcDbLine
 10
186.6067344207
 20
152.8259198884
 30
0.0
 11
186.6067344207
 21
161.0946859936
 31
0.0
  0
SPLINE
  5
C6
330
1F
100
AcDbEntity
  8
0
  6
Continuous
 62
     7
370
    15
100
AcDbSpline
210
0.0
220
0.0
230
1.0
 70
     8
 71
     3
 72
    10
 73
     6
 74
     0
 42
0.000000001
 43
0.00000001
 40
0.0
 40
0.0
 40
0.0
 40
0.0
 40
0.5
 40
0.5
 40
1.0
 40
1.0
 40
1.0
 40
1.0
 10
175.7634418142235
 20
161.0250054093894
 30
0.0
 10
175.6869887243047
 20
160.9547426381688
 30
0.0
 10
175.6181270020356
 20
160.867647723127
 30
0.0
 10
175.5116147709627
 20
160.6584785948748
 30
0.0
 10
175.4735728952772
 20
160.5331610456352
 30
0.0
 10
175.4735728952771
 20
160.4038107510393
 30
0.0
  0
SPLINE
  5
C7
330
1F
100
AcDbEntity
  8
0
  6
Continuous
 62
     7
370
    15
100
AcDbSpline
210
0.0
220
0.0
230
1.0
 70
     8
 71
     3
 72
     8
 73
     4
 74
     0
 42
0.000000001
 43
0.00000001
 40
0.0
 40
0.0
 40
0.0
 40
0.0
 40
1.0
 40
1.0
 40
1.0
 40
1.0
 10
176.0735728952772
 20
161.0946857384422
 30
0.0
 10
175.9624947099397
 20
161.0946857384422
 30
0.0
 10
175.8548307060375
 20
161.0695365628876
 30
0.0
 10
175.7634418142235
 20
161.0250054093894
 30
0.0
  0
SPLINE
  5
C8
330
1F
100
AcDbEntity
  8
0
  6
Continuous
 62
     7
370
    15
100
AcDbSpline
210
0.0
220
0.0
230
1.0
 70
     8
 71
     3
 72
    12
 73
     8
 74
     0
 42
0.000000001
 43
0.00000001
 40
0.0
 40
0.0
 40
0.0
 40
0.0
 40
0.5000000000000003
 40
0.5000000000000003
 40
0.7500000000000001
 40
0.7500000000000001
 40
1.0
 40
1.0
 40
1.0
 40
1.0
 10
175.4735728952772
 20
152.063922198311
 30
0.0
 10
175.4735728952772
 20
152.2422824655503
 30
0.0
 10
175.5208850166531
 20
152.4210548772542
 30
0.0
 10
175.6752450945345
 20
152.642816742606
 30
0.0
 10
175.7401306294535
 20
152.7071087812224
 30
0.0
 10
175.8953633286818
 20
152.799753265382
 30
0.0
 10
175.9844387413501
 20
152.8259190353418
 30
0.0
 10
176.0735728952772
 20
152.8259190353418
 30
0.0
  0
LINE
  5
C9
330
1F
100
AcDbEntity
  8
0
  6
Continuous
 62
     7
370
    15
100
AcDbLine
 10
175.4735728144
 20
152.0639229337
 30
0.0
 11
175.4735728144
 21
160.4038122813
 31
0.0
  0
LINE
  5
CA
330
1F
100
AcDbEntity
  8
0
  6
Continuous
 62
     7
370
    15
100
AcDbLine
 10
184.4835732016
 20
157.9626071969
 30
0.0
 11
182.2635730613
 21
157.9626071969
 31
0.0
  0
LINE
  5
CB
330
1F
100
AcDbEntity
  8
0
  6
Continuous
 62
     7
370
    15
100
AcDbLine
 10
182.2635730613
 20
148.6547235171
 30
0.0
 11
184.4835732016
 21
148.6547235171
 31
0.0
  0
SPLINE
  5
CC
330
1F
100
AcDbEntity
  8
0
  6
Continuous
 62
     7
370
    15
100
AcDbSpline
210
0.0
220
0.0
230
1.0
 70
     8
 71
     3
 72
     8
 73
     4
 74
     0
 42
0.000000001
 43
0.00000001
 40
0.0
 40
0.0
 40
0.0
 40
0.0
 40
1.0
 40
1.0
 40
1.0
 40
1.0
 10
186.0502439174436
 20
160.314874328334
 30
0.0
 10
185.7944676066882
 20
159.8548959730692
 30
0.0
 10
185.5389042085822
 20
159.3948015127614
 30
0.0
 10
185.2835728952772
 20
158.9345804924964
 30
0.0
  0
SPLINE
  5
CD
330
1F
100
AcDbEntity
  8
0
  6
Continuous
 62
     7
370
    15
100
AcDbSpline
210
0.0
220
0.0
230
1.0
 70
     8
 71
     3
 72
     8
 73
     4
 74
     0
 42
0.000000001
 43
0.00000001
 40
0.0
 40
0.0
 40
0.0
 40
0.0
 40
0.0012352705496738
 40
0.0012352705496738
 40
0.0012352705496738
 40
0.0012352705496738
 10
186.6067344027391
 20
161.0946857384422
 30
0.0
 10
186.420785977417
 20
160.8349099826905
 30
0.0
 10
186.2352791682459
 20
160.5749759040632
 30
0.0
 10
186.0502439174437
 20
160.3148743283346
 30
0.0
  0
SPLINE
  5
CE
330
1F
100
AcDbEntity
  8
0
  6
Continuous
 62
     7
370
    15
100
AcDbSpline
210
0.0
220
0.0
230
1.0
 70
     8
 71
     3
 72
     8
 73
     4
 74
     0
 42
0.000000001
 43
0.00000001
 40
0.0
 40
0.0
 40
0.0
 40
0.0
 40
1.0
 40
1.0
 40
1.0
 40
1.0
 10
185.2835728952772
 20
149.8819768259762
 30
0.0
 10
185.7185193169155
 20
150.8654811443586
 30
0.0
 10
186.1598856748114
 20
151.8466831370855
 30
0.0
 10
186.6067344027391
 20
152.8259190353418
 30
0.0
  0
LINE
  5
CF
330
1F
100
AcDbEntity
  8
0
  6
Continuous
 62
     7
370
    15
100
AcDbLine
 10
185.283572774
 20
149.8819757024
 30
0.0
 11
185.283572774
 21
158.9345801393
 31
0.0
  0
SPLINE
  5
D0
330
1F
100
AcDbEntity
  8
0
  6
Continuous
 62
     7
370
    15
100
AcDbSpline
210
0.0
220
0.0
230
1.0
 70
     8
 71
     3
 72
    14
 73
    10
 74
     0
 42
0.000000001
 43
0.00000001
 40
0.0
 40
0.0
 40
0.0
 40
0.0
 40
0.25
 40
0.25
 40
0.5
 40
0.5
 40
0.75
 40
0.75
 40
1.0
 40
1.0
 40
1.0
 40
1.0
 10
185.2835728952772
 20
158.7959325720732
 30
0.0
 10
185.2835728952772
 20
158.6885901999258
 30
0.0
 10
185.263576703213
 20
158.581961193078
 30
0.0
 10
185.1858786188683
 20
158.3828094139268
 30
0.0
 10
185.1278854739748
 20
158.2903265156113
 30
0.0
 10
184.9818389811519
 20
158.1350906805021
 30
0.0
 10
184.8925012419843
 20
158.0713567388898
 30
0.0
 10
184.6977462299238
 20
157.9855264724946
 30
0.0
 10
184.5902159587149
 20
157.9626073495361
 30
0.0
 10
184.4835728952751
 20
157.9626073495364
 30
0.0
  0
SPLINE
  5
D1
330
1F
100
AcDbEntity
  8
0
  6
Continuous
 62
     7
370
    15
100
AcDbSpline
210
0.0
220
0.0
230
1.0
 70
     8
 71
     3
 72
    14
 73
    10
 74
     0
 42
0.000000001
 43
0.00000001
 40
0.0
 40
0.0
 40
0.0
 40
0.0
 40
0.25
 40
0.25
 40
0.5
 40
0.5
 40
0.75
 40
0.75
 40
1.0
 40
1.0
 40
1.0
 40
1.0
 10
184.4835728952772
 20
148.6547231451997
 30
0.0
 10
184.6048994252629
 20
148.6547231451997
 30
0.0
 10
184.7266041338251
 20
148.6935046606329
 30
0.0
 10
184.9330440127113
 20
148.8246592823267
 30
0.0
 10
185.0189945511673
 20
148.9153113669139
 30
0.0
 10
185.1529063109156
 20
149.1174284018552
 30
0.0
 10
185.2024707477348
 20
149.2311633453943
 30
0.0
 10
185.2673247757027
 20
149.4641229624608
 30
0.0
 10
185.2835728952772
 20
149.58682122879
 30
0.0
 10
185.2835728952772
 20
149.7078841853836
 30
0.0
  0
SPLINE
  5
D2
330
1F
100
AcDbEntity
  8
0
  6
Continuous
 62
     7
370
    15
100
AcDbSpline
210
0.0
220
0.0
230
1.0
 70
     8
 71
     3
 72
    12
 73
     8
 74
     0
 42
0.000000001
 43
0.00000001
 40
0.0
 40
0.0
 40
0.0
 40
0.0
 40
0.2500000000000007
 40
0.2500000000000007
 40
0.5000000000000014
 40
0.5000000000000014
 40
1.0
 40
1.0
 40
1.0
 40
1.0
 10
182.2635728952772
 20
157.9626073495364
 30
0.0
 10
182.1572279154012
 20
157.9626073495364
 30
0.0
 10
182.0499515679986
 20
157.985322587396
 30
0.0
 10
181.8545757786025
 20
158.0713477542783
 30
0.0
 10
181.7660220425256
 20
158.1343264812066
 30
0.0
 10
181.5447641183943
 20
158.3695179916437
 30
0.0
 10
181.4635728952772
 20
158.582694206129
 30
0.0
 10
181.4635728952772
 20
158.7959325720731
 30
0.0
  0
SPLINE
  5
D3
330
1F
100
AcDbEntity
  8
0
  6
Continuous
 62
     7
370
    15
100
AcDbSpline
210
0.0
220
0.0
230
1.0
 70
     8
 71
     3
 72
    12
 73
     8
 74
     0
 42
0.000000001
 43
0.00000001
 40
0.0
 40
0.0
 40
0.0
 40
0.0
 40
0.499999999999994
 40
0.499999999999994
 40
0.749999999999997
 40
0.749999999999997
 40
1.0
 40
1.0
 40
1.0
 40
1.0
 10
181.4635728952772
 20
149.7078841853836
 30
0.0
 10
181.4635728952772
 20
149.4654610894029
 30
0.0
 10
181.526494036719
 20
149.2196905688015
 30
0.0
 10
181.7285229337215
 20
148.9147443893847
 30
0.0
 10
181.8148166583686
 20
148.8241515227862
 30
0.0
 10
182.0202904529354
 20
148.6937179598494
 30
0.0
 10
182.1402410135351
 20
148.6547231451997
 30
0.0
 10
182.2635728952772
 20
148.6547231451997
 30
0.0
  0
SPLINE
  5
D4
330
1F
100
AcDbEntity
  8
0
  6
Continuous
 62
     7
370
    15
100
AcDbSpline
210
0.0
220
0.0
230
1.0
 70
     8
 71
     3
 72
     8
 73
     4
 74
     0
 42
0.000000001
 43
0.00000001
 40
0.0
 40
0.0
 40
0.0
 40
0.0
 40
0.0012352705496723
 40
0.0012352705496723
 40
0.0012352705496723
 40
0.0012352705496723
 10
180.6969018731098
 20
160.3148743283357
 30
0.0
 10
180.5118666223079
 20
160.574975904064
 30
0.0
 10
180.3263598131371
 20
160.8349099826909
 30
0.0
 10
180.1404113878153
 20
161.0946857384422
 30
0.0
  0
SPLINE
  5
D5
330
1F
100
AcDbEntity
  8
0
  6
Continuous
 62
     7
370
    15
100
AcDbSpline
210
0.0
220
0.0
230
1.0
 70
     8
 71
     3
 72
     8
 73
     4
 74
     0
 42
0.000000001
 43
0.00000001
 40
0.0
 40
0.0
 40
0.0
 40
0.0
 40
1.0
 40
1.0
 40
1.0
 40
1.0
 10
181.4635728952772
 20
158.9345804924964
 30
0.0
 10
181.2082415819719
 20
159.394801512762
 30
0.0
 10
180.9526781838655
 20
159.8548959730704
 30
0.0
 10
180.6969018731098
 20
160.3148743283357
 30
0.0
  0
LINE
  5
D6
330
1F
100
AcDbEntity
  8
0
  6
Continuous
 62
     7
370
    15
100
AcDbLine
 10
181.4635725576
 20
149.8819757024
 30
0.0
 11
181.4635725576
 21
158.9345801393
 31
0.0
  0
SPLINE
  5
D7
330
1F
100
AcDbEntity
  8
0
  6
Continuous
 62
     7
370
    15
100
AcDbSpline
210
0.0
220
0.0
230
1.0
 70
     8
 71
     3
 72
     8
 73
     4
 74
     0
 42
0.000000001
 43
0.00000001
 40
0.0
 40
0.0
 40
0.0
 40
0.0
 40
1.0
 40
1.0
 40
1.0
 40
1.0
 10
180.1404113878153
 20
152.8259190353418
 30
0.0
 10
180.5872601157429
 20
151.8466831370855
 30
0.0
 10
181.0286264736388
 20
150.8654811443586
 30
0.0
 10
181.4635728952772
 20
149.8819768259762
 30
0.0
  0
LINE
  5
D8
330
1F
100
AcDbEntity
  8
0
  6
Continuous
 62
     7
370
    15
100
AcDbLine
 10
181.4635725576
 20
149.8819757024
 30
0.0
 11
181.4635725576
 21
149.7078854362
 31
0.0
  0
SPLINE
  5
D9
330
1F
100
AcDbEntity
  8
0
  6
Continuous
 62
     7
370
    15
100
AcDbSpline
210
0.0
220
0.0
230
1.0
 70
     8
 71
     3
 72
    12
 73
     8
 74
     0
 42
0.000000001
 43
0.00000001
 40
0.0
 40
0.0
 40
0.0
 40
0.0
 40
0.2499999999999946
 40
0.2499999999999946
 40
0.4999999999999892
 40
0.4999999999999892
 40
1.0
 40
1.0
 40
1.0
 40
1.0
 10
190.7235728952777
 20
152.8259190353418
 30
0.0
 10
190.8131099534488
 20
152.8259190353417
 30
0.0
 10
190.9030091322374
 20
152.7990917365107
 30
0.0
 10
191.0564339912367
 20
152.7073847712512
 30
0.0
 10
191.1214830486144
 20
152.6431298296523
 30
0.0
 10
191.2748022798787
 20
152.4237176835908
 30
0.0
 10
191.3235728952772
 20
152.2419023737939
 30
0.0
 10
191.3235728952772
 20
152.063922198311
 30
0.0
  0
LINE
  5
DA
330
1F
100
AcDbEntity
  8
0
  6
Continuous
 62
     7
370
    15
100
AcDbLine
 10
185.283572774
 20
149.7078854362
 30
0.0
 11
185.283572774
 21
149.8819757024
 31
0.0
  0
LINE
  5
DB
330
1F
100
AcDbEntity
  8
0
  6
Continuous
 62
     7
370
    15
100
AcDbLine
 10
191.3235731307
 20
152.0639229337
 30
0.0
 11
191.3235731307
 21
144.1648415992
 31
0.0
  0
LINE
  5
DC
330
1F
100
AcDbEntity
  8
0
  6
Continuous
 62
     7
370
    15
100
AcDbLine
 10
175.4735728144
 20
152.0639229337
 30
0.0
 11
175.4735728144
 21
144.1648415992
 31
0.0
  0
SPLINE
  5
DD
330
1F
100
AcDbEntity
  8
0
  6
Continuous
 62
     7
370
    15
100
AcDbSpline
210
0.0
220
0.0
230
1.0
 70
     8
 71
     3
 72
    12
 73
     8
 74
     0
 42
0.000000001
 43
0.00000001
 40
0.0
 40
0.0
 40
0.0
 40
0.0
 40
0.4999999999999982
 40
0.4999999999999982
 40
0.7499999999999991
 40
0.7499999999999991
 40
1.0
 40
1.0
 40
1.0
 40
1.0
 10
191.3235728952772
 20
160.6098280368971
 30
0.0
 10
191.3235728952772
 20
160.7300206435622
 30
0.0
 10
191.2696044650081
 20
160.8479279440772
 30
0.0
 10
191.1085178240752
 20
160.9873074885606
 30
0.0
 10
191.0437554046021
 20
161.0254727861246
 30
0.0
 10
190.8917014030376
 20
161.080125048458
 30
0.0
 10
190.8089716298885
 20
161.0946857384422
 30
0.0
 10
190.7235728952772
 20
161.0946857384422
 30
0.0
  0
LINE
  5
DE
330
1F
100
AcDbEntity
  8
0
  6
Continuous
 62
     7
370
    15
100
AcDbLine
 10
191.3235731307
 20
152.0639229337
 30
0.0
 11
191.3235731307
 21
160.6098282854
 31
0.0
  0
LINE
  5
DF
330
1F
100
AcDbEntity
  8
0
  6
Continuous
 62
     7
370
    15
100
AcDbLine
 10
70.6735741231
 20
95.935996599
 30
0.0
 11
70.6735741231
 21
132.6936855684
 31
0.0
  0
LINE
  5
E0
330
1F
100
AcDbEntity
  8
0
  6
Continuous
 62
     7
370
    15
100
AcDbLine
 10
216.1735746894
 20
101.8148408974
 30
0.0
 11
216.1735746894
 21
126.8148412699
 31
0.0
  0
SPLINE
  5
E1
330
1F
100
AcDbEntity
  8
0
  6
Continuous
 62
     7
370
    15
100
AcDbSpline
210
0.0
220
0.0
230
1.0
 70
     8
 71
     3
 72
    38
 73
    34
 74
     0
 42
0.000000001
 43
0.00000001
 40
0.0
 40
0.0
 40
0.0
 40
0.0
 40
0.0625
 40
0.0625
 40
0.125
 40
0.125
 40
0.1875
 40
0.1875
 40
0.25
 40
0.25
 40
0.3125
 40
0.3125
 40
0.375
 40
0.375
 40
0.4375
 40
0.4375
 40
0.5
 40
0.5
 40
0.5625
 40
0.5625
 40
0.625
 40
0.625
 40
0.6875
 40
0.6875
 40
0.75
 40
0.75
 40
0.8125
 40
0.8125
 40
0.875
 40
0.875
 40
0.9375
 40
0.9375
 40
1.0
 40
1.0
 40
1.0
 40
1.0
 10
213.1235728952772
 20
114.3148410836666
 30
0.0
 10
213.1235728952772
 20
114.0691169329985
 30
0.0
 10
213.0936206792794
 20
113.8234084229589
 30
0.0
 10
212.9746031268473
 20
113.3415385757486
 30
0.0
 10
212.8876288717413
 20
113.1121070365579
 30
0.0
 10
212.6633158553357
 20
112.6741326947317
 30
0.0
 10
212.5260233672295
 20
112.4671753581128
 30
0.0
 10
212.2157363210043
 20
112.0896995264754
 30
0.0
 10
212.0396605798348
 20
111.9153672382923
 30
0.0
 10
211.6603094234256
 20
111.6052013641175
 30
0.0
 10
211.4577068807521
 20
111.4692093012373
 30
0.0
 10
211.0279009717883
 20
111.2328129424817
 30
0.0
 10
210.800362811781
 20
111.1328388688096
 30
0.0
 10
210.336988376432
 20
110.9743585116938
 30
0.0
 10
210.0992037397859
 20
110.9146724944948
 30
0.0
 10
209.6112939517691
 20
110.8343995542438
 30
0.0
 10
209.3634860930826
 20
110.8145518631824
 30
0.0
 10
208.8728808530287
 20
110.815136729047
 30
0.0
 10
208.6282024494057
 20
110.8352264606717
 30
0.0
 10
208.1401326934649
 20
110.9164028128535
 30
0.0
 10
207.9000755174865
 20
110.9772371233743
 30
0.0
 10
207.4383207004618
 20
111.1363259471701
 30
0.0
 10
207.2149253792913
 20
111.2348143872421
 30
0.0
 10
206.7839652159741
 20
111.4726027495936
 30
0.0
 10
206.5800926891828
 20
111.6102315765388
 30
0.0
 10
206.2048531887175
 20
111.9180150310004
 30
0.0
 10
206.0319577688224
 20
112.0889154035934
 30
0.0
 10
205.7191992213114
 20
112.4696326175462
 30
0.0
 10
205.5833647170523
 20
112.6750768162444
 30
0.0
 10
205.3601826000587
 20
113.1107715401663
 30
0.0
 10
205.2713963588137
 20
113.3455819804068
 30
0.0
 10
205.1538017219711
 20
113.8228906058979
 30
0.0
 10
205.1235728952772
 20
114.0663273738616
 30
0.0
 10
205.1235728952772
 20
114.3148410836666
 30
0.0
  0
SPLINE
  5
E2
330
1F
100
AcDbEntity
  8
0
  6
Continuous
 62
     7
370
    15
100
AcDbSpline
210
0.0
220
0.0
230
1.0
 70
     8
 71
     3
 72
    34
 73
    30
 74
     0
 42
0.000000001
 43
0.00000001
 40
0.0
 40
0.0
 40
0.0
 40
0.0
 40
0.0625000000000001
 40
0.0625000000000001
 40
0.1250000000000002
 40
0.1250000000000002
 40
0.1875000000000002
 40
0.1875000000000002
 40
0.2500000000000003
 40
0.2500000000000003
 40
0.3749999999999992
 40
0.3749999999999992
 40
0.4999999999999981
 40
0.4999999999999981
 40
0.5624999999999984
 40
0.5624999999999984
 40
0.6249999999999987
 40
0.6249999999999987
 40
0.687499999999999
 40
0.687499999999999
 40
0.7499999999999993
 40
0.7499999999999993
 40
0.8124999999999996
 40
0.8124999999999996
 40
0.8749999999999997
 40
0.8749999999999997
 40
0.9374999999999999
 40
0.9374999999999999
 40
1.0
 40
1.0
 40
1.0
 40
1.0
 10
205.1235728952772
 20
114.3148410836666
 30
0.0
 10
205.1235728952772
 20
114.5636290375323
 30
0.0
 10
205.1543794506318
 20
114.8105584524136
 30
0.0
 10
205.2728925169235
 20
115.2887258863502
 30
0.0
 10
205.3620930059778
 20
115.5235984335249
 30
0.0
 10
205.5868845365189
 20
115.9604949195697
 30
0.0
 10
205.7239483288619
 20
116.1667269889751
 30
0.0
 10
206.0378966753933
 20
116.5470686197706
 30
0.0
 10
206.2126072648139
 20
116.7191980600691
 30
0.0
 10
206.7863135723056
 20
117.1861501882646
 30
0.0
 10
207.2161392388714
 20
117.4187352221638
 30
0.0
 10
208.1531003324974
 20
117.7376279717907
 30
0.0
 10
208.6394015977087
 20
117.8161163901033
 30
0.0
 10
209.3833058648109
 20
117.8141804679726
 30
0.0
 10
209.6279206932547
 20
117.7933127407977
 30
0.0
 10
210.110667989091
 20
117.7123120274015
 30
0.0
 10
210.3500003354293
 20
117.6517703522762
 30
0.0
 10
210.8165658205473
 20
117.490346749751
 30
0.0
 10
211.039532753957
 20
117.3911810274936
 30
0.0
 10
211.4650592513463
 20
117.1556873014709
 30
0.0
 10
211.6689353658503
 20
117.0183205494149
 30
0.0
 10
212.0482978404253
 20
116.7063189056485
 30
0.0
 10
212.2203100564986
 20
116.5349470372432
 30
0.0
 10
212.5277992705236
 20
116.1598068218791
 30
0.0
 10
212.6647108296365
 20
115.9532583610814
 30
0.0
 10
212.8886572100456
 20
115.5151299874894
 30
0.0
 10
212.9747290322564
 20
115.2869670058605
 30
0.0
 10
213.09252630175
 20
114.8113659443546
 30
0.0
 10
213.1235728952772
 20
114.5608364000139
 30
0.0
 10
213.1235728952772
 20
114.3148410836666
 30
0.0
  0
LINE
  5
E3
330
1F
100
AcDbEntity
  8
0
  6
Continuous
 62
     7
370
    15
100
AcDbLine
 10
216.3735743496
 20
102.014841489
 30
0.0
 11
216.3735743496
 21
126.6148406784
 31
0.0
  0
ARC
  5
E4
330
1F
100
AcDbEntity
  8
0
  6
Continuous
 62
     7
370
    15
100
AcDbCircle
 10
186.3267032018
 20
99.1156867035
 30
0.0
 40
2.356059287371987
100
AcDbArc
 50
185.4017539361
 51
252.5076603369
  0
ARC
  5
E5
330
1F
100
AcDbEntity
  8
0
  6
Continuous
 62
     7
370
    15
100
AcDbCircle
 10
186.4854047677
 20
99.2436605233
 30
0.0
 40
2.528339291156969
100
AcDbArc
 50
249.9484111729
 51
339.7571495746
  0
ARC
  5
E6
330
1F
100
AcDbEntity
  8
0
  6
Continuous
 62
     7
370
    15
100
AcDbCircle
 10
186.3047145991
 20
99.0320254625
 30
0.0
 40
2.18310721879694
100
AcDbArc
 50
159.3153835038
 51
252.9991548677
  0
ARC
  5
E7
330
1F
100
AcDbEntity
  8
0
  6
Continuous
 62
     7
370
    15
100
AcDbCircle
 10
186.488311119
 20
99.1682639383
 30
0.0
 40
2.370961923333706
100
AcDbArc
 50
249.7171366798
 51
345.4454345851
  0
ARC
  5
E8
330
1F
100
AcDbEntity
  8
0
  6
Continuous
 62
     7
370
    15
100
AcDbCircle
 10
186.3190786458
 20
99.0212456534
 30
0.0
 40
1.837019701238448
100
AcDbArc
 50
124.7810797156
 51
253.2459599739
  0
ARC
  5
E9
330
1F
100
AcDbEntity
  8
0
  6
Continuous
 62
     7
370
    15
100
AcDbCircle
 10
186.4940868109
 20
99.114050965
 30
0.0
 40
1.981345107956108
100
AcDbArc
 50
249.1701466721
 51
357.5180965593
  0
CIRCLE
  5
EA
330
1F
100
AcDbEntity
  8
0
  6
HIDDEN
 62
     7
370
     0
100
AcDbCircle
 10
209.1235728953
 20
114.3148410837
 30
0.0
 40
2.477364010367777
  0
CIRCLE
  5
EB
330
1F
100
AcDbEntity
  8
0
  6
HIDDEN
 62
     7
370
     0
100
AcDbCircle
 10
209.1235728953
 20
114.3148410837
 30
0.0
 40
1.845534221835412
  0
ARC
  5
EC
330
1F
100
AcDbEntity
  8
0
  6
HIDDEN
 62
     7
370
     0
100
AcDbCircle
 10
209.1235728953
 20
114.3148410837
 30
0.0
 40
1.54553422183542
100
AcDbArc
 50
75.3516547764
 51
122.0374176748
  0
ARC
  5
ED
330
1F
100
AcDbEntity
  8
0
  6
HIDDEN
 62
     7
370
     0
100
AcDbCircle
 10
209.1235728953
 20
114.3148410837
 30
0.0
 40
1.54553422183544
100
AcDbArc
 50
12.3378817043
 51
50.264082377
  0
ARC
  5
EE
330
1F
100
AcDbEntity
  8
0
  6
HIDDEN
 62
     7
370
     0
100
AcDbCircle
 10
209.1235728953
 20
114.3148410837
 30
0.0
 40
1.545534221835456
100
AcDbArc
 50
310.0050061193
 51
353.8638560272
  0
ARC
  5
EF
330
1F
100
AcDbEntity
  8
0
  6
HIDDEN
 62
     7
370
     0
100
AcDbCircle
 10
209.1235728953
 20
114.3148410837
 30
0.0
 40
1.54553422183546
100
AcDbArc
 50
254.4689417607
 51
292.3229922534
  0
ARC
  5
F0
330
1F
100
AcDbEntity
  8
0
  6
HIDDEN
 62
     7
370
     0
100
AcDbCircle
 10
209.1235728953
 20
114.3148410837
 30
0.0
 40
1.545534221835456
100
AcDbArc
 50
191.036269873
 51
228.7100399989
  0
ARC
  5
F1
330
1F
100
AcDbEntity
  8
0
  6
HIDDEN
 62
     7
370
     0
100
AcDbCircle
 10
209.1235728953
 20
114.3148410837
 30
0.0
 40
1.545534221835419
100
AcDbArc
 50
122.0374176748
 51
173.8560179241
  0
LWPOLYLINE
  5
F2
330
1F
100
AcDbEntity
  8
0
  6
HIDDEN
 62
     7
370
     0
100
AcDbPolyline
 90
       23
 70
   128
 43
0.0
 10
186.4735729877
 20
98.4575245301
 10
187.1779043112
 20
98.5526852081
 10
187.8251753632
 20
98.8304558913
 10
188.3629470948
 20
99.2683358262
 10
188.747652236
 20
99.8308490733
 10
188.9481268707
 20
100.4724250878
 10
188.9481268707
 20
101.1410858253
 10
188.747652236
 20
101.7826618398
 10
188.3629470948
 20
102.3451750869
 10
187.8251753632
 20
102.7830550218
 10
187.1779043112
 20
103.0608266363
 10
186.4735729877
 20
103.1559873144
 10
185.7692416642
 20
103.0608266363
 10
185.1219706122
 20
102.7830550218
 10
184.5841988805
 20
102.3451750869
 10
184.199492808
 20
101.7826618398
 10
183.9990191046
 20
101.1410858253
 10
183.9990191046
 20
100.4724250878
 10
184.199492808
 20
99.8308490733
 10
184.5841988805
 20
99.2683358262
 10
185.1219706122
 20
98.8304558913
 10
185.7692416642
 20
98.5526852081
 10
186.4735729877
 20
98.4575245301
  0
LWPOLYLINE
  5
F3
330
1F
100
AcDbEntity
  8
0
  6
HIDDEN
 62
     7
370
     0
100
AcDbPolyline
 90
       25
 70
   128
 43
0.0
 10
175.7453038707
 20
100.4099808405
 10
175.9287387948
 20
99.6486115972
 10
176.2120494503
 20
98.9391272659
 10
176.5759288218
 20
98.3298793206
 10
176.9955790486
 20
97.8623889158
 10
177.4424015429
 20
97.5685100774
 10
177.8859462473
 20
97.4682736913
 10
178.2959856909
 20
97.5685100774
 10
178.6445774022
 20
97.8623889158
 10
178.9079647395
 20
98.3298793206
 10
179.0681987885
 20
98.9391272659
 10
179.1143593263
 20
99.6486115972
 10
179.0433008108
 20
100.4099808405
 10
178.8598656539
 20
101.1713510151
 10
178.5765549984
 20
101.880834415
 10
178.2126756269
 20
102.4900823603
 10
177.7930254001
 20
102.9575736965
 10
177.3462029058
 20
103.2514516036
 10
176.9026582014
 20
103.3516879896
 10
176.4926182922
 20
103.2514516036
 10
176.1440270465
 20
102.9575736965
 10
175.8806394763
 20
102.4900823603
 10
175.720405893
 20
101.880834415
 10
175.6742453553
 20
101.1713510151
 10
175.7453038707
 20
100.4099808405
  0
LWPOLYLINE
  5
F4
330
1F
100
AcDbEntity
  8
0
  6
HIDDEN
 62
     7
370
     0
100
AcDbPolyline
 90
       21
 70
   128
 43
0.0
 10
176.5083357576
 20
100.4742430294
 10
176.6711793724
 20
99.8379168803
 10
176.9310737844
 20
99.2638785163
 10
177.2625785205
 20
98.808319285
 10
177.6332430426
 20
98.5158327738
 10
178.0067853514
 20
98.4150469074
 10
178.3466393944
 20
98.5158327738
 10
178.6195378635
 20
98.808319285
 10
178.7987685647
 20
99.2638785163
 10
178.8667863119
 20
99.8379168803
 10
178.8169335458
 20
100.4742430294
 10
178.6540894653
 20
101.1105691785
 10
178.3941950533
 20
101.6846066112
 10
178.0626907829
 20
102.1401658426
 10
177.6920257952
 20
102.432653285
 10
177.318483952
 20
102.5334372888
 10
176.9786299091
 20
102.432653285
 10
176.7057309743
 20
102.1401658426
 10
176.5265002731
 20
101.6846066112
 10
176.4584825258
 20
101.1105691785
 10
176.5083357576
 20
100.4742430294
  0
ELLIPSE
  5
F5
330
1F
100
AcDbEntity
  8
0
  6
HIDDEN
 62
     7
370
     0
100
AcDbEllipse
 10
186.4735728953
 20
102.5843309723
 30
0.0
 11
1.760776919379083
 21
2.232245799914438
 31
0.0
210
0.0
220
0.0
230
1.0
 40
0.5126701559
 41
1.100887047646258
 42
4.029627027608308
  0
ARC
  5
F6
330
1F
100
AcDbEntity
  8
0
  6
HIDDEN
 62
     7
370
     0
100
AcDbCircle
 10
185.7769734267
 20
103.7618708535
 30
0.0
 40
0.7945949542258047
100
AcDbArc
 50
53.4208190544
 51
99.1663888759
  0
ELLIPSE
  5
F7
330
1F
100
AcDbEntity
  8
0
  6
HIDDEN
 62
     7
370
     0
100
AcDbEllipse
 10
186.4735728953
 20
102.5843309723
 30
0.0
 11
1.760776919379083
 21
-1.388886188042932
 31
0.0
210
0.0
220
0.0
230
1.0
 40
0.8239737799
 41
2.549926265248528
 42
4.8859302738561
  0
ARC
  5
F8
330
1F
100
AcDbEntity
  8
0
  6
HIDDEN
 62
     7
370
     0
100
AcDbCircle
 10
186.7196256572
 20
101.7448534083
 30
0.0
 40
1.353195702694778
100
AcDbArc
 50
217.8001040701
 51
249.7155767561
  0
LWPOLYLINE
  5
F9
330
1F
100
AcDbEntity
  8
0
  6
HIDDEN
 62
     7
370
     0
100
AcDbPolyline
 90
       21
 70
   128
 43
0.0
 10
186.4735729877
 20
98.883194826
 10
187.1225083131
 20
98.9797776336
 10
187.707921851
 20
99.260072201
 10
188.1725083921
 20
99.6966408337
 10
188.4707923863
 20
100.2467497955
 10
188.5735731456
 20
100.856550015
 10
188.4707923863
 20
101.4663493032
 10
188.1725083921
 20
102.016458265
 10
187.707921851
 20
102.4530268977
 10
187.1225083131
 20
102.733321465
 10
186.4735729877
 20
102.8299042726
 10
185.8246376622
 20
102.733321465
 10
185.2392241243
 20
102.4530268977
 10
184.7746375832
 20
102.016458265
 10
184.4763545204
 20
101.4663493032
 10
184.3735728297
 20
100.856550015
 10
184.4763545204
 20
100.2467497955
 10
184.7746375832
 20
99.6966408337
 10
185.2392241243
 20
99.260072201
 10
185.8246376622
 20
98.9797776336
 10
186.4735729877
 20
98.883194826
  0
SPLINE
  5
FA
330
1F
100
AcDbEntity
  8
0
  6
HIDDEN
 62
     7
370
     0
100
AcDbSpline
210
0.0
220
0.0
230
1.0
 70
    11
 71
     3
 72
    62
 73
    58
 74
     0
 42
0.000000001
 43
0.00000001
 40
0.0
 40
0.0
 40
0.0
 40
0.0
 40
0.0312500000000001
 40
0.0312500000000001
 40
0.0625000000000003
 40
0.0625000000000003
 40
0.1250000000000005
 40
0.1250000000000005
 40
0.1875000000000008
 40
0.1875000000000008
 40
0.2187500000000009
 40
0.2187500000000009
 40
0.2500000000000009
 40
0.2500000000000009
 40
0.281250000000001
 40
0.281250000000001
 40
0.3125000000000011
 40
0.3125000000000011
 40
0.3437500000000012
 40
0.3437500000000012
 40
0.3750000000000012
 40
0.3750000000000012
 40
0.4375000000000013
 40
0.4375000000000013
 40
0.4687500000000014
 40
0.4687500000000014
 40
0.5000000000000014
 40
0.5000000000000014
 40
0.5312500000000016
 40
0.5312500000000016
 40
0.5625000000000016
 40
0.5625000000000016
 40
0.5937500000000017
 40
0.5937500000000017
 40
0.6250000000000017
 40
0.6250000000000017
 40
0.6562500000000014
 40
0.6562500000000014
 40
0.6875000000000012
 40
0.6875000000000012
 40
0.718750000000001
 40
0.718750000000001
 40
0.7500000000000008
 40
0.7500000000000008
 40
0.7812500000000007
 40
0.7812500000000007
 40
0.8125000000000004
 40
0.8125000000000004
 40
0.8749999999999999
 40
0.8749999999999999
 40
0.9062499999999999
 40
0.9062499999999999
 40
0.9375
 40
0.9375
 40
0.96875
 40
0.96875
 40
1.0
 40
1.0
 40
1.0
 40
1.0
 10
186.4735728952772
 20
111.0777464484389
 30
0.0
 10
186.3323746712973
 20
111.0777464484389
 30
0.0
 10
186.1940967942836
 20
111.0882143848224
 30
0.0
 10
185.9229307230757
 20
111.1292378657578
 30
0.0
 10
185.7887273956162
 20
111.1603643191735
 30
0.0
 10
185.409664215826
 20
111.2817383070852
 30
0.0
 10
185.1806572941322
 20
111.4018930810934
 30
0.0
 10
184.7996266751294
 20
111.7106719801162
 30
0.0
 10
184.6440035982078
 20
111.9028411482801
 30
0.0
 10
184.4849331216392
 20
112.2328254601183
 30
0.0
 10
184.4432059764958
 20
112.3523248234304
 30
0.0
 10
184.3879352753538
 20
112.5989092225861
 30
0.0
 10
184.373855343864
 20
112.7260811530233
 30
0.0
 10
184.3732987775428
 20
112.9885703457194
 30
0.0
 10
184.3872880549634
 20
113.1237127144164
 30
0.0
 10
184.441769574199
 20
113.3881978077762
 30
0.0
 10
184.4826200323539
 20
113.5203477120222
 30
0.0
 10
184.5892339992133
 20
113.777043462944
 30
0.0
 10
184.6539861414864
 20
113.899781347398
 30
0.0
 10
184.805544683439
 20
114.1341520961563
 30
0.0
 10
184.892882806612
 20
114.2459695971698
 30
0.0
 10
185.1786592275736
 20
114.5511530622981
 30
0.0
 10
185.4081955760394
 20
114.7219673814779
 30
0.0
 10
185.7845137120336
 20
114.8984777444519
 30
0.0
 10
185.9168466203943
 20
114.9449625516457
 30
0.0
 10
186.1908792793851
 20
115.0080662643858
 30
0.0
 10
186.3289044390073
 20
115.0240239541301
 30
0.0
 10
186.606975820226
 20
115.0248698229918
 30
0.0
 10
186.7486887588963
 20
115.0091451480187
 30
0.0
 10
187.0211110145767
 20
114.9477047055195
 30
0.0
 10
187.1529391590738
 20
114.9023830618331
 30
0.0
 10
187.4083380546784
 20
114.7838352588321
 30
0.0
 10
187.5285040578677
 20
114.7121481756158
 30
0.0
 10
187.753675470424
 20
114.5474196096174
 30
0.0
 10
187.8598265317583
 20
114.4531603365825
 30
0.0
 10
188.0512738204606
 20
114.2495956624388
 30
0.0
 10
188.13720783438
 20
114.1401283721996
 30
0.0
 10
188.2896201524201
 20
113.9060307697157
 30
0.0
 10
188.3558036427075
 20
113.7811365468178
 30
0.0
 10
188.4619853412586
 20
113.527404795283
 30
0.0
 10
188.5029654044744
 20
113.3972351104993
 30
0.0
 10
188.5590455452718
 20
113.1301714153705
 30
0.0
 10
188.5732697207131
 20
112.9962181853552
 30
0.0
 10
188.5738664045846
 20
112.7347614428872
 30
0.0
 10
188.5600978370861
 20
112.6046440734998
 30
0.0
 10
188.5052477701441
 20
112.3564532180159
 30
0.0
 10
188.4647512568676
 20
112.2390977269352
 30
0.0
 10
188.3052887856914
 20
111.9053486051955
 30
0.0
 10
188.1506203613773
 20
111.7135090332695
 30
0.0
 10
187.8623123300326
 20
111.4793864652997
 30
0.0
 10
187.7582875146848
 20
111.4112300559365
 30
0.0
 10
187.533868256506
 20
111.2925191167125
 30
0.0
 10
187.4119374686455
 20
111.2415971803441
 30
0.0
 10
187.1594803172195
 20
111.1606473455225
 30
0.0
 10
187.0285937873024
 20
111.1301120265235
 30
0.0
 10
186.7566528695895
 20
111.088553997779
 30
0.0
 10
186.6147711192571
 20
111.0777464484389
 30
0.0
 10
186.4735728952772
 20
111.0777464484389
 30
0.0
  0
SPLINE
  5
FB
330
1F
100
AcDbEntity
  8
0
  6
HIDDEN
 62
     7
370
     0
100
AcDbSpline
210
0.0
220
0.0
230
1.0
 70
     8
 71
     3
 72
     8
 73
     4
 74
     0
 42
0.000000001
 43
0.00000001
 40
0.0
 40
0.0
 40
0.0
 40
0.0
 40
1.0
 40
1.0
 40
1.0
 40
1.0
 10
185.6503927191178
 20
104.546319048188
 30
0.0
 10
185.861820109119
 20
104.5388095384055
 30
0.0
 10
186.0642886556518
 20
104.4846860087709
 30
0.0
 10
186.2504992547891
 20
104.3999577215457
 30
0.0
  0
SPLINE
  5
FC
330
1F
100
AcDbEntity
  8
0
  6
HIDDEN
 62
     7
370
     0
100
AcDbSpline
210
0.0
220
0.0
230
1.0
 70
     8
 71
     3
 72
     8
 73
     4
 74
     0
 42
0.000000001
 43
0.00000001
 40
0.0
 40
0.0
 40
0.0
 40
0.0
 40
1.0
 40
1.0
 40
1.0
 40
1.0
 10
186.2504992547891
 20
100.4755789536114
 30
0.0
 10
186.0639749055047
 20
100.5978993695119
 30
0.0
 10
185.861420006979
 20
100.7389845301766
 30
0.0
 10
185.6503927191178
 20
100.9154681659615
 30
0.0
  0
LINE
  5
FD
330
1F
100
AcDbEntity
  8
0
  6
HIDDEN
 62
     7
370
     0
100
AcDbLine
 10
175.6451457157
 20
79.0148395816
 30
0.0
 11
175.4735728144
 21
79.0148395816
 31
0.0
  0
ELLIPSE
  5
FE
330
1F
100
AcDbEntity
  8
0
  6
HIDDEN
 62
     7
370
     0
100
AcDbEllipse
 10
175.6451457705
 20
77.0148410837
 30
0.0
 11
0.0
 21
2.000000000000014
 31
0.0
210
0.0
220
0.0
230
1.0
 40
0.4142135624
 41
4.712388980384695
 42
6.283185307179586
  0
LINE
  5
FF
330
1F
100
AcDbEntity
  8
0
  6
HIDDEN
 62
     7
370
     0
100
AcDbLine
 10
175.4735728144
 20
151.8148425738
 30
0.0
 11
175.6451457157
 21
151.8148425738
 31
0.0
  0
ELLIPSE
  5
100
330
1F
100
AcDbEntity
  8
0
  6
HIDDEN
 62
     7
370
     0
100
AcDbEllipse
 10
175.6451457705
 20
153.8148410837
 30
0.0
 11
0.0
 21
2.0
 31
0.0
210
0.0
220
0.0
230
1.0
 40
0.4142135624
 41
3.141592653589793
 42
4.712388980384695
  0
LINE
  5
101
330
1F
100
AcDbEntity
  8
0
  6
HIDDEN
 62
     7
370
     0
100
AcDbLine
 10
176.4735727455
 20
68.1289266566
 30
0.0
 11
175.6892328966
 21
67.6813851813
 31
0.0
  0
LINE
  5
102
330
1F
100
AcDbEntity
  8
0
  6
HIDDEN
 62
     7
370
     0
100
AcDbLine
 10
175.7634418435
 20
161.0250044385
 30
0.0
 11
176.4735727455
 21
160.3148747007
 31
0.0
  0
LINE
  5
103
330
1F
100
AcDbEntity
  8
0
  6
HIDDEN
 62
     7
370
     0
100
AcDbLine
 10
175.6451457157
 20
151.8148425738
 30
0.0
 11
191.3235731307
 21
151.8148425738
 31
0.0
  0
LINE
  5
104
330
1F
100
AcDbEntity
  8
0
  6
HIDDEN
 62
     7
370
     0
100
AcDbLine
 10
191.3235731307
 20
79.0148395816
 30
0.0
 11
175.6451457157
 21
79.0148395816
 31
0.0
  0
LINE
  5
105
330
1F
100
AcDbEntity
  8
0
  6
HIDDEN
 62
     7
370
     0
100
AcDbLine
 10
176.4735727455
 20
160.3148747007
 30
0.0
 11
180.6969022263
 21
160.3148747007
 31
0.0
  0
LINE
  5
106
330
1F
100
AcDbEntity
  8
0
  6
HIDDEN
 62
     7
370
     0
100
AcDbLine
 10
186.0502440367
 20
160.3148747007
 30
0.0
 11
191.3235731307
 21
160.3148747007
 31
0.0
  0
LINE
  5
107
330
1F
100
AcDbEntity
  8
0
  6
HIDDEN
 62
     7
370
     0
100
AcDbLine
 10
176.4735727455
 20
160.3148747007
 30
0.0
 11
176.4735727455
 21
153.8148429016
 31
0.0
  0
LINE
  5
108
330
1F
100
AcDbEntity
  8
0
  6
HIDDEN
 62
     7
370
     0
100
AcDbLine
 10
180.5935254205
 20
68.1289266566
 30
0.0
 11
176.4735727455
 21
68.1289266566
 31
0.0
  0
LINE
  5
109
330
1F
100
AcDbEntity
  8
0
  6
HIDDEN
 62
     7
370
     0
100
AcDbLine
 10
191.3235731307
 20
68.1289266566
 30
0.0
 11
186.1536208424
 21
68.1289266566
 31
0.0
  0
LINE
  5
10A
330
1F
100
AcDbEntity
  8
0
  6
HIDDEN
 62
     7
370
     0
100
AcDbLine
 10
176.4735727455
 20
68.1289266566
 30
0.0
 11
176.4735727455
 21
77.0148392538
 31
0.0
  0
LINE
  5
10B
330
1F
100
AcDbEntity
  8
0
  6
HIDDEN
 62
     7
370
     0
100
AcDbLine
 10
80.673572037
 20
101.8148408974
 30
0.0
 11
80.673572037
 21
126.8148412699
 31
0.0
  0
LINE
  5
10C
330
1F
100
AcDbEntity
  8
0
  6
HIDDEN
 62
     7
370
     0
100
AcDbLine
 10
83.9581753943
 20
103.8148412252
 30
0.0
 11
83.9581753943
 21
124.8148409421
 31
0.0
  0
CIRCLE
  5
10D
330
1F
100
AcDbEntity
  8
0
  6
HIDDEN
 62
     7
370
     0
100
AcDbCircle
 10
209.1235728953
 20
114.3148410837
 30
0.0
 40
2.625000000000014
  0
LINE
  5
10E
330
1F
100
AcDbEntity
  8
0
  6
HIDDEN
 62
     7
370
     0
100
AcDbLine
 10
132.6735731099
 20
103.8148412252
 30
0.0
 11
132.6735731099
 21
124.8148409421
 31
0.0
  0
LINE
  5
10F
330
1F
100
AcDbEntity
  8
0
  6
HIDDEN
 62
     7
370
     0
100
AcDbLine
 10
136.4289525781
 20
110.0648408527
 30
0.0
 11
136.4289525781
 21
118.5648413146
 31
0.0
  0
LINE
  5
110
330
1F
100
AcDbEntity
  8
0
  6
HIDDEN
 62
     7
370
     0
100
AcDbLine
 10
216.0355005298
 20
104.7898409659
 30
0.0
 11
216.0355005298
 21
106.1216927836
 31
0.0
  0
LINE
  5
111
330
1F
100
AcDbEntity
  8
0
  6
HIDDEN
 62
     7
370
     0
100
AcDbLine
 10
216.0355005298
 20
122.5079893837
 30
0.0
 11
216.0355005298
 21
123.8398412014
 31
0.0
  0
LINE
  5
112
330
1F
100
AcDbEntity
  8
0
  6
HIDDEN
 62
     7
370
     0
100
AcDbLine
 10
216.0764116678
 20
122.4891422088
 30
0.0
 11
216.0355005298
 21
122.5079893837
 31
0.0
  0
SPLINE
  5
113
330
1F
100
AcDbEntity
  8
0
  6
HIDDEN
 62
     7
370
     0
100
AcDbSpline
210
0.0
220
0.0
230
1.0
 70
     8
 71
     3
 72
     8
 73
     4
 74
     0
 42
0.000000001
 43
0.00000001
 40
0.0
 40
0.0
 40
0.0
 40
0.0
 40
1.0
 40
1.0
 40
1.0
 40
1.0
 10
215.9235728952772
 20
119.4283724387628
 30
0.0
 10
215.9567228412123
 20
119.5574557050969
 30
0.0
 10
215.990678209371
 20
119.6862715923993
 30
0.0
 10
216.0253757929575
 20
119.8148410836666
 30
0.0
  0
LINE
  5
114
330
1F
100
AcDbEntity
  8
0
  6
HIDDEN
 62
     7
370
     0
100
AcDbLine
 10
215.9235741827
 20
109.201309714
 30
0.0
 11
215.9235741827
 21
119.4283724534
 31
0.0
  0
SPLINE
  5
115
330
1F
100
AcDbEntity
  8
0
  6
HIDDEN
 62
     7
370
     0
100
AcDbSpline
210
0.0
220
0.0
230
1.0
 70
     8
 71
     3
 72
     8
 73
     4
 74
     0
 42
0.000000001
 43
0.00000001
 40
0.0
 40
0.0
 40
0.0
 40
0.0
 40
1.0
 40
1.0
 40
1.0
 40
1.0
 10
216.0253757929575
 20
108.8148410836666
 30
0.0
 10
215.9906735343723
 20
108.9434278978176
 30
0.0
 10
215.9567182527009
 20
109.0722443295367
 30
0.0
 10
215.9235728952772
 20
109.2013097285704
 30
0.0
  0
LINE
  5
116
330
1F
100
AcDbEntity
  8
0
  6
HIDDEN
 62
     7
370
     0
100
AcDbLine
 10
216.0355005298
 20
106.1216927836
 30
0.0
 11
216.0768773291
 21
106.1391774336
 31
0.0
  0
LINE
  5
117
330
1F
100
AcDbEntity
  8
0
  6
HIDDEN
 62
     7
370
     0
100
AcDbLine
 10
213.5235745344
 20
112.3305274876
 30
0.0
 11
213.5235745344
 21
116.2991546797
 31
0.0
  0
LINE
  5
118
330
1F
100
AcDbEntity
  8
0
  6
HIDDEN
 62
     7
370
     0
100
AcDbLine
 10
214.1915228102
 20
112.3305274876
 30
0.0
 11
214.1915228102
 21
116.2991546797
 31
0.0
  0
LINE
  5
119
330
1F
100
AcDbEntity
  8
0
  6
HIDDEN
 62
     7
370
     0
100
AcDbLine
 10
213.5235745344
 20
116.2991546797
 30
0.0
 11
214.1915228102
 21
116.2991546797
 31
0.0
  0
LINE
  5
11A
330
1F
100
AcDbEntity
  8
0
  6
HIDDEN
 62
     7
370
     0
100
AcDbLine
 10
213.5235745344
 20
119.8148410539
 30
0.0
 11
213.5235745344
 21
116.2991546797
 31
0.0
  0
SPLINE
  5
11B
330
1F
100
AcDbEntity
  8
0
  6
HIDDEN
 62
     7
370
     0
100
AcDbSpline
210
0.0
220
0.0
230
1.0
 70
     8
 71
     3
 72
    10
 73
     6
 74
     0
 42
0.000000001
 43
0.00000001
 40
0.0
 40
0.0
 40
0.0
 40
0.0
 40
0.5
 40
0.5
 40
1.0
 40
1.0
 40
1.0
 40
1.0
 10
214.1915220877083
 20
116.299154566965
 30
0.0
 10
214.3974883879613
 20
116.7785735696416
 30
0.0
 10
214.6599371164428
 20
117.2296181593924
 30
0.0
 10
215.2552834896306
 20
118.0963167457161
 30
0.0
 10
215.5811780823819
 20
118.5017741333061
 30
0.0
 10
215.9235728952772
 20
118.8905923880974
 30
0.0
  0
LINE
  5
11C
330
1F
100
AcDbEntity
  8
0
  6
HIDDEN
 62
     7
370
     0
100
AcDbLine
 10
213.5235745344
 20
122.5079893837
 30
0.0
 11
216.0355005298
 21
122.5079893837
 31
0.0
  0
LINE
  5
11D
330
1F
100
AcDbEntity
  8
0
  6
HIDDEN
 62
     7
370
     0
100
AcDbLine
 10
213.5235745344
 20
122.5148411239
 30
0.0
 11
213.5235745344
 21
119.8148410539
 31
0.0
  0
LINE
  5
11E
330
1F
100
AcDbEntity
  8
0
  6
HIDDEN
 62
     7
370
     0
100
AcDbLine
 10
213.5235745344
 20
106.1216927836
 30
0.0
 11
216.0355005298
 21
106.1216927836
 31
0.0
  0
LINE
  5
11F
330
1F
100
AcDbEntity
  8
0
  6
HIDDEN
 62
     7
370
     0
100
AcDbLine
 10
213.5235745344
 20
108.8148411135
 30
0.0
 11
213.5235745344
 21
106.1148410434
 31
0.0
  0
LINE
  5
120
330
1F
100
AcDbEntity
  8
0
  6
HIDDEN
 62
     7
370
     0
100
AcDbLine
 10
214.1915228102
 20
112.3305274876
 30
0.0
 11
213.5235745344
 21
112.3305274876
 31
0.0
  0
LINE
  5
121
330
1F
100
AcDbEntity
  8
0
  6
HIDDEN
 62
     7
370
     0
100
AcDbLine
 10
213.5235745344
 20
112.3305274876
 30
0.0
 11
213.5235745344
 21
108.8148411135
 31
0.0
  0
SPLINE
  5
122
330
1F
100
AcDbEntity
  8
0
  6
HIDDEN
 62
     7
370
     0
100
AcDbSpline
210
0.0
220
0.0
230
1.0
 70
     8
 71
     3
 72
    10
 73
     6
 74
     0
 42
0.000000001
 43
0.00000001
 40
0.0
 40
0.0
 40
0.0
 40
0.0
 40
0.5
 40
0.5
 40
1.0
 40
1.0
 40
1.0
 40
1.0
 10
215.9235728952772
 20
109.7390897792358
 30
0.0
 10
215.5803248163524
 20
110.1288769897355
 30
0.0
 10
215.2523731318826
 20
110.5374629095947
 30
0.0
 10
214.6610782872269
 20
111.3985425001141
 30
0.0
 10
214.398641168602
 20
111.8484253191922
 30
0.0
 10
214.1915220877083
 20
112.3305276003682
 30
0.0
  0
LINE
  5
123
330
1F
100
AcDbEntity
  8
0
  6
HIDDEN
 62
     7
370
     0
100
AcDbLine
 10
212.9235718284
 20
107.3148408676
 30
0.0
 11
212.9235718284
 21
121.3148412997
 31
0.0
  0
LINE
  5
124
330
1F
100
AcDbEntity
  8
0
  6
HIDDEN
 62
     7
370
     0
100
AcDbLine
 10
201.3735737536
 20
107.7148411194
 30
0.0
 11
201.3735737536
 21
120.9141677017
 31
0.0
  0
LINE
  5
125
330
1F
100
AcDbEntity
  8
0
  6
HIDDEN
 62
     7
370
     0
100
AcDbLine
 10
203.3735722188
 20
107.3148408676
 30
0.0
 11
203.3735722188
 21
121.3148412997
 31
0.0
  0
LINE
  5
126
330
1F
100
AcDbEntity
  8
0
  6
HIDDEN
 62
     7
370
     0
100
AcDbLine
 10
213.5235745344
 20
123.8398412014
 30
0.0
 11
213.5235745344
 21
122.5079893837
 31
0.0
  0
LINE
  5
127
330
1F
100
AcDbEntity
  8
0
  6
HIDDEN
 62
     7
370
     0
100
AcDbLine
 10
213.5235745344
 20
106.1216927836
 30
0.0
 11
213.5235745344
 21
104.7898409659
 31
0.0
  0
LINE
  5
128
330
1F
100
AcDbEntity
  8
0
  6
HIDDEN
 62
     7
370
     0
100
AcDbLine
 10
191.3735721145
 20
110.0648408527
 30
0.0
 11
191.3735721145
 21
118.5648413146
 31
0.0
  0
SPLINE
  5
129
330
1F
100
AcDbEntity
  8
0
  6
HIDDEN
 62
     7
370
     0
100
AcDbSpline
210
0.0
220
0.0
230
1.0
 70
    11
 71
     3
 72
    62
 73
    58
 74
     0
 42
0.000000001
 43
0.00000001
 40
0.0
 40
0.0
 40
0.0
 40
0.0
 40
0.0312500000000001
 40
0.0312500000000001
 40
0.0625000000000001
 40
0.0625000000000001
 40
0.1250000000000003
 40
0.1250000000000003
 40
0.1875000000000004
 40
0.1875000000000004
 40
0.2187500000000003
 40
0.2187500000000003
 40
0.2500000000000002
 40
0.2500000000000002
 40
0.2812500000000002
 40
0.2812500000000002
 40
0.3125000000000001
 40
0.3125000000000001
 40
0.3437500000000001
 40
0.3437500000000001
 40
0.3750000000000001
 40
0.3750000000000001
 40
0.4374999999999999
 40
0.4374999999999999
 40
0.4687499999999999
 40
0.4687499999999999
 40
0.4999999999999998
 40
0.4999999999999998
 40
0.5312499999999999
 40
0.5312499999999999
 40
0.5624999999999998
 40
0.5624999999999998
 40
0.5937499999999998
 40
0.5937499999999998
 40
0.6249999999999997
 40
0.6249999999999997
 40
0.6562499999999997
 40
0.6562499999999997
 40
0.6874999999999997
 40
0.6874999999999997
 40
0.7187499999999996
 40
0.7187499999999996
 40
0.7499999999999997
 40
0.7499999999999997
 40
0.7812499999999998
 40
0.7812499999999998
 40
0.8124999999999998
 40
0.8124999999999998
 40
0.8749999999999997
 40
0.8749999999999997
 40
0.9062499999999998
 40
0.9062499999999998
 40
0.9374999999999999
 40
0.9374999999999999
 40
0.9687499999999999
 40
0.9687499999999999
 40
1.0
 40
1.0
 40
1.0
 40
1.0
 10
186.4735728952772
 20
113.6052267115935
 30
0.0
 10
186.6147711192571
 20
113.6052267115935
 30
0.0
 10
186.7530489962708
 20
113.621238121585
 30
0.0
 10
187.0242150674787
 20
113.6829676872079
 30
0.0
 10
187.1584183949382
 20
113.7295054506626
 30
0.0
 10
187.5374815747284
 20
113.9064817793977
 30
0.0
 10
187.7664884964222
 20
114.0769080731068
 30
0.0
 10
188.1475191154249
 20
114.4827943505301
 30
0.0
 10
188.3031421923466
 20
114.7224647918661
 30
0.0
 10
188.4622126689152
 20
115.1029416191828
 30
0.0
 10
188.5039398140586
 20
115.2362103544878
 30
0.0
 10
188.5592105152006
 20
115.5011915901166
 30
0.0
 10
188.5732904466904
 20
115.6331569048345
 30
0.0
 10
188.5738470130116
 20
115.8958342146487
 30
0.0
 10
188.559857735591
 20
116.0262140786063
 30
0.0
 10
188.5053762163554
 20
116.2725580093295
 30
0.0
 10
188.4645257582004
 20
116.3912122793123
 30
0.0
 10
188.357911791341
 20
116.6140385460676
 30
0.0
 10
188.293159649068
 20
116.7167236570521
 30
0.0
 10
188.1416011071154
 20
116.9068469099654
 30
0.0
 10
188.0542629839424
 20
116.9943537011847
 30
0.0
 10
187.7684865629808
 20
117.2266211966334
 30
0.0
 10
187.538950214515
 20
117.347069939276
 30
0.0
 10
187.1626320785208
 20
117.4681665315776
 30
0.0
 10
187.0302991701601
 20
117.4992746650139
 30
0.0
 10
186.7562665111693
 20
117.5412219045695
 30
0.0
 10
186.6182413515471
 20
117.5516521391791
 30
0.0
 10
186.3401699703284
 20
117.552208038046
 30
0.0
 10
186.198457031658
 20
117.5419295792159
 30
0.0
 10
185.9260347759777
 20
117.5011063945227
 30
0.0
 10
185.7942066314806
 20
117.470813058648
 30
0.0
 10
185.538807735876
 20
117.3895458683571
 30
0.0
 10
185.4186417326868
 20
117.3395980174988
 30
0.0
 10
185.1934703201304
 20
117.2212768063008
 30
0.0
 10
185.0873192587961
 20
117.1519836972182
 30
0.0
 10
184.8958719700938
 20
116.9971690486245
 30
0.0
 10
184.8099379561743
 20
116.9115830607538
 30
0.0
 10
184.6575256381343
 20
116.7218993886768
 30
0.0
 10
184.5913421478468
 20
116.6174781276062
 30
0.0
 10
184.4851604492958
 20
116.3974467877989
 30
0.0
 10
184.4441803860799
 20
116.2807983016894
 30
0.0
 10
184.3881002452826
 20
116.0323969207002
 30
0.0
 10
184.3738760698413
 20
115.903286931896
 30
0.0
 10
184.3732793859698
 20
115.6420318660639
 30
0.0
 10
184.3870479534682
 20
115.5072255753912
 30
0.0
 10
184.4418980204103
 20
115.2407704610368
 30
0.0
 10
184.4823945336868
 20
115.1100365263382
 30
0.0
 10
184.6418570048629
 20
114.7256210723346
 30
0.0
 10
184.7965254291771
 20
114.4864620404578
 30
0.0
 10
185.0848334605217
 20
114.1788026810139
 30
0.0
 10
185.1888582758696
 20
114.0861295642497
 30
0.0
 10
185.4132775340483
 20
113.9209867216101
 30
0.0
 10
185.5352083219088
 20
113.8479458529309
 30
0.0
 10
185.7876654733348
 20
113.7299239366585
 30
0.0
 10
185.918552003252
 20
113.6842762310408
 30
0.0
 10
186.1904929209648
 20
113.6217557915736
 30
0.0
 10
186.3323746712973
 20
113.6052267115935
 30
0.0
 10
186.4735728952772
 20
113.6052267115935
 30
0.0
  0
SPLINE
  5
12A
330
1F
100
AcDbEntity
  8
0
  6
HIDDEN
 62
     7
370
     0
100
AcDbSpline
210
0.0
220
0.0
230
1.0
 70
     8
 71
     3
 72
     8
 73
     4
 74
     0
 42
0.000000001
 43
0.00000001
 40
0.0
 40
0.0
 40
0.0
 40
0.0
 40
1.0
 40
1.0
 40
1.0
 40
1.0
 10
185.6503927191177
 20
124.0833631191453
 30
0.0
 10
185.861820109119
 20
124.0908726289278
 30
0.0
 10
186.0642886556517
 20
124.1449961585624
 30
0.0
 10
186.250499254789
 20
124.2297244457876
 30
0.0
  0
ELLIPSE
  5
12B
330
1F
100
AcDbEntity
  8
0
  6
HIDDEN
 62
     7
370
     0
100
AcDbEllipse
 10
186.4735728953
 20
126.045351195
 30
0.0
 11
-1.760776919379026
 21
2.232245799914466
 31
0.0
210
0.0
220
0.0
230
1.0
 40
0.5126701559
 41
5.395150933160684
 42
8.323890913123133
  0
SPLINE
  5
12C
330
1F
100
AcDbEntity
  8
0
  6
HIDDEN
 62
     7
370
     0
100
AcDbSpline
210
0.0
220
0.0
230
1.0
 70
     8
 71
     3
 72
     8
 73
     4
 74
     0
 42
0.000000001
 43
0.00000001
 40
0.0
 40
0.0
 40
0.0
 40
0.0
 40
1.0
 40
1.0
 40
1.0
 40
1.0
 10
186.25049925479
 20
128.1541032137223
 30
0.0
 10
186.0639749055051
 20
128.0317827978215
 30
0.0
 10
185.8614200069789
 20
127.8906976371564
 30
0.0
 10
185.650392719117
 20
127.714214001371
 30
0.0
  0
ELLIPSE
  5
12D
330
1F
100
AcDbEntity
  8
0
  6
HIDDEN
 62
     7
370
     0
100
AcDbEllipse
 10
186.4735728953
 20
126.045351195
 30
0.0
 11
1.760776919379083
 21
1.388886188042946
 31
0.0
210
0.0
220
0.0
230
1.0
 40
0.8239737799
 41
1.397255033323979
 42
3.733259041931058
  0
LWPOLYLINE
  5
12E
330
1F
100
AcDbEntity
  8
0
  6
HIDDEN
 62
     7
370
     0
100
AcDbPolyline
 90
       21
 70
   128
 43
0.0
 10
186.4735729877
 20
125.7997778947
 10
187.1225083131
 20
125.8963607023
 10
187.707921851
 20
126.1766552696
 10
188.1725083921
 20
126.6132239024
 10
188.4707923863
 20
127.1633328641
 10
188.5735731456
 20
127.7731321523
 10
188.4707923863
 20
128.3829323719
 10
188.1725083921
 20
128.9330413336
 10
187.707921851
 20
129.3696099664
 10
187.1225083131
 20
129.6499045337
 10
186.4735729877
 20
129.7464873413
 10
185.8246376622
 20
129.6499045337
 10
185.2392241243
 20
129.3696099664
 10
184.7746375832
 20
128.9330413336
 10
184.4763545204
 20
128.3829323719
 10
184.3735728297
 20
127.7731321523
 10
184.4763545204
 20
127.1633328641
 10
184.7746375832
 20
126.6132239024
 10
185.2392241243
 20
126.1766552696
 10
185.8246376622
 20
125.8963607023
 10
186.4735729877
 20
125.7997778947
  0
LINE
  5
12F
330
1F
100
AcDbEntity
  8
0
  6
HIDDEN
 62
     7
370
     0
100
AcDbLine
 10
181.4635725576
 20
149.7078854362
 30
0.0
 11
181.4635725576
 21
144.1648415992
 31
0.0
  0
LINE
  5
130
330
1F
100
AcDbEntity
  8
0
  6
HIDDEN
 62
     7
370
     0
100
AcDbLine
 10
185.283572774
 20
149.7078854362
 30
0.0
 11
185.283572774
 21
144.1648415992
 31
0.0
  0
SPLINE
  5
131
330
1F
100
AcDbEntity
  8
0
  6
HIDDEN
 62
     7
370
     0
100
AcDbSpline
210
0.0
220
0.0
230
1.0
 70
     8
 71
     3
 72
    14
 73
    10
 74
     0
 42
0.000000001
 43
0.00000001
 40
0.0
 40
0.0
 40
0.0
 40
0.0
 40
0.25
 40
0.25
 40
0.5
 40
0.5
 40
0.75
 40
0.75
 40
1.0
 40
1.0
 40
1.0
 40
1.0
 10
184.483572895277
 20
131.2901306406004
 30
0.0
 10
184.5579984474116
 20
131.3809880953821
 30
0.0
 10
184.6398767070251
 20
131.4701986785878
 30
0.0
 10
184.8128628532006
 20
131.6456229973797
 30
0.0
 10
184.9035346730617
 20
131.7311579530064
 30
0.0
 10
185.070898222406
 20
131.8920095659449
 30
0.0
 10
185.1473490473725
 20
131.9677416548414
 30
0.0
 10
185.2536421322109
 20
132.0993326784168
 30
0.0
 10
185.2835728952772
 20
132.1563328533231
 30
0.0
 10
185.2835728952772
 20
132.1985301262752
 30
0.0
  0
LINE
  5
132
330
1F
100
AcDbEntity
  8
0
  6
HIDDEN
 62
     7
370
     0
100
AcDbLine
 10
185.283572774
 20
100.5175793315
 30
0.0
 11
185.283572774
 21
96.3855385552
 31
0.0
  0
SPLINE
  5
133
330
1F
100
AcDbEntity
  8
0
  6
HIDDEN
 62
     7
370
     0
100
AcDbSpline
210
0.0
220
0.0
230
1.0
 70
     8
 71
     3
 72
    14
 73
    10
 74
     0
 42
0.000000001
 43
0.00000001
 40
0.0
 40
0.0
 40
0.0
 40
0.0
 40
0.25
 40
0.25
 40
0.5
 40
0.5
 40
0.75
 40
0.75
 40
1.0
 40
1.0
 40
1.0
 40
1.0
 10
185.2835728952772
 20
128.0664889276437
 30
0.0
 10
185.2835728952772
 20
128.0239885099892
 30
0.0
 10
185.2538594364604
 20
127.9967166035065
 30
0.0
 10
185.1477780695683
 20
127.9831638295393
 30
0.0
 10
185.0714111404037
 20
127.9976093866803
 30
0.0
 10
184.9026515958753
 20
128.0699855507002
 30
0.0
 10
184.8118547834034
 20
128.1270584858176
 30
0.0
 10
184.6402898431961
 20
128.2682164193345
 30
0.0
 10
184.5582286029015
 20
128.3527936344181
 30
0.0
 10
184.483572895277
 20
128.4461667975473
 30
0.0
  0
LINE
  5
134
330
1F
100
AcDbEntity
  8
0
  6
HIDDEN
 62
     7
370
     0
100
AcDbLine
 10
180.1404118422
 20
152.8259198884
 30
0.0
 11
180.1404118422
 21
144.1648415992
 31
0.0
  0
LINE
  5
135
330
1F
100
AcDbEntity
  8
0
  6
HIDDEN
 62
     7
370
     0
100
AcDbLine
 10
186.6067344207
 20
100.0176938022
 30
0.0
 11
186.6067344207
 21
95.3259002189
 31
0.0
  0
LINE
  5
136
330
1F
100
AcDbEntity
  8
0
  6
HIDDEN
 62
     7
370
     0
100
AcDbLine
 10
186.6067344207
 20
152.8259198884
 30
0.0
 11
186.6067344207
 21
144.1648415992
 31
0.0
  0
ARC
  5
137
330
1F
100
AcDbEntity
  8
0
  6
HIDDEN
 62
     7
370
     0
100
AcDbCircle
 10
186.7196256572
 20
126.884828759
 30
0.0
 40
1.353195702694764
100
AcDbArc
 50
110.2844232439
 51
142.1998959299
  0
ARC
  5
138
330
1F
100
AcDbEntity
  8
0
  6
HIDDEN
 62
     7
370
     0
100
AcDbCircle
 10
185.7769734267
 20
124.8678113139
 30
0.0
 40
0.794594954225782
100
AcDbArc
 50
260.8336111241
 51
306.5791809456
  0
LWPOLYLINE
  5
139
330
1F
100
AcDbEntity
  8
0
  6
HIDDEN
 62
     7
370
     0
100
AcDbPolyline
 90
       21
 70
   128
 43
0.0
 10
176.5083357576
 20
127.0277928332
 10
176.6711793724
 20
126.5505505497
 10
176.9310737844
 20
126.2304056207
 10
177.2625785205
 20
126.0986970509
 10
177.6332430426
 20
126.1683162073
 10
178.0067853514
 20
126.432449534
 10
178.3466393944
 20
126.8652407224
 10
178.6195378635
 20
127.4243257711
 10
178.7987685647
 20
128.0549764405
 10
178.8667863119
 20
128.6954618762
 10
178.8169335458
 20
129.2830863739
 10
178.6540894653
 20
129.7603286574
 10
178.3941950533
 20
130.0804726551
 10
178.0626907829
 20
130.2121821562
 10
177.6920257952
 20
130.1425620685
 10
177.318483952
 20
129.8784296731
 10
176.9786299091
 20
129.4456384847
 10
176.7057309743
 20
128.886553436
 10
176.5265002731
 20
128.2559018353
 10
176.4584825258
 20
127.6154163996
 10
176.5083357576
 20
127.0277928332
  0
LWPOLYLINE
  5
13A
330
1F
100
AcDbEntity
  8
0
  6
HIDDEN
 62
     7
370
     0
100
AcDbPolyline
 90
       25
 70
   128
 43
0.0
 10
175.7453038707
 20
126.6087768371
 10
175.9287387948
 20
126.0266070957
 10
176.2120494503
 20
125.5938922758
 10
176.5759288218
 20
125.3401227067
 10
176.9955790486
 20
125.2825911859
 10
177.4424015429
 20
125.425219513
 10
177.8859462473
 20
125.7582865427
 10
178.2959856909
 20
126.2590950126
 10
178.6445774022
 20
126.8935156757
 10
178.9079647395
 20
127.6183137441
 10
179.0681987885
 20
128.3840946624
 10
179.1143593263
 20
129.1386736328
 10
179.0433008108
 20
129.8306258167
 10
178.8598656539
 20
130.4127946267
 10
178.5765549984
 20
130.8455094466
 10
178.2126756269
 20
131.0992799471
 10
177.7930254001
 20
131.1568114678
 10
177.3462029058
 20
131.0141831408
 10
176.9026582014
 20
130.6811161111
 10
176.4926182922
 20
130.1803067098
 10
176.1440270465
 20
129.545886978
 10
175.8806394763
 20
128.8210889096
 10
175.720405893
 20
128.05530706
 10
175.6742453553
 20
127.3007290209
 10
175.7453038707
 20
126.6087768371
  0
LWPOLYLINE
  5
13B
330
1F
100
AcDbEntity
  8
0
  6
HIDDEN
 62
     7
370
     0
100
AcDbPolyline
 90
       23
 70
   128
 43
0.0
 10
186.4735729877
 20
125.473694853
 10
187.1779043112
 20
125.568855531
 10
187.8251753632
 20
125.8466271455
 10
188.3629470948
 20
126.2845070804
 10
188.747652236
 20
126.8470203275
 10
188.9481268707
 20
127.488596342
 10
188.9481268707
 20
128.1572570796
 10
188.747652236
 20
128.798833094
 10
188.3629470948
 20
129.3613463412
 10
187.8251753632
 20
129.7992262761
 10
187.1779043112
 20
130.0769969592
 10
186.4735729877
 20
130.1721576373
 10
185.7692416642
 20
130.0769969592
 10
185.1219706122
 20
129.7992262761
 10
184.5841988805
 20
129.3613463412
 10
184.199492808
 20
128.798833094
 10
183.9990191046
 20
128.1572570796
 10
183.9990191046
 20
127.488596342
 10
184.199492808
 20
126.8470203275
 10
184.5841988805
 20
126.2845070804
 10
185.1219706122
 20
125.8466271455
 10
185.7692416642
 20
125.568855531
 10
186.4735729877
 20
125.473694853
  0
SPLINE
  5
13C
330
1F
100
AcDbEntity
  8
0
  6
HIDDEN
 62
     7
370
     0
100
AcDbSpline
210
0.0
220
0.0
230
1.0
 70
     8
 71
     3
 72
    34
 73
    30
 74
     0
 42
0.000000001
 43
0.00000001
 40
0.0
 40
0.0
 40
0.0
 40
0.0
 40
0.0624999999999983
 40
0.0624999999999983
 40
0.1249999999999966
 40
0.1249999999999966
 40
0.1874999999999949
 40
0.1874999999999949
 40
0.2499999999999937
 40
0.2499999999999937
 40
0.3124999999999935
 40
0.3124999999999935
 40
0.3749999999999933
 40
0.3749999999999933
 40
0.4999999999999938
 40
0.4999999999999938
 40
0.6249999999999942
 40
0.6249999999999942
 40
0.6874999999999952
 40
0.6874999999999952
 40
0.7499999999999961
 40
0.7499999999999961
 40
0.8124999999999971
 40
0.8124999999999971
 40
0.8749999999999981
 40
0.8749999999999981
 40
0.937499999999999
 40
0.937499999999999
 40
1.0
 40
1.0
 40
1.0
 40
1.0
 10
186.6067344027391
 20
133.3037814716678
 30
0.0
 10
186.766126230527
 20
133.295941375745
 30
0.0
 10
186.9221287139705
 20
133.2742827276546
 30
0.0
 10
187.2276382300478
 20
133.2044345001618
 30
0.0
 10
187.37853256506
 20
133.1556087978335
 30
0.0
 10
187.6664319097508
 20
133.0326848444262
 30
0.0
 10
187.8023783127105
 20
132.9593773362919
 30
0.0
 10
188.0585609283025
 20
132.7893667125205
 30
0.0
 10
188.1797432160616
 20
132.6914929203191
 30
0.0
 10
188.3968892879344
 20
132.4789087448871
 30
0.0
 10
188.4938511608947
 20
132.3638628063575
 30
0.0
 10
188.6644135967203
 20
132.1160016862374
 30
0.0
 10
188.7376536499322
 20
131.9829681891718
 30
0.0
 10
188.9125341066811
 20
131.5734601730417
 30
0.0
 10
188.973572067657
 20
131.2754995232666
 30
0.0
 10
188.9735737228801
 20
130.6840579673922
 30
0.0
 10
188.9125391132938
 20
130.3838844174155
 30
0.0
 10
188.7376493458919
 20
129.9686531371478
 30
0.0
 10
188.6644056404675
 20
129.833298018901
 30
0.0
 10
188.4938449247308
 20
129.5803986875143
 30
0.0
 10
188.3968812091373
 20
129.4626334099066
 30
0.0
 10
188.1797208805502
 20
129.2445031145379
 30
0.0
 10
188.0585396218633
 20
129.143799789391
 30
0.0
 10
187.8023693949246
 20
128.9685560965577
 30
0.0
 10
187.6664260452619
 20
128.8928111274672
 30
0.0
 10
187.3785233420788
 20
128.7656427521649
 30
0.0
 10
187.227633146162
 20
128.7150414798374
 30
0.0
 10
186.9221276424564
 20
128.6426123800895
 30
0.0
 10
186.7661262441929
 20
128.6201266086926
 30
0.0
 10
186.6067344027391
 20
128.6119881487977
 30
0.0
  0
SPLINE
  5
13D
330
1F
100
AcDbEntity
  8
0
  6
HIDDEN
 62
     7
370
     0
100
AcDbSpline
210
0.0
220
0.0
230
1.0
 70
     8
 71
     3
 72
    10
 73
     6
 74
     0
 42
0.000000001
 43
0.00000001
 40
0.0
 40
0.0
 40
0.0
 40
0.0
 40
0.5
 40
0.5
 40
1.0
 40
1.0
 40
1.0
 40
1.0
 10
186.6067344027391
 20
128.6119881487977
 30
0.0
 10
186.3840073758657
 20
128.468499648504
 30
0.0
 10
186.1623214886406
 20
128.3537789027711
 30
0.0
 10
185.7211006507886
 20
128.1840184734132
 30
0.0
 10
185.5015420033897
 20
128.1285984790258
 30
0.0
 10
185.2835728952775
 20
128.1121031496562
 30
0.0
  0
SPLINE
  5
13E
330
1F
100
AcDbEntity
  8
0
  6
HIDDEN
 62
     7
370
     0
100
AcDbSpline
210
0.0
220
0.0
230
1.0
 70
     8
 71
     3
 72
    10
 73
     6
 74
     0
 42
0.000000001
 43
0.00000001
 40
0.0
 40
0.0
 40
0.0
 40
0.0
 40
0.5
 40
0.5
 40
1.0
 40
1.0
 40
1.0
 40
1.0
 10
185.2835728952775
 20
132.2441443482877
 30
0.0
 10
185.5004637277982
 20
132.4811832877362
 30
0.0
 10
185.7196163644571
 20
132.6833535227297
 30
0.0
 10
186.161100864726
 20
133.0341055942484
 30
0.0
 10
186.3843033299994
 20
133.1827816866453
 30
0.0
 10
186.6067344027391
 20
133.3037814716678
 30
0.0
  0
SPLINE
  5
13F
330
1F
100
AcDbEntity
  8
0
  6
HIDDEN
 62
     7
370
     0
100
AcDbSpline
210
0.0
220
0.0
230
1.0
 70
     8
 71
     3
 72
    16
 73
    12
 74
     0
 42
0.000000001
 43
0.00000001
 40
0.0
 40
0.0
 40
0.0
 40
0.0
 40
0.2500000000000002
 40
0.2500000000000002
 40
0.5000000000000003
 40
0.5000000000000003
 40
0.7500000000000004
 40
0.7500000000000004
 40
0.8750000000000002
 40
0.8750000000000002
 40
1.0
 40
1.0
 40
1.0
 40
1.0
 10
184.4835728952772
 20
128.4461667975471
 30
0.0
 10
184.318158788797
 20
128.6530530335724
 30
0.0
 10
184.1919614578214
 20
128.8789217313814
 30
0.0
 10
184.0175551594906
 20
129.3677909769941
 30
0.0
 10
183.9737251203937
 20
129.6195580303387
 30
0.0
 10
183.9734214474237
 20
130.1313373549209
 30
0.0
 10
184.017278307484
 20
130.3823920640036
 30
0.0
 10
184.1472000667512
 20
130.7432406321456
 30
0.0
 10
184.2013148781591
 20
130.8605134004942
 30
0.0
 10
184.3279918683025
 20
131.083002351833
 30
0.0
 10
184.4008655886634
 20
131.1891629600764
 30
0.0
 10
184.4835728952772
 20
131.2901306406007
 30
0.0
  0
LWPOLYLINE
  5
140
330
1F
100
AcDbEntity
  8
0
  6
HIDDEN
 62
     7
370
     0
100
AcDbPolyline
 90
       20
 70
   128
 43
0.0
 10
187.1509043384
 20
129.4690444837
 10
186.5099541727
 20
129.5809596548
 10
185.8650617186
 20
129.4912453512
 10
185.286110628
 20
129.2096245805
 10
184.8358394462
 20
128.7666139896
 10
184.5630420256
 20
128.2102213944
 10
184.4972804073
 20
127.6007406185
 10
184.6456810716
 20
127.0042182649
 10
184.9921619404
 20
126.4852965022
 10
185.499176744
 20
126.1002085874
 10
186.1117821071
 20
125.8906852225
 10
186.7635933567
 20
125.8794311205
 10
187.3839761946
 20
126.067666314
 10
187.9057031009
 20
126.4349920446
 10
188.272236276
 20
126.9416026542
 10
188.4438566748
 20
127.532599471
 10
188.4019657854
 20
128.1439391667
 10
188.151102874
 20
128.7093730415
 10
187.7184551093
 20
129.1676275203
 10
187.1509043384
 20
129.4690444837
  0
LWPOLYLINE
  5
141
330
1F
100
AcDbEntity
  8
0
  6
HIDDEN
 62
     7
370
     0
100
AcDbPolyline
 90
       23
 70
   128
 43
0.0
 10
187.3286230374
 20
130.0304829846
 10
186.6321325186
 20
130.1674283812
 10
185.9227962676
 20
130.1144379894
 10
185.2580806125
 20
129.8758014808
 10
184.6918374184
 20
129.4708540434
 10
184.2699399102
 20
128.9324005837
 10
184.026566695
 20
128.3040651823
 10
183.9814357344
 20
127.6367502058
 10
184.1382034007
 20
126.9845179985
 10
184.4841683168
 20
126.4002090091
 10
184.991303261
 20
125.9311605016
 10
185.6185229379
 20
125.6153713683
 10
186.3150134567
 20
125.4784250403
 10
187.0243487764
 20
125.5314163635
 10
187.6890644315
 20
125.7700519408
 10
188.2553085569
 20
126.1749993781
 10
188.6772069964
 20
126.7134528378
 10
188.920578349
 20
127.3417882393
 10
188.9657102409
 20
128.0091032157
 10
188.8089425746
 20
128.6613354231
 10
188.4629767272
 20
129.2456444124
 10
187.9558436457
 20
129.7146929199
 10
187.3286230374
 20
130.0304829846
  0
LWPOLYLINE
  5
142
330
1F
100
AcDbEntity
  8
0
  6
HIDDEN
 62
     7
370
     0
100
AcDbPolyline
 90
       23
 70
   128
 43
0.0
 10
187.3286230374
 20
130.6290179262
 10
186.6321325186
 20
130.7659633229
 10
185.9227962676
 20
130.712972931
 10
185.2580806125
 20
130.4743364225
 10
184.6918374184
 20
130.0693880538
 10
184.2699399102
 20
129.5309364567
 10
184.026566695
 20
128.902600124
 10
183.9814357344
 20
128.2352851475
 10
184.1382034007
 20
127.5830538715
 10
184.4841683168
 20
126.9987448821
 10
184.991303261
 20
126.5296954433
 10
185.6185229379
 20
126.21390631
 10
186.3150134567
 20
126.076959982
 10
187.0243487764
 20
126.1299513052
 10
187.6890644315
 20
126.3685878138
 10
188.2553085569
 20
126.7735352511
 10
188.6772069964
 20
127.3119877795
 10
188.920578349
 20
127.9403231809
 10
188.9657102409
 20
128.6076381574
 10
188.8089425746
 20
129.2598703647
 10
188.4629767272
 20
129.8441793541
 10
187.9558436457
 20
130.3132287929
 10
187.3286230374
 20
130.6290179262
  0
LWPOLYLINE
  5
143
330
1F
100
AcDbEntity
  8
0
  6
HIDDEN
 62
     7
370
     0
100
AcDbPolyline
 90
       20
 70
   128
 43
0.0
 10
187.1576135862
 20
131.3674766342
 10
186.5103145946
 20
131.4805000792
 10
185.8590341989
 20
131.3898972938
 10
185.2743489552
 20
131.1054862807
 10
184.819618601
 20
130.6580882291
 10
184.5441194135
 20
130.0961840669
 10
184.4777058694
 20
129.4806673894
 10
184.6275761608
 20
128.8782357941
 10
184.9774889532
 20
128.3541749934
 10
185.4895254481
 20
127.9652733127
 10
186.1081983778
 20
127.7536740298
 10
186.7664655555
 20
127.7423081691
 10
187.3929932598
 20
127.9324078704
 10
187.9198871437
 20
128.303371347
 10
188.2900506142
 20
128.8150008539
 10
188.463371608
 20
129.4118510331
 10
188.4210653487
 20
130.0292461882
 10
188.1677195314
 20
130.6002810369
 10
187.7307858202
 20
131.0630738507
 10
187.1576135862
 20
131.3674766342
  0
LWPOLYLINE
  5
144
330
1F
100
AcDbEntity
  8
0
  6
HIDDEN
 62
     7
370
     0
100
AcDbPolyline
 90
       20
 70
   128
 43
0.0
 10
187.1576135862
 20
129.9497000644
 10
186.5103145946
 20
130.0627235095
 10
185.8590341989
 20
129.9721207241
 10
185.2743489552
 20
129.6877106423
 10
184.819618601
 20
129.2403125907
 10
184.5441194135
 20
128.6784084285
 10
184.4777058694
 20
128.0628908197
 10
184.6275761608
 20
127.4604601557
 10
184.9774889532
 20
126.9363984237
 10
185.4895254481
 20
126.547496743
 10
186.1081983778
 20
126.3358983914
 10
186.7664655555
 20
126.3245325307
 10
187.3929932598
 20
126.514632232
 10
187.9198871437
 20
126.8855957086
 10
188.2900506142
 20
127.3972242842
 10
188.463371608
 20
127.9940753947
 10
188.4210653487
 20
128.6114696185
 10
188.1677195314
 20
129.1825044672
 10
187.7307858202
 20
129.6452982123
 10
187.1576135862
 20
129.9497000644
  0
LWPOLYLINE
  5
145
330
1F
100
AcDbEntity
  8
0
  6
HIDDEN
 62
     7
370
     0
100
AcDbPolyline
 90
       23
 70
   128
 43
0.0
 10
187.3286230374
 20
130.8650113414
 10
186.6321325186
 20
131.001956738
 10
185.9227962676
 20
130.9489663462
 10
185.2580806125
 20
130.7103298376
 10
184.6918374184
 20
130.3053833316
 10
184.2699399102
 20
129.7669298718
 10
184.026566695
 20
129.1385944704
 10
183.9814357344
 20
128.4712794939
 10
184.1382034007
 20
127.8190472866
 10
184.4841683168
 20
127.2347382972
 10
184.991303261
 20
126.7656897897
 10
185.6185229379
 20
126.4499006564
 10
186.3150134567
 20
126.3129543284
 10
187.0243487764
 20
126.3659456516
 10
187.6890644315
 20
126.6045812289
 10
188.2553085569
 20
127.0095286662
 10
188.6772069964
 20
127.547982126
 10
188.920578349
 20
128.1763175274
 10
188.9657102409
 20
128.8436325038
 10
188.8089425746
 20
129.4958637799
 10
188.4629767272
 20
130.0801727692
 10
187.9558436457
 20
130.549222208
 10
187.3286230374
 20
130.8650113414
  0
LWPOLYLINE
  5
146
330
1F
100
AcDbEntity
  8
0
  6
HIDDEN
 62
     7
370
     0
100
AcDbPolyline
 90
       22
 70
   128
 43
0.0
 10
187.2602192569
 20
130.5138878296
 10
186.5882187966
 20
130.6415423522
 10
185.9060305986
 20
130.5773965786
 10
185.2742716554
 20
130.3271483401
 10
184.7490765039
 20
129.9130329634
 10
184.3771090615
 20
129.3718479345
 10
184.1914228979
 20
128.7516793007
 10
184.2085154611
 20
128.1076315562
 10
184.426867764
 20
127.4969307477
 10
184.8270794261
 20
126.9738413165
 10
185.3735888261
 20
126.5848418469
 10
186.017836805
 20
126.3644955824
 10
186.7025786895
 20
126.3323826487
 10
187.3669730384
 20
126.4913556869
 10
187.9519842449
 20
126.8272893275
 10
188.4056333337
 20
127.3103346819
 10
188.6876080069
 20
127.8975698868
 10
188.7728575501
 20
128.5368185262
 10
188.6538065854
 20
129.1712792362
 10
188.341031212
 20
129.7445771987
 10
187.8623230267
 20
130.2057727943
 10
187.2602192569
 20
130.5138878296
  0
LWPOLYLINE
  5
147
330
1F
100
AcDbEntity
  8
0
  6
HIDDEN
 62
     7
370
     0
100
AcDbPolyline
 90
       23
 70
   128
 43
0.0
 10
187.3286230374
 20
131.1010047565
 10
186.6321325186
 20
131.2379520158
 10
185.9227962676
 20
131.1849597613
 10
185.2580806125
 20
130.9463251153
 10
184.6918374184
 20
130.5413767467
 10
184.2699399102
 20
130.0029232869
 10
184.026566695
 20
129.3745878855
 10
183.9814357344
 20
128.7072729091
 10
184.1382034007
 20
128.055041633
 10
184.4841683168
 20
127.4707326437
 10
184.991303261
 20
127.0016832049
 10
185.6185229379
 20
126.6858940715
 10
186.3150134567
 20
126.5489477436
 10
187.0243487764
 20
126.6019390667
 10
187.6890644315
 20
126.8405755753
 10
188.2553085569
 20
127.2455230127
 10
188.6772069964
 20
127.7839755411
 10
188.920578349
 20
128.4123109425
 10
188.9657102409
 20
129.0796259189
 10
188.8089425746
 20
129.7318581263
 10
188.4629767272
 20
130.3161661843
 10
187.9558436457
 20
130.7852156232
 10
187.3286230374
 20
131.1010047565
  0
LWPOLYLINE
  5
148
330
1F
100
AcDbEntity
  8
0
  6
HIDDEN
 62
     7
370
     0
100
AcDbPolyline
 90
       22
 70
   128
 43
0.0
 10
187.2602192569
 20
130.7498812447
 10
186.5882187966
 20
130.8775357673
 10
185.9060305986
 20
130.8133899937
 10
185.2742716554
 20
130.5631417552
 10
184.7490765039
 20
130.1490273098
 10
184.3771090615
 20
129.6078413496
 10
184.1914228979
 20
128.9876727159
 10
184.2085154611
 20
128.3436249713
 10
184.426867764
 20
127.7329250941
 10
184.8270794261
 20
127.2098356629
 10
185.3735888261
 20
126.820835262
 10
186.017836805
 20
126.6004899288
 10
186.7025786895
 20
126.5683769951
 10
187.3669730384
 20
126.7273500333
 10
187.9519842449
 20
127.0632836739
 10
188.4056333337
 20
127.5463280971
 10
188.6876080069
 20
128.1335642333
 10
188.7728575501
 20
128.7728119413
 10
188.6538065854
 20
129.4072726513
 10
188.341031212
 20
129.9805715451
 10
187.8623230267
 20
130.4417662094
 10
187.2602192569
 20
130.7498812447
  0
LWPOLYLINE
  5
149
330
1F
100
AcDbEntity
  8
0
  6
HIDDEN
 62
     7
370
     0
100
AcDbPolyline
 90
       23
 70
   128
 43
0.0
 10
187.3286230374
 20
131.3370000342
 10
186.6321325186
 20
131.4739454309
 10
185.9227962676
 20
131.4209531764
 10
185.2580806125
 20
131.1823185305
 10
184.6918374184
 20
130.7773701618
 10
184.2699399102
 20
130.2389185647
 10
184.026566695
 20
129.610582232
 10
183.9814357344
 20
128.9432672555
 10
184.1382034007
 20
128.2910350481
 10
184.4841683168
 20
127.7067260588
 10
184.991303261
 20
127.2376775513
 10
185.6185229379
 20
126.921888418
 10
186.3150134567
 20
126.78494209
 10
187.0243487764
 20
126.8379334132
 10
187.6890644315
 20
127.0765689904
 10
188.2553085569
 20
127.4815164278
 10
188.6772069964
 20
128.0199698875
 10
188.920578349
 20
128.6483052889
 10
188.9657102409
 20
129.3156202654
 10
188.8089425746
 20
129.9678515414
 10
188.4629767272
 20
130.5521614621
 10
187.9558436457
 20
131.0212090383
 10
187.3286230374
 20
131.3370000342
  0
LWPOLYLINE
  5
14A
330
1F
100
AcDbEntity
  8
0
  6
HIDDEN
 62
     7
370
     0
100
AcDbPolyline
 90
       22
 70
   128
 43
0.0
 10
187.2602192569
 20
130.9858746598
 10
186.5882187966
 20
131.1135291825
 10
185.9060305986
 20
131.0493834088
 10
185.2742716554
 20
130.7991351704
 10
184.7490765039
 20
130.3850207249
 10
184.3771090615
 20
129.8438356961
 10
184.1914228979
 20
129.2236670623
 10
184.2085154611
 20
128.5796193177
 10
184.426867764
 20
127.9689185093
 10
184.8270794261
 20
127.445829078
 10
185.3735888261
 20
127.0568296085
 10
186.017836805
 20
126.8364833439
 10
186.7025786895
 20
126.8043704102
 10
187.3669730384
 20
126.9633434484
 10
187.9519842449
 20
127.299277089
 10
188.4056333337
 20
127.7823224435
 10
188.6876080069
 20
128.3695576484
 10
188.7728575501
 20
129.0088062877
 10
188.6538065854
 20
129.6432669977
 10
188.341031212
 20
130.2165649603
 10
187.8623230267
 20
130.6777614871
 10
187.2602192569
 20
130.9858746598
  0
LWPOLYLINE
  5
14B
330
1F
100
AcDbEntity
  8
0
  6
HIDDEN
 62
     7
370
     0
100
AcDbPolyline
 90
       23
 70
   128
 43
0.0
 10
187.3286230374
 20
131.5729934494
 10
186.6321325186
 20
131.709938846
 10
185.9227962676
 20
131.6569484542
 10
185.2580806125
 20
131.4183119456
 10
184.6918374184
 20
131.0133635769
 10
184.2699399102
 20
130.4749119798
 10
184.026566695
 20
129.8465756471
 10
183.9814357344
 20
129.1792606706
 10
184.1382034007
 20
128.5270293946
 10
184.4841683168
 20
127.9427204052
 10
184.991303261
 20
127.4736709664
 10
185.6185229379
 20
127.1578818331
 10
186.3150134567
 20
127.0209355051
 10
187.0243487764
 20
127.0739268283
 10
187.6890644315
 20
127.3125633369
 10
188.2553085569
 20
127.7175107742
 10
188.6772069964
 20
128.2559633026
 10
188.920578349
 20
128.8842996354
 10
188.9657102409
 20
129.5516136805
 10
188.8089425746
 20
130.2038449565
 10
188.4629767272
 20
130.7881548772
 10
187.9558436457
 20
131.257204316
 10
187.3286230374
 20
131.5729934494
  0
LWPOLYLINE
  5
14C
330
1F
100
AcDbEntity
  8
0
  6
HIDDEN
 62
     7
370
     0
100
AcDbPolyline
 90
       22
 70
   128
 43
0.0
 10
187.2602192569
 20
131.2218680749
 10
186.5882187966
 20
131.3495244602
 10
185.9060305986
 20
131.2853768239
 10
185.2742716554
 20
131.0351285855
 10
184.7490765039
 20
130.62101414
 10
184.3771090615
 20
130.0798300425
 10
184.1914228979
 20
129.4596604774
 10
184.2085154611
 20
128.8156127328
 10
184.426867764
 20
128.2049128557
 10
184.8270794261
 20
127.6818234245
 10
185.3735888261
 20
127.2928230236
 10
186.017836805
 20
127.0724776904
 10
186.7025786895
 20
127.0403647567
 10
187.3669730384
 20
127.1993377949
 10
187.9519842449
 20
127.5352714355
 10
188.4056333337
 20
128.0183158586
 10
188.6876080069
 20
128.6055519948
 10
188.7728575501
 20
129.2447997028
 10
188.6538065854
 20
129.8792604128
 10
188.341031212
 20
130.4525583754
 10
187.8623230267
 20
130.9137549023
 10
187.2602192569
 20
131.2218680749
  0
LWPOLYLINE
  5
14D
330
1F
100
AcDbEntity
  8
0
  6
HIDDEN
 62
     7
370
     0
100
AcDbPolyline
 90
       23
 70
   128
 43
0.0
 10
187.3286230374
 20
131.7611038456
 10
186.6321325186
 20
131.8980511049
 10
185.9227962676
 20
131.8450588504
 10
185.2580806125
 20
131.6064223418
 10
184.6918374184
 20
131.2014758358
 10
184.2699399102
 20
130.6630223761
 10
184.026566695
 20
130.0346869747
 10
183.9814357344
 20
129.3673719982
 10
184.1382034007
 20
128.7151397909
 10
184.4841683168
 20
128.1308308015
 10
184.991303261
 20
127.661782294
 10
185.6185229379
 20
127.3459931607
 10
186.3150134567
 20
127.2090468327
 10
187.0243487764
 20
127.2620381559
 10
187.6890644315
 20
127.5006737331
 10
188.2553085569
 20
127.9056211705
 10
188.6772069964
 20
128.4440746302
 10
188.920578349
 20
129.0724100316
 10
188.9657102409
 20
129.7397250081
 10
188.8089425746
 20
130.3919572154
 10
188.4629767272
 20
130.9762652735
 10
187.9558436457
 20
131.4453147123
 10
187.3286230374
 20
131.7611038456
  0
LWPOLYLINE
  5
14E
330
1F
100
AcDbEntity
  8
0
  6
HIDDEN
 62
     7
370
     0
100
AcDbPolyline
 90
       22
 70
   128
 43
0.0
 10
187.2807400185
 20
131.6853631059
 10
186.5912092734
 20
131.8163499007
 10
185.8912253637
 20
131.7505296091
 10
185.2429857362
 20
131.4937527994
 10
184.7040889669
 20
131.0688350121
 10
184.322419006
 20
130.5135320643
 10
184.1318881023
 20
129.8771854261
 10
184.1494267691
 20
129.2163366223
 10
184.3734750408
 20
128.5897046099
 10
184.784126829
 20
128.0529694403
 10
185.3448938463
 20
127.6538213486
 10
186.005947541
 20
127.4277278925
 10
186.7085531238
 20
127.3947767685
 10
187.3902793858
 20
127.5578969861
 10
187.9905521754
 20
127.9025943721
 10
188.4560346488
 20
128.398240521
 10
188.7453667704
 20
129.0007950509
 10
188.8328384492
 20
129.6567199523
 10
188.7106805924
 20
130.3077302644
 10
188.3897468332
 20
130.8959852675
 10
187.8985514749
 20
131.3692126194
 10
187.2807400185
 20
131.6853631059
  0
ARC
  5
14F
330
1F
100
AcDbEntity
  8
0
  6
HIDDEN
 62
     7
370
     0
100
AcDbCircle
 10
186.4597435744
 20
99.0066048287
 30
0.0
 40
2.481198093993731
100
AcDbArc
 50
345.1059197262
 51
182.6037016399
  0
ARC
  5
150
330
1F
100
AcDbEntity
  8
0
  6
HIDDEN
 62
     7
370
     0
100
AcDbCircle
 10
186.4560110808
 20
98.9426031942
 30
0.0
 40
2.356430766252752
100
AcDbArc
 50
350.9620987549
 51
158.5806595779
  0
ARC
  5
151
330
1F
100
AcDbEntity
  8
0
  6
HIDDEN
 62
     7
370
     0
100
AcDbCircle
 10
186.4717920074
 20
98.9249770772
 30
0.0
 40
2.004443546558744
100
AcDbArc
 50
2.9533320278
 51
126.7970820365
  0
LWPOLYLINE
  5
152
330
1F
100
AcDbEntity
  8
0
  6
HIDDEN
 62
     7
370
     0
100
AcDbPolyline
 90
       23
 70
   128
 43
0.0
 10
185.6185229379
 20
97.056688718
 10
184.991303261
 20
97.3724778513
 10
184.4841683168
 20
97.8415272901
 10
184.1382034007
 20
98.4258372108
 10
183.9814357344
 20
99.0780684868
 10
184.026566695
 20
99.745382532
 10
184.2699399102
 20
100.3737188647
 10
184.6918374184
 20
100.9121713931
 10
185.2580806125
 20
101.3171188305
 10
185.9227962676
 20
101.555755339
 10
186.6321325186
 20
101.6087466622
 10
187.3286230374
 20
101.4718003342
 10
187.9558436457
 20
101.1560112009
 10
188.4629767272
 20
100.6869617621
 10
188.8089425746
 20
100.1026527727
 10
188.9657102409
 20
99.4504214967
 10
188.920578349
 20
98.7831065203
 10
188.6772069964
 20
98.1547701875
 10
188.2553085569
 20
97.6163185904
 10
187.6890644315
 20
97.2113702218
 10
187.0243487764
 20
96.9727337132
 10
186.3150134567
 20
96.9197433213
 10
185.6185229379
 20
97.056688718
  0
LWPOLYLINE
  5
153
330
1F
100
AcDbEntity
  8
0
  6
HIDDEN
 62
     7
370
     0
100
AcDbPolyline
 90
       20
 70
   128
 43
0.0
 10
185.7895323891
 20
98.6799821029
 10
185.2163601551
 20
98.9843839551
 10
184.7794264439
 20
99.4471777002
 10
184.5260796953
 20
100.0182125489
 10
184.4837743673
 20
100.6356067727
 10
184.6570944298
 20
101.2324578831
 10
185.0272579003
 20
101.7440864588
 10
185.5541517842
 20
102.1150499354
 10
186.1806794885
 20
102.3051496366
 10
186.8389466662
 20
102.2937837759
 10
187.4576205272
 20
102.0821854243
 10
187.9696570221
 20
101.6932837436
 10
188.3195698146
 20
101.1692220116
 10
188.4694401059
 20
100.5667913476
 10
188.4030274931
 20
99.9512737388
 10
188.1275273744
 20
99.3893695767
 10
187.6727970201
 20
98.941971525
 10
187.0881108451
 20
98.6575614432
 10
186.4368313808
 20
98.5669586579
 10
185.7895323891
 20
98.6799821029
  0
LWPOLYLINE
  5
154
330
1F
100
AcDbEntity
  8
0
  6
HIDDEN
 62
     7
370
     0
100
AcDbPolyline
 90
       23
 70
   128
 43
0.0
 10
185.6185229379
 20
97.2926821331
 10
184.991303261
 20
97.6084731291
 10
184.4841683168
 20
98.0775207052
 10
184.1382034007
 20
98.6618306259
 10
183.9814357344
 20
99.3140619019
 10
184.026566695
 20
99.9813768784
 10
184.2699399102
 20
100.6097122798
 10
184.6918374184
 20
101.1481657396
 10
185.2580806125
 20
101.5531131769
 10
185.9227962676
 20
101.7917487542
 10
186.6321325186
 20
101.8447400773
 10
187.3286230374
 20
101.7077937494
 10
187.9558436457
 20
101.392004616
 10
188.4629767272
 20
100.9229561085
 10
188.8089425746
 20
100.3386471192
 10
188.9657102409
 20
99.6864149118
 10
188.920578349
 20
99.0190999354
 10
188.6772069964
 20
98.3907636026
 10
188.2553085569
 20
97.8523120055
 10
187.6890644315
 20
97.4473636369
 10
187.0243487764
 20
97.2087289909
 10
186.3150134567
 20
97.1557367364
 10
185.6185229379
 20
97.2926821331
  0
LWPOLYLINE
  5
155
330
1F
100
AcDbEntity
  8
0
  6
HIDDEN
 62
     7
370
     0
100
AcDbPolyline
 90
       22
 70
   128
 43
0.0
 10
185.6869267184
 20
97.4078140924
 10
185.0848229486
 20
97.7159272651
 10
184.6061156947
 20
98.177123792
 10
184.2933403212
 20
98.7504217545
 10
184.1742874939
 20
99.3848824645
 10
184.2595370371
 20
100.0241301725
 10
184.541513573
 20
100.6113663087
 10
184.9951617304
 20
101.0944107319
 10
185.580172937
 20
101.4303443725
 10
186.2445672858
 20
101.5893174107
 10
186.9293091703
 20
101.557204477
 10
187.5735571492
 20
101.3368591438
 10
188.1200674806
 20
100.9478587429
 10
188.52027728
 20
100.4247693116
 10
188.7386314455
 20
99.8140694345
 10
188.7557230774
 20
99.1700216899
 10
188.5700359825
 20
98.5498521248
 10
188.1980694715
 20
98.0086680273
 10
187.6728743199
 20
97.5945535819
 10
187.0411144454
 20
97.3443053434
 10
186.3589271787
 20
97.2801577071
 10
185.6869267184
 20
97.4078140924
  0
LWPOLYLINE
  5
156
330
1F
100
AcDbEntity
  8
0
  6
HIDDEN
 62
     7
370
     0
100
AcDbPolyline
 90
       23
 70
   128
 43
0.0
 10
185.6185229379
 20
97.5286774109
 10
184.991303261
 20
97.8444665442
 10
184.4841683168
 20
98.313515983
 10
184.1382034007
 20
98.897824041
 10
183.9814357344
 20
99.5500562484
 10
184.026566695
 20
100.2173712248
 10
184.2699399102
 20
100.8457066263
 10
184.6918374184
 20
101.3841591547
 10
185.2580806125
 20
101.789106592
 10
185.9227962676
 20
102.0277431006
 10
186.6321325186
 20
102.0807344238
 10
187.3286230374
 20
101.9437880958
 10
187.9558436457
 20
101.6279989625
 10
188.4629767272
 20
101.1589495236
 10
188.8089425746
 20
100.5746405343
 10
188.9657102409
 20
99.9224092583
 10
188.920578349
 20
99.2550942818
 10
188.6772069964
 20
98.6267588804
 10
188.2553085569
 20
98.0883054207
 10
187.6890644315
 20
97.683357052
 10
187.0243487764
 20
97.4447224061
 10
186.3150134567
 20
97.3917301516
 10
185.6185229379
 20
97.5286774109
  0
LWPOLYLINE
  5
157
330
1F
100
AcDbEntity
  8
0
  6
HIDDEN
 62
     7
370
     0
100
AcDbPolyline
 90
       22
 70
   128
 43
0.0
 10
185.6869267184
 20
97.6438075075
 10
185.0848229486
 20
97.9519206802
 10
184.6061156947
 20
98.4131172071
 10
184.2933403212
 20
98.9864151696
 10
184.1742874939
 20
99.6208758796
 10
184.2595370371
 20
100.260124519
 10
184.541513573
 20
100.8473597238
 10
184.9951617304
 20
101.3304050783
 10
185.580172937
 20
101.6663387189
 10
186.2445672858
 20
101.8253117571
 10
186.9293091703
 20
101.7931988234
 10
187.5735571492
 20
101.5728525589
 10
188.1200674806
 20
101.1838530893
 10
188.52027728
 20
100.6607636581
 10
188.7386314455
 20
100.0500628496
 10
188.7557230774
 20
99.406015105
 10
188.5700359825
 20
98.7858464713
 10
188.1980694715
 20
98.2446614424
 10
187.6728743199
 20
97.830546997
 10
187.0411144454
 20
97.5802987585
 10
186.3589271787
 20
97.5161529849
 10
185.6869267184
 20
97.6438075075
  0
LWPOLYLINE
  5
158
330
1F
100
AcDbEntity
  8
0
  6
HIDDEN
 62
     7
370
     0
100
AcDbPolyline
 90
       23
 70
   128
 43
0.0
 10
185.6185229379
 20
97.764670826
 10
184.991303261
 20
98.0804599593
 10
184.4841683168
 20
98.5495093981
 10
184.1382034007
 20
99.1338183875
 10
183.9814357344
 20
99.7860496635
 10
184.026566695
 20
100.45336464
 10
184.2699399102
 20
101.0817000414
 10
184.6918374184
 20
101.6201535011
 10
185.2580806125
 20
102.0251009385
 10
185.9227962676
 20
102.2637365157
 10
186.6321325186
 20
102.3167278389
 10
187.3286230374
 20
102.1797815109
 10
187.9558436457
 20
101.8639923776
 10
188.4629767272
 20
101.3949438701
 10
188.8089425746
 20
100.8106348807
 10
188.9657102409
 20
100.1584026734
 10
188.920578349
 20
99.4910876969
 10
188.6772069964
 20
98.8627522955
 10
188.2553085569
 20
98.3242988358
 10
187.6890644315
 20
97.9193523298
 10
187.0243487764
 20
97.6807158212
 10
186.3150134567
 20
97.6277254293
 10
185.6185229379
 20
97.764670826
  0
LWPOLYLINE
  5
159
330
1F
100
AcDbEntity
  8
0
  6
HIDDEN
 62
     7
370
     0
100
AcDbPolyline
 90
       22
 70
   128
 43
0.0
 10
185.6869267184
 20
97.8798009227
 10
185.0848229486
 20
98.1879159579
 10
184.6061156947
 20
98.6491106222
 10
184.2933403212
 20
99.2224095161
 10
184.1742874939
 20
99.856870226
 10
184.2595370371
 20
100.4961179341
 10
184.541513573
 20
101.0833540703
 10
184.9951617304
 20
101.5663984934
 10
185.580172937
 20
101.902332134
 10
186.2445672858
 20
102.0613051722
 10
186.9293091703
 20
102.0291922385
 10
187.5735571492
 20
101.8088469053
 10
188.1200674806
 20
101.4198465044
 10
188.52027728
 20
100.8967570732
 10
188.7386314455
 20
100.286057196
 10
188.7557230774
 20
99.6420094515
 10
188.5700359825
 20
99.0218408177
 10
188.1980694715
 20
98.4806548575
 10
187.6728743199
 20
98.0665404121
 10
187.0411144454
 20
97.8162921736
 10
186.3589271787
 20
97.7521464
 10
185.6869267184
 20
97.8798009227
  0
LWPOLYLINE
  5
15A
330
1F
100
AcDbEntity
  8
0
  6
HIDDEN
 62
     7
370
     0
100
AcDbPolyline
 90
       23
 70
   128
 43
0.0
 10
185.6185229379
 20
98.0006642411
 10
184.991303261
 20
98.3164533744
 10
184.4841683168
 20
98.7855028132
 10
184.1382034007
 20
99.3698118026
 10
183.9814357344
 20
100.0220440099
 10
184.026566695
 20
100.6893589864
 10
184.2699399102
 20
101.3176943878
 10
184.6918374184
 20
101.8561469162
 10
185.2580806125
 20
102.2610943536
 10
185.9227962676
 20
102.4997308622
 10
186.6321325186
 20
102.5527221853
 10
187.3286230374
 20
102.4157758574
 10
187.9558436457
 20
102.099986724
 10
188.4629767272
 20
101.6309372852
 10
188.8089425746
 20
101.0466282959
 10
188.9657102409
 20
100.3943970198
 10
188.920578349
 20
99.7270820434
 10
188.6772069964
 20
99.0987457106
 10
188.2553085569
 20
98.5602941135
 10
187.6890644315
 20
98.1553457449
 10
187.0243487764
 20
97.9167092363
 10
186.3150134567
 20
97.8637188444
 10
185.6185229379
 20
98.0006642411
  0
LWPOLYLINE
  5
15B
330
1F
100
AcDbEntity
  8
0
  6
HIDDEN
 62
     7
370
     0
100
AcDbPolyline
 90
       22
 70
   128
 43
0.0
 10
185.6869267184
 20
98.1157943378
 10
185.0848229486
 20
98.4239093731
 10
184.6061156947
 20
98.8851049686
 10
184.2933403212
 20
99.4584029312
 10
184.1742874939
 20
100.0928636412
 10
184.2595370371
 20
100.7321122805
 10
184.541513573
 20
101.3193474854
 10
184.9951617304
 20
101.8023928399
 10
185.580172937
 20
102.1383264805
 10
186.2445672858
 20
102.2972995187
 10
186.9293091703
 20
102.265186585
 10
187.5735571492
 20
102.0448403204
 10
188.1200674806
 20
101.6558408509
 10
188.52027728
 20
101.1327514196
 10
188.7386314455
 20
100.5220506112
 10
188.7557230774
 20
99.8780028666
 10
188.5700359825
 20
99.2578342328
 10
188.1980694715
 20
98.716649204
 10
187.6728743199
 20
98.3025338272
 10
187.0411144454
 20
98.0522855888
 10
186.3589271787
 20
97.9881398151
 10
185.6869267184
 20
98.1157943378
  0
LWPOLYLINE
  5
15C
330
1F
100
AcDbEntity
  8
0
  6
HIDDEN
 62
     7
370
     0
100
AcDbPolyline
 90
       23
 70
   128
 43
0.0
 10
185.6185229379
 20
98.5991991828
 10
184.991303261
 20
98.9149892474
 10
184.4841683168
 20
99.3840377549
 10
184.1382034007
 20
99.9683467443
 10
183.9814357344
 20
100.6205789516
 10
184.026566695
 20
101.2878939281
 10
184.2699399102
 20
101.9162293295
 10
184.6918374184
 20
102.4546827892
 10
185.2580806125
 20
102.8596302266
 10
185.9227962676
 20
103.0982658038
 10
186.6321325186
 20
103.151257127
 10
187.3286230374
 20
103.014310799
 10
187.9558436457
 20
102.6985216657
 10
188.4629767272
 20
102.2294731582
 10
188.8089425746
 20
101.6451641689
 10
188.9657102409
 20
100.9929319615
 10
188.920578349
 20
100.325616985
 10
188.6772069964
 20
99.6972815836
 10
188.2553085569
 20
99.1588281239
 10
187.6890644315
 20
98.7538806865
 10
187.0243487764
 20
98.515244178
 10
186.3150134567
 20
98.4622537861
 10
185.6185229379
 20
98.5991991828
  0
LWPOLYLINE
  5
15D
330
1F
100
AcDbEntity
  8
0
  6
HIDDEN
 62
     7
370
     0
100
AcDbPolyline
 90
       20
 70
   128
 43
0.0
 10
185.7962416369
 20
99.1606376837
 10
185.228690866
 20
99.462054647
 10
184.79604217
 20
99.9203091259
 10
184.54518019
 20
100.4857430006
 10
184.5032893005
 20
101.0970826963
 10
184.6749096993
 20
101.6880795131
 10
185.0414428744
 20
102.1946901227
 10
185.5631697807
 20
102.5620158533
 10
186.1835526187
 20
102.7502510468
 10
186.8353638682
 20
102.7389969448
 10
187.4479692314
 20
102.5294735799
 10
187.9549831036
 20
102.1443856651
 10
188.3014649037
 20
101.6254639024
 10
188.449865568
 20
101.0289415488
 10
188.3841030184
 20
100.419460773
 10
188.1113055978
 20
99.8630681778
 10
187.6610353473
 20
99.4200575868
 10
187.0820842568
 20
99.1384368161
 10
186.4371918026
 20
99.0487225125
 10
185.7962416369
 20
99.1606376837
  0
LWPOLYLINE
  5
15E
330
1F
100
AcDbEntity
  8
0
  6
HIDDEN
 62
     7
370
     0
100
AcDbPolyline
 90
       25
 70
   128
 43
0.0
 10
180.0823862549
 20
129.7966008777
 10
180.5209390703
 20
130.1700975517
 10
180.9697117541
 20
130.3572039823
 10
181.398122001
 20
130.3451657067
 10
181.7769737798
 20
130.1348041514
 10
182.0804489661
 20
129.7404560963
 10
182.2878666106
 20
129.1889948542
 10
182.3850920308
 20
128.5180020849
 10
182.3654979352
 20
127.7732047955
 10
182.2304207716
 20
127.0053600664
 10
181.9890657324
 20
126.2667942564
 10
181.6578799743
 20
125.6078397626
 10
181.2594340998
 20
125.0734030972
 10
180.82088175
 20
124.6999064232
 10
180.3721090663
 20
124.512800924
 10
179.9436988193
 20
124.5248391996
 10
179.5648470405
 20
124.7352007548
 10
179.2613713886
 20
125.1295488099
 10
179.0539537441
 20
125.681010052
 10
178.9567287896
 20
126.35200189
 10
178.9763228852
 20
127.0967991794
 10
179.1114000488
 20
127.8646448398
 10
179.352755088
 20
128.6032106499
 10
179.6839403804
 20
129.2621651436
 10
180.0823862549
 20
129.7966008777
  0
LWPOLYLINE
  5
15F
330
1F
100
AcDbEntity
  8
0
  6
HIDDEN
 62
     7
370
     0
100
AcDbPolyline
 90
       20
 70
   128
 43
0.0
 10
181.0977127287
 20
128.8132266844
 10
181.4689881984
 20
129.1076019178
 10
181.842547271
 20
129.1994666452
 10
182.1779090795
 20
129.0788650284
 10
182.4387315545
 20
128.7588672484
 10
182.5967518497
 20
128.2741492385
 10
182.6348448056
 20
127.6772385234
 10
182.5488828007
 20
127.0328191812
 10
182.3481809232
 20
126.410723641
 10
182.0544892806
 20
125.8783666188
 10
181.6996320966
 20
125.4934360976
 10
181.322065543
 20
125.2976460154
 10
180.962704483
 20
125.3122128318
 10
180.6604903076
 20
125.5355588863
 10
180.4481729749
 20
125.9434800366
 10
180.3487608094
 20
126.4917729194
 10
180.373026419
 20
127.1210200856
 10
180.518339749
 20
127.7630338217
 10
180.7689549286
 20
128.3482415373
 10
181.0977127287
 20
128.8132266844
  0
LWPOLYLINE
  5
160
330
1F
100
AcDbEntity
  8
0
  6
HIDDEN
 62
     7
370
     0
100
AcDbPolyline
 90
       25
 70
   128
 43
0.0
 10
177.0680219751
 20
130.5184960137
 10
177.5065747905
 20
130.891993619
 10
177.9553474743
 20
131.0790981869
 10
178.3837577212
 20
131.0670599113
 10
178.7626095
 20
130.8566983561
 10
179.0660851519
 20
130.4623503009
 10
179.2735027965
 20
129.9108899901
 10
179.370727751
 20
129.2398972208
 10
179.3511336554
 20
128.4950999314
 10
179.2160564918
 20
127.7272552023
 10
178.9747014526
 20
126.9886893923
 10
178.6435156945
 20
126.3297348986
 10
178.2450702857
 20
125.7952982331
 10
177.8065174702
 20
125.4218015591
 10
177.3577447865
 20
125.2346969912
 10
176.9293345395
 20
125.2467352668
 10
176.5504827607
 20
125.4570958907
 10
176.2470071088
 20
125.8514439458
 10
176.0395894643
 20
126.402905188
 10
175.9423647426
 20
127.0738979573
 10
175.9619586054
 20
127.8186952467
 10
176.097035769
 20
128.5865399758
 10
176.3383908082
 20
129.3251057858
 10
176.6695765663
 20
129.9840602795
 10
177.0680219751
 20
130.5184960137
  0
LINE
  5
161
330
1F
100
AcDbEntity
  8
0
  6
HIDDEN
 62
     7
370
     0
100
AcDbLine
 10
178.0542357709
 20
127.6320898677
 30
0.0
 11
178.6928217742
 21
129.1908211777
 31
0.0
  0
LINE
  5
162
330
1F
100
AcDbEntity
  8
0
  6
HIDDEN
 62
     7
370
     0
100
AcDbLine
 10
176.4159317944
 20
128.0244393046
 30
0.0
 11
177.0545177977
 21
129.5831706146
 31
0.0
  0
LWPOLYLINE
  5
163
330
1F
100
AcDbEntity
  8
0
  6
HIDDEN
 62
     7
370
     0
100
AcDbPolyline
 90
       22
 70
   128
 43
0.0
 10
176.9145567786
 20
130.1447972427
 10
177.3243843462
 20
130.4807103942
 10
177.7404243011
 20
130.6157242278
 10
178.1257096562
 20
130.5378395835
 10
178.4460063908
 20
130.2539780507
 10
178.6728542182
 20
129.7893617074
 10
178.7860974554
 20
129.1852751518
 10
178.7756736275
 20
128.4953923667
 10
178.6425084691
 20
127.7810139353
 10
178.398435365
 20
127.1056141476
 10
178.0651401613
 20
126.5292064989
 10
177.6722379844
 20
126.1030062804
 10
177.2546403926
 20
125.8648838619
 10
176.8494522083
 20
125.8359970296
 10
176.4926760342
 20
126.0189125086
 10
176.2160136249
 20
126.3973787198
 10
176.0440472398
 20
126.9377656052
 10
175.9920570884
 20
127.5920578981
 10
176.0646622978
 20
128.3021196494
 10
176.2554118294
 20
129.00485748
 10
176.5473572422
 20
129.6378308678
 10
176.9145567786
 20
130.1447972427
  0
LINE
  5
164
330
1F
100
AcDbEntity
  8
0
  6
HIDDEN
 62
     7
370
     0
100
AcDbLine
 10
176.4159317944
 20
128.0244393046
 30
0.0
 11
176.7557159882
 21
126.6609700168
 31
0.0
  0
LINE
  5
165
330
1F
100
AcDbEntity
  8
0
  6
HIDDEN
 62
     7
370
     0
100
AcDbLine
 10
178.0542357709
 20
127.6320898677
 30
0.0
 11
178.3940204303
 21
126.2686205799
 31
0.0
  0
LINE
  5
166
330
1F
100
AcDbEntity
  8
0
  6
HIDDEN
 62
     7
370
     0
100
AcDbLine
 10
178.0542357709
 20
127.6320898677
 30
0.0
 11
176.4159317944
 21
128.0244393046
 31
0.0
  0
LINE
  5
167
330
1F
100
AcDbEntity
  8
0
  6
HIDDEN
 62
     7
370
     0
100
AcDbLine
 10
178.0328884605
 20
129.7784326369
 30
0.0
 11
177.0545177977
 21
129.5831706146
 31
0.0
  0
LINE
  5
168
330
1F
100
AcDbEntity
  8
0
  6
HIDDEN
 62
     7
370
     0
100
AcDbLine
 10
179.671192437
 20
129.3860832001
 30
0.0
 11
178.6928217742
 21
129.1908211777
 31
0.0
  0
LINE
  5
169
330
1F
100
AcDbEntity
  8
0
  6
HIDDEN
 62
     7
370
     0
100
AcDbLine
 10
178.6928217742
 20
129.1908211777
 30
0.0
 11
177.0545177977
 21
129.5831706146
 31
0.0
  0
LINE
  5
16A
330
1F
100
AcDbEntity
  8
0
  6
HIDDEN
 62
     7
370
     0
100
AcDbLine
 10
179.3723906275
 20
126.4638816709
 30
0.0
 11
177.734086651
 21
126.8562311078
 31
0.0
  0
LINE
  5
16B
330
1F
100
AcDbEntity
  8
0
  6
HIDDEN
 62
     7
370
     0
100
AcDbLine
 10
178.3940204303
 20
126.2686205799
 30
0.0
 11
176.7557159882
 21
126.6609700168
 31
0.0
  0
LINE
  5
16C
330
1F
100
AcDbEntity
  8
0
  6
HIDDEN
 62
     7
370
     0
100
AcDbLine
 10
176.7557159882
 20
126.6609700168
 30
0.0
 11
177.734086651
 21
126.8562311078
 31
0.0
  0
LINE
  5
16D
330
1F
100
AcDbEntity
  8
0
  6
HIDDEN
 62
     7
370
     0
100
AcDbLine
 10
178.3940204303
 20
126.2686205799
 30
0.0
 11
179.3723906275
 21
126.4638816709
 31
0.0
  0
LINE
  5
16E
330
1F
100
AcDbEntity
  8
0
  6
HIDDEN
 62
     7
370
     0
100
AcDbLine
 10
180.0109770965
 20
128.022612981
 30
0.0
 11
178.3726726543
 21
128.4149624179
 31
0.0
  0
LINE
  5
16F
330
1F
100
AcDbEntity
  8
0
  6
HIDDEN
 62
     7
370
     0
100
AcDbLine
 10
179.671192437
 20
129.3860832001
 30
0.0
 11
178.0328884605
 21
129.7784326369
 31
0.0
  0
LINE
  5
170
330
1F
100
AcDbEntity
  8
0
  6
HIDDEN
 62
     7
370
     0
100
AcDbLine
 10
178.0328884605
 20
129.7784326369
 30
0.0
 11
178.3726726543
 21
128.4149624179
 31
0.0
  0
LINE
  5
171
330
1F
100
AcDbEntity
  8
0
  6
HIDDEN
 62
     7
370
     0
100
AcDbLine
 10
179.671192437
 20
129.3860832001
 30
0.0
 11
180.0109770965
 21
128.022612981
 31
0.0
  0
LINE
  5
172
330
1F
100
AcDbEntity
  8
0
  6
HIDDEN
 62
     7
370
     0
100
AcDbLine
 10
178.3726726543
 20
128.4149624179
 30
0.0
 11
177.734086651
 21
126.8562311078
 31
0.0
  0
LINE
  5
173
330
1F
100
AcDbEntity
  8
0
  6
HIDDEN
 62
     7
370
     0
100
AcDbLine
 10
180.0109770965
 20
128.022612981
 30
0.0
 11
179.3723906275
 21
126.4638816709
 31
0.0
  0
LWPOLYLINE
  5
174
330
1F
100
AcDbEntity
  8
0
  6
HIDDEN
 62
     7
370
     0
100
AcDbPolyline
 90
       22
 70
   128
 43
0.0
 10
177.8740472045
 20
98.0162154654
 10
178.2412472065
 20
98.1644615302
 10
178.5331921536
 20
98.5122304181
 10
178.7239419181
 20
99.02862364
 10
178.7965473603
 20
99.667755864
 10
178.7445572089
 20
100.3728378335
 10
178.5725908238
 20
101.0812213416
 10
178.2959284145
 20
101.7299610893
 10
177.9391522404
 20
102.2614156599
 10
177.5339640561
 20
102.6283614109
 10
177.1163664642
 20
102.7981946016
 10
176.7234642874
 20
102.7558250124
 10
176.3901690837
 20
102.5050161178
 10
176.1460957467
 20
102.0680544669
 10
176.0129308212
 20
101.4837659667
 10
176.0025069933
 20
100.8040671939
 10
176.1157499976
 20
100.0893516237
 10
176.3425980579
 20
99.4031252111
 10
176.6628947925
 20
98.8063625763
 10
177.0481801476
 20
98.3520895014
 10
177.4642201025
 20
98.0806667129
 10
177.8740472045
 20
98.0162154654
  0
LWPOLYLINE
  5
175
330
1F
100
AcDbEntity
  8
0
  6
HIDDEN
 62
     7
370
     0
100
AcDbPolyline
 90
       25
 70
   128
 43
0.0
 10
178.2450702857
 20
97.536250926
 10
178.6435156945
 20
97.6814403901
 10
178.9747014526
 20
98.0168562154
 10
179.2160564918
 20
98.5196400205
 10
179.3511336554
 20
99.1555265854
 10
179.370727751
 20
99.8811824019
 10
179.2735027965
 20
100.6471551726
 10
179.0660851519
 20
101.4012442673
 10
178.7626095
 20
102.0920611689
 10
178.3837577212
 20
102.67252659
 10
177.9553474743
 20
103.1030835355
 10
177.5065747905
 20
103.3543897564
 10
177.0680219751
 20
103.4093191619
 10
176.6695765663
 20
103.2641287664
 10
176.3383908082
 20
102.9287129412
 10
176.097035769
 20
102.4259300674
 10
175.9619586054
 20
101.7900425712
 10
175.9423647426
 20
101.0643867547
 10
176.0395894643
 20
100.298413984
 10
176.2470071088
 20
99.5443248893
 10
176.5504827607
 20
98.8535079876
 10
176.9293345395
 20
98.2730425666
 10
177.3577447865
 20
97.8424865524
 10
177.8065174702
 20
97.5911803315
 10
178.2450702857
 20
97.536250926
  0
LWPOLYLINE
  5
176
330
1F
100
AcDbEntity
  8
0
  6
HIDDEN
 62
     7
370
     0
100
AcDbPolyline
 90
       25
 70
   128
 43
0.0
 10
181.2594340998
 20
98.2581451307
 10
181.6578799743
 20
98.4033364574
 10
181.9890657324
 20
98.7387513513
 10
182.2304207716
 20
99.2415351564
 10
182.3654979352
 20
99.8774217213
 10
182.3850920308
 20
100.6030775378
 10
182.2878666106
 20
101.3690503085
 10
182.0804489661
 20
102.1231394032
 10
181.7769737798
 20
102.8139563049
 10
181.398122001
 20
103.3944217259
 10
180.9697117541
 20
103.8249786715
 10
180.5209390703
 20
104.0762848923
 10
180.0823862549
 20
104.1312142978
 10
179.6839403804
 20
103.9860239024
 10
179.352755088
 20
103.6506080771
 10
179.1114000488
 20
103.1478252033
 10
178.9763228852
 20
102.5119377071
 10
178.9567287896
 20
101.7862818907
 10
179.0539537441
 20
101.0203100512
 10
179.2613713886
 20
100.2662200252
 10
179.5648470405
 20
99.5754040549
 10
179.9436988193
 20
98.9949377025
 10
180.3721090663
 20
98.564380757
 10
180.82088175
 20
98.3130745361
 10
181.2594340998
 20
98.2581451307
  0
LINE
  5
177
330
1F
100
AcDbEntity
  8
0
  6
HIDDEN
 62
     7
370
     0
100
AcDbLine
 10
178.0328884605
 20
101.3448703805
 30
0.0
 11
177.0545177977
 21
102.1053902576
 31
0.0
  0
LINE
  5
178
330
1F
100
AcDbEntity
  8
0
  6
HIDDEN
 62
     7
370
     0
100
AcDbLine
 10
176.4159317944
 20
101.1705007175
 30
0.0
 11
177.0545177977
 21
102.1053902576
 31
0.0
  0
LINE
  5
179
330
1F
100
AcDbEntity
  8
0
  6
HIDDEN
 62
     7
370
     0
100
AcDbLine
 10
176.7557159882
 20
99.4750913004
 30
0.0
 11
176.4159317944
 21
101.1705007175
 31
0.0
  0
LINE
  5
17A
330
1F
100
AcDbEntity
  8
0
  6
HIDDEN
 62
     7
370
     0
100
AcDbLine
 10
176.7557159882
 20
99.4750913004
 30
0.0
 11
177.734086651
 21
98.7145723546
 31
0.0
  0
LINE
  5
17B
330
1F
100
AcDbEntity
  8
0
  6
HIDDEN
 62
     7
370
     0
100
AcDbLine
 10
178.3726726543
 20
99.6494618947
 30
0.0
 11
177.734086651
 21
98.7145723546
 31
0.0
  0
LINE
  5
17C
330
1F
100
AcDbEntity
  8
0
  6
HIDDEN
 62
     7
370
     0
100
AcDbLine
 10
178.3726726543
 20
99.6494618947
 30
0.0
 11
178.0328884605
 21
101.3448703805
 31
0.0
  0
LINE
  5
17D
330
1F
100
AcDbEntity
  8
0
  6
HIDDEN
 62
     7
370
     0
100
AcDbLine
 10
179.671192437
 20
101.7372198174
 30
0.0
 11
178.0328884605
 21
101.3448703805
 31
0.0
  0
LINE
  5
17E
330
1F
100
AcDbEntity
  8
0
  6
HIDDEN
 62
     7
370
     0
100
AcDbLine
 10
180.0109770965
 20
100.0418113316
 30
0.0
 11
178.3726726543
 21
99.6494618947
 31
0.0
  0
LWPOLYLINE
  5
17F
330
1F
100
AcDbEntity
  8
0
  6
HIDDEN
 62
     7
370
     0
100
AcDbPolyline
 90
       20
 70
   128
 43
0.0
 10
181.8824116025
 20
99.4331650207
 10
182.211170334
 20
99.576983578
 10
182.4617845822
 20
99.9173624212
 10
182.6070988435
 20
100.4174174512
 10
182.6313635219
 20
101.0229596639
 10
182.5319513563
 20
101.6683690021
 10
182.319634955
 20
102.283705003
 10
182.0174207795
 20
102.802286833
 10
181.6580587882
 20
103.1679184879
 10
181.2804922346
 20
103.34097778
 10
180.9256359819
 20
103.3027106667
 10
180.6319443393
 20
103.0572633962
 10
180.4312424618
 20
102.6312364037
 10
180.3452804569
 20
102.0707934866
 10
180.3833734128
 20
101.4366699154
 10
180.5413927767
 20
100.7975805322
 10
180.802216183
 20
100.222782209
 10
181.1375779915
 20
99.7745617995
 10
181.5111370641
 20
99.5014924327
 10
181.8824116025
 20
99.4331650207
  0
LINE
  5
180
330
1F
100
AcDbEntity
  8
0
  6
HIDDEN
 62
     7
370
     0
100
AcDbLine
 10
178.3940204303
 20
99.8674407373
 30
0.0
 11
179.3723906275
 21
99.1069217915
 31
0.0
  0
LINE
  5
181
330
1F
100
AcDbEntity
  8
0
  6
HIDDEN
 62
     7
370
     0
100
AcDbLine
 10
178.3940204303
 20
99.8674407373
 30
0.0
 11
178.0542357709
 21
101.5628501544
 31
0.0
  0
LINE
  5
182
330
1F
100
AcDbEntity
  8
0
  6
HIDDEN
 62
     7
370
     0
100
AcDbLine
 10
178.0542357709
 20
101.5628501544
 30
0.0
 11
178.6928217742
 21
102.4977396945
 31
0.0
  0
LINE
  5
183
330
1F
100
AcDbEntity
  8
0
  6
HIDDEN
 62
     7
370
     0
100
AcDbLine
 10
180.0109770965
 20
100.0418113316
 30
0.0
 11
179.3723906275
 21
99.1069217915
 31
0.0
  0
LINE
  5
184
330
1F
100
AcDbEntity
  8
0
  6
HIDDEN
 62
     7
370
     0
100
AcDbLine
 10
180.0109770965
 20
100.0418113316
 30
0.0
 11
179.671192437
 21
101.7372198174
 31
0.0
  0
LINE
  5
185
330
1F
100
AcDbEntity
  8
0
  6
HIDDEN
 62
     7
370
     0
100
AcDbLine
 10
179.671192437
 20
101.7372198174
 30
0.0
 11
178.6928217742
 21
102.4977396945
 31
0.0
  0
LINE
  5
186
330
1F
100
AcDbEntity
  8
0
  6
HIDDEN
 62
     7
370
     0
100
AcDbLine
 10
178.0542357709
 20
101.5628501544
 30
0.0
 11
176.4159317944
 21
101.1705007175
 31
0.0
  0
LINE
  5
187
330
1F
100
AcDbEntity
  8
0
  6
HIDDEN
 62
     7
370
     0
100
AcDbLine
 10
178.6928217742
 20
102.4977396945
 30
0.0
 11
177.0545177977
 21
102.1053902576
 31
0.0
  0
LINE
  5
188
330
1F
100
AcDbEntity
  8
0
  6
HIDDEN
 62
     7
370
     0
100
AcDbLine
 10
178.3940204303
 20
99.8674407373
 30
0.0
 11
176.7557159882
 21
99.4750913004
 31
0.0
  0
LINE
  5
189
330
1F
100
AcDbEntity
  8
0
  6
HIDDEN
 62
     7
370
     0
100
AcDbLine
 10
179.3723906275
 20
99.1069217915
 30
0.0
 11
177.734086651
 21
98.7145723546
 31
0.0
  0
LINE
  5
18A
330
1F
100
AcDbEntity
  8
0
  6
HIDDEN
 62
     7
370
     0
100
AcDbLine
 10
188.9735724661
 20
97.6505279312
 30
0.0
 11
188.9735724661
 21
100.8067559222
 31
0.0
  0
LINE
  5
18B
330
1F
100
AcDbEntity
  8
0
  6
HIDDEN
 62
     7
370
     0
100
AcDbLine
 10
183.9735725779
 20
100.8067559222
 30
0.0
 11
183.9735725779
 21
98.7530965129
 31
0.0
  0
LINE
  5
18C
330
1F
100
AcDbEntity
  8
0
  6
HIDDEN
 62
     7
370
     0
100
AcDbLine
 10
175.4735728144
 20
96.8651640932
 30
0.0
 11
178.0930006761
 21
97.492478765
 31
0.0
  0
LINE
  5
18D
330
1F
100
AcDbEntity
  8
0
  6
HIDDEN
 62
     7
370
     0
100
AcDbLine
 10
176.6956037726
 20
103.3274838472
 30
0.0
 11
175.4735728144
 21
103.0348250414
 31
0.0
  0
LINE
  5
18E
330
1F
100
AcDbEntity
  8
0
  6
HIDDEN
 62
     7
370
     0
100
AcDbLine
 10
178.1517233584
 20
98.4319913904
 30
0.0
 11
185.6208726648
 21
100.2207407499
 31
0.0
  0
LINE
  5
18F
330
1F
100
AcDbEntity
  8
0
  6
HIDDEN
 62
     7
370
     0
100
AcDbLine
 10
185.6208726648
 20
104.5395033205
 30
0.0
 11
177.1735454794
 21
102.5164946685
 31
0.0
  0
LINE
  5
190
330
1F
100
AcDbEntity
  8
0
  6
HIDDEN
 62
     7
370
     0
100
AcDbLine
 10
188.5735731456
 20
100.856550015
 30
0.0
 11
188.5735731456
 21
112.8658398292
 31
0.0
  0
LINE
  5
191
330
1F
100
AcDbEntity
  8
0
  6
HIDDEN
 62
     7
370
     0
100
AcDbLine
 10
184.3735728297
 20
101.2046001623
 30
0.0
 11
184.3735728297
 21
100.856550015
 31
0.0
  0
LINE
  5
192
330
1F
100
AcDbEntity
  8
0
  6
HIDDEN
 62
     7
370
     0
100
AcDbLine
 10
184.3735728297
 20
112.8641228196
 30
0.0
 11
184.3735728297
 21
102.9582246909
 31
0.0
  0
ARC
  5
193
330
1F
100
AcDbEntity
  8
0
  6
HIDDEN
 62
     7
370
     0
100
AcDbCircle
 10
71.8735728953
 20
100.6148410837
 30
0.0
 40
1.200000000000003
100
AcDbArc
 50
90.0
 51
180.0
  0
ARC
  5
194
330
1F
100
AcDbEntity
  8
0
  6
HIDDEN
 62
     7
370
     0
100
AcDbCircle
 10
71.8735728953
 20
128.0148410837
 30
0.0
 40
1.200000000000017
100
AcDbArc
 50
180.0
 51
270.0
  0
LINE
  5
195
330
1F
100
AcDbEntity
  8
0
  6
HIDDEN
 62
     7
370
     0
100
AcDbLine
 10
81.5659429762
 20
101.589840814
 30
0.0
 11
82.4426304433
 21
101.589840814
 31
0.0
  0
LINE
  5
196
330
1F
100
AcDbEntity
  8
0
  6
HIDDEN
 62
     7
370
     0
100
AcDbLine
 10
82.4426304433
 20
127.0398413534
 30
0.0
 11
81.5659429762
 21
127.0398413534
 31
0.0
  0
ARC
  5
197
330
1F
100
AcDbEntity
  8
0
  6
HIDDEN
 62
     7
370
     0
100
AcDbCircle
 10
81.565945326
 20
101.9898410837
 30
0.0
 40
0.4000000000000199
100
AcDbArc
 50
255.0
 51
270.0
  0
ARC
  5
198
330
1F
100
AcDbEntity
  8
0
  6
HIDDEN
 62
     7
370
     0
100
AcDbCircle
 10
81.565945326
 20
126.6398410837
 30
0.0
 40
0.4000000000000057
100
AcDbArc
 50
90.0
 51
105.0
  0
ARC
  5
199
330
1F
100
AcDbEntity
  8
0
  6
HIDDEN
 62
     7
370
     0
100
AcDbCircle
 10
82.4426327876
 20
101.9898410837
 30
0.0
 40
0.4000000000000199
100
AcDbArc
 50
270.0
 51
330.0
  0
ARC
  5
19A
330
1F
100
AcDbEntity
  8
0
  6
HIDDEN
 62
     7
370
     0
100
AcDbCircle
 10
82.4426327876
 20
126.6398410837
 30
0.0
 40
0.4000000000000121
100
AcDbArc
 50
30.0
 51
90.0
  0
LINE
  5
19B
330
1F
100
AcDbEntity
  8
0
  6
HIDDEN
 62
     7
370
     0
100
AcDbLine
 10
81.4624171588
 20
127.0262114475
 30
0.0
 11
80.673572037
 21
126.8148412699
 31
0.0
  0
LINE
  5
19C
330
1F
100
AcDbEntity
  8
0
  6
HIDDEN
 62
     7
370
     0
100
AcDbLine
 10
80.673572037
 20
101.8148408974
 30
0.0
 11
81.4624171588
 21
101.6034707198
 31
0.0
  0
LINE
  5
19D
330
1F
100
AcDbEntity
  8
0
  6
HIDDEN
 62
     7
370
     0
100
AcDbLine
 10
82.7890451882
 20
101.7898414055
 30
0.0
 11
83.9581753943
 21
103.8148412252
 31
0.0
  0
LINE
  5
19E
330
1F
100
AcDbEntity
  8
0
  6
HIDDEN
 62
     7
370
     0
100
AcDbLine
 10
83.9581753943
 20
124.8148409421
 30
0.0
 11
82.7890451882
 21
126.8398407618
 31
0.0
  0
LINE
  5
19F
330
1F
100
AcDbEntity
  8
0
  6
HIDDEN
 62
     7
370
     0
100
AcDbLine
 10
71.8735720847
 20
101.8148408974
 30
0.0
 11
80.673572037
 21
101.8148408974
 31
0.0
  0
LINE
  5
1A0
330
1F
100
AcDbEntity
  8
0
  6
HIDDEN
 62
     7
370
     0
100
AcDbLine
 10
80.673572037
 20
126.8148412699
 30
0.0
 11
71.8735720847
 21
126.8148412699
 31
0.0
  0
LINE
  5
1A1
330
1F
100
AcDbEntity
  8
0
  6
HIDDEN
 62
     7
370
     0
100
AcDbLine
 10
83.9581753943
 20
103.8148412252
 30
0.0
 11
132.6735731099
 21
103.8148412252
 31
0.0
  0
LINE
  5
1A2
330
1F
100
AcDbEntity
  8
0
  6
HIDDEN
 62
     7
370
     0
100
AcDbLine
 10
132.6735731099
 20
124.8148409421
 30
0.0
 11
83.9581753943
 21
124.8148409421
 31
0.0
  0
LINE
  5
1A3
330
1F
100
AcDbEntity
  8
0
  6
HIDDEN
 62
     7
370
     0
100
AcDbLine
 10
132.6735731099
 20
103.8148412252
 30
0.0
 11
136.4289525781
 21
110.0648408527
 31
0.0
  0
LINE
  5
1A4
330
1F
100
AcDbEntity
  8
0
  6
HIDDEN
 62
     7
370
     0
100
AcDbLine
 10
136.4289525781
 20
118.5648413146
 30
0.0
 11
132.6735731099
 21
124.8148409421
 31
0.0
  0
LINE
  5
1A5
330
1F
100
AcDbEntity
  8
0
  6
HIDDEN
 62
     7
370
     0
100
AcDbLine
 10
216.3735743496
 20
124.5648413668
 30
0.0
 11
216.0355005298
 21
123.8398412014
 31
0.0
  0
LINE
  5
1A6
330
1F
100
AcDbEntity
  8
0
  6
HIDDEN
 62
     7
370
     0
100
AcDbLine
 10
216.0355005298
 20
104.7898409659
 30
0.0
 11
216.3735743496
 21
104.0648408005
 31
0.0
  0
LINE
  5
1A7
330
1F
100
AcDbEntity
  8
0
  6
HIDDEN
 62
     7
370
     0
100
AcDbLine
 10
216.0764116678
 20
122.5148411239
 30
0.0
 11
213.5235745344
 21
122.5148411239
 31
0.0
  0
LINE
  5
1A8
330
1F
100
AcDbEntity
  8
0
  6
HIDDEN
 62
     7
370
     0
100
AcDbLine
 10
213.5235745344
 20
106.1148410434
 30
0.0
 11
216.0768773291
 21
106.1148410434
 31
0.0
  0
LINE
  5
1A9
330
1F
100
AcDbEntity
  8
0
  6
HIDDEN
 62
     7
370
     0
100
AcDbLine
 10
213.5235745344
 20
121.661251388
 30
0.0
 11
212.9235718284
 21
121.3148412997
 31
0.0
  0
LINE
  5
1AA
330
1F
100
AcDbEntity
  8
0
  6
HIDDEN
 62
     7
370
     0
100
AcDbLine
 10
212.9235718284
 20
107.3148408676
 30
0.0
 11
213.5235745344
 21
106.9684307794
 31
0.0
  0
LINE
  5
1AB
330
1F
100
AcDbEntity
  8
0
  6
HIDDEN
 62
     7
370
     0
100
AcDbLine
 10
201.9735727343
 20
107.1148412073
 30
0.0
 11
202.5481708232
 21
107.1148412073
 31
0.0
  0
LINE
  5
1AC
330
1F
100
AcDbEntity
  8
0
  6
HIDDEN
 62
     7
370
     0
100
AcDbLine
 10
202.5481708232
 20
121.51484096
 30
0.0
 11
201.9735727343
 21
121.51484096
 31
0.0
  0
ARC
  5
1AD
330
1F
100
AcDbEntity
  8
0
  6
HIDDEN
 62
     7
370
     0
100
AcDbCircle
 10
201.9735728953
 20
107.7148410837
 30
0.0
 40
0.5999999999999943
100
AcDbArc
 50
180.0
 51
270.0
  0
ARC
  5
1AE
330
1F
100
AcDbEntity
  8
0
  6
HIDDEN
 62
     7
370
     0
100
AcDbCircle
 10
201.9735728953
 20
120.9148410837
 30
0.0
 40
0.5999999999999943
100
AcDbArc
 50
90.0
 51
180.0
  0
ARC
  5
1AF
330
1F
100
AcDbEntity
  8
0
  6
HIDDEN
 62
     7
370
     0
100
AcDbCircle
 10
202.5481712352
 20
107.7148410837
 30
0.0
 40
0.6000000000000071
100
AcDbArc
 50
270.0
 51
285.0
  0
ARC
  5
1B0
330
1F
100
AcDbEntity
  8
0
  6
HIDDEN
 62
     7
370
     0
100
AcDbCircle
 10
202.5481712352
 20
120.9148410837
 30
0.0
 40
0.5999999999999943
100
AcDbArc
 50
75.0
 51
90.0
  0
LINE
  5
1B1
330
1F
100
AcDbEntity
  8
0
  6
HIDDEN
 62
     7
370
     0
100
AcDbLine
 10
202.7034632746
 20
107.1352856005
 30
0.0
 11
203.3735722188
 21
107.3148408676
 31
0.0
  0
LINE
  5
1B2
330
1F
100
AcDbEntity
  8
0
  6
HIDDEN
 62
     7
370
     0
100
AcDbLine
 10
203.3735722188
 20
121.3148412997
 30
0.0
 11
202.7034632746
 21
121.4943965668
 31
0.0
  0
LINE
  5
1B3
330
1F
100
AcDbEntity
  8
0
  6
HIDDEN
 62
     7
370
     0
100
AcDbLine
 10
203.3735722188
 20
107.3148408676
 30
0.0
 11
212.9235718284
 21
107.3148408676
 31
0.0
  0
LINE
  5
1B4
330
1F
100
AcDbEntity
  8
0
  6
HIDDEN
 62
     7
370
     0
100
AcDbLine
 10
212.9235718284
 20
121.3148412997
 30
0.0
 11
203.3735722188
 21
121.3148412997
 31
0.0
  0
LINE
  5
1B5
330
1F
100
AcDbEntity
  8
0
  6
HIDDEN
 62
     7
370
     0
100
AcDbLine
 10
216.0355005298
 20
123.8398412014
 30
0.0
 11
213.5235745344
 21
123.8398412014
 31
0.0
  0
LINE
  5
1B6
330
1F
100
AcDbEntity
  8
0
  6
HIDDEN
 62
     7
370
     0
100
AcDbLine
 10
213.5235745344
 20
104.7898409659
 30
0.0
 11
216.0355005298
 21
104.7898409659
 31
0.0
  0
LINE
  5
1B7
330
1F
100
AcDbEntity
  8
0
  6
HIDDEN
 62
     7
370
     0
100
AcDbLine
 10
191.3735721145
 20
118.5648413146
 30
0.0
 11
191.3235731307
 21
118.4816271769
 31
0.0
  0
LINE
  5
1B8
330
1F
100
AcDbEntity
  8
0
  6
HIDDEN
 62
     7
370
     0
100
AcDbLine
 10
191.3235731307
 20
110.1480549904
 30
0.0
 11
191.3735721145
 21
110.0648408527
 31
0.0
  0
LINE
  5
1B9
330
1F
100
AcDbEntity
  8
0
  6
HIDDEN
 62
     7
370
     0
100
AcDbLine
 10
136.4289525781
 20
110.0648408527
 30
0.0
 11
191.3235731307
 21
110.0648408527
 31
0.0
  0
LINE
  5
1BA
330
1F
100
AcDbEntity
  8
0
  6
HIDDEN
 62
     7
370
     0
100
AcDbLine
 10
191.3235731307
 20
118.5648413146
 30
0.0
 11
136.4289525781
 21
118.5648413146
 31
0.0
  0
LINE
  5
1BB
330
1F
100
AcDbEntity
  8
0
  6
HIDDEN
 62
     7
370
     0
100
AcDbLine
 10
191.3735721145
 20
110.0648408527
 30
0.0
 11
201.3735737536
 21
110.0648408527
 31
0.0
  0
LINE
  5
1BC
330
1F
100
AcDbEntity
  8
0
  6
HIDDEN
 62
     7
370
     0
100
AcDbLine
 10
201.3735737536
 20
118.5648413146
 30
0.0
 11
191.3735721145
 21
118.5648413146
 31
0.0
  0
LINE
  5
1BD
330
1F
100
AcDbEntity
  8
0
  6
HIDDEN
 62
     7
370
     0
100
AcDbLine
 10
188.5735731456
 20
115.7655593478
 30
0.0
 11
188.5735731456
 21
127.7731321523
 31
0.0
  0
LINE
  5
1BE
330
1F
100
AcDbEntity
  8
0
  6
HIDDEN
 62
     7
370
     0
100
AcDbLine
 10
184.3735728297
 20
125.6714574764
 30
0.0
 11
184.3735728297
 21
115.7638423382
 31
0.0
  0
LINE
  5
1BF
330
1F
100
AcDbEntity
  8
0
  6
HIDDEN
 62
     7
370
     0
100
AcDbLine
 10
184.3735728297
 20
127.7731321523
 30
0.0
 11
184.3735728297
 21
127.425082005
 31
0.0
  0
LINE
  5
1C0
330
1F
100
AcDbEntity
  8
0
  6
HIDDEN
 62
     7
370
     0
100
AcDbLine
 10
216.0768773291
 20
122.5148411239
 30
0.0
 11
216.0764116678
 21
122.5148411239
 31
0.0
  0
LINE
  5
1C1
330
1F
100
AcDbEntity
  8
0
  6
HIDDEN
 62
     7
370
     0
100
AcDbLine
 10
177.1735454794
 20
126.1131874988
 30
0.0
 11
185.6208726648
 21
124.0901788468
 31
0.0
  0
LINE
  5
1C2
330
1F
100
AcDbEntity
  8
0
  6
HIDDEN
 62
     7
370
     0
100
AcDbLine
 10
185.6208726648
 20
128.4089414174
 30
0.0
 11
178.1517233584
 21
130.197690777
 31
0.0
  0
LINE
  5
1C3
330
1F
100
AcDbEntity
  8
0
  6
HIDDEN
 62
     7
370
     0
100
AcDbLine
 10
175.4735728144
 20
125.594857126
 30
0.0
 11
176.6956037726
 21
125.3021983201
 31
0.0
  0
LINE
  5
1C4
330
1F
100
AcDbEntity
  8
0
  6
HIDDEN
 62
     7
370
     0
100
AcDbLine
 10
178.0930006761
 20
131.1372034023
 30
0.0
 11
175.4735728144
 21
131.7645180742
 31
0.0
  0
LINE
  5
1C5
330
1F
100
AcDbEntity
  8
0
  6
HIDDEN
 62
     7
370
     0
100
AcDbLine
 10
188.9735724661
 20
127.8229262451
 30
0.0
 11
188.9735724661
 21
130.9791542361
 31
0.0
  0
LINE
  5
1C6
330
1F
100
AcDbEntity
  8
0
  6
HIDDEN
 62
     7
370
     0
100
AcDbLine
 10
183.9735725779
 20
129.8765856544
 30
0.0
 11
183.9735725779
 21
127.8229262451
 31
0.0
  0
LINE
  5
1C7
330
1F
100
AcDbEntity
  8
0
  6
HIDDEN
 62
     7
370
     0
100
AcDbLine
 10
188.9735724661
 20
127.8229262451
 30
0.0
 11
188.9735724661
 21
128.4214621181
 31
0.0
  0
LINE
  5
1C8
330
1F
100
AcDbEntity
  8
0
  6
HIDDEN
 62
     7
370
     0
100
AcDbLine
 10
183.9735725779
 20
128.4214621181
 30
0.0
 11
183.9735725779
 21
127.8229262451
 31
0.0
  0
LINE
  5
1C9
330
1F
100
AcDbEntity
  8
0
  6
HIDDEN
 62
     7
370
     0
100
AcDbLine
 10
188.4735733155
 20
128.1836554179
 30
0.0
 11
188.4735733155
 21
129.6014310563
 31
0.0
  0
LINE
  5
1CA
330
1F
100
AcDbEntity
  8
0
  6
HIDDEN
 62
     7
370
     0
100
AcDbLine
 10
184.4735726598
 20
129.6014310563
 30
0.0
 11
184.4735726598
 21
128.1836554179
 31
0.0
  0
LINE
  5
1CB
330
1F
100
AcDbEntity
  8
0
  6
HIDDEN
 62
     7
370
     0
100
AcDbLine
 10
188.9735724661
 20
129.3654376412
 30
0.0
 11
188.9735724661
 21
129.5535489688
 31
0.0
  0
LINE
  5
1CC
330
1F
100
AcDbEntity
  8
0
  6
HIDDEN
 62
     7
370
     0
100
AcDbLine
 10
183.9735725779
 20
129.5535489688
 30
0.0
 11
183.9735725779
 21
129.3654376412
 31
0.0
  0
LINE
  5
1CD
330
1F
100
AcDbEntity
  8
0
  6
HIDDEN
 62
     7
370
     0
100
AcDbLine
 10
183.9735725779
 20
99.2642445261
 30
0.0
 11
183.9735725779
 21
99.0761331985
 31
0.0
  0
LINE
  5
1CE
330
1F
100
AcDbEntity
  8
0
  6
HIDDEN
 62
     7
370
     0
100
AcDbLine
 10
188.9735724661
 20
99.0761331985
 30
0.0
 11
188.9735724661
 21
99.2642445261
 31
0.0
  0
LINE
  5
1CF
330
1F
100
AcDbEntity
  8
0
  6
HIDDEN
 62
     7
370
     0
100
AcDbLine
 10
184.4735726598
 20
100.4460267494
 30
0.0
 11
184.4735726598
 21
99.028251111
 31
0.0
  0
LINE
  5
1D0
330
1F
100
AcDbEntity
  8
0
  6
HIDDEN
 62
     7
370
     0
100
AcDbLine
 10
188.4735733155
 20
99.028251111
 30
0.0
 11
188.4735733155
 21
100.4460267494
 31
0.0
  0
LINE
  5
1D1
330
1F
100
AcDbEntity
  8
0
  6
HIDDEN
 62
     7
370
     0
100
AcDbLine
 10
183.9735725779
 20
100.8067559222
 30
0.0
 11
183.9735725779
 21
100.2082200492
 31
0.0
  0
LINE
  5
1D2
330
1F
100
AcDbEntity
  8
0
  6
HIDDEN
 62
     7
370
     0
100
AcDbLine
 10
188.9735724661
 20
100.2082200492
 30
0.0
 11
188.9735724661
 21
100.8067559222
 31
0.0
  0
ARC
  5
1D3
330
1F
100
AcDbEntity
  8
0
  6
HIDDEN
 62
     7
370
     0
100
AcDbCircle
 10
186.4735728953
 20
99.8490991217
 30
0.0
 40
2.000000000000012
100
AcDbArc
 50
71.1182787691
 51
192.2156859339
  0
ARC
  5
1D4
330
1F
100
AcDbEntity
  8
0
  6
HIDDEN
 62
     7
370
     0
100
AcDbCircle
 10
186.4735728953
 20
99.8490991217
 30
0.0
 40
2.000000000000016
100
AcDbArc
 50
340.3453161116
 51
71.1182787691
  0
CIRCLE
  5
1D5
330
1F
100
AcDbEntity
  8
0
  6
HIDDEN
 62
     7
370
     0
100
AcDbCircle
 10
186.4735728953
 20
128.7805830456
 30
0.0
 40
2.000000000000016
  0
LINE
  5
1D6
330
1F
100
AcDbEntity
  8
0
  6
HIDDEN
 62
     7
370
     0
100
AcDbLine
 10
181.1401968706
 20
124.9520163754
 30
0.0
 11
181.8029204268
 21
125.5835033725
 31
0.0
  0
LINE
  5
1D7
330
1F
100
AcDbEntity
  8
0
  6
HIDDEN
 62
     7
370
     0
100
AcDbLine
 10
182.5188252959
 20
128.5728541905
 30
0.0
 11
182.21405464
 21
129.4360412056
 31
0.0
  0
LINE
  5
1D8
330
1F
100
AcDbEntity
  8
0
  6
HIDDEN
 62
     7
370
     0
100
AcDbLine
 10
176.9578479115
 20
125.2393955136
 30
0.0
 11
179.9722121913
 21
124.5174994464
 31
0.0
  0
LINE
  5
1D9
330
1F
100
AcDbEntity
  8
0
  6
HIDDEN
 62
     7
370
     0
100
AcDbLine
 10
181.3696086291
 20
130.3525045285
 30
0.0
 11
178.3552443493
 21
131.0744005958
 31
0.0
  0
LINE
  5
1DA
330
1F
100
AcDbEntity
  8
0
  6
HIDDEN
 62
     7
370
     0
100
AcDbLine
 10
178.3552443493
 20
97.5552815715
 30
0.0
 11
181.3696086291
 21
98.2771776388
 31
0.0
  0
LINE
  5
1DB
330
1F
100
AcDbEntity
  8
0
  6
HIDDEN
 62
     7
370
     0
100
AcDbLine
 10
179.9722121913
 20
104.112182721
 30
0.0
 11
176.9578479115
 21
103.3902866537
 31
0.0
  0
LINE
  5
1DC
330
1F
100
AcDbEntity
  8
0
  6
HIDDEN
 62
     7
370
     0
100
AcDbLine
 10
182.21405464
 20
99.1936409617
 30
0.0
 11
182.5188252959
 21
100.0568279768
 31
0.0
  0
LINE
  5
1DD
330
1F
100
AcDbEntity
  8
0
  6
HIDDEN
 62
     7
370
     0
100
AcDbLine
 10
181.8029204268
 20
103.0461787949
 30
0.0
 11
181.1401968706
 21
103.6776657919
 31
0.0
  0
DIMENSION
  5
1DE
330
1F
100
AcDbEntity
  8
VERMASSUNG
100
AcDbDimension
  2
_D
 10
63.9679307433
 20
163.0398410837
 30
0.0
 11
63.9679307433
 21
114.3148410837
 31
0.0
 70
   160
  1
ISO 50 %%c<>
 71
     2
 42
-1.0
  3
SLDDIMSTYLE0
100
AcDbAlignedDimension
 13
190.7235728953
 23
65.5898410837
 33
0.0
 14
190.7235728953
 24
163.0398410837
 34
0.0
 50
90.0
100
AcDbRotatedDimension
  0
DIMENSION
  5
1EB
330
1F
100
AcDbEntity
  8
VERMASSUNG
100
AcDbDimension
  2
_D_1
 10
216.3735728953
 20
179.0215050797
 30
0.0
 11
143.5235728953
 21
179.0215050797
 31
0.0
 70
   160
  1
(<>)
 71
     2
 42
-1.0
  3
SLDDIMSTYLE0
100
AcDbAlignedDimension
 13
70.6735728953
 23
132.6936856111
 33
0.0
 14
216.3735728953
 24
126.6148410837
 34
0.0
100
AcDbRotatedDimension
  0
DIMENSION
  5
1F7
330
1F
100
AcDbEntity
  8
VERMASSUNG
100
AcDbDimension
  2
_D_2
 10
216.3735728953
 20
173.0215050797
 30
0.0
 11
194.3235728953
 21
173.0215050797
 31
0.0
 70
   160
  1
<>
 71
     2
 42
-1.0
  3
SLDDIMSTYLE0
100
AcDbAlignedDimension
 13
172.2735728953
 23
149.2398410837
 33
0.0
 14
216.3735728953
 24
126.6148410837
 34
0.0
100
AcDbRotatedDimension
  0
DIMENSION
  5
201
330
1F
100
AcDbEntity
  8
VERMASSUNG
100
AcDbDimension
  2
_D_3
 10
216.3735728953
 20
167.0215050797
 30
0.0
 11
203.8485728953
 21
167.0215050797
 31
0.0
 70
   160
  1
<>
 71
     2
 42
-1.0
  3
SLDDIMSTYLE0
100
AcDbAlignedDimension
 13
191.3235728953
 23
160.6098280369
 33
0.0
 14
216.3735728953
 24
126.6148410837
 34
0.0
100
AcDbRotatedDimension
  0
DIMENSION
  5
20B
330
1F
100
AcDbEntity
  8
VERMASSUNG
100
AcDbDimension
  2
_D_4
 10
223.8616610522
 20
101.8148410837
 30
0.0
 11
223.8616610522
 21
114.3148410837
 31
0.0
 70
   160
  1
MBM %%c<>
 71
     2
 42
-1.0
  3
SLDDIMSTYLE0
100
AcDbAlignedDimension
 13
216.1735728953
 23
126.8148410837
 33
0.0
 14
216.1735728953
 24
101.8148410837
 34
0.0
 50
90.0
100
AcDbRotatedDimension
  0
LINE
  5
217
330
1F
100
AcDbEntity
  8
VERMASSUNG
  6
CENTERX2
 62
     7
370
     0
100
AcDbLine
 10
68.6735728953
 20
114.3148410837
 30
0.0
 11
218.3735728953
 21
114.3148410837
 31
0.0
  0
LINE
  5
218
330
1F
100
AcDbEntity
  8
VERMASSUNG
  6
CENTERX2
370
     0
100
AcDbLine
 10
173.5285712491
 20
129.1454859832
 30
0.0
 11
184.79094294
 21
126.4483159688
 31
0.0
  0
LINE
  5
219
330
1F
100
AcDbEntity
  8
VERMASSUNG
  6
CENTERX2
370
     0
100
AcDbLine
 10
173.5285712491
 20
99.4841961841
 30
0.0
 11
184.79094294
 21
102.1813661985
 31
0.0
  0
LINE
  5
21A
330
1F
100
AcDbEntity
  8
0
  6
Continuous
 62
     7
370
    15
100
AcDbLine
 10
270.4729055943
 20
45.2092589291
 30
0.0
 11
270.3314618408
 21
45.290939305
 31
0.0
  0
LINE
  5
21B
330
1F
100
AcDbEntity
  8
0
  6
Continuous
 62
     7
370
    15
100
AcDbLine
 10
268.4926849256
 20
45.2909396071
 30
0.0
 11
268.3512408284
 21
45.2092587476
 31
0.0
  0
LINE
  5
21C
330
1F
100
AcDbEntity
  8
0
  6
Continuous
 62
     7
370
    15
100
AcDbLine
 10
270.9120733685
 20
44.352089904
 30
0.0
 11
270.9120733685
 21
44.5970521117
 31
0.0
  0
LINE
  5
21D
330
1F
100
AcDbEntity
  8
0
  6
Continuous
 62
     7
370
    15
100
AcDbLine
 10
267.9120736978
 20
44.5970520167
 30
0.0
 11
267.9120736978
 21
44.352089809
 31
0.0
  0
SPLINE
  5
21E
330
1F
100
AcDbEntity
  8
0
  6
Continuous
 62
     7
370
    15
100
AcDbSpline
210
0.0
220
0.0
230
1.0
 70
     8
 71
     3
 72
    30
 73
    26
 74
     0
 42
0.000000001
 43
0.00000001
 40
0.0
 40
0.0
 40
0.0
 40
0.0
 40
0.0010768471761682
 40
0.0479834568678733
 40
0.0949634202906696
 40
0.1419914612471549
 40
0.1890464293784008
 40
0.2361126755931312
 40
0.2831778296900098
 40
0.3302361537493306
 40
0.3772851341648599
 40
0.424324036081729
 40
0.4713532336514151
 40
0.5183738303065261
 40
0.5653873328066101
 40
0.6123954038604512
 40
0.6593999111597145
 40
0.7064027720811668
 40
0.7534059227094612
 40
0.8004108120779757
 40
0.8474192727037518
 40
0.8944333132854649
 40
0.9414548591450183
 40
0.9884858395771194
 40
1.0
 40
1.0
 40
1.0
 40
1.0
 10
263.3481720783668
 20
68.49534164203405
 30
0.0
 10
263.3387346766585
 20
68.4942061917595
 30
0.0
 10
262.9182115348094
 20
68.44361142726524
 30
0.0
 10
262.0567583049862
 20
68.22519182372619
 30
0.0
 10
260.7696783016245
 20
67.83163998929977
 30
0.0
 10
259.4611073828891
 20
67.29776994295891
 30
0.0
 10
258.1437956090022
 20
66.6463438061213
 30
0.0
 10
256.8242072980767
 20
65.87611031468231
 30
0.0
 10
255.5104114471386
 20
64.99315647406307
 30
0.0
 10
254.2099130457755
 20
64.00241252474335
 30
0.0
 10
252.9301892616542
 20
62.90985426363659
 30
0.0
 10
251.6785391717055
 20
61.72187735839186
 30
0.0
 10
250.4621022144632
 20
60.44542834798333
 30
0.0
 10
249.2878170315051
 20
59.08792468940978
 30
0.0
 10
248.1623880615431
 20
57.65723482586107
 30
0.0
 10
247.0922487522079
 20
56.16163206782684
 30
0.0
 10
246.0835292460266
 20
54.60974934620295
 30
0.0
 10
245.1420112628592
 20
53.01053228320614
 30
0.0
 10
244.2731339682405
 20
51.37319467307224
 30
0.0
 10
243.4818520824952
 20
49.70715226452361
 30
0.0
 10
242.7729458564146
 20
48.02203523466545
 30
0.0
 10
242.1498020539313
 20
46.32733030034345
 30
0.0
 10
241.6187906640485
 20
44.63346110968345
 30
0.0
 10
241.2851605307899
 20
43.37202717007361
 30
0.0
 10
241.1326181210011
 20
42.67963554710321
 30
0.0
 10
241.1026173770973
 20
42.54346185094476
 30
0.0
  0
LINE
  5
21F
330
1F
100
AcDbEntity
  8
0
  6
Continuous
 62
     7
370
    15
100
AcDbLine
 10
256.3691227663
 20
65.5508205959
 30
0.0
 11
225.6046912159
 21
76.6371023471
 31
0.0
  0
LINE
  5
220
330
1F
100
AcDbEntity
  8
0
  6
Continuous
 62
     7
370
    15
100
AcDbLine
 10
215.4808318355
 20
59.1001639467
 30
0.0
 11
244.9483429541
 21
34.2180415084
 31
0.0
  0
LINE
  5
221
330
1F
100
AcDbEntity
  8
0
  6
Continuous
 62
     7
370
    15
100
AcDbLine
 10
271.9053439214
 20
33.1150949787
 30
0.0
 11
271.9760429869
 21
33.1559223307
 31
0.0
  0
LINE
  5
222
330
1F
100
AcDbEntity
  8
0
  6
Continuous
 62
     7
370
    15
100
AcDbLine
 10
276.3240427607
 20
40.6876949999
 30
0.0
 11
276.32404309
 21
40.7693358625
 31
0.0
  0
LINE
  5
223
330
1F
100
AcDbEntity
  8
0
  6
Continuous
 62
     7
370
    15
100
AcDbLine
 10
261.4082911827
 20
37.0607825219
 30
0.0
 11
268.7798796958
 21
32.8052550548
 31
0.0
  0
LINE
  5
224
330
1F
100
AcDbEntity
  8
0
  6
Continuous
 62
     7
370
    15
100
AcDbLine
 10
275.0293715876
 20
43.6308658953
 30
0.0
 11
267.6577830745
 21
47.8863933625
 31
0.0
  0
SPLINE
  5
225
330
1F
100
AcDbEntity
  8
0
  6
Continuous
 62
     7
370
    15
100
AcDbSpline
210
0.0
220
0.0
230
1.0
 70
     8
 71
     3
 72
    29
 73
    25
 74
     0
 42
0.000000001
 43
0.00000001
 40
0.0
 40
0.0
 40
0.0
 40
0.0
 40
0.0332066051331366
 40
0.0800430987685323
 40
0.1269354833974001
 40
0.1738610342202941
 40
0.2208023357258027
 40
0.267746118605789
 40
0.314684422770466
 40
0.3616140052288847
 40
0.4085336228733323
 40
0.4554433366567484
 40
0.5023440826280116
 40
0.5492371859764252
 40
0.5961243535089815
 40
0.6430073183024089
 40
0.6898880361621373
 40
0.7367683782378491
 40
0.7836500494575884
 40
0.8305346294001507
 40
0.8774241252144789
 40
0.9243204876534318
 40
0.9712256238414938
 40
1.0
 40
1.0
 40
1.0
 40
1.0
 10
257.2706787588413
 20
21.32844834531076
 30
0.0
 10
257.5664042072487
 20
21.37897963195531
 30
0.0
 10
258.2792377287826
 20
21.50078313314353
 30
0.0
 10
259.4411333890548
 20
21.84223328757621
 30
0.0
 10
260.7431271480845
 20
22.32864176629195
 30
0.0
 10
262.0585450702467
 20
22.94252024370455
 30
0.0
 10
263.3782131686054
 20
23.67423700985945
 30
0.0
 10
264.6947515554518
 20
24.52090806282333
 30
0.0
 10
266.000425485957
 20
25.47700348980878
 30
0.0
 10
267.287756522923
 20
26.53693847066678
 30
0.0
 10
268.5493843210791
 20
27.69444149714242
 30
0.0
 10
269.7781144128606
 20
28.94274393579714
 30
0.0
 10
270.9669372309439
 20
30.27458028963323
 30
0.0
 10
272.1090701157875
 20
31.68222018288754
 30
0.0
 10
273.1979861042485
 20
33.1575222856353
 30
0.0
 10
274.2274511545676
 20
34.69196487911618
 30
0.0
 10
275.1915671068314
 20
36.27670107575984
 30
0.0
 10
276.0847712733233
 20
37.90259470543121
 30
0.0
 10
276.9019918036149
 20
39.56030102918197
 30
0.0
 10
277.6382080292036
 20
41.24021621861193
 30
0.0
 10
278.2902488145323
 20
42.93294391488313
 30
0.0
 10
278.8502077794658
 20
44.62781715771403
 30
0.0
 10
279.2682314615316
 20
46.10071080340366
 30
0.0
 10
279.4655255473572
 20
46.99819974368223
 30
0.0
 10
279.5405394324018
 20
47.33943720101959
 30
0.0
  0
LINE
  5
226
330
1F
100
AcDbEntity
  8
0
  6
Continuous
 62
     7
370
    15
100
AcDbLine
 10
249.2709089201
 20
23.1535973097
 30
0.0
 11
250.7264309063
 21
22.3133423524
 31
0.0
  0
LINE
  5
227
330
1F
100
AcDbEntity
  8
0
  6
Continuous
 62
     7
370
    15
100
AcDbLine
 10
245.5468739718
 20
25.3034369247
 30
0.0
 11
246.9847186478
 21
24.4733868614
 31
0.0
  0
SPLINE
  5
228
330
1F
100
AcDbEntity
  8
0
  6
Continuous
 62
     7
370
    15
100
AcDbSpline
210
0.0
220
0.0
230
1.0
 70
     8
 71
     3
 72
     9
 73
     5
 74
     0
 42
0.000000001
 43
0.00000001
 40
0.0
 40
0.0
 40
0.0
 40
0.0
 40
0.4644996340006745
 40
1.0
 40
1.0
 40
1.0
 40
1.0
 10
241.1147080896277
 20
31.36864370119753
 30
0.0
 10
241.1528859097824
 20
31.23478016197266
 30
0.0
 10
241.235077191239
 20
30.94659147585483
 30
0.0
 10
241.3426343554952
 20
30.68168187512441
 30
0.0
 10
241.4002312563203
 20
30.53982268697654
 30
0.0
  0
SPLINE
  5
229
330
1F
100
AcDbEntity
  8
0
  6
Continuous
 62
     7
370
    15
100
AcDbSpline
210
0.0
220
0.0
230
1.0
 70
     8
 71
     3
 72
     9
 73
     5
 74
     0
 42
0.000000001
 43
0.00000001
 40
0.0
 40
0.0
 40
0.0
 40
0.0
 40
0.4579441333770098
 40
1.0
 40
1.0
 40
1.0
 40
1.0
 10
279.5340554031762
 20
58.40057723588467
 30
0.0
 10
279.4820331135127
 20
58.57860705175259
 30
0.0
 10
279.3684334713907
 20
58.96736586072583
 30
0.0
 10
279.2204973390221
 20
59.32439502290717
 30
0.0
 10
279.1403076905862
 20
59.51792477482306
 30
0.0
  0
SPLINE
  5
22A
330
1F
100
AcDbEntity
  8
0
  6
Continuous
 62
     7
370
    15
100
AcDbSpline
210
0.0
220
0.0
230
1.0
 70
     8
 71
     3
 72
    27
 73
    23
 74
     0
 42
0.000000001
 43
0.00000001
 40
0.0
 40
0.0
 40
0.0
 40
0.0
 40
0.0210493941658396
 40
0.0708063454179895
 40
0.1212520428713143
 40
0.1727913551720796
 40
0.2254715954620574
 40
0.2790354664579589
 40
0.3331030962417422
 40
0.3873430538027487
 40
0.4415291862507236
 40
0.4956044562406384
 40
0.5495679382220039
 40
0.6034462781106732
 40
0.6572785378024885
 40
0.7111090570924556
 40
0.7649757606989631
 40
0.8189198496674129
 40
0.8729892910442071
 40
0.9272290143764478
 40
0.9816726253023795
 40
1.0
 40
1.0
 40
1.0
 40
1.0
 10
225.5797959286413
 20
76.62799648043364
 30
0.0
 10
225.480192351451
 20
76.66765139745877
 30
0.0
 10
225.1451439773343
 20
76.80104334832824
 30
0.0
 10
224.5190567781977
 20
76.89250942039224
 30
0.0
 10
223.7175357424215
 20
76.90556330074014
 30
0.0
 10
222.8787382764917
 20
76.7814752282874
 30
0.0
 10
222.0146902625684
 20
76.52958273391322
 30
0.0
 10
221.1355123795548
 20
76.14845273638196
 30
0.0
 10
220.2552646674083
 20
75.64389366304496
 30
0.0
 10
219.3881649782822
 20
75.02427789215801
 30
0.0
 10
218.5473114670254
 20
74.30039293464112
 30
0.0
 10
217.7441945170385
 20
73.48391636658216
 30
0.0
 10
216.9889400429349
 20
72.58685458459708
 30
0.0
 10
216.2909650781249
 20
71.6217231337007
 30
0.0
 10
215.6590399011578
 20
70.601542829199
 30
0.0
 10
215.1013308332349
 20
69.53982612528733
 30
0.0
 10
214.6252772450758
 20
68.4504219568788
 30
0.0
 10
214.2376525967024
 20
67.34738650323075
 30
0.0
 10
213.9439661318659
 20
66.24442201509086
 30
0.0
 10
213.750733141396
 20
65.15592172533948
 30
0.0
 10
213.6781142730954
 20
64.32909887045885
 30
0.0
 10
213.6730794176715
 20
63.8709315552574
 30
0.0
 10
213.6718113891968
 20
63.7555421045313
 30
0.0
  0
SPLINE
  5
22B
330
1F
100
AcDbEntity
  8
0
  6
Continuous
 62
     7
370
    15
100
AcDbSpline
210
0.0
220
0.0
230
1.0
 70
     8
 71
     3
 72
    14
 73
    10
 74
     0
 42
0.000000001
 43
0.00000001
 40
0.0
 40
0.0
 40
0.0
 40
0.0
 40
0.0940532694791947
 40
0.2713553957309421
 40
0.4486751925665135
 40
0.6245170232868934
 40
0.79731466382346
 40
0.9658955509345769
 40
0.9999999999999999
 40
0.9999999999999999
 40
0.9999999999999999
 40
0.9999999999999999
 10
213.6718113891968
 20
63.7555421045313
 30
0.0
 10
213.6749091588601
 20
63.57508554551139
 30
0.0
 10
213.6838466101311
 20
63.05444589889152
 30
0.0
 10
213.7834801193561
 20
62.23443412453613
 30
0.0
 10
214.0092835712345
 20
61.33026033153416
 30
0.0
 10
214.3464277430394
 20
60.50934892523905
 30
0.0
 10
214.7974333305903
 20
59.80226367866361
 30
0.0
 10
215.181977278232
 20
59.33559375690963
 30
0.0
 10
215.4381225693007
 20
59.14716430725646
 30
0.0
 10
215.4812223524296
 20
59.11545859687136
 30
0.0
  0
LWPOLYLINE
  5
22C
330
1F
100
AcDbEntity
  8
0
  6
Continuous
 62
     7
370
    15
100
AcDbPolyline
 90
       19
 70
   128
 43
0.0
 10
269.703682145
 20
45.4917100823
 10
270.1193915761
 20
45.3900279587
 10
270.4497892003
 20
45.212397823
 10
270.6550208096
 20
44.9802465596
 10
270.7103359553
 20
44.7215730692
 10
270.6090612148
 20
44.4675780297
 10
270.363412846
 20
44.2488964205
 10
270.0030172949
 20
44.0919058437
 10
269.5713462267
 20
44.0155401677
 10
269.1204649213
 20
44.0290105765
 10
268.7047554902
 20
44.1306927
 10
268.3743591831
 20
44.3083220754
 10
268.1691262567
 20
44.5404740992
 10
268.1138111111
 20
44.7991475896
 10
268.2150858516
 20
45.0531426291
 10
268.4607355374
 20
45.2718234779
 10
268.8211297714
 20
45.428814815
 10
269.2528008396
 20
45.505180491
 10
269.703682145
 20
45.4917100823
  0
LWPOLYLINE
  5
22D
330
1F
100
AcDbEntity
  8
0
  6
Continuous
 62
     7
370
    15
100
AcDbPolyline
 90
       16
 70
   128
 43
0.0
 10
270.4729055943
 20
45.2092589291
 10
270.5754377638
 20
45.1436747694
 10
270.819855817
 20
44.8959900115
 10
270.9117174252
 20
44.6159113777
 10
270.8410704579
 20
44.3337884529
 10
270.6155694455
 20
44.0801942548
 10
270.2596505668
 20
43.8826098576
 10
269.8118834772
 20
43.7624464279
 10
269.3207915265
 20
43.7327250496
 10
268.8395898441
 20
43.7966677318
 10
268.4204275818
 20
43.9473434115
 10
268.1087248837
 20
44.1684255128
 10
267.9382601439
 20
44.4359559344
 10
267.9275057417
 20
44.7209438177
 10
268.0776269715
 20
44.9925062711
 10
268.3512408284
 20
45.2092587476
  0
LWPOLYLINE
  5
22E
330
1F
100
AcDbEntity
  8
0
  6
Continuous
 62
     7
370
    15
100
AcDbPolyline
 90
       17
 70
   128
 43
0.0
 10
269.6083483197
 20
45.2526151389
 10
269.9197235154
 20
45.1717832061
 10
270.1538126274
 20
45.0283164459
 10
270.2749790957
 20
44.8440555575
 10
270.2647761628
 20
44.6470527248
 10
270.1247558841
 20
44.4673005949
 10
269.876238062
 20
44.3321630667
 10
269.5570535472
 20
44.2622157415
 10
269.2157987466
 20
44.2681055198
 10
268.9044235509
 20
44.3489374527
 10
268.6703344389
 20
44.4924042128
 10
268.5491679706
 20
44.6766651013
 10
268.5593709035
 20
44.873667934
 10
268.6993911822
 20
45.0534200639
 10
268.9479103214
 20
45.1885568317
 10
269.2670935192
 20
45.2585049173
 10
269.6083483197
 20
45.2526151389
  0
SPLINE
  5
22F
330
1F
100
AcDbEntity
  8
0
  6
Continuous
 62
     7
370
    15
100
AcDbSpline
210
0.0
220
0.0
230
1.0
 70
     8
 71
     3
 72
    11
 73
     7
 74
     0
 42
0.000000001
 43
0.00000001
 40
0.0
 40
0.0
 40
0.0
 40
0.0
 40
0.1336654004686806
 40
0.4825478966402566
 40
0.8156346299562477
 40
0.9999999999999999
 40
0.9999999999999999
 40
0.9999999999999999
 40
0.9999999999999999
 10
269.1583314157259
 20
45.23103712236957
 30
0.0
 10
269.193687470269
 20
45.21232562060503
 30
0.0
 10
269.3213270067045
 20
45.14477488729784
 30
0.0
 10
269.5597724108102
 20
45.06537287244719
 30
0.0
 10
269.8158606848115
 20
45.07113673671024
 30
0.0
 10
269.9533140954471
 20
45.10634664505469
 30
0.0
 10
270.0022879980577
 20
45.11889174389376
 30
0.0
  0
SPLINE
  5
230
330
1F
100
AcDbEntity
  8
0
  6
Continuous
 62
     7
370
    15
100
AcDbSpline
210
0.0
220
0.0
230
1.0
 70
     8
 71
     3
 72
    10
 73
     6
 74
     0
 42
0.000000001
 43
0.00000001
 40
0.0
 40
0.0
 40
0.0
 40
0.0
 40
0.4391165457593121
 40
0.7513669821993728
 40
1.0
 40
1.0
 40
1.0
 40
1.0
 10
268.5681176093685
 20
44.86517712704485
 30
0.0
 10
268.6526111158572
 20
44.87560947452759
 30
0.0
 10
268.7971869274472
 20
44.89346013745764
 30
0.0
 10
269.0073539541607
 20
45.05563834800277
 30
0.0
 10
269.111960547207
 20
45.17716554829353
 30
0.0
 10
269.1583314157259
 20
45.23103712236957
 30
0.0
  0
SPLINE
  5
231
330
1F
100
AcDbEntity
  8
0
  6
Continuous
 62
     7
370
    15
100
AcDbSpline
210
0.0
220
0.0
230
1.0
 70
     8
 71
     3
 72
    10
 73
     6
 74
     0
 42
0.000000001
 43
0.00000001
 40
0.0
 40
0.0
 40
0.0
 40
0.0
 40
0.4391164019505296
 40
0.7513674622311382
 40
1.0
 40
1.0
 40
1.0
 40
1.0
 10
268.821859068254
 20
44.38717251358364
 30
0.0
 10
268.7855341184425
 20
44.41365916160619
 30
0.0
 10
268.7233788784326
 20
44.45898018678155
 30
0.0
 10
268.6330244501837
 20
44.66109143831959
 30
0.0
 10
268.5880529161973
 20
44.80249481539609
 30
0.0
 10
268.5681176093685
 20
44.86517712704485
 30
0.0
  0
SPLINE
  5
232
330
1F
100
AcDbEntity
  8
0
  6
Continuous
 62
     7
370
    15
100
AcDbSpline
210
0.0
220
0.0
230
1.0
 70
     8
 71
     3
 72
     9
 73
     5
 74
     0
 42
0.000000001
 43
0.00000001
 40
0.0
 40
0.0
 40
0.0
 40
0.0
 40
0.8298921168299522
 40
1.0
 40
1.0
 40
1.0
 40
1.0
 10
270.2560294569433
 20
44.64088713043254
 30
0.0
 10
270.1713731682868
 20
44.53955087957075
 30
0.0
 10
270.069364380711
 20
44.41744313953236
 30
0.0
 10
269.9614506861118
 20
44.36927989520839
 30
0.0
 10
269.9430937159585
 20
44.36108694766984
 30
0.0
  0
SPLINE
  5
233
330
1F
100
AcDbEntity
  8
0
  6
Continuous
 62
     7
370
    15
100
AcDbSpline
210
0.0
220
0.0
230
1.0
 70
     8
 71
     3
 72
    10
 73
     6
 74
     0
 42
0.000000001
 43
0.00000001
 40
0.0
 40
0.0
 40
0.0
 40
0.0
 40
0.4391164019505296
 40
0.7513674622311382
 40
1.0
 40
1.0
 40
1.0
 40
1.0
 10
270.0022879980577
 20
45.11889174389376
 30
0.0
 10
270.0386129478692
 20
45.00851831583351
 30
0.0
 10
270.1007681878792
 20
44.81965950260993
 30
0.0
 10
270.191122616128
 20
44.68134944648859
 30
0.0
 10
270.2360941501144
 20
44.65331461381414
 30
0.0
 10
270.2560294569433
 20
44.64088713043254
 30
0.0
  0
LINE
  5
234
330
1F
100
AcDbEntity
  8
0
  6
Continuous
 62
     7
370
    15
100
AcDbLine
 10
270.0022879981
 20
44.3874519189
 30
0.0
 11
270.0022879981
 21
45.1188917439
 31
0.0
  0
LINE
  5
235
330
1F
100
AcDbEntity
  8
0
  6
Continuous
 62
     7
370
    15
100
AcDbLine
 10
269.1583314157
 20
44.2769390861
 30
0.0
 11
269.1583314157
 21
45.2310371224
 31
0.0
  0
SPLINE
  5
236
330
1F
100
AcDbEntity
  8
0
  6
Continuous
 62
     7
370
    15
100
AcDbSpline
210
0.0
220
0.0
230
1.0
 70
     8
 71
     3
 72
    12
 73
     8
 74
     0
 42
0.000000001
 43
0.00000001
 40
0.0
 40
0.0
 40
0.0
 40
0.0
 40
0.2499999999999992
 40
0.2499999999999992
 40
0.4999999999999984
 40
0.4999999999999984
 40
1.0
 40
1.0
 40
1.0
 40
1.0
 10
246.3854031367903
 20
39.50996872019589
 30
0.0
 10
246.4193346290798
 20
39.49038048664441
 30
0.0
 10
246.4577663381071
 20
39.463193297708
 30
0.0
 10
246.5319431907721
 20
39.40396937017218
 30
0.0
 10
246.5671594710275
 20
39.37253669115541
 30
0.0
 10
246.6622583882855
 20
39.28054397435343
 30
0.0
 10
246.7107875450474
 20
39.22368730882878
 30
0.0
 10
246.7441291412024
 20
39.17545850282645
 30
0.0
  0
ARC
  5
237
330
1F
100
AcDbEntity
  8
0
  6
Continuous
 62
     7
370
    15
100
AcDbCircle
 10
270.5291422892
 20
55.4342500984
 30
0.0
 40
10.22280757319504
100
AcDbArc
 50
73.3381111008
 51
100.5922068816
  0
SPLINE
  5
238
330
1F
100
AcDbEntity
  8
0
  6
Continuous
 62
     7
370
    15
100
AcDbSpline
210
0.0
220
0.0
230
1.0
 70
     8
 71
     3
 72
    12
 73
     8
 74
     0
 42
0.000000001
 43
0.00000001
 40
0.0
 40
0.0
 40
0.0
 40
0.0
 40
0.5
 40
0.5
 40
0.75
 40
0.75
 40
1.0
 40
1.0
 40
1.0
 40
1.0
 10
273.6723919604008
 20
64.79427444103776
 30
0.0
 10
273.6723919604008
 20
64.86695743823056
 30
0.0
 10
273.6553751923306
 20
64.95054028497086
 30
0.0
 10
273.6009643664491
 20
65.07198446284654
 30
0.0
 10
273.5778191475272
 20
65.11169934052789
 30
0.0
 10
273.5235383356701
 20
65.18042911239368
 30
0.0
 10
273.4923023671125
 20
65.20933870829934
 30
0.0
 10
273.4602599260448
 20
65.22783641579294
 30
0.0
  0
ARC
  5
239
330
1F
100
AcDbEntity
  8
0
  6
Continuous
 62
     7
370
    15
100
AcDbCircle
 10
284.3196769376
 20
30.96204909
 30
0.0
 40
38.46439059117943
100
AcDbArc
 50
126.8528649113
 51
166.728779873
  0
LWPOLYLINE
  5
23A
330
1F
100
AcDbEntity
  8
0
  6
Continuous
 62
     7
370
    15
100
AcDbPolyline
 90
       12
 70
   128
 43
0.0
 10
256.3963641185
 20
60.3519632432
 10
257.8467211401
 20
61.6245665539
 10
259.3243530997
 20
62.7657155911
 10
260.8180788581
 20
63.766774613
 10
262.3165953631
 20
64.6201690677
 10
263.8085630958
 20
65.3194425248
 10
265.2826922571
 20
65.8593003465
 10
266.7278276794
 20
66.2356602265
 10
268.133034231
 20
66.4456725957
 10
269.4876787232
 20
66.4877481338
 10
270.7815099228
 20
66.3615704996
 10
272.0047379071
 20
66.0680919507
  0
LINE
  5
23B
330
1F
100
AcDbEntity
  8
0
  6
Continuous
 62
     7
370
    15
100
AcDbLine
 10
273.4602598934
 20
65.2278369934
 30
0.0
 11
272.0047379071
 21
66.0680919507
 31
0.0
  0
LINE
  5
23C
330
1F
100
AcDbEntity
  8
0
  6
Continuous
 62
     7
370
    15
100
AcDbLine
 10
244.929880988
 20
40.3502238627
 30
0.0
 11
246.3854029743
 21
39.5099689053
 31
0.0
  0
ARC
  5
23D
330
1F
100
AcDbEntity
  8
0
  6
Continuous
 62
     7
370
    15
100
AcDbCircle
 10
284.3573359865
 20
31.0684827889
 30
0.0
 40
40.50524564818861
100
AcDbArc
 50
136.9919325105
 51
166.7530183965
  0
SPLINE
  5
23E
330
1F
100
AcDbEntity
  8
0
  6
Continuous
 62
     7
370
    15
100
AcDbSpline
210
0.0
220
0.0
230
1.0
 70
     8
 71
     3
 72
    34
 73
    30
 74
     0
 42
0.000000001
 43
0.00000001
 40
0.0
 40
0.0
 40
0.0
 40
0.0
 40
0.062499999999999
 40
0.062499999999999
 40
0.124999999999998
 40
0.124999999999998
 40
0.1874999999999971
 40
0.1874999999999971
 40
0.2499999999999966
 40
0.2499999999999966
 40
0.3124999999999962
 40
0.3124999999999962
 40
0.3749999999999957
 40
0.3749999999999957
 40
0.4999999999999958
 40
0.4999999999999958
 40
0.6249999999999958
 40
0.6249999999999958
 40
0.6874999999999964
 40
0.6874999999999964
 40
0.7499999999999971
 40
0.7499999999999971
 40
0.8124999999999979
 40
0.8124999999999979
 40
0.8749999999999986
 40
0.8749999999999986
 40
0.9374999999999992
 40
0.9374999999999992
 40
1.0
 40
1.0
 40
1.0
 40
1.0
 10
254.7375647513225
 20
58.69716561122821
 30
0.0
 10
254.7966901649658
 20
58.66758812736997
 30
0.0
 10
254.8595028603963
 20
58.64391210517444
 30
0.0
 10
254.9922118633209
 20
58.6078325947547
 30
0.0
 10
255.0628235596921
 20
58.59538470461546
 30
0.0
 10
255.2080715296694
 20
58.58267481089008
 30
0.0
 10
255.2820539594316
 20
58.58233263099275
 30
0.0
 10
255.4327360242564
 20
58.59333897581537
 30
0.0
 10
255.5101840440566
 20
58.60492563980085
 30
0.0
 10
255.6621166300316
 20
58.63910018253965
 30
0.0
 10
255.7370727106161
 20
58.66161258492964
 30
0.0
 10
255.8850077775248
 20
58.7174246575277
 30
0.0
 10
255.9579364906152
 20
58.75086950373399
 30
0.0
 10
256.1645490166252
 20
58.86323176305331
 30
0.0
 10
256.2914741926745
 20
58.95726916407404
 30
0.0
 10
256.5005809453014
 20
59.16587047924995
 30
0.0
 10
256.5851293284992
 20
59.28279457339366
 30
0.0
 10
256.6701028852733
 20
59.46131982336631
 30
0.0
 10
256.6920625858712
 20
59.52253640229299
 30
0.0
 10
256.721173682611
 20
59.64334238480683
 30
0.0
 10
256.7285281453908
 20
59.70294291125199
 30
0.0
 10
256.7288710804351
 20
59.82068420138525
 30
0.0
 10
256.7216310375998
 20
59.87913558952236
 30
0.0
 10
256.6930191870778
 20
59.98989821391381
 30
0.0
 10
256.6717358455184
 20
60.04281065863644
 30
0.0
 10
256.6149076789113
 20
60.1437288659457
 30
0.0
 10
256.5794501899374
 20
60.19124388057681
 30
0.0
 10
256.4970452370508
 20
60.27750385846022
 30
0.0
 10
256.449840334475
 20
60.31674941088029
 30
0.0
 10
256.3963641885861
 20
60.35196253899392
 30
0.0
  0
LINE
  5
23F
330
1F
100
AcDbEntity
  8
0
  6
Continuous
 62
     7
370
    15
100
AcDbLine
 10
279.3822911871
 20
57.9249708848
 30
0.0
 11
279.4865730271
 21
58.1055927096
 31
0.0
  0
LINE
  5
240
330
1F
100
AcDbEntity
  8
0
  6
Continuous
 62
     7
370
    15
100
AcDbLine
 10
277.0841829056
 20
56.5983012128
 30
0.0
 11
279.3822911871
 21
57.9249708848
 31
0.0
  0
ARC
  5
241
330
1F
100
AcDbEntity
  8
0
  6
Continuous
 62
     7
370
    15
100
AcDbCircle
 10
277.9122860032
 20
55.3036989299
 30
0.0
 40
1.536798559128407
100
AcDbArc
 50
122.6053519586
 51
177.394632491
  0
LINE
  5
242
330
1F
100
AcDbEntity
  8
0
  6
Continuous
 62
     7
370
    15
100
AcDbLine
 10
276.3770760085
 20
46.5140885562
 30
0.0
 11
276.3770760085
 21
55.3735565245
 31
0.0
  0
ARC
  5
243
330
1F
100
AcDbEntity
  8
0
  6
Continuous
 62
     7
370
    15
100
AcDbCircle
 10
276.8081494916
 20
46.4441600091
 30
0.0
 40
0.4367085406722914
100
AcDbArc
 50
170.7857695821
 51
309.2035248725
  0
LINE
  5
244
330
1F
100
AcDbEntity
  8
0
  6
Continuous
 62
     7
370
    15
100
AcDbLine
 10
279.3822911871
 20
47.4324217855
 30
0.0
 11
277.0841829056
 21
46.1057521135
 31
0.0
  0
LINE
  5
245
330
1F
100
AcDbEntity
  8
0
  6
Continuous
 62
     7
370
    15
100
AcDbLine
 10
279.4865730271
 20
47.3722012103
 30
0.0
 11
279.3822911871
 21
47.4324217855
 31
0.0
  0
LINE
  5
246
330
1F
100
AcDbEntity
  8
0
  6
Continuous
 62
     7
370
    15
100
AcDbLine
 10
246.7896366911
 20
28.6170828406
 30
0.0
 11
246.7441286314
 21
28.4987142176
 31
0.0
  0
LINE
  5
247
330
1F
100
AcDbEntity
  8
0
  6
Continuous
 62
     7
370
    15
100
AcDbLine
 10
246.7896366911
 20
28.6170828406
 30
0.0
 11
249.9312812183
 21
30.430715622
 31
0.0
  0
ARC
  5
248
330
1F
100
AcDbEntity
  8
0
  6
Continuous
 62
     7
370
    15
100
AcDbCircle
 10
249.1031781207
 20
31.7253179049
 30
0.0
 40
1.536798559128556
100
AcDbArc
 50
302.6053519586
 51
357.394632491
  0
LINE
  5
249
330
1F
100
AcDbEntity
  8
0
  6
Continuous
 62
     7
370
    15
100
AcDbLine
 10
250.6383881154
 20
40.5149282786
 30
0.0
 11
250.6383881154
 21
31.6554603103
 31
0.0
  0
ARC
  5
24A
330
1F
100
AcDbEntity
  8
0
  6
Continuous
 62
     7
370
    15
100
AcDbCircle
 10
250.2073146324
 20
40.5848568257
 30
0.0
 40
0.43670854067239
100
AcDbArc
 50
350.7857695821
 51
129.2035248725
  0
LINE
  5
24B
330
1F
100
AcDbEntity
  8
0
  6
Continuous
 62
     7
370
    15
100
AcDbLine
 10
249.9312812183
 20
40.9232647213
 30
0.0
 11
246.7896366911
 21
39.10963194
 31
0.0
  0
LINE
  5
24C
330
1F
100
AcDbEntity
  8
0
  6
Continuous
 62
     7
370
    15
100
AcDbLine
 10
246.7441286314
 20
39.1754580757
 30
0.0
 11
246.7896366911
 21
39.10963194
 31
0.0
  0
LINE
  5
24D
330
1F
100
AcDbEntity
  8
0
  6
Continuous
 62
     7
370
    15
100
AcDbLine
 10
273.6723922259
 20
61.5693136555
 30
0.0
 11
273.6723922259
 21
64.7942747985
 31
0.0
  0
LINE
  5
24E
330
1F
100
AcDbEntity
  8
0
  6
Continuous
 62
     7
370
    15
100
AcDbLine
 10
276.4651392143
 20
63.1815321748
 30
0.0
 11
273.6723922259
 21
61.5693136555
 31
0.0
  0
SPLINE
  5
24F
330
1F
100
AcDbEntity
  8
0
  6
Continuous
 62
     7
370
    15
100
AcDbSpline
210
0.0
220
0.0
230
1.0
 70
     8
 71
     3
 72
     8
 73
     4
 74
     0
 42
0.000000001
 43
0.00000001
 40
0.0
 40
0.0
 40
0.0
 40
0.0
 40
1.0
 40
1.0
 40
1.0
 40
1.0
 10
243.8573266645618
 20
41.44173764772736
 30
0.0
 10
243.5702595348895
 20
41.39428564800401
 30
0.0
 10
243.283146416304
 20
41.34692821530123
 30
0.0
 10
242.9959915899064
 20
41.29965654638915
 30
0.0
  0
SPLINE
  5
250
330
1F
100
AcDbEntity
  8
0
  6
Continuous
 62
     7
370
    15
100
AcDbSpline
210
0.0
220
0.0
230
1.0
 70
     8
 71
     3
 72
     8
 73
     4
 74
     0
 42
0.000000001
 43
0.00000001
 40
0.0
 40
0.0
 40
0.0
 40
0.0
 40
0.0011862984959113
 40
0.0011862984959113
 40
0.0011862984959113
 40
0.0011862984959113
 10
242.6436905026309
 20
41.67001344605134
 30
0.0
 10
242.7614013704755
 20
41.54646349493888
 30
0.0
 10
242.8788411209115
 20
41.4230084458236
 30
0.0
 10
242.9959915899064
 20
41.29965654638915
 30
0.0
  0
LWPOLYLINE
  5
251
330
1F
100
AcDbEntity
  8
0
  6
Continuous
 62
     7
370
    15
100
AcDbPolyline
 90
       25
 70
   128
 43
0.0
 10
242.6436907158
 20
41.6700134144
 10
243.0924268948
 20
43.4534335955
 10
243.6464459013
 20
45.2507348931
 10
244.3021191553
 20
47.0501437808
 10
245.0551503122
 20
48.839873487
 10
245.9006081908
 20
50.608200418
 10
246.8329531147
 20
52.3435417229
 10
247.8460790592
 20
54.0345290543
 10
248.9333492127
 20
55.6700853721
 10
250.0876414165
 20
57.2394983235
 10
251.3013942625
 20
58.7324879204
 10
252.5666571427
 20
60.1392734547
 10
253.8751422747
 20
61.4506385137
 10
255.2182780431
 20
62.6579952338
 10
256.5872667871
 20
63.7534328697
 10
257.9731406946
 20
64.7297774382
 10
259.3668217089
 20
65.5806339059
 10
260.7591804894
 20
66.3004263107
 10
262.1410964621
 20
66.8844415533
 10
263.5035177064
 20
67.3288548437
 10
264.8375191331
 20
67.6307526406
 10
266.1343631738
 20
67.7881585602
 10
267.3855542751
 20
67.8000420219
 10
268.5828968504
 20
67.6663243264
 10
269.7185476348
 20
67.3878815024
  0
LINE
  5
252
330
1F
100
AcDbEntity
  8
0
  6
Continuous
 62
     7
370
    15
100
AcDbLine
 10
270.0235146574
 20
66.4282848477
 30
0.0
 11
269.7185476348
 21
67.3878815024
 31
0.0
  0
LWPOLYLINE
  5
253
330
1F
100
AcDbEntity
  8
0
  6
Continuous
 62
     7
370
    15
100
AcDbPolyline
 90
       24
 70
   128
 43
0.0
 10
243.8573266701
 20
41.441737622
 10
244.2874616009
 20
43.1797618152
 10
244.8228925302
 20
44.9323519203
 10
245.4599434625
 20
46.6874800408
 10
246.1942442965
 20
48.4331046569
 10
247.0207571667
 20
50.1572481902
 10
247.9338106878
 20
51.8480798912
 10
248.9271381502
 20
53.4939964448
 10
249.9939255939
 20
55.0837052361
 10
251.1268513212
 20
56.6062981121
 10
252.318142531
 20
58.0513259011
 10
253.5596247106
 20
59.4088755958
 10
254.8427792573
 20
60.6696325152
 10
256.1588014312
 20
61.8249426573
 10
257.4986611052
 20
62.8668797092
 10
258.8531644219
 20
63.7882958497
 10
260.2130173426
 20
64.5828660403
 10
261.5688887855
 20
65.2451412043
 10
262.9114753277
 20
65.7705734107
 10
264.2315646725
 20
66.1555601182
 10
265.5200982108
 20
66.3974589977
 10
266.7682349826
 20
66.4946111686
 10
267.9674102873
 20
66.4463476569
 10
268.0483579197
 20
66.4376308601
  0
LINE
  5
254
330
1F
100
AcDbEntity
  8
0
  6
Continuous
 62
     7
370
    15
100
AcDbLine
 10
241.2058460397
 20
42.5000634777
 30
0.0
 11
242.6436907158
 21
41.6700134144
 31
0.0
  0
ARC
  5
255
330
1F
100
AcDbEntity
  8
0
  6
Continuous
 62
     7
370
    15
100
AcDbCircle
 10
265.3495942149
 20
58.4243975837
 30
0.0
 40
10.22275434150015
100
AcDbArc
 50
73.3380736439
 51
100.5916222847
  0
LINE
  5
256
330
1F
100
AcDbEntity
  8
0
  6
Continuous
 62
     7
370
    15
100
AcDbLine
 10
269.7185476348
 20
67.3878815024
 30
0.0
 11
268.2807029588
 21
68.2179315658
 31
0.0
  0
LINE
  5
257
330
1F
100
AcDbEntity
  8
0
  6
Continuous
 62
     7
370
    15
100
AcDbLine
 10
245.1099175076
 20
41.1153956205
 30
0.0
 11
244.4838138899
 21
41.4768375455
 31
0.0
  0
SPLINE
  5
258
330
1F
100
AcDbEntity
  8
0
  6
Continuous
 62
     7
370
    15
100
AcDbSpline
210
0.0
220
0.0
230
1.0
 70
     8
 71
     3
 72
    11
 73
     7
 74
     0
 42
0.000000001
 43
0.00000001
 40
0.0
 40
0.0
 40
0.0
 40
0.0
 40
0.3165694752064712
 40
0.6331520400060429
 40
0.9494411625907934
 40
1.0
 40
1.0
 40
1.0
 40
1.0
 10
255.7043401954998
 20
59.45948429348109
 30
0.0
 10
255.5707500152961
 20
59.41230563056102
 30
0.0
 10
255.3035641311687
 20
59.31794635396585
 30
0.0
 10
254.98761393197
 20
59.05813065477267
 30
0.0
 10
254.8069112410134
 20
58.83493926930018
 30
0.0
 10
254.7719762774633
 20
58.70619009180238
 30
0.0
 10
254.7671615549225
 20
58.68844593225523
 30
0.0
  0
SPLINE
  5
259
330
1F
100
AcDbEntity
  8
0
  6
Continuous
 62
     7
370
    15
100
AcDbSpline
210
0.0
220
0.0
230
1.0
 70
     8
 71
     3
 72
    14
 73
    10
 74
     0
 42
0.000000001
 43
0.00000001
 40
0.0
 40
0.0
 40
0.0
 40
0.0
 40
0.25
 40
0.25
 40
0.5
 40
0.5
 40
0.75
 40
0.75
 40
1.0
 40
1.0
 40
1.0
 40
1.0
 10
244.4838137772955
 20
41.47683771495942
 30
0.0
 10
244.4461797838375
 20
41.49856335693945
 30
0.0
 10
244.4004058271483
 20
41.51577511805095
 30
0.0
 10
244.3004699496384
 20
41.53818045168345
 30
0.0
 10
244.2460360807985
 20
41.54335533528328
 30
0.0
 10
244.1398204303065
 20
41.54141314096852
 30
0.0
 10
244.0865041303564
 20
41.53432473805029
 30
0.0
 10
243.9890110630557
 20
41.5095913017656
 30
0.0
 10
243.9440993725261
 20
41.49183046577956
 30
0.0
 10
243.9063461069261
 20
41.47003596945756
 30
0.0
  0
LINE
  5
25A
330
1F
100
AcDbEntity
  8
0
  6
Continuous
 62
     7
370
    15
100
AcDbLine
 10
243.9063460891
 20
41.4700359303
 30
0.0
 11
243.8573266701
 21
41.441737622
 31
0.0
  0
SPLINE
  5
25B
330
1F
100
AcDbEntity
  8
0
  6
Continuous
 62
     7
370
    15
100
AcDbSpline
210
0.0
220
0.0
230
1.0
 70
     8
 71
     3
 72
    10
 73
     6
 74
     0
 42
0.000000001
 43
0.00000001
 40
0.0
 40
0.0
 40
0.0
 40
0.0
 40
0.5
 40
0.5
 40
1.0
 40
1.0
 40
1.0
 40
1.0
 10
241.103833474276
 20
42.52951165663606
 30
0.0
 10
241.1111497586982
 20
42.53387965652924
 30
0.0
 10
241.1229736189066
 20
42.53441170911749
 30
0.0
 10
241.1571249831844
 20
42.52518165947919
 30
0.0
 10
241.1793819465772
 20
42.51534078216289
 30
0.0
 10
241.2058459645988
 20
42.50006342974658
 30
0.0
  0
SPLINE
  5
25C
330
1F
100
AcDbEntity
  8
0
  6
Continuous
 62
     7
370
    15
100
AcDbSpline
210
0.0
220
0.0
230
1.0
 70
     8
 71
     3
 72
    14
 73
    10
 74
     0
 42
0.000000001
 43
0.00000001
 40
0.0
 40
0.0
 40
0.0
 40
0.0
 40
0.25
 40
0.25
 40
0.5
 40
0.5
 40
0.75
 40
0.75
 40
1.0
 40
1.0
 40
1.0
 40
1.0
 10
256.1214190505254
 20
59.76593610261933
 30
0.0
 10
256.1362599426546
 20
59.72741808378373
 30
0.0
 10
256.1356261747507
 20
59.68949944563026
 30
0.0
 10
256.1026905697902
 20
59.62355849586099
 30
0.0
 10
256.0705547244482
 20
59.59528493831903
 30
0.0
 10
255.9856521490438
 20
59.54736591213153
 30
0.0
 10
255.9332352365507
 20
59.52748881468379
 30
0.0
 10
255.8218995722556
 20
59.49163188866741
 30
0.0
 10
255.7637448955446
 20
59.47575986498399
 30
0.0
 10
255.7043399398132
 20
59.45948451942925
 30
0.0
  0
LINE
  5
25D
330
1F
100
AcDbEntity
  8
0
  6
Continuous
 62
     7
370
    15
100
AcDbLine
 10
256.1052920557
 20
59.8077919452
 30
0.0
 11
256.1214191522
 21
59.7659364556
 31
0.0
  0
SPLINE
  5
25E
330
1F
100
AcDbEntity
  8
0
  6
Continuous
 62
     7
370
    15
100
AcDbSpline
210
0.0
220
0.0
230
1.0
 70
     8
 71
     3
 72
    10
 73
     6
 74
     0
 42
0.000000001
 43
0.00000001
 40
0.0
 40
0.0
 40
0.0
 40
0.0
 40
0.5
 40
0.5
 40
1.0
 40
1.0
 40
1.0
 40
1.0
 10
256.3963641885861
 20
60.35196253899392
 30
0.0
 10
256.3683491388482
 20
60.27993643630588
 30
0.0
 10
256.3305312503984
 20
60.19898995100244
 30
0.0
 10
256.2345555025635
 20
60.01859491466252
 30
0.0
 10
256.1765237252638
 20
59.91926870768772
 30
0.0
 10
256.1052919876738
 20
59.80779224612365
 30
0.0
  0
LINE
  5
25F
330
1F
100
AcDbEntity
  8
0
  6
Continuous
 62
     7
370
    15
100
AcDbLine
 10
246.7896366911
 20
39.10963194
 30
0.0
 11
244.9617825304
 21
40.1648296865
 31
0.0
  0
SPLINE
  5
260
330
1F
100
AcDbEntity
  8
0
  6
Continuous
 62
     7
370
    15
100
AcDbSpline
210
0.0
220
0.0
230
1.0
 70
     8
 71
     3
 72
     8
 73
     4
 74
     0
 42
0.000000001
 43
0.00000001
 40
0.0000000000000004
 40
0.0000000000000004
 40
0.0000000000000004
 40
0.0000000000000004
 40
0.0011862984959128
 40
0.0011862984959128
 40
0.0011862984959128
 40
0.0011862984959128
 10
244.9617822628774
 20
40.16482974635062
 30
0.0
 10
244.9507200636197
 20
40.2269381912694
 30
0.0
 10
244.9400940570459
 20
40.28873097857102
 30
0.0
 10
244.9298809292286
 20
40.35022380528891
 30
0.0
  0
LINE
  5
261
330
1F
100
AcDbEntity
  8
0
  6
Continuous
 62
     7
370
    15
100
AcDbLine
 10
245.0345667627
 20
40.9500045817
 30
0.0
 11
245.0146734502
 21
40.7206588252
 31
0.0
  0
ARC
  5
262
330
1F
100
AcDbEntity
  8
0
  6
Continuous
 62
     7
370
    15
100
AcDbCircle
 10
261.0173499247
 20
39.2933586441
 30
0.0
 40
16.06296283249326
100
AcDbArc
 50
176.9225000953
 51
185.727139394
  0
LWPOLYLINE
  5
263
330
1F
100
AcDbEntity
  8
0
  6
Continuous
 62
     7
370
    15
100
AcDbPolyline
 90
        3
 70
   128
 43
0.0
 10
244.0357793901
 20
40.0498767708
 10
244.0916911359
 20
41.4375432005
 10
244.0977800384
 20
41.5127828277
  0
ARC
  5
264
330
1F
100
AcDbEntity
  8
0
  6
Continuous
 62
     7
370
    15
100
AcDbCircle
 10
255.7538820663
 20
39.7518601356
 30
0.0
 40
11.72189166669161
100
AcDbArc
 50
178.543158738
 51
203.8694730025
  0
LWPOLYLINE
  5
265
330
1F
100
AcDbEntity
  8
0
  6
Continuous
 62
     7
370
    15
100
AcDbPolyline
 90
       40
 70
   128
 43
0.0
 10
267.6266296387
 20
35.6667852777
 10
267.6829440845
 20
36.5048364306
 10
267.8504294043
 20
37.3862020538
 10
268.1247477655
 20
38.2880552644
 10
268.4987941313
 20
39.1870382557
 10
268.9628813121
 20
40.0598678939
 10
269.5049892241
 20
40.8839386463
 10
270.1110780279
 20
41.637907348
 10
270.7654500802
 20
42.302246452
 10
271.4511575323
 20
42.859750056
 10
272.1504409618
 20
43.2959795151
 10
272.8451892834
 20
43.5996357889
 10
273.5174088797
 20
43.7628549793
 10
274.1496894802
 20
43.781409976
 10
274.725655635
 20
43.6548197541
 10
275.2303899938
 20
43.3863629284
 10
275.6508199542
 20
42.982992592
 10
275.9760569767
 20
42.4551559602
 10
276.1976772893
 20
41.816523429
 10
276.3099413472
 20
41.0836355099
 10
276.3099413472
 20
40.2754733444
 10
276.1976772893
 20
39.412968103
 10
275.9760569767
 20
38.5184582055
 10
275.6508199542
 20
37.6151109005
 10
275.2303899938
 20
36.7263224642
 10
274.725655635
 20
35.875111752
 10
274.1496894802
 20
35.0835251627
 10
273.5174088797
 20
34.3720645168
 10
272.8451892834
 20
33.7591554817
 10
272.1504409618
 20
33.2606724174
 10
271.4511575323
 20
32.8895264144
 10
270.7654500802
 20
32.6553290459
 10
270.1110780279
 20
32.5641462601
 10
269.5049892241
 20
32.6183397241
 10
268.9628813121
 20
32.8165060039
 10
268.4987941313
 20
33.1535119886
 10
268.1247477655
 20
33.6206302384
 10
267.8504294043
 20
34.2057622108
 10
267.6829440845
 20
34.8937533998
 10
267.6266296387
 20
35.6667852777
  0
LWPOLYLINE
  5
266
330
1F
100
AcDbEntity
  8
0
  6
Continuous
 62
     7
370
    15
100
AcDbPolyline
 90
       21
 70
   128
 43
0.0
 10
267.4852081935
 20
35.6667850876
 10
267.5424386747
 20
36.5184632694
 10
267.712647076
 20
37.4141599405
 10
267.9914257591
 20
38.3306773088
 10
268.371554442
 20
39.2442779174
 10
268.843187555
 20
40.1312999369
 10
269.3941104146
 20
40.9687701688
 10
270.0100543369
 20
41.7349985087
 10
270.6750665751
 20
42.410140178
 10
271.371923762
 20
42.9767089267
 10
272.0825776416
 20
43.4200313089
 10
272.7886226974
 20
43.7286253847
 10
273.4717725685
 20
43.894498563
 10
274.1143343659
 20
43.9133548789
 10
274.6996656821
 20
43.784706346
 10
275.2126069872
 20
43.5118845487
 10
275.6398732981
 20
43.1019553388
 10
275.9703987623
 20
42.5655360068
 10
276.1956226304
 20
41.9165191118
 10
276.3097121737
 20
41.1717142828
 10
276.32404309
 20
40.7693358625
  0
LWPOLYLINE
  5
267
330
1F
100
AcDbEntity
  8
0
  6
Continuous
 62
     7
370
    15
100
AcDbPolyline
 90
       11
 70
   128
 43
0.0
 10
271.9053439214
 20
33.1150949787
 10
271.371923762
 20
32.8443675246
 10
270.6750665751
 20
32.6063620912
 10
270.0100543369
 20
32.5136969735
 10
269.3941104146
 20
32.568771598
 10
268.843187555
 20
32.7701598357
 10
268.371554442
 20
33.1126458536
 10
267.9914257591
 20
33.587359227
 10
267.712647076
 20
34.182005579
 10
267.5424386747
 20
34.8811838129
 10
267.4852081935
 20
35.6667850876
  0
LINE
  5
268
330
1F
100
AcDbEntity
  8
0
  6
Continuous
 62
     7
370
    15
100
AcDbLine
 10
241.5393687046
 20
42.1405471337
 30
0.0
 11
241.1038328856
 21
42.5295113034
 31
0.0
  0
LINE
  5
269
330
1F
100
AcDbEntity
  8
0
  6
Continuous
 62
     7
370
    15
100
AcDbLine
 10
242.9959919419
 20
41.2996564377
 30
0.0
 11
241.5393687046
 21
42.1405471337
 31
0.0
  0
SPLINE
  5
26A
330
1F
100
AcDbEntity
  8
0
  6
Continuous
 62
     7
370
    15
100
AcDbSpline
210
0.0
220
0.0
230
1.0
 70
     8
 71
     3
 72
    38
 73
    34
 74
     0
 42
0.000000001
 43
0.00000001
 40
0.0
 40
0.0
 40
0.0
 40
0.0
 40
0.0625
 40
0.0625
 40
0.125
 40
0.125
 40
0.1875
 40
0.1875
 40
0.25
 40
0.25
 40
0.3125
 40
0.3125
 40
0.375
 40
0.375
 40
0.4375
 40
0.4375
 40
0.5
 40
0.5
 40
0.5625
 40
0.5625
 40
0.625
 40
0.625
 40
0.6875
 40
0.6875
 40
0.75
 40
0.75
 40
0.8125
 40
0.8125
 40
0.875
 40
0.875
 40
0.9375
 40
0.9375
 40
1.0
 40
1.0
 40
1.0
 40
1.0
 10
270.8262871661249
 20
43.94395210076659
 30
0.0
 10
270.7394105595056
 20
43.89379930329754
 30
0.0
 10
270.6419497751617
 20
43.84676940042011
 30
0.0
 10
270.4295039976533
 20
43.76116419517878
 30
0.0
 10
270.3176376562764
 20
43.72374675921495
 30
0.0
 10
270.0834837152264
 20
43.65966755164909
 30
0.0
 10
269.9617730224837
 20
43.63334588951439
 30
0.0
 10
269.7186121250912
 20
43.59418579459039
 30
0.0
 10
269.5947241782225
 20
43.58095421626827
 30
0.0
 10
269.3509430941877
 20
43.56863811862794
 30
0.0
 10
269.2312318233576
 20
43.56940779940381
 30
0.0
 10
268.9956937527845
 20
43.58532735767358
 30
0.0
 10
268.8799006921064
 20
43.60066368324711
 30
0.0
 10
268.6600418217738
 20
43.64540662179672
 30
0.0
 10
268.5548700635049
 20
43.67484934162424
 30
0.0
 10
268.3539871334492
 20
43.74866655737908
 30
0.0
 10
268.2593566063248
 20
43.79280767106672
 30
0.0
 10
268.0861082415703
 20
43.89313021289244
 30
0.0
 10
268.0067041550965
 20
43.94958482616284
 30
0.0
 10
267.8628456125874
 20
44.07525317839864
 30
0.0
 10
267.7994807608331
 20
44.14369963847318
 30
0.0
 10
267.6924721727098
 20
44.28795040226736
 30
0.0
 10
267.6483109213889
 20
44.36418263579043
 30
0.0
 10
267.5800143761905
 20
44.52434714792863
 30
0.0
 10
267.5565936915044
 20
44.60699639548684
 30
0.0
 10
267.5327443777238
 20
44.77259551577514
 30
0.0
 10
267.5320390219857
 20
44.85610003994259
 30
0.0
 10
267.5560660389265
 20
45.02329425690485
 30
0.0
 10
267.5806767824136
 20
45.10493534077462
 30
0.0
 10
267.6558113351369
 20
45.25978023045221
 30
0.0
 10
267.7074386858005
 20
45.33434023192854
 30
0.0
 10
267.8346167861309
 20
45.46717059344205
 30
0.0
 10
267.9099971766683
 20
45.52604617226602
 30
0.0
 10
267.9978600413788
 20
45.57676832441201
 30
0.0
  0
SPLINE
  5
26B
330
1F
100
AcDbEntity
  8
0
  6
Continuous
 62
     7
370
    15
100
AcDbSpline
210
0.0
220
0.0
230
1.0
 70
     8
 71
     3
 72
    34
 73
    30
 74
     0
 42
0.000000001
 43
0.00000001
 40
0.0
 40
0.0
 40
0.0
 40
0.0
 40
0.0625000000000001
 40
0.0625000000000001
 40
0.1250000000000002
 40
0.1250000000000002
 40
0.1875000000000002
 40
0.1875000000000002
 40
0.2500000000000003
 40
0.2500000000000003
 40
0.3749999999999992
 40
0.3749999999999992
 40
0.4999999999999981
 40
0.4999999999999981
 40
0.5624999999999984
 40
0.5624999999999984
 40
0.6249999999999987
 40
0.6249999999999987
 40
0.687499999999999
 40
0.687499999999999
 40
0.7499999999999993
 40
0.7499999999999993
 40
0.8124999999999996
 40
0.8124999999999996
 40
0.8749999999999997
 40
0.8749999999999997
 40
0.9374999999999999
 40
0.9374999999999999
 40
1.0
 40
1.0
 40
1.0
 40
1.0
 10
267.9978600413788
 20
45.57676832441201
 30
0.0
 10
268.0858198660068
 20
45.62754645032695
 30
0.0
 10
268.1840143599733
 20
45.66858029483561
 30
0.0
 10
268.39497277393
 20
45.73049067695833
 30
0.0
 10
268.5095498946886
 20
45.7516720562507
 30
0.0
 10
268.7434919364675
 20
45.77446317772964
 30
0.0
 10
268.8648653523653
 20
45.77650071449606
 30
0.0
 10
269.1103339279041
 20
45.76433867358211
 30
0.0
 10
269.2329603964048
 20
45.75035204384234
 30
0.0
 10
269.6008887147915
 20
45.68867404594913
 30
0.0
 10
269.8350862639061
 20
45.62380560812995
 30
0.0
 10
270.2790976482778
 20
45.46244601239428
 30
0.0
 10
270.4787809558597
 20
45.36951088248218
 30
0.0
 10
270.7411063799373
 20
45.21751391365146
 30
0.0
 10
270.8202129262263
 20
45.1658349118187
 30
0.0
 10
270.9622517926073
 20
45.06023320543628
 30
0.0
 10
271.0254638406211
 20
45.0060304839275
 30
0.0
 10
271.1333477878238
 20
44.89563851021223
 30
0.0
 10
271.1771181257863
 20
44.84047697723896
 30
0.0
 10
271.2443048564268
 20
44.72898326409136
 30
0.0
 10
271.2678194670264
 20
44.67226878720066
 30
0.0
 10
271.2916351171521
 20
44.5576765118281
 30
0.0
 10
271.2918615142412
 20
44.50090019689473
 30
0.0
 10
271.2679432733407
 20
44.38681408466708
 30
0.0
 10
271.2433229106396
 20
44.32878330149735
 30
0.0
 10
271.1675981407458
 20
44.21409564348188
 30
0.0
 10
271.1173613295602
 20
44.15821723023248
 30
0.0
 10
270.9908585857272
 20
44.04853010420528
 30
0.0
 10
270.9132596442896
 20
43.99416024370067
 30
0.0
 10
270.8262871661249
 20
43.94395210076659
 30
0.0
  0
LWPOLYLINE
  5
26C
330
1F
100
AcDbEntity
  8
0
  6
Continuous
 62
     7
370
    15
100
AcDbPolyline
 90
       36
 70
   128
 43
0.0
 10
268.3514138461
 20
36.0851942945
 10
268.4096519004
 20
36.8660342178
 10
268.5824938212
 20
37.6890173664
 10
268.8643844564
 20
38.5276923205
 10
269.2462637152
 20
39.3551035168
 10
269.7158576451
 20
40.1446571988
 10
270.2580730646
 20
40.8709766152
 10
270.8554826633
 20
41.5107168577
 10
271.4888853002
 20
42.0433164551
 10
272.1379228539
 20
42.451657468
 10
272.7817347334
 20
42.7226148147
 10
273.3996283591
 20
42.8474802138
 10
273.9717440041
 20
42.8222402846
 10
274.4796935418
 20
42.6477063129
 10
274.9071509953
 20
42.3294878642
 10
275.2403774798
 20
41.8778127424
 10
275.468662592
 20
41.3071979534
 10
275.5846694877
 20
40.6359839365
 10
275.5846694877
 20
39.8857438529
 10
275.468662592
 20
39.0805911253
 10
275.2403774798
 20
38.2464039561
 10
274.9071509953
 20
37.4099937246
 10
274.4796935418
 20
36.5982434052
 10
273.9717440041
 20
35.8372433805
 10
273.3996283591
 20
35.1514527878
 10
272.7817347334
 20
34.5629133919
 10
272.1379228539
 20
34.0905413648
 10
271.4888853002
 20
33.7495195688
 10
270.8554826633
 20
33.550808048
 10
270.2580730646
 20
33.5007938497
 10
269.7158576451
 20
33.6010846682
 10
269.2462637152
 20
33.8484567394
 10
268.8643844564
 20
34.2349595284
 10
268.5824938212
 20
34.7481704828
 10
268.4096519004
 20
35.3715945974
 10
268.3514138461
 20
36.0851942945
  0
LINE
  5
26D
330
1F
100
AcDbEntity
  8
0
  6
Continuous
 62
     7
370
    15
100
AcDbLine
 10
245.0345667627
 20
40.9500045817
 30
0.0
 11
245.0345667627
 21
40.8048547445
 31
0.0
  0
LINE
  5
26E
330
1F
100
AcDbEntity
  8
0
  6
Continuous
 62
     7
370
    15
100
AcDbLine
 10
245.0345667627
 20
40.1228115471
 30
0.0
 11
245.0345667627
 21
37.6904184225
 31
0.0
  0
LINE
  5
26F
330
1F
100
AcDbEntity
  8
0
  6
Continuous
 62
     7
370
    15
100
AcDbLine
 10
245.0345667627
 20
41.1588942321
 30
0.0
 11
245.0345667627
 21
40.9500045817
 31
0.0
  0
LINE
  5
270
330
1F
100
AcDbEntity
  8
0
  6
Continuous
 62
     7
370
    15
100
AcDbLine
 10
245.0345667627
 20
37.6904184225
 30
0.0
 11
245.0345667627
 21
34.8204293799
 31
0.0
  0
ARC
  5
271
330
1F
100
AcDbEntity
  8
0
  6
Continuous
 62
     7
370
    15
100
AcDbCircle
 10
272.8218423877
 20
36.5740035076
 30
0.0
 40
4.342147436750035
100
AcDbArc
 50
152.8222845666
 51
207.1777154334
  0
SPLINE
  5
272
330
1F
100
AcDbEntity
  8
0
  6
Continuous
 62
     7
370
    15
100
AcDbSpline
210
0.0
220
0.0
230
1.0
 70
     8
 71
     3
 72
    22
 73
    18
 74
     0
 42
0.000000001
 43
0.00000001
 40
0.0
 40
0.0
 40
0.0
 40
0.0
 40
0.1250000000000001
 40
0.1250000000000001
 40
0.2500000000000003
 40
0.2500000000000003
 40
0.3750000000000004
 40
0.3750000000000004
 40
0.5000000000000006
 40
0.5000000000000006
 40
0.6250000000000007
 40
0.6250000000000007
 40
0.7500000000000004
 40
0.7500000000000004
 40
0.8750000000000003
 40
0.8750000000000003
 40
1.0
 40
1.0
 40
1.0
 40
1.0
 10
269.9076857711702
 20
33.96165137052294
 30
0.0
 10
269.8606480973863
 20
33.91442320057688
 30
0.0
 10
269.8121673322051
 20
33.8761832823766
 30
0.0
 10
269.7127107480397
 20
33.81757725737917
 30
0.0
 10
269.6611100148024
 20
33.79717735986341
 30
0.0
 10
269.5596706850841
 20
33.7768834910245
 30
0.0
 10
269.509638563867
 20
33.77661091693043
 30
0.0
 10
269.4111894748673
 20
33.79639438121644
 30
0.0
 10
269.3632986747353
 20
33.81661633177286
 30
0.0
 10
269.2739146703946
 20
33.87583571760931
 30
0.0
 10
269.2314295381274
 20
33.9154762924171
 30
0.0
 10
269.1540762986763
 20
34.0122174810578
 30
0.0
 10
269.1195209133832
 20
34.06859668574493
 30
0.0
 10
269.058262367239
 20
34.19699736472618
 30
0.0
 10
269.0317236571192
 20
34.26918156810864
 30
0.0
 10
268.988616965433
 20
34.42224476538911
 30
0.0
 10
268.9716416896159
 20
34.50389196638567
 30
0.0
 10
268.9590934203248
 20
34.5907192634531
 30
0.0
  0
SPLINE
  5
273
330
1F
100
AcDbEntity
  8
0
  6
Continuous
 62
     7
370
    15
100
AcDbSpline
210
0.0
220
0.0
230
1.0
 70
     8
 71
     3
 72
     8
 73
     4
 74
     0
 42
0.000000001
 43
0.00000001
 40
0.0
 40
0.0
 40
0.0
 40
0.0
 40
1.0
 40
1.0
 40
1.0
 40
1.0
 10
270.0083303112868
 20
34.0613085825574
 30
0.0
 10
269.9744127605888
 20
34.02819645493148
 30
0.0
 10
269.9408745024122
 20
33.994974511599
 30
0.0
 10
269.9076857711702
 20
33.96165137052294
 30
0.0
  0
LWPOLYLINE
  5
274
330
1F
100
AcDbEntity
  8
0
  6
Continuous
 62
     7
370
    15
100
AcDbPolyline
 90
        9
 70
   128
 43
0.0
 10
273.6241434686
 20
36.1486726137
 10
273.2068473569
 20
35.638017497
 10
272.7600383261
 20
35.1832012343
 10
272.2931990055
 20
34.7938767746
 10
271.816237115
 20
34.4783067108
 10
271.3392752244
 20
34.2431882976
 10
270.8724359039
 20
34.0935115507
 10
270.425626873
 20
34.032453087
 10
270.0083307613
 20
34.0613083685
  0
SPLINE
  5
275
330
1F
100
AcDbEntity
  8
0
  6
Continuous
 62
     7
370
    15
100
AcDbSpline
210
0.0
220
0.0
230
1.0
 70
     8
 71
     3
 72
     8
 73
     4
 74
     0
 42
0.000000001
 43
0.00000001
 40
0.0
 40
0.0
 40
0.0
 40
0.0
 40
1.0
 40
1.0
 40
1.0
 40
1.0
 10
273.7967730676962
 20
36.20677367803538
 30
0.0
 10
273.7390416623835
 20
36.18761164985071
 30
0.0
 10
273.6814931712216
 20
36.16825029675175
 30
0.0
 10
273.6241430082854
 20
36.14867282173756
 30
0.0
  0
SPLINE
  5
276
330
1F
100
AcDbEntity
  8
0
  6
Continuous
 62
     7
370
    15
100
AcDbSpline
210
0.0
220
0.0
230
1.0
 70
     8
 71
     3
 72
    22
 73
    18
 74
     0
 42
0.000000001
 43
0.00000001
 40
0.0
 40
0.0
 40
0.0
 40
0.0
 40
0.125
 40
0.125
 40
0.25
 40
0.25
 40
0.375
 40
0.375
 40
0.5
 40
0.5
 40
0.625
 40
0.625
 40
0.75
 40
0.75
 40
0.875
 40
0.875
 40
1.0
 40
1.0
 40
1.0
 40
1.0
 10
274.7525242030608
 20
37.93519566514467
 30
0.0
 10
274.7742558570241
 20
37.85366765072634
 30
0.0
 10
274.7874271966109
 20
37.76975018705207
 30
0.0
 10
274.7969316138435
 20
37.59701956696697
 30
0.0
 10
274.7930276632859
 20
37.50711256223071
 30
0.0
 10
274.7678926283101
 20
37.32919856178569
 30
0.0
 10
274.746912081775
 20
37.24085093782378
 30
0.0
 10
274.6877226342249
 20
37.0653431679798
 30
0.0
 10
274.6496158023074
 20
36.97915585957194
 30
0.0
 10
274.5595734937981
 20
36.81635299644969
 30
0.0
 10
274.5066408271848
 20
36.73793505835322
 30
0.0
 10
274.388721100217
 20
36.59321993085803
 30
0.0
 10
274.3244528862003
 20
36.52746841907593
 30
0.0
 10
274.1854442545734
 20
36.40892487942482
 30
0.0
 10
274.1106791860833
 20
36.35645648360408
 30
0.0
 10
273.9576714575517
 20
36.26934884029325
 30
0.0
 10
273.8785816831357
 20
36.23392733879088
 30
0.0
 10
273.7967730676962
 20
36.20677367803538
 30
0.0
  0
ARC
  5
277
330
1F
100
AcDbEntity
  8
0
  6
Continuous
 62
     7
370
    15
100
AcDbCircle
 10
270.8897757212
 20
39.9184798744
 30
0.0
 40
4.342147436749478
100
AcDbArc
 50
332.8222845666
 51
27.1777154334
  0
SPLINE
  5
278
330
1F
100
AcDbEntity
  8
0
  6
Continuous
 62
     7
370
    15
100
AcDbSpline
210
0.0
220
0.0
230
1.0
 70
     8
 71
     3
 72
    22
 73
    18
 74
     0
 42
0.000000001
 43
0.00000001
 40
0.0
 40
0.0
 40
0.0
 40
0.0
 40
0.1249999999999999
 40
0.1249999999999999
 40
0.2499999999999998
 40
0.2499999999999998
 40
0.3749999999999998
 40
0.3749999999999998
 40
0.4999999999999997
 40
0.4999999999999997
 40
0.6249999999999996
 40
0.6249999999999996
 40
0.7499999999999997
 40
0.7499999999999997
 40
0.8749999999999999
 40
0.8749999999999999
 40
1.0
 40
1.0
 40
1.0
 40
1.0
 10
273.7967730676962
 20
42.53496497014995
 30
0.0
 10
273.8785835219244
 20
42.56211924123048
 30
0.0
 10
273.957742299394
 20
42.5826491199054
 30
0.0
 10
274.1109960862673
 20
42.61019868083503
 30
0.0
 10
274.1859008194842
 20
42.61714546552009
 30
0.0
 10
274.3245778319614
 20
42.61594247767576
 30
0.0
 10
274.3887647928495
 20
42.60804363676122
 30
0.0
 10
274.5066373772681
 20
42.57704722724411
 30
0.0
 10
274.5595820045676
 20
42.55390776436494
 30
0.0
 10
274.6496194806192
 20
42.49431113733959
 30
0.0
 10
274.6877173261385
 20
42.45720328926075
 30
0.0
 10
274.7469282773752
 20
42.37093542067537
 30
0.0
 10
274.7679371748909
 20
42.32237643692404
 30
0.0
 10
274.7930796318601
 20
42.2148251324321
 30
0.0
 10
274.7969263679938
 20
42.15574072679478
 30
0.0
 10
274.7874098959803
 20
42.03305623528917
 30
0.0
 10
274.7742553551658
 20
41.96880260720148
 30
0.0
 10
274.7525242030608
 20
41.90176439888334
 30
0.0
  0
SPLINE
  5
279
330
1F
100
AcDbEntity
  8
0
  6
Continuous
 62
     7
370
    15
100
AcDbSpline
210
0.0
220
0.0
230
1.0
 70
     8
 71
     3
 72
     8
 73
     4
 74
     0
 42
0.000000001
 43
0.00000001
 40
0.0
 40
0.0
 40
0.0
 40
0.0
 40
1.0
 40
1.0
 40
1.0
 40
1.0
 10
273.6241430082854
 20
42.47686411385212
 30
0.0
 10
273.68150111055
 20
42.49644429909408
 30
0.0
 10
273.7390494398094
 20
42.51580552342425
 30
0.0
 10
273.7967730676962
 20
42.53496497014995
 30
0.0
  0
LWPOLYLINE
  5
27A
330
1F
100
AcDbEntity
  8
0
  6
Continuous
 62
     7
370
    15
100
AcDbPolyline
 90
        9
 70
   128
 43
0.0
 10
270.0083307613
 20
40.3894995572
 10
270.425626873
 20
40.9001546739
 10
270.8724359039
 20
41.3549709366
 10
271.3392752244
 20
41.7442953962
 10
271.816237115
 20
42.0598654601
 10
272.2931990055
 20
42.2949838733
 10
272.7600383261
 20
42.4446606202
 10
273.2068473569
 20
42.5057190838
 10
273.6241434686
 20
42.4768638024
  0
SPLINE
  5
27B
330
1F
100
AcDbEntity
  8
0
  6
Continuous
 62
     7
370
    15
100
AcDbSpline
210
0.0
220
0.0
230
1.0
 70
     8
 71
     3
 72
     8
 73
     4
 74
     0
 42
0.000000001
 43
0.00000001
 40
0.0
 40
0.0
 40
0.0
 40
0.0
 40
1.0
 40
1.0
 40
1.0
 40
1.0
 10
269.9076857711702
 20
40.2898426626375
 30
0.0
 10
269.9408789741148
 20
40.32317029352596
 30
0.0
 10
269.9744174553498
 20
40.3563923303228
 30
0.0
 10
270.0083303112868
 20
40.38949987467197
 30
0.0
  0
SPLINE
  5
27C
330
1F
100
AcDbEntity
  8
0
  6
Continuous
 62
     7
370
    15
100
AcDbSpline
210
0.0
220
0.0
230
1.0
 70
     8
 71
     3
 72
    22
 73
    18
 74
     0
 42
0.000000001
 43
0.00000001
 40
0.0
 40
0.0
 40
0.0
 40
0.0
 40
0.1250000000000002
 40
0.1250000000000002
 40
0.2500000000000004
 40
0.2500000000000004
 40
0.3750000000000007
 40
0.3750000000000007
 40
0.5000000000000006
 40
0.5000000000000006
 40
0.6250000000000004
 40
0.6250000000000004
 40
0.7500000000000003
 40
0.7500000000000003
 40
0.8750000000000002
 40
0.8750000000000002
 40
1.0
 40
1.0
 40
1.0
 40
1.0
 10
268.9590934203248
 20
38.55728799719176
 30
0.0
 10
268.971641979405
 20
38.61902646585246
 30
0.0
 10
268.9886272207594
 20
38.68553490591083
 30
0.0
 10
269.0318156919515
 20
38.82784656899414
 30
0.0
 10
269.0584318330628
 20
38.90464210520918
 30
0.0
 10
269.1195864377163
 20
39.06176245068466
 30
0.0
 10
269.1540983382832
 20
39.14229859023609
 30
0.0
 10
269.231421721816
 20
39.30733786166554
 30
0.0
 10
269.2739187378168
 20
39.39099077074827
 30
0.0
 10
269.3633067078724
 20
39.55417137541937
 30
0.0
 10
269.4111874184862
 20
39.63550574563643
 30
0.0
 10
269.5096742313337
 20
39.79143925566321
 30
0.0
 10
269.5597708034998
 20
39.86537188214583
 30
0.0
 10
269.6614352226912
 20
40.0054737767534
 30
0.0
 10
269.7129213244342
 20
40.07138083402729
 30
0.0
 10
269.812208374942
 20
40.1895007646462
 30
0.0
 10
269.8606491546148
 20
40.24261555420158
 30
0.0
 10
269.9076857711702
 20
40.2898426626375
 30
0.0
  0
LWPOLYLINE
  5
27D
330
1F
100
AcDbEntity
  8
0
  6
Continuous
 62
     7
370
    15
100
AcDbPolyline
 90
       21
 70
   128
 43
0.0
 10
272.1416620696
 20
42.1121167776
 10
272.2663832378
 20
42.1061284542
 10
272.7056742422
 20
41.9911674128
 10
273.0690078998
 20
41.7349420223
 10
273.3405047271
 20
41.3486507332
 10
273.5082990689
 20
40.8491763173
 10
273.5650573737
 20
40.2583481221
 10
273.5082990689
 20
39.601988183
 10
273.3405047271
 20
38.9087825437
 10
273.0690078998
 20
38.2090276901
 10
272.7056742422
 20
37.5333061877
 10
272.2663832378
 20
36.9111505486
 10
271.7703338463
 20
36.369751651
 10
271.2392059291
 20
35.9327714972
 10
270.6962122747
 20
35.6193079327
 10
270.1650843575
 20
35.4430608462
 10
269.669034966
 20
35.4117333073
 10
269.2297439616
 20
35.5266943487
 10
268.8664103039
 20
35.7829197392
 10
268.5949134767
 20
36.1692110283
 10
268.4953841879
 20
36.4123436808
  0
LINE
  5
27E
330
1F
100
AcDbEntity
  8
0
  6
Continuous
 62
     7
370
    15
100
AcDbLine
 10
269.0231654642
 20
34.4722741387
 30
0.0
 11
270.266148302
 21
35.1898328574
 31
0.0
  0
LINE
  5
27F
330
1F
100
AcDbEntity
  8
0
  6
Continuous
 62
     7
370
    15
100
AcDbLine
 10
273.864424463
 20
42.4144534327
 30
0.0
 11
273.8661969355
 21
42.5346305478
 31
0.0
  0
ARC
  5
280
330
1F
100
AcDbEntity
  8
0
  6
Continuous
 62
     7
370
    15
100
AcDbCircle
 10
270.0016757686
 20
40.4311690641
 30
0.0
 40
4.342147436750035
100
AcDbArc
 50
332.8222845666
 51
27.1777154334
  0
ARC
  5
281
330
1F
100
AcDbEntity
  8
0
  6
Continuous
 62
     7
370
    15
100
AcDbCircle
 10
271.8149550018
 20
38.4483681209
 30
0.0
 40
2.049469518178357
100
AcDbArc
 50
302.3714316784
 51
359.9864851711
  0
LINE
  5
282
330
1F
100
AcDbEntity
  8
0
  6
Continuous
 62
     7
370
    15
100
AcDbLine
 10
271.6692699018
 20
35.9998377155
 30
0.0
 11
272.9122527396
 21
36.7173964341
 31
0.0
  0
ARC
  5
283
330
1F
100
AcDbEntity
  8
0
  6
Continuous
 62
     7
370
    15
100
AcDbCircle
 10
269.1414212784
 20
38.7584013649
 30
0.0
 40
3.741616237730653
100
AcDbArc
 50
287.4935988326
 51
312.5010246347
  0
LINE
  5
284
330
1F
100
AcDbEntity
  8
0
  6
Continuous
 62
     7
370
    15
100
AcDbLine
 10
273.4340094861
 20
42.3671017906
 30
0.0
 11
273.6241434686
 21
42.4768638024
 31
0.0
  0
ARC
  5
285
330
1F
100
AcDbEntity
  8
0
  6
Continuous
 62
     7
370
    15
100
AcDbCircle
 10
273.6425141296
 20
38.2696343249
 30
0.0
 40
4.102769042838173
100
AcDbArc
 50
92.9130531898
 51
147.0815702775
  0
LINE
  5
286
330
1F
100
AcDbEntity
  8
0
  6
Continuous
 62
     7
370
    15
100
AcDbLine
 10
270.0083307613
 20
40.3894995572
 30
0.0
 11
270.1984647438
 21
40.499261569
 31
0.0
  0
SPLINE
  5
287
330
1F
100
AcDbEntity
  8
0
  6
Continuous
 62
     7
370
    15
100
AcDbSpline
210
0.0
220
0.0
230
1.0
 70
     8
 71
     3
 72
     9
 73
     5
 74
     0
 42
0.000000001
 43
0.00000001
 40
0.0
 40
0.0
 40
0.0
 40
0.0
 40
0.2251348358338469
 40
1.0
 40
1.0
 40
1.0
 40
1.0
 10
272.4441979928234
 20
42.27885491004324
 30
0.0
 10
272.5164676244833
 20
42.29132897448772
 30
0.0
 10
272.8374736180343
 20
42.34673605708457
 30
0.0
 10
273.1735756950381
 20
42.35821058141159
 30
0.0
 10
273.4340094861122
 20
42.36710179058799
 30
0.0
  0
LWPOLYLINE
  5
288
330
1F
100
AcDbEntity
  8
0
  6
Continuous
 62
     7
370
    15
100
AcDbPolyline
 90
       20
 70
   128
 43
0.0
 10
272.0434709432
 20
42.0653185687
 10
272.1444431854
 20
42.048614985
 10
272.5523232631
 20
41.8840039875
 10
272.8761893606
 20
41.5789943283
 10
273.1008980823
 20
41.1478477235
 10
273.2159420212
 20
40.6107242224
 10
273.2159420212
 20
39.9927390919
 10
273.1008980823
 20
39.3227886862
 10
272.8761893606
 20
38.6321989138
 10
272.5523232631
 20
37.9532614177
 10
272.1444431854
 20
37.3177221064
 10
271.6716213172
 20
36.7552984129
 10
271.1559661091
 20
36.2922883725
 10
270.6215891494
 20
35.950342175
 10
270.0934772323
 20
35.7454484714
 10
269.596324326
 20
35.6871880307
 10
269.1533768355
 20
35.7782851866
 10
268.7853462738
 20
36.0144801401
 10
268.5094414789
 20
36.3847286424
 10
268.4898300235
 20
36.4236216005
  0
LINE
  5
289
330
1F
100
AcDbEntity
  8
0
  6
Continuous
 62
     7
370
    15
100
AcDbLine
 10
244.9617825304
 20
29.6722805871
 30
0.0
 11
246.7896366911
 21
28.6170828406
 31
0.0
  0
SPLINE
  5
28A
330
1F
100
AcDbEntity
  8
0
  6
Continuous
 62
     7
370
    15
100
AcDbSpline
210
0.0
220
0.0
230
1.0
 70
     8
 71
     3
 72
    14
 73
    10
 74
     0
 42
0.000000001
 43
0.00000001
 40
0.0
 40
0.0
 40
0.0
 40
0.0
 40
0.25
 40
0.25
 40
0.5
 40
0.5
 40
0.75
 40
0.75
 40
1.0
 40
1.0
 40
1.0
 40
1.0
 10
246.7441291412024
 20
28.49871457128995
 30
0.0
 10
246.727454298136
 20
28.45534195318336
 30
0.0
 10
246.70715905522
 20
28.41511162373752
 30
0.0
 10
246.6588620761497
 20
28.34133973606538
 30
0.0
 10
246.6306432283446
 20
28.30777012938827
 30
0.0
 10
246.5677178799214
 20
28.25421872372565
 30
0.0
 10
246.5325547039044
 20
28.23376269436599
 30
0.0
 10
246.457871714696
 20
28.21633040085412
 30
0.0
 10
246.4193468394876
 20
28.22027770983901
 30
0.0
 10
246.3854031367903
 20
28.23987299230883
 30
0.0
  0
LINE
  5
28B
330
1F
100
AcDbEntity
  8
0
  6
Continuous
 62
     7
370
    15
100
AcDbLine
 10
246.3854029743
 20
28.2398731159
 30
0.0
 11
244.929880988
 21
29.0801280733
 31
0.0
  0
SPLINE
  5
28C
330
1F
100
AcDbEntity
  8
0
  6
Continuous
 62
     7
370
    15
100
AcDbSpline
210
0.0
220
0.0
230
1.0
 70
     8
 71
     3
 72
     8
 73
     4
 74
     0
 42
0.000000001
 43
0.00000001
 40
0.0
 40
0.0
 40
0.0
 40
0.0
 40
0.0011862984959113
 40
0.0011862984959113
 40
0.0011862984959113
 40
0.0011862984959113
 10
244.9298809292286
 20
29.08012807740185
 30
0.0
 10
244.9400940570459
 20
29.2775269792908
 30
0.0
 10
244.9507200636211
 20
29.47491281626759
 30
0.0
 10
244.9617822628788
 20
29.67228031361793
 30
0.0
  0
SPLINE
  5
28D
330
1F
100
AcDbEntity
  8
0
  6
Continuous
 62
     7
370
    15
100
AcDbSpline
210
0.0
220
0.0
230
1.0
 70
     8
 71
     3
 72
     9
 73
     5
 74
     0
 42
0.000000001
 43
0.00000001
 40
0.0
 40
0.0
 40
0.0
 40
0.0
 40
0.4608557346342517
 40
1.0
 40
1.0
 40
1.0
 40
1.0
 10
279.5462608670871
 20
47.33772556539901
 30
0.0
 10
279.5434364540336
 20
47.33935887211349
 30
0.0
 10
279.537307826697
 20
47.34290294586963
 30
0.0
 10
279.5043448350028
 20
47.3619383703233
 30
0.0
 10
279.4865730270616
 20
47.37220121025629
 30
0.0
  0
ARC
  5
28E
330
1F
100
AcDbEntity
  8
0
  6
Continuous
 62
     7
370
    15
100
AcDbCircle
 10
255.2616501832
 20
30.1738899347
 30
0.0
 40
9.033452610816072
100
AcDbArc
 50
197.5681558126
 51
282.0358010661
  0
SPLINE
  5
28F
330
1F
100
AcDbEntity
  8
0
  6
Continuous
 62
     7
370
    15
100
AcDbSpline
210
0.0
220
0.0
230
1.0
 70
     8
 71
     3
 72
     8
 73
     4
 74
     0
 42
0.000000001
 43
0.00000001
 40
0.0
 40
0.0
 40
0.0
 40
0.0
 40
1.0
 40
1.0
 40
1.0
 40
1.0
 10
245.2079006166281
 20
30.16951846820479
 30
0.0
 10
245.1257024358424
 20
30.00379814170132
 30
0.0
 10
245.0436680676905
 20
29.83805126636335
 30
0.0
 10
244.9617822628788
 20
29.67228031361793
 30
0.0
  0
LINE
  5
290
330
1F
100
AcDbEntity
  8
0
  6
Continuous
 62
     7
370
    15
100
AcDbLine
 10
245.2569201176
 20
30.19781704
 30
0.0
 11
245.2079006986
 21
30.1695187317
 31
0.0
  0
SPLINE
  5
291
330
1F
100
AcDbEntity
  8
0
  6
Continuous
 62
     7
370
    15
100
AcDbSpline
210
0.0
220
0.0
230
1.0
 70
     8
 71
     3
 72
    12
 73
     8
 74
     0
 42
0.000000001
 43
0.00000001
 40
0.0
 40
0.0
 40
0.0
 40
0.0
 40
0.249999999999997
 40
0.249999999999997
 40
0.499999999999994
 40
0.499999999999994
 40
1.0
 40
1.0
 40
1.0
 40
1.0
 10
245.2687023044126
 20
30.53118178016592
 30
0.0
 10
245.3063010889872
 20
30.50947646384163
 30
0.0
 10
245.3364786482336
 20
30.48267459326846
 30
0.0
 10
245.3750683829145
 20
30.42505088843846
 30
0.0
 10
245.3839278681043
 20
30.39400276286709
 30
0.0
 10
245.378880434266
 20
30.30181378646179
 30
0.0
 10
245.3321781471907
 20
30.24126235948694
 30
0.0
 10
245.2569200589924
 20
30.19781678993499
 30
0.0
  0
LINE
  5
292
330
1F
100
AcDbEntity
  8
0
  6
Continuous
 62
     7
370
    15
100
AcDbLine
 10
244.4838138899
 20
30.9842884462
 30
0.0
 11
245.2687024667
 21
30.5311819155
 31
0.0
  0
SPLINE
  5
293
330
1F
100
AcDbEntity
  8
0
  6
Continuous
 62
     7
370
    15
100
AcDbSpline
210
0.0
220
0.0
230
1.0
 70
     8
 71
     3
 72
    10
 73
     6
 74
     0
 42
0.000000001
 43
0.00000001
 40
0.0
 40
0.0
 40
0.0
 40
0.0
 40
0.5
 40
0.5
 40
1.0
 40
1.0
 40
1.0
 40
1.0
 10
243.9063461069261
 20
30.97748653672568
 30
0.0
 10
243.9824834972647
 20
31.0214397165984
 30
0.0
 10
244.085991277949
 20
31.04792638277718
 30
0.0
 10
244.3004865700348
 20
31.05175445316451
 30
0.0
 10
244.407916814453
 20
31.02810266626111
 30
0.0
 10
244.4838137772955
 20
30.98428828222752
 30
0.0
  0
LINE
  5
294
330
1F
100
AcDbEntity
  8
0
  6
Continuous
 62
     7
370
    15
100
AcDbLine
 10
243.8573266701
 20
30.9491885227
 30
0.0
 11
243.9063460891
 21
30.9774868309
 31
0.0
  0
SPLINE
  5
295
330
1F
100
AcDbEntity
  8
0
  6
Continuous
 62
     7
370
    15
100
AcDbSpline
210
0.0
220
0.0
230
1.0
 70
     8
 71
     3
 72
     8
 73
     4
 74
     0
 42
0.000000001
 43
0.00000001
 40
0.0
 40
0.0
 40
0.0
 40
0.0
 40
1.0
 40
1.0
 40
1.0
 40
1.0
 10
242.9959915899073
 20
30.80710711365742
 30
0.0
 10
243.2831464163046
 20
30.85437878256944
 30
0.0
 10
243.5702595348898
 20
30.90173621527218
 30
0.0
 10
243.8573266645618
 20
30.94918821499548
 30
0.0
  0
LINE
  5
296
330
1F
100
AcDbEntity
  8
0
  6
Continuous
 62
     7
370
    15
100
AcDbLine
 10
241.5393687046
 20
31.6479980344
 30
0.0
 11
242.9959919419
 21
30.8071073384
 31
0.0
  0
LINE
  5
297
330
1F
100
AcDbEntity
  8
0
  6
Continuous
 62
     7
370
    15
100
AcDbLine
 10
241.5393687046
 20
31.6479980344
 30
0.0
 11
244.6810132319
 21
33.4616308157
 31
0.0
  0
ARC
  5
298
330
1F
100
AcDbEntity
  8
0
  6
Continuous
 62
     7
370
    15
100
AcDbCircle
 10
254.5088088168
 20
31.543331024
 30
0.0
 40
9.890562528246477
100
AcDbArc
 50
194.4210541018
 51
238.0225374632
  0
LINE
  5
299
330
1F
100
AcDbEntity
  8
0
  6
Continuous
 62
     7
370
    15
100
AcDbLine
 10
273.864424463
 20
42.4144534327
 30
0.0
 11
274.7525244156
 21
41.9017642429
 31
0.0
  0
ELLIPSE
  5
29A
330
1F
100
AcDbEntity
  8
0
  6
Continuous
 62
     7
370
    15
100
AcDbEllipse
 10
244.3881207129
 20
34.44725546
 30
0.0
 11
-7.507462981948265E-5
 21
1.066811201853405
 31
0.0
210
0.0
220
0.0
230
1.0
 40
0.7174342186
 41
3.534193645557443
 42
5.104989972352368
  0
ARC
  5
29B
330
1F
100
AcDbEntity
  8
0
  6
Continuous
 62
     7
370
    15
100
AcDbCircle
 10
254.3675449038
 20
33.8373295448
 30
0.0
 40
10.89981861700351
100
AcDbArc
 50
195.3652578774
 51
215.9035762319
  0
ARC
  5
29C
330
1F
100
AcDbEntity
  8
0
  6
Continuous
 62
     7
370
    15
100
AcDbCircle
 10
251.7844654798
 20
32.5874967356
 30
0.0
 40
9.398897044490527
100
AcDbArc
 50
193.4589411371
 51
247.459679895
  0
SPLINE
  5
29D
330
1F
100
AcDbEntity
  8
0
  6
Continuous
 62
     7
370
    15
100
AcDbSpline
210
0.0
220
0.0
230
1.0
 70
     8
 71
     3
 72
     8
 73
     4
 74
     0
 42
0.000000001
 43
0.00000001
 40
0.0000000000000004
 40
0.0000000000000004
 40
0.0000000000000004
 40
0.0000000000000004
 40
0.0011862984959128
 40
0.0011862984959128
 40
0.0011862984959128
 40
0.0011862984959128
 10
242.9959915899078
 20
30.80710711365646
 30
0.0
 10
242.8788411209127
 20
30.67098307082168
 30
0.0
 10
242.7614013704756
 20
30.53525949565875
 30
0.0
 10
242.6436905026309
 20
30.39991771816428
 30
0.0
  0
LINE
  5
29E
330
1F
100
AcDbEntity
  8
0
  6
Continuous
 62
     7
370
    15
100
AcDbLine
 10
241.1038328856
 20
31.3965163268
 30
0.0
 11
241.5393687046
 21
31.6479980344
 31
0.0
  0
LINE
  5
29F
330
1F
100
AcDbEntity
  8
0
  6
Continuous
 62
     7
370
    15
100
AcDbLine
 10
242.6436907158
 20
30.399917625
 30
0.0
 11
241.2058460397
 21
31.2299676883
 31
0.0
  0
SPLINE
  5
2A0
330
1F
100
AcDbEntity
  8
0
  6
Continuous
 62
     7
370
    15
100
AcDbSpline
210
0.0
220
0.0
230
1.0
 70
     8
 71
     3
 72
    10
 73
     6
 74
     0
 42
0.000000001
 43
0.00000001
 40
0.0
 40
0.0
 40
0.0
 40
0.0
 40
0.5
 40
0.5
 40
1.0
 40
1.0
 40
1.0
 40
1.0
 10
241.2058459645988
 20
31.22996770185951
 30
0.0
 10
241.1794365353182
 20
31.24521354086644
 30
0.0
 10
241.1571531311091
 20
31.2690709632787
 30
0.0
 10
241.1230459962876
 20
31.32699705501298
 30
0.0
 10
241.1111459662327
 20
31.36089558649384
 30
0.0
 10
241.1038334742759
 20
31.3965166289482
 30
0.0
  0
LINE
  5
2A1
330
1F
100
AcDbEntity
  8
0
  6
Continuous
 62
     7
370
    15
100
AcDbLine
 10
270.266148302
 20
35.1898328574
 30
0.0
 11
270.5023036797
 21
35.0535032597
 31
0.0
  0
SPLINE
  5
2A2
330
1F
100
AcDbEntity
  8
0
  6
Continuous
 62
     7
370
    15
100
AcDbSpline
210
0.0
220
0.0
230
1.0
 70
     8
 71
     3
 72
    10
 73
     6
 74
     0
 42
0.000000001
 43
0.00000001
 40
0.0
 40
0.0
 40
0.0
 40
0.0
 40
0.5
 40
0.5
 40
1.0
 40
1.0
 40
1.0
 40
1.0
 10
270.5023034640702
 20
35.05350337845356
 30
0.0
 10
270.4056233339614
 20
34.91361484819461
 30
0.0
 10
270.3389446277578
 20
34.76798941501058
 30
0.0
 10
270.2430071327587
 20
34.4695830738119
 30
0.0
 10
270.2148774368784
 20
34.32031265147484
 30
0.0
 10
270.198464271593
 20
34.17107058149232
 30
0.0
  0
LINE
  5
2A3
330
1F
100
AcDbEntity
  8
0
  6
Continuous
 62
     7
370
    15
100
AcDbLine
 10
270.1984647438
 20
34.1710703803
 30
0.0
 11
270.0083307613
 21
34.0613083685
 31
0.0
  0
ARC
  5
2A4
330
1F
100
AcDbEntity
  8
0
  6
Continuous
 62
     7
370
    15
100
AcDbCircle
 10
269.9899601004
 20
38.268537846
 30
0.0
 40
4.102769042837751
100
AcDbArc
 50
272.9130531898
 51
327.0815702775
  0
LINE
  5
2A5
330
1F
100
AcDbEntity
  8
0
  6
Continuous
 62
     7
370
    15
100
AcDbLine
 10
273.6241434686
 20
36.1486726137
 30
0.0
 11
273.4340094861
 21
36.0389106019
 31
0.0
  0
ARC
  5
2A6
330
1F
100
AcDbEntity
  8
0
  6
Continuous
 62
     7
370
    15
100
AcDbCircle
 10
250.6499324835
 20
33.5414574494
 30
0.0
 40
9.690520540132928
100
AcDbArc
 50
198.6952195728
 51
238.2237715521
  0
ARC
  5
2A7
330
1F
100
AcDbEntity
  8
0
  6
Continuous
 62
     7
370
    15
100
AcDbCircle
 10
269.3775766561
 20
38.6220717672
 30
0.0
 40
3.741616237730343
100
AcDbArc
 50
287.4935988326
 51
312.5010246347
  0
SPLINE
  5
2A8
330
1F
100
AcDbEntity
  8
0
  6
Continuous
 62
     7
370
    15
100
AcDbSpline
210
0.0
220
0.0
230
1.0
 70
     8
 71
     3
 72
    10
 73
     6
 74
     0
 42
0.000000001
 43
0.00000001
 40
0.0
 40
0.0
 40
0.0
 40
0.0
 40
0.5
 40
0.5
 40
1.0
 40
1.0
 40
1.0
 40
1.0
 10
273.4340090479792
 20
36.03891082280264
 30
0.0
 10
273.1748419359787
 20
36.0294120916689
 30
0.0
 10
272.9144365686687
 20
36.01295448070329
 30
0.0
 10
272.4009446627015
 20
35.95789086696098
 30
0.0
 10
272.1491015335395
 20
35.91963281936692
 30
0.0
 10
271.9054249841104
 20
35.86350819053556
 30
0.0
  0
LINE
  5
2A9
330
1F
100
AcDbEntity
  8
0
  6
Continuous
 62
     7
370
    15
100
AcDbLine
 10
273.864424463
 20
38.4478846956
 30
0.0
 11
274.7525244156
 21
37.9351955059
 31
0.0
  0
LINE
  5
2AA
330
1F
100
AcDbEntity
  8
0
  6
Continuous
 62
     7
370
    15
100
AcDbLine
 10
271.9054252794
 20
35.8635081178
 30
0.0
 11
271.6692699018
 21
35.9998377155
 31
0.0
  0
ELLIPSE
  5
2AB
330
1F
100
AcDbEntity
  8
0
  6
Continuous
 62
     7
370
    15
100
AcDbEllipse
 10
244.3274605412
 20
34.4122257044
 30
0.0
 11
0.3250094736511642
 21
1.213179526238662
 31
0.0
210
0.0
220
0.0
230
1.0
 40
0.5176380889
 41
3.619174351347721
 42
5.189970678142618
  0
SPLINE
  5
2AC
330
1F
100
AcDbEntity
  8
0
  6
Continuous
 62
     7
370
    15
100
AcDbSpline
210
0.0
220
0.0
230
1.0
 70
     8
 71
     3
 72
    12
 73
     8
 74
     0
 42
0.000000001
 43
0.00000001
 40
0.0
 40
0.0
 40
0.0
 40
0.0
 40
0.5000000000000003
 40
0.5000000000000003
 40
0.7500000000000001
 40
0.7500000000000001
 40
1.0
 40
1.0
 40
1.0
 40
1.0
 10
270.8613176301512
 20
66.416549005369
 30
0.0
 10
270.9243775073809
 20
66.45295269761925
 30
0.0
 10
271.004310460612
 20
66.47978400947085
 30
0.0
 10
271.1372896489185
 20
66.49354085098138
 30
0.0
 10
271.1829608180306
 20
66.49341971718245
 30
0.0
 10
271.2705986366681
 20
66.48064533556081
 30
0.0
 10
271.3113425475222
 20
66.46780534990604
 30
0.0
 10
271.3428562298608
 20
66.4496128883294
 30
0.0
  0
LINE
  5
2AD
330
1F
100
AcDbEntity
  8
0
  6
Continuous
 62
     7
370
    15
100
AcDbLine
 10
271.3428565541
 20
66.4496132599
 30
0.0
 11
272.0025248683
 21
66.068794848
 31
0.0
  0
LINE
  5
2AE
330
1F
100
AcDbEntity
  8
0
  6
Continuous
 62
     7
370
    15
100
AcDbLine
 10
273.6723918967
 20
63.9939986314
 30
0.0
 11
275.0668915024
 21
64.2997736448
 31
0.0
  0
LINE
  5
2AF
330
1F
100
AcDbEntity
  8
0
  6
Continuous
 62
     7
370
    15
100
AcDbLine
 10
275.0668915024
 20
64.2997736448
 30
0.0
 11
276.5224134887
 21
63.4595186875
 31
0.0
  0
SPLINE
  5
2B0
330
1F
100
AcDbEntity
  8
0
  6
Continuous
 62
     7
370
    15
100
AcDbSpline
210
0.0
220
0.0
230
1.0
 70
     8
 71
     3
 72
    12
 73
     8
 74
     0
 42
0.000000001
 43
0.00000001
 40
0.0
 40
0.0
 40
0.0
 40
0.0
 40
0.2499999999999946
 40
0.2499999999999946
 40
0.4999999999999892
 40
0.4999999999999892
 40
1.0
 40
1.0
 40
1.0
 40
1.0
 10
276.5224134020525
 20
63.45951817877862
 30
0.0
 10
276.5540695325525
 20
63.4412434836287
 30
0.0
 10
276.5763688095627
 20
63.41741937283041
 30
0.0
 10
276.5981893801546
 20
63.3673874703827
 30
0.0
 10
276.5984701424808
 20
63.3409962619688
 30
0.0
 10
276.57510276836
 20
63.26492103197388
 30
0.0
 10
276.528064365555
 20
63.21785797702348
 30
0.0
 10
276.4651388710546
 20
63.18153186227151
 30
0.0
  0
LINE
  5
2B1
330
1F
100
AcDbEntity
  8
0
  6
Continuous
 62
     7
370
    15
100
AcDbLine
 10
270.8613178616
 20
66.4165493825
 30
0.0
 11
270.7695272939
 21
66.3635598156
 31
0.0
  0
SPLINE
  5
2B2
330
1F
100
AcDbEntity
  8
0
  6
Continuous
 62
     7
370
    15
100
AcDbSpline
210
0.0
220
0.0
230
1.0
 70
     8
 71
     3
 72
    10
 73
     6
 74
     0
 42
0.000000001
 43
0.00000001
 40
0.0
 40
0.0
 40
0.0
 40
0.0
 40
0.4037249728883606
 40
0.8085120872973824
 40
1.0
 40
1.0
 40
1.0
 40
1.0
 10
279.4865730270616
 20
58.10559270956003
 30
0.0
 10
279.5048145734348
 20
58.14435685716108
 30
0.0
 10
279.5413456570291
 20
58.22198713518181
 30
0.0
 10
279.5552821728845
 20
58.32940699803071
 30
0.0
 10
279.5372178095373
 20
58.38269884963605
 30
0.0
 10
279.5314166153327
 20
58.39981300831112
 30
0.0
  0
ARC
  5
2B3
330
1F
100
AcDbEntity
  8
0
  6
Continuous
 62
     7
370
    15
100
AcDbCircle
 10
269.4469141047
 20
55.9951216571
 30
0.0
 40
10.28493629347799
100
AcDbArc
 50
20.64885911
 51
46.5321211303
  0
LWPOLYLINE
  5
2B4
330
1F
100
AcDbEntity
  8
0
  6
Continuous
 62
     7
370
    15
100
AcDbPolyline
 90
        3
 70
   128
 43
0.0
 10
273.6723915674
 20
64.6749884179
 10
273.7108466154
 20
64.6275243205
 10
274.0975136574
 20
64.1120858347
  0
LINE
  5
2B5
330
1F
100
AcDbEntity
  8
0
  6
Continuous
 62
     7
370
    15
100
AcDbLine
 10
279.3822911871
 20
47.4324217855
 30
0.0
 11
277.5178878062
 21
48.5087189476
 31
0.0
  0
LINE
  5
2B6
330
1F
100
AcDbEntity
  8
0
  6
Continuous
 62
     7
370
    15
100
AcDbLine
 10
276.7098013406
 20
48.3551788797
 30
0.0
 11
276.7588207596
 21
48.383477188
 31
0.0
  0
SPLINE
  5
2B7
330
1F
100
AcDbEntity
  8
0
  6
Continuous
 62
     7
370
    15
100
AcDbSpline
210
0.0
220
0.0
230
1.0
 70
     8
 71
     3
 72
    10
 73
     6
 74
     0
 42
0.000000001
 43
0.00000001
 40
0.0
 40
0.0
 40
0.0
 40
0.0
 40
0.348286225286859
 40
0.7262043038763673
 40
0.9999999999999999
 40
0.9999999999999999
 40
0.9999999999999999
 40
0.9999999999999999
 10
276.377076008515
 20
48.28400636868381
 30
0.0
 10
276.4197236681911
 20
48.2840939920585
 30
0.0
 10
276.5086474089492
 20
48.28427669371941
 30
0.0
 10
276.6246043636774
 20
48.31249986771936
 30
0.0
 10
276.6845973137185
 20
48.34255304479382
 30
0.0
 10
276.709801340634
 20
48.35517887971874
 30
0.0
  0
SPLINE
  5
2B8
330
1F
100
AcDbEntity
  8
0
  6
Continuous
 62
     7
370
    15
100
AcDbSpline
210
0.0
220
0.0
230
1.0
 70
     8
 71
     3
 72
     8
 73
     4
 74
     0
 42
0.000000001
 43
0.00000001
 40
0.0
 40
0.0
 40
0.0
 40
0.0
 40
1.0
 40
1.0
 40
1.0
 40
1.0
 10
276.7588209273883
 20
48.38347706859677
 30
0.0
 10
277.0118068810692
 20
48.4252954732946
 30
0.0
 10
277.2648301434165
 20
48.46704067786998
 30
0.0
 10
277.5178876324212
 20
48.50871872926708
 30
0.0
  0
ARC
  5
2B9
330
1F
100
AcDbEntity
  8
0
  6
Continuous
 62
     7
370
    15
100
AcDbCircle
 10
256.2436718576
 20
57.673568454
 30
0.0
 40
1.562487995952198
100
AcDbArc
 50
79.6969630873
 51
142.7113318612
  0
ARC
  5
2BA
330
1F
100
AcDbEntity
  8
0
  6
Continuous
 62
     7
370
    15
100
AcDbCircle
 10
256.2114334254
 20
57.7576459537
 30
0.0
 40
1.467909010258947
100
AcDbArc
 50
78.3821019919
 51
144.2937504163
  0
ARC
  5
2BB
330
1F
100
AcDbEntity
  8
0
  6
Continuous
 62
     7
370
    15
100
AcDbCircle
 10
256.1811179565
 20
57.8362393764
 30
0.0
 40
1.249547245185613
100
AcDbArc
 50
80.705870252
 51
142.2259793291
  0
LWPOLYLINE
  5
2BC
330
1F
100
AcDbEntity
  8
0
  6
Continuous
 62
     7
370
     0
100
AcDbPolyline
 90
       22
 70
   128
 43
0.0
 10
246.3854029743
 20
39.5099689053
 10
246.8341391533
 20
41.2933890865
 10
247.3881581599
 20
43.0906903841
 10
248.0438314138
 20
44.8900992718
 10
248.7968625707
 20
46.679828978
 10
249.6423204493
 20
48.448155909
 10
250.5746653732
 20
50.1834972138
 10
251.5877913177
 20
51.8744845452
 10
252.6750614713
 20
53.510040863
 10
253.8293536751
 20
55.0794538145
 10
255.043106521
 20
56.5724434114
 10
256.3083694013
 20
57.9792289457
 10
257.6168545333
 20
59.2905940047
 10
258.9599903016
 20
60.4979507248
 10
260.3289790456
 20
61.5933883607
 10
261.7148529531
 20
62.5697329291
 10
263.1085339675
 20
63.4205893969
 10
264.500892748
 20
64.1403818017
 10
265.8828087207
 20
64.7243970442
 10
267.245229965
 20
65.1688103347
 10
268.5792313917
 20
65.4707081316
 10
268.6500097798
 20
65.4828647139
  0
LINE
  5
2BD
330
1F
100
AcDbEntity
  8
0
  6
Continuous
 62
     7
370
     0
100
AcDbLine
 10
246.7441286314
 20
39.1754580757
 30
0.0
 11
246.8825046376
 21
39.7919683271
 31
0.0
  0
LWPOLYLINE
  5
2BE
330
1F
100
AcDbEntity
  8
0
  6
Continuous
 62
     7
370
     0
100
AcDbPolyline
 90
       11
 70
   128
 43
0.0
 10
261.2501912746
 20
61.7404209572
 10
261.9679274916
 20
62.2286113281
 10
263.3599181252
 20
63.0752174066
 10
264.7502939252
 20
63.7893068465
 10
266.1297424963
 20
64.3660938357
 10
267.4890244589
 20
64.8017198918
 10
268.8190357645
 20
65.0932624596
 10
270.1108682815
 20
65.2387729284
 10
271.3558690643
 20
65.2372728241
 10
272.545700281
 20
65.0887762372
 10
273.6723922259
 20
64.7942747985
  0
LWPOLYLINE
  5
2BF
330
1F
100
AcDbEntity
  8
0
  6
Continuous
 62
     7
370
     0
100
AcDbPolyline
 90
       33
 70
   128
 43
0.0
 10
279.4865730271
 20
47.3722012103
 10
279.0572902528
 20
45.613959651
 10
278.523671638
 20
43.8405053159
 10
277.8892114198
 20
42.0634474839
 10
277.1580610627
 20
40.2944185663
 10
276.3350068683
 20
38.5449984429
 10
275.4254370476
 20
36.8266407001
 10
274.4353074773
 20
35.1505927858
 10
273.3710975768
 20
33.5278271912
 10
272.2397740884
 20
31.9689665489
 10
271.0487436621
 20
30.4842151958
 10
269.8058028065
 20
29.0832922568
 10
268.5190875096
 20
27.7753691014
 10
267.1970215435
 20
26.5690075612
 10
265.848258677
 20
25.4721037561
 10
264.4816286748
 20
24.4918386692
 10
263.106077437
 20
23.6346299014
 10
261.7306097006
 20
22.9060894685
 10
260.3642292868
 20
22.310984744
 10
259.015880974
 20
21.8532125073
 10
257.6943912344
 20
21.5357677737
 10
256.4084108731
 20
21.3607319741
 10
255.1663577355
 20
21.3292474844
 10
253.9763631998
 20
21.4415217183
 10
252.8462165304
 20
21.6968208586
 10
251.7833164749
 20
22.0934723336
 10
250.7946198974
 20
22.62887927
 10
249.8866002906
 20
23.2995376079
 10
249.0652003599
 20
24.1010566374
 10
248.33579778
 20
25.0281894205
 10
247.7031683155
 20
26.074868536
 10
247.1714515772
 20
27.2342395435
 10
246.7441286314
 20
28.4987142176
  0
ARC
  5
2C0
330
1F
100
AcDbEntity
  8
0
  6
Continuous
 62
     7
370
     0
100
AcDbCircle
 10
269.3064336243
 20
55.4831214151
 30
0.0
 40
10.51249703684806
100
AcDbArc
 50
14.4456939373
 51
47.0804331381
  0
LWPOLYLINE
  5
2C1
330
1F
100
AcDbEntity
  8
0
  6
Continuous
 62
     7
370
     0
100
AcDbPolyline
 90
       23
 70
   128
 43
0.0
 10
257.2851924213
 20
39.9223127448
 10
257.3419648847
 20
40.8926210894
 10
257.5111772375
 20
41.9095915328
 10
257.7895364278
 20
42.9534302005
 10
258.171623622
 20
44.0038194583
 10
258.650002865
 20
45.0403151492
 10
259.2153623373
 20
46.0427428765
 10
259.8566984187
 20
46.9915913354
 10
260.5615279043
 20
47.8683928104
 10
261.3161321594
 20
48.6560808547
 10
262.1058239128
 20
49.339324156
 10
262.9152325505
 20
49.9048239338
 10
263.7286038152
 20
50.3415736453
 10
264.5301064409
 20
50.641072884
 10
265.3041398993
 20
50.7974909694
 10
266.035638791
 20
50.8077848733
 10
266.7103650547
 20
50.6717534583
 10
267.3151861602
 20
50.3920444626
 10
267.8383299661
 20
49.9741023844
 10
268.2696137278
 20
49.4260613296
 10
268.6006433078
 20
48.7585890988
 10
268.8249751774
 20
47.984676714
 10
268.9363706151
 20
47.1482805613
  0
LWPOLYLINE
  5
2C2
330
1F
100
AcDbEntity
  8
0
  6
Continuous
 62
     7
370
     0
100
AcDbPolyline
 90
       12
 70
   128
 43
0.0
 10
262.6868785175
 20
36.3226695069
 10
262.1058239128
 20
36.0710839828
 10
261.3161321594
 20
35.8425685929
 10
260.5615279043
 20
35.7590091093
 10
259.8566984187
 20
35.8220317821
 10
259.2153623373
 20
36.0304093627
 10
258.650002865
 20
36.3800869374
 10
258.171623622
 20
36.8642577111
 10
257.7895364278
 20
37.4734984845
 10
257.5111772375
 20
38.195950472
 10
257.3419648847
 20
39.0175524914
 10
257.2851924213
 20
39.9223127448
  0
LWPOLYLINE
  5
2C3
330
1F
100
AcDbEntity
  8
0
  6
Continuous
 62
     7
370
     0
100
AcDbPolyline
 90
       22
 70
   128
 43
0.0
 10
241.2058460397
 20
42.5000634777
 10
241.6545822187
 20
44.2834836589
 10
242.2086012253
 20
46.0807849565
 10
242.8642744792
 20
47.8801938442
 10
243.6173056361
 20
49.6699235504
 10
244.4627635147
 20
51.4382504814
 10
245.3951084386
 20
53.1735917862
 10
246.4082343831
 20
54.8645791176
 10
247.4955045367
 20
56.5001354354
 10
248.6497967405
 20
58.0695483869
 10
249.8635495864
 20
59.5625379838
 10
251.1288124667
 20
60.9693235181
 10
252.4372975987
 20
62.2806885771
 10
253.780433367
 20
63.4880452972
 10
255.149422111
 20
64.5834829331
 10
256.5352960185
 20
65.5598275015
 10
257.9289770329
 20
66.4106839693
 10
259.3213358134
 20
67.1304763741
 10
260.7032517861
 20
67.7144916166
 10
262.0656730304
 20
68.1589049071
 10
263.3996744571
 20
68.4608027039
 10
263.4705740174
 20
68.472979047
  0
LWPOLYLINE
  5
2C4
330
1F
100
AcDbEntity
  8
0
  6
Continuous
 62
     7
370
     0
100
AcDbPolyline
 90
       20
 70
   128
 43
0.0
 10
244.4838138899
 20
41.4768375455
 10
244.915535913
 20
43.1911838172
 10
245.4513698716
 20
44.9190504754
 10
246.0875976233
 20
46.6484453694
 10
246.8198016516
 20
48.3673642464
 10
247.642900627
 20
50.0638766809
 10
248.5511810175
 20
51.7262074411
 10
249.5383405521
 20
53.3428201359
 10
250.597525758
 20
54.9024928773
 10
251.721385303
 20
56.3944007856
 10
252.9021200444
 20
57.8081874682
 10
254.1315330787
 20
59.1340425823
 10
255.4010926326
 20
60.3627624758
 10
256.7019863928
 20
61.4858195743
 10
258.0251852201
 20
62.4954174138
 10
259.3615052586
 20
63.3845508303
 10
260.7016712793
 20
64.1470470901
 10
262.0363814646
 20
64.7776139352
 10
263.3563721923
 20
65.2718739411
 10
264.4996904104
 20
65.5916010021
  0
LINE
  5
2C5
330
1F
100
AcDbEntity
  8
0
  6
Continuous
 62
     7
370
     0
100
AcDbLine
 10
255.7043401955
 20
59.4594842935
 30
0.0
 11
256.0629911078
 21
59.7965134592
 31
0.0
  0
LWPOLYLINE
  5
2C6
330
1F
100
AcDbEntity
  8
0
  6
Continuous
 62
     7
370
     0
100
AcDbPolyline
 90
       23
 70
   128
 43
0.0
 10
243.9063460891
 20
41.4700359303
 10
244.3366983396
 20
43.2046699595
 10
244.8721766841
 20
44.9537216263
 10
245.5090985417
 20
46.7051691185
 10
246.2430885427
 20
48.44697624
 10
247.0691022361
 20
50.1671730178
 10
247.9814616513
 20
51.8539347866
 10
248.9738961274
 20
53.4956719199
 10
250.0395857774
 20
55.0810982675
 10
251.1712062694
 20
56.5993193647
 10
252.3609808513
 20
58.0399004893
 10
253.6007317173
 20
59.3929419422
 10
254.8819392772
 20
60.6491436814
 10
256.1957978031
 20
61.7998724278
 10
257.5332774973
 20
62.8372203094
 10
258.8851863956
 20
63.7540573284
 10
260.2422332993
 20
64.5440828997
 10
261.5950917776
 20
65.2018658405
 10
262.9344637994
 20
65.7228871885
 10
264.2511448471
 20
66.1035656231
 10
265.5360850372
 20
66.3412851457
 10
266.7804542759
 20
66.4344113993
 10
267.7458094018
 20
66.4039479292
  0
LWPOLYLINE
  5
2C7
330
1F
100
AcDbEntity
  8
0
  6
Continuous
 62
     7
370
     0
100
AcDbPolyline
 90
        3
 70
   128
 43
0.0
 10
244.9554699697
 20
39.3975325794
 10
244.9550182081
 20
39.5192114967
 10
244.9672829411
 20
40.1616549097
  0
LWPOLYLINE
  5
2C8
330
1F
100
AcDbEntity
  8
0
  6
Continuous
 62
     7
370
     0
100
AcDbPolyline
 90
       19
 70
   128
 43
0.0
 10
213.8700642377
 20
63.4105179961
 10
213.926819579
 20
64.4849934083
 10
214.096190641
 20
65.6080520224
 10
214.3755057086
 20
66.7619822428
 10
214.7603604362
 20
67.9285863206
 10
215.244685019
 20
69.0894658061
 10
215.820841987
 20
70.2263134617
 10
216.4797444139
 20
71.3211997561
 10
217.2110011259
 20
72.3568585938
 10
218.0030800209
 20
73.3169568844
 10
218.8434893327
 20
74.1863524173
 10
219.7189751945
 20
74.9513345298
 10
220.6157309737
 20
75.5998400112
 10
221.5196140979
 20
76.121640632
 10
222.4163698772
 20
76.5085073348
 10
223.291855739
 20
76.7543396825
 10
224.1322650507
 20
76.8552600872
 10
224.9243439457
 20
76.8096766227
 10
225.6046912159
 20
76.6371023471
  0
ARC
  5
2C9
330
1F
100
AcDbEntity
  8
0
  6
Continuous
 62
     7
370
     0
100
AcDbCircle
 10
219.2908120069
 20
62.980089948
 30
0.0
 40
5.437809732037511
100
AcDbArc
 50
175.4600220549
 51
225.5211364412
  0
LINE
  5
2CA
330
1F
100
AcDbEntity
  8
0
  6
Continuous
 62
     7
370
     0
100
AcDbLine
 10
250.6383881154
 20
40.5149282786
 30
0.0
 11
249.9311666316
 21
40.923198551
 31
0.0
  0
ARC
  5
2CB
330
1F
100
AcDbEntity
  8
0
  6
Continuous
 62
     7
370
     0
100
AcDbCircle
 10
263.1987875551
 20
39.5945210321
 30
0.0
 40
3.1025325296433
100
AcDbArc
 50
173.9352164617
 51
234.7526085595
  0
LWPOLYLINE
  5
2CC
330
1F
100
AcDbEntity
  8
0
  6
Continuous
 62
     7
370
     0
100
AcDbPolyline
 90
       16
 70
   128
 43
0.0
 10
267.6577830745
 20
47.8863933625
 10
267.328077169
 20
48.0402338132
 10
266.7427458527
 20
48.1688823461
 10
266.1001840553
 20
48.1500260302
 10
265.4170341843
 20
47.9841528518
 10
264.7109891285
 20
47.6755587761
 10
264.0003352489
 20
47.2322363939
 10
263.303478062
 20
46.6656676452
 10
262.6384658238
 20
45.9905259759
 10
262.0225219015
 20
45.224297636
 10
261.4715990419
 20
44.3868274041
 10
260.9999659289
 20
43.4998053846
 10
260.619837246
 20
42.5862047759
 10
260.3410585629
 20
41.6696874076
 10
260.1708501615
 20
40.7739907366
 10
260.1136196803
 20
39.9223125548
  0
LINE
  5
2CD
330
1F
100
AcDbEntity
  8
0
  6
Continuous
 62
     7
370
     0
100
AcDbLine
 10
245.0952269437
 20
34.8554591408
 30
0.0
 11
250.6383881154
 21
31.6554603103
 31
0.0
  0
LINE
  5
2CE
330
1F
100
AcDbEntity
  8
0
  6
Continuous
 62
     7
370
     0
100
AcDbLine
 10
245.0345667627
 20
34.8204293799
 30
0.0
 11
245.0952269437
 21
34.8554591408
 31
0.0
  0
LINE
  5
2CF
330
1F
100
AcDbEntity
  8
0
  6
Continuous
 62
     7
370
     0
100
AcDbLine
 10
246.6495306885
 20
27.4472319291
 30
0.0
 11
246.3854029743
 21
28.2398731159
 31
0.0
  0
LINE
  5
2D0
330
1F
100
AcDbEntity
  8
0
  6
Continuous
 62
     7
370
     0
100
AcDbLine
 10
249.9312812183
 20
30.430715622
 30
0.0
 11
244.6810132319
 21
33.4616308157
 31
0.0
  0
LINE
  5
2D1
330
1F
100
AcDbEntity
  8
0
  6
Continuous
 62
     7
370
     0
100
AcDbLine
 10
269.0231654642
 20
34.4722741387
 30
0.0
 11
269.9076855688
 21
33.9616515512
 31
0.0
  0
LINE
  5
2D2
330
1F
100
AcDbEntity
  8
0
  6
Continuous
 62
     7
370
     0
100
AcDbLine
 10
245.3603955698
 20
30.237011056
 30
0.0
 11
245.2687024667
 21
30.5311819155
 31
0.0
  0
LWPOLYLINE
  5
2D3
330
1F
100
AcDbEntity
  8
0
  6
Continuous
 62
     7
370
     0
100
AcDbPolyline
 90
        3
 70
   128
 43
0.0
 10
244.9563669896
 20
29.6715239367
 10
244.9289241229
 20
29.7363590151
 10
244.4838138899
 20
30.9842884462
  0
ARC
  5
2D4
330
1F
100
AcDbEntity
  8
0
  6
Continuous
 62
     7
370
     0
100
AcDbCircle
 10
254.691274312
 20
34.0067910172
 30
0.0
 40
11.2022926505077
100
AcDbArc
 50
195.6891556714
 51
214.1128344446
  0
LINE
  5
2D5
330
1F
100
AcDbEntity
  8
0
  6
Continuous
 62
     7
370
     0
100
AcDbLine
 10
241.4707126408
 20
30.4353165287
 30
0.0
 11
241.2058460397
 21
31.2299676883
 31
0.0
  0
LINE
  5
2D6
330
1F
100
AcDbEntity
  8
0
  6
Continuous
 62
     7
370
     0
100
AcDbLine
 10
272.9122527396
 20
36.7173964341
 30
0.0
 11
273.7967728442
 21
36.2067738466
 31
0.0
  0
LINE
  5
2D7
330
1F
100
AcDbEntity
  8
0
  6
Continuous
 62
     7
370
     0
100
AcDbLine
 10
276.3770760085
 20
46.5139562363
 30
0.0
 11
277.0841829056
 21
46.1057521135
 31
0.0
  0
OLE2FRAME
  5
2D8
330
1F
100
AcDbEntity
  8
0
100
AcDbOle2Frame
 70
     2
  3
Paintbrush-Bild
 10
13.8511154363
 20
38.264191557
 30
0.0
 11
51.6290888628
 21
31.9806341108
 31
0.0
 71
     2
 72
     0
 73
     1
 90
    12928
310
80552BED0767C5B32B40DDAF6807D121434000000000000000006FFBDDFB85D0
310
4940DDAF6807D121434000000000000000006FFBDDFB85D04940416F4BD60AFB
310
3F4000000000000000002BED0767C5B32B40416F4BD60AFB3F40000000000000
310
0000000000000100000000010000010000000100000000000100000000320000
310
D0CF11E0A1B11AE1000000000000000000000000000000003E000300FEFF0900
310
0600000000000000000000000100000001000000000000000010000002000000
310
01000000FEFFFFFF0000000000000000FFFFFFFFFFFFFFFFFFFFFFFFFFFFFFFF
310
FFFFFFFFFFFFFFFFFFFFFFFFFFFFFFFFFFFFFFFFFFFFFFFFFFFFFFFFFFFFFFFF
310
FFFFFFFFFFFFFFFFFFFFFFFFFFFFFFFFFFFFFFFFFFFFFFFFFFFFFFFFFFFFFFFF
310
FFFFFFFFFFFFFFFFFFFFFFFFFFFFFFFFFFFFFFFFFFFFFFFFFFFFFFFFFFFFFFFF
310
FFFFFFFFFFFFFFFFFFFFFFFFFFFFFFFFFFFFFFFFFFFFFFFFFFFFFFFFFFFFFFFF
310
FFFFFFFFFFFFFFFFFFFFFFFFFFFFFFFFFFFFFFFFFFFFFFFFFFFFFFFFFFFFFFFF
310
FFFFFFFFFFFFFFFFFFFFFFFFFFFFFFFFFFFFFFFFFFFFFFFFFFFFFFFFFFFFFFFF
310
FFFFFFFFFFFFFFFFFFFFFFFFFFFFFFFFFFFFFFFFFFFFFFFFFFFFFFFFFFFFFFFF
310
FFFFFFFFFFFFFFFFFFFFFFFFFFFFFFFFFFFFFFFFFFFFFFFFFFFFFFFFFFFFFFFF
310
FFFFFFFFFFFFFFFFFFFFFFFFFFFFFFFFFFFFFFFFFFFFFFFFFFFFFFFFFFFFFFFF
310
FFFFFFFFFFFFFFFFFFFFFFFFFFFFFFFFFFFFFFFFFFFFFFFFFFFFFFFFFFFFFFFF
310
FFFFFFFFFFFFFFFFFFFFFFFFFFFFFFFFFFFFFFFFFFFFFFFFFFFFFFFFFFFFFFFF
310
FFFFFFFFFFFFFFFFFFFFFFFFFFFFFFFFFFFFFFFFFFFFFFFFFFFFFFFFFFFFFFFF
310
FFFFFFFFFFFFFFFFFFFFFFFFFFFFFFFFFFFFFFFFFFFFFFFFFFFFFFFFFFFFFFFF
310
FDFFFFFFFEFFFFFFFEFFFFFFFEFFFFFF05000000060000000700000008000000
310
090000000A0000000B0000000C0000000D0000000E0000000F00000010000000
310
11000000120000001300000014000000150000001600000017000000FEFFFFFF
310
FFFFFFFFFFFFFFFFFFFFFFFFFFFFFFFFFFFFFFFFFFFFFFFFFFFFFFFFFFFFFFFF
310
FFFFFFFFFFFFFFFFFFFFFFFFFFFFFFFFFFFFFFFFFFFFFFFFFFFFFFFFFFFFFFFF
310
FFFFFFFFFFFFFFFFFFFFFFFFFFFFFFFFFFFFFFFFFFFFFFFFFFFFFFFFFFFFFFFF
310
FFFFFFFFFFFFFFFFFFFFFFFFFFFFFFFFFFFFFFFFFFFFFFFFFFFFFFFFFFFFFFFF
310
FFFFFFFFFFFFFFFFFFFFFFFFFFFFFFFFFFFFFFFFFFFFFFFFFFFFFFFFFFFFFFFF
310
FFFFFFFFFFFFFFFFFFFFFFFFFFFFFFFFFFFFFFFFFFFFFFFFFFFFFFFFFFFFFFFF
310
FFFFFFFFFFFFFFFFFFFFFFFFFFFFFFFFFFFFFFFFFFFFFFFFFFFFFFFFFFFFFFFF
310
FFFFFFFFFFFFFFFFFFFFFFFFFFFFFFFFFFFFFFFFFFFFFFFFFFFFFFFFFFFFFFFF
310
FFFFFFFFFFFFFFFFFFFFFFFFFFFFFFFFFFFFFFFFFFFFFFFFFFFFFFFFFFFFFFFF
310
FFFFFFFFFFFFFFFFFFFFFFFFFFFFFFFFFFFFFFFFFFFFFFFFFFFFFFFFFFFFFFFF
310
FFFFFFFFFFFFFFFFFFFFFFFFFFFFFFFFFFFFFFFFFFFFFFFFFFFFFFFFFFFFFFFF
310
FFFFFFFFFFFFFFFFFFFFFFFFFFFFFFFFFFFFFFFFFFFFFFFFFFFFFFFFFFFFFFFF
310
FFFFFFFFFFFFFFFFFFFFFFFFFFFFFFFFFFFFFFFFFFFFFFFFFFFFFFFFFFFFFFFF
310
52006F006F007400200045006E00740072007900000000000000000000000000
310
0000000000000000000000000000000000000000000000000000000000000000
310
16000500FFFFFFFFFFFFFFFF020000000A00030000000000C000000000000046
310
000000000000000000000000F0FD89876A03D20103000000C000000000000000
310
01004F006C006500000000000000000000000000000000000000000000000000
310
0000000000000000000000000000000000000000000000000000000000000000
310
0A000200FFFFFFFFFFFFFFFFFFFFFFFF00000000000000000000000000000000
310
0000000000000000000000000000000000000000000000001400000000000000
310
010043006F006D0070004F0062006A0000000000000000000000000000000000
310
0000000000000000000000000000000000000000000000000000000000000000
310
120002010100000003000000FFFFFFFF00000000000000000000000000000000
310
0000000000000000000000000000000000000000010000004D00000000000000
310
01004F006C006500310030004E00610074006900760065000000000000000000
310
0000000000000000000000000000000000000000000000000000000000000000
310
1A000200FFFFFFFFFFFFFFFFFFFFFFFF00000000000000000000000000000000
310
0000000000000000000000000000000000000000040000002426000000000000
310
FEFFFFFF02000000FEFFFFFFFFFFFFFFFFFFFFFFFFFFFFFFFFFFFFFFFFFFFFFF
310
FFFFFFFFFFFFFFFFFFFFFFFFFFFFFFFFFFFFFFFFFFFFFFFFFFFFFFFFFFFFFFFF
310
FFFFFFFFFFFFFFFFFFFFFFFFFFFFFFFFFFFFFFFFFFFFFFFFFFFFFFFFFFFFFFFF
310
FFFFFFFFFFFFFFFFFFFFFFFFFFFFFFFFFFFFFFFFFFFFFFFFFFFFFFFFFFFFFFFF
310
FFFFFFFFFFFFFFFFFFFFFFFFFFFFFFFFFFFFFFFFFFFFFFFFFFFFFFFFFFFFFFFF
310
FFFFFFFFFFFFFFFFFFFFFFFFFFFFFFFFFFFFFFFFFFFFFFFFFFFFFFFFFFFFFFFF
310
FFFFFFFFFFFFFFFFFFFFFFFFFFFFFFFFFFFFFFFFFFFFFFFFFFFFFFFFFFFFFFFF
310
FFFFFFFFFFFFFFFFFFFFFFFFFFFFFFFFFFFFFFFFFFFFFFFFFFFFFFFFFFFFFFFF
310
FFFFFFFFFFFFFFFFFFFFFFFFFFFFFFFFFFFFFFFFFFFFFFFFFFFFFFFFFFFFFFFF
310
FFFFFFFFFFFFFFFFFFFFFFFFFFFFFFFFFFFFFFFFFFFFFFFFFFFFFFFFFFFFFFFF
310
FFFFFFFFFFFFFFFFFFFFFFFFFFFFFFFFFFFFFFFFFFFFFFFFFFFFFFFFFFFFFFFF
310
FFFFFFFFFFFFFFFFFFFFFFFFFFFFFFFFFFFFFFFFFFFFFFFFFFFFFFFFFFFFFFFF
310
FFFFFFFFFFFFFFFFFFFFFFFFFFFFFFFFFFFFFFFFFFFFFFFFFFFFFFFFFFFFFFFF
310
FFFFFFFFFFFFFFFFFFFFFFFFFFFFFFFFFFFFFFFFFFFFFFFFFFFFFFFFFFFFFFFF
310
FFFFFFFFFFFFFFFFFFFFFFFFFFFFFFFFFFFFFFFFFFFFFFFFFFFFFFFFFFFFFFFF
310
FFFFFFFFFFFFFFFFFFFFFFFFFFFFFFFFFFFFFFFFFFFFFFFFFFFFFFFFFFFFFFFF
310
0100000200000000000000000000000000000000000000000000000000000000
310
0000000000000000000000000000000000000000000000000000000000000000
310
0100FEFF030A0000FFFFFFFF0A00030000000000C00000000000004607000000
310
5042727573680007000000504272757368000700000050427275736800F439B2
310
7100000000000000000000000000000000000000000000000000000000000000
310
0000000000000000000000000000000000000000000000000000000000000000
310
0000000000000000000000000000000000000000000000000000000000000000
310
0000000000000000000000000000000000000000000000000000000000000000
310
0000000000000000000000000000000000000000000000000000000000000000
310
0000000000000000000000000000000000000000000000000000000000000000
310
0000000000000000000000000000000000000000000000000000000000000000
310
0000000000000000000000000000000000000000000000000000000000000000
310
0000000000000000000000000000000000000000000000000000000000000000
310
0000000000000000000000000000000000000000000000000000000000000000
310
0000000000000000000000000000000000000000000000000000000000000000
310
0000000000000000000000000000000000000000000000000000000000000000
310
20260000424D0E260000000000003E00000028000000B40200006E0000000100
310
01000000000000000000130B0000130B00000200000002000000000000FFFFFF
310
FFFFFFFFFFFFFFFFFFFFFFFFFFFFFFFFFFFFFFFFFFFFFFFFFFFFFFFFFFFFFFFF
310
FFFFFFFFFFFFFFFFFFFFFFFFFFFFFFFFFFFFFFFFFFFFFFFFFFFFFFFFFFFFFFFF
310
FFFFFFFFFFFFFFFFFFFFFFFFFFFFFFFFFFFFFFFFFFFFFFFFF000FFFFFFFFFFFF
310
FFFFFFFFFFFFFFFFFFFFFFFFFFFFFFFFFFFFFFFFFFFFFFFFFFFFFFFFFFFFFFFF
310
FFFFFFFFFFFFFFFFFFFFFFFFFFFFFFFFFFFFFFFFFFFFFFFFFFFFFFFFFFFFFFFF
310
FFFFFFFFFFFFFFFFFFFFFFFFFFFFFFFFF000FFFFFFFFFFFFFFFFFFFFFFFFFFFF
310
FFFFFFFFFFFFFFFFFFFFFFFFFFFFFFFFFFFFFFFFFFFFFFFFFFFFFFFFFFFFFFFF
310
FFFFFFFFFFFFFFFFFFFFFFFFFFFFFFFFFFFFFFFFFFFFFFFFFFFFFFFFFFFFFFFF
310
FFFFFFFFFFFFFFFFF000FFFFFFFFFFFFFFFFFFFFFFFFFFFFFFFFFFFFFFFFFFFF
310
FFFFFFFFFFFFFFFFFFFFFFFFFFFFFFFFFFFFFFFFFFFFFFFFFFFFFFFFFFFFFFFF
310
FFFFFFFFFFFFFFFFFFFFFFFFFFFFFFFFFFFFFFFFFFFFFFFFFFFFFFFFFFFFFFFF
310
F000FFFFFFFFFFFFFFFFFFFFFFFFFFFFFFFFFFFFFFFFFFFFFFFFFFFFFFFFFFFF
310
FFFFFFFFFFFFFFFFFFFFFFFFFFFFFFFFFFFFFFFFFFFFFFFFFFFFFFFFFFFFFFFF
310
FFFFFFFFFFFFFFFFFFFFFFFFFFFFFFFFFFFFFFFFFFFFFFFFF000FFFFFFFFFFFF
310
FFFFFFFFFFFFFFFFFFFFFFFFFFFFFFFFFFFFFFFFFFFFFFFFFFFFFFFFFFFFFFFF
310
FFFFFFFFFFFFFFFFFFFFFFFFFFFFFFFFFFFFFFFFFFFFFFFFFFFFFFFFFFFFFFFF
310
FFFFFFFFFFFFFFFFFFFFFFFFFFFFFFFFF000FFFFFFFFFFFFFFFFFFFFFFFFFFFF
310
FFFFFFFFFFFFFFFFFFFFFFFFFFFFFFFFFFFFFFFFFFFFFFFFFFFFFFFFFFFFFFFF
310
FFFFFFFFFFFFFFFFFFFFFFFFFFFFFFFFFFFFFFFFFFFFFFFFFFFFFFFFFFFFFFFF
310
FFFFFFFFFFFFFFFFF000FFFFFFFFFFFFFFFFFFFFFFFFFFFFFFFFFFFFFFFFFFFF
310
FFFFFFFFFFFFFFFFFFFFFFFFFFFFFFFFFFFFFFFFFFFFFFFFFFFFFFFFFFFFFFFF
310
FFFFFFFFFFFFFFFFFFFFFFFFFFFFFFFFFFFFFFFFFFFFFFFFFFFFFFFFFFFFFFFF
310
F000FFFFFFFFFFFFFFFFFFFFFFFFFFFFFFFFFFFFFFFFFFFFFFFFFFFFFFFFFFFF
310
FFFFFFFFFFFFFFFFFFFFFFFFFFFFFFFFFFFFFFFFFFFFFFFFFFFFFFFFFFFFFFFF
310
FFFFFFFFFFFFFFFFFFFFFFFFFFFFFFFFFFFFFFFFFFFFFFFFF000FFFFFFFFFFFF
310
FFFFFFFFFFFFFFFFFFFFFFFFFFFFFFFFFFFFFFFFFFFFFFFFFFFFFFFFFFFFFFFF
310
FFFFFFFFFFFFFFFFFFFFFFFFFFFFFFFFFFFFFFFFFFFFFFFFFFFFFFFFFFFFFFFF
310
FFFFFFFFFFFFFFFFFFFFFFFFFFFFFFFFF000FFFFFFFFFFFFFFFFFFFFFFFFFFFF
310
FFFFFFFFFFFFFFFFFFFFFFFFFFFFFFFFFFFFFFFFFFFFFFFFFFFFFFFFFFFFFFFF
310
FFFFFFFFFFFFFFFFFFFFFFFFFFFFFFFFFFFFFFFFFFFFFFFFFFFFFFFFFFFFFFFF
310
FFFFFFFFFFFFFFFFF000FFFFFFFFFFFFFFFFFFFFFFFFFFFFFFFFFFFFFFFFFFFF
310
FFFFFFFFFFFFFFFFFFFFFFFFFFFFFFFFFFFFFFFFFFFFFFFFFFFFFFFFFFFFFFFF
310
FFFFFFFFFFFFFFFFFFFFFFFFFFFFFFFFFFFFFFFFFFFFFFFFFFFFFFFFFFFFFFFF
310
F000FFFFFFFFFFFFFFFFFFFFFFFFFFFFFFFFFFFFFFFFFFFFFFFFFFFFFFFFFFFF
310
FFFFFFFFFFFFFFFFFFFFFFFFFFFFFFFFFFFFFFFFFFFFFFFFFFFFFFFFFFFFFFFF
310
FFFFFFFFFFFFFFFFFFFFFFFFFFFFFFFFFFFFFFFFFFFFFFFFF000FFFFFFFFFFFF
310
FFFFFFFFFFFFFFFFFFFFFFFFFFFFFFFFFFFFFFFFFFFFFFFFFFFFFFFFFFFFFFFF
310
FFFFFFFFFFFFFFFFFFFFFFFFFFFFFFFFFFFFFFFFFFFFFFFFFFFFFFFFFFFFFFFF
310
FFFFFFFFFFFFFFFFFFFFFFFFFFFFFFFFF000FFFFFFFFFFFFFFFFFFFFFFFFFFFF
310
FFFFFFFFFFFFFFFFFFFFFFFFFFFFFFFFFFFFFFFFFFFFFFFFFFFFFFFFFFFFFFFF
310
FFFFFFFFFFFFFFFFFFFFFFFFFFFFFFFFFFFFFFFFFFFFFFFFFFFFFFFFFFFFFFFF
310
FFFFFFFFFFFFFFFFF000FFFFFFFFFFFFFFFFFFFFFFFFFFFFFFFFFFFFFFFFFFFF
310
FFFFFFFFFFFFFFFFFFFFFFFFFFFFFFFFFFFFFFFFFFFFFFFFFFFFFFFFFFFFFFFF
310
FFFFFFFFFFFFFFFFFFFFFFFFFFFFFFFFFFFFFFFFFFFFFFFFFFFFFFFFFFFFFFFF
310
F000FFFFFFFFFFFFFFFFFFFFFFFFFFFFFFFFFFFFFFFFFFFFFFFFFFFFFFFFFFFF
310
FFFFFFFFFFFFFFFFFFFFFFFFFFFFFFFFFFFFFFFFFFFFFFFFFFFFFFFFFFFFFFFF
310
FFFFFFFFFFFFFFFFFFFFFFFFFFFFFFFFFFFFFFFFFFFFFFFFF000FFFFFFFFFFFF
310
FFFFFFFFFFFFFFFFFFFFFFFFFFFFFFFFFFFFFFFFFFFFFFFFFFFFFFFFFFFFFFFF
310
FFFFFFFFFFFFFFFFFFFFFFFFFFFFFFFFFFFFFFFFFFFFFFFFFFFFFFFFFFFFFFFF
310
FFFFFFFFFFFFFFFFFFFFFFFFFFFFFFFFF000FFFFFFFFFFFFFFFFFFFFFFFFFFFF
310
FFFFFFFFFFFFFFFFFFFFFFFFFFFFFFFFFFFFFFFFFFFFFFFFFFFFFFFFFFFFFFFF
310
FFFFFFFFFFFFFFFFFFFFFFFFFFFFFFFFFFFFFFFFFFFFFFFFFFFFFFFFFFFFFFFF
310
FFFFFFFFFFFFFFFFF000FFFFF80003FFFFFFFFFFFFFFFFFFFFFFFFFFFFFFFFFF
310
FFFFF00007FFFFFFFFFF00007FFFFFF800000000000000007FFFFFFFFFFFFFFF
310
FFFFFFFC001FFFFFFFFFFFFFFC001FFFFFFFFFFFFFFFFFFFFFFFFFFE0007FFFF
310
F000FFFF8000007FFFFFFFF8000FFFFFC0007FFFFF80007FFFFF0000007FFFFF
310
FFF8000007FFFFF800000000000000007FFFFFF0001FFFFFFFFFFFC00001FFFF
310
FFFFFFFFC00001FFFFFFFF000000000003FFFFE000007FFFF000FFFE0000000F
310
FFFFFFF0000FFFFF80007FFFFF80007FFFFC0000001FFFFFFFC0000001FFFFF8
310
00000000000000007FFFFFF0001FFFFFFFFFFE0000003FFFFFFFFFFE0000003F
310
FFFFFF000000000003FFFF0000000FFFF000FFF800000003FFFFFFF00007FFFF
310
80007FFFFF80007FFFF000000007FFFFFF000000003FFFF80000000000000000
310
7FFFFFF0001FFFFFFFFFF80000000FFFFFFFFFF80000000FFFFFFF0000000000
310
03FFFC00000003FFF000FFE000000000FFFFFFF00007FFFF80003FFFFF80007F
310
FFC000000001FFFFFC000000001FFFF800000000000000007FFFFFF0001FFFFF
310
FFFFE000000003FFFFFFFFE000000003FFFFFF000000000003FFF000000000FF
310
F000FF80000000007FFFFFF00007FFFF80003FFFFF80007FFF8000000000FFFF
310
F80000000007FFF800000000000000007FFFFFF0001FFFFFFFFFC000000001FF
310
FFFFFFC000000001FFFFFF000000000003FFC0000000007FF000FF0000000000
310
3FFFFFE00007FFFF00003FFFFF80007FFE00000000003FFFF00000000003FFF8
310
00000000000000007FFFFFF0001FFFFFFFFF8000000000FFFFFFFF8000000000
310
FFFFFF000000000003FF80000000003FF000FE00000000001FFFFFE00003FFFF
310
00003FFFFF80007FFC00000000001FFFE00000000001FFF8000001FFFE000000
310
7FFFFFF0001FFFFFFFFE00000000003FFFFFFE00000000003FFFFF0000000000
310
03FF00000000001FF000FC00000000000FFFFFE00003FFFF00001FFFFF80007F
310
F800000000001FFFC00000000000FFF8000001FFFE0000007FFFFFF0001FFFFF
310
FFFC00000000001FFFFFFC00000000001FFFFF000000000003FE00000000000F
310
F000F8000000000007FFFFE00003FFFF00001FFFFF80007FF800000000000FFF
310
800000000000FFF8000001FFFE0000007FFFFFF0001FFFFFFFF800000000000F
310
FFFFF800000000000FFFFF000000000003FC000000000007F000F80000000000
310
03FFFFC00003FFFE00001FFFFF80007FF0000000000007FF0000000000007FF8
310
000001FFFE0000007FFFFFF0001FFFFFFFF0000000000007FFFFF00000000000
310
07FFFF000000000003F8000000000003F000F0000000000003FFFFC00001FFFE
310
00001FFFFF80007FE0000000000007FE0000000000003FF8000001FFFE000000
310
7FFFFFF0001FFFFFFFF0000000000007FFFFF0000000000007FFFF0000000000
310
03F800001F800003F000E00001FFF00001FFFFC00001FFFE00000FFFFF80007F
310
E00001FFE00003FE00001FFF00003FF8000001FFFE0000007FFFFFF0001FFFFF
310
FFE000003E000003FFFFE000003E000003FFFF000000000003F00001FFF80001
310
F000E00007FFFC0001FFFFC00001FFFE00000FFFFF80007FC0000FFFFC0003FC
310
0000FFFFC0001FF8000001FFFE0000007FFFFFF0001FFFFFFFC00003FFE00001
310
FFFFC00003FFE00001FFFF0001FFFFFFFFF00007FFFE0001F000E0000FFFFF00
310
00FFFF800001FFFC00000FFFFF80007FC0001FFFFE0001FC0001FFFFE0001FF8
310
000001FFFE0000007FFFFFF0001FFFFFFF80000FFFF80000FFFF80000FFFF800
310
00FFFF0003FFFFFFFFE0000FFFFF8000F000C0003FFFFF8000FFFF800000FFFC
310
000007FFFF80007F80003FFFFF0001FC0003FFFFF0001FF8000001FFFE000000
310
7FFFFFF0001FFFFFFF80003FFFFE0000FFFF80003FFFFE0000FFFF0003FFFFFF
310
FFE0003FFFFF8000F000C0003FFFFF8000FFFF800000FFFC000007FFFF80007F
310
80007FFFFF8001F80007FFFFF8000FF8000001FFFE0000007FFFFFF0001FFFFF
310
FF00007FFFFF00007FFF00007FFFFF00007FFF0003FFFFFFFFE0003FFFFFC000
310
F000C0007FFFFFC000FFFF000000FFFC000007FFFF80007F8000FFFFFF8000F8
310
000FFFFFF8000FF8000001FFFE0000007FFFFFF0001FFFFFFF0000FFFFFF8000
310
7FFF0000FFFFFF80007FFF0003FFFFFFFFC0007FFFFFC00070008000FFFFFFC0
310
00FFFF000000FFF8000007FFFF80007F8000FFFFFF8000F8000FFFFFF8000FF8
310
000001FFFE0000007FFFFFF0001FFFFFFE0001FFFFFFC0003FFE0001FFFFFFC0
310
003FFF0003FFFFFFFFC0007FFFFFE00070008000FFFFFFC0007FFF0000007FF8
310
000003FFFF80007F0001FFFFFF8000F8000FFFFFF8000FF8000001FFFE000000
310
7FFFFFF0001FFFFFFE0001FFFFFFC0003FFE0001FFFFFFC0003FFF0003FFFFFF
310
FFC000FFFFFFE00070008000FFFFFFC0007FFF0000007FF8000003FFFF80007F
310
0001FFFFFF8000F8001FFFFFF8000FF8000001FFFE0000007FFFFFF0001FFFFF
310
FE0003FFFFFFE0003FFE0003FFFFFFE0003FFF0003FFFFFFFFC000FFFFFFE000
310
70008000FFFFFFC0007FFE0000007FF8000003FFFF80007F0001FFFFFF8000F0
310
001FFFFFF8000FF8000001FFFE0000007FFFFFF0001FFFFFFC0003FFFFFFE000
310
1FFC0003FFFFFFE0001FFF0003FFFFFFFFC000FFFFFFC00070008000FFFFFF80
310
007FFE0000007FF0000003FFFF80007F0001FFFFFF0000F0001FFFFFF8000FF8
310
000001FFFE0000007FFFFFF0001FFFFFFC0007FFFFFFF0001FFC0007FFFFFFF0
310
001FFF0003FFFFFFFFC000FFFFFFC00070008001FFFFFF0000FFFE0000003FF0
310
000001FFFF80007F0001FFFFFF0000F8001FFFFFF0000FF8000001FFFE000000
310
7FFFFFF0001FFFFFFC0007FFFFFFF0001FFC0007FFFFFFF0001FFF0003FFFFFF
310
FFC001FFFFFF80007000FFFFFFFFFE0000FFFE0008003FF0008001FFFF80007F
310
FFFFFFFFFC0000FFFFFFFFFFE0000FF8000001FFFE0000007FFFFFF0001FFFFF
310
F8000FFFFFFFF8000FF8000FFFFFFFF8000FFF0003FFFFFFFFFFFFFFFFFF0000
310
7000FFFFFFFFFC0000FFFC0008003FF0008001FFFF80007FFFFFFFFFF80001FF
310
FFFFFFFF80000FF8000001FFFE0000007FFFFFF0001FFFFFF8000FFFFFFFF800
310
0FF8000FFFFFFFF8000FFF0003FFFFFFFFFFFFFFFFFE0000F000FFFFFFFFE000
310
00FFFC000C003FE000C001FFFF80007FFFFFFFFFC00001FFFFFFFFFE00001FF8
310
000001FFFE0000007FFFFFF0001FFFFFF8000FFFFFFFF8000FF8000FFFFFFFF8
310
000FFF0003FFFFFFFFFFFFFFFFF00000F000FFFFFFFE000001FFFC000C001FE0
310
00C000FFFF80007FFFFFFFFE000001FFFFFFFFE000001FF80FFFFFFFFFFFFFC0
310
7FFFFFF0001FFFFFF8000FFFFFFFF8000FF8000FFFFFFFF8000FFF0003FFFFFF
310
FFFFFFFFFF800000F000FFFFFFC0000001FFFC001C001FE001C000FFFF80007F
310
FFFFFF80000003FFFFFFF80000001FF80FFFFFFFFFFFFFC07FFFFFF0001FFFFF
310
F8001FFFFFFFFC000FF8001FFFFFFFFC000FFF0003FFFFFFFFFFFFFFF0000001
310
F000FFFFF800000001FFF8001C001FE001C000FFFF80007FFFFFF800000003FF
310
FFFF800000003FF80FFFFFFFFFFFFFC07FFFFFF0001FFFFFF8001FFFFFFFFC00
310
0FF8001FFFFFFFFC000FFF0003FFFFFFFFFFFFFE00000001F000FFFFC0000000
310
03FFF8001E001FC001E000FFFF80007FFFFF8000000007FFFFFC000000003FF8
310
0FFFFFFFFFFFFFC07FFFFFF0001FFFFFF8001FFFFFFFFC000FF8001FFFFFFFFC
310
000FFF0003FFFFFFFFFFFFE000000003F000FFFE0000000007FFF8001E000FC0
310
01E0007FFF80007FFFFE0000000007FFFFE0000000007FF80FFFFFFFFFFFFFC0
310
7FFFFFF0001FFFFFF0001FFFFFFFFC0007F0001FFFFFFFFC0007FF0003FFFFFF
310
FFFFFF0000000003F000FFF80000000007FFF8001E000FC003E0007FFF80007F
310
FFF0000000000FFFFF8000000000FFF80FFFFFFFFFFFFFC07FFFFFF0001FFFFF
310
F0001FFFFFFFFC0007F0001FFFFFFFFC0007FF0003FFFFFFFFFFFC0000000007
310
F000FFE0000000000FFFF0003E000FC003E0007FFF80007FFFC0000000001FFF
310
FE0000000001FFF80FFFFFFFFFFFFFC07FFFFFF0001FFFFFF0001FFFFFFFFC00
310
07F0001FFFFFFFFC0007FF0003FFFFFFFFFFF0000000000FF000FFC000000000
310
1FFFF0003F000F8003F0003FFF80007FFF80000000003FFFF80000000003FFF8
310
0FFFFFFFFFFFFFC07FFFFFF0001FFFFFF0001FFFFFFFFC0007F0001FFFFFFFFC
310
0007FF0003FFFFFFFFFFE0000000001FF000FF00000000007FFFF0003F000780
310
03F0003FFF80007FFF00000000007FFFF00000000007FFF80FFFFFFFFFFFFFC0
310
7FFFFFF0001FFFFFF0001FFFFFFFFC0007F0001FFFFFFFFC0007FF0003FFFFFF
310
FFFF80000000007FF000FE0000000000FFFFE0003F00078007F0003FFF80007F
310
FE0000000001FFFFE0000000001FFFF80FFFFFFFFFFFFFC07FFFFFF0001FFFFF
310
F0001FFFFFFFFC0007F0001FFFFFFFFC0007FF0003FFFFFFFFFF0000000000FF
310
F000FC0000000003FFFFE0007F00078007F0003FFF80007FFC0000000007FFFF
310
C0000000007FFFF80FFFFFFFFFFFFFC07FFFFFF0001FFFFFF8001FFFFFFFFC00
310
0FF8001FFFFFFFFC000FFF0003FFFFFFFFFE0000000003FFF000FC000000000F
310
FFFFE0007F80070007F8001FFF80007FF8000000001FFFFF8000000001FFFFF8
310
0FFFFFFFFFFFFFC07FFFFFF0001FFFFFF8001FFFFFFFFC000FF8001FFFFFFFFC
310
000FFF0003FFFFFFFFFC000000000FFFF000F8000000007FFFFFE0007F800700
310
07F8001FFF80007FF000000000FFFFFF800000000FFFFFF80FFFFFFFFFFFFFC0
310
7FFFFFF0001FFFFFF8000FFFFFFFF8000FF8000FFFFFFFF8000FFF0003FFFFFF
310
FFFC000000007FFFF000F800000007FFFFFFC0007F8003000FF8001FFF80007F
310
F000000007FFFFFF000000007FFFFFF80FFFFFFFFFFFFFC07FFFFFF0001FFFFF
310
F8000FFFFFFFF8000FF8000FFFFFFFF8000FFF0003FFFFFFFFF80000000FFFFF
310
F000F0000000FFFFFFFFC000FF8003000FF8001FFF80007FE0000000FFFFFFFF
310
0000000FFFFFFFF8000001FFFE0000007FFFFFF0001FFFFFF8000FFFFFFFF800
310
0FF8000FFFFFFFF8000FFF0003FFFFFFFFF8000000FFFFFFF000F000000FFFFF
310
FFFFC000FFC002000FF8000FFF80007FE000001FFFFFFFFE000001FFFFFFFFF8
310
000001FFFE0000007FFFFFF0001FFFFFF8000FFFFFFFF8000FF8000FFFFFFFF8
310
000FFF0003FFFFFFFFF000001FFFFFFFF000E00000FFFFFFFFFFC000FFC00200
310
0FFC000FFF80007FE00001FFFFFFFFFE00001FFFFFFFFFF8000001FFFE000000
310
7FFFFFF0001FFFFFFC000FFFFFFFF8001FFC000FFFFFFFF8001FFF0003FFFFFF
310
FFF00001FFFFFFFFF000E00007FFFFFFFFFF8000FFC000001FFC000FFF80007F
310
C0000FFFFFFFFFFE0000FFFFFFFFFFF8000001FFFE0000007FFFFFF0001FFFFF
310
FC0007FFFFFFF0001FFC0007FFFFFFF0001FFF0003FFFFFFFFF00007FFFFFFFF
310
F000E0001FFFFFFFFFFF8000FFC000001FFC000FFF80007FC0003FFFFFFFFFFE
310
0001FFFFFFFFFFF8000001FFFE0000007FFFFFF0001FFFFFFC0007FFFFFFF000
310
1FFC0007FFFFFFF0001FFF0003FFFFFFFFF0001FFFFFFFFFF000E0003FFFFF00
310
03FF8001FFE000001FFC0007FF80007FC0007FFFFF0007FC0003FFFFF0003FF8
310
000001FFFE0000007FFFFFF0001FFFFFFC0003FFFFFFE0001FFC0003FFFFFFE0
310
001FFF0003FFFFFFFFF0003FFFFFFFFFF000E0003FFFFF0001FF8001FFE00000
310
1FFE0007FF80007FC0007FFFFE0003FC0007FFFFE0003FF8000001FFFE000000
310
7FFFFFF0001FFFFFFE0003FFFFFFE0003FFE0003FFFFFFE0003FFF0003FFFFFF
310
FFF0003FFFFF8001F000E0003FFFFF0001FF0001FFE000001FFE0007FF80007F
310
C0007FFFFE0003FC0007FFFFE0003FF8000001FFFE0000007FFFFFF0001FFFFF
310
FE0001FFFFFFC0003FFE0001FFFFFFC0003FFF0003FFFFFFFFF0003FFFFF0001
310
F000E0003FFFFF0003FF0001FFE000003FFE0007FF80007FC0007FFFFE0003FC
310
0007FFFFE0003FF8000001FFFE0000007FFFFFF0001FFFFFFF0001FFFFFFC000
310
7FFF0001FFFFFFC0007FFF0003FFFFFFFFF0003FFFFF0001F000E0003FFFFE00
310
03FF0003FFF000003FFE0003FF80007FC0007FFFFC0003FE0007FFFFE0003FF8
310
000001FFFE0000007FFFFFF0001FFFFFFF0000FFFFFF80007FFF0000FFFFFF80
310
007FFF0003FFFFFFFFF0003FFFFF0001F000E0003FFFFE0003FF0003FFF00000
310
3FFF0003FF80007FC0007FFFFC0007FE0007FFFFC0003FF8000001FFFE000000
310
7FFFFFF0001FFFFFFF80007FFFFF0000FFFF80007FFFFF0000FFFF0003FFFFFF
310
FFF0003FFFFF0003F000E0003FFFFC0003FE0003FFF000003FFF0003FF80007F
310
E0003FFFF80007FE0003FFFFC0007FF8000001FFFE0000007FFFFFF0001FFFFF
310
FF80003FFFFE0000FFFF80003FFFFE0000FFFF0003FFFFFFFFF0001FFFFE0003
310
F000F0001FFFF80003FE0003FFF000007FFF0001FF80007FE0003FFFF00007FE
310
0001FFFF80007FF8000001FFFE0000007FFFFFF0001FFFFFFFC0000FFFF80001
310
FFFFC0000FFFF80001FFFF0003FFFFFFFFF0001FFFFC0003F000F0000FFFF000
310
07FE0007FFF800007FFF0001FF80007FE0001FFFE00007FF0000FFFE00007FF8
310
000001FFFE0000007FFFFFF0001FFFFFFFC00003FFE00001FFFFC00003FFE000
310
01FFFF0003FFFFFFFFF8000FFFF80003F000F00003FFC00007FC0007FFF80000
310
7FFF8001FF80007FF00007FF80000FFF00007FF80000FFF8000001FFFE000000
310
7F80000000000001FFE000003E000003FFFFE000003E000003FFFF0003FFFFFF
310
FFF80003FFE00007F000F800000000000FFC0007FFF800007FFF8001FF80007F
310
F000000000000FFF000000000000FFF8000001FFFE0000007F80000000000001
310
FFF0000000000007FFFFF0000000000007FFFF0003FFFFFFFFFC00007E000007
310
F000F800000000000FFC0007FFF80000FFFF8000FF80007FF800000000001FFF
310
800000000001FFF8000001FFFE0000007F80000000000001FFF800000000000F
310
FFFFF800000000000FFFFF0003FFFFFFFFFC00000000000FF000FC0000000000
310
1FFC0007FFFC0000FFFF8000FF80007FF800000000003FFFC00000000001FFF8
310
000001FFFE0000007F80000000000001FFF800000000000FFFFFF80000000000
310
0FFFFF0003FFFFFFFFFE00000000001FF000FE00000000003FF8000FFFFC0000
310
FFFF8000FF80007FFC00000000003FFFC00000000003FFF8000001FFFE000000
310
7F80000000000001FFFC00000000001FFFFFFC00000000001FFFFF0003FFFFFF
310
FFFF00000000001FF000FF00000000003FF8000FFFFC0000FFFFC000FF80007F
310
FE00000000007FFFE00000000007FFF8000001FFFE0000007F80000000000001
310
FFFE00000000003FFFFFFE00000000003FFFFF0003FFFFFFFFFF80000000003F
310
F000FF80000000007FF8000FFFFC0001FFFFC0007F80007FFF0000000000FFFF
310
F0000000000FFFF800000000000000007F80000000000001FFFF8000000000FF
310
FFFFFF8000000000FFFFFF0003FFFFFFFFFFC0000000007FF000FFC000000000
310
FFF8000FFFFE0001FFFFC0007F80007FFF8000000001FFFFF8000000001FFFF8
310
00000000000000007F80000000000001FFFFC000000001FFFFFFFFC000000001
310
FFFFFF0003FFFFFFFFFFE000000000FFF000FFE000000003FFF0001FFFFE0001
310
FFFFC0007F80007FFFC000000007FFFFFE000000003FFFF80000000000000000
310
7F80000000000001FFFFE000000003FFFFFFFFE000000003FFFFFF0003FFFFFF
310
FFFFF000000003FFF000FFF80000000FFFF0001FFFFE0001FFFFE0007F80007F
310
FFF00000000FFFFFFF00000000FFFFF800000000000000007F80000000000001
310
FFFFF80000000FFFFFFFFFF80000000FFFFFFF0003FFFFFFFFFFFC0000000FFF
310
F000FFFE0000003FFFF0001FFFFE0003FFFFE0003F80007FFFFC0000003FFFFF
310
FFC0000003FFFFF800000000000000007F80000000000001FFFFFE0000003FFF
310
FFFFFFFE0000003FFFFFFF0003FFFFFFFFFFFF0000003FFFF000FFFF800000FF
310
FFF0001FFFFF0003FFFFE0003F80007FFFFF000001FFFFFFFFF800001FFFFFF8
310
00000000000000007F80000000000001FFFFFFC00001FFFFFFFFFFFFC00001FF
310
FFFFFF0003FFFFFFFFFFFFC00000FFFFF000FFFFF8000FFFFFFFFFFFFFFFFFFF
310
FFFFFFFFFFFFFFFFFFFFF0001FFFFFFFFFFF0000FFFFFFF80000000000000000
310
7FFFFFFFFFFFFFFFFFFFFFFC001FFFFFFFFFFFFFFC001FFFFFFFFFFFFFFFFFFF
310
FFFFFFFC001FFFFFF000FFFFFFFFFFFFFFFFFFFFFFFFFFFFFFFFFFFFFFFFFFFF
310
FFFFFFFFFFFFFFFFFFFFFFFFFFFFFFFFFFFFFFFFFFFFFFFFFFFFFFFFFFFFFFFF
310
FFFFFFFFFFFFFFFFFFFFFFFFFFFFFFFFFFFFFFFFFFFFFFFFFFFFFFFFFFFFFFFF
310
F000FFFFFFFFFFFFFFFFFFFFFFFFFFFFFFFFFFFFFFFFFFFFFFFFFFFFFFFFFFFF
310
FFFFFFFFFFFFFFFFFFFFFFFFFFFFFFFFFFFFFFFFFFFFFFFFFFFFFFFFFFFFFFFF
310
FFFFFFFFFFFFFFFFFFFFFFFFFFFFFFFFFFFFFFFFFFFFFFFFF000FFFFFFFFFFFF
310
FFFFFFFFFFFFFFFFFFFFFFFFFFFFFFFFFFFFFFFFFFFFFFFFFFFFFFFFFFFFFFFF
310
FFFFFFFFFFFFFFFFFFFFFFFFFFFFFFFFFFFFFFFFFFFFFFFFFFFFFFFFFFFFFFFF
310
FFFFFFFFFFFFFFFFFFFFFFFFFFFFFFFFF000FFFFFFFFFFFFFFFFFFFFFFFFFFFF
310
FFFFFFFFFFFFFFFFFFFFFFFFFFFFFFFFFFFFFFFFFFFFFFFFFFFFFFFFFFFFFFFF
310
FFFFFFFFFFFFFFFFFFFFFFFFFFFFFFFFFFFFFFFFFFFFFFFFFFFFFFFFFFFFFFFF
310
FFFFFFFFFFFFFFFFF000FFFFFFFFFFFFFFFFFFFFFFFFFFFFFFFFFFFFFFFFFFFF
310
FFFFFFFFFFFFFFFFFFFFFFFFFFFFFFFFFFFFFFFFFFFFFFFFFFFFFFFFFFFFFFFF
310
FFFFFFFFFFFFFFFFFFFFFFFFFFFFFFFFFFFFFFFFFFFFFFFFFFFFFFFFFFFFFFFF
310
F000FFFFFFFFFFFFFFFFFFFFFFFFFFFFFFFFFFFFFFFFFFFFFFFFFFFFFFFFFFFF
310
FFFFFFFFFFFFFFFFFFFFFFFFFFFFFFFFFFFFFFFFFFFFFFFFFFFFFFFFFFFFFFFF
310
FFFFFFFFFFFFFFFFFFFFFFFFFFFFFFFFFFFFFFFFFFFFFFFFF000FFFFFFFFFFFF
310
FFFFFFFFFFFFFFFFFFFFFFFFFFFFFFFFFFFFFFFFFFFFFFFFFFFFFFFFFFFFFFFF
310
FFFFFFFFFFFFFFFFFFFFFFFFFFFFFFFFFFFFFFFFFFFFFFFFFFFFFFFFFFFFFFFF
310
FFFFFFFFFFFFFFFFFFFFFFFFFFFFFFFFF000FFFFFFFFFFFFFFFFFFFFFFFFFFFF
310
FFFFFFFFFFFFFFFFFFFFFFFFFFFFFFFFFFFFFFFFFFFFFFFFFFFFFFFFFFFFFFFF
310
FFFFFFFFFFFFFFFFFFFFFFFFFFFFFFFFFFFFFFFFFFFFFFFFFFFFFFFFFFFFFFFF
310
FFFFFFFFFFFFFFFFF000FFFFFFFFFFFFFFFFFFFFFFFFFFFFFFFFFFFFFFFFFFFF
310
FFFFFFFFFFFFFFFFFFFFFFFFFFFFFFFFFFFFFFFFFFFFFFFFFFFFFFFFFFFFFFFF
310
FFFFFFFFFFFFFFFFFFFFFFFFFFFFFFFFFFFFFFFFFFFFFFFFFFFFFFFFFFFFFFFF
310
F000FFFFFFFFFFFFFFFFFFFFFFFFFFFFFFFFFFFFFFFFFFFFFFFFFFFFFFFFFFFF
310
FFFFFFFFFFFFFFFFFFFFFFFFFFFFFFFFFFFFFFFFFFFFFFFFFFFFFFFFFFFFFFFF
310
FFFFFFFFFFFFFFFFFFFFFFFFFFFFFFFFFFFFFFFFFFFFFFFFF000FFFFFFFFFFFF
310
FFFFFFFFFFFFFFFFFFFFFFFFFFFFFFFFFFFFFFFFFFFFFFFFFFFFFFFFFFFFFFFF
310
FFFFFFFFFFFFFFFFFFFFFFFFFFFFFFFFFFFFFFFFFFFFFFFFFFFFFFFFFFFFFFFF
310
FFFFFFFFFFFFFFFFFFFFFFFFFFFFFFFFF000FFFFFFFFFFFFFFFFFFFFFFFFFFFF
310
FFFFFFFFFFFFFFFFFFFFFFFFFFFFFFFFFFFFFFFFFFFFFFFFFFFFFFFFFFFFFFFF
310
FFFFFFFFFFFFFFFFFFFFFFFFFFFFFFFFFFFFFFFFFFFFFFFFFFFFFFFFFFFFFFFF
310
FFFFFFFFFFFFFFFFF000FFFFFFFFFFFFFFFFFFFFFFFFFFFFFFFFFFFFFFFFFFFF
310
FFFFFFFFFFFFFFFFFFFFFFFFFFFFFFFFFFFFFFFFFFFFFFFFFFFFFFFFFFFFFFFF
310
FFFFFFFFFFFFFFFFFFFFFFFFFFFFFFFFFFFFFFFFFFFFFFFFFFFFFFFFFFFFFFFF
310
F000FFFFFFFFFFFFFFFFFFFFFFFFFFFFFFFFFFFFFFFFFFFFFFFFFFFFFFFFFFFF
310
FFFFFFFFFFFFFFFFFFFFFFFFFFFFFFFFFFFFFFFFFFFFFFFFFFFFFFFFFFFFFFFF
310
FFFFFFFFFFFFFFFFFFFFFFFFFFFFFFFFFFFFFFFFFFFFFFFFF000FFFFFFFFFFFF
310
FFFFFFFFFFFFFFFFFFFFFFFFFFFFFFFFFFFFFFFFFFFFFFFFFFFFFFFFFFFFFFFF
310
FFFFFFFFFFFFFFFFFFFFFFFFFFFFFFFFFFFFFFFFFFFFFFFFFFFFFFFFFFFFFFFF
310
FFFFFFFFFFFFFFFFFFFFFFFFFFFFFFFFF000FFFFFFFFFFFFFFFFFFFFFFFFFFFF
310
FFFFFFFFFFFFFFFFFFFFFFFFFFFFFFFFFFFFFFFFFFFFFFFFFFFFFFFFFFFFFFFF
310
FFFFFFFFFFFFFFFFFFFFFFFFFFFFFFFFFFFFFFFFFFFFFFFFFFFFFFFFFFFFFFFF
310
FFFFFFFFFFFFFFFFF000FFFFFFFFFFFFFFFFFFFFFFFFFFFFFFFFFFFFFFFFFFFF
310
FFFFFFFFFFFFFFFFFFFFFFFFFFFFFFFFFFFFFFFFFFFFFFFFFFFFFFFFFFFFFFFF
310
FFFFFFFFFFFFFFFFFFFFFFFFFFFFFFFFFFFFFFFFFFFFFFFFFFFFFFFFFFFFFFFF
310
F000FFFFFFFFFFFFFFFFFFFFFFFFFFFFFFFFFFFFFFFFFFFFFFFFFFFFFFFFFFFF
310
FFFFFFFFFFFFFFFFFFFFFFFFFFFFFFFFFFFFFFFFFFFFFFFFFFFFFFFFFFFFFFFF
310
FFFFFFFFFFFFFFFFFFFFFFFFFFFFFFFFFFFFFFFFFFFFFFFFF000FFFFFFFFFFFF
310
FFFFFFFFFFFFFFFFFFFFFFFFFFFFFFFFFFFFFFFFFFFFFFFFFFFFFFFFFFFFFFFF
310
FFFFFFFFFFFFFFFFFFFFFFFFFFFFFFFFFFFFFFFFFFFFFFFFFFFFFFFFFFFFFFFF
310
FFFFFFFFFFFFFFFFFFFFFFFFFFFFFFFFF000FFFFFFFFFFFFFFFFFFFFFFFFFFFF
310
FFFFFFFFFFFFFFFFFFFFFFFFFFFFFFFFFFFFFFFFFFFFFFFFFFFFFFFFFFFFFFFF
310
FFFFFFFFFFFFFFFFFFFFFFFFFFFFFFFFFFFFFFFFFFFFFFFFFFFFFFFFFFFFFFFF
310
FFFFFFFFFFFFFFFFF000FFFFFFFFFFFFFFFFFFFFFFFFFFFFFFFFFFFFFFFFFFFF
310
FFFFFFFFFFFFFFFFFFFFFFFFFFFFFFFFFFFFFFFFFFFFFFFFFFFFFFFFFFFFFFFF
310
FFFFFFFFFFFFFFFFFFFFFFFFFFFFFFFFFFFFFFFFFFFFFFFFFFFFFFFFFFFFFFFF
310
F000FFFFFFFFFFFFFFFFFFFFFFFFFFFFFFFFFFFFFFFFFFFFFFFFFFFFFFFFFFFF
310
FFFFFFFFFFFFFFFFFFFFFFFFFFFFFFFFFFFFFFFFFFFFFFFFFFFFFFFFFFFFFFFF
310
FFFFFFFFFFFFFFFFFFFFFFFFFFFFFFFFFFFFFFFFFFFFFFFFF000FFFFFFFFFFFF
310
FFFFFFFFFFFFFFFFFFFFFFFFFFFFFFFFFFFFFFFFFFFFFFFFFFFFFFFFFFFFFFFF
310
FFFFFFFFFFFFFFFFFFFFFFFFFFFFFFFFFFFFFFFFFFFFFFFFFFFFFFFFFFFFFFFF
310
FFFFFFFFFFFFFFFFFFFFFFFFFFFFFFFFF0000000000000000000000000000000
310
0000000000000000000000000000000000000000000000000000000000000000
310
0000000000000000000000000000000000000000000000000000000000000000
310
0000000000000000000000000000000000000000000000000000000000000000
310
0000000000000000000000000000000000000000000000000000000000000000
310
0000000000000000000000000000000000000000000000000000000000000000
310
0000000000000000000000000000000000000000000000000000000000000000
310
0000000000000000000000000000000000000000000000000000000000000000
310
0000000000000000000000000000000000000000000000000000000000000000
310
0000000000000000000000000000000000000000000000000000000000000000
310
0000000000000000000000000000000000000000000000000000000000000000
310
0000000000000000000000000000000000000000000000000000000000000000
310
0000000000000000000000000000000000000000000000000000000000000000
310
0000000000000000000000000000000000000000000000000000000000000000
310
0000000000000000000000000000000000000000000000000000000000000000
310
0000000000000000000000000000000000000000000000000000000000000000
  1
OLE
  0
ENDSEC
  0
SECTION
  2
OBJECTS
  0
DICTIONARY
  5
C
330
0
100
AcDbDictionary
281
     1
  3
ACAD_GROUP
350
D
  3
ACAD_LAYOUT
350
1A
  3
ACAD_MLINESTYLE
350
17
  3
ACAD_PLOTSETTINGS
350
19
  3
ACAD_PLOTSTYLENAME
350
E
  3
ACAD_SCALELIST
350
47
  0
DICTIONARY
  5
D
102
{ACAD_REACTORS
330
C
102
}
330
C
100
AcDbDictionary
281
     1
  0
DICTIONARY
  5
1A
102
{ACAD_REACTORS
330
C
102
}
330
C
100
AcDbDictionary
281
     1
  3
Layout1
350
1E
  3
Layout2
350
26
  3
Model
350
22
  0
DICTIONARY
  5
17
102
{ACAD_REACTORS
330
C
102
}
330
C
100
AcDbDictionary
281
     1
  3
Standard
350
18
  0
DICTIONARY
  5
19
102
{ACAD_REACTORS
330
C
102
}
330
C
100
AcDbDictionary
281
     1
  0
ACDBDICTIONARYWDFLT
  5
E
102
{ACAD_REACTORS
330
C
102
}
330
C
100
AcDbDictionary
281
     1
  3
Normal
350
F
100
AcDbDictionaryWithDefault
340
F
  0
DICTIONARY
  5
47
102
{ACAD_REACTORS
330
C
102
}
330
C
100
AcDbDictionary
281
     1
  3
A0
350
48
  3
A1
350
49
  3
A2
350
4A
  3
A3
350
4B
  3
A4
350
4C
  3
A5
350
4D
  3
A6
350
4E
  3
A7
350
4F
  3
A8
350
50
  3
A9
350
51
  3
B0
350
52
  3
B1
350
53
  3
B2
350
54
  3
B3
350
55
  3
B4
350
56
  3
B5
350
57
  3
B6
350
58
  3
B7
350
59
  3
B8
350
5A
  3
B9
350
5B
  3
C0
350
5C
  3
C1
350
5D
  3
C2
350
5E
  3
C3
350
5F
  3
C4
350
60
  3
C5
350
61
  3
C6
350
62
  3
C7
350
63
  3
C8
350
64
  3
C9
350
65
  3
D0
350
66
  3
D1
350
67
  3
D2
350
68
  0
LAYOUT
  5
1E
102
{ACAD_REACTORS
330
1A
102
}
330
1A
100
AcDbPlotSettings
  1

  2
none_device
  4

  6

 40
0.0
 41
0.0
 42
0.0
 43
0.0
 44
0.0
 45
0.0
 46
0.0
 47
0.0
 48
0.0
 49
0.0
140
0.0
141
0.0
142
1.0
143
1.0
 70
   688
 72
     1
 73
     0
 74
     5
  7

 75
    16
147
1.0
148
0.0
149
0.0
100
AcDbLayout
  1
Layout1
 70
     1
 71
     1
 10
0.0
 20
0.0
 11
420.0
 21
297.0
 12
0.0
 22
0.0
 32
0.0
 14
1.0000000000E+20
 24
1.0000000000E+20
 34
1.0000000000E+20
 15
-1.0000000000E+20
 25
-1.0000000000E+20
 35
-1.0000000000E+20
146
0.0
 13
0.0
 23
0.0
 33
0.0
 16
1.0
 26
0.0
 36
0.0
 17
0.0
 27
1.0
 37
0.0
 76
     0
330
1B
  0
LAYOUT
  5
26
102
{ACAD_REACTORS
330
1A
102
}
330
1A
100
AcDbPlotSettings
  1

  2
none_device
  4

  6

 40
0.0
 41
0.0
 42
0.0
 43
0.0
 44
0.0
 45
0.0
 46
0.0
 47
0.0
 48
0.0
 49
0.0
140
0.0
141
0.0
142
1.0
143
1.0
 70
   688
 72
     1
 73
     0
 74
     5
  7

 75
    16
147
1.0
148
0.0
149
0.0
100
AcDbLayout
  1
Layout2
 70
     1
 71
     2
 10
0.0
 20
0.0
 11
0.0
 21
0.0
 12
0.0
 22
0.0
 32
0.0
 14
0.0
 24
0.0
 34
0.0
 15
0.0
 25
0.0
 35
0.0
146
0.0
 13
0.0
 23
0.0
 33
0.0
 16
1.0
 26
0.0
 36
0.0
 17
0.0
 27
1.0
 37
0.0
 76
     0
330
23
  0
LAYOUT
  5
22
102
{ACAD_REACTORS
330
1A
102
}
330
1A
100
AcDbPlotSettings
  1

  2
none_device
  4
Letter_(8.50_x_11.00_Inches)
  6

 40
6.35
 41
6.35
 42
6.35000508
 43
6.35000508
 44
215.9
 45
279.4
 46
0.0
 47
0.0
 48
0.0
 49
0.0
140
0.0
141
0.0
142
1.0
143
1.0
 70
  1712
 72
     1
 73
     0
 74
     0
  7

 75
     0
147
1.0
148
0.0
149
0.0
100
AcDbLayout
  1
Model
 70
     1
 71
     0
 10
0.0
 20
0.0
 11
297.0
 21
210.0
 12
0.0
 22
0.0
 32
0.0
 14
0.0
 24
0.0
 34
0.0
 15
297.0
 25
210.0
 35
0.0
146
0.0
 13
0.0
 23
0.0
 33
0.0
 16
1.0
 26
0.0
 36
0.0
 17
0.0
 27
1.0
 37
0.0
 76
     0
330
1F
331
29
  0
MLINESTYLE
  5
18
102
{ACAD_REACTORS
330
17
102
}
330
17
100
AcDbMlineStyle
  2
Standard
 70
     0
  3

 62
   256
 51
90.0
 52
90.0
 71
     2
 49
0.5
 62
   256
  6
BYLAYER
 49
-0.5
 62
   256
  6
BYLAYER
  0
ACDBPLACEHOLDER
  5
F
102
{ACAD_REACTORS
330
E
102
}
330
E
  0
SCALE
  5
48
102
{ACAD_REACTORS
330
47
102
}
330
47
100
AcDbScale
 70
     0
300
1:1
140
1.0
141
1.0
290
     1
  0
SCALE
  5
49
102
{ACAD_REACTORS
330
47
102
}
330
47
100
AcDbScale
 70
     0
300
1:2
140
1.0
141
2.0
290
     0
  0
SCALE
  5
4A
102
{ACAD_REACTORS
330
47
102
}
330
47
100
AcDbScale
 70
     0
300
1:4
140
1.0
141
4.0
290
     0
  0
SCALE
  5
4B
102
{ACAD_REACTORS
330
47
102
}
330
47
100
AcDbScale
 70
     0
300
1:5
140
1.0
141
5.0
290
     0
  0
SCALE
  5
4C
102
{ACAD_REACTORS
330
47
102
}
330
47
100
AcDbScale
 70
     0
300
1:8
140
1.0
141
8.0
290
     0
  0
SCALE
  5
4D
102
{ACAD_REACTORS
330
47
102
}
330
47
100
AcDbScale
 70
     0
300
1:10
140
1.0
141
10.0
290
     0
  0
SCALE
  5
4E
102
{ACAD_REACTORS
330
47
102
}
330
47
100
AcDbScale
 70
     0
300
1:16
140
1.0
141
16.0
290
     0
  0
SCALE
  5
4F
102
{ACAD_REACTORS
330
47
102
}
330
47
100
AcDbScale
 70
     0
300
1:20
140
1.0
141
20.0
290
     0
  0
SCALE
  5
50
102
{ACAD_REACTORS
330
47
102
}
330
47
100
AcDbScale
 70
     0
300
1:30
140
1.0
141
30.0
290
     0
  0
SCALE
  5
51
102
{ACAD_REACTORS
330
47
102
}
330
47
100
AcDbScale
 70
     0
300
1:40
140
1.0
141
40.0
290
     0
  0
SCALE
  5
52
102
{ACAD_REACTORS
330
47
102
}
330
47
100
AcDbScale
 70
     0
300
1:50
140
1.0
141
50.0
290
     0
  0
SCALE
  5
53
102
{ACAD_REACTORS
330
47
102
}
330
47
100
AcDbScale
 70
     0
300
1:100
140
1.0
141
100.0
290
     0
  0
SCALE
  5
54
102
{ACAD_REACTORS
330
47
102
}
330
47
100
AcDbScale
 70
     0
300
2:1
140
2.0
141
1.0
290
     0
  0
SCALE
  5
55
102
{ACAD_REACTORS
330
47
102
}
330
47
100
AcDbScale
 70
     0
300
4:1
140
4.0
141
1.0
290
     0
  0
SCALE
  5
56
102
{ACAD_REACTORS
330
47
102
}
330
47
100
AcDbScale
 70
     0
300
8:1
140
8.0
141
1.0
290
     0
  0
SCALE
  5
57
102
{ACAD_REACTORS
330
47
102
}
330
47
100
AcDbScale
 70
     0
300
10:1
140
10.0
141
1.0
290
     0
  0
SCALE
  5
58
102
{ACAD_REACTORS
330
47
102
}
330
47
100
AcDbScale
 70
     0
300
100:1
140
100.0
141
1.0
290
     0
  0
SCALE
  5
59
102
{ACAD_REACTORS
330
47
102
}
330
47
100
AcDbScale
 70
     0
300
1/128" = 1'-0"
140
0.0078125
141
12.0
290
     0
  0
SCALE
  5
5A
102
{ACAD_REACTORS
330
47
102
}
330
47
100
AcDbScale
 70
     0
300
1/64" = 1'-0"
140
0.015625
141
12.0
290
     0
  0
SCALE
  5
5B
102
{ACAD_REACTORS
330
47
102
}
330
47
100
AcDbScale
 70
     0
300
1/32" = 1'-0"
140
0.03125
141
12.0
290
     0
  0
SCALE
  5
5C
102
{ACAD_REACTORS
330
47
102
}
330
47
100
AcDbScale
 70
     0
300
1/16" = 1'-0"
140
0.0625
141
12.0
290
     0
  0
SCALE
  5
5D
102
{ACAD_REACTORS
330
47
102
}
330
47
100
AcDbScale
 70
     0
300
3/32" = 1'-0"
140
0.09375
141
12.0
290
     0
  0
SCALE
  5
5E
102
{ACAD_REACTORS
330
47
102
}
330
47
100
AcDbScale
 70
     0
300
1/8" = 1'-0"
140
0.125
141
12.0
290
     0
  0
SCALE
  5
5F
102
{ACAD_REACTORS
330
47
102
}
330
47
100
AcDbScale
 70
     0
300
3/16" = 1'-0"
140
0.1875
141
12.0
290
     0
  0
SCALE
  5
60
102
{ACAD_REACTORS
330
47
102
}
330
47
100
AcDbScale
 70
     0
300
1/4" = 1'-0"
140
0.25
141
12.0
290
     0
  0
SCALE
  5
61
102
{ACAD_REACTORS
330
47
102
}
330
47
100
AcDbScale
 70
     0
300
3/8" = 1'-0"
140
0.375
141
12.0
290
     0
  0
SCALE
  5
62
102
{ACAD_REACTORS
330
47
102
}
330
47
100
AcDbScale
 70
     0
300
1/2" = 1'-0"
140
0.5
141
12.0
290
     0
  0
SCALE
  5
63
102
{ACAD_REACTORS
330
47
102
}
330
47
100
AcDbScale
 70
     0
300
3/4" = 1'-0"
140
0.75
141
12.0
290
     0
  0
SCALE
  5
64
102
{ACAD_REACTORS
330
47
102
}
330
47
100
AcDbScale
 70
     0
300
1" = 1'-0"
140
1.0
141
12.0
290
     0
  0
SCALE
  5
65
102
{ACAD_REACTORS
330
47
102
}
330
47
100
AcDbScale
 70
     0
300
1-1/2" = 1'-0"
140
1.5
141
12.0
290
     0
  0
SCALE
  5
66
102
{ACAD_REACTORS
330
47
102
}
330
47
100
AcDbScale
 70
     0
300
3" = 1'-0"
140
3.0
141
12.0
290
     0
  0
SCALE
  5
67
102
{ACAD_REACTORS
330
47
102
}
330
47
100
AcDbScale
 70
     0
300
6" = 1'-0"
140
6.0
141
12.0
290
     0
  0
SCALE
  5
68
102
{ACAD_REACTORS
330
47
102
}
330
47
100
AcDbScale
 70
     0
300
1'-0" = 1'-0"
140
12.0
141
12.0
290
     0
  0
ENDSEC
  0
EOF
