  0
SECTION
  2
HEADER
  9
$ACADVER
  1
AC1015
  9
$ACADMAINTVER
 70
     6
  9
$DWGCODEPAGE
  3
ANSI_1252
  9
$INSBASE
 10
0.0
 20
0.0
 30
0.0
  9
$EXTMIN
 10
0.0
 20
0.0
 30
0.0
  9
$EXTMAX
 10
297.0
 20
210.0
 30
0.0
  9
$LIMMIN
 10
0.0
 20
0.0
  9
$LIMMAX
 10
297.0
 20
210.0
  9
$ORTHOMODE
 70
     0
  9
$REGENMODE
 70
     1
  9
$FILLMODE
 70
     1
  9
$QTEXTMODE
 70
     0
  9
$MIRRTEXT
 70
     1
  9
$LTSCALE
 40
1.0
  9
$ATTMODE
 70
     1
  9
$TEXTSIZE
 40
2.0
  9
$TRACEWID
 40
1.0
  9
$TEXTSTYLE
  7
Standard
  9
$CLAYER
  8
0
  9
$CELTYPE
  6
ByLayer
  9
$CECOLOR
 62
   256
  9
$CELTSCALE
 40
1.0
  9
$DISPSILH
 70
     0
  9
$DIMSCALE
 40
1.0
  9
$DIMASZ
 40
3.0
  9
$DIMEXO
 40
0.0
  9
$DIMDLI
 40
3.75
  9
$DIMRND
 40
0.0
  9
$DIMDLE
 40
0.0
  9
$DIMEXE
 40
1.0
  9
$DIMTP
 40
0.0
  9
$DIMTM
 40
0.0
  9
$DIMTXT
 40
2.0
  9
$DIMCEN
 40
2.5
  9
$DIMTSZ
 40
0.0
  9
$DIMTOL
 70
     0
  9
$DIMLIM
 70
     0
  9
$DIMTIH
 70
     1
  9
$DIMTOH
 70
     1
  9
$DIMSE1
 70
     0
  9
$DIMSE2
 70
     0
  9
$DIMTAD
 70
     1
  9
$DIMZIN
 70
     0
  9
$DIMBLK
  1

  9
$DIMASO
 70
     1
  9
$DIMSHO
 70
     1
  9
$DIMPOST
  1

  9
$DIMAPOST
  1

  9
$DIMALT
 70
     0
  9
$DIMALTD
 70
     3
  9
$DIMALTF
 40
0.0393700787
  9
$DIMLFAC
 40
1.0
  9
$DIMTOFL
 70
     1
  9
$DIMTVP
 40
0.0
  9
$DIMTIX
 70
     0
  9
$DIMSOXD
 70
     0
  9
$DIMSAH
 70
     0
  9
$DIMBLK1
  1

  9
$DIMBLK2
  1

  9
$DIMSTYLE
  2
ISO-25
  9
$DIMCLRD
 70
     0
  9
$DIMCLRE
 70
     0
  9
$DIMCLRT
 70
     0
  9
$DIMTFAC
 40
1.0
  9
$DIMGAP
 40
1.524
  9
$DIMJUST
 70
     0
  9
$DIMSD1
 70
     0
  9
$DIMSD2
 70
     0
  9
$DIMTOLJ
 70
     0
  9
$DIMTZIN
 70
     0
  9
$DIMALTZ
 70
     0
  9
$DIMALTTZ
 70
     0
  9
$DIMUPT
 70
     0
  9
$DIMDEC
 70
     2
  9
$DIMTDEC
 70
     3
  9
$DIMALTU
 70
     2
  9
$DIMALTTD
 70
     3
  9
$DIMTXSTY
  7
Standard
  9
$DIMAUNIT
 70
     0
  9
$DIMADEC
 70
     2
  9
$DIMALTRND
 40
0.0
  9
$DIMAZIN
 70
     0
  9
$DIMDSEP
 70
    44
  9
$DIMATFIT
 70
     3
  9
$DIMFRAC
 70
     0
  9
$DIMLDRBLK
  1

  9
$DIMLUNIT
 70
     2
  9
$DIMLWD
 70
    -2
  9
$DIMLWE
 70
    -2
  9
$DIMTMOVE
 70
     0
  9
$LUNITS
 70
     2
  9
$LUPREC
 70
     2
  9
$SKETCHINC
 40
1.0
  9
$FILLETRAD
 40
10.0
  9
$AUNITS
 70
     0
  9
$AUPREC
 70
     2
  9
$MENU
  1
.
  9
$ELEVATION
 40
0.0
  9
$PELEVATION
 40
0.0
  9
$THICKNESS
 40
0.0
  9
$LIMCHECK
 70
     0
  9
$CHAMFERA
 40
0.0
  9
$CHAMFERB
 40
0.0
  9
$CHAMFERC
 40
0.0
  9
$CHAMFERD
 40
0.0
  9
$SKPOLY
 70
     0
  9
$TDCREATE
 40
2457632.481785081
  9
$TDUCREATE
 40
2457632.398451748
  9
$TDUPDATE
 40
2457632.481786435
  9
$TDUUPDATE
 40
2457632.398453102
  9
$TDINDWG
 40
0.0000000116
  9
$TDUSRTIMER
 40
0.0000000116
  9
$USRTIMER
 70
     1
  9
$ANGBASE
 50
0.0
  9
$ANGDIR
 70
     0
  9
$PDMODE
 70
     0
  9
$PDSIZE
 40
-1.0
  9
$PLINEWID
 40
0.0
  9
$SPLFRAME
 70
     0
  9
$SPLINETYPE
 70
     6
  9
$SPLINESEGS
 70
     8
  9
$HANDSEED
  5
2DF
  9
$SURFTAB1
 70
     6
  9
$SURFTAB2
 70
     6
  9
$SURFTYPE
 70
     6
  9
$SURFU
 70
     6
  9
$SURFV
 70
     6
  9
$UCSBASE
  2

  9
$UCSNAME
  2

  9
$UCSORG
 10
0.0
 20
0.0
 30
0.0
  9
$UCSXDIR
 10
1.0
 20
0.0
 30
0.0
  9
$UCSYDIR
 10
0.0
 20
1.0
 30
0.0
  9
$UCSORTHOREF
  2

  9
$UCSORTHOVIEW
 70
     0
  9
$UCSORGTOP
 10
0.0
 20
0.0
 30
0.0
  9
$UCSORGBOTTOM
 10
0.0
 20
0.0
 30
0.0
  9
$UCSORGLEFT
 10
0.0
 20
0.0
 30
0.0
  9
$UCSORGRIGHT
 10
0.0
 20
0.0
 30
0.0
  9
$UCSORGFRONT
 10
0.0
 20
0.0
 30
0.0
  9
$UCSORGBACK
 10
0.0
 20
0.0
 30
0.0
  9
$PUCSBASE
  2

  9
$PUCSNAME
  2

  9
$PUCSORG
 10
0.0
 20
0.0
 30
0.0
  9
$PUCSXDIR
 10
1.0
 20
0.0
 30
0.0
  9
$PUCSYDIR
 10
0.0
 20
1.0
 30
0.0
  9
$PUCSORTHOREF
  2

  9
$PUCSORTHOVIEW
 70
     0
  9
$PUCSORGTOP
 10
0.0
 20
0.0
 30
0.0
  9
$PUCSORGBOTTOM
 10
0.0
 20
0.0
 30
0.0
  9
$PUCSORGLEFT
 10
0.0
 20
0.0
 30
0.0
  9
$PUCSORGRIGHT
 10
0.0
 20
0.0
 30
0.0
  9
$PUCSORGFRONT
 10
0.0
 20
0.0
 30
0.0
  9
$PUCSORGBACK
 10
0.0
 20
0.0
 30
0.0
  9
$USERI1
 70
     0
  9
$USERI2
 70
     0
  9
$USERI3
 70
     0
  9
$USERI4
 70
     0
  9
$USERI5
 70
     0
  9
$USERR1
 40
0.0
  9
$USERR2
 40
0.0
  9
$USERR3
 40
0.0
  9
$USERR4
 40
0.0
  9
$USERR5
 40
0.0
  9
$WORLDVIEW
 70
     1
  9
$SHADEDGE
 70
     3
  9
$SHADEDIF
 70
    70
  9
$TILEMODE
 70
     1
  9
$MAXACTVP
 70
    64
  9
$PINSBASE
 10
0.0
 20
0.0
 30
0.0
  9
$PLIMCHECK
 70
     0
  9
$PEXTMIN
 10
1.0000000000E+20
 20
1.0000000000E+20
 30
1.0000000000E+20
  9
$PEXTMAX
 10
-1.0000000000E+20
 20
-1.0000000000E+20
 30
-1.0000000000E+20
  9
$PLIMMIN
 10
0.0
 20
0.0
  9
$PLIMMAX
 10
420.0
 20
297.0
  9
$UNITMODE
 70
     0
  9
$VISRETAIN
 70
     1
  9
$PLINEGEN
 70
     0
  9
$PSLTSCALE
 70
     1
  9
$TREEDEPTH
 70
  3020
  9
$CMLSTYLE
  2
Standard
  9
$CMLJUST
 70
     0
  9
$CMLSCALE
 40
20.0
  9
$PROXYGRAPHICS
 70
     1
  9
$MEASUREMENT
 70
     1
  9
$CELWEIGHT
370
    -1
  9
$ENDCAPS
280
     0
  9
$JOINSTYLE
280
     0
  9
$LWDISPLAY
290
     1
  9
$INSUNITS
 70
     4
  9
$HYPERLINKBASE
  1

  9
$STYLESHEET
  1

  9
$XEDIT
290
     1
  9
$CEPSNTYPE
380
     0
  9
$PSTYLEMODE
290
     1
  9
$FINGERPRINTGUID
  2
{8E92D28A-5392-485B-83B3-E024860444FB}
  9
$VERSIONGUID
  2
{FAEB1C32-E019-11D5-929B-00C0DF256EC4}
  9
$EXTNAMES
290
     1
  9
$PSVPSCALE
 40
0.0
  9
$OLESTARTUP
290
     0
  0
ENDSEC
  0
SECTION
  2
CLASSES
  0
CLASS
  1
ACDBDICTIONARYWDFLT
  2
AcDbDictionaryWithDefault
  3
ObjectDBX Classes
 90
        0
280
     0
281
     0
  0
CLASS
  1
VISUALSTYLE
  2
AcDbVisualStyle
  3
ObjectDBX Classes
 90
     4095
280
     0
281
     0
  0
CLASS
  1
MATERIAL
  2
AcDbMaterial
  3
ObjectDBX Classes
 90
     1153
280
     0
281
     0
  0
CLASS
  1
SCALE
  2
AcDbScale
  3
ObjectDBX Classes
 90
     1153
280
     0
281
     0
  0
CLASS
  1
TABLESTYLE
  2
AcDbTableStyle
  3
ObjectDBX Classes
 90
     4095
280
     0
281
     0
  0
CLASS
  1
MLEADERSTYLE
  2
AcDbMLeaderStyle
  3
ACDB_MLEADERSTYLE_CLASS
 90
     4095
280
     0
281
     0
  0
CLASS
  1
SUN
  2
AcDbSun
  3
SCENEOE
 90
     1153
280
     0
281
     0
  0
CLASS
  1
ACDBPLACEHOLDER
  2
AcDbPlaceHolder
  3
ObjectDBX Classes
 90
        0
280
     0
281
     0
  0
CLASS
  1
LAYOUT
  2
AcDbLayout
  3
ObjectDBX Classes
 90
        0
280
     0
281
     0
  0
ENDSEC
  0
SECTION
  2
TABLES
  0
TABLE
  2
VPORT
  5
8
330
0
100
AcDbSymbolTable
 70
     1
  0
VPORT
  5
29
330
8
100
AcDbSymbolTableRecord
100
AcDbViewportTableRecord
  2
*Active
 70
     0
 10
0.0
 20
0.0
 11
1.0
 21
1.0
 12
148.5
 22
105.0
 13
0.0
 23
0.0
 14
10.0
 24
10.0
 15
10.0
 25
10.0
 16
0.0
 26
0.0
 36
1.0
 17
0.0
 27
0.0
 37
0.0
 40
210.0
 41
1.4142857143
 42
50.0
 43
0.0
 44
0.0
 50
0.0
 51
0.0
 71
     0
 72
  2000
 73
     1
 74
     3
 75
     0
 76
     0
 77
     0
 78
     0
281
     0
 65
     1
110
0.0
120
0.0
130
0.0
111
1.0
121
0.0
131
0.0
112
0.0
122
1.0
132
0.0
 79
     0
146
0.0
  0
ENDTAB
  0
TABLE
  2
LTYPE
  5
5
330
0
100
AcDbSymbolTable
 70
     6
  0
LTYPE
  5
14
330
5
100
AcDbSymbolTableRecord
100
AcDbLinetypeTableRecord
  2
ByBlock
 70
     0
  3

 72
    65
 73
     0
 40
0.0
  0
LTYPE
  5
15
330
5
100
AcDbSymbolTableRecord
100
AcDbLinetypeTableRecord
  2
ByLayer
 70
     0
  3

 72
    65
 73
     0
 40
0.0
  0
LTYPE
  5
16
330
5
100
AcDbSymbolTableRecord
100
AcDbLinetypeTableRecord
  2
Continuous
 70
     0
  3
Solid line
 72
    65
 73
     0
 40
0.0
  0
LTYPE
  5
6E
330
5
100
AcDbSymbolTableRecord
100
AcDbLinetypeTableRecord
  2
HIDDEN
 70
     0
  3
Hidden __ __ __ __ __ __ __ __ __ __ __ __ __ __
 72
    65
 73
     2
 40
1.905
 49
1.27
 74
     0
 49
-0.635
 74
     0
  0
LTYPE
  5
6F
330
5
100
AcDbSymbolTableRecord
100
AcDbLinetypeTableRecord
  2
PHANTOM
 70
     0
  3
Phantom ______  __  __  ______  __  __  ______
 72
    65
 73
     6
 40
12.7
 49
6.35
 74
     0
 49
-1.27
 74
     0
 49
1.27
 74
     0
 49
-1.27
 74
     0
 49
1.27
 74
     0
 49
-1.27
 74
     0
  0
LTYPE
  5
70
330
5
100
AcDbSymbolTableRecord
100
AcDbLinetypeTableRecord
  2
CENTER
 70
     0
  3
Center ____ _ ____ _ ____ _ ____ _ ____ _ ____
 72
    65
 73
     4
 40
10.16
 49
6.35
 74
     0
 49
-1.27
 74
     0
 49
1.27
 74
     0
 49
-1.27
 74
     0
  0
LTYPE
  5
71
330
5
100
AcDbSymbolTableRecord
100
AcDbLinetypeTableRecord
  2
CENTERX2
 70
     0
  3
Center (2x) ________  __  ________  __  _____
 72
    65
 73
     4
 40
20.32
 49
12.7
 74
     0
 49
-2.54
 74
     0
 49
2.54
 74
     0
 49
-2.54
 74
     0
  0
LTYPE
  5
72
330
5
100
AcDbSymbolTableRecord
100
AcDbLinetypeTableRecord
  2
DOT2
 70
     0
  3
Dot (.5x) ........................................
 72
    65
 73
     2
 40
0.635
 49
0.0
 74
     0
 49
-0.635
 74
     0
  0
ENDTAB
  0
TABLE
  2
LAYER
  5
2
330
0
100
AcDbSymbolTable
 70
     5
  0
LAYER
  5
10
330
2
100
AcDbSymbolTableRecord
100
AcDbLayerTableRecord
  2
0
 70
     0
 62
     7
  6
Continuous
370
    -3
390
F
  0
LAYER
  5
73
330
2
100
AcDbSymbolTableRecord
100
AcDbLayerTableRecord
  2
FORMAT
 70
     0
 62
     7
  6
Continuous
370
    -3
390
F
  0
LAYER
  5
74
330
2
100
AcDbSymbolTableRecord
100
AcDbLayerTableRecord
  2
VERMASSUNG
 70
     0
 62
     7
  6
Continuous
370
    -3
390
F
  0
LAYER
  5
75
330
2
100
AcDbSymbolTableRecord
100
AcDbLayerTableRecord
  2
KOPF_DÜNN
 70
     0
 62
     7
  6
Continuous
370
    -3
390
F
  0
LAYER
  5
76
330
2
100
AcDbSymbolTableRecord
100
AcDbLayerTableRecord
  2
KOPF_DICK
 70
     0
 62
     7
  6
Continuous
370
    15
390
F
  0
ENDTAB
  0
TABLE
  2
STYLE
  5
3
330
0
100
AcDbSymbolTable
 70
     2
  0
STYLE
  5
11
330
3
100
AcDbSymbolTableRecord
100
AcDbTextStyleTableRecord
  2
Standard
 70
     0
 40
0.0
 41
1.0
 50
0.0
 71
     0
 42
2.0
  3
txt
  4

  0
STYLE
  5
77
330
3
100
AcDbSymbolTableRecord
100
AcDbTextStyleTableRecord
  2
SLDTEXTSTYLE0
 70
     0
 40
0.0
 41
0.7
 50
0.0
 71
     0
 42
2.0
  3
TXT
  4

  0
ENDTAB
  0
TABLE
  2
VIEW
  5
6
330
0
100
AcDbSymbolTable
 70
     0
  0
ENDTAB
  0
TABLE
  2
UCS
  5
7
330
0
100
AcDbSymbolTable
 70
     0
  0
ENDTAB
  0
TABLE
  2
APPID
  5
9
330
0
100
AcDbSymbolTable
 70
     1
  0
APPID
  5
12
330
9
100
AcDbSymbolTableRecord
100
AcDbRegAppTableRecord
  2
ACAD
 70
     0
  0
ENDTAB
  0
TABLE
  2
DIMSTYLE
  5
A
330
0
100
AcDbSymbolTable
 70
     2
100
AcDbDimStyleTable
  0
DIMSTYLE
105
27
330
A
100
AcDbSymbolTableRecord
100
AcDbDimStyleTableRecord
  2
ISO-25
 70
     0
 41
2.5
 42
0.625
 43
3.75
 44
1.25
 73
     0
 74
     0
 77
     1
 78
     8
140
2.5
141
2.5
143
0.0393700787
147
0.625
171
     3
172
     1
178
     0
271
     2
272
     2
274
     3
278
    44
283
     0
284
     8
340
11
  0
DIMSTYLE
105
1D7
102
{ACAD_REACTORS
330
1D6
330
1E3
330
1EF
330
1F9
330
203
102
}
330
A
100
AcDbSymbolTableRecord
100
AcDbDimStyleTableRecord
  2
SLDDIMSTYLE0
 70
     0
 41
3.0
 44
0.0
 45
0.000000001
 73
     0
 74
     0
 77
     1
 78
    12
 79
     3
140
2.0
147
0.5
173
     1
178
     0
271
     2
272
     3
276
     2
284
    12
340
77
  0
ENDTAB
  0
TABLE
  2
BLOCK_RECORD
  5
1
330
0
100
AcDbSymbolTable
 70
     6
  0
BLOCK_RECORD
  5
1F
330
1
100
AcDbSymbolTableRecord
100
AcDbBlockTableRecord
  2
*Model_Space
340
22
  0
BLOCK_RECORD
  5
1B
330
1
100
AcDbSymbolTableRecord
100
AcDbBlockTableRecord
  2
*Paper_Space
340
1E
  0
BLOCK_RECORD
  5
23
330
1
100
AcDbSymbolTableRecord
100
AcDbBlockTableRecord
  2
*Paper_Space0
340
26
  0
BLOCK_RECORD
  5
1D8
330
1
100
AcDbSymbolTableRecord
100
AcDbBlockTableRecord
  2
_D
340
0
  0
BLOCK_RECORD
  5
1E4
330
1
100
AcDbSymbolTableRecord
100
AcDbBlockTableRecord
  2
_D_1
340
0
  0
BLOCK_RECORD
  5
1F0
330
1
100
AcDbSymbolTableRecord
100
AcDbBlockTableRecord
  2
_D_2
340
0
  0
BLOCK_RECORD
  5
1FA
330
1
100
AcDbSymbolTableRecord
100
AcDbBlockTableRecord
  2
_D_3
340
0
  0
BLOCK_RECORD
  5
204
330
1
100
AcDbSymbolTableRecord
100
AcDbBlockTableRecord
  2
_D_4
340
0
  0
ENDTAB
  0
ENDSEC
  0
SECTION
  2
BLOCKS
  0
BLOCK
  5
20
330
1F
100
AcDbEntity
  8
0
100
AcDbBlockBegin
  2
*Model_Space
 70
     0
 10
0.0
 20
0.0
 30
0.0
  3
*Model_Space
  1

  0
ENDBLK
  5
21
330
1F
100
AcDbEntity
  8
0
100
AcDbBlockEnd
  0
BLOCK
  5
1C
330
1B
100
AcDbEntity
 67
     1
  8
0
100
AcDbBlockBegin
  2
*Paper_Space
 70
     0
 10
0.0
 20
0.0
 30
0.0
  3
*Paper_Space
  1

  0
ENDBLK
  5
1D
330
1B
100
AcDbEntity
 67
     1
  8
0
100
AcDbBlockEnd
  0
BLOCK
  5
24
330
23
100
AcDbEntity
  8
0
100
AcDbBlockBegin
  2
*Paper_Space0
 70
     0
 10
0.0
 20
0.0
 30
0.0
  3
*Paper_Space0
  1

  0
ENDBLK
  5
25
330
23
100
AcDbEntity
  8
0
100
AcDbBlockEnd
  0
BLOCK
  5
1D9
330
1D8
100
AcDbEntity
  8
0
100
AcDbBlockBegin
  2
_D
 70
     0
 10
0.0
 20
0.0
 30
0.0
  3
_D
  1

  0
SOLID
  5
1DB
330
1D8
100
AcDbEntity
  8
VERMASSUNG
100
AcDbTrace
 10
64.8318868816
 20
65.2500280245
 30
0.0
 11
65.2818868816
 21
68.2500280245
 31
0.0
 12
64.3818868816
 22
68.2500280245
 32
0.0
 13
64.3818868816
 23
68.2500280245
 33
0.0
  0
SOLID
  5
1DC
330
1D8
100
AcDbEntity
  8
VERMASSUNG
100
AcDbTrace
 10
64.8318868816
 20
162.7000280245
 30
0.0
 11
64.3818868816
 21
159.7000280245
 31
0.0
 12
65.2818868816
 22
159.7000280245
 32
0.0
 13
65.2818868816
 23
159.7000280245
 33
0.0
  0
LINE
  5
1DD
330
1D8
100
AcDbEntity
  8
VERMASSUNG
100
AcDbLine
 10
191.8268684669
 20
65.2500280245
 30
0.0
 11
63.8318868816
 21
65.2500280245
 31
0.0
  0
LINE
  5
1DE
330
1D8
100
AcDbEntity
  8
VERMASSUNG
100
AcDbLine
 10
191.8268684669
 20
162.7000280245
 30
0.0
 11
63.8318868816
 21
162.7000280245
 31
0.0
  0
LINE
  5
1DF
330
1D8
100
AcDbEntity
  8
VERMASSUNG
100
AcDbLine
 10
64.8318868816
 20
65.2500280245
 30
0.0
 11
64.8318868816
 21
162.7000280245
 31
0.0
  0
MTEXT
  5
1E0
330
1D8
100
AcDbEntity
  8
VERMASSUNG
100
AcDbMText
 10
62.0537516254
 20
104.4705923911
 30
0.0
 40
2.0
 41
0.0
 71
     1
 72
     1
  1
ISO 50
  7
SLDTEXTSTYLE0
 11
3.391901413832837E-15
 21
1.0
 31
0.0
 73
     1
 44
1.0
  0
MTEXT
  5
1E1
330
1D8
100
AcDbEntity
  8
VERMASSUNG
100
AcDbMText
 10
62.2537515767
 20
113.4705920037
 30
0.0
 40
2.0
 41
0.0
 71
     1
 72
     1
  1
%%c
  7
SLDTEXTSTYLE0
 11
3.391901413832837E-15
 21
1.0
 31
0.0
 73
     1
 44
1.0
  0
MTEXT
  5
1E2
330
1D8
100
AcDbEntity
  8
VERMASSUNG
100
AcDbMText
 10
62.2537512857
 20
117.0799353365
 30
0.0
 40
2.0
 41
0.0
 71
     1
 72
     1
  1
97.45
  7
SLDTEXTSTYLE0
 11
3.391901413832837E-15
 21
1.0
 31
0.0
 73
     1
 44
1.0
  0
ENDBLK
  5
1DA
330
1D8
100
AcDbEntity
  8
0
100
AcDbBlockEnd
  0
BLOCK
  5
1E5
330
1E4
100
AcDbEntity
  8
0
100
AcDbBlockBegin
  2
_D_1
 70
     0
 10
0.0
 20
0.0
 30
0.0
  3
_D_1
  1

  0
ARC
  5
1E7
330
1E4
100
AcDbEntity
  8
VERMASSUNG
100
AcDbCircle
 10
151.4383025554
 20
182.7505996855
 30
0.0
 40
4.247059938537297
100
AcDbArc
 50
153.4349488229
 51
206.5650511771
  0
ARC
  5
1E8
330
1E4
100
AcDbEntity
  8
VERMASSUNG
100
AcDbCircle
 10
152.8154343783
 20
182.7505996855
 30
0.0
 40
4.247059938537297
100
AcDbArc
 50
333.4349488229
 51
26.5650511771
  0
SOLID
  5
1E9
330
1E4
100
AcDbEntity
  8
VERMASSUNG
100
AcDbTrace
 10
71.7768684669
 20
180.8512567401
 30
0.0
 11
74.7768684669
 21
180.4012567401
 31
0.0
 12
74.7768684669
 22
181.3012567401
 32
0.0
 13
74.7768684669
 23
181.3012567401
 33
0.0
  0
SOLID
  5
1EA
330
1E4
100
AcDbEntity
  8
VERMASSUNG
100
AcDbTrace
 10
232.4768684669
 20
180.8512567401
 30
0.0
 11
229.4768684669
 21
181.3012567401
 31
0.0
 12
229.4768684669
 22
180.4012567401
 32
0.0
 13
229.4768684669
 23
180.4012567401
 33
0.0
  0
LINE
  5
1EB
330
1E4
100
AcDbEntity
  8
VERMASSUNG
100
AcDbLine
 10
71.7768684669
 20
132.3538725519
 30
0.0
 11
71.7768684669
 21
181.8512567401
 31
0.0
  0
LINE
  5
1EC
330
1E4
100
AcDbEntity
  8
VERMASSUNG
100
AcDbLine
 10
232.4768684669
 20
123.7750280245
 30
0.0
 11
232.4768684669
 21
181.8512567401
 31
0.0
  0
LINE
  5
1ED
330
1E4
100
AcDbEntity
  8
VERMASSUNG
100
AcDbLine
 10
71.7768684669
 20
180.8512567401
 30
0.0
 11
232.4768684669
 21
180.8512567401
 31
0.0
  0
MTEXT
  5
1EE
330
1E4
100
AcDbEntity
  8
VERMASSUNG
100
AcDbMText
 10
149.2271166646
 20
183.4293923361
 30
0.0
 40
2.0
 41
0.0
 71
     1
 72
     1
  1
160.7
  7
SLDTEXTSTYLE0
 73
     1
 44
1.0
  0
ENDBLK
  5
1E6
330
1E4
100
AcDbEntity
  8
0
100
AcDbBlockEnd
  0
BLOCK
  5
1F1
330
1F0
100
AcDbEntity
  8
0
100
AcDbBlockBegin
  2
_D_2
 70
     0
 10
0.0
 20
0.0
 30
0.0
  3
_D_2
  1

  0
SOLID
  5
1F3
330
1F0
100
AcDbEntity
  8
VERMASSUNG
100
AcDbTrace
 10
173.3768684669
 20
174.8512567401
 30
0.0
 11
176.3768684669
 21
174.4012567401
 31
0.0
 12
176.3768684669
 22
175.3012567401
 32
0.0
 13
176.3768684669
 23
175.3012567401
 33
0.0
  0
SOLID
  5
1F4
330
1F0
100
AcDbEntity
  8
VERMASSUNG
100
AcDbTrace
 10
232.4768684669
 20
174.8512567401
 30
0.0
 11
229.4768684669
 21
175.3012567401
 31
0.0
 12
229.4768684669
 22
174.4012567401
 32
0.0
 13
229.4768684669
 23
174.4012567401
 33
0.0
  0
LINE
  5
1F5
330
1F0
100
AcDbEntity
  8
VERMASSUNG
100
AcDbLine
 10
173.3768684669
 20
148.9000280245
 30
0.0
 11
173.3768684669
 21
175.8512567401
 31
0.0
  0
LINE
  5
1F6
330
1F0
100
AcDbEntity
  8
VERMASSUNG
100
AcDbLine
 10
232.4768684669
 20
123.7750280245
 30
0.0
 11
232.4768684669
 21
175.8512567401
 31
0.0
  0
LINE
  5
1F7
330
1F0
100
AcDbEntity
  8
VERMASSUNG
100
AcDbLine
 10
173.3768684669
 20
174.8512567401
 30
0.0
 11
232.4768684669
 21
174.8512567401
 31
0.0
  0
MTEXT
  5
1F8
330
1F0
100
AcDbEntity
  8
VERMASSUNG
100
AcDbMText
 10
200.727513163
 20
177.4293923361
 30
0.0
 40
2.0
 41
0.0
 71
     1
 72
     1
  1
59.1
  7
SLDTEXTSTYLE0
 73
     1
 44
1.0
  0
ENDBLK
  5
1F2
330
1F0
100
AcDbEntity
  8
0
100
AcDbBlockEnd
  0
BLOCK
  5
1FB
330
1FA
100
AcDbEntity
  8
0
100
AcDbBlockBegin
  2
_D_3
 70
     0
 10
0.0
 20
0.0
 30
0.0
  3
_D_3
  1

  0
SOLID
  5
1FD
330
1FA
100
AcDbEntity
  8
VERMASSUNG
100
AcDbTrace
 10
192.4268684669
 20
168.8512567401
 30
0.0
 11
195.4268684669
 21
168.4012567401
 31
0.0
 12
195.4268684669
 22
169.3012567401
 32
0.0
 13
195.4268684669
 23
169.3012567401
 33
0.0
  0
SOLID
  5
1FE
330
1FA
100
AcDbEntity
  8
VERMASSUNG
100
AcDbTrace
 10
232.4768684669
 20
168.8512567401
 30
0.0
 11
229.4768684669
 21
169.3012567401
 31
0.0
 12
229.4768684669
 22
168.4012567401
 32
0.0
 13
229.4768684669
 23
168.4012567401
 33
0.0
  0
LINE
  5
1FF
330
1FA
100
AcDbEntity
  8
VERMASSUNG
100
AcDbLine
 10
192.4268684669
 20
160.2700149777
 30
0.0
 11
192.4268684669
 21
169.8512567401
 31
0.0
  0
LINE
  5
200
330
1FA
100
AcDbEntity
  8
VERMASSUNG
100
AcDbLine
 10
232.4768684669
 20
123.7750280245
 30
0.0
 11
232.4768684669
 21
169.8512567401
 31
0.0
  0
LINE
  5
201
330
1FA
100
AcDbEntity
  8
VERMASSUNG
100
AcDbLine
 10
192.4268684669
 20
168.8512567401
 30
0.0
 11
232.4768684669
 21
168.8512567401
 31
0.0
  0
MTEXT
  5
202
330
1FA
100
AcDbEntity
  8
VERMASSUNG
100
AcDbMText
 10
209.2521043062
 20
171.4293923361
 30
0.0
 40
2.0
 41
0.0
 71
     1
 72
     1
  1
40.05
  7
SLDTEXTSTYLE0
 73
     1
 44
1.0
  0
ENDBLK
  5
1FC
330
1FA
100
AcDbEntity
  8
0
100
AcDbBlockEnd
  0
BLOCK
  5
205
330
204
100
AcDbEntity
  8
0
100
AcDbBlockBegin
  2
_D_4
 70
     0
 10
0.0
 20
0.0
 30
0.0
  3
_D_4
  1

  0
SOLID
  5
207
330
204
100
AcDbEntity
  8
VERMASSUNG
100
AcDbTrace
 10
239.8844563997
 20
123.9750280245
 30
0.0
 11
239.4344563997
 21
120.9750280245
 31
0.0
 12
240.3344563997
 22
120.9750280245
 32
0.0
 13
240.3344563997
 23
120.9750280245
 33
0.0
  0
SOLID
  5
208
330
204
100
AcDbEntity
  8
VERMASSUNG
100
AcDbTrace
 10
239.8844563997
 20
103.9750280245
 30
0.0
 11
240.3344563997
 21
106.9750280245
 31
0.0
 12
239.4344563997
 22
106.9750280245
 32
0.0
 13
239.4344563997
 23
106.9750280245
 33
0.0
  0
LINE
  5
209
330
204
100
AcDbEntity
  8
VERMASSUNG
100
AcDbLine
 10
232.2768684669
 20
123.9750280245
 30
0.0
 11
240.8844563997
 21
123.9750280245
 31
0.0
  0
LINE
  5
20A
330
204
100
AcDbEntity
  8
VERMASSUNG
100
AcDbLine
 10
232.2768684669
 20
103.9750280245
 30
0.0
 11
240.8844563997
 21
103.9750280245
 31
0.0
  0
LINE
  5
20B
330
204
100
AcDbEntity
  8
VERMASSUNG
100
AcDbLine
 10
239.8844563997
 20
123.9750280245
 30
0.0
 11
239.8844563997
 21
103.9750280245
 31
0.0
  0
MTEXT
  5
20C
330
204
100
AcDbEntity
  8
VERMASSUNG
100
AcDbMText
 10
237.1063211435
 20
107.5700283809
 30
0.0
 40
2.0
 41
0.0
 71
     1
 72
     1
  1
MBM
  7
SLDTEXTSTYLE0
 11
-7.044195017643634E-15
 21
1.0
 31
0.0
 73
     1
 44
1.0
  0
MTEXT
  5
20D
330
204
100
AcDbEntity
  8
VERMASSUNG
100
AcDbMText
 10
237.3063210948
 20
113.9700282192
 30
0.0
 40
2.0
 41
0.0
 71
     1
 72
     1
  1
%%c
  7
SLDTEXTSTYLE0
 11
-7.044195017643634E-15
 21
1.0
 31
0.0
 73
     1
 44
1.0
  0
MTEXT
  5
20E
330
204
100
AcDbEntity
  8
VERMASSUNG
100
AcDbMText
 10
237.1063211435
 20
117.5800286992
 30
0.0
 40
2.0
 41
0.0
 71
     1
 72
     1
  1
20
  7
SLDTEXTSTYLE0
 11
-7.044195017643634E-15
 21
1.0
 31
0.0
 73
     1
 44
1.0
  0
ENDBLK
  5
206
330
204
100
AcDbEntity
  8
0
100
AcDbBlockEnd
  0
ENDSEC
  0
SECTION
  2
ENTITIES
  0
MTEXT
  5
78
330
1F
100
AcDbEntity
  8
KOPF_DÜNN
100
AcDbMText
 10
13.8892156294
 20
23.8442973028
 30
0.0
 40
3.0
 41
0.0
 71
     1
 72
     1
  1
102.525.202
  7
SLDTEXTSTYLE0
 73
     1
 44
1.0
  0
MTEXT
  5
79
330
1F
100
AcDbEntity
  8
VERMASSUNG
100
AcDbMText
 10
13.9329988022
 20
28.8834360957
 30
0.0
 40
3.0
 41
0.0
 71
     1
 72
     1
  1
Aufnahme_Master shank MBM 20
  7
SLDTEXTSTYLE0
 73
     1
 44
1.0
  0
MTEXT
  5
7A
330
1F
100
AcDbEntity
  8
VERMASSUNG
100
AcDbMText
 10
98.8601118557
 20
13.8365368761
 30
0.0
 40
2.0
 41
0.0
 71
     1
 72
     1
  1
Datum: 01.11.2007
  7
SLDTEXTSTYLE0
 73
     1
 44
1.0
  0
MTEXT
  5
7B
330
1F
100
AcDbEntity
  8
VERMASSUNG
100
AcDbMText
 10
13.933048693
 20
18.0482802738
 30
0.0
 40
2.0
 41
0.0
 71
     1
 72
     1
  1
DIN 69871 B 50
  7
SLDTEXTSTYLE0
 73
     1
 44
1.0
  0
MTEXT
  5
7C
330
1F
100
AcDbEntity
  8
VERMASSUNG
100
AcDbMText
 10
13.9808475933
 20
13.9090974274
 30
0.0
 40
2.0
 41
0.0
 71
     1
 72
     1
  1
Gewicht: 2712g
  7
SLDTEXTSTYLE0
 73
     1
 44
1.0
  0
ARC
  5
7D
330
1F
100
AcDbEntity
  8
0
  6
Continuous
 62
     7
370
    15
100
AcDbCircle
 10
175.9768684669
 20
78.4500280245
 30
0.0
 40
0.6000000000000227
100
AcDbArc
 50
0.0
 51
90.0
  0
ARC
  5
7E
330
1F
100
AcDbEntity
  8
0
  6
Continuous
 62
     7
370
    15
100
AcDbCircle
 10
175.9768684669
 20
149.5000280245
 30
0.0
 40
0.5999999999999943
100
AcDbArc
 50
270.0
 51
0.0
  0
LINE
  5
7F
330
1F
100
AcDbEntity
  8
0
  6
Continuous
 62
     7
370
    15
100
AcDbLine
 10
173.3768684669
 20
79.050029145
 30
0.0
 11
175.9768684739
 21
79.050029145
 31
0.0
  0
LINE
  5
80
330
1F
100
AcDbEntity
  8
0
  6
Continuous
 62
     7
370
    15
100
AcDbLine
 10
175.9768684739
 20
148.9000269039
 30
0.0
 11
173.3768684669
 21
148.9000269039
 31
0.0
  0
LINE
  5
81
330
1F
100
AcDbEntity
  8
0
  6
Continuous
 62
     7
370
    15
100
AcDbLine
 10
173.3768684669
 20
148.9000269039
 30
0.0
 11
73.4882531567
 21
134.3329385681
 31
0.0
  0
LINE
  5
82
330
1F
100
AcDbEntity
  8
0
  6
Continuous
 62
     7
370
    15
100
AcDbLine
 10
73.4882531567
 20
93.6171174808
 30
0.0
 11
173.3768684669
 21
79.050029145
 31
0.0
  0
ARC
  5
83
330
1F
100
AcDbEntity
  8
0
  6
Continuous
 62
     7
370
    15
100
AcDbCircle
 10
73.7768684669
 20
95.5961834971
 30
0.0
 40
1.999999999999986
100
AcDbArc
 50
180.0
 51
261.7028550302
  0
ARC
  5
84
330
1F
100
AcDbEntity
  8
0
  6
Continuous
 62
     7
370
    15
100
AcDbCircle
 10
73.7768684669
 20
132.3538725519
 30
0.0
 40
2.00000000000002
100
AcDbArc
 50
98.2971449698
 51
180.0
  0
ARC
  5
85
330
1F
100
AcDbEntity
  8
0
  6
Continuous
 62
     7
370
    15
100
AcDbCircle
 10
196.4268684669
 20
99.9750280245
 30
0.0
 40
4.000000000000014
100
AcDbArc
 50
90.0
 51
180.0
  0
ARC
  5
86
330
1F
100
AcDbEntity
  8
0
  6
Continuous
 62
     7
370
    15
100
AcDbCircle
 10
196.4268684669
 20
127.9750280245
 30
0.0
 40
4.0
100
AcDbArc
 50
180.0
 51
270.0
  0
LINE
  5
87
330
1F
100
AcDbEntity
  8
0
  6
Continuous
 62
     7
370
    15
100
AcDbLine
 10
196.4268693579
 20
103.975028248
 30
0.0
 11
232.2768671317
 21
103.975028248
 31
0.0
  0
LINE
  5
88
330
1F
100
AcDbEntity
  8
0
  6
Continuous
 62
     7
370
    15
100
AcDbLine
 10
232.2768671317
 20
123.9750278009
 30
0.0
 11
196.4268693579
 21
123.9750278009
 31
0.0
  0
LINE
  5
89
330
1F
100
AcDbEntity
  8
0
  6
Continuous
 62
     7
370
    15
100
AcDbLine
 10
232.2768671317
 20
103.975028248
 30
0.0
 11
232.476866792
 21
104.1750279082
 31
0.0
  0
LINE
  5
8A
330
1F
100
AcDbEntity
  8
0
  6
Continuous
 62
     7
370
    15
100
AcDbLine
 10
232.476866792
 20
123.7750281407
 30
0.0
 11
232.2768671317
 21
123.9750278009
 31
0.0
  0
ARC
  5
8B
330
1F
100
AcDbEntity
  8
0
  6
Continuous
 62
     7
370
    15
100
AcDbCircle
 10
187.5768684669
 20
99.5092860625
 30
0.0
 40
2.000000000000013
100
AcDbArc
 50
192.2156859341
 51
340.3453161116
  0
LINE
  5
8C
330
1F
100
AcDbEntity
  8
0
  6
Continuous
 62
     7
370
    15
100
AcDbLine
 10
177.1768685309
 20
67.2457688315
 30
0.0
 11
181.2437074138
 21
67.2457688315
 31
0.0
  0
LINE
  5
8D
330
1F
100
AcDbEntity
  8
0
  6
Continuous
 62
     7
370
    15
100
AcDbLine
 10
181.2437074138
 20
143.82502854
 30
0.0
 11
177.1768685309
 21
143.82502854
 31
0.0
  0
LINE
  5
8E
330
1F
100
AcDbEntity
  8
0
  6
Continuous
 62
     7
370
    15
100
AcDbLine
 10
181.2437074138
 20
67.2457688315
 30
0.0
 11
181.2437074138
 21
143.82502854
 31
0.0
  0
SPLINE
  5
8F
330
1F
100
AcDbEntity
  8
0
  6
Continuous
 62
     7
370
    15
100
AcDbSpline
210
0.0
220
0.0
230
1.0
 70
     8
 71
     3
 72
     8
 73
     4
 74
     0
 42
0.000000001
 43
0.00000001
 40
0.0
 40
0.0
 40
0.0
 40
0.0
 40
1.0
 40
1.0
 40
1.0
 40
1.0
 10
182.5668684668527
 20
69.3552886156269
 30
0.0
 10
182.2771400208281
 20
68.83306860546335
 30
0.0
 10
181.9871148706103
 20
68.31101522320337
 30
0.0
 10
181.6968206363485
 20
67.78911295748026
 30
0.0
  0
SPLINE
  5
90
330
1F
100
AcDbEntity
  8
0
  6
Continuous
 62
     7
370
    15
100
AcDbSpline
210
0.0
220
0.0
230
1.0
 70
     8
 71
     3
 72
     8
 73
     4
 74
     0
 42
0.000000001
 43
0.00000001
 40
0.0
 40
0.0
 40
0.0
 40
0.0
 40
0.0011862984959112
 40
0.0011862984959112
 40
0.0011862984959112
 40
0.0011862984959112
 10
181.2437069593907
 20
67.24576868311067
 30
0.0
 10
181.3957317212616
 20
67.42668053272864
 30
0.0
 10
181.5467891664774
 20
67.60779286316948
 30
0.0
 10
181.6968206363485
 20
67.78911295748027
 30
0.0
  0
SPLINE
  5
91
330
1F
100
AcDbEntity
  8
0
  6
Continuous
 62
     7
370
    15
100
AcDbSpline
210
0.0
220
0.0
230
1.0
 70
    24
 71
     3
 72
     8
 73
     4
 74
     0
 42
0.000000001
 43
0.00000001
 40
0.0
 40
0.0
 40
0.0
 40
0.0
 40
1.0
 40
1.0
 40
1.0
 40
1.0
 10
182.5668684668527
 20
143.8250280244567
 30
0.0
 10
182.131668362149
 20
143.8250280244567
 30
0.0
 10
181.6903086794101
 20
143.8250280244567
 30
0.0
 10
181.2437069593907
 20
143.8250280244567
 30
0.0
  0
LINE
  5
92
330
1F
100
AcDbEntity
  8
0
  6
Continuous
 62
     7
370
    15
100
AcDbLine
 10
182.5668681292
 20
69.3552889688
 30
0.0
 11
182.5668681292
 21
143.82502854
 31
0.0
  0
SPLINE
  5
93
330
1F
100
AcDbEntity
  8
0
  6
Continuous
 62
     7
370
    15
100
AcDbSpline
210
0.0
220
0.0
230
1.0
 70
     8
 71
     3
 72
    10
 73
     6
 74
     0
 42
0.000000001
 43
0.00000001
 40
0.0
 40
0.0
 40
0.0
 40
0.0
 40
0.5
 40
0.5
 40
1.0
 40
1.0
 40
1.0
 40
1.0
 10
176.7925284980067
 20
67.34157375726443
 30
0.0
 10
176.8411790665863
 20
67.31361676599701
 30
0.0
 10
176.8985642785458
 20
67.2896744809702
 30
0.0
 10
177.0292773867118
 20
67.2555560178745
 30
0.0
 10
177.1020169204504
 20
67.24576868311067
 30
0.0
 10
177.1768684668526
 20
67.24576868311067
 30
0.0
  0
SPLINE
  5
94
330
1F
100
AcDbEntity
  8
0
  6
Continuous
 62
     7
370
    15
100
AcDbSpline
210
0.0
220
0.0
230
1.0
 70
     8
 71
     3
 72
    10
 73
     6
 74
     0
 42
0.000000001
 43
0.00000001
 40
0.0
 40
0.0
 40
0.0
 40
0.0
 40
0.5
 40
0.5
 40
1.0
 40
1.0
 40
1.0
 40
1.0
 10
176.7925284980067
 20
67.34157375726441
 30
0.0
 10
176.7343404914245
 20
67.40915748744325
 30
0.0
 10
176.6818980248982
 20
67.489633722085
 30
0.0
 10
176.6035457177195
 20
67.67266934506776
 30
0.0
 10
176.5768684668526
 20
67.77854504786337
 30
0.0
 10
176.5768684668526
 20
67.886058357084
 30
0.0
  0
LINE
  5
95
330
1F
100
AcDbEntity
  8
0
  6
Continuous
 62
     7
370
    15
100
AcDbLine
 10
176.576868386
 20
67.8860568269
 30
0.0
 11
176.576868386
 21
143.82502854
 31
0.0
  0
SPLINE
  5
96
330
1F
100
AcDbEntity
  8
0
  6
Continuous
 62
     7
370
    15
100
AcDbSpline
210
0.0
220
0.0
230
1.0
 70
    24
 71
     3
 72
    14
 73
    10
 74
     0
 42
0.000000001
 43
0.00000001
 40
0.0
 40
0.0
 40
0.0
 40
0.0
 40
0.25
 40
0.25
 40
0.5
 40
0.5
 40
0.75
 40
0.75
 40
1.0
 40
1.0
 40
1.0
 40
1.0
 10
177.1768684668527
 20
143.8250280244567
 30
0.0
 10
177.087846514509
 20
143.8250280244567
 30
0.0
 10
176.9981598152354
 20
143.8250280244567
 30
0.0
 10
176.8444329896782
 20
143.8250280244567
 30
0.0
 10
176.7792280950513
 20
143.8250280244567
 30
0.0
 10
176.6766374008809
 20
143.8250280244567
 30
0.0
 10
176.638999946565
 20
143.8250280244567
 30
0.0
 10
176.5889080311798
 20
143.8250280244567
 30
0.0
 10
176.5768684668526
 20
143.8250280244567
 30
0.0
 10
176.5768684668526
 20
143.8250280244567
 30
0.0
  0
LINE
  5
97
330
1F
100
AcDbEntity
  8
0
  6
Continuous
 62
     7
370
    15
100
AcDbLine
 10
186.3868683456
 20
100.1777662723
 30
0.0
 11
186.3868683456
 21
143.82502854
 31
0.0
  0
SPLINE
  5
98
330
1F
100
AcDbEntity
  8
0
  6
Continuous
 62
     7
370
    15
100
AcDbSpline
210
0.0
220
0.0
230
1.0
 70
    24
 71
     3
 72
     8
 73
     4
 74
     0
 42
0.000000001
 43
0.00000001
 40
0.0
 40
0.0
 40
0.0
 40
0.0
 40
1.0
 40
1.0
 40
1.0
 40
1.0
 10
187.7100299743146
 20
143.8250280244567
 30
0.0
 10
187.2634282542952
 20
143.8250280244567
 30
0.0
 10
186.8220685715563
 20
143.8250280244567
 30
0.0
 10
186.3868684668527
 20
143.8250280244567
 30
0.0
  0
LINE
  5
99
330
1F
100
AcDbEntity
  8
0
  6
Continuous
 62
     7
370
    15
100
AcDbLine
 10
187.7100299923
 20
99.677880743
 30
0.0
 11
187.7100299923
 21
143.82502854
 31
0.0
  0
SPLINE
  5
9A
330
1F
100
AcDbEntity
  8
0
  6
Continuous
 62
     7
370
    15
100
AcDbSpline
210
0.0
220
0.0
230
1.0
 70
     8
 71
     3
 72
    10
 73
     6
 74
     0
 42
0.000000001
 43
0.00000001
 40
0.0
 40
0.0
 40
0.0
 40
0.0
 40
0.5
 40
0.5
 40
1.0
 40
1.0
 40
1.0
 40
1.0
 10
187.7100299743146
 20
99.67788095932558
 30
0.0
 10
187.4873029474411
 20
99.82136945961933
 30
0.0
 10
187.265617060216
 20
99.93609020535223
 30
0.0
 10
186.824396222364
 20
100.1058506347101
 30
0.0
 10
186.6048375749652
 20
100.1612706290975
 30
0.0
 10
186.3868684668529
 20
100.1777659584671
 30
0.0
  0
LINE
  5
9B
330
1F
100
AcDbEntity
  8
0
  6
Continuous
 62
     7
370
    15
100
AcDbLine
 10
191.8268678589
 20
143.82502854
 30
0.0
 11
187.7100299923
 21
143.82502854
 31
0.0
  0
LINE
  5
9C
330
1F
100
AcDbEntity
  8
0
  6
Continuous
 62
     7
370
    15
100
AcDbLine
 10
187.7100299923
 20
67.2457688315
 30
0.0
 11
191.8268678589
 21
67.2457688315
 31
0.0
  0
LINE
  5
9D
330
1F
100
AcDbEntity
  8
0
  6
Continuous
 62
     7
370
    15
100
AcDbLine
 10
187.7100299923
 20
67.2457688315
 30
0.0
 11
187.7100299923
 21
94.9860871597
 31
0.0
  0
SPLINE
  5
9E
330
1F
100
AcDbEntity
  8
0
  6
Continuous
 62
     7
370
    15
100
AcDbSpline
210
0.0
220
0.0
230
1.0
 70
     8
 71
     3
 72
    34
 73
    30
 74
     0
 42
0.000000001
 43
0.00000001
 40
0.0
 40
0.0
 40
0.0
 40
0.0
 40
0.0624999999999986
 40
0.0624999999999986
 40
0.1249999999999972
 40
0.1249999999999972
 40
0.1874999999999958
 40
0.1874999999999958
 40
0.2499999999999949
 40
0.2499999999999949
 40
0.312499999999994
 40
0.312499999999994
 40
0.3749999999999932
 40
0.3749999999999932
 40
0.4999999999999923
 40
0.4999999999999923
 40
0.6249999999999928
 40
0.6249999999999928
 40
0.6874999999999938
 40
0.6874999999999938
 40
0.7499999999999947
 40
0.7499999999999947
 40
0.8124999999999956
 40
0.8124999999999956
 40
0.874999999999997
 40
0.874999999999997
 40
0.9374999999999986
 40
0.9374999999999986
 40
1.0
 40
1.0
 40
1.0
 40
1.0
 10
187.7100299743146
 20
94.9860876364555
 30
0.0
 10
187.8694218021024
 20
94.99392773237828
 30
0.0
 10
188.025424285546
 20
95.0155863804687
 30
0.0
 10
188.3309338016232
 20
95.08543460796152
 30
0.0
 10
188.4818281366354
 20
95.13426031028975
 30
0.0
 10
188.7697274813262
 20
95.25718426369707
 30
0.0
 10
188.905673884286
 20
95.33049177183139
 30
0.0
 10
189.161856499878
 20
95.50050239560274
 30
0.0
 10
189.2830387876371
 20
95.5983761878042
 30
0.0
 10
189.5001848595099
 20
95.81096036323616
 30
0.0
 10
189.5971467324702
 20
95.92600630176575
 30
0.0
 10
189.7677091682957
 20
96.17386742188589
 30
0.0
 10
189.8409492215077
 20
96.30690091895148
 30
0.0
 10
190.0158296782565
 20
96.71640893508163
 30
0.0
 10
190.0768676392325
 20
97.0143695848567
 30
0.0
 10
190.0768692944555
 20
97.60581114073113
 30
0.0
 10
190.0158346848693
 20
97.90598469070773
 30
0.0
 10
189.8409449174673
 20
98.3212159709755
 30
0.0
 10
189.7677012120429
 20
98.45657108922234
 30
0.0
 10
189.5971404963063
 20
98.70947042060895
 30
0.0
 10
189.5001767807128
 20
98.82723569821673
 30
0.0
 10
189.2830164521257
 20
99.04536599358538
 30
0.0
 10
189.1618351934388
 20
99.14606931873232
 30
0.0
 10
188.9056649665001
 20
99.32131301156556
 30
0.0
 10
188.7697216168374
 20
99.39705798065616
 30
0.0
 10
188.4818189136542
 20
99.52422635595843
 30
0.0
 10
188.3309287177375
 20
99.5748276282859
 30
0.0
 10
188.0254232140319
 20
99.64725672803375
 30
0.0
 10
187.8694218157684
 20
99.66974249943073
 30
0.0
 10
187.7100299743146
 20
99.67788095932558
 30
0.0
  0
SPLINE
  5
9F
330
1F
100
AcDbEntity
  8
0
  6
Continuous
 62
     7
370
    15
100
AcDbSpline
210
0.0
220
0.0
230
1.0
 70
     8
 71
     3
 72
    12
 73
     8
 74
     0
 42
0.000000001
 43
0.00000001
 40
0.0
 40
0.0
 40
0.0
 40
0.0
 40
0.2499999999999972
 40
0.2499999999999972
 40
0.4999999999999944
 40
0.4999999999999944
 40
1.0
 40
1.0
 40
1.0
 40
1.0
 10
191.8268684668527
 20
67.24576868311067
 30
0.0
 10
191.9228412200275
 20
67.24576868311067
 30
0.0
 10
192.015269184182
 20
67.26204200721925
 30
0.0
 10
192.1716992842914
 20
67.31541572921566
 30
0.0
 10
192.2351777090643
 20
67.35154398675
 30
0.0
 10
192.3834568698914
 20
67.47224518302929
 30
0.0
 10
192.4268684668527
 20
67.56609476939445
 30
0.0
 10
192.4268684668527
 20
67.66039904434166
 30
0.0
  0
SPLINE
  5
A0
330
1F
100
AcDbEntity
  8
0
  6
Continuous
 62
     7
370
    15
100
AcDbSpline
210
0.0
220
0.0
230
1.0
 70
    24
 71
     3
 72
    12
 73
     8
 74
     0
 42
0.000000001
 43
0.00000001
 40
0.0
 40
0.0
 40
0.0
 40
0.0
 40
0.4999999999999972
 40
0.4999999999999972
 40
0.7499999999999986
 40
0.7499999999999986
 40
1.0
 40
1.0
 40
1.0
 40
1.0
 10
192.4268684668527
 20
143.8250280244567
 30
0.0
 10
192.4268684668527
 20
143.8250280244567
 30
0.0
 10
192.3787377784673
 20
143.8250280244567
 30
0.0
 10
192.2248407226643
 20
143.8250280244567
 30
0.0
 10
192.1593761576574
 20
143.8250280244567
 30
0.0
 10
192.0058468370473
 20
143.8250280244567
 30
0.0
 10
191.9174981763115
 20
143.8250280244567
 30
0.0
 10
191.8268684668525
 20
143.8250280244567
 30
0.0
  0
LINE
  5
A1
330
1F
100
AcDbEntity
  8
0
  6
Continuous
 62
     7
370
    15
100
AcDbLine
 10
192.4268687023
 20
67.660397367
 30
0.0
 11
192.4268687023
 21
143.82502854
 31
0.0
  0
SPLINE
  5
A2
330
1F
100
AcDbEntity
  8
0
  6
Continuous
 62
     7
370
    15
100
AcDbSpline
210
0.0
220
0.0
230
1.0
 70
     8
 71
     3
 72
    14
 73
    10
 74
     0
 42
0.000000001
 43
0.00000001
 40
0.0
 40
0.0
 40
0.0
 40
0.0
 40
0.25
 40
0.25
 40
0.5
 40
0.5
 40
0.75
 40
0.75
 40
1.0
 40
1.0
 40
1.0
 40
1.0
 10
186.3868684668527
 20
100.2233801804796
 30
0.0
 10
186.3868684668527
 20
100.2653565623332
 30
0.0
 10
186.3572255128815
 20
100.2932069499741
 30
0.0
 10
186.2505706791514
 20
100.3067058252641
 30
0.0
 10
186.1742922845472
 20
100.2920903232264
 30
0.0
 10
186.0062407414807
 20
100.2200011190582
 30
0.0
 10
185.9151209348724
 20
100.1628635085755
 30
0.0
 10
185.7424438226197
 20
100.0206358079842
 30
0.0
 10
185.6615213830917
 20
99.93707198247213
 30
0.0
 10
185.5868684668526
 20
99.84370231057623
 30
0.0
  0
SPLINE
  5
A3
330
1F
100
AcDbEntity
  8
0
  6
Continuous
 62
     7
370
    15
100
AcDbSpline
210
0.0
220
0.0
230
1.0
 70
     8
 71
     3
 72
    10
 73
     6
 74
     0
 42
0.000000001
 43
0.00000001
 40
0.0
 40
0.0
 40
0.0
 40
0.0
 40
0.5
 40
0.5
 40
1.0
 40
1.0
 40
1.0
 40
1.0
 10
186.3868684668529
 20
96.04572475983558
 30
0.0
 10
186.6037592993737
 20
95.80868582038704
 30
0.0
 10
186.8229119360326
 20
95.60651558539354
 30
0.0
 10
187.2643964363014
 20
95.25576351387485
 30
0.0
 10
187.4875989015748
 20
95.107087421478
 30
0.0
 10
187.7100299743146
 20
94.9860876364555
 30
0.0
  0
LINE
  5
A4
330
1F
100
AcDbEntity
  8
0
  6
Continuous
 62
     7
370
    15
100
AcDbLine
 10
186.3868683456
 20
96.091339813
 30
0.0
 11
186.3868683456
 21
96.045725496
 31
0.0
  0
SPLINE
  5
A5
330
1F
100
AcDbEntity
  8
0
  6
Continuous
 62
     7
370
    15
100
AcDbSpline
210
0.0
220
0.0
230
1.0
 70
     8
 71
     3
 72
    16
 73
    12
 74
     0
 42
0.000000001
 43
0.00000001
 40
0.0
 40
0.0
 40
0.0
 40
0.0
 40
0.2500000000000014
 40
0.2500000000000014
 40
0.5000000000000028
 40
0.5000000000000028
 40
0.6250000000000047
 40
0.6250000000000047
 40
0.7500000000000067
 40
0.7500000000000067
 40
1.0
 40
1.0
 40
1.0
 40
1.0
 10
185.5868684668526
 20
96.99973846752258
 30
0.0
 10
185.6608763570748
 20
96.90939088733694
 30
0.0
 10
185.7414943520638
 20
96.82143131453726
 30
0.0
 10
185.9152623375681
 20
96.64509639047569
 30
0.0
 10
186.0060134685095
 20
96.55948914980969
 30
0.0
 10
186.132126565971
 20
96.4382934537847
 30
0.0
 10
186.1717033268343
 20
96.39976187479384
 30
0.0
 10
186.2441859835354
 20
96.3253658886645
 30
0.0
 10
186.2771139740043
 20
96.28934910074302
 30
0.0
 10
186.3569041439992
 20
96.19059642492603
 30
0.0
 10
186.3868684668527
 20
96.13383242314394
 30
0.0
 10
186.3868684668527
 20
96.09133898184838
 30
0.0
  0
SPLINE
  5
A6
330
1F
100
AcDbEntity
  8
0
  6
Continuous
 62
     7
370
    15
100
AcDbSpline
210
0.0
220
0.0
230
1.0
 70
     8
 71
     3
 72
    16
 73
    12
 74
     0
 42
0.000000001
 43
0.00000001
 40
0.0
 40
0.0
 40
0.0
 40
0.0
 40
0.2499999999999987
 40
0.2499999999999987
 40
0.4999999999999973
 40
0.4999999999999973
 40
0.7499999999999976
 40
0.7499999999999976
 40
0.8749999999999988
 40
0.8749999999999988
 40
1.0
 40
1.0
 40
1.0
 40
1.0
 10
185.5868684668526
 20
99.84370231057623
 30
0.0
 10
185.4214543603725
 20
99.63681607455088
 30
0.0
 10
185.2952570293969
 20
99.41094737674212
 30
0.0
 10
185.120850731066
 20
98.92207813112924
 30
0.0
 10
185.0770206919692
 20
98.67031107778465
 30
0.0
 10
185.0767170189992
 20
98.15853175320231
 30
0.0
 10
185.1205738790594
 20
97.9074770441196
 30
0.0
 10
185.2504956383267
 20
97.54662847597749
 30
0.0
 10
185.3046104497346
 20
97.42935570762894
 30
0.0
 10
185.4312874398781
 20
97.2068667562901
 30
0.0
 10
185.5041611602389
 20
97.10070614804684
 30
0.0
 10
185.5868684668526
 20
96.99973846752258
 30
0.0
  0
SPLINE
  5
A7
330
1F
100
AcDbEntity
  8
0
  6
Continuous
 62
     7
370
    15
100
AcDbSpline
210
0.0
220
0.0
230
1.0
 70
    24
 71
     3
 72
    14
 73
    10
 74
     0
 42
0.000000001
 43
0.00000001
 40
0.0
 40
0.0
 40
0.0
 40
0.0
 40
0.25
 40
0.25
 40
0.5
 40
0.5
 40
0.75
 40
0.75
 40
1.0
 40
1.0
 40
1.0
 40
1.0
 10
186.3868684668527
 20
143.8250280244567
 30
0.0
 10
186.3868684668527
 20
143.8250280244567
 30
0.0
 10
186.3705874320769
 20
143.8250280244567
 30
0.0
 10
186.3059243695522
 20
143.8250280244567
 30
0.0
 10
186.2564445732635
 20
143.8250280244567
 30
0.0
 10
186.1224748161248
 20
143.8250280244567
 30
0.0
 10
186.0363600895253
 20
143.8250280244567
 30
0.0
 10
185.8309039738124
 20
143.8250280244567
 30
0.0
 10
185.7094834366195
 20
143.8250280244567
 30
0.0
 10
185.5868684668526
 20
143.8250280244567
 30
0.0
  0
SPLINE
  5
A8
330
1F
100
AcDbEntity
  8
0
  6
Continuous
 62
     7
370
    15
100
AcDbSpline
210
0.0
220
0.0
230
1.0
 70
     8
 71
     3
 72
    14
 73
    10
 74
     0
 42
0.000000001
 43
0.00000001
 40
0.0
 40
0.0
 40
0.0
 40
0.0
 40
0.25
 40
0.25
 40
0.5
 40
0.5
 40
0.75
 40
0.75
 40
1.0
 40
1.0
 40
1.0
 40
1.0
 10
183.3668684668526
 20
70.32726175858689
 30
0.0
 10
183.2604234589434
 20
70.32726175858689
 30
0.0
 10
183.1535247076699
 20
70.30469220915379
 30
0.0
 10
182.9573064522274
 20
70.21824911791185
 30
0.0
 10
182.8676481387629
 20
70.15394520024472
 30
0.0
 10
182.7221944258819
 20
69.99897568620176
 30
0.0
 10
182.6641586431557
 20
69.90621019995802
 30
0.0
 10
182.5868734887711
 20
69.70774331831464
 30
0.0
 10
182.5668684668526
 20
69.60071889652086
 30
0.0
 10
182.5668684668526
 20
69.49393653605004
 30
0.0
  0
SPLINE
  5
A9
330
1F
100
AcDbEntity
  8
0
  6
Continuous
 62
     7
370
    15
100
AcDbSpline
210
0.0
220
0.0
230
1.0
 70
    24
 71
     3
 72
    14
 73
    10
 74
     0
 42
0.000000001
 43
0.00000001
 40
0.0
 40
0.0
 40
0.0
 40
0.0
 40
0.25
 40
0.25
 40
0.5
 40
0.5
 40
0.75
 40
0.75
 40
1.0
 40
1.0
 40
1.0
 40
1.0
 10
183.3668684668526
 20
143.8250280244567
 30
0.0
 10
183.2438871673064
 20
143.8250280244567
 30
0.0
 10
183.1236972789043
 20
143.8250280244567
 30
0.0
 10
182.9186734492251
 20
143.8250280244567
 30
0.0
 10
182.832078960423
 20
143.8250280244567
 30
0.0
 10
182.6969710736606
 20
143.8250280244567
 30
0.0
 10
182.6484479886325
 20
143.8250280244567
 30
0.0
 10
182.5827654799057
 20
143.8250280244567
 30
0.0
 10
182.5668684668527
 20
143.8250280244567
 30
0.0
 10
182.5668684668526
 20
143.8250280244567
 30
0.0
  0
LINE
  5
AA
330
1F
100
AcDbEntity
  8
0
  6
Continuous
 62
     7
370
    15
100
AcDbLine
 10
185.5868687732
 20
70.3272619112
 30
0.0
 11
183.3668686329
 21
70.3272619112
 31
0.0
  0
LINE
  5
AB
330
1F
100
AcDbEntity
  8
0
  6
Continuous
 62
     7
370
    15
100
AcDbLine
 10
185.5868687732
 20
143.82502854
 30
0.0
 11
183.3668686329
 21
143.82502854
 31
0.0
  0
SPLINE
  5
AC
330
1F
100
AcDbEntity
  8
0
  6
Continuous
 62
     7
370
    15
100
AcDbSpline
210
0.0
220
0.0
230
1.0
 70
     8
 71
     3
 72
     8
 73
     4
 74
     0
 42
0.000000001
 43
0.00000001
 40
0.0000000000000004
 40
0.0000000000000004
 40
0.0000000000000004
 40
0.0000000000000004
 40
0.0011862984959127
 40
0.0011862984959127
 40
0.0011862984959127
 40
0.0011862984959127
 10
187.2569162973528
 20
67.78911295748027
 30
0.0
 10
187.4069477672241
 20
67.60779286316924
 30
0.0
 10
187.5580052124435
 20
67.42668053272888
 30
0.0
 10
187.7100299743146
 20
67.24576868311067
 30
0.0
  0
SPLINE
  5
AD
330
1F
100
AcDbEntity
  8
0
  6
Continuous
 62
     7
370
    15
100
AcDbSpline
210
0.0
220
0.0
230
1.0
 70
     8
 71
     3
 72
     8
 73
     4
 74
     0
 42
0.000000001
 43
0.00000001
 40
0.0
 40
0.0
 40
0.0
 40
0.0
 40
1.0
 40
1.0
 40
1.0
 40
1.0
 10
187.2569162973558
 20
67.78911295748193
 30
0.0
 10
186.9666220630943
 20
68.31101522320449
 30
0.0
 10
186.6765969128769
 20
68.83306860546392
 30
0.0
 10
186.3868684668527
 20
69.3552886156269
 30
0.0
  0
LINE
  5
AE
330
1F
100
AcDbEntity
  8
0
  6
Continuous
 62
     7
370
    15
100
AcDbLine
 10
186.3868683456
 20
69.3552889688
 30
0.0
 11
186.3868683456
 21
96.045725496
 31
0.0
  0
SPLINE
  5
AF
330
1F
100
AcDbEntity
  8
0
  6
Continuous
 62
     7
370
    15
100
AcDbSpline
210
0.0
220
0.0
230
1.0
 70
     8
 71
     3
 72
    14
 73
    10
 74
     0
 42
0.000000001
 43
0.00000001
 40
0.0
 40
0.0
 40
0.0
 40
0.0
 40
0.25
 40
0.25
 40
0.5
 40
0.5
 40
0.75
 40
0.75
 40
1.0
 40
1.0
 40
1.0
 40
1.0
 10
186.3868684668527
 20
69.49393653605004
 30
0.0
 10
186.3868684668527
 20
69.60100052239085
 30
0.0
 10
186.3668846406127
 20
69.70773984876537
 30
0.0
 10
186.2894495581792
 20
69.90648975095615
 30
0.0
 10
186.2315106360197
 20
69.99904396744869
 30
0.0
 10
186.0858728302589
 20
70.15414091085425
 30
0.0
 10
185.9970838339236
 20
70.21788106776714
 30
0.0
 10
185.8005354737191
 20
70.30462962485473
 30
0.0
 10
185.6943962440197
 20
70.32726175858689
 30
0.0
 10
185.5868684668526
 20
70.32726175858689
 30
0.0
  0
LINE
  5
B0
330
1F
100
AcDbEntity
  8
0
  6
Continuous
 62
     7
370
    15
100
AcDbLine
 10
173.3768684669
 20
79.050029145
 30
0.0
 11
173.3768684669
 21
148.9000269039
 31
0.0
  0
SPLINE
  5
B1
330
1F
100
AcDbEntity
  8
0
  6
Continuous
 62
     7
370
    15
100
AcDbSpline
210
0.0
220
0.0
230
1.0
 70
     8
 71
     3
 72
     8
 73
     4
 74
     0
 42
0.000000001
 43
0.00000001
 40
0.0
 40
0.0
 40
0.0
 40
0.0
 40
0.0012352705496723
 40
0.0012352705496723
 40
0.0012352705496723
 40
0.0012352705496723
 10
181.8001974446853
 20
159.9750612691258
 30
0.0
 10
181.6151621938833
 20
160.235162844854
 30
0.0
 10
181.4296553847126
 20
160.4950969234809
 30
0.0
 10
181.2437069593907
 20
160.7548726792322
 30
0.0
  0
SPLINE
  5
B2
330
1F
100
AcDbEntity
  8
0
  6
Continuous
 62
     7
370
    15
100
AcDbSpline
210
0.0
220
0.0
230
1.0
 70
     8
 71
     3
 72
     8
 73
     4
 74
     0
 42
0.000000001
 43
0.00000001
 40
0.0
 40
0.0
 40
0.0
 40
0.0
 40
1.0
 40
1.0
 40
1.0
 40
1.0
 10
182.5668684668527
 20
158.5947674332864
 30
0.0
 10
182.3115371535473
 20
159.054988453552
 30
0.0
 10
182.055973755441
 20
159.5150829138604
 30
0.0
 10
181.8001974446853
 20
159.9750612691258
 30
0.0
  0
LINE
  5
B3
330
1F
100
AcDbEntity
  8
0
  6
Continuous
 62
     7
370
    15
100
AcDbLine
 10
182.5668681292
 20
149.5421626432
 30
0.0
 11
182.5668681292
 21
158.5947670801
 31
0.0
  0
SPLINE
  5
B4
330
1F
100
AcDbEntity
  8
0
  6
Continuous
 62
     7
370
    15
100
AcDbSpline
210
0.0
220
0.0
230
1.0
 70
     8
 71
     3
 72
     8
 73
     4
 74
     0
 42
0.000000001
 43
0.00000001
 40
0.0
 40
0.0
 40
0.0
 40
0.0
 40
1.0
 40
1.0
 40
1.0
 40
1.0
 10
181.2437069593907
 20
152.4861059761318
 30
0.0
 10
181.6905556873184
 20
151.5068700778756
 30
0.0
 10
182.1319220452143
 20
150.5256680851487
 30
0.0
 10
182.5668684668527
 20
149.5421637667663
 30
0.0
  0
LINE
  5
B5
330
1F
100
AcDbEntity
  8
0
  6
Continuous
 62
     7
370
    15
100
AcDbLine
 10
181.2437074138
 20
152.4861068292
 30
0.0
 11
181.2437074138
 21
160.7548729344
 31
0.0
  0
SPLINE
  5
B6
330
1F
100
AcDbEntity
  8
0
  6
Continuous
 62
     7
370
    15
100
AcDbSpline
210
0.0
220
0.0
230
1.0
 70
     8
 71
     3
 72
    10
 73
     6
 74
     0
 42
0.000000001
 43
0.00000001
 40
0.0
 40
0.0
 40
0.0
 40
0.0
 40
0.5
 40
0.5
 40
1.0
 40
1.0
 40
1.0
 40
1.0
 10
176.866737385799
 20
160.6851923501794
 30
0.0
 10
176.7902842958802
 20
160.6149295789589
 30
0.0
 10
176.7214225736111
 20
160.5278346639171
 30
0.0
 10
176.6149103425381
 20
160.3186655356648
 30
0.0
 10
176.5768684668526
 20
160.1933479864253
 30
0.0
 10
176.5768684668526
 20
160.0639976918294
 30
0.0
  0
SPLINE
  5
B7
330
1F
100
AcDbEntity
  8
0
  6
Continuous
 62
     7
370
    15
100
AcDbSpline
210
0.0
220
0.0
230
1.0
 70
     8
 71
     3
 72
     8
 73
     4
 74
     0
 42
0.000000001
 43
0.00000001
 40
0.0
 40
0.0
 40
0.0
 40
0.0
 40
1.0
 40
1.0
 40
1.0
 40
1.0
 10
177.1768684668527
 20
160.7548726792322
 30
0.0
 10
177.0657902815152
 20
160.7548726792322
 30
0.0
 10
176.9581262776129
 20
160.7297235036776
 30
0.0
 10
176.866737385799
 20
160.6851923501794
 30
0.0
  0
SPLINE
  5
B8
330
1F
100
AcDbEntity
  8
0
  6
Continuous
 62
     7
370
    15
100
AcDbSpline
210
0.0
220
0.0
230
1.0
 70
     8
 71
     3
 72
    12
 73
     8
 74
     0
 42
0.000000001
 43
0.00000001
 40
0.0
 40
0.0
 40
0.0
 40
0.0
 40
0.5000000000000003
 40
0.5000000000000003
 40
0.7500000000000001
 40
0.7500000000000001
 40
1.0
 40
1.0
 40
1.0
 40
1.0
 10
176.5768684668526
 20
151.724109139101
 30
0.0
 10
176.5768684668526
 20
151.9024694063403
 30
0.0
 10
176.6241805882286
 20
152.0812418180443
 30
0.0
 10
176.77854066611
 20
152.303003683396
 30
0.0
 10
176.843426201029
 20
152.3672957220125
 30
0.0
 10
176.9986589002573
 20
152.4599402061721
 30
0.0
 10
177.0877343129255
 20
152.4861059761319
 30
0.0
 10
177.1768684668527
 20
152.4861059761319
 30
0.0
  0
LINE
  5
B9
330
1F
100
AcDbEntity
  8
0
  6
Continuous
 62
     7
370
    15
100
AcDbLine
 10
176.576868386
 20
151.7241098745
 30
0.0
 11
176.576868386
 21
160.0639992221
 31
0.0
  0
SPLINE
  5
BA
330
1F
100
AcDbEntity
  8
0
  6
Continuous
 62
     7
370
    15
100
AcDbSpline
210
0.0
220
0.0
230
1.0
 70
     8
 71
     3
 72
    12
 73
     8
 74
     0
 42
0.000000001
 43
0.00000001
 40
0.0
 40
0.0
 40
0.0
 40
0.0
 40
0.4999999999999927
 40
0.4999999999999927
 40
0.7499999999999963
 40
0.7499999999999963
 40
1.0
 40
1.0
 40
1.0
 40
1.0
 10
192.4268684668527
 20
160.2700149776871
 30
0.0
 10
192.4268684668527
 20
160.3902075843523
 30
0.0
 10
192.3729000365836
 20
160.5081148848673
 30
0.0
 10
192.2118133956507
 20
160.6474944293507
 30
0.0
 10
192.1470509761776
 20
160.6856597269146
 30
0.0
 10
191.9949969746131
 20
160.740311989248
 30
0.0
 10
191.9122672014639
 20
160.7548726792322
 30
0.0
 10
191.8268684668527
 20
160.7548726792322
 30
0.0
  0
SPLINE
  5
BB
330
1F
100
AcDbEntity
  8
0
  6
Continuous
 62
     7
370
    15
100
AcDbSpline
210
0.0
220
0.0
230
1.0
 70
     8
 71
     3
 72
    12
 73
     8
 74
     0
 42
0.000000001
 43
0.00000001
 40
0.0
 40
0.0
 40
0.0
 40
0.0
 40
0.250000000000004
 40
0.250000000000004
 40
0.500000000000008
 40
0.500000000000008
 40
1.0
 40
1.0
 40
1.0
 40
1.0
 10
191.8268684668531
 20
152.4861059761319
 30
0.0
 10
191.9164055250242
 20
152.4861059761318
 30
0.0
 10
192.0063047038128
 20
152.4592786773008
 30
0.0
 10
192.1597295628121
 20
152.3675717120412
 30
0.0
 10
192.2247786201899
 20
152.3033167704424
 30
0.0
 10
192.3780978514542
 20
152.0839046243809
 30
0.0
 10
192.4268684668527
 20
151.9020893145839
 30
0.0
 10
192.4268684668527
 20
151.724109139101
 30
0.0
  0
LINE
  5
BC
330
1F
100
AcDbEntity
  8
0
  6
Continuous
 62
     7
370
    15
100
AcDbLine
 10
192.4268687023
 20
151.7241098745
 30
0.0
 11
192.4268687023
 21
160.2700152261
 31
0.0
  0
LINE
  5
BD
330
1F
100
AcDbEntity
  8
0
  6
Continuous
 62
     7
370
    15
100
AcDbLine
 10
181.2437074138
 20
160.7548729344
 30
0.0
 11
177.1768685309
 21
160.7548729344
 31
0.0
  0
LINE
  5
BE
330
1F
100
AcDbEntity
  8
0
  6
Continuous
 62
     7
370
    15
100
AcDbLine
 10
177.1768685309
 20
152.4861068292
 30
0.0
 11
181.2437074138
 21
152.4861068292
 31
0.0
  0
SPLINE
  5
BF
330
1F
100
AcDbEntity
  8
0
  6
Continuous
 62
     7
370
    15
100
AcDbSpline
210
0.0
220
0.0
230
1.0
 70
     8
 71
     3
 72
     8
 73
     4
 74
     0
 42
0.000000001
 43
0.00000001
 40
0.0
 40
0.0
 40
0.0
 40
0.0
 40
1.0
 40
1.0
 40
1.0
 40
1.0
 10
187.1535394890191
 20
159.9750612691241
 30
0.0
 10
186.8977631782637
 20
159.5150829138593
 30
0.0
 10
186.6421997801577
 20
159.0549884535515
 30
0.0
 10
186.3868684668527
 20
158.5947674332864
 30
0.0
  0
SPLINE
  5
C0
330
1F
100
AcDbEntity
  8
0
  6
Continuous
 62
     7
370
    15
100
AcDbSpline
210
0.0
220
0.0
230
1.0
 70
     8
 71
     3
 72
     8
 73
     4
 74
     0
 42
0.000000001
 43
0.00000001
 40
0.0
 40
0.0
 40
0.0
 40
0.0
 40
0.0012352705496738
 40
0.0012352705496738
 40
0.0012352705496738
 40
0.0012352705496738
 10
187.7100299743146
 20
160.7548726792322
 30
0.0
 10
187.5240815489925
 20
160.4950969234806
 30
0.0
 10
187.3385747398214
 20
160.2351628448532
 30
0.0
 10
187.1535394890192
 20
159.9750612691246
 30
0.0
  0
LINE
  5
C1
330
1F
100
AcDbEntity
  8
0
  6
Continuous
 62
     7
370
    15
100
AcDbLine
 10
187.7100299923
 20
152.4861068292
 30
0.0
 11
187.7100299923
 21
160.7548729344
 31
0.0
  0
SPLINE
  5
C2
330
1F
100
AcDbEntity
  8
0
  6
Continuous
 62
     7
370
    15
100
AcDbSpline
210
0.0
220
0.0
230
1.0
 70
     8
 71
     3
 72
     8
 73
     4
 74
     0
 42
0.000000001
 43
0.00000001
 40
0.0
 40
0.0
 40
0.0
 40
0.0
 40
1.0
 40
1.0
 40
1.0
 40
1.0
 10
186.3868684668527
 20
149.5421637667663
 30
0.0
 10
186.821814888491
 20
150.5256680851487
 30
0.0
 10
187.2631812463869
 20
151.5068700778756
 30
0.0
 10
187.7100299743146
 20
152.4861059761318
 30
0.0
  0
LINE
  5
C3
330
1F
100
AcDbEntity
  8
0
  6
Continuous
 62
     7
370
    15
100
AcDbLine
 10
186.3868683456
 20
149.5421626432
 30
0.0
 11
186.3868683456
 21
158.5947670801
 31
0.0
  0
LINE
  5
C4
330
1F
100
AcDbEntity
  8
0
  6
Continuous
 62
     7
370
    15
100
AcDbLine
 10
191.8268678589
 20
160.7548729344
 30
0.0
 11
187.7100299923
 21
160.7548729344
 31
0.0
  0
LINE
  5
C5
330
1F
100
AcDbEntity
  8
0
  6
Continuous
 62
     7
370
    15
100
AcDbLine
 10
187.7100299923
 20
152.4861068292
 30
0.0
 11
191.8268678589
 21
152.4861068292
 31
0.0
  0
SPLINE
  5
C6
330
1F
100
AcDbEntity
  8
0
  6
Continuous
 62
     7
370
    15
100
AcDbSpline
210
0.0
220
0.0
230
1.0
 70
     8
 71
     3
 72
    14
 73
    10
 74
     0
 42
0.000000001
 43
0.00000001
 40
0.0
 40
0.0
 40
0.0
 40
0.0
 40
0.25
 40
0.25
 40
0.5
 40
0.5
 40
0.75
 40
0.75
 40
1.0
 40
1.0
 40
1.0
 40
1.0
 10
186.3868684668527
 20
158.4561195128633
 30
0.0
 10
186.3868684668527
 20
158.3487771407158
 30
0.0
 10
186.3668722747884
 20
158.242148133868
 30
0.0
 10
186.2891741904438
 20
158.0429963547168
 30
0.0
 10
186.2311810455502
 20
157.9505134564014
 30
0.0
 10
186.0851345527274
 20
157.7952776212922
 30
0.0
 10
185.9957968135597
 20
157.7315436796798
 30
0.0
 10
185.8010418014993
 20
157.6457134132846
 30
0.0
 10
185.6935115302904
 20
157.6227942903262
 30
0.0
 10
185.5868684668506
 20
157.6227942903265
 30
0.0
  0
SPLINE
  5
C7
330
1F
100
AcDbEntity
  8
0
  6
Continuous
 62
     7
370
    15
100
AcDbSpline
210
0.0
220
0.0
230
1.0
 70
     8
 71
     3
 72
    14
 73
    10
 74
     0
 42
0.000000001
 43
0.00000001
 40
0.0
 40
0.0
 40
0.0
 40
0.0
 40
0.25
 40
0.25
 40
0.5
 40
0.5
 40
0.75
 40
0.75
 40
1.0
 40
1.0
 40
1.0
 40
1.0
 10
185.5868684668526
 20
148.3149100859897
 30
0.0
 10
185.7081949968384
 20
148.3149100859897
 30
0.0
 10
185.8298997054006
 20
148.3536916014229
 30
0.0
 10
186.0363395842867
 20
148.4848462231168
 30
0.0
 10
186.1222901227428
 20
148.575498307704
 30
0.0
 10
186.2562018824911
 20
148.7776153426452
 30
0.0
 10
186.3057663193102
 20
148.8913502861844
 30
0.0
 10
186.3706203472782
 20
149.1243099032509
 30
0.0
 10
186.3868684668527
 20
149.2470081695801
 30
0.0
 10
186.3868684668527
 20
149.3680711261737
 30
0.0
  0
LINE
  5
C8
330
1F
100
AcDbEntity
  8
0
  6
Continuous
 62
     7
370
    15
100
AcDbLine
 10
185.5868687732
 20
157.6227941377
 30
0.0
 11
183.3668686329
 21
157.6227941377
 31
0.0
  0
LINE
  5
C9
330
1F
100
AcDbEntity
  8
0
  6
Continuous
 62
     7
370
    15
100
AcDbLine
 10
183.3668686329
 20
148.3149104579
 30
0.0
 11
185.5868687732
 21
148.3149104579
 31
0.0
  0
LINE
  5
CA
330
1F
100
AcDbEntity
  8
0
  6
Continuous
 62
     7
370
    15
100
AcDbLine
 10
182.5668681292
 20
149.5421626432
 30
0.0
 11
182.5668681292
 21
149.368072377
 31
0.0
  0
SPLINE
  5
CB
330
1F
100
AcDbEntity
  8
0
  6
Continuous
 62
     7
370
    15
100
AcDbSpline
210
0.0
220
0.0
230
1.0
 70
     8
 71
     3
 72
    12
 73
     8
 74
     0
 42
0.000000001
 43
0.00000001
 40
0.0
 40
0.0
 40
0.0
 40
0.0
 40
0.499999999999994
 40
0.499999999999994
 40
0.749999999999997
 40
0.749999999999997
 40
1.0
 40
1.0
 40
1.0
 40
1.0
 10
182.5668684668526
 20
149.3680711261737
 30
0.0
 10
182.5668684668526
 20
149.125648030193
 30
0.0
 10
182.6297896082945
 20
148.8798775095916
 30
0.0
 10
182.8318185052969
 20
148.5749313301747
 30
0.0
 10
182.9181122299441
 20
148.4843384635763
 30
0.0
 10
183.1235860245108
 20
148.3539049006394
 30
0.0
 10
183.2435365851105
 20
148.3149100859897
 30
0.0
 10
183.3668684668526
 20
148.3149100859897
 30
0.0
  0
LINE
  5
CC
330
1F
100
AcDbEntity
  8
0
  6
Continuous
 62
     7
370
    15
100
AcDbLine
 10
186.3868683456
 20
149.368072377
 30
0.0
 11
186.3868683456
 21
149.5421626432
 31
0.0
  0
LINE
  5
CD
330
1F
100
AcDbEntity
  8
0
  6
Continuous
 62
     7
370
    15
100
AcDbLine
 10
192.4268687023
 20
151.7241098745
 30
0.0
 11
192.4268687023
 21
143.82502854
 31
0.0
  0
LINE
  5
CE
330
1F
100
AcDbEntity
  8
0
  6
Continuous
 62
     7
370
    15
100
AcDbLine
 10
176.576868386
 20
151.7241098745
 30
0.0
 11
176.576868386
 21
143.82502854
 31
0.0
  0
SPLINE
  5
CF
330
1F
100
AcDbEntity
  8
0
  6
Continuous
 62
     7
370
    15
100
AcDbSpline
210
0.0
220
0.0
230
1.0
 70
     8
 71
     3
 72
    12
 73
     8
 74
     0
 42
0.000000001
 43
0.00000001
 40
0.0
 40
0.0
 40
0.0
 40
0.0
 40
0.2500000000000007
 40
0.2500000000000007
 40
0.5000000000000014
 40
0.5000000000000014
 40
1.0
 40
1.0
 40
1.0
 40
1.0
 10
183.3668684668526
 20
157.6227942903265
 30
0.0
 10
183.2605234869767
 20
157.6227942903265
 30
0.0
 10
183.1532471395741
 20
157.645509528186
 30
0.0
 10
182.957871350178
 20
157.7315346950683
 30
0.0
 10
182.869317614101
 20
157.7945134219967
 30
0.0
 10
182.6480596899698
 20
158.0297049324338
 30
0.0
 10
182.5668684668527
 20
158.2428811469191
 30
0.0
 10
182.5668684668526
 20
158.4561195128632
 30
0.0
  0
LINE
  5
D0
330
1F
100
AcDbEntity
  8
0
  6
Continuous
 62
     7
370
    15
100
AcDbLine
 10
71.7768696947
 20
95.5961835398
 30
0.0
 11
71.7768696947
 21
132.3538725091
 31
0.0
  0
SPLINE
  5
D1
330
1F
100
AcDbEntity
  8
0
  6
Continuous
 62
     7
370
    15
100
AcDbSpline
210
0.0
220
0.0
230
1.0
 70
     8
 71
     3
 72
    38
 73
    34
 74
     0
 42
0.000000001
 43
0.00000001
 40
0.0
 40
0.0
 40
0.0
 40
0.0
 40
0.0625
 40
0.0625
 40
0.125
 40
0.125
 40
0.1874999999999999
 40
0.1874999999999999
 40
0.2499999999999999
 40
0.2499999999999999
 40
0.3124999999999999
 40
0.3124999999999999
 40
0.3749999999999999
 40
0.3749999999999999
 40
0.4375
 40
0.4375
 40
0.5000000000000001
 40
0.5000000000000001
 40
0.5625000000000001
 40
0.5625000000000001
 40
0.6250000000000001
 40
0.6250000000000001
 40
0.6875000000000001
 40
0.6875000000000001
 40
0.75
 40
0.75
 40
0.8125
 40
0.8125
 40
0.875
 40
0.875
 40
0.9375
 40
0.9375
 40
1.0
 40
1.0
 40
1.0
 40
1.0
 10
230.0268684668526
 20
113.9750280244567
 30
0.0
 10
230.0268684668527
 20
113.7754751796895
 30
0.0
 10
230.0024997110018
 20
113.5761560359009
 30
0.0
 10
229.9055671304281
 20
113.1848505368625
 30
0.0
 10
229.8347511540931
 20
112.9986474622815
 30
0.0
 10
229.6522478512108
 20
112.6433499064856
 30
0.0
 10
229.5405505356201
 20
112.4754656519659
 30
0.0
 10
229.2882450211623
 20
112.1693854171753
 30
0.0
 10
229.1451365185815
 20
112.0280860964026
 30
0.0
 10
228.8368537458116
 20
111.7766941701417
 30
0.0
 10
228.6722524475103
 20
111.6665000727847
 30
0.0
 10
228.3231549027406
 20
111.4749768817261
 30
0.0
 10
228.1383528818375
 20
111.3939795243284
 30
0.0
 10
227.7620570392822
 20
111.2655926531416
 30
0.0
 10
227.5689858661927
 20
111.217248106406
 30
0.0
 10
227.1728816501612
 20
111.1522310789975
 30
0.0
 10
226.9716230747295
 20
111.1361472224382
 30
0.0
 10
226.5732773589833
 20
111.1366256108798
 30
0.0
 10
226.3746333742712
 20
111.1529031949987
 30
0.0
 10
225.9784348822939
 20
111.2186452334754
 30
0.0
 10
225.7834171552451
 20
111.267945783389
 30
0.0
 10
225.4084322913307
 20
111.3968366577786
 30
0.0
 10
225.2270283470233
 20
111.4766235534366
 30
0.0
 10
224.8770861797182
 20
111.6692230120317
 30
0.0
 10
224.7113429081465
 20
111.78081500863
 30
0.0
 10
224.4064183802826
 20
112.0302726641205
 30
0.0
 10
224.2659172929693
 20
112.1687817502113
 30
0.0
 10
224.0117285473987
 20
112.4773221996082
 30
0.0
 10
223.9011123861873
 20
112.6441109409014
 30
0.0
 10
223.7195180838704
 20
112.9975835139114
 30
0.0
 10
223.6472430899078
 20
113.1881211488787
 30
0.0
 10
223.5514776169823
 20
113.5756593933541
 30
0.0
 10
223.5268684668526
 20
113.7732934969442
 30
0.0
 10
223.5268684668526
 20
113.9750280244567
 30
0.0
  0
SPLINE
  5
D2
330
1F
100
AcDbEntity
  8
0
  6
Continuous
 62
     7
370
    15
100
AcDbSpline
210
0.0
220
0.0
230
1.0
 70
     8
 71
     3
 72
    32
 73
    28
 74
     0
 42
0.000000001
 43
0.00000001
 40
0.0
 40
0.0
 40
0.0
 40
0.0
 40
0.0625000000000003
 40
0.0625000000000003
 40
0.1250000000000006
 40
0.1250000000000006
 40
0.1875000000000009
 40
0.1875000000000009
 40
0.2500000000000013
 40
0.2500000000000013
 40
0.3750000000000021
 40
0.3750000000000021
 40
0.5000000000000029
 40
0.5000000000000029
 40
0.6250000000000037
 40
0.6250000000000037
 40
0.6875000000000031
 40
0.6875000000000031
 40
0.7500000000000024
 40
0.7500000000000024
 40
0.8125000000000018
 40
0.8125000000000018
 40
0.8750000000000012
 40
0.8750000000000012
 40
0.9375000000000006
 40
0.9375000000000006
 40
1.0
 40
1.0
 40
1.0
 40
1.0
 10
223.5268684668526
 20
113.9750280244567
 30
0.0
 10
223.5268684668526
 20
114.1769920365193
 30
0.0
 10
223.551970741001
 20
114.3775773086582
 30
0.0
 10
223.6484841780593
 20
114.7657506061403
 30
0.0
 10
223.7211109116384
 20
114.9563705560118
 30
0.0
 10
223.9040545750196
 20
115.3108544202021
 30
0.0
 10
224.0155883077119
 20
115.4781549938472
 30
0.0
 10
224.2708650594834
 20
115.7865180594131
 30
0.0
 10
224.4128780920255
 20
115.9260317308456
 30
0.0
 10
224.8790625094465
 20
116.3044342212851
 30
0.0
 10
225.2282523871599
 20
116.4928662813526
 30
0.0
 10
225.9889386283349
 20
116.7511203204657
 30
0.0
 10
226.3837135315526
 20
116.8147130913809
 30
0.0
 10
227.1892668277428
 20
116.8126063154082
 30
0.0
 10
227.5831262357889
 20
116.7469975718231
 30
0.0
 10
228.1516409289985
 20
116.5507644772388
 30
0.0
 10
228.3327433668185
 20
116.4704029031566
 30
0.0
 10
228.6783492997918
 20
116.2795997987433
 30
0.0
 10
228.8438109456533
 20
116.1684133556258
 30
0.0
 10
229.1522345222055
 20
115.9154232830554
 30
0.0
 10
229.2920675493971
 20
115.7764735102202
 30
0.0
 10
229.5420346832156
 20
115.4723403786357
 30
0.0
 10
229.6532899905053
 20
115.3050202467834
 30
0.0
 10
229.8356347937089
 20
114.9493417364391
 30
0.0
 10
229.9056901177424
 20
114.7641521514659
 30
0.0
 10
230.001565358052
 20
114.3782240626007
 30
0.0
 10
230.0268684668527
 20
114.1748078719853
 30
0.0
 10
230.0268684668526
 20
113.9750280244567
 30
0.0
  0
LINE
  5
D3
330
1F
100
AcDbEntity
  8
0
  6
Continuous
 62
     7
370
    15
100
AcDbLine
 10
232.2768671317
 20
103.975028248
 30
0.0
 11
232.2768671317
 21
123.9750278009
 31
0.0
  0
LINE
  5
D4
330
1F
100
AcDbEntity
  8
0
  6
Continuous
 62
     7
370
    15
100
AcDbLine
 10
232.476866792
 20
104.1750279082
 30
0.0
 11
232.476866792
 21
123.7750281407
 31
0.0
  0
ARC
  5
D5
330
1F
100
AcDbEntity
  8
0
  6
Continuous
 62
     7
370
    15
100
AcDbCircle
 10
187.4458238473
 20
98.7886678365
 30
0.0
 40
2.373045168760891
100
AcDbArc
 50
185.6733221437
 51
252.2360921293
  0
ARC
  5
D6
330
1F
100
AcDbEntity
  8
0
  6
Continuous
 62
     7
370
    15
100
AcDbCircle
 10
187.5910102595
 20
98.8988604088
 30
0.0
 40
2.524449504549648
100
AcDbArc
 50
249.8603539676
 51
339.8452067799
  0
ARC
  5
D7
330
1F
100
AcDbEntity
  8
0
  6
Continuous
 62
     7
370
    15
100
AcDbCircle
 10
187.4057679131
 20
98.6911111522
 30
0.0
 40
2.18139924872954
100
AcDbArc
 50
159.26752016
 51
253.0470182115
  0
ARC
  5
D8
330
1F
100
AcDbEntity
  8
0
  6
Continuous
 62
     7
370
    15
100
AcDbCircle
 10
187.594299374
 20
98.8232961506
 30
0.0
 40
2.367064187020473
100
AcDbArc
 50
249.6127475989
 51
345.549823666
  0
ARC
  5
D9
330
1F
100
AcDbEntity
  8
0
  6
Continuous
 62
     7
370
    15
100
AcDbCircle
 10
187.4223191569
 20
98.6814101898
 30
0.0
 40
1.836982376475256
100
AcDbArc
 50
124.8715177645
 51
253.247402982
  0
ARC
  5
DA
330
1F
100
AcDbEntity
  8
0
  6
Continuous
 62
     7
370
    15
100
AcDbCircle
 10
187.5973823825
 20
98.7742379058
 30
0.0
 40
1.981345107956153
100
AcDbArc
 50
249.1701466721
 51
357.5180965593
  0
SPLINE
  5
DB
330
1F
100
AcDbEntity
  8
0
  6
Continuous
 62
     7
370
    15
100
AcDbSpline
210
0.0
220
0.0
230
1.0
 70
    24
 71
     3
 72
    11
 73
     7
 74
     0
 42
0.000000001
 43
0.00000001
 40
0.0
 40
0.0
 40
0.0
 40
0.0
 40
0.1285562862071904
 40
0.4801550862485702
 40
0.8150690507858676
 40
1.0
 40
1.0
 40
1.0
 40
1.0
 10
227.4985564751611
 20
112.7250280523963
 30
0.0
 10
227.4404274923945
 20
112.7250280523963
 30
0.0
 10
227.2233169367205
 20
112.7250280523964
 30
0.0
 10
226.8161868156238
 20
112.7250280523963
 30
0.0
 10
226.3753516533486
 20
112.7250280523963
 30
0.0
 10
226.1391931858527
 20
112.7250280523963
 30
0.0
 10
226.0551815731511
 20
112.7250280523963
 30
0.0
  0
SPLINE
  5
DC
330
1F
100
AcDbEntity
  8
0
  6
Continuous
 62
     7
370
    15
100
AcDbSpline
210
0.0
220
0.0
230
1.0
 70
     8
 71
     3
 72
    10
 73
     6
 74
     0
 42
0.000000001
 43
0.00000001
 40
0.0
 40
0.0
 40
0.0
 40
0.0
 40
0.4391123531139334
 40
0.7513633539489561
 40
1.0
 40
1.0
 40
1.0
 40
1.0
 10
228.2202457888112
 20
113.9750280244567
 30
0.0
 10
228.1169309161891
 20
113.7960830212385
 30
0.0
 10
227.9401492596139
 20
113.4898909570959
 30
0.0
 10
227.6831678789251
 20
113.0447823251708
 30
0.0
 10
227.5552578745572
 20
112.8232371248563
 30
0.0
 10
227.4985564751611
 20
112.7250280523963
 30
0.0
  0
SPLINE
  5
DD
330
1F
100
AcDbEntity
  8
0
  6
Continuous
 62
     7
370
    15
100
AcDbSpline
210
0.0
220
0.0
230
1.0
 70
     8
 71
     3
 72
    10
 73
     6
 74
     0
 42
0.000000001
 43
0.00000001
 40
0.0
 40
0.0
 40
0.0
 40
0.0
 40
0.4391123208974677
 40
0.7513633383832632
 40
1.0
 40
1.0
 40
1.0
 40
1.0
 10
227.4985564751611
 20
115.225027996517
 30
0.0
 10
227.6018713521614
 20
115.0460830150655
 30
0.0
 10
227.778653025536
 20
114.7398909720466
 30
0.0
 10
228.0356343850092
 20
114.2947823274186
 30
0.0
 10
228.1635443892005
 20
114.0732371065399
 30
0.0
 10
228.2202457888112
 20
113.9750280244567
 30
0.0
  0
SPLINE
  5
DE
330
1F
100
AcDbEntity
  8
0
  6
Continuous
 62
     7
370
    15
100
AcDbSpline
210
0.0
220
0.0
230
1.0
 70
    24
 71
     3
 72
    11
 73
     7
 74
     0
 42
0.000000001
 43
0.00000001
 40
0.0
 40
0.0
 40
0.0
 40
0.0
 40
0.1849309492141324
 40
0.5198449137514297
 40
0.8714437137928096
 40
1.0
 40
1.0
 40
1.0
 40
1.0
 10
226.0551815731511
 20
115.225027996517
 30
0.0
 10
226.1391931858527
 20
115.225027996517
 30
0.0
 10
226.3753516533486
 20
115.225027996517
 30
0.0
 10
226.8161868156238
 20
115.225027996517
 30
0.0
 10
227.2233169367204
 20
115.225027996517
 30
0.0
 10
227.4404274923945
 20
115.225027996517
 30
0.0
 10
227.4985564751611
 20
115.225027996517
 30
0.0
  0
SPLINE
  5
DF
330
1F
100
AcDbEntity
  8
0
  6
Continuous
 62
     7
370
    15
100
AcDbSpline
210
0.0
220
0.0
230
1.0
 70
     8
 71
     3
 72
    10
 73
     6
 74
     0
 42
0.000000001
 43
0.00000001
 40
0.0
 40
0.0
 40
0.0
 40
0.0
 40
0.4391123208974677
 40
0.7513633383832632
 40
1.0
 40
1.0
 40
1.0
 40
1.0
 10
226.0551815731511
 20
112.7250280523963
 30
0.0
 10
225.9518666961507
 20
112.9039730338479
 30
0.0
 10
225.7750850227762
 20
113.2101650768668
 30
0.0
 10
225.518103663303
 20
113.6552737214947
 30
0.0
 10
225.3901936591116
 20
113.8768189423735
 30
0.0
 10
225.333492259501
 20
113.9750280244567
 30
0.0
  0
CIRCLE
  5
E0
330
1F
100
AcDbEntity
  8
0
  6
Continuous
 62
     7
370
    15
100
AcDbCircle
 10
226.7768684669
 20
113.9750280245
 30
0.0
 40
1.499999999999986
  0
SPLINE
  5
E1
330
1F
100
AcDbEntity
  8
0
  6
Continuous
 62
     7
370
    15
100
AcDbSpline
210
0.0
220
0.0
230
1.0
 70
     8
 71
     3
 72
    10
 73
     6
 74
     0
 42
0.000000001
 43
0.00000001
 40
0.0
 40
0.0
 40
0.0
 40
0.0
 40
0.4391123531139334
 40
0.7513633539489561
 40
1.0
 40
1.0
 40
1.0
 40
1.0
 10
225.333492259501
 20
113.9750280244567
 30
0.0
 10
225.436807132123
 20
114.1539730276749
 30
0.0
 10
225.6135887886982
 20
114.4601650918174
 30
0.0
 10
225.8705701693871
 20
114.9052737237425
 30
0.0
 10
225.998480173755
 20
115.1268189240571
 30
0.0
 10
226.0551815731511
 20
115.225027996517
 30
0.0
  0
CIRCLE
  5
E2
330
1F
100
AcDbEntity
  8
0
  6
Continuous
 62
     7
370
    15
100
AcDbCircle
 10
226.7768684669
 20
113.9750280245
 30
0.0
 40
2.199999999999989
  0
CIRCLE
  5
E3
330
1F
100
AcDbEntity
  8
0
  6
Continuous
 62
     7
370
    15
100
AcDbCircle
 10
226.7768684669
 20
113.9750280245
 30
0.0
 40
2.5
  0
ARC
  5
E4
330
1F
100
AcDbEntity
  8
0
  6
Continuous
 62
     7
370
    15
100
AcDbCircle
 10
226.7768684669
 20
113.9750280245
 30
0.0
 40
1.25
100
AcDbArc
 50
30.0
 51
90.0
  0
ARC
  5
E5
330
1F
100
AcDbEntity
  8
0
  6
Continuous
 62
     7
370
    15
100
AcDbCircle
 10
226.7768684669
 20
113.9750280245
 30
0.0
 40
1.25
100
AcDbArc
 50
270.0
 51
330.0
  0
ARC
  5
E6
330
1F
100
AcDbEntity
  8
0
  6
Continuous
 62
     7
370
    15
100
AcDbCircle
 10
226.7768684669
 20
113.9750280245
 30
0.0
 40
1.24999999999998
100
AcDbArc
 50
330.0
 51
30.0
  0
ARC
  5
E7
330
1F
100
AcDbEntity
  8
0
  6
Continuous
 62
     7
370
    15
100
AcDbCircle
 10
226.7768684669
 20
113.9750280245
 30
0.0
 40
1.250000000000004
100
AcDbArc
 50
90.0
 51
150.0
  0
ARC
  5
E8
330
1F
100
AcDbEntity
  8
0
  6
Continuous
 62
     7
370
    15
100
AcDbCircle
 10
226.7768684669
 20
113.9750280245
 30
0.0
 40
1.250000000000011
100
AcDbArc
 50
210.0
 51
270.0
  0
ARC
  5
E9
330
1F
100
AcDbEntity
  8
0
  6
Continuous
 62
     7
370
    15
100
AcDbCircle
 10
226.7768684669
 20
113.9750280245
 30
0.0
 40
1.250000000000011
100
AcDbArc
 50
150.0
 51
210.0
  0
LWPOLYLINE
  5
EA
330
1F
100
AcDbEntity
  8
0
  6
HIDDEN
 62
     7
370
     0
100
AcDbPolyline
 90
       22
 70
   128
 43
0.0
 10
182.4018536015
 20
124.7218125327
 10
181.9747881843
 20
124.5423513292
 10
181.5719390167
 20
124.5796535923
 10
181.2291005505
 20
124.8304038136
 10
180.9767363472
 20
125.2723228945
 10
180.8372698603
 20
125.8661444126
 10
180.8230928024
 20
126.5591033561
 10
180.935465253
 20
127.2896290584
 10
181.1644020369
 20
127.9928101985
 10
181.4895616723
 20
128.6061652763
 10
181.8820517389
 20
129.07519702
 10
182.3069983972
 20
129.3582278131
 10
182.7266430361
 20
129.4301100834
 10
183.1036973624
 20
129.2844568206
 10
183.4046607716
 20
128.9342106147
 10
183.6027884735
 20
128.4104906781
 10
183.6804784713
 20
127.7598333372
 10
183.6308259396
 20
127.0400513722
 10
183.4582434846
 20
126.3151014982
 10
183.1780662639
 20
125.6493977098
 10
182.8151885299
 20
125.1020910977
 10
182.4018536015
 20
124.7218125327
  0
LWPOLYLINE
  5
EB
330
1F
100
AcDbEntity
  8
0
  6
HIDDEN
 62
     7
370
     0
100
AcDbPolyline
 90
       19
 70
   128
 43
0.0
 10
182.9698588578
 20
125.2527027218
 10
182.622029434
 20
125.1207883297
 10
182.3031064002
 20
125.1956042661
 10
182.0515561728
 20
125.4681241526
 10
181.8977203099
 20
125.9054806842
 10
181.8601544825
 20
126.4549209563
 10
181.9433877124
 20
127.0501748486
 10
182.1373812733
 20
127.619444841
 10
182.4187384797
 20
128.0940701081
 10
182.7535210056
 20
128.4168031825
 10
183.1013513608
 20
128.5487175746
 10
183.4202743946
 20
128.4739025696
 10
183.671824622
 20
128.2013817517
 10
183.8256595535
 20
127.7640252201
 10
183.8632263122
 20
127.214584948
 10
183.7799930824
 20
126.619331987
 10
183.5859985901
 20
126.0500610633
 10
183.304642315
 20
125.5754357962
 10
182.9698588578
 20
125.2527027218
  0
LWPOLYLINE
  5
EC
330
1F
100
AcDbEntity
  8
0
  6
HIDDEN
 62
     7
370
     0
100
AcDbPolyline
 90
       22
 70
   128
 43
0.0
 10
179.1309141433
 20
125.5051535381
 10
178.7038487261
 20
125.3256923346
 10
178.3009995585
 20
125.3629945977
 10
177.958161558
 20
125.613744819
 10
177.7057973547
 20
126.0556638999
 10
177.5663308678
 20
126.649485418
 10
177.5521538099
 20
127.3424443616
 10
177.6645262605
 20
128.0729700638
 10
177.8934630444
 20
128.776151204
 10
178.2186226798
 20
129.3895062818
 10
178.6111132121
 20
129.8585370941
 10
179.0360594047
 20
130.1415697499
 10
179.4557040436
 20
130.2134510888
 10
179.8327588355
 20
130.0677978261
 10
180.1337213134
 20
129.7175516201
 10
180.3318499466
 20
129.1938316835
 10
180.4095394788
 20
128.5431743427
 10
180.3598874128
 20
127.8233923776
 10
180.1873049578
 20
127.0984425037
 10
179.9071272714
 20
126.4327387153
 10
179.5442490717
 20
125.8854321031
 10
179.1309141433
 20
125.5051535381
  0
LINE
  5
ED
330
1F
100
AcDbEntity
  8
0
  6
HIDDEN
 62
     7
370
     0
100
AcDbLine
 10
179.646830528
 20
127.6009534313
 30
0.0
 11
180.3150181538
 21
128.728129418
 31
0.0
  0
LINE
  5
EE
330
1F
100
AcDbEntity
  8
0
  6
HIDDEN
 62
     7
370
     0
100
AcDbLine
 10
178.0085265515
 20
127.9933028681
 30
0.0
 11
178.6767137116
 21
129.1204788549
 31
0.0
  0
LWPOLYLINE
  5
EF
330
1F
100
AcDbEntity
  8
0
  6
HIDDEN
 62
     7
370
     0
100
AcDbPolyline
 90
       20
 70
   128
 43
0.0
 10
178.8929514466
 20
125.9578480212
 10
178.5055743409
 20
125.8050831793
 10
178.146411187
 20
125.8701919405
 10
177.8543828866
 20
126.146118605
 10
177.6611343836
 20
126.6029630615
 10
177.5876078634
 20
127.1912180646
 10
177.6417707903
 20
127.8471364467
 10
177.817753504
 20
128.4996415315
 10
178.0964862434
 20
129.0780226527
 10
178.4477634234
 20
129.5196027322
 10
178.8335190965
 20
129.7765322788
 10
179.2119503832
 20
129.8209656788
 10
179.5420483565
 20
129.6480898572
 10
179.7880418478
 20
129.2766383676
 10
179.9232736109
 20
128.7468639029
 10
179.9330892852
 20
128.1161750494
 10
179.8164253002
 20
127.4529169141
 10
179.5859238943
 20
126.8289643167
 10
179.2665631389
 20
126.3119312762
 10
178.8929514466
 20
125.9578480212
  0
LINE
  5
F0
330
1F
100
AcDbEntity
  8
0
  6
HIDDEN
 62
     7
370
     0
100
AcDbLine
 10
178.0977430632
 20
126.6884500919
 30
0.0
 11
178.0085265515
 21
127.9933028681
 31
0.0
  0
LINE
  5
F1
330
1F
100
AcDbEntity
  8
0
  6
HIDDEN
 62
     7
370
     0
100
AcDbLine
 10
179.7360470397
 20
126.296100655
 30
0.0
 11
179.646830528
 21
127.6009534313
 31
0.0
  0
LINE
  5
F2
330
1F
100
AcDbEntity
  8
0
  6
HIDDEN
 62
     7
370
     0
100
AcDbLine
 10
179.646830528
 20
127.6009534313
 30
0.0
 11
178.0085265515
 21
127.9933028681
 31
0.0
  0
LINE
  5
F3
330
1F
100
AcDbEntity
  8
0
  6
HIDDEN
 62
     7
370
     0
100
AcDbLine
 10
179.4341173833
 20
128.9428029968
 30
0.0
 11
178.6767137116
 21
129.1204788549
 31
0.0
  0
LINE
  5
F4
330
1F
100
AcDbEntity
  8
0
  6
HIDDEN
 62
     7
370
     0
100
AcDbLine
 10
181.0724213598
 20
128.5504535599
 30
0.0
 11
180.3150181538
 21
128.728129418
 31
0.0
  0
LINE
  5
F5
330
1F
100
AcDbEntity
  8
0
  6
HIDDEN
 62
     7
370
     0
100
AcDbLine
 10
180.3150181538
 20
128.728129418
 30
0.0
 11
178.6767137116
 21
129.1204788549
 31
0.0
  0
LINE
  5
F6
330
1F
100
AcDbEntity
  8
0
  6
HIDDEN
 62
     7
370
     0
100
AcDbLine
 10
180.4934502458
 20
126.1184238656
 30
0.0
 11
178.8551462693
 21
126.5107733025
 31
0.0
  0
LINE
  5
F7
330
1F
100
AcDbEntity
  8
0
  6
HIDDEN
 62
     7
370
     0
100
AcDbLine
 10
179.7360470397
 20
126.296100655
 30
0.0
 11
178.0977430632
 21
126.6884500919
 31
0.0
  0
LINE
  5
F8
330
1F
100
AcDbEntity
  8
0
  6
HIDDEN
 62
     7
370
     0
100
AcDbLine
 10
178.0977430632
 20
126.6884500919
 30
0.0
 11
178.8551462693
 21
126.5107733025
 31
0.0
  0
LINE
  5
F9
330
1F
100
AcDbEntity
  8
0
  6
HIDDEN
 62
     7
370
     0
100
AcDbLine
 10
179.7360470397
 20
126.296100655
 30
0.0
 11
180.4934502458
 21
126.1184238656
 31
0.0
  0
LINE
  5
FA
330
1F
100
AcDbEntity
  8
0
  6
HIDDEN
 62
     7
370
     0
100
AcDbLine
 10
181.1616374059
 20
127.2456007837
 30
0.0
 11
179.5233334294
 21
127.6379502205
 31
0.0
  0
LINE
  5
FB
330
1F
100
AcDbEntity
  8
0
  6
HIDDEN
 62
     7
370
     0
100
AcDbLine
 10
179.5233334294
 20
127.6379502205
 30
0.0
 11
178.8551462693
 21
126.5107733025
 31
0.0
  0
LINE
  5
FC
330
1F
100
AcDbEntity
  8
0
  6
HIDDEN
 62
     7
370
     0
100
AcDbLine
 10
181.1616374059
 20
127.2456007837
 30
0.0
 11
180.4934502458
 21
126.1184238656
 31
0.0
  0
LINE
  5
FD
330
1F
100
AcDbEntity
  8
0
  6
HIDDEN
 62
     7
370
     0
100
AcDbLine
 10
181.0724213598
 20
128.5504535599
 30
0.0
 11
179.4341173833
 21
128.9428029968
 31
0.0
  0
LINE
  5
FE
330
1F
100
AcDbEntity
  8
0
  6
HIDDEN
 62
     7
370
     0
100
AcDbLine
 10
179.5233334294
 20
127.6379502205
 30
0.0
 11
179.4341173833
 21
128.9428029968
 31
0.0
  0
LINE
  5
FF
330
1F
100
AcDbEntity
  8
0
  6
HIDDEN
 62
     7
370
     0
100
AcDbLine
 10
181.1616374059
 20
127.2456007837
 30
0.0
 11
181.0724213598
 21
128.5504535599
 31
0.0
  0
LWPOLYLINE
  5
100
330
1F
100
AcDbEntity
  8
0
  6
HIDDEN
 62
     7
370
     0
100
AcDbPolyline
 90
       20
 70
   128
 43
0.0
 10
178.027275472
 20
98.9903756244
 10
178.3655485949
 20
98.5137498765
 10
178.7472087769
 20
98.2127492143
 10
179.1308983108
 20
98.1199932112
 10
179.475037369
 20
98.2455317689
 10
179.7423339328
 20
98.5757619901
 10
179.9038220076
 20
99.074898736
 10
179.9420015765
 20
99.6888507916
 10
179.8527357047
 20
100.3510891287
 10
179.6456975741
 20
100.9898488237
 10
179.3433232112
 20
101.5359111889
 10
178.9783788724
 20
101.9300999878
 10
178.5904127052
 20
102.129701042
 10
178.2214664733
 20
102.1130834533
 10
177.9115213892
 20
101.8820474683
 10
177.6941646701
 20
101.4616298316
 10
177.5929503953
 20
100.8973899124
 10
177.6188467508
 20
100.2504718317
 10
177.769047196
 20
99.5909781022
 10
178.027275472
 20
98.9903756244
  0
LWPOLYLINE
  5
101
330
1F
100
AcDbEntity
  8
0
  6
HIDDEN
 62
     7
370
     0
100
AcDbPolyline
 90
       22
 70
   128
 43
0.0
 10
178.0777806295
 20
98.7930376841
 10
178.4470775044
 20
98.2600510879
 10
178.8634057036
 20
97.898088844
 10
179.2897726288
 20
97.7393151088
 10
179.6882939404
 20
97.7978356941
 10
180.023559357
 20
98.0684500946
 10
180.2657786636
 20
98.5271152867
 10
180.3934303923
 20
99.1330756633
 10
180.3951710342
 20
99.8324886723
 10
180.270846921
 20
100.5632090209
 10
180.0315044699
 20
101.260309556
 10
179.6984099662
 20
101.8618480129
 10
179.3011608413
 20
102.3143767206
 10
178.875053755
 20
102.5776858269
 10
178.4579506954
 20
102.6283795772
 10
178.0869131787
 20
102.4619531645
 10
177.7949095583
 20
102.0931941284
 10
177.6078850841
 20
101.5548691912
 10
177.5424582763
 20
100.8948101489
 10
177.6044419846
 20
100.1716661094
 10
177.7883292986
 20
99.449691811
 10
178.0777806295
 20
98.7930376841
  0
LWPOLYLINE
  5
102
330
1F
100
AcDbEntity
  8
0
  6
HIDDEN
 62
     7
370
     0
100
AcDbPolyline
 90
       22
 70
   128
 43
0.0
 10
181.348719622
 20
99.5763786895
 10
181.7180160312
 20
99.0433920933
 10
182.1343442304
 20
98.6814307807
 10
182.5607111557
 20
98.5226561142
 10
182.9592324672
 20
98.5811757682
 10
183.2944983495
 20
98.8517911
 10
183.5367176561
 20
99.3104562922
 10
183.6643693848
 20
99.9164166687
 10
183.6661100267
 20
100.6158296777
 10
183.5417859135
 20
101.3465500264
 10
183.3024434624
 20
102.0436505614
 10
182.969348493
 20
102.6451890184
 10
182.5720993681
 20
103.0977177261
 10
182.1459922819
 20
103.3610268323
 10
181.7288901536
 20
103.4117205827
 10
181.3578521712
 20
103.2452941699
 10
181.0658485508
 20
102.8765351339
 10
180.8788240766
 20
102.3382101966
 10
180.8133968031
 20
101.6781511544
 10
180.8753809771
 20
100.9550071148
 10
181.0592682911
 20
100.2330328165
 10
181.348719622
 20
99.5763786895
  0
LINE
  5
103
330
1F
100
AcDbEntity
  8
0
  6
HIDDEN
 62
     7
370
     0
100
AcDbLine
 10
179.5840603178
 20
99.5271983384
 30
0.0
 11
179.2847406929
 21
100.9379816069
 31
0.0
  0
LINE
  5
104
330
1F
100
AcDbEntity
  8
0
  6
HIDDEN
 62
     7
370
     0
100
AcDbLine
 10
178.4666105984
 20
101.5452132387
 30
0.0
 11
179.2847406929
 21
100.9379816069
 31
0.0
  0
LINE
  5
105
330
1F
100
AcDbEntity
  8
0
  6
HIDDEN
 62
     7
370
     0
100
AcDbLine
 10
177.9478001287
 20
100.7416606708
 30
0.0
 11
178.4666105984
 21
101.5452132387
 31
0.0
  0
LINE
  5
106
330
1F
100
AcDbEntity
  8
0
  6
HIDDEN
 62
     7
370
     0
100
AcDbLine
 10
177.9478001287
 20
100.7416606708
 30
0.0
 11
178.247119288
 21
99.3308774023
 31
0.0
  0
LINE
  5
107
330
1F
100
AcDbEntity
  8
0
  6
HIDDEN
 62
     7
370
     0
100
AcDbLine
 10
179.0652493825
 20
98.7236457704
 30
0.0
 11
178.247119288
 21
99.3308774023
 31
0.0
  0
LINE
  5
108
330
1F
100
AcDbEntity
  8
0
  6
HIDDEN
 62
     7
370
     0
100
AcDbLine
 10
179.0652493825
 20
98.7236457704
 30
0.0
 11
179.5840603178
 21
99.5271983384
 31
0.0
  0
LINE
  5
109
330
1F
100
AcDbEntity
  8
0
  6
HIDDEN
 62
     7
370
     0
100
AcDbLine
 10
180.9230446694
 20
101.3303310437
 30
0.0
 11
179.2847406929
 21
100.9379816069
 31
0.0
  0
LINE
  5
10A
330
1F
100
AcDbEntity
  8
0
  6
HIDDEN
 62
     7
370
     0
100
AcDbLine
 10
181.2223642943
 20
99.9195477752
 30
0.0
 11
179.5840603178
 21
99.5271983384
 31
0.0
  0
LWPOLYLINE
  5
10B
330
1F
100
AcDbEntity
  8
0
  6
HIDDEN
 62
     7
370
     0
100
AcDbPolyline
 90
       19
 70
   128
 43
0.0
 10
182.2326658173
 20
100.1410479484
 10
182.5381340338
 20
99.7166619463
 10
182.8826274602
 20
99.4609719901
 10
183.2245960711
 20
99.4048188268
 10
183.5227925209
 20
99.5549759655
 10
183.7412500633
 20
99.8933310448
 10
183.8536206512
 20
100.3790744407
 10
183.8463488845
 20
100.9536175816
 10
183.7203130005
 20
101.5476616858
 10
183.4907149775
 20
102.0895582451
 10
183.185246761
 20
102.5139442472
 10
182.8407533346
 20
102.7696342035
 10
182.4987847237
 20
102.8257873668
 10
182.2005882738
 20
102.6756302281
 10
181.9821298001
 20
102.3372751488
 10
181.8697601436
 20
101.8515317528
 10
181.8770319102
 20
101.276988612
 10
182.0030677943
 20
100.6829435764
 10
182.2326658173
 20
100.1410479484
  0
LINE
  5
10C
330
1F
100
AcDbEntity
  8
0
  6
HIDDEN
 62
     7
370
     0
100
AcDbLine
 10
179.5861041052
 20
101.1340101077
 30
0.0
 11
179.8854232645
 21
99.7232268391
 31
0.0
  0
LINE
  5
10D
330
1F
100
AcDbEntity
  8
0
  6
HIDDEN
 62
     7
370
     0
100
AcDbLine
 10
179.5861041052
 20
101.1340101077
 30
0.0
 11
180.1049145749
 21
101.9375626756
 31
0.0
  0
LINE
  5
10E
330
1F
100
AcDbEntity
  8
0
  6
HIDDEN
 62
     7
370
     0
100
AcDbLine
 10
180.703553359
 20
99.1159952073
 30
0.0
 11
179.8854232645
 21
99.7232268391
 31
0.0
  0
LINE
  5
10F
330
1F
100
AcDbEntity
  8
0
  6
HIDDEN
 62
     7
370
     0
100
AcDbLine
 10
180.703553359
 20
99.1159952073
 30
0.0
 11
181.2223642943
 21
99.9195477752
 31
0.0
  0
LINE
  5
110
330
1F
100
AcDbEntity
  8
0
  6
HIDDEN
 62
     7
370
     0
100
AcDbLine
 10
180.1049145749
 20
101.9375626756
 30
0.0
 11
180.9230446694
 21
101.3303310437
 31
0.0
  0
LINE
  5
111
330
1F
100
AcDbEntity
  8
0
  6
HIDDEN
 62
     7
370
     0
100
AcDbLine
 10
181.2223642943
 20
99.9195477752
 30
0.0
 11
180.9230446694
 21
101.3303310437
 31
0.0
  0
LINE
  5
112
330
1F
100
AcDbEntity
  8
0
  6
HIDDEN
 62
     7
370
     0
100
AcDbLine
 10
179.5861041052
 20
101.1340101077
 30
0.0
 11
177.9478001287
 21
100.7416606708
 31
0.0
  0
LINE
  5
113
330
1F
100
AcDbEntity
  8
0
  6
HIDDEN
 62
     7
370
     0
100
AcDbLine
 10
180.1049145749
 20
101.9375626756
 30
0.0
 11
178.4666105984
 21
101.5452132387
 31
0.0
  0
LINE
  5
114
330
1F
100
AcDbEntity
  8
0
  6
HIDDEN
 62
     7
370
     0
100
AcDbLine
 10
179.8854232645
 20
99.7232268391
 30
0.0
 11
178.247119288
 21
99.3308774023
 31
0.0
  0
LINE
  5
115
330
1F
100
AcDbEntity
  8
0
  6
HIDDEN
 62
     7
370
     0
100
AcDbLine
 10
180.703553359
 20
99.1159952073
 30
0.0
 11
179.0652493825
 21
98.7236457704
 31
0.0
  0
LWPOLYLINE
  5
116
330
1F
100
AcDbEntity
  8
0
  6
HIDDEN
 62
     7
370
     0
100
AcDbPolyline
 90
       22
 70
   128
 43
0.0
 10
187.5768685592
 20
98.1177114709
 10
188.313756126
 20
98.2220810665
 10
188.9851689218
 20
98.5259166746
 10
189.5314464225
 20
99.0022201849
 10
189.9040536834
 20
99.6086713685
 10
190.0698775305
 20
100.2913839011
 10
190.0141881658
 20
100.9896960868
 10
189.7419327749
 20
101.6415585591
 10
189.2772996677
 20
102.1890514357
 10
188.6615780992
 20
102.583527082
 10
187.9494739575
 20
102.7899351729
 10
187.2042631609
 20
102.7899351729
 10
186.4921590192
 20
102.583527082
 10
185.8764365194
 20
102.1890514357
 10
185.4118052749
 20
101.6415585591
 10
185.1395489527
 20
100.9896960868
 10
185.0838586567
 20
100.2913839011
 10
185.2496843664
 20
99.6086713685
 10
185.6222897647
 20
99.0022201849
 10
186.1685681967
 20
98.5259166746
 10
186.8399809925
 20
98.2220810665
 10
187.5768685592
 20
98.1177114709
  0
LWPOLYLINE
  5
117
330
1F
100
AcDbEntity
  8
0
  6
HIDDEN
 62
     7
370
     0
100
AcDbPolyline
 90
       24
 70
   128
 43
0.0
 10
176.8485994423
 20
100.0701677813
 10
177.0423925361
 20
99.2765049277
 10
177.3441117136
 20
98.5417044549
 10
177.7313798545
 20
97.9202636345
 10
178.1754745049
 20
97.4582698955
 10
178.6434599077
 20
97.1899893893
 10
179.1006270675
 20
97.1353188915
 10
179.5130707203
 20
97.2983133806
 10
179.8502011104
 20
97.6668824269
 10
180.0870150207
 20
98.2136917128
 10
180.2059491044
 20
98.8981886594
 10
180.1981828054
 20
99.6696059419
 10
180.0642916812
 20
100.4707305519
 10
179.8142064242
 20
101.2421469031
 10
179.4664738579
 20
101.9266438498
 10
179.0468846327
 20
102.473454067
 10
178.5865570298
 20
102.8420231132
 10
178.119631472
 20
103.005016671
 10
177.6807382582
 20
102.9503461732
 10
177.3024280435
 20
102.6820656671
 10
177.0127576189
 20
102.2200728594
 10
176.8332111994
 20
101.598632039
 10
176.777104835
 20
100.8638306348
 10
176.8485994423
 20
100.0701677813
  0
LWPOLYLINE
  5
118
330
1F
100
AcDbEntity
  8
0
  6
HIDDEN
 62
     7
370
     0
100
AcDbPolyline
 90
       20
 70
   128
 43
0.0
 10
177.6116313292
 20
100.1344299702
 10
177.7859199671
 20
99.4658102108
 10
178.0664077839
 20
98.8696464164
 10
178.4226996703
 20
98.4105407087
 10
178.8161862521
 20
98.138245271
 10
179.2042264594
 20
98.0822671963
 10
179.5447706124
 20
98.2486740513
 10
179.8009155197
 20
98.6194307743
 10
179.944903112
 20
99.1543610407
 10
179.9611309422
 20
99.7954974709
 10
179.8478402076
 20
100.4733615382
 10
179.6173080681
 20
101.1144979684
 10
179.294515389
 20
101.6494282348
 10
178.9144426463
 20
102.0201849578
 10
178.5182761839
 20
102.1865908815
 10
178.1489467127
 20
102.1306137381
 10
177.8464768892
 20
101.8583183004
 10
177.6436441457
 20
101.399213524
 10
177.5624286262
 20
100.8030487983
 10
177.6116313292
 20
100.1344299702
  0
ELLIPSE
  5
119
330
1F
100
AcDbEntity
  8
0
  6
HIDDEN
 62
     7
370
     0
100
AcDbEllipse
 10
187.5768684669
 20
102.2445179131
 30
0.0
 11
1.760776919379055
 21
2.232245799914452
 31
0.0
210
0.0
220
0.0
230
1.0
 40
0.5126701559
 41
1.100887047646265
 42
4.029627027608209
  0
ARC
  5
11A
330
1F
100
AcDbEntity
  8
0
  6
HIDDEN
 62
     7
370
     0
100
AcDbCircle
 10
186.8802689983
 20
103.4220577943
 30
0.0
 40
0.7945949542258217
100
AcDbArc
 50
53.4208190544
 51
99.1663888759
  0
ELLIPSE
  5
11B
330
1F
100
AcDbEntity
  8
0
  6
HIDDEN
 62
     7
370
     0
100
AcDbEllipse
 10
187.5768684669
 20
102.2445179131
 30
0.0
 11
1.760776919379055
 21
-1.388886188042932
 31
0.0
210
0.0
220
0.0
230
1.0
 40
0.8239737799
 41
2.549926265248567
 42
4.885930273856149
  0
ARC
  5
11C
330
1F
100
AcDbEntity
  8
0
  6
HIDDEN
 62
     7
370
     0
100
AcDbCircle
 10
187.8229212288
 20
101.4050403491
 30
0.0
 40
1.353195702694755
100
AcDbArc
 50
217.8001040701
 51
249.7155767561
  0
LWPOLYLINE
  5
11D
330
1F
100
AcDbEntity
  8
0
  6
HIDDEN
 62
     7
370
     0
100
AcDbPolyline
 90
       20
 70
   128
 43
0.0
 10
187.5768685592
 20
98.5433817668
 10
188.2587373136
 20
98.6503041176
 10
188.8667149348
 20
98.9594827233
 10
189.3349187328
 20
99.4374141855
 10
189.6126093222
 20
100.0323067246
 10
189.6696956707
 20
100.6796951233
 10
189.4999919338
 20
101.3094237833
 10
189.121888007
 20
101.8532528369
 10
188.5763583584
 20
102.2522500543
 10
187.9225168256
 20
102.4631769223
 10
187.2312202929
 20
102.4631769223
 10
186.5773787601
 20
102.2522500543
 10
186.0318481801
 20
101.8532528369
 10
185.6537442533
 20
101.3094237833
 10
185.4840414478
 20
100.6796951233
 10
185.5411277963
 20
100.0323067246
 10
185.818819317
 20
99.4374141855
 10
186.2870221837
 20
98.9594827233
 10
186.8949998049
 20
98.6503041176
 10
187.5768685592
 20
98.5433817668
  0
SPLINE
  5
11E
330
1F
100
AcDbEntity
  8
0
  6
HIDDEN
 62
     7
370
     0
100
AcDbSpline
210
0.0
220
0.0
230
1.0
 70
    11
 71
     3
 72
    62
 73
    58
 74
     0
 42
0.000000001
 43
0.00000001
 40
0.0
 40
0.0
 40
0.0
 40
0.0
 40
0.0312499999999998
 40
0.0312499999999998
 40
0.0624999999999995
 40
0.0624999999999995
 40
0.1249999999999994
 40
0.1249999999999994
 40
0.1874999999999993
 40
0.1874999999999993
 40
0.2187499999999993
 40
0.2187499999999993
 40
0.2499999999999993
 40
0.2499999999999993
 40
0.2812499999999993
 40
0.2812499999999993
 40
0.3124999999999992
 40
0.3124999999999992
 40
0.3437499999999992
 40
0.3437499999999992
 40
0.3749999999999992
 40
0.3749999999999992
 40
0.4374999999999992
 40
0.4374999999999992
 40
0.4687499999999993
 40
0.4687499999999993
 40
0.4999999999999994
 40
0.4999999999999994
 40
0.5312499999999997
 40
0.5312499999999997
 40
0.5624999999999999
 40
0.5624999999999999
 40
0.59375
 40
0.59375
 40
0.6250000000000001
 40
0.6250000000000001
 40
0.65625
 40
0.65625
 40
0.6874999999999999
 40
0.6874999999999999
 40
0.7187499999999998
 40
0.7187499999999998
 40
0.7499999999999996
 40
0.7499999999999996
 40
0.7812499999999994
 40
0.7812499999999994
 40
0.8124999999999993
 40
0.8124999999999993
 40
0.8749999999999992
 40
0.8749999999999992
 40
0.9062499999999994
 40
0.9062499999999994
 40
0.9374999999999996
 40
0.9374999999999996
 40
0.9687499999999998
 40
0.9687499999999998
 40
1.0
 40
1.0
 40
1.0
 40
1.0
 10
187.5768684668527
 20
110.7379333892289
 30
0.0
 10
187.4356702428728
 20
110.7379333892289
 30
0.0
 10
187.297392365859
 20
110.7484013256125
 30
0.0
 10
187.0262262946512
 20
110.7894248065479
 30
0.0
 10
186.8920229671917
 20
110.8205512599635
 30
0.0
 10
186.5129597874015
 20
110.9419252478753
 30
0.0
 10
186.2839528657076
 20
111.0620800218834
 30
0.0
 10
185.9029222467049
 20
111.3708589209063
 30
0.0
 10
185.7472991697832
 20
111.5630280890701
 30
0.0
 10
185.5882286932146
 20
111.8930124009084
 30
0.0
 10
185.5465015480712
 20
112.0125117642205
 30
0.0
 10
185.4912308469292
 20
112.2590961633762
 30
0.0
 10
185.4771509154394
 20
112.3862680938133
 30
0.0
 10
185.4765943491182
 20
112.6487572865095
 30
0.0
 10
185.4905836265388
 20
112.7838996552065
 30
0.0
 10
185.5450651457745
 20
113.0483847485663
 30
0.0
 10
185.5859156039294
 20
113.1805346528123
 30
0.0
 10
185.6925295707888
 20
113.4372304037341
 30
0.0
 10
185.7572817130618
 20
113.559968288188
 30
0.0
 10
185.9088402550144
 20
113.7943390369463
 30
0.0
 10
185.9961783781875
 20
113.9061565379598
 30
0.0
 10
186.281954799149
 20
114.2113400030882
 30
0.0
 10
186.5114911476148
 20
114.382154322268
 30
0.0
 10
186.8878092836091
 20
114.558664685242
 30
0.0
 10
187.0201421919697
 20
114.6051494924358
 30
0.0
 10
187.2941748509606
 20
114.6682532051759
 30
0.0
 10
187.4322000105827
 20
114.6842108949202
 30
0.0
 10
187.7102713918015
 20
114.6850567637819
 30
0.0
 10
187.8519843304718
 20
114.6693320888088
 30
0.0
 10
188.1244065861521
 20
114.6078916463096
 30
0.0
 10
188.2562347306492
 20
114.5625700026232
 30
0.0
 10
188.5116336262538
 20
114.4440221996222
 30
0.0
 10
188.6317996294431
 20
114.3723351164058
 30
0.0
 10
188.8569710419995
 20
114.2076065504075
 30
0.0
 10
188.9631221033338
 20
114.1133472773726
 30
0.0
 10
189.154569392036
 20
113.9097826032289
 30
0.0
 10
189.2405034059555
 20
113.8003153129897
 30
0.0
 10
189.3929157239955
 20
113.5662177105057
 30
0.0
 10
189.459099214283
 20
113.4413234876079
 30
0.0
 10
189.5652809128341
 20
113.1875917360731
 30
0.0
 10
189.6062609760499
 20
113.0574220512894
 30
0.0
 10
189.6623411168472
 20
112.7903583561605
 30
0.0
 10
189.6765652922886
 20
112.6564051261453
 30
0.0
 10
189.67716197616
 20
112.3949483836772
 30
0.0
 10
189.6633934086616
 20
112.2648310142898
 30
0.0
 10
189.6085433417195
 20
112.016640158806
 30
0.0
 10
189.568046828443
 20
111.8992846677252
 30
0.0
 10
189.4085843572669
 20
111.5655355459855
 30
0.0
 10
189.2539159329527
 20
111.3736959740595
 30
0.0
 10
188.9656079016081
 20
111.1395734060898
 30
0.0
 10
188.8615830862603
 20
111.0714169967266
 30
0.0
 10
188.6371638280815
 20
110.9527060575025
 30
0.0
 10
188.515233040221
 20
110.9017841211342
 30
0.0
 10
188.262775888795
 20
110.8208342863125
 30
0.0
 10
188.1318893588778
 20
110.7902989673135
 30
0.0
 10
187.859948441165
 20
110.7487409385691
 30
0.0
 10
187.7180666908325
 20
110.7379333892289
 30
0.0
 10
187.5768684668527
 20
110.7379333892289
 30
0.0
  0
SPLINE
  5
11F
330
1F
100
AcDbEntity
  8
0
  6
HIDDEN
 62
     7
370
     0
100
AcDbSpline
210
0.0
220
0.0
230
1.0
 70
     8
 71
     3
 72
     8
 73
     4
 74
     0
 42
0.000000001
 43
0.00000001
 40
0.0
 40
0.0
 40
0.0
 40
0.0
 40
1.0
 40
1.0
 40
1.0
 40
1.0
 10
186.7536882906932
 20
104.2065059889781
 30
0.0
 10
186.9651156806945
 20
104.1989964791956
 30
0.0
 10
187.1675842272272
 20
104.1448729495609
 30
0.0
 10
187.3537948263645
 20
104.0601446623357
 30
0.0
  0
SPLINE
  5
120
330
1F
100
AcDbEntity
  8
0
  6
HIDDEN
 62
     7
370
     0
100
AcDbSpline
210
0.0
220
0.0
230
1.0
 70
     8
 71
     3
 72
     8
 73
     4
 74
     0
 42
0.000000001
 43
0.00000001
 40
0.0
 40
0.0
 40
0.0
 40
0.0
 40
1.0
 40
1.0
 40
1.0
 40
1.0
 10
187.3537948263645
 20
100.1357658944015
 30
0.0
 10
187.1672704770801
 20
100.258086310302
 30
0.0
 10
186.9647155785545
 20
100.3991714709667
 30
0.0
 10
186.7536882906933
 20
100.5756551067515
 30
0.0
  0
LINE
  5
121
330
1F
100
AcDbEntity
  8
0
  6
HIDDEN
 62
     7
370
     0
100
AcDbLine
 10
176.7484412873
 20
78.6750265224
 30
0.0
 11
176.576868386
 21
78.6750265224
 31
0.0
  0
ELLIPSE
  5
122
330
1F
100
AcDbEntity
  8
0
  6
HIDDEN
 62
     7
370
     0
100
AcDbEllipse
 10
176.7484413421
 20
76.6750280245
 30
0.0
 11
0.0
 21
2.0
 31
0.0
210
0.0
220
0.0
230
1.0
 40
0.4142135624
 41
4.712388980384702
 42
6.283185307179586
  0
LINE
  5
123
330
1F
100
AcDbEntity
  8
0
  6
HIDDEN
 62
     7
370
     0
100
AcDbLine
 10
176.576868386
 20
151.4750295146
 30
0.0
 11
176.7484412873
 21
151.4750295146
 31
0.0
  0
ELLIPSE
  5
124
330
1F
100
AcDbEntity
  8
0
  6
HIDDEN
 62
     7
370
     0
100
AcDbEllipse
 10
176.7484413421
 20
153.4750280245
 30
0.0
 11
0.0
 21
2.0
 31
0.0
210
0.0
220
0.0
230
1.0
 40
0.4142135624
 41
3.141592653589793
 42
4.712388980384695
  0
LINE
  5
125
330
1F
100
AcDbEntity
  8
0
  6
HIDDEN
 62
     7
370
     0
100
AcDbLine
 10
177.5768683171
 20
67.7891135974
 30
0.0
 11
176.7925284682
 21
67.3415721221
 31
0.0
  0
LINE
  5
126
330
1F
100
AcDbEntity
  8
0
  6
HIDDEN
 62
     7
370
     0
100
AcDbLine
 10
176.8667374151
 20
160.6851913793
 30
0.0
 11
177.5768683171
 21
159.9750616415
 31
0.0
  0
LINE
  5
127
330
1F
100
AcDbEntity
  8
0
  6
HIDDEN
 62
     7
370
     0
100
AcDbLine
 10
192.4268687023
 20
78.6750265224
 30
0.0
 11
176.7484412873
 21
78.6750265224
 31
0.0
  0
LINE
  5
128
330
1F
100
AcDbEntity
  8
0
  6
HIDDEN
 62
     7
370
     0
100
AcDbLine
 10
181.6968209921
 20
67.7891135974
 30
0.0
 11
177.5768683171
 21
67.7891135974
 31
0.0
  0
LINE
  5
129
330
1F
100
AcDbEntity
  8
0
  6
HIDDEN
 62
     7
370
     0
100
AcDbLine
 10
192.4268687023
 20
67.7891135974
 30
0.0
 11
187.256916414
 21
67.7891135974
 31
0.0
  0
LINE
  5
12A
330
1F
100
AcDbEntity
  8
0
  6
HIDDEN
 62
     7
370
     0
100
AcDbLine
 10
177.5768683171
 20
67.7891135974
 30
0.0
 11
177.5768683171
 21
76.6750261946
 31
0.0
  0
LINE
  5
12B
330
1F
100
AcDbEntity
  8
0
  6
HIDDEN
 62
     7
370
     0
100
AcDbLine
 10
177.5768683171
 20
159.9750616415
 30
0.0
 11
181.8001977978
 21
159.9750616415
 31
0.0
  0
LINE
  5
12C
330
1F
100
AcDbEntity
  8
0
  6
HIDDEN
 62
     7
370
     0
100
AcDbLine
 10
187.1535396082
 20
159.9750616415
 30
0.0
 11
192.4268687023
 21
159.9750616415
 31
0.0
  0
LINE
  5
12D
330
1F
100
AcDbEntity
  8
0
  6
HIDDEN
 62
     7
370
     0
100
AcDbLine
 10
177.5768683171
 20
159.9750616415
 30
0.0
 11
177.5768683171
 21
153.4750298424
 31
0.0
  0
LINE
  5
12E
330
1F
100
AcDbEntity
  8
0
  6
HIDDEN
 62
     7
370
     0
100
AcDbLine
 10
176.7484412873
 20
151.4750295146
 30
0.0
 11
192.4268687023
 21
151.4750295146
 31
0.0
  0
LINE
  5
12F
330
1F
100
AcDbEntity
  8
0
  6
HIDDEN
 62
     7
370
     0
100
AcDbLine
 10
81.7768676085
 20
101.4750278382
 30
0.0
 11
81.7768676085
 21
126.4750282107
 31
0.0
  0
LINE
  5
130
330
1F
100
AcDbEntity
  8
0
  6
HIDDEN
 62
     7
370
     0
100
AcDbLine
 10
85.0614709659
 20
103.475028166
 30
0.0
 11
85.0614709659
 21
124.4750278829
 31
0.0
  0
LINE
  5
131
330
1F
100
AcDbEntity
  8
0
  6
HIDDEN
 62
     7
370
     0
100
AcDbLine
 10
133.7768686814
 20
103.475028166
 30
0.0
 11
133.7768686814
 21
124.4750278829
 31
0.0
  0
LINE
  5
132
330
1F
100
AcDbEntity
  8
0
  6
HIDDEN
 62
     7
370
     0
100
AcDbLine
 10
138.0029423041
 20
109.7250277935
 30
0.0
 11
138.0029423041
 21
118.2250282554
 31
0.0
  0
CIRCLE
  5
133
330
1F
100
AcDbEntity
  8
0
  6
HIDDEN
 62
     7
370
     0
100
AcDbCircle
 10
226.7768684669
 20
113.9750280245
 30
0.0
 40
2.100000000000009
  0
LINE
  5
134
330
1F
100
AcDbEntity
  8
0
  6
HIDDEN
 62
     7
370
     0
100
AcDbLine
 10
232.1268683178
 20
109.8682391284
 30
0.0
 11
232.1268683178
 21
118.0818169205
 31
0.0
  0
LINE
  5
135
330
1F
100
AcDbEntity
  8
0
  6
HIDDEN
 62
     7
370
     0
100
AcDbLine
 10
230.8278297884
 20
112.2796297832
 30
0.0
 11
230.8278297884
 21
115.6704262657
 31
0.0
  0
LINE
  5
136
330
1F
100
AcDbEntity
  8
0
  6
HIDDEN
 62
     7
370
     0
100
AcDbLine
 10
230.12686799
 20
112.2796297832
 30
0.0
 11
230.12686799
 21
115.6704262657
 31
0.0
  0
LINE
  5
137
330
1F
100
AcDbEntity
  8
0
  6
HIDDEN
 62
     7
370
     0
100
AcDbLine
 10
230.12686799
 20
118.8750280826
 30
0.0
 11
230.12686799
 21
115.6704262657
 31
0.0
  0
LINE
  5
138
330
1F
100
AcDbEntity
  8
0
  6
HIDDEN
 62
     7
370
     0
100
AcDbLine
 10
230.12686799
 20
115.6704262657
 30
0.0
 11
230.8278297884
 21
115.6704262657
 31
0.0
  0
SPLINE
  5
139
330
1F
100
AcDbEntity
  8
0
  6
HIDDEN
 62
     7
370
     0
100
AcDbSpline
210
0.0
220
0.0
230
1.0
 70
     8
 71
     3
 72
    10
 73
     6
 74
     0
 42
0.000000001
 43
0.00000001
 40
0.0
 40
0.0
 40
0.0
 40
0.0
 40
0.5
 40
0.5
 40
1.0
 40
1.0
 40
1.0
 40
1.0
 10
230.827830361176
 20
115.6704262077753
 30
0.0
 10
230.9884848781884
 20
116.0260362008234
 30
0.0
 10
231.1860872036675
 20
116.3611383948321
 30
0.0
 10
231.6282013993097
 20
117.0053057442446
 30
0.0
 10
231.8724772429583
 20
117.3131716242245
 30
0.0
 10
232.1268684668526
 20
117.6064017314717
 30
0.0
  0
LINE
  5
13A
330
1F
100
AcDbEntity
  8
0
  6
HIDDEN
 62
     7
370
     0
100
AcDbLine
 10
232.4444232388
 20
121.0660203187
 30
0.0
 11
232.371947716
 21
121.0549301295
 31
0.0
  0
LINE
  5
13B
330
1F
100
AcDbEntity
  8
0
  6
HIDDEN
 62
     7
370
     0
100
AcDbLine
 10
230.12686799
 20
121.0549301295
 30
0.0
 11
232.371947716
 21
121.0549301295
 31
0.0
  0
LINE
  5
13C
330
1F
100
AcDbEntity
  8
0
  6
HIDDEN
 62
     7
370
     0
100
AcDbLine
 10
230.12686799
 20
121.0750280707
 30
0.0
 11
230.12686799
 21
118.8750280826
 31
0.0
  0
LINE
  5
13D
330
1F
100
AcDbEntity
  8
0
  6
HIDDEN
 62
     7
370
     0
100
AcDbLine
 10
230.12686799
 20
112.2796297832
 30
0.0
 11
230.12686799
 21
109.0750279663
 31
0.0
  0
LINE
  5
13E
330
1F
100
AcDbEntity
  8
0
  6
HIDDEN
 62
     7
370
     0
100
AcDbLine
 10
230.8278297884
 20
112.2796297832
 30
0.0
 11
230.12686799
 21
112.2796297832
 31
0.0
  0
SPLINE
  5
13F
330
1F
100
AcDbEntity
  8
0
  6
HIDDEN
 62
     7
370
     0
100
AcDbSpline
210
0.0
220
0.0
230
1.0
 70
     8
 71
     3
 72
    10
 73
     6
 74
     0
 42
0.000000001
 43
0.00000001
 40
0.0
 40
0.0
 40
0.0
 40
0.0
 40
0.5
 40
0.5
 40
1.0
 40
1.0
 40
1.0
 40
1.0
 10
232.1268684668524
 20
110.3436543174414
 30
0.0
 10
231.8705676017217
 20
110.6390856181731
 30
0.0
 10
231.6261411955866
 20
110.9475641541538
 30
0.0
 10
231.1855608801016
 20
111.589873521582
 30
0.0
 10
230.9883762035417
 20
111.9242604002451
 30
0.0
 10
230.8278303611759
 20
112.279629841138
 30
0.0
  0
LINE
  5
140
330
1F
100
AcDbEntity
  8
0
  6
HIDDEN
 62
     7
370
     0
100
AcDbLine
 10
232.371947716
 20
106.8951259194
 30
0.0
 11
232.4444232388
 21
106.8840357302
 31
0.0
  0
LINE
  5
141
330
1F
100
AcDbEntity
  8
0
  6
HIDDEN
 62
     7
370
     0
100
AcDbLine
 10
230.12686799
 20
106.8951259194
 30
0.0
 11
232.371947716
 21
106.8951259194
 31
0.0
  0
LINE
  5
142
330
1F
100
AcDbEntity
  8
0
  6
HIDDEN
 62
     7
370
     0
100
AcDbLine
 10
230.12686799
 20
109.0750279663
 30
0.0
 11
230.12686799
 21
106.8750279783
 31
0.0
  0
LINE
  5
143
330
1F
100
AcDbEntity
  8
0
  6
HIDDEN
 62
     7
370
     0
100
AcDbLine
 10
229.6268669767
 20
108.4750280543
 30
0.0
 11
229.6268669767
 21
119.4750279947
 31
0.0
  0
LINE
  5
144
330
1F
100
AcDbEntity
  8
0
  6
HIDDEN
 62
     7
370
     0
100
AcDbLine
 10
220.4768685503
 20
108.8750278404
 30
0.0
 11
220.4768685503
 21
119.0750282085
 31
0.0
  0
LINE
  5
145
330
1F
100
AcDbEntity
  8
0
  6
HIDDEN
 62
     7
370
     0
100
AcDbLine
 10
222.4768688781
 20
108.4750280543
 30
0.0
 11
222.4768688781
 21
119.4750279947
 31
0.0
  0
SPLINE
  5
146
330
1F
100
AcDbEntity
  8
0
  6
HIDDEN
 62
     7
370
     0
100
AcDbSpline
210
0.0
220
0.0
230
1.0
 70
    11
 71
     3
 72
    62
 73
    58
 74
     0
 42
0.000000001
 43
0.00000001
 40
0.0
 40
0.0
 40
0.0
 40
0.0
 40
0.0312499999999999
 40
0.0312499999999999
 40
0.0624999999999997
 40
0.0624999999999997
 40
0.1249999999999991
 40
0.1249999999999991
 40
0.1874999999999985
 40
0.1874999999999985
 40
0.2187499999999983
 40
0.2187499999999983
 40
0.2499999999999982
 40
0.2499999999999982
 40
0.2812499999999981
 40
0.2812499999999981
 40
0.3124999999999979
 40
0.3124999999999979
 40
0.3437499999999978
 40
0.3437499999999978
 40
0.3749999999999977
 40
0.3749999999999977
 40
0.4374999999999974
 40
0.4374999999999974
 40
0.4687499999999974
 40
0.4687499999999974
 40
0.4999999999999974
 40
0.4999999999999974
 40
0.5312499999999976
 40
0.5312499999999976
 40
0.5624999999999977
 40
0.5624999999999977
 40
0.5937499999999977
 40
0.5937499999999977
 40
0.6249999999999978
 40
0.6249999999999978
 40
0.6562499999999979
 40
0.6562499999999979
 40
0.687499999999998
 40
0.687499999999998
 40
0.7187499999999981
 40
0.7187499999999981
 40
0.7499999999999981
 40
0.7499999999999981
 40
0.7812499999999982
 40
0.7812499999999982
 40
0.8124999999999983
 40
0.8124999999999983
 40
0.8749999999999988
 40
0.8749999999999988
 40
0.9062499999999991
 40
0.9062499999999991
 40
0.9374999999999993
 40
0.9374999999999993
 40
0.9687499999999997
 40
0.9687499999999997
 40
1.0
 40
1.0
 40
1.0
 40
1.0
 10
187.5768684668527
 20
113.2654136523836
 30
0.0
 10
187.7180666908325
 20
113.2654136523836
 30
0.0
 10
187.8563445678463
 20
113.2814250623751
 30
0.0
 10
188.1275106390542
 20
113.343154627998
 30
0.0
 10
188.2617139665136
 20
113.3896923914527
 30
0.0
 10
188.6407771463038
 20
113.5666687201877
 30
0.0
 10
188.8697840679976
 20
113.7370950138969
 30
0.0
 10
189.2508146870004
 20
114.1429812913202
 30
0.0
 10
189.406437763922
 20
114.3826517326562
 30
0.0
 10
189.5655082404907
 20
114.7631285599728
 30
0.0
 10
189.607235385634
 20
114.8963972952779
 30
0.0
 10
189.6625060867761
 20
115.1613785309067
 30
0.0
 10
189.6765860182659
 20
115.2933438456246
 30
0.0
 10
189.6771425845871
 20
115.5560211554388
 30
0.0
 10
189.6631533071665
 20
115.6864010193964
 30
0.0
 10
189.6086717879308
 20
115.9327449501195
 30
0.0
 10
189.5678213297759
 20
116.0513992201024
 30
0.0
 10
189.4612073629165
 20
116.2742254868577
 30
0.0
 10
189.3964552206435
 20
116.3769105978421
 30
0.0
 10
189.2448966786909
 20
116.5670338507555
 30
0.0
 10
189.1575585555178
 20
116.6545406419748
 30
0.0
 10
188.8717821345563
 20
116.8868081374235
 30
0.0
 10
188.6422457860905
 20
117.007256880066
 30
0.0
 10
188.2659276500962
 20
117.1283534723677
 30
0.0
 10
188.1335947417355
 20
117.159461605804
 30
0.0
 10
187.8595620827447
 20
117.2014088453596
 30
0.0
 10
187.7215369231226
 20
117.2118390799692
 30
0.0
 10
187.4434655419038
 20
117.212394978836
 30
0.0
 10
187.3017526032335
 20
117.202116520006
 30
0.0
 10
187.0293303475532
 20
117.1612933353128
 30
0.0
 10
186.8975022030561
 20
117.1309999994381
 30
0.0
 10
186.6421033074515
 20
117.0497328091471
 30
0.0
 10
186.5219373042622
 20
116.9997849582888
 30
0.0
 10
186.2967658917059
 20
116.8814637470908
 30
0.0
 10
186.1906148303715
 20
116.8121706380083
 30
0.0
 10
185.9991675416693
 20
116.6573559894145
 30
0.0
 10
185.9132335277498
 20
116.5717700015439
 30
0.0
 10
185.7608212097097
 20
116.3820863294669
 30
0.0
 10
185.6946377194223
 20
116.2776650683963
 30
0.0
 10
185.5884560208712
 20
116.057633728589
 30
0.0
 10
185.5474759576554
 20
115.9409852424795
 30
0.0
 10
185.491395816858
 20
115.6925838614902
 30
0.0
 10
185.4771716414168
 20
115.5634738726861
 30
0.0
 10
185.4765749575453
 20
115.3022188068539
 30
0.0
 10
185.4903435250437
 20
115.1674125161812
 30
0.0
 10
185.5451935919858
 20
114.9009574018268
 30
0.0
 10
185.5856901052622
 20
114.7702234671282
 30
0.0
 10
185.7451525764384
 20
114.3858080131247
 30
0.0
 10
185.8998210007526
 20
114.1466489812479
 30
0.0
 10
186.1881290320972
 20
113.838989621804
 30
0.0
 10
186.292153847445
 20
113.7463165050397
 30
0.0
 10
186.5165731056238
 20
113.5811736624001
 30
0.0
 10
186.6385038934843
 20
113.5081327937209
 30
0.0
 10
186.8909610449103
 20
113.3901108774486
 30
0.0
 10
187.0218475748275
 20
113.3444631718309
 30
0.0
 10
187.2937884925403
 20
113.2819427323636
 30
0.0
 10
187.4356702428728
 20
113.2654136523836
 30
0.0
 10
187.5768684668527
 20
113.2654136523836
 30
0.0
  0
LINE
  5
147
330
1F
100
AcDbEntity
  8
0
  6
HIDDEN
 62
     7
370
     0
100
AcDbLine
 10
232.371947716
 20
105.9500281526
 30
0.0
 11
232.371947716
 21
106.8951259194
 31
0.0
  0
LINE
  5
148
330
1F
100
AcDbEntity
  8
0
  6
HIDDEN
 62
     7
370
     0
100
AcDbLine
 10
232.371947716
 20
121.0549301295
 30
0.0
 11
232.371947716
 21
122.0000278963
 31
0.0
  0
LINE
  5
149
330
1F
100
AcDbEntity
  8
0
  6
HIDDEN
 62
     7
370
     0
100
AcDbLine
 10
230.12686799
 20
122.0000278963
 30
0.0
 11
230.12686799
 21
121.0549301295
 31
0.0
  0
LINE
  5
14A
330
1F
100
AcDbEntity
  8
0
  6
HIDDEN
 62
     7
370
     0
100
AcDbLine
 10
230.12686799
 20
106.8951259194
 30
0.0
 11
230.12686799
 21
105.9500281526
 31
0.0
  0
SPLINE
  5
14B
330
1F
100
AcDbEntity
  8
0
  6
HIDDEN
 62
     7
370
     0
100
AcDbSpline
210
0.0
220
0.0
230
1.0
 70
     8
 71
     3
 72
     8
 73
     4
 74
     0
 42
0.000000001
 43
0.00000001
 40
0.0
 40
0.0
 40
0.0
 40
0.0
 40
1.0
 40
1.0
 40
1.0
 40
1.0
 10
186.7536882906932
 20
123.7435500599353
 30
0.0
 10
186.9651156806944
 20
123.7510595697178
 30
0.0
 10
187.1675842272271
 20
123.8051830993525
 30
0.0
 10
187.3537948263645
 20
123.8899113865776
 30
0.0
  0
ELLIPSE
  5
14C
330
1F
100
AcDbEntity
  8
0
  6
HIDDEN
 62
     7
370
     0
100
AcDbEllipse
 10
187.5768684669
 20
125.7055381358
 30
0.0
 11
-1.760776919379083
 21
2.232245799914452
 31
0.0
210
0.0
220
0.0
230
1.0
 40
0.5126701559
 41
5.395150933160742
 42
8.323890913123083
  0
SPLINE
  5
14D
330
1F
100
AcDbEntity
  8
0
  6
HIDDEN
 62
     7
370
     0
100
AcDbSpline
210
0.0
220
0.0
230
1.0
 70
     8
 71
     3
 72
     8
 73
     4
 74
     0
 42
0.000000001
 43
0.00000001
 40
0.0
 40
0.0
 40
0.0
 40
0.0
 40
1.0
 40
1.0
 40
1.0
 40
1.0
 10
187.3537948263653
 20
127.8142901545123
 30
0.0
 10
187.1672704770805
 20
127.6919697386116
 30
0.0
 10
186.9647155785544
 20
127.5508845779465
 30
0.0
 10
186.7536882906926
 20
127.3744009421612
 30
0.0
  0
ELLIPSE
  5
14E
330
1F
100
AcDbEntity
  8
0
  6
HIDDEN
 62
     7
370
     0
100
AcDbEllipse
 10
187.5768684669
 20
125.7055381358
 30
0.0
 11
1.760776919379055
 21
1.388886188042946
 31
0.0
210
0.0
220
0.0
230
1.0
 40
0.8239737799
 41
1.397255033323913
 42
3.733259041931017
  0
LWPOLYLINE
  5
14F
330
1F
100
AcDbEntity
  8
0
  6
HIDDEN
 62
     7
370
     0
100
AcDbPolyline
 90
       20
 70
   128
 43
0.0
 10
187.5768685592
 20
125.4599648355
 10
188.2587373136
 20
125.5668871863
 10
188.8667149348
 20
125.876065792
 10
189.3349187328
 20
126.3539972542
 10
189.6126093222
 20
126.9488897933
 10
189.6696956707
 20
127.5962781919
 10
189.4999919338
 20
128.2260068519
 10
189.121888007
 20
128.7698359056
 10
188.5763583584
 20
129.168833123
 10
187.9225168256
 20
129.379759991
 10
187.2312202929
 20
129.379759991
 10
186.5773787601
 20
129.168833123
 10
186.0318481801
 20
128.7698359056
 10
185.6537442533
 20
128.2260068519
 10
185.4840414478
 20
127.5962781919
 10
185.5411277963
 20
126.9488897933
 10
185.818819317
 20
126.3539972542
 10
186.2870221837
 20
125.876065792
 10
186.8949998049
 20
125.5668871863
 10
187.5768685592
 20
125.4599648355
  0
LINE
  5
150
330
1F
100
AcDbEntity
  8
0
  6
HIDDEN
 62
     7
370
     0
100
AcDbLine
 10
182.5668681292
 20
149.368072377
 30
0.0
 11
182.5668681292
 21
143.82502854
 31
0.0
  0
LINE
  5
151
330
1F
100
AcDbEntity
  8
0
  6
HIDDEN
 62
     7
370
     0
100
AcDbLine
 10
186.3868683456
 20
149.368072377
 30
0.0
 11
186.3868683456
 21
143.82502854
 31
0.0
  0
SPLINE
  5
152
330
1F
100
AcDbEntity
  8
0
  6
HIDDEN
 62
     7
370
     0
100
AcDbSpline
210
0.0
220
0.0
230
1.0
 70
     8
 71
     3
 72
    14
 73
    10
 74
     0
 42
0.000000001
 43
0.00000001
 40
0.0
 40
0.0
 40
0.0
 40
0.0
 40
0.25
 40
0.25
 40
0.5
 40
0.5
 40
0.75
 40
0.75
 40
1.0
 40
1.0
 40
1.0
 40
1.0
 10
185.5868684668525
 20
130.9503175813905
 30
0.0
 10
185.6612940189871
 20
131.0411750361721
 30
0.0
 10
185.7431722786005
 20
131.1303856193778
 30
0.0
 10
185.9161584247761
 20
131.3058099381698
 30
0.0
 10
186.0068302446371
 20
131.3913448937965
 30
0.0
 10
186.1741937939815
 20
131.552196506735
 30
0.0
 10
186.250644618948
 20
131.6279285956314
 30
0.0
 10
186.3569377037864
 20
131.7595196192069
 30
0.0
 10
186.3868684668527
 20
131.8165197941132
 30
0.0
 10
186.3868684668527
 20
131.8587170670652
 30
0.0
  0
LINE
  5
153
330
1F
100
AcDbEntity
  8
0
  6
HIDDEN
 62
     7
370
     0
100
AcDbLine
 10
186.3868683456
 20
100.1777662723
 30
0.0
 11
186.3868683456
 21
96.045725496
 31
0.0
  0
SPLINE
  5
154
330
1F
100
AcDbEntity
  8
0
  6
HIDDEN
 62
     7
370
     0
100
AcDbSpline
210
0.0
220
0.0
230
1.0
 70
     8
 71
     3
 72
    14
 73
    10
 74
     0
 42
0.000000001
 43
0.00000001
 40
0.0
 40
0.0
 40
0.0
 40
0.0
 40
0.25
 40
0.25
 40
0.5
 40
0.5
 40
0.75
 40
0.75
 40
1.0
 40
1.0
 40
1.0
 40
1.0
 10
186.3868684668527
 20
127.7266758684337
 30
0.0
 10
186.3868684668527
 20
127.6841754507792
 30
0.0
 10
186.3571550080359
 20
127.6569035442966
 30
0.0
 10
186.2510736411437
 20
127.6433507703294
 30
0.0
 10
186.1747067119792
 20
127.6577963274704
 30
0.0
 10
186.0059471674507
 20
127.7301724914902
 30
0.0
 10
185.9151503549788
 20
127.7872454266076
 30
0.0
 10
185.7435854147715
 20
127.9284033601245
 30
0.0
 10
185.661524174477
 20
128.0129805752081
 30
0.0
 10
185.5868684668525
 20
128.1063537383374
 30
0.0
  0
LINE
  5
155
330
1F
100
AcDbEntity
  8
0
  6
HIDDEN
 62
     7
370
     0
100
AcDbLine
 10
187.7100299923
 20
99.677880743
 30
0.0
 11
187.7100299923
 21
94.9860871597
 31
0.0
  0
LINE
  5
156
330
1F
100
AcDbEntity
  8
0
  6
HIDDEN
 62
     7
370
     0
100
AcDbLine
 10
187.7100299923
 20
152.4861068292
 30
0.0
 11
187.7100299923
 21
143.82502854
 31
0.0
  0
LINE
  5
157
330
1F
100
AcDbEntity
  8
0
  6
HIDDEN
 62
     7
370
     0
100
AcDbLine
 10
181.2437074138
 20
152.4861068292
 30
0.0
 11
181.2437074138
 21
143.82502854
 31
0.0
  0
ARC
  5
158
330
1F
100
AcDbEntity
  8
0
  6
HIDDEN
 62
     7
370
     0
100
AcDbCircle
 10
187.8229212288
 20
126.5450156998
 30
0.0
 40
1.353195702694755
100
AcDbArc
 50
110.2844232439
 51
142.1998959299
  0
ARC
  5
159
330
1F
100
AcDbEntity
  8
0
  6
HIDDEN
 62
     7
370
     0
100
AcDbCircle
 10
186.8802689983
 20
124.5279982547
 30
0.0
 40
0.794594954225799
100
AcDbArc
 50
260.8336111241
 51
306.5791809456
  0
LWPOLYLINE
  5
15A
330
1F
100
AcDbEntity
  8
0
  6
HIDDEN
 62
     7
370
     0
100
AcDbPolyline
 90
       20
 70
   128
 43
0.0
 10
177.6116313292
 20
126.687979774
 10
177.7859199671
 20
126.1896244077
 10
178.0664077839
 20
125.8674715473
 10
178.4226996703
 20
125.7564327507
 10
178.8161862521
 20
125.8685379116
 10
179.2042264594
 20
126.1916416524
 10
179.5447706124
 20
126.6907281069
 10
179.8009155197
 20
127.3117153732
 10
179.944903112
 20
127.9873098074
 10
179.9611309422
 20
128.6442992105
 10
179.8478402076
 20
129.2114886282
 10
179.6173080681
 20
129.6274144961
 10
179.294515389
 20
129.847005458
 10
178.9144426463
 20
129.8464652909
 10
178.5182761839
 20
129.6258517368
 10
178.1489467127
 20
129.2090727775
 10
177.8464768892
 20
128.6412919699
 10
177.6436441457
 20
127.9840371399
 10
177.5624286262
 20
127.3085321127
 10
177.6116313292
 20
126.687979774
  0
LWPOLYLINE
  5
15B
330
1F
100
AcDbEntity
  8
0
  6
HIDDEN
 62
     7
370
     0
100
AcDbPolyline
 90
       24
 70
   128
 43
0.0
 10
176.8485994423
 20
126.2689637779
 10
177.0423925361
 20
125.664619246
 10
177.3441117136
 20
125.2245711921
 10
177.7313798545
 20
124.9814559533
 10
178.1754745049
 20
124.9533039345
 10
178.6434599077
 20
125.1422040923
 10
179.1006270675
 20
125.5341446786
 10
179.5130707203
 20
126.1000591157
 10
179.8502011104
 20
126.797974558
 10
180.0870150207
 20
127.5761308907
 10
180.2059491044
 20
128.3768159164
 10
180.1981828054
 20
129.1406457139
 10
180.0642916812
 20
129.810970725
 10
179.8142064242
 20
130.3380769505
 10
179.4664738579
 20
130.6828693314
 10
179.0468846327
 20
130.8197774751
 10
178.5865570298
 20
130.738648103
 10
178.119631472
 20
130.4454975589
 10
177.6807382582
 20
129.9620684995
 10
177.3024280435
 20
129.3242121874
 10
177.0127576189
 20
128.5792370154
 10
176.8332111994
 20
127.7823946266
 10
176.777104835
 20
126.9927830262
 10
176.8485994423
 20
126.2689637779
  0
LWPOLYLINE
  5
15C
330
1F
100
AcDbEntity
  8
0
  6
HIDDEN
 62
     7
370
     0
100
AcDbPolyline
 90
       22
 70
   128
 43
0.0
 10
187.5768685592
 20
125.1338817938
 10
188.313756126
 20
125.2382513894
 10
188.9851689218
 20
125.5420869975
 10
189.5314464225
 20
126.0183914392
 10
189.9040536834
 20
126.6248426227
 10
190.0698775305
 20
127.3075551553
 10
190.0141881658
 20
128.0058664097
 10
189.7419327749
 20
128.6577298133
 10
189.2772996677
 20
129.2052217586
 10
188.6615780992
 20
129.5996983363
 10
187.9494739575
 20
129.8061054958
 10
187.2042631609
 20
129.8061054958
 10
186.4921590192
 20
129.5996983363
 10
185.8764365194
 20
129.2052217586
 10
185.4118052749
 20
128.6577298133
 10
185.1395489527
 20
128.0058664097
 10
185.0838586567
 20
127.3075551553
 10
185.2496843664
 20
126.6248426227
 10
185.6222897647
 20
126.0183914392
 10
186.1685681967
 20
125.5420869975
 10
186.8399809925
 20
125.2382513894
 10
187.5768685592
 20
125.1338817938
  0
SPLINE
  5
15D
330
1F
100
AcDbEntity
  8
0
  6
HIDDEN
 62
     7
370
     0
100
AcDbSpline
210
0.0
220
0.0
230
1.0
 70
     8
 71
     3
 72
    34
 73
    30
 74
     0
 42
0.000000001
 43
0.00000001
 40
0.0
 40
0.0
 40
0.0
 40
0.0
 40
0.0624999999999983
 40
0.0624999999999983
 40
0.1249999999999966
 40
0.1249999999999966
 40
0.1874999999999949
 40
0.1874999999999949
 40
0.2499999999999937
 40
0.2499999999999937
 40
0.3124999999999935
 40
0.3124999999999935
 40
0.3749999999999933
 40
0.3749999999999933
 40
0.4999999999999938
 40
0.4999999999999938
 40
0.6249999999999942
 40
0.6249999999999942
 40
0.6874999999999952
 40
0.6874999999999952
 40
0.7499999999999961
 40
0.7499999999999961
 40
0.8124999999999971
 40
0.8124999999999971
 40
0.8749999999999981
 40
0.8749999999999981
 40
0.937499999999999
 40
0.937499999999999
 40
1.0
 40
1.0
 40
1.0
 40
1.0
 10
187.7100299743146
 20
132.9639684124578
 30
0.0
 10
187.8694218021024
 20
132.9561283165351
 30
0.0
 10
188.025424285546
 20
132.9344696684446
 30
0.0
 10
188.3309338016232
 20
132.8646214409518
 30
0.0
 10
188.4818281366354
 20
132.8157957386236
 30
0.0
 10
188.7697274813262
 20
132.6928717852163
 30
0.0
 10
188.905673884286
 20
132.6195642770819
 30
0.0
 10
189.161856499878
 20
132.4495536533106
 30
0.0
 10
189.2830387876371
 20
132.3516798611091
 30
0.0
 10
189.5001848595099
 20
132.1390956856772
 30
0.0
 10
189.5971467324702
 20
132.0240497471476
 30
0.0
 10
189.7677091682957
 20
131.7761886270274
 30
0.0
 10
189.8409492215077
 20
131.6431551299619
 30
0.0
 10
190.0158296782565
 20
131.2336471138317
 30
0.0
 10
190.0768676392325
 20
130.9356864640567
 30
0.0
 10
190.0768692944555
 20
130.3442449081822
 30
0.0
 10
190.0158346848693
 20
130.0440713582056
 30
0.0
 10
189.8409449174673
 20
129.6288400779378
 30
0.0
 10
189.7677012120429
 20
129.493484959691
 30
0.0
 10
189.5971404963063
 20
129.2405856283044
 30
0.0
 10
189.5001767807128
 20
129.1228203506966
 30
0.0
 10
189.2830164521257
 20
128.904690055328
 30
0.0
 10
189.1618351934388
 20
128.803986730181
 30
0.0
 10
188.9056649665001
 20
128.6287430373478
 30
0.0
 10
188.7697216168374
 20
128.5529980682572
 30
0.0
 10
188.4818189136542
 20
128.4258296929549
 30
0.0
 10
188.3309287177375
 20
128.3752284206275
 30
0.0
 10
188.0254232140319
 20
128.3027993208796
 30
0.0
 10
187.8694218157684
 20
128.2803135494826
 30
0.0
 10
187.7100299743146
 20
128.2721750895878
 30
0.0
  0
SPLINE
  5
15E
330
1F
100
AcDbEntity
  8
0
  6
HIDDEN
 62
     7
370
     0
100
AcDbSpline
210
0.0
220
0.0
230
1.0
 70
     8
 71
     3
 72
    10
 73
     6
 74
     0
 42
0.000000001
 43
0.00000001
 40
0.0
 40
0.0
 40
0.0
 40
0.0
 40
0.5
 40
0.5
 40
1.0
 40
1.0
 40
1.0
 40
1.0
 10
187.7100299743146
 20
128.2721750895878
 30
0.0
 10
187.4873029474411
 20
128.128686589294
 30
0.0
 10
187.265617060216
 20
128.0139658435611
 30
0.0
 10
186.824396222364
 20
127.8442054142033
 30
0.0
 10
186.6048375749652
 20
127.7887854198159
 30
0.0
 10
186.3868684668529
 20
127.7722900904462
 30
0.0
  0
SPLINE
  5
15F
330
1F
100
AcDbEntity
  8
0
  6
HIDDEN
 62
     7
370
     0
100
AcDbSpline
210
0.0
220
0.0
230
1.0
 70
     8
 71
     3
 72
    10
 73
     6
 74
     0
 42
0.000000001
 43
0.00000001
 40
0.0
 40
0.0
 40
0.0
 40
0.0
 40
0.5
 40
0.5
 40
1.0
 40
1.0
 40
1.0
 40
1.0
 10
186.3868684668529
 20
131.9043312890778
 30
0.0
 10
186.6037592993737
 20
132.1413702285263
 30
0.0
 10
186.8229119360326
 20
132.3435404635198
 30
0.0
 10
187.2643964363014
 20
132.6942925350385
 30
0.0
 10
187.4875989015748
 20
132.8429686274353
 30
0.0
 10
187.7100299743146
 20
132.9639684124578
 30
0.0
  0
SPLINE
  5
160
330
1F
100
AcDbEntity
  8
0
  6
HIDDEN
 62
     7
370
     0
100
AcDbSpline
210
0.0
220
0.0
230
1.0
 70
     8
 71
     3
 72
    16
 73
    12
 74
     0
 42
0.000000001
 43
0.00000001
 40
0.0
 40
0.0
 40
0.0
 40
0.0
 40
0.2500000000000011
 40
0.2500000000000011
 40
0.5000000000000022
 40
0.5000000000000022
 40
0.7500000000000033
 40
0.7500000000000033
 40
0.8750000000000017
 40
0.8750000000000017
 40
1.0
 40
1.0
 40
1.0
 40
1.0
 10
185.5868684668526
 20
128.1063537383371
 30
0.0
 10
185.4214543603725
 20
128.3132399743625
 30
0.0
 10
185.2952570293969
 20
128.5391086721714
 30
0.0
 10
185.120850731066
 20
129.0279779177842
 30
0.0
 10
185.0770206919692
 20
129.2797449711288
 30
0.0
 10
185.0767170189992
 20
129.791524295711
 30
0.0
 10
185.1205738790595
 20
130.0425790047937
 30
0.0
 10
185.2504956383266
 20
130.4034275729357
 30
0.0
 10
185.3046104497346
 20
130.5207003412843
 30
0.0
 10
185.431287439878
 20
130.743189292623
 30
0.0
 10
185.5041611602389
 20
130.8493499008665
 30
0.0
 10
185.5868684668526
 20
130.9503175813907
 30
0.0
  0
LWPOLYLINE
  5
161
330
1F
100
AcDbEntity
  8
0
  6
HIDDEN
 62
     7
370
     0
100
AcDbPolyline
 90
       20
 70
   128
 43
0.0
 10
189.4705342008
 20
127.9251682399
 10
189.1797287269
 20
128.4734480841
 10
188.7152297301
 20
128.9032907052
 10
188.1273705391
 20
129.1681160046
 10
187.4798564119
 20
129.2392262085
 10
186.842855054
 20
129.1089155538
 10
186.2853951631
 20
128.7913047536
 10
185.8678860469
 20
128.3208126961
 10
185.6355722873
 20
127.7484237043
 10
185.6136284648
 20
127.1361657245
 10
185.8044313146
 20
126.5503852455
 10
186.1873054756
 20
126.0545621453
 10
186.7207605271
 20
125.7024253546
 10
187.3469883455
 20
125.5321348844
 10
187.9981271802
 20
125.5621439604
 10
188.6036153762
 20
125.7892013355
 10
189.0978393955
 20
126.1887014671
 10
189.4272444649
 20
126.7173518254
 10
189.556130196
 20
127.3178658275
 10
189.4705342008
 20
127.9251682399
  0
LWPOLYLINE
  5
162
330
1F
100
AcDbEntity
  8
0
  6
HIDDEN
 62
     7
370
     0
100
AcDbPolyline
 90
       22
 70
   128
 43
0.0
 10
189.967396657
 20
128.1706825657
 10
189.6455203993
 20
128.802262695
 10
189.1398364557
 20
129.3166302903
 10
188.4952746211
 20
129.6680816276
 10
187.7691093711
 20
129.8253894611
 10
187.0258627338
 20
129.7745746387
 10
186.3315757243
 20
129.5201550065
 10
185.7479372872
 20
129.0847346945
 10
185.3268081201
 20
128.5070027052
 10
185.1056069015
 20
127.8382944702
 10
185.1039873315
 20
127.138026507
 10
185.3220946966
 20
126.4684214084
 10
185.7405491052
 20
125.8889757855
 10
186.3221675037
 20
125.4511759443
 10
187.0152717335
 20
125.1939232288
 10
187.7582771583
 20
125.1400750889
 10
188.4851623206
 20
125.2944157286
 10
189.1313427938
 20
125.6432323544
 10
189.63940161
 20
126.1555305509
 10
189.96419477
 20
126.7857900648
 10
190.0768624498
 20
127.4780095382
 10
189.967396657
 20
128.1706825657
  0
LWPOLYLINE
  5
163
330
1F
100
AcDbEntity
  8
0
  6
HIDDEN
 62
     7
370
     0
100
AcDbPolyline
 90
       22
 70
   128
 43
0.0
 10
189.967396657
 20
128.7692184387
 10
189.6455203993
 20
129.4007976366
 10
189.1398364557
 20
129.915165232
 10
188.4952746211
 20
130.2666165693
 10
187.7691093711
 20
130.4239244027
 10
187.0258627338
 20
130.3731114431
 10
186.3315757243
 20
130.1186908795
 10
185.7479372872
 20
129.6832696362
 10
185.3268081201
 20
129.1055385782
 10
185.1056069015
 20
128.4368294118
 10
185.1039873315
 20
127.7365614487
 10
185.3220946966
 20
127.0669563501
 10
185.7405491052
 20
126.4875107272
 10
186.3221675037
 20
126.0497118173
 10
187.0152717335
 20
125.7924581705
 10
187.7582771583
 20
125.7386100306
 10
188.4851623206
 20
125.8929516016
 10
189.1313427938
 20
126.241767296
 10
189.63940161
 20
126.7540654926
 10
189.96419477
 20
127.3843250064
 10
190.0768624498
 20
128.0765444799
 10
189.967396657
 20
128.7692184387
  0
LWPOLYLINE
  5
164
330
1F
100
AcDbEntity
  8
0
  6
HIDDEN
 62
     7
370
     0
100
AcDbPolyline
 90
       20
 70
   128
 43
0.0
 10
189.4892910374
 20
129.8116729422
 10
189.1956059141
 20
130.3653833283
 10
188.7265043212
 20
130.7994839562
 10
188.1328234328
 20
131.06693186
 10
187.478895287
 20
131.1387480064
 10
186.8355842186
 20
131.0071465386
 10
186.2726034476
 20
130.6863897307
 10
185.8509592591
 20
130.2112364037
 10
185.6163442014
 20
129.6331793828
 10
185.5941833807
 20
129.0148556991
 10
185.7868758841
 20
128.4232740118
 10
186.1735423906
 20
127.9225391163
 10
186.712280835
 20
127.5669145225
 10
187.3447112618
 20
127.3949374272
 10
188.0022995053
 20
127.4252445264
 10
188.6137854187
 20
127.6545510454
 10
189.1129044695
 20
128.0580074353
 10
189.4455710305
 20
128.5918946205
 10
189.5757345362
 20
129.1983560486
 10
189.4892910374
 20
129.8116729422
  0
LWPOLYLINE
  5
165
330
1F
100
AcDbEntity
  8
0
  6
HIDDEN
 62
     7
370
     0
100
AcDbPolyline
 90
       20
 70
   128
 43
0.0
 10
189.4892910374
 20
128.3938982351
 10
189.1956059141
 20
128.9476076899
 10
188.7265043212
 20
129.3817083178
 10
188.1328234328
 20
129.6491571529
 10
187.478895287
 20
129.7209714366
 10
186.8355842186
 20
129.5893699689
 10
186.2726034476
 20
129.268613161
 10
185.8509592591
 20
128.7934607653
 10
185.6163442014
 20
128.2154028131
 10
185.5941833807
 20
127.5970800607
 10
185.7868758841
 20
127.0054983734
 10
186.1735423906
 20
126.5047634779
 10
186.712280835
 20
126.1491388841
 10
187.3447112618
 20
125.9771617888
 10
188.0022995053
 20
126.007468888
 10
188.6137854187
 20
126.2367744757
 10
189.1129044695
 20
126.6402317969
 10
189.4455710305
 20
127.1741189821
 10
189.5757345362
 20
127.7805804102
 10
189.4892910374
 20
128.3938982351
  0
LWPOLYLINE
  5
166
330
1F
100
AcDbEntity
  8
0
  6
HIDDEN
 62
     7
370
     0
100
AcDbPolyline
 90
       22
 70
   128
 43
0.0
 10
189.967396657
 20
129.0052118538
 10
189.6455203993
 20
129.6367910518
 10
189.1398364557
 20
130.1511586471
 10
188.4952746211
 20
130.5026099844
 10
187.7691093711
 20
130.6599178179
 10
187.0258627338
 20
130.6091048582
 10
186.3315757243
 20
130.3546842946
 10
185.7479372872
 20
129.9192630513
 10
185.3268081201
 20
129.3415319933
 10
185.1056069015
 20
128.6728237583
 10
185.1039873315
 20
127.9725557952
 10
185.3220946966
 20
127.3029506965
 10
185.7405491052
 20
126.7235050736
 10
186.3221675037
 20
126.2857052325
 10
187.0152717335
 20
126.0284525169
 10
187.7582771583
 20
125.974604377
 10
188.4851623206
 20
126.1289450167
 10
189.1313427938
 20
126.4777616425
 10
189.63940161
 20
126.990059839
 10
189.96419477
 20
127.6203193529
 10
190.0768624498
 20
128.3125388263
 10
189.967396657
 20
129.0052118538
  0
LWPOLYLINE
  5
167
330
1F
100
AcDbEntity
  8
0
  6
HIDDEN
 62
     7
370
     0
100
AcDbPolyline
 90
       21
 70
   128
 43
0.0
 10
189.7761532916
 20
128.775686474
 10
189.4604945434
 20
129.3833576901
 10
188.9604534833
 20
129.8696254207
 10
188.3249776317
 20
130.1868916316
 10
187.616271886
 20
130.3040985776
 10
186.9037086023
 20
130.2097742273
 10
186.2570382534
 20
129.9131535752
 10
185.7395628346
 20
129.4432678087
 10
185.4019360496
 20
128.846115881
 10
185.2772058798
 20
128.1801494597
 10
185.3775828956
 20
127.5105592622
 10
185.6932416437
 20
126.902888046
 10
186.1932827039
 20
126.4166203155
 10
186.8287594868
 20
126.0993550359
 10
187.5374652324
 20
125.9821471585
 10
188.2500285162
 20
126.0764705776
 10
188.8966979338
 20
126.3730930923
 10
189.4141742839
 20
126.8429779275
 10
189.7518010689
 20
127.4401298551
 10
189.8765312387
 20
128.1060962765
 10
189.7761532916
 20
128.775686474
  0
LWPOLYLINE
  5
168
330
1F
100
AcDbEntity
  8
0
  6
HIDDEN
 62
     7
370
     0
100
AcDbPolyline
 90
       22
 70
   128
 43
0.0
 10
189.967396657
 20
129.2412062003
 10
189.6455203993
 20
129.8727863295
 10
189.1398364557
 20
130.3871539248
 10
188.4952746211
 20
130.7386052622
 10
187.7691093711
 20
130.8959130956
 10
187.0258627338
 20
130.8450982733
 10
186.3315757243
 20
130.5906777097
 10
185.7479372872
 20
130.1552583291
 10
185.3268081201
 20
129.5775263397
 10
185.1056069015
 20
128.9088171734
 10
185.1039873315
 20
128.2085501416
 10
185.3220946966
 20
127.5389441116
 10
185.7405491052
 20
126.9594984887
 10
186.3221675037
 20
126.5216995789
 10
187.0152717335
 20
126.2644459321
 10
187.7582771583
 20
126.2105977921
 10
188.4851623206
 20
126.3649393631
 10
189.1313427938
 20
126.7137550576
 10
189.63940161
 20
127.2260532541
 10
189.96419477
 20
127.856312768
 10
190.0768624498
 20
128.5485322414
 10
189.967396657
 20
129.2412062003
  0
LWPOLYLINE
  5
169
330
1F
100
AcDbEntity
  8
0
  6
HIDDEN
 62
     7
370
     0
100
AcDbPolyline
 90
       21
 70
   128
 43
0.0
 10
189.7761532916
 20
129.0116808204
 10
189.4604945434
 20
129.6193511052
 10
188.9604534833
 20
130.1056188358
 10
188.3249776317
 20
130.4228850467
 10
187.616271886
 20
130.5400919928
 10
186.9037086023
 20
130.445769505
 10
186.2570382534
 20
130.1491469903
 10
185.7395628346
 20
129.6792612238
 10
185.4019360496
 20
129.0821092962
 10
185.2772058798
 20
128.4161438061
 10
185.3775828956
 20
127.7465526773
 10
185.6932416437
 20
127.1388823925
 10
186.1932827039
 20
126.6526146619
 10
186.8287594868
 20
126.335348451
 10
187.5374652324
 20
126.2181405736
 10
188.2500285162
 20
126.312464924
 10
188.8966979338
 20
126.6090865074
 10
189.4141742839
 20
127.0789713426
 10
189.7518010689
 20
127.6761242016
 10
189.8765312387
 20
128.3420896916
 10
189.7761532916
 20
129.0116808204
  0
LWPOLYLINE
  5
16A
330
1F
100
AcDbEntity
  8
0
  6
HIDDEN
 62
     7
370
     0
100
AcDbPolyline
 90
       22
 70
   128
 43
0.0
 10
189.967396657
 20
129.4771996154
 10
189.6455203993
 20
130.1087797446
 10
189.1398364557
 20
130.62314734
 10
188.4952746211
 20
130.9745986773
 10
187.7691093711
 20
131.1319065107
 10
187.0258627338
 20
131.0810916884
 10
186.3315757243
 20
130.8266711248
 10
185.7479372872
 20
130.3912517442
 10
185.3268081201
 20
129.8135206862
 10
185.1056069015
 20
129.1448115198
 10
185.1039873315
 20
128.4445435567
 10
185.3220946966
 20
127.774938458
 10
185.7405491052
 20
127.1954928352
 10
186.3221675037
 20
126.757692994
 10
187.0152717335
 20
126.5004402785
 10
187.7582771583
 20
126.4465921386
 10
188.4851623206
 20
126.6009327783
 10
189.1313427938
 20
126.949749404
 10
189.63940161
 20
127.4620476006
 10
189.96419477
 20
128.0923071144
 10
190.0768624498
 20
128.7845265879
 10
189.967396657
 20
129.4771996154
  0
LWPOLYLINE
  5
16B
330
1F
100
AcDbEntity
  8
0
  6
HIDDEN
 62
     7
370
     0
100
AcDbPolyline
 90
       21
 70
   128
 43
0.0
 10
189.7761532916
 20
129.2476742355
 10
189.4604945434
 20
129.8553445204
 10
188.9604534833
 20
130.3416122509
 10
188.3249776317
 20
130.6588784619
 10
187.616271886
 20
130.7760872705
 10
186.9037086023
 20
130.6817629202
 10
186.2570382534
 20
130.3851404054
 10
185.7395628346
 20
129.9152565016
 10
185.4019360496
 20
129.3181036426
 10
185.2772058798
 20
128.6521372212
 10
185.3775828956
 20
127.9825470237
 10
185.6932416437
 20
127.3748758076
 10
186.1932827039
 20
126.888608077
 10
186.8287594868
 20
126.5713427974
 10
187.5374652324
 20
126.4541349201
 10
188.2500285162
 20
126.5484583391
 10
188.8966979338
 20
126.8450808538
 10
189.4141742839
 20
127.314965689
 10
189.7518010689
 20
127.9121176167
 10
189.8765312387
 20
128.578084038
 10
189.7761532916
 20
129.2476742355
  0
LWPOLYLINE
  5
16C
330
1F
100
AcDbEntity
  8
0
  6
HIDDEN
 62
     7
370
     0
100
AcDbPolyline
 90
       22
 70
   128
 43
0.0
 10
189.967396657
 20
129.7131930305
 10
189.6455203993
 20
130.3447731598
 10
189.1398364557
 20
130.8591407551
 10
188.4952746211
 20
131.2105920924
 10
187.7691093711
 20
131.3678999258
 10
187.0258627338
 20
131.3170869662
 10
186.3315757243
 20
131.0626664026
 10
185.7479372872
 20
130.6272451593
 10
185.3268081201
 20
130.0495141013
 10
185.1056069015
 20
129.3808058663
 10
185.1039873315
 20
128.6805379032
 10
185.3220946966
 20
128.0109318732
 10
185.7405491052
 20
127.4314862503
 10
186.3221675037
 20
126.9936873405
 10
187.0152717335
 20
126.7364346249
 10
187.7582771583
 20
126.6825855537
 10
188.4851623206
 20
126.8369271247
 10
189.1313427938
 20
127.1857428192
 10
189.63940161
 20
127.6980410157
 10
189.96419477
 20
128.3283005296
 10
190.0768624498
 20
129.020520003
 10
189.967396657
 20
129.7131930305
  0
LWPOLYLINE
  5
16D
330
1F
100
AcDbEntity
  8
0
  6
HIDDEN
 62
     7
370
     0
100
AcDbPolyline
 90
       21
 70
   128
 43
0.0
 10
189.7761532916
 20
129.483668582
 10
189.4604945434
 20
130.0913397981
 10
188.9604534833
 20
130.5776075287
 10
188.3249776317
 20
130.894871877
 10
187.616271886
 20
131.0120806856
 10
186.9037086023
 20
130.9177563353
 10
186.2570382534
 20
130.6211338206
 10
185.7395628346
 20
130.1512499167
 10
185.4019360496
 20
129.5540970577
 10
185.2772058798
 20
128.8881315677
 10
185.3775828956
 20
128.2185404389
 10
185.6932416437
 20
127.610870154
 10
186.1932827039
 20
127.1246024235
 10
186.8287594868
 20
126.8073362125
 10
187.5374652324
 20
126.6901283352
 10
188.2500285162
 20
126.7844526856
 10
188.8966979338
 20
127.081074269
 10
189.4141742839
 20
127.5509591041
 10
189.7518010689
 20
128.1481119631
 10
189.8765312387
 20
128.8140774532
 10
189.7761532916
 20
129.483668582
  0
LWPOLYLINE
  5
16E
330
1F
100
AcDbEntity
  8
0
  6
HIDDEN
 62
     7
370
     0
100
AcDbPolyline
 90
       22
 70
   128
 43
0.0
 10
189.967396657
 20
129.9013052894
 10
189.6455203993
 20
130.5328854187
 10
189.1398364557
 20
131.0472511513
 10
188.4952746211
 20
131.3987043513
 10
187.7691093711
 20
131.5560103221
 10
187.0258627338
 20
131.5051973624
 10
186.3315757243
 20
131.2507767989
 10
185.7479372872
 20
130.8153574182
 10
185.3268081201
 20
130.2376244976
 10
185.1056069015
 20
129.5689162625
 10
185.1039873315
 20
128.8686482994
 10
185.3220946966
 20
128.1990432008
 10
185.7405491052
 20
127.6195975779
 10
186.3221675037
 20
127.1817977367
 10
187.0152717335
 20
126.9245450212
 10
187.7582771583
 20
126.8706968813
 10
188.4851623206
 20
127.025037521
 10
189.1313427938
 20
127.3738541467
 10
189.63940161
 20
127.8861523433
 10
189.96419477
 20
128.5164118571
 10
190.0768624498
 20
129.2086313306
 10
189.967396657
 20
129.9013052894
  0
LWPOLYLINE
  5
16F
330
1F
100
AcDbEntity
  8
0
  6
HIDDEN
 62
     7
370
     0
100
AcDbPolyline
 90
       21
 70
   128
 43
0.0
 10
189.8335264875
 20
129.9106837077
 10
189.5096329851
 20
130.5342060341
 10
188.996547821
 20
131.0331602408
 10
188.3444934962
 20
131.3587021841
 10
187.6172991348
 20
131.4789675935
 10
186.8861475838
 20
131.3821826889
 10
186.2226081891
 20
131.0778227462
 10
185.6916332496
 20
130.5956807746
 10
185.3451980157
 20
129.9829506142
 10
185.2172147362
 20
129.2996113016
 10
185.320210631
 20
128.6125532178
 10
185.6441041334
 20
127.9890299602
 10
186.1571892975
 20
127.4900766848
 10
186.8092436222
 20
127.1645347415
 10
187.5364370523
 20
127.0442693321
 10
188.2675895346
 20
127.1410533054
 10
188.9311289294
 20
127.4454132481
 10
189.4621038688
 20
127.927556151
 10
189.8085391028
 20
128.5402863114
 10
189.936521451
 20
129.223625624
 10
189.8335264875
 20
129.9106837077
  0
ARC
  5
170
330
1F
100
AcDbEntity
  8
0
  6
HIDDEN
 62
     7
370
     0
100
AcDbCircle
 10
187.5629453324
 20
98.6659204388
 30
0.0
 40
2.481064946127829
100
AcDbArc
 50
345.1259223678
 51
182.5836989983
  0
ARC
  5
171
330
1F
100
AcDbEntity
  8
0
  6
HIDDEN
 62
     7
370
     0
100
AcDbCircle
 10
187.5572557954
 20
98.5952566029
 30
0.0
 40
2.357285514969171
100
AcDbArc
 50
351.1507649568
 51
158.3919933761
  0
ARC
  5
172
330
1F
100
AcDbEntity
  8
0
  6
HIDDEN
 62
     7
370
     0
100
AcDbCircle
 10
187.5750266383
 20
98.5851402339
 30
0.0
 40
2.004505631891673
100
AcDbArc
 50
2.9539212101
 51
126.8797921902
  0
LWPOLYLINE
  5
173
330
1F
100
AcDbEntity
  8
0
  6
HIDDEN
 62
     7
370
     0
100
AcDbPolyline
 90
       22
 70
   128
 43
0.0
 10
186.7218185095
 20
96.7168756588
 10
186.0673576472
 20
97.0517829819
 10
185.5470230682
 20
97.5530822588
 10
185.2070502816
 20
98.1762320562
 10
185.0776458038
 20
98.8658633841
 10
185.1703077434
 20
99.5606989427
 10
185.4768032087
 20
100.1989985643
 10
185.9698993964
 20
100.7240474982
 10
186.6057813047
 20
101.0891930027
 10
187.3279483868
 20
101.2619896619
 10
188.0722334487
 20
101.2270836918
 10
188.7725032745
 20
100.9875773279
 10
189.3665352715
 20
100.5647512911
 10
189.8015485955
 20
99.9961760653
 10
190.0388887031
 20
99.3323712437
 10
190.0574667258
 20
98.6323193474
 10
189.8556323601
 20
97.95822248
 10
189.4513210161
 20
97.3699786527
 10
188.8804565994
 20
96.9198536886
 10
188.1937617315
 20
96.6478441669
 10
187.4522538735
 20
96.578119771
 10
186.7218185095
 20
96.7168756588
  0
LWPOLYLINE
  5
174
330
1F
100
AcDbEntity
  8
0
  6
HIDDEN
 62
     7
370
     0
100
AcDbPolyline
 90
       20
 70
   128
 43
0.0
 10
186.8928279607
 20
98.3401690437
 10
186.3196557267
 20
98.6445708959
 10
185.8827220155
 20
99.107364641
 10
185.6293752668
 20
99.6783994897
 10
185.5870699389
 20
100.2957937135
 10
185.7603900014
 20
100.8926448239
 10
186.1305534719
 20
101.4042733996
 10
186.6574473558
 20
101.7752368762
 10
187.2839750601
 20
101.9653365774
 10
187.9422422377
 20
101.9539707167
 10
188.5609160988
 20
101.7423723651
 10
189.0729525937
 20
101.3534706844
 10
189.4228653861
 20
100.8294089524
 10
189.5727356775
 20
100.2269782884
 10
189.5063230647
 20
99.6114606796
 10
189.230822946
 20
99.0495565174
 10
188.7760925917
 20
98.6021584658
 10
188.1914064167
 20
98.317748384
 10
187.5401269523
 20
98.2271455987
 10
186.8928279607
 20
98.3401690437
  0
LWPOLYLINE
  5
175
330
1F
100
AcDbEntity
  8
0
  6
HIDDEN
 62
     7
370
     0
100
AcDbPolyline
 90
       22
 70
   128
 43
0.0
 10
186.7218185095
 20
96.9528690739
 10
186.0673576472
 20
97.287776397
 10
185.5470230682
 20
97.789075674
 10
185.2070502816
 20
98.4122264026
 10
185.0776458038
 20
99.1018577306
 10
185.1703077434
 20
99.7966923578
 10
185.4768032087
 20
100.4349919794
 10
185.9698993964
 20
100.9600409134
 10
186.6057813047
 20
101.3251864178
 10
187.3279483868
 20
101.497983077
 10
188.0722334487
 20
101.4630780382
 10
188.7725032745
 20
101.2235716744
 10
189.3665352715
 20
100.8007456376
 10
189.8015485955
 20
100.2321704118
 10
190.0388887031
 20
99.5683655901
 10
190.0574667258
 20
98.8683136938
 10
189.8556323601
 20
98.1942177577
 10
189.4513210161
 20
97.6059720679
 10
188.8804565994
 20
97.1558471037
 10
188.1937617315
 20
96.8838394447
 10
187.4522538735
 20
96.8141150488
 10
186.7218185095
 20
96.9528690739
  0
LWPOLYLINE
  5
176
330
1F
100
AcDbEntity
  8
0
  6
HIDDEN
 62
     7
370
     0
100
AcDbPolyline
 90
       21
 70
   128
 43
0.0
 10
186.79022229
 20
97.0680010332
 10
186.1608475326
 20
97.3958284421
 10
185.6700824453
 20
97.8903719051
 10
185.3659665091
 20
98.5032184808
 10
185.2782694502
 20
99.1743798195
 10
185.4155752687
 20
99.8381576328
 10
185.7644440485
 20
100.4295763387
 10
186.2907251222
 20
100.8907449259
 10
186.9429023815
 20
101.1765193953
 10
187.6571373893
 20
101.2589274733
 10
188.3635148285
 20
101.1299029751
 10
188.9928895859
 20
100.8020737035
 10
189.4836546732
 20
100.3075311719
 10
189.7877706094
 20
99.6946845962
 10
189.8754676683
 20
99.0235232575
 10
189.7381609185
 20
98.3597454442
 10
189.38929307
 20
97.768325807
 10
188.8630119963
 20
97.3071590824
 10
188.2108347369
 20
97.0213827504
 10
187.4965997292
 20
96.9389756037
 10
186.79022229
 20
97.0680010332
  0
LWPOLYLINE
  5
177
330
1F
100
AcDbEntity
  8
0
  6
HIDDEN
 62
     7
370
     0
100
AcDbPolyline
 90
       22
 70
   128
 43
0.0
 10
186.7218185095
 20
97.1888643517
 10
186.0673576472
 20
97.5237698121
 10
185.5470230682
 20
98.0250709517
 10
185.2070502816
 20
98.648220749
 10
185.0776458038
 20
99.3378511457
 10
185.1703077434
 20
100.0326867042
 10
185.4768032087
 20
100.6709863259
 10
185.9698993964
 20
101.1960352598
 10
186.6057813047
 20
101.5611807643
 10
187.3279483868
 20
101.7339774235
 10
188.0722334487
 20
101.6990714534
 10
188.7725032745
 20
101.4595650895
 10
189.3665352715
 20
101.0367390527
 10
189.8015485955
 20
100.4681638269
 10
190.0388887031
 20
99.8043590052
 10
190.0574667258
 20
99.104307109
 10
189.8556323601
 20
98.4302111728
 10
189.4513210161
 20
97.841965483
 10
188.8804565994
 20
97.3918423815
 10
188.1937617315
 20
97.1198328598
 10
187.4522538735
 20
97.0501084639
 10
186.7218185095
 20
97.1888643517
  0
LWPOLYLINE
  5
178
330
1F
100
AcDbEntity
  8
0
  6
HIDDEN
 62
     7
370
     0
100
AcDbPolyline
 90
       21
 70
   128
 43
0.0
 10
186.79022229
 20
97.3039944483
 10
186.1608475326
 20
97.6318237199
 10
185.6700824453
 20
98.1263653202
 10
185.3659665091
 20
98.7392118959
 10
185.2782694502
 20
99.4103732346
 10
185.4155752687
 20
100.0741510479
 10
185.7644440485
 20
100.6655706851
 10
186.2907251222
 20
101.126738341
 10
186.9429023815
 20
101.4125137417
 10
187.6571373893
 20
101.4949218197
 10
188.3635148285
 20
101.3658963902
 10
188.9928895859
 20
101.0380671187
 10
189.4836546732
 20
100.5435255183
 10
189.7877706094
 20
99.9306789426
 10
189.8754676683
 20
99.259517604
 10
189.7381609185
 20
98.5957397906
 10
189.38929307
 20
98.0043210848
 10
188.8630119963
 20
97.5431524976
 10
188.2108347369
 20
97.2573780282
 10
187.4965997292
 20
97.1749690188
 10
186.79022229
 20
97.3039944483
  0
LWPOLYLINE
  5
179
330
1F
100
AcDbEntity
  8
0
  6
HIDDEN
 62
     7
370
     0
100
AcDbPolyline
 90
       22
 70
   128
 43
0.0
 10
186.7218185095
 20
97.4248577668
 10
186.0673576472
 20
97.7597650899
 10
185.5470230682
 20
98.2610643668
 10
185.2070502816
 20
98.8842141642
 10
185.0776458038
 20
99.5738454921
 10
185.1703077434
 20
100.2686801194
 10
185.4768032087
 20
100.906979741
 10
185.9698993964
 20
101.4320286749
 10
186.6057813047
 20
101.7971741794
 10
187.3279483868
 20
101.9699708386
 10
188.0722334487
 20
101.9350657998
 10
188.7725032745
 20
101.6955594359
 10
189.3665352715
 20
101.2727333991
 10
189.8015485955
 20
100.7041581733
 10
190.0388887031
 20
100.0403533517
 10
190.0574667258
 20
99.3403014554
 10
189.8556323601
 20
98.666204588
 10
189.4513210161
 20
98.0779607607
 10
188.8804565994
 20
97.6278357966
 10
188.1937617315
 20
97.3558262749
 10
187.4522538735
 20
97.286101879
 10
186.7218185095
 20
97.4248577668
  0
LWPOLYLINE
  5
17A
330
1F
100
AcDbEntity
  8
0
  6
HIDDEN
 62
     7
370
     0
100
AcDbPolyline
 90
       21
 70
   128
 43
0.0
 10
186.79022229
 20
97.5399878634
 10
186.1608475326
 20
97.867817135
 10
185.6700824453
 20
98.3623596667
 10
185.3659665091
 20
98.9752062423
 10
185.2782694502
 20
99.646367581
 10
185.4155752687
 20
100.3101453943
 10
185.7644440485
 20
100.9015641002
 10
186.2907251222
 20
101.3627326874
 10
186.9429023815
 20
101.6485071568
 10
187.6571373893
 20
101.7309161661
 10
188.3635148285
 20
101.6018907367
 10
188.9928895859
 20
101.2740614651
 10
189.4836546732
 20
100.7795189334
 10
189.7877706094
 20
100.1666723578
 10
189.8754676683
 20
99.4955110191
 10
189.7381609185
 20
98.8317332058
 10
189.38929307
 20
98.2403144999
 10
188.8630119963
 20
97.7791459127
 10
188.2108347369
 20
97.4933714433
 10
187.4965997292
 20
97.410962434
 10
186.79022229
 20
97.5399878634
  0
LWPOLYLINE
  5
17B
330
1F
100
AcDbEntity
  8
0
  6
HIDDEN
 62
     7
370
     0
100
AcDbPolyline
 90
       22
 70
   128
 43
0.0
 10
186.7218185095
 20
97.6608511819
 10
186.0673576472
 20
97.995758505
 10
185.5470230682
 20
98.497057782
 10
185.2070502816
 20
99.1202085106
 10
185.0776458038
 20
99.8098389073
 10
185.1703077434
 20
100.5046744658
 10
185.4768032087
 20
101.1429740874
 10
185.9698993964
 20
101.6680230214
 10
186.6057813047
 20
102.0331685258
 10
187.3279483868
 20
102.205965185
 10
188.0722334487
 20
102.1710592149
 10
188.7725032745
 20
101.931552851
 10
189.3665352715
 20
101.5087268142
 10
189.8015485955
 20
100.9401515885
 10
190.0388887031
 20
100.2763467668
 10
190.0574667258
 20
99.5762948705
 10
189.8556323601
 20
98.9021989344
 10
189.4513210161
 20
98.3139541759
 10
188.8804565994
 20
97.8638292117
 10
188.1937617315
 20
97.59181969
 10
187.4522538735
 20
97.5220952941
 10
186.7218185095
 20
97.6608511819
  0
LWPOLYLINE
  5
17C
330
1F
100
AcDbEntity
  8
0
  6
HIDDEN
 62
     7
370
     0
100
AcDbPolyline
 90
       21
 70
   128
 43
0.0
 10
186.79022229
 20
97.7759812786
 10
186.1608475326
 20
98.1038105501
 10
185.6700824453
 20
98.5983530818
 10
185.3659665091
 20
99.2111996575
 10
185.2782694502
 20
99.8823609961
 10
185.4155752687
 20
100.5461388095
 10
185.7644440485
 20
101.1375584467
 10
186.2907251222
 20
101.5987261026
 10
186.9429023815
 20
101.8845015033
 10
187.6571373893
 20
101.9669095813
 10
188.3635148285
 20
101.8378841518
 10
188.9928895859
 20
101.5100558115
 10
189.4836546732
 20
101.0155132799
 10
189.7877706094
 20
100.4026667042
 10
189.8754676683
 20
99.7315053655
 10
189.7381609185
 20
99.0677275522
 10
189.38929307
 20
98.476307915
 10
188.8630119963
 20
98.0151393278
 10
188.2108347369
 20
97.7293648584
 10
187.4965997292
 20
97.6469558491
 10
186.79022229
 20
97.7759812786
  0
LWPOLYLINE
  5
17D
330
1F
100
AcDbEntity
  8
0
  6
HIDDEN
 62
     7
370
     0
100
AcDbPolyline
 90
       22
 70
   128
 43
0.0
 10
186.7218185095
 20
98.2593861236
 10
186.0673576472
 20
98.5942934467
 10
185.5470230682
 20
99.095593655
 10
185.2070502816
 20
99.7187434523
 10
185.0776458038
 20
100.4083747803
 10
185.1703077434
 20
101.1032094075
 10
185.4768032087
 20
101.7415090291
 10
185.9698993964
 20
102.266557963
 10
186.6057813047
 20
102.6317034675
 10
187.3279483868
 20
102.8045001267
 10
188.0722334487
 20
102.7695941566
 10
188.7725032745
 20
102.530088724
 10
189.3665352715
 20
102.1072626872
 10
189.8015485955
 20
101.5386865301
 10
190.0388887031
 20
100.8748826398
 10
190.0574667258
 20
100.1748307435
 10
189.8556323601
 20
99.5007338761
 10
189.4513210161
 20
98.9124891175
 10
188.8804565994
 20
98.4623641534
 10
188.1937617315
 20
98.1903546317
 10
187.4522538735
 20
98.1206320985
 10
186.7218185095
 20
98.2593861236
  0
LWPOLYLINE
  5
17E
330
1F
100
AcDbEntity
  8
0
  6
HIDDEN
 62
     7
370
     0
100
AcDbPolyline
 90
       20
 70
   128
 43
0.0
 10
186.8995372085
 20
98.8208246244
 10
186.3319864376
 20
99.1222415878
 10
185.8993377416
 20
99.5804960667
 10
185.6484757615
 20
100.1459299414
 10
185.6065848721
 20
100.7572696371
 10
185.7782052709
 20
101.3482664539
 10
186.144738446
 20
101.8548770635
 10
186.6664653523
 20
102.2222027941
 10
187.2868481902
 20
102.4104379876
 10
187.9386594398
 20
102.3991838856
 10
188.5512648029
 20
102.1896605207
 10
189.0582786752
 20
101.8045726059
 10
189.4047604753
 20
101.2856508432
 10
189.5531611396
 20
100.6891284896
 10
189.48739859
 20
100.0796477137
 10
189.2146011693
 20
99.5232551186
 10
188.7643309189
 20
99.0802445276
 10
188.1853798283
 20
98.7986237569
 10
187.5404873742
 20
98.7089094533
 10
186.8995372085
 20
98.8208246244
  0
CIRCLE
  5
17F
330
1F
100
AcDbEntity
  8
0
  6
HIDDEN
 62
     7
370
     0
100
AcDbCircle
 10
226.7768684669
 20
113.9750280245
 30
0.0
 40
2.10566934772487
  0
CIRCLE
  5
180
330
1F
100
AcDbEntity
  8
0
  6
HIDDEN
 62
     7
370
     0
100
AcDbCircle
 10
226.7768684669
 20
113.9750280245
 30
0.0
 40
1.695534221835445
  0
LWPOLYLINE
  5
181
330
1F
100
AcDbEntity
  8
0
  6
HIDDEN
 62
     7
370
     0
100
AcDbPolyline
 90
        3
 70
   128
 43
0.0
 10
226.7768671615
 20
112.5794937661
 10
226.2428207202
 20
112.6857225145
 10
225.9567221506
 20
112.8459244328
  0
LWPOLYLINE
  5
182
330
1F
100
AcDbEntity
  8
0
  6
HIDDEN
 62
     7
370
     0
100
AcDbPolyline
 90
        3
 70
   128
 43
0.0
 10
225.3885147972
 20
113.8336387639
 10
225.3813324375
 20
113.9750280245
 10
225.3859778745
 20
114.0887929841
  0
LINE
  5
183
330
1F
100
AcDbEntity
  8
0
  6
HIDDEN
 62
     7
370
     0
100
AcDbLine
 10
225.9653685493
 20
115.1103622806
 30
0.0
 11
226.1932557328
 21
115.2426691087
 31
0.0
  0
LINE
  5
184
330
1F
100
AcDbEntity
  8
0
  6
HIDDEN
 62
     7
370
     0
100
AcDbLine
 10
227.3940509064
 20
115.2266672407
 30
0.0
 11
227.5972021623
 21
115.1039945953
 31
0.0
  0
LWPOLYLINE
  5
185
330
1F
100
AcDbEntity
  8
0
  6
HIDDEN
 62
     7
370
     0
100
AcDbPolyline
 90
        3
 70
   128
 43
0.0
 10
228.1645974023
 20
114.1224110006
 10
228.1724018855
 20
113.9750280245
 10
228.1688367827
 20
113.8753452951
  0
LWPOLYLINE
  5
186
330
1F
100
AcDbEntity
  8
0
  6
HIDDEN
 62
     7
370
     0
100
AcDbPolyline
 90
        3
 70
   128
 43
0.0
 10
227.5742431982
 20
112.8297295481
 10
227.3109173281
 20
112.6857225145
 10
226.7768671615
 20
112.5794937661
  0
LINE
  5
187
330
1F
100
AcDbEntity
  8
0
  6
HIDDEN
 62
     7
370
     0
100
AcDbLine
 10
182.6383983595
 20
124.9127290039
 30
0.0
 11
183.135440561
 21
125.3863447173
 31
0.0
  0
LINE
  5
188
330
1F
100
AcDbEntity
  8
0
  6
HIDDEN
 62
     7
370
     0
100
AcDbLine
 10
183.7618574379
 20
128.0020256354
 30
0.0
 11
183.5332792131
 21
128.649416828
 31
0.0
  0
LINE
  5
189
330
1F
100
AcDbEntity
  8
0
  6
HIDDEN
 62
     7
370
     0
100
AcDbLine
 10
178.3941388009
 20
125.3339727236
 30
0.0
 11
181.6650777934
 21
124.5506317182
 31
0.0
  0
LINE
  5
18A
330
1F
100
AcDbEntity
  8
0
  6
HIDDEN
 62
     7
370
     0
100
AcDbLine
 10
182.8295746697
 20
129.4131357981
 30
0.0
 11
179.5586356772
 21
130.1964768036
 31
0.0
  0
LINE
  5
18B
330
1F
100
AcDbEntity
  8
0
  6
HIDDEN
 62
     7
370
     0
100
AcDbLine
 10
179.5586356772
 20
97.7535792454
 30
0.0
 11
182.8295746697
 21
98.5369202508
 31
0.0
  0
LINE
  5
18C
330
1F
100
AcDbEntity
  8
0
  6
HIDDEN
 62
     7
370
     0
100
AcDbLine
 10
181.6650777934
 20
103.3994243307
 30
0.0
 11
178.3941388009
 21
102.6160833253
 31
0.0
  0
LINE
  5
18D
330
1F
100
AcDbEntity
  8
0
  6
HIDDEN
 62
     7
370
     0
100
AcDbLine
 10
183.5332792131
 20
99.3006392209
 30
0.0
 11
183.7618574379
 21
99.9480304135
 31
0.0
  0
LINE
  5
18E
330
1F
100
AcDbEntity
  8
0
  6
HIDDEN
 62
     7
370
     0
100
AcDbLine
 10
183.135440561
 20
102.5637113316
 30
0.0
 11
182.6383983595
 21
103.037327045
 31
0.0
  0
LINE
  5
18F
330
1F
100
AcDbEntity
  8
0
  6
HIDDEN
 62
     7
370
     0
100
AcDbLine
 10
190.0768680377
 20
97.310714872
 30
0.0
 11
190.0768680377
 21
100.466942863
 31
0.0
  0
LINE
  5
190
330
1F
100
AcDbEntity
  8
0
  6
HIDDEN
 62
     7
370
     0
100
AcDbLine
 10
185.0768681495
 20
100.466942863
 30
0.0
 11
185.0768681495
 21
98.4132834537
 31
0.0
  0
LINE
  5
191
330
1F
100
AcDbEntity
  8
0
  6
HIDDEN
 62
     7
370
     0
100
AcDbLine
 10
176.576868386
 20
96.5253510339
 30
0.0
 11
179.1962962477
 21
97.1526657058
 31
0.0
  0
LINE
  5
192
330
1F
100
AcDbEntity
  8
0
  6
HIDDEN
 62
     7
370
     0
100
AcDbLine
 10
177.7988993442
 20
102.987670788
 30
0.0
 11
176.576868386
 21
102.6950119822
 31
0.0
  0
LINE
  5
193
330
1F
100
AcDbEntity
  8
0
  6
HIDDEN
 62
     7
370
     0
100
AcDbLine
 10
179.25501893
 20
98.0921783312
 30
0.0
 11
186.7241682364
 21
99.8809276907
 31
0.0
  0
LINE
  5
194
330
1F
100
AcDbEntity
  8
0
  6
HIDDEN
 62
     7
370
     0
100
AcDbLine
 10
186.7241682364
 20
104.1996902613
 30
0.0
 11
178.276841051
 21
102.1766816093
 31
0.0
  0
LINE
  5
195
330
1F
100
AcDbEntity
  8
0
  6
HIDDEN
 62
     7
370
     0
100
AcDbLine
 10
189.6768687172
 20
100.5167369558
 30
0.0
 11
189.6768687172
 21
112.5260267699
 31
0.0
  0
LINE
  5
196
330
1F
100
AcDbEntity
  8
0
  6
HIDDEN
 62
     7
370
     0
100
AcDbLine
 10
185.4768684013
 20
100.8647871031
 30
0.0
 11
185.4768684013
 21
100.5167369558
 31
0.0
  0
LINE
  5
197
330
1F
100
AcDbEntity
  8
0
  6
HIDDEN
 62
     7
370
     0
100
AcDbLine
 10
185.4768684013
 20
112.5243097604
 30
0.0
 11
185.4768684013
 21
102.6184116317
 31
0.0
  0
ARC
  5
198
330
1F
100
AcDbEntity
  8
0
  6
HIDDEN
 62
     7
370
     0
100
AcDbCircle
 10
72.9768684669
 20
100.2750280245
 30
0.0
 40
1.200000000000003
100
AcDbArc
 50
90.0
 51
180.0
  0
ARC
  5
199
330
1F
100
AcDbEntity
  8
0
  6
HIDDEN
 62
     7
370
     0
100
AcDbCircle
 10
72.9768684669
 20
127.6750280245
 30
0.0
 40
1.200000000000003
100
AcDbArc
 50
180.0
 51
270.0
  0
LINE
  5
19A
330
1F
100
AcDbEntity
  8
0
  6
HIDDEN
 62
     7
370
     0
100
AcDbLine
 10
82.6692385478
 20
101.2500277547
 30
0.0
 11
83.5459260149
 21
101.2500277547
 31
0.0
  0
LINE
  5
19B
330
1F
100
AcDbEntity
  8
0
  6
HIDDEN
 62
     7
370
     0
100
AcDbLine
 10
83.5459260149
 20
126.7000282942
 30
0.0
 11
82.6692385478
 21
126.7000282942
 31
0.0
  0
ARC
  5
19C
330
1F
100
AcDbEntity
  8
0
  6
HIDDEN
 62
     7
370
     0
100
AcDbCircle
 10
82.6692408976
 20
101.6500280245
 30
0.0
 40
0.4000000000000057
100
AcDbArc
 50
255.0
 51
270.0
  0
ARC
  5
19D
330
1F
100
AcDbEntity
  8
0
  6
HIDDEN
 62
     7
370
     0
100
AcDbCircle
 10
82.6692408976
 20
126.3000280245
 30
0.0
 40
0.4000000000000199
100
AcDbArc
 50
90.0
 51
105.0
  0
ARC
  5
19E
330
1F
100
AcDbEntity
  8
0
  6
HIDDEN
 62
     7
370
     0
100
AcDbCircle
 10
83.5459283592
 20
101.6500280245
 30
0.0
 40
0.4000000000000069
100
AcDbArc
 50
270.0
 51
330.0
  0
ARC
  5
19F
330
1F
100
AcDbEntity
  8
0
  6
HIDDEN
 62
     7
370
     0
100
AcDbCircle
 10
83.5459283592
 20
126.3000280245
 30
0.0
 40
0.4000000000000199
100
AcDbArc
 50
30.0
 51
90.0
  0
LINE
  5
1A0
330
1F
100
AcDbEntity
  8
0
  6
HIDDEN
 62
     7
370
     0
100
AcDbLine
 10
82.5657127304
 20
126.6863983883
 30
0.0
 11
81.7768676085
 21
126.4750282107
 31
0.0
  0
LINE
  5
1A1
330
1F
100
AcDbEntity
  8
0
  6
HIDDEN
 62
     7
370
     0
100
AcDbLine
 10
81.7768676085
 20
101.4750278382
 30
0.0
 11
82.5657127304
 21
101.2636576606
 31
0.0
  0
LINE
  5
1A2
330
1F
100
AcDbEntity
  8
0
  6
HIDDEN
 62
     7
370
     0
100
AcDbLine
 10
83.8923407598
 20
101.4500283463
 30
0.0
 11
85.0614709659
 21
103.475028166
 31
0.0
  0
LINE
  5
1A3
330
1F
100
AcDbEntity
  8
0
  6
HIDDEN
 62
     7
370
     0
100
AcDbLine
 10
85.0614709659
 20
124.4750278829
 30
0.0
 11
83.8923407598
 21
126.5000277026
 31
0.0
  0
LINE
  5
1A4
330
1F
100
AcDbEntity
  8
0
  6
HIDDEN
 62
     7
370
     0
100
AcDbLine
 10
72.9768676562
 20
101.4750278382
 30
0.0
 11
81.7768676085
 21
101.4750278382
 31
0.0
  0
LINE
  5
1A5
330
1F
100
AcDbEntity
  8
0
  6
HIDDEN
 62
     7
370
     0
100
AcDbLine
 10
81.7768676085
 20
126.4750282107
 30
0.0
 11
72.9768676562
 21
126.4750282107
 31
0.0
  0
LINE
  5
1A6
330
1F
100
AcDbEntity
  8
0
  6
HIDDEN
 62
     7
370
     0
100
AcDbLine
 10
85.0614709659
 20
103.475028166
 30
0.0
 11
133.7768686814
 21
103.475028166
 31
0.0
  0
LINE
  5
1A7
330
1F
100
AcDbEntity
  8
0
  6
HIDDEN
 62
     7
370
     0
100
AcDbLine
 10
133.7768686814
 20
124.4750278829
 30
0.0
 11
85.0614709659
 21
124.4750278829
 31
0.0
  0
LINE
  5
1A8
330
1F
100
AcDbEntity
  8
0
  6
HIDDEN
 62
     7
370
     0
100
AcDbLine
 10
133.7768686814
 20
103.475028166
 30
0.0
 11
138.0029423041
 21
109.7250277935
 31
0.0
  0
LINE
  5
1A9
330
1F
100
AcDbEntity
  8
0
  6
HIDDEN
 62
     7
370
     0
100
AcDbLine
 10
138.0029423041
 20
118.2250282554
 30
0.0
 11
133.7768686814
 21
124.4750278829
 31
0.0
  0
LINE
  5
1AA
330
1F
100
AcDbEntity
  8
0
  6
HIDDEN
 62
     7
370
     0
100
AcDbLine
 10
232.476866792
 20
121.0750280707
 30
0.0
 11
230.12686799
 21
121.0750280707
 31
0.0
  0
LINE
  5
1AB
330
1F
100
AcDbEntity
  8
0
  6
HIDDEN
 62
     7
370
     0
100
AcDbLine
 10
230.12686799
 20
106.8750279783
 30
0.0
 11
232.476866792
 21
106.8750279783
 31
0.0
  0
LINE
  5
1AC
330
1F
100
AcDbEntity
  8
0
  6
HIDDEN
 62
     7
370
     0
100
AcDbLine
 10
230.12686799
 20
119.7637030682
 30
0.0
 11
229.6268669767
 21
119.4750279947
 31
0.0
  0
LINE
  5
1AD
330
1F
100
AcDbEntity
  8
0
  6
HIDDEN
 62
     7
370
     0
100
AcDbLine
 10
229.6268669767
 20
108.4750280543
 30
0.0
 11
230.12686799
 21
108.1863529807
 31
0.0
  0
ARC
  5
1AE
330
1F
100
AcDbEntity
  8
0
  6
HIDDEN
 62
     7
370
     0
100
AcDbCircle
 10
221.6514668068
 20
108.8750280245
 30
0.0
 40
0.6000000000000071
100
AcDbArc
 50
270.0
 51
285.0
  0
ARC
  5
1AF
330
1F
100
AcDbEntity
  8
0
  6
HIDDEN
 62
     7
370
     0
100
AcDbCircle
 10
221.6514668068
 20
119.0750280245
 30
0.0
 40
0.6000000000000085
100
AcDbArc
 50
75.0
 51
90.0
  0
LINE
  5
1B0
330
1F
100
AcDbEntity
  8
0
  6
HIDDEN
 62
     7
370
     0
100
AcDbLine
 10
221.0768675311
 20
108.2750279283
 30
0.0
 11
221.6514674826
 21
108.2750279283
 31
0.0
  0
LINE
  5
1B1
330
1F
100
AcDbEntity
  8
0
  6
HIDDEN
 62
     7
370
     0
100
AcDbLine
 10
221.6514674826
 20
119.6750281206
 30
0.0
 11
221.0768675311
 21
119.6750281206
 31
0.0
  0
ARC
  5
1B2
330
1F
100
AcDbEntity
  8
0
  6
HIDDEN
 62
     7
370
     0
100
AcDbCircle
 10
221.0768684669
 20
108.8750280245
 30
0.0
 40
0.6000000000000227
100
AcDbArc
 50
180.0
 51
270.0
  0
ARC
  5
1B3
330
1F
100
AcDbEntity
  8
0
  6
HIDDEN
 62
     7
370
     0
100
AcDbCircle
 10
221.0768684669
 20
119.0750280245
 30
0.0
 40
0.6000000000000227
100
AcDbArc
 50
90.0
 51
180.0
  0
LINE
  5
1B4
330
1F
100
AcDbEntity
  8
0
  6
HIDDEN
 62
     7
370
     0
100
AcDbLine
 10
221.8067599339
 20
108.2954723215
 30
0.0
 11
222.4768688781
 21
108.4750280543
 31
0.0
  0
LINE
  5
1B5
330
1F
100
AcDbEntity
  8
0
  6
HIDDEN
 62
     7
370
     0
100
AcDbLine
 10
222.4768688781
 20
119.4750279947
 30
0.0
 11
221.8067599339
 21
119.6545837274
 31
0.0
  0
LINE
  5
1B6
330
1F
100
AcDbEntity
  8
0
  6
HIDDEN
 62
     7
370
     0
100
AcDbLine
 10
222.4768688781
 20
108.4750280543
 30
0.0
 11
229.6268669767
 21
108.4750280543
 31
0.0
  0
LINE
  5
1B7
330
1F
100
AcDbEntity
  8
0
  6
HIDDEN
 62
     7
370
     0
100
AcDbLine
 10
229.6268669767
 20
119.4750279947
 30
0.0
 11
222.4768688781
 21
119.4750279947
 31
0.0
  0
LINE
  5
1B8
330
1F
100
AcDbEntity
  8
0
  6
HIDDEN
 62
     7
370
     0
100
AcDbLine
 10
138.0029423041
 20
109.7250277935
 30
0.0
 11
220.4768685503
 21
109.7250277935
 31
0.0
  0
LINE
  5
1B9
330
1F
100
AcDbEntity
  8
0
  6
HIDDEN
 62
     7
370
     0
100
AcDbLine
 10
220.4768685503
 20
118.2250282554
 30
0.0
 11
138.0029423041
 21
118.2250282554
 31
0.0
  0
LINE
  5
1BA
330
1F
100
AcDbEntity
  8
0
  6
HIDDEN
 62
     7
370
     0
100
AcDbLine
 10
232.371947716
 20
105.9500281526
 30
0.0
 11
232.476866792
 21
105.7250280692
 31
0.0
  0
LINE
  5
1BB
330
1F
100
AcDbEntity
  8
0
  6
HIDDEN
 62
     7
370
     0
100
AcDbLine
 10
232.476866792
 20
122.2250279798
 30
0.0
 11
232.371947716
 21
122.0000278963
 31
0.0
  0
LINE
  5
1BC
330
1F
100
AcDbEntity
  8
0
  6
HIDDEN
 62
     7
370
     0
100
AcDbLine
 10
232.371947716
 20
122.0000278963
 30
0.0
 11
230.12686799
 21
122.0000278963
 31
0.0
  0
LINE
  5
1BD
330
1F
100
AcDbEntity
  8
0
  6
HIDDEN
 62
     7
370
     0
100
AcDbLine
 10
230.12686799
 20
105.9500281526
 30
0.0
 11
232.371947716
 21
105.9500281526
 31
0.0
  0
LINE
  5
1BE
330
1F
100
AcDbEntity
  8
0
  6
HIDDEN
 62
     7
370
     0
100
AcDbLine
 10
189.6768687172
 20
115.4257462886
 30
0.0
 11
189.6768687172
 21
127.4333190931
 31
0.0
  0
LINE
  5
1BF
330
1F
100
AcDbEntity
  8
0
  6
HIDDEN
 62
     7
370
     0
100
AcDbLine
 10
185.4768684013
 20
125.3316444172
 30
0.0
 11
185.4768684013
 21
115.424029279
 31
0.0
  0
LINE
  5
1C0
330
1F
100
AcDbEntity
  8
0
  6
HIDDEN
 62
     7
370
     0
100
AcDbLine
 10
185.4768684013
 20
127.4333190931
 30
0.0
 11
185.4768684013
 21
127.0852689458
 31
0.0
  0
LINE
  5
1C1
330
1F
100
AcDbEntity
  8
0
  6
HIDDEN
 62
     7
370
     0
100
AcDbLine
 10
178.276841051
 20
125.7733744396
 30
0.0
 11
186.7241682364
 21
123.7503657876
 31
0.0
  0
LINE
  5
1C2
330
1F
100
AcDbEntity
  8
0
  6
HIDDEN
 62
     7
370
     0
100
AcDbLine
 10
186.7241682364
 20
128.0691283582
 30
0.0
 11
179.25501893
 21
129.8578777178
 31
0.0
  0
LINE
  5
1C3
330
1F
100
AcDbEntity
  8
0
  6
HIDDEN
 62
     7
370
     0
100
AcDbLine
 10
176.576868386
 20
125.2550440667
 30
0.0
 11
177.7988993442
 21
124.9623852609
 31
0.0
  0
LINE
  5
1C4
330
1F
100
AcDbEntity
  8
0
  6
HIDDEN
 62
     7
370
     0
100
AcDbLine
 10
179.1962962477
 20
130.7973903431
 30
0.0
 11
176.576868386
 21
131.424705015
 31
0.0
  0
LINE
  5
1C5
330
1F
100
AcDbEntity
  8
0
  6
HIDDEN
 62
     7
370
     0
100
AcDbLine
 10
190.0768680377
 20
127.4831131859
 30
0.0
 11
190.0768680377
 21
130.6393411769
 31
0.0
  0
LINE
  5
1C6
330
1F
100
AcDbEntity
  8
0
  6
HIDDEN
 62
     7
370
     0
100
AcDbLine
 10
185.0768681495
 20
129.5367725952
 30
0.0
 11
185.0768681495
 21
127.4831131859
 31
0.0
  0
LINE
  5
1C7
330
1F
100
AcDbEntity
  8
0
  6
HIDDEN
 62
     7
370
     0
100
AcDbLine
 10
190.0768680377
 20
127.4831131859
 30
0.0
 11
190.0768680377
 21
128.0816490589
 31
0.0
  0
LINE
  5
1C8
330
1F
100
AcDbEntity
  8
0
  6
HIDDEN
 62
     7
370
     0
100
AcDbLine
 10
185.0768681495
 20
128.0816490589
 30
0.0
 11
185.0768681495
 21
127.4831131859
 31
0.0
  0
LINE
  5
1C9
330
1F
100
AcDbEntity
  8
0
  6
HIDDEN
 62
     7
370
     0
100
AcDbLine
 10
189.5768688871
 20
127.8438423587
 30
0.0
 11
189.5768688871
 21
129.2616179971
 31
0.0
  0
LINE
  5
1CA
330
1F
100
AcDbEntity
  8
0
  6
HIDDEN
 62
     7
370
     0
100
AcDbLine
 10
185.5768682314
 20
129.2616179971
 30
0.0
 11
185.5768682314
 21
127.8438423587
 31
0.0
  0
LINE
  5
1CB
330
1F
100
AcDbEntity
  8
0
  6
HIDDEN
 62
     7
370
     0
100
AcDbLine
 10
190.0768680377
 20
129.025624582
 30
0.0
 11
190.0768680377
 21
129.2137359096
 31
0.0
  0
LINE
  5
1CC
330
1F
100
AcDbEntity
  8
0
  6
HIDDEN
 62
     7
370
     0
100
AcDbLine
 10
185.0768681495
 20
129.2137359096
 30
0.0
 11
185.0768681495
 21
129.025624582
 31
0.0
  0
LINE
  5
1CD
330
1F
100
AcDbEntity
  8
0
  6
HIDDEN
 62
     7
370
     0
100
AcDbLine
 10
185.0768681495
 20
98.9244314669
 30
0.0
 11
185.0768681495
 21
98.7363201393
 31
0.0
  0
LINE
  5
1CE
330
1F
100
AcDbEntity
  8
0
  6
HIDDEN
 62
     7
370
     0
100
AcDbLine
 10
190.0768680377
 20
98.7363201393
 30
0.0
 11
190.0768680377
 21
98.9244314669
 31
0.0
  0
LINE
  5
1CF
330
1F
100
AcDbEntity
  8
0
  6
HIDDEN
 62
     7
370
     0
100
AcDbLine
 10
185.5768682314
 20
100.1062136902
 30
0.0
 11
185.5768682314
 21
98.6884380518
 31
0.0
  0
LINE
  5
1D0
330
1F
100
AcDbEntity
  8
0
  6
HIDDEN
 62
     7
370
     0
100
AcDbLine
 10
189.5768688871
 20
98.6884380518
 30
0.0
 11
189.5768688871
 21
100.1062136902
 31
0.0
  0
LINE
  5
1D1
330
1F
100
AcDbEntity
  8
0
  6
HIDDEN
 62
     7
370
     0
100
AcDbLine
 10
185.0768681495
 20
100.466942863
 30
0.0
 11
185.0768681495
 21
99.86840699
 31
0.0
  0
LINE
  5
1D2
330
1F
100
AcDbEntity
  8
0
  6
HIDDEN
 62
     7
370
     0
100
AcDbLine
 10
190.0768680377
 20
99.86840699
 30
0.0
 11
190.0768680377
 21
100.466942863
 31
0.0
  0
CIRCLE
  5
1D3
330
1F
100
AcDbEntity
  8
0
  6
HIDDEN
 62
     7
370
     0
100
AcDbCircle
 10
187.5768684669
 20
128.4407699864
 30
0.0
 40
1.999999999999996
  0
ARC
  5
1D4
330
1F
100
AcDbEntity
  8
0
  6
HIDDEN
 62
     7
370
     0
100
AcDbCircle
 10
187.5768684669
 20
99.5092860625
 30
0.0
 40
2.000000000000013
100
AcDbArc
 50
71.1182787691
 51
192.2156859341
  0
ARC
  5
1D5
330
1F
100
AcDbEntity
  8
0
  6
HIDDEN
 62
     7
370
     0
100
AcDbCircle
 10
187.5768684669
 20
99.5092860625
 30
0.0
 40
1.999999999999989
100
AcDbArc
 50
340.3453161116
 51
71.1182787691
  0
DIMENSION
  5
1D6
330
1F
100
AcDbEntity
  8
VERMASSUNG
100
AcDbDimension
  2
_D
 10
64.8318868816
 20
162.7000280245
 30
0.0
 11
64.8318868816
 21
113.9750280245
 31
0.0
 70
   160
  1
ISO 50 %%c<>
 71
     2
 42
-1.0
  3
SLDDIMSTYLE0
100
AcDbAlignedDimension
 13
191.8268684669
 23
65.2500280245
 33
0.0
 14
191.8268684669
 24
162.7000280245
 34
0.0
 50
90.0
100
AcDbRotatedDimension
  0
DIMENSION
  5
1E3
330
1F
100
AcDbEntity
  8
VERMASSUNG
100
AcDbDimension
  2
_D_1
 10
232.4768684669
 20
180.8512567401
 30
0.0
 11
152.1268684669
 21
180.8512567401
 31
0.0
 70
   160
  1
(<>)
 71
     2
 42
-1.0
  3
SLDDIMSTYLE0
100
AcDbAlignedDimension
 13
71.7768684669
 23
132.3538725519
 33
0.0
 14
232.4768684669
 24
123.7750280245
 34
0.0
100
AcDbRotatedDimension
  0
DIMENSION
  5
1EF
330
1F
100
AcDbEntity
  8
VERMASSUNG
100
AcDbDimension
  2
_D_2
 10
232.4768684669
 20
174.8512567401
 30
0.0
 11
202.9268684669
 21
174.8512567401
 31
0.0
 70
   160
  1
<>
 71
     2
 42
-1.0
  3
SLDDIMSTYLE0
100
AcDbAlignedDimension
 13
173.3768684669
 23
148.9000280245
 33
0.0
 14
232.4768684669
 24
123.7750280245
 34
0.0
100
AcDbRotatedDimension
  0
DIMENSION
  5
1F9
330
1F
100
AcDbEntity
  8
VERMASSUNG
100
AcDbDimension
  2
_D_3
 10
232.4768684669
 20
168.8512567401
 30
0.0
 11
212.4518684669
 21
168.8512567401
 31
0.0
 70
   160
  1
<>
 71
     2
 42
-1.0
  3
SLDDIMSTYLE0
100
AcDbAlignedDimension
 13
192.4268684669
 23
160.2700149777
 33
0.0
 14
232.4768684669
 24
123.7750280245
 34
0.0
100
AcDbRotatedDimension
  0
DIMENSION
  5
203
330
1F
100
AcDbEntity
  8
VERMASSUNG
100
AcDbDimension
  2
_D_4
 10
239.8844563997
 20
103.9750280245
 30
0.0
 11
239.8844563997
 21
113.9750280245
 31
0.0
 70
   160
  1
MBM %%c<>
 71
     2
 42
-1.0
  3
SLDDIMSTYLE0
100
AcDbAlignedDimension
 13
232.2768684669
 23
123.9750280245
 33
0.0
 14
232.2768684669
 24
103.9750280245
 34
0.0
 50
90.0
100
AcDbRotatedDimension
  0
LINE
  5
20F
330
1F
100
AcDbEntity
  8
VERMASSUNG
  6
CENTERX2
 62
     7
370
     0
100
AcDbLine
 10
69.7768684669
 20
113.9750280245
 30
0.0
 11
234.4768684669
 21
113.9750280245
 31
0.0
  0
LINE
  5
210
330
1F
100
AcDbEntity
  8
VERMASSUNG
  6
CENTERX2
370
     0
100
AcDbLine
 10
174.6318668207
 20
128.805672924
 30
0.0
 11
185.8942385116
 21
126.1085029096
 31
0.0
  0
LINE
  5
211
330
1F
100
AcDbEntity
  8
VERMASSUNG
  6
CENTERX2
370
     0
100
AcDbLine
 10
174.6318668207
 20
99.1443831249
 30
0.0
 11
185.8942385116
 21
101.8415531393
 31
0.0
  0
SPLINE
  5
212
330
1F
100
AcDbEntity
  8
0
  6
Continuous
 62
     7
370
    15
100
AcDbSpline
210
0.0
220
0.0
230
1.0
 70
     8
 71
     3
 72
    28
 73
    24
 74
     0
 42
0.000000001
 43
0.00000001
 40
0.0
 40
0.0
 40
0.0
 40
0.0
 40
0.0335962435386038
 40
0.0827003115125533
 40
0.1318527590274293
 40
0.1810312183300915
 40
0.2302195424135135
 40
0.279404764849689
 40
0.3285819208398859
 40
0.377748806523927
 40
0.4269049645832018
 40
0.4760510890721161
 40
0.5251885042547129
 40
0.5743189480700673
 40
0.6234443409010216
 40
0.6725667442953766
 40
0.721688287534935
 40
0.7708108744025447
 40
0.8199361863611215
 40
0.8690663281293769
 40
0.9182034939940129
 40
0.9673498211794163
 40
1.0
 40
1.0
 40
1.0
 40
1.0
 10
263.659108945924
 20
66.37574033459961
 30
0.0
 10
263.3639915096026
 20
66.31256701777951
 30
0.0
 10
262.637532199099
 20
66.15705996014373
 30
0.0
 10
261.4504433015651
 20
65.75613198715743
 30
0.0
 10
260.1111769068404
 20
65.19683267359765
 30
0.0
 10
258.7620006566797
 20
64.50576773563154
 30
0.0
 10
257.4126026036959
 20
63.69376313039795
 30
0.0
 10
256.0708622378776
 20
62.76425676869371
 30
0.0
 10
254.7449880291479
 20
61.72354113988499
 30
0.0
 10
253.442894416937
 20
60.57793622463473
 30
0.0
 10
252.1723670547602
 20
59.33450777968011
 30
0.0
 10
250.9409884806066
 20
58.00083931722936
 30
0.0
 10
249.7561135884943
 20
56.58503838889256
 30
0.0
 10
248.6248257198071
 20
55.09568716829754
 30
0.0
 10
247.5538983084067
 20
53.54179460007669
 30
0.0
 10
246.5497549610705
 20
51.93273898628809
 30
0.0
 10
245.6184464877102
 20
50.27823301420838
 30
0.0
 10
244.7655292539228
 20
48.58823473231332
 30
0.0
 10
243.9963962068394
 20
46.87297866852886
 30
0.0
 10
243.3148406448677
 20
45.14257753745097
 30
0.0
 10
242.7282887393361
 20
43.40818758038313
 30
0.0
 10
242.2841247617014
 20
41.87114188137772
 30
0.0
 10
242.0690649516639
 20
40.92244898395916
 30
0.0
 10
241.9832209272953
 20
40.54376541593162
 30
0.0
  0
LINE
  5
213
330
1F
100
AcDbEntity
  8
0
  6
Continuous
 62
     7
370
    15
100
AcDbLine
 10
278.0864067461
 20
29.0753665015
 30
0.0
 11
278.1571058116
 21
29.1161934733
 31
0.0
  0
LINE
  5
214
330
1F
100
AcDbEntity
  8
0
  6
Continuous
 62
     7
370
    15
100
AcDbLine
 10
281.6213659493
 20
35.1171183079
 30
0.0
 11
281.6213659493
 21
35.1987589804
 31
0.0
  0
LINE
  5
215
330
1F
100
AcDbEntity
  8
0
  6
Continuous
 62
     7
370
    15
100
AcDbLine
 10
262.9111471
 20
36.1445518102
 30
0.0
 11
275.5860353657
 21
28.8274945624
 31
0.0
  0
LINE
  5
216
330
1F
100
AcDbEntity
  8
0
  6
Continuous
 62
     7
370
    15
100
AcDbLine
 10
280.5856288791
 20
37.4879829306
 30
0.0
 11
267.9107406135
 21
44.8050401784
 31
0.0
  0
LINE
  5
217
330
1F
100
AcDbEntity
  8
0
  6
Continuous
 62
     7
370
    15
100
AcDbLine
 10
257.2407851754
 20
63.5542791309
 30
0.0
 11
226.4825979441
 21
74.6383103992
 31
0.0
  0
LINE
  5
218
330
1F
100
AcDbEntity
  8
0
  6
Continuous
 62
     7
370
    15
100
AcDbLine
 10
216.3587385637
 20
57.1013719988
 30
0.0
 11
245.8262496822
 21
32.2192495605
 31
0.0
  0
SPLINE
  5
219
330
1F
100
AcDbEntity
  8
0
  6
Continuous
 62
     7
370
    15
100
AcDbSpline
210
0.0
220
0.0
230
1.0
 70
     8
 71
     3
 72
    11
 73
     7
 74
     0
 42
0.000000001
 43
0.00000001
 40
0.0
 40
0.0
 40
0.0
 40
0.0
 40
0.2498201982063759
 40
0.51374433052736
 40
0.7777159733360688
 40
0.9999999999999999
 40
0.9999999999999999
 40
0.9999999999999999
 40
0.9999999999999999
 10
278.3138268165174
 20
38.79946696609131
 30
0.0
 10
278.5384946907832
 20
39.34396431894456
 30
0.0
 10
279.0005143652709
 20
40.46369935247629
 30
0.0
 10
279.5840327882808
 20
42.16825904443603
 30
0.0
 10
280.0717481711283
 20
43.80885249215262
 30
0.0
 10
280.3115664714173
 20
44.8594269764216
 30
0.0
 10
280.4211955838423
 20
45.33968035203152
 30
0.0
  0
SPLINE
  5
21A
330
1F
100
AcDbEntity
  8
0
  6
Continuous
 62
     7
370
    15
100
AcDbSpline
210
0.0
220
0.0
230
1.0
 70
     8
 71
     3
 72
    19
 73
    15
 74
     0
 42
0.000000001
 43
0.00000001
 40
0.0
 40
0.0
 40
0.0
 40
0.0
 40
0.0475621095642668
 40
0.1361062662466896
 40
0.2247440976227225
 40
0.3134337859942133
 40
0.4021446615154132
 40
0.4908525254280087
 40
0.5795467541510135
 40
0.6682227726455557
 40
0.7568794300004065
 40
0.8455176967931338
 40
0.9341399191688392
 40
1.0
 40
1.0
 40
1.0
 40
1.0
 10
258.7415899991481
 20
19.44614030659988
 30
0.0
 10
258.9726303558986
 20
19.49294112194238
 30
0.0
 10
259.6337877477321
 20
19.62686882809179
 30
0.0
 10
260.7541730366247
 20
19.99415283781426
 30
0.0
 10
262.0912796408051
 20
20.53430339080281
 30
0.0
 10
263.4397953205081
 20
21.20831949712345
 30
0.0
 10
264.7896002146413
 20
22.00351335976324
 30
0.0
 10
266.132901354224
 20
22.91709206110263
 30
0.0
 10
267.4614858987795
 20
23.9426546120151
 30
0.0
 10
268.7672494947053
 20
25.07421500671703
 30
0.0
 10
270.0430334887855
 20
26.30398320783286
 30
0.0
 10
271.2787852998734
 20
27.62741328051072
 30
0.0
 10
272.3737659243526
 20
28.90580968089926
 30
0.0
 10
273.0293916527455
 20
29.7725428359254
 30
0.0
 10
273.3089030438279
 20
30.14205516493715
 30
0.0
  0
LINE
  5
21B
330
1F
100
AcDbEntity
  8
0
  6
Continuous
 62
     7
370
    15
100
AcDbLine
 10
250.1488156482
 20
21.1548053618
 30
0.0
 11
251.6043376345
 21
20.3145504045
 31
0.0
  0
LINE
  5
21C
330
1F
100
AcDbEntity
  8
0
  6
Continuous
 62
     7
370
    15
100
AcDbLine
 10
246.4247806999
 20
23.3046449768
 30
0.0
 11
247.8626253759
 21
22.4745949135
 31
0.0
  0
SPLINE
  5
21D
330
1F
100
AcDbEntity
  8
0
  6
Continuous
 62
     7
370
    15
100
AcDbSpline
210
0.0
220
0.0
230
1.0
 70
     8
 71
     3
 72
     9
 73
     5
 74
     0
 42
0.000000001
 43
0.00000001
 40
0.0
 40
0.0
 40
0.0
 40
0.0
 40
0.8654855684553308
 40
1.0
 40
1.0
 40
1.0
 40
1.0
 10
241.9927276758126
 20
29.37000103149416
 30
0.0
 10
242.0307218406114
 20
29.22947281946361
 30
0.0
 10
242.074621087674
 20
29.0671036048257
 30
0.0
 10
242.1329790757145
 20
28.91802325498621
 30
0.0
 10
242.1408290673018
 20
28.89796979647306
 30
0.0
  0
SPLINE
  5
21E
330
1F
100
AcDbEntity
  8
0
  6
Continuous
 62
     7
370
    15
100
AcDbSpline
210
0.0
220
0.0
230
1.0
 70
     8
 71
     3
 72
     9
 73
     5
 74
     0
 42
0.000000001
 43
0.00000001
 40
0.0
 40
0.0
 40
0.0
 40
0.0
 40
0.6083089533864134
 40
1.0
 40
1.0
 40
1.0
 40
1.0
 10
280.4119028622902
 20
56.40172027371971
 30
0.0
 10
280.3591868841754
 20
56.5856041801449
 30
0.0
 10
280.2725270087594
 20
56.88789120946039
 30
0.0
 10
280.1586715958541
 20
57.16501024737228
 30
0.0
 10
280.1140754500105
 20
57.27355529336853
 30
0.0
  0
SPLINE
  5
21F
330
1F
100
AcDbEntity
  8
0
  6
Continuous
 62
     7
370
    15
100
AcDbSpline
210
0.0
220
0.0
230
1.0
 70
     8
 71
     3
 72
    27
 73
    23
 74
     0
 42
0.000000001
 43
0.00000001
 40
0.0
 40
0.0
 40
0.0
 40
0.0
 40
0.0147910448042976
 40
0.0653712859640096
 40
0.1165264260733419
 40
0.1687613104903414
 40
0.2222015550385086
 40
0.276618819364111
 40
0.3316156305183879
 40
0.3868317716261255
 40
0.4420022934786439
 40
0.4970601932488548
 40
0.552002068391464
 40
0.6068556716216379
 40
0.6616625288267103
 40
0.71646987790081
 40
0.7713174412066262
 40
0.8262500408354313
 40
0.8813187704230651
 40
0.9365708583458405
 40
0.9890556610264705
 40
1.0
 40
1.0
 40
1.0
 40
1.0
 10
226.528476435034
 20
74.60532275527667
 30
0.0
 10
226.4593791847659
 20
74.63595149929066
 30
0.0
 10
226.1539933133575
 20
74.77131992053124
 30
0.0
 10
225.5530672390344
 20
74.87641113645246
 30
0.0
 10
224.7414257512029
 20
74.9163321135351
 30
0.0
 10
223.8888148198117
 20
74.81106240105231
 30
0.0
 10
223.0086853534262
 20
74.57279530382414
 30
0.0
 10
222.1107950417974
 20
74.1988593396868
 30
0.0
 10
221.2099610518258
 20
73.69500101869284
 30
0.0
 10
220.3214200789865
 20
73.06975238348659
 30
0.0
 10
219.4593938234355
 20
72.3345167354686
 30
0.0
 10
218.6363461048533
 20
71.50181284325983
 30
0.0
 10
217.8631961478365
 20
70.58448616966409
 30
0.0
 10
217.1500391524714
 20
69.59595230768403
 30
0.0
 10
216.5062649832744
 20
68.55017246069009
 30
0.0
 10
215.9405942986529
 20
67.46164152198392
 30
0.0
 10
215.4609572975842
 20
66.3452117424245
 30
0.0
 10
215.0744972664305
 20
65.21592304365556
 30
0.0
 10
214.7871595110055
 20
64.08849406205461
 30
0.0
 10
214.6085915125448
 20
62.9980427057318
 30
0.0
 10
214.5528919148459
 20
62.22639295880448
 30
0.0
 10
214.5501851536271
 20
61.82585987127631
 30
0.0
 10
214.5497181173166
 20
61.75675015662932
 30
0.0
  0
SPLINE
  5
220
330
1F
100
AcDbEntity
  8
0
  6
Continuous
 62
     7
370
    15
100
AcDbSpline
210
0.0
220
0.0
230
1.0
 70
     8
 71
     3
 72
    14
 73
    10
 74
     0
 42
0.000000001
 43
0.00000001
 40
0.0
 40
0.0
 40
0.0
 40
0.0
 40
0.0953174528024731
 40
0.2750317067567173
 40
0.4547527557180948
 40
0.6328810613140445
 40
0.8077519950049141
 40
0.9781912771630799
 40
1.0
 40
1.0
 40
1.0
 40
1.0
 10
214.5497181173166
 20
61.75675015662932
 30
0.0
 10
214.5529604231423
 20
61.5721747012954
 30
0.0
 10
214.5623158651818
 20
61.03959539904442
 30
0.0
 10
214.6666159016055
 20
60.20181127895883
 30
0.0
 10
214.903126385065
 20
59.28039758385939
 30
0.0
 10
215.2558239518439
 20
58.44664481573312
 30
0.0
 10
215.7280830704804
 20
57.73506632480037
 30
0.0
 10
216.1140493060685
 20
57.27991002746624
 30
0.0
 10
216.3630679447157
 20
57.10517611332493
 30
0.0
 10
216.391316760466
 20
57.08535419889823
 30
0.0
  0
LINE
  5
221
330
1F
100
AcDbEntity
  8
0
  6
Continuous
 62
     7
370
    15
100
AcDbLine
 10
277.0253155041
 20
38.7506951301
 30
0.0
 11
276.9192323803
 21
38.8119553288
 31
0.0
  0
LINE
  5
222
330
1F
100
AcDbEntity
  8
0
  6
Continuous
 62
     7
370
    15
100
AcDbLine
 10
275.3633446329
 20
38.8119553542
 30
0.0
 11
275.2572622186
 21
38.7506946146
 31
0.0
  0
LINE
  5
223
330
1F
100
AcDbEntity
  8
0
  6
Continuous
 62
     7
370
    15
100
AcDbLine
 10
277.391289349
 20
38.0568006751
 30
0.0
 11
277.391289349
 21
38.2405224259
 31
0.0
  0
LINE
  5
224
330
1F
100
AcDbEntity
  8
0
  6
Continuous
 62
     7
370
    15
100
AcDbLine
 10
274.8912889374
 20
38.240522711
 30
0.0
 11
274.8912889374
 21
38.0568009602
 31
0.0
  0
SPLINE
  5
225
330
1F
100
AcDbEntity
  8
0
  6
Continuous
 62
     7
370
    15
100
AcDbSpline
210
0.0
220
0.0
230
1.0
 70
     8
 71
     3
 72
    12
 73
     8
 74
     0
 42
0.000000001
 43
0.00000001
 40
0.0
 40
0.0
 40
0.0
 40
0.0
 40
0.2499999999999972
 40
0.2499999999999972
 40
0.4999999999999944
 40
0.4999999999999944
 40
1.0
 40
1.0
 40
1.0
 40
1.0
 10
247.2633098649101
 20
37.51117677229389
 30
0.0
 10
247.2972413571997
 20
37.49158853874241
 30
0.0
 10
247.3356730662269
 20
37.464401349806
 30
0.0
 10
247.4098499188919
 20
37.40517742227018
 30
0.0
 10
247.4450661991473
 20
37.37374474325341
 30
0.0
 10
247.5401651164053
 20
37.28175202645143
 30
0.0
 10
247.5886942731672
 20
37.22489536092678
 30
0.0
 10
247.6220358693222
 20
37.17666655492445
 30
0.0
  0
ARC
  5
226
330
1F
100
AcDbEntity
  8
0
  6
Continuous
 62
     7
370
    15
100
AcDbCircle
 10
271.370606625
 20
53.0577126684
 30
0.0
 40
10.59539591799388
100
AcDbArc
 50
73.7350120919
 51
103.110917164
  0
SPLINE
  5
227
330
1F
100
AcDbEntity
  8
0
  6
Continuous
 62
     7
370
    15
100
AcDbSpline
210
0.0
220
0.0
230
1.0
 70
     8
 71
     3
 72
    12
 73
     8
 74
     0
 42
0.000000001
 43
0.00000001
 40
0.0
 40
0.0
 40
0.0
 40
0.0
 40
0.4999999999999972
 40
0.4999999999999972
 40
0.7499999999999986
 40
0.7499999999999986
 40
1.0
 40
1.0
 40
1.0
 40
1.0
 10
274.5502986885207
 20
62.79548249313576
 30
0.0
 10
274.5502986885207
 20
62.86816549032857
 30
0.0
 10
274.5332819204504
 20
62.95174833706886
 30
0.0
 10
274.4788710945689
 20
63.07319251494454
 30
0.0
 10
274.455725875647
 20
63.1129073926259
 30
0.0
 10
274.4014450637898
 20
63.1816371644917
 30
0.0
 10
274.3702090952323
 20
63.21054676039736
 30
0.0
 10
274.3381666541646
 20
63.22904446789096
 30
0.0
  0
LWPOLYLINE
  5
228
330
1F
100
AcDbEntity
  8
0
  6
Continuous
 62
     7
370
    15
100
AcDbPolyline
 90
       16
 70
   128
 43
0.0
 10
247.7364917121
 20
37.6904800113
 10
248.0761623839
 20
39.032638906
 10
248.6463881708
 20
40.9050807815
 10
249.3285586216
 20
42.780339554
 10
250.1176951397
 20
44.6447372446
 10
251.0080459974
 20
46.4846803582
 10
251.9931166287
 20
48.2867496157
 10
253.0657242888
 20
50.0378045121
 10
254.2180461275
 20
51.7250741874
 10
255.4416791167
 20
53.3362551404
 10
256.7276999784
 20
54.8595967754
 10
258.0667303803
 20
56.2839907503
 10
259.4490054243
 20
57.5990500583
 10
260.8644450991
 20
58.7951837366
 10
262.3027267194
 20
59.8636691037
 10
262.9812567361
 20
60.3179728871
  0
LWPOLYLINE
  5
229
330
1F
100
AcDbEntity
  8
0
  6
Continuous
 62
     7
370
    15
100
AcDbPolyline
 90
       12
 70
   128
 43
0.0
 10
257.2742708466
 20
58.3531712953
 10
258.7246278683
 20
59.625774606
 10
260.2022598278
 20
60.7669236432
 10
261.6959855862
 20
61.7679826651
 10
263.1945020912
 20
62.6213771198
 10
264.6864698239
 20
63.3206505769
 10
266.1605989852
 20
63.8605083986
 10
267.6057344075
 20
64.2368682786
 10
269.0109409592
 20
64.4468806478
 10
270.3655854513
 20
64.4889561859
 10
271.6594166509
 20
64.3627785517
 10
272.8826446352
 20
64.0693000028
  0
LINE
  5
22A
330
1F
100
AcDbEntity
  8
0
  6
Continuous
 62
     7
370
    15
100
AcDbLine
 10
274.3381666215
 20
63.2290450455
 30
0.0
 11
272.8826446352
 21
64.0693000028
 31
0.0
  0
LINE
  5
22B
330
1F
100
AcDbEntity
  8
0
  6
Continuous
 62
     7
370
    15
100
AcDbLine
 10
245.8077877162
 20
38.3514319148
 30
0.0
 11
247.2633097024
 21
37.5111769574
 31
0.0
  0
ARC
  5
22C
330
1F
100
AcDbEntity
  8
0
  6
Continuous
 62
     7
370
    15
100
AcDbCircle
 10
285.1405115878
 20
29.1203310498
 30
0.0
 40
40.40144044883871
100
AcDbArc
 50
136.9528122493
 51
166.7921386576
  0
SPLINE
  5
22D
330
1F
100
AcDbEntity
  8
0
  6
Continuous
 62
     7
370
    15
100
AcDbSpline
210
0.0
220
0.0
230
1.0
 70
     8
 71
     3
 72
    34
 73
    30
 74
     0
 42
0.000000001
 43
0.00000001
 40
0.0
 40
0.0
 40
0.0
 40
0.0
 40
0.0624999999999986
 40
0.0624999999999986
 40
0.1249999999999972
 40
0.1249999999999972
 40
0.1874999999999958
 40
0.1874999999999958
 40
0.2499999999999949
 40
0.2499999999999949
 40
0.312499999999994
 40
0.312499999999994
 40
0.3749999999999932
 40
0.3749999999999932
 40
0.4999999999999923
 40
0.4999999999999923
 40
0.6249999999999928
 40
0.6249999999999928
 40
0.6874999999999938
 40
0.6874999999999938
 40
0.7499999999999947
 40
0.7499999999999947
 40
0.8124999999999956
 40
0.8124999999999956
 40
0.874999999999997
 40
0.874999999999997
 40
0.9374999999999986
 40
0.9374999999999986
 40
1.0
 40
1.0
 40
1.0
 40
1.0
 10
255.6154714794423
 20
56.69837366332622
 30
0.0
 10
255.6745968930856
 20
56.66879617946798
 30
0.0
 10
255.7374095885161
 20
56.64512015727245
 30
0.0
 10
255.8701185914408
 20
56.60904064685273
 30
0.0
 10
255.9407302878119
 20
56.59659275671348
 30
0.0
 10
256.0859782577892
 20
56.58388286298809
 30
0.0
 10
256.1599606875513
 20
56.58354068309075
 30
0.0
 10
256.3106427523762
 20
56.59454702791338
 30
0.0
 10
256.3880907721763
 20
56.60613369189886
 30
0.0
 10
256.5400233581514
 20
56.64030823463766
 30
0.0
 10
256.6149794387359
 20
56.66282063702766
 30
0.0
 10
256.7629145056446
 20
56.71863270962571
 30
0.0
 10
256.835843218735
 20
56.752077555832
 30
0.0
 10
257.042455744745
 20
56.86443981515132
 30
0.0
 10
257.1693809207943
 20
56.95847721617206
 30
0.0
 10
257.3784876734211
 20
57.16707853134796
 30
0.0
 10
257.463036056619
 20
57.28400262549167
 30
0.0
 10
257.5480096133931
 20
57.46252787546432
 30
0.0
 10
257.569969313991
 20
57.52374445439101
 30
0.0
 10
257.5990804107308
 20
57.64455043690485
 30
0.0
 10
257.6064348735106
 20
57.70415096335001
 30
0.0
 10
257.606777808555
 20
57.82189225348327
 30
0.0
 10
257.5995377657196
 20
57.88034364162038
 30
0.0
 10
257.5709259151976
 20
57.99110626601183
 30
0.0
 10
257.5496425736381
 20
58.04401871073446
 30
0.0
 10
257.4928144070311
 20
58.14493691804371
 30
0.0
 10
257.4573569180571
 20
58.19245193267483
 30
0.0
 10
257.3749519651706
 20
58.27871191055825
 30
0.0
 10
257.3277470625948
 20
58.31795746297831
 30
0.0
 10
257.2742709167059
 20
58.35317059109193
 30
0.0
  0
LINE
  5
22E
330
1F
100
AcDbEntity
  8
0
  6
Continuous
 62
     7
370
    15
100
AcDbLine
 10
280.2601979153
 20
55.9261789369
 30
0.0
 11
280.3644797552
 21
56.1068007617
 31
0.0
  0
LINE
  5
22F
330
1F
100
AcDbEntity
  8
0
  6
Continuous
 62
     7
370
    15
100
AcDbLine
 10
277.9620896337
 20
54.5995092649
 30
0.0
 11
280.2601979153
 21
55.9261789369
 31
0.0
  0
ARC
  5
230
330
1F
100
AcDbEntity
  8
0
  6
Continuous
 62
     7
370
    15
100
AcDbCircle
 10
278.7901927313
 20
53.304906982
 30
0.0
 40
1.536798559128002
100
AcDbArc
 50
122.6053519586
 51
177.394632491
  0
LINE
  5
231
330
1F
100
AcDbEntity
  8
0
  6
Continuous
 62
     7
370
    15
100
AcDbLine
 10
277.2549827366
 20
44.5152966083
 30
0.0
 11
277.2549827366
 21
53.3747645766
 31
0.0
  0
ARC
  5
232
330
1F
100
AcDbEntity
  8
0
  6
Continuous
 62
     7
370
    15
100
AcDbCircle
 10
277.6860562197
 20
44.4453680612
 30
0.0
 40
0.4367085406722926
100
AcDbArc
 50
170.7857695821
 51
309.2035248725
  0
LINE
  5
233
330
1F
100
AcDbEntity
  8
0
  6
Continuous
 62
     7
370
    15
100
AcDbLine
 10
280.2601979153
 20
45.4336298375
 30
0.0
 11
277.9620896337
 21
44.1069601656
 31
0.0
  0
LINE
  5
234
330
1F
100
AcDbEntity
  8
0
  6
Continuous
 62
     7
370
    15
100
AcDbLine
 10
280.3644797552
 20
45.3734092624
 30
0.0
 11
280.2601979153
 21
45.4336298375
 31
0.0
  0
LINE
  5
235
330
1F
100
AcDbEntity
  8
0
  6
Continuous
 62
     7
370
    15
100
AcDbLine
 10
247.6675434192
 20
26.6182908927
 30
0.0
 11
247.6220353595
 21
26.4999222697
 31
0.0
  0
LINE
  5
236
330
1F
100
AcDbEntity
  8
0
  6
Continuous
 62
     7
370
    15
100
AcDbLine
 10
247.6675434192
 20
26.6182908927
 30
0.0
 11
250.8091879465
 21
28.4319236741
 31
0.0
  0
ARC
  5
237
330
1F
100
AcDbEntity
  8
0
  6
Continuous
 62
     7
370
    15
100
AcDbCircle
 10
249.9810848489
 20
29.726525957
 30
0.0
 40
1.53679855912836
100
AcDbArc
 50
302.6053519586
 51
357.394632491
  0
LINE
  5
238
330
1F
100
AcDbEntity
  8
0
  6
Continuous
 62
     7
370
    15
100
AcDbLine
 10
251.5162948436
 20
38.5161363307
 30
0.0
 11
251.5162948436
 21
29.6566683624
 31
0.0
  0
ARC
  5
239
330
1F
100
AcDbEntity
  8
0
  6
Continuous
 62
     7
370
    15
100
AcDbCircle
 10
251.0852213605
 20
38.5860648778
 30
0.0
 40
0.4367085406723233
100
AcDbArc
 50
350.7857695821
 51
129.2035248725
  0
LINE
  5
23A
330
1F
100
AcDbEntity
  8
0
  6
Continuous
 62
     7
370
    15
100
AcDbLine
 10
250.8091879465
 20
38.9244727734
 30
0.0
 11
247.6675434192
 21
37.1108399921
 31
0.0
  0
LINE
  5
23B
330
1F
100
AcDbEntity
  8
0
  6
Continuous
 62
     7
370
    15
100
AcDbLine
 10
247.6220353595
 20
37.1766661278
 30
0.0
 11
247.6675434192
 21
37.1108399921
 31
0.0
  0
LINE
  5
23C
330
1F
100
AcDbEntity
  8
0
  6
Continuous
 62
     7
370
    15
100
AcDbLine
 10
274.550298954
 20
59.5705217076
 30
0.0
 11
274.550298954
 21
62.7954828506
 31
0.0
  0
LINE
  5
23D
330
1F
100
AcDbEntity
  8
0
  6
Continuous
 62
     7
370
    15
100
AcDbLine
 10
277.3430459424
 20
61.1827402269
 30
0.0
 11
274.550298954
 21
59.5705217076
 31
0.0
  0
SPLINE
  5
23E
330
1F
100
AcDbEntity
  8
0
  6
Continuous
 62
     7
370
    15
100
AcDbSpline
210
0.0
220
0.0
230
1.0
 70
     8
 71
     3
 72
     8
 73
     4
 74
     0
 42
0.000000001
 43
0.00000001
 40
0.0
 40
0.0
 40
0.0
 40
0.0
 40
1.0
 40
1.0
 40
1.0
 40
1.0
 10
244.7352333926816
 20
39.44294569982539
 30
0.0
 10
244.4481662630093
 20
39.39549370010203
 30
0.0
 10
244.1610531444238
 20
39.34813626739924
 30
0.0
 10
243.8738983180261
 20
39.30086459848717
 30
0.0
  0
SPLINE
  5
23F
330
1F
100
AcDbEntity
  8
0
  6
Continuous
 62
     7
370
    15
100
AcDbSpline
210
0.0
220
0.0
230
1.0
 70
     8
 71
     3
 72
     8
 73
     4
 74
     0
 42
0.000000001
 43
0.00000001
 40
0.0
 40
0.0
 40
0.0
 40
0.0
 40
0.0011862984959112
 40
0.0011862984959112
 40
0.0011862984959112
 40
0.0011862984959112
 10
243.5215972307507
 20
39.67122149814934
 30
0.0
 10
243.6393080985953
 20
39.54767154703688
 30
0.0
 10
243.7567478490313
 20
39.42421649792161
 30
0.0
 10
243.8738983180262
 20
39.30086459848717
 30
0.0
  0
LWPOLYLINE
  5
240
330
1F
100
AcDbEntity
  8
0
  6
Continuous
 62
     7
370
    15
100
AcDbPolyline
 90
       24
 70
   128
 43
0.0
 10
243.5215974439
 20
39.6712214665
 10
243.9922565696
 20
41.5325817136
 10
244.5773904871
 20
43.4084997871
 10
245.2728253413
 20
45.2855953538
 10
246.0736022921
 20
47.1504824507
 10
246.9740104415
 20
48.9898588362
 10
247.9676263464
 20
50.7906078888
 10
249.0473640679
 20
52.5398837736
 10
250.2055239036
 20
54.22521258
 10
251.4338444126
 20
55.8345733055
 10
252.7235656359
 20
57.3564891056
 10
254.0654896824
 20
58.7801033345
 10
255.4500446075
 20
60.0952650911
 10
256.8673561951
 20
61.292593471
 10
258.3073159514
 20
62.3635472383
 10
259.7596541837
 20
63.3004913467
 10
261.2140123778
 20
64.0967402437
 10
262.660017902
 20
64.7466177263
 10
264.0873579699
 20
65.2454874714
 10
265.4858519774
 20
65.5897917531
 10
266.8455264325
 20
65.7770749269
 10
268.1566839381
 20
65.8060019596
 10
269.4099725036
 20
65.6763649816
 10
270.5964543629
 20
65.3890895545
  0
LINE
  5
241
330
1F
100
AcDbEntity
  8
0
  6
Continuous
 62
     7
370
    15
100
AcDbLine
 10
270.8932886901
 20
64.4550838043
 30
0.0
 11
270.5964543629
 21
65.3890895545
 31
0.0
  0
LWPOLYLINE
  5
242
330
1F
100
AcDbEntity
  8
0
  6
Continuous
 62
     7
370
    15
100
AcDbPolyline
 90
       23
 70
   128
 43
0.0
 10
244.7352333982
 20
39.4429456741
 10
245.186482583
 20
41.2569533382
 10
245.7522184135
 20
43.0862515334
 10
246.4282143509
 20
44.9171743778
 10
247.2094206761
 20
46.7360423782
 10
248.0900000504
 20
48.5292666105
 10
249.0633736142
 20
50.2834506174
 10
250.1222703776
 20
51.9854888832
 10
251.258778587
 20
53.6226664505
 10
252.4644076279
 20
55.1827494087
 10
253.7301505871
 20
56.6540848893
 10
255.046550107
 20
58.0256786272
 10
256.4037724716
 20
59.2872848778
 10
257.7916775773
 20
60.4294787501
 10
259.1998962293
 20
61.4437251639
 10
260.6179077879
 20
62.3224480085
 10
262.0351184329
 20
63.0590814075
 10
263.4409399005
 20
63.6481227777
 10
264.8248698669
 20
64.0851716285
 10
266.1765686895
 20
64.3669616962
 10
267.4859375882
 20
64.4913893475
 10
268.7431952015
 20
64.4575227925
 10
268.9262646478
 20
64.4388389122
  0
LINE
  5
243
330
1F
100
AcDbEntity
  8
0
  6
Continuous
 62
     7
370
    15
100
AcDbLine
 10
242.0837527678
 20
40.5012715298
 30
0.0
 11
243.5215974439
 21
39.6712214665
 31
0.0
  0
ARC
  5
244
330
1F
100
AcDbEntity
  8
0
  6
Continuous
 62
     7
370
    15
100
AcDbCircle
 10
266.1910542765
 20
56.0478484771
 30
0.0
 40
10.59535504754556
100
AcDbArc
 50
73.7349734435
 51
103.1105571538
  0
LINE
  5
245
330
1F
100
AcDbEntity
  8
0
  6
Continuous
 62
     7
370
    15
100
AcDbLine
 10
270.5964543629
 20
65.3890895545
 30
0.0
 11
269.1586096869
 21
66.2191396179
 31
0.0
  0
LINE
  5
246
330
1F
100
AcDbEntity
  8
0
  6
Continuous
 62
     7
370
    15
100
AcDbLine
 10
245.9878242358
 20
39.1166036726
 30
0.0
 11
245.3617206181
 21
39.4780455976
 31
0.0
  0
SPLINE
  5
247
330
1F
100
AcDbEntity
  8
0
  6
Continuous
 62
     7
370
    15
100
AcDbSpline
210
0.0
220
0.0
230
1.0
 70
     8
 71
     3
 72
    11
 73
     7
 74
     0
 42
0.000000001
 43
0.00000001
 40
0.0
 40
0.0
 40
0.0
 40
0.0
 40
0.3165694752064712
 40
0.6331520400060429
 40
0.9494411625907934
 40
1.0
 40
1.0
 40
1.0
 40
1.0
 10
256.5822469236196
 20
57.4606923455791
 30
0.0
 10
256.4486567434158
 20
57.41351368265904
 30
0.0
 10
256.1814708592885
 20
57.31915440606387
 30
0.0
 10
255.8655206600898
 20
57.05933870687069
 30
0.0
 10
255.6848179691331
 20
56.8361473213982
 30
0.0
 10
255.6498830055831
 20
56.7073981439004
 30
0.0
 10
255.6450682830423
 20
56.68965398435325
 30
0.0
  0
SPLINE
  5
248
330
1F
100
AcDbEntity
  8
0
  6
Continuous
 62
     7
370
    15
100
AcDbSpline
210
0.0
220
0.0
230
1.0
 70
     8
 71
     3
 72
    14
 73
    10
 74
     0
 42
0.000000001
 43
0.00000001
 40
0.0
 40
0.0
 40
0.0
 40
0.0
 40
0.25
 40
0.25
 40
0.5
 40
0.5
 40
0.75
 40
0.75
 40
1.0
 40
1.0
 40
1.0
 40
1.0
 10
245.3617205054153
 20
39.47804576705744
 30
0.0
 10
245.3240865119573
 20
39.49977140903747
 30
0.0
 10
245.2783125552681
 20
39.51698317014898
 30
0.0
 10
245.1783766777582
 20
39.53938850378147
 30
0.0
 10
245.1239428089183
 20
39.5445633873813
 30
0.0
 10
245.0177271584263
 20
39.54262119306654
 30
0.0
 10
244.9644108584762
 20
39.53553279014831
 30
0.0
 10
244.8669177911756
 20
39.51079935386362
 30
0.0
 10
244.8220061006459
 20
39.49303851787757
 30
0.0
 10
244.7842528350459
 20
39.47124402155558
 30
0.0
  0
LINE
  5
249
330
1F
100
AcDbEntity
  8
0
  6
Continuous
 62
     7
370
    15
100
AcDbLine
 10
244.7842528172
 20
39.4712439824
 30
0.0
 11
244.7352333982
 21
39.4429456741
 31
0.0
  0
SPLINE
  5
24A
330
1F
100
AcDbEntity
  8
0
  6
Continuous
 62
     7
370
    15
100
AcDbSpline
210
0.0
220
0.0
230
1.0
 70
     8
 71
     3
 72
    10
 73
     6
 74
     0
 42
0.000000001
 43
0.00000001
 40
0.0
 40
0.0
 40
0.0
 40
0.0
 40
0.5
 40
0.5
 40
1.0
 40
1.0
 40
1.0
 40
1.0
 10
241.9817402023958
 20
40.53071970873405
 30
0.0
 10
241.989056486818
 20
40.53508770862724
 30
0.0
 10
242.0008803470264
 20
40.53561976121549
 30
0.0
 10
242.0350317113042
 20
40.5263897115772
 30
0.0
 10
242.057288674697
 20
40.5165488342609
 30
0.0
 10
242.0837526927186
 20
40.50127148184458
 30
0.0
  0
SPLINE
  5
24B
330
1F
100
AcDbEntity
  8
0
  6
Continuous
 62
     7
370
    15
100
AcDbSpline
210
0.0
220
0.0
230
1.0
 70
     8
 71
     3
 72
    14
 73
    10
 74
     0
 42
0.000000001
 43
0.00000001
 40
0.0
 40
0.0
 40
0.0
 40
0.0
 40
0.25
 40
0.25
 40
0.5
 40
0.5
 40
0.75
 40
0.75
 40
1.0
 40
1.0
 40
1.0
 40
1.0
 10
256.9993257786452
 20
57.76714415471735
 30
0.0
 10
257.0141666707744
 20
57.72862613588175
 30
0.0
 10
257.0135329028705
 20
57.69070749772828
 30
0.0
 10
256.98059729791
 20
57.62476654795901
 30
0.0
 10
256.948461452568
 20
57.59649299041705
 30
0.0
 10
256.8635588771636
 20
57.54857396422955
 30
0.0
 10
256.8111419646705
 20
57.52869686678181
 30
0.0
 10
256.6998063003754
 20
57.49283994076544
 30
0.0
 10
256.6416516236644
 20
57.47696791708201
 30
0.0
 10
256.5822466679331
 20
57.46069257152728
 30
0.0
  0
LINE
  5
24C
330
1F
100
AcDbEntity
  8
0
  6
Continuous
 62
     7
370
    15
100
AcDbLine
 10
256.9831987839
 20
57.8089999973
 30
0.0
 11
256.9993258803
 21
57.7671445077
 31
0.0
  0
SPLINE
  5
24D
330
1F
100
AcDbEntity
  8
0
  6
Continuous
 62
     7
370
    15
100
AcDbSpline
210
0.0
220
0.0
230
1.0
 70
     8
 71
     3
 72
    10
 73
     6
 74
     0
 42
0.000000001
 43
0.00000001
 40
0.0
 40
0.0
 40
0.0
 40
0.0
 40
0.5
 40
0.5
 40
1.0
 40
1.0
 40
1.0
 40
1.0
 10
257.2742709167059
 20
58.35317059109194
 30
0.0
 10
257.2462558669681
 20
58.28114448840391
 30
0.0
 10
257.2084379785182
 20
58.20019800310045
 30
0.0
 10
257.1124622306833
 20
58.01980296676054
 30
0.0
 10
257.0544304533836
 20
57.92047675978574
 30
0.0
 10
256.9831987157935
 20
57.80900029822167
 30
0.0
  0
LINE
  5
24E
330
1F
100
AcDbEntity
  8
0
  6
Continuous
 62
     7
370
    15
100
AcDbLine
 10
247.6675434192
 20
37.1108399921
 30
0.0
 11
245.8396892585
 21
38.1660377386
 31
0.0
  0
SPLINE
  5
24F
330
1F
100
AcDbEntity
  8
0
  6
Continuous
 62
     7
370
    15
100
AcDbSpline
210
0.0
220
0.0
230
1.0
 70
     8
 71
     3
 72
     8
 73
     4
 74
     0
 42
0.000000001
 43
0.00000001
 40
0.0000000000000004
 40
0.0000000000000004
 40
0.0000000000000004
 40
0.0000000000000004
 40
0.0011862984959127
 40
0.0011862984959127
 40
0.0011862984959127
 40
0.0011862984959127
 10
245.8396889909972
 20
38.16603779844863
 30
0.0
 10
245.8286267917395
 20
38.22814624336741
 30
0.0
 10
245.8180007851657
 20
38.28993903066902
 30
0.0
 10
245.8077876573483
 20
38.35143185738691
 30
0.0
  0
LWPOLYLINE
  5
250
330
1F
100
AcDbEntity
  8
0
  6
Continuous
 62
     7
370
    15
100
AcDbPolyline
 90
       35
 70
   128
 43
0.0
 10
274.6917194115
 20
31.1167185125
 10
274.750714792
 20
31.8859668191
 10
274.9256913848
 20
32.6971335999
 10
275.2106906794
 20
33.5225956948
 10
275.5960073759
 20
34.3342428383
 10
276.0685201397
 20
35.1044355266
 10
276.6121380944
 20
35.8069457639
 10
277.2083488128
 20
36.4178503167
 10
277.8368491209
 20
36.9163454433
 10
278.4762362399
 20
37.2854557703
 10
279.104736548
 20
37.5126116536
 10
279.7009472665
 20
37.590077344
 10
280.2445652211
 20
37.5152150372
 10
280.7170779849
 20
37.2905739736
 10
281.1023946814
 20
36.9238040185
 10
281.387393976
 20
36.427395105
 10
281.5623705688
 20
35.818251998
 10
281.6213659493
 20
35.1171183079
 10
281.5623705688
 20
34.3478700014
 10
281.387393976
 20
33.5367032205
 10
281.1023946814
 20
32.7112411256
 10
280.7170779849
 20
31.8995939822
 10
280.2445652211
 20
31.1294012939
 10
279.7009472665
 20
30.4268910566
 10
279.104736548
 20
29.8159865038
 10
278.4762362399
 20
29.3174913772
 10
277.8368491209
 20
28.9483810501
 10
277.2083488128
 20
28.7212251669
 10
276.6121380944
 20
28.6437594765
 10
276.0685201397
 20
28.7186217833
 10
275.5960073759
 20
28.9432628469
 10
275.2106906794
 20
29.310032802
 10
274.9256913848
 20
29.8064417155
 10
274.750714792
 20
30.4155848225
 10
274.6917194115
 20
31.1167185125
  0
LWPOLYLINE
  5
251
330
1F
100
AcDbEntity
  8
0
  6
Continuous
 62
     7
370
    15
100
AcDbPolyline
 90
       18
 70
   128
 43
0.0
 10
274.5502982955
 20
31.1167185125
 10
274.6104974953
 20
31.9016656545
 10
274.7890450458
 20
32.7293868546
 10
275.0798606054
 20
33.5716951283
 10
275.4730409819
 20
34.3999065069
 10
275.9551969776
 20
35.1858175337
 10
276.5099091023
 20
35.9026646874
 10
277.118287336
 20
36.5260364104
 10
277.7596142184
 20
37.0347050061
 10
278.4120500264
 20
37.411348181
 10
279.0533769088
 20
37.6431398426
 10
279.6617551425
 20
37.7221866768
 10
280.2164672672
 20
37.6457965097
 10
280.6986232629
 20
37.4165709462
 10
281.0918036394
 20
37.0423159676
 10
281.382619199
 20
36.535776192
 10
281.5611667495
 20
35.9142016057
 10
281.6213659493
 20
35.1987589804
  0
LWPOLYLINE
  5
252
330
1F
100
AcDbEntity
  8
0
  6
Continuous
 62
     7
370
    15
100
AcDbPolyline
 90
       10
 70
   128
 43
0.0
 10
278.0864067461
 20
29.0753665015
 10
277.7596142184
 20
28.904129312
 10
277.118287336
 20
28.6723376504
 10
276.5099091023
 20
28.5932908161
 10
275.9551969776
 20
28.6696809833
 10
275.4730409819
 20
28.8989065467
 10
275.0798606054
 20
29.2731615254
 10
274.7890450458
 20
29.779701301
 10
274.6104974953
 20
30.4012758873
 10
274.5502982955
 20
31.1167185125
  0
SPLINE
  5
253
330
1F
100
AcDbEntity
  8
0
  6
Continuous
 62
     7
370
    15
100
AcDbSpline
210
0.0
220
0.0
230
1.0
 70
     8
 71
     3
 72
    38
 73
    34
 74
     0
 42
0.000000001
 43
0.00000001
 40
0.0
 40
0.0
 40
0.0
 40
0.0
 40
0.0625
 40
0.0625
 40
0.125
 40
0.125
 40
0.1874999999999999
 40
0.1874999999999999
 40
0.2499999999999999
 40
0.2499999999999999
 40
0.3124999999999999
 40
0.3124999999999999
 40
0.3749999999999999
 40
0.3749999999999999
 40
0.4375
 40
0.4375
 40
0.5000000000000001
 40
0.5000000000000001
 40
0.5625000000000001
 40
0.5625000000000001
 40
0.6250000000000001
 40
0.6250000000000001
 40
0.6875000000000001
 40
0.6875000000000001
 40
0.75
 40
0.75
 40
0.8125
 40
0.8125
 40
0.875
 40
0.875
 40
0.9375
 40
0.9375
 40
1.0
 40
1.0
 40
1.0
 40
1.0
 10
277.2903374656184
 20
37.69967209630773
 30
0.0
 10
277.2197848807485
 20
37.65894295600641
 30
0.0
 10
277.1406992653963
 20
37.62077091679626
 30
0.0
 10
276.9680810369327
 20
37.55117394131268
 30
0.0
 10
276.8772110800343
 20
37.52075118644471
 30
0.0
 10
276.6870697629845
 20
37.4686308739212
 30
0.0
 10
276.5882227509247
 20
37.44719935281584
 30
0.0
 10
276.390803576019
 20
37.41528440682757
 30
0.0
 10
276.290250225761
 20
37.40447748244947
 30
0.0
 10
276.0923753382895
 20
37.3943441291308
 30
0.0
 10
275.995220494435
 20
37.39490173650893
 30
0.0
 10
275.8040822002579
 20
37.40769493200019
 30
0.0
 10
275.7101079288421
 20
37.42008372036595
 30
0.0
 10
275.5316756442248
 20
37.45630485241743
 30
0.0
 10
275.4463222979381
 20
37.48016506511696
 30
0.0
 10
275.2832913188453
 20
37.54002760221204
 30
0.0
 10
275.2064491650951
 20
37.57585958370737
 30
0.0
 10
275.0657818225203
 20
37.65731821267742
 30
0.0
 10
275.0013055632602
 20
37.70317015135695
 30
0.0
 10
274.8844715636817
 20
37.80524905283099
 30
0.0
 10
274.8329527616378
 20
37.86090054977337
 30
0.0
 10
274.7459453972367
 20
37.97816136010236
 30
0.0
 10
274.7100183451446
 20
38.04013253688505
 30
0.0
 10
274.6543892969951
 20
38.17032448851717
 30
0.0
 10
274.6352439301233
 20
38.23758370746724
 30
0.0
 10
274.6156334293301
 20
38.37227751290634
 30
0.0
 10
274.6149291505437
 20
38.44019127826783
 30
0.0
 10
274.6341453797161
 20
38.57614494602741
 30
0.0
 10
274.6540053858624
 20
38.64263959628336
 30
0.0
 10
274.7147735312353
 20
38.76861615231842
 30
0.0
 10
274.7565856889429
 20
38.82926862662276
 30
0.0
 10
274.8597429416072
 20
38.93731309637329
 30
0.0
 10
274.9209165005605
 20
38.98516085184566
 30
0.0
 10
274.9922404267622
 20
39.02633527801963
 30
0.0
  0
SPLINE
  5
254
330
1F
100
AcDbEntity
  8
0
  6
Continuous
 62
     7
370
    15
100
AcDbSpline
210
0.0
220
0.0
230
1.0
 70
     8
 71
     3
 72
    32
 73
    28
 74
     0
 42
0.000000001
 43
0.00000001
 40
0.0
 40
0.0
 40
0.0
 40
0.0
 40
0.0625000000000003
 40
0.0625000000000003
 40
0.1250000000000006
 40
0.1250000000000006
 40
0.1875000000000009
 40
0.1875000000000009
 40
0.2500000000000013
 40
0.2500000000000013
 40
0.3750000000000021
 40
0.3750000000000021
 40
0.5000000000000029
 40
0.5000000000000029
 40
0.6250000000000037
 40
0.6250000000000037
 40
0.6875000000000031
 40
0.6875000000000031
 40
0.7500000000000024
 40
0.7500000000000024
 40
0.8125000000000018
 40
0.8125000000000018
 40
0.8750000000000012
 40
0.8750000000000012
 40
0.9375000000000006
 40
0.9375000000000006
 40
1.0
 40
1.0
 40
1.0
 40
1.0
 10
274.9922404267622
 20
39.02633527801963
 30
0.0
 10
275.0636454880048
 20
39.06755654245568
 30
0.0
 10
275.1434380852093
 20
39.10083597898011
 30
0.0
 10
275.3148007235816
 20
39.15089200681794
 30
0.0
 10
275.407872481078
 20
39.16793065524739
 30
0.0
 10
275.597881805649
 20
39.1860610297069
 30
0.0
 10
275.6964646200684
 20
39.18749688443981
 30
0.0
 10
275.8957413885614
 20
39.17717455358336
 30
0.0
 10
275.9952761092942
 20
39.16559261058573
 30
0.0
 10
276.2938826742189
 20
39.11487083104684
 30
0.0
 10
276.4839607331787
 20
39.06182301470989
 30
0.0
 10
276.8442105240866
 20
38.93033436593728
 30
0.0
 10
277.0062679694146
 20
38.85476271631052
 30
0.0
 10
277.2903292107979
 20
38.69017229258313
 30
0.0
 10
277.4063833461826
 20
38.60461186785434
 30
0.0
 10
277.5380047676321
 20
38.47046417628638
 30
0.0
 10
277.5736220415779
 20
38.42580534557383
 30
0.0
 10
277.6283531064886
 20
38.33558164486797
 30
0.0
 10
277.647542288444
 20
38.28974195740356
 30
0.0
 10
277.6671409917292
 20
38.19697602418849
 30
0.0
 10
277.6674532693016
 20
38.15102598662597
 30
0.0
 10
277.6483026971366
 20
38.05869749023375
 30
0.0
 10
277.6284807883195
 20
38.01176427830508
 30
0.0
 10
277.5671980684558
 20
37.91879555365822
 30
0.0
 10
277.5264919601271
 20
37.87350010766858
 30
0.0
 10
277.4239427920691
 20
37.78457308606369
 30
0.0
 10
277.3609703080844
 20
37.740447568333
 30
0.0
 10
277.2903374656184
 20
37.69967209630773
 30
0.0
  0
ARC
  5
255
330
1F
100
AcDbEntity
  8
0
  6
Continuous
 62
     7
370
    15
100
AcDbCircle
 10
276.0961632454
 20
29.9018070103
 30
0.0
 40
0.4510551640458601
100
AcDbArc
 50
173.8039502847
 51
288.0938743032
  0
LWPOLYLINE
  5
256
330
1F
100
AcDbEntity
  8
0
  6
Continuous
 62
     7
370
    15
100
AcDbPolyline
 90
        9
 70
   128
 43
0.0
 10
280.0768357459
 20
31.6901801821
 10
279.6536074652
 20
31.0904143903
 10
279.1821887908
 20
30.5558815872
 10
278.6777546048
 20
30.1037883172
 10
278.1565426804
 20
29.7486875795
 10
277.635330756
 20
29.5020098385
 10
277.13089657
 20
29.3716957943
 10
276.6594778956
 20
29.3619401814
 10
276.2362496149
 20
29.4730570015
  0
ARC
  5
257
330
1F
100
AcDbEntity
  8
0
  6
Continuous
 62
     7
370
    15
100
AcDbCircle
 10
278.9243643655
 20
33.0045674655
 30
0.0
 40
1.74808587129083
100
AcDbArc
 50
311.2446937139
 51
354.8314078119
  0
ARC
  5
258
330
1F
100
AcDbEntity
  8
0
  6
Continuous
 62
     7
370
    15
100
AcDbCircle
 10
277.3198761959
 20
34.5652176599
 30
0.0
 40
3.760865957482742
100
AcDbArc
 50
332.8163506303
 51
27.1836493697
  0
ARC
  5
259
330
1F
100
AcDbEntity
  8
0
  6
Continuous
 62
     7
370
    15
100
AcDbCircle
 10
280.2169221154
 20
36.3320298102
 30
0.0
 40
0.4510551640458936
100
AcDbArc
 50
353.8039502848
 51
108.0938743032
  0
LWPOLYLINE
  5
25A
330
1F
100
AcDbEntity
  8
0
  6
Continuous
 62
     7
370
    15
100
AcDbPolyline
 90
        9
 70
   128
 43
0.0
 10
276.2362496149
 20
34.5436566384
 10
276.6594778956
 20
35.1434224302
 10
277.13089657
 20
35.6779552332
 10
277.635330756
 20
36.1300485033
 10
278.1565426804
 20
36.485149241
 10
278.6777546048
 20
36.731826982
 10
279.1821887908
 20
36.8621410262
 10
279.6536074652
 20
36.8718966391
 10
280.0768357459
 20
36.760779819
  0
ARC
  5
25B
330
1F
100
AcDbEntity
  8
0
  6
Continuous
 62
     7
370
    15
100
AcDbCircle
 10
277.3887209953
 20
33.229269355
 30
0.0
 40
1.748085871290533
100
AcDbArc
 50
131.2446937139
 51
174.8314078119
  0
ARC
  5
25C
330
1F
100
AcDbEntity
  8
0
  6
Continuous
 62
     7
370
    15
100
AcDbCircle
 10
278.9932091649
 20
31.6686191606
 30
0.0
 40
3.760865957482487
100
AcDbArc
 50
152.8163506303
 51
207.1836493697
  0
LINE
  5
25D
330
1F
100
AcDbEntity
  8
0
  6
Continuous
 62
     7
370
    15
100
AcDbLine
 10
245.9124734908
 20
38.9512126338
 30
0.0
 11
245.8925801783
 21
38.7218668773
 31
0.0
  0
ARC
  5
25E
330
1F
100
AcDbEntity
  8
0
  6
Continuous
 62
     7
370
    15
100
AcDbCircle
 10
261.8952566528
 20
37.2945666962
 30
0.0
 40
16.06296283247877
100
AcDbArc
 50
176.9225000953
 51
185.727139394
  0
SPLINE
  5
25F
330
1F
100
AcDbEntity
  8
0
  6
Continuous
 62
     7
370
    15
100
AcDbSpline
210
0.0
220
0.0
230
1.0
 70
     8
 71
     3
 72
     8
 73
     4
 74
     0
 42
0.000000001
 43
0.00000001
 40
0.0
 40
0.0
 40
0.0
 40
0.0
 40
1.0
 40
1.0
 40
1.0
 40
1.0
 10
279.8413929119293
 20
36.70637174613202
 30
0.0
 10
279.9224808494409
 20
36.73230547498248
 30
0.0
 10
280.0009486349836
 20
36.7506338275012
 30
0.0
 10
280.0768363955088
 20
36.76077956415052
 30
0.0
  0
SPLINE
  5
260
330
1F
100
AcDbEntity
  8
0
  6
Continuous
 62
     7
370
    15
100
AcDbSpline
210
0.0
220
0.0
230
1.0
 70
     8
 71
     3
 72
     8
 73
     4
 74
     0
 42
0.000000001
 43
0.00000001
 40
0.0
 40
0.0
 40
0.0
 40
0.0
 40
1.0
 40
1.0
 40
1.0
 40
1.0
 10
279.48476867992
 20
36.5884544917899
 30
0.0
 10
279.6027105177633
 20
36.62884147728193
 30
0.0
 10
279.7216479051374
 20
36.66807462534394
 30
0.0
 10
279.8413929119293
 20
36.70637174613202
 30
0.0
  0
ARC
  5
261
330
1F
100
AcDbEntity
  8
0
  6
Continuous
 62
     7
370
    15
100
AcDbCircle
 10
279.5114913322
 20
33.1888037638
 30
0.0
 40
3.399755828751187
100
AcDbArc
 50
90.4503592317
 51
149.5442642356
  0
SPLINE
  5
262
330
1F
100
AcDbEntity
  8
0
  6
Continuous
 62
     7
370
    15
100
AcDbSpline
210
0.0
220
0.0
230
1.0
 70
     8
 71
     3
 72
     8
 73
     4
 74
     0
 42
0.000000001
 43
0.00000001
 40
0.0
 40
0.0
 40
0.0
 40
0.0
 40
1.0
 40
1.0
 40
1.0
 40
1.0
 10
276.3765696841152
 20
34.70617187216638
 30
0.0
 10
276.4429169556082
 20
34.77530703380065
 30
0.0
 10
276.5108791049185
 20
34.84396856191333
 30
0.0
 10
276.5808304918086
 20
34.91204665913727
 30
0.0
  0
SPLINE
  5
263
330
1F
100
AcDbEntity
  8
0
  6
Continuous
 62
     7
370
    15
100
AcDbSpline
210
0.0
220
0.0
230
1.0
 70
     8
 71
     3
 72
     8
 73
     4
 74
     0
 42
0.000000001
 43
0.00000001
 40
0.0
 40
0.0
 40
0.0
 40
0.0
 40
1.0
 40
1.0
 40
1.0
 40
1.0
 10
276.2362501496351
 20
34.54365631720287
 30
0.0
 10
276.2848067860587
 20
34.60535080175003
 30
0.0
 10
276.3316462805721
 20
34.65936080224257
 30
0.0
 10
276.3765696841152
 20
34.70617187216638
 30
0.0
  0
LWPOLYLINE
  5
264
330
1F
100
AcDbEntity
  8
0
  6
Continuous
 62
     7
370
    15
100
AcDbPolyline
 90
        3
 70
   128
 43
0.0
 10
244.9136861182
 20
38.0510848229
 10
244.9731434677
 20
39.4830199363
 10
244.9755945703
 20
39.5128787114
  0
ARC
  5
265
330
1F
100
AcDbEntity
  8
0
  6
Continuous
 62
     7
370
    15
100
AcDbCircle
 10
256.5877747527
 20
37.7443481306
 30
0.0
 40
11.67811769269944
100
AcDbArc
 50
178.4948996252
 51
203.9177321152
  0
SPLINE
  5
266
330
1F
100
AcDbEntity
  8
0
  6
Continuous
 62
     7
370
    15
100
AcDbSpline
210
0.0
220
0.0
230
1.0
 70
     8
 71
     3
 72
     8
 73
     4
 74
     0
 42
0.000000001
 43
0.00000001
 40
0.0
 40
0.0
 40
0.0
 40
0.0
 40
1.0
 40
1.0
 40
1.0
 40
1.0
 10
275.6477435595293
 20
29.95048947107035
 30
0.0
 10
275.6337002698205
 20
30.01414397200544
 30
0.0
 10
275.6233164184802
 20
30.08092467217448
 30
0.0
 10
275.6163252887528
 20
30.15073865227634
 30
0.0
  0
ARC
  5
267
330
1F
100
AcDbEntity
  8
0
  6
Continuous
 62
     7
370
    15
100
AcDbCircle
 10
278.954213848
 20
31.693310229
 30
0.0
 40
3.677095228451007
100
AcDbArc
 50
155.1964645707
 51
204.8035354293
  0
SPLINE
  5
268
330
1F
100
AcDbEntity
  8
0
  6
Continuous
 62
     7
370
    15
100
AcDbSpline
210
0.0
220
0.0
230
1.0
 70
     8
 71
     3
 72
     8
 73
     4
 74
     0
 42
0.000000001
 43
0.00000001
 40
0.0
 40
0.0
 40
0.0
 40
0.0
 40
1.0
 40
1.0
 40
1.0
 40
1.0
 10
275.6163252887528
 20
33.2358811331563
 30
0.0
 10
275.6233164184802
 20
33.28186535190768
 30
0.0
 10
275.6337002698205
 20
33.33212869477099
 30
0.0
 10
275.6477435595293
 20
33.38674817285825
 30
0.0
  0
LWPOLYLINE
  5
269
330
1F
100
AcDbEntity
  8
0
  6
Continuous
 62
     7
370
    15
100
AcDbPolyline
 90
       19
 70
   128
 43
0.0
 10
278.1991234274
 20
36.2380932107
 10
278.4882972356
 20
36.2127099624
 10
278.8575990352
 20
36.0480961684
 10
279.1378719558
 20
35.741007882
 10
279.3128276399
 20
35.3092919863
 10
279.3722983248
 20
34.778038247
 10
279.3128276399
 20
34.1781211164
 10
279.1378719558
 20
33.5444056876
 10
278.8575990352
 20
32.9137211749
 10
278.4882972356
 20
32.322720599
 10
278.0514290164
 20
31.805750819
 10
277.5723836969
 20
31.3928562682
 10
277.0790015753
 20
31.108032832
 10
276.5999562557
 20
30.9678334298
 10
276.1630880366
 20
30.9804059004
 10
275.793786237
 20
31.1450196944
 10
275.5135133164
 20
31.4521079809
 10
275.3385576323
 20
31.8838238765
 10
275.3134586901
 20
32.0036050781
  0
LINE
  5
26A
330
1F
100
AcDbEntity
  8
0
  6
Continuous
 62
     7
370
    15
100
AcDbLine
 10
275.5932810016
 20
30.0345611646
 30
0.0
 11
276.7262788395
 21
30.6886268942
 31
0.0
  0
LINE
  5
26B
330
1F
100
AcDbEntity
  8
0
  6
Continuous
 62
     7
370
    15
100
AcDbLine
 10
279.8288160304
 20
36.5841515267
 30
0.0
 11
279.8358489565
 21
36.7216225953
 31
0.0
  0
ARC
  5
26C
330
1F
100
AcDbEntity
  8
0
  6
Continuous
 62
     7
370
    15
100
AcDbCircle
 10
276.4909269734
 20
35.0415803088
 30
0.0
 40
3.677095228451625
100
AcDbArc
 50
335.1964645707
 51
24.8035354293
  0
ARC
  5
26D
330
1F
100
AcDbEntity
  8
0
  6
Continuous
 62
     7
370
    15
100
AcDbCircle
 10
278.1826049913
 20
33.4305403314
 30
0.0
 40
1.647634290771105
100
AcDbArc
 50
302.0978965074
 51
2.3816577075
  0
LINE
  5
26E
330
1F
100
AcDbEntity
  8
0
  6
Continuous
 62
     7
370
    15
100
AcDbLine
 10
277.9251064327
 20
31.3806953327
 30
0.0
 11
279.0581042705
 21
32.0347610623
 31
0.0
  0
ARC
  5
26F
330
1F
100
AcDbEntity
  8
0
  6
Continuous
 62
     7
370
    15
100
AcDbCircle
 10
275.8469861241
 20
33.5961334625
 30
0.0
 40
3.037556604250718
100
AcDbArc
 50
286.8264491711
 51
313.1681742962
  0
LINE
  5
270
330
1F
100
AcDbEntity
  8
0
  6
Continuous
 62
     7
370
    15
100
AcDbLine
 10
279.3166839942
 20
36.4914213496
 30
0.0
 11
279.4847686718
 21
36.5884545686
 31
0.0
  0
ARC
  5
271
330
1F
100
AcDbEntity
  8
0
  6
Continuous
 62
     7
370
    15
100
AcDbCircle
 10
279.5114954239
 20
33.1887966761
 30
0.0
 40
3.308365340717418
100
AcDbArc
 50
93.3757859468
 51
146.6188375205
  0
LINE
  5
272
330
1F
100
AcDbEntity
  8
0
  6
Continuous
 62
     7
370
    15
100
AcDbLine
 10
276.5808303945
 20
34.9120466845
 30
0.0
 11
276.7489150722
 21
35.0090799035
 31
0.0
  0
SPLINE
  5
273
330
1F
100
AcDbEntity
  8
0
  6
Continuous
 62
     7
370
    15
100
AcDbSpline
210
0.0
220
0.0
230
1.0
 70
     8
 71
     3
 72
     9
 73
     5
 74
     0
 42
0.000000001
 43
0.00000001
 40
0.0
 40
0.0
 40
0.0
 40
0.0
 40
0.4515137290780097
 40
1.0
 40
1.0
 40
1.0
 40
1.0
 10
278.5700078741122
 20
36.418263069948
 30
0.0
 10
278.6802863561158
 20
36.43613911185528
 30
0.0
 10
278.9245280588627
 20
36.47573047033686
 30
0.0
 10
279.1777792130334
 20
36.48586351419938
 30
0.0
 10
279.3166839941911
 20
36.49142134964061
 30
0.0
  0
LINE
  5
274
330
1F
100
AcDbEntity
  8
0
  6
Continuous
 62
     7
370
    15
100
AcDbLine
 10
242.4172754327
 20
40.1417551858
 30
0.0
 11
241.9817396137
 21
40.5307193555
 31
0.0
  0
LINE
  5
275
330
1F
100
AcDbEntity
  8
0
  6
Continuous
 62
     7
370
    15
100
AcDbLine
 10
243.87389867
 20
39.3008644898
 30
0.0
 11
242.4172754327
 21
40.1417551858
 31
0.0
  0
LWPOLYLINE
  5
276
330
1F
100
AcDbEntity
  8
0
  6
Continuous
 62
     7
370
    15
100
AcDbPolyline
 90
       17
 70
   128
 43
0.0
 10
278.1322432936
 20
36.2034941472
 10
278.3884143907
 20
36.1443341866
 10
278.7220844049
 20
35.9266444243
 10
278.9569065592
 20
35.5689591068
 10
279.0781259992
 20
35.0937527941
 10
279.0781259992
 20
34.5308844455
 10
278.9569065592
 20
33.9157211464
 10
278.7220844049
 20
33.2869159404
 10
278.3884143907
 20
32.68397898
 10
277.9768620218
 20
32.1447948917
 10
277.5132867359
 20
31.7032426513
 10
277.0268166769
 20
31.3870667609
 10
276.5480185379
 20
31.2161333585
 10
276.1069769987
 20
31.2011832863
 10
275.7314042914
 20
31.343155504
 10
275.4448990702
 20
31.6331295876
 10
275.375654103
 20
31.7534336148
  0
LINE
  5
277
330
1F
100
AcDbEntity
  8
0
  6
Continuous
 62
     7
370
    15
100
AcDbLine
 10
245.9124734908
 20
38.9512126338
 30
0.0
 11
245.9124734908
 21
38.8060627966
 31
0.0
  0
LINE
  5
278
330
1F
100
AcDbEntity
  8
0
  6
Continuous
 62
     7
370
    15
100
AcDbLine
 10
245.9124734908
 20
38.1240195992
 30
0.0
 11
245.9124734908
 21
35.6916264746
 31
0.0
  0
LINE
  5
279
330
1F
100
AcDbEntity
  8
0
  6
Continuous
 62
     7
370
    15
100
AcDbLine
 10
245.9124734908
 20
39.1601022842
 30
0.0
 11
245.9124734908
 21
38.9512126338
 31
0.0
  0
LINE
  5
27A
330
1F
100
AcDbEntity
  8
0
  6
Continuous
 62
     7
370
    15
100
AcDbLine
 10
245.9124734908
 20
35.6916264746
 30
0.0
 11
245.9124734908
 21
32.821637432
 31
0.0
  0
SPLINE
  5
27B
330
1F
100
AcDbEntity
  8
0
  6
Continuous
 62
     7
370
    15
100
AcDbSpline
210
0.0
220
0.0
230
1.0
 70
     8
 71
     3
 72
     8
 73
     4
 74
     0
 42
0.000000001
 43
0.00000001
 40
0.0
 40
0.0
 40
0.0
 40
0.0
 40
1.0
 40
1.0
 40
1.0
 40
1.0
 10
276.3765696841152
 20
29.5823782775833
 30
0.0
 10
276.3316462805721
 20
29.53556720765949
 30
0.0
 10
276.2848067860587
 20
29.49898023137536
 30
0.0
 10
276.2362501496351
 20
29.4730565726246
 30
0.0
  0
SPLINE
  5
27C
330
1F
100
AcDbEntity
  8
0
  6
Continuous
 62
     7
370
    15
100
AcDbSpline
210
0.0
220
0.0
230
1.0
 70
     8
 71
     3
 72
     8
 73
     4
 74
     0
 42
0.000000001
 43
0.00000001
 40
0.0
 40
0.0
 40
0.0
 40
0.0
 40
1.0
 40
1.0
 40
1.0
 40
1.0
 10
280.6653429856146
 20
36.28334666570477
 30
0.0
 10
280.6575175784055
 20
36.23231669477979
 30
0.0
 10
280.6432115772903
 20
36.17978914304647
 30
0.0
 10
280.6225721622711
 20
36.12592593690511
 30
0.0
  0
LINE
  5
27D
330
1F
100
AcDbEntity
  8
0
  6
Continuous
 62
     7
370
    15
100
AcDbLine
 10
279.8288160304
 20
36.5841515267
 30
0.0
 11
280.6225715797
 21
36.1259262017
 31
0.0
  0
ARC
  5
27E
330
1F
100
AcDbEntity
  8
0
  6
Continuous
 62
     7
370
    15
100
AcDbCircle
 10
276.5541077342
 20
33.1879038533
 30
0.0
 40
3.399755828750983
100
AcDbArc
 50
270.4503592317
 51
329.5442642356
  0
SPLINE
  5
27F
330
1F
100
AcDbEntity
  8
0
  6
Continuous
 62
     7
370
    15
100
AcDbSpline
210
0.0
220
0.0
230
1.0
 70
     8
 71
     3
 72
     8
 73
     4
 74
     0
 42
0.000000001
 43
0.00000001
 40
0.0
 40
0.0
 40
0.0
 40
0.0
 40
1.0
 40
1.0
 40
1.0
 40
1.0
 10
279.8413929119293
 20
31.58257815154893
 30
0.0
 10
279.7216343232968
 20
31.54427668698564
 30
0.0
 10
279.6026961808848
 20
31.50504297330186
 30
0.0
 10
279.48476867992
 20
31.46466089720682
 30
0.0
  0
SPLINE
  5
280
330
1F
100
AcDbEntity
  8
0
  6
Continuous
 62
     7
370
    15
100
AcDbSpline
210
0.0
220
0.0
230
1.0
 70
     8
 71
     3
 72
     8
 73
     4
 74
     0
 42
0.000000001
 43
0.00000001
 40
0.0
 40
0.0
 40
0.0
 40
0.0
 40
1.0
 40
1.0
 40
1.0
 40
1.0
 10
280.0768363955088
 20
31.69017981957226
 30
0.0
 10
280.0009486349836
 20
31.64426325712654
 30
0.0
 10
279.9224808494409
 20
31.6085118803994
 30
0.0
 10
279.8413929119293
 20
31.58257815154893
 30
0.0
  0
SPLINE
  5
281
330
1F
100
AcDbEntity
  8
0
  6
Continuous
 62
     7
370
    15
100
AcDbSpline
210
0.0
220
0.0
230
1.0
 70
     8
 71
     3
 72
     8
 73
     4
 74
     0
 42
0.000000001
 43
0.00000001
 40
0.0
 40
0.0
 40
0.0
 40
0.0
 40
1.0
 40
1.0
 40
1.0
 40
1.0
 10
276.5808304918086
 20
29.78825306455419
 30
0.0
 10
276.510870600672
 20
29.72016669082646
 30
0.0
 10
276.4429094311535
 20
29.65150559858783
 30
0.0
 10
276.3765696841152
 20
29.5823782775833
 30
0.0
  0
LINE
  5
282
330
1F
100
AcDbEntity
  8
0
  6
Continuous
 62
     7
370
    15
100
AcDbLine
 10
276.7262788395
 20
30.6886268942
 30
0.0
 11
276.97410626
 21
30.5455591696
 31
0.0
  0
SPLINE
  5
283
330
1F
100
AcDbEntity
  8
0
  6
Continuous
 62
     7
370
    15
100
AcDbSpline
210
0.0
220
0.0
230
1.0
 70
     8
 71
     3
 72
    10
 73
     6
 74
     0
 42
0.000000001
 43
0.00000001
 40
0.0
 40
0.0
 40
0.0
 40
0.0
 40
0.5
 40
0.5
 40
1.0
 40
1.0
 40
1.0
 40
1.0
 10
276.9741064829745
 20
30.54555908523312
 30
0.0
 10
276.9051793134074
 20
30.44018845176821
 30
0.0
 10
276.8565657686826
 20
30.3314623790396
 30
0.0
 10
276.785129191087
 20
30.1097501127631
 30
0.0
 10
276.7626467181342
 20
29.9970568672516
 30
0.0
 10
276.7489150992379
 20
29.88528624301382
 30
0.0
  0
LINE
  5
284
330
1F
100
AcDbEntity
  8
0
  6
Continuous
 62
     7
370
    15
100
AcDbLine
 10
276.7489150722
 20
29.8852862675
 30
0.0
 11
276.5808303945
 21
29.7882530485
 31
0.0
  0
ARC
  5
285
330
1F
100
AcDbEntity
  8
0
  6
Continuous
 62
     7
370
    15
100
AcDbCircle
 10
276.5541036425
 20
33.1879109411
 30
0.0
 40
3.308365340717129
100
AcDbArc
 50
273.3757859468
 51
326.6188375205
  0
LINE
  5
286
330
1F
100
AcDbEntity
  8
0
  6
Continuous
 62
     7
370
    15
100
AcDbLine
 10
279.4847686718
 20
31.4646609327
 30
0.0
 11
279.3166839942
 21
31.3676277137
 31
0.0
  0
SPLINE
  5
287
330
1F
100
AcDbEntity
  8
0
  6
Continuous
 62
     7
370
    15
100
AcDbSpline
210
0.0
220
0.0
230
1.0
 70
     8
 71
     3
 72
     8
 73
     4
 74
     0
 42
0.000000001
 43
0.00000001
 40
0.0
 40
0.0
 40
0.0
 40
0.0
 40
1.0
 40
1.0
 40
1.0
 40
1.0
 10
280.6225721622711
 20
33.04078345602513
 30
0.0
 10
280.6432115772903
 20
32.97884846331328
 30
0.0
 10
280.6575175784055
 20
32.91433197201425
 30
0.0
 10
280.6653429856146
 20
32.84708796391689
 30
0.0
  0
ARC
  5
288
330
1F
100
AcDbEntity
  8
0
  6
Continuous
 62
     7
370
    15
100
AcDbCircle
 10
277.2846825227
 20
34.5833549838
 30
0.0
 40
3.677095228451884
100
AcDbArc
 50
335.1964645707
 51
24.8035354293
  0
ARC
  5
289
330
1F
100
AcDbEntity
  8
0
  6
Continuous
 62
     7
370
    15
100
AcDbCircle
 10
276.0948135446
 20
33.4530657379
 30
0.0
 40
3.037556604250662
100
AcDbArc
 50
286.8264491711
 51
313.1681742962
  0
SPLINE
  5
28A
330
1F
100
AcDbEntity
  8
0
  6
Continuous
 62
     7
370
    15
100
AcDbSpline
210
0.0
220
0.0
230
1.0
 70
     8
 71
     3
 72
    10
 73
     6
 74
     0
 42
0.000000001
 43
0.00000001
 40
0.0
 40
0.0
 40
0.0
 40
0.0
 40
0.5
 40
0.5
 40
1.0
 40
1.0
 40
1.0
 40
1.0
 10
279.3166840724908
 20
31.36762771874731
 30
0.0
 10
279.1216172945507
 20
31.35964111748635
 30
0.0
 10
278.9261358775899
 20
31.34656794788997
 30
0.0
 10
278.5432765585575
 20
31.30539463929079
 30
0.0
 10
278.3553376328655
 20
31.27739139160154
 30
0.0
 10
278.1729340352104
 20
31.23762750004855
 30
0.0
  0
LINE
  5
28B
330
1F
100
AcDbEntity
  8
0
  6
Continuous
 62
     7
370
    15
100
AcDbLine
 10
279.8288160304
 20
33.4990090909
 30
0.0
 11
280.6225715797
 21
33.0407837659
 31
0.0
  0
LINE
  5
28C
330
1F
100
AcDbEntity
  8
0
  6
Continuous
 62
     7
370
    15
100
AcDbLine
 10
245.8396892585
 20
27.6734886392
 30
0.0
 11
247.6675434192
 21
26.6182908927
 31
0.0
  0
SPLINE
  5
28D
330
1F
100
AcDbEntity
  8
0
  6
Continuous
 62
     7
370
    15
100
AcDbSpline
210
0.0
220
0.0
230
1.0
 70
     8
 71
     3
 72
    14
 73
    10
 74
     0
 42
0.000000001
 43
0.00000001
 40
0.0
 40
0.0
 40
0.0
 40
0.0
 40
0.25
 40
0.25
 40
0.5
 40
0.5
 40
0.75
 40
0.75
 40
1.0
 40
1.0
 40
1.0
 40
1.0
 10
247.6220358693222
 20
26.49992262338799
 30
0.0
 10
247.6053610262558
 20
26.4565500052814
 30
0.0
 10
247.5850657833399
 20
26.41631967583556
 30
0.0
 10
247.5367688042695
 20
26.34254778816342
 30
0.0
 10
247.5085499564644
 20
26.30897818148631
 30
0.0
 10
247.4456246080412
 20
26.25542677582368
 30
0.0
 10
247.4104614320242
 20
26.23497074646403
 30
0.0
 10
247.3357784428158
 20
26.21753845295215
 30
0.0
 10
247.2972535676074
 20
26.22148576193704
 30
0.0
 10
247.2633098649101
 20
26.24108104440687
 30
0.0
  0
LINE
  5
28E
330
1F
100
AcDbEntity
  8
0
  6
Continuous
 62
     7
370
    15
100
AcDbLine
 10
247.2633097024
 20
26.241081168
 30
0.0
 11
245.8077877162
 21
27.0813361254
 31
0.0
  0
SPLINE
  5
28F
330
1F
100
AcDbEntity
  8
0
  6
Continuous
 62
     7
370
    15
100
AcDbSpline
210
0.0
220
0.0
230
1.0
 70
     8
 71
     3
 72
     8
 73
     4
 74
     0
 42
0.000000001
 43
0.00000001
 40
0.0
 40
0.0
 40
0.0
 40
0.0
 40
0.0011862984959112
 40
0.0011862984959112
 40
0.0011862984959112
 40
0.0011862984959112
 10
245.8077876573483
 20
27.08133612949989
 30
0.0
 10
245.8180007851657
 20
27.27873503138882
 30
0.0
 10
245.8286267917409
 20
27.4761208683656
 30
0.0
 10
245.8396889909986
 20
27.67348836571593
 30
0.0
  0
SPLINE
  5
290
330
1F
100
AcDbEntity
  8
0
  6
Continuous
 62
     7
370
    15
100
AcDbSpline
210
0.0
220
0.0
230
1.0
 70
     8
 71
     3
 72
     9
 73
     5
 74
     0
 42
0.000000001
 43
0.00000001
 40
0.0
 40
0.0
 40
0.0
 40
0.0
 40
0.4715650945445281
 40
1.0
 40
1.0
 40
1.0
 40
1.0
 10
280.4247905783115
 20
45.3385728443003
 30
0.0
 10
280.4218881548469
 20
45.34025162182311
 30
0.0
 10
280.4157332814306
 20
45.34381163409336
 30
0.0
 10
280.3821999421524
 20
45.36317629800892
 30
0.0
 10
280.3644797551814
 20
45.37340926235431
 30
0.0
  0
ARC
  5
291
330
1F
100
AcDbEntity
  8
0
  6
Continuous
 62
     7
370
    15
100
AcDbCircle
 10
256.2030186127
 20
28.2645212826
 30
0.0
 40
9.135356213740643
100
AcDbArc
 50
195.9732930088
 51
285.2934981896
  0
LINE
  5
292
330
1F
100
AcDbEntity
  8
0
  6
Continuous
 62
     7
370
    15
100
AcDbLine
 10
278.1729338532
 20
31.2376276081
 30
0.0
 11
277.9251064327
 21
31.3806953327
 31
0.0
  0
SPLINE
  5
293
330
1F
100
AcDbEntity
  8
0
  6
Continuous
 62
     7
370
    15
100
AcDbSpline
210
0.0
220
0.0
230
1.0
 70
     8
 71
     3
 72
     8
 73
     4
 74
     0
 42
0.000000001
 43
0.00000001
 40
0.0
 40
0.0
 40
0.0
 40
0.0
 40
1.0
 40
1.0
 40
1.0
 40
1.0
 10
246.0858073447479
 20
28.17072652030281
 30
0.0
 10
246.0036091639622
 20
28.00500619379933
 30
0.0
 10
245.9215747958103
 20
27.83925931846136
 30
0.0
 10
245.8396889909986
 20
27.67348836571594
 30
0.0
  0
LINE
  5
294
330
1F
100
AcDbEntity
  8
0
  6
Continuous
 62
     7
370
    15
100
AcDbLine
 10
246.1348268457
 20
28.1990250921
 30
0.0
 11
246.0858074267
 21
28.1707267838
 31
0.0
  0
SPLINE
  5
295
330
1F
100
AcDbEntity
  8
0
  6
Continuous
 62
     7
370
    15
100
AcDbSpline
210
0.0
220
0.0
230
1.0
 70
     8
 71
     3
 72
    12
 73
     8
 74
     0
 42
0.000000001
 43
0.00000001
 40
0.0
 40
0.0
 40
0.0
 40
0.0
 40
0.249999999999997
 40
0.249999999999997
 40
0.499999999999994
 40
0.499999999999994
 40
1.0
 40
1.0
 40
1.0
 40
1.0
 10
246.1466090325324
 20
28.53238983226394
 30
0.0
 10
246.1842078171071
 20
28.51068451593965
 30
0.0
 10
246.2143853763534
 20
28.48388264536647
 30
0.0
 10
246.2529751110344
 20
28.42625894053648
 30
0.0
 10
246.2618345962242
 20
28.39521081496511
 30
0.0
 10
246.2567871623858
 20
28.30302183855981
 30
0.0
 10
246.2100848753105
 20
28.24247041158495
 30
0.0
 10
246.1348267871122
 20
28.19902484203301
 30
0.0
  0
LINE
  5
296
330
1F
100
AcDbEntity
  8
0
  6
Continuous
 62
     7
370
    15
100
AcDbLine
 10
245.3617206181
 20
28.9854964983
 30
0.0
 11
246.1466091948
 21
28.5323899676
 31
0.0
  0
SPLINE
  5
297
330
1F
100
AcDbEntity
  8
0
  6
Continuous
 62
     7
370
    15
100
AcDbSpline
210
0.0
220
0.0
230
1.0
 70
     8
 71
     3
 72
    10
 73
     6
 74
     0
 42
0.000000001
 43
0.00000001
 40
0.0
 40
0.0
 40
0.0
 40
0.0
 40
0.5
 40
0.5
 40
1.0
 40
1.0
 40
1.0
 40
1.0
 10
244.7842528350459
 20
28.9786945888237
 30
0.0
 10
244.8603902253845
 20
29.02264776869641
 30
0.0
 10
244.9638980060688
 20
29.0491344348752
 30
0.0
 10
245.1783932981546
 20
29.05296250526253
 30
0.0
 10
245.2858235425728
 20
29.02931071835913
 30
0.0
 10
245.3617205054153
 20
28.98549633432555
 30
0.0
  0
LINE
  5
298
330
1F
100
AcDbEntity
  8
0
  6
Continuous
 62
     7
370
    15
100
AcDbLine
 10
244.7352333982
 20
28.9503965748
 30
0.0
 11
244.7842528172
 21
28.978694883
 31
0.0
  0
SPLINE
  5
299
330
1F
100
AcDbEntity
  8
0
  6
Continuous
 62
     7
370
    15
100
AcDbSpline
210
0.0
220
0.0
230
1.0
 70
     8
 71
     3
 72
     8
 73
     4
 74
     0
 42
0.000000001
 43
0.00000001
 40
0.0
 40
0.0
 40
0.0
 40
0.0
 40
1.0
 40
1.0
 40
1.0
 40
1.0
 10
243.8738983180271
 20
28.80831516575543
 30
0.0
 10
244.1610531444244
 20
28.85558683466746
 30
0.0
 10
244.4481662630096
 20
28.9029442673702
 30
0.0
 10
244.7352333926816
 20
28.9503962670935
 30
0.0
  0
LINE
  5
29A
330
1F
100
AcDbEntity
  8
0
  6
Continuous
 62
     7
370
    15
100
AcDbLine
 10
242.4172754327
 20
29.6492060865
 30
0.0
 11
243.87389867
 21
28.8083153905
 31
0.0
  0
LINE
  5
29B
330
1F
100
AcDbEntity
  8
0
  6
Continuous
 62
     7
370
    15
100
AcDbLine
 10
242.4172754327
 20
29.6492060865
 30
0.0
 11
245.55891996
 21
31.4628388678
 31
0.0
  0
ARC
  5
29C
330
1F
100
AcDbEntity
  8
0
  6
Continuous
 62
     7
370
    15
100
AcDbCircle
 10
255.3867155449
 20
29.5445390761
 30
0.0
 40
9.890562528246715
100
AcDbArc
 50
194.4210541018
 51
238.0225374632
  0
ELLIPSE
  5
29D
330
1F
100
AcDbEntity
  8
0
  6
Continuous
 62
     7
370
    15
100
AcDbEllipse
 10
245.2660274411
 20
32.4484635121
 30
0.0
 11
-7.507462981948265E-5
 21
1.066811201853405
 31
0.0
210
0.0
220
0.0
230
1.0
 40
0.7174342186
 41
3.534193645557444
 42
5.104989972352368
  0
ARC
  5
29E
330
1F
100
AcDbEntity
  8
0
  6
Continuous
 62
     7
370
    15
100
AcDbCircle
 10
255.4341360194
 20
31.9290794073
 30
0.0
 40
11.10581238431481
100
AcDbArc
 50
195.5577410858
 51
215.7110930235
  0
ARC
  5
29F
330
1F
100
AcDbEntity
  8
0
  6
Continuous
 62
     7
370
    15
100
AcDbCircle
 10
252.6416278678
 20
30.5710129101
 30
0.0
 40
9.374612820624463
100
AcDbArc
 50
193.3832905048
 51
247.5353305273
  0
SPLINE
  5
2A0
330
1F
100
AcDbEntity
  8
0
  6
Continuous
 62
     7
370
    15
100
AcDbSpline
210
0.0
220
0.0
230
1.0
 70
     8
 71
     3
 72
     8
 73
     4
 74
     0
 42
0.000000001
 43
0.00000001
 40
0.0000000000000004
 40
0.0000000000000004
 40
0.0000000000000004
 40
0.0000000000000004
 40
0.0011862984959127
 40
0.0011862984959127
 40
0.0011862984959127
 40
0.0011862984959127
 10
243.8738983180276
 20
28.80831516575448
 30
0.0
 10
243.7567478490325
 20
28.67219112291971
 30
0.0
 10
243.6393080985954
 20
28.53646754775678
 30
0.0
 10
243.5215972307507
 20
28.4011257702623
 30
0.0
  0
LINE
  5
2A1
330
1F
100
AcDbEntity
  8
0
  6
Continuous
 62
     7
370
    15
100
AcDbLine
 10
241.9817396137
 20
29.3977243789
 30
0.0
 11
242.4172754327
 21
29.6492060865
 31
0.0
  0
LINE
  5
2A2
330
1F
100
AcDbEntity
  8
0
  6
Continuous
 62
     7
370
    15
100
AcDbLine
 10
243.5215974439
 20
28.4011256771
 30
0.0
 11
242.0837527678
 21
29.2311757404
 31
0.0
  0
SPLINE
  5
2A3
330
1F
100
AcDbEntity
  8
0
  6
Continuous
 62
     7
370
    15
100
AcDbSpline
210
0.0
220
0.0
230
1.0
 70
     8
 71
     3
 72
    10
 73
     6
 74
     0
 42
0.000000001
 43
0.00000001
 40
0.0
 40
0.0
 40
0.0
 40
0.0
 40
0.5
 40
0.5
 40
1.0
 40
1.0
 40
1.0
 40
1.0
 10
242.0837526927186
 20
29.23117575395755
 30
0.0
 10
242.057343263438
 20
29.24642159296447
 30
0.0
 10
242.0350598592289
 20
29.27027901537672
 30
0.0
 10
242.0009527244074
 20
29.328205107111
 30
0.0
 10
241.9890526943525
 20
29.36210363859186
 30
0.0
 10
241.9817402023957
 20
29.39772468104621
 30
0.0
  0
ARC
  5
2A4
330
1F
100
AcDbEntity
  8
0
  6
Continuous
 62
     7
370
    15
100
AcDbCircle
 10
251.5789119313
 20
31.6032933041
 30
0.0
 40
9.768962729485185
100
AcDbArc
 50
196.6862093971
 51
238.1563776098
  0
ELLIPSE
  5
2A5
330
1F
100
AcDbEntity
  8
0
  6
Continuous
 62
     7
370
    15
100
AcDbEllipse
 10
245.2053672693
 20
32.4134337565
 30
0.0
 11
0.3250094736511642
 21
1.213179526238669
 31
0.0
210
0.0
220
0.0
230
1.0
 40
0.5176380889
 41
3.619174351347703
 42
5.189970678142653
  0
SPLINE
  5
2A6
330
1F
100
AcDbEntity
  8
0
  6
Continuous
 62
     7
370
    15
100
AcDbSpline
210
0.0
220
0.0
230
1.0
 70
     8
 71
     3
 72
    12
 73
     8
 74
     0
 42
0.000000001
 43
0.00000001
 40
0.0
 40
0.0
 40
0.0
 40
0.0
 40
0.5000000000000003
 40
0.5000000000000003
 40
0.7500000000000001
 40
0.7500000000000001
 40
1.0
 40
1.0
 40
1.0
 40
1.0
 10
271.7392243582711
 20
64.41775705746703
 30
0.0
 10
271.8022842355006
 20
64.45416074971727
 30
0.0
 10
271.8822171887317
 20
64.48099206156886
 30
0.0
 10
272.0151963770384
 20
64.4947489030794
 30
0.0
 10
272.0608675461504
 20
64.49462776928046
 30
0.0
 10
272.1485053647879
 20
64.48185338765882
 30
0.0
 10
272.1892492756421
 20
64.46901340200407
 30
0.0
 10
272.2207629579806
 20
64.45082094042742
 30
0.0
  0
LINE
  5
2A7
330
1F
100
AcDbEntity
  8
0
  6
Continuous
 62
     7
370
    15
100
AcDbLine
 10
272.2207632822
 20
64.450821312
 30
0.0
 11
272.8804315964
 21
64.0700029001
 31
0.0
  0
LINE
  5
2A8
330
1F
100
AcDbEntity
  8
0
  6
Continuous
 62
     7
370
    15
100
AcDbLine
 10
274.5502986248
 20
61.9952066835
 30
0.0
 11
275.9447982306
 21
62.3009816969
 31
0.0
  0
LINE
  5
2A9
330
1F
100
AcDbEntity
  8
0
  6
Continuous
 62
     7
370
    15
100
AcDbLine
 10
275.9447982306
 20
62.3009816969
 30
0.0
 11
277.4003202168
 21
61.4607267396
 31
0.0
  0
SPLINE
  5
2AA
330
1F
100
AcDbEntity
  8
0
  6
Continuous
 62
     7
370
    15
100
AcDbSpline
210
0.0
220
0.0
230
1.0
 70
     8
 71
     3
 72
    12
 73
     8
 74
     0
 42
0.000000001
 43
0.00000001
 40
0.0
 40
0.0
 40
0.0
 40
0.0
 40
0.250000000000004
 40
0.250000000000004
 40
0.500000000000008
 40
0.500000000000008
 40
1.0
 40
1.0
 40
1.0
 40
1.0
 10
277.4003201301722
 20
61.46072623087664
 30
0.0
 10
277.4319762606723
 20
61.44245153572671
 30
0.0
 10
277.4542755376825
 20
61.41862742492842
 30
0.0
 10
277.4760961082745
 20
61.36859552248072
 30
0.0
 10
277.4763768706006
 20
61.34220431406683
 30
0.0
 10
277.4530094964798
 20
61.26612908407191
 30
0.0
 10
277.4059710936748
 20
61.2190660291215
 30
0.0
 10
277.3430455991744
 20
61.18273991436953
 30
0.0
  0
LINE
  5
2AB
330
1F
100
AcDbEntity
  8
0
  6
Continuous
 62
     7
370
    15
100
AcDbLine
 10
271.7392245897
 20
64.4177574346
 30
0.0
 11
271.647434022
 21
64.3647678677
 31
0.0
  0
SPLINE
  5
2AC
330
1F
100
AcDbEntity
  8
0
  6
Continuous
 62
     7
370
    15
100
AcDbSpline
210
0.0
220
0.0
230
1.0
 70
     8
 71
     3
 72
    10
 73
     6
 74
     0
 42
0.000000001
 43
0.00000001
 40
0.0
 40
0.0
 40
0.0
 40
0.0
 40
0.4037910463417926
 40
0.8086444080338657
 40
1.0
 40
1.0
 40
1.0
 40
1.0
 10
280.3644797551814
 20
56.10680076165805
 30
0.0
 10
280.3827210395026
 20
56.14556478310827
 30
0.0
 10
280.4192515983037
 20
56.22319480849544
 30
0.0
 10
280.4331890837057
 20
56.3305986584794
 30
0.0
 10
280.4151320044465
 20
56.38387647426567
 30
0.0
 10
280.4093365143426
 20
56.4009761973005
 30
0.0
  0
ARC
  5
2AD
330
1F
100
AcDbEntity
  8
0
  6
Continuous
 62
     7
370
    15
100
AcDbCircle
 10
270.2600720148
 20
53.9445417728
 30
0.0
 40
10.36707195119984
100
AcDbArc
 50
19.3456110409
 51
46.4693116547
  0
LWPOLYLINE
  5
2AE
330
1F
100
AcDbEntity
  8
0
  6
Continuous
 62
     7
370
    15
100
AcDbPolyline
 90
        3
 70
   128
 43
0.0
 10
274.5502982955
 20
62.67619647
 10
274.5887533435
 20
62.6287323726
 10
274.9728441594
 20
62.1169740085
  0
LINE
  5
2AF
330
1F
100
AcDbEntity
  8
0
  6
Continuous
 62
     7
370
    15
100
AcDbLine
 10
280.2601979153
 20
45.4336298375
 30
0.0
 11
278.3957945343
 21
46.5099269997
 31
0.0
  0
LINE
  5
2B0
330
1F
100
AcDbEntity
  8
0
  6
Continuous
 62
     7
370
    15
100
AcDbLine
 10
277.5877080688
 20
46.3563869318
 30
0.0
 11
277.6367274877
 21
46.3846852401
 31
0.0
  0
SPLINE
  5
2B1
330
1F
100
AcDbEntity
  8
0
  6
Continuous
 62
     7
370
    15
100
AcDbSpline
210
0.0
220
0.0
230
1.0
 70
     8
 71
     3
 72
    10
 73
     6
 74
     0
 42
0.000000001
 43
0.00000001
 40
0.0
 40
0.0
 40
0.0
 40
0.0
 40
0.348286225286859
 40
0.7262043038763673
 40
0.9999999999999999
 40
0.9999999999999999
 40
0.9999999999999999
 40
0.9999999999999999
 10
277.2549827366348
 20
46.28521442078183
 30
0.0
 10
277.2976303963109
 20
46.28530204415652
 30
0.0
 10
277.386554137069
 20
46.28548474581741
 30
0.0
 10
277.5025110917972
 20
46.31370791981738
 30
0.0
 10
277.5625040418383
 20
46.34376109689183
 30
0.0
 10
277.5877080687538
 20
46.35638693181676
 30
0.0
  0
SPLINE
  5
2B2
330
1F
100
AcDbEntity
  8
0
  6
Continuous
 62
     7
370
    15
100
AcDbSpline
210
0.0
220
0.0
230
1.0
 70
     8
 71
     3
 72
     8
 73
     4
 74
     0
 42
0.000000001
 43
0.00000001
 40
0.0
 40
0.0
 40
0.0
 40
0.0
 40
1.0
 40
1.0
 40
1.0
 40
1.0
 10
277.6367276555081
 20
46.38468512069479
 30
0.0
 10
277.8897136091891
 20
46.42650352539262
 30
0.0
 10
278.1427368715363
 20
46.468248729968
 30
0.0
 10
278.395794360541
 20
46.5099267813651
 30
0.0
  0
ARC
  5
2B3
330
1F
100
AcDbEntity
  8
0
  6
Continuous
 62
     7
370
    15
100
AcDbCircle
 10
257.1215785857
 20
55.6747765061
 30
0.0
 40
1.562487995952113
100
AcDbArc
 50
79.6969630873
 51
142.7113318612
  0
ARC
  5
2B4
330
1F
100
AcDbEntity
  8
0
  6
Continuous
 62
     7
370
    15
100
AcDbCircle
 10
257.0874008938
 20
55.7638182378
 30
0.0
 40
1.463439891085885
100
AcDbArc
 50
78.2685922876
 51
144.4072601206
  0
ARC
  5
2B5
330
1F
100
AcDbEntity
  8
0
  6
Continuous
 62
     7
370
    15
100
AcDbCircle
 10
257.0590246846
 20
55.8374474285
 30
0.0
 40
1.249547245185187
100
AcDbArc
 50
80.705870252
 51
142.2259793291
  0
LWPOLYLINE
  5
2B6
330
1F
100
AcDbEntity
  8
0
  6
Continuous
 62
     7
370
    15
100
AcDbPolyline
 90
       17
 70
   128
 43
0.0
 10
275.3634710296
 20
37.9139794033
 10
275.1250220237
 20
38.1199930052
 10
275.041289242
 20
38.3630034346
 10
275.1250215916
 20
38.6060138047
 10
275.3634710296
 20
38.8120283214
 10
275.7203373069
 20
38.9496822519
 10
276.1412892255
 20
38.9980199084
 10
276.5622412471
 20
38.9496820024
 10
276.9191059398
 20
38.8120283214
 10
277.1575562627
 20
38.6060139591
 10
277.2412890445
 20
38.3630035297
 10
277.1575566949
 20
38.1199931596
 10
276.9191059398
 20
37.9139794033
 10
276.5622409796
 20
37.7763247124
 10
276.1412890609
 20
37.7279870559
 10
275.7203370393
 20
37.7763249619
 10
275.3634710296
 20
37.9139794033
  0
LWPOLYLINE
  5
2B7
330
1F
100
AcDbEntity
  8
0
  6
Continuous
 62
     7
370
    15
100
AcDbPolyline
 90
        6
 70
   128
 43
0.0
 10
275.257405028
 20
37.7302678901
 10
274.9977964108
 20
37.9490495374
 10
274.8926229016
 20
38.2071961364
 10
274.9560875767
 20
38.4698443718
 10
275.1796208839
 20
38.7015210439
 10
275.2572622186
 20
38.7506946146
  0
LWPOLYLINE
  5
2B8
330
1F
100
AcDbEntity
  8
0
  6
Continuous
 62
     7
370
    15
100
AcDbPolyline
 90
       10
 70
   128
 43
0.0
 10
277.0253155041
 20
38.7506951301
 10
277.1725363393
 20
38.6483302218
 10
277.3580865228
 20
38.405735603
 10
277.3793024396
 20
38.1408274491
 10
277.2333174455
 20
37.8893839063
 10
276.9398471335
 20
37.6853640596
 10
276.5385278826
 20
37.5563210281
 10
276.0835598146
 20
37.5196828907
 10
275.6363883373
 20
37.5803982652
 10
275.257405028
 20
37.7302678901
  0
LWPOLYLINE
  5
2B9
330
1F
100
AcDbEntity
  8
0
  6
Continuous
 62
     7
370
    15
100
AcDbPolyline
 90
       17
 70
   128
 43
0.0
 10
275.6109583942
 20
38.0568508177
 10
275.448379766
 20
38.197314499
 10
275.3912895548
 20
38.3630032683
 10
275.4483788811
 20
38.5286926673
 10
275.6109586411
 20
38.6691567644
 10
275.8542759578
 20
38.7630120621
 10
276.1412895137
 20
38.7959690286
 10
276.4283019788
 20
38.7630115512
 10
276.6716185752
 20
38.6691569069
 10
276.8341985204
 20
38.5286924653
 10
276.8912887316
 20
38.363003696
 10
276.8341980883
 20
38.1973150574
 10
276.6716196453
 20
38.0568502
 10
276.4283010115
 20
37.9629956626
 10
276.1412887728
 20
37.9300379357
 10
275.8542763077
 20
37.9629954131
 10
275.6109583942
 20
38.0568508177
  0
SPLINE
  5
2BA
330
1F
100
AcDbEntity
  8
0
  6
Continuous
 62
     7
370
    15
100
AcDbSpline
210
0.0
220
0.0
230
1.0
 70
     8
 71
     3
 72
     9
 73
     5
 74
     0
 42
0.000000001
 43
0.00000001
 40
0.0
 40
0.0
 40
0.0
 40
0.0
 40
0.6300409428187237
 40
1.0
 40
1.0
 40
1.0
 40
1.0
 10
275.6994350012829
 20
38.0079435326047
 30
0.0
 10
275.6432867276713
 20
38.04647883134943
 30
0.0
 10
275.5541682755268
 20
38.10764199730549
 30
0.0
 10
275.4738914925541
 20
38.198457671956
 30
0.0
 10
275.444192369612
 20
38.23205575332699
 30
0.0
  0
SPLINE
  5
2BB
330
1F
100
AcDbEntity
  8
0
  6
Continuous
 62
     7
370
    15
100
AcDbSpline
210
0.0
220
0.0
230
1.0
 70
     8
 71
     3
 72
    10
 73
     6
 74
     0
 42
0.000000001
 43
0.00000001
 40
0.0
 40
0.0
 40
0.0
 40
0.0
 40
0.4391123208974677
 40
0.7513633383832632
 40
1.0
 40
1.0
 40
1.0
 40
1.0
 10
276.8383859168417
 20
38.44771506721054
 30
0.0
 10
276.8116466369821
 20
38.35515274188111
 30
0.0
 10
276.7658931620164
 20
38.19676971672278
 30
0.0
 10
276.6993801224868
 20
38.0800547767772
 30
0.0
 10
276.666275074148
 20
38.0559671308161
 30
0.0
 10
276.6515998922742
 20
38.04528928549855
 30
0.0
  0
SPLINE
  5
2BC
330
1F
100
AcDbEntity
  8
0
  6
Continuous
 62
     7
370
    15
100
AcDbSpline
210
0.0
220
0.0
230
1.0
 70
     8
 71
     3
 72
    11
 73
     7
 74
     0
 42
0.000000001
 43
0.00000001
 40
0.0
 40
0.0
 40
0.0
 40
0.0
 40
0.1849309492141324
 40
0.5198449137514297
 40
0.8714437137928096
 40
1.0
 40
1.0
 40
1.0
 40
1.0
 10
276.3280758263388
 20
38.74231081181109
 30
0.0
 10
276.3577784168587
 20
38.70924044207086
 30
0.0
 10
276.4412730437592
 20
38.6162789146554
 30
0.0
 10
276.5971318100744
 20
38.49323233426137
 30
0.0
 10
276.7410740448007
 20
38.45063318795604
 30
0.0
 10
276.8178342178929
 20
38.44833135726641
 30
0.0
 10
276.8383859168417
 20
38.44771506721054
 30
0.0
  0
SPLINE
  5
2BD
330
1F
100
AcDbEntity
  8
0
  6
Continuous
 62
     7
370
    15
100
AcDbSpline
210
0.0
220
0.0
230
1.0
 70
     8
 71
     3
 72
    10
 73
     6
 74
     0
 42
0.000000001
 43
0.00000001
 40
0.0
 40
0.0
 40
0.0
 40
0.0
 40
0.4391123531139334
 40
0.7513633539489561
 40
1.0
 40
1.0
 40
1.0
 40
1.0
 10
275.6309783941795
 20
38.63448153503898
 30
0.0
 10
275.7307723303113
 20
38.61496528172074
 30
0.0
 10
275.9015293268384
 20
38.58157110037804
 30
0.0
 10
276.1497556312998
 20
38.64655130509642
 30
0.0
 10
276.2733067037757
 20
38.71289931324982
 30
0.0
 10
276.3280758263388
 20
38.74231081181109
 30
0.0
  0
SPLINE
  5
2BE
330
1F
100
AcDbEntity
  8
0
  6
Continuous
 62
     7
370
    15
100
AcDbSpline
210
0.0
220
0.0
230
1.0
 70
     8
 71
     3
 72
    10
 73
     6
 74
     0
 42
0.000000001
 43
0.00000001
 40
0.0
 40
0.0
 40
0.0
 40
0.0
 40
0.4391123208974677
 40
0.7513633383832632
 40
1.0
 40
1.0
 40
1.0
 40
1.0
 10
275.444192369612
 20
38.23205575332699
 30
0.0
 10
275.4709316494716
 20
38.25471304703859
 30
0.0
 10
275.5166851244373
 20
38.29348185181065
 30
0.0
 10
275.5831981639669
 20
38.46336289915398
 30
0.0
 10
275.6163032123056
 20
38.5819242934259
 30
0.0
 10
275.6309783941795
 20
38.63448153503898
 30
0.0
  0
LINE
  5
2BF
330
1F
100
AcDbEntity
  8
0
  6
Continuous
 62
     7
370
    15
100
AcDbLine
 10
275.6309783942
 20
38.0457144345
 30
0.0
 11
275.6309783942
 21
38.634481535
 31
0.0
  0
LINE
  5
2C0
330
1F
100
AcDbEntity
  8
0
  6
Continuous
 62
     7
370
    15
100
AcDbLine
 10
276.3280758263
 20
37.9436799079
 30
0.0
 11
276.3280758263
 21
38.7423108118
 31
0.0
  0
LWPOLYLINE
  5
2C1
330
1F
100
AcDbEntity
  8
0
  6
Continuous
 62
     7
370
     0
100
AcDbPolyline
 90
       20
 70
   128
 43
0.0
 10
247.2633097024
 20
37.5111769574
 10
247.7339688281
 20
39.3725372046
 10
248.3191027456
 20
41.2484552781
 10
249.0145375998
 20
43.1255508448
 10
249.8153145507
 20
44.9904379416
 10
250.7157227001
 20
46.8298143272
 10
251.709338605
 20
48.6305633797
 10
252.7890763265
 20
50.3798392646
 10
253.9472361622
 20
52.065168071
 10
255.1755566712
 20
53.6745287965
 10
256.4652778945
 20
55.1964445966
 10
257.8072019409
 20
56.6200588255
 10
259.1917568661
 20
57.935220582
 10
260.6090684536
 20
59.132548962
 10
262.04902821
 20
60.2035027293
 10
263.5013664423
 20
61.1404468377
 10
264.9557246363
 20
61.9366957347
 10
266.4017301605
 20
62.5865732173
 10
267.8290702285
 20
63.0854429624
 10
268.9671800181
 20
63.3769158936
  0
LINE
  5
2C2
330
1F
100
AcDbEntity
  8
0
  6
Continuous
 62
     7
370
     0
100
AcDbLine
 10
247.6220353595
 20
37.1766661278
 30
0.0
 11
247.7364917121
 21
37.6904800113
 31
0.0
  0
LWPOLYLINE
  5
2C3
330
1F
100
AcDbEntity
  8
0
  6
Continuous
 62
     7
370
     0
100
AcDbPolyline
 90
       10
 70
   128
 43
0.0
 10
262.9812567361
 20
60.3179728871
 10
263.7533618527
 20
60.7967144192
 10
265.2057718457
 20
61.5875146517
 10
266.6493647921
 20
62.2303050367
 10
268.0736134875
 20
62.7203969537
 10
269.4681312033
 20
63.0542155857
 10
270.8227486951
 20
63.2293261242
 10
272.1275874662
 20
63.2444532495
 10
273.3731322068
 20
63.0994864465
 10
274.550298954
 20
62.7954828506
  0
ARC
  5
2C4
330
1F
100
AcDbEntity
  8
0
  6
Continuous
 62
     7
370
     0
100
AcDbCircle
 10
244.5872621404
 20
53.2317634089
 30
0.0
 40
36.63008367650212
100
AcDbArc
 50
336.8431580279
 51
347.6118812709
  0
LWPOLYLINE
  5
2C5
330
1F
100
AcDbEntity
  8
0
  6
Continuous
 62
     7
370
     0
100
AcDbPolyline
 90
       24
 70
   128
 43
0.0
 10
273.2665336073
 20
30.1665140534
 10
272.777710507
 20
29.5310418435
 10
271.5309882888
 20
28.023900084
 10
270.2317135603
 20
26.6092975209
 10
268.8889501989
 20
25.2971024011
 10
267.5120630367
 20
24.0964669674
 10
266.1106562868
 20
23.0157660567
 10
264.6945046431
 20
22.0625360323
 10
263.2734859439
 20
21.2434298275
 10
261.8575119426
 20
20.5641572085
 10
260.456459325
 20
20.0294555975
 10
259.0800999862
 20
19.6430574277
 10
257.7380350112
 20
19.4076565935
 10
256.4396242932
 20
19.3248951967
 10
255.1939247946
 20
19.3953491985
 10
254.0096260103
 20
19.6185291862
 10
252.8949880641
 20
19.9928780974
 10
251.8577844153
 20
20.5157822522
 10
250.9052511509
 20
21.1835975939
 10
250.0440329852
 20
21.9916656638
 10
249.2801345268
 20
22.9343478266
 10
248.618884718
 20
24.0050701411
 10
248.0648973215
 20
25.1963651891
 10
247.6220353595
 20
26.4999222697
  0
ARC
  5
2C6
330
1F
100
AcDbEntity
  8
0
  6
Continuous
 62
     7
370
     0
100
AcDbCircle
 10
270.1843403524
 20
53.4843294672
 30
0.0
 40
10.51249703684847
100
AcDbArc
 50
14.4456939373
 51
47.0804331381
  0
LWPOLYLINE
  5
2C7
330
1F
100
AcDbEntity
  8
0
  6
Continuous
 62
     7
370
     0
100
AcDbPolyline
 90
       22
 70
   128
 43
0.0
 10
259.0469824415
 20
38.4337757604
 10
259.1049916515
 20
39.3397743988
 10
259.2776587288
 20
40.2915126767
 10
259.5609369173
 20
41.2666827948
 10
259.9481864419
 20
42.2424279529
 10
260.4303302546
 20
43.1958771306
 10
260.9960674021
 20
44.1046821446
 10
261.632137597
 20
44.9475418674
 10
262.3236318856
 20
45.7047000164
 10
263.0543421703
 20
46.3584096692
 10
263.8071412108
 20
46.8933480718
 10
264.5643840685
 20
47.2969772865
 10
265.308321549
 20
47.5598360993
 10
266.0215165254
 20
47.6757636284
 10
266.6872521748
 20
47.6420425975
 10
267.2899241203
 20
47.4594629757
 10
267.815406747
 20
47.1323049281
 10
268.2513826384
 20
46.6682362169
 10
268.58763283
 20
46.0781343217
 10
268.8162765197
 20
45.3758309957
 10
268.9319541431
 20
44.5777875791
 10
268.9462155829
 20
44.2072732556
  0
LWPOLYLINE
  5
2C8
330
1F
100
AcDbEntity
  8
0
  6
Continuous
 62
     7
370
     0
100
AcDbPolyline
 90
       12
 70
   128
 43
0.0
 10
263.9466220232
 20
35.5467847834
 10
263.8071412108
 20
35.4701657792
 10
263.0543421703
 20
35.1359409102
 10
262.3236318856
 20
34.9459904261
 10
261.632137597
 20
34.9047662637
 10
260.9960674021
 20
35.0132349713
 10
260.4303302546
 20
35.2688537782
 10
259.9481864419
 20
35.665631559
 10
259.5609369173
 20
36.1942679329
 10
259.2776587288
 20
36.8423720164
 10
259.1049916515
 20
37.5947531303
 10
259.0469824415
 20
38.4337757604
  0
LWPOLYLINE
  5
2C9
330
1F
100
AcDbEntity
  8
0
  6
Continuous
 62
     7
370
     0
100
AcDbPolyline
 90
       20
 70
   128
 43
0.0
 10
242.0837527678
 20
40.5012715298
 10
242.5544118935
 20
42.362631777
 10
243.139545811
 20
44.2385498505
 10
243.8349806652
 20
46.1156454172
 10
244.6357576161
 20
47.980532514
 10
245.5361657655
 20
49.8199088996
 10
246.5297816704
 20
51.6206579521
 10
247.6095193919
 20
53.369933837
 10
248.7676792276
 20
55.0552626434
 10
249.9959997366
 20
56.6646233689
 10
251.2857209599
 20
58.186539169
 10
252.6276450063
 20
59.6101533979
 10
254.0121999315
 20
60.9253151544
 10
255.4295115191
 20
62.1226435344
 10
256.8694712754
 20
63.1935973017
 10
258.3218095077
 20
64.1305414101
 10
259.7761677017
 20
64.9267903071
 10
261.2221732259
 20
65.5766677897
 10
262.6495132939
 20
66.0755375348
 10
263.7877017795
 20
66.3670269987
  0
LWPOLYLINE
  5
2CA
330
1F
100
AcDbEntity
  8
0
  6
Continuous
 62
     7
370
     0
100
AcDbPolyline
 90
       20
 70
   128
 43
0.0
 10
245.3617206181
 20
39.4780455976
 10
245.814599042
 20
41.2673220951
 10
246.3806746815
 20
43.0707531132
 10
247.0556683142
 20
44.8747100375
 10
247.8344788544
 20
46.6655605284
 10
248.7112215484
 20
48.4297704196
 10
249.6792714384
 20
50.1540086578
 10
250.7313120949
 20
51.8252446373
 10
251.8593929102
 20
53.4308497169
 10
253.0549896841
 20
54.9586877084
 10
254.3090671859
 20
56.3972156332
 10
255.6121476431
 20
57.7355597611
 10
256.9543841689
 20
58.9636081904
 10
258.3256333669
 20
60.0720786174
 10
259.7155325454
 20
61.052597892
 10
261.1135782488
 20
61.8977519163
 10
262.5092052827
 20
62.6011555994
 10
263.8918670571
 20
63.1574946756
 10
265.2511147754
 20
63.5625622941
 10
265.3775971385
 20
63.5928090542
  0
LINE
  5
2CB
330
1F
100
AcDbEntity
  8
0
  6
Continuous
 62
     7
370
     0
100
AcDbLine
 10
256.5822469236
 20
57.4606923456
 30
0.0
 11
256.9415257581
 21
57.7983030163
 31
0.0
  0
LWPOLYLINE
  5
2CC
330
1F
100
AcDbEntity
  8
0
  6
Continuous
 62
     7
370
     0
100
AcDbPolyline
 90
       22
 70
   128
 43
0.0
 10
244.7842528172
 20
39.4712439824
 10
245.2357259072
 20
41.2817109102
 10
245.8014986161
 20
43.1073071686
 10
246.4773404541
 20
44.9343729596
 10
247.2581911652
 20
46.7492363958
 10
248.1382107767
 20
48.5383169184
 10
249.1108112093
 20
50.2882256754
 10
250.1687162047
 20
51.9858708402
 10
251.3040087409
 20
53.6185473417
 10
252.5081949108
 20
55.1740391406
 10
253.7722625327
 20
56.6407055363
 10
255.0867532614
 20
58.0075714653
 10
256.4418307465
 20
59.2644094346
 10
257.8273550492
 20
60.4018159412
 10
259.2329587032
 20
61.4112766747
 10
260.6481234974
 20
62.2852412611
 10
262.0622598509
 20
63.0171675645
 10
263.4647861264
 20
63.6015796409
 10
264.8452070384
 20
64.0341038766
 10
266.1931929871
 20
64.3115041404
 10
267.4986580339
 20
64.4317055053
 10
268.6237161299
 20
64.4051559813
  0
ARC
  5
2CD
330
1F
100
AcDbEntity
  8
0
  6
Continuous
 62
     7
370
     0
100
AcDbCircle
 10
264.2814908087
 20
38.1434670163
 30
0.0
 40
2.423531283320168
100
AcDbArc
 50
173.1201614634
 51
235.5676595149
  0
LWPOLYLINE
  5
2CE
330
1F
100
AcDbEntity
  8
0
  6
Continuous
 62
     7
370
     0
100
AcDbPolyline
 90
       14
 70
   128
 43
0.0
 10
267.9107406135
 20
44.8050401784
 10
267.5415790015
 20
44.9628537575
 10
266.9868668768
 20
45.0392439247
 10
266.3784886431
 20
44.9601970904
 10
265.7371617607
 20
44.7284054288
 10
265.0847259527
 20
44.3517622539
 10
264.4433990703
 20
43.8430936583
 10
263.8350208366
 20
43.2197219353
 10
263.2803087119
 20
42.5028747815
 10
262.7981527162
 20
41.7169637548
 10
262.4049723397
 20
40.8887523762
 10
262.1141567801
 20
40.0464441025
 10
261.9356092297
 20
39.2187229023
 10
261.8754100298
 20
38.4337757604
  0
LWPOLYLINE
  5
2CF
330
1F
100
AcDbEntity
  8
0
  6
Continuous
 62
     7
370
     0
100
AcDbPolyline
 90
        3
 70
   128
 43
0.0
 10
245.8333766978
 20
37.3987406315
 10
245.8329249363
 20
37.5204195488
 10
245.8451896692
 20
38.1628629618
  0
LWPOLYLINE
  5
2D0
330
1F
100
AcDbEntity
  8
0
  6
Continuous
 62
     7
370
     0
100
AcDbPolyline
 90
       19
 70
   128
 43
0.0
 10
214.7479709658
 20
61.4117260482
 10
214.8070634816
 20
62.5086945928
 10
214.9833696758
 20
63.6558771006
 10
215.2739952454
 20
64.8344372725
 10
215.6741683767
 20
66.0250233916
 10
216.1773181128
 20
67.2080857143
 10
216.7751820249
 20
68.3641980407
 10
217.4579438486
 20
69.4743778568
 10
218.2143925222
 20
70.5203956376
 10
219.0321072378
 20
71.485075593
 10
219.897661096
 20
72.3525774953
 10
220.7968417184
 20
73.1086578773
 10
221.7148845579
 20
73.7409020587
 10
222.6367153866
 20
74.23892725
 10
223.5471977029
 20
74.5945565565
 10
224.4313816206
 20
74.8019504912
 10
225.2747486204
 20
74.8577041607
 10
226.0634508284
 20
74.7609017461
 10
226.4825979441
 20
74.6383103992
  0
ARC
  5
2D1
330
1F
100
AcDbEntity
  8
0
  6
Continuous
 62
     7
370
     0
100
AcDbCircle
 10
220.149811781
 20
60.9742325228
 30
0.0
 40
5.419528095470207
100
AcDbArc
 50
175.3697375515
 51
225.6114209446
  0
LINE
  5
2D2
330
1F
100
AcDbEntity
  8
0
  6
Continuous
 62
     7
370
     0
100
AcDbLine
 10
251.5162948436
 20
38.5161363307
 30
0.0
 11
250.8090733597
 21
38.9244066031
 31
0.0
  0
LINE
  5
2D3
330
1F
100
AcDbEntity
  8
0
  6
Continuous
 62
     7
370
     0
100
AcDbLine
 10
245.9731336718
 20
32.8566671929
 30
0.0
 11
251.5162948436
 21
29.6566683624
 31
0.0
  0
LINE
  5
2D4
330
1F
100
AcDbEntity
  8
0
  6
Continuous
 62
     7
370
     0
100
AcDbLine
 10
245.9124734908
 20
32.821637432
 30
0.0
 11
245.9731336718
 21
32.8566671929
 31
0.0
  0
LINE
  5
2D5
330
1F
100
AcDbEntity
  8
0
  6
Continuous
 62
     7
370
     0
100
AcDbLine
 10
275.5932810016
 20
30.0345611646
 30
0.0
 11
276.3765696445
 21
29.582378256
 31
0.0
  0
LINE
  5
2D6
330
1F
100
AcDbEntity
  8
0
  6
Continuous
 62
     7
370
     0
100
AcDbLine
 10
247.4203778359
 20
25.7505693859
 30
0.0
 11
247.2633097024
 21
26.241081168
 31
0.0
  0
LINE
  5
2D7
330
1F
100
AcDbEntity
  8
0
  6
Continuous
 62
     7
370
     0
100
AcDbLine
 10
250.8091879465
 20
28.4319236741
 30
0.0
 11
245.55891996
 21
31.4628388678
 31
0.0
  0
LINE
  5
2D8
330
1F
100
AcDbEntity
  8
0
  6
Continuous
 62
     7
370
     0
100
AcDbLine
 10
279.0581042705
 20
32.0347610623
 30
0.0
 11
279.8413929134
 21
31.5825781537
 31
0.0
  0
LINE
  5
2D9
330
1F
100
AcDbEntity
  8
0
  6
Continuous
 62
     7
370
     0
100
AcDbLine
 10
246.2234982174
 20
28.2841041665
 30
0.0
 11
246.1466091948
 21
28.5323899676
 31
0.0
  0
LWPOLYLINE
  5
2DA
330
1F
100
AcDbEntity
  8
0
  6
Continuous
 62
     7
370
     0
100
AcDbPolyline
 90
        3
 70
   128
 43
0.0
 10
245.8252648289
 20
27.6938949955
 10
245.806830851
 20
27.7375670672
 10
245.3617206181
 20
28.9854964983
  0
ARC
  5
2DB
330
1F
100
AcDbEntity
  8
0
  6
Continuous
 62
     7
370
     0
100
AcDbCircle
 10
255.5467131855
 20
31.9975693642
 30
0.0
 40
11.17784220286475
100
AcDbArc
 50
195.6688296447
 51
214.1331604714
  0
LINE
  5
2DC
330
1F
100
AcDbEntity
  8
0
  6
Continuous
 62
     7
370
     0
100
AcDbLine
 10
242.2213042763
 20
28.7983313104
 30
0.0
 11
242.0837527678
 21
29.2311757404
 31
0.0
  0
LINE
  5
2DD
330
1F
100
AcDbEntity
  8
0
  6
Continuous
 62
     7
370
     0
100
AcDbLine
 10
277.2549827366
 20
44.5151642884
 30
0.0
 11
277.9620896337
 21
44.1069601656
 31
0.0
  0
OLE2FRAME
  5
2DE
330
1F
100
AcDbEntity
  8
0
100
AcDbOle2Frame
 70
     2
  3
Paintbrush-Bild
 10
13.8511154363
 20
38.264191557
 30
0.0
 11
51.6290888628
 21
31.9806341108
 31
0.0
 71
     2
 72
     0
 73
     1
 90
    12928
310
80552BED0767C5B32B40DDAF6807D121434000000000000000006FFBDDFB85D0
310
4940DDAF6807D121434000000000000000006FFBDDFB85D04940416F4BD60AFB
310
3F4000000000000000002BED0767C5B32B40416F4BD60AFB3F40000000000000
310
0000000000000100000000010000010000000100000000000100000000320000
310
D0CF11E0A1B11AE1000000000000000000000000000000003E000300FEFF0900
310
0600000000000000000000000100000001000000000000000010000002000000
310
01000000FEFFFFFF0000000000000000FFFFFFFFFFFFFFFFFFFFFFFFFFFFFFFF
310
FFFFFFFFFFFFFFFFFFFFFFFFFFFFFFFFFFFFFFFFFFFFFFFFFFFFFFFFFFFFFFFF
310
FFFFFFFFFFFFFFFFFFFFFFFFFFFFFFFFFFFFFFFFFFFFFFFFFFFFFFFFFFFFFFFF
310
FFFFFFFFFFFFFFFFFFFFFFFFFFFFFFFFFFFFFFFFFFFFFFFFFFFFFFFFFFFFFFFF
310
FFFFFFFFFFFFFFFFFFFFFFFFFFFFFFFFFFFFFFFFFFFFFFFFFFFFFFFFFFFFFFFF
310
FFFFFFFFFFFFFFFFFFFFFFFFFFFFFFFFFFFFFFFFFFFFFFFFFFFFFFFFFFFFFFFF
310
FFFFFFFFFFFFFFFFFFFFFFFFFFFFFFFFFFFFFFFFFFFFFFFFFFFFFFFFFFFFFFFF
310
FFFFFFFFFFFFFFFFFFFFFFFFFFFFFFFFFFFFFFFFFFFFFFFFFFFFFFFFFFFFFFFF
310
FFFFFFFFFFFFFFFFFFFFFFFFFFFFFFFFFFFFFFFFFFFFFFFFFFFFFFFFFFFFFFFF
310
FFFFFFFFFFFFFFFFFFFFFFFFFFFFFFFFFFFFFFFFFFFFFFFFFFFFFFFFFFFFFFFF
310
FFFFFFFFFFFFFFFFFFFFFFFFFFFFFFFFFFFFFFFFFFFFFFFFFFFFFFFFFFFFFFFF
310
FFFFFFFFFFFFFFFFFFFFFFFFFFFFFFFFFFFFFFFFFFFFFFFFFFFFFFFFFFFFFFFF
310
FFFFFFFFFFFFFFFFFFFFFFFFFFFFFFFFFFFFFFFFFFFFFFFFFFFFFFFFFFFFFFFF
310
FFFFFFFFFFFFFFFFFFFFFFFFFFFFFFFFFFFFFFFFFFFFFFFFFFFFFFFFFFFFFFFF
310
FDFFFFFFFEFFFFFFFEFFFFFFFEFFFFFF05000000060000000700000008000000
310
090000000A0000000B0000000C0000000D0000000E0000000F00000010000000
310
11000000120000001300000014000000150000001600000017000000FEFFFFFF
310
FFFFFFFFFFFFFFFFFFFFFFFFFFFFFFFFFFFFFFFFFFFFFFFFFFFFFFFFFFFFFFFF
310
FFFFFFFFFFFFFFFFFFFFFFFFFFFFFFFFFFFFFFFFFFFFFFFFFFFFFFFFFFFFFFFF
310
FFFFFFFFFFFFFFFFFFFFFFFFFFFFFFFFFFFFFFFFFFFFFFFFFFFFFFFFFFFFFFFF
310
FFFFFFFFFFFFFFFFFFFFFFFFFFFFFFFFFFFFFFFFFFFFFFFFFFFFFFFFFFFFFFFF
310
FFFFFFFFFFFFFFFFFFFFFFFFFFFFFFFFFFFFFFFFFFFFFFFFFFFFFFFFFFFFFFFF
310
FFFFFFFFFFFFFFFFFFFFFFFFFFFFFFFFFFFFFFFFFFFFFFFFFFFFFFFFFFFFFFFF
310
FFFFFFFFFFFFFFFFFFFFFFFFFFFFFFFFFFFFFFFFFFFFFFFFFFFFFFFFFFFFFFFF
310
FFFFFFFFFFFFFFFFFFFFFFFFFFFFFFFFFFFFFFFFFFFFFFFFFFFFFFFFFFFFFFFF
310
FFFFFFFFFFFFFFFFFFFFFFFFFFFFFFFFFFFFFFFFFFFFFFFFFFFFFFFFFFFFFFFF
310
FFFFFFFFFFFFFFFFFFFFFFFFFFFFFFFFFFFFFFFFFFFFFFFFFFFFFFFFFFFFFFFF
310
FFFFFFFFFFFFFFFFFFFFFFFFFFFFFFFFFFFFFFFFFFFFFFFFFFFFFFFFFFFFFFFF
310
FFFFFFFFFFFFFFFFFFFFFFFFFFFFFFFFFFFFFFFFFFFFFFFFFFFFFFFFFFFFFFFF
310
FFFFFFFFFFFFFFFFFFFFFFFFFFFFFFFFFFFFFFFFFFFFFFFFFFFFFFFFFFFFFFFF
310
52006F006F007400200045006E00740072007900000000000000000000000000
310
0000000000000000000000000000000000000000000000000000000000000000
310
16000500FFFFFFFFFFFFFFFF020000000A00030000000000C000000000000046
310
000000000000000000000000A00495C56A03D20103000000C000000000000000
310
01004F006C006500000000000000000000000000000000000000000000000000
310
0000000000000000000000000000000000000000000000000000000000000000
310
0A000200FFFFFFFFFFFFFFFFFFFFFFFF00000000000000000000000000000000
310
0000000000000000000000000000000000000000000000001400000000000000
310
010043006F006D0070004F0062006A0000000000000000000000000000000000
310
0000000000000000000000000000000000000000000000000000000000000000
310
120002010100000003000000FFFFFFFF00000000000000000000000000000000
310
0000000000000000000000000000000000000000010000004D00000000000000
310
01004F006C006500310030004E00610074006900760065000000000000000000
310
0000000000000000000000000000000000000000000000000000000000000000
310
1A000200FFFFFFFFFFFFFFFFFFFFFFFF00000000000000000000000000000000
310
0000000000000000000000000000000000000000040000002426000000000000
310
FEFFFFFF02000000FEFFFFFFFFFFFFFFFFFFFFFFFFFFFFFFFFFFFFFFFFFFFFFF
310
FFFFFFFFFFFFFFFFFFFFFFFFFFFFFFFFFFFFFFFFFFFFFFFFFFFFFFFFFFFFFFFF
310
FFFFFFFFFFFFFFFFFFFFFFFFFFFFFFFFFFFFFFFFFFFFFFFFFFFFFFFFFFFFFFFF
310
FFFFFFFFFFFFFFFFFFFFFFFFFFFFFFFFFFFFFFFFFFFFFFFFFFFFFFFFFFFFFFFF
310
FFFFFFFFFFFFFFFFFFFFFFFFFFFFFFFFFFFFFFFFFFFFFFFFFFFFFFFFFFFFFFFF
310
FFFFFFFFFFFFFFFFFFFFFFFFFFFFFFFFFFFFFFFFFFFFFFFFFFFFFFFFFFFFFFFF
310
FFFFFFFFFFFFFFFFFFFFFFFFFFFFFFFFFFFFFFFFFFFFFFFFFFFFFFFFFFFFFFFF
310
FFFFFFFFFFFFFFFFFFFFFFFFFFFFFFFFFFFFFFFFFFFFFFFFFFFFFFFFFFFFFFFF
310
FFFFFFFFFFFFFFFFFFFFFFFFFFFFFFFFFFFFFFFFFFFFFFFFFFFFFFFFFFFFFFFF
310
FFFFFFFFFFFFFFFFFFFFFFFFFFFFFFFFFFFFFFFFFFFFFFFFFFFFFFFFFFFFFFFF
310
FFFFFFFFFFFFFFFFFFFFFFFFFFFFFFFFFFFFFFFFFFFFFFFFFFFFFFFFFFFFFFFF
310
FFFFFFFFFFFFFFFFFFFFFFFFFFFFFFFFFFFFFFFFFFFFFFFFFFFFFFFFFFFFFFFF
310
FFFFFFFFFFFFFFFFFFFFFFFFFFFFFFFFFFFFFFFFFFFFFFFFFFFFFFFFFFFFFFFF
310
FFFFFFFFFFFFFFFFFFFFFFFFFFFFFFFFFFFFFFFFFFFFFFFFFFFFFFFFFFFFFFFF
310
FFFFFFFFFFFFFFFFFFFFFFFFFFFFFFFFFFFFFFFFFFFFFFFFFFFFFFFFFFFFFFFF
310
FFFFFFFFFFFFFFFFFFFFFFFFFFFFFFFFFFFFFFFFFFFFFFFFFFFFFFFFFFFFFFFF
310
0100000200000000000000000000000000000000000000000000000000000000
310
0000000000000000000000000000000000000000000000000000000000000000
310
0100FEFF030A0000FFFFFFFF0A00030000000000C00000000000004607000000
310
5042727573680007000000504272757368000700000050427275736800F439B2
310
7100000000000000000000000000000000000000000000000000000000000000
310
0000000000000000000000000000000000000000000000000000000000000000
310
0000000000000000000000000000000000000000000000000000000000000000
310
0000000000000000000000000000000000000000000000000000000000000000
310
0000000000000000000000000000000000000000000000000000000000000000
310
0000000000000000000000000000000000000000000000000000000000000000
310
0000000000000000000000000000000000000000000000000000000000000000
310
0000000000000000000000000000000000000000000000000000000000000000
310
0000000000000000000000000000000000000000000000000000000000000000
310
0000000000000000000000000000000000000000000000000000000000000000
310
0000000000000000000000000000000000000000000000000000000000000000
310
0000000000000000000000000000000000000000000000000000000000000000
310
20260000424D0E260000000000003E00000028000000B40200006E0000000100
310
01000000000000000000130B0000130B00000200000002000000000000FFFFFF
310
FFFFFFFFFFFFFFFFFFFFFFFFFFFFFFFFFFFFFFFFFFFFFFFFFFFFFFFFFFFFFFFF
310
FFFFFFFFFFFFFFFFFFFFFFFFFFFFFFFFFFFFFFFFFFFFFFFFFFFFFFFFFFFFFFFF
310
FFFFFFFFFFFFFFFFFFFFFFFFFFFFFFFFFFFFFFFFFFFFFFFFF000FFFFFFFFFFFF
310
FFFFFFFFFFFFFFFFFFFFFFFFFFFFFFFFFFFFFFFFFFFFFFFFFFFFFFFFFFFFFFFF
310
FFFFFFFFFFFFFFFFFFFFFFFFFFFFFFFFFFFFFFFFFFFFFFFFFFFFFFFFFFFFFFFF
310
FFFFFFFFFFFFFFFFFFFFFFFFFFFFFFFFF000FFFFFFFFFFFFFFFFFFFFFFFFFFFF
310
FFFFFFFFFFFFFFFFFFFFFFFFFFFFFFFFFFFFFFFFFFFFFFFFFFFFFFFFFFFFFFFF
310
FFFFFFFFFFFFFFFFFFFFFFFFFFFFFFFFFFFFFFFFFFFFFFFFFFFFFFFFFFFFFFFF
310
FFFFFFFFFFFFFFFFF000FFFFFFFFFFFFFFFFFFFFFFFFFFFFFFFFFFFFFFFFFFFF
310
FFFFFFFFFFFFFFFFFFFFFFFFFFFFFFFFFFFFFFFFFFFFFFFFFFFFFFFFFFFFFFFF
310
FFFFFFFFFFFFFFFFFFFFFFFFFFFFFFFFFFFFFFFFFFFFFFFFFFFFFFFFFFFFFFFF
310
F000FFFFFFFFFFFFFFFFFFFFFFFFFFFFFFFFFFFFFFFFFFFFFFFFFFFFFFFFFFFF
310
FFFFFFFFFFFFFFFFFFFFFFFFFFFFFFFFFFFFFFFFFFFFFFFFFFFFFFFFFFFFFFFF
310
FFFFFFFFFFFFFFFFFFFFFFFFFFFFFFFFFFFFFFFFFFFFFFFFF000FFFFFFFFFFFF
310
FFFFFFFFFFFFFFFFFFFFFFFFFFFFFFFFFFFFFFFFFFFFFFFFFFFFFFFFFFFFFFFF
310
FFFFFFFFFFFFFFFFFFFFFFFFFFFFFFFFFFFFFFFFFFFFFFFFFFFFFFFFFFFFFFFF
310
FFFFFFFFFFFFFFFFFFFFFFFFFFFFFFFFF000FFFFFFFFFFFFFFFFFFFFFFFFFFFF
310
FFFFFFFFFFFFFFFFFFFFFFFFFFFFFFFFFFFFFFFFFFFFFFFFFFFFFFFFFFFFFFFF
310
FFFFFFFFFFFFFFFFFFFFFFFFFFFFFFFFFFFFFFFFFFFFFFFFFFFFFFFFFFFFFFFF
310
FFFFFFFFFFFFFFFFF000FFFFFFFFFFFFFFFFFFFFFFFFFFFFFFFFFFFFFFFFFFFF
310
FFFFFFFFFFFFFFFFFFFFFFFFFFFFFFFFFFFFFFFFFFFFFFFFFFFFFFFFFFFFFFFF
310
FFFFFFFFFFFFFFFFFFFFFFFFFFFFFFFFFFFFFFFFFFFFFFFFFFFFFFFFFFFFFFFF
310
F000FFFFFFFFFFFFFFFFFFFFFFFFFFFFFFFFFFFFFFFFFFFFFFFFFFFFFFFFFFFF
310
FFFFFFFFFFFFFFFFFFFFFFFFFFFFFFFFFFFFFFFFFFFFFFFFFFFFFFFFFFFFFFFF
310
FFFFFFFFFFFFFFFFFFFFFFFFFFFFFFFFFFFFFFFFFFFFFFFFF000FFFFFFFFFFFF
310
FFFFFFFFFFFFFFFFFFFFFFFFFFFFFFFFFFFFFFFFFFFFFFFFFFFFFFFFFFFFFFFF
310
FFFFFFFFFFFFFFFFFFFFFFFFFFFFFFFFFFFFFFFFFFFFFFFFFFFFFFFFFFFFFFFF
310
FFFFFFFFFFFFFFFFFFFFFFFFFFFFFFFFF000FFFFFFFFFFFFFFFFFFFFFFFFFFFF
310
FFFFFFFFFFFFFFFFFFFFFFFFFFFFFFFFFFFFFFFFFFFFFFFFFFFFFFFFFFFFFFFF
310
FFFFFFFFFFFFFFFFFFFFFFFFFFFFFFFFFFFFFFFFFFFFFFFFFFFFFFFFFFFFFFFF
310
FFFFFFFFFFFFFFFFF000FFFFFFFFFFFFFFFFFFFFFFFFFFFFFFFFFFFFFFFFFFFF
310
FFFFFFFFFFFFFFFFFFFFFFFFFFFFFFFFFFFFFFFFFFFFFFFFFFFFFFFFFFFFFFFF
310
FFFFFFFFFFFFFFFFFFFFFFFFFFFFFFFFFFFFFFFFFFFFFFFFFFFFFFFFFFFFFFFF
310
F000FFFFFFFFFFFFFFFFFFFFFFFFFFFFFFFFFFFFFFFFFFFFFFFFFFFFFFFFFFFF
310
FFFFFFFFFFFFFFFFFFFFFFFFFFFFFFFFFFFFFFFFFFFFFFFFFFFFFFFFFFFFFFFF
310
FFFFFFFFFFFFFFFFFFFFFFFFFFFFFFFFFFFFFFFFFFFFFFFFF000FFFFFFFFFFFF
310
FFFFFFFFFFFFFFFFFFFFFFFFFFFFFFFFFFFFFFFFFFFFFFFFFFFFFFFFFFFFFFFF
310
FFFFFFFFFFFFFFFFFFFFFFFFFFFFFFFFFFFFFFFFFFFFFFFFFFFFFFFFFFFFFFFF
310
FFFFFFFFFFFFFFFFFFFFFFFFFFFFFFFFF000FFFFFFFFFFFFFFFFFFFFFFFFFFFF
310
FFFFFFFFFFFFFFFFFFFFFFFFFFFFFFFFFFFFFFFFFFFFFFFFFFFFFFFFFFFFFFFF
310
FFFFFFFFFFFFFFFFFFFFFFFFFFFFFFFFFFFFFFFFFFFFFFFFFFFFFFFFFFFFFFFF
310
FFFFFFFFFFFFFFFFF000FFFFFFFFFFFFFFFFFFFFFFFFFFFFFFFFFFFFFFFFFFFF
310
FFFFFFFFFFFFFFFFFFFFFFFFFFFFFFFFFFFFFFFFFFFFFFFFFFFFFFFFFFFFFFFF
310
FFFFFFFFFFFFFFFFFFFFFFFFFFFFFFFFFFFFFFFFFFFFFFFFFFFFFFFFFFFFFFFF
310
F000FFFFFFFFFFFFFFFFFFFFFFFFFFFFFFFFFFFFFFFFFFFFFFFFFFFFFFFFFFFF
310
FFFFFFFFFFFFFFFFFFFFFFFFFFFFFFFFFFFFFFFFFFFFFFFFFFFFFFFFFFFFFFFF
310
FFFFFFFFFFFFFFFFFFFFFFFFFFFFFFFFFFFFFFFFFFFFFFFFF000FFFFFFFFFFFF
310
FFFFFFFFFFFFFFFFFFFFFFFFFFFFFFFFFFFFFFFFFFFFFFFFFFFFFFFFFFFFFFFF
310
FFFFFFFFFFFFFFFFFFFFFFFFFFFFFFFFFFFFFFFFFFFFFFFFFFFFFFFFFFFFFFFF
310
FFFFFFFFFFFFFFFFFFFFFFFFFFFFFFFFF000FFFFFFFFFFFFFFFFFFFFFFFFFFFF
310
FFFFFFFFFFFFFFFFFFFFFFFFFFFFFFFFFFFFFFFFFFFFFFFFFFFFFFFFFFFFFFFF
310
FFFFFFFFFFFFFFFFFFFFFFFFFFFFFFFFFFFFFFFFFFFFFFFFFFFFFFFFFFFFFFFF
310
FFFFFFFFFFFFFFFFF000FFFFF80003FFFFFFFFFFFFFFFFFFFFFFFFFFFFFFFFFF
310
FFFFF00007FFFFFFFFFF00007FFFFFF800000000000000007FFFFFFFFFFFFFFF
310
FFFFFFFC001FFFFFFFFFFFFFFC001FFFFFFFFFFFFFFFFFFFFFFFFFFE0007FFFF
310
F000FFFF8000007FFFFFFFF8000FFFFFC0007FFFFF80007FFFFF0000007FFFFF
310
FFF8000007FFFFF800000000000000007FFFFFF0001FFFFFFFFFFFC00001FFFF
310
FFFFFFFFC00001FFFFFFFF000000000003FFFFE000007FFFF000FFFE0000000F
310
FFFFFFF0000FFFFF80007FFFFF80007FFFFC0000001FFFFFFFC0000001FFFFF8
310
00000000000000007FFFFFF0001FFFFFFFFFFE0000003FFFFFFFFFFE0000003F
310
FFFFFF000000000003FFFF0000000FFFF000FFF800000003FFFFFFF00007FFFF
310
80007FFFFF80007FFFF000000007FFFFFF000000003FFFF80000000000000000
310
7FFFFFF0001FFFFFFFFFF80000000FFFFFFFFFF80000000FFFFFFF0000000000
310
03FFFC00000003FFF000FFE000000000FFFFFFF00007FFFF80003FFFFF80007F
310
FFC000000001FFFFFC000000001FFFF800000000000000007FFFFFF0001FFFFF
310
FFFFE000000003FFFFFFFFE000000003FFFFFF000000000003FFF000000000FF
310
F000FF80000000007FFFFFF00007FFFF80003FFFFF80007FFF8000000000FFFF
310
F80000000007FFF800000000000000007FFFFFF0001FFFFFFFFFC000000001FF
310
FFFFFFC000000001FFFFFF000000000003FFC0000000007FF000FF0000000000
310
3FFFFFE00007FFFF00003FFFFF80007FFE00000000003FFFF00000000003FFF8
310
00000000000000007FFFFFF0001FFFFFFFFF8000000000FFFFFFFF8000000000
310
FFFFFF000000000003FF80000000003FF000FE00000000001FFFFFE00003FFFF
310
00003FFFFF80007FFC00000000001FFFE00000000001FFF8000001FFFE000000
310
7FFFFFF0001FFFFFFFFE00000000003FFFFFFE00000000003FFFFF0000000000
310
03FF00000000001FF000FC00000000000FFFFFE00003FFFF00001FFFFF80007F
310
F800000000001FFFC00000000000FFF8000001FFFE0000007FFFFFF0001FFFFF
310
FFFC00000000001FFFFFFC00000000001FFFFF000000000003FE00000000000F
310
F000F8000000000007FFFFE00003FFFF00001FFFFF80007FF800000000000FFF
310
800000000000FFF8000001FFFE0000007FFFFFF0001FFFFFFFF800000000000F
310
FFFFF800000000000FFFFF000000000003FC000000000007F000F80000000000
310
03FFFFC00003FFFE00001FFFFF80007FF0000000000007FF0000000000007FF8
310
000001FFFE0000007FFFFFF0001FFFFFFFF0000000000007FFFFF00000000000
310
07FFFF000000000003F8000000000003F000F0000000000003FFFFC00001FFFE
310
00001FFFFF80007FE0000000000007FE0000000000003FF8000001FFFE000000
310
7FFFFFF0001FFFFFFFF0000000000007FFFFF0000000000007FFFF0000000000
310
03F800001F800003F000E00001FFF00001FFFFC00001FFFE00000FFFFF80007F
310
E00001FFE00003FE00001FFF00003FF8000001FFFE0000007FFFFFF0001FFFFF
310
FFE000003E000003FFFFE000003E000003FFFF000000000003F00001FFF80001
310
F000E00007FFFC0001FFFFC00001FFFE00000FFFFF80007FC0000FFFFC0003FC
310
0000FFFFC0001FF8000001FFFE0000007FFFFFF0001FFFFFFFC00003FFE00001
310
FFFFC00003FFE00001FFFF0001FFFFFFFFF00007FFFE0001F000E0000FFFFF00
310
00FFFF800001FFFC00000FFFFF80007FC0001FFFFE0001FC0001FFFFE0001FF8
310
000001FFFE0000007FFFFFF0001FFFFFFF80000FFFF80000FFFF80000FFFF800
310
00FFFF0003FFFFFFFFE0000FFFFF8000F000C0003FFFFF8000FFFF800000FFFC
310
000007FFFF80007F80003FFFFF0001FC0003FFFFF0001FF8000001FFFE000000
310
7FFFFFF0001FFFFFFF80003FFFFE0000FFFF80003FFFFE0000FFFF0003FFFFFF
310
FFE0003FFFFF8000F000C0003FFFFF8000FFFF800000FFFC000007FFFF80007F
310
80007FFFFF8001F80007FFFFF8000FF8000001FFFE0000007FFFFFF0001FFFFF
310
FF00007FFFFF00007FFF00007FFFFF00007FFF0003FFFFFFFFE0003FFFFFC000
310
F000C0007FFFFFC000FFFF000000FFFC000007FFFF80007F8000FFFFFF8000F8
310
000FFFFFF8000FF8000001FFFE0000007FFFFFF0001FFFFFFF0000FFFFFF8000
310
7FFF0000FFFFFF80007FFF0003FFFFFFFFC0007FFFFFC00070008000FFFFFFC0
310
00FFFF000000FFF8000007FFFF80007F8000FFFFFF8000F8000FFFFFF8000FF8
310
000001FFFE0000007FFFFFF0001FFFFFFE0001FFFFFFC0003FFE0001FFFFFFC0
310
003FFF0003FFFFFFFFC0007FFFFFE00070008000FFFFFFC0007FFF0000007FF8
310
000003FFFF80007F0001FFFFFF8000F8000FFFFFF8000FF8000001FFFE000000
310
7FFFFFF0001FFFFFFE0001FFFFFFC0003FFE0001FFFFFFC0003FFF0003FFFFFF
310
FFC000FFFFFFE00070008000FFFFFFC0007FFF0000007FF8000003FFFF80007F
310
0001FFFFFF8000F8001FFFFFF8000FF8000001FFFE0000007FFFFFF0001FFFFF
310
FE0003FFFFFFE0003FFE0003FFFFFFE0003FFF0003FFFFFFFFC000FFFFFFE000
310
70008000FFFFFFC0007FFE0000007FF8000003FFFF80007F0001FFFFFF8000F0
310
001FFFFFF8000FF8000001FFFE0000007FFFFFF0001FFFFFFC0003FFFFFFE000
310
1FFC0003FFFFFFE0001FFF0003FFFFFFFFC000FFFFFFC00070008000FFFFFF80
310
007FFE0000007FF0000003FFFF80007F0001FFFFFF0000F0001FFFFFF8000FF8
310
000001FFFE0000007FFFFFF0001FFFFFFC0007FFFFFFF0001FFC0007FFFFFFF0
310
001FFF0003FFFFFFFFC000FFFFFFC00070008001FFFFFF0000FFFE0000003FF0
310
000001FFFF80007F0001FFFFFF0000F8001FFFFFF0000FF8000001FFFE000000
310
7FFFFFF0001FFFFFFC0007FFFFFFF0001FFC0007FFFFFFF0001FFF0003FFFFFF
310
FFC001FFFFFF80007000FFFFFFFFFE0000FFFE0008003FF0008001FFFF80007F
310
FFFFFFFFFC0000FFFFFFFFFFE0000FF8000001FFFE0000007FFFFFF0001FFFFF
310
F8000FFFFFFFF8000FF8000FFFFFFFF8000FFF0003FFFFFFFFFFFFFFFFFF0000
310
7000FFFFFFFFFC0000FFFC0008003FF0008001FFFF80007FFFFFFFFFF80001FF
310
FFFFFFFF80000FF8000001FFFE0000007FFFFFF0001FFFFFF8000FFFFFFFF800
310
0FF8000FFFFFFFF8000FFF0003FFFFFFFFFFFFFFFFFE0000F000FFFFFFFFE000
310
00FFFC000C003FE000C001FFFF80007FFFFFFFFFC00001FFFFFFFFFE00001FF8
310
000001FFFE0000007FFFFFF0001FFFFFF8000FFFFFFFF8000FF8000FFFFFFFF8
310
000FFF0003FFFFFFFFFFFFFFFFF00000F000FFFFFFFE000001FFFC000C001FE0
310
00C000FFFF80007FFFFFFFFE000001FFFFFFFFE000001FF80FFFFFFFFFFFFFC0
310
7FFFFFF0001FFFFFF8000FFFFFFFF8000FF8000FFFFFFFF8000FFF0003FFFFFF
310
FFFFFFFFFF800000F000FFFFFFC0000001FFFC001C001FE001C000FFFF80007F
310
FFFFFF80000003FFFFFFF80000001FF80FFFFFFFFFFFFFC07FFFFFF0001FFFFF
310
F8001FFFFFFFFC000FF8001FFFFFFFFC000FFF0003FFFFFFFFFFFFFFF0000001
310
F000FFFFF800000001FFF8001C001FE001C000FFFF80007FFFFFF800000003FF
310
FFFF800000003FF80FFFFFFFFFFFFFC07FFFFFF0001FFFFFF8001FFFFFFFFC00
310
0FF8001FFFFFFFFC000FFF0003FFFFFFFFFFFFFE00000001F000FFFFC0000000
310
03FFF8001E001FC001E000FFFF80007FFFFF8000000007FFFFFC000000003FF8
310
0FFFFFFFFFFFFFC07FFFFFF0001FFFFFF8001FFFFFFFFC000FF8001FFFFFFFFC
310
000FFF0003FFFFFFFFFFFFE000000003F000FFFE0000000007FFF8001E000FC0
310
01E0007FFF80007FFFFE0000000007FFFFE0000000007FF80FFFFFFFFFFFFFC0
310
7FFFFFF0001FFFFFF0001FFFFFFFFC0007F0001FFFFFFFFC0007FF0003FFFFFF
310
FFFFFF0000000003F000FFF80000000007FFF8001E000FC003E0007FFF80007F
310
FFF0000000000FFFFF8000000000FFF80FFFFFFFFFFFFFC07FFFFFF0001FFFFF
310
F0001FFFFFFFFC0007F0001FFFFFFFFC0007FF0003FFFFFFFFFFFC0000000007
310
F000FFE0000000000FFFF0003E000FC003E0007FFF80007FFFC0000000001FFF
310
FE0000000001FFF80FFFFFFFFFFFFFC07FFFFFF0001FFFFFF0001FFFFFFFFC00
310
07F0001FFFFFFFFC0007FF0003FFFFFFFFFFF0000000000FF000FFC000000000
310
1FFFF0003F000F8003F0003FFF80007FFF80000000003FFFF80000000003FFF8
310
0FFFFFFFFFFFFFC07FFFFFF0001FFFFFF0001FFFFFFFFC0007F0001FFFFFFFFC
310
0007FF0003FFFFFFFFFFE0000000001FF000FF00000000007FFFF0003F000780
310
03F0003FFF80007FFF00000000007FFFF00000000007FFF80FFFFFFFFFFFFFC0
310
7FFFFFF0001FFFFFF0001FFFFFFFFC0007F0001FFFFFFFFC0007FF0003FFFFFF
310
FFFF80000000007FF000FE0000000000FFFFE0003F00078007F0003FFF80007F
310
FE0000000001FFFFE0000000001FFFF80FFFFFFFFFFFFFC07FFFFFF0001FFFFF
310
F0001FFFFFFFFC0007F0001FFFFFFFFC0007FF0003FFFFFFFFFF0000000000FF
310
F000FC0000000003FFFFE0007F00078007F0003FFF80007FFC0000000007FFFF
310
C0000000007FFFF80FFFFFFFFFFFFFC07FFFFFF0001FFFFFF8001FFFFFFFFC00
310
0FF8001FFFFFFFFC000FFF0003FFFFFFFFFE0000000003FFF000FC000000000F
310
FFFFE0007F80070007F8001FFF80007FF8000000001FFFFF8000000001FFFFF8
310
0FFFFFFFFFFFFFC07FFFFFF0001FFFFFF8001FFFFFFFFC000FF8001FFFFFFFFC
310
000FFF0003FFFFFFFFFC000000000FFFF000F8000000007FFFFFE0007F800700
310
07F8001FFF80007FF000000000FFFFFF800000000FFFFFF80FFFFFFFFFFFFFC0
310
7FFFFFF0001FFFFFF8000FFFFFFFF8000FF8000FFFFFFFF8000FFF0003FFFFFF
310
FFFC000000007FFFF000F800000007FFFFFFC0007F8003000FF8001FFF80007F
310
F000000007FFFFFF000000007FFFFFF80FFFFFFFFFFFFFC07FFFFFF0001FFFFF
310
F8000FFFFFFFF8000FF8000FFFFFFFF8000FFF0003FFFFFFFFF80000000FFFFF
310
F000F0000000FFFFFFFFC000FF8003000FF8001FFF80007FE0000000FFFFFFFF
310
0000000FFFFFFFF8000001FFFE0000007FFFFFF0001FFFFFF8000FFFFFFFF800
310
0FF8000FFFFFFFF8000FFF0003FFFFFFFFF8000000FFFFFFF000F000000FFFFF
310
FFFFC000FFC002000FF8000FFF80007FE000001FFFFFFFFE000001FFFFFFFFF8
310
000001FFFE0000007FFFFFF0001FFFFFF8000FFFFFFFF8000FF8000FFFFFFFF8
310
000FFF0003FFFFFFFFF000001FFFFFFFF000E00000FFFFFFFFFFC000FFC00200
310
0FFC000FFF80007FE00001FFFFFFFFFE00001FFFFFFFFFF8000001FFFE000000
310
7FFFFFF0001FFFFFFC000FFFFFFFF8001FFC000FFFFFFFF8001FFF0003FFFFFF
310
FFF00001FFFFFFFFF000E00007FFFFFFFFFF8000FFC000001FFC000FFF80007F
310
C0000FFFFFFFFFFE0000FFFFFFFFFFF8000001FFFE0000007FFFFFF0001FFFFF
310
FC0007FFFFFFF0001FFC0007FFFFFFF0001FFF0003FFFFFFFFF00007FFFFFFFF
310
F000E0001FFFFFFFFFFF8000FFC000001FFC000FFF80007FC0003FFFFFFFFFFE
310
0001FFFFFFFFFFF8000001FFFE0000007FFFFFF0001FFFFFFC0007FFFFFFF000
310
1FFC0007FFFFFFF0001FFF0003FFFFFFFFF0001FFFFFFFFFF000E0003FFFFF00
310
03FF8001FFE000001FFC0007FF80007FC0007FFFFF0007FC0003FFFFF0003FF8
310
000001FFFE0000007FFFFFF0001FFFFFFC0003FFFFFFE0001FFC0003FFFFFFE0
310
001FFF0003FFFFFFFFF0003FFFFFFFFFF000E0003FFFFF0001FF8001FFE00000
310
1FFE0007FF80007FC0007FFFFE0003FC0007FFFFE0003FF8000001FFFE000000
310
7FFFFFF0001FFFFFFE0003FFFFFFE0003FFE0003FFFFFFE0003FFF0003FFFFFF
310
FFF0003FFFFF8001F000E0003FFFFF0001FF0001FFE000001FFE0007FF80007F
310
C0007FFFFE0003FC0007FFFFE0003FF8000001FFFE0000007FFFFFF0001FFFFF
310
FE0001FFFFFFC0003FFE0001FFFFFFC0003FFF0003FFFFFFFFF0003FFFFF0001
310
F000E0003FFFFF0003FF0001FFE000003FFE0007FF80007FC0007FFFFE0003FC
310
0007FFFFE0003FF8000001FFFE0000007FFFFFF0001FFFFFFF0001FFFFFFC000
310
7FFF0001FFFFFFC0007FFF0003FFFFFFFFF0003FFFFF0001F000E0003FFFFE00
310
03FF0003FFF000003FFE0003FF80007FC0007FFFFC0003FE0007FFFFE0003FF8
310
000001FFFE0000007FFFFFF0001FFFFFFF0000FFFFFF80007FFF0000FFFFFF80
310
007FFF0003FFFFFFFFF0003FFFFF0001F000E0003FFFFE0003FF0003FFF00000
310
3FFF0003FF80007FC0007FFFFC0007FE0007FFFFC0003FF8000001FFFE000000
310
7FFFFFF0001FFFFFFF80007FFFFF0000FFFF80007FFFFF0000FFFF0003FFFFFF
310
FFF0003FFFFF0003F000E0003FFFFC0003FE0003FFF000003FFF0003FF80007F
310
E0003FFFF80007FE0003FFFFC0007FF8000001FFFE0000007FFFFFF0001FFFFF
310
FF80003FFFFE0000FFFF80003FFFFE0000FFFF0003FFFFFFFFF0001FFFFE0003
310
F000F0001FFFF80003FE0003FFF000007FFF0001FF80007FE0003FFFF00007FE
310
0001FFFF80007FF8000001FFFE0000007FFFFFF0001FFFFFFFC0000FFFF80001
310
FFFFC0000FFFF80001FFFF0003FFFFFFFFF0001FFFFC0003F000F0000FFFF000
310
07FE0007FFF800007FFF0001FF80007FE0001FFFE00007FF0000FFFE00007FF8
310
000001FFFE0000007FFFFFF0001FFFFFFFC00003FFE00001FFFFC00003FFE000
310
01FFFF0003FFFFFFFFF8000FFFF80003F000F00003FFC00007FC0007FFF80000
310
7FFF8001FF80007FF00007FF80000FFF00007FF80000FFF8000001FFFE000000
310
7F80000000000001FFE000003E000003FFFFE000003E000003FFFF0003FFFFFF
310
FFF80003FFE00007F000F800000000000FFC0007FFF800007FFF8001FF80007F
310
F000000000000FFF000000000000FFF8000001FFFE0000007F80000000000001
310
FFF0000000000007FFFFF0000000000007FFFF0003FFFFFFFFFC00007E000007
310
F000F800000000000FFC0007FFF80000FFFF8000FF80007FF800000000001FFF
310
800000000001FFF8000001FFFE0000007F80000000000001FFF800000000000F
310
FFFFF800000000000FFFFF0003FFFFFFFFFC00000000000FF000FC0000000000
310
1FFC0007FFFC0000FFFF8000FF80007FF800000000003FFFC00000000001FFF8
310
000001FFFE0000007F80000000000001FFF800000000000FFFFFF80000000000
310
0FFFFF0003FFFFFFFFFE00000000001FF000FE00000000003FF8000FFFFC0000
310
FFFF8000FF80007FFC00000000003FFFC00000000003FFF8000001FFFE000000
310
7F80000000000001FFFC00000000001FFFFFFC00000000001FFFFF0003FFFFFF
310
FFFF00000000001FF000FF00000000003FF8000FFFFC0000FFFFC000FF80007F
310
FE00000000007FFFE00000000007FFF8000001FFFE0000007F80000000000001
310
FFFE00000000003FFFFFFE00000000003FFFFF0003FFFFFFFFFF80000000003F
310
F000FF80000000007FF8000FFFFC0001FFFFC0007F80007FFF0000000000FFFF
310
F0000000000FFFF800000000000000007F80000000000001FFFF8000000000FF
310
FFFFFF8000000000FFFFFF0003FFFFFFFFFFC0000000007FF000FFC000000000
310
FFF8000FFFFE0001FFFFC0007F80007FFF8000000001FFFFF8000000001FFFF8
310
00000000000000007F80000000000001FFFFC000000001FFFFFFFFC000000001
310
FFFFFF0003FFFFFFFFFFE000000000FFF000FFE000000003FFF0001FFFFE0001
310
FFFFC0007F80007FFFC000000007FFFFFE000000003FFFF80000000000000000
310
7F80000000000001FFFFE000000003FFFFFFFFE000000003FFFFFF0003FFFFFF
310
FFFFF000000003FFF000FFF80000000FFFF0001FFFFE0001FFFFE0007F80007F
310
FFF00000000FFFFFFF00000000FFFFF800000000000000007F80000000000001
310
FFFFF80000000FFFFFFFFFF80000000FFFFFFF0003FFFFFFFFFFFC0000000FFF
310
F000FFFE0000003FFFF0001FFFFE0003FFFFE0003F80007FFFFC0000003FFFFF
310
FFC0000003FFFFF800000000000000007F80000000000001FFFFFE0000003FFF
310
FFFFFFFE0000003FFFFFFF0003FFFFFFFFFFFF0000003FFFF000FFFF800000FF
310
FFF0001FFFFF0003FFFFE0003F80007FFFFF000001FFFFFFFFF800001FFFFFF8
310
00000000000000007F80000000000001FFFFFFC00001FFFFFFFFFFFFC00001FF
310
FFFFFF0003FFFFFFFFFFFFC00000FFFFF000FFFFF8000FFFFFFFFFFFFFFFFFFF
310
FFFFFFFFFFFFFFFFFFFFF0001FFFFFFFFFFF0000FFFFFFF80000000000000000
310
7FFFFFFFFFFFFFFFFFFFFFFC001FFFFFFFFFFFFFFC001FFFFFFFFFFFFFFFFFFF
310
FFFFFFFC001FFFFFF000FFFFFFFFFFFFFFFFFFFFFFFFFFFFFFFFFFFFFFFFFFFF
310
FFFFFFFFFFFFFFFFFFFFFFFFFFFFFFFFFFFFFFFFFFFFFFFFFFFFFFFFFFFFFFFF
310
FFFFFFFFFFFFFFFFFFFFFFFFFFFFFFFFFFFFFFFFFFFFFFFFFFFFFFFFFFFFFFFF
310
F000FFFFFFFFFFFFFFFFFFFFFFFFFFFFFFFFFFFFFFFFFFFFFFFFFFFFFFFFFFFF
310
FFFFFFFFFFFFFFFFFFFFFFFFFFFFFFFFFFFFFFFFFFFFFFFFFFFFFFFFFFFFFFFF
310
FFFFFFFFFFFFFFFFFFFFFFFFFFFFFFFFFFFFFFFFFFFFFFFFF000FFFFFFFFFFFF
310
FFFFFFFFFFFFFFFFFFFFFFFFFFFFFFFFFFFFFFFFFFFFFFFFFFFFFFFFFFFFFFFF
310
FFFFFFFFFFFFFFFFFFFFFFFFFFFFFFFFFFFFFFFFFFFFFFFFFFFFFFFFFFFFFFFF
310
FFFFFFFFFFFFFFFFFFFFFFFFFFFFFFFFF000FFFFFFFFFFFFFFFFFFFFFFFFFFFF
310
FFFFFFFFFFFFFFFFFFFFFFFFFFFFFFFFFFFFFFFFFFFFFFFFFFFFFFFFFFFFFFFF
310
FFFFFFFFFFFFFFFFFFFFFFFFFFFFFFFFFFFFFFFFFFFFFFFFFFFFFFFFFFFFFFFF
310
FFFFFFFFFFFFFFFFF000FFFFFFFFFFFFFFFFFFFFFFFFFFFFFFFFFFFFFFFFFFFF
310
FFFFFFFFFFFFFFFFFFFFFFFFFFFFFFFFFFFFFFFFFFFFFFFFFFFFFFFFFFFFFFFF
310
FFFFFFFFFFFFFFFFFFFFFFFFFFFFFFFFFFFFFFFFFFFFFFFFFFFFFFFFFFFFFFFF
310
F000FFFFFFFFFFFFFFFFFFFFFFFFFFFFFFFFFFFFFFFFFFFFFFFFFFFFFFFFFFFF
310
FFFFFFFFFFFFFFFFFFFFFFFFFFFFFFFFFFFFFFFFFFFFFFFFFFFFFFFFFFFFFFFF
310
FFFFFFFFFFFFFFFFFFFFFFFFFFFFFFFFFFFFFFFFFFFFFFFFF000FFFFFFFFFFFF
310
FFFFFFFFFFFFFFFFFFFFFFFFFFFFFFFFFFFFFFFFFFFFFFFFFFFFFFFFFFFFFFFF
310
FFFFFFFFFFFFFFFFFFFFFFFFFFFFFFFFFFFFFFFFFFFFFFFFFFFFFFFFFFFFFFFF
310
FFFFFFFFFFFFFFFFFFFFFFFFFFFFFFFFF000FFFFFFFFFFFFFFFFFFFFFFFFFFFF
310
FFFFFFFFFFFFFFFFFFFFFFFFFFFFFFFFFFFFFFFFFFFFFFFFFFFFFFFFFFFFFFFF
310
FFFFFFFFFFFFFFFFFFFFFFFFFFFFFFFFFFFFFFFFFFFFFFFFFFFFFFFFFFFFFFFF
310
FFFFFFFFFFFFFFFFF000FFFFFFFFFFFFFFFFFFFFFFFFFFFFFFFFFFFFFFFFFFFF
310
FFFFFFFFFFFFFFFFFFFFFFFFFFFFFFFFFFFFFFFFFFFFFFFFFFFFFFFFFFFFFFFF
310
FFFFFFFFFFFFFFFFFFFFFFFFFFFFFFFFFFFFFFFFFFFFFFFFFFFFFFFFFFFFFFFF
310
F000FFFFFFFFFFFFFFFFFFFFFFFFFFFFFFFFFFFFFFFFFFFFFFFFFFFFFFFFFFFF
310
FFFFFFFFFFFFFFFFFFFFFFFFFFFFFFFFFFFFFFFFFFFFFFFFFFFFFFFFFFFFFFFF
310
FFFFFFFFFFFFFFFFFFFFFFFFFFFFFFFFFFFFFFFFFFFFFFFFF000FFFFFFFFFFFF
310
FFFFFFFFFFFFFFFFFFFFFFFFFFFFFFFFFFFFFFFFFFFFFFFFFFFFFFFFFFFFFFFF
310
FFFFFFFFFFFFFFFFFFFFFFFFFFFFFFFFFFFFFFFFFFFFFFFFFFFFFFFFFFFFFFFF
310
FFFFFFFFFFFFFFFFFFFFFFFFFFFFFFFFF000FFFFFFFFFFFFFFFFFFFFFFFFFFFF
310
FFFFFFFFFFFFFFFFFFFFFFFFFFFFFFFFFFFFFFFFFFFFFFFFFFFFFFFFFFFFFFFF
310
FFFFFFFFFFFFFFFFFFFFFFFFFFFFFFFFFFFFFFFFFFFFFFFFFFFFFFFFFFFFFFFF
310
FFFFFFFFFFFFFFFFF000FFFFFFFFFFFFFFFFFFFFFFFFFFFFFFFFFFFFFFFFFFFF
310
FFFFFFFFFFFFFFFFFFFFFFFFFFFFFFFFFFFFFFFFFFFFFFFFFFFFFFFFFFFFFFFF
310
FFFFFFFFFFFFFFFFFFFFFFFFFFFFFFFFFFFFFFFFFFFFFFFFFFFFFFFFFFFFFFFF
310
F000FFFFFFFFFFFFFFFFFFFFFFFFFFFFFFFFFFFFFFFFFFFFFFFFFFFFFFFFFFFF
310
FFFFFFFFFFFFFFFFFFFFFFFFFFFFFFFFFFFFFFFFFFFFFFFFFFFFFFFFFFFFFFFF
310
FFFFFFFFFFFFFFFFFFFFFFFFFFFFFFFFFFFFFFFFFFFFFFFFF000FFFFFFFFFFFF
310
FFFFFFFFFFFFFFFFFFFFFFFFFFFFFFFFFFFFFFFFFFFFFFFFFFFFFFFFFFFFFFFF
310
FFFFFFFFFFFFFFFFFFFFFFFFFFFFFFFFFFFFFFFFFFFFFFFFFFFFFFFFFFFFFFFF
310
FFFFFFFFFFFFFFFFFFFFFFFFFFFFFFFFF000FFFFFFFFFFFFFFFFFFFFFFFFFFFF
310
FFFFFFFFFFFFFFFFFFFFFFFFFFFFFFFFFFFFFFFFFFFFFFFFFFFFFFFFFFFFFFFF
310
FFFFFFFFFFFFFFFFFFFFFFFFFFFFFFFFFFFFFFFFFFFFFFFFFFFFFFFFFFFFFFFF
310
FFFFFFFFFFFFFFFFF000FFFFFFFFFFFFFFFFFFFFFFFFFFFFFFFFFFFFFFFFFFFF
310
FFFFFFFFFFFFFFFFFFFFFFFFFFFFFFFFFFFFFFFFFFFFFFFFFFFFFFFFFFFFFFFF
310
FFFFFFFFFFFFFFFFFFFFFFFFFFFFFFFFFFFFFFFFFFFFFFFFFFFFFFFFFFFFFFFF
310
F000FFFFFFFFFFFFFFFFFFFFFFFFFFFFFFFFFFFFFFFFFFFFFFFFFFFFFFFFFFFF
310
FFFFFFFFFFFFFFFFFFFFFFFFFFFFFFFFFFFFFFFFFFFFFFFFFFFFFFFFFFFFFFFF
310
FFFFFFFFFFFFFFFFFFFFFFFFFFFFFFFFFFFFFFFFFFFFFFFFF000FFFFFFFFFFFF
310
FFFFFFFFFFFFFFFFFFFFFFFFFFFFFFFFFFFFFFFFFFFFFFFFFFFFFFFFFFFFFFFF
310
FFFFFFFFFFFFFFFFFFFFFFFFFFFFFFFFFFFFFFFFFFFFFFFFFFFFFFFFFFFFFFFF
310
FFFFFFFFFFFFFFFFFFFFFFFFFFFFFFFFF000FFFFFFFFFFFFFFFFFFFFFFFFFFFF
310
FFFFFFFFFFFFFFFFFFFFFFFFFFFFFFFFFFFFFFFFFFFFFFFFFFFFFFFFFFFFFFFF
310
FFFFFFFFFFFFFFFFFFFFFFFFFFFFFFFFFFFFFFFFFFFFFFFFFFFFFFFFFFFFFFFF
310
FFFFFFFFFFFFFFFFF000FFFFFFFFFFFFFFFFFFFFFFFFFFFFFFFFFFFFFFFFFFFF
310
FFFFFFFFFFFFFFFFFFFFFFFFFFFFFFFFFFFFFFFFFFFFFFFFFFFFFFFFFFFFFFFF
310
FFFFFFFFFFFFFFFFFFFFFFFFFFFFFFFFFFFFFFFFFFFFFFFFFFFFFFFFFFFFFFFF
310
F000FFFFFFFFFFFFFFFFFFFFFFFFFFFFFFFFFFFFFFFFFFFFFFFFFFFFFFFFFFFF
310
FFFFFFFFFFFFFFFFFFFFFFFFFFFFFFFFFFFFFFFFFFFFFFFFFFFFFFFFFFFFFFFF
310
FFFFFFFFFFFFFFFFFFFFFFFFFFFFFFFFFFFFFFFFFFFFFFFFF000FFFFFFFFFFFF
310
FFFFFFFFFFFFFFFFFFFFFFFFFFFFFFFFFFFFFFFFFFFFFFFFFFFFFFFFFFFFFFFF
310
FFFFFFFFFFFFFFFFFFFFFFFFFFFFFFFFFFFFFFFFFFFFFFFFFFFFFFFFFFFFFFFF
310
FFFFFFFFFFFFFFFFFFFFFFFFFFFFFFFFF0000000000000000000000000000000
310
0000000000000000000000000000000000000000000000000000000000000000
310
0000000000000000000000000000000000000000000000000000000000000000
310
0000000000000000000000000000000000000000000000000000000000000000
310
0000000000000000000000000000000000000000000000000000000000000000
310
0000000000000000000000000000000000000000000000000000000000000000
310
0000000000000000000000000000000000000000000000000000000000000000
310
0000000000000000000000000000000000000000000000000000000000000000
310
0000000000000000000000000000000000000000000000000000000000000000
310
0000000000000000000000000000000000000000000000000000000000000000
310
0000000000000000000000000000000000000000000000000000000000000000
310
0000000000000000000000000000000000000000000000000000000000000000
310
0000000000000000000000000000000000000000000000000000000000000000
310
0000000000000000000000000000000000000000000000000000000000000000
310
0000000000000000000000000000000000000000000000000000000000000000
310
0000000000000000000000000000000000000000000000000000000000000000
  1
OLE
  0
ENDSEC
  0
SECTION
  2
OBJECTS
  0
DICTIONARY
  5
C
330
0
100
AcDbDictionary
281
     1
  3
ACAD_GROUP
350
D
  3
ACAD_LAYOUT
350
1A
  3
ACAD_MLINESTYLE
350
17
  3
ACAD_PLOTSETTINGS
350
19
  3
ACAD_PLOTSTYLENAME
350
E
  3
ACAD_SCALELIST
350
47
  0
DICTIONARY
  5
D
102
{ACAD_REACTORS
330
C
102
}
330
C
100
AcDbDictionary
281
     1
  0
DICTIONARY
  5
1A
102
{ACAD_REACTORS
330
C
102
}
330
C
100
AcDbDictionary
281
     1
  3
Layout1
350
1E
  3
Layout2
350
26
  3
Model
350
22
  0
DICTIONARY
  5
17
102
{ACAD_REACTORS
330
C
102
}
330
C
100
AcDbDictionary
281
     1
  3
Standard
350
18
  0
DICTIONARY
  5
19
102
{ACAD_REACTORS
330
C
102
}
330
C
100
AcDbDictionary
281
     1
  0
ACDBDICTIONARYWDFLT
  5
E
102
{ACAD_REACTORS
330
C
102
}
330
C
100
AcDbDictionary
281
     1
  3
Normal
350
F
100
AcDbDictionaryWithDefault
340
F
  0
DICTIONARY
  5
47
102
{ACAD_REACTORS
330
C
102
}
330
C
100
AcDbDictionary
281
     1
  3
A0
350
48
  3
A1
350
49
  3
A2
350
4A
  3
A3
350
4B
  3
A4
350
4C
  3
A5
350
4D
  3
A6
350
4E
  3
A7
350
4F
  3
A8
350
50
  3
A9
350
51
  3
B0
350
52
  3
B1
350
53
  3
B2
350
54
  3
B3
350
55
  3
B4
350
56
  3
B5
350
57
  3
B6
350
58
  3
B7
350
59
  3
B8
350
5A
  3
B9
350
5B
  3
C0
350
5C
  3
C1
350
5D
  3
C2
350
5E
  3
C3
350
5F
  3
C4
350
60
  3
C5
350
61
  3
C6
350
62
  3
C7
350
63
  3
C8
350
64
  3
C9
350
65
  3
D0
350
66
  3
D1
350
67
  3
D2
350
68
  0
LAYOUT
  5
1E
102
{ACAD_REACTORS
330
1A
102
}
330
1A
100
AcDbPlotSettings
  1

  2
none_device
  4

  6

 40
0.0
 41
0.0
 42
0.0
 43
0.0
 44
0.0
 45
0.0
 46
0.0
 47
0.0
 48
0.0
 49
0.0
140
0.0
141
0.0
142
1.0
143
1.0
 70
   688
 72
     1
 73
     0
 74
     5
  7

 75
    16
147
1.0
148
0.0
149
0.0
100
AcDbLayout
  1
Layout1
 70
     1
 71
     1
 10
0.0
 20
0.0
 11
420.0
 21
297.0
 12
0.0
 22
0.0
 32
0.0
 14
1.0000000000E+20
 24
1.0000000000E+20
 34
1.0000000000E+20
 15
-1.0000000000E+20
 25
-1.0000000000E+20
 35
-1.0000000000E+20
146
0.0
 13
0.0
 23
0.0
 33
0.0
 16
1.0
 26
0.0
 36
0.0
 17
0.0
 27
1.0
 37
0.0
 76
     0
330
1B
  0
LAYOUT
  5
26
102
{ACAD_REACTORS
330
1A
102
}
330
1A
100
AcDbPlotSettings
  1

  2
none_device
  4

  6

 40
0.0
 41
0.0
 42
0.0
 43
0.0
 44
0.0
 45
0.0
 46
0.0
 47
0.0
 48
0.0
 49
0.0
140
0.0
141
0.0
142
1.0
143
1.0
 70
   688
 72
     1
 73
     0
 74
     5
  7

 75
    16
147
1.0
148
0.0
149
0.0
100
AcDbLayout
  1
Layout2
 70
     1
 71
     2
 10
0.0
 20
0.0
 11
0.0
 21
0.0
 12
0.0
 22
0.0
 32
0.0
 14
0.0
 24
0.0
 34
0.0
 15
0.0
 25
0.0
 35
0.0
146
0.0
 13
0.0
 23
0.0
 33
0.0
 16
1.0
 26
0.0
 36
0.0
 17
0.0
 27
1.0
 37
0.0
 76
     0
330
23
  0
LAYOUT
  5
22
102
{ACAD_REACTORS
330
1A
102
}
330
1A
100
AcDbPlotSettings
  1

  2
none_device
  4
Letter_(8.50_x_11.00_Inches)
  6

 40
6.35
 41
6.35
 42
6.35000508
 43
6.35000508
 44
215.9
 45
279.4
 46
0.0
 47
0.0
 48
0.0
 49
0.0
140
0.0
141
0.0
142
1.0
143
1.0
 70
  1712
 72
     1
 73
     0
 74
     0
  7

 75
     0
147
1.0
148
0.0
149
0.0
100
AcDbLayout
  1
Model
 70
     1
 71
     0
 10
0.0
 20
0.0
 11
297.0
 21
210.0
 12
0.0
 22
0.0
 32
0.0
 14
0.0
 24
0.0
 34
0.0
 15
297.0
 25
210.0
 35
0.0
146
0.0
 13
0.0
 23
0.0
 33
0.0
 16
1.0
 26
0.0
 36
0.0
 17
0.0
 27
1.0
 37
0.0
 76
     0
330
1F
331
29
  0
MLINESTYLE
  5
18
102
{ACAD_REACTORS
330
17
102
}
330
17
100
AcDbMlineStyle
  2
Standard
 70
     0
  3

 62
   256
 51
90.0
 52
90.0
 71
     2
 49
0.5
 62
   256
  6
BYLAYER
 49
-0.5
 62
   256
  6
BYLAYER
  0
ACDBPLACEHOLDER
  5
F
102
{ACAD_REACTORS
330
E
102
}
330
E
  0
SCALE
  5
48
102
{ACAD_REACTORS
330
47
102
}
330
47
100
AcDbScale
 70
     0
300
1:1
140
1.0
141
1.0
290
     1
  0
SCALE
  5
49
102
{ACAD_REACTORS
330
47
102
}
330
47
100
AcDbScale
 70
     0
300
1:2
140
1.0
141
2.0
290
     0
  0
SCALE
  5
4A
102
{ACAD_REACTORS
330
47
102
}
330
47
100
AcDbScale
 70
     0
300
1:4
140
1.0
141
4.0
290
     0
  0
SCALE
  5
4B
102
{ACAD_REACTORS
330
47
102
}
330
47
100
AcDbScale
 70
     0
300
1:5
140
1.0
141
5.0
290
     0
  0
SCALE
  5
4C
102
{ACAD_REACTORS
330
47
102
}
330
47
100
AcDbScale
 70
     0
300
1:8
140
1.0
141
8.0
290
     0
  0
SCALE
  5
4D
102
{ACAD_REACTORS
330
47
102
}
330
47
100
AcDbScale
 70
     0
300
1:10
140
1.0
141
10.0
290
     0
  0
SCALE
  5
4E
102
{ACAD_REACTORS
330
47
102
}
330
47
100
AcDbScale
 70
     0
300
1:16
140
1.0
141
16.0
290
     0
  0
SCALE
  5
4F
102
{ACAD_REACTORS
330
47
102
}
330
47
100
AcDbScale
 70
     0
300
1:20
140
1.0
141
20.0
290
     0
  0
SCALE
  5
50
102
{ACAD_REACTORS
330
47
102
}
330
47
100
AcDbScale
 70
     0
300
1:30
140
1.0
141
30.0
290
     0
  0
SCALE
  5
51
102
{ACAD_REACTORS
330
47
102
}
330
47
100
AcDbScale
 70
     0
300
1:40
140
1.0
141
40.0
290
     0
  0
SCALE
  5
52
102
{ACAD_REACTORS
330
47
102
}
330
47
100
AcDbScale
 70
     0
300
1:50
140
1.0
141
50.0
290
     0
  0
SCALE
  5
53
102
{ACAD_REACTORS
330
47
102
}
330
47
100
AcDbScale
 70
     0
300
1:100
140
1.0
141
100.0
290
     0
  0
SCALE
  5
54
102
{ACAD_REACTORS
330
47
102
}
330
47
100
AcDbScale
 70
     0
300
2:1
140
2.0
141
1.0
290
     0
  0
SCALE
  5
55
102
{ACAD_REACTORS
330
47
102
}
330
47
100
AcDbScale
 70
     0
300
4:1
140
4.0
141
1.0
290
     0
  0
SCALE
  5
56
102
{ACAD_REACTORS
330
47
102
}
330
47
100
AcDbScale
 70
     0
300
8:1
140
8.0
141
1.0
290
     0
  0
SCALE
  5
57
102
{ACAD_REACTORS
330
47
102
}
330
47
100
AcDbScale
 70
     0
300
10:1
140
10.0
141
1.0
290
     0
  0
SCALE
  5
58
102
{ACAD_REACTORS
330
47
102
}
330
47
100
AcDbScale
 70
     0
300
100:1
140
100.0
141
1.0
290
     0
  0
SCALE
  5
59
102
{ACAD_REACTORS
330
47
102
}
330
47
100
AcDbScale
 70
     0
300
1/128" = 1'-0"
140
0.0078125
141
12.0
290
     0
  0
SCALE
  5
5A
102
{ACAD_REACTORS
330
47
102
}
330
47
100
AcDbScale
 70
     0
300
1/64" = 1'-0"
140
0.015625
141
12.0
290
     0
  0
SCALE
  5
5B
102
{ACAD_REACTORS
330
47
102
}
330
47
100
AcDbScale
 70
     0
300
1/32" = 1'-0"
140
0.03125
141
12.0
290
     0
  0
SCALE
  5
5C
102
{ACAD_REACTORS
330
47
102
}
330
47
100
AcDbScale
 70
     0
300
1/16" = 1'-0"
140
0.0625
141
12.0
290
     0
  0
SCALE
  5
5D
102
{ACAD_REACTORS
330
47
102
}
330
47
100
AcDbScale
 70
     0
300
3/32" = 1'-0"
140
0.09375
141
12.0
290
     0
  0
SCALE
  5
5E
102
{ACAD_REACTORS
330
47
102
}
330
47
100
AcDbScale
 70
     0
300
1/8" = 1'-0"
140
0.125
141
12.0
290
     0
  0
SCALE
  5
5F
102
{ACAD_REACTORS
330
47
102
}
330
47
100
AcDbScale
 70
     0
300
3/16" = 1'-0"
140
0.1875
141
12.0
290
     0
  0
SCALE
  5
60
102
{ACAD_REACTORS
330
47
102
}
330
47
100
AcDbScale
 70
     0
300
1/4" = 1'-0"
140
0.25
141
12.0
290
     0
  0
SCALE
  5
61
102
{ACAD_REACTORS
330
47
102
}
330
47
100
AcDbScale
 70
     0
300
3/8" = 1'-0"
140
0.375
141
12.0
290
     0
  0
SCALE
  5
62
102
{ACAD_REACTORS
330
47
102
}
330
47
100
AcDbScale
 70
     0
300
1/2" = 1'-0"
140
0.5
141
12.0
290
     0
  0
SCALE
  5
63
102
{ACAD_REACTORS
330
47
102
}
330
47
100
AcDbScale
 70
     0
300
3/4" = 1'-0"
140
0.75
141
12.0
290
     0
  0
SCALE
  5
64
102
{ACAD_REACTORS
330
47
102
}
330
47
100
AcDbScale
 70
     0
300
1" = 1'-0"
140
1.0
141
12.0
290
     0
  0
SCALE
  5
65
102
{ACAD_REACTORS
330
47
102
}
330
47
100
AcDbScale
 70
     0
300
1-1/2" = 1'-0"
140
1.5
141
12.0
290
     0
  0
SCALE
  5
66
102
{ACAD_REACTORS
330
47
102
}
330
47
100
AcDbScale
 70
     0
300
3" = 1'-0"
140
3.0
141
12.0
290
     0
  0
SCALE
  5
67
102
{ACAD_REACTORS
330
47
102
}
330
47
100
AcDbScale
 70
     0
300
6" = 1'-0"
140
6.0
141
12.0
290
     0
  0
SCALE
  5
68
102
{ACAD_REACTORS
330
47
102
}
330
47
100
AcDbScale
 70
     0
300
1'-0" = 1'-0"
140
12.0
141
12.0
290
     0
  0
ENDSEC
  0
EOF
