  0
SECTION
  2
HEADER
  9
$ACADVER
  1
AC1015
  9
$ACADMAINTVER
 70
     6
  9
$DWGCODEPAGE
  3
ANSI_1252
  9
$INSBASE
 10
0.0
 20
0.0
 30
0.0
  9
$EXTMIN
 10
0.0
 20
0.0
 30
0.0
  9
$EXTMAX
 10
297.0
 20
210.0
 30
0.0
  9
$LIMMIN
 10
0.0
 20
0.0
  9
$LIMMAX
 10
297.0
 20
210.0
  9
$ORTHOMODE
 70
     0
  9
$REGENMODE
 70
     1
  9
$FILLMODE
 70
     1
  9
$QTEXTMODE
 70
     0
  9
$MIRRTEXT
 70
     1
  9
$LTSCALE
 40
1.0
  9
$ATTMODE
 70
     1
  9
$TEXTSIZE
 40
2.0
  9
$TRACEWID
 40
1.0
  9
$TEXTSTYLE
  7
Standard
  9
$CLAYER
  8
0
  9
$CELTYPE
  6
ByLayer
  9
$CECOLOR
 62
   256
  9
$CELTSCALE
 40
1.0
  9
$DISPSILH
 70
     0
  9
$DIMSCALE
 40
1.0
  9
$DIMASZ
 40
3.0
  9
$DIMEXO
 40
0.0
  9
$DIMDLI
 40
3.75
  9
$DIMRND
 40
0.0
  9
$DIMDLE
 40
0.0
  9
$DIMEXE
 40
1.0
  9
$DIMTP
 40
0.0
  9
$DIMTM
 40
0.0
  9
$DIMTXT
 40
2.0
  9
$DIMCEN
 40
2.5
  9
$DIMTSZ
 40
0.0
  9
$DIMTOL
 70
     0
  9
$DIMLIM
 70
     0
  9
$DIMTIH
 70
     1
  9
$DIMTOH
 70
     1
  9
$DIMSE1
 70
     0
  9
$DIMSE2
 70
     0
  9
$DIMTAD
 70
     1
  9
$DIMZIN
 70
     0
  9
$DIMBLK
  1

  9
$DIMASO
 70
     1
  9
$DIMSHO
 70
     1
  9
$DIMPOST
  1

  9
$DIMAPOST
  1

  9
$DIMALT
 70
     0
  9
$DIMALTD
 70
     3
  9
$DIMALTF
 40
0.0393700787
  9
$DIMLFAC
 40
1.0
  9
$DIMTOFL
 70
     1
  9
$DIMTVP
 40
0.0
  9
$DIMTIX
 70
     0
  9
$DIMSOXD
 70
     0
  9
$DIMSAH
 70
     0
  9
$DIMBLK1
  1

  9
$DIMBLK2
  1

  9
$DIMSTYLE
  2
ISO-25
  9
$DIMCLRD
 70
     0
  9
$DIMCLRE
 70
     0
  9
$DIMCLRT
 70
     0
  9
$DIMTFAC
 40
1.0
  9
$DIMGAP
 40
1.524
  9
$DIMJUST
 70
     0
  9
$DIMSD1
 70
     0
  9
$DIMSD2
 70
     0
  9
$DIMTOLJ
 70
     0
  9
$DIMTZIN
 70
     0
  9
$DIMALTZ
 70
     0
  9
$DIMALTTZ
 70
     0
  9
$DIMUPT
 70
     0
  9
$DIMDEC
 70
     2
  9
$DIMTDEC
 70
     3
  9
$DIMALTU
 70
     2
  9
$DIMALTTD
 70
     3
  9
$DIMTXSTY
  7
Standard
  9
$DIMAUNIT
 70
     0
  9
$DIMADEC
 70
     2
  9
$DIMALTRND
 40
0.0
  9
$DIMAZIN
 70
     0
  9
$DIMDSEP
 70
    44
  9
$DIMATFIT
 70
     3
  9
$DIMFRAC
 70
     0
  9
$DIMLDRBLK
  1

  9
$DIMLUNIT
 70
     2
  9
$DIMLWD
 70
    -2
  9
$DIMLWE
 70
    -2
  9
$DIMTMOVE
 70
     0
  9
$LUNITS
 70
     2
  9
$LUPREC
 70
     2
  9
$SKETCHINC
 40
1.0
  9
$FILLETRAD
 40
10.0
  9
$AUNITS
 70
     0
  9
$AUPREC
 70
     2
  9
$MENU
  1
.
  9
$ELEVATION
 40
0.0
  9
$PELEVATION
 40
0.0
  9
$THICKNESS
 40
0.0
  9
$LIMCHECK
 70
     0
  9
$CHAMFERA
 40
0.0
  9
$CHAMFERB
 40
0.0
  9
$CHAMFERC
 40
0.0
  9
$CHAMFERD
 40
0.0
  9
$SKPOLY
 70
     0
  9
$TDCREATE
 40
2457632.482867222
  9
$TDUCREATE
 40
2457632.399533889
  9
$TDUPDATE
 40
2457632.482868519
  9
$TDUUPDATE
 40
2457632.399535185
  9
$TDINDWG
 40
0.0000000116
  9
$TDUSRTIMER
 40
0.0000000116
  9
$USRTIMER
 70
     1
  9
$ANGBASE
 50
0.0
  9
$ANGDIR
 70
     0
  9
$PDMODE
 70
     0
  9
$PDSIZE
 40
-1.0
  9
$PLINEWID
 40
0.0
  9
$SPLFRAME
 70
     0
  9
$SPLINETYPE
 70
     6
  9
$SPLINESEGS
 70
     8
  9
$HANDSEED
  5
2E5
  9
$SURFTAB1
 70
     6
  9
$SURFTAB2
 70
     6
  9
$SURFTYPE
 70
     6
  9
$SURFU
 70
     6
  9
$SURFV
 70
     6
  9
$UCSBASE
  2

  9
$UCSNAME
  2

  9
$UCSORG
 10
0.0
 20
0.0
 30
0.0
  9
$UCSXDIR
 10
1.0
 20
0.0
 30
0.0
  9
$UCSYDIR
 10
0.0
 20
1.0
 30
0.0
  9
$UCSORTHOREF
  2

  9
$UCSORTHOVIEW
 70
     0
  9
$UCSORGTOP
 10
0.0
 20
0.0
 30
0.0
  9
$UCSORGBOTTOM
 10
0.0
 20
0.0
 30
0.0
  9
$UCSORGLEFT
 10
0.0
 20
0.0
 30
0.0
  9
$UCSORGRIGHT
 10
0.0
 20
0.0
 30
0.0
  9
$UCSORGFRONT
 10
0.0
 20
0.0
 30
0.0
  9
$UCSORGBACK
 10
0.0
 20
0.0
 30
0.0
  9
$PUCSBASE
  2

  9
$PUCSNAME
  2

  9
$PUCSORG
 10
0.0
 20
0.0
 30
0.0
  9
$PUCSXDIR
 10
1.0
 20
0.0
 30
0.0
  9
$PUCSYDIR
 10
0.0
 20
1.0
 30
0.0
  9
$PUCSORTHOREF
  2

  9
$PUCSORTHOVIEW
 70
     0
  9
$PUCSORGTOP
 10
0.0
 20
0.0
 30
0.0
  9
$PUCSORGBOTTOM
 10
0.0
 20
0.0
 30
0.0
  9
$PUCSORGLEFT
 10
0.0
 20
0.0
 30
0.0
  9
$PUCSORGRIGHT
 10
0.0
 20
0.0
 30
0.0
  9
$PUCSORGFRONT
 10
0.0
 20
0.0
 30
0.0
  9
$PUCSORGBACK
 10
0.0
 20
0.0
 30
0.0
  9
$USERI1
 70
     0
  9
$USERI2
 70
     0
  9
$USERI3
 70
     0
  9
$USERI4
 70
     0
  9
$USERI5
 70
     0
  9
$USERR1
 40
0.0
  9
$USERR2
 40
0.0
  9
$USERR3
 40
0.0
  9
$USERR4
 40
0.0
  9
$USERR5
 40
0.0
  9
$WORLDVIEW
 70
     1
  9
$SHADEDGE
 70
     3
  9
$SHADEDIF
 70
    70
  9
$TILEMODE
 70
     1
  9
$MAXACTVP
 70
    64
  9
$PINSBASE
 10
0.0
 20
0.0
 30
0.0
  9
$PLIMCHECK
 70
     0
  9
$PEXTMIN
 10
1.0000000000E+20
 20
1.0000000000E+20
 30
1.0000000000E+20
  9
$PEXTMAX
 10
-1.0000000000E+20
 20
-1.0000000000E+20
 30
-1.0000000000E+20
  9
$PLIMMIN
 10
0.0
 20
0.0
  9
$PLIMMAX
 10
420.0
 20
297.0
  9
$UNITMODE
 70
     0
  9
$VISRETAIN
 70
     1
  9
$PLINEGEN
 70
     0
  9
$PSLTSCALE
 70
     1
  9
$TREEDEPTH
 70
  3020
  9
$CMLSTYLE
  2
Standard
  9
$CMLJUST
 70
     0
  9
$CMLSCALE
 40
20.0
  9
$PROXYGRAPHICS
 70
     1
  9
$MEASUREMENT
 70
     1
  9
$CELWEIGHT
370
    -1
  9
$ENDCAPS
280
     0
  9
$JOINSTYLE
280
     0
  9
$LWDISPLAY
290
     1
  9
$INSUNITS
 70
     4
  9
$HYPERLINKBASE
  1

  9
$STYLESHEET
  1

  9
$XEDIT
290
     1
  9
$CEPSNTYPE
380
     0
  9
$PSTYLEMODE
290
     1
  9
$FINGERPRINTGUID
  2
{885C4146-ECAF-406A-A31B-C107A7B8DFE1}
  9
$VERSIONGUID
  2
{FAEB1C32-E019-11D5-929B-00C0DF256EC4}
  9
$EXTNAMES
290
     1
  9
$PSVPSCALE
 40
0.0
  9
$OLESTARTUP
290
     0
  0
ENDSEC
  0
SECTION
  2
CLASSES
  0
CLASS
  1
ACDBDICTIONARYWDFLT
  2
AcDbDictionaryWithDefault
  3
ObjectDBX Classes
 90
        0
280
     0
281
     0
  0
CLASS
  1
VISUALSTYLE
  2
AcDbVisualStyle
  3
ObjectDBX Classes
 90
     4095
280
     0
281
     0
  0
CLASS
  1
MATERIAL
  2
AcDbMaterial
  3
ObjectDBX Classes
 90
     1153
280
     0
281
     0
  0
CLASS
  1
SCALE
  2
AcDbScale
  3
ObjectDBX Classes
 90
     1153
280
     0
281
     0
  0
CLASS
  1
TABLESTYLE
  2
AcDbTableStyle
  3
ObjectDBX Classes
 90
     4095
280
     0
281
     0
  0
CLASS
  1
MLEADERSTYLE
  2
AcDbMLeaderStyle
  3
ACDB_MLEADERSTYLE_CLASS
 90
     4095
280
     0
281
     0
  0
CLASS
  1
SUN
  2
AcDbSun
  3
SCENEOE
 90
     1153
280
     0
281
     0
  0
CLASS
  1
ACDBPLACEHOLDER
  2
AcDbPlaceHolder
  3
ObjectDBX Classes
 90
        0
280
     0
281
     0
  0
CLASS
  1
LAYOUT
  2
AcDbLayout
  3
ObjectDBX Classes
 90
        0
280
     0
281
     0
  0
ENDSEC
  0
SECTION
  2
TABLES
  0
TABLE
  2
VPORT
  5
8
330
0
100
AcDbSymbolTable
 70
     1
  0
VPORT
  5
29
330
8
100
AcDbSymbolTableRecord
100
AcDbViewportTableRecord
  2
*Active
 70
     0
 10
0.0
 20
0.0
 11
1.0
 21
1.0
 12
148.5
 22
105.0
 13
0.0
 23
0.0
 14
10.0
 24
10.0
 15
10.0
 25
10.0
 16
0.0
 26
0.0
 36
1.0
 17
0.0
 27
0.0
 37
0.0
 40
210.0
 41
1.4142857143
 42
50.0
 43
0.0
 44
0.0
 50
0.0
 51
0.0
 71
     0
 72
  2000
 73
     1
 74
     3
 75
     0
 76
     0
 77
     0
 78
     0
281
     0
 65
     1
110
0.0
120
0.0
130
0.0
111
1.0
121
0.0
131
0.0
112
0.0
122
1.0
132
0.0
 79
     0
146
0.0
  0
ENDTAB
  0
TABLE
  2
LTYPE
  5
5
330
0
100
AcDbSymbolTable
 70
     6
  0
LTYPE
  5
14
330
5
100
AcDbSymbolTableRecord
100
AcDbLinetypeTableRecord
  2
ByBlock
 70
     0
  3

 72
    65
 73
     0
 40
0.0
  0
LTYPE
  5
15
330
5
100
AcDbSymbolTableRecord
100
AcDbLinetypeTableRecord
  2
ByLayer
 70
     0
  3

 72
    65
 73
     0
 40
0.0
  0
LTYPE
  5
16
330
5
100
AcDbSymbolTableRecord
100
AcDbLinetypeTableRecord
  2
Continuous
 70
     0
  3
Solid line
 72
    65
 73
     0
 40
0.0
  0
LTYPE
  5
6E
330
5
100
AcDbSymbolTableRecord
100
AcDbLinetypeTableRecord
  2
HIDDEN
 70
     0
  3
Hidden __ __ __ __ __ __ __ __ __ __ __ __ __ __
 72
    65
 73
     2
 40
1.905
 49
1.27
 74
     0
 49
-0.635
 74
     0
  0
LTYPE
  5
6F
330
5
100
AcDbSymbolTableRecord
100
AcDbLinetypeTableRecord
  2
PHANTOM
 70
     0
  3
Phantom ______  __  __  ______  __  __  ______
 72
    65
 73
     6
 40
12.7
 49
6.35
 74
     0
 49
-1.27
 74
     0
 49
1.27
 74
     0
 49
-1.27
 74
     0
 49
1.27
 74
     0
 49
-1.27
 74
     0
  0
LTYPE
  5
70
330
5
100
AcDbSymbolTableRecord
100
AcDbLinetypeTableRecord
  2
CENTER
 70
     0
  3
Center ____ _ ____ _ ____ _ ____ _ ____ _ ____
 72
    65
 73
     4
 40
10.16
 49
6.35
 74
     0
 49
-1.27
 74
     0
 49
1.27
 74
     0
 49
-1.27
 74
     0
  0
LTYPE
  5
71
330
5
100
AcDbSymbolTableRecord
100
AcDbLinetypeTableRecord
  2
CENTERX2
 70
     0
  3
Center (2x) ________  __  ________  __  _____
 72
    65
 73
     4
 40
20.32
 49
12.7
 74
     0
 49
-2.54
 74
     0
 49
2.54
 74
     0
 49
-2.54
 74
     0
  0
LTYPE
  5
72
330
5
100
AcDbSymbolTableRecord
100
AcDbLinetypeTableRecord
  2
DOT2
 70
     0
  3
Dot (.5x) ........................................
 72
    65
 73
     2
 40
0.635
 49
0.0
 74
     0
 49
-0.635
 74
     0
  0
ENDTAB
  0
TABLE
  2
LAYER
  5
2
330
0
100
AcDbSymbolTable
 70
     5
  0
LAYER
  5
10
330
2
100
AcDbSymbolTableRecord
100
AcDbLayerTableRecord
  2
0
 70
     0
 62
     7
  6
Continuous
370
    -3
390
F
  0
LAYER
  5
73
330
2
100
AcDbSymbolTableRecord
100
AcDbLayerTableRecord
  2
FORMAT
 70
     0
 62
     7
  6
Continuous
370
    -3
390
F
  0
LAYER
  5
74
330
2
100
AcDbSymbolTableRecord
100
AcDbLayerTableRecord
  2
VERMASSUNG
 70
     0
 62
     7
  6
Continuous
370
    -3
390
F
  0
LAYER
  5
75
330
2
100
AcDbSymbolTableRecord
100
AcDbLayerTableRecord
  2
KOPF_DÜNN
 70
     0
 62
     7
  6
Continuous
370
    -3
390
F
  0
LAYER
  5
76
330
2
100
AcDbSymbolTableRecord
100
AcDbLayerTableRecord
  2
KOPF_DICK
 70
     0
 62
     7
  6
Continuous
370
    15
390
F
  0
ENDTAB
  0
TABLE
  2
STYLE
  5
3
330
0
100
AcDbSymbolTable
 70
     2
  0
STYLE
  5
11
330
3
100
AcDbSymbolTableRecord
100
AcDbTextStyleTableRecord
  2
Standard
 70
     0
 40
0.0
 41
1.0
 50
0.0
 71
     0
 42
2.0
  3
txt
  4

  0
STYLE
  5
77
330
3
100
AcDbSymbolTableRecord
100
AcDbTextStyleTableRecord
  2
SLDTEXTSTYLE0
 70
     0
 40
0.0
 41
0.7
 50
0.0
 71
     0
 42
2.0
  3
TXT
  4

  0
ENDTAB
  0
TABLE
  2
VIEW
  5
6
330
0
100
AcDbSymbolTable
 70
     0
  0
ENDTAB
  0
TABLE
  2
UCS
  5
7
330
0
100
AcDbSymbolTable
 70
     0
  0
ENDTAB
  0
TABLE
  2
APPID
  5
9
330
0
100
AcDbSymbolTable
 70
     1
  0
APPID
  5
12
330
9
100
AcDbSymbolTableRecord
100
AcDbRegAppTableRecord
  2
ACAD
 70
     0
  0
ENDTAB
  0
TABLE
  2
DIMSTYLE
  5
A
330
0
100
AcDbSymbolTable
 70
     2
100
AcDbDimStyleTable
  0
DIMSTYLE
105
27
330
A
100
AcDbSymbolTableRecord
100
AcDbDimStyleTableRecord
  2
ISO-25
 70
     0
 41
2.5
 42
0.625
 43
3.75
 44
1.25
 73
     0
 74
     0
 77
     1
 78
     8
140
2.5
141
2.5
143
0.0393700787
147
0.625
171
     3
172
     1
178
     0
271
     2
272
     2
274
     3
278
    44
283
     0
284
     8
340
11
  0
DIMSTYLE
105
1DD
102
{ACAD_REACTORS
330
1DC
330
1E9
330
1F5
330
1FF
330
209
102
}
330
A
100
AcDbSymbolTableRecord
100
AcDbDimStyleTableRecord
  2
SLDDIMSTYLE0
 70
     0
 41
3.0
 44
0.0
 45
0.000000001
 73
     0
 74
     0
 77
     1
 78
    12
 79
     3
140
2.0
147
0.5
173
     1
178
     0
271
     2
272
     3
276
     2
284
    12
340
77
  0
ENDTAB
  0
TABLE
  2
BLOCK_RECORD
  5
1
330
0
100
AcDbSymbolTable
 70
     6
  0
BLOCK_RECORD
  5
1F
330
1
100
AcDbSymbolTableRecord
100
AcDbBlockTableRecord
  2
*Model_Space
340
22
  0
BLOCK_RECORD
  5
1B
330
1
100
AcDbSymbolTableRecord
100
AcDbBlockTableRecord
  2
*Paper_Space
340
1E
  0
BLOCK_RECORD
  5
23
330
1
100
AcDbSymbolTableRecord
100
AcDbBlockTableRecord
  2
*Paper_Space0
340
26
  0
BLOCK_RECORD
  5
1DE
330
1
100
AcDbSymbolTableRecord
100
AcDbBlockTableRecord
  2
_D
340
0
  0
BLOCK_RECORD
  5
1EA
330
1
100
AcDbSymbolTableRecord
100
AcDbBlockTableRecord
  2
_D_1
340
0
  0
BLOCK_RECORD
  5
1F6
330
1
100
AcDbSymbolTableRecord
100
AcDbBlockTableRecord
  2
_D_2
340
0
  0
BLOCK_RECORD
  5
200
330
1
100
AcDbSymbolTableRecord
100
AcDbBlockTableRecord
  2
_D_3
340
0
  0
BLOCK_RECORD
  5
20A
330
1
100
AcDbSymbolTableRecord
100
AcDbBlockTableRecord
  2
_D_4
340
0
  0
ENDTAB
  0
ENDSEC
  0
SECTION
  2
BLOCKS
  0
BLOCK
  5
20
330
1F
100
AcDbEntity
  8
0
100
AcDbBlockBegin
  2
*Model_Space
 70
     0
 10
0.0
 20
0.0
 30
0.0
  3
*Model_Space
  1

  0
ENDBLK
  5
21
330
1F
100
AcDbEntity
  8
0
100
AcDbBlockEnd
  0
BLOCK
  5
1C
330
1B
100
AcDbEntity
 67
     1
  8
0
100
AcDbBlockBegin
  2
*Paper_Space
 70
     0
 10
0.0
 20
0.0
 30
0.0
  3
*Paper_Space
  1

  0
ENDBLK
  5
1D
330
1B
100
AcDbEntity
 67
     1
  8
0
100
AcDbBlockEnd
  0
BLOCK
  5
24
330
23
100
AcDbEntity
  8
0
100
AcDbBlockBegin
  2
*Paper_Space0
 70
     0
 10
0.0
 20
0.0
 30
0.0
  3
*Paper_Space0
  1

  0
ENDBLK
  5
25
330
23
100
AcDbEntity
  8
0
100
AcDbBlockEnd
  0
BLOCK
  5
1DF
330
1DE
100
AcDbEntity
  8
0
100
AcDbBlockBegin
  2
_D
 70
     0
 10
0.0
 20
0.0
 30
0.0
  3
_D
  1

  0
SOLID
  5
1E1
330
1DE
100
AcDbEntity
  8
VERMASSUNG
100
AcDbTrace
 10
71.0722137746
 20
66.2118944718
 30
0.0
 11
71.5222137746
 21
69.2118944718
 31
0.0
 12
70.6222137746
 22
69.2118944718
 32
0.0
 13
70.6222137746
 23
69.2118944718
 33
0.0
  0
SOLID
  5
1E2
330
1DE
100
AcDbEntity
  8
VERMASSUNG
100
AcDbTrace
 10
71.0722137746
 20
163.6618944718
 30
0.0
 11
70.6222137746
 21
160.6618944718
 31
0.0
 12
71.5222137746
 22
160.6618944718
 32
0.0
 13
71.5222137746
 23
160.6618944718
 33
0.0
  0
LINE
  5
1E3
330
1DE
100
AcDbEntity
  8
VERMASSUNG
100
AcDbLine
 10
197.2787063655
 20
66.2118944718
 30
0.0
 11
70.0722137746
 21
66.2118944718
 31
0.0
  0
LINE
  5
1E4
330
1DE
100
AcDbEntity
  8
VERMASSUNG
100
AcDbLine
 10
197.2787063655
 20
163.6618944718
 30
0.0
 11
70.0722137746
 21
163.6618944718
 31
0.0
  0
LINE
  5
1E5
330
1DE
100
AcDbEntity
  8
VERMASSUNG
100
AcDbLine
 10
71.0722137746
 20
66.2118944718
 30
0.0
 11
71.0722137746
 21
163.6618944718
 31
0.0
  0
MTEXT
  5
1E6
330
1DE
100
AcDbEntity
  8
VERMASSUNG
100
AcDbMText
 10
68.2940785184
 20
105.4324588384
 30
0.0
 40
2.0
 41
0.0
 71
     1
 72
     1
  1
ISO 50
  7
SLDTEXTSTYLE0
 11
3.391901413832837E-15
 21
1.0
 31
0.0
 73
     1
 44
1.0
  0
MTEXT
  5
1E7
330
1DE
100
AcDbEntity
  8
VERMASSUNG
100
AcDbMText
 10
68.4940784697
 20
114.432458451
 30
0.0
 40
2.0
 41
0.0
 71
     1
 72
     1
  1
%%c
  7
SLDTEXTSTYLE0
 11
3.391901413832837E-15
 21
1.0
 31
0.0
 73
     1
 44
1.0
  0
MTEXT
  5
1E8
330
1DE
100
AcDbEntity
  8
VERMASSUNG
100
AcDbMText
 10
68.4940781786
 20
118.0418017838
 30
0.0
 40
2.0
 41
0.0
 71
     1
 72
     1
  1
97.45
  7
SLDTEXTSTYLE0
 11
3.391901413832837E-15
 21
1.0
 31
0.0
 73
     1
 44
1.0
  0
ENDBLK
  5
1E0
330
1DE
100
AcDbEntity
  8
0
100
AcDbBlockEnd
  0
BLOCK
  5
1EB
330
1EA
100
AcDbEntity
  8
0
100
AcDbBlockBegin
  2
_D_1
 70
     0
 10
0.0
 20
0.0
 30
0.0
  3
_D_1
  1

  0
ARC
  5
1ED
330
1EA
100
AcDbEntity
  8
VERMASSUNG
100
AcDbCircle
 10
144.3901404541
 20
181.736726626
 30
0.0
 40
4.247059938537221
100
AcDbArc
 50
153.4349488229
 51
206.5650511771
  0
ARC
  5
1EE
330
1EA
100
AcDbEntity
  8
VERMASSUNG
100
AcDbCircle
 10
145.7672722769
 20
181.736726626
 30
0.0
 40
4.247059938537221
100
AcDbArc
 50
333.4349488229
 51
26.5650511771
  0
SOLID
  5
1EF
330
1EA
100
AcDbEntity
  8
VERMASSUNG
100
AcDbTrace
 10
77.2287063655
 20
179.8373836806
 30
0.0
 11
80.2287063655
 21
179.3873836806
 31
0.0
 12
80.2287063655
 22
180.2873836806
 32
0.0
 13
80.2287063655
 23
180.2873836806
 33
0.0
  0
SOLID
  5
1F0
330
1EA
100
AcDbEntity
  8
VERMASSUNG
100
AcDbTrace
 10
212.9287063655
 20
179.8373836806
 30
0.0
 11
209.9287063655
 21
180.2873836806
 31
0.0
 12
209.9287063655
 22
179.3873836806
 32
0.0
 13
209.9287063655
 23
179.3873836806
 33
0.0
  0
LINE
  5
1F1
330
1EA
100
AcDbEntity
  8
VERMASSUNG
100
AcDbLine
 10
77.2287063655
 20
133.3157389992
 30
0.0
 11
77.2287063655
 21
180.8373836806
 31
0.0
  0
LINE
  5
1F2
330
1EA
100
AcDbEntity
  8
VERMASSUNG
100
AcDbLine
 10
212.9287063655
 20
124.7368944718
 30
0.0
 11
212.9287063655
 21
180.8373836806
 31
0.0
  0
LINE
  5
1F3
330
1EA
100
AcDbEntity
  8
VERMASSUNG
100
AcDbLine
 10
77.2287063655
 20
179.8373836806
 30
0.0
 11
212.9287063655
 21
179.8373836806
 31
0.0
  0
MTEXT
  5
1F4
330
1EA
100
AcDbEntity
  8
VERMASSUNG
100
AcDbMText
 10
142.1789545632
 20
182.4155192765
 30
0.0
 40
2.0
 41
0.0
 71
     1
 72
     1
  1
135.7
  7
SLDTEXTSTYLE0
 73
     1
 44
1.0
  0
ENDBLK
  5
1EC
330
1EA
100
AcDbEntity
  8
0
100
AcDbBlockEnd
  0
BLOCK
  5
1F7
330
1F6
100
AcDbEntity
  8
0
100
AcDbBlockBegin
  2
_D_2
 70
     0
 10
0.0
 20
0.0
 30
0.0
  3
_D_2
  1

  0
SOLID
  5
1F9
330
1F6
100
AcDbEntity
  8
VERMASSUNG
100
AcDbTrace
 10
178.8287063655
 20
173.8373836806
 30
0.0
 11
181.8287063655
 21
173.3873836806
 31
0.0
 12
181.8287063655
 22
174.2873836806
 32
0.0
 13
181.8287063655
 23
174.2873836806
 33
0.0
  0
SOLID
  5
1FA
330
1F6
100
AcDbEntity
  8
VERMASSUNG
100
AcDbTrace
 10
212.9287063655
 20
173.8373836806
 30
0.0
 11
209.9287063655
 21
174.2873836806
 31
0.0
 12
209.9287063655
 22
173.3873836806
 32
0.0
 13
209.9287063655
 23
173.3873836806
 33
0.0
  0
LINE
  5
1FB
330
1F6
100
AcDbEntity
  8
VERMASSUNG
100
AcDbLine
 10
178.8287063655
 20
149.8618944718
 30
0.0
 11
178.8287063655
 21
174.8373836806
 31
0.0
  0
LINE
  5
1FC
330
1F6
100
AcDbEntity
  8
VERMASSUNG
100
AcDbLine
 10
212.9287063655
 20
124.7368944718
 30
0.0
 11
212.9287063655
 21
174.8373836806
 31
0.0
  0
LINE
  5
1FD
330
1F6
100
AcDbEntity
  8
VERMASSUNG
100
AcDbLine
 10
178.8287063655
 20
173.8373836806
 30
0.0
 11
212.9287063655
 21
173.8373836806
 31
0.0
  0
MTEXT
  5
1FE
330
1F6
100
AcDbEntity
  8
VERMASSUNG
100
AcDbMText
 10
193.57897928
 20
176.4155192765
 30
0.0
 40
2.0
 41
0.0
 71
     1
 72
     1
  1
34.1
  7
SLDTEXTSTYLE0
 73
     1
 44
1.0
  0
ENDBLK
  5
1F8
330
1F6
100
AcDbEntity
  8
0
100
AcDbBlockEnd
  0
BLOCK
  5
201
330
200
100
AcDbEntity
  8
0
100
AcDbBlockBegin
  2
_D_3
 70
     0
 10
0.0
 20
0.0
 30
0.0
  3
_D_3
  1

  0
SOLID
  5
203
330
200
100
AcDbEntity
  8
VERMASSUNG
100
AcDbTrace
 10
197.8787063655
 20
167.8373836806
 30
0.0
 11
200.8787063655
 21
167.3873836806
 31
0.0
 12
200.8787063655
 22
168.2873836806
 32
0.0
 13
200.8787063655
 23
168.2873836806
 33
0.0
  0
SOLID
  5
204
330
200
100
AcDbEntity
  8
VERMASSUNG
100
AcDbTrace
 10
212.9287063655
 20
167.8373836806
 30
0.0
 11
209.9287063655
 21
168.2873836806
 31
0.0
 12
209.9287063655
 22
167.3873836806
 32
0.0
 13
209.9287063655
 23
167.3873836806
 33
0.0
  0
LINE
  5
205
330
200
100
AcDbEntity
  8
VERMASSUNG
100
AcDbLine
 10
197.8787063655
 20
161.231881425
 30
0.0
 11
197.8787063655
 21
168.8373836806
 31
0.0
  0
LINE
  5
206
330
200
100
AcDbEntity
  8
VERMASSUNG
100
AcDbLine
 10
212.9287063655
 20
124.7368944718
 30
0.0
 11
212.9287063655
 21
168.8373836806
 31
0.0
  0
LINE
  5
207
330
200
100
AcDbEntity
  8
VERMASSUNG
100
AcDbLine
 10
197.8787063655
 20
167.8373836806
 30
0.0
 11
212.9287063655
 21
167.8373836806
 31
0.0
  0
MTEXT
  5
208
330
200
100
AcDbEntity
  8
VERMASSUNG
100
AcDbMText
 10
202.5039545632
 20
170.4155192765
 30
0.0
 40
2.0
 41
0.0
 71
     1
 72
     1
  1
15.05
  7
SLDTEXTSTYLE0
 73
     1
 44
1.0
  0
ENDBLK
  5
202
330
200
100
AcDbEntity
  8
0
100
AcDbBlockEnd
  0
BLOCK
  5
20B
330
20A
100
AcDbEntity
  8
0
100
AcDbBlockBegin
  2
_D_4
 70
     0
 10
0.0
 20
0.0
 30
0.0
  3
_D_4
  1

  0
SOLID
  5
20D
330
20A
100
AcDbEntity
  8
VERMASSUNG
100
AcDbTrace
 10
222.8199236049
 20
124.9368944718
 30
0.0
 11
222.3699236049
 21
121.9368944718
 31
0.0
 12
223.2699236049
 22
121.9368944718
 32
0.0
 13
223.2699236049
 23
121.9368944718
 33
0.0
  0
SOLID
  5
20E
330
20A
100
AcDbEntity
  8
VERMASSUNG
100
AcDbTrace
 10
222.8199236049
 20
104.9368944718
 30
0.0
 11
223.2699236049
 21
107.9368944718
 31
0.0
 12
222.3699236049
 22
107.9368944718
 32
0.0
 13
222.3699236049
 23
107.9368944718
 33
0.0
  0
LINE
  5
20F
330
20A
100
AcDbEntity
  8
VERMASSUNG
100
AcDbLine
 10
212.7287063655
 20
124.9368944718
 30
0.0
 11
223.8199236049
 21
124.9368944718
 31
0.0
  0
LINE
  5
210
330
20A
100
AcDbEntity
  8
VERMASSUNG
100
AcDbLine
 10
212.7287063655
 20
104.9368944718
 30
0.0
 11
223.8199236049
 21
104.9368944718
 31
0.0
  0
LINE
  5
211
330
20A
100
AcDbEntity
  8
VERMASSUNG
100
AcDbLine
 10
222.8199236049
 20
124.9368944718
 30
0.0
 11
222.8199236049
 21
104.9368944718
 31
0.0
  0
MTEXT
  5
212
330
20A
100
AcDbEntity
  8
VERMASSUNG
100
AcDbMText
 10
220.0417883487
 20
108.5318948282
 30
0.0
 40
2.0
 41
0.0
 71
     1
 72
     1
  1
MBM
  7
SLDTEXTSTYLE0
 11
-7.044195017643634E-15
 21
1.0
 31
0.0
 73
     1
 44
1.0
  0
MTEXT
  5
213
330
20A
100
AcDbEntity
  8
VERMASSUNG
100
AcDbMText
 10
220.2417883
 20
114.9318946665
 30
0.0
 40
2.0
 41
0.0
 71
     1
 72
     1
  1
%%c
  7
SLDTEXTSTYLE0
 11
-7.044195017643634E-15
 21
1.0
 31
0.0
 73
     1
 44
1.0
  0
MTEXT
  5
214
330
20A
100
AcDbEntity
  8
VERMASSUNG
100
AcDbMText
 10
220.0417883487
 20
118.5418951465
 30
0.0
 40
2.0
 41
0.0
 71
     1
 72
     1
  1
20
  7
SLDTEXTSTYLE0
 11
-7.044195017643634E-15
 21
1.0
 31
0.0
 73
     1
 44
1.0
  0
ENDBLK
  5
20C
330
20A
100
AcDbEntity
  8
0
100
AcDbBlockEnd
  0
ENDSEC
  0
SECTION
  2
ENTITIES
  0
MTEXT
  5
78
330
1F
100
AcDbEntity
  8
KOPF_DÜNN
100
AcDbMText
 10
13.8892156294
 20
23.8442973028
 30
0.0
 40
3.0
 41
0.0
 71
     1
 72
     1
  1
102.525.201
  7
SLDTEXTSTYLE0
 73
     1
 44
1.0
  0
MTEXT
  5
79
330
1F
100
AcDbEntity
  8
VERMASSUNG
100
AcDbMText
 10
13.9329988022
 20
28.8834360957
 30
0.0
 40
3.0
 41
0.0
 71
     1
 72
     1
  1
Aufnahme_Master shank MBM 20
  7
SLDTEXTSTYLE0
 73
     1
 44
1.0
  0
MTEXT
  5
7A
330
1F
100
AcDbEntity
  8
VERMASSUNG
100
AcDbMText
 10
98.8601118557
 20
13.8365368761
 30
0.0
 40
2.0
 41
0.0
 71
     1
 72
     1
  1
Datum: 01.11.2007
  7
SLDTEXTSTYLE0
 73
     1
 44
1.0
  0
MTEXT
  5
7B
330
1F
100
AcDbEntity
  8
VERMASSUNG
100
AcDbMText
 10
13.933048693
 20
18.0482802738
 30
0.0
 40
2.0
 41
0.0
 71
     1
 72
     1
  1
DIN 69871 B 50
  7
SLDTEXTSTYLE0
 73
     1
 44
1.0
  0
MTEXT
  5
7C
330
1F
100
AcDbEntity
  8
VERMASSUNG
100
AcDbMText
 10
13.9808475933
 20
13.9090974274
 30
0.0
 40
2.0
 41
0.0
 71
     1
 72
     1
  1
Gewicht: 2660g
  7
SLDTEXTSTYLE0
 73
     1
 44
1.0
  0
ARC
  5
7D
330
1F
100
AcDbEntity
  8
0
  6
Continuous
 62
     7
370
    15
100
AcDbCircle
 10
193.0287063655
 20
100.4711525098
 30
0.0
 40
2.000000000000028
100
AcDbArc
 50
192.2156859339
 51
340.0914611705
  0
ARC
  5
7E
330
1F
100
AcDbEntity
  8
0
  6
Continuous
 62
     7
370
    15
100
AcDbCircle
 10
181.4287063655
 20
79.4118944718
 30
0.0
 40
0.6000000000000227
100
AcDbArc
 50
0.0
 51
90.0
  0
ARC
  5
7F
330
1F
100
AcDbEntity
  8
0
  6
Continuous
 62
     7
370
    15
100
AcDbCircle
 10
181.4287063655
 20
150.4618944718
 30
0.0
 40
0.6000000000000227
100
AcDbArc
 50
270.0
 51
0.0
  0
LINE
  5
80
330
1F
100
AcDbEntity
  8
0
  6
Continuous
 62
     7
370
    15
100
AcDbLine
 10
178.8287063655
 20
149.8618933512
 30
0.0
 11
78.9400910553
 21
135.2948050154
 31
0.0
  0
LINE
  5
81
330
1F
100
AcDbEntity
  8
0
  6
Continuous
 62
     7
370
    15
100
AcDbLine
 10
78.9400910553
 20
94.5789839281
 30
0.0
 11
178.8287063655
 21
80.0118955923
 31
0.0
  0
LINE
  5
82
330
1F
100
AcDbEntity
  8
0
  6
Continuous
 62
     7
370
    15
100
AcDbLine
 10
178.8287063655
 20
80.0118955923
 30
0.0
 11
181.4287063726
 21
80.0118955923
 31
0.0
  0
LINE
  5
83
330
1F
100
AcDbEntity
  8
0
  6
Continuous
 62
     7
370
    15
100
AcDbLine
 10
181.4287063726
 20
149.8618933512
 30
0.0
 11
178.8287063655
 21
149.8618933512
 31
0.0
  0
ARC
  5
84
330
1F
100
AcDbEntity
  8
0
  6
Continuous
 62
     7
370
    15
100
AcDbCircle
 10
79.2287063655
 20
96.5580499444
 30
0.0
 40
1.999999999999994
100
AcDbArc
 50
180.0
 51
261.7028550302
  0
ARC
  5
85
330
1F
100
AcDbEntity
  8
0
  6
Continuous
 62
     7
370
    15
100
AcDbCircle
 10
79.2287063655
 20
133.3157389992
 30
0.0
 40
2.000000000000022
100
AcDbArc
 50
98.2971449698
 51
180.0
  0
ARC
  5
86
330
1F
100
AcDbEntity
  8
0
  6
Continuous
 62
     7
370
    15
100
AcDbCircle
 10
201.8787063655
 20
100.9368944718
 30
0.0
 40
4.0
100
AcDbArc
 50
90.0
 51
180.0
  0
ARC
  5
87
330
1F
100
AcDbEntity
  8
0
  6
Continuous
 62
     7
370
    15
100
AcDbCircle
 10
201.8787063655
 20
128.9368944718
 30
0.0
 40
4.000000000000014
100
AcDbArc
 50
180.0
 51
270.0
  0
LINE
  5
88
330
1F
100
AcDbEntity
  8
0
  6
Continuous
 62
     7
370
    15
100
AcDbLine
 10
201.8787072566
 20
104.9368946953
 30
0.0
 11
212.7287065205
 21
104.9368946953
 31
0.0
  0
LINE
  5
89
330
1F
100
AcDbEntity
  8
0
  6
Continuous
 62
     7
370
    15
100
AcDbLine
 10
212.7287065205
 20
124.9368942482
 30
0.0
 11
201.8787072566
 21
124.9368942482
 31
0.0
  0
LINE
  5
8A
330
1F
100
AcDbEntity
  8
0
  6
Continuous
 62
     7
370
    15
100
AcDbLine
 10
212.7287065205
 20
104.9368946953
 30
0.0
 11
212.9287061807
 21
105.1368943555
 31
0.0
  0
LINE
  5
8B
330
1F
100
AcDbEntity
  8
0
  6
Continuous
 62
     7
370
    15
100
AcDbLine
 10
212.9287061807
 20
124.736894588
 30
0.0
 11
212.7287065205
 21
124.9368942482
 31
0.0
  0
ARC
  5
8C
330
1F
100
AcDbEntity
  8
0
  6
Continuous
 62
     7
370
    15
100
AcDbCircle
 10
192.8600086361
 20
99.7238185737
 30
0.0
 40
2.33144349181351
100
AcDbArc
 50
180.6299248823
 51
248.6081835585
  0
ARC
  5
8D
330
1F
100
AcDbEntity
  8
0
  6
Continuous
 62
     7
370
    15
100
AcDbCircle
 10
193.0336252909
 20
99.8752688111
 30
0.0
 40
2.538017504980595
100
AcDbArc
 50
246.2051521054
 51
339.6945741635
  0
ARC
  5
8E
330
1F
100
AcDbEntity
  8
0
  6
Continuous
 62
     7
370
    15
100
AcDbCircle
 10
192.8451545797
 20
99.6502209231
 30
0.0
 40
2.169455538065107
100
AcDbArc
 50
156.4849353318
 51
248.9718917507
  0
ARC
  5
8F
330
1F
100
AcDbEntity
  8
0
  6
Continuous
 62
     7
370
    15
100
AcDbCircle
 10
193.0357866645
 20
99.8008487991
 30
0.0
 40
2.381680315825615
100
AcDbArc
 50
245.9901963867
 51
344.8281889323
  0
ARC
  5
90
330
1F
100
AcDbEntity
  8
0
  6
Continuous
 62
     7
370
    15
100
AcDbCircle
 10
192.8684626686
 20
99.6452803546
 30
0.0
 40
1.832216280876003
100
AcDbArc
 50
124.3719283937
 51
249.0532256687
  0
ARC
  5
91
330
1F
100
AcDbEntity
  8
0
  6
Continuous
 62
     7
370
    15
100
AcDbCircle
 10
193.0380589057
 20
99.7486357162
 30
0.0
 40
1.993075013799504
100
AcDbArc
 50
245.5600168458
 51
357.1720824398
  0
SPLINE
  5
92
330
1F
100
AcDbEntity
  8
0
  6
Continuous
 62
     7
370
    15
100
AcDbSpline
210
0.0
220
0.0
230
1.0
 70
     8
 71
     3
 72
    11
 73
     7
 74
     0
 42
0.000000001
 43
0.00000001
 40
0.0
 40
0.0
 40
0.0
 40
0.0
 40
0.1285564674956766
 40
0.4801541644127874
 40
0.8150697983473786
 40
1.0
 40
1.0
 40
1.0
 40
1.0
 10
207.7790436860693
 20
113.602554858662
 30
0.0
 10
207.7214234149655
 20
113.6102294310494
 30
0.0
 10
207.5062136035573
 20
113.6388937056957
 30
0.0
 10
207.1026471084524
 20
113.6926456555586
 30
0.0
 10
206.6656704618775
 20
113.7508476055346
 30
0.0
 10
206.4315789355892
 20
113.782026866488
 30
0.0
 10
206.3483031061065
 20
113.7931185914202
 30
0.0
  0
SPLINE
  5
93
330
1F
100
AcDbEntity
  8
0
  6
Continuous
 62
     7
370
    15
100
AcDbSpline
210
0.0
220
0.0
230
1.0
 70
     8
 71
     3
 72
    10
 73
     6
 74
     0
 42
0.000000001
 43
0.00000001
 40
0.0
 40
0.0
 40
0.0
 40
0.0
 40
0.4391122818707555
 40
0.7513636302495126
 40
1.0
 40
1.0
 40
1.0
 40
1.0
 10
208.6594471302402
 20
114.7463306516873
 30
0.0
 10
208.5334117122012
 20
114.5825921702242
 30
0.0
 10
208.3177529088666
 20
114.3024197748644
 30
0.0
 10
208.0042535810853
 20
113.8951371492096
 30
0.0
 10
207.8482144143614
 20
113.6924182730609
 30
0.0
 10
207.7790436860693
 20
113.602554858662
 30
0.0
  0
SPLINE
  5
94
330
1F
100
AcDbEntity
  8
0
  6
Continuous
 62
     7
370
    15
100
AcDbSpline
210
0.0
220
0.0
230
1.0
 70
     8
 71
     3
 72
    10
 73
     6
 74
     0
 42
0.000000001
 43
0.00000001
 40
0.0
 40
0.0
 40
0.0
 40
0.0
 40
0.4391120126087121
 40
0.7513635032708496
 40
1.0
 40
1.0
 40
1.0
 40
1.0
 10
208.1091099944484
 20
116.0806703520937
 30
0.0
 10
208.1878941165177
 20
115.8896514424888
 30
0.0
 10
208.3227014373388
 20
115.5627994480304
 30
0.0
 10
208.5186691739519
 20
115.0876598599446
 30
0.0
 10
208.6162087371405
 20
114.8511661449147
 30
0.0
 10
208.6594471302402
 20
114.7463306516873
 30
0.0
  0
SPLINE
  5
95
330
1F
100
AcDbEntity
  8
0
  6
Continuous
 62
     7
370
    15
100
AcDbSpline
210
0.0
220
0.0
230
1.0
 70
     8
 71
     3
 72
    11
 73
     7
 74
     0
 42
0.000000001
 43
0.00000001
 40
0.0
 40
0.0
 40
0.0
 40
0.0
 40
0.1849302015114352
 40
0.5198458452788547
 40
0.8714435419275355
 40
1.0
 40
1.0
 40
1.0
 40
1.0
 10
206.6783694144857
 20
116.2712340848519
 30
0.0
 10
206.7616452445481
 20
116.2601423640674
 30
0.0
 10
206.9957367770089
 20
116.2289631141682
 30
0.0
 10
207.4327134092022
 20
116.1707610181227
 30
0.0
 10
207.8362798977035
 20
116.1170089937606
 30
0.0
 10
208.0514897227529
 20
116.0883448807871
 30
0.0
 10
208.1091099944484
 20
116.0806703520937
 30
0.0
  0
SPLINE
  5
96
330
1F
100
AcDbEntity
  8
0
  6
Continuous
 62
     7
370
    15
100
AcDbSpline
210
0.0
220
0.0
230
1.0
 70
     8
 71
     3
 72
    10
 73
     6
 74
     0
 42
0.000000001
 43
0.00000001
 40
0.0
 40
0.0
 40
0.0
 40
0.0
 40
0.4391120126087121
 40
0.7513635032708496
 40
1.0
 40
1.0
 40
1.0
 40
1.0
 10
206.3483031061065
 20
113.7931185914202
 30
0.0
 10
206.2695189840372
 20
113.9841375010252
 30
0.0
 10
206.1347116632162
 20
114.3109894954835
 30
0.0
 10
205.9387439266031
 20
114.7861290835693
 30
0.0
 10
205.8412043634144
 20
115.0226227985992
 30
0.0
 10
205.7979659703147
 20
115.1274582918266
 30
0.0
  0
CIRCLE
  5
97
330
1F
100
AcDbEntity
  8
0
  6
Continuous
 62
     7
370
    15
100
AcDbCircle
 10
207.2287063655
 20
114.9368944718
 30
0.0
 40
1.500000000000012
  0
SPLINE
  5
98
330
1F
100
AcDbEntity
  8
0
  6
Continuous
 62
     7
370
    15
100
AcDbSpline
210
0.0
220
0.0
230
1.0
 70
     8
 71
     3
 72
    10
 73
     6
 74
     0
 42
0.000000001
 43
0.00000001
 40
0.0
 40
0.0
 40
0.0
 40
0.0
 40
0.4391115449446548
 40
0.751363637096978
 40
1.0
 40
1.0
 40
1.0
 40
1.0
 10
205.7979659703147
 20
115.1274582918266
 30
0.0
 10
205.9240004279137
 20
115.2911970320615
 30
0.0
 10
206.1396579517281
 20
115.57137034295
 30
0.0
 10
206.4531596325725
 20
115.9786512743704
 30
0.0
 10
206.6091987852191
 20
116.1813705942803
 30
0.0
 10
206.6783694144857
 20
116.2712340848519
 30
0.0
  0
CIRCLE
  5
99
330
1F
100
AcDbEntity
  8
0
  6
Continuous
 62
     7
370
    15
100
AcDbCircle
 10
207.2287063655
 20
114.9368944718
 30
0.0
 40
2.20000000000001
  0
LINE
  5
9A
330
1F
100
AcDbEntity
  8
0
  6
Continuous
 62
     7
370
    15
100
AcDbLine
 10
206.8986402419
 20
112.4587789783
 30
0.0
 11
206.6456110742
 21
112.5058452273
 31
0.0
  0
ARC
  5
9B
330
1F
100
AcDbEntity
  8
0
  6
Continuous
 62
     7
370
    15
100
AcDbCircle
 10
207.2287063655
 20
114.9368944718
 30
0.0
 40
2.5
100
AcDbArc
 50
76.5122138983
 51
103.4877861017
  0
LWPOLYLINE
  5
9C
330
1F
100
AcDbEntity
  8
0
  6
Continuous
 62
     7
370
    15
100
AcDbPolyline
 90
        3
 70
   128
 43
0.0
 10
207.8118020263
 20
112.5058452273
 10
207.6101762768
 20
112.4661697214
 10
206.8986402419
 20
112.4587789783
  0
ARC
  5
9D
330
1F
100
AcDbEntity
  8
0
  6
Continuous
 62
     7
370
    15
100
AcDbCircle
 10
207.2287063655
 20
114.9368944718
 30
0.0
 40
1.249999999999993
100
AcDbArc
 50
22.413289205
 51
82.413289205
  0
ARC
  5
9E
330
1F
100
AcDbEntity
  8
0
  6
Continuous
 62
     7
370
    15
100
AcDbCircle
 10
207.2287063655
 20
114.9368944718
 30
0.0
 40
1.250000000000014
100
AcDbArc
 50
142.413289205
 51
202.413289205
  0
ARC
  5
9F
330
1F
100
AcDbEntity
  8
0
  6
Continuous
 62
     7
370
    15
100
AcDbCircle
 10
207.2287063655
 20
114.9368944718
 30
0.0
 40
1.250000000000014
100
AcDbArc
 50
82.413289205
 51
142.413289205
  0
ARC
  5
A0
330
1F
100
AcDbEntity
  8
0
  6
Continuous
 62
     7
370
    15
100
AcDbCircle
 10
207.2287063655
 20
114.9368944718
 30
0.0
 40
1.250000000000007
100
AcDbArc
 50
202.413289205
 51
262.413289205
  0
ARC
  5
A1
330
1F
100
AcDbEntity
  8
0
  6
Continuous
 62
     7
370
    15
100
AcDbCircle
 10
207.2287063655
 20
114.9368944718
 30
0.0
 40
1.249999999999991
100
AcDbArc
 50
322.413289205
 51
22.413289205
  0
ARC
  5
A2
330
1F
100
AcDbEntity
  8
0
  6
Continuous
 62
     7
370
    15
100
AcDbCircle
 10
207.2287063655
 20
114.9368944718
 30
0.0
 40
1.250000000000007
100
AcDbArc
 50
262.413289205
 51
322.413289205
  0
SPLINE
  5
A3
330
1F
100
AcDbEntity
  8
0
  6
Continuous
 62
     7
370
    15
100
AcDbSpline
210
0.0
220
0.0
230
1.0
 70
     8
 71
     3
 72
    12
 73
     8
 74
     0
 42
0.000000001
 43
0.00000001
 40
0.0
 40
0.0
 40
0.0
 40
0.0
 40
0.2499999999999972
 40
0.2499999999999972
 40
0.4999999999999944
 40
0.4999999999999944
 40
1.0
 40
1.0
 40
1.0
 40
1.0
 10
197.2787063655031
 20
68.20763513041095
 30
0.0
 10
197.374679118678
 20
68.20763513041095
 30
0.0
 10
197.4671070828324
 20
68.22390845451953
 30
0.0
 10
197.6235371829418
 20
68.27728217651595
 30
0.0
 10
197.6870156077147
 20
68.31341043405028
 30
0.0
 10
197.8352947685419
 20
68.43411163032957
 30
0.0
 10
197.8787063655031
 20
68.52796121669475
 30
0.0
 10
197.8787063655031
 20
68.62226549164195
 30
0.0
  0
SPLINE
  5
A4
330
1F
100
AcDbEntity
  8
0
  6
Continuous
 62
     7
370
    15
100
AcDbSpline
210
0.0
220
0.0
230
1.0
 70
    24
 71
     3
 72
    12
 73
     8
 74
     0
 42
0.000000001
 43
0.00000001
 40
0.0
 40
0.0
 40
0.0
 40
0.0
 40
0.4999999999999972
 40
0.4999999999999972
 40
0.7499999999999986
 40
0.7499999999999986
 40
1.0
 40
1.0
 40
1.0
 40
1.0
 10
197.8787063655031
 20
144.786894471757
 30
0.0
 10
197.8787063655031
 20
144.786894471757
 30
0.0
 10
197.8305756771177
 20
144.786894471757
 30
0.0
 10
197.6766786213147
 20
144.786894471757
 30
0.0
 10
197.6112140563079
 20
144.786894471757
 30
0.0
 10
197.4576847356977
 20
144.786894471757
 30
0.0
 10
197.3693360749619
 20
144.786894471757
 30
0.0
 10
197.2787063655029
 20
144.786894471757
 30
0.0
  0
LINE
  5
A5
330
1F
100
AcDbEntity
  8
0
  6
Continuous
 62
     7
370
    15
100
AcDbLine
 10
197.8787066009
 20
68.6222638143
 30
0.0
 11
197.8787066009
 21
144.7868949873
 31
0.0
  0
SPLINE
  5
A6
330
1F
100
AcDbEntity
  8
0
  6
Continuous
 62
     7
370
    15
100
AcDbSpline
210
0.0
220
0.0
230
1.0
 70
     8
 71
     3
 72
    10
 73
     6
 74
     0
 42
0.000000001
 43
0.00000001
 40
0.0
 40
0.0
 40
0.0
 40
0.0
 40
0.5
 40
0.5
 40
1.0
 40
1.0
 40
1.0
 40
1.0
 10
182.2443663966571
 20
68.30344020456472
 30
0.0
 10
182.2930169652367
 20
68.27548321329729
 30
0.0
 10
182.3504021771962
 20
68.25154092827049
 30
0.0
 10
182.4811152853623
 20
68.21742246517479
 30
0.0
 10
182.5538548191008
 20
68.20763513041095
 30
0.0
 10
182.6287063655031
 20
68.20763513041095
 30
0.0
  0
SPLINE
  5
A7
330
1F
100
AcDbEntity
  8
0
  6
Continuous
 62
     7
370
    15
100
AcDbSpline
210
0.0
220
0.0
230
1.0
 70
     8
 71
     3
 72
    10
 73
     6
 74
     0
 42
0.000000001
 43
0.00000001
 40
0.0
 40
0.0
 40
0.0
 40
0.0
 40
0.5
 40
0.5
 40
1.0
 40
1.0
 40
1.0
 40
1.0
 10
182.2443663966571
 20
68.30344020456471
 30
0.0
 10
182.1861783900749
 20
68.37102393474353
 30
0.0
 10
182.1337359235486
 20
68.45150016938528
 30
0.0
 10
182.0553836163699
 20
68.63453579236804
 30
0.0
 10
182.028706365503
 20
68.74041149516366
 30
0.0
 10
182.028706365503
 20
68.84792480438429
 30
0.0
  0
LINE
  5
A8
330
1F
100
AcDbEntity
  8
0
  6
Continuous
 62
     7
370
    15
100
AcDbLine
 10
182.0287062847
 20
68.8479232742
 30
0.0
 11
182.0287062847
 21
144.7868949873
 31
0.0
  0
SPLINE
  5
A9
330
1F
100
AcDbEntity
  8
0
  6
Continuous
 62
     7
370
    15
100
AcDbSpline
210
0.0
220
0.0
230
1.0
 70
    24
 71
     3
 72
    14
 73
    10
 74
     0
 42
0.000000001
 43
0.00000001
 40
0.0
 40
0.0
 40
0.0
 40
0.0
 40
0.25
 40
0.25
 40
0.5
 40
0.5
 40
0.75
 40
0.75
 40
1.0
 40
1.0
 40
1.0
 40
1.0
 10
182.6287063655031
 20
144.786894471757
 30
0.0
 10
182.5396844131594
 20
144.786894471757
 30
0.0
 10
182.4499977138858
 20
144.786894471757
 30
0.0
 10
182.2962708883286
 20
144.786894471757
 30
0.0
 10
182.2310659937017
 20
144.786894471757
 30
0.0
 10
182.1284752995313
 20
144.786894471757
 30
0.0
 10
182.0908378452154
 20
144.786894471757
 30
0.0
 10
182.0407459298303
 20
144.786894471757
 30
0.0
 10
182.0287063655031
 20
144.786894471757
 30
0.0
 10
182.0287063655031
 20
144.786894471757
 30
0.0
  0
LINE
  5
AA
330
1F
100
AcDbEntity
  8
0
  6
Continuous
 62
     7
370
    15
100
AcDbLine
 10
182.6287064296
 20
68.2076352788
 30
0.0
 11
186.6955453124
 21
68.2076352788
 31
0.0
  0
LINE
  5
AB
330
1F
100
AcDbEntity
  8
0
  6
Continuous
 62
     7
370
    15
100
AcDbLine
 10
186.6955453124
 20
144.7868949873
 30
0.0
 11
182.6287064296
 21
144.7868949873
 31
0.0
  0
LINE
  5
AC
330
1F
100
AcDbEntity
  8
0
  6
Continuous
 62
     7
370
    15
100
AcDbLine
 10
186.6955453124
 20
68.2076352788
 30
0.0
 11
186.6955453124
 21
144.7868949873
 31
0.0
  0
SPLINE
  5
AD
330
1F
100
AcDbEntity
  8
0
  6
Continuous
 62
     7
370
    15
100
AcDbSpline
210
0.0
220
0.0
230
1.0
 70
     8
 71
     3
 72
     8
 73
     4
 74
     0
 42
0.000000001
 43
0.00000001
 40
0.0
 40
0.0
 40
0.0
 40
0.0
 40
1.0
 40
1.0
 40
1.0
 40
1.0
 10
188.0187063655031
 20
70.31715506292718
 30
0.0
 10
187.7289779194785
 20
69.79493505276365
 30
0.0
 10
187.4389527692608
 20
69.27288167050366
 30
0.0
 10
187.148658534999
 20
68.75097940478055
 30
0.0
  0
SPLINE
  5
AE
330
1F
100
AcDbEntity
  8
0
  6
Continuous
 62
     7
370
    15
100
AcDbSpline
210
0.0
220
0.0
230
1.0
 70
     8
 71
     3
 72
     8
 73
     4
 74
     0
 42
0.000000001
 43
0.00000001
 40
0.0
 40
0.0
 40
0.0
 40
0.0
 40
0.0011862984959112
 40
0.0011862984959112
 40
0.0011862984959112
 40
0.0011862984959112
 10
186.6955448580412
 20
68.20763513041095
 30
0.0
 10
186.847569619912
 20
68.38854698002893
 30
0.0
 10
186.9986270651278
 20
68.56965931046976
 30
0.0
 10
187.148658534999
 20
68.75097940478057
 30
0.0
  0
SPLINE
  5
AF
330
1F
100
AcDbEntity
  8
0
  6
Continuous
 62
     7
370
    15
100
AcDbSpline
210
0.0
220
0.0
230
1.0
 70
    24
 71
     3
 72
     8
 73
     4
 74
     0
 42
0.000000001
 43
0.00000001
 40
0.0
 40
0.0
 40
0.0
 40
0.0
 40
1.0
 40
1.0
 40
1.0
 40
1.0
 10
188.0187063655031
 20
144.786894471757
 30
0.0
 10
187.5835062607995
 20
144.786894471757
 30
0.0
 10
187.1421465780606
 20
144.786894471757
 30
0.0
 10
186.6955448580412
 20
144.786894471757
 30
0.0
  0
LINE
  5
B0
330
1F
100
AcDbEntity
  8
0
  6
Continuous
 62
     7
370
    15
100
AcDbLine
 10
188.0187060278
 20
70.3171554161
 30
0.0
 11
188.0187060278
 21
144.7868949873
 31
0.0
  0
LINE
  5
B1
330
1F
100
AcDbEntity
  8
0
  6
Continuous
 62
     7
370
    15
100
AcDbLine
 10
193.1618678909
 20
100.6397471903
 30
0.0
 11
193.1618678909
 21
144.7868949873
 31
0.0
  0
LINE
  5
B2
330
1F
100
AcDbEntity
  8
0
  6
Continuous
 62
     7
370
    15
100
AcDbLine
 10
197.2787057575
 20
144.7868949873
 30
0.0
 11
193.1618678909
 21
144.7868949873
 31
0.0
  0
LINE
  5
B3
330
1F
100
AcDbEntity
  8
0
  6
Continuous
 62
     7
370
    15
100
AcDbLine
 10
193.1618678909
 20
68.2076352788
 30
0.0
 11
197.2787057575
 21
68.2076352788
 31
0.0
  0
LINE
  5
B4
330
1F
100
AcDbEntity
  8
0
  6
Continuous
 62
     7
370
    15
100
AcDbLine
 10
193.1618678909
 20
68.2076352788
 30
0.0
 11
193.1618678909
 21
95.947953607
 31
0.0
  0
SPLINE
  5
B5
330
1F
100
AcDbEntity
  8
0
  6
Continuous
 62
     7
370
    15
100
AcDbSpline
210
0.0
220
0.0
230
1.0
 70
     8
 71
     3
 72
    34
 73
    30
 74
     0
 42
0.000000001
 43
0.00000001
 40
0.0
 40
0.0
 40
0.0
 40
0.0
 40
0.0624999999999995
 40
0.0624999999999995
 40
0.124999999999999
 40
0.124999999999999
 40
0.1874999999999986
 40
0.1874999999999986
 40
0.2499999999999986
 40
0.2499999999999986
 40
0.3124999999999987
 40
0.3124999999999987
 40
0.3749999999999987
 40
0.3749999999999987
 40
0.4999999999999998
 40
0.4999999999999998
 40
0.6250000000000008
 40
0.6250000000000008
 40
0.6875000000000007
 40
0.6875000000000007
 40
0.7500000000000004
 40
0.7500000000000004
 40
0.8125000000000003
 40
0.8125000000000003
 40
0.8750000000000002
 40
0.8750000000000002
 40
0.9375
 40
0.9375
 40
1.0
 40
1.0
 40
1.0
 40
1.0
 10
193.161867872965
 20
95.94795408375577
 30
0.0
 10
193.3212597007528
 20
95.95579417967855
 30
0.0
 10
193.4772621841964
 20
95.97745282776899
 30
0.0
 10
193.7827717002736
 20
96.0473010552618
 30
0.0
 10
193.9336660352859
 20
96.09612675759006
 30
0.0
 10
194.2215653799767
 20
96.21905071099738
 30
0.0
 10
194.3575117829364
 20
96.29235821913169
 30
0.0
 10
194.6136943985284
 20
96.46236884290302
 30
0.0
 10
194.7348766862875
 20
96.56024263510449
 30
0.0
 10
194.9520227581603
 20
96.77282681053643
 30
0.0
 10
195.0489846311206
 20
96.88787274906605
 30
0.0
 10
195.2195470669462
 20
97.13573386918617
 30
0.0
 10
195.2927871201581
 20
97.26876736625177
 30
0.0
 10
195.4676675769069
 20
97.6782753823819
 30
0.0
 10
195.5287055378829
 20
97.97623603215696
 30
0.0
 10
195.528707193106
 20
98.5676775880314
 30
0.0
 10
195.4676725835197
 20
98.867851138008
 30
0.0
 10
195.2927828161178
 20
99.28308241827577
 30
0.0
 10
195.2195391106934
 20
99.4184375365226
 30
0.0
 10
195.0489783949567
 20
99.67133686790922
 30
0.0
 10
194.9520146793632
 20
99.78910214551699
 30
0.0
 10
194.7348543507761
 20
100.0072324408856
 30
0.0
 10
194.6136730920892
 20
100.1079357660326
 30
0.0
 10
194.3575028651505
 20
100.2831794588658
 30
0.0
 10
194.2215595154878
 20
100.3589244279564
 30
0.0
 10
193.9336568123047
 20
100.4860928032587
 30
0.0
 10
193.7827666163879
 20
100.5366940755862
 30
0.0
 10
193.4772611126823
 20
100.609123175334
 30
0.0
 10
193.3212597144188
 20
100.631608946731
 30
0.0
 10
193.161867872965
 20
100.6397474066258
 30
0.0
  0
LINE
  5
B6
330
1F
100
AcDbEntity
  8
0
  6
Continuous
 62
     7
370
    15
100
AcDbLine
 10
191.8387062442
 20
101.1396327196
 30
0.0
 11
191.8387062442
 21
144.7868949873
 31
0.0
  0
SPLINE
  5
B7
330
1F
100
AcDbEntity
  8
0
  6
Continuous
 62
     7
370
    15
100
AcDbSpline
210
0.0
220
0.0
230
1.0
 70
    24
 71
     3
 72
     8
 73
     4
 74
     0
 42
0.000000001
 43
0.00000001
 40
0.0
 40
0.0
 40
0.0
 40
0.0
 40
1.0
 40
1.0
 40
1.0
 40
1.0
 10
193.161867872965
 20
144.786894471757
 30
0.0
 10
192.7152661529456
 20
144.786894471757
 30
0.0
 10
192.2739064702067
 20
144.786894471757
 30
0.0
 10
191.8387063655031
 20
144.786894471757
 30
0.0
  0
SPLINE
  5
B8
330
1F
100
AcDbEntity
  8
0
  6
Continuous
 62
     7
370
    15
100
AcDbSpline
210
0.0
220
0.0
230
1.0
 70
     8
 71
     3
 72
    10
 73
     6
 74
     0
 42
0.000000001
 43
0.00000001
 40
0.0
 40
0.0
 40
0.0
 40
0.0
 40
0.5
 40
0.5
 40
1.0
 40
1.0
 40
1.0
 40
1.0
 10
193.161867872965
 20
100.6397474066258
 30
0.0
 10
192.9391408460915
 20
100.7832359069196
 30
0.0
 10
192.7174549588665
 20
100.8979566526525
 30
0.0
 10
192.2762341210145
 20
101.0677170820104
 30
0.0
 10
192.0566754736156
 20
101.1231370763977
 30
0.0
 10
191.8387063655034
 20
101.1396324057674
 30
0.0
  0
SPLINE
  5
B9
330
1F
100
AcDbEntity
  8
0
  6
Continuous
 62
     7
370
    15
100
AcDbSpline
210
0.0
220
0.0
230
1.0
 70
     8
 71
     3
 72
    14
 73
    10
 74
     0
 42
0.000000001
 43
0.00000001
 40
0.0
 40
0.0
 40
0.0
 40
0.0
 40
0.25
 40
0.25
 40
0.5
 40
0.5
 40
0.75
 40
0.75
 40
1.0
 40
1.0
 40
1.0
 40
1.0
 10
191.8387063655031
 20
101.1852466277799
 30
0.0
 10
191.8387063655031
 20
101.2272230096334
 30
0.0
 10
191.8090634115319
 20
101.2550733972743
 30
0.0
 10
191.7024085778018
 20
101.2685722725643
 30
0.0
 10
191.6261301831976
 20
101.2539567705267
 30
0.0
 10
191.4580786401311
 20
101.1818675663585
 30
0.0
 10
191.3669588335228
 20
101.1247299558757
 30
0.0
 10
191.1942817212702
 20
100.9825022552845
 30
0.0
 10
191.1133592817421
 20
100.8989384297724
 30
0.0
 10
191.0387063655031
 20
100.8055687578765
 30
0.0
  0
SPLINE
  5
BA
330
1F
100
AcDbEntity
  8
0
  6
Continuous
 62
     7
370
    15
100
AcDbSpline
210
0.0
220
0.0
230
1.0
 70
     8
 71
     3
 72
    10
 73
     6
 74
     0
 42
0.000000001
 43
0.00000001
 40
0.0
 40
0.0
 40
0.0
 40
0.0
 40
0.5
 40
0.5
 40
1.0
 40
1.0
 40
1.0
 40
1.0
 10
191.8387063655034
 20
97.00759120713587
 30
0.0
 10
192.0555971980241
 20
96.7705522676873
 30
0.0
 10
192.274749834683
 20
96.56838203269383
 30
0.0
 10
192.7162343349518
 20
96.21762996117512
 30
0.0
 10
192.9394368002253
 20
96.06895386877828
 30
0.0
 10
193.161867872965
 20
95.94795408375577
 30
0.0
  0
LINE
  5
BB
330
1F
100
AcDbEntity
  8
0
  6
Continuous
 62
     7
370
    15
100
AcDbLine
 10
191.8387062442
 20
97.0532062603
 30
0.0
 11
191.8387062442
 21
97.0075919433
 31
0.0
  0
SPLINE
  5
BC
330
1F
100
AcDbEntity
  8
0
  6
Continuous
 62
     7
370
    15
100
AcDbSpline
210
0.0
220
0.0
230
1.0
 70
     8
 71
     3
 72
    16
 73
    12
 74
     0
 42
0.000000001
 43
0.00000001
 40
0.0
 40
0.0
 40
0.0
 40
0.0
 40
0.2500000000000034
 40
0.2500000000000034
 40
0.5000000000000068
 40
0.5000000000000068
 40
0.6250000000000072
 40
0.6250000000000072
 40
0.7500000000000077
 40
0.7500000000000077
 40
1.0
 40
1.0
 40
1.0
 40
1.0
 10
191.0387063655031
 20
97.96160491482286
 30
0.0
 10
191.1127142557253
 20
97.8712573346372
 30
0.0
 10
191.1933322507142
 20
97.78329776183756
 30
0.0
 10
191.3671002362185
 20
97.60696283777597
 30
0.0
 10
191.4578513671599
 20
97.52135559710997
 30
0.0
 10
191.5839644646214
 20
97.40015990108499
 30
0.0
 10
191.6235412254847
 20
97.36162832209412
 30
0.0
 10
191.6960238821859
 20
97.2872323359648
 30
0.0
 10
191.7289518726547
 20
97.25121554804332
 30
0.0
 10
191.8087420426496
 20
97.15246287222632
 30
0.0
 10
191.8387063655031
 20
97.09569887044421
 30
0.0
 10
191.8387063655031
 20
97.05320542914866
 30
0.0
  0
SPLINE
  5
BD
330
1F
100
AcDbEntity
  8
0
  6
Continuous
 62
     7
370
    15
100
AcDbSpline
210
0.0
220
0.0
230
1.0
 70
     8
 71
     3
 72
    16
 73
    12
 74
     0
 42
0.000000001
 43
0.00000001
 40
0.0
 40
0.0
 40
0.0
 40
0.0
 40
0.2499999999999991
 40
0.2499999999999991
 40
0.4999999999999982
 40
0.4999999999999982
 40
0.7499999999999989
 40
0.7499999999999989
 40
0.8749999999999994
 40
0.8749999999999994
 40
1.0
 40
1.0
 40
1.0
 40
1.0
 10
191.0387063655031
 20
100.8055687578765
 30
0.0
 10
190.8732922590229
 20
100.5986825218511
 30
0.0
 10
190.7470949280473
 20
100.3728138240424
 30
0.0
 10
190.5726886297164
 20
99.8839445784295
 30
0.0
 10
190.5288585906196
 20
99.63217752508491
 30
0.0
 10
190.5285549176496
 20
99.12039820050259
 30
0.0
 10
190.5724117777099
 20
98.86934349141987
 30
0.0
 10
190.7023335369771
 20
98.50849492327778
 30
0.0
 10
190.7564483483851
 20
98.39122215492921
 30
0.0
 10
190.8831253385285
 20
98.16873320359039
 30
0.0
 10
190.9559990588893
 20
98.06257259534712
 30
0.0
 10
191.0387063655031
 20
97.96160491482286
 30
0.0
  0
SPLINE
  5
BE
330
1F
100
AcDbEntity
  8
0
  6
Continuous
 62
     7
370
    15
100
AcDbSpline
210
0.0
220
0.0
230
1.0
 70
     8
 71
     3
 72
    14
 73
    10
 74
     0
 42
0.000000001
 43
0.00000001
 40
0.0
 40
0.0
 40
0.0
 40
0.0
 40
0.25
 40
0.25
 40
0.5
 40
0.5
 40
0.75
 40
0.75
 40
1.0
 40
1.0
 40
1.0
 40
1.0
 10
188.8187063655031
 20
71.28912820588718
 30
0.0
 10
188.7122613575938
 20
71.28912820588718
 30
0.0
 10
188.6053626063203
 20
71.26655865645407
 30
0.0
 10
188.4091443508779
 20
71.18011556521215
 30
0.0
 10
188.3194860374134
 20
71.115811647545
 30
0.0
 10
188.1740323245323
 20
70.96084213350204
 30
0.0
 10
188.1159965418061
 20
70.8680766472583
 30
0.0
 10
188.0387113874215
 20
70.66960976561492
 30
0.0
 10
188.018706365503
 20
70.56258534382115
 30
0.0
 10
188.018706365503
 20
70.45580298335032
 30
0.0
  0
SPLINE
  5
BF
330
1F
100
AcDbEntity
  8
0
  6
Continuous
 62
     7
370
    15
100
AcDbSpline
210
0.0
220
0.0
230
1.0
 70
    24
 71
     3
 72
    14
 73
    10
 74
     0
 42
0.000000001
 43
0.00000001
 40
0.0
 40
0.0
 40
0.0
 40
0.0
 40
0.25
 40
0.25
 40
0.5
 40
0.5
 40
0.75
 40
0.75
 40
1.0
 40
1.0
 40
1.0
 40
1.0
 10
188.8187063655031
 20
144.786894471757
 30
0.0
 10
188.6957250659568
 20
144.786894471757
 30
0.0
 10
188.5755351775548
 20
144.786894471757
 30
0.0
 10
188.3705113478756
 20
144.786894471757
 30
0.0
 10
188.2839168590735
 20
144.786894471757
 30
0.0
 10
188.1488089723111
 20
144.786894471757
 30
0.0
 10
188.100285887283
 20
144.786894471757
 30
0.0
 10
188.0346033785561
 20
144.786894471757
 30
0.0
 10
188.0187063655031
 20
144.786894471757
 30
0.0
 10
188.0187063655031
 20
144.786894471757
 30
0.0
  0
SPLINE
  5
C0
330
1F
100
AcDbEntity
  8
0
  6
Continuous
 62
     7
370
    15
100
AcDbSpline
210
0.0
220
0.0
230
1.0
 70
    24
 71
     3
 72
    14
 73
    10
 74
     0
 42
0.000000001
 43
0.00000001
 40
0.0
 40
0.0
 40
0.0
 40
0.0
 40
0.25
 40
0.25
 40
0.5
 40
0.5
 40
0.75
 40
0.75
 40
1.0
 40
1.0
 40
1.0
 40
1.0
 10
191.8387063655031
 20
144.786894471757
 30
0.0
 10
191.8387063655031
 20
144.786894471757
 30
0.0
 10
191.8224253307273
 20
144.786894471757
 30
0.0
 10
191.7577622682027
 20
144.786894471757
 30
0.0
 10
191.7082824719139
 20
144.786894471757
 30
0.0
 10
191.5743127147752
 20
144.786894471757
 30
0.0
 10
191.4881979881758
 20
144.786894471757
 30
0.0
 10
191.2827418724628
 20
144.786894471757
 30
0.0
 10
191.1613213352699
 20
144.786894471757
 30
0.0
 10
191.0387063655031
 20
144.786894471757
 30
0.0
  0
LINE
  5
C1
330
1F
100
AcDbEntity
  8
0
  6
Continuous
 62
     7
370
    15
100
AcDbLine
 10
191.0387066719
 20
71.2891283585
 30
0.0
 11
188.8187065315
 21
71.2891283585
 31
0.0
  0
LINE
  5
C2
330
1F
100
AcDbEntity
  8
0
  6
Continuous
 62
     7
370
    15
100
AcDbLine
 10
191.0387066719
 20
144.7868949873
 30
0.0
 11
188.8187065315
 21
144.7868949873
 31
0.0
  0
SPLINE
  5
C3
330
1F
100
AcDbEntity
  8
0
  6
Continuous
 62
     7
370
    15
100
AcDbSpline
210
0.0
220
0.0
230
1.0
 70
     8
 71
     3
 72
     8
 73
     4
 74
     0
 42
0.000000001
 43
0.00000001
 40
0.0000000000000004
 40
0.0000000000000004
 40
0.0000000000000004
 40
0.0000000000000004
 40
0.0011862984959127
 40
0.0011862984959127
 40
0.0011862984959127
 40
0.0011862984959127
 10
192.7087541960032
 20
68.75097940478057
 30
0.0
 10
192.8587856658746
 20
68.56965931046953
 30
0.0
 10
193.0098431110939
 20
68.38854698002916
 30
0.0
 10
193.161867872965
 20
68.20763513041095
 30
0.0
  0
SPLINE
  5
C4
330
1F
100
AcDbEntity
  8
0
  6
Continuous
 62
     7
370
    15
100
AcDbSpline
210
0.0
220
0.0
230
1.0
 70
     8
 71
     3
 72
     8
 73
     4
 74
     0
 42
0.000000001
 43
0.00000001
 40
0.0
 40
0.0
 40
0.0
 40
0.0
 40
1.0
 40
1.0
 40
1.0
 40
1.0
 10
192.7087541960063
 20
68.75097940478223
 30
0.0
 10
192.4184599617448
 20
69.27288167050479
 30
0.0
 10
192.1284348115273
 20
69.79493505276422
 30
0.0
 10
191.8387063655031
 20
70.31715506292718
 30
0.0
  0
LINE
  5
C5
330
1F
100
AcDbEntity
  8
0
  6
Continuous
 62
     7
370
    15
100
AcDbLine
 10
191.8387062442
 20
70.3171554161
 30
0.0
 11
191.8387062442
 21
97.0075919433
 31
0.0
  0
SPLINE
  5
C6
330
1F
100
AcDbEntity
  8
0
  6
Continuous
 62
     7
370
    15
100
AcDbSpline
210
0.0
220
0.0
230
1.0
 70
     8
 71
     3
 72
    14
 73
    10
 74
     0
 42
0.000000001
 43
0.00000001
 40
0.0
 40
0.0
 40
0.0
 40
0.0
 40
0.25
 40
0.25
 40
0.5
 40
0.5
 40
0.75
 40
0.75
 40
1.0
 40
1.0
 40
1.0
 40
1.0
 10
191.8387063655031
 20
70.45580298335032
 30
0.0
 10
191.8387063655031
 20
70.56286696969113
 30
0.0
 10
191.8187225392631
 20
70.66960629606565
 30
0.0
 10
191.7412874568296
 20
70.86835619825645
 30
0.0
 10
191.6833485346702
 20
70.96091041474898
 30
0.0
 10
191.5377107289094
 20
71.11600735815455
 30
0.0
 10
191.448921732574
 20
71.17974751506742
 30
0.0
 10
191.2523733723695
 20
71.26649607215502
 30
0.0
 10
191.1462341426702
 20
71.28912820588718
 30
0.0
 10
191.0387063655031
 20
71.28912820588718
 30
0.0
  0
LINE
  5
C7
330
1F
100
AcDbEntity
  8
0
  6
Continuous
 62
     7
370
    15
100
AcDbLine
 10
178.8287063655
 20
80.0118955923
 30
0.0
 11
178.8287063655
 21
149.8618933512
 31
0.0
  0
SPLINE
  5
C8
330
1F
100
AcDbEntity
  8
0
  6
Continuous
 62
     7
370
    15
100
AcDbSpline
210
0.0
220
0.0
230
1.0
 70
     8
 71
     3
 72
    12
 73
     8
 74
     0
 42
0.000000001
 43
0.00000001
 40
0.0
 40
0.0
 40
0.0
 40
0.0
 40
0.2500000000000007
 40
0.2500000000000007
 40
0.5000000000000014
 40
0.5000000000000014
 40
1.0
 40
1.0
 40
1.0
 40
1.0
 10
188.8187063655031
 20
158.5846607376267
 30
0.0
 10
188.7123613856271
 20
158.5846607376268
 30
0.0
 10
188.6050850382245
 20
158.6073759754863
 30
0.0
 10
188.4097092488284
 20
158.6934011423686
 30
0.0
 10
188.3211555127515
 20
158.756379869297
 30
0.0
 10
188.0998975886202
 20
158.9915713797341
 30
0.0
 10
188.0187063655031
 20
159.2047475942194
 30
0.0
 10
188.018706365503
 20
159.4179859601634
 30
0.0
  0
SPLINE
  5
C9
330
1F
100
AcDbEntity
  8
0
  6
Continuous
 62
     7
370
    15
100
AcDbSpline
210
0.0
220
0.0
230
1.0
 70
     8
 71
     3
 72
    12
 73
     8
 74
     0
 42
0.000000001
 43
0.00000001
 40
0.0
 40
0.0
 40
0.0
 40
0.0
 40
0.499999999999994
 40
0.499999999999994
 40
0.749999999999997
 40
0.749999999999997
 40
1.0
 40
1.0
 40
1.0
 40
1.0
 10
188.0187063655031
 20
150.329937573474
 30
0.0
 10
188.0187063655031
 20
150.0875144774932
 30
0.0
 10
188.0816275069449
 20
149.8417439568919
 30
0.0
 10
188.2836564039473
 20
149.536797777475
 30
0.0
 10
188.3699501285946
 20
149.4462049108765
 30
0.0
 10
188.5754239231613
 20
149.3157713479397
 30
0.0
 10
188.695374483761
 20
149.27677653329
 30
0.0
 10
188.8187063655031
 20
149.27677653329
 30
0.0
  0
SPLINE
  5
CA
330
1F
100
AcDbEntity
  8
0
  6
Continuous
 62
     7
370
    15
100
AcDbSpline
210
0.0
220
0.0
230
1.0
 70
     8
 71
     3
 72
    12
 73
     8
 74
     0
 42
0.000000001
 43
0.00000001
 40
0.0
 40
0.0
 40
0.0
 40
0.0
 40
0.5000000000000003
 40
0.5000000000000003
 40
0.7500000000000001
 40
0.7500000000000001
 40
1.0
 40
1.0
 40
1.0
 40
1.0
 10
182.0287063655031
 20
152.6859755864013
 30
0.0
 10
182.0287063655031
 20
152.8643358536406
 30
0.0
 10
182.076018486879
 20
153.0431082653446
 30
0.0
 10
182.2303785647604
 20
153.2648701306964
 30
0.0
 10
182.2952640996794
 20
153.3291621693128
 30
0.0
 10
182.4504967989077
 20
153.4218066534724
 30
0.0
 10
182.5395722115759
 20
153.4479724234322
 30
0.0
 10
182.6287063655031
 20
153.4479724234322
 30
0.0
  0
LINE
  5
CB
330
1F
100
AcDbEntity
  8
0
  6
Continuous
 62
     7
370
    15
100
AcDbLine
 10
182.6287064296
 20
153.4479732765
 30
0.0
 11
186.6955453124
 21
153.4479732765
 31
0.0
  0
SPLINE
  5
CC
330
1F
100
AcDbEntity
  8
0
  6
Continuous
 62
     7
370
    15
100
AcDbSpline
210
0.0
220
0.0
230
1.0
 70
     8
 71
     3
 72
     8
 73
     4
 74
     0
 42
0.000000001
 43
0.00000001
 40
0.0
 40
0.0
 40
0.0
 40
0.0
 40
1.0
 40
1.0
 40
1.0
 40
1.0
 10
186.6955448580412
 20
153.4479724234321
 30
0.0
 10
187.1423935859688
 20
152.4687365251758
 30
0.0
 10
187.5837599438647
 20
151.487534532449
 30
0.0
 10
188.0187063655031
 20
150.5040302140665
 30
0.0
  0
LINE
  5
CD
330
1F
100
AcDbEntity
  8
0
  6
Continuous
 62
     7
370
    15
100
AcDbLine
 10
188.0187060278
 20
150.5040290905
 30
0.0
 11
188.0187060278
 21
150.3299388243
 31
0.0
  0
LINE
  5
CE
330
1F
100
AcDbEntity
  8
0
  6
Continuous
 62
     7
370
    15
100
AcDbLine
 10
188.8187065315
 20
149.2767769052
 30
0.0
 11
191.0387066719
 21
149.2767769052
 31
0.0
  0
SPLINE
  5
CF
330
1F
100
AcDbEntity
  8
0
  6
Continuous
 62
     7
370
    15
100
AcDbSpline
210
0.0
220
0.0
230
1.0
 70
     8
 71
     3
 72
    14
 73
    10
 74
     0
 42
0.000000001
 43
0.00000001
 40
0.0
 40
0.0
 40
0.0
 40
0.0
 40
0.25
 40
0.25
 40
0.5
 40
0.5
 40
0.75
 40
0.75
 40
1.0
 40
1.0
 40
1.0
 40
1.0
 10
191.0387063655031
 20
149.27677653329
 30
0.0
 10
191.1600328954888
 20
149.27677653329
 30
0.0
 10
191.281737604051
 20
149.3155580487232
 30
0.0
 10
191.4881774829372
 20
149.4467126704171
 30
0.0
 10
191.5741280213932
 20
149.5373647550042
 30
0.0
 10
191.7080397811415
 20
149.7394817899455
 30
0.0
 10
191.7576042179607
 20
149.8532167334847
 30
0.0
 10
191.8224582459286
 20
150.0861763505512
 30
0.0
 10
191.8387063655031
 20
150.2088746168804
 30
0.0
 10
191.8387063655031
 20
150.329937573474
 30
0.0
  0
LINE
  5
D0
330
1F
100
AcDbEntity
  8
0
  6
Continuous
 62
     7
370
    15
100
AcDbLine
 10
191.8387062442
 20
150.3299388243
 30
0.0
 11
191.8387062442
 21
150.5040290905
 31
0.0
  0
SPLINE
  5
D1
330
1F
100
AcDbEntity
  8
0
  6
Continuous
 62
     7
370
    15
100
AcDbSpline
210
0.0
220
0.0
230
1.0
 70
     8
 71
     3
 72
     8
 73
     4
 74
     0
 42
0.000000001
 43
0.00000001
 40
0.0
 40
0.0
 40
0.0
 40
0.0
 40
1.0
 40
1.0
 40
1.0
 40
1.0
 10
191.8387063655031
 20
150.5040302140666
 30
0.0
 10
192.2736527871414
 20
151.487534532449
 30
0.0
 10
192.7150191450373
 20
152.4687365251758
 30
0.0
 10
193.161867872965
 20
153.4479724234321
 30
0.0
  0
LINE
  5
D2
330
1F
100
AcDbEntity
  8
0
  6
Continuous
 62
     7
370
    15
100
AcDbLine
 10
193.1618678909
 20
153.4479732765
 30
0.0
 11
197.2787057575
 21
153.4479732765
 31
0.0
  0
SPLINE
  5
D3
330
1F
100
AcDbEntity
  8
0
  6
Continuous
 62
     7
370
    15
100
AcDbSpline
210
0.0
220
0.0
230
1.0
 70
     8
 71
     3
 72
    12
 73
     8
 74
     0
 42
0.000000001
 43
0.00000001
 40
0.0
 40
0.0
 40
0.0
 40
0.0
 40
0.250000000000004
 40
0.250000000000004
 40
0.500000000000008
 40
0.500000000000008
 40
1.0
 40
1.0
 40
1.0
 40
1.0
 10
197.2787063655036
 20
153.4479724234322
 30
0.0
 10
197.3682434236747
 20
153.4479724234321
 30
0.0
 10
197.4581426024633
 20
153.4211451246011
 30
0.0
 10
197.6115674614626
 20
153.3294381593415
 30
0.0
 10
197.6766165188403
 20
153.2651832177427
 30
0.0
 10
197.8299357501046
 20
153.0457710716811
 30
0.0
 10
197.8787063655031
 20
152.8639557618843
 30
0.0
 10
197.8787063655031
 20
152.6859755864013
 30
0.0
  0
LINE
  5
D4
330
1F
100
AcDbEntity
  8
0
  6
Continuous
 62
     7
370
    15
100
AcDbLine
 10
182.0287062847
 20
152.6859763218
 30
0.0
 11
182.0287062847
 21
144.7868949873
 31
0.0
  0
LINE
  5
D5
330
1F
100
AcDbEntity
  8
0
  6
Continuous
 62
     7
370
    15
100
AcDbLine
 10
197.8787066009
 20
152.6859763218
 30
0.0
 11
197.8787066009
 21
144.7868949873
 31
0.0
  0
SPLINE
  5
D6
330
1F
100
AcDbEntity
  8
0
  6
Continuous
 62
     7
370
    15
100
AcDbSpline
210
0.0
220
0.0
230
1.0
 70
     8
 71
     3
 72
    12
 73
     8
 74
     0
 42
0.000000001
 43
0.00000001
 40
0.0
 40
0.0
 40
0.0
 40
0.0
 40
0.4999999999999927
 40
0.4999999999999927
 40
0.7499999999999963
 40
0.7499999999999963
 40
1.0
 40
1.0
 40
1.0
 40
1.0
 10
197.8787063655031
 20
161.2318814249874
 30
0.0
 10
197.8787063655031
 20
161.3520740316526
 30
0.0
 10
197.824737935234
 20
161.4699813321676
 30
0.0
 10
197.6636512943011
 20
161.609360876651
 30
0.0
 10
197.598888874828
 20
161.6475261742149
 30
0.0
 10
197.4468348732635
 20
161.7021784365483
 30
0.0
 10
197.3641051001144
 20
161.7167391265325
 30
0.0
 10
197.2787063655031
 20
161.7167391265325
 30
0.0
  0
LINE
  5
D7
330
1F
100
AcDbEntity
  8
0
  6
Continuous
 62
     7
370
    15
100
AcDbLine
 10
197.8787066009
 20
152.6859763218
 30
0.0
 11
197.8787066009
 21
161.2318816734
 31
0.0
  0
LINE
  5
D8
330
1F
100
AcDbEntity
  8
0
  6
Continuous
 62
     7
370
    15
100
AcDbLine
 10
191.0387066719
 20
158.584660585
 30
0.0
 11
188.8187065315
 21
158.584660585
 31
0.0
  0
SPLINE
  5
D9
330
1F
100
AcDbEntity
  8
0
  6
Continuous
 62
     7
370
    15
100
AcDbSpline
210
0.0
220
0.0
230
1.0
 70
     8
 71
     3
 72
    14
 73
    10
 74
     0
 42
0.000000001
 43
0.00000001
 40
0.0
 40
0.0
 40
0.0
 40
0.0
 40
0.25
 40
0.25
 40
0.5
 40
0.5
 40
0.75
 40
0.75
 40
1.0
 40
1.0
 40
1.0
 40
1.0
 10
191.8387063655031
 20
159.4179859601636
 30
0.0
 10
191.8387063655031
 20
159.3106435880161
 30
0.0
 10
191.8187101734389
 20
159.2040145811683
 30
0.0
 10
191.7410120890942
 20
159.0048628020171
 30
0.0
 10
191.6830189442007
 20
158.9123799037017
 30
0.0
 10
191.5369724513778
 20
158.7571440685925
 30
0.0
 10
191.4476347122101
 20
158.6934101269801
 30
0.0
 10
191.2528797001497
 20
158.6075798605849
 30
0.0
 10
191.1453494289408
 20
158.5846607376265
 30
0.0
 10
191.038706365501
 20
158.5846607376267
 30
0.0
  0
LINE
  5
DA
330
1F
100
AcDbEntity
  8
0
  6
Continuous
 62
     7
370
    15
100
AcDbLine
 10
197.2787057575
 20
161.7167393817
 30
0.0
 11
193.1618678909
 21
161.7167393817
 31
0.0
  0
LINE
  5
DB
330
1F
100
AcDbEntity
  8
0
  6
Continuous
 62
     7
370
    15
100
AcDbLine
 10
193.1618678909
 20
153.4479732765
 30
0.0
 11
193.1618678909
 21
161.7167393817
 31
0.0
  0
SPLINE
  5
DC
330
1F
100
AcDbEntity
  8
0
  6
Continuous
 62
     7
370
    15
100
AcDbSpline
210
0.0
220
0.0
230
1.0
 70
     8
 71
     3
 72
     8
 73
     4
 74
     0
 42
0.000000001
 43
0.00000001
 40
0.0
 40
0.0
 40
0.0
 40
0.0
 40
0.0012352705496723
 40
0.0012352705496723
 40
0.0012352705496723
 40
0.0012352705496723
 10
187.2520353433357
 20
160.9369277164261
 30
0.0
 10
187.0670000925338
 20
161.1970292921543
 30
0.0
 10
186.881493283363
 20
161.4569633707812
 30
0.0
 10
186.6955448580412
 20
161.7167391265325
 30
0.0
  0
SPLINE
  5
DD
330
1F
100
AcDbEntity
  8
0
  6
Continuous
 62
     7
370
    15
100
AcDbSpline
210
0.0
220
0.0
230
1.0
 70
     8
 71
     3
 72
     8
 73
     4
 74
     0
 42
0.000000001
 43
0.00000001
 40
0.0
 40
0.0
 40
0.0
 40
0.0
 40
1.0
 40
1.0
 40
1.0
 40
1.0
 10
188.0187063655031
 20
159.5566338805867
 30
0.0
 10
187.7633750521977
 20
160.0168549008523
 30
0.0
 10
187.5078116540915
 20
160.4769493611607
 30
0.0
 10
187.2520353433357
 20
160.9369277164261
 30
0.0
  0
LINE
  5
DE
330
1F
100
AcDbEntity
  8
0
  6
Continuous
 62
     7
370
    15
100
AcDbLine
 10
188.0187060278
 20
150.5040290905
 30
0.0
 11
188.0187060278
 21
159.5566335274
 31
0.0
  0
LINE
  5
DF
330
1F
100
AcDbEntity
  8
0
  6
Continuous
 62
     7
370
    15
100
AcDbLine
 10
186.6955453124
 20
153.4479732765
 30
0.0
 11
186.6955453124
 21
161.7167393817
 31
0.0
  0
SPLINE
  5
E0
330
1F
100
AcDbEntity
  8
0
  6
Continuous
 62
     7
370
    15
100
AcDbSpline
210
0.0
220
0.0
230
1.0
 70
     8
 71
     3
 72
    10
 73
     6
 74
     0
 42
0.000000001
 43
0.00000001
 40
0.0
 40
0.0
 40
0.0
 40
0.0
 40
0.5
 40
0.5
 40
1.0
 40
1.0
 40
1.0
 40
1.0
 10
182.3185752844494
 20
161.6470587974797
 30
0.0
 10
182.2421221945306
 20
161.5767960262591
 30
0.0
 10
182.1732604722615
 20
161.4897011112174
 30
0.0
 10
182.0667482411886
 20
161.2805319829651
 30
0.0
 10
182.028706365503
 20
161.1552144337256
 30
0.0
 10
182.028706365503
 20
161.0258641391297
 30
0.0
  0
SPLINE
  5
E1
330
1F
100
AcDbEntity
  8
0
  6
Continuous
 62
     7
370
    15
100
AcDbSpline
210
0.0
220
0.0
230
1.0
 70
     8
 71
     3
 72
     8
 73
     4
 74
     0
 42
0.000000001
 43
0.00000001
 40
0.0
 40
0.0
 40
0.0
 40
0.0
 40
1.0
 40
1.0
 40
1.0
 40
1.0
 10
182.6287063655031
 20
161.7167391265325
 30
0.0
 10
182.5176281801656
 20
161.7167391265325
 30
0.0
 10
182.4099641762634
 20
161.6915899509779
 30
0.0
 10
182.3185752844494
 20
161.6470587974797
 30
0.0
  0
LINE
  5
E2
330
1F
100
AcDbEntity
  8
0
  6
Continuous
 62
     7
370
    15
100
AcDbLine
 10
182.0287062847
 20
152.6859763218
 30
0.0
 11
182.0287062847
 21
161.0258656694
 31
0.0
  0
LINE
  5
E3
330
1F
100
AcDbEntity
  8
0
  6
Continuous
 62
     7
370
    15
100
AcDbLine
 10
186.6955453124
 20
161.7167393817
 30
0.0
 11
182.6287064296
 21
161.7167393817
 31
0.0
  0
SPLINE
  5
E4
330
1F
100
AcDbEntity
  8
0
  6
Continuous
 62
     7
370
    15
100
AcDbSpline
210
0.0
220
0.0
230
1.0
 70
     8
 71
     3
 72
     8
 73
     4
 74
     0
 42
0.000000001
 43
0.00000001
 40
0.0
 40
0.0
 40
0.0
 40
0.0
 40
1.0
 40
1.0
 40
1.0
 40
1.0
 10
192.6053773876695
 20
160.9369277164244
 30
0.0
 10
192.3496010769141
 20
160.4769493611596
 30
0.0
 10
192.0940376788081
 20
160.0168549008518
 30
0.0
 10
191.8387063655031
 20
159.5566338805867
 30
0.0
  0
SPLINE
  5
E5
330
1F
100
AcDbEntity
  8
0
  6
Continuous
 62
     7
370
    15
100
AcDbSpline
210
0.0
220
0.0
230
1.0
 70
     8
 71
     3
 72
     8
 73
     4
 74
     0
 42
0.000000001
 43
0.00000001
 40
0.0
 40
0.0
 40
0.0
 40
0.0
 40
0.0012352705496738
 40
0.0012352705496738
 40
0.0012352705496738
 40
0.0012352705496738
 10
193.161867872965
 20
161.7167391265325
 30
0.0
 10
192.9759194476429
 20
161.4569633707808
 30
0.0
 10
192.7904126384718
 20
161.1970292921535
 30
0.0
 10
192.6053773876696
 20
160.9369277164249
 30
0.0
  0
LINE
  5
E6
330
1F
100
AcDbEntity
  8
0
  6
Continuous
 62
     7
370
    15
100
AcDbLine
 10
191.8387062442
 20
150.5040290905
 30
0.0
 11
191.8387062442
 21
159.5566335274
 31
0.0
  0
LINE
  5
E7
330
1F
100
AcDbEntity
  8
0
  6
Continuous
 62
     7
370
    15
100
AcDbLine
 10
77.2287075934
 20
96.5580499871
 30
0.0
 11
77.2287075934
 21
133.3157389564
 31
0.0
  0
LINE
  5
E8
330
1F
100
AcDbEntity
  8
0
  6
Continuous
 62
     7
370
    15
100
AcDbLine
 10
212.7287065205
 20
104.9368946953
 30
0.0
 11
212.7287065205
 21
124.9368942482
 31
0.0
  0
LINE
  5
E9
330
1F
100
AcDbEntity
  8
0
  6
Continuous
 62
     7
370
    15
100
AcDbLine
 10
212.9287061807
 20
105.1368943555
 30
0.0
 11
212.9287061807
 21
124.736894588
 31
0.0
  0
ARC
  5
EA
330
1F
100
AcDbEntity
  8
0
  6
HIDDEN
 62
     7
370
     0
100
AcDbCircle
 10
193.0118783302
 20
99.6279721408
 30
0.0
 40
2.484164779303578
100
AcDbArc
 50
345.2265226024
 51
178.3803299635
  0
ARC
  5
EB
330
1F
100
AcDbEntity
  8
0
  6
HIDDEN
 62
     7
370
     0
100
AcDbCircle
 10
193.0125671282
 20
99.5702794885
 30
0.0
 40
2.354870181465974
100
AcDbArc
 50
350.3992127984
 51
156.3266209136
  0
ARC
  5
EC
330
1F
100
AcDbEntity
  8
0
  6
HIDDEN
 62
     7
370
     0
100
AcDbCircle
 10
193.0232562425
 20
99.5389150368
 30
0.0
 40
2.008541633477734
100
AcDbArc
 50
3.1791335379
 51
126.3039426681
  0
LWPOLYLINE
  5
ED
330
1F
100
AcDbEntity
  8
0
  6
HIDDEN
 62
     7
370
     0
100
AcDbPolyline
 90
       23
 70
   128
 43
0.0
 10
192.0096290824
 20
97.7411053283
 10
191.4077506926
 20
98.0977925612
 10
190.9371925112
 20
98.5993749602
 10
190.6360772964
 20
99.2052151961
 10
190.5287973177
 20
99.8662335007
 10
190.6240455401
 20
100.5288778944
 10
190.9141059559
 20
101.1394632189
 10
191.3754775715
 20
101.6485250695
 10
191.9707845491
 20
102.0148216886
 10
192.651797418
 20
102.2086774139
 10
193.3633455601
 20
102.2143882839
 10
194.0477838334
 20
102.0314914314
 10
194.6496622231
 20
101.6748032672
 10
195.1202204045
 20
101.1732208682
 10
195.4213356194
 20
100.5673806323
 10
195.5286146667
 20
99.9063623277
 10
195.4333664444
 20
99.243717934
 10
195.1433078912
 20
98.6331335409
 10
194.681934413
 20
98.1240707589
 10
194.0866283667
 20
97.7577741398
 10
193.4056154978
 20
97.5639193458
 10
192.6940664243
 20
97.5582084758
 10
192.0096290824
 20
97.7411053283
  0
LWPOLYLINE
  5
EE
330
1F
100
AcDbEntity
  8
0
  6
HIDDEN
 62
     7
370
     0
100
AcDbPolyline
 90
       21
 70
   128
 43
0.0
 10
192.2134443712
 20
99.35192551
 10
191.6889905524
 20
99.6726562409
 10
191.2956771967
 20
100.1299812598
 10
191.0720051792
 20
100.6791337533
 10
191.0398680311
 20
101.2663596449
 10
191.2024126914
 20
101.8341758428
 10
191.5437275138
 20
102.3270010157
 10
192.0304031637
 20
102.6965945167
 10
192.6147987661
 20
102.9067781894
 10
193.2397106257
 20
102.9369763238
 10
193.8439685446
 20
102.784234765
 10
194.3684223634
 20
102.4635031028
 10
194.7617357191
 20
102.0061790152
 10
194.9854077366
 20
101.4570265217
 10
195.0175439533
 20
100.86980063
 10
194.8550002244
 20
100.3019844322
 10
194.513685402
 20
99.8091592593
 10
194.0270097521
 20
99.4395657582
 10
193.4426141497
 20
99.2293830169
 10
192.8177022901
 20
99.1991839511
 10
192.2134443712
 20
99.35192551
  0
LWPOLYLINE
  5
EF
330
1F
100
AcDbEntity
  8
0
  6
HIDDEN
 62
     7
370
     0
100
AcDbPolyline
 90
       23
 70
   128
 43
0.0
 10
192.0096290824
 20
97.9770987434
 10
191.4077506926
 20
98.3337859763
 10
190.9371925112
 20
98.8353683753
 10
190.6360772964
 20
99.4412095426
 10
190.5287973177
 20
100.1022278471
 10
190.6240455401
 20
100.7648713095
 10
190.9141059559
 20
101.375456634
 10
191.3754775715
 20
101.8845184846
 10
191.9707845491
 20
102.2508151038
 10
192.651797418
 20
102.4446717603
 10
193.3633455601
 20
102.4503826303
 10
194.0477838334
 20
102.2674848465
 10
194.6496622231
 20
101.9107976137
 10
195.1202204045
 20
101.4092152147
 10
195.4213356194
 20
100.8033740474
 10
195.5286146667
 20
100.1423557429
 10
195.4333664444
 20
99.4797122804
 10
195.1433078912
 20
98.869126956
 10
194.681934413
 20
98.3600660367
 10
194.0866283667
 20
97.9937694175
 10
193.4056154978
 20
97.799912761
 10
192.6940664243
 20
97.7942018909
 10
192.0096290824
 20
97.9770987434
  0
LWPOLYLINE
  5
F0
330
1F
100
AcDbEntity
  8
0
  6
HIDDEN
 62
     7
370
     0
100
AcDbPolyline
 90
       22
 70
   128
 43
0.0
 10
192.0911551979
 20
98.0872406764
 10
191.5137519654
 20
98.4346035076
 10
191.070959304
 20
98.926462899
 10
190.8021209356
 20
99.5191137446
 10
190.7311243531
 20
100.1598981349
 10
190.8642783355
 20
100.7918787329
 10
191.1897504297
 20
101.3589014439
 10
191.6786230695
 20
101.8105835794
 10
192.2874556449
 20
102.1067916555
 10
192.9621513527
 20
102.2212055651
 10
193.6427618903
 20
102.1436599223
 10
194.2688099634
 20
101.8810446514
 10
194.7846704688
 20
101.4566940395
 10
195.1445037094
 20
100.9083136125
 10
195.316340175
 20
100.2846301673
 10
195.2849117633
 20
99.6410592599
 10
195.053008717
 20
99.0347850276
 10
194.6412356165
 20
98.5196798248
 10
194.0861850571
 20
98.1415107055
 10
193.4371715006
 20
97.9338816507
 10
192.7518643033
 20
97.9152384354
 10
192.0911551979
 20
98.0872406764
  0
LWPOLYLINE
  5
F1
330
1F
100
AcDbEntity
  8
0
  6
HIDDEN
 62
     7
370
     0
100
AcDbPolyline
 90
       23
 70
   128
 43
0.0
 10
192.0096290824
 20
98.2130921585
 10
191.4077506926
 20
98.569781254
 10
190.9371925112
 20
99.0713617904
 10
190.6360772964
 20
99.677203889
 10
190.5287973177
 20
100.3382212622
 10
190.6240455401
 20
101.000865656
 10
190.9141059559
 20
101.6114509804
 10
191.3754775715
 20
102.120512831
 10
191.9707845491
 20
102.4868094502
 10
192.651797418
 20
102.6806651754
 10
193.3633455601
 20
102.6863760455
 10
194.0477838334
 20
102.503479193
 10
194.6496622231
 20
102.1467910288
 10
195.1202204045
 20
101.6452095611
 10
195.4213356194
 20
101.0393683938
 10
195.5286146667
 20
100.3783500893
 10
195.4333664444
 20
99.7157066269
 10
195.1433078912
 20
99.1051203711
 10
194.681934413
 20
98.5960594518
 10
194.0866283667
 20
98.2297628326
 10
193.4056154978
 20
98.0359061761
 10
192.6940664243
 20
98.0301953061
 10
192.0096290824
 20
98.2130921585
  0
LWPOLYLINE
  5
F2
330
1F
100
AcDbEntity
  8
0
  6
HIDDEN
 62
     7
370
     0
100
AcDbPolyline
 90
       22
 70
   128
 43
0.0
 10
192.0911551979
 20
98.3232340915
 10
191.5137519654
 20
98.6705969227
 10
191.070959304
 20
99.1624563141
 10
190.8021209356
 20
99.7551071597
 10
190.7311243531
 20
100.39589155
 10
190.8642783355
 20
101.027872148
 10
191.1897504297
 20
101.594894859
 10
191.6786230695
 20
102.0465779258
 10
192.2874556449
 20
102.342786002
 10
192.9621513527
 20
102.4571999116
 10
193.6427618903
 20
102.3796542687
 10
194.2688099634
 20
102.1170389978
 10
194.7846704688
 20
101.692688386
 10
195.1445037094
 20
101.1443079589
 10
195.316340175
 20
100.5206235824
 10
195.2849117633
 20
99.877052675
 10
195.053008717
 20
99.2707803054
 10
194.6412356165
 20
98.7556732399
 10
194.0861850571
 20
98.3775041206
 10
193.4371715006
 20
98.1698750658
 10
192.7518643033
 20
98.1512318505
 10
192.0911551979
 20
98.3232340915
  0
LWPOLYLINE
  5
F3
330
1F
100
AcDbEntity
  8
0
  6
HIDDEN
 62
     7
370
     0
100
AcDbPolyline
 90
       23
 70
   128
 43
0.0
 10
192.0096290824
 20
98.4490874363
 10
191.4077506926
 20
98.8057746692
 10
190.9371925112
 20
99.3073570682
 10
190.6360772964
 20
99.9131973041
 10
190.5287973177
 20
100.5742156086
 10
190.6240455401
 20
101.2368590711
 10
190.9141059559
 20
101.8474443955
 10
191.3754775715
 20
102.3565062461
 10
191.9707845491
 20
102.7228028653
 10
192.651797418
 20
102.9166595219
 10
193.3633455601
 20
102.9223703919
 10
194.0477838334
 20
102.7394726081
 10
194.6496622231
 20
102.3827853752
 10
195.1202204045
 20
101.8812029762
 10
195.4213356194
 20
101.2753618089
 10
195.5286146667
 20
100.6143444357
 10
195.4333664444
 20
99.951700042
 10
195.1433078912
 20
99.3411147175
 10
194.681934413
 20
98.8320528669
 10
194.0866283667
 20
98.4657562478
 10
193.4056154978
 20
98.2718995912
 10
192.6940664243
 20
98.2661887212
 10
192.0096290824
 20
98.4490874363
  0
LWPOLYLINE
  5
F4
330
1F
100
AcDbEntity
  8
0
  6
HIDDEN
 62
     7
370
     0
100
AcDbPolyline
 90
       22
 70
   128
 43
0.0
 10
192.0911551979
 20
98.5592275066
 10
191.5137519654
 20
98.9065903379
 10
191.070959304
 20
99.3984497292
 10
190.8021209356
 20
99.9911015062
 10
190.7311243531
 20
100.6318858964
 10
190.8642783355
 20
101.2638664944
 10
191.1897504297
 20
101.8308892054
 10
191.6786230695
 20
102.2825713409
 10
192.2874556449
 20
102.5787794171
 10
192.9621513527
 20
102.6931933267
 10
193.6427618903
 20
102.6156476839
 10
194.2688099634
 20
102.3530324129
 10
194.7846704688
 20
101.9286818011
 10
195.1445037094
 20
101.380301374
 10
195.316340175
 20
100.7566179289
 10
195.2849117633
 20
100.1130470214
 10
195.053008717
 20
99.5067737205
 10
194.6412356165
 20
98.9916685177
 10
194.0861850571
 20
98.6134993983
 10
193.4371715006
 20
98.4058684809
 10
192.7518643033
 20
98.3872271283
 10
192.0911551979
 20
98.5592275066
  0
LWPOLYLINE
  5
F5
330
1F
100
AcDbEntity
  8
0
  6
HIDDEN
 62
     7
370
     0
100
AcDbPolyline
 90
       23
 70
   128
 43
0.0
 10
192.0096290824
 20
98.6850808514
 10
191.4077506926
 20
99.0417680843
 10
190.9371925112
 20
99.5433504833
 10
190.6360772964
 20
100.1491916506
 10
190.5287973177
 20
100.8102090238
 10
190.6240455401
 20
101.4728534175
 10
190.9141059559
 20
102.083438742
 10
191.3754775715
 20
102.5925005926
 10
191.9707845491
 20
102.9587972118
 10
192.651797418
 20
103.152652937
 10
193.3633455601
 20
103.158363807
 10
194.0477838334
 20
102.9754669545
 10
194.6496622231
 20
102.6187787903
 10
195.1202204045
 20
102.1171973227
 10
195.4213356194
 20
101.5113561554
 10
195.5286146667
 20
100.8503378509
 10
195.4333664444
 20
100.1876943884
 10
195.1433078912
 20
99.577109064
 10
194.681934413
 20
99.068046282
 10
194.0866283667
 20
98.7017496629
 10
193.4056154978
 20
98.507894869
 10
192.6940664243
 20
98.5021839989
 10
192.0096290824
 20
98.6850808514
  0
LWPOLYLINE
  5
F6
330
1F
100
AcDbEntity
  8
0
  6
HIDDEN
 62
     7
370
     0
100
AcDbPolyline
 90
       22
 70
   128
 43
0.0
 10
192.0911551979
 20
98.7952227844
 10
191.5137519654
 20
99.142583753
 10
191.070959304
 20
99.6344440756
 10
190.8021209356
 20
100.2270949213
 10
190.7311243531
 20
100.8678793116
 10
190.8642783355
 20
101.4998599095
 10
191.1897504297
 20
102.0668835519
 10
191.6786230695
 20
102.5185656874
 10
192.2874556449
 20
102.8147737635
 10
192.9621513527
 20
102.9291876731
 10
193.6427618903
 20
102.8516420303
 10
194.2688099634
 20
102.5890267594
 10
194.7846704688
 20
102.1646761475
 10
195.1445037094
 20
101.6162957205
 10
195.316340175
 20
100.992611344
 10
195.2849117633
 20
100.3490413679
 10
195.053008717
 20
99.7427680669
 10
194.6412356165
 20
99.2276619328
 10
194.0861850571
 20
98.8494928135
 10
193.4371715006
 20
98.641861896
 10
192.7518643033
 20
98.6232205434
 10
192.0911551979
 20
98.7952227844
  0
LWPOLYLINE
  5
F7
330
1F
100
AcDbEntity
  8
0
  6
HIDDEN
 62
     7
370
     0
100
AcDbPolyline
 90
       23
 70
   128
 43
0.0
 10
192.0096290824
 20
99.2836157931
 10
191.4077506926
 20
99.6403039573
 10
190.9371925112
 20
100.141885425
 10
190.6360772964
 20
100.7477265922
 10
190.5287973177
 20
101.4087448968
 10
190.6240455401
 20
102.0713883592
 10
190.9141059559
 20
102.6819736836
 10
191.3754775715
 20
103.1910355343
 10
191.9707845491
 20
103.5573321534
 10
192.651797418
 20
103.75118881
 10
193.3633455601
 20
103.75689968
 10
194.0477838334
 20
103.5740018962
 10
194.6496622231
 20
103.217313732
 10
195.1202204045
 20
102.7157322643
 10
195.4213356194
 20
102.1098910971
 10
195.5286146667
 20
101.4488727925
 10
195.4333664444
 20
100.7862293301
 10
195.1433078912
 20
100.1756440056
 10
194.681934413
 20
99.666582155
 10
194.0866283667
 20
99.3002864672
 10
193.4056154978
 20
99.1064298106
 10
192.6940664243
 20
99.1007189406
 10
192.0096290824
 20
99.2836157931
  0
LWPOLYLINE
  5
F8
330
1F
100
AcDbEntity
  8
0
  6
HIDDEN
 62
     7
370
     0
100
AcDbPolyline
 90
       21
 70
   128
 43
0.0
 10
192.2214407068
 20
99.8320921464
 10
191.7021296513
 20
100.1496768696
 10
191.3126738336
 20
100.602516639
 10
191.0911960122
 20
101.1462832941
 10
191.0593736511
 20
101.7277498869
 10
191.2203248185
 20
102.2899967758
 10
191.5582915362
 20
102.7779893158
 10
192.0401941579
 20
103.1439581094
 10
192.6188584012
 20
103.3520798339
 10
193.2376412269
 20
103.3819818078
 10
193.835972209
 20
103.2307378156
 10
194.3552823332
 20
102.9131530924
 10
194.7447390821
 20
102.460313323
 10
194.9662169036
 20
101.9165466679
 10
194.9980383333
 20
101.3350800751
 10
194.8370890286
 20
100.7728331862
 10
194.4991213795
 20
100.2848406462
 10
194.0172187578
 20
99.9188718526
 10
193.4385545146
 20
99.7107501281
 10
192.8197716889
 20
99.6808481542
 10
192.2214407068
 20
99.8320921464
  0
LWPOLYLINE
  5
F9
330
1F
100
AcDbEntity
  8
0
  6
HIDDEN
 62
     7
370
     0
100
AcDbPolyline
 90
       21
 70
   128
 43
0.0
 10
193.835972209
 20
130.0416967971
 10
193.2376412269
 20
130.1929407893
 10
192.6188584012
 20
130.1630388154
 10
192.0401941579
 20
129.9549170909
 10
191.5582915362
 20
129.5889482973
 10
191.2203248185
 20
129.1009557573
 10
191.0593736511
 20
128.5387088684
 10
191.0911960122
 20
127.9572422756
 10
191.3126738336
 20
127.4134756206
 10
191.7021296513
 20
126.9606358511
 10
192.2214407068
 20
126.6430511279
 10
192.8197716889
 20
126.4918071358
 10
193.4385545146
 20
126.5217091097
 10
194.0172187578
 20
126.7298308341
 10
194.4991213795
 20
127.0957996277
 10
194.8370890286
 20
127.5837921677
 10
194.9980383333
 20
128.1460390566
 10
194.9662169036
 20
128.7275056494
 10
194.7447390821
 20
129.2712723045
 10
194.3552823332
 20
129.7241120739
 10
193.835972209
 20
130.0416967971
  0
LWPOLYLINE
  5
FA
330
1F
100
AcDbEntity
  8
0
  6
HIDDEN
 62
     7
370
     0
100
AcDbPolyline
 90
       23
 70
   128
 43
0.0
 10
194.0477838334
 20
130.5901731504
 10
193.3633455601
 20
130.7730700029
 10
192.651797418
 20
130.7673591329
 10
191.9707845491
 20
130.5735024763
 10
191.3754775715
 20
130.2072067885
 10
190.9141059559
 20
129.6981449379
 10
190.6240455401
 20
129.0875596134
 10
190.5287973177
 20
128.424916151
 10
190.6360772964
 20
127.7638978465
 10
190.9371925112
 20
127.1580566792
 10
191.4077506926
 20
126.6564752115
 10
192.0096290824
 20
126.2997870473
 10
192.6940664243
 20
126.1168892635
 10
193.4056154978
 20
126.1226001335
 10
194.0866283667
 20
126.3164567901
 10
194.681934413
 20
126.6827534093
 10
195.1433078912
 20
127.1918152599
 10
195.4333664444
 20
127.8024005843
 10
195.5286146667
 20
128.4650440468
 10
195.4213356194
 20
129.1260623513
 10
195.1202204045
 20
129.7319035185
 10
194.6496622231
 20
130.2334849862
 10
194.0477838334
 20
130.5901731504
  0
LWPOLYLINE
  5
FB
330
1F
100
AcDbEntity
  8
0
  6
HIDDEN
 62
     7
370
     0
100
AcDbPolyline
 90
       23
 70
   128
 43
0.0
 10
194.0477838334
 20
131.1887080921
 10
193.3633455601
 20
131.3716049446
 10
192.651797418
 20
131.3658940746
 10
191.9707845491
 20
131.1720392806
 10
191.3754775715
 20
130.8057426615
 10
190.9141059559
 20
130.2966798795
 10
190.6240455401
 20
129.6860945551
 10
190.5287973177
 20
129.0234510927
 10
190.6360772964
 20
128.3624327881
 10
190.9371925112
 20
127.7565916209
 10
191.4077506926
 20
127.2550101532
 10
192.0096290824
 20
126.898321989
 10
192.6940664243
 20
126.7154251365
 10
193.4056154978
 20
126.7211360065
 10
194.0866283667
 20
126.9149917318
 10
194.681934413
 20
127.2812883509
 10
195.1433078912
 20
127.7903502015
 10
195.4333664444
 20
128.400935526
 10
195.5286146667
 20
129.0635799197
 10
195.4213356194
 20
129.724597293
 10
195.1202204045
 20
130.3304384602
 10
194.6496622231
 20
130.8320208592
 10
194.0477838334
 20
131.1887080921
  0
LWPOLYLINE
  5
FC
330
1F
100
AcDbEntity
  8
0
  6
HIDDEN
 62
     7
370
     0
100
AcDbPolyline
 90
       21
 70
   128
 43
0.0
 10
193.8439685446
 20
131.9396390719
 10
193.2397106257
 20
132.0923815621
 10
192.6147987661
 20
132.0621824963
 10
192.0304031637
 20
131.851999755
 10
191.5437275138
 20
131.4824062539
 10
191.2024126914
 20
130.9895801498
 10
191.0398680311
 20
130.4217639519
 10
191.0720051792
 20
129.8345389916
 10
191.2956771967
 20
129.2853864981
 10
191.6889905524
 20
128.8280614791
 10
192.2134443712
 20
128.5073298169
 10
192.8177022901
 20
128.3545882581
 10
193.4426141497
 20
128.3847873239
 10
194.0270097521
 20
128.5949700652
 10
194.513685402
 20
128.9645635663
 10
194.8550002244
 20
129.4573896704
 10
195.0175439533
 20
130.0252058683
 10
194.9854077366
 20
130.6124317599
 10
194.7617357191
 20
131.1615842534
 10
194.3684223634
 20
131.618908341
 10
193.8439685446
 20
131.9396390719
  0
LWPOLYLINE
  5
FD
330
1F
100
AcDbEntity
  8
0
  6
HIDDEN
 62
     7
370
     0
100
AcDbPolyline
 90
       21
 70
   128
 43
0.0
 10
193.8439685446
 20
130.5218634335
 10
193.2397106257
 20
130.6746049924
 10
192.6147987661
 20
130.6444059266
 10
192.0304031637
 20
130.4342231853
 10
191.5437275138
 20
130.0646296842
 10
191.2024126914
 20
129.5718045114
 10
191.0398680311
 20
129.0039883135
 10
191.0720051792
 20
128.4167624218
 10
191.2956771967
 20
127.8676099284
 10
191.6889905524
 20
127.4102858407
 10
192.2134443712
 20
127.0895541785
 10
192.8177022901
 20
126.9368126197
 10
193.4426141497
 20
126.9670107542
 10
194.0270097521
 20
127.1771944268
 10
194.513685402
 20
127.5467879279
 10
194.8550002244
 20
128.0396131007
 10
195.0175439533
 20
128.6074292986
 10
194.9854077366
 20
129.1946551902
 10
194.7617357191
 20
129.7438076837
 10
194.3684223634
 20
130.2011327026
 10
193.8439685446
 20
130.5218634335
  0
LWPOLYLINE
  5
FE
330
1F
100
AcDbEntity
  8
0
  6
HIDDEN
 62
     7
370
     0
100
AcDbPolyline
 90
       23
 70
   128
 43
0.0
 10
194.0477838334
 20
131.4247015072
 10
193.3633455601
 20
131.6076002223
 10
192.651797418
 20
131.6018893523
 10
191.9707845491
 20
131.4080326958
 10
191.3754775715
 20
131.0417360766
 10
190.9141059559
 20
130.532674226
 10
190.6240455401
 20
129.9220889015
 10
190.5287973177
 20
129.2594445078
 10
190.6360772964
 20
128.5984271346
 10
190.9371925112
 20
127.9925859673
 10
191.4077506926
 20
127.4910035683
 10
192.0096290824
 20
127.1343163354
 10
192.6940664243
 20
126.9514185516
 10
193.4056154978
 20
126.9571294216
 10
194.0866283667
 20
127.1509860782
 10
194.681934413
 20
127.5172826974
 10
195.1433078912
 20
128.026344548
 10
195.4333664444
 20
128.6369298724
 10
195.5286146667
 20
129.2995733349
 10
195.4213356194
 20
129.9605916394
 10
195.1202204045
 20
130.5664318753
 10
194.6496622231
 20
131.0680142744
 10
194.0477838334
 20
131.4247015072
  0
LWPOLYLINE
  5
FF
330
1F
100
AcDbEntity
  8
0
  6
HIDDEN
 62
     7
370
     0
100
AcDbPolyline
 90
       22
 70
   128
 43
0.0
 10
193.9662577179
 20
131.0785661591
 10
193.3055486125
 20
131.2505684001
 10
192.6202414152
 20
131.2319270475
 10
191.9712278586
 20
131.0242961301
 10
191.416176368
 20
130.6461270107
 10
191.0044051301
 20
130.1310208766
 10
190.7725011524
 20
129.5247475756
 10
190.7410718095
 20
128.8811775995
 10
190.9129082751
 20
128.2574932231
 10
191.2727433783
 20
127.709112796
 10
191.7886029523
 20
127.2847621841
 10
192.4146510255
 20
127.0221469132
 10
193.0952606317
 20
126.9446012704
 10
193.7699572709
 20
127.05901518
 10
194.3787898463
 20
127.3552232562
 10
194.8676624861
 20
127.8069053916
 10
195.1931336489
 20
128.373929034
 10
195.3262885627
 20
129.005909632
 10
195.2552919802
 20
129.6466940222
 10
194.9864526805
 20
130.2393448679
 10
194.5436609503
 20
130.7312051905
 10
193.9662577179
 20
131.0785661591
  0
LWPOLYLINE
  5
100
330
1F
100
AcDbEntity
  8
0
  6
HIDDEN
 62
     7
370
     0
100
AcDbPolyline
 90
       23
 70
   128
 43
0.0
 10
194.0477838334
 20
131.660696785
 10
193.3633455601
 20
131.8435936375
 10
192.651797418
 20
131.8378827674
 10
191.9707845491
 20
131.6440261109
 10
191.3754775715
 20
131.2777294917
 10
190.9141059559
 20
130.7686685724
 10
190.6240455401
 20
130.1580823166
 10
190.5287973177
 20
129.4954388542
 10
190.6360772964
 20
128.8344205497
 10
190.9371925112
 20
128.2285793824
 10
191.4077506926
 20
127.7269979147
 10
192.0096290824
 20
127.3703097505
 10
192.6940664243
 20
127.1874128981
 10
193.4056154978
 20
127.1931237681
 10
194.0866283667
 20
127.3869794933
 10
194.681934413
 20
127.7532761125
 10
195.1433078912
 20
128.2623379631
 10
195.4333664444
 20
128.8729232876
 10
195.5286146667
 20
129.5355676813
 10
195.4213356194
 20
130.1965850545
 10
195.1202204045
 20
130.8024271531
 10
194.6496622231
 20
131.3040076895
 10
194.0477838334
 20
131.660696785
  0
LWPOLYLINE
  5
101
330
1F
100
AcDbEntity
  8
0
  6
HIDDEN
 62
     7
370
     0
100
AcDbPolyline
 90
       22
 70
   128
 43
0.0
 10
193.9662577179
 20
131.3145614369
 10
193.3055486125
 20
131.4865618153
 10
192.6202414152
 20
131.4679204626
 10
191.9712278586
 20
131.2602895452
 10
191.416176368
 20
130.8821204258
 10
191.0044051301
 20
130.367015223
 10
190.7725011524
 20
129.7607419221
 10
190.7410718095
 20
129.1171710147
 10
190.9129082751
 20
128.4934875695
 10
191.2727433783
 20
127.9451071424
 10
191.7886029523
 20
127.5207565306
 10
192.4146510255
 20
127.2581412597
 10
193.0952606317
 20
127.1805956168
 10
193.7699572709
 20
127.2950095264
 10
194.3787898463
 20
127.5912176026
 10
194.8676624861
 20
128.0428997381
 10
195.1931336489
 20
128.6099224491
 10
195.3262885627
 20
129.2419030471
 10
195.2552919802
 20
129.8826874373
 10
194.9864526805
 20
130.4753392143
 10
194.5436609503
 20
130.9671986056
 10
193.9662577179
 20
131.3145614369
  0
LWPOLYLINE
  5
102
330
1F
100
AcDbEntity
  8
0
  6
HIDDEN
 62
     7
370
     0
100
AcDbPolyline
 90
       23
 70
   128
 43
0.0
 10
194.0477838334
 20
131.8966902001
 10
193.3633455601
 20
132.0795870526
 10
192.651797418
 20
132.0738761825
 10
191.9707845491
 20
131.880019526
 10
191.3754775715
 20
131.5137229068
 10
190.9141059559
 20
131.0046619875
 10
190.6240455401
 20
130.3940766631
 10
190.5287973177
 20
129.7314332006
 10
190.6360772964
 20
129.0704148961
 10
190.9371925112
 20
128.4645737289
 10
191.4077506926
 20
127.9629913298
 10
192.0096290824
 20
127.606304097
 10
192.6940664243
 20
127.4234063132
 10
193.4056154978
 20
127.4291171832
 10
194.0866283667
 20
127.6229738398
 10
194.681934413
 20
127.9892704589
 10
195.1433078912
 20
128.4983323095
 10
195.4333664444
 20
129.108917634
 10
195.5286146667
 20
129.7715610964
 10
195.4213356194
 20
130.4325794009
 10
195.1202204045
 20
131.0384205682
 10
194.6496622231
 20
131.5400029672
 10
194.0477838334
 20
131.8966902001
  0
LWPOLYLINE
  5
103
330
1F
100
AcDbEntity
  8
0
  6
HIDDEN
 62
     7
370
     0
100
AcDbPolyline
 90
       22
 70
   128
 43
0.0
 10
193.9662577179
 20
131.550554852
 10
193.3055486125
 20
131.722557093
 10
192.6202414152
 20
131.7039138777
 10
191.9712278586
 20
131.4962848229
 10
191.416176368
 20
131.1181157036
 10
191.0044051301
 20
130.6030086381
 10
190.7725011524
 20
129.9967362685
 10
190.7410718095
 20
129.3531653611
 10
190.9129082751
 20
128.7294809846
 10
191.2727433783
 20
128.1811005576
 10
191.7886029523
 20
127.7567499457
 10
192.4146510255
 20
127.4941346748
 10
193.0952606317
 20
127.4165890319
 10
193.7699572709
 20
127.5310029415
 10
194.3787898463
 20
127.8272110177
 10
194.8676624861
 20
128.2788940845
 10
195.1931336489
 20
128.8459167955
 10
195.3262885627
 20
129.4778973935
 10
195.2552919802
 20
130.1186817838
 10
194.9864526805
 20
130.7113326294
 10
194.5436609503
 20
131.2031920208
 10
193.9662577179
 20
131.550554852
  0
LWPOLYLINE
  5
104
330
1F
100
AcDbEntity
  8
0
  6
HIDDEN
 62
     7
370
     0
100
AcDbPolyline
 90
       23
 70
   128
 43
0.0
 10
194.0477838334
 20
132.1326836152
 10
193.3633455601
 20
132.3155804677
 10
192.651797418
 20
132.3098695977
 10
191.9707845491
 20
132.1160148038
 10
191.3754775715
 20
131.7497181846
 10
190.9141059559
 20
131.2406554027
 10
190.6240455401
 20
130.6300710095
 10
190.5287973177
 20
129.9674266158
 10
190.6360772964
 20
129.3064083112
 10
190.9371925112
 20
128.7005680753
 10
191.4077506926
 20
128.1989856763
 10
192.0096290824
 20
127.8422975121
 10
192.6940664243
 20
127.6594006596
 10
193.4056154978
 20
127.6651115296
 10
194.0866283667
 20
127.8589672549
 10
194.681934413
 20
128.225263874
 10
195.1433078912
 20
128.7343257247
 10
195.4333664444
 20
129.3449110491
 10
195.5286146667
 20
130.0075554429
 10
195.4213356194
 20
130.6685737474
 10
195.1202204045
 20
131.2744139833
 10
194.6496622231
 20
131.7759963823
 10
194.0477838334
 20
132.1326836152
  0
LWPOLYLINE
  5
105
330
1F
100
AcDbEntity
  8
0
  6
HIDDEN
 62
     7
370
     0
100
AcDbPolyline
 90
       22
 70
   128
 43
0.0
 10
193.9662577179
 20
131.7865482671
 10
193.3055486125
 20
131.9585505081
 10
192.6202414152
 20
131.9399072928
 10
191.9712278586
 20
131.7322782381
 10
191.416176368
 20
131.3541091187
 10
191.0044051301
 20
130.8390039159
 10
190.7725011524
 20
130.2327296836
 10
190.7410718095
 20
129.5891587762
 10
190.9129082751
 20
128.9654753311
 10
191.2727433783
 20
128.417094904
 10
191.7886029523
 20
127.9927442921
 10
192.4146510255
 20
127.7301290212
 10
193.0952606317
 20
127.6525833784
 10
193.7699572709
 20
127.766997288
 10
194.3787898463
 20
128.0632053642
 10
194.8676624861
 20
128.5148874996
 10
195.1931336489
 20
129.0819102107
 10
195.3262885627
 20
129.7138908086
 10
195.2552919802
 20
130.3546751989
 10
194.9864526805
 20
130.9473260446
 10
194.5436609503
 20
131.4391854359
 10
193.9662577179
 20
131.7865482671
  0
LWPOLYLINE
  5
106
330
1F
100
AcDbEntity
  8
0
  6
HIDDEN
 62
     7
370
     0
100
AcDbPolyline
 90
       23
 70
   128
 43
0.0
 10
194.0477838334
 20
132.3207958741
 10
193.3633455601
 20
132.5036927266
 10
192.651797418
 20
132.4979818566
 10
191.9707845491
 20
132.3041252
 10
191.3754775715
 20
131.9378285808
 10
190.9141059559
 20
131.4287676616
 10
190.6240455401
 20
130.8181814058
 10
190.5287973177
 20
130.1555379434
 10
190.6360772964
 20
129.4945196388
 10
190.9371925112
 20
128.8886784716
 10
191.4077506926
 20
128.3870970039
 10
192.0096290824
 20
128.0304088397
 10
192.6940664243
 20
127.8475119872
 10
193.4056154978
 20
127.8532228572
 10
194.0866283667
 20
128.0470785825
 10
194.681934413
 20
128.4133752016
 10
195.1433078912
 20
128.9224370522
 10
195.4333664444
 20
129.5330223767
 10
195.5286146667
 20
130.1956658391
 10
195.4213356194
 20
130.8566841437
 10
195.1202204045
 20
131.4625243796
 10
194.6496622231
 20
131.9641067786
 10
194.0477838334
 20
132.3207958741
  0
LWPOLYLINE
  5
107
330
1F
100
AcDbEntity
  8
0
  6
HIDDEN
 62
     7
370
     0
100
AcDbPolyline
 90
       22
 70
   128
 43
0.0
 10
193.99071518
 20
132.2485475941
 10
193.312771019
 20
132.4250350846
 10
192.6095861536
 20
132.4059075816
 10
191.943642084
 20
132.192860092
 10
191.3741103899
 20
131.804826404
 10
190.9515972775
 20
131.2762822164
 10
190.7136434284
 20
130.6541941268
 10
190.6813945216
 20
129.9938342674
 10
190.8577134427
 20
129.3538806168
 10
191.2269353461
 20
128.7911941437
 10
191.7562525314
 20
128.3557738317
 10
192.3986322772
 20
128.0863077519
 10
193.0969975483
 20
128.0067392765
 10
193.7892943215
 20
128.1241380749
 10
194.4140096721
 20
128.4280733345
 10
194.9156349119
 20
128.8915385632
 10
195.249597874
 20
129.4733525394
 10
195.3862247583
 20
130.1218203409
 10
195.3133767065
 20
130.77932104
 10
195.0375245479
 20
131.3874318404
 10
194.5831806925
 20
131.8921229942
 10
193.99071518
 20
132.2485475941
  0
LWPOLYLINE
  5
108
330
1F
100
AcDbEntity
  8
0
  6
HIDDEN
 62
     7
370
     0
100
AcDbPolyline
 90
       25
 70
   128
 43
0.0
 10
186.6375197251
 20
130.4186542658
 10
187.0760725406
 20
130.7921509398
 10
187.5248452243
 20
130.9792573703
 10
187.9532554713
 20
130.9672190947
 10
188.3321072501
 20
130.7568575395
 10
188.6355824363
 20
130.3625094844
 10
188.8430000809
 20
129.8110482423
 10
188.940225501
 20
129.140055473
 10
188.9206314054
 20
128.3952581836
 10
188.7855542418
 20
127.6274134545
 10
188.5441992026
 20
126.8888476444
 10
188.2130134445
 20
126.2298931507
 10
187.8145675701
 20
125.6954564853
 10
187.3760152203
 20
125.3219598113
 10
186.9272425365
 20
125.1348543121
 10
186.4988322896
 20
125.1468925877
 10
186.1199805107
 20
125.3572541429
 10
185.8165048589
 20
125.751602198
 10
185.6090872143
 20
126.3030634401
 10
185.5118622598
 20
126.9740552781
 10
185.5314563554
 20
127.7188525675
 10
185.666533519
 20
128.4866982279
 10
185.9078885582
 20
129.225264038
 10
186.2390738506
 20
129.8842185317
 10
186.6375197251
 20
130.4186542658
  0
LWPOLYLINE
  5
109
330
1F
100
AcDbEntity
  8
0
  6
HIDDEN
 62
     7
370
     0
100
AcDbPolyline
 90
       21
 70
   128
 43
0.0
 10
187.652846199
 20
129.4352800725
 10
188.0051608723
 20
129.7195662884
 10
188.3613936198
 20
129.8219111888
 10
188.6866757241
 20
129.7322965367
 10
188.9491643351
 20
129.4594944594
 10
189.123167057
 20
129.0302097006
 10
189.1916499999
 20
128.4864626033
 10
189.1479104352
 20
127.8814791841
 10
188.9962287214
 20
127.2744794516
 10
188.7514538657
 20
126.7248808546
 10
188.4375450727
 20
126.286482173
 10
188.0852313307
 20
126.0021959571
 10
187.7289976519
 20
125.8998510567
 10
187.4037164789
 20
125.9894657088
 10
187.1412269366
 20
126.2622677861
 10
186.967225146
 20
126.6915525449
 10
186.8987422031
 20
127.2352996422
 10
186.9424817678
 20
127.8402830614
 10
187.0941634816
 20
128.4472827939
 10
187.3389383372
 20
128.9968813909
 10
187.652846199
 20
129.4352800725
  0
LWPOLYLINE
  5
10A
330
1F
100
AcDbEntity
  8
0
  6
HIDDEN
 62
     7
370
     0
100
AcDbPolyline
 90
       25
 70
   128
 43
0.0
 10
183.6231554453
 20
131.1405494018
 10
184.0617082608
 20
131.5140470071
 10
184.5104809445
 20
131.701151575
 10
184.9388911915
 20
131.6891132994
 10
185.3177429703
 20
131.4787517441
 10
185.6212186222
 20
131.084403689
 10
185.8286362667
 20
130.5329433782
 10
185.9258612212
 20
129.8619506089
 10
185.9062671256
 20
129.1171533195
 10
185.771189962
 20
128.3493085904
 10
185.5298349228
 20
127.6107427804
 10
185.1986491647
 20
126.9517882867
 10
184.8002037559
 20
126.4173516212
 10
184.3616509405
 20
126.0438549472
 10
183.9128782567
 20
125.8567503793
 10
183.4844680097
 20
125.8687886549
 10
183.1056162309
 20
126.0791492788
 10
182.8021405791
 20
126.4734973339
 10
182.5947229345
 20
127.0249585761
 10
182.4974982128
 20
127.6959513454
 10
182.5170920756
 20
128.4407486347
 10
182.6521692392
 20
129.2085933639
 10
182.8935242784
 20
129.9471591739
 10
183.2247100365
 20
130.6061136676
 10
183.6231554453
 20
131.1405494018
  0
LINE
  5
10B
330
1F
100
AcDbEntity
  8
0
  6
HIDDEN
 62
     7
370
     0
100
AcDbLine
 10
184.6093692411
 20
128.2541432558
 30
0.0
 11
185.2479552445
 21
129.8128745658
 31
0.0
  0
LINE
  5
10C
330
1F
100
AcDbEntity
  8
0
  6
HIDDEN
 62
     7
370
     0
100
AcDbLine
 10
182.9710652646
 20
128.6464926926
 30
0.0
 11
183.609651268
 21
130.2052240027
 31
0.0
  0
LWPOLYLINE
  5
10D
330
1F
100
AcDbEntity
  8
0
  6
HIDDEN
 62
     7
370
     0
100
AcDbPolyline
 90
       23
 70
   128
 43
0.0
 10
183.4696902488
 20
130.7668506308
 10
183.8604722698
 20
131.0916922195
 10
184.2584613305
 20
131.2342553539
 10
184.6314145778
 20
131.1829934968
 10
184.9491185103
 20
130.9420566214
 10
185.1858337004
 20
130.5309671117
 10
185.322383285
 20
129.9830281315
 10
185.3477050145
 20
129.3426293088
 10
185.2597471852
 20
128.6616518302
 10
185.065635812
 20
127.9952663137
 10
184.7810962763
 20
127.3974578036
 10
184.4291806747
 20
126.9166578678
 10
184.0383991194
 20
126.5918172104
 10
183.6404100586
 20
126.449254076
 10
183.2674568113
 20
126.5005159331
 10
182.9497528788
 20
126.7414518772
 10
182.7130376887
 20
127.1525413869
 10
182.5764878713
 20
127.7004812984
 10
182.5511661418
 20
128.3408801211
 10
182.6391239711
 20
129.0218566684
 10
182.8332355772
 20
129.6882421849
 10
183.1177751128
 20
130.286050695
 10
183.4696902488
 20
130.7668506308
  0
LINE
  5
10E
330
1F
100
AcDbEntity
  8
0
  6
HIDDEN
 62
     7
370
     0
100
AcDbLine
 10
182.9710652646
 20
128.6464926926
 30
0.0
 11
183.3108494584
 21
127.2830234049
 31
0.0
  0
LINE
  5
10F
330
1F
100
AcDbEntity
  8
0
  6
HIDDEN
 62
     7
370
     0
100
AcDbLine
 10
184.6093692411
 20
128.2541432558
 30
0.0
 11
184.9491539006
 21
126.890673968
 31
0.0
  0
LINE
  5
110
330
1F
100
AcDbEntity
  8
0
  6
HIDDEN
 62
     7
370
     0
100
AcDbLine
 10
184.6093692411
 20
128.2541432558
 30
0.0
 11
182.9710652646
 21
128.6464926926
 31
0.0
  0
LINE
  5
111
330
1F
100
AcDbEntity
  8
0
  6
HIDDEN
 62
     7
370
     0
100
AcDbLine
 10
184.5880219307
 20
130.400486025
 30
0.0
 11
183.609651268
 21
130.2052240027
 31
0.0
  0
LINE
  5
112
330
1F
100
AcDbEntity
  8
0
  6
HIDDEN
 62
     7
370
     0
100
AcDbLine
 10
186.2263259072
 20
130.0081365881
 30
0.0
 11
185.2479552445
 21
129.8128745658
 31
0.0
  0
LINE
  5
113
330
1F
100
AcDbEntity
  8
0
  6
HIDDEN
 62
     7
370
     0
100
AcDbLine
 10
185.2479552445
 20
129.8128745658
 30
0.0
 11
183.609651268
 21
130.2052240027
 31
0.0
  0
LINE
  5
114
330
1F
100
AcDbEntity
  8
0
  6
HIDDEN
 62
     7
370
     0
100
AcDbLine
 10
185.9275240977
 20
127.085935059
 30
0.0
 11
184.2892201212
 21
127.4782844959
 31
0.0
  0
LINE
  5
115
330
1F
100
AcDbEntity
  8
0
  6
HIDDEN
 62
     7
370
     0
100
AcDbLine
 10
184.9491539006
 20
126.890673968
 30
0.0
 11
183.3108494584
 21
127.2830234049
 31
0.0
  0
LINE
  5
116
330
1F
100
AcDbEntity
  8
0
  6
HIDDEN
 62
     7
370
     0
100
AcDbLine
 10
183.3108494584
 20
127.2830234049
 30
0.0
 11
184.2892201212
 21
127.4782844959
 31
0.0
  0
LINE
  5
117
330
1F
100
AcDbEntity
  8
0
  6
HIDDEN
 62
     7
370
     0
100
AcDbLine
 10
184.9491539006
 20
126.890673968
 30
0.0
 11
185.9275240977
 21
127.085935059
 31
0.0
  0
LINE
  5
118
330
1F
100
AcDbEntity
  8
0
  6
HIDDEN
 62
     7
370
     0
100
AcDbLine
 10
186.5661105667
 20
128.6446663691
 30
0.0
 11
184.9278061245
 21
129.037015806
 31
0.0
  0
LINE
  5
119
330
1F
100
AcDbEntity
  8
0
  6
HIDDEN
 62
     7
370
     0
100
AcDbLine
 10
186.2263259072
 20
130.0081365881
 30
0.0
 11
184.5880219307
 21
130.400486025
 31
0.0
  0
LINE
  5
11A
330
1F
100
AcDbEntity
  8
0
  6
HIDDEN
 62
     7
370
     0
100
AcDbLine
 10
184.5880219307
 20
130.400486025
 30
0.0
 11
184.9278061245
 21
129.037015806
 31
0.0
  0
LINE
  5
11B
330
1F
100
AcDbEntity
  8
0
  6
HIDDEN
 62
     7
370
     0
100
AcDbLine
 10
186.2263259072
 20
130.0081365881
 30
0.0
 11
186.5661105667
 21
128.6446663691
 31
0.0
  0
LINE
  5
11C
330
1F
100
AcDbEntity
  8
0
  6
HIDDEN
 62
     7
370
     0
100
AcDbLine
 10
184.9278061245
 20
129.037015806
 30
0.0
 11
184.2892201212
 21
127.4782844959
 31
0.0
  0
LINE
  5
11D
330
1F
100
AcDbEntity
  8
0
  6
HIDDEN
 62
     7
370
     0
100
AcDbLine
 10
186.5661105667
 20
128.6446663691
 30
0.0
 11
185.9275240977
 21
127.085935059
 31
0.0
  0
LWPOLYLINE
  5
11E
330
1F
100
AcDbEntity
  8
0
  6
HIDDEN
 62
     7
370
     0
100
AcDbPolyline
 90
       23
 70
   128
 43
0.0
 10
184.4291806747
 20
98.6382688535
 10
184.7810962763
 20
98.7752794428
 10
185.065635812
 20
99.0951179666
 10
185.2597471852
 20
99.5718750311
 10
185.3477050145
 20
100.1669240324
 10
185.322383285
 20
100.8320606453
 10
185.1858337004
 20
101.5133966831
 10
184.9491185103
 20
102.1557363821
 10
184.6314145778
 20
102.7070402307
 10
184.2584613305
 20
103.1226447923
 10
183.8604722698
 20
103.3688808931
 10
183.4696902488
 20
103.4257996036
 10
183.1177751128
 20
103.2887890143
 10
182.8332355772
 20
102.9689504905
 10
182.6391239711
 20
102.4921943573
 10
182.5511661418
 20
101.8971444247
 10
182.5764878713
 20
101.2320087431
 10
182.7130376887
 20
100.550671774
 10
182.9497528788
 20
99.9083330063
 10
183.2674568113
 20
99.3570291577
 10
183.6404100586
 20
98.9414236648
 10
184.0383991194
 20
98.695187564
 10
184.4291806747
 20
98.6382688535
  0
LWPOLYLINE
  5
11F
330
1F
100
AcDbEntity
  8
0
  6
HIDDEN
 62
     7
370
     0
100
AcDbPolyline
 90
       25
 70
   128
 43
0.0
 10
184.8002037559
 20
98.1583043141
 10
185.1986491647
 20
98.3034937782
 10
185.5298349228
 20
98.6389096035
 10
185.771189962
 20
99.1416934086
 10
185.9062671256
 20
99.7775799735
 10
185.9258612212
 20
100.5032357899
 10
185.8286362667
 20
101.2692085607
 10
185.6212186222
 20
102.0232976554
 10
185.3177429703
 20
102.714114557
 10
184.9388911915
 20
103.2945799781
 10
184.5104809445
 20
103.7251369236
 10
184.0617082608
 20
103.9764431445
 10
183.6231554453
 20
104.0313725499
 10
183.2247100365
 20
103.8861821545
 10
182.8935242784
 20
103.5507663293
 10
182.6521692392
 20
103.0479834555
 10
182.5170920756
 20
102.4120959593
 10
182.4974982128
 20
101.6864401428
 10
182.5947229345
 20
100.9204673721
 10
182.8021405791
 20
100.1663782774
 10
183.1056162309
 20
99.4755613757
 10
183.4844680097
 20
98.8950959546
 10
183.9128782567
 20
98.4645399405
 10
184.3616509405
 20
98.2132337196
 10
184.8002037559
 20
98.1583043141
  0
LWPOLYLINE
  5
120
330
1F
100
AcDbEntity
  8
0
  6
HIDDEN
 62
     7
370
     0
100
AcDbPolyline
 90
       25
 70
   128
 43
0.0
 10
187.8145675701
 20
98.8801985187
 10
188.2130134445
 20
99.0253898455
 10
188.5441992026
 20
99.3608047394
 10
188.7855542418
 20
99.8635885445
 10
188.9206314054
 20
100.4994751094
 10
188.940225501
 20
101.2251309259
 10
188.8430000809
 20
101.9911036966
 10
188.6355824363
 20
102.7451927913
 10
188.3321072501
 20
103.436009693
 10
187.9532554713
 20
104.016475114
 10
187.5248452243
 20
104.4470320595
 10
187.0760725406
 20
104.6983382804
 10
186.6375197251
 20
104.7532676859
 10
186.2390738506
 20
104.6080772905
 10
185.9078885582
 20
104.2726614652
 10
185.666533519
 20
103.7698785914
 10
185.5314563554
 20
103.1339910952
 10
185.5118622598
 20
102.4083352787
 10
185.6090872143
 20
101.6423634393
 10
185.8165048589
 20
100.8882734133
 10
186.1199805107
 20
100.197457443
 10
186.4988322896
 20
99.6169910906
 10
186.9272425365
 20
99.1864341451
 10
187.3760152203
 20
98.9351279242
 10
187.8145675701
 20
98.8801985187
  0
LINE
  5
121
330
1F
100
AcDbEntity
  8
0
  6
HIDDEN
 62
     7
370
     0
100
AcDbLine
 10
184.5880219307
 20
101.9669237686
 30
0.0
 11
183.609651268
 21
102.7274436457
 31
0.0
  0
LINE
  5
122
330
1F
100
AcDbEntity
  8
0
  6
HIDDEN
 62
     7
370
     0
100
AcDbLine
 10
182.9710652646
 20
101.7925541056
 30
0.0
 11
183.609651268
 21
102.7274436457
 31
0.0
  0
LINE
  5
123
330
1F
100
AcDbEntity
  8
0
  6
HIDDEN
 62
     7
370
     0
100
AcDbLine
 10
183.3108494584
 20
100.0971446885
 30
0.0
 11
182.9710652646
 21
101.7925541056
 31
0.0
  0
LINE
  5
124
330
1F
100
AcDbEntity
  8
0
  6
HIDDEN
 62
     7
370
     0
100
AcDbLine
 10
183.3108494584
 20
100.0971446885
 30
0.0
 11
184.2892201212
 21
99.3366257427
 31
0.0
  0
LINE
  5
125
330
1F
100
AcDbEntity
  8
0
  6
HIDDEN
 62
     7
370
     0
100
AcDbLine
 10
184.9278061245
 20
100.2715152828
 30
0.0
 11
184.2892201212
 21
99.3366257427
 31
0.0
  0
LINE
  5
126
330
1F
100
AcDbEntity
  8
0
  6
HIDDEN
 62
     7
370
     0
100
AcDbLine
 10
184.9278061245
 20
100.2715152828
 30
0.0
 11
184.5880219307
 21
101.9669237686
 31
0.0
  0
LINE
  5
127
330
1F
100
AcDbEntity
  8
0
  6
HIDDEN
 62
     7
370
     0
100
AcDbLine
 10
186.2263259072
 20
102.3592732055
 30
0.0
 11
184.5880219307
 21
101.9669237686
 31
0.0
  0
LINE
  5
128
330
1F
100
AcDbEntity
  8
0
  6
HIDDEN
 62
     7
370
     0
100
AcDbLine
 10
186.5661105667
 20
100.6638647197
 30
0.0
 11
184.9278061245
 21
100.2715152828
 31
0.0
  0
LWPOLYLINE
  5
129
330
1F
100
AcDbEntity
  8
0
  6
HIDDEN
 62
     7
370
     0
100
AcDbPolyline
 90
       21
 70
   128
 43
0.0
 10
188.4375450727
 20
100.0552184088
 10
188.7514538657
 20
100.186956781
 10
188.9962287214
 20
100.4974317877
 10
189.1479104352
 20
100.9562525107
 10
189.1916499999
 20
101.5185059188
 10
189.123167057
 20
102.1291545732
 10
188.9491643351
 20
102.7284243284
 10
188.6866757241
 20
103.2576549007
 10
188.3613936198
 20
103.6650405405
 10
188.0051608723
 20
103.9107038779
 10
187.652846199
 20
103.9705972327
 10
187.3389383372
 20
103.8388588605
 10
187.0941634816
 20
103.5283838538
 10
186.9424817678
 20
103.0695631308
 10
186.8987422031
 20
102.5073097227
 10
186.967225146
 20
101.8966610683
 10
187.1412269366
 20
101.2973913131
 10
187.4037164789
 20
100.7681607408
 10
187.7289976519
 20
100.3607760323
 10
188.0852313307
 20
100.1151126949
 10
188.4375450727
 20
100.0552184088
  0
LINE
  5
12A
330
1F
100
AcDbEntity
  8
0
  6
HIDDEN
 62
     7
370
     0
100
AcDbLine
 10
184.9491539006
 20
100.4894941254
 30
0.0
 11
185.9275240977
 21
99.7289751796
 31
0.0
  0
LINE
  5
12B
330
1F
100
AcDbEntity
  8
0
  6
HIDDEN
 62
     7
370
     0
100
AcDbLine
 10
184.9491539006
 20
100.4894941254
 30
0.0
 11
184.6093692411
 21
102.1849035425
 31
0.0
  0
LINE
  5
12C
330
1F
100
AcDbEntity
  8
0
  6
HIDDEN
 62
     7
370
     0
100
AcDbLine
 10
184.6093692411
 20
102.1849035425
 30
0.0
 11
185.2479552445
 21
103.1197930826
 31
0.0
  0
LINE
  5
12D
330
1F
100
AcDbEntity
  8
0
  6
HIDDEN
 62
     7
370
     0
100
AcDbLine
 10
186.5661105667
 20
100.6638647197
 30
0.0
 11
185.9275240977
 21
99.7289751796
 31
0.0
  0
LINE
  5
12E
330
1F
100
AcDbEntity
  8
0
  6
HIDDEN
 62
     7
370
     0
100
AcDbLine
 10
186.5661105667
 20
100.6638647197
 30
0.0
 11
186.2263259072
 21
102.3592732055
 31
0.0
  0
LINE
  5
12F
330
1F
100
AcDbEntity
  8
0
  6
HIDDEN
 62
     7
370
     0
100
AcDbLine
 10
186.2263259072
 20
102.3592732055
 30
0.0
 11
185.2479552445
 21
103.1197930826
 31
0.0
  0
LINE
  5
130
330
1F
100
AcDbEntity
  8
0
  6
HIDDEN
 62
     7
370
     0
100
AcDbLine
 10
184.6093692411
 20
102.1849035425
 30
0.0
 11
182.9710652646
 21
101.7925541056
 31
0.0
  0
LINE
  5
131
330
1F
100
AcDbEntity
  8
0
  6
HIDDEN
 62
     7
370
     0
100
AcDbLine
 10
185.2479552445
 20
103.1197930826
 30
0.0
 11
183.609651268
 21
102.7274436457
 31
0.0
  0
LINE
  5
132
330
1F
100
AcDbEntity
  8
0
  6
HIDDEN
 62
     7
370
     0
100
AcDbLine
 10
184.9491539006
 20
100.4894941254
 30
0.0
 11
183.3108494584
 21
100.0971446885
 31
0.0
  0
LINE
  5
133
330
1F
100
AcDbEntity
  8
0
  6
HIDDEN
 62
     7
370
     0
100
AcDbLine
 10
185.9275240977
 20
99.7289751796
 30
0.0
 11
184.2892201212
 21
99.3366257427
 31
0.0
  0
ARC
  5
134
330
1F
100
AcDbEntity
  8
0
  6
HIDDEN
 62
     7
370
     0
100
AcDbCircle
 10
207.2287063655
 20
114.9368944718
 30
0.0
 40
2.500000000000012
100
AcDbArc
 50
103.4877861017
 51
256.5122138983
  0
ARC
  5
135
330
1F
100
AcDbEntity
  8
0
  6
HIDDEN
 62
     7
370
     0
100
AcDbCircle
 10
207.2287063655
 20
114.9368944718
 30
0.0
 40
2.500000000000012
100
AcDbArc
 50
283.4877861017
 51
76.5122138983
  0
LINE
  5
136
330
1F
100
AcDbEntity
  8
0
  6
HIDDEN
 62
     7
370
     0
100
AcDbLine
 10
206.9507030365
 20
112.8496578569
 30
0.0
 11
206.3376748529
 21
113.0290402472
 31
0.0
  0
LWPOLYLINE
  5
137
330
1F
100
AcDbEntity
  8
0
  6
HIDDEN
 62
     7
370
     0
100
AcDbPolyline
 90
        3
 70
   128
 43
0.0
 10
205.1698876139
 20
114.4951851713
 10
205.1577189532
 20
114.5563004795
 10
205.140508112
 20
115.2075873944
  0
LWPOLYLINE
  5
138
330
1F
100
AcDbEntity
  8
0
  6
HIDDEN
 62
     7
370
     0
100
AcDbPolyline
 90
        3
 70
   128
 43
0.0
 10
209.3247429994
 20
115.1380688063
 10
209.3159438637
 20
114.6588903468
 10
209.3154875156
 20
114.6554928529
  0
LINE
  5
139
330
1F
100
AcDbEntity
  8
0
  6
HIDDEN
 62
     7
370
     0
100
AcDbLine
 10
207.1476945248
 20
112.8327841545
 30
0.0
 11
206.9507030365
 21
112.8496578569
 31
0.0
  0
CIRCLE
  5
13A
330
1F
100
AcDbEntity
  8
0
  6
HIDDEN
 62
     7
370
     0
100
AcDbCircle
 10
207.2287063655
 20
114.9368944718
 30
0.0
 40
1.695534221835442
  0
LWPOLYLINE
  5
13B
330
1F
100
AcDbEntity
  8
0
  6
HIDDEN
 62
     7
370
     0
100
AcDbPolyline
 90
        3
 70
   128
 43
0.0
 10
207.0444592801
 20
113.553576488
 10
206.5291119334
 20
113.7293837639
 10
206.2666670945
 20
113.9259559242
  0
LWPOLYLINE
  5
13C
330
1F
100
AcDbEntity
  8
0
  6
HIDDEN
 62
     7
370
     0
100
AcDbPolyline
 90
        3
 70
   128
 43
0.0
 10
205.8338386532
 20
114.9800423156
 10
205.8453889158
 20
115.1211419457
 10
205.8650118825
 20
115.2332978055
  0
LINE
  5
13D
330
1F
100
AcDbEntity
  8
0
  6
HIDDEN
 62
     7
370
     0
100
AcDbLine
 10
206.5742047098
 20
116.1694297008
 30
0.0
 11
206.8175667491
 21
116.2704910059
 31
0.0
  0
LINE
  5
13E
330
1F
100
AcDbEntity
  8
0
  6
HIDDEN
 62
     7
370
     0
100
AcDbLine
 10
208.005736914
 20
116.0960924719
 30
0.0
 11
208.1909136441
 21
115.9476722497
 31
0.0
  0
LWPOLYLINE
  5
13F
330
1F
100
AcDbEntity
  8
0
  6
HIDDEN
 62
     7
370
     0
100
AcDbPolyline
 90
        3
 70
   128
 43
0.0
 10
208.6237458107
 20
114.8997702041
 10
208.6120241847
 20
114.7526469978
 10
208.5953292963
 20
114.6543075121
  0
LWPOLYLINE
  5
140
330
1F
100
AcDbEntity
  8
0
  6
HIDDEN
 62
     7
370
     0
100
AcDbPolyline
 90
        3
 70
   128
 43
0.0
 10
207.8678918597
 20
113.6963470746
 10
207.5878562
 20
113.5883668577
 10
207.0444592801
 20
113.553576488
  0
LWPOLYLINE
  5
141
330
1F
100
AcDbEntity
  8
0
  6
HIDDEN
 62
     7
370
     0
100
AcDbPolyline
 90
       23
 70
   128
 43
0.0
 10
193.0287064579
 20
99.0795779182
 10
193.7330377814
 20
99.1747385962
 10
194.3803088334
 20
99.4525092794
 10
194.918080565
 20
99.8903892143
 10
195.3027857062
 20
100.4529024614
 10
195.503260341
 20
101.0944784759
 10
195.503260341
 20
101.7631392134
 10
195.3027857062
 20
102.4047152279
 10
194.918080565
 20
102.967228475
 10
194.3803088334
 20
103.4051084099
 10
193.7330377814
 20
103.6828800244
 10
193.0287064579
 20
103.7780407025
 10
192.3243751344
 20
103.6828800244
 10
191.6771040824
 20
103.4051084099
 10
191.1393323508
 20
102.967228475
 10
190.7546262783
 20
102.4047152279
 10
190.5541525748
 20
101.7631392134
 10
190.5541525748
 20
101.0944784759
 10
190.7546262783
 20
100.4529024614
 10
191.1393323508
 20
99.8903892143
 10
191.6771040824
 20
99.4525092794
 10
192.3243751344
 20
99.1747385962
 10
193.0287064579
 20
99.0795779182
  0
LWPOLYLINE
  5
142
330
1F
100
AcDbEntity
  8
0
  6
HIDDEN
 62
     7
370
     0
100
AcDbPolyline
 90
       25
 70
   128
 43
0.0
 10
182.3004373409
 20
101.0320342286
 10
182.483872265
 20
100.2706649853
 10
182.7671829206
 20
99.561180654
 10
183.131062292
 20
98.9519327087
 10
183.5507125188
 20
98.4844423039
 10
183.9975350131
 20
98.1905634655
 10
184.4410797176
 20
98.0903270794
 10
184.8511191611
 20
98.1905634655
 10
185.1997108724
 20
98.4844423039
 10
185.4630982098
 20
98.9519327087
 10
185.6233322587
 20
99.561180654
 10
185.6694927965
 20
100.2706649853
 10
185.598434281
 20
101.0320342286
 10
185.4149991241
 20
101.7934044031
 10
185.1316884686
 20
102.5028878031
 10
184.7678090971
 20
103.1121357484
 10
184.3481588703
 20
103.5796270845
 10
183.901336376
 20
103.8735049916
 10
183.4577916716
 20
103.9737413777
 10
183.0477517624
 20
103.8735049916
 10
182.6991605167
 20
103.5796270845
 10
182.4357729465
 20
103.1121357484
 10
182.2755393632
 20
102.5028878031
 10
182.2293788255
 20
101.7934044031
 10
182.3004373409
 20
101.0320342286
  0
LWPOLYLINE
  5
143
330
1F
100
AcDbEntity
  8
0
  6
HIDDEN
 62
     7
370
     0
100
AcDbPolyline
 90
       21
 70
   128
 43
0.0
 10
183.0634692278
 20
101.0962964175
 10
183.2263128426
 20
100.4599702684
 10
183.4862072547
 20
99.8859319044
 10
183.8177119908
 20
99.4303726731
 10
184.1883765128
 20
99.1378861619
 10
184.5619188216
 20
99.0371002955
 10
184.9017728646
 20
99.1378861619
 10
185.1746713337
 20
99.4303726731
 10
185.3539020349
 20
99.8859319044
 10
185.4219197821
 20
100.4599702684
 10
185.372067016
 20
101.0962964175
 10
185.2092229356
 20
101.7326225666
 10
184.9493285236
 20
102.3066599993
 10
184.6178242531
 20
102.7622192306
 10
184.2471592654
 20
103.0547066731
 10
183.8736174223
 20
103.1554906769
 10
183.5337633793
 20
103.0547066731
 10
183.2608644445
 20
102.7622192306
 10
183.0816337433
 20
102.3066599993
 10
183.0136159961
 20
101.7326225666
 10
183.0634692278
 20
101.0962964175
  0
ELLIPSE
  5
144
330
1F
100
AcDbEntity
  8
0
  6
HIDDEN
 62
     7
370
     0
100
AcDbEllipse
 10
193.0287063655
 20
103.2063843604
 30
0.0
 11
1.760776919379055
 21
2.232245799914452
 31
0.0
210
0.0
220
0.0
230
1.0
 40
0.5126701559
 41
1.100887047646265
 42
4.029627027608272
  0
ARC
  5
145
330
1F
100
AcDbEntity
  8
0
  6
HIDDEN
 62
     7
370
     0
100
AcDbCircle
 10
192.3321068969
 20
104.3839242416
 30
0.0
 40
0.7945949542257675
100
AcDbArc
 50
53.4208190544
 51
99.1663888759
  0
ELLIPSE
  5
146
330
1F
100
AcDbEntity
  8
0
  6
HIDDEN
 62
     7
370
     0
100
AcDbEllipse
 10
193.0287063655
 20
103.2063843604
 30
0.0
 11
1.760776919379055
 21
-1.388886188042932
 31
0.0
210
0.0
220
0.0
230
1.0
 40
0.8239737799
 41
2.54992626524851
 42
4.885930273856093
  0
ARC
  5
147
330
1F
100
AcDbEntity
  8
0
  6
HIDDEN
 62
     7
370
     0
100
AcDbCircle
 10
193.2747591274
 20
102.3669067964
 30
0.0
 40
1.353195702694788
100
AcDbArc
 50
217.8001040701
 51
249.7155767561
  0
LWPOLYLINE
  5
148
330
1F
100
AcDbEntity
  8
0
  6
HIDDEN
 62
     7
370
     0
100
AcDbPolyline
 90
       21
 70
   128
 43
0.0
 10
193.0287064579
 20
99.5052482141
 10
193.6776417833
 20
99.6018310217
 10
194.2630553213
 20
99.8821255891
 10
194.7276418623
 20
100.3186942218
 10
195.0259258565
 20
100.8688031835
 10
195.1287066158
 20
101.4786034031
 10
195.0259258565
 20
102.0884026913
 10
194.7276418623
 20
102.6385116531
 10
194.2630553213
 20
103.0750802858
 10
193.6776417833
 20
103.3553748531
 10
193.0287064579
 20
103.4519576607
 10
192.3797711324
 20
103.3553748531
 10
191.7943575945
 20
103.0750802858
 10
191.3297710535
 20
102.6385116531
 10
191.0314879906
 20
102.0884026913
 10
190.9287062999
 20
101.4786034031
 10
191.0314879906
 20
100.8688031835
 10
191.3297710535
 20
100.3186942218
 10
191.7943575945
 20
99.8821255891
 10
192.3797711324
 20
99.6018310217
 10
193.0287064579
 20
99.5052482141
  0
SPLINE
  5
149
330
1F
100
AcDbEntity
  8
0
  6
HIDDEN
 62
     7
370
     0
100
AcDbSpline
210
0.0
220
0.0
230
1.0
 70
    11
 71
     3
 72
    62
 73
    58
 74
     0
 42
0.000000001
 43
0.00000001
 40
0.0
 40
0.0
 40
0.0
 40
0.0
 40
0.0312500000000001
 40
0.0312500000000001
 40
0.0625000000000002
 40
0.0625000000000002
 40
0.1250000000000005
 40
0.1250000000000005
 40
0.1875000000000008
 40
0.1875000000000008
 40
0.2187500000000009
 40
0.2187500000000009
 40
0.2500000000000009
 40
0.2500000000000009
 40
0.281250000000001
 40
0.281250000000001
 40
0.3125000000000011
 40
0.3125000000000011
 40
0.3437500000000011
 40
0.3437500000000011
 40
0.3750000000000012
 40
0.3750000000000012
 40
0.4375000000000013
 40
0.4375000000000013
 40
0.4687500000000014
 40
0.4687500000000014
 40
0.5000000000000014
 40
0.5000000000000014
 40
0.5312500000000016
 40
0.5312500000000016
 40
0.5625000000000017
 40
0.5625000000000017
 40
0.5937500000000018
 40
0.5937500000000018
 40
0.6250000000000019
 40
0.6250000000000019
 40
0.6562500000000017
 40
0.6562500000000017
 40
0.6875000000000014
 40
0.6875000000000014
 40
0.7187500000000012
 40
0.7187500000000012
 40
0.750000000000001
 40
0.750000000000001
 40
0.7812500000000009
 40
0.7812500000000009
 40
0.8125000000000007
 40
0.8125000000000007
 40
0.8750000000000006
 40
0.8750000000000006
 40
0.9062500000000004
 40
0.9062500000000004
 40
0.9375000000000003
 40
0.9375000000000003
 40
0.9687500000000002
 40
0.9687500000000002
 40
1.0
 40
1.0
 40
1.0
 40
1.0
 10
193.0287063655031
 20
111.6997998365292
 30
0.0
 10
192.8875081415232
 20
111.6997998365292
 30
0.0
 10
192.7492302645094
 20
111.7102677729128
 30
0.0
 10
192.4780641933016
 20
111.7512912538482
 30
0.0
 10
192.3438608658421
 20
111.7824177072638
 30
0.0
 10
191.9647976860519
 20
111.9037916951756
 30
0.0
 10
191.7357907643581
 20
112.0239464691837
 30
0.0
 10
191.3547601453554
 20
112.3327253682066
 30
0.0
 10
191.1991370684337
 20
112.5248945363704
 30
0.0
 10
191.0400665918651
 20
112.8548788482086
 30
0.0
 10
190.9983394467217
 20
112.9743782115208
 30
0.0
 10
190.9430687455796
 20
113.2209626106764
 30
0.0
 10
190.9289888140898
 20
113.3481345411136
 30
0.0
 10
190.9284322477687
 20
113.6106237338098
 30
0.0
 10
190.9424215251892
 20
113.7457661025068
 30
0.0
 10
190.9969030444249
 20
114.0102511958666
 30
0.0
 10
191.0377535025798
 20
114.1424011001125
 30
0.0
 10
191.1443674694393
 20
114.3990968510343
 30
0.0
 10
191.2091196117123
 20
114.5218347354883
 30
0.0
 10
191.3606781536649
 20
114.7562054842466
 30
0.0
 10
191.4480162768379
 20
114.8680229852601
 30
0.0
 10
191.7337926977994
 20
115.1732064503884
 30
0.0
 10
191.9633290462652
 20
115.3440207695683
 30
0.0
 10
192.3396471822595
 20
115.5205311325423
 30
0.0
 10
192.4719800906202
 20
115.5670159397361
 30
0.0
 10
192.746012749611
 20
115.6301196524761
 30
0.0
 10
192.8840379092331
 20
115.6460773422205
 30
0.0
 10
193.1621092904519
 20
115.6469232110821
 30
0.0
 10
193.3038222291222
 20
115.6311985361091
 30
0.0
 10
193.5762444848026
 20
115.5697580936098
 30
0.0
 10
193.7080726292996
 20
115.5244364499235
 30
0.0
 10
193.9634715249042
 20
115.4058886469224
 30
0.0
 10
194.0836375280935
 20
115.3342015637061
 30
0.0
 10
194.3088089406499
 20
115.1694729977077
 30
0.0
 10
194.4149600019842
 20
115.0752137246729
 30
0.0
 10
194.6064072906864
 20
114.8716490505291
 30
0.0
 10
194.6923413046059
 20
114.76218176029
 30
0.0
 10
194.844753622646
 20
114.528084157806
 30
0.0
 10
194.9109371129335
 20
114.4031899349081
 30
0.0
 10
195.0171188114845
 20
114.1494581833734
 30
0.0
 10
195.0580988747003
 20
114.0192884985897
 30
0.0
 10
195.1141790154977
 20
113.7522248034608
 30
0.0
 10
195.1284031909389
 20
113.6182715734456
 30
0.0
 10
195.1289998748104
 20
113.3568148309775
 30
0.0
 10
195.115231307312
 20
113.2266974615901
 30
0.0
 10
195.06038124037
 20
112.9785066061063
 30
0.0
 10
195.0198847270935
 20
112.8611511150255
 30
0.0
 10
194.8604222559173
 20
112.5274019932858
 30
0.0
 10
194.7057538316031
 20
112.3355624213598
 30
0.0
 10
194.4174458002585
 20
112.1014398533901
 30
0.0
 10
194.3134209849107
 20
112.0332834440269
 30
0.0
 10
194.0890017267319
 20
111.9145725048028
 30
0.0
 10
193.9670709388714
 20
111.8636505684345
 30
0.0
 10
193.7146137874454
 20
111.7827007336128
 30
0.0
 10
193.5837272575283
 20
111.7521654146138
 30
0.0
 10
193.3117863398154
 20
111.7106073858694
 30
0.0
 10
193.1699045894829
 20
111.6997998365292
 30
0.0
 10
193.0287063655031
 20
111.6997998365292
 30
0.0
  0
SPLINE
  5
14A
330
1F
100
AcDbEntity
  8
0
  6
HIDDEN
 62
     7
370
     0
100
AcDbSpline
210
0.0
220
0.0
230
1.0
 70
     8
 71
     3
 72
     8
 73
     4
 74
     0
 42
0.000000001
 43
0.00000001
 40
0.0
 40
0.0
 40
0.0
 40
0.0
 40
1.0
 40
1.0
 40
1.0
 40
1.0
 10
192.2055261893438
 20
105.1683724362783
 30
0.0
 10
192.416953579345
 20
105.1608629264958
 30
0.0
 10
192.6194221258777
 20
105.1067393968612
 30
0.0
 10
192.805632725015
 20
105.022011109636
 30
0.0
  0
SPLINE
  5
14B
330
1F
100
AcDbEntity
  8
0
  6
HIDDEN
 62
     7
370
     0
100
AcDbSpline
210
0.0
220
0.0
230
1.0
 70
     8
 71
     3
 72
     8
 73
     4
 74
     0
 42
0.000000001
 43
0.00000001
 40
0.0
 40
0.0
 40
0.0
 40
0.0
 40
1.0
 40
1.0
 40
1.0
 40
1.0
 10
192.805632725015
 20
101.0976323417018
 30
0.0
 10
192.6191083757306
 20
101.2199527576022
 30
0.0
 10
192.416553477205
 20
101.361037918267
 30
0.0
 10
192.2055261893437
 20
101.5375215540518
 30
0.0
  0
LINE
  5
14C
330
1F
100
AcDbEntity
  8
0
  6
HIDDEN
 62
     7
370
     0
100
AcDbLine
 10
182.200279186
 20
79.6368929697
 30
0.0
 11
182.0287062847
 21
79.6368929697
 31
0.0
  0
ELLIPSE
  5
14D
330
1F
100
AcDbEntity
  8
0
  6
HIDDEN
 62
     7
370
     0
100
AcDbEllipse
 10
182.2002792408
 20
77.6368944718
 30
0.0
 11
0.0
 21
2.0
 31
0.0
210
0.0
220
0.0
230
1.0
 40
0.4142135624
 41
4.712388980384702
 42
6.283185307179586
  0
LINE
  5
14E
330
1F
100
AcDbEntity
  8
0
  6
HIDDEN
 62
     7
370
     0
100
AcDbLine
 10
182.0287062847
 20
152.4368959619
 30
0.0
 11
182.200279186
 21
152.4368959619
 31
0.0
  0
ELLIPSE
  5
14F
330
1F
100
AcDbEntity
  8
0
  6
HIDDEN
 62
     7
370
     0
100
AcDbEllipse
 10
182.2002792408
 20
154.4368944718
 30
0.0
 11
0.0
 21
2.0
 31
0.0
210
0.0
220
0.0
230
1.0
 40
0.4142135624
 41
3.141592653589793
 42
4.712388980384695
  0
LINE
  5
150
330
1F
100
AcDbEntity
  8
0
  6
HIDDEN
 62
     7
370
     0
100
AcDbLine
 10
183.0287062157
 20
68.7509800447
 30
0.0
 11
182.2443663668
 21
68.3034385694
 31
0.0
  0
LINE
  5
151
330
1F
100
AcDbEntity
  8
0
  6
HIDDEN
 62
     7
370
     0
100
AcDbLine
 10
182.3185753137
 20
161.6470578266
 30
0.0
 11
183.0287062157
 21
160.9369280888
 31
0.0
  0
LINE
  5
152
330
1F
100
AcDbEntity
  8
0
  6
HIDDEN
 62
     7
370
     0
100
AcDbLine
 10
182.200279186
 20
152.4368959619
 30
0.0
 11
197.8787066009
 21
152.4368959619
 31
0.0
  0
LINE
  5
153
330
1F
100
AcDbEntity
  8
0
  6
HIDDEN
 62
     7
370
     0
100
AcDbLine
 10
187.1486588907
 20
68.7509800447
 30
0.0
 11
183.0287062157
 21
68.7509800447
 31
0.0
  0
LINE
  5
154
330
1F
100
AcDbEntity
  8
0
  6
HIDDEN
 62
     7
370
     0
100
AcDbLine
 10
197.8787066009
 20
68.7509800447
 30
0.0
 11
192.7087543127
 21
68.7509800447
 31
0.0
  0
LINE
  5
155
330
1F
100
AcDbEntity
  8
0
  6
HIDDEN
 62
     7
370
     0
100
AcDbLine
 10
183.0287062157
 20
68.7509800447
 30
0.0
 11
183.0287062157
 21
77.6368926419
 31
0.0
  0
LINE
  5
156
330
1F
100
AcDbEntity
  8
0
  6
HIDDEN
 62
     7
370
     0
100
AcDbLine
 10
183.0287062157
 20
160.9369280888
 30
0.0
 11
187.2520356965
 21
160.9369280888
 31
0.0
  0
LINE
  5
157
330
1F
100
AcDbEntity
  8
0
  6
HIDDEN
 62
     7
370
     0
100
AcDbLine
 10
192.6053775069
 20
160.9369280888
 30
0.0
 11
197.8787066009
 21
160.9369280888
 31
0.0
  0
LINE
  5
158
330
1F
100
AcDbEntity
  8
0
  6
HIDDEN
 62
     7
370
     0
100
AcDbLine
 10
183.0287062157
 20
160.9369280888
 30
0.0
 11
183.0287062157
 21
154.4368962897
 31
0.0
  0
LINE
  5
159
330
1F
100
AcDbEntity
  8
0
  6
HIDDEN
 62
     7
370
     0
100
AcDbLine
 10
197.8787066009
 20
79.6368929697
 30
0.0
 11
182.200279186
 21
79.6368929697
 31
0.0
  0
LINE
  5
15A
330
1F
100
AcDbEntity
  8
0
  6
HIDDEN
 62
     7
370
     0
100
AcDbLine
 10
87.2287055072
 20
102.4368942855
 30
0.0
 11
87.2287055072
 21
127.436894658
 31
0.0
  0
LINE
  5
15B
330
1F
100
AcDbEntity
  8
0
  6
HIDDEN
 62
     7
370
     0
100
AcDbLine
 10
90.5133088645
 20
104.4368946133
 30
0.0
 11
90.5133088645
 21
125.4368943302
 31
0.0
  0
LINE
  5
15C
330
1F
100
AcDbEntity
  8
0
  6
HIDDEN
 62
     7
370
     0
100
AcDbLine
 10
139.2287065801
 20
104.4368946133
 30
0.0
 11
139.2287065801
 21
125.4368943302
 31
0.0
  0
LINE
  5
15D
330
1F
100
AcDbEntity
  8
0
  6
HIDDEN
 62
     7
370
     0
100
AcDbLine
 10
143.4547802028
 20
110.6868942408
 30
0.0
 11
143.4547802028
 21
119.1868947027
 31
0.0
  0
SPLINE
  5
15E
330
1F
100
AcDbEntity
  8
0
  6
HIDDEN
 62
     7
370
     0
100
AcDbSpline
210
0.0
220
0.0
230
1.0
 70
     8
 71
     3
 72
    32
 73
    28
 74
     0
 42
0.000000001
 43
0.00000001
 40
0.0
 40
0.0
 40
0.0
 40
0.0
 40
0.0624999999999998
 40
0.0624999999999998
 40
0.1249999999999997
 40
0.1249999999999997
 40
0.2499999999999993
 40
0.2499999999999993
 40
0.3124999999999992
 40
0.3124999999999992
 40
0.3749999999999991
 40
0.3749999999999991
 40
0.437499999999999
 40
0.437499999999999
 40
0.4999999999999989
 40
0.4999999999999989
 40
0.6250000000000002
 40
0.6250000000000002
 40
0.6875000000000002
 40
0.6875000000000002
 40
0.7500000000000001
 40
0.7500000000000001
 40
0.8125000000000001
 40
0.8125000000000001
 40
0.8750000000000001
 40
0.8750000000000001
 40
1.0
 40
1.0
 40
1.0
 40
1.0
 10
205.1287063655031
 20
114.936894471757
 30
0.0
 10
205.1287063655031
 20
115.0742856109252
 30
0.0
 10
205.1425187252397
 20
115.2138734188822
 30
0.0
 10
205.1964271738687
 20
115.4834633098627
 30
0.0
 10
205.2362689865211
 20
115.6145408780634
 30
0.0
 10
205.3948320366594
 20
115.9965880079204
 30
0.0
 10
205.5493238080865
 20
116.2275381170142
 30
0.0
 10
205.8420280484418
 20
116.5199753109094
 30
0.0
 10
205.9476786705357
 20
116.6065159810738
 30
0.0
 10
206.1748211484509
 20
116.7584306061572
 30
0.0
 10
206.2978172748606
 20
116.8243030456997
 30
0.0
 10
206.5515911407426
 20
116.9294758619308
 30
0.0
 10
206.6825089169259
 20
116.9692874221472
 30
0.0
 10
206.9525171126822
 20
117.0232003587866
 30
0.0
 10
207.0919121969969
 20
117.0369243671426
 30
0.0
 10
207.503669220477
 20
117.0368345310413
 30
0.0
 10
207.7807279959095
 20
116.9814471977362
 30
0.0
 10
208.159959355161
 20
116.824087838026
 30
0.0
 10
208.2826192179849
 20
116.7584739533546
 30
0.0
 10
208.5110157048478
 20
116.6055966221221
 30
0.0
 10
208.6164459668031
 20
116.5189565293291
 30
0.0
 10
208.8100982494833
 20
116.3253977178126
 30
0.0
 10
208.8985445172035
 20
116.2176475430347
 30
0.0
 10
209.0504946284952
 20
115.990353254665
 30
0.0
 10
209.1151178858663
 20
115.8699075285754
 30
0.0
 10
209.273992429633
 20
115.4873961241488
 30
0.0
 10
209.3287063655031
 20
115.2141471582931
 30
0.0
 10
209.3287063655031
 20
114.936894471757
 30
0.0
  0
SPLINE
  5
15F
330
1F
100
AcDbEntity
  8
0
  6
HIDDEN
 62
     7
370
     0
100
AcDbSpline
210
0.0
220
0.0
230
1.0
 70
     8
 71
     3
 72
    34
 73
    30
 74
     0
 42
0.000000001
 43
0.00000001
 40
0.0
 40
0.0
 40
0.0
 40
0.0
 40
0.0624999999999996
 40
0.0624999999999996
 40
0.1249999999999991
 40
0.1249999999999991
 40
0.1874999999999986
 40
0.1874999999999986
 40
0.2499999999999981
 40
0.2499999999999981
 40
0.3749999999999982
 40
0.3749999999999982
 40
0.4374999999999982
 40
0.4374999999999982
 40
0.4999999999999982
 40
0.4999999999999982
 40
0.5624999999999982
 40
0.5624999999999982
 40
0.6249999999999982
 40
0.6249999999999982
 40
0.6874999999999982
 40
0.6874999999999982
 40
0.7499999999999982
 40
0.7499999999999982
 40
0.8749999999999994
 40
0.8749999999999994
 40
0.9374999999999998
 40
0.9374999999999998
 40
1.0
 40
1.0
 40
1.0
 40
1.0
 10
209.3287063655031
 20
114.936894471757
 30
0.0
 10
209.3287063655031
 20
114.7982737912528
 30
0.0
 10
209.3151147620925
 20
114.6616836453421
 30
0.0
 10
209.2615387213671
 20
114.3924373023788
 30
0.0
 10
209.2208485858388
 20
114.2585027997578
 30
0.0
 10
209.115576770603
 20
114.0049256090583
 30
0.0
 10
209.0511003955507
 20
113.884380025054
 30
0.0
 10
208.8982986932231
 20
113.6557355743168
 30
0.0
 10
208.8101867294797
 20
113.5485367185134
 30
0.0
 10
208.5207575129807
 20
113.259076423564
 30
0.0
 10
208.2871531192283
 20
113.1026281262861
 30
0.0
 10
207.9082061923116
 20
112.9451639115363
 30
0.0
 10
207.7748337449337
 20
112.9044490839362
 30
0.0
 10
207.5038394020185
 20
112.8504162951983
 30
0.0
 10
207.3665000765438
 20
112.8368061087037
 30
0.0
 10
207.0882323525788
 20
112.8369836900505
 30
0.0
 10
206.9515027211811
 20
112.8507609160018
 30
0.0
 10
206.6826317185954
 20
112.90450731551
 30
0.0
 10
206.5490698723475
 20
112.945157103295
 30
0.0
 10
206.2950508169519
 20
113.0508375202265
 30
0.0
 10
206.1746348624719
 20
113.1154303353352
 30
0.0
 10
205.9467492152198
 20
113.2679474388615
 30
0.0
 10
205.8391849244547
 20
113.3564275187135
 30
0.0
 10
205.5497319176431
 20
113.6463026297654
 30
0.0
 10
205.3935304806268
 20
113.8800630314927
 30
0.0
 10
205.2364555976468
 20
114.2589360044696
 30
0.0
 10
205.1959919338192
 20
114.391739329219
 30
0.0
 10
205.1420580888352
 20
114.6629947461444
 30
0.0
 10
205.1287063655031
 20
114.7995089448956
 30
0.0
 10
205.1287063655031
 20
114.936894471757
 30
0.0
  0
LINE
  5
160
330
1F
100
AcDbEntity
  8
0
  6
HIDDEN
 62
     7
370
     0
100
AcDbLine
 10
212.5787077066
 20
110.8301055757
 30
0.0
 11
212.5787077066
 21
119.0436833678
 31
0.0
  0
LINE
  5
161
330
1F
100
AcDbEntity
  8
0
  6
HIDDEN
 62
     7
370
     0
100
AcDbLine
 10
210.5787073788
 20
113.2414962305
 30
0.0
 11
210.5787073788
 21
116.632292713
 31
0.0
  0
LINE
  5
162
330
1F
100
AcDbEntity
  8
0
  6
HIDDEN
 62
     7
370
     0
100
AcDbLine
 10
211.2796691772
 20
113.2414962305
 30
0.0
 11
211.2796691772
 21
116.632292713
 31
0.0
  0
LINE
  5
163
330
1F
100
AcDbEntity
  8
0
  6
HIDDEN
 62
     7
370
     0
100
AcDbLine
 10
212.8962626275
 20
122.027886766
 30
0.0
 11
212.8237871048
 21
122.0167965768
 31
0.0
  0
LINE
  5
164
330
1F
100
AcDbEntity
  8
0
  6
HIDDEN
 62
     7
370
     0
100
AcDbLine
 10
210.5787073788
 20
122.0167965768
 30
0.0
 11
212.8237871048
 21
122.0167965768
 31
0.0
  0
LINE
  5
165
330
1F
100
AcDbEntity
  8
0
  6
HIDDEN
 62
     7
370
     0
100
AcDbLine
 10
210.5787073788
 20
122.036894518
 30
0.0
 11
210.5787073788
 21
119.8368945299
 31
0.0
  0
LINE
  5
166
330
1F
100
AcDbEntity
  8
0
  6
HIDDEN
 62
     7
370
     0
100
AcDbLine
 10
210.5787073788
 20
116.632292713
 30
0.0
 11
211.2796691772
 21
116.632292713
 31
0.0
  0
LINE
  5
167
330
1F
100
AcDbEntity
  8
0
  6
HIDDEN
 62
     7
370
     0
100
AcDbLine
 10
210.5787073788
 20
119.8368945299
 30
0.0
 11
210.5787073788
 21
116.632292713
 31
0.0
  0
SPLINE
  5
168
330
1F
100
AcDbEntity
  8
0
  6
HIDDEN
 62
     7
370
     0
100
AcDbSpline
210
0.0
220
0.0
230
1.0
 70
     8
 71
     3
 72
    10
 73
     6
 74
     0
 42
0.000000001
 43
0.00000001
 40
0.0
 40
0.0
 40
0.0
 40
0.0
 40
0.5
 40
0.5
 40
1.0
 40
1.0
 40
1.0
 40
1.0
 10
211.2796682598264
 20
116.6322926550755
 30
0.0
 10
211.4403227768388
 20
116.9879026481237
 30
0.0
 10
211.6379251023179
 20
117.3230048421324
 30
0.0
 10
212.0800392979602
 20
117.9671721915449
 30
0.0
 10
212.3243151416087
 20
118.2750380715248
 30
0.0
 10
212.5787063655031
 20
118.568268178772
 30
0.0
  0
LINE
  5
169
330
1F
100
AcDbEntity
  8
0
  6
HIDDEN
 62
     7
370
     0
100
AcDbLine
 10
211.2796691772
 20
113.2414962305
 30
0.0
 11
210.5787073788
 21
113.2414962305
 31
0.0
  0
LINE
  5
16A
330
1F
100
AcDbEntity
  8
0
  6
HIDDEN
 62
     7
370
     0
100
AcDbLine
 10
210.5787073788
 20
113.2414962305
 30
0.0
 11
210.5787073788
 21
110.0368944136
 31
0.0
  0
SPLINE
  5
16B
330
1F
100
AcDbEntity
  8
0
  6
HIDDEN
 62
     7
370
     0
100
AcDbSpline
210
0.0
220
0.0
230
1.0
 70
     8
 71
     3
 72
    10
 73
     6
 74
     0
 42
0.000000001
 43
0.00000001
 40
0.0
 40
0.0
 40
0.0
 40
0.0
 40
0.5
 40
0.5
 40
1.0
 40
1.0
 40
1.0
 40
1.0
 10
212.5787063655028
 20
111.3055207647417
 30
0.0
 10
212.3224055003721
 20
111.6009520654734
 30
0.0
 10
212.077979094237
 20
111.9094306014541
 30
0.0
 10
211.637398778752
 20
112.5517399688822
 30
0.0
 10
211.4402141021922
 20
112.8861268475454
 30
0.0
 10
211.2796682598263
 20
113.2414962884383
 30
0.0
  0
LINE
  5
16C
330
1F
100
AcDbEntity
  8
0
  6
HIDDEN
 62
     7
370
     0
100
AcDbLine
 10
212.8237871048
 20
107.8569923667
 30
0.0
 11
212.8962626275
 21
107.8459021775
 31
0.0
  0
LINE
  5
16D
330
1F
100
AcDbEntity
  8
0
  6
HIDDEN
 62
     7
370
     0
100
AcDbLine
 10
210.5787073788
 20
107.8569923667
 30
0.0
 11
212.8237871048
 21
107.8569923667
 31
0.0
  0
LINE
  5
16E
330
1F
100
AcDbEntity
  8
0
  6
HIDDEN
 62
     7
370
     0
100
AcDbLine
 10
210.5787073788
 20
110.0368944136
 30
0.0
 11
210.5787073788
 21
107.8368944256
 31
0.0
  0
LINE
  5
16F
330
1F
100
AcDbEntity
  8
0
  6
HIDDEN
 62
     7
370
     0
100
AcDbLine
 10
210.0787063655
 20
109.4368945016
 30
0.0
 11
210.0787063655
 21
120.436894442
 31
0.0
  0
LINE
  5
170
330
1F
100
AcDbEntity
  8
0
  6
HIDDEN
 62
     7
370
     0
100
AcDbLine
 10
200.9287060764
 20
109.8368942877
 30
0.0
 11
200.9287060764
 21
120.0368941901
 31
0.0
  0
LINE
  5
171
330
1F
100
AcDbEntity
  8
0
  6
HIDDEN
 62
     7
370
     0
100
AcDbLine
 10
202.9287064042
 20
109.4368945016
 30
0.0
 11
202.9287064042
 21
120.436894442
 31
0.0
  0
SPLINE
  5
172
330
1F
100
AcDbEntity
  8
0
  6
HIDDEN
 62
     7
370
     0
100
AcDbSpline
210
0.0
220
0.0
230
1.0
 70
    11
 71
     3
 72
    62
 73
    58
 74
     0
 42
0.000000001
 43
0.00000001
 40
0.0
 40
0.0
 40
0.0
 40
0.0
 40
0.0312500000000002
 40
0.0312500000000002
 40
0.0625000000000004
 40
0.0625000000000004
 40
0.1250000000000009
 40
0.1250000000000009
 40
0.1875000000000011
 40
0.1875000000000011
 40
0.218750000000001
 40
0.218750000000001
 40
0.2500000000000009
 40
0.2500000000000009
 40
0.2812500000000008
 40
0.2812500000000008
 40
0.3125000000000008
 40
0.3125000000000008
 40
0.3437500000000008
 40
0.3437500000000008
 40
0.3750000000000008
 40
0.3750000000000008
 40
0.4375000000000007
 40
0.4375000000000007
 40
0.4687500000000006
 40
0.4687500000000006
 40
0.5000000000000006
 40
0.5000000000000006
 40
0.5312500000000006
 40
0.5312500000000006
 40
0.5625000000000006
 40
0.5625000000000006
 40
0.5937500000000006
 40
0.5937500000000006
 40
0.6250000000000006
 40
0.6250000000000006
 40
0.6562500000000006
 40
0.6562500000000006
 40
0.6875000000000006
 40
0.6875000000000006
 40
0.7187500000000006
 40
0.7187500000000006
 40
0.7500000000000006
 40
0.7500000000000006
 40
0.7812500000000006
 40
0.7812500000000006
 40
0.8125000000000006
 40
0.8125000000000006
 40
0.8750000000000006
 40
0.8750000000000006
 40
0.9062500000000004
 40
0.9062500000000004
 40
0.9375000000000003
 40
0.9375000000000003
 40
0.9687500000000002
 40
0.9687500000000002
 40
1.0
 40
1.0
 40
1.0
 40
1.0
 10
193.0287063655031
 20
114.2272800996839
 30
0.0
 10
193.1699045894829
 20
114.2272800996839
 30
0.0
 10
193.3081824664967
 20
114.2432915096754
 30
0.0
 10
193.5793485377046
 20
114.3050210752983
 30
0.0
 10
193.7135518651641
 20
114.351558838753
 30
0.0
 10
194.0926150449543
 20
114.528535167488
 30
0.0
 10
194.3216219666481
 20
114.6989614611972
 30
0.0
 10
194.7026525856508
 20
115.1048477386205
 30
0.0
 10
194.8582756625725
 20
115.3445181799565
 30
0.0
 10
195.0173461391411
 20
115.7249950072731
 30
0.0
 10
195.0590732842845
 20
115.8582637425782
 30
0.0
 10
195.1143439854265
 20
116.123244978207
 30
0.0
 10
195.1284239169163
 20
116.2552102929249
 30
0.0
 10
195.1289804832375
 20
116.5178876027391
 30
0.0
 10
195.1149912058169
 20
116.6482674666966
 30
0.0
 10
195.0605096865812
 20
116.8946113974198
 30
0.0
 10
195.0196592284263
 20
117.0132656674026
 30
0.0
 10
194.9130452615669
 20
117.236091934158
 30
0.0
 10
194.8482931192939
 20
117.3387770451424
 30
0.0
 10
194.6967345773413
 20
117.5289002980558
 30
0.0
 10
194.6093964541683
 20
117.6164070892751
 30
0.0
 10
194.3236200332067
 20
117.8486745847238
 30
0.0
 10
194.0940836847409
 20
117.9691233273663
 30
0.0
 10
193.7177655487467
 20
118.090219919668
 30
0.0
 10
193.585432640386
 20
118.1213280531042
 30
0.0
 10
193.3113999813951
 20
118.1632752926598
 30
0.0
 10
193.173374821773
 20
118.1737055272695
 30
0.0
 10
192.8953034405543
 20
118.1742614261363
 30
0.0
 10
192.7535905018839
 20
118.1639829673062
 30
0.0
 10
192.4811682462036
 20
118.1231597826131
 30
0.0
 10
192.3493401017065
 20
118.0928664467383
 30
0.0
 10
192.0939412061019
 20
118.0115992564474
 30
0.0
 10
191.9737752029126
 20
117.9616514055891
 30
0.0
 10
191.7486037903563
 20
117.8433301943911
 30
0.0
 10
191.6424527290219
 20
117.7740370853086
 30
0.0
 10
191.4510054403197
 20
117.6192224367148
 30
0.0
 10
191.3650714264002
 20
117.5336364488442
 30
0.0
 10
191.2126591083602
 20
117.3439527767671
 30
0.0
 10
191.1464756180727
 20
117.2395315156966
 30
0.0
 10
191.0402939195216
 20
117.0195001758892
 30
0.0
 10
190.9993138563058
 20
116.9028516897798
 30
0.0
 10
190.9432337155085
 20
116.6544503087905
 30
0.0
 10
190.9290095400672
 20
116.5253403199863
 30
0.0
 10
190.9284128561957
 20
116.2640852541542
 30
0.0
 10
190.9421814236941
 20
116.1292789634815
 30
0.0
 10
190.9970314906362
 20
115.8628238491271
 30
0.0
 10
191.0375280039127
 20
115.7320899144285
 30
0.0
 10
191.1969904750888
 20
115.3476744604249
 30
0.0
 10
191.351658899403
 20
115.1085154285481
 30
0.0
 10
191.6399669307476
 20
114.8008560691043
 30
0.0
 10
191.7439917460955
 20
114.70818295234
 30
0.0
 10
191.9684110042742
 20
114.5430401097004
 30
0.0
 10
192.0903417921347
 20
114.4699992410212
 30
0.0
 10
192.3427989435607
 20
114.3519773247488
 30
0.0
 10
192.4736854734779
 20
114.3063296191311
 30
0.0
 10
192.7456263911907
 20
114.2438091796639
 30
0.0
 10
192.8875081415232
 20
114.2272800996839
 30
0.0
 10
193.0287063655031
 20
114.2272800996839
 30
0.0
  0
LINE
  5
173
330
1F
100
AcDbEntity
  8
0
  6
HIDDEN
 62
     7
370
     0
100
AcDbLine
 10
212.8237871048
 20
106.9118945999
 30
0.0
 11
212.8237871048
 21
107.8569923667
 31
0.0
  0
LINE
  5
174
330
1F
100
AcDbEntity
  8
0
  6
HIDDEN
 62
     7
370
     0
100
AcDbLine
 10
212.8237871048
 20
122.0167965768
 30
0.0
 11
212.8237871048
 21
122.9618943436
 31
0.0
  0
LINE
  5
175
330
1F
100
AcDbEntity
  8
0
  6
HIDDEN
 62
     7
370
     0
100
AcDbLine
 10
210.5787073788
 20
122.9618943436
 30
0.0
 11
210.5787073788
 21
122.0167965768
 31
0.0
  0
LINE
  5
176
330
1F
100
AcDbEntity
  8
0
  6
HIDDEN
 62
     7
370
     0
100
AcDbLine
 10
210.5787073788
 20
107.8569923667
 30
0.0
 11
210.5787073788
 21
106.9118945999
 31
0.0
  0
SPLINE
  5
177
330
1F
100
AcDbEntity
  8
0
  6
HIDDEN
 62
     7
370
     0
100
AcDbSpline
210
0.0
220
0.0
230
1.0
 70
     8
 71
     3
 72
     8
 73
     4
 74
     0
 42
0.000000001
 43
0.00000001
 40
0.0
 40
0.0
 40
0.0
 40
0.0
 40
1.0
 40
1.0
 40
1.0
 40
1.0
 10
192.2055261893436
 20
124.7054165072356
 30
0.0
 10
192.4169535793449
 20
124.7129260170181
 30
0.0
 10
192.6194221258776
 20
124.7670495466527
 30
0.0
 10
192.8056327250149
 20
124.8517778338779
 30
0.0
  0
ELLIPSE
  5
178
330
1F
100
AcDbEntity
  8
0
  6
HIDDEN
 62
     7
370
     0
100
AcDbEllipse
 10
193.0287063655
 20
126.6674045831
 30
0.0
 11
-1.760776919379055
 21
2.232245799914452
 31
0.0
210
0.0
220
0.0
230
1.0
 40
0.5126701559
 41
5.395150933160656
 42
8.323890913123112
  0
SPLINE
  5
179
330
1F
100
AcDbEntity
  8
0
  6
HIDDEN
 62
     7
370
     0
100
AcDbSpline
210
0.0
220
0.0
230
1.0
 70
     8
 71
     3
 72
     8
 73
     4
 74
     0
 42
0.000000001
 43
0.00000001
 40
0.0
 40
0.0
 40
0.0
 40
0.0
 40
1.0
 40
1.0
 40
1.0
 40
1.0
 10
192.8056327250159
 20
128.7761566018127
 30
0.0
 10
192.619108375731
 20
128.6538361859119
 30
0.0
 10
192.4165534772048
 20
128.5127510252468
 30
0.0
 10
192.2055261893429
 20
128.3362673894613
 30
0.0
  0
ELLIPSE
  5
17A
330
1F
100
AcDbEntity
  8
0
  6
HIDDEN
 62
     7
370
     0
100
AcDbEllipse
 10
193.0287063655
 20
126.6674045831
 30
0.0
 11
1.760776919379055
 21
1.388886188042946
 31
0.0
210
0.0
220
0.0
230
1.0
 40
0.8239737799
 41
1.397255033323985
 42
3.733259041931034
  0
LWPOLYLINE
  5
17B
330
1F
100
AcDbEntity
  8
0
  6
HIDDEN
 62
     7
370
     0
100
AcDbPolyline
 90
       21
 70
   128
 43
0.0
 10
193.0287064579
 20
126.4218312828
 10
193.6776417833
 20
126.5184140904
 10
194.2630553213
 20
126.7987086577
 10
194.7276418623
 20
127.2352772905
 10
195.0259258565
 20
127.7853862522
 10
195.1287066158
 20
128.3951855404
 10
195.0259258565
 20
129.00498576
 10
194.7276418623
 20
129.5550947217
 10
194.2630553213
 20
129.9916633544
 10
193.6776417833
 20
130.2719579218
 10
193.0287064579
 20
130.3685407294
 10
192.3797711324
 20
130.2719579218
 10
191.7943575945
 20
129.9916633544
 10
191.3297710535
 20
129.5550947217
 10
191.0314879906
 20
129.00498576
 10
190.9287062999
 20
128.3951855404
 10
191.0314879906
 20
127.7853862522
 10
191.3297710535
 20
127.2352772905
 10
191.7943575945
 20
126.7987086577
 10
192.3797711324
 20
126.5184140904
 10
193.0287064579
 20
126.4218312828
  0
LINE
  5
17C
330
1F
100
AcDbEntity
  8
0
  6
HIDDEN
 62
     7
370
     0
100
AcDbLine
 10
188.0187060278
 20
150.3299388243
 30
0.0
 11
188.0187060278
 21
144.7868949873
 31
0.0
  0
LINE
  5
17D
330
1F
100
AcDbEntity
  8
0
  6
HIDDEN
 62
     7
370
     0
100
AcDbLine
 10
191.8387062442
 20
150.3299388243
 30
0.0
 11
191.8387062442
 21
144.7868949873
 31
0.0
  0
SPLINE
  5
17E
330
1F
100
AcDbEntity
  8
0
  6
HIDDEN
 62
     7
370
     0
100
AcDbSpline
210
0.0
220
0.0
230
1.0
 70
     8
 71
     3
 72
    14
 73
    10
 74
     0
 42
0.000000001
 43
0.00000001
 40
0.0
 40
0.0
 40
0.0
 40
0.0
 40
0.25
 40
0.25
 40
0.5
 40
0.5
 40
0.75
 40
0.75
 40
1.0
 40
1.0
 40
1.0
 40
1.0
 10
191.0387063655029
 20
131.9121840286908
 30
0.0
 10
191.1131319176375
 20
132.0030414834724
 30
0.0
 10
191.1950101772509
 20
132.0922520666781
 30
0.0
 10
191.3679963234265
 20
132.2676763854701
 30
0.0
 10
191.4586681432876
 20
132.3532113410968
 30
0.0
 10
191.6260316926319
 20
132.5140629540353
 30
0.0
 10
191.7024825175984
 20
132.5897950429317
 30
0.0
 10
191.8087756024368
 20
132.7213860665072
 30
0.0
 10
191.8387063655031
 20
132.7783862414134
 30
0.0
 10
191.8387063655031
 20
132.8205835143656
 30
0.0
  0
LINE
  5
17F
330
1F
100
AcDbEntity
  8
0
  6
HIDDEN
 62
     7
370
     0
100
AcDbLine
 10
191.8387062442
 20
101.1396327196
 30
0.0
 11
191.8387062442
 21
97.0075919433
 31
0.0
  0
SPLINE
  5
180
330
1F
100
AcDbEntity
  8
0
  6
HIDDEN
 62
     7
370
     0
100
AcDbSpline
210
0.0
220
0.0
230
1.0
 70
     8
 71
     3
 72
    14
 73
    10
 74
     0
 42
0.000000001
 43
0.00000001
 40
0.0
 40
0.0
 40
0.0
 40
0.0
 40
0.25
 40
0.25
 40
0.5
 40
0.5
 40
0.75
 40
0.75
 40
1.0
 40
1.0
 40
1.0
 40
1.0
 10
191.8387063655031
 20
128.688542315734
 30
0.0
 10
191.8387063655031
 20
128.6460418980795
 30
0.0
 10
191.8089929066863
 20
128.6187699915968
 30
0.0
 10
191.7029115397942
 20
128.6052172176297
 30
0.0
 10
191.6265446106297
 20
128.6196627747706
 30
0.0
 10
191.4577850661011
 20
128.6920389387905
 30
0.0
 10
191.3669882536293
 20
128.7491118739079
 30
0.0
 10
191.1954233134219
 20
128.8902698074248
 30
0.0
 10
191.1133620731274
 20
128.9748470225084
 30
0.0
 10
191.0387063655029
 20
129.0682201856376
 30
0.0
  0
LINE
  5
181
330
1F
100
AcDbEntity
  8
0
  6
HIDDEN
 62
     7
370
     0
100
AcDbLine
 10
186.6955453124
 20
153.4479732765
 30
0.0
 11
186.6955453124
 21
144.7868949873
 31
0.0
  0
LINE
  5
182
330
1F
100
AcDbEntity
  8
0
  6
HIDDEN
 62
     7
370
     0
100
AcDbLine
 10
193.1618678909
 20
100.6397471903
 30
0.0
 11
193.1618678909
 21
95.947953607
 31
0.0
  0
LINE
  5
183
330
1F
100
AcDbEntity
  8
0
  6
HIDDEN
 62
     7
370
     0
100
AcDbLine
 10
193.1618678909
 20
153.4479732765
 30
0.0
 11
193.1618678909
 21
144.7868949873
 31
0.0
  0
ARC
  5
184
330
1F
100
AcDbEntity
  8
0
  6
HIDDEN
 62
     7
370
     0
100
AcDbCircle
 10
193.2747591274
 20
127.5068821471
 30
0.0
 40
1.353195702694776
100
AcDbArc
 50
110.2844232439
 51
142.1998959299
  0
ARC
  5
185
330
1F
100
AcDbEntity
  8
0
  6
HIDDEN
 62
     7
370
     0
100
AcDbCircle
 10
192.3321068969
 20
125.489864702
 30
0.0
 40
0.7945949542257815
100
AcDbArc
 50
260.8336111241
 51
306.5791809456
  0
LWPOLYLINE
  5
186
330
1F
100
AcDbEntity
  8
0
  6
HIDDEN
 62
     7
370
     0
100
AcDbPolyline
 90
       21
 70
   128
 43
0.0
 10
183.0634692278
 20
127.6498462213
 10
183.2263128426
 20
127.1726039378
 10
183.4862072547
 20
126.8524590088
 10
183.8177119908
 20
126.720750439
 10
184.1883765128
 20
126.7903695954
 10
184.5619188216
 20
127.0545029221
 10
184.9017728646
 20
127.4872941105
 10
185.1746713337
 20
128.0463791592
 10
185.3539020349
 20
128.6770298285
 10
185.4219197821
 20
129.3175152643
 10
185.372067016
 20
129.905139762
 10
185.2092229356
 20
130.3823820455
 10
184.9493285236
 20
130.7025260432
 10
184.6178242531
 20
130.8342355443
 10
184.2471592654
 20
130.7646154566
 10
183.8736174223
 20
130.5004830612
 10
183.5337633793
 20
130.0676918728
 10
183.2608644445
 20
129.5086068241
 10
183.0816337433
 20
128.8779552234
 10
183.0136159961
 20
128.2374697877
 10
183.0634692278
 20
127.6498462213
  0
LWPOLYLINE
  5
187
330
1F
100
AcDbEntity
  8
0
  6
HIDDEN
 62
     7
370
     0
100
AcDbPolyline
 90
       25
 70
   128
 43
0.0
 10
182.3004373409
 20
127.2308302252
 10
182.483872265
 20
126.6486604838
 10
182.7671829206
 20
126.2159456639
 10
183.131062292
 20
125.9621760948
 10
183.5507125188
 20
125.904644574
 10
183.9975350131
 20
126.0472729011
 10
184.4410797176
 20
126.3803399308
 10
184.8511191611
 20
126.8811484007
 10
185.1997108724
 20
127.5155690638
 10
185.4630982098
 20
128.2403671322
 10
185.6233322587
 20
129.0061480505
 10
185.6694927965
 20
129.7607270209
 10
185.598434281
 20
130.4526792048
 10
185.4149991241
 20
131.0348480148
 10
185.1316884686
 20
131.4675628347
 10
184.7678090971
 20
131.7213333352
 10
184.3481588703
 20
131.7788648559
 10
183.901336376
 20
131.6362365289
 10
183.4577916716
 20
131.3031694992
 10
183.0477517624
 20
130.8023600979
 10
182.6991605167
 20
130.1679403661
 10
182.4357729465
 20
129.4431422977
 10
182.2755393632
 20
128.6773604481
 10
182.2293788255
 20
127.922782409
 10
182.3004373409
 20
127.2308302252
  0
LWPOLYLINE
  5
188
330
1F
100
AcDbEntity
  8
0
  6
HIDDEN
 62
     7
370
     0
100
AcDbPolyline
 90
       23
 70
   128
 43
0.0
 10
193.0287064579
 20
126.0957482411
 10
193.7330377814
 20
126.1909089191
 10
194.3803088334
 20
126.4686805336
 10
194.918080565
 20
126.9065604685
 10
195.3027857062
 20
127.4690737156
 10
195.503260341
 20
128.1106497301
 10
195.503260341
 20
128.7793104677
 10
195.3027857062
 20
129.4208864821
 10
194.918080565
 20
129.9833997292
 10
194.3803088334
 20
130.4212796642
 10
193.7330377814
 20
130.6990503473
 10
193.0287064579
 20
130.7942110253
 10
192.3243751344
 20
130.6990503473
 10
191.6771040824
 20
130.4212796642
 10
191.1393323508
 20
129.9833997292
 10
190.7546262783
 20
129.4208864821
 10
190.5541525748
 20
128.7793104677
 10
190.5541525748
 20
128.1106497301
 10
190.7546262783
 20
127.4690737156
 10
191.1393323508
 20
126.9065604685
 10
191.6771040824
 20
126.4686805336
 10
192.3243751344
 20
126.1909089191
 10
193.0287064579
 20
126.0957482411
  0
SPLINE
  5
189
330
1F
100
AcDbEntity
  8
0
  6
HIDDEN
 62
     7
370
     0
100
AcDbSpline
210
0.0
220
0.0
230
1.0
 70
     8
 71
     3
 72
    34
 73
    30
 74
     0
 42
0.000000001
 43
0.00000001
 40
0.0
 40
0.0
 40
0.0
 40
0.0
 40
0.062499999999999
 40
0.062499999999999
 40
0.124999999999998
 40
0.124999999999998
 40
0.1874999999999971
 40
0.1874999999999971
 40
0.2499999999999966
 40
0.2499999999999966
 40
0.3124999999999962
 40
0.3124999999999962
 40
0.3749999999999957
 40
0.3749999999999957
 40
0.4999999999999958
 40
0.4999999999999958
 40
0.6249999999999958
 40
0.6249999999999958
 40
0.6874999999999964
 40
0.6874999999999964
 40
0.7499999999999971
 40
0.7499999999999971
 40
0.8124999999999979
 40
0.8124999999999979
 40
0.8749999999999986
 40
0.8749999999999986
 40
0.9374999999999992
 40
0.9374999999999992
 40
1.0
 40
1.0
 40
1.0
 40
1.0
 10
193.161867872965
 20
133.9258348597581
 30
0.0
 10
193.3212597007528
 20
133.9179947638353
 30
0.0
 10
193.4772621841964
 20
133.8963361157449
 30
0.0
 10
193.7827717002736
 20
133.8264878882521
 30
0.0
 10
193.9336660352859
 20
133.7776621859238
 30
0.0
 10
194.2215653799767
 20
133.6547382325166
 30
0.0
 10
194.3575117829364
 20
133.5814307243822
 30
0.0
 10
194.6136943985284
 20
133.4114201006109
 30
0.0
 10
194.7348766862875
 20
133.3135463084094
 30
0.0
 10
194.9520227581603
 20
133.1009621329775
 30
0.0
 10
195.0489846311206
 20
132.9859161944479
 30
0.0
 10
195.2195470669462
 20
132.7380550743277
 30
0.0
 10
195.2927871201581
 20
132.6050215772621
 30
0.0
 10
195.4676675769069
 20
132.195513561132
 30
0.0
 10
195.5287055378829
 20
131.8975529113569
 30
0.0
 10
195.528707193106
 20
131.3061113554825
 30
0.0
 10
195.4676725835197
 20
131.0059378055059
 30
0.0
 10
195.2927828161178
 20
130.5907065252381
 30
0.0
 10
195.2195391106934
 20
130.4553514069913
 30
0.0
 10
195.0489783949567
 20
130.2024520756047
 30
0.0
 10
194.9520146793632
 20
130.0846867979969
 30
0.0
 10
194.7348543507761
 20
129.8665565026283
 30
0.0
 10
194.6136730920892
 20
129.7658531774813
 30
0.0
 10
194.3575028651505
 20
129.5906094846481
 30
0.0
 10
194.2215595154878
 20
129.5148645155575
 30
0.0
 10
193.9336568123047
 20
129.3876961402552
 30
0.0
 10
193.7827666163879
 20
129.3370948679277
 30
0.0
 10
193.4772611126823
 20
129.2646657681799
 30
0.0
 10
193.3212597144188
 20
129.2421799967829
 30
0.0
 10
193.161867872965
 20
129.234041536888
 30
0.0
  0
SPLINE
  5
18A
330
1F
100
AcDbEntity
  8
0
  6
HIDDEN
 62
     7
370
     0
100
AcDbSpline
210
0.0
220
0.0
230
1.0
 70
     8
 71
     3
 72
    10
 73
     6
 74
     0
 42
0.000000001
 43
0.00000001
 40
0.0
 40
0.0
 40
0.0
 40
0.0
 40
0.5
 40
0.5
 40
1.0
 40
1.0
 40
1.0
 40
1.0
 10
193.161867872965
 20
129.234041536888
 30
0.0
 10
192.9391408460915
 20
129.0905530365943
 30
0.0
 10
192.7174549588665
 20
128.9758322908614
 30
0.0
 10
192.2762341210145
 20
128.8060718615035
 30
0.0
 10
192.0566754736157
 20
128.7506518671162
 30
0.0
 10
191.8387063655034
 20
128.7341565377465
 30
0.0
  0
SPLINE
  5
18B
330
1F
100
AcDbEntity
  8
0
  6
HIDDEN
 62
     7
370
     0
100
AcDbSpline
210
0.0
220
0.0
230
1.0
 70
     8
 71
     3
 72
    10
 73
     6
 74
     0
 42
0.000000001
 43
0.00000001
 40
0.0
 40
0.0
 40
0.0
 40
0.0
 40
0.5
 40
0.5
 40
1.0
 40
1.0
 40
1.0
 40
1.0
 10
191.8387063655034
 20
132.866197736378
 30
0.0
 10
192.0555971980241
 20
133.1032366758266
 30
0.0
 10
192.274749834683
 20
133.3054069108201
 30
0.0
 10
192.7162343349519
 20
133.6561589823388
 30
0.0
 10
192.9394368002253
 20
133.8048350747356
 30
0.0
 10
193.161867872965
 20
133.9258348597581
 30
0.0
  0
SPLINE
  5
18C
330
1F
100
AcDbEntity
  8
0
  6
HIDDEN
 62
     7
370
     0
100
AcDbSpline
210
0.0
220
0.0
230
1.0
 70
     8
 71
     3
 72
    16
 73
    12
 74
     0
 42
0.000000001
 43
0.00000001
 40
0.0
 40
0.0
 40
0.0
 40
0.0
 40
0.2499999999999996
 40
0.2499999999999996
 40
0.4999999999999991
 40
0.4999999999999991
 40
0.7500000000000001
 40
0.7500000000000001
 40
0.875
 40
0.875
 40
1.0
 40
1.0
 40
1.0
 40
1.0
 10
191.0387063655031
 20
129.0682201856374
 30
0.0
 10
190.8732922590229
 20
129.2751064216627
 30
0.0
 10
190.7470949280473
 20
129.5009751194717
 30
0.0
 10
190.5726886297164
 20
129.9898443650845
 30
0.0
 10
190.5288585906196
 20
130.241611418429
 30
0.0
 10
190.5285549176496
 20
130.7533907430113
 30
0.0
 10
190.5724117777099
 20
131.0044454520939
 30
0.0
 10
190.7023335369771
 20
131.365294020236
 30
0.0
 10
190.756448348385
 20
131.4825667885845
 30
0.0
 10
190.8831253385284
 20
131.7050557399233
 30
0.0
 10
190.9559990588893
 20
131.8112163481668
 30
0.0
 10
191.0387063655031
 20
131.912184028691
 30
0.0
  0
LINE
  5
18D
330
1F
100
AcDbEntity
  8
0
  6
HIDDEN
 62
     7
370
     0
100
AcDbLine
 10
190.5287060481
 20
99.8862979142
 30
0.0
 11
190.5287060481
 21
99.6981865866
 31
0.0
  0
LINE
  5
18E
330
1F
100
AcDbEntity
  8
0
  6
HIDDEN
 62
     7
370
     0
100
AcDbLine
 10
195.5287059363
 20
99.6981865866
 30
0.0
 11
195.5287059363
 21
99.8862979142
 31
0.0
  0
LINE
  5
18F
330
1F
100
AcDbEntity
  8
0
  6
HIDDEN
 62
     7
370
     0
100
AcDbLine
 10
191.0287061301
 20
101.0680801375
 30
0.0
 11
191.0287061301
 21
99.6503044991
 31
0.0
  0
LINE
  5
190
330
1F
100
AcDbEntity
  8
0
  6
HIDDEN
 62
     7
370
     0
100
AcDbLine
 10
195.0287067857
 20
99.6503044991
 30
0.0
 11
195.0287067857
 21
101.0680801375
 31
0.0
  0
LINE
  5
191
330
1F
100
AcDbEntity
  8
0
  6
HIDDEN
 62
     7
370
     0
100
AcDbLine
 10
190.5287060481
 20
101.4288093103
 30
0.0
 11
190.5287060481
 21
100.8302734373
 31
0.0
  0
LINE
  5
192
330
1F
100
AcDbEntity
  8
0
  6
HIDDEN
 62
     7
370
     0
100
AcDbLine
 10
195.5287059363
 20
100.8302734373
 30
0.0
 11
195.5287059363
 21
101.4288093103
 31
0.0
  0
LINE
  5
193
330
1F
100
AcDbEntity
  8
0
  6
HIDDEN
 62
     7
370
     0
100
AcDbLine
 10
195.5287059363
 20
128.4449796332
 30
0.0
 11
195.5287059363
 21
129.0435155062
 31
0.0
  0
LINE
  5
194
330
1F
100
AcDbEntity
  8
0
  6
HIDDEN
 62
     7
370
     0
100
AcDbLine
 10
190.5287060481
 20
129.0435155062
 30
0.0
 11
190.5287060481
 21
128.4449796332
 31
0.0
  0
LINE
  5
195
330
1F
100
AcDbEntity
  8
0
  6
HIDDEN
 62
     7
370
     0
100
AcDbLine
 10
195.0287067857
 20
128.805708806
 30
0.0
 11
195.0287067857
 21
130.2234844444
 31
0.0
  0
LINE
  5
196
330
1F
100
AcDbEntity
  8
0
  6
HIDDEN
 62
     7
370
     0
100
AcDbLine
 10
191.0287061301
 20
130.2234844444
 30
0.0
 11
191.0287061301
 21
128.805708806
 31
0.0
  0
LINE
  5
197
330
1F
100
AcDbEntity
  8
0
  6
HIDDEN
 62
     7
370
     0
100
AcDbLine
 10
195.5287059363
 20
129.9874910293
 30
0.0
 11
195.5287059363
 21
130.1756023569
 31
0.0
  0
LINE
  5
198
330
1F
100
AcDbEntity
  8
0
  6
HIDDEN
 62
     7
370
     0
100
AcDbLine
 10
190.5287060481
 20
130.1756023569
 30
0.0
 11
190.5287060481
 21
129.9874910293
 31
0.0
  0
ARC
  5
199
330
1F
100
AcDbEntity
  8
0
  6
HIDDEN
 62
     7
370
     0
100
AcDbCircle
 10
193.0287063655
 20
100.4711525098
 30
0.0
 40
2.000000000000028
100
AcDbArc
 50
67.2428746072
 51
192.2156859339
  0
ARC
  5
19A
330
1F
100
AcDbEntity
  8
0
  6
HIDDEN
 62
     7
370
     0
100
AcDbCircle
 10
193.0287063655
 20
100.4711525098
 30
0.0
 40
2.000000000000008
100
AcDbArc
 50
340.0914611705
 51
67.2428746072
  0
CIRCLE
  5
19B
330
1F
100
AcDbEntity
  8
0
  6
HIDDEN
 62
     7
370
     0
100
AcDbCircle
 10
193.0287063655
 20
129.4026364337
 30
0.0
 40
1.999999999999982
  0
LINE
  5
19C
330
1F
100
AcDbEntity
  8
0
  6
HIDDEN
 62
     7
370
     0
100
AcDbLine
 10
187.6953303408
 20
125.5740697635
 30
0.0
 11
188.358053897
 21
126.2055567605
 31
0.0
  0
LINE
  5
19D
330
1F
100
AcDbEntity
  8
0
  6
HIDDEN
 62
     7
370
     0
100
AcDbLine
 10
189.0739587661
 20
129.1949075786
 30
0.0
 11
188.7691881102
 21
130.0580945937
 31
0.0
  0
LINE
  5
19E
330
1F
100
AcDbEntity
  8
0
  6
HIDDEN
 62
     7
370
     0
100
AcDbLine
 10
183.5129813817
 20
125.8614489017
 30
0.0
 11
186.5273456615
 21
125.1395528344
 31
0.0
  0
LINE
  5
19F
330
1F
100
AcDbEntity
  8
0
  6
HIDDEN
 62
     7
370
     0
100
AcDbLine
 10
187.9247420993
 20
130.9745579166
 30
0.0
 11
184.9103778195
 21
131.6964539839
 31
0.0
  0
LINE
  5
1A0
330
1F
100
AcDbEntity
  8
0
  6
HIDDEN
 62
     7
370
     0
100
AcDbLine
 10
184.9103778195
 20
98.1773349596
 30
0.0
 11
187.9247420993
 21
98.8992310269
 31
0.0
  0
LINE
  5
1A1
330
1F
100
AcDbEntity
  8
0
  6
HIDDEN
 62
     7
370
     0
100
AcDbLine
 10
186.5273456615
 20
104.7342361091
 30
0.0
 11
183.5129813817
 21
104.0123400418
 31
0.0
  0
LINE
  5
1A2
330
1F
100
AcDbEntity
  8
0
  6
HIDDEN
 62
     7
370
     0
100
AcDbLine
 10
188.7691881102
 20
99.8156943498
 30
0.0
 11
189.0739587661
 21
100.6788813649
 31
0.0
  0
LINE
  5
1A3
330
1F
100
AcDbEntity
  8
0
  6
HIDDEN
 62
     7
370
     0
100
AcDbLine
 10
188.358053897
 20
103.668232183
 30
0.0
 11
187.6953303408
 21
104.29971918
 31
0.0
  0
LINE
  5
1A4
330
1F
100
AcDbEntity
  8
0
  6
HIDDEN
 62
     7
370
     0
100
AcDbLine
 10
195.5287059363
 20
98.2725813193
 30
0.0
 11
195.5287059363
 21
101.4288093103
 31
0.0
  0
LINE
  5
1A5
330
1F
100
AcDbEntity
  8
0
  6
HIDDEN
 62
     7
370
     0
100
AcDbLine
 10
190.5287060481
 20
101.4288093103
 30
0.0
 11
190.5287060481
 21
99.375149901
 31
0.0
  0
LINE
  5
1A6
330
1F
100
AcDbEntity
  8
0
  6
HIDDEN
 62
     7
370
     0
100
AcDbLine
 10
182.0287062847
 20
97.4872174812
 30
0.0
 11
184.6481341463
 21
98.1145321531
 31
0.0
  0
LINE
  5
1A7
330
1F
100
AcDbEntity
  8
0
  6
HIDDEN
 62
     7
370
     0
100
AcDbLine
 10
183.2507372428
 20
103.9495372353
 30
0.0
 11
182.0287062847
 21
103.6568784295
 31
0.0
  0
LINE
  5
1A8
330
1F
100
AcDbEntity
  8
0
  6
HIDDEN
 62
     7
370
     0
100
AcDbLine
 10
184.7068568286
 20
99.0540447785
 30
0.0
 11
192.176006135
 21
100.842794138
 31
0.0
  0
LINE
  5
1A9
330
1F
100
AcDbEntity
  8
0
  6
HIDDEN
 62
     7
370
     0
100
AcDbLine
 10
192.176006135
 20
105.1615567086
 30
0.0
 11
183.7286789496
 21
103.1385480566
 31
0.0
  0
LINE
  5
1AA
330
1F
100
AcDbEntity
  8
0
  6
HIDDEN
 62
     7
370
     0
100
AcDbLine
 10
195.1287066158
 20
101.4786034031
 30
0.0
 11
195.1287066158
 21
113.4878932172
 31
0.0
  0
LINE
  5
1AB
330
1F
100
AcDbEntity
  8
0
  6
HIDDEN
 62
     7
370
     0
100
AcDbLine
 10
190.9287062999
 20
101.8266535504
 30
0.0
 11
190.9287062999
 21
101.4786034031
 31
0.0
  0
LINE
  5
1AC
330
1F
100
AcDbEntity
  8
0
  6
HIDDEN
 62
     7
370
     0
100
AcDbLine
 10
190.9287062999
 20
113.4861762077
 30
0.0
 11
190.9287062999
 21
103.580278079
 31
0.0
  0
ARC
  5
1AD
330
1F
100
AcDbEntity
  8
0
  6
HIDDEN
 62
     7
370
     0
100
AcDbCircle
 10
78.4287063655
 20
101.2368944718
 30
0.0
 40
1.200000000000017
100
AcDbArc
 50
90.0
 51
180.0
  0
ARC
  5
1AE
330
1F
100
AcDbEntity
  8
0
  6
HIDDEN
 62
     7
370
     0
100
AcDbCircle
 10
78.4287063655
 20
128.6368944718
 30
0.0
 40
1.200000000000003
100
AcDbArc
 50
180.0
 51
270.0
  0
LINE
  5
1AF
330
1F
100
AcDbEntity
  8
0
  6
HIDDEN
 62
     7
370
     0
100
AcDbLine
 10
88.1210764465
 20
102.211894202
 30
0.0
 11
88.9977639135
 21
102.211894202
 31
0.0
  0
LINE
  5
1B0
330
1F
100
AcDbEntity
  8
0
  6
HIDDEN
 62
     7
370
     0
100
AcDbLine
 10
88.9977639135
 20
127.6618947415
 30
0.0
 11
88.1210764465
 21
127.6618947415
 31
0.0
  0
ARC
  5
1B1
330
1F
100
AcDbEntity
  8
0
  6
HIDDEN
 62
     7
370
     0
100
AcDbCircle
 10
88.1210787962
 20
102.6118944718
 30
0.0
 40
0.4000000000000199
100
AcDbArc
 50
255.0
 51
270.0
  0
ARC
  5
1B2
330
1F
100
AcDbEntity
  8
0
  6
HIDDEN
 62
     7
370
     0
100
AcDbCircle
 10
88.1210787962
 20
127.2618944718
 30
0.0
 40
0.400000000000006
100
AcDbArc
 50
90.0
 51
105.0
  0
ARC
  5
1B3
330
1F
100
AcDbEntity
  8
0
  6
HIDDEN
 62
     7
370
     0
100
AcDbCircle
 10
88.9977662578
 20
102.6118944718
 30
0.0
 40
0.400000000000014
100
AcDbArc
 50
270.0
 51
330.0
  0
ARC
  5
1B4
330
1F
100
AcDbEntity
  8
0
  6
HIDDEN
 62
     7
370
     0
100
AcDbCircle
 10
88.9977662578
 20
127.2618944718
 30
0.0
 40
0.4000000000000057
100
AcDbArc
 50
30.0
 51
90.0
  0
LINE
  5
1B5
330
1F
100
AcDbEntity
  8
0
  6
HIDDEN
 62
     7
370
     0
100
AcDbLine
 10
88.0175506291
 20
127.6482648356
 30
0.0
 11
87.2287055072
 21
127.436894658
 31
0.0
  0
LINE
  5
1B6
330
1F
100
AcDbEntity
  8
0
  6
HIDDEN
 62
     7
370
     0
100
AcDbLine
 10
87.2287055072
 20
102.4368942855
 30
0.0
 11
88.0175506291
 21
102.2255241079
 31
0.0
  0
LINE
  5
1B7
330
1F
100
AcDbEntity
  8
0
  6
HIDDEN
 62
     7
370
     0
100
AcDbLine
 10
89.3441786584
 20
102.4118947936
 30
0.0
 11
90.5133088645
 21
104.4368946133
 31
0.0
  0
LINE
  5
1B8
330
1F
100
AcDbEntity
  8
0
  6
HIDDEN
 62
     7
370
     0
100
AcDbLine
 10
90.5133088645
 20
125.4368943302
 30
0.0
 11
89.3441786584
 21
127.4618941499
 31
0.0
  0
LINE
  5
1B9
330
1F
100
AcDbEntity
  8
0
  6
HIDDEN
 62
     7
370
     0
100
AcDbLine
 10
78.4287055549
 20
102.4368942855
 30
0.0
 11
87.2287055072
 21
102.4368942855
 31
0.0
  0
LINE
  5
1BA
330
1F
100
AcDbEntity
  8
0
  6
HIDDEN
 62
     7
370
     0
100
AcDbLine
 10
87.2287055072
 20
127.436894658
 30
0.0
 11
78.4287055549
 21
127.436894658
 31
0.0
  0
LINE
  5
1BB
330
1F
100
AcDbEntity
  8
0
  6
HIDDEN
 62
     7
370
     0
100
AcDbLine
 10
139.2287065801
 20
104.4368946133
 30
0.0
 11
143.4547802028
 21
110.6868942408
 31
0.0
  0
LINE
  5
1BC
330
1F
100
AcDbEntity
  8
0
  6
HIDDEN
 62
     7
370
     0
100
AcDbLine
 10
143.4547802028
 20
119.1868947027
 30
0.0
 11
139.2287065801
 21
125.4368943302
 31
0.0
  0
LINE
  5
1BD
330
1F
100
AcDbEntity
  8
0
  6
HIDDEN
 62
     7
370
     0
100
AcDbLine
 10
90.5133088645
 20
104.4368946133
 30
0.0
 11
139.2287065801
 21
104.4368946133
 31
0.0
  0
LINE
  5
1BE
330
1F
100
AcDbEntity
  8
0
  6
HIDDEN
 62
     7
370
     0
100
AcDbLine
 10
139.2287065801
 20
125.4368943302
 30
0.0
 11
90.5133088645
 21
125.4368943302
 31
0.0
  0
LINE
  5
1BF
330
1F
100
AcDbEntity
  8
0
  6
HIDDEN
 62
     7
370
     0
100
AcDbLine
 10
212.9287061807
 20
122.036894518
 30
0.0
 11
210.5787073788
 21
122.036894518
 31
0.0
  0
LINE
  5
1C0
330
1F
100
AcDbEntity
  8
0
  6
HIDDEN
 62
     7
370
     0
100
AcDbLine
 10
210.5787073788
 20
107.8368944256
 30
0.0
 11
212.9287061807
 21
107.8368944256
 31
0.0
  0
LINE
  5
1C1
330
1F
100
AcDbEntity
  8
0
  6
HIDDEN
 62
     7
370
     0
100
AcDbLine
 10
210.5787073788
 20
120.7255695155
 30
0.0
 11
210.0787063655
 21
120.436894442
 31
0.0
  0
LINE
  5
1C2
330
1F
100
AcDbEntity
  8
0
  6
HIDDEN
 62
     7
370
     0
100
AcDbLine
 10
210.0787063655
 20
109.4368945016
 30
0.0
 11
210.5787073788
 21
109.148219428
 31
0.0
  0
ARC
  5
1C3
330
1F
100
AcDbEntity
  8
0
  6
HIDDEN
 62
     7
370
     0
100
AcDbCircle
 10
202.1033047054
 20
109.8368944718
 30
0.0
 40
0.6000000000000085
100
AcDbArc
 50
270.0
 51
285.0
  0
ARC
  5
1C4
330
1F
100
AcDbEntity
  8
0
  6
HIDDEN
 62
     7
370
     0
100
AcDbCircle
 10
202.1033047054
 20
120.0368944718
 30
0.0
 40
0.6000000000000085
100
AcDbArc
 50
75.0
 51
90.0
  0
LINE
  5
1C5
330
1F
100
AcDbEntity
  8
0
  6
HIDDEN
 62
     7
370
     0
100
AcDbLine
 10
201.5287069198
 20
109.2368943756
 30
0.0
 11
202.1033050087
 21
109.2368943756
 31
0.0
  0
LINE
  5
1C6
330
1F
100
AcDbEntity
  8
0
  6
HIDDEN
 62
     7
370
     0
100
AcDbLine
 10
202.1033050087
 20
120.6368945679
 30
0.0
 11
201.5287069198
 21
120.6368945679
 31
0.0
  0
ARC
  5
1C7
330
1F
100
AcDbEntity
  8
0
  6
HIDDEN
 62
     7
370
     0
100
AcDbCircle
 10
201.5287063655
 20
109.8368944718
 30
0.0
 40
0.6000000000000227
100
AcDbArc
 50
180.0
 51
270.0
  0
ARC
  5
1C8
330
1F
100
AcDbEntity
  8
0
  6
HIDDEN
 62
     7
370
     0
100
AcDbCircle
 10
201.5287063655
 20
120.0368944718
 30
0.0
 40
0.6000000000000227
100
AcDbArc
 50
90.0
 51
180.0
  0
LINE
  5
1C9
330
1F
100
AcDbEntity
  8
0
  6
HIDDEN
 62
     7
370
     0
100
AcDbLine
 10
202.2585955974
 20
109.2573387688
 30
0.0
 11
202.9287064042
 21
109.4368945016
 31
0.0
  0
LINE
  5
1CA
330
1F
100
AcDbEntity
  8
0
  6
HIDDEN
 62
     7
370
     0
100
AcDbLine
 10
202.9287064042
 20
120.436894442
 30
0.0
 11
202.2585955974
 21
120.6164501747
 31
0.0
  0
LINE
  5
1CB
330
1F
100
AcDbEntity
  8
0
  6
HIDDEN
 62
     7
370
     0
100
AcDbLine
 10
202.9287064042
 20
109.4368945016
 30
0.0
 11
210.0787063655
 21
109.4368945016
 31
0.0
  0
LINE
  5
1CC
330
1F
100
AcDbEntity
  8
0
  6
HIDDEN
 62
     7
370
     0
100
AcDbLine
 10
210.0787063655
 20
120.436894442
 30
0.0
 11
202.9287064042
 21
120.436894442
 31
0.0
  0
LINE
  5
1CD
330
1F
100
AcDbEntity
  8
0
  6
HIDDEN
 62
     7
370
     0
100
AcDbLine
 10
143.4547802028
 20
110.6868942408
 30
0.0
 11
200.9287060764
 21
110.6868942408
 31
0.0
  0
LINE
  5
1CE
330
1F
100
AcDbEntity
  8
0
  6
HIDDEN
 62
     7
370
     0
100
AcDbLine
 10
200.9287060764
 20
119.1868947027
 30
0.0
 11
143.4547802028
 21
119.1868947027
 31
0.0
  0
LINE
  5
1CF
330
1F
100
AcDbEntity
  8
0
  6
HIDDEN
 62
     7
370
     0
100
AcDbLine
 10
212.8237871048
 20
106.9118945999
 30
0.0
 11
212.9287061807
 21
106.6868945165
 31
0.0
  0
LINE
  5
1D0
330
1F
100
AcDbEntity
  8
0
  6
HIDDEN
 62
     7
370
     0
100
AcDbLine
 10
212.9287061807
 20
123.1868944271
 30
0.0
 11
212.8237871048
 21
122.9618943436
 31
0.0
  0
LINE
  5
1D1
330
1F
100
AcDbEntity
  8
0
  6
HIDDEN
 62
     7
370
     0
100
AcDbLine
 10
212.8237871048
 20
122.9618943436
 30
0.0
 11
210.5787073788
 21
122.9618943436
 31
0.0
  0
LINE
  5
1D2
330
1F
100
AcDbEntity
  8
0
  6
HIDDEN
 62
     7
370
     0
100
AcDbLine
 10
210.5787073788
 20
106.9118945999
 30
0.0
 11
212.8237871048
 21
106.9118945999
 31
0.0
  0
LINE
  5
1D3
330
1F
100
AcDbEntity
  8
0
  6
HIDDEN
 62
     7
370
     0
100
AcDbLine
 10
195.1287066158
 20
116.3876127359
 30
0.0
 11
195.1287066158
 21
128.3951855404
 31
0.0
  0
LINE
  5
1D4
330
1F
100
AcDbEntity
  8
0
  6
HIDDEN
 62
     7
370
     0
100
AcDbLine
 10
190.9287062999
 20
126.2935108645
 30
0.0
 11
190.9287062999
 21
116.3858957263
 31
0.0
  0
LINE
  5
1D5
330
1F
100
AcDbEntity
  8
0
  6
HIDDEN
 62
     7
370
     0
100
AcDbLine
 10
190.9287062999
 20
128.3951855404
 30
0.0
 11
190.9287062999
 21
128.0471353931
 31
0.0
  0
LINE
  5
1D6
330
1F
100
AcDbEntity
  8
0
  6
HIDDEN
 62
     7
370
     0
100
AcDbLine
 10
183.7286789496
 20
126.7352408869
 30
0.0
 11
192.176006135
 21
124.7122322349
 31
0.0
  0
LINE
  5
1D7
330
1F
100
AcDbEntity
  8
0
  6
HIDDEN
 62
     7
370
     0
100
AcDbLine
 10
192.176006135
 20
129.0309948055
 30
0.0
 11
184.7068568286
 21
130.8197441651
 31
0.0
  0
LINE
  5
1D8
330
1F
100
AcDbEntity
  8
0
  6
HIDDEN
 62
     7
370
     0
100
AcDbLine
 10
182.0287062847
 20
126.216910514
 30
0.0
 11
183.2507372428
 21
125.9242517082
 31
0.0
  0
LINE
  5
1D9
330
1F
100
AcDbEntity
  8
0
  6
HIDDEN
 62
     7
370
     0
100
AcDbLine
 10
184.6481341463
 20
131.7592567904
 30
0.0
 11
182.0287062847
 21
132.3865714623
 31
0.0
  0
LINE
  5
1DA
330
1F
100
AcDbEntity
  8
0
  6
HIDDEN
 62
     7
370
     0
100
AcDbLine
 10
195.5287059363
 20
128.4449796332
 30
0.0
 11
195.5287059363
 21
131.6012076242
 31
0.0
  0
LINE
  5
1DB
330
1F
100
AcDbEntity
  8
0
  6
HIDDEN
 62
     7
370
     0
100
AcDbLine
 10
190.5287060481
 20
130.4986390425
 30
0.0
 11
190.5287060481
 21
128.4449796332
 31
0.0
  0
DIMENSION
  5
1DC
330
1F
100
AcDbEntity
  8
VERMASSUNG
100
AcDbDimension
  2
_D
 10
71.0722137746
 20
163.6618944718
 30
0.0
 11
71.0722137746
 21
114.9368944718
 31
0.0
 70
   160
  1
ISO 50 %%c<>
 71
     2
 42
-1.0
  3
SLDDIMSTYLE0
100
AcDbAlignedDimension
 13
197.2787063655
 23
66.2118944718
 33
0.0
 14
197.2787063655
 24
163.6618944718
 34
0.0
 50
90.0
100
AcDbRotatedDimension
  0
DIMENSION
  5
1E9
330
1F
100
AcDbEntity
  8
VERMASSUNG
100
AcDbDimension
  2
_D_1
 10
212.9287063655
 20
179.8373836806
 30
0.0
 11
145.0787063655
 21
179.8373836806
 31
0.0
 70
   160
  1
(<>)
 71
     2
 42
-1.0
  3
SLDDIMSTYLE0
100
AcDbAlignedDimension
 13
77.2287063655
 23
133.3157389992
 33
0.0
 14
212.9287063655
 24
124.7368944718
 34
0.0
100
AcDbRotatedDimension
  0
DIMENSION
  5
1F5
330
1F
100
AcDbEntity
  8
VERMASSUNG
100
AcDbDimension
  2
_D_2
 10
212.9287063655
 20
173.8373836806
 30
0.0
 11
195.8787063655
 21
173.8373836806
 31
0.0
 70
   160
  1
<>
 71
     2
 42
-1.0
  3
SLDDIMSTYLE0
100
AcDbAlignedDimension
 13
178.8287063655
 23
149.8618944718
 33
0.0
 14
212.9287063655
 24
124.7368944718
 34
0.0
100
AcDbRotatedDimension
  0
DIMENSION
  5
1FF
330
1F
100
AcDbEntity
  8
VERMASSUNG
100
AcDbDimension
  2
_D_3
 10
212.9287063655
 20
167.8373836806
 30
0.0
 11
205.4037063655
 21
167.8373836806
 31
0.0
 70
   160
  1
<>
 71
     2
 42
-1.0
  3
SLDDIMSTYLE0
100
AcDbAlignedDimension
 13
197.8787063655
 23
161.231881425
 33
0.0
 14
212.9287063655
 24
124.7368944718
 34
0.0
100
AcDbRotatedDimension
  0
DIMENSION
  5
209
330
1F
100
AcDbEntity
  8
VERMASSUNG
100
AcDbDimension
  2
_D_4
 10
222.8199236049
 20
104.9368944718
 30
0.0
 11
222.8199236049
 21
114.9368944718
 31
0.0
 70
   160
  1
MBM %%c<>
 71
     2
 42
-1.0
  3
SLDDIMSTYLE0
100
AcDbAlignedDimension
 13
212.7287063655
 23
124.9368944718
 33
0.0
 14
212.7287063655
 24
104.9368944718
 34
0.0
 50
90.0
100
AcDbRotatedDimension
  0
LINE
  5
215
330
1F
100
AcDbEntity
  8
VERMASSUNG
  6
CENTERX2
 62
     7
370
     0
100
AcDbLine
 10
75.2287063655
 20
114.9368944718
 30
0.0
 11
214.9287063655
 21
114.9368944718
 31
0.0
  0
LINE
  5
216
330
1F
100
AcDbEntity
  8
VERMASSUNG
  6
CENTERX2
370
     0
100
AcDbLine
 10
180.0837047193
 20
129.7675393713
 30
0.0
 11
191.3460764103
 21
127.0703693569
 31
0.0
  0
LINE
  5
217
330
1F
100
AcDbEntity
  8
VERMASSUNG
  6
CENTERX2
370
     0
100
AcDbLine
 10
180.0837047193
 20
100.1062495722
 30
0.0
 11
191.3460764103
 21
102.8034195866
 31
0.0
  0
LINE
  5
218
330
1F
100
AcDbEntity
  8
0
  6
Continuous
 62
     7
370
    15
100
AcDbLine
 10
273.9294825826
 20
39.3165942743
 30
0.0
 11
273.8233994588
 21
39.377854473
 31
0.0
  0
SPLINE
  5
219
330
1F
100
AcDbEntity
  8
0
  6
Continuous
 62
     7
370
    15
100
AcDbSpline
210
0.0
220
0.0
230
1.0
 70
     8
 71
     3
 72
    30
 73
    26
 74
     0
 42
0.000000001
 43
0.00000001
 40
0.0
 40
0.0
 40
0.0
 40
0.0
 40
0.0119599514346474
 40
0.0574748183682974
 40
0.1030614322117601
 40
0.1486958573637533
 40
0.1943577500888565
 40
0.2400318287433232
 40
0.2857061458451049
 40
0.331374471101496
 40
0.3770340955925407
 40
0.4226840995582006
 40
0.468324670638197
 40
0.5139567404103247
 40
0.5595816492489786
 40
0.6052009675144091
 40
0.65081639267661
 40
0.696429680654356
 40
0.7420427194520521
 40
0.7876569670650867
 40
0.8332740185906095
 40
0.8788957575991261
 40
0.9245239817362515
 40
0.9701605665899323
 40
0.9999999999999999
 40
0.9999999999999999
 40
0.9999999999999999
 40
0.9999999999999999
 10
270.3476197379861
 20
62.00789512120291
 30
0.0
 10
270.2417096629077
 20
61.99669789523612
 30
0.0
 10
269.7327475352801
 20
61.94288843520727
 30
0.0
 10
268.7888707778037
 20
61.72167210861932
 30
0.0
 10
267.5229472476445
 20
61.34182425186759
 30
0.0
 10
266.2366614136734
 20
60.83081088476566
 30
0.0
 10
264.9407014663623
 20
60.20412983374643
 30
0.0
 10
263.6416286136746
 20
59.46214440067589
 30
0.0
 10
262.3470442978306
 20
58.61013248183743
 30
0.0
 10
261.0641506070241
 20
57.65282228852922
 30
0.0
 10
259.8000937171925
 20
56.59579507768441
 30
0.0
 10
258.5618642625877
 20
55.44505657713249
 30
0.0
 10
257.3563051994915
 20
54.20713332194105
 30
0.0
 10
256.1900781810749
 20
52.88900224938973
 30
0.0
 10
255.0696315875119
 20
51.4980719016006
 30
0.0
 10
254.0011710276782
 20
50.04213692175217
 30
0.0
 10
252.9906212471685
 20
48.52934665221196
 30
0.0
 10
252.0435963443404
 20
46.96814927735297
 30
0.0
 10
251.1653860088567
 20
45.36726672688399
 30
0.0
 10
250.3608377756951
 20
43.73561624307443
 30
0.0
 10
249.6346823125165
 20
42.08234462605137
 30
0.0
 10
248.9901717033692
 20
40.41646231316927
 30
0.0
 10
248.4340380268829
 20
38.74794761250151
 30
0.0
 10
248.0128955742592
 20
37.27556463207321
 30
0.0
 10
247.8077885555057
 20
36.36866981174326
 30
0.0
 10
247.7266995239321
 20
36.010129069615
 30
0.0
  0
LINE
  5
21A
330
1F
100
AcDbEntity
  8
0
  6
Continuous
 62
     7
370
    15
100
AcDbLine
 10
262.9909218217
 20
59.0150561714
 30
0.0
 11
232.2255992606
 21
70.1016591486
 31
0.0
  0
LINE
  5
21B
330
1F
100
AcDbEntity
  8
0
  6
Continuous
 62
     7
370
    15
100
AcDbLine
 10
222.1017398802
 20
52.5647207482
 30
0.0
 11
251.5692509987
 21
27.68259831
 31
0.0
  0
LINE
  5
21C
330
1F
100
AcDbEntity
  8
0
  6
Continuous
 62
     7
370
    15
100
AcDbLine
 10
274.9905738246
 20
29.6412656457
 30
0.0
 11
275.0612728901
 21
29.6820926174
 31
0.0
  0
LINE
  5
21D
330
1F
100
AcDbEntity
  8
0
  6
Continuous
 62
     7
370
    15
100
AcDbLine
 10
278.5255330278
 20
35.6830174521
 30
0.0
 11
278.5255330278
 21
35.7646581246
 31
0.0
  0
LINE
  5
21E
330
1F
100
AcDbEntity
  8
0
  6
Continuous
 62
     7
370
    15
100
AcDbLine
 10
268.6541484165
 20
31.6079005596
 30
0.0
 11
272.4902024442
 21
29.3933937065
 31
0.0
  0
LINE
  5
21F
330
1F
100
AcDbEntity
  8
0
  6
Continuous
 62
     7
370
    15
100
AcDbLine
 10
277.4897959576
 20
38.0538820748
 30
0.0
 11
273.65374193
 21
40.2683889279
 31
0.0
  0
SPLINE
  5
220
330
1F
100
AcDbEntity
  8
0
  6
Continuous
 62
     7
370
    15
100
AcDbSpline
210
0.0
220
0.0
230
1.0
 70
     8
 71
     3
 72
    30
 73
    26
 74
     0
 42
0.000000001
 43
0.00000001
 40
0.0
 40
0.0
 40
0.0
 40
0.0
 40
0.040131423324295
 40
0.0854303143874761
 40
0.1307874182324651
 40
0.1761805431797885
 40
0.221592125261002
 40
0.2670091279259302
 40
0.3124222044464728
 40
0.3578275979249825
 40
0.403223688001681
 40
0.4486102004308342
 40
0.4939877814547975
 40
0.5393575641065192
 40
0.584721057233157
 40
0.6300798568758799
 40
0.6754357648684142
 40
0.720790549882806
 40
0.7661459909754678
 40
0.8115033957212014
 40
0.856864559001873
 40
0.9022313741196087
 40
0.9476056430185573
 40
0.9929891204766611
 40
1.0
 40
1.0
 40
1.0
 40
1.0
 10
263.4242131563388
 20
14.71661738702131
 30
0.0
 10
263.7858449413809
 20
14.77041665499661
 30
0.0
 10
264.5556735327817
 20
14.88494257997579
 30
0.0
 10
265.7681627924286
 20
15.21251795433232
 30
0.0
 10
267.0460181950626
 20
15.66353220717908
 30
0.0
 10
268.3384534228907
 20
16.23747684790695
 30
0.0
 10
269.6370158710176
 20
16.92696666254421
 30
0.0
 10
270.934573482895
 20
17.7289891303307
 30
0.0
 10
272.2237350530243
 20
18.63855427817201
 30
0.0
 10
273.4973270584958
 20
19.65046420872131
 30
0.0
 10
274.7482875006503
 20
20.75891203848648
 30
0.0
 10
275.9697017169138
 20
21.95760078386651
 30
0.0
 10
277.1548224315929
 20
23.23976112135444
 30
0.0
 10
278.2970965533671
 20
24.59817640739762
 30
0.0
 10
279.3902059913737
 20
26.02522282214627
 30
0.0
 10
280.4280902258894
 20
27.51291268359289
 30
0.0
 10
281.4049882081912
 20
29.05292660642462
 30
0.0
 10
282.3154679521294
 20
30.63666867310889
 30
0.0
 10
283.1544317555669
 20
32.25529137943443
 30
0.0
 10
283.9172584232322
 20
33.89978937222384
 30
0.0
 10
284.5993842025509
 20
35.56092680806275
 30
0.0
 10
285.1980222877962
 20
37.22974112266012
 30
0.0
 10
285.7058288330718
 20
38.89593651685676
 30
0.0
 10
286.0137462943211
 20
40.08662754765965
 30
0.0
 10
286.1484199092001
 20
40.71763831509787
 30
0.0
 10
286.1664405614857
 20
40.80207375286849
 30
0.0
  0
LINE
  5
221
330
1F
100
AcDbEntity
  8
0
  6
Continuous
 62
     7
370
    15
100
AcDbLine
 10
255.8918169647
 20
16.6181541112
 30
0.0
 11
257.347338951
 21
15.7778991539
 31
0.0
  0
LINE
  5
222
330
1F
100
AcDbEntity
  8
0
  6
Continuous
 62
     7
370
    15
100
AcDbLine
 10
252.1677820164
 20
18.7679937263
 30
0.0
 11
253.6056266924
 21
17.9379436629
 31
0.0
  0
SPLINE
  5
223
330
1F
100
AcDbEntity
  8
0
  6
Continuous
 62
     7
370
    15
100
AcDbSpline
210
0.0
220
0.0
230
1.0
 70
     8
 71
     3
 72
     9
 73
     5
 74
     0
 42
0.000000001
 43
0.00000001
 40
0.0
 40
0.0
 40
0.0
 40
0.0
 40
0.315550049956346
 40
1.0
 40
1.0
 40
1.0
 40
1.0
 10
247.735538261364
 20
24.83309832254473
 30
0.0
 10
247.7732680062849
 20
24.70322739073986
 30
0.0
 10
247.8928361854884
 20
24.29165739788822
 30
0.0
 10
248.0482087556555
 20
23.91291331313016
 30
0.0
 10
248.1545535035446
 20
23.65368194323819
 30
0.0
  0
SPLINE
  5
224
330
1F
100
AcDbEntity
  8
0
  6
Continuous
 62
     7
370
    15
100
AcDbSpline
210
0.0
220
0.0
230
1.0
 70
     8
 71
     3
 72
     9
 73
     5
 74
     0
 42
0.000000001
 43
0.00000001
 40
0.0
 40
0.0
 40
0.0
 40
0.0
 40
0.3891254763612982
 40
1.0
 40
1.0
 40
1.0
 40
1.0
 10
286.1550036190156
 20
51.86517814060578
 30
0.0
 10
286.1036649481625
 20
52.03943570987747
 30
0.0
 10
285.9717314871795
 20
52.48725416396886
 30
0.0
 10
285.8007875613342
 20
52.8990600988768
 30
0.0
 10
285.6963622720645
 20
53.15062185319528
 30
0.0
  0
SPLINE
  5
225
330
1F
100
AcDbEntity
  8
0
  6
Continuous
 62
     7
370
    15
100
AcDbSpline
210
0.0
220
0.0
230
1.0
 70
     8
 71
     3
 72
    27
 73
    23
 74
     0
 42
0.000000001
 43
0.00000001
 40
0.0
 40
0.0
 40
0.0
 40
0.0
 40
0.0361358608926873
 40
0.0857065657907398
 40
0.1361663357121611
 40
0.1877578297462568
 40
0.2403870772888494
 40
0.2937335691909456
 40
0.3474367866016608
 40
0.401204720377714
 40
0.4548913901806982
 40
0.5084644435949407
 40
0.5619339545407116
 40
0.6153304294714768
 40
0.6686933683042884
 40
0.7220661386292978
 40
0.7754817259811361
 40
0.8289836396853184
 40
0.8826176714973828
 40
0.9364254300665685
 40
0.9875305902382474
 40
1.0
 40
1.0
 40
1.0
 40
1.0
 10
232.0997793932393
 20
70.13110405075996
 30
0.0
 10
231.9247730999242
 20
70.18628957924122
 30
0.0
 10
231.5096954451716
 20
70.3171778993375
 30
0.0
 10
230.8025601030156
 20
70.37719662529057
 30
0.0
 10
229.9973709610879
 20
70.33430238078357
 30
0.0
 10
229.1601689406368
 20
70.16120783614252
 30
0.0
 10
228.3020357260522
 20
69.86343752845268
 30
0.0
 10
227.4343143467883
 20
69.44205314092672
 30
0.0
 10
226.5707938029978
 20
68.9037205169732
 30
0.0
 10
225.7247217980522
 20
68.2574450168975
 30
0.0
 10
224.9080299646299
 20
67.5139128602839
 30
0.0
 10
224.1311338776904
 20
66.6843398463034
 30
0.0
 10
223.4034600014165
 20
65.7803154505454
 30
0.0
 10
222.7337761381213
 20
64.81392778583411
 30
0.0
 10
222.1302948453681
 20
63.79770424301205
 30
0.0
 10
221.6006382548273
 20
62.74464736978201
 30
0.0
 10
221.1517213409036
 20
61.66801980879882
 30
0.0
 10
220.7898078659128
 20
60.58121899171933
 30
0.0
 10
220.5200702399945
 20
59.4972983284013
 30
0.0
 10
220.3513929782368
 20
58.44899408473366
 30
0.0
 10
220.2963061937999
 20
57.6947441129695
 30
0.0
 10
220.2933075774201
 20
57.29792946673722
 30
0.0
 10
220.2927194338212
 20
57.22009890605051
 30
0.0
  0
SPLINE
  5
226
330
1F
100
AcDbEntity
  8
0
  6
Continuous
 62
     7
370
    15
100
AcDbSpline
210
0.0
220
0.0
230
1.0
 70
     8
 71
     3
 72
    14
 73
    10
 74
     0
 42
0.000000001
 43
0.00000001
 40
0.0
 40
0.0
 40
0.0
 40
0.0
 40
0.0926217466481876
 40
0.2672063943944826
 40
0.4418153976065045
 40
0.6150293463013221
 40
0.7853571504694906
 40
0.9516400256456379
 40
1.0
 40
1.0
 40
1.0
 40
1.0
 10
220.2927194338212
 20
57.22009890605051
 30
0.0
 10
220.2957211233323
 20
57.04243718021019
 30
0.0
 10
220.3043807595448
 20
56.52989718931571
 30
0.0
 10
220.4009121167449
 20
55.7219772404614
 30
0.0
 10
220.6195832031255
 20
54.82958013040591
 30
0.0
 10
220.946447282729
 20
54.01767045053469
 30
0.0
 10
221.3829789492734
 20
53.31367177486072
 30
0.0
 10
221.7733403340777
 20
52.83260001204994
 30
0.0
 10
222.0419069664912
 20
52.62928324094256
 30
0.0
 10
222.1024162053704
 20
52.58347508167673
 30
0.0
  0
ARC
  5
227
330
1F
100
AcDbEntity
  8
0
  6
Continuous
 62
     7
370
    15
100
AcDbCircle
 10
262.8644839443
 20
51.1382444165
 30
0.0
 40
1.562359848240183
100
AcDbArc
 50
79.632988464
 51
142.6736215313
  0
ARC
  5
228
330
1F
100
AcDbEntity
  8
0
  6
Continuous
 62
     7
370
    15
100
AcDbCircle
 10
262.8321988893
 20
51.2223790289
 30
0.0
 40
1.467710568007991
100
AcDbArc
 50
78.2743901316
 51
144.2617036319
  0
ARC
  5
229
330
1F
100
AcDbEntity
  8
0
  6
Continuous
 62
     7
370
    15
100
AcDbCircle
 10
262.8013358296
 20
51.3025172707
 30
0.0
 40
1.24796942534072
100
AcDbArc
 50
80.698104567
 51
142.2047497267
  0
LWPOLYLINE
  5
22A
330
1F
100
AcDbEntity
  8
0
  6
Continuous
 62
     7
370
    15
100
AcDbPolyline
 90
       17
 70
   128
 43
0.0
 10
272.1717541924
 20
38.5430924919
 10
271.982507722
 20
38.7654769832
 10
271.9550843647
 20
39.0127422239
 10
272.0936609388
 20
39.2472432447
 10
272.3771393043
 20
39.4332800125
 10
272.7623626315
 20
39.5425300189
 10
273.1906846716
 20
39.5583607109
 10
273.5968968619
 20
39.47836211
 10
273.9191562755
 20
39.3147139013
 10
274.1084034043
 20
39.0923290298
 10
274.1358261031
 20
38.8450641693
 10
273.9972501875
 20
38.6105627683
 10
273.7137718221
 20
38.4245260005
 10
273.3285478363
 20
38.3152763743
 10
272.9002264547
 20
38.2994453021
 10
272.4940142644
 20
38.3794439031
 10
272.1717541924
 20
38.5430924919
  0
LWPOLYLINE
  5
22B
330
1F
100
AcDbEntity
  8
0
  6
Continuous
 62
     7
370
    15
100
AcDbPolyline
 90
        3
 70
   128
 43
0.0
 10
272.0526133658
 20
38.368000898
 10
271.8453127743
 20
38.6046542255
 10
271.7954553574
 20
38.8064222354
  0
LINE
  5
22C
330
1F
100
AcDbEntity
  8
0
  6
Continuous
 62
     7
370
    15
100
AcDbLine
 10
273.9294825826
 20
39.3165942743
 30
0.0
 11
274.1111166489
 21
39.1835932045
 31
0.0
  0
LINE
  5
22D
330
1F
100
AcDbEntity
  8
0
  6
Continuous
 62
     7
370
    15
100
AcDbLine
 10
272.3921052427
 20
38.1912290428
 30
0.0
 11
272.0526133658
 21
38.368000898
 31
0.0
  0
LWPOLYLINE
  5
22E
330
1F
100
AcDbEntity
  8
0
  6
Continuous
 62
     7
370
    15
100
AcDbPolyline
 90
       17
 70
   128
 43
0.0
 10
272.449750113
 20
38.6658503657
 10
272.3207183595
 20
38.8174761843
 10
272.3020207169
 20
38.9860660758
 10
272.3965046184
 20
39.1459532008
 10
272.5897854147
 20
39.2727964013
 10
272.8524376085
 20
39.3472851025
 10
273.1444754267
 20
39.3580786892
 10
273.4214382145
 20
39.3035342523
 10
273.6411610134
 20
39.1919556474
 10
273.7701927669
 20
39.0403298287
 10
273.7888904095
 20
38.8717399372
 10
273.694406508
 20
38.7118528123
 10
273.5011257117
 20
38.5850096117
 10
273.2384735179
 20
38.5105209105
 10
272.9464356997
 20
38.4997273238
 10
272.6694729119
 20
38.5542717607
 10
272.449750113
 20
38.6658503657
  0
SPLINE
  5
22F
330
1F
100
AcDbEntity
  8
0
  6
Continuous
 62
     7
370
    15
100
AcDbSpline
210
0.0
220
0.0
230
1.0
 70
     8
 71
     3
 72
    10
 73
     6
 74
     0
 42
0.000000001
 43
0.00000001
 40
0.0
 40
0.0
 40
0.0
 40
0.0
 40
0.1509347238873524
 40
0.697953119985303
 40
1.0
 40
1.0
 40
1.0
 40
1.0
 10
272.5992844150428
 20
38.58203189672707
 30
0.0
 10
272.5856096506564
 20
38.58756932396839
 30
0.0
 10
272.5223747354375
 20
38.61317552325924
 30
0.0
 10
272.4268366555418
 20
38.71987087631591
 30
0.0
 10
272.355262074803
 20
38.81735207787167
 30
0.0
 10
272.3298000998422
 20
38.85203008628677
 30
0.0
  0
SPLINE
  5
230
330
1F
100
AcDbEntity
  8
0
  6
Continuous
 62
     7
370
    15
100
AcDbSpline
210
0.0
220
0.0
230
1.0
 70
     8
 71
     3
 72
    10
 73
     6
 74
     0
 42
0.000000001
 43
0.00000001
 40
0.0
 40
0.0
 40
0.0
 40
0.0
 40
0.5154609279734234
 40
0.8820039477864888
 40
1.0
 40
1.0
 40
1.0
 40
1.0
 10
273.7611110265392
 20
38.9595397829449
 30
0.0
 10
273.7215330820432
 20
38.87019741437504
 30
0.0
 10
273.6538113568913
 20
38.7173239034903
 30
0.0
 10
273.5689024621632
 20
38.61785103389958
 30
0.0
 10
273.5324511350032
 20
38.60048793654046
 30
0.0
 10
273.5235744252574
 20
38.59625963574728
 30
0.0
  0
SPLINE
  5
231
330
1F
100
AcDbEntity
  8
0
  6
Continuous
 62
     7
370
    15
100
AcDbSpline
210
0.0
220
0.0
230
1.0
 70
     8
 71
     3
 72
    11
 73
     7
 74
     0
 42
0.000000001
 43
0.00000001
 40
0.0
 40
0.0
 40
0.0
 40
0.0
 40
0.1849302015114352
 40
0.5198458452788547
 40
0.8714435419275355
 40
1.0
 40
1.0
 40
1.0
 40
1.0
 10
273.3226422972747
 20
39.29045128110452
 30
0.0
 10
273.3481632338569
 20
39.25526723825197
 30
0.0
 10
273.4199035593496
 20
39.15636355271263
 30
0.0
 10
273.553820580875
 20
39.02222563785532
 30
0.0
 10
273.6774986707501
 20
38.96938306278998
 30
0.0
 10
273.7434525397551
 20
38.96161863152435
 30
0.0
 10
273.7611110265392
 20
38.9595397829449
 30
0.0
  0
SPLINE
  5
232
330
1F
100
AcDbEntity
  8
0
  6
Continuous
 62
     7
370
    15
100
AcDbSpline
210
0.0
220
0.0
230
1.0
 70
     8
 71
     3
 72
    10
 73
     6
 74
     0
 42
0.000000001
 43
0.00000001
 40
0.0
 40
0.0
 40
0.0
 40
0.0
 40
0.4391115449446548
 40
0.751363637096978
 40
1.0
 40
1.0
 40
1.0
 40
1.0
 10
272.6069868647955
 20
39.23669645059591
 30
0.0
 10
272.7094371613927
 20
39.20943949514116
 30
0.0
 10
272.8847398341626
 20
39.16280012657423
 30
0.0
 10
273.1395749706095
 20
39.20852361763271
 30
0.0
 10
273.266415244986
 20
39.26528812882693
 30
0.0
 10
273.3226422972747
 20
39.29045128110452
 30
0.0
  0
SPLINE
  5
233
330
1F
100
AcDbEntity
  8
0
  6
Continuous
 62
     7
370
    15
100
AcDbSpline
210
0.0
220
0.0
230
1.0
 70
     8
 71
     3
 72
    10
 73
     6
 74
     0
 42
0.000000001
 43
0.00000001
 40
0.0
 40
0.0
 40
0.0
 40
0.0
 40
0.4391120126087121
 40
0.7513635032708496
 40
1.0
 40
1.0
 40
1.0
 40
1.0
 10
272.3298000998422
 20
38.85203008628677
 30
0.0
 10
272.369481089518
 20
38.87214493404679
 30
0.0
 10
272.4373791350278
 20
38.9065634014236
 30
0.0
 10
272.5360812896741
 20
39.0701207713916
 30
0.0
 10
272.5852090011946
 20
39.18553457207332
 30
0.0
 10
272.6069868647955
 20
39.23669645059591
 30
0.0
  0
LINE
  5
234
330
1F
100
AcDbEntity
  8
0
  6
Continuous
 62
     7
370
    15
100
AcDbLine
 10
272.6069868648
 20
38.5776363429
 30
0.0
 11
272.6069868648
 21
39.2366964506
 31
0.0
  0
LINE
  5
235
330
1F
100
AcDbEntity
  8
0
  6
Continuous
 62
     7
370
    15
100
AcDbLine
 10
273.3226422973
 20
38.5265921626
 30
0.0
 11
273.3226422973
 21
39.2904512811
 31
0.0
  0
SPLINE
  5
236
330
1F
100
AcDbEntity
  8
0
  6
Continuous
 62
     7
370
    15
100
AcDbSpline
210
0.0
220
0.0
230
1.0
 70
     8
 71
     3
 72
    12
 73
     8
 74
     0
 42
0.000000001
 43
0.00000001
 40
0.0
 40
0.0
 40
0.0
 40
0.0
 40
0.2499999999999972
 40
0.2499999999999972
 40
0.4999999999999944
 40
0.4999999999999944
 40
1.0
 40
1.0
 40
1.0
 40
1.0
 10
253.0063111814147
 20
32.97452552171509
 30
0.0
 10
253.0402426737042
 20
32.95493728816361
 30
0.0
 10
253.0786743827315
 20
32.9277500992272
 30
0.0
 10
253.1528512353964
 20
32.86852617169137
 30
0.0
 10
253.1880675156519
 20
32.8370934926746
 30
0.0
 10
253.2831664329099
 20
32.74510077587263
 30
0.0
 10
253.3316955896718
 20
32.68824411034798
 30
0.0
 10
253.3650371858268
 20
32.64001530434564
 30
0.0
  0
ARC
  5
237
330
1F
100
AcDbEntity
  8
0
  6
Continuous
 62
     7
370
    15
100
AcDbCircle
 10
277.1702305448
 20
49.0146191818
 30
0.0
 40
10.10608123704012
100
AcDbArc
 50
73.2594580169
 51
98.6676629926
  0
SPLINE
  5
238
330
1F
100
AcDbEntity
  8
0
  6
Continuous
 62
     7
370
    15
100
AcDbSpline
210
0.0
220
0.0
230
1.0
 70
     8
 71
     3
 72
    12
 73
     8
 74
     0
 42
0.000000001
 43
0.00000001
 40
0.0
 40
0.0
 40
0.0
 40
0.0
 40
0.4999999999999972
 40
0.4999999999999972
 40
0.7499999999999986
 40
0.7499999999999986
 40
1.0
 40
1.0
 40
1.0
 40
1.0
 10
280.2933000050252
 20
58.25883124255697
 30
0.0
 10
280.2933000050252
 20
58.33151423974978
 30
0.0
 10
280.276283236955
 20
58.41509708649006
 30
0.0
 10
280.2218724110735
 20
58.53654126436575
 30
0.0
 10
280.1987271921516
 20
58.5762561420471
 30
0.0
 10
280.1444463802944
 20
58.64498591391289
 30
0.0
 10
280.1132104117369
 20
58.67389550981855
 30
0.0
 10
280.0811679706692
 20
58.69239321731216
 30
0.0
  0
ARC
  5
239
330
1F
100
AcDbEntity
  8
0
  6
Continuous
 62
     7
370
    15
100
AcDbCircle
 10
291.9282082149
 20
23.9143250541
 30
0.0
 40
39.54666789451553
100
AcDbArc
 50
131.7945692663
 51
165.8354174643
  0
LWPOLYLINE
  5
23A
330
1F
100
AcDbEntity
  8
0
  6
Continuous
 62
     7
370
    15
100
AcDbPolyline
 90
       13
 70
   128
 43
0.0
 10
263.0172721631
 20
53.8165200448
 10
264.3455712529
 20
54.987967008
 10
265.697567573
 20
56.0495888338
 10
267.0646634954
 20
56.9946336086
 10
268.4381657389
 20
57.8170911642
 10
269.8093400275
 20
58.5117322367
 10
271.169466738
 20
59.0741390696
 10
272.5098968763
 20
59.5007346867
 10
273.8221064067
 20
59.7888081723
 10
275.0977512411
 20
59.9365266432
 10
276.3287190991
 20
59.9429499778
 10
277.5071818619
 20
59.808038226
 10
278.6256459517
 20
59.5326487522
  0
LINE
  5
23B
330
1F
100
AcDbEntity
  8
0
  6
Continuous
 62
     7
370
    15
100
AcDbLine
 10
280.081167938
 20
58.6923937949
 30
0.0
 11
278.6256459517
 21
59.5326487522
 31
0.0
  0
LINE
  5
23C
330
1F
100
AcDbEntity
  8
0
  6
Continuous
 62
     7
370
    15
100
AcDbLine
 10
251.5507890327
 20
33.8147806642
 30
0.0
 11
253.0063110189
 21
32.9745257068
 31
0.0
  0
ARC
  5
23D
330
1F
100
AcDbEntity
  8
0
  6
Continuous
 62
     7
370
    15
100
AcDbCircle
 10
290.9782440312
 20
24.5330395904
 30
0.0
 40
40.50524564818848
100
AcDbArc
 50
136.9919325105
 51
166.7530183965
  0
SPLINE
  5
23E
330
1F
100
AcDbEntity
  8
0
  6
Continuous
 62
     7
370
    15
100
AcDbSpline
210
0.0
220
0.0
230
1.0
 70
     8
 71
     3
 72
    34
 73
    30
 74
     0
 42
0.000000001
 43
0.00000001
 40
0.0
 40
0.0
 40
0.0
 40
0.0
 40
0.0624999999999995
 40
0.0624999999999995
 40
0.124999999999999
 40
0.124999999999999
 40
0.1874999999999986
 40
0.1874999999999986
 40
0.2499999999999986
 40
0.2499999999999986
 40
0.3124999999999987
 40
0.3124999999999987
 40
0.3749999999999987
 40
0.3749999999999987
 40
0.4999999999999998
 40
0.4999999999999998
 40
0.6250000000000008
 40
0.6250000000000008
 40
0.6875000000000007
 40
0.6875000000000007
 40
0.7500000000000004
 40
0.7500000000000004
 40
0.8125000000000003
 40
0.8125000000000003
 40
0.8750000000000002
 40
0.8750000000000002
 40
0.9375
 40
0.9375
 40
1.0
 40
1.0
 40
1.0
 40
1.0
 10
261.3584727959469
 20
52.16172241274742
 30
0.0
 10
261.4175982095902
 20
52.13214492888918
 30
0.0
 10
261.4804109050207
 20
52.10846890669366
 30
0.0
 10
261.6131199079454
 20
52.07238939627392
 30
0.0
 10
261.6837316043164
 20
52.05994150613468
 30
0.0
 10
261.8289795742938
 20
52.04723161240929
 30
0.0
 10
261.902962004056
 20
52.04688943251195
 30
0.0
 10
262.0536440688808
 20
52.05789577733458
 30
0.0
 10
262.131092088681
 20
52.06948244132005
 30
0.0
 10
262.283024674656
 20
52.10365698405886
 30
0.0
 10
262.3579807552405
 20
52.12616938644884
 30
0.0
 10
262.5059158221492
 20
52.18198145904692
 30
0.0
 10
262.5788445352396
 20
52.2154263052532
 30
0.0
 10
262.7854570612496
 20
52.32778856457252
 30
0.0
 10
262.9123822372989
 20
52.42182596559326
 30
0.0
 10
263.1214889899258
 20
52.63042728076917
 30
0.0
 10
263.2060373731236
 20
52.74735137491287
 30
0.0
 10
263.2910109298977
 20
52.92587662488552
 30
0.0
 10
263.3129706304956
 20
52.9870932038122
 30
0.0
 10
263.3420817272354
 20
53.10789918632605
 30
0.0
 10
263.3494361900152
 20
53.1674997127712
 30
0.0
 10
263.3497791250595
 20
53.28524100290446
 30
0.0
 10
263.3425390822242
 20
53.34369239104156
 30
0.0
 10
263.3139272317022
 20
53.45445501543303
 30
0.0
 10
263.2926438901428
 20
53.50736746015565
 30
0.0
 10
263.2358157235357
 20
53.6082856674649
 30
0.0
 10
263.2003582345618
 20
53.65580068209601
 30
0.0
 10
263.1179532816752
 20
53.74206065997944
 30
0.0
 10
263.0707483790994
 20
53.7813062123995
 30
0.0
 10
263.0172722332105
 20
53.81651934051312
 30
0.0
  0
LINE
  5
23F
330
1F
100
AcDbEntity
  8
0
  6
Continuous
 62
     7
370
    15
100
AcDbLine
 10
286.0031992318
 20
51.3895276863
 30
0.0
 11
286.1074810717
 21
51.5701495111
 31
0.0
  0
LINE
  5
240
330
1F
100
AcDbEntity
  8
0
  6
Continuous
 62
     7
370
    15
100
AcDbLine
 10
283.7050909502
 20
50.0628580143
 30
0.0
 11
286.0031992318
 21
51.3895276863
 31
0.0
  0
ARC
  5
241
330
1F
100
AcDbEntity
  8
0
  6
Continuous
 62
     7
370
    15
100
AcDbCircle
 10
284.5331940478
 20
48.7682557314
 30
0.0
 40
1.53679855912836
100
AcDbArc
 50
122.6053519586
 51
177.394632491
  0
LINE
  5
242
330
1F
100
AcDbEntity
  8
0
  6
Continuous
 62
     7
370
    15
100
AcDbLine
 10
282.9979840531
 20
39.9786453577
 30
0.0
 11
282.9979840531
 21
48.838113326
 31
0.0
  0
ARC
  5
243
330
1F
100
AcDbEntity
  8
0
  6
Continuous
 62
     7
370
    15
100
AcDbCircle
 10
283.4290575362
 20
39.9087168107
 30
0.0
 40
0.4367085406723991
100
AcDbArc
 50
170.7857695821
 51
309.2035248725
  0
LINE
  5
244
330
1F
100
AcDbEntity
  8
0
  6
Continuous
 62
     7
370
    15
100
AcDbLine
 10
286.0031992318
 20
40.896978587
 30
0.0
 11
283.7050909502
 21
39.570308915
 31
0.0
  0
LINE
  5
245
330
1F
100
AcDbEntity
  8
0
  6
Continuous
 62
     7
370
    15
100
AcDbLine
 10
286.1074810717
 20
40.8367580118
 30
0.0
 11
286.0031992318
 21
40.896978587
 31
0.0
  0
LINE
  5
246
330
1F
100
AcDbEntity
  8
0
  6
Continuous
 62
     7
370
    15
100
AcDbLine
 10
253.4105447357
 20
22.0816396422
 30
0.0
 11
253.365036676
 21
21.9632710191
 31
0.0
  0
LINE
  5
247
330
1F
100
AcDbEntity
  8
0
  6
Continuous
 62
     7
370
    15
100
AcDbLine
 10
253.4105447357
 20
22.0816396422
 30
0.0
 11
256.552189263
 21
23.8952724235
 31
0.0
  0
ARC
  5
248
330
1F
100
AcDbEntity
  8
0
  6
Continuous
 62
     7
370
    15
100
AcDbCircle
 10
255.7240861654
 20
25.1898747065
 30
0.0
 40
1.536798559128501
100
AcDbArc
 50
302.6053519586
 51
357.394632491
  0
LINE
  5
249
330
1F
100
AcDbEntity
  8
0
  6
Continuous
 62
     7
370
    15
100
AcDbLine
 10
257.2592961601
 20
33.9794850802
 30
0.0
 11
257.2592961601
 21
25.1200171118
 31
0.0
  0
ARC
  5
24A
330
1F
100
AcDbEntity
  8
0
  6
Continuous
 62
     7
370
    15
100
AcDbCircle
 10
256.828222677
 20
34.0494136272
 30
0.0
 40
0.4367085406723911
100
AcDbArc
 50
350.7857695821
 51
129.2035248725
  0
LINE
  5
24B
330
1F
100
AcDbEntity
  8
0
  6
Continuous
 62
     7
370
    15
100
AcDbLine
 10
256.552189263
 20
34.3878215228
 30
0.0
 11
253.4105447357
 21
32.5741887415
 31
0.0
  0
LINE
  5
24C
330
1F
100
AcDbEntity
  8
0
  6
Continuous
 62
     7
370
    15
100
AcDbLine
 10
253.365036676
 20
32.6400148772
 30
0.0
 11
253.4105447357
 21
32.5741887415
 31
0.0
  0
LINE
  5
24D
330
1F
100
AcDbEntity
  8
0
  6
Continuous
 62
     7
370
    15
100
AcDbLine
 10
280.2933002706
 20
55.033870457
 30
0.0
 11
280.2933002706
 21
58.2588316
 31
0.0
  0
LINE
  5
24E
330
1F
100
AcDbEntity
  8
0
  6
Continuous
 62
     7
370
    15
100
AcDbLine
 10
283.0860472589
 20
56.6460889763
 30
0.0
 11
280.2933002706
 21
55.033870457
 31
0.0
  0
SPLINE
  5
24F
330
1F
100
AcDbEntity
  8
0
  6
Continuous
 62
     7
370
    15
100
AcDbSpline
210
0.0
220
0.0
230
1.0
 70
     8
 71
     3
 72
     8
 73
     4
 74
     0
 42
0.000000001
 43
0.00000001
 40
0.0
 40
0.0
 40
0.0
 40
0.0
 40
1.0
 40
1.0
 40
1.0
 40
1.0
 10
250.4782347091862
 20
34.90629444924658
 30
0.0
 10
250.1911675795139
 20
34.85884244952322
 30
0.0
 10
249.9040544609284
 20
34.81148501682043
 30
0.0
 10
249.6168996345307
 20
34.76421334790837
 30
0.0
  0
SPLINE
  5
250
330
1F
100
AcDbEntity
  8
0
  6
Continuous
 62
     7
370
    15
100
AcDbSpline
210
0.0
220
0.0
230
1.0
 70
     8
 71
     3
 72
     8
 73
     4
 74
     0
 42
0.000000001
 43
0.00000001
 40
0.0
 40
0.0
 40
0.0
 40
0.0
 40
0.0011862984959112
 40
0.0011862984959112
 40
0.0011862984959112
 40
0.0011862984959112
 10
249.2645985472553
 20
35.13457024757053
 30
0.0
 10
249.3823094150998
 20
35.01102029645808
 30
0.0
 10
249.4997491655359
 20
34.88756524734281
 30
0.0
 10
249.6168996345308
 20
34.76421334790837
 30
0.0
  0
LWPOLYLINE
  5
251
330
1F
100
AcDbEntity
  8
0
  6
Continuous
 62
     7
370
    15
100
AcDbPolyline
 90
       25
 70
   128
 43
0.0
 10
249.2645987604
 20
35.1345702159
 10
249.7133349394
 20
36.9179903971
 10
250.267353946
 20
38.7152916946
 10
250.9230271999
 20
40.5147005823
 10
251.6760583568
 20
42.3044302886
 10
252.5215162354
 20
44.0727572195
 10
253.4538611593
 20
45.8080985244
 10
254.4669871038
 20
47.4990858558
 10
255.5542572574
 20
49.1346421736
 10
256.7085494611
 20
50.7040551251
 10
257.9223023071
 20
52.1970447219
 10
259.1875651874
 20
53.6038302563
 10
260.4960503193
 20
54.9151953153
 10
261.8391860877
 20
56.1225520353
 10
263.2081748317
 20
57.2179896712
 10
264.5940487392
 20
58.1943342397
 10
265.9877297536
 20
59.0451907075
 10
267.3800885341
 20
59.7649831122
 10
268.7620045068
 20
60.3489983548
 10
270.124425751
 20
60.7934116452
 10
271.4584271778
 20
61.0953094421
 10
272.7552712185
 20
61.2527153617
 10
274.0064623197
 20
61.2645988234
 10
275.2038048951
 20
61.1308811279
 10
276.3394556794
 20
60.8524383039
  0
LINE
  5
252
330
1F
100
AcDbEntity
  8
0
  6
Continuous
 62
     7
370
    15
100
AcDbLine
 10
276.6500051838
 20
59.875276621
 30
0.0
 11
276.3394556794
 21
60.8524383039
 31
0.0
  0
LWPOLYLINE
  5
253
330
1F
100
AcDbEntity
  8
0
  6
Continuous
 62
     7
370
    15
100
AcDbPolyline
 90
       24
 70
   128
 43
0.0
 10
250.4782347147
 20
34.9062944236
 10
250.9083696455
 20
36.6443186167
 10
251.4438005748
 20
38.3969087218
 10
252.0808515071
 20
40.1520368423
 10
252.8151523412
 20
41.8976614584
 10
253.6416652113
 20
43.6218049917
 10
254.5547187324
 20
45.3126366927
 10
255.5480461948
 20
46.9585532463
 10
256.6148336386
 20
48.5482620377
 10
257.7477593658
 20
50.0708549136
 10
258.9390505757
 20
51.5158827026
 10
260.1805327552
 20
52.8734323973
 10
261.4636873019
 20
54.1341893167
 10
262.7797094758
 20
55.2894994588
 10
264.1195691499
 20
56.3314365107
 10
265.4740724666
 20
57.2528526512
 10
266.8339253872
 20
58.0474228419
 10
268.1897968301
 20
58.7096980058
 10
269.5323833724
 20
59.2351302123
 10
270.8524727171
 20
59.6201169197
 10
272.1410062554
 20
59.8620157992
 10
273.3891430272
 20
59.9591679701
 10
274.5883183319
 20
59.9109044584
 10
274.6692659643
 20
59.9021876616
  0
LINE
  5
254
330
1F
100
AcDbEntity
  8
0
  6
Continuous
 62
     7
370
    15
100
AcDbLine
 10
247.8267540843
 20
35.9646202792
 30
0.0
 11
249.2645987604
 21
35.1345702159
 31
0.0
  0
ARC
  5
255
330
1F
100
AcDbEntity
  8
0
  6
Continuous
 62
     7
370
    15
100
AcDbCircle
 10
271.9906624972
 20
52.0046515774
 30
0.0
 40
10.10614397971308
100
AcDbArc
 50
73.2594992176
 51
98.6689008662
  0
LINE
  5
256
330
1F
100
AcDbEntity
  8
0
  6
Continuous
 62
     7
370
    15
100
AcDbLine
 10
276.3394556794
 20
60.8524383039
 30
0.0
 11
274.9016110034
 21
61.6824883673
 31
0.0
  0
LINE
  5
257
330
1F
100
AcDbEntity
  8
0
  6
Continuous
 62
     7
370
    15
100
AcDbLine
 10
251.7308255523
 20
34.5799524221
 30
0.0
 11
251.1047219346
 21
34.941394347
 31
0.0
  0
SPLINE
  5
258
330
1F
100
AcDbEntity
  8
0
  6
Continuous
 62
     7
370
    15
100
AcDbSpline
210
0.0
220
0.0
230
1.0
 70
     8
 71
     3
 72
    11
 73
     7
 74
     0
 42
0.000000001
 43
0.00000001
 40
0.0
 40
0.0
 40
0.0
 40
0.0
 40
0.3165694752064712
 40
0.6331520400060429
 40
0.9494411625907934
 40
1.0
 40
1.0
 40
1.0
 40
1.0
 10
262.3252482401242
 20
52.92404109500031
 30
0.0
 10
262.1916580599204
 20
52.87686243208024
 30
0.0
 10
261.9244721757931
 20
52.78250315548507
 30
0.0
 10
261.6085219765944
 20
52.52268745629188
 30
0.0
 10
261.4278192856377
 20
52.2994960708194
 30
0.0
 10
261.3928843220877
 20
52.17074689332159
 30
0.0
 10
261.3880695995469
 20
52.15300273377445
 30
0.0
  0
SPLINE
  5
259
330
1F
100
AcDbEntity
  8
0
  6
Continuous
 62
     7
370
    15
100
AcDbSpline
210
0.0
220
0.0
230
1.0
 70
     8
 71
     3
 72
    14
 73
    10
 74
     0
 42
0.000000001
 43
0.00000001
 40
0.0
 40
0.0
 40
0.0
 40
0.0
 40
0.25
 40
0.25
 40
0.5
 40
0.5
 40
0.75
 40
0.75
 40
1.0
 40
1.0
 40
1.0
 40
1.0
 10
251.10472182192
 20
34.94139451647863
 30
0.0
 10
251.0670878284619
 20
34.96312015845867
 30
0.0
 10
251.0213138717727
 20
34.98033191957018
 30
0.0
 10
250.9213779942628
 20
35.00273725320267
 30
0.0
 10
250.8669441254229
 20
35.0079121368025
 30
0.0
 10
250.7607284749309
 20
35.00596994248774
 30
0.0
 10
250.7074121749808
 20
34.99888153956951
 30
0.0
 10
250.6099191076802
 20
34.97414810328482
 30
0.0
 10
250.5650074171505
 20
34.95638726729877
 30
0.0
 10
250.5272541515505
 20
34.93459277097678
 30
0.0
  0
LINE
  5
25A
330
1F
100
AcDbEntity
  8
0
  6
Continuous
 62
     7
370
    15
100
AcDbLine
 10
250.5272541337
 20
34.9345927318
 30
0.0
 11
250.4782347147
 21
34.9062944236
 31
0.0
  0
SPLINE
  5
25B
330
1F
100
AcDbEntity
  8
0
  6
Continuous
 62
     7
370
    15
100
AcDbSpline
210
0.0
220
0.0
230
1.0
 70
     8
 71
     3
 72
    10
 73
     6
 74
     0
 42
0.000000001
 43
0.00000001
 40
0.0
 40
0.0
 40
0.0
 40
0.0
 40
0.5
 40
0.5
 40
1.0
 40
1.0
 40
1.0
 40
1.0
 10
247.7247415189004
 20
35.99406845815525
 30
0.0
 10
247.7320578033226
 20
35.99843645804843
 30
0.0
 10
247.743881663531
 20
35.99896851063669
 30
0.0
 10
247.7780330278088
 20
35.9897384609984
 30
0.0
 10
247.8002899912016
 20
35.9798975836821
 30
0.0
 10
247.8267540092232
 20
35.96462023126578
 30
0.0
  0
SPLINE
  5
25C
330
1F
100
AcDbEntity
  8
0
  6
Continuous
 62
     7
370
    15
100
AcDbSpline
210
0.0
220
0.0
230
1.0
 70
     8
 71
     3
 72
    14
 73
    10
 74
     0
 42
0.000000001
 43
0.00000001
 40
0.0
 40
0.0
 40
0.0
 40
0.0
 40
0.25
 40
0.25
 40
0.5
 40
0.5
 40
0.75
 40
0.75
 40
1.0
 40
1.0
 40
1.0
 40
1.0
 10
262.7423270951498
 20
53.23049290413854
 30
0.0
 10
262.757167987279
 20
53.19197488530295
 30
0.0
 10
262.7565342193751
 20
53.15405624714947
 30
0.0
 10
262.7235986144146
 20
53.08811529738021
 30
0.0
 10
262.6914627690726
 20
53.05984173983824
 30
0.0
 10
262.6065601936682
 20
53.01192271365075
 30
0.0
 10
262.5541432811751
 20
52.99204561620301
 30
0.0
 10
262.44280761688
 20
52.95618869018662
 30
0.0
 10
262.384652940169
 20
52.94031666650319
 30
0.0
 10
262.3252479844376
 20
52.92404132094847
 30
0.0
  0
LINE
  5
25D
330
1F
100
AcDbEntity
  8
0
  6
Continuous
 62
     7
370
    15
100
AcDbLine
 10
262.7262001004
 20
53.2723487467
 30
0.0
 11
262.7423271968
 21
53.2304932571
 31
0.0
  0
SPLINE
  5
25E
330
1F
100
AcDbEntity
  8
0
  6
Continuous
 62
     7
370
    15
100
AcDbSpline
210
0.0
220
0.0
230
1.0
 70
     8
 71
     3
 72
    10
 73
     6
 74
     0
 42
0.000000001
 43
0.00000001
 40
0.0
 40
0.0
 40
0.0
 40
0.0
 40
0.5
 40
0.5
 40
1.0
 40
1.0
 40
1.0
 40
1.0
 10
263.0172722332105
 20
53.81651934051312
 30
0.0
 10
262.9892571834726
 20
53.7444932378251
 30
0.0
 10
262.9514392950228
 20
53.66354675252165
 30
0.0
 10
262.8554635471879
 20
53.48315171618174
 30
0.0
 10
262.7974317698882
 20
53.38382550920694
 30
0.0
 10
262.7262000322982
 20
53.27234904764286
 30
0.0
  0
LINE
  5
25F
330
1F
100
AcDbEntity
  8
0
  6
Continuous
 62
     7
370
    15
100
AcDbLine
 10
253.4105447357
 20
32.5741887415
 30
0.0
 11
251.582690575
 21
33.629386488
 31
0.0
  0
SPLINE
  5
260
330
1F
100
AcDbEntity
  8
0
  6
Continuous
 62
     7
370
    15
100
AcDbSpline
210
0.0
220
0.0
230
1.0
 70
     8
 71
     3
 72
     8
 73
     4
 74
     0
 42
0.000000001
 43
0.00000001
 40
0.0000000000000004
 40
0.0000000000000004
 40
0.0000000000000004
 40
0.0000000000000004
 40
0.0011862984959127
 40
0.0011862984959127
 40
0.0011862984959127
 40
0.0011862984959127
 10
251.5826903075017
 20
33.62938654786982
 30
0.0
 10
251.5716281082441
 20
33.69149499278861
 30
0.0
 10
251.5610021016703
 20
33.75328778009022
 30
0.0
 10
251.550788973853
 20
33.81478060680811
 30
0.0
  0
LINE
  5
261
330
1F
100
AcDbEntity
  8
0
  6
Continuous
 62
     7
370
    15
100
AcDbLine
 10
251.6554748073
 20
34.4145613832
 30
0.0
 11
251.6355814948
 21
34.1852156267
 31
0.0
  0
ARC
  5
262
330
1F
100
AcDbEntity
  8
0
  6
Continuous
 62
     7
370
    15
100
AcDbCircle
 10
267.6382579693
 20
32.7579154457
 30
0.0
 40
16.06296283247987
100
AcDbArc
 50
176.9225000953
 51
185.727139394
  0
LWPOLYLINE
  5
263
330
1F
100
AcDbEntity
  8
0
  6
Continuous
 62
     7
370
    15
100
AcDbPolyline
 90
        3
 70
   128
 43
0.0
 10
250.6566874347
 20
33.5144335723
 10
250.7109435996
 20
34.8809744032
 10
250.7187513033
 20
34.9781003713
  0
ARC
  5
264
330
1F
100
AcDbEntity
  8
0
  6
Continuous
 62
     7
370
    15
100
AcDbCircle
 10
262.3958626673
 20
33.2205918297
 30
0.0
 40
11.74285221366131
100
AcDbArc
 50
178.5661363303
 51
203.8464954102
  0
LINE
  5
265
330
1F
100
AcDbEntity
  8
0
  6
Continuous
 62
     7
370
    15
100
AcDbLine
 10
232.1237747795
 20
70.1366011364
 30
0.0
 11
232.2255992606
 21
70.1016591486
 31
0.0
  0
LINE
  5
266
330
1F
100
AcDbEntity
  8
0
  6
Continuous
 62
     7
370
    15
100
AcDbLine
 10
248.1602767492
 20
35.6051039353
 30
0.0
 11
247.7247409302
 21
35.994068105
 31
0.0
  0
LINE
  5
267
330
1F
100
AcDbEntity
  8
0
  6
Continuous
 62
     7
370
    15
100
AcDbLine
 10
249.6168999865
 20
34.7642132392
 30
0.0
 11
248.1602767492
 21
35.6051039353
 31
0.0
  0
LINE
  5
268
330
1F
100
AcDbEntity
  8
0
  6
Continuous
 62
     7
370
    15
100
AcDbLine
 10
251.6554748073
 20
34.4145613832
 30
0.0
 11
251.6554748073
 21
34.269411546
 31
0.0
  0
LINE
  5
269
330
1F
100
AcDbEntity
  8
0
  6
Continuous
 62
     7
370
    15
100
AcDbLine
 10
251.6554748073
 20
33.5873683486
 30
0.0
 11
251.6554748073
 21
31.1549752241
 31
0.0
  0
LINE
  5
26A
330
1F
100
AcDbEntity
  8
0
  6
Continuous
 62
     7
370
    15
100
AcDbLine
 10
251.6554748073
 20
34.6234510336
 30
0.0
 11
251.6554748073
 21
34.4145613832
 31
0.0
  0
LINE
  5
26B
330
1F
100
AcDbEntity
  8
0
  6
Continuous
 62
     7
370
    15
100
AcDbLine
 10
251.6554748073
 20
31.1549752241
 30
0.0
 11
251.6554748073
 21
28.2849861814
 31
0.0
  0
LWPOLYLINE
  5
26C
330
1F
100
AcDbEntity
  8
0
  6
Continuous
 62
     7
370
    15
100
AcDbPolyline
 90
       36
 70
   128
 43
0.0
 10
271.59588649
 20
31.6826176567
 10
271.6515677452
 20
32.4291768182
 10
271.816821587
 20
33.2160289956
 10
272.0863365245
 20
34.0178841632
 10
272.451450228
 20
34.8089698104
 10
272.9004277636
 20
35.5638601063
 10
273.4188386101
 20
36.2582922203
 10
273.9900205213
 20
36.8699465616
 10
274.5956152109
 20
37.3791636313
 10
275.2161584697
 20
37.7695772783
 10
275.8317054338
 20
38.0286393481
 10
276.4224720471
 20
38.1480226916
 10
276.969470393
 20
38.1238909749
 10
277.455119638
 20
37.9570192384
 10
277.8638107133
 20
37.6527713984
 10
278.1824076316
 20
37.2209259588
 10
278.4006706842
 20
36.6753627084
 10
278.5115847259
 20
36.0336166312
 10
278.5115847259
 20
35.3163139064
 10
278.4006706842
 20
34.5465092024
 10
278.1824076316
 20
33.7489447955
 10
277.8638107133
 20
32.9492551839
 10
277.455119638
 20
32.1731426722
 10
276.969470393
 20
31.4455522526
 10
276.4224720471
 20
30.7898696887
 10
275.8317054338
 20
30.227168419
 10
275.2161584697
 20
29.7755350917
 10
274.5956152109
 20
29.4494847424
 10
273.9900205213
 20
29.2594970666
 10
273.4188386101
 20
29.2116788104
 10
272.9004277636
 20
29.3075665014
 10
272.451450228
 20
29.5440783687
 10
272.0863365245
 20
29.9136127069
 10
271.816821587
 20
30.4042925511
 10
271.6515677452
 20
31.0003467041
 10
271.59588649
 20
31.6826176567
  0
LWPOLYLINE
  5
26D
330
1F
100
AcDbEntity
  8
0
  6
Continuous
 62
     7
370
    15
100
AcDbPolyline
 90
       19
 70
   128
 43
0.0
 10
271.454465374
 20
31.6826176567
 10
271.5081779104
 20
32.4225793695
 10
271.6676839757
 20
33.2020731344
 10
271.9281370115
 20
33.9974144567
 10
272.2816231239
 20
34.7844372814
 10
272.7174017812
 20
35.5392280544
 10
273.2222322875
 20
36.2388532179
 10
273.7807754125
 20
36.8620548532
 10
274.3760601762
 20
37.3898971493
 10
274.9899992009
 20
37.8063418588
 10
275.6039382256
 20
38.0987360592
 10
276.1992229893
 20
38.2581949216
 10
276.7577661144
 20
38.2798734518
 10
277.2625966207
 20
38.1631131842
 10
277.6983752779
 20
37.9114617393
 10
278.0518613903
 20
37.5325652928
 10
278.3123144261
 20
37.0379366447
 10
278.4718204914
 20
36.4426046628
 10
278.5255330278
 20
35.7646581246
  0
LWPOLYLINE
  5
26E
330
1F
100
AcDbEntity
  8
0
  6
Continuous
 62
     7
370
    15
100
AcDbPolyline
 90
       11
 70
   128
 43
0.0
 10
274.9905738246
 20
29.6412656457
 10
274.9899992009
 20
29.6409339225
 10
274.3760601762
 20
29.3485397221
 10
273.7807754125
 20
29.1890808597
 10
273.2222322875
 20
29.1674023295
 10
272.7174017812
 20
29.2841625971
 10
272.2816231239
 20
29.535814042
 10
271.9281370115
 20
29.9147104885
 10
271.6676839757
 20
30.4093391366
 10
271.5081779104
 20
31.0046711185
 10
271.454465374
 20
31.6826176567
  0
SPLINE
  5
26F
330
1F
100
AcDbEntity
  8
0
  6
Continuous
 62
     7
370
    15
100
AcDbSpline
210
0.0
220
0.0
230
1.0
 70
     8
 71
     3
 72
    11
 73
     7
 74
     0
 42
0.000000001
 43
0.00000001
 40
0.0
 40
0.0
 40
0.0
 40
0.0
 40
0.1071593111320463
 40
0.539820512264122
 40
0.9697458743432692
 40
1.0
 40
1.0
 40
1.0
 40
1.0
 10
274.0845195590724
 20
38.88333118801668
 30
0.0
 10
274.0877909891547
 20
38.86898154191199
 30
0.0
 10
274.1042709855653
 20
38.79669446550947
 30
0.0
 10
274.0154260667069
 20
38.66697136674505
 30
0.0
 10
273.8823588454621
 20
38.55543328305666
 30
0.0
 10
273.7937436717122
 20
38.50369050253016
 30
0.0
 10
273.7879177392811
 20
38.50028871556313
 30
0.0
  0
SPLINE
  5
270
330
1F
100
AcDbEntity
  8
0
  6
Continuous
 62
     7
370
    15
100
AcDbSpline
210
0.0
220
0.0
230
1.0
 70
     8
 71
     3
 72
     9
 73
     5
 74
     0
 42
0.000000001
 43
0.00000001
 40
0.0
 40
0.0
 40
0.0
 40
0.0
 40
0.4956342383825294
 40
1.0
 40
1.0
 40
1.0
 40
1.0
 10
273.7879177392811
 20
38.50028871556313
 30
0.0
 10
273.7049751113639
 20
38.45770922219246
 30
0.0
 10
273.5376286661548
 20
38.37180011811277
 30
0.0
 10
273.3242890671226
 20
38.32518509552575
 30
0.0
 10
273.2166878777735
 20
38.30167407415583
 30
0.0
  0
SPLINE
  5
271
330
1F
100
AcDbEntity
  8
0
  6
Continuous
 62
     7
370
    15
100
AcDbSpline
210
0.0
220
0.0
230
1.0
 70
     8
 71
     3
 72
    10
 73
     6
 74
     0
 42
0.000000001
 43
0.00000001
 40
0.0
 40
0.0
 40
0.0
 40
0.0
 40
0.2745785930788591
 40
0.7069632477531308
 40
1.0
 40
1.0
 40
1.0
 40
1.0
 10
272.0090422501127
 20
38.88307952154957
 30
0.0
 10
272.0084815763453
 20
38.93314290052187
 30
0.0
 10
272.0070379978676
 20
39.06204212968203
 30
0.0
 10
272.1202294321741
 20
39.23198224625902
 30
0.0
 10
272.2504074705387
 20
39.32139761657722
 30
0.0
 10
272.3029933871002
 20
39.35751729745375
 30
0.0
  0
ARC
  5
272
330
1F
100
AcDbEntity
  8
0
  6
Continuous
 62
     7
370
    15
100
AcDbCircle
 10
273.0003303239
 20
30.4677061545
 30
0.0
 40
0.4510551640458929
100
AcDbArc
 50
173.8039502848
 51
288.0938743032
  0
LWPOLYLINE
  5
273
330
1F
100
AcDbEntity
  8
0
  6
Continuous
 62
     7
370
    15
100
AcDbPolyline
 90
        9
 70
   128
 43
0.0
 10
276.9810028244
 20
32.2560793263
 10
276.5577745437
 20
31.6563135345
 10
276.0863558693
 20
31.1217807314
 10
275.5819216833
 20
30.6696874613
 10
275.0607097589
 20
30.3145867236
 10
274.5394978345
 20
30.0679089826
 10
274.0350636485
 20
29.9375949385
 10
273.5636449741
 20
29.9278393255
 10
273.1404166934
 20
30.0389561456
  0
ARC
  5
274
330
1F
100
AcDbEntity
  8
0
  6
Continuous
 62
     7
370
    15
100
AcDbCircle
 10
275.828531444
 20
33.5704666097
 30
0.0
 40
1.748085871291012
100
AcDbArc
 50
311.2446937139
 51
354.8314078119
  0
ARC
  5
275
330
1F
100
AcDbEntity
  8
0
  6
Continuous
 62
     7
370
    15
100
AcDbCircle
 10
274.2240432745
 20
35.1311168041
 30
0.0
 40
3.760865957483247
100
AcDbArc
 50
332.8163506303
 51
27.1836493697
  0
ARC
  5
276
330
1F
100
AcDbEntity
  8
0
  6
Continuous
 62
     7
370
    15
100
AcDbCircle
 10
277.1210891939
 20
36.8979289544
 30
0.0
 40
0.4510551640458936
100
AcDbArc
 50
353.8039502848
 51
108.0938743032
  0
LWPOLYLINE
  5
277
330
1F
100
AcDbEntity
  8
0
  6
Continuous
 62
     7
370
    15
100
AcDbPolyline
 90
        9
 70
   128
 43
0.0
 10
273.1404166934
 20
35.1095557826
 10
273.5636449741
 20
35.7093215743
 10
274.0350636485
 20
36.2438543774
 10
274.5394978345
 20
36.6959476475
 10
275.0607097589
 20
37.0510483852
 10
275.5819216833
 20
37.2977261262
 10
276.0863558693
 20
37.4280401703
 10
276.5577745437
 20
37.4377957833
 10
276.9810028244
 20
37.3266789632
  0
ARC
  5
278
330
1F
100
AcDbEntity
  8
0
  6
Continuous
 62
     7
370
    15
100
AcDbCircle
 10
274.2928880738
 20
33.7951684991
 30
0.0
 40
1.748085871290835
100
AcDbArc
 50
131.2446937139
 51
174.8314078119
  0
ARC
  5
279
330
1F
100
AcDbEntity
  8
0
  6
Continuous
 62
     7
370
    15
100
AcDbCircle
 10
275.8973762434
 20
32.2345183047
 30
0.0
 40
3.760865957483146
100
AcDbArc
 50
152.8163506303
 51
207.1836493697
  0
LINE
  5
27A
330
1F
100
AcDbEntity
  8
0
  6
Continuous
 62
     7
370
    15
100
AcDbLine
 10
251.582690575
 20
23.1368373886
 30
0.0
 11
253.4105447357
 21
22.0816396422
 31
0.0
  0
SPLINE
  5
27B
330
1F
100
AcDbEntity
  8
0
  6
Continuous
 62
     7
370
    15
100
AcDbSpline
210
0.0
220
0.0
230
1.0
 70
     8
 71
     3
 72
    14
 73
    10
 74
     0
 42
0.000000001
 43
0.00000001
 40
0.0
 40
0.0
 40
0.0
 40
0.0
 40
0.25
 40
0.25
 40
0.5
 40
0.5
 40
0.75
 40
0.75
 40
1.0
 40
1.0
 40
1.0
 40
1.0
 10
253.3650371858268
 20
21.96327137280919
 30
0.0
 10
253.3483623427604
 20
21.9198987547026
 30
0.0
 10
253.3280670998444
 20
21.87966842525675
 30
0.0
 10
253.2797701207741
 20
21.80589653758462
 30
0.0
 10
253.251551272969
 20
21.77232693090751
 30
0.0
 10
253.1886259245458
 20
21.71877552524488
 30
0.0
 10
253.1534627485289
 20
21.69831949588522
 30
0.0
 10
253.0787797593204
 20
21.68088720237334
 30
0.0
 10
253.040254884112
 20
21.68483451135824
 30
0.0
 10
253.0063111814147
 20
21.70442979382806
 30
0.0
  0
LINE
  5
27C
330
1F
100
AcDbEntity
  8
0
  6
Continuous
 62
     7
370
    15
100
AcDbLine
 10
253.0063110189
 20
21.7044299174
 30
0.0
 11
251.5507890327
 21
22.5446848748
 31
0.0
  0
SPLINE
  5
27D
330
1F
100
AcDbEntity
  8
0
  6
Continuous
 62
     7
370
    15
100
AcDbSpline
210
0.0
220
0.0
230
1.0
 70
     8
 71
     3
 72
     8
 73
     4
 74
     0
 42
0.000000001
 43
0.00000001
 40
0.0
 40
0.0
 40
0.0
 40
0.0
 40
0.0011862984959112
 40
0.0011862984959112
 40
0.0011862984959112
 40
0.0011862984959112
 10
251.550788973853
 20
22.54468487892109
 30
0.0
 10
251.5610021016703
 20
22.74208378081002
 30
0.0
 10
251.5716281082455
 20
22.9394696177868
 30
0.0
 10
251.5826903075032
 20
23.13683711513713
 30
0.0
  0
SPLINE
  5
27E
330
1F
100
AcDbEntity
  8
0
  6
Continuous
 62
     7
370
    15
100
AcDbSpline
210
0.0
220
0.0
230
1.0
 70
     8
 71
     3
 72
    10
 73
     6
 74
     0
 42
0.000000001
 43
0.00000001
 40
0.0
 40
0.0
 40
0.0
 40
0.0
 40
0.0077077016114741
 40
0.4814457848947136
 40
0.9999999999999999
 40
0.9999999999999999
 40
0.9999999999999999
 40
0.9999999999999999
 10
286.1679387502413
 20
40.80183648640725
 30
0.0
 10
286.1680078516948
 20
40.80179637890409
 30
0.0
 10
286.1723241323651
 20
40.79929114591604
 30
0.0
 10
286.1557168069853
 20
40.80891043572313
 30
0.0
 10
286.1240365878385
 20
40.82720013954067
 30
0.0
 10
286.107481071686
 20
40.83675801177552
 30
0.0
  0
ARC
  5
27F
330
1F
100
AcDbEntity
  8
0
  6
Continuous
 62
     7
370
    15
100
AcDbCircle
 10
261.8374250796
 20
23.5656268795
 30
0.0
 40
8.951899161646992
100
AcDbArc
 50
199.5328481655
 51
279.4503485728
  0
SPLINE
  5
280
330
1F
100
AcDbEntity
  8
0
  6
Continuous
 62
     7
370
    15
100
AcDbSpline
210
0.0
220
0.0
230
1.0
 70
     8
 71
     3
 72
     8
 73
     4
 74
     0
 42
0.000000001
 43
0.00000001
 40
0.0
 40
0.0
 40
0.0
 40
0.0
 40
1.0
 40
1.0
 40
1.0
 40
1.0
 10
251.8288086612525
 20
23.634075269724
 30
0.0
 10
251.7466104804668
 20
23.46835494322053
 30
0.0
 10
251.664576112315
 20
23.30260806788256
 30
0.0
 10
251.5826903075032
 20
23.13683711513714
 30
0.0
  0
LINE
  5
281
330
1F
100
AcDbEntity
  8
0
  6
Continuous
 62
     7
370
    15
100
AcDbLine
 10
251.8778281622
 20
23.6623738415
 30
0.0
 11
251.8288087432
 21
23.6340755333
 31
0.0
  0
SPLINE
  5
282
330
1F
100
AcDbEntity
  8
0
  6
Continuous
 62
     7
370
    15
100
AcDbSpline
210
0.0
220
0.0
230
1.0
 70
     8
 71
     3
 72
    12
 73
     8
 74
     0
 42
0.000000001
 43
0.00000001
 40
0.0
 40
0.0
 40
0.0
 40
0.0
 40
0.249999999999997
 40
0.249999999999997
 40
0.499999999999994
 40
0.499999999999994
 40
1.0
 40
1.0
 40
1.0
 40
1.0
 10
251.889610349037
 20
23.99573858168513
 30
0.0
 10
251.9272091336116
 20
23.97403326536085
 30
0.0
 10
251.957386692858
 20
23.94723139478767
 30
0.0
 10
251.9959764275389
 20
23.88960768995768
 30
0.0
 10
252.0048359127288
 20
23.85855956438631
 30
0.0
 10
251.9997884788904
 20
23.766370587981
 30
0.0
 10
251.9530861918152
 20
23.70581916100615
 30
0.0
 10
251.8778281036168
 20
23.66237359145421
 30
0.0
  0
LINE
  5
283
330
1F
100
AcDbEntity
  8
0
  6
Continuous
 62
     7
370
    15
100
AcDbLine
 10
251.1047219346
 20
24.4488452477
 30
0.0
 11
251.8896105113
 21
23.995738717
 31
0.0
  0
SPLINE
  5
284
330
1F
100
AcDbEntity
  8
0
  6
Continuous
 62
     7
370
    15
100
AcDbSpline
210
0.0
220
0.0
230
1.0
 70
     8
 71
     3
 72
    10
 73
     6
 74
     0
 42
0.000000001
 43
0.00000001
 40
0.0
 40
0.0
 40
0.0
 40
0.0
 40
0.5
 40
0.5
 40
1.0
 40
1.0
 40
1.0
 40
1.0
 10
250.5272541515505
 20
24.4420433382449
 30
0.0
 10
250.6033915418891
 20
24.48599651811761
 30
0.0
 10
250.7068993225734
 20
24.5124831842964
 30
0.0
 10
250.9213946146592
 20
24.51631125468373
 30
0.0
 10
251.0288248590774
 20
24.49265946778033
 30
0.0
 10
251.1047218219199
 20
24.44884508374674
 30
0.0
  0
LINE
  5
285
330
1F
100
AcDbEntity
  8
0
  6
Continuous
 62
     7
370
    15
100
AcDbLine
 10
250.4782347147
 20
24.4137453242
 30
0.0
 11
250.5272541337
 21
24.4420436325
 31
0.0
  0
SPLINE
  5
286
330
1F
100
AcDbEntity
  8
0
  6
Continuous
 62
     7
370
    15
100
AcDbSpline
210
0.0
220
0.0
230
1.0
 70
     8
 71
     3
 72
     8
 73
     4
 74
     0
 42
0.000000001
 43
0.00000001
 40
0.0
 40
0.0
 40
0.0
 40
0.0
 40
1.0
 40
1.0
 40
1.0
 40
1.0
 10
249.6168996345317
 20
24.27166391517663
 30
0.0
 10
249.904054460929
 20
24.31893558408866
 30
0.0
 10
250.1911675795142
 20
24.3662930167914
 30
0.0
 10
250.4782347091862
 20
24.41374501651469
 30
0.0
  0
LINE
  5
287
330
1F
100
AcDbEntity
  8
0
  6
Continuous
 62
     7
370
    15
100
AcDbLine
 10
248.1602767492
 20
25.1125548359
 30
0.0
 11
249.6168999865
 21
24.2716641399
 31
0.0
  0
LINE
  5
288
330
1F
100
AcDbEntity
  8
0
  6
Continuous
 62
     7
370
    15
100
AcDbLine
 10
248.1602767492
 20
25.1125548359
 30
0.0
 11
251.3019212765
 21
26.9261876172
 31
0.0
  0
ARC
  5
289
330
1F
100
AcDbEntity
  8
0
  6
Continuous
 62
     7
370
    15
100
AcDbCircle
 10
261.1657391685
 20
25.0342732181
 30
0.0
 40
9.932034848575352
100
AcDbArc
 50
194.5167169379
 51
237.9268746271
  0
SPLINE
  5
28A
330
1F
100
AcDbEntity
  8
0
  6
Continuous
 62
     7
370
    15
100
AcDbSpline
210
0.0
220
0.0
230
1.0
 70
     8
 71
     3
 72
     8
 73
     4
 74
     0
 42
0.000000001
 43
0.00000001
 40
0.0
 40
0.0
 40
0.0
 40
0.0
 40
1.0
 40
1.0
 40
1.0
 40
1.0
 10
276.745559463602
 20
37.27227119444515
 30
0.0
 10
276.8266474011136
 20
37.29820492329562
 30
0.0
 10
276.9051151866563
 20
37.31653327581434
 30
0.0
 10
276.9810029471817
 20
37.32667901246366
 30
0.0
  0
SPLINE
  5
28B
330
1F
100
AcDbEntity
  8
0
  6
Continuous
 62
     7
370
    15
100
AcDbSpline
210
0.0
220
0.0
230
1.0
 70
     8
 71
     3
 72
     8
 73
     4
 74
     0
 42
0.000000001
 43
0.00000001
 40
0.0
 40
0.0
 40
0.0
 40
0.0
 40
1.0
 40
1.0
 40
1.0
 40
1.0
 10
276.3889352315927
 20
37.154353940103
 30
0.0
 10
276.506877069436
 20
37.19474092559505
 30
0.0
 10
276.6258144568102
 20
37.23397407365707
 30
0.0
 10
276.745559463602
 20
37.27227119444515
 30
0.0
  0
ARC
  5
28C
330
1F
100
AcDbEntity
  8
0
  6
Continuous
 62
     7
370
    15
100
AcDbCircle
 10
276.4156584107
 20
33.754702908
 30
0.0
 40
3.399755828750838
100
AcDbArc
 50
90.4503592317
 51
149.5442642356
  0
SPLINE
  5
28D
330
1F
100
AcDbEntity
  8
0
  6
Continuous
 62
     7
370
    15
100
AcDbSpline
210
0.0
220
0.0
230
1.0
 70
     8
 71
     3
 72
     8
 73
     4
 74
     0
 42
0.000000001
 43
0.00000001
 40
0.0
 40
0.0
 40
0.0
 40
0.0
 40
1.0
 40
1.0
 40
1.0
 40
1.0
 10
273.280736235788
 20
35.27207132047952
 30
0.0
 10
273.347083507281
 20
35.34120648211379
 30
0.0
 10
273.4150456565913
 20
35.4098680102265
 30
0.0
 10
273.4849970434815
 20
35.47794610745045
 30
0.0
  0
SPLINE
  5
28E
330
1F
100
AcDbEntity
  8
0
  6
Continuous
 62
     7
370
    15
100
AcDbSpline
210
0.0
220
0.0
230
1.0
 70
     8
 71
     3
 72
     8
 73
     4
 74
     0
 42
0.000000001
 43
0.00000001
 40
0.0
 40
0.0
 40
0.0
 40
0.0
 40
1.0
 40
1.0
 40
1.0
 40
1.0
 10
273.1404167013079
 20
35.109555765516
 30
0.0
 10
273.1889733377314
 20
35.17125025006317
 30
0.0
 10
273.2358128322449
 20
35.22526025055571
 30
0.0
 10
273.280736235788
 20
35.27207132047952
 30
0.0
  0
SPLINE
  5
28F
330
1F
100
AcDbEntity
  8
0
  6
Continuous
 62
     7
370
    15
100
AcDbSpline
210
0.0
220
0.0
230
1.0
 70
     8
 71
     3
 72
     8
 73
     4
 74
     0
 42
0.000000001
 43
0.00000001
 40
0.0
 40
0.0
 40
0.0
 40
0.0
 40
1.0
 40
1.0
 40
1.0
 40
1.0
 10
272.5519101112021
 20
30.51638891938349
 30
0.0
 10
272.5378668214932
 20
30.58004342031858
 30
0.0
 10
272.527482970153
 20
30.64682412048762
 30
0.0
 10
272.5204918404255
 20
30.71663810058948
 30
0.0
  0
ARC
  5
290
330
1F
100
AcDbEntity
  8
0
  6
Continuous
 62
     7
370
    15
100
AcDbCircle
 10
275.8583809266
 20
32.2592093732
 30
0.0
 40
3.677095228451421
100
AcDbArc
 50
155.1964645707
 51
204.8035354293
  0
SPLINE
  5
291
330
1F
100
AcDbEntity
  8
0
  6
Continuous
 62
     7
370
    15
100
AcDbSpline
210
0.0
220
0.0
230
1.0
 70
     8
 71
     3
 72
     8
 73
     4
 74
     0
 42
0.000000001
 43
0.00000001
 40
0.0
 40
0.0
 40
0.0
 40
0.0
 40
1.0
 40
1.0
 40
1.0
 40
1.0
 10
272.5204918404255
 20
33.80178058146944
 30
0.0
 10
272.527482970153
 20
33.84776480022081
 30
0.0
 10
272.5378668214932
 20
33.89802814308413
 30
0.0
 10
272.5519101112021
 20
33.95264762117139
 30
0.0
  0
LWPOLYLINE
  5
292
330
1F
100
AcDbEntity
  8
0
  6
Continuous
 62
     7
370
    15
100
AcDbPolyline
 90
       20
 70
   128
 43
0.0
 10
275.1032905059
 20
36.8039923549
 10
275.253162559
 20
36.7999139029
 10
275.634325733
 20
36.6922727807
 10
275.9397738223
 20
36.4482486503
 10
276.1530400038
 20
36.0809969262
 10
276.2626270783
 20
35.6103162691
 10
276.2626270783
 20
35.0615811233
 10
276.1530400038
 20
34.4643739232
 10
275.9397738223
 20
33.850890307
 10
275.634325733
 20
33.2542033194
 10
275.253162559
 20
32.7064805638
 10
274.8168328646
 20
32.237250027
 10
274.3488592525
 20
31.8718076604
 10
273.8744703674
 20
31.6298549574
 10
273.4192405692
 20
31.5244353247
 10
273.0077114963
 20
31.5612322444
 10
272.6620687313
 20
31.7382618923
 10
272.4009461204
 20
32.0459805166
 10
272.2384204639
 20
32.467798867
 10
272.2176257686
 20
32.5695042223
  0
LINE
  5
293
330
1F
100
AcDbEntity
  8
0
  6
Continuous
 62
     7
370
    15
100
AcDbLine
 10
272.4974480801
 20
30.6004603088
 30
0.0
 11
273.630445918
 21
31.2545260384
 31
0.0
  0
LINE
  5
294
330
1F
100
AcDbEntity
  8
0
  6
Continuous
 62
     7
370
    15
100
AcDbLine
 10
276.7329831089
 20
37.1500506709
 30
0.0
 11
276.740016035
 21
37.2875217395
 31
0.0
  0
ARC
  5
295
330
1F
100
AcDbEntity
  8
0
  6
Continuous
 62
     7
370
    15
100
AcDbCircle
 10
273.3950940519
 20
35.6074794529
 30
0.0
 40
3.677095228450955
100
AcDbArc
 50
335.1964645707
 51
24.8035354293
  0
ARC
  5
296
330
1F
100
AcDbEntity
  8
0
  6
Continuous
 62
     7
370
    15
100
AcDbCircle
 10
275.0867720698
 20
33.9964394756
 30
0.0
 40
1.647634290771158
100
AcDbArc
 50
302.0978965074
 51
2.3816577075
  0
LINE
  5
297
330
1F
100
AcDbEntity
  8
0
  6
Continuous
 62
     7
370
    15
100
AcDbLine
 10
274.8292735112
 20
31.9465944768
 30
0.0
 11
275.9622713491
 21
32.6006602065
 31
0.0
  0
ARC
  5
298
330
1F
100
AcDbEntity
  8
0
  6
Continuous
 62
     7
370
    15
100
AcDbCircle
 10
272.7511532026
 20
34.1620326067
 30
0.0
 40
3.037556604250718
100
AcDbArc
 50
286.8264491711
 51
313.1681742962
  0
ELLIPSE
  5
299
330
1F
100
AcDbEntity
  8
0
  6
Continuous
 62
     7
370
    15
100
AcDbEllipse
 10
251.0090287576
 20
27.9118122615
 30
0.0
 11
-7.507462981948265E-5
 21
1.066811201853401
 31
0.0
210
0.0
220
0.0
230
1.0
 40
0.7174342186
 41
3.534193645557444
 42
5.104989972352366
  0
LINE
  5
29A
330
1F
100
AcDbEntity
  8
0
  6
Continuous
 62
     7
370
    15
100
AcDbLine
 10
276.2208510727
 20
37.0573204938
 30
0.0
 11
276.3889357503
 21
37.1543537128
 31
0.0
  0
ARC
  5
29B
330
1F
100
AcDbEntity
  8
0
  6
Continuous
 62
     7
370
    15
100
AcDbCircle
 10
276.4156625024
 20
33.7546958202
 30
0.0
 40
3.308365340717353
100
AcDbArc
 50
93.3757859468
 51
146.6188375205
  0
LINE
  5
29C
330
1F
100
AcDbEntity
  8
0
  6
Continuous
 62
     7
370
    15
100
AcDbLine
 10
273.484997473
 20
35.4779458287
 30
0.0
 11
273.6530821507
 21
35.5749790477
 31
0.0
  0
SPLINE
  5
29D
330
1F
100
AcDbEntity
  8
0
  6
Continuous
 62
     7
370
    15
100
AcDbSpline
210
0.0
220
0.0
230
1.0
 70
     8
 71
     3
 72
     9
 73
     5
 74
     0
 42
0.000000001
 43
0.00000001
 40
0.0
 40
0.0
 40
0.0
 40
0.0
 40
0.4515137290780097
 40
1.0
 40
1.0
 40
1.0
 40
1.0
 10
275.4741749526206
 20
36.98416221412541
 30
0.0
 10
275.5844534346242
 20
37.0020382560327
 30
0.0
 10
275.8286951373711
 20
37.04162961451428
 30
0.0
 10
276.0819462915418
 20
37.05176265837679
 30
0.0
 10
276.2208510726995
 20
37.05732049381803
 30
0.0
  0
LWPOLYLINE
  5
29E
330
1F
100
AcDbEntity
  8
0
  6
Continuous
 62
     7
370
    15
100
AcDbPolyline
 90
       18
 70
   128
 43
0.0
 10
275.0364103721
 20
36.7693932914
 10
275.1577093314
 20
36.7501954308
 10
275.5085944399
 20
36.5937908508
 10
275.7748905765
 20
36.3020168417
 10
275.941121369
 20
35.891830089
 10
275.9976262988
 20
35.387069444
 10
275.941121369
 20
34.8170695959
 10
275.7748905765
 20
34.2149568553
 10
275.5085944399
 20
33.6157238714
 10
275.1577093314
 20
33.0541959684
 10
274.7426273286
 20
32.5630068304
 10
274.2874714931
 20
32.1707030641
 10
273.818693829
 20
31.900083479
 10
273.3635379935
 20
31.7668755034
 10
272.9484559907
 20
31.7788211619
 10
272.5975708822
 20
31.935225742
 10
272.3312747456
 20
32.226999751
 10
272.2798211815
 20
32.3193327589
  0
ARC
  5
29F
330
1F
100
AcDbEntity
  8
0
  6
Continuous
 62
     7
370
    15
100
AcDbCircle
 10
260.9884529484
 20
27.3018863463
 30
0.0
 40
10.89981861700018
100
AcDbArc
 50
195.3652578774
 51
215.9035762319
  0
ARC
  5
2A0
330
1F
100
AcDbEntity
  8
0
  6
Continuous
 62
     7
370
    15
100
AcDbCircle
 10
258.4053735245
 20
26.0520535371
 30
0.0
 40
9.398897044490823
100
AcDbArc
 50
193.4589411371
 51
247.459679895
  0
SPLINE
  5
2A1
330
1F
100
AcDbEntity
  8
0
  6
Continuous
 62
     7
370
    15
100
AcDbSpline
210
0.0
220
0.0
230
1.0
 70
     8
 71
     3
 72
     8
 73
     4
 74
     0
 42
0.000000001
 43
0.00000001
 40
0.0000000000000004
 40
0.0000000000000004
 40
0.0000000000000004
 40
0.0000000000000004
 40
0.0011862984959127
 40
0.0011862984959127
 40
0.0011862984959127
 40
0.0011862984959127
 10
249.6168996345322
 20
24.27166391517567
 30
0.0
 10
249.4997491655371
 20
24.13553987234091
 30
0.0
 10
249.3823094151
 20
23.99981629717798
 30
0.0
 10
249.2645985472553
 20
23.8644745196835
 30
0.0
  0
LINE
  5
2A2
330
1F
100
AcDbEntity
  8
0
  6
Continuous
 62
     7
370
    15
100
AcDbLine
 10
247.7247409302
 20
24.8610731284
 30
0.0
 11
248.1602767492
 21
25.1125548359
 31
0.0
  0
LINE
  5
2A3
330
1F
100
AcDbEntity
  8
0
  6
Continuous
 62
     7
370
    15
100
AcDbLine
 10
249.2645987604
 20
23.8644744265
 30
0.0
 11
247.8267540843
 21
24.6945244898
 31
0.0
  0
SPLINE
  5
2A4
330
1F
100
AcDbEntity
  8
0
  6
Continuous
 62
     7
370
    15
100
AcDbSpline
210
0.0
220
0.0
230
1.0
 70
     8
 71
     3
 72
    10
 73
     6
 74
     0
 42
0.000000001
 43
0.00000001
 40
0.0
 40
0.0
 40
0.0
 40
0.0
 40
0.5
 40
0.5
 40
1.0
 40
1.0
 40
1.0
 40
1.0
 10
247.8267540092232
 20
24.69452450337874
 30
0.0
 10
247.8003445799426
 20
24.70977034238567
 30
0.0
 10
247.7780611757335
 20
24.73362776479792
 30
0.0
 10
247.7439540409119
 20
24.7915538565322
 30
0.0
 10
247.7320540108571
 20
24.82545238801306
 30
0.0
 10
247.7247415189003
 20
24.86107343046741
 30
0.0
  0
ARC
  5
2A5
330
1F
100
AcDbEntity
  8
0
  6
Continuous
 62
     7
370
    15
100
AcDbCircle
 10
257.2023242061
 20
26.9332494046
 30
0.0
 40
9.592602115822018
100
AcDbArc
 50
200.6309312554
 51
238.3428016422
  0
SPLINE
  5
2A6
330
1F
100
AcDbEntity
  8
0
  6
Continuous
 62
     7
370
    15
100
AcDbSpline
210
0.0
220
0.0
230
1.0
 70
     8
 71
     3
 72
     8
 73
     4
 74
     0
 42
0.000000001
 43
0.00000001
 40
0.0
 40
0.0
 40
0.0
 40
0.0
 40
1.0
 40
1.0
 40
1.0
 40
1.0
 10
273.280736235788
 20
30.14827772589643
 30
0.0
 10
273.2358128322449
 20
30.10146665597263
 30
0.0
 10
273.1889733377314
 20
30.06487967968849
 30
0.0
 10
273.1404167013079
 20
30.03895602093774
 30
0.0
  0
SPLINE
  5
2A7
330
1F
100
AcDbEntity
  8
0
  6
Continuous
 62
     7
370
    15
100
AcDbSpline
210
0.0
220
0.0
230
1.0
 70
     8
 71
     3
 72
     8
 73
     4
 74
     0
 42
0.000000001
 43
0.00000001
 40
0.0
 40
0.0
 40
0.0
 40
0.0
 40
1.0
 40
1.0
 40
1.0
 40
1.0
 10
277.5695095372874
 20
36.84924611401791
 30
0.0
 10
277.5616841300783
 20
36.79821614309293
 30
0.0
 10
277.5473781289631
 20
36.7456885913596
 30
0.0
 10
277.5267387139439
 20
36.69182538521824
 30
0.0
  0
LINE
  5
2A8
330
1F
100
AcDbEntity
  8
0
  6
Continuous
 62
     7
370
    15
100
AcDbLine
 10
276.7329831089
 20
37.1500506709
 30
0.0
 11
277.5267386582
 21
36.6918253459
 31
0.0
  0
ARC
  5
2A9
330
1F
100
AcDbEntity
  8
0
  6
Continuous
 62
     7
370
    15
100
AcDbCircle
 10
273.4582748127
 20
33.7538029975
 30
0.0
 40
3.39975582875102
100
AcDbArc
 50
270.4503592317
 51
329.5442642356
  0
SPLINE
  5
2AA
330
1F
100
AcDbEntity
  8
0
  6
Continuous
 62
     7
370
    15
100
AcDbSpline
210
0.0
220
0.0
230
1.0
 70
     8
 71
     3
 72
     8
 73
     4
 74
     0
 42
0.000000001
 43
0.00000001
 40
0.0
 40
0.0
 40
0.0
 40
0.0
 40
1.0
 40
1.0
 40
1.0
 40
1.0
 10
276.745559463602
 20
32.14847759986207
 30
0.0
 10
276.6258008749695
 20
32.11017613529877
 30
0.0
 10
276.5068627325575
 20
32.07094242161499
 30
0.0
 10
276.3889352315927
 20
32.03056034551992
 30
0.0
  0
SPLINE
  5
2AB
330
1F
100
AcDbEntity
  8
0
  6
Continuous
 62
     7
370
    15
100
AcDbSpline
210
0.0
220
0.0
230
1.0
 70
     8
 71
     3
 72
     8
 73
     4
 74
     0
 42
0.000000001
 43
0.00000001
 40
0.0
 40
0.0
 40
0.0
 40
0.0
 40
1.0
 40
1.0
 40
1.0
 40
1.0
 10
276.9810029471817
 20
32.2560792678854
 30
0.0
 10
276.9051151866563
 20
32.21016270543966
 30
0.0
 10
276.8266474011136
 20
32.17441132871254
 30
0.0
 10
276.745559463602
 20
32.14847759986207
 30
0.0
  0
SPLINE
  5
2AC
330
1F
100
AcDbEntity
  8
0
  6
Continuous
 62
     7
370
    15
100
AcDbSpline
210
0.0
220
0.0
230
1.0
 70
     8
 71
     3
 72
     8
 73
     4
 74
     0
 42
0.000000001
 43
0.00000001
 40
0.0
 40
0.0
 40
0.0
 40
0.0
 40
1.0
 40
1.0
 40
1.0
 40
1.0
 10
273.4849970434815
 20
30.35415251286737
 30
0.0
 10
273.4150371523448
 20
30.28606613913963
 30
0.0
 10
273.3470759828263
 20
30.21740504690098
 30
0.0
 10
273.280736235788
 20
30.14827772589644
 30
0.0
  0
LINE
  5
2AD
330
1F
100
AcDbEntity
  8
0
  6
Continuous
 62
     7
370
    15
100
AcDbLine
 10
273.630445918
 20
31.2545260384
 30
0.0
 11
273.8782733385
 21
31.1114583138
 31
0.0
  0
SPLINE
  5
2AE
330
1F
100
AcDbEntity
  8
0
  6
Continuous
 62
     7
370
    15
100
AcDbSpline
210
0.0
220
0.0
230
1.0
 70
     8
 71
     3
 72
    10
 73
     6
 74
     0
 42
0.000000001
 43
0.00000001
 40
0.0
 40
0.0
 40
0.0
 40
0.0
 40
0.5
 40
0.5
 40
1.0
 40
1.0
 40
1.0
 40
1.0
 10
273.8782730346473
 20
31.11145853354627
 30
0.0
 10
273.8093458650801
 20
31.00608790008136
 30
0.0
 10
273.7607323203554
 20
30.89736182735275
 30
0.0
 10
273.6892957427598
 20
30.67564956107625
 30
0.0
 10
273.6668132698069
 20
30.56295631556474
 30
0.0
 10
273.6530816509107
 20
30.45118569132696
 30
0.0
  0
LINE
  5
2AF
330
1F
100
AcDbEntity
  8
0
  6
Continuous
 62
     7
370
    15
100
AcDbLine
 10
273.6530821507
 20
30.4511854117
 30
0.0
 11
273.484997473
 21
30.3541521927
 31
0.0
  0
ARC
  5
2B0
330
1F
100
AcDbEntity
  8
0
  6
Continuous
 62
     7
370
    15
100
AcDbCircle
 10
273.458270721
 20
33.7538100853
 30
0.0
 40
3.308365340716971
100
AcDbArc
 50
273.3757859468
 51
326.6188375205
  0
LINE
  5
2B1
330
1F
100
AcDbEntity
  8
0
  6
Continuous
 62
     7
370
    15
100
AcDbLine
 10
276.3889357503
 20
32.0305600769
 30
0.0
 11
276.2208510727
 21
31.9335268579
 31
0.0
  0
SPLINE
  5
2B2
330
1F
100
AcDbEntity
  8
0
  6
Continuous
 62
     7
370
    15
100
AcDbSpline
210
0.0
220
0.0
230
1.0
 70
     8
 71
     3
 72
     8
 73
     4
 74
     0
 42
0.000000001
 43
0.00000001
 40
0.0
 40
0.0
 40
0.0
 40
0.0
 40
1.0
 40
1.0
 40
1.0
 40
1.0
 10
277.5267387139439
 20
33.60668290433827
 30
0.0
 10
277.5473781289631
 20
33.54474791162642
 30
0.0
 10
277.5616841300783
 20
33.48023142032739
 30
0.0
 10
277.5695095372874
 20
33.41298741223002
 30
0.0
  0
ARC
  5
2B3
330
1F
100
AcDbEntity
  8
0
  6
Continuous
 62
     7
370
    15
100
AcDbCircle
 10
274.1888496012
 20
35.149254128
 30
0.0
 40
3.677095228451625
100
AcDbArc
 50
335.1964645707
 51
24.8035354293
  0
ARC
  5
2B4
330
1F
100
AcDbEntity
  8
0
  6
Continuous
 62
     7
370
    15
100
AcDbCircle
 10
272.9989806231
 20
34.0189648821
 30
0.0
 40
3.037556604250653
100
AcDbArc
 50
286.8264491711
 51
313.1681742962
  0
SPLINE
  5
2B5
330
1F
100
AcDbEntity
  8
0
  6
Continuous
 62
     7
370
    15
100
AcDbSpline
210
0.0
220
0.0
230
1.0
 70
     8
 71
     3
 72
    10
 73
     6
 74
     0
 42
0.000000001
 43
0.00000001
 40
0.0
 40
0.0
 40
0.0
 40
0.0
 40
0.5
 40
0.5
 40
1.0
 40
1.0
 40
1.0
 40
1.0
 10
276.2208506241635
 20
31.93352716706045
 30
0.0
 10
276.0257838462235
 20
31.92554056579949
 30
0.0
 10
275.8303024292626
 20
31.91246739620312
 30
0.0
 10
275.4474431102303
 20
31.87129408760394
 30
0.0
 10
275.2595041845382
 20
31.84329083991469
 30
0.0
 10
275.0771005868831
 20
31.80352694836169
 30
0.0
  0
LINE
  5
2B6
330
1F
100
AcDbEntity
  8
0
  6
Continuous
 62
     7
370
    15
100
AcDbLine
 10
276.7329831089
 20
34.064908235
 30
0.0
 11
277.5267386582
 21
33.60668291
 31
0.0
  0
ELLIPSE
  5
2B7
330
1F
100
AcDbEntity
  8
0
  6
Continuous
 62
     7
370
    15
100
AcDbEllipse
 10
250.9483685858
 20
27.8767825059
 30
0.0
 11
0.3250094736511642
 21
1.213179526238669
 31
0.0
210
0.0
220
0.0
230
1.0
 40
0.5176380889
 41
3.619174351347739
 42
5.189970678142589
  0
LINE
  5
2B8
330
1F
100
AcDbEntity
  8
0
  6
Continuous
 62
     7
370
    15
100
AcDbLine
 10
275.0771009317
 20
31.8035267523
 30
0.0
 11
274.8292735112
 21
31.9465944768
 31
0.0
  0
SPLINE
  5
2B9
330
1F
100
AcDbEntity
  8
0
  6
Continuous
 62
     7
370
    15
100
AcDbSpline
210
0.0
220
0.0
230
1.0
 70
     8
 71
     3
 72
    12
 73
     8
 74
     0
 42
0.000000001
 43
0.00000001
 40
0.0
 40
0.0
 40
0.0
 40
0.0
 40
0.5000000000000003
 40
0.5000000000000003
 40
0.7500000000000001
 40
0.7500000000000001
 40
1.0
 40
1.0
 40
1.0
 40
1.0
 10
277.4822256747756
 20
59.88110580688821
 30
0.0
 10
277.5452855520052
 20
59.91750949913848
 30
0.0
 10
277.6252185052364
 20
59.94434081099006
 30
0.0
 10
277.7581976935429
 20
59.95809765250059
 30
0.0
 10
277.803868862655
 20
59.95797651870166
 30
0.0
 10
277.8915066812925
 20
59.94520213708002
 30
0.0
 10
277.9322505921467
 20
59.93236215142526
 30
0.0
 10
277.9637642744852
 20
59.91416968984862
 30
0.0
  0
LINE
  5
2BA
330
1F
100
AcDbEntity
  8
0
  6
Continuous
 62
     7
370
    15
100
AcDbLine
 10
277.9637645987
 20
59.9141700614
 30
0.0
 11
278.6234329129
 21
59.5333516495
 31
0.0
  0
LINE
  5
2BB
330
1F
100
AcDbEntity
  8
0
  6
Continuous
 62
     7
370
    15
100
AcDbLine
 10
280.2932999413
 20
57.4585554329
 30
0.0
 11
281.6877995471
 21
57.7643304463
 31
0.0
  0
LINE
  5
2BC
330
1F
100
AcDbEntity
  8
0
  6
Continuous
 62
     7
370
    15
100
AcDbLine
 10
281.6877995471
 20
57.7643304463
 30
0.0
 11
283.1433215333
 21
56.924075489
 31
0.0
  0
SPLINE
  5
2BD
330
1F
100
AcDbEntity
  8
0
  6
Continuous
 62
     7
370
    15
100
AcDbSpline
210
0.0
220
0.0
230
1.0
 70
     8
 71
     3
 72
    12
 73
     8
 74
     0
 42
0.000000001
 43
0.00000001
 40
0.0
 40
0.0
 40
0.0
 40
0.0
 40
0.250000000000004
 40
0.250000000000004
 40
0.500000000000008
 40
0.500000000000008
 40
1.0
 40
1.0
 40
1.0
 40
1.0
 10
283.1433214466769
 20
56.92407498029783
 30
0.0
 10
283.1749775771769
 20
56.90580028514791
 30
0.0
 10
283.1972768541871
 20
56.88197617434962
 30
0.0
 10
283.219097424779
 20
56.83194427190192
 30
0.0
 10
283.2193781871052
 20
56.80555306348803
 30
0.0
 10
283.1960108129844
 20
56.72947783349311
 30
0.0
 10
283.1489724101795
 20
56.68241477854269
 30
0.0
 10
283.086046915679
 20
56.64608866379072
 30
0.0
  0
LINE
  5
2BE
330
1F
100
AcDbEntity
  8
0
  6
Continuous
 62
     7
370
    15
100
AcDbLine
 10
277.4822259062
 20
59.881106184
 30
0.0
 11
277.3904353385
 21
59.8281166172
 31
0.0
  0
SPLINE
  5
2BF
330
1F
100
AcDbEntity
  8
0
  6
Continuous
 62
     7
370
    15
100
AcDbSpline
210
0.0
220
0.0
230
1.0
 70
     8
 71
     3
 72
    10
 73
     6
 74
     0
 42
0.000000001
 43
0.00000001
 40
0.0
 40
0.0
 40
0.0
 40
0.0
 40
0.4036802891201358
 40
0.8084226022044558
 40
0.9999999999999999
 40
0.9999999999999999
 40
0.9999999999999999
 40
0.9999999999999999
 10
286.107481071686
 20
51.57014951107924
 30
0.0
 10
286.1257229036034
 20
51.60891374836257
 30
0.0
 10
286.1622545590375
 20
51.68654420598377
 30
0.0
 10
286.1761890751944
 20
51.79397484668137
 30
0.0
 10
286.1581218164475
 20
51.84727627530518
 30
0.0
 10
286.1523174159674
 20
51.8644002254417
 30
0.0
  0
ARC
  5
2C0
330
1F
100
AcDbEntity
  8
0
  6
Continuous
 62
     7
370
    15
100
AcDbCircle
 10
276.1112283004
 20
49.4943887727
 30
0.0
 40
10.22988660437012
100
AcDbArc
 50
21.5433794879
 51
46.5748194009
  0
LWPOLYLINE
  5
2C1
330
1F
100
AcDbEntity
  8
0
  6
Continuous
 62
     7
370
    15
100
AcDbPolyline
 90
        3
 70
   128
 43
0.0
 10
280.293299612
 20
58.1395452194
 10
280.33175466
 20
58.092081122
 10
280.7201760646
 20
57.5741314231
  0
LINE
  5
2C2
330
1F
100
AcDbEntity
  8
0
  6
Continuous
 62
     7
370
    15
100
AcDbLine
 10
286.0031992318
 20
40.896978587
 30
0.0
 11
284.1387958508
 21
41.9732757491
 31
0.0
  0
LINE
  5
2C3
330
1F
100
AcDbEntity
  8
0
  6
Continuous
 62
     7
370
    15
100
AcDbLine
 10
283.3307093853
 20
41.8197356812
 30
0.0
 11
283.3797288043
 21
41.8480339895
 31
0.0
  0
SPLINE
  5
2C4
330
1F
100
AcDbEntity
  8
0
  6
Continuous
 62
     7
370
    15
100
AcDbSpline
210
0.0
220
0.0
230
1.0
 70
     8
 71
     3
 72
    10
 73
     6
 74
     0
 42
0.000000001
 43
0.00000001
 40
0.0
 40
0.0
 40
0.0
 40
0.0
 40
0.348286225286859
 40
0.7262043038763673
 40
0.9999999999999999
 40
0.9999999999999999
 40
0.9999999999999999
 40
0.9999999999999999
 10
282.9979840531394
 20
41.74856317020303
 30
0.0
 10
283.0406317128155
 20
41.74865079357772
 30
0.0
 10
283.1295554535736
 20
41.74883349523861
 30
0.0
 10
283.2455124083018
 20
41.77705666923858
 30
0.0
 10
283.305505358343
 20
41.80710984631303
 30
0.0
 10
283.3307093852584
 20
41.81973568123796
 30
0.0
  0
SPLINE
  5
2C5
330
1F
100
AcDbEntity
  8
0
  6
Continuous
 62
     7
370
    15
100
AcDbSpline
210
0.0
220
0.0
230
1.0
 70
     8
 71
     3
 72
     8
 73
     4
 74
     0
 42
0.000000001
 43
0.00000001
 40
0.0
 40
0.0
 40
0.0
 40
0.0
 40
1.0
 40
1.0
 40
1.0
 40
1.0
 10
283.3797289720127
 20
41.84803387011598
 30
0.0
 10
283.6327149256936
 20
41.88985227481382
 30
0.0
 10
283.8857381880409
 20
41.9315974793892
 30
0.0
 10
284.1387956770456
 20
41.9732755307863
 30
0.0
  0
LWPOLYLINE
  5
2C6
330
1F
100
AcDbEntity
  8
0
  6
Continuous
 62
     7
370
     0
100
AcDbPolyline
 90
       22
 70
   128
 43
0.0
 10
253.0063110189
 20
32.9745257068
 10
253.4550471979
 20
34.757945888
 10
254.0090662045
 20
36.5552471856
 10
254.6647394585
 20
38.3546560733
 10
255.4177706154
 20
40.1443857795
 10
256.2632284939
 20
41.9127127105
 10
257.1955734178
 20
43.6480540154
 10
258.2086993623
 20
45.3390413468
 10
259.2959695159
 20
46.9745976646
 10
260.4502617197
 20
48.544010616
 10
261.6640145656
 20
50.0370002129
 10
262.9292774459
 20
51.4437857472
 10
264.2377625779
 20
52.7551508062
 10
265.5808983462
 20
53.9625075263
 10
266.9498870902
 20
55.0579451622
 10
268.3357609977
 20
56.0342897307
 10
269.7294420121
 20
56.8851461984
 10
271.1218007926
 20
57.6049386032
 10
272.5037167653
 20
58.1889538458
 10
273.8661380096
 20
58.6333671362
 10
275.2001394363
 20
58.9352649331
 10
275.6472147661
 20
59.005279866
  0
LINE
  5
2C7
330
1F
100
AcDbEntity
  8
0
  6
Continuous
 62
     7
370
     0
100
AcDbLine
 10
253.365036676
 20
32.6400148772
 30
0.0
 11
253.583885504
 21
33.5917140305
 31
0.0
  0
LWPOLYLINE
  5
2C8
330
1F
100
AcDbEntity
  8
0
  6
Continuous
 62
     7
370
     0
100
AcDbPolyline
 90
       13
 70
   128
 43
0.0
 10
265.5718644327
 20
53.3979151338
 10
265.8372512839
 20
53.6259355622
 10
267.2045533308
 20
54.719715072
 10
268.5888355363
 20
55.6931681296
 10
269.9808261698
 20
56.5397742081
 10
271.3712019699
 20
57.253863648
 10
272.7506505409
 20
57.8306506372
 10
274.1099325035
 20
58.2662766933
 10
275.4399438091
 20
58.5578192611
 10
276.7317763261
 20
58.70332973
 10
277.9767771089
 20
58.7018296257
 10
279.1666083256
 20
58.5533330387
 10
280.2933002706
 20
58.2588316
  0
LWPOLYLINE
  5
2C9
330
1F
100
AcDbEntity
  8
0
  6
Continuous
 62
     7
370
     0
100
AcDbPolyline
 90
       33
 70
   128
 43
0.0
 10
286.1074810717
 20
40.8367580118
 10
285.6781982974
 20
39.0785164525
 10
285.1445796826
 20
37.3050621174
 10
284.5101194644
 20
35.5280042854
 10
283.7789691073
 20
33.7589753678
 10
282.9559149129
 20
32.0095552444
 10
282.0463450923
 20
30.2911975016
 10
281.056215522
 20
28.6151495873
 10
279.9920056214
 20
26.9923839927
 10
278.860682133
 20
25.4335233505
 10
277.6696517068
 20
23.9487719974
 10
276.4267108511
 20
22.5478490583
 10
275.1399955542
 20
21.2399259029
 10
273.8179295881
 20
20.0335643627
 10
272.4691667216
 20
18.9366605577
 10
271.1025367194
 20
17.9563954707
 10
269.7269854816
 20
17.0991867029
 10
268.3515177452
 20
16.37064627
 10
266.9851373314
 20
15.7755415455
 10
265.6367890186
 20
15.3177693088
 10
264.315299279
 20
15.0003245753
 10
263.0293189178
 20
14.8252887756
 10
261.7872657801
 20
14.7938042859
 10
260.5972712444
 20
14.9060785198
 10
259.467124575
 20
15.1613776601
 10
258.4042245195
 20
15.5580291351
 10
257.415527942
 20
16.0934360715
 10
256.5075083352
 20
16.7640944094
 10
255.6861084046
 20
17.5656134389
 10
254.9567058246
 20
18.492746222
 10
254.3240763601
 20
19.5394253375
 10
253.7923596218
 20
20.698796345
 10
253.365036676
 20
21.9632710191
  0
ARC
  5
2CA
330
1F
100
AcDbEntity
  8
0
  6
Continuous
 62
     7
370
     0
100
AcDbCircle
 10
275.9273416689
 20
48.9476782166
 30
0.0
 40
10.51249703684817
100
AcDbArc
 50
14.4456939373
 51
47.0804331381
  0
LWPOLYLINE
  5
2CB
330
1F
100
AcDbEntity
  8
0
  6
Continuous
 62
     7
370
     0
100
AcDbPolyline
 90
       22
 70
   128
 43
0.0
 10
264.789983758
 20
33.8971245098
 10
264.8452685694
 20
34.7809333819
 10
265.009887245
 20
35.7088295269
 10
265.2801631307
 20
36.6600854478
 10
265.6500580319
 20
37.6134514312
 10
266.1113098493
 20
38.5476314891
 10
266.6536143369
 20
39.4417566349
 10
267.2648575685
 20
40.2758544475
 10
267.9313856116
 20
41.0312920155
 10
268.6383089394
 20
41.6911942583
 10
269.369836272
 20
42.2408203004
 10
270.1096264861
 20
42.6678921005
 10
270.8411538187
 20
42.9628695388
 10
271.5480771465
 20
43.119163597
 10
272.2146051896
 20
43.1332829271
 10
272.8258484212
 20
43.0049115279
 10
273.3681529088
 20
42.7369178159
 10
273.8294047262
 20
42.3352877707
 10
274.1992996274
 20
41.8089933498
 10
274.4695755131
 20
41.1697913242
 10
274.6341941887
 20
40.4319598564
 10
274.6892168994
 20
39.670622005
  0
LWPOLYLINE
  5
2CC
330
1F
100
AcDbEntity
  8
0
  6
Continuous
 62
     7
370
     0
100
AcDbPolyline
 90
       12
 70
   128
 43
0.0
 10
269.6896233397
 20
31.0101335328
 10
269.369836272
 20
30.8412138783
 10
268.6383089394
 20
30.54623644
 10
267.9313856116
 20
30.3899423817
 10
267.2648575685
 20
30.3758230517
 10
266.6536143369
 20
30.5041944509
 10
266.1113098493
 20
30.7721881629
 10
265.6500580319
 20
31.1738182081
 10
265.2801631307
 20
31.700112629
 10
265.009887245
 20
32.3393146545
 10
264.8452685694
 20
33.0771461223
 10
264.789983758
 20
33.8971245098
  0
LWPOLYLINE
  5
2CD
330
1F
100
AcDbEntity
  8
0
  6
Continuous
 62
     7
370
     0
100
AcDbPolyline
 90
       22
 70
   128
 43
0.0
 10
247.8267540843
 20
35.9646202792
 10
248.2754902634
 20
37.7480404604
 10
248.8295092699
 20
39.545341758
 10
249.4851825239
 20
41.3447506457
 10
250.2382136808
 20
43.1344803519
 10
251.0836715594
 20
44.9028072829
 10
252.0160164832
 20
46.6381485877
 10
253.0291424278
 20
48.3291359192
 10
254.1164125813
 20
49.9646922369
 10
255.2707047851
 20
51.5341051884
 10
256.4844576311
 20
53.0270947853
 10
257.7497205113
 20
54.4338803196
 10
259.0582056433
 20
55.7452453786
 10
260.4013414116
 20
56.9526020987
 10
261.7703301556
 20
58.0480397346
 10
263.1562040632
 20
59.0243843031
 10
264.5498850775
 20
59.8752407708
 10
265.942243858
 20
60.5950331756
 10
267.3241598307
 20
61.1790484181
 10
268.686581075
 20
61.6234617086
 10
270.0205825017
 20
61.9253595055
 10
270.467421414
 20
61.9953413804
  0
LWPOLYLINE
  5
2CE
330
1F
100
AcDbEntity
  8
0
  6
Continuous
 62
     7
370
     0
100
AcDbPolyline
 90
       20
 70
   128
 43
0.0
 10
251.1047219346
 20
34.941394347
 10
251.5364439577
 20
36.6557406187
 10
252.0722779162
 20
38.383607277
 10
252.7085056679
 20
40.1130021709
 10
253.4407096962
 20
41.8319210479
 10
254.2638086716
 20
43.5284334824
 10
255.1720890621
 20
45.1907642426
 10
256.1592485967
 20
46.8073769375
 10
257.2184338026
 20
48.3670496789
 10
258.3422933476
 20
49.8589575871
 10
259.523028089
 20
51.2727442697
 10
260.7524411234
 20
52.5985993839
 10
262.0220006773
 20
53.8273192773
 10
263.3228944374
 20
54.9503763758
 10
264.6460932647
 20
55.9599742153
 10
265.9824133032
 20
56.8491076318
 10
267.3225793239
 20
57.6116038916
 10
268.6572895092
 20
58.2421707367
 10
269.9772802369
 20
58.7364307427
 10
271.120598455
 20
59.0561578036
  0
LINE
  5
2CF
330
1F
100
AcDbEntity
  8
0
  6
Continuous
 62
     7
370
     0
100
AcDbLine
 10
262.3252482401
 20
52.924041095
 30
0.0
 11
262.6834747205
 21
53.2606777115
 31
0.0
  0
LWPOLYLINE
  5
2D0
330
1F
100
AcDbEntity
  8
0
  6
Continuous
 62
     7
370
     0
100
AcDbPolyline
 90
       23
 70
   128
 43
0.0
 10
250.5272541337
 20
34.9345927318
 10
250.9576063842
 20
36.669226761
 10
251.4930847287
 20
38.4182784278
 10
252.1300065863
 20
40.1697259201
 10
252.8639965873
 20
41.9115330415
 10
253.6900102808
 20
43.6317298193
 10
254.6023696959
 20
45.3184915881
 10
255.594804172
 20
46.9602287214
 10
256.660493822
 20
48.545655069
 10
257.792114314
 20
50.0638761662
 10
258.9818888959
 20
51.5044572908
 10
260.2216397619
 20
52.8574987437
 10
261.5028473218
 20
54.113700483
 10
262.8167058477
 20
55.2644292293
 10
264.1541855419
 20
56.301777111
 10
265.5060944402
 20
57.21861413
 10
266.8631413439
 20
58.0086397012
 10
268.2159998222
 20
58.6664226421
 10
269.555371844
 20
59.18744399
 10
270.8720528917
 20
59.5681224246
 10
272.1569930819
 20
59.8058419472
 10
273.4013623205
 20
59.8989682008
 10
274.3667174464
 20
59.8685047307
  0
LINE
  5
2D1
330
1F
100
AcDbEntity
  8
0
  6
Continuous
 62
     7
370
     0
100
AcDbLine
 10
251.5759262528
 20
32.9837682982
 30
0.0
 11
251.5881909857
 21
33.6262117112
 31
0.0
  0
LWPOLYLINE
  5
2D2
330
1F
100
AcDbEntity
  8
0
  6
Continuous
 62
     7
370
     0
100
AcDbPolyline
 90
        3
 70
   128
 43
0.0
 10
251.6111583839
 20
34.0804923115
 10
251.6301824177
 20
34.3503091291
 10
251.6535212351
 20
34.624579668
  0
LINE
  5
2D3
330
1F
100
AcDbEntity
  8
0
  6
Continuous
 62
     7
370
     0
100
AcDbLine
 10
251.5763780143
 20
32.8620893809
 30
0.0
 11
251.5759262528
 21
32.9837682982
 31
0.0
  0
LWPOLYLINE
  5
2D4
330
1F
100
AcDbEntity
  8
0
  6
Continuous
 62
     7
370
     0
100
AcDbPolyline
 90
       20
 70
   128
 43
0.0
 10
220.4909722823
 20
56.8750747976
 10
220.5455267679
 20
57.9279584034
 10
220.7083624342
 20
59.0278681897
 10
220.9770110564
 20
60.1581307639
 10
221.3474001953
 20
61.3016124238
 10
221.8139151004
 20
62.4409793247
 10
222.3694839915
 20
63.5589595464
 10
223.0056850721
 20
64.6386060132
 10
223.712873958
 20
65.6635525674
 10
224.4803305324
 20
66.6182611063
 10
225.2964209479
 20
67.4882595917
 10
226.1487741168
 20
68.2603606668
 10
227.0244690664
 20
68.922858788
 10
227.9102313507
 20
69.4657120527
 10
228.7926336585
 20
69.8806914686
 10
229.6582995515
 20
70.1615054129
 10
230.494106625
 20
70.3038971427
 10
231.2873847295
 20
70.3057090351
 10
232.0261086777
 20
70.166913226
 10
232.1237747795
 20
70.1366011364
  0
ARC
  5
2D5
330
1F
100
AcDbEntity
  8
0
  6
Continuous
 62
     7
370
     0
100
AcDbCircle
 10
225.9301006552
 20
56.4515155312
 30
0.0
 40
5.4555952845059
100
AcDbArc
 50
175.5472128686
 51
225.4339456275
  0
LINE
  5
2D6
330
1F
100
AcDbEntity
  8
0
  6
Continuous
 62
     7
370
     0
100
AcDbLine
 10
257.2592961601
 20
33.9794850802
 30
0.0
 11
256.5520746762
 21
34.3877553525
 31
0.0
  0
LINE
  5
2D7
330
1F
100
AcDbEntity
  8
0
  6
Continuous
 62
     7
370
     0
100
AcDbLine
 10
251.7161349883
 20
28.3200159424
 30
0.0
 11
257.2592961601
 21
25.1200171118
 31
0.0
  0
LINE
  5
2D8
330
1F
100
AcDbEntity
  8
0
  6
Continuous
 62
     7
370
     0
100
AcDbLine
 10
251.6554748073
 20
28.2849861814
 30
0.0
 11
251.7161349883
 21
28.3200159424
 31
0.0
  0
ARC
  5
2D9
330
1F
100
AcDbEntity
  8
0
  6
Continuous
 62
     7
370
     0
100
AcDbCircle
 10
270.0505162371
 20
33.6185901216
 30
0.0
 40
2.448002370339045
100
AcDbArc
 50
173.4667216895
 51
235.2210992889
  0
LWPOLYLINE
  5
2DA
330
1F
100
AcDbEntity
  8
0
  6
Continuous
 62
     7
370
     0
100
AcDbPolyline
 90
       15
 70
   128
 43
0.0
 10
273.65374193
 20
40.2683889279
 10
273.426542593
 20
40.3776200373
 10
272.9217120867
 20
40.4943803049
 10
272.3631689617
 20
40.4727017747
 10
271.7678841979
 20
40.3132429123
 10
271.1539451732
 20
40.0208487119
 10
270.5400061485
 20
39.6044040024
 10
269.9447213848
 20
39.0765617063
 10
269.3861782598
 20
38.453360071
 10
268.8813477535
 20
37.7537349075
 10
268.4455690962
 20
36.9989441344
 10
268.0920829839
 20
36.2119213098
 10
267.831629948
 20
35.4165799875
 10
267.6721238828
 20
34.6370862226
 10
267.6184113463
 20
33.8971245098
  0
LINE
  5
2DB
330
1F
100
AcDbEntity
  8
0
  6
Continuous
 62
     7
370
     0
100
AcDbLine
 10
253.4007080564
 20
20.5725842018
 30
0.0
 11
253.0063110189
 21
21.7044299174
 31
0.0
  0
LINE
  5
2DC
330
1F
100
AcDbEntity
  8
0
  6
Continuous
 62
     7
370
     0
100
AcDbLine
 10
256.552189263
 20
23.8952724235
 30
0.0
 11
251.3019212765
 21
26.9261876172
 31
0.0
  0
LINE
  5
2DD
330
1F
100
AcDbEntity
  8
0
  6
Continuous
 62
     7
370
     0
100
AcDbLine
 10
251.9810467821
 20
23.7023580026
 30
0.0
 11
251.8896105113
 21
23.995738717
 31
0.0
  0
LWPOLYLINE
  5
2DE
330
1F
100
AcDbEntity
  8
0
  6
Continuous
 62
     7
370
     0
100
AcDbPolyline
 90
        3
 70
   128
 43
0.0
 10
251.5749279816
 20
23.1415844284
 10
251.5337399739
 20
23.2394568254
 10
251.1047219346
 20
24.4488452477
  0
ARC
  5
2DF
330
1F
100
AcDbEntity
  8
0
  6
Continuous
 62
     7
370
     0
100
AcDbCircle
 10
261.3121823566
 20
27.4713478188
 30
0.0
 40
11.20229265050767
100
AcDbArc
 50
195.6891556714
 51
214.1128344446
  0
LINE
  5
2E0
330
1F
100
AcDbEntity
  8
0
  6
Continuous
 62
     7
370
     0
100
AcDbLine
 10
248.2249008742
 20
23.5533254892
 30
0.0
 11
247.8267540843
 21
24.6945244898
 31
0.0
  0
LINE
  5
2E1
330
1F
100
AcDbEntity
  8
0
  6
Continuous
 62
     7
370
     0
100
AcDbLine
 10
272.4974480801
 20
30.6004603088
 30
0.0
 11
273.280736723
 21
30.1482774002
 31
0.0
  0
LINE
  5
2E2
330
1F
100
AcDbEntity
  8
0
  6
Continuous
 62
     7
370
     0
100
AcDbLine
 10
275.9622713491
 20
32.6006602065
 30
0.0
 11
276.7455599919
 21
32.1484772979
 31
0.0
  0
LINE
  5
2E3
330
1F
100
AcDbEntity
  8
0
  6
Continuous
 62
     7
370
     0
100
AcDbLine
 10
282.9979840531
 20
39.9785130378
 30
0.0
 11
283.7050909502
 21
39.570308915
 31
0.0
  0
OLE2FRAME
  5
2E4
330
1F
100
AcDbEntity
  8
0
100
AcDbOle2Frame
 70
     2
  3
Paintbrush-Bild
 10
13.8511154363
 20
38.264191557
 30
0.0
 11
51.6290888628
 21
31.9806341108
 31
0.0
 71
     2
 72
     0
 73
     1
 90
    12928
310
80552BED0767C5B32B40DDAF6807D121434000000000000000006FFBDDFB85D0
310
4940DDAF6807D121434000000000000000006FFBDDFB85D04940416F4BD60AFB
310
3F4000000000000000002BED0767C5B32B40416F4BD60AFB3F40000000000000
310
0000000000000100000000010000010000000100000000000100000000320000
310
D0CF11E0A1B11AE1000000000000000000000000000000003E000300FEFF0900
310
0600000000000000000000000100000001000000000000000010000002000000
310
01000000FEFFFFFF0000000000000000FFFFFFFFFFFFFFFFFFFFFFFFFFFFFFFF
310
FFFFFFFFFFFFFFFFFFFFFFFFFFFFFFFFFFFFFFFFFFFFFFFFFFFFFFFFFFFFFFFF
310
FFFFFFFFFFFFFFFFFFFFFFFFFFFFFFFFFFFFFFFFFFFFFFFFFFFFFFFFFFFFFFFF
310
FFFFFFFFFFFFFFFFFFFFFFFFFFFFFFFFFFFFFFFFFFFFFFFFFFFFFFFFFFFFFFFF
310
FFFFFFFFFFFFFFFFFFFFFFFFFFFFFFFFFFFFFFFFFFFFFFFFFFFFFFFFFFFFFFFF
310
FFFFFFFFFFFFFFFFFFFFFFFFFFFFFFFFFFFFFFFFFFFFFFFFFFFFFFFFFFFFFFFF
310
FFFFFFFFFFFFFFFFFFFFFFFFFFFFFFFFFFFFFFFFFFFFFFFFFFFFFFFFFFFFFFFF
310
FFFFFFFFFFFFFFFFFFFFFFFFFFFFFFFFFFFFFFFFFFFFFFFFFFFFFFFFFFFFFFFF
310
FFFFFFFFFFFFFFFFFFFFFFFFFFFFFFFFFFFFFFFFFFFFFFFFFFFFFFFFFFFFFFFF
310
FFFFFFFFFFFFFFFFFFFFFFFFFFFFFFFFFFFFFFFFFFFFFFFFFFFFFFFFFFFFFFFF
310
FFFFFFFFFFFFFFFFFFFFFFFFFFFFFFFFFFFFFFFFFFFFFFFFFFFFFFFFFFFFFFFF
310
FFFFFFFFFFFFFFFFFFFFFFFFFFFFFFFFFFFFFFFFFFFFFFFFFFFFFFFFFFFFFFFF
310
FFFFFFFFFFFFFFFFFFFFFFFFFFFFFFFFFFFFFFFFFFFFFFFFFFFFFFFFFFFFFFFF
310
FFFFFFFFFFFFFFFFFFFFFFFFFFFFFFFFFFFFFFFFFFFFFFFFFFFFFFFFFFFFFFFF
310
FDFFFFFFFEFFFFFFFEFFFFFFFEFFFFFF05000000060000000700000008000000
310
090000000A0000000B0000000C0000000D0000000E0000000F00000010000000
310
11000000120000001300000014000000150000001600000017000000FEFFFFFF
310
FFFFFFFFFFFFFFFFFFFFFFFFFFFFFFFFFFFFFFFFFFFFFFFFFFFFFFFFFFFFFFFF
310
FFFFFFFFFFFFFFFFFFFFFFFFFFFFFFFFFFFFFFFFFFFFFFFFFFFFFFFFFFFFFFFF
310
FFFFFFFFFFFFFFFFFFFFFFFFFFFFFFFFFFFFFFFFFFFFFFFFFFFFFFFFFFFFFFFF
310
FFFFFFFFFFFFFFFFFFFFFFFFFFFFFFFFFFFFFFFFFFFFFFFFFFFFFFFFFFFFFFFF
310
FFFFFFFFFFFFFFFFFFFFFFFFFFFFFFFFFFFFFFFFFFFFFFFFFFFFFFFFFFFFFFFF
310
FFFFFFFFFFFFFFFFFFFFFFFFFFFFFFFFFFFFFFFFFFFFFFFFFFFFFFFFFFFFFFFF
310
FFFFFFFFFFFFFFFFFFFFFFFFFFFFFFFFFFFFFFFFFFFFFFFFFFFFFFFFFFFFFFFF
310
FFFFFFFFFFFFFFFFFFFFFFFFFFFFFFFFFFFFFFFFFFFFFFFFFFFFFFFFFFFFFFFF
310
FFFFFFFFFFFFFFFFFFFFFFFFFFFFFFFFFFFFFFFFFFFFFFFFFFFFFFFFFFFFFFFF
310
FFFFFFFFFFFFFFFFFFFFFFFFFFFFFFFFFFFFFFFFFFFFFFFFFFFFFFFFFFFFFFFF
310
FFFFFFFFFFFFFFFFFFFFFFFFFFFFFFFFFFFFFFFFFFFFFFFFFFFFFFFFFFFFFFFF
310
FFFFFFFFFFFFFFFFFFFFFFFFFFFFFFFFFFFFFFFFFFFFFFFFFFFFFFFFFFFFFFFF
310
FFFFFFFFFFFFFFFFFFFFFFFFFFFFFFFFFFFFFFFFFFFFFFFFFFFFFFFFFFFFFFFF
310
52006F006F007400200045006E00740072007900000000000000000000000000
310
0000000000000000000000000000000000000000000000000000000000000000
310
16000500FFFFFFFFFFFFFFFF020000000A00030000000000C000000000000046
310
000000000000000000000000E0C34EFD6A03D20103000000C000000000000000
310
01004F006C006500000000000000000000000000000000000000000000000000
310
0000000000000000000000000000000000000000000000000000000000000000
310
0A000200FFFFFFFFFFFFFFFFFFFFFFFF00000000000000000000000000000000
310
0000000000000000000000000000000000000000000000001400000000000000
310
010043006F006D0070004F0062006A0000000000000000000000000000000000
310
0000000000000000000000000000000000000000000000000000000000000000
310
120002010100000003000000FFFFFFFF00000000000000000000000000000000
310
0000000000000000000000000000000000000000010000004D00000000000000
310
01004F006C006500310030004E00610074006900760065000000000000000000
310
0000000000000000000000000000000000000000000000000000000000000000
310
1A000200FFFFFFFFFFFFFFFFFFFFFFFF00000000000000000000000000000000
310
0000000000000000000000000000000000000000040000002426000000000000
310
FEFFFFFF02000000FEFFFFFFFFFFFFFFFFFFFFFFFFFFFFFFFFFFFFFFFFFFFFFF
310
FFFFFFFFFFFFFFFFFFFFFFFFFFFFFFFFFFFFFFFFFFFFFFFFFFFFFFFFFFFFFFFF
310
FFFFFFFFFFFFFFFFFFFFFFFFFFFFFFFFFFFFFFFFFFFFFFFFFFFFFFFFFFFFFFFF
310
FFFFFFFFFFFFFFFFFFFFFFFFFFFFFFFFFFFFFFFFFFFFFFFFFFFFFFFFFFFFFFFF
310
FFFFFFFFFFFFFFFFFFFFFFFFFFFFFFFFFFFFFFFFFFFFFFFFFFFFFFFFFFFFFFFF
310
FFFFFFFFFFFFFFFFFFFFFFFFFFFFFFFFFFFFFFFFFFFFFFFFFFFFFFFFFFFFFFFF
310
FFFFFFFFFFFFFFFFFFFFFFFFFFFFFFFFFFFFFFFFFFFFFFFFFFFFFFFFFFFFFFFF
310
FFFFFFFFFFFFFFFFFFFFFFFFFFFFFFFFFFFFFFFFFFFFFFFFFFFFFFFFFFFFFFFF
310
FFFFFFFFFFFFFFFFFFFFFFFFFFFFFFFFFFFFFFFFFFFFFFFFFFFFFFFFFFFFFFFF
310
FFFFFFFFFFFFFFFFFFFFFFFFFFFFFFFFFFFFFFFFFFFFFFFFFFFFFFFFFFFFFFFF
310
FFFFFFFFFFFFFFFFFFFFFFFFFFFFFFFFFFFFFFFFFFFFFFFFFFFFFFFFFFFFFFFF
310
FFFFFFFFFFFFFFFFFFFFFFFFFFFFFFFFFFFFFFFFFFFFFFFFFFFFFFFFFFFFFFFF
310
FFFFFFFFFFFFFFFFFFFFFFFFFFFFFFFFFFFFFFFFFFFFFFFFFFFFFFFFFFFFFFFF
310
FFFFFFFFFFFFFFFFFFFFFFFFFFFFFFFFFFFFFFFFFFFFFFFFFFFFFFFFFFFFFFFF
310
FFFFFFFFFFFFFFFFFFFFFFFFFFFFFFFFFFFFFFFFFFFFFFFFFFFFFFFFFFFFFFFF
310
FFFFFFFFFFFFFFFFFFFFFFFFFFFFFFFFFFFFFFFFFFFFFFFFFFFFFFFFFFFFFFFF
310
0100000200000000000000000000000000000000000000000000000000000000
310
0000000000000000000000000000000000000000000000000000000000000000
310
0100FEFF030A0000FFFFFFFF0A00030000000000C00000000000004607000000
310
5042727573680007000000504272757368000700000050427275736800F439B2
310
7100000000000000000000000000000000000000000000000000000000000000
310
0000000000000000000000000000000000000000000000000000000000000000
310
0000000000000000000000000000000000000000000000000000000000000000
310
0000000000000000000000000000000000000000000000000000000000000000
310
0000000000000000000000000000000000000000000000000000000000000000
310
0000000000000000000000000000000000000000000000000000000000000000
310
0000000000000000000000000000000000000000000000000000000000000000
310
0000000000000000000000000000000000000000000000000000000000000000
310
0000000000000000000000000000000000000000000000000000000000000000
310
0000000000000000000000000000000000000000000000000000000000000000
310
0000000000000000000000000000000000000000000000000000000000000000
310
0000000000000000000000000000000000000000000000000000000000000000
310
20260000424D0E260000000000003E00000028000000B40200006E0000000100
310
01000000000000000000130B0000130B00000200000002000000000000FFFFFF
310
FFFFFFFFFFFFFFFFFFFFFFFFFFFFFFFFFFFFFFFFFFFFFFFFFFFFFFFFFFFFFFFF
310
FFFFFFFFFFFFFFFFFFFFFFFFFFFFFFFFFFFFFFFFFFFFFFFFFFFFFFFFFFFFFFFF
310
FFFFFFFFFFFFFFFFFFFFFFFFFFFFFFFFFFFFFFFFFFFFFFFFF000FFFFFFFFFFFF
310
FFFFFFFFFFFFFFFFFFFFFFFFFFFFFFFFFFFFFFFFFFFFFFFFFFFFFFFFFFFFFFFF
310
FFFFFFFFFFFFFFFFFFFFFFFFFFFFFFFFFFFFFFFFFFFFFFFFFFFFFFFFFFFFFFFF
310
FFFFFFFFFFFFFFFFFFFFFFFFFFFFFFFFF000FFFFFFFFFFFFFFFFFFFFFFFFFFFF
310
FFFFFFFFFFFFFFFFFFFFFFFFFFFFFFFFFFFFFFFFFFFFFFFFFFFFFFFFFFFFFFFF
310
FFFFFFFFFFFFFFFFFFFFFFFFFFFFFFFFFFFFFFFFFFFFFFFFFFFFFFFFFFFFFFFF
310
FFFFFFFFFFFFFFFFF000FFFFFFFFFFFFFFFFFFFFFFFFFFFFFFFFFFFFFFFFFFFF
310
FFFFFFFFFFFFFFFFFFFFFFFFFFFFFFFFFFFFFFFFFFFFFFFFFFFFFFFFFFFFFFFF
310
FFFFFFFFFFFFFFFFFFFFFFFFFFFFFFFFFFFFFFFFFFFFFFFFFFFFFFFFFFFFFFFF
310
F000FFFFFFFFFFFFFFFFFFFFFFFFFFFFFFFFFFFFFFFFFFFFFFFFFFFFFFFFFFFF
310
FFFFFFFFFFFFFFFFFFFFFFFFFFFFFFFFFFFFFFFFFFFFFFFFFFFFFFFFFFFFFFFF
310
FFFFFFFFFFFFFFFFFFFFFFFFFFFFFFFFFFFFFFFFFFFFFFFFF000FFFFFFFFFFFF
310
FFFFFFFFFFFFFFFFFFFFFFFFFFFFFFFFFFFFFFFFFFFFFFFFFFFFFFFFFFFFFFFF
310
FFFFFFFFFFFFFFFFFFFFFFFFFFFFFFFFFFFFFFFFFFFFFFFFFFFFFFFFFFFFFFFF
310
FFFFFFFFFFFFFFFFFFFFFFFFFFFFFFFFF000FFFFFFFFFFFFFFFFFFFFFFFFFFFF
310
FFFFFFFFFFFFFFFFFFFFFFFFFFFFFFFFFFFFFFFFFFFFFFFFFFFFFFFFFFFFFFFF
310
FFFFFFFFFFFFFFFFFFFFFFFFFFFFFFFFFFFFFFFFFFFFFFFFFFFFFFFFFFFFFFFF
310
FFFFFFFFFFFFFFFFF000FFFFFFFFFFFFFFFFFFFFFFFFFFFFFFFFFFFFFFFFFFFF
310
FFFFFFFFFFFFFFFFFFFFFFFFFFFFFFFFFFFFFFFFFFFFFFFFFFFFFFFFFFFFFFFF
310
FFFFFFFFFFFFFFFFFFFFFFFFFFFFFFFFFFFFFFFFFFFFFFFFFFFFFFFFFFFFFFFF
310
F000FFFFFFFFFFFFFFFFFFFFFFFFFFFFFFFFFFFFFFFFFFFFFFFFFFFFFFFFFFFF
310
FFFFFFFFFFFFFFFFFFFFFFFFFFFFFFFFFFFFFFFFFFFFFFFFFFFFFFFFFFFFFFFF
310
FFFFFFFFFFFFFFFFFFFFFFFFFFFFFFFFFFFFFFFFFFFFFFFFF000FFFFFFFFFFFF
310
FFFFFFFFFFFFFFFFFFFFFFFFFFFFFFFFFFFFFFFFFFFFFFFFFFFFFFFFFFFFFFFF
310
FFFFFFFFFFFFFFFFFFFFFFFFFFFFFFFFFFFFFFFFFFFFFFFFFFFFFFFFFFFFFFFF
310
FFFFFFFFFFFFFFFFFFFFFFFFFFFFFFFFF000FFFFFFFFFFFFFFFFFFFFFFFFFFFF
310
FFFFFFFFFFFFFFFFFFFFFFFFFFFFFFFFFFFFFFFFFFFFFFFFFFFFFFFFFFFFFFFF
310
FFFFFFFFFFFFFFFFFFFFFFFFFFFFFFFFFFFFFFFFFFFFFFFFFFFFFFFFFFFFFFFF
310
FFFFFFFFFFFFFFFFF000FFFFFFFFFFFFFFFFFFFFFFFFFFFFFFFFFFFFFFFFFFFF
310
FFFFFFFFFFFFFFFFFFFFFFFFFFFFFFFFFFFFFFFFFFFFFFFFFFFFFFFFFFFFFFFF
310
FFFFFFFFFFFFFFFFFFFFFFFFFFFFFFFFFFFFFFFFFFFFFFFFFFFFFFFFFFFFFFFF
310
F000FFFFFFFFFFFFFFFFFFFFFFFFFFFFFFFFFFFFFFFFFFFFFFFFFFFFFFFFFFFF
310
FFFFFFFFFFFFFFFFFFFFFFFFFFFFFFFFFFFFFFFFFFFFFFFFFFFFFFFFFFFFFFFF
310
FFFFFFFFFFFFFFFFFFFFFFFFFFFFFFFFFFFFFFFFFFFFFFFFF000FFFFFFFFFFFF
310
FFFFFFFFFFFFFFFFFFFFFFFFFFFFFFFFFFFFFFFFFFFFFFFFFFFFFFFFFFFFFFFF
310
FFFFFFFFFFFFFFFFFFFFFFFFFFFFFFFFFFFFFFFFFFFFFFFFFFFFFFFFFFFFFFFF
310
FFFFFFFFFFFFFFFFFFFFFFFFFFFFFFFFF000FFFFFFFFFFFFFFFFFFFFFFFFFFFF
310
FFFFFFFFFFFFFFFFFFFFFFFFFFFFFFFFFFFFFFFFFFFFFFFFFFFFFFFFFFFFFFFF
310
FFFFFFFFFFFFFFFFFFFFFFFFFFFFFFFFFFFFFFFFFFFFFFFFFFFFFFFFFFFFFFFF
310
FFFFFFFFFFFFFFFFF000FFFFFFFFFFFFFFFFFFFFFFFFFFFFFFFFFFFFFFFFFFFF
310
FFFFFFFFFFFFFFFFFFFFFFFFFFFFFFFFFFFFFFFFFFFFFFFFFFFFFFFFFFFFFFFF
310
FFFFFFFFFFFFFFFFFFFFFFFFFFFFFFFFFFFFFFFFFFFFFFFFFFFFFFFFFFFFFFFF
310
F000FFFFFFFFFFFFFFFFFFFFFFFFFFFFFFFFFFFFFFFFFFFFFFFFFFFFFFFFFFFF
310
FFFFFFFFFFFFFFFFFFFFFFFFFFFFFFFFFFFFFFFFFFFFFFFFFFFFFFFFFFFFFFFF
310
FFFFFFFFFFFFFFFFFFFFFFFFFFFFFFFFFFFFFFFFFFFFFFFFF000FFFFFFFFFFFF
310
FFFFFFFFFFFFFFFFFFFFFFFFFFFFFFFFFFFFFFFFFFFFFFFFFFFFFFFFFFFFFFFF
310
FFFFFFFFFFFFFFFFFFFFFFFFFFFFFFFFFFFFFFFFFFFFFFFFFFFFFFFFFFFFFFFF
310
FFFFFFFFFFFFFFFFFFFFFFFFFFFFFFFFF000FFFFFFFFFFFFFFFFFFFFFFFFFFFF
310
FFFFFFFFFFFFFFFFFFFFFFFFFFFFFFFFFFFFFFFFFFFFFFFFFFFFFFFFFFFFFFFF
310
FFFFFFFFFFFFFFFFFFFFFFFFFFFFFFFFFFFFFFFFFFFFFFFFFFFFFFFFFFFFFFFF
310
FFFFFFFFFFFFFFFFF000FFFFF80003FFFFFFFFFFFFFFFFFFFFFFFFFFFFFFFFFF
310
FFFFF00007FFFFFFFFFF00007FFFFFF800000000000000007FFFFFFFFFFFFFFF
310
FFFFFFFC001FFFFFFFFFFFFFFC001FFFFFFFFFFFFFFFFFFFFFFFFFFE0007FFFF
310
F000FFFF8000007FFFFFFFF8000FFFFFC0007FFFFF80007FFFFF0000007FFFFF
310
FFF8000007FFFFF800000000000000007FFFFFF0001FFFFFFFFFFFC00001FFFF
310
FFFFFFFFC00001FFFFFFFF000000000003FFFFE000007FFFF000FFFE0000000F
310
FFFFFFF0000FFFFF80007FFFFF80007FFFFC0000001FFFFFFFC0000001FFFFF8
310
00000000000000007FFFFFF0001FFFFFFFFFFE0000003FFFFFFFFFFE0000003F
310
FFFFFF000000000003FFFF0000000FFFF000FFF800000003FFFFFFF00007FFFF
310
80007FFFFF80007FFFF000000007FFFFFF000000003FFFF80000000000000000
310
7FFFFFF0001FFFFFFFFFF80000000FFFFFFFFFF80000000FFFFFFF0000000000
310
03FFFC00000003FFF000FFE000000000FFFFFFF00007FFFF80003FFFFF80007F
310
FFC000000001FFFFFC000000001FFFF800000000000000007FFFFFF0001FFFFF
310
FFFFE000000003FFFFFFFFE000000003FFFFFF000000000003FFF000000000FF
310
F000FF80000000007FFFFFF00007FFFF80003FFFFF80007FFF8000000000FFFF
310
F80000000007FFF800000000000000007FFFFFF0001FFFFFFFFFC000000001FF
310
FFFFFFC000000001FFFFFF000000000003FFC0000000007FF000FF0000000000
310
3FFFFFE00007FFFF00003FFFFF80007FFE00000000003FFFF00000000003FFF8
310
00000000000000007FFFFFF0001FFFFFFFFF8000000000FFFFFFFF8000000000
310
FFFFFF000000000003FF80000000003FF000FE00000000001FFFFFE00003FFFF
310
00003FFFFF80007FFC00000000001FFFE00000000001FFF8000001FFFE000000
310
7FFFFFF0001FFFFFFFFE00000000003FFFFFFE00000000003FFFFF0000000000
310
03FF00000000001FF000FC00000000000FFFFFE00003FFFF00001FFFFF80007F
310
F800000000001FFFC00000000000FFF8000001FFFE0000007FFFFFF0001FFFFF
310
FFFC00000000001FFFFFFC00000000001FFFFF000000000003FE00000000000F
310
F000F8000000000007FFFFE00003FFFF00001FFFFF80007FF800000000000FFF
310
800000000000FFF8000001FFFE0000007FFFFFF0001FFFFFFFF800000000000F
310
FFFFF800000000000FFFFF000000000003FC000000000007F000F80000000000
310
03FFFFC00003FFFE00001FFFFF80007FF0000000000007FF0000000000007FF8
310
000001FFFE0000007FFFFFF0001FFFFFFFF0000000000007FFFFF00000000000
310
07FFFF000000000003F8000000000003F000F0000000000003FFFFC00001FFFE
310
00001FFFFF80007FE0000000000007FE0000000000003FF8000001FFFE000000
310
7FFFFFF0001FFFFFFFF0000000000007FFFFF0000000000007FFFF0000000000
310
03F800001F800003F000E00001FFF00001FFFFC00001FFFE00000FFFFF80007F
310
E00001FFE00003FE00001FFF00003FF8000001FFFE0000007FFFFFF0001FFFFF
310
FFE000003E000003FFFFE000003E000003FFFF000000000003F00001FFF80001
310
F000E00007FFFC0001FFFFC00001FFFE00000FFFFF80007FC0000FFFFC0003FC
310
0000FFFFC0001FF8000001FFFE0000007FFFFFF0001FFFFFFFC00003FFE00001
310
FFFFC00003FFE00001FFFF0001FFFFFFFFF00007FFFE0001F000E0000FFFFF00
310
00FFFF800001FFFC00000FFFFF80007FC0001FFFFE0001FC0001FFFFE0001FF8
310
000001FFFE0000007FFFFFF0001FFFFFFF80000FFFF80000FFFF80000FFFF800
310
00FFFF0003FFFFFFFFE0000FFFFF8000F000C0003FFFFF8000FFFF800000FFFC
310
000007FFFF80007F80003FFFFF0001FC0003FFFFF0001FF8000001FFFE000000
310
7FFFFFF0001FFFFFFF80003FFFFE0000FFFF80003FFFFE0000FFFF0003FFFFFF
310
FFE0003FFFFF8000F000C0003FFFFF8000FFFF800000FFFC000007FFFF80007F
310
80007FFFFF8001F80007FFFFF8000FF8000001FFFE0000007FFFFFF0001FFFFF
310
FF00007FFFFF00007FFF00007FFFFF00007FFF0003FFFFFFFFE0003FFFFFC000
310
F000C0007FFFFFC000FFFF000000FFFC000007FFFF80007F8000FFFFFF8000F8
310
000FFFFFF8000FF8000001FFFE0000007FFFFFF0001FFFFFFF0000FFFFFF8000
310
7FFF0000FFFFFF80007FFF0003FFFFFFFFC0007FFFFFC00070008000FFFFFFC0
310
00FFFF000000FFF8000007FFFF80007F8000FFFFFF8000F8000FFFFFF8000FF8
310
000001FFFE0000007FFFFFF0001FFFFFFE0001FFFFFFC0003FFE0001FFFFFFC0
310
003FFF0003FFFFFFFFC0007FFFFFE00070008000FFFFFFC0007FFF0000007FF8
310
000003FFFF80007F0001FFFFFF8000F8000FFFFFF8000FF8000001FFFE000000
310
7FFFFFF0001FFFFFFE0001FFFFFFC0003FFE0001FFFFFFC0003FFF0003FFFFFF
310
FFC000FFFFFFE00070008000FFFFFFC0007FFF0000007FF8000003FFFF80007F
310
0001FFFFFF8000F8001FFFFFF8000FF8000001FFFE0000007FFFFFF0001FFFFF
310
FE0003FFFFFFE0003FFE0003FFFFFFE0003FFF0003FFFFFFFFC000FFFFFFE000
310
70008000FFFFFFC0007FFE0000007FF8000003FFFF80007F0001FFFFFF8000F0
310
001FFFFFF8000FF8000001FFFE0000007FFFFFF0001FFFFFFC0003FFFFFFE000
310
1FFC0003FFFFFFE0001FFF0003FFFFFFFFC000FFFFFFC00070008000FFFFFF80
310
007FFE0000007FF0000003FFFF80007F0001FFFFFF0000F0001FFFFFF8000FF8
310
000001FFFE0000007FFFFFF0001FFFFFFC0007FFFFFFF0001FFC0007FFFFFFF0
310
001FFF0003FFFFFFFFC000FFFFFFC00070008001FFFFFF0000FFFE0000003FF0
310
000001FFFF80007F0001FFFFFF0000F8001FFFFFF0000FF8000001FFFE000000
310
7FFFFFF0001FFFFFFC0007FFFFFFF0001FFC0007FFFFFFF0001FFF0003FFFFFF
310
FFC001FFFFFF80007000FFFFFFFFFE0000FFFE0008003FF0008001FFFF80007F
310
FFFFFFFFFC0000FFFFFFFFFFE0000FF8000001FFFE0000007FFFFFF0001FFFFF
310
F8000FFFFFFFF8000FF8000FFFFFFFF8000FFF0003FFFFFFFFFFFFFFFFFF0000
310
7000FFFFFFFFFC0000FFFC0008003FF0008001FFFF80007FFFFFFFFFF80001FF
310
FFFFFFFF80000FF8000001FFFE0000007FFFFFF0001FFFFFF8000FFFFFFFF800
310
0FF8000FFFFFFFF8000FFF0003FFFFFFFFFFFFFFFFFE0000F000FFFFFFFFE000
310
00FFFC000C003FE000C001FFFF80007FFFFFFFFFC00001FFFFFFFFFE00001FF8
310
000001FFFE0000007FFFFFF0001FFFFFF8000FFFFFFFF8000FF8000FFFFFFFF8
310
000FFF0003FFFFFFFFFFFFFFFFF00000F000FFFFFFFE000001FFFC000C001FE0
310
00C000FFFF80007FFFFFFFFE000001FFFFFFFFE000001FF80FFFFFFFFFFFFFC0
310
7FFFFFF0001FFFFFF8000FFFFFFFF8000FF8000FFFFFFFF8000FFF0003FFFFFF
310
FFFFFFFFFF800000F000FFFFFFC0000001FFFC001C001FE001C000FFFF80007F
310
FFFFFF80000003FFFFFFF80000001FF80FFFFFFFFFFFFFC07FFFFFF0001FFFFF
310
F8001FFFFFFFFC000FF8001FFFFFFFFC000FFF0003FFFFFFFFFFFFFFF0000001
310
F000FFFFF800000001FFF8001C001FE001C000FFFF80007FFFFFF800000003FF
310
FFFF800000003FF80FFFFFFFFFFFFFC07FFFFFF0001FFFFFF8001FFFFFFFFC00
310
0FF8001FFFFFFFFC000FFF0003FFFFFFFFFFFFFE00000001F000FFFFC0000000
310
03FFF8001E001FC001E000FFFF80007FFFFF8000000007FFFFFC000000003FF8
310
0FFFFFFFFFFFFFC07FFFFFF0001FFFFFF8001FFFFFFFFC000FF8001FFFFFFFFC
310
000FFF0003FFFFFFFFFFFFE000000003F000FFFE0000000007FFF8001E000FC0
310
01E0007FFF80007FFFFE0000000007FFFFE0000000007FF80FFFFFFFFFFFFFC0
310
7FFFFFF0001FFFFFF0001FFFFFFFFC0007F0001FFFFFFFFC0007FF0003FFFFFF
310
FFFFFF0000000003F000FFF80000000007FFF8001E000FC003E0007FFF80007F
310
FFF0000000000FFFFF8000000000FFF80FFFFFFFFFFFFFC07FFFFFF0001FFFFF
310
F0001FFFFFFFFC0007F0001FFFFFFFFC0007FF0003FFFFFFFFFFFC0000000007
310
F000FFE0000000000FFFF0003E000FC003E0007FFF80007FFFC0000000001FFF
310
FE0000000001FFF80FFFFFFFFFFFFFC07FFFFFF0001FFFFFF0001FFFFFFFFC00
310
07F0001FFFFFFFFC0007FF0003FFFFFFFFFFF0000000000FF000FFC000000000
310
1FFFF0003F000F8003F0003FFF80007FFF80000000003FFFF80000000003FFF8
310
0FFFFFFFFFFFFFC07FFFFFF0001FFFFFF0001FFFFFFFFC0007F0001FFFFFFFFC
310
0007FF0003FFFFFFFFFFE0000000001FF000FF00000000007FFFF0003F000780
310
03F0003FFF80007FFF00000000007FFFF00000000007FFF80FFFFFFFFFFFFFC0
310
7FFFFFF0001FFFFFF0001FFFFFFFFC0007F0001FFFFFFFFC0007FF0003FFFFFF
310
FFFF80000000007FF000FE0000000000FFFFE0003F00078007F0003FFF80007F
310
FE0000000001FFFFE0000000001FFFF80FFFFFFFFFFFFFC07FFFFFF0001FFFFF
310
F0001FFFFFFFFC0007F0001FFFFFFFFC0007FF0003FFFFFFFFFF0000000000FF
310
F000FC0000000003FFFFE0007F00078007F0003FFF80007FFC0000000007FFFF
310
C0000000007FFFF80FFFFFFFFFFFFFC07FFFFFF0001FFFFFF8001FFFFFFFFC00
310
0FF8001FFFFFFFFC000FFF0003FFFFFFFFFE0000000003FFF000FC000000000F
310
FFFFE0007F80070007F8001FFF80007FF8000000001FFFFF8000000001FFFFF8
310
0FFFFFFFFFFFFFC07FFFFFF0001FFFFFF8001FFFFFFFFC000FF8001FFFFFFFFC
310
000FFF0003FFFFFFFFFC000000000FFFF000F8000000007FFFFFE0007F800700
310
07F8001FFF80007FF000000000FFFFFF800000000FFFFFF80FFFFFFFFFFFFFC0
310
7FFFFFF0001FFFFFF8000FFFFFFFF8000FF8000FFFFFFFF8000FFF0003FFFFFF
310
FFFC000000007FFFF000F800000007FFFFFFC0007F8003000FF8001FFF80007F
310
F000000007FFFFFF000000007FFFFFF80FFFFFFFFFFFFFC07FFFFFF0001FFFFF
310
F8000FFFFFFFF8000FF8000FFFFFFFF8000FFF0003FFFFFFFFF80000000FFFFF
310
F000F0000000FFFFFFFFC000FF8003000FF8001FFF80007FE0000000FFFFFFFF
310
0000000FFFFFFFF8000001FFFE0000007FFFFFF0001FFFFFF8000FFFFFFFF800
310
0FF8000FFFFFFFF8000FFF0003FFFFFFFFF8000000FFFFFFF000F000000FFFFF
310
FFFFC000FFC002000FF8000FFF80007FE000001FFFFFFFFE000001FFFFFFFFF8
310
000001FFFE0000007FFFFFF0001FFFFFF8000FFFFFFFF8000FF8000FFFFFFFF8
310
000FFF0003FFFFFFFFF000001FFFFFFFF000E00000FFFFFFFFFFC000FFC00200
310
0FFC000FFF80007FE00001FFFFFFFFFE00001FFFFFFFFFF8000001FFFE000000
310
7FFFFFF0001FFFFFFC000FFFFFFFF8001FFC000FFFFFFFF8001FFF0003FFFFFF
310
FFF00001FFFFFFFFF000E00007FFFFFFFFFF8000FFC000001FFC000FFF80007F
310
C0000FFFFFFFFFFE0000FFFFFFFFFFF8000001FFFE0000007FFFFFF0001FFFFF
310
FC0007FFFFFFF0001FFC0007FFFFFFF0001FFF0003FFFFFFFFF00007FFFFFFFF
310
F000E0001FFFFFFFFFFF8000FFC000001FFC000FFF80007FC0003FFFFFFFFFFE
310
0001FFFFFFFFFFF8000001FFFE0000007FFFFFF0001FFFFFFC0007FFFFFFF000
310
1FFC0007FFFFFFF0001FFF0003FFFFFFFFF0001FFFFFFFFFF000E0003FFFFF00
310
03FF8001FFE000001FFC0007FF80007FC0007FFFFF0007FC0003FFFFF0003FF8
310
000001FFFE0000007FFFFFF0001FFFFFFC0003FFFFFFE0001FFC0003FFFFFFE0
310
001FFF0003FFFFFFFFF0003FFFFFFFFFF000E0003FFFFF0001FF8001FFE00000
310
1FFE0007FF80007FC0007FFFFE0003FC0007FFFFE0003FF8000001FFFE000000
310
7FFFFFF0001FFFFFFE0003FFFFFFE0003FFE0003FFFFFFE0003FFF0003FFFFFF
310
FFF0003FFFFF8001F000E0003FFFFF0001FF0001FFE000001FFE0007FF80007F
310
C0007FFFFE0003FC0007FFFFE0003FF8000001FFFE0000007FFFFFF0001FFFFF
310
FE0001FFFFFFC0003FFE0001FFFFFFC0003FFF0003FFFFFFFFF0003FFFFF0001
310
F000E0003FFFFF0003FF0001FFE000003FFE0007FF80007FC0007FFFFE0003FC
310
0007FFFFE0003FF8000001FFFE0000007FFFFFF0001FFFFFFF0001FFFFFFC000
310
7FFF0001FFFFFFC0007FFF0003FFFFFFFFF0003FFFFF0001F000E0003FFFFE00
310
03FF0003FFF000003FFE0003FF80007FC0007FFFFC0003FE0007FFFFE0003FF8
310
000001FFFE0000007FFFFFF0001FFFFFFF0000FFFFFF80007FFF0000FFFFFF80
310
007FFF0003FFFFFFFFF0003FFFFF0001F000E0003FFFFE0003FF0003FFF00000
310
3FFF0003FF80007FC0007FFFFC0007FE0007FFFFC0003FF8000001FFFE000000
310
7FFFFFF0001FFFFFFF80007FFFFF0000FFFF80007FFFFF0000FFFF0003FFFFFF
310
FFF0003FFFFF0003F000E0003FFFFC0003FE0003FFF000003FFF0003FF80007F
310
E0003FFFF80007FE0003FFFFC0007FF8000001FFFE0000007FFFFFF0001FFFFF
310
FF80003FFFFE0000FFFF80003FFFFE0000FFFF0003FFFFFFFFF0001FFFFE0003
310
F000F0001FFFF80003FE0003FFF000007FFF0001FF80007FE0003FFFF00007FE
310
0001FFFF80007FF8000001FFFE0000007FFFFFF0001FFFFFFFC0000FFFF80001
310
FFFFC0000FFFF80001FFFF0003FFFFFFFFF0001FFFFC0003F000F0000FFFF000
310
07FE0007FFF800007FFF0001FF80007FE0001FFFE00007FF0000FFFE00007FF8
310
000001FFFE0000007FFFFFF0001FFFFFFFC00003FFE00001FFFFC00003FFE000
310
01FFFF0003FFFFFFFFF8000FFFF80003F000F00003FFC00007FC0007FFF80000
310
7FFF8001FF80007FF00007FF80000FFF00007FF80000FFF8000001FFFE000000
310
7F80000000000001FFE000003E000003FFFFE000003E000003FFFF0003FFFFFF
310
FFF80003FFE00007F000F800000000000FFC0007FFF800007FFF8001FF80007F
310
F000000000000FFF000000000000FFF8000001FFFE0000007F80000000000001
310
FFF0000000000007FFFFF0000000000007FFFF0003FFFFFFFFFC00007E000007
310
F000F800000000000FFC0007FFF80000FFFF8000FF80007FF800000000001FFF
310
800000000001FFF8000001FFFE0000007F80000000000001FFF800000000000F
310
FFFFF800000000000FFFFF0003FFFFFFFFFC00000000000FF000FC0000000000
310
1FFC0007FFFC0000FFFF8000FF80007FF800000000003FFFC00000000001FFF8
310
000001FFFE0000007F80000000000001FFF800000000000FFFFFF80000000000
310
0FFFFF0003FFFFFFFFFE00000000001FF000FE00000000003FF8000FFFFC0000
310
FFFF8000FF80007FFC00000000003FFFC00000000003FFF8000001FFFE000000
310
7F80000000000001FFFC00000000001FFFFFFC00000000001FFFFF0003FFFFFF
310
FFFF00000000001FF000FF00000000003FF8000FFFFC0000FFFFC000FF80007F
310
FE00000000007FFFE00000000007FFF8000001FFFE0000007F80000000000001
310
FFFE00000000003FFFFFFE00000000003FFFFF0003FFFFFFFFFF80000000003F
310
F000FF80000000007FF8000FFFFC0001FFFFC0007F80007FFF0000000000FFFF
310
F0000000000FFFF800000000000000007F80000000000001FFFF8000000000FF
310
FFFFFF8000000000FFFFFF0003FFFFFFFFFFC0000000007FF000FFC000000000
310
FFF8000FFFFE0001FFFFC0007F80007FFF8000000001FFFFF8000000001FFFF8
310
00000000000000007F80000000000001FFFFC000000001FFFFFFFFC000000001
310
FFFFFF0003FFFFFFFFFFE000000000FFF000FFE000000003FFF0001FFFFE0001
310
FFFFC0007F80007FFFC000000007FFFFFE000000003FFFF80000000000000000
310
7F80000000000001FFFFE000000003FFFFFFFFE000000003FFFFFF0003FFFFFF
310
FFFFF000000003FFF000FFF80000000FFFF0001FFFFE0001FFFFE0007F80007F
310
FFF00000000FFFFFFF00000000FFFFF800000000000000007F80000000000001
310
FFFFF80000000FFFFFFFFFF80000000FFFFFFF0003FFFFFFFFFFFC0000000FFF
310
F000FFFE0000003FFFF0001FFFFE0003FFFFE0003F80007FFFFC0000003FFFFF
310
FFC0000003FFFFF800000000000000007F80000000000001FFFFFE0000003FFF
310
FFFFFFFE0000003FFFFFFF0003FFFFFFFFFFFF0000003FFFF000FFFF800000FF
310
FFF0001FFFFF0003FFFFE0003F80007FFFFF000001FFFFFFFFF800001FFFFFF8
310
00000000000000007F80000000000001FFFFFFC00001FFFFFFFFFFFFC00001FF
310
FFFFFF0003FFFFFFFFFFFFC00000FFFFF000FFFFF8000FFFFFFFFFFFFFFFFFFF
310
FFFFFFFFFFFFFFFFFFFFF0001FFFFFFFFFFF0000FFFFFFF80000000000000000
310
7FFFFFFFFFFFFFFFFFFFFFFC001FFFFFFFFFFFFFFC001FFFFFFFFFFFFFFFFFFF
310
FFFFFFFC001FFFFFF000FFFFFFFFFFFFFFFFFFFFFFFFFFFFFFFFFFFFFFFFFFFF
310
FFFFFFFFFFFFFFFFFFFFFFFFFFFFFFFFFFFFFFFFFFFFFFFFFFFFFFFFFFFFFFFF
310
FFFFFFFFFFFFFFFFFFFFFFFFFFFFFFFFFFFFFFFFFFFFFFFFFFFFFFFFFFFFFFFF
310
F000FFFFFFFFFFFFFFFFFFFFFFFFFFFFFFFFFFFFFFFFFFFFFFFFFFFFFFFFFFFF
310
FFFFFFFFFFFFFFFFFFFFFFFFFFFFFFFFFFFFFFFFFFFFFFFFFFFFFFFFFFFFFFFF
310
FFFFFFFFFFFFFFFFFFFFFFFFFFFFFFFFFFFFFFFFFFFFFFFFF000FFFFFFFFFFFF
310
FFFFFFFFFFFFFFFFFFFFFFFFFFFFFFFFFFFFFFFFFFFFFFFFFFFFFFFFFFFFFFFF
310
FFFFFFFFFFFFFFFFFFFFFFFFFFFFFFFFFFFFFFFFFFFFFFFFFFFFFFFFFFFFFFFF
310
FFFFFFFFFFFFFFFFFFFFFFFFFFFFFFFFF000FFFFFFFFFFFFFFFFFFFFFFFFFFFF
310
FFFFFFFFFFFFFFFFFFFFFFFFFFFFFFFFFFFFFFFFFFFFFFFFFFFFFFFFFFFFFFFF
310
FFFFFFFFFFFFFFFFFFFFFFFFFFFFFFFFFFFFFFFFFFFFFFFFFFFFFFFFFFFFFFFF
310
FFFFFFFFFFFFFFFFF000FFFFFFFFFFFFFFFFFFFFFFFFFFFFFFFFFFFFFFFFFFFF
310
FFFFFFFFFFFFFFFFFFFFFFFFFFFFFFFFFFFFFFFFFFFFFFFFFFFFFFFFFFFFFFFF
310
FFFFFFFFFFFFFFFFFFFFFFFFFFFFFFFFFFFFFFFFFFFFFFFFFFFFFFFFFFFFFFFF
310
F000FFFFFFFFFFFFFFFFFFFFFFFFFFFFFFFFFFFFFFFFFFFFFFFFFFFFFFFFFFFF
310
FFFFFFFFFFFFFFFFFFFFFFFFFFFFFFFFFFFFFFFFFFFFFFFFFFFFFFFFFFFFFFFF
310
FFFFFFFFFFFFFFFFFFFFFFFFFFFFFFFFFFFFFFFFFFFFFFFFF000FFFFFFFFFFFF
310
FFFFFFFFFFFFFFFFFFFFFFFFFFFFFFFFFFFFFFFFFFFFFFFFFFFFFFFFFFFFFFFF
310
FFFFFFFFFFFFFFFFFFFFFFFFFFFFFFFFFFFFFFFFFFFFFFFFFFFFFFFFFFFFFFFF
310
FFFFFFFFFFFFFFFFFFFFFFFFFFFFFFFFF000FFFFFFFFFFFFFFFFFFFFFFFFFFFF
310
FFFFFFFFFFFFFFFFFFFFFFFFFFFFFFFFFFFFFFFFFFFFFFFFFFFFFFFFFFFFFFFF
310
FFFFFFFFFFFFFFFFFFFFFFFFFFFFFFFFFFFFFFFFFFFFFFFFFFFFFFFFFFFFFFFF
310
FFFFFFFFFFFFFFFFF000FFFFFFFFFFFFFFFFFFFFFFFFFFFFFFFFFFFFFFFFFFFF
310
FFFFFFFFFFFFFFFFFFFFFFFFFFFFFFFFFFFFFFFFFFFFFFFFFFFFFFFFFFFFFFFF
310
FFFFFFFFFFFFFFFFFFFFFFFFFFFFFFFFFFFFFFFFFFFFFFFFFFFFFFFFFFFFFFFF
310
F000FFFFFFFFFFFFFFFFFFFFFFFFFFFFFFFFFFFFFFFFFFFFFFFFFFFFFFFFFFFF
310
FFFFFFFFFFFFFFFFFFFFFFFFFFFFFFFFFFFFFFFFFFFFFFFFFFFFFFFFFFFFFFFF
310
FFFFFFFFFFFFFFFFFFFFFFFFFFFFFFFFFFFFFFFFFFFFFFFFF000FFFFFFFFFFFF
310
FFFFFFFFFFFFFFFFFFFFFFFFFFFFFFFFFFFFFFFFFFFFFFFFFFFFFFFFFFFFFFFF
310
FFFFFFFFFFFFFFFFFFFFFFFFFFFFFFFFFFFFFFFFFFFFFFFFFFFFFFFFFFFFFFFF
310
FFFFFFFFFFFFFFFFFFFFFFFFFFFFFFFFF000FFFFFFFFFFFFFFFFFFFFFFFFFFFF
310
FFFFFFFFFFFFFFFFFFFFFFFFFFFFFFFFFFFFFFFFFFFFFFFFFFFFFFFFFFFFFFFF
310
FFFFFFFFFFFFFFFFFFFFFFFFFFFFFFFFFFFFFFFFFFFFFFFFFFFFFFFFFFFFFFFF
310
FFFFFFFFFFFFFFFFF000FFFFFFFFFFFFFFFFFFFFFFFFFFFFFFFFFFFFFFFFFFFF
310
FFFFFFFFFFFFFFFFFFFFFFFFFFFFFFFFFFFFFFFFFFFFFFFFFFFFFFFFFFFFFFFF
310
FFFFFFFFFFFFFFFFFFFFFFFFFFFFFFFFFFFFFFFFFFFFFFFFFFFFFFFFFFFFFFFF
310
F000FFFFFFFFFFFFFFFFFFFFFFFFFFFFFFFFFFFFFFFFFFFFFFFFFFFFFFFFFFFF
310
FFFFFFFFFFFFFFFFFFFFFFFFFFFFFFFFFFFFFFFFFFFFFFFFFFFFFFFFFFFFFFFF
310
FFFFFFFFFFFFFFFFFFFFFFFFFFFFFFFFFFFFFFFFFFFFFFFFF000FFFFFFFFFFFF
310
FFFFFFFFFFFFFFFFFFFFFFFFFFFFFFFFFFFFFFFFFFFFFFFFFFFFFFFFFFFFFFFF
310
FFFFFFFFFFFFFFFFFFFFFFFFFFFFFFFFFFFFFFFFFFFFFFFFFFFFFFFFFFFFFFFF
310
FFFFFFFFFFFFFFFFFFFFFFFFFFFFFFFFF000FFFFFFFFFFFFFFFFFFFFFFFFFFFF
310
FFFFFFFFFFFFFFFFFFFFFFFFFFFFFFFFFFFFFFFFFFFFFFFFFFFFFFFFFFFFFFFF
310
FFFFFFFFFFFFFFFFFFFFFFFFFFFFFFFFFFFFFFFFFFFFFFFFFFFFFFFFFFFFFFFF
310
FFFFFFFFFFFFFFFFF000FFFFFFFFFFFFFFFFFFFFFFFFFFFFFFFFFFFFFFFFFFFF
310
FFFFFFFFFFFFFFFFFFFFFFFFFFFFFFFFFFFFFFFFFFFFFFFFFFFFFFFFFFFFFFFF
310
FFFFFFFFFFFFFFFFFFFFFFFFFFFFFFFFFFFFFFFFFFFFFFFFFFFFFFFFFFFFFFFF
310
F000FFFFFFFFFFFFFFFFFFFFFFFFFFFFFFFFFFFFFFFFFFFFFFFFFFFFFFFFFFFF
310
FFFFFFFFFFFFFFFFFFFFFFFFFFFFFFFFFFFFFFFFFFFFFFFFFFFFFFFFFFFFFFFF
310
FFFFFFFFFFFFFFFFFFFFFFFFFFFFFFFFFFFFFFFFFFFFFFFFF000FFFFFFFFFFFF
310
FFFFFFFFFFFFFFFFFFFFFFFFFFFFFFFFFFFFFFFFFFFFFFFFFFFFFFFFFFFFFFFF
310
FFFFFFFFFFFFFFFFFFFFFFFFFFFFFFFFFFFFFFFFFFFFFFFFFFFFFFFFFFFFFFFF
310
FFFFFFFFFFFFFFFFFFFFFFFFFFFFFFFFF000FFFFFFFFFFFFFFFFFFFFFFFFFFFF
310
FFFFFFFFFFFFFFFFFFFFFFFFFFFFFFFFFFFFFFFFFFFFFFFFFFFFFFFFFFFFFFFF
310
FFFFFFFFFFFFFFFFFFFFFFFFFFFFFFFFFFFFFFFFFFFFFFFFFFFFFFFFFFFFFFFF
310
FFFFFFFFFFFFFFFFF000FFFFFFFFFFFFFFFFFFFFFFFFFFFFFFFFFFFFFFFFFFFF
310
FFFFFFFFFFFFFFFFFFFFFFFFFFFFFFFFFFFFFFFFFFFFFFFFFFFFFFFFFFFFFFFF
310
FFFFFFFFFFFFFFFFFFFFFFFFFFFFFFFFFFFFFFFFFFFFFFFFFFFFFFFFFFFFFFFF
310
F000FFFFFFFFFFFFFFFFFFFFFFFFFFFFFFFFFFFFFFFFFFFFFFFFFFFFFFFFFFFF
310
FFFFFFFFFFFFFFFFFFFFFFFFFFFFFFFFFFFFFFFFFFFFFFFFFFFFFFFFFFFFFFFF
310
FFFFFFFFFFFFFFFFFFFFFFFFFFFFFFFFFFFFFFFFFFFFFFFFF000FFFFFFFFFFFF
310
FFFFFFFFFFFFFFFFFFFFFFFFFFFFFFFFFFFFFFFFFFFFFFFFFFFFFFFFFFFFFFFF
310
FFFFFFFFFFFFFFFFFFFFFFFFFFFFFFFFFFFFFFFFFFFFFFFFFFFFFFFFFFFFFFFF
310
FFFFFFFFFFFFFFFFFFFFFFFFFFFFFFFFF0000000000000000000000000000000
310
0000000000000000000000000000000000000000000000000000000000000000
310
0000000000000000000000000000000000000000000000000000000000000000
310
0000000000000000000000000000000000000000000000000000000000000000
310
0000000000000000000000000000000000000000000000000000000000000000
310
0000000000000000000000000000000000000000000000000000000000000000
310
0000000000000000000000000000000000000000000000000000000000000000
310
0000000000000000000000000000000000000000000000000000000000000000
310
0000000000000000000000000000000000000000000000000000000000000000
310
0000000000000000000000000000000000000000000000000000000000000000
310
0000000000000000000000000000000000000000000000000000000000000000
310
0000000000000000000000000000000000000000000000000000000000000000
310
0000000000000000000000000000000000000000000000000000000000000000
310
0000000000000000000000000000000000000000000000000000000000000000
310
0000000000000000000000000000000000000000000000000000000000000000
310
0000000000000000000000000000000000000000000000000000000000000000
  1
OLE
  0
ENDSEC
  0
SECTION
  2
OBJECTS
  0
DICTIONARY
  5
C
330
0
100
AcDbDictionary
281
     1
  3
ACAD_GROUP
350
D
  3
ACAD_LAYOUT
350
1A
  3
ACAD_MLINESTYLE
350
17
  3
ACAD_PLOTSETTINGS
350
19
  3
ACAD_PLOTSTYLENAME
350
E
  3
ACAD_SCALELIST
350
47
  0
DICTIONARY
  5
D
102
{ACAD_REACTORS
330
C
102
}
330
C
100
AcDbDictionary
281
     1
  0
DICTIONARY
  5
1A
102
{ACAD_REACTORS
330
C
102
}
330
C
100
AcDbDictionary
281
     1
  3
Layout1
350
1E
  3
Layout2
350
26
  3
Model
350
22
  0
DICTIONARY
  5
17
102
{ACAD_REACTORS
330
C
102
}
330
C
100
AcDbDictionary
281
     1
  3
Standard
350
18
  0
DICTIONARY
  5
19
102
{ACAD_REACTORS
330
C
102
}
330
C
100
AcDbDictionary
281
     1
  0
ACDBDICTIONARYWDFLT
  5
E
102
{ACAD_REACTORS
330
C
102
}
330
C
100
AcDbDictionary
281
     1
  3
Normal
350
F
100
AcDbDictionaryWithDefault
340
F
  0
DICTIONARY
  5
47
102
{ACAD_REACTORS
330
C
102
}
330
C
100
AcDbDictionary
281
     1
  3
A0
350
48
  3
A1
350
49
  3
A2
350
4A
  3
A3
350
4B
  3
A4
350
4C
  3
A5
350
4D
  3
A6
350
4E
  3
A7
350
4F
  3
A8
350
50
  3
A9
350
51
  3
B0
350
52
  3
B1
350
53
  3
B2
350
54
  3
B3
350
55
  3
B4
350
56
  3
B5
350
57
  3
B6
350
58
  3
B7
350
59
  3
B8
350
5A
  3
B9
350
5B
  3
C0
350
5C
  3
C1
350
5D
  3
C2
350
5E
  3
C3
350
5F
  3
C4
350
60
  3
C5
350
61
  3
C6
350
62
  3
C7
350
63
  3
C8
350
64
  3
C9
350
65
  3
D0
350
66
  3
D1
350
67
  3
D2
350
68
  0
LAYOUT
  5
1E
102
{ACAD_REACTORS
330
1A
102
}
330
1A
100
AcDbPlotSettings
  1

  2
none_device
  4

  6

 40
0.0
 41
0.0
 42
0.0
 43
0.0
 44
0.0
 45
0.0
 46
0.0
 47
0.0
 48
0.0
 49
0.0
140
0.0
141
0.0
142
1.0
143
1.0
 70
   688
 72
     1
 73
     0
 74
     5
  7

 75
    16
147
1.0
148
0.0
149
0.0
100
AcDbLayout
  1
Layout1
 70
     1
 71
     1
 10
0.0
 20
0.0
 11
420.0
 21
297.0
 12
0.0
 22
0.0
 32
0.0
 14
1.0000000000E+20
 24
1.0000000000E+20
 34
1.0000000000E+20
 15
-1.0000000000E+20
 25
-1.0000000000E+20
 35
-1.0000000000E+20
146
0.0
 13
0.0
 23
0.0
 33
0.0
 16
1.0
 26
0.0
 36
0.0
 17
0.0
 27
1.0
 37
0.0
 76
     0
330
1B
  0
LAYOUT
  5
26
102
{ACAD_REACTORS
330
1A
102
}
330
1A
100
AcDbPlotSettings
  1

  2
none_device
  4

  6

 40
0.0
 41
0.0
 42
0.0
 43
0.0
 44
0.0
 45
0.0
 46
0.0
 47
0.0
 48
0.0
 49
0.0
140
0.0
141
0.0
142
1.0
143
1.0
 70
   688
 72
     1
 73
     0
 74
     5
  7

 75
    16
147
1.0
148
0.0
149
0.0
100
AcDbLayout
  1
Layout2
 70
     1
 71
     2
 10
0.0
 20
0.0
 11
0.0
 21
0.0
 12
0.0
 22
0.0
 32
0.0
 14
0.0
 24
0.0
 34
0.0
 15
0.0
 25
0.0
 35
0.0
146
0.0
 13
0.0
 23
0.0
 33
0.0
 16
1.0
 26
0.0
 36
0.0
 17
0.0
 27
1.0
 37
0.0
 76
     0
330
23
  0
LAYOUT
  5
22
102
{ACAD_REACTORS
330
1A
102
}
330
1A
100
AcDbPlotSettings
  1

  2
none_device
  4
Letter_(8.50_x_11.00_Inches)
  6

 40
6.35
 41
6.35
 42
6.35000508
 43
6.35000508
 44
215.9
 45
279.4
 46
0.0
 47
0.0
 48
0.0
 49
0.0
140
0.0
141
0.0
142
1.0
143
1.0
 70
  1712
 72
     1
 73
     0
 74
     0
  7

 75
     0
147
1.0
148
0.0
149
0.0
100
AcDbLayout
  1
Model
 70
     1
 71
     0
 10
0.0
 20
0.0
 11
297.0
 21
210.0
 12
0.0
 22
0.0
 32
0.0
 14
0.0
 24
0.0
 34
0.0
 15
297.0
 25
210.0
 35
0.0
146
0.0
 13
0.0
 23
0.0
 33
0.0
 16
1.0
 26
0.0
 36
0.0
 17
0.0
 27
1.0
 37
0.0
 76
     0
330
1F
331
29
  0
MLINESTYLE
  5
18
102
{ACAD_REACTORS
330
17
102
}
330
17
100
AcDbMlineStyle
  2
Standard
 70
     0
  3

 62
   256
 51
90.0
 52
90.0
 71
     2
 49
0.5
 62
   256
  6
BYLAYER
 49
-0.5
 62
   256
  6
BYLAYER
  0
ACDBPLACEHOLDER
  5
F
102
{ACAD_REACTORS
330
E
102
}
330
E
  0
SCALE
  5
48
102
{ACAD_REACTORS
330
47
102
}
330
47
100
AcDbScale
 70
     0
300
1:1
140
1.0
141
1.0
290
     1
  0
SCALE
  5
49
102
{ACAD_REACTORS
330
47
102
}
330
47
100
AcDbScale
 70
     0
300
1:2
140
1.0
141
2.0
290
     0
  0
SCALE
  5
4A
102
{ACAD_REACTORS
330
47
102
}
330
47
100
AcDbScale
 70
     0
300
1:4
140
1.0
141
4.0
290
     0
  0
SCALE
  5
4B
102
{ACAD_REACTORS
330
47
102
}
330
47
100
AcDbScale
 70
     0
300
1:5
140
1.0
141
5.0
290
     0
  0
SCALE
  5
4C
102
{ACAD_REACTORS
330
47
102
}
330
47
100
AcDbScale
 70
     0
300
1:8
140
1.0
141
8.0
290
     0
  0
SCALE
  5
4D
102
{ACAD_REACTORS
330
47
102
}
330
47
100
AcDbScale
 70
     0
300
1:10
140
1.0
141
10.0
290
     0
  0
SCALE
  5
4E
102
{ACAD_REACTORS
330
47
102
}
330
47
100
AcDbScale
 70
     0
300
1:16
140
1.0
141
16.0
290
     0
  0
SCALE
  5
4F
102
{ACAD_REACTORS
330
47
102
}
330
47
100
AcDbScale
 70
     0
300
1:20
140
1.0
141
20.0
290
     0
  0
SCALE
  5
50
102
{ACAD_REACTORS
330
47
102
}
330
47
100
AcDbScale
 70
     0
300
1:30
140
1.0
141
30.0
290
     0
  0
SCALE
  5
51
102
{ACAD_REACTORS
330
47
102
}
330
47
100
AcDbScale
 70
     0
300
1:40
140
1.0
141
40.0
290
     0
  0
SCALE
  5
52
102
{ACAD_REACTORS
330
47
102
}
330
47
100
AcDbScale
 70
     0
300
1:50
140
1.0
141
50.0
290
     0
  0
SCALE
  5
53
102
{ACAD_REACTORS
330
47
102
}
330
47
100
AcDbScale
 70
     0
300
1:100
140
1.0
141
100.0
290
     0
  0
SCALE
  5
54
102
{ACAD_REACTORS
330
47
102
}
330
47
100
AcDbScale
 70
     0
300
2:1
140
2.0
141
1.0
290
     0
  0
SCALE
  5
55
102
{ACAD_REACTORS
330
47
102
}
330
47
100
AcDbScale
 70
     0
300
4:1
140
4.0
141
1.0
290
     0
  0
SCALE
  5
56
102
{ACAD_REACTORS
330
47
102
}
330
47
100
AcDbScale
 70
     0
300
8:1
140
8.0
141
1.0
290
     0
  0
SCALE
  5
57
102
{ACAD_REACTORS
330
47
102
}
330
47
100
AcDbScale
 70
     0
300
10:1
140
10.0
141
1.0
290
     0
  0
SCALE
  5
58
102
{ACAD_REACTORS
330
47
102
}
330
47
100
AcDbScale
 70
     0
300
100:1
140
100.0
141
1.0
290
     0
  0
SCALE
  5
59
102
{ACAD_REACTORS
330
47
102
}
330
47
100
AcDbScale
 70
     0
300
1/128" = 1'-0"
140
0.0078125
141
12.0
290
     0
  0
SCALE
  5
5A
102
{ACAD_REACTORS
330
47
102
}
330
47
100
AcDbScale
 70
     0
300
1/64" = 1'-0"
140
0.015625
141
12.0
290
     0
  0
SCALE
  5
5B
102
{ACAD_REACTORS
330
47
102
}
330
47
100
AcDbScale
 70
     0
300
1/32" = 1'-0"
140
0.03125
141
12.0
290
     0
  0
SCALE
  5
5C
102
{ACAD_REACTORS
330
47
102
}
330
47
100
AcDbScale
 70
     0
300
1/16" = 1'-0"
140
0.0625
141
12.0
290
     0
  0
SCALE
  5
5D
102
{ACAD_REACTORS
330
47
102
}
330
47
100
AcDbScale
 70
     0
300
3/32" = 1'-0"
140
0.09375
141
12.0
290
     0
  0
SCALE
  5
5E
102
{ACAD_REACTORS
330
47
102
}
330
47
100
AcDbScale
 70
     0
300
1/8" = 1'-0"
140
0.125
141
12.0
290
     0
  0
SCALE
  5
5F
102
{ACAD_REACTORS
330
47
102
}
330
47
100
AcDbScale
 70
     0
300
3/16" = 1'-0"
140
0.1875
141
12.0
290
     0
  0
SCALE
  5
60
102
{ACAD_REACTORS
330
47
102
}
330
47
100
AcDbScale
 70
     0
300
1/4" = 1'-0"
140
0.25
141
12.0
290
     0
  0
SCALE
  5
61
102
{ACAD_REACTORS
330
47
102
}
330
47
100
AcDbScale
 70
     0
300
3/8" = 1'-0"
140
0.375
141
12.0
290
     0
  0
SCALE
  5
62
102
{ACAD_REACTORS
330
47
102
}
330
47
100
AcDbScale
 70
     0
300
1/2" = 1'-0"
140
0.5
141
12.0
290
     0
  0
SCALE
  5
63
102
{ACAD_REACTORS
330
47
102
}
330
47
100
AcDbScale
 70
     0
300
3/4" = 1'-0"
140
0.75
141
12.0
290
     0
  0
SCALE
  5
64
102
{ACAD_REACTORS
330
47
102
}
330
47
100
AcDbScale
 70
     0
300
1" = 1'-0"
140
1.0
141
12.0
290
     0
  0
SCALE
  5
65
102
{ACAD_REACTORS
330
47
102
}
330
47
100
AcDbScale
 70
     0
300
1-1/2" = 1'-0"
140
1.5
141
12.0
290
     0
  0
SCALE
  5
66
102
{ACAD_REACTORS
330
47
102
}
330
47
100
AcDbScale
 70
     0
300
3" = 1'-0"
140
3.0
141
12.0
290
     0
  0
SCALE
  5
67
102
{ACAD_REACTORS
330
47
102
}
330
47
100
AcDbScale
 70
     0
300
6" = 1'-0"
140
6.0
141
12.0
290
     0
  0
SCALE
  5
68
102
{ACAD_REACTORS
330
47
102
}
330
47
100
AcDbScale
 70
     0
300
1'-0" = 1'-0"
140
12.0
141
12.0
290
     0
  0
ENDSEC
  0
EOF
