  0
SECTION
  2
HEADER
  9
$ACADVER
  1
AC1015
  9
$ACADMAINTVER
 70
     6
  9
$DWGCODEPAGE
  3
ANSI_1252
  9
$INSBASE
 10
0.0
 20
0.0
 30
0.0
  9
$EXTMIN
 10
0.0
 20
0.0
 30
0.0
  9
$EXTMAX
 10
297.0
 20
210.0
 30
0.0
  9
$LIMMIN
 10
0.0
 20
0.0
  9
$LIMMAX
 10
297.0
 20
210.0
  9
$ORTHOMODE
 70
     0
  9
$REGENMODE
 70
     1
  9
$FILLMODE
 70
     1
  9
$QTEXTMODE
 70
     0
  9
$MIRRTEXT
 70
     1
  9
$LTSCALE
 40
1.0
  9
$ATTMODE
 70
     1
  9
$TEXTSIZE
 40
2.0
  9
$TRACEWID
 40
1.0
  9
$TEXTSTYLE
  7
Standard
  9
$CLAYER
  8
0
  9
$CELTYPE
  6
ByLayer
  9
$CECOLOR
 62
   256
  9
$CELTSCALE
 40
1.0
  9
$DISPSILH
 70
     0
  9
$DIMSCALE
 40
1.0
  9
$DIMASZ
 40
3.0
  9
$DIMEXO
 40
0.0
  9
$DIMDLI
 40
3.75
  9
$DIMRND
 40
0.0
  9
$DIMDLE
 40
0.0
  9
$DIMEXE
 40
1.0
  9
$DIMTP
 40
0.0
  9
$DIMTM
 40
0.0
  9
$DIMTXT
 40
2.0
  9
$DIMCEN
 40
2.5
  9
$DIMTSZ
 40
0.0
  9
$DIMTOL
 70
     0
  9
$DIMLIM
 70
     0
  9
$DIMTIH
 70
     1
  9
$DIMTOH
 70
     1
  9
$DIMSE1
 70
     0
  9
$DIMSE2
 70
     0
  9
$DIMTAD
 70
     1
  9
$DIMZIN
 70
     0
  9
$DIMBLK
  1

  9
$DIMASO
 70
     1
  9
$DIMSHO
 70
     1
  9
$DIMPOST
  1

  9
$DIMAPOST
  1

  9
$DIMALT
 70
     0
  9
$DIMALTD
 70
     3
  9
$DIMALTF
 40
0.0393700787
  9
$DIMLFAC
 40
1.0
  9
$DIMTOFL
 70
     1
  9
$DIMTVP
 40
0.0
  9
$DIMTIX
 70
     0
  9
$DIMSOXD
 70
     0
  9
$DIMSAH
 70
     0
  9
$DIMBLK1
  1

  9
$DIMBLK2
  1

  9
$DIMSTYLE
  2
ISO-25
  9
$DIMCLRD
 70
     0
  9
$DIMCLRE
 70
     0
  9
$DIMCLRT
 70
     0
  9
$DIMTFAC
 40
1.0
  9
$DIMGAP
 40
1.524
  9
$DIMJUST
 70
     0
  9
$DIMSD1
 70
     0
  9
$DIMSD2
 70
     0
  9
$DIMTOLJ
 70
     0
  9
$DIMTZIN
 70
     0
  9
$DIMALTZ
 70
     0
  9
$DIMALTTZ
 70
     0
  9
$DIMUPT
 70
     0
  9
$DIMDEC
 70
     2
  9
$DIMTDEC
 70
     3
  9
$DIMALTU
 70
     2
  9
$DIMALTTD
 70
     3
  9
$DIMTXSTY
  7
Standard
  9
$DIMAUNIT
 70
     0
  9
$DIMADEC
 70
     2
  9
$DIMALTRND
 40
0.0
  9
$DIMAZIN
 70
     0
  9
$DIMDSEP
 70
    44
  9
$DIMATFIT
 70
     3
  9
$DIMFRAC
 70
     0
  9
$DIMLDRBLK
  1

  9
$DIMLUNIT
 70
     2
  9
$DIMLWD
 70
    -2
  9
$DIMLWE
 70
    -2
  9
$DIMTMOVE
 70
     0
  9
$LUNITS
 70
     2
  9
$LUPREC
 70
     2
  9
$SKETCHINC
 40
1.0
  9
$FILLETRAD
 40
10.0
  9
$AUNITS
 70
     0
  9
$AUPREC
 70
     2
  9
$MENU
  1
.
  9
$ELEVATION
 40
0.0
  9
$PELEVATION
 40
0.0
  9
$THICKNESS
 40
0.0
  9
$LIMCHECK
 70
     0
  9
$CHAMFERA
 40
0.0
  9
$CHAMFERB
 40
0.0
  9
$CHAMFERC
 40
0.0
  9
$CHAMFERD
 40
0.0
  9
$SKPOLY
 70
     0
  9
$TDCREATE
 40
2458190.404175278
  9
$TDUCREATE
 40
2458190.362508611
  9
$TDUPDATE
 40
2458190.404176505
  9
$TDUUPDATE
 40
2458190.362509838
  9
$TDINDWG
 40
0.0000000116
  9
$TDUSRTIMER
 40
0.0000000116
  9
$USRTIMER
 70
     1
  9
$ANGBASE
 50
0.0
  9
$ANGDIR
 70
     0
  9
$PDMODE
 70
     0
  9
$PDSIZE
 40
-1.0
  9
$PLINEWID
 40
0.0
  9
$SPLFRAME
 70
     0
  9
$SPLINETYPE
 70
     6
  9
$SPLINESEGS
 70
     8
  9
$HANDSEED
  5
1F4
  9
$SURFTAB1
 70
     6
  9
$SURFTAB2
 70
     6
  9
$SURFTYPE
 70
     6
  9
$SURFU
 70
     6
  9
$SURFV
 70
     6
  9
$UCSBASE
  2

  9
$UCSNAME
  2

  9
$UCSORG
 10
0.0
 20
0.0
 30
0.0
  9
$UCSXDIR
 10
1.0
 20
0.0
 30
0.0
  9
$UCSYDIR
 10
0.0
 20
1.0
 30
0.0
  9
$UCSORTHOREF
  2

  9
$UCSORTHOVIEW
 70
     0
  9
$UCSORGTOP
 10
0.0
 20
0.0
 30
0.0
  9
$UCSORGBOTTOM
 10
0.0
 20
0.0
 30
0.0
  9
$UCSORGLEFT
 10
0.0
 20
0.0
 30
0.0
  9
$UCSORGRIGHT
 10
0.0
 20
0.0
 30
0.0
  9
$UCSORGFRONT
 10
0.0
 20
0.0
 30
0.0
  9
$UCSORGBACK
 10
0.0
 20
0.0
 30
0.0
  9
$PUCSBASE
  2

  9
$PUCSNAME
  2

  9
$PUCSORG
 10
0.0
 20
0.0
 30
0.0
  9
$PUCSXDIR
 10
1.0
 20
0.0
 30
0.0
  9
$PUCSYDIR
 10
0.0
 20
1.0
 30
0.0
  9
$PUCSORTHOREF
  2

  9
$PUCSORTHOVIEW
 70
     0
  9
$PUCSORGTOP
 10
0.0
 20
0.0
 30
0.0
  9
$PUCSORGBOTTOM
 10
0.0
 20
0.0
 30
0.0
  9
$PUCSORGLEFT
 10
0.0
 20
0.0
 30
0.0
  9
$PUCSORGRIGHT
 10
0.0
 20
0.0
 30
0.0
  9
$PUCSORGFRONT
 10
0.0
 20
0.0
 30
0.0
  9
$PUCSORGBACK
 10
0.0
 20
0.0
 30
0.0
  9
$USERI1
 70
     0
  9
$USERI2
 70
     0
  9
$USERI3
 70
     0
  9
$USERI4
 70
     0
  9
$USERI5
 70
     0
  9
$USERR1
 40
0.0
  9
$USERR2
 40
0.0
  9
$USERR3
 40
0.0
  9
$USERR4
 40
0.0
  9
$USERR5
 40
0.0
  9
$WORLDVIEW
 70
     1
  9
$SHADEDGE
 70
     3
  9
$SHADEDIF
 70
    70
  9
$TILEMODE
 70
     1
  9
$MAXACTVP
 70
    64
  9
$PINSBASE
 10
0.0
 20
0.0
 30
0.0
  9
$PLIMCHECK
 70
     0
  9
$PEXTMIN
 10
1.0000000000E+20
 20
1.0000000000E+20
 30
1.0000000000E+20
  9
$PEXTMAX
 10
-1.0000000000E+20
 20
-1.0000000000E+20
 30
-1.0000000000E+20
  9
$PLIMMIN
 10
0.0
 20
0.0
  9
$PLIMMAX
 10
420.0
 20
297.0
  9
$UNITMODE
 70
     0
  9
$VISRETAIN
 70
     1
  9
$PLINEGEN
 70
     0
  9
$PSLTSCALE
 70
     1
  9
$TREEDEPTH
 70
  3020
  9
$CMLSTYLE
  2
Standard
  9
$CMLJUST
 70
     0
  9
$CMLSCALE
 40
20.0
  9
$PROXYGRAPHICS
 70
     1
  9
$MEASUREMENT
 70
     1
  9
$CELWEIGHT
370
    -1
  9
$ENDCAPS
280
     0
  9
$JOINSTYLE
280
     0
  9
$LWDISPLAY
290
     1
  9
$INSUNITS
 70
     4
  9
$HYPERLINKBASE
  1

  9
$STYLESHEET
  1

  9
$XEDIT
290
     1
  9
$CEPSNTYPE
380
     0
  9
$PSTYLEMODE
290
     1
  9
$FINGERPRINTGUID
  2
{080E0E2B-602F-42B4-B5DC-382D6C5289B6}
  9
$VERSIONGUID
  2
{FAEB1C32-E019-11D5-929B-00C0DF256EC4}
  9
$EXTNAMES
290
     1
  9
$PSVPSCALE
 40
0.0
  9
$OLESTARTUP
290
     0
  0
ENDSEC
  0
SECTION
  2
CLASSES
  0
CLASS
  1
ACDBDICTIONARYWDFLT
  2
AcDbDictionaryWithDefault
  3
ObjectDBX Classes
 90
        0
280
     0
281
     0
  0
CLASS
  1
VISUALSTYLE
  2
AcDbVisualStyle
  3
ObjectDBX Classes
 90
     4095
280
     0
281
     0
  0
CLASS
  1
MATERIAL
  2
AcDbMaterial
  3
ObjectDBX Classes
 90
     1153
280
     0
281
     0
  0
CLASS
  1
SCALE
  2
AcDbScale
  3
ObjectDBX Classes
 90
     1153
280
     0
281
     0
  0
CLASS
  1
TABLESTYLE
  2
AcDbTableStyle
  3
ObjectDBX Classes
 90
     4095
280
     0
281
     0
  0
CLASS
  1
MLEADERSTYLE
  2
AcDbMLeaderStyle
  3
ACDB_MLEADERSTYLE_CLASS
 90
     4095
280
     0
281
     0
  0
CLASS
  1
SUN
  2
AcDbSun
  3
SCENEOE
 90
     1153
280
     0
281
     0
  0
CLASS
  1
ACDBPLACEHOLDER
  2
AcDbPlaceHolder
  3
ObjectDBX Classes
 90
        0
280
     0
281
     0
  0
CLASS
  1
LAYOUT
  2
AcDbLayout
  3
ObjectDBX Classes
 90
        0
280
     0
281
     0
  0
ENDSEC
  0
SECTION
  2
TABLES
  0
TABLE
  2
VPORT
  5
8
330
0
100
AcDbSymbolTable
 70
     1
  0
VPORT
  5
29
330
8
100
AcDbSymbolTableRecord
100
AcDbViewportTableRecord
  2
*Active
 70
     0
 10
0.0
 20
0.0
 11
1.0
 21
1.0
 12
148.5
 22
105.0
 13
0.0
 23
0.0
 14
10.0
 24
10.0
 15
10.0
 25
10.0
 16
0.0
 26
0.0
 36
1.0
 17
0.0
 27
0.0
 37
0.0
 40
210.0
 41
1.4142857143
 42
50.0
 43
0.0
 44
0.0
 50
0.0
 51
0.0
 71
     0
 72
  2000
 73
     1
 74
     3
 75
     0
 76
     0
 77
     0
 78
     0
281
     0
 65
     1
110
0.0
120
0.0
130
0.0
111
1.0
121
0.0
131
0.0
112
0.0
122
1.0
132
0.0
 79
     0
146
0.0
  0
ENDTAB
  0
TABLE
  2
LTYPE
  5
5
330
0
100
AcDbSymbolTable
 70
     6
  0
LTYPE
  5
14
330
5
100
AcDbSymbolTableRecord
100
AcDbLinetypeTableRecord
  2
ByBlock
 70
     0
  3

 72
    65
 73
     0
 40
0.0
  0
LTYPE
  5
15
330
5
100
AcDbSymbolTableRecord
100
AcDbLinetypeTableRecord
  2
ByLayer
 70
     0
  3

 72
    65
 73
     0
 40
0.0
  0
LTYPE
  5
16
330
5
100
AcDbSymbolTableRecord
100
AcDbLinetypeTableRecord
  2
Continuous
 70
     0
  3
Solid line
 72
    65
 73
     0
 40
0.0
  0
LTYPE
  5
6E
330
5
100
AcDbSymbolTableRecord
100
AcDbLinetypeTableRecord
  2
HIDDEN
 70
     0
  3
Hidden __ __ __ __ __ __ __ __ __ __ __ __ __ __
 72
    65
 73
     2
 40
1.905
 49
1.27
 74
     0
 49
-0.635
 74
     0
  0
LTYPE
  5
6F
330
5
100
AcDbSymbolTableRecord
100
AcDbLinetypeTableRecord
  2
PHANTOM
 70
     0
  3
Phantom ______  __  __  ______  __  __  ______
 72
    65
 73
     6
 40
12.7
 49
6.35
 74
     0
 49
-1.27
 74
     0
 49
1.27
 74
     0
 49
-1.27
 74
     0
 49
1.27
 74
     0
 49
-1.27
 74
     0
  0
LTYPE
  5
70
330
5
100
AcDbSymbolTableRecord
100
AcDbLinetypeTableRecord
  2
CENTER
 70
     0
  3
Center ____ _ ____ _ ____ _ ____ _ ____ _ ____
 72
    65
 73
     4
 40
10.16
 49
6.35
 74
     0
 49
-1.27
 74
     0
 49
1.27
 74
     0
 49
-1.27
 74
     0
  0
LTYPE
  5
71
330
5
100
AcDbSymbolTableRecord
100
AcDbLinetypeTableRecord
  2
CENTERX2
 70
     0
  3
Center (2x) ________  __  ________  __  _____
 72
    65
 73
     4
 40
20.32
 49
12.7
 74
     0
 49
-2.54
 74
     0
 49
2.54
 74
     0
 49
-2.54
 74
     0
  0
LTYPE
  5
72
330
5
100
AcDbSymbolTableRecord
100
AcDbLinetypeTableRecord
  2
DOT2
 70
     0
  3
Dot (.5x) ........................................
 72
    65
 73
     2
 40
0.635
 49
0.0
 74
     0
 49
-0.635
 74
     0
  0
ENDTAB
  0
TABLE
  2
LAYER
  5
2
330
0
100
AcDbSymbolTable
 70
     5
  0
LAYER
  5
10
330
2
100
AcDbSymbolTableRecord
100
AcDbLayerTableRecord
  2
0
 70
     0
 62
     7
  6
Continuous
370
    -3
390
F
  0
LAYER
  5
73
330
2
100
AcDbSymbolTableRecord
100
AcDbLayerTableRecord
  2
FORMAT
 70
     0
 62
     7
  6
Continuous
370
    -3
390
F
  0
LAYER
  5
74
330
2
100
AcDbSymbolTableRecord
100
AcDbLayerTableRecord
  2
VERMASSUNG
 70
     0
 62
     7
  6
Continuous
370
    -3
390
F
  0
LAYER
  5
75
330
2
100
AcDbSymbolTableRecord
100
AcDbLayerTableRecord
  2
KOPF_DÜNN
 70
     0
 62
     7
  6
Continuous
370
    -3
390
F
  0
LAYER
  5
76
330
2
100
AcDbSymbolTableRecord
100
AcDbLayerTableRecord
  2
KOPF_DICK
 70
     0
 62
     7
  6
Continuous
370
    25
390
F
  0
ENDTAB
  0
TABLE
  2
STYLE
  5
3
330
0
100
AcDbSymbolTable
 70
     3
  0
STYLE
  5
11
330
3
100
AcDbSymbolTableRecord
100
AcDbTextStyleTableRecord
  2
Standard
 70
     0
 40
0.0
 41
1.0
 50
0.0
 71
     0
 42
2.0
  3
txt
  4

  0
STYLE
  5
77
330
3
100
AcDbSymbolTableRecord
100
AcDbTextStyleTableRecord
  2
SLDTEXTSTYLE0
 70
     0
 40
0.0
 41
0.7
 50
0.0
 71
     0
 42
2.0
  3
TXT
  4

  0
STYLE
  5
7B
330
3
100
AcDbSymbolTableRecord
100
AcDbTextStyleTableRecord
  2
SLDTEXTSTYLE1
 70
     0
 40
0.0
 41
0.6444444444
 50
0.0
 71
     0
 42
2.0
  3
TXT
  4

  0
ENDTAB
  0
TABLE
  2
VIEW
  5
6
330
0
100
AcDbSymbolTable
 70
     0
  0
ENDTAB
  0
TABLE
  2
UCS
  5
7
330
0
100
AcDbSymbolTable
 70
     0
  0
ENDTAB
  0
TABLE
  2
APPID
  5
9
330
0
100
AcDbSymbolTable
 70
     1
  0
APPID
  5
12
330
9
100
AcDbSymbolTableRecord
100
AcDbRegAppTableRecord
  2
ACAD
 70
     0
  0
ENDTAB
  0
TABLE
  2
DIMSTYLE
  5
A
330
0
100
AcDbSymbolTable
 70
     2
100
AcDbDimStyleTable
  0
DIMSTYLE
105
27
330
A
100
AcDbSymbolTableRecord
100
AcDbDimStyleTableRecord
  2
ISO-25
 70
     0
 41
2.5
 42
0.625
 43
3.75
 44
1.25
 73
     0
 74
     0
 77
     1
 78
     8
140
2.5
141
2.5
143
0.0393700787
147
0.625
171
     3
172
     1
178
     0
271
     2
272
     2
274
     3
278
    44
283
     0
284
     8
340
11
  0
DIMSTYLE
105
125
102
{ACAD_REACTORS
330
124
330
131
330
13B
330
145
330
14F
330
15B
102
}
330
A
100
AcDbSymbolTableRecord
100
AcDbDimStyleTableRecord
  2
SLDDIMSTYLE0
 70
     0
 41
3.0
 44
0.0
 45
0.000000001
 73
     0
 74
     0
 77
     1
 78
    12
 79
     3
140
2.0
147
0.5
173
     1
178
     0
271
     2
272
     3
276
     2
284
    12
340
77
  0
ENDTAB
  0
TABLE
  2
BLOCK_RECORD
  5
1
330
0
100
AcDbSymbolTable
 70
     7
  0
BLOCK_RECORD
  5
1F
330
1
100
AcDbSymbolTableRecord
100
AcDbBlockTableRecord
  2
*Model_Space
340
22
  0
BLOCK_RECORD
  5
1B
330
1
100
AcDbSymbolTableRecord
100
AcDbBlockTableRecord
  2
*Paper_Space
340
1E
  0
BLOCK_RECORD
  5
23
330
1
100
AcDbSymbolTableRecord
100
AcDbBlockTableRecord
  2
*Paper_Space0
340
26
  0
BLOCK_RECORD
  5
126
330
1
100
AcDbSymbolTableRecord
100
AcDbBlockTableRecord
  2
_D
340
0
  0
BLOCK_RECORD
  5
132
330
1
100
AcDbSymbolTableRecord
100
AcDbBlockTableRecord
  2
_D_1
340
0
  0
BLOCK_RECORD
  5
13C
330
1
100
AcDbSymbolTableRecord
100
AcDbBlockTableRecord
  2
_D_2
340
0
  0
BLOCK_RECORD
  5
146
330
1
100
AcDbSymbolTableRecord
100
AcDbBlockTableRecord
  2
_D_3
340
0
  0
BLOCK_RECORD
  5
150
330
1
100
AcDbSymbolTableRecord
100
AcDbBlockTableRecord
  2
_D_4
340
0
  0
BLOCK_RECORD
  5
15C
330
1
100
AcDbSymbolTableRecord
100
AcDbBlockTableRecord
  2
_D_5
340
0
  0
ENDTAB
  0
ENDSEC
  0
SECTION
  2
BLOCKS
  0
BLOCK
  5
20
330
1F
100
AcDbEntity
  8
0
100
AcDbBlockBegin
  2
*Model_Space
 70
     0
 10
0.0
 20
0.0
 30
0.0
  3
*Model_Space
  1

  0
ENDBLK
  5
21
330
1F
100
AcDbEntity
  8
0
100
AcDbBlockEnd
  0
BLOCK
  5
1C
330
1B
100
AcDbEntity
 67
     1
  8
0
100
AcDbBlockBegin
  2
*Paper_Space
 70
     0
 10
0.0
 20
0.0
 30
0.0
  3
*Paper_Space
  1

  0
ENDBLK
  5
1D
330
1B
100
AcDbEntity
 67
     1
  8
0
100
AcDbBlockEnd
  0
BLOCK
  5
24
330
23
100
AcDbEntity
  8
0
100
AcDbBlockBegin
  2
*Paper_Space0
 70
     0
 10
0.0
 20
0.0
 30
0.0
  3
*Paper_Space0
  1

  0
ENDBLK
  5
25
330
23
100
AcDbEntity
  8
0
100
AcDbBlockEnd
  0
BLOCK
  5
127
330
126
100
AcDbEntity
  8
0
100
AcDbBlockBegin
  2
_D
 70
     0
 10
0.0
 20
0.0
 30
0.0
  3
_D
  1

  0
SOLID
  5
129
330
126
100
AcDbEntity
  8
VERMASSUNG
100
AcDbTrace
 10
34.1066777143
 20
160.5984804928
 30
0.0
 11
33.6566777143
 21
157.5984804928
 31
0.0
 12
34.5566777143
 22
157.5984804928
 32
0.0
 13
34.5566777143
 23
157.5984804928
 33
0.0
  0
SOLID
  5
12A
330
126
100
AcDbEntity
  8
VERMASSUNG
100
AcDbTrace
 10
34.1066777143
 20
60.5984804928
 30
0.0
 11
34.5566777143
 21
63.5984804928
 31
0.0
 12
33.6566777143
 22
63.5984804928
 32
0.0
 13
33.6566777143
 23
63.5984804928
 33
0.0
  0
LINE
  5
12B
330
126
100
AcDbEntity
  8
VERMASSUNG
100
AcDbLine
 10
185.9066796228
 20
160.5984804928
 30
0.0
 11
33.1066777143
 21
160.5984804928
 31
0.0
  0
LINE
  5
12C
330
126
100
AcDbEntity
  8
VERMASSUNG
100
AcDbLine
 10
185.9066797764
 20
60.5984804928
 30
0.0
 11
33.1066777143
 21
60.5984804928
 31
0.0
  0
LINE
  5
12D
330
126
100
AcDbEntity
  8
VERMASSUNG
100
AcDbLine
 10
34.1066777143
 20
160.5984804928
 30
0.0
 11
34.1066777143
 21
60.5984804928
 31
0.0
  0
MTEXT
  5
12E
330
126
100
AcDbEntity
  8
VERMASSUNG
100
AcDbMText
 10
31.3285424581
 20
99.4950519214
 30
0.0
 40
2.0
 41
0.0
 71
     1
 72
     1
  1
MAS BT 50
  7
SLDTEXTSTYLE0
 11
-7.044195017643634E-15
 21
1.0
 31
0.0
 73
     1
 44
1.0
  0
MTEXT
  5
12F
330
126
100
AcDbEntity
  8
VERMASSUNG
100
AcDbMText
 10
31.5285424094
 20
114.2950519259
 30
0.0
 40
2.0
 41
0.0
 71
     1
 72
     1
  1
%%c
  7
SLDTEXTSTYLE0
 11
-7.044195017643634E-15
 21
1.0
 31
0.0
 73
     1
 44
1.0
  0
MTEXT
  5
130
330
126
100
AcDbEntity
  8
VERMASSUNG
100
AcDbMText
 10
31.5285421183
 20
117.9033677109
 30
0.0
 40
2.0
 41
0.0
 71
     1
 72
     1
  1
100
  7
SLDTEXTSTYLE0
 11
-7.044195017643634E-15
 21
1.0
 31
0.0
 73
     1
 44
1.0
  0
ENDBLK
  5
128
330
126
100
AcDbEntity
  8
0
100
AcDbBlockEnd
  0
BLOCK
  5
133
330
132
100
AcDbEntity
  8
0
100
AcDbBlockBegin
  2
_D_1
 70
     0
 10
0.0
 20
0.0
 30
0.0
  3
_D_1
  1

  0
SOLID
  5
135
330
132
100
AcDbEntity
  8
VERMASSUNG
100
AcDbTrace
 10
50.1066777143
 20
179.273049632
 30
0.0
 11
53.1066777143
 21
178.823049632
 31
0.0
 12
53.1066777143
 22
179.723049632
 32
0.0
 13
53.1066777143
 23
179.723049632
 33
0.0
  0
SOLID
  5
136
330
132
100
AcDbEntity
  8
VERMASSUNG
100
AcDbTrace
 10
254.9066777143
 20
179.273049632
 30
0.0
 11
251.9066777143
 21
179.723049632
 31
0.0
 12
251.9066777143
 22
178.823049632
 32
0.0
 13
251.9066777143
 23
178.823049632
 33
0.0
  0
LINE
  5
137
330
132
100
AcDbEntity
  8
VERMASSUNG
100
AcDbLine
 10
50.1066777143
 20
128.9481583535
 30
0.0
 11
50.1066777143
 21
180.273049632
 31
0.0
  0
LINE
  5
138
330
132
100
AcDbEntity
  8
VERMASSUNG
100
AcDbLine
 10
254.9066777143
 20
126.2984804928
 30
0.0
 11
254.9066777143
 21
180.273049632
 31
0.0
  0
LINE
  5
139
330
132
100
AcDbEntity
  8
VERMASSUNG
100
AcDbLine
 10
50.1066777143
 20
179.273049632
 30
0.0
 11
254.9066777143
 21
179.273049632
 31
0.0
  0
MTEXT
  5
13A
330
132
100
AcDbEntity
  8
VERMASSUNG
100
AcDbMText
 10
149.3074822256
 20
181.8511852279
 30
0.0
 40
2.0
 41
0.0
 71
     1
 72
     1
  1
204.8
  7
SLDTEXTSTYLE0
 73
     1
 44
1.0
  0
ENDBLK
  5
134
330
132
100
AcDbEntity
  8
0
100
AcDbBlockEnd
  0
BLOCK
  5
13D
330
13C
100
AcDbEntity
  8
0
100
AcDbBlockBegin
  2
_D_2
 70
     0
 10
0.0
 20
0.0
 30
0.0
  3
_D_2
  1

  0
SOLID
  5
13F
330
13C
100
AcDbEntity
  8
VERMASSUNG
100
AcDbTrace
 10
151.9066777143
 20
173.273049632
 30
0.0
 11
154.9066777143
 21
172.823049632
 31
0.0
 12
154.9066777143
 22
173.723049632
 32
0.0
 13
154.9066777143
 23
173.723049632
 33
0.0
  0
SOLID
  5
140
330
13C
100
AcDbEntity
  8
VERMASSUNG
100
AcDbTrace
 10
254.9066777143
 20
173.273049632
 30
0.0
 11
251.9066777143
 21
173.723049632
 31
0.0
 12
251.9066777143
 22
172.823049632
 32
0.0
 13
251.9066777143
 23
172.823049632
 33
0.0
  0
LINE
  5
141
330
13C
100
AcDbEntity
  8
VERMASSUNG
100
AcDbLine
 10
151.9066777143
 20
145.5234804928
 30
0.0
 11
151.9066777143
 21
174.273049632
 31
0.0
  0
LINE
  5
142
330
13C
100
AcDbEntity
  8
VERMASSUNG
100
AcDbLine
 10
254.9066777143
 20
126.2984804928
 30
0.0
 11
254.9066777143
 21
174.273049632
 31
0.0
  0
LINE
  5
143
330
13C
100
AcDbEntity
  8
VERMASSUNG
100
AcDbLine
 10
151.9066777143
 20
173.273049632
 30
0.0
 11
254.9066777143
 21
173.273049632
 31
0.0
  0
MTEXT
  5
144
330
13C
100
AcDbEntity
  8
VERMASSUNG
100
AcDbMText
 10
201.5074070376
 20
175.8511852279
 30
0.0
 40
2.0
 41
0.0
 71
     1
 72
     1
  1
103
  7
SLDTEXTSTYLE0
 73
     1
 44
1.0
  0
ENDBLK
  5
13E
330
13C
100
AcDbEntity
  8
0
100
AcDbBlockEnd
  0
BLOCK
  5
147
330
146
100
AcDbEntity
  8
0
100
AcDbBlockBegin
  2
_D_3
 70
     0
 10
0.0
 20
0.0
 30
0.0
  3
_D_3
  1

  0
SOLID
  5
149
330
146
100
AcDbEntity
  8
VERMASSUNG
100
AcDbTrace
 10
189.9066777143
 20
167.273049632
 30
0.0
 11
192.9066777143
 21
166.823049632
 31
0.0
 12
192.9066777143
 22
167.723049632
 32
0.0
 13
192.9066777143
 23
167.723049632
 33
0.0
  0
SOLID
  5
14A
330
146
100
AcDbEntity
  8
VERMASSUNG
100
AcDbTrace
 10
254.9066777143
 20
167.273049632
 30
0.0
 11
251.9066777143
 21
167.723049632
 31
0.0
 12
251.9066777143
 22
166.823049632
 32
0.0
 13
251.9066777143
 23
166.823049632
 33
0.0
  0
LINE
  5
14B
330
146
100
AcDbEntity
  8
VERMASSUNG
100
AcDbLine
 10
189.9066777143
 20
159.5984804928
 30
0.0
 11
189.9066777143
 21
168.273049632
 31
0.0
  0
LINE
  5
14C
330
146
100
AcDbEntity
  8
VERMASSUNG
100
AcDbLine
 10
254.9066777143
 20
126.2984804928
 30
0.0
 11
254.9066777143
 21
168.273049632
 31
0.0
  0
LINE
  5
14D
330
146
100
AcDbEntity
  8
VERMASSUNG
100
AcDbLine
 10
189.9066777143
 20
167.273049632
 30
0.0
 11
254.9066777143
 21
167.273049632
 31
0.0
  0
MTEXT
  5
14E
330
146
100
AcDbEntity
  8
VERMASSUNG
100
AcDbMText
 10
221.0078205714
 20
169.8511852279
 30
0.0
 40
2.0
 41
0.0
 71
     1
 72
     1
  1
65
  7
SLDTEXTSTYLE0
 73
     1
 44
1.0
  0
ENDBLK
  5
148
330
146
100
AcDbEntity
  8
0
100
AcDbBlockEnd
  0
BLOCK
  5
151
330
150
100
AcDbEntity
  8
0
100
AcDbBlockBegin
  2
_D_4
 70
     0
 10
0.0
 20
0.0
 30
0.0
  3
_D_4
  1

  0
SOLID
  5
153
330
150
100
AcDbEntity
  8
VERMASSUNG
100
AcDbTrace
 10
264.9066777143
 20
126.5984804928
 30
0.0
 11
264.4566777143
 21
123.5984804928
 31
0.0
 12
265.3566777143
 22
123.5984804928
 32
0.0
 13
265.3566777143
 23
123.5984804928
 33
0.0
  0
SOLID
  5
154
330
150
100
AcDbEntity
  8
VERMASSUNG
100
AcDbTrace
 10
264.9066777143
 20
94.5984804928
 30
0.0
 11
265.3566777143
 21
97.5984804928
 31
0.0
 12
264.4566777143
 22
97.5984804928
 32
0.0
 13
264.4566777143
 23
97.5984804928
 33
0.0
  0
LINE
  5
155
330
150
100
AcDbEntity
  8
VERMASSUNG
100
AcDbLine
 10
254.6066777143
 20
126.5984804928
 30
0.0
 11
265.9066777143
 21
126.5984804928
 31
0.0
  0
LINE
  5
156
330
150
100
AcDbEntity
  8
VERMASSUNG
100
AcDbLine
 10
254.6066777143
 20
94.5984804928
 30
0.0
 11
265.9066777143
 21
94.5984804928
 31
0.0
  0
LINE
  5
157
330
150
100
AcDbEntity
  8
VERMASSUNG
100
AcDbLine
 10
264.9066777143
 20
126.5984804928
 30
0.0
 11
264.9066777143
 21
94.5984804928
 31
0.0
  0
MTEXT
  5
158
330
150
100
AcDbEntity
  8
VERMASSUNG
100
AcDbMText
 10
262.1285424581
 20
104.1934808492
 30
0.0
 40
2.0
 41
0.0
 71
     1
 72
     1
  1
MBM
  7
SLDTEXTSTYLE0
 11
-7.044195017643634E-15
 21
1.0
 31
0.0
 73
     1
 44
1.0
  0
MTEXT
  5
159
330
150
100
AcDbEntity
  8
VERMASSUNG
100
AcDbMText
 10
262.3285424094
 20
110.5934806876
 30
0.0
 40
2.0
 41
0.0
 71
     1
 72
     1
  1
%%c
  7
SLDTEXTSTYLE0
 11
-7.044195017643634E-15
 21
1.0
 31
0.0
 73
     1
 44
1.0
  0
MTEXT
  5
15A
330
150
100
AcDbEntity
  8
VERMASSUNG
100
AcDbMText
 10
262.1285424581
 20
114.2034811675
 30
0.0
 40
2.0
 41
0.0
 71
     1
 72
     1
  1
32
  7
SLDTEXTSTYLE0
 11
-7.044195017643634E-15
 21
1.0
 31
0.0
 73
     1
 44
1.0
  0
ENDBLK
  5
152
330
150
100
AcDbEntity
  8
0
100
AcDbBlockEnd
  0
BLOCK
  5
15D
330
15C
100
AcDbEntity
  8
0
100
AcDbBlockBegin
  2
_D_5
 70
     0
 10
0.0
 20
0.0
 30
0.0
  3
_D_5
  1

  0
SOLID
  5
15F
330
15C
100
AcDbEntity
  8
VERMASSUNG
100
AcDbTrace
 10
43.6405205872
 20
123.0984804928
 30
0.0
 11
43.1905205872
 21
120.0984804928
 31
0.0
 12
44.0905205872
 22
120.0984804928
 32
0.0
 13
44.0905205872
 23
120.0984804928
 33
0.0
  0
SOLID
  5
160
330
15C
100
AcDbEntity
  8
VERMASSUNG
100
AcDbTrace
 10
43.6405205872
 20
98.0984804928
 30
0.0
 11
44.0905205872
 21
101.0984804928
 31
0.0
 12
43.1905205872
 22
101.0984804928
 32
0.0
 13
43.1905205872
 23
101.0984804928
 33
0.0
  0
LINE
  5
161
330
15C
100
AcDbEntity
  8
VERMASSUNG
100
AcDbLine
 10
51.3066777143
 20
123.0984804928
 30
0.0
 11
42.6405205872
 21
123.0984804928
 31
0.0
  0
LINE
  5
162
330
15C
100
AcDbEntity
  8
VERMASSUNG
100
AcDbLine
 10
51.3066777143
 20
98.0984804928
 30
0.0
 11
42.6405205872
 21
98.0984804928
 31
0.0
  0
LINE
  5
163
330
15C
100
AcDbEntity
  8
VERMASSUNG
100
AcDbLine
 10
43.6405205872
 20
123.0984804928
 30
0.0
 11
43.6405205872
 21
98.0984804928
 31
0.0
  0
MTEXT
  5
164
330
15C
100
AcDbEntity
  8
VERMASSUNG
100
AcDbMText
 10
41.0623849912
 20
108.1984806116
 30
0.0
 40
2.0
 41
0.0
 71
     1
 72
     1
  1
M
  7
SLDTEXTSTYLE0
 11
-7.044195017643634E-15
 21
1.0
 31
0.0
 73
     1
 44
1.0
  0
MTEXT
  5
165
330
15C
100
AcDbEntity
  8
VERMASSUNG
100
AcDbMText
 10
41.0623849912
 20
109.9984805807
 30
0.0
 40
2.0
 41
0.0
 71
     1
 72
     1
  1
24
  7
SLDTEXTSTYLE0
 11
-7.044195017643634E-15
 21
1.0
 31
0.0
 73
     1
 44
1.0
  0
ENDBLK
  5
15E
330
15C
100
AcDbEntity
  8
0
100
AcDbBlockEnd
  0
ENDSEC
  0
SECTION
  2
ENTITIES
  0
MTEXT
  5
78
330
1F
100
AcDbEntity
  8
KOPF_DÜNN
100
AcDbMText
 10
13.8892156294
 20
23.8442973028
 30
0.0
 40
3.0
 41
0.0
 71
     1
 72
     1
  1
102.512.322
  7
SLDTEXTSTYLE0
 73
     1
 44
1.0
  0
MTEXT
  5
79
330
1F
100
AcDbEntity
  8
VERMASSUNG
100
AcDbMText
 10
13.9329988022
 20
28.8834360957
 30
0.0
 40
3.0
 41
0.0
 71
     1
 72
     1
  1
Aufnahme_Master shank MBM 32
  7
SLDTEXTSTYLE0
 73
     1
 44
1.0
  0
MTEXT
  5
7A
330
1F
100
AcDbEntity
  8
VERMASSUNG
100
AcDbMText
 10
98.8601118557
 20
13.8365368761
 30
0.0
 40
2.0
 41
0.0
 71
     1
 72
     1
  1
Datum: 12.03.2018
  7
SLDTEXTSTYLE0
 73
     1
 44
1.0
  0
MTEXT
  5
7C
330
1F
100
AcDbEntity
  8
VERMASSUNG
100
AcDbMText
 10
13.933048693
 20
18.0482802738
 30
0.0
 40
2.0
 41
0.0
 71
     1
 72
     1
  1
MAS BT 50 / MBM 32
  7
SLDTEXTSTYLE1
 73
     1
 44
1.0
  0
MTEXT
  5
7D
330
1F
100
AcDbEntity
  8
VERMASSUNG
100
AcDbMText
 10
13.9808475933
 20
13.9090974274
 30
0.0
 40
2.0
 41
0.0
 71
     1
 72
     1
  1
Gewicht: 4019g
  7
SLDTEXTSTYLE0
 73
     1
 44
1.0
  0
LINE
  5
7E
330
1F
100
AcDbEntity
  8
0
  6
Continuous
 62
     7
370
    25
100
AcDbLine
 10
185.9063889894
 20
60.5984797478
 30
0.0
 11
188.9066781911
 21
60.5984797478
 31
0.0
  0
LINE
  5
7F
330
1F
100
AcDbEntity
  8
0
  6
Continuous
 62
     7
370
    25
100
AcDbLine
 10
188.9066781911
 20
160.5984812379
 30
0.0
 11
185.9062437031
 21
160.5984812379
 31
0.0
  0
ARC
  5
80
330
1F
100
AcDbEntity
  8
0
  6
Continuous
 62
     7
370
    25
100
AcDbCircle
 10
188.9066777143
 20
61.5984804928
 30
0.0
 40
1.0
100
AcDbArc
 50
270.0
 51
0.0
  0
ARC
  5
81
330
1F
100
AcDbEntity
  8
0
  6
Continuous
 62
     7
370
    25
100
AcDbCircle
 10
188.9066777143
 20
159.5984804928
 30
0.0
 40
1.0
100
AcDbArc
 50
0.0
 51
90.0
  0
ARC
  5
82
330
1F
100
AcDbEntity
  8
0
  6
Continuous
 62
     7
370
    25
100
AcDbCircle
 10
153.9066777143
 20
74.6734804928
 30
0.0
 40
1.000000000000018
100
AcDbArc
 50
38.7235989683
 51
90.0
  0
ARC
  5
83
330
1F
100
AcDbEntity
  8
0
  6
Continuous
 62
     7
370
    25
100
AcDbCircle
 10
153.9066777143
 20
146.5234804928
 30
0.0
 40
1.000000000000011
100
AcDbArc
 50
270.0
 51
321.2806449572
  0
LINE
  5
84
330
1F
100
AcDbEntity
  8
0
  6
Continuous
 62
     7
370
    25
100
AcDbLine
 10
151.9066777143
 20
145.5234793722
 30
0.0
 11
51.8180664691
 21
130.9272238761
 31
0.0
  0
LINE
  5
85
330
1F
100
AcDbEntity
  8
0
  6
Continuous
 62
     7
370
    25
100
AcDbLine
 10
51.8180664691
 20
90.2697371095
 30
0.0
 11
151.9066777143
 21
75.6734816134
 31
0.0
  0
LINE
  5
86
330
1F
100
AcDbEntity
  8
0
  6
Continuous
 62
     7
370
    25
100
AcDbLine
 10
151.9066777143
 20
75.6734816134
 30
0.0
 11
153.9066778093
 21
75.6734816134
 31
0.0
  0
LINE
  5
87
330
1F
100
AcDbEntity
  8
0
  6
Continuous
 62
     7
370
    25
100
AcDbLine
 10
153.9066778093
 20
145.5234793722
 30
0.0
 11
151.9066777143
 21
145.5234793722
 31
0.0
  0
ARC
  5
88
330
1F
100
AcDbEntity
  8
0
  6
Continuous
 62
     7
370
    25
100
AcDbCircle
 10
52.1066777143
 20
92.2488026321
 30
0.0
 40
2.000000000000007
100
AcDbArc
 50
180.0
 51
261.7028550302
  0
ARC
  5
89
330
1F
100
AcDbEntity
  8
0
  6
Continuous
 62
     7
370
    25
100
AcDbCircle
 10
52.1066777143
 20
128.9481583535
 30
0.0
 40
2.0
100
AcDbArc
 50
98.2971449698
 51
180.0
  0
ARC
  5
8A
330
1F
100
AcDbEntity
  8
0
  6
Continuous
 62
     7
370
    25
100
AcDbCircle
 10
193.9066777143
 20
90.5984804928
 30
0.0
 40
4.0
100
AcDbArc
 50
90.0
 51
180.0
  0
ARC
  5
8B
330
1F
100
AcDbEntity
  8
0
  6
Continuous
 62
     7
370
    25
100
AcDbCircle
 10
193.9066777143
 20
130.5984804928
 30
0.0
 40
4.0
100
AcDbArc
 50
180.0
 51
270.0
  0
LINE
  5
8C
330
1F
100
AcDbEntity
  8
0
  6
Continuous
 62
     7
370
    25
100
AcDbLine
 10
254.6066802058
 20
94.5984797329
 30
0.0
 11
254.9066778335
 21
94.8984810859
 31
0.0
  0
LINE
  5
8D
330
1F
100
AcDbEntity
  8
0
  6
Continuous
 62
     7
370
    25
100
AcDbLine
 10
254.9066778335
 20
126.2984798997
 30
0.0
 11
254.6066802058
 21
126.5984812528
 31
0.0
  0
LINE
  5
8E
330
1F
100
AcDbEntity
  8
0
  6
Continuous
 62
     7
370
    25
100
AcDbLine
 10
193.9066771481
 20
94.5984797329
 30
0.0
 11
254.6066802058
 21
94.5984797329
 31
0.0
  0
LINE
  5
8F
330
1F
100
AcDbEntity
  8
0
  6
Continuous
 62
     7
370
    25
100
AcDbLine
 10
254.6066802058
 20
126.5984812528
 30
0.0
 11
193.9066771481
 21
126.5984812528
 31
0.0
  0
SPLINE
  5
90
330
1F
100
AcDbEntity
  8
0
  6
Continuous
 62
     7
370
    25
100
AcDbSpline
210
0.0
220
0.0
230
1.0
 70
     8
 71
     3
 72
    11
 73
     7
 74
     0
 42
0.000000001
 43
0.00000001
 40
0.0
 40
0.0
 40
0.0
 40
0.0
 40
0.1323880141866621
 40
0.4819443982105002
 40
0.8154863076801115
 40
1.0
 40
1.0
 40
1.0
 40
1.0
 10
247.7166440400628
 20
109.6596667086534
 30
0.0
 10
247.6391438033588
 20
109.6033311915069
 30
0.0
 10
247.3570124852863
 20
109.3982477700516
 30
0.0
 10
246.8294558107557
 20
109.0147654154405
 30
0.0
 10
246.2617055764277
 20
108.6020572407435
 30
0.0
 10
245.9571126191495
 20
108.3806470178161
 30
0.0
 10
245.8486270222215
 20
108.3017882667311
 30
0.0
  0
SPLINE
  5
91
330
1F
100
AcDbEntity
  8
0
  6
Continuous
 62
     7
370
    25
100
AcDbSpline
210
0.0
220
0.0
230
1.0
 70
     8
 71
     3
 72
    10
 73
     6
 74
     0
 42
0.000000001
 43
0.00000001
 40
0.0
 40
0.0
 40
0.0
 40
0.0
 40
0.4391197561900421
 40
0.7513709145842571
 40
1.0
 40
1.0
 40
1.0
 40
1.0
 10
245.3647341641931
 20
112.8951727188952
 30
0.0
 10
245.6667939331855
 20
112.7607717561516
 30
0.0
 10
246.1836436574067
 20
112.5308003807485
 30
0.0
 10
246.9349739337787
 20
112.196505979921
 30
0.0
 10
247.3089318688015
 20
112.0301166272712
 30
0.0
 10
247.4747013363389
 20
111.9563589347355
 30
0.0
  0
SPLINE
  5
92
330
1F
100
AcDbEntity
  8
0
  6
Continuous
 62
     7
370
    25
100
AcDbSpline
210
0.0
220
0.0
230
1.0
 70
     8
 71
     3
 72
    11
 73
     7
 74
     0
 42
0.000000001
 43
0.00000001
 40
0.0
 40
0.0
 40
0.0
 40
0.0
 40
0.1845132362991499
 40
0.5180567650745349
 40
0.8676123130068335
 40
0.9999999999999999
 40
0.9999999999999999
 40
0.9999999999999999
 40
0.9999999999999999
 10
243.4967096957712
 20
111.5372942769729
 30
0.0
 10
243.6051951721551
 20
111.6161531943251
 30
0.0
 10
243.9097892277376
 20
111.8375649284651
 30
0.0
 10
244.4775455587598
 20
112.2502686729659
 30
0.0
 10
245.0051024910765
 20
112.6337538979987
 30
0.0
 10
245.2872339054975
 20
112.8388372296659
 30
0.0
 10
245.3647341641931
 20
112.8951727188952
 30
0.0
  0
SPLINE
  5
93
330
1F
100
AcDbEntity
  8
0
  6
Continuous
 62
     7
370
    25
100
AcDbSpline
210
0.0
220
0.0
230
1.0
 70
     8
 71
     3
 72
    10
 73
     6
 74
     0
 42
0.000000001
 43
0.00000001
 40
0.0
 40
0.0
 40
0.0
 40
0.0
 40
0.4391224580232972
 40
0.7513717567024402
 40
1.0
 40
1.0
 40
1.0
 40
1.0
 10
243.7386598500757
 20
109.2406020508908
 30
0.0
 10
243.7040208834975
 20
109.5693958939149
 30
0.0
 10
243.6447509903443
 20
110.1319870411271
 30
0.0
 10
243.558595996223
 20
110.949805560594
 30
0.0
 10
243.5157171969471
 20
111.3568554337089
 30
0.0
 10
243.4967096957712
 20
111.5372942769729
 30
0.0
  0
SPLINE
  5
94
330
1F
100
AcDbEntity
  8
0
  6
Continuous
 62
     7
370
    25
100
AcDbSpline
210
0.0
220
0.0
230
1.0
 70
     8
 71
     3
 72
    10
 73
     6
 74
     0
 42
0.000000001
 43
0.00000001
 40
0.0
 40
0.0
 40
0.0
 40
0.0
 40
0.4391224347011579
 40
0.7513735676718669
 40
1.0
 40
1.0
 40
1.0
 40
1.0
 10
245.8486270222215
 20
108.3017882667311
 30
0.0
 10
245.5465647512508
 20
108.436189063459
 30
0.0
 10
245.0297120735852
 20
108.6661595640648
 30
0.0
 10
244.2783810611071
 20
109.0004534159195
 30
0.0
 10
243.9044267388668
 20
109.1668441713542
 30
0.0
 10
243.7386598500757
 20
109.2406020508908
 30
0.0
  0
CIRCLE
  5
95
330
1F
100
AcDbEntity
  8
0
  6
Continuous
 62
     7
370
    25
100
AcDbCircle
 10
245.6066777143
 20
110.5984804928
 30
0.0
 40
2.350000000000019
  0
SPLINE
  5
96
330
1F
100
AcDbEntity
  8
0
  6
Continuous
 62
     7
370
    25
100
AcDbSpline
210
0.0
220
0.0
230
1.0
 70
     8
 71
     3
 72
    10
 73
     6
 74
     0
 42
0.000000001
 43
0.00000001
 40
0.0
 40
0.0
 40
0.0
 40
0.0
 40
0.4391222834531682
 40
0.751371679318232
 40
1.0
 40
1.0
 40
1.0
 40
1.0
 10
247.4747013363389
 20
111.9563589347355
 30
0.0
 10
247.5093370574778
 20
111.6275650123552
 30
0.0
 10
247.568601414895
 20
111.0649735636459
 30
0.0
 10
247.6547579612319
 20
110.2471554456549
 30
0.0
 10
247.6976366069547
 20
109.8401055582514
 30
0.0
 10
247.7166440400629
 20
109.6596667086534
 30
0.0
  0
CIRCLE
  5
97
330
1F
100
AcDbEntity
  8
0
  6
Continuous
 62
     7
370
    25
100
AcDbCircle
 10
245.6066777143
 20
110.5984804928
 30
0.0
 40
3.50000000000002
  0
CIRCLE
  5
98
330
1F
100
AcDbEntity
  8
0
  6
Continuous
 62
     7
370
    25
100
AcDbCircle
 10
245.6066777143
 20
110.5984804928
 30
0.0
 40
4.000000000000008
  0
ARC
  5
99
330
1F
100
AcDbEntity
  8
0
  6
Continuous
 62
     7
370
    25
100
AcDbCircle
 10
245.6066777143
 20
110.5984804928
 30
0.0
 40
2.000000000000003
100
AcDbArc
 50
306.0136935043
 51
6.0136935043
  0
ARC
  5
9A
330
1F
100
AcDbEntity
  8
0
  6
Continuous
 62
     7
370
    25
100
AcDbCircle
 10
245.6066777143
 20
110.5984804928
 30
0.0
 40
1.999999999999998
100
AcDbArc
 50
66.0136935043
 51
126.0136935043
  0
ARC
  5
9B
330
1F
100
AcDbEntity
  8
0
  6
Continuous
 62
     7
370
    25
100
AcDbCircle
 10
245.6066777143
 20
110.5984804928
 30
0.0
 40
2.000000000000003
100
AcDbArc
 50
6.0136935043
 51
66.0136935043
  0
ARC
  5
9C
330
1F
100
AcDbEntity
  8
0
  6
Continuous
 62
     7
370
    25
100
AcDbCircle
 10
245.6066777143
 20
110.5984804928
 30
0.0
 40
1.999999999999998
100
AcDbArc
 50
246.0136935043
 51
306.0136935043
  0
ARC
  5
9D
330
1F
100
AcDbEntity
  8
0
  6
Continuous
 62
     7
370
    25
100
AcDbCircle
 10
245.6066777143
 20
110.5984804928
 30
0.0
 40
2.000000000000003
100
AcDbArc
 50
186.0136935043
 51
246.0136935043
  0
ARC
  5
9E
330
1F
100
AcDbEntity
  8
0
  6
Continuous
 62
     7
370
    25
100
AcDbCircle
 10
245.6066777143
 20
110.5984804928
 30
0.0
 40
2.000000000000003
100
AcDbArc
 50
126.0136935043
 51
186.0136935043
  0
SPLINE
  5
9F
330
1F
100
AcDbEntity
  8
0
  6
Continuous
 62
     7
370
    25
100
AcDbSpline
210
0.0
220
0.0
230
1.0
 70
     8
 71
     3
 72
    12
 73
     8
 74
     0
 42
0.000000001
 43
0.00000001
 40
0.0
 40
0.0
 40
0.0
 40
0.0
 40
0.0005125163394239
 40
0.2509311926654425
 40
0.500971717035285
 40
0.7506334863378811
 40
0.9999999999999999
 40
0.9999999999999999
 40
0.9999999999999999
 40
0.9999999999999999
 10
185.906243703082
 20
160.5983545780011
 30
0.0
 10
185.906388015255
 20
160.5983968769453
 30
0.0
 10
185.9770441541863
 20
160.6191067035435
 30
0.0
 10
185.7338822761364
 20
160.547047901697
 30
0.0
 10
185.1283159068452
 20
160.378874969255
 30
0.0
 10
184.1031670163275
 20
160.1014926503865
 30
0.0
 10
183.1219809225339
 20
159.8728795410416
 30
0.0
 10
182.6316781404762
 20
159.758640617115
 30
0.0
  0
SPLINE
  5
A0
330
1F
100
AcDbEntity
  8
0
  6
Continuous
 62
     7
370
    25
100
AcDbSpline
210
0.0
220
0.0
230
1.0
 70
     8
 71
     3
 72
    13
 73
     9
 74
     0
 42
0.000000001
 43
0.00000001
 40
0.0
 40
0.0
 40
0.0
 40
0.0
 40
0.2492492655108381
 40
0.4988437229196849
 40
0.6658825100519831
 40
0.8320256702321183
 40
0.9994886228006725
 40
1.0
 40
1.0
 40
1.0
 40
1.0
 10
182.6316781404762
 20
61.43832036851124
 30
0.0
 10
183.1228638248837
 20
61.32383043030756
 30
0.0
 10
184.1059154497401
 20
61.09469199375761
 30
0.0
 10
185.0049473570037
 20
60.85149888391941
 30
0.0
 10
185.5632945731
 20
60.69752292820459
 30
0.0
 10
185.8288939006539
 20
60.62141008352834
 30
0.0
 10
185.9379798253409
 20
60.58912936111962
 30
0.0
 10
185.906484871918
 20
60.59853678967211
 30
0.0
 10
185.9063889894037
 20
60.59856542943196
 30
0.0
  0
LINE
  5
A1
330
1F
100
AcDbEntity
  8
0
  6
Continuous
 62
     7
370
    25
100
AcDbLine
 10
182.6316781405
 20
61.4383203685
 30
0.0
 11
182.6316781405
 21
159.7586406171
 31
0.0
  0
SPLINE
  5
A2
330
1F
100
AcDbEntity
  8
0
  6
Continuous
 62
     7
370
    25
100
AcDbSpline
210
0.0
220
0.0
230
1.0
 70
     8
 71
     3
 72
    12
 73
     8
 74
     0
 42
0.000000001
 43
0.00000001
 40
0.0
 40
0.0
 40
0.0
 40
0.0
 40
0.4999999999999989
 40
0.4999999999999989
 40
0.7499999999999994
 40
0.7499999999999994
 40
1.0
 40
1.0
 40
1.0
 40
1.0
 10
181.9909573791464
 20
158.8045274445142
 30
0.0
 10
181.4520606840488
 20
157.7468276270131
 30
0.0
 10
180.8897298733292
 20
156.6444591920545
 30
0.0
 10
180.0210636307388
 20
154.9444945856917
 30
0.0
 10
179.7267349083962
 20
154.3689761702531
 30
0.0
 10
179.1332039094284
 20
153.2095475017945
 30
0.0
 10
178.83397765131
 20
152.6255878327133
 30
0.0
 10
178.5324908030566
 20
152.0378778721245
 30
0.0
  0
SPLINE
  5
A3
330
1F
100
AcDbEntity
  8
0
  6
Continuous
 62
     7
370
    25
100
AcDbSpline
210
0.0
220
0.0
230
1.0
 70
     8
 71
     3
 72
     9
 73
     5
 74
     0
 42
0.000000001
 43
0.00000001
 40
0.0
 40
0.0
 40
0.0
 40
0.0
 40
0.5047943286072262
 40
0.9999999999999999
 40
0.9999999999999999
 40
0.9999999999999999
 40
0.9999999999999999
 10
182.6316541197151
 20
159.7585857429006
 30
0.0
 10
182.5232716855958
 20
159.5977441821774
 30
0.0
 10
182.3085655607899
 20
159.2791162745165
 30
0.0
 10
182.0961381319784
 20
158.9617420479314
 30
0.0
 10
181.9909428644717
 20
158.8045765309725
 30
0.0
  0
SPLINE
  5
A4
330
1F
100
AcDbEntity
  8
0
  6
Continuous
 62
     7
370
    25
100
AcDbSpline
210
0.0
220
0.0
230
1.0
 70
     8
 71
     3
 72
     9
 73
     5
 74
     0
 42
0.000000001
 43
0.00000001
 40
0.0
 40
0.0
 40
0.0
 40
0.0
 40
0.4952056703733931
 40
1.0
 40
1.0
 40
1.0
 40
1.0
 10
181.9909428644717
 20
62.39238445465379
 30
0.0
 10
182.0961381317661
 20
62.23521893800834
 30
0.0
 10
182.3085655605859
 20
61.91784471140274
 30
0.0
 10
182.5232716853819
 20
61.59921680376304
 30
0.0
 10
182.6316541197151
 20
61.43837524272573
 30
0.0
  0
SPLINE
  5
A5
330
1F
100
AcDbEntity
  8
0
  6
Continuous
 62
     7
370
    25
100
AcDbSpline
210
0.0
220
0.0
230
1.0
 70
     8
 71
     3
 72
    12
 73
     8
 74
     0
 42
0.000000001
 43
0.00000001
 40
0.0
 40
0.0
 40
0.0
 40
0.0
 40
0.2500000000000001
 40
0.2500000000000001
 40
0.5000000000000002
 40
0.5000000000000002
 40
1.0
 40
1.0
 40
1.0
 40
1.0
 10
181.9909573469075
 20
62.39243360438798
 30
0.0
 10
181.7216198255386
 20
62.92106599307262
 30
0.0
 10
181.4458497081445
 20
63.46199064701932
 30
0.0
 10
180.8835894215388
 20
64.56404740138235
 30
0.0
 10
180.5965040481341
 20
65.12634424061916
 30
0.0
 10
179.7260776074148
 20
66.82973947593915
 30
0.0
 10
179.1340676112455
 20
67.98638624702124
 30
0.0
 10
178.5324908030566
 20
69.15908311350186
 30
0.0
  0
LINE
  5
A6
330
1F
100
AcDbEntity
  8
0
  6
Continuous
 62
     7
370
    25
100
AcDbLine
 10
189.9066764924
 20
61.5984817743
 30
0.0
 11
189.9066764924
 21
159.5984792113
 31
0.0
  0
LINE
  5
A7
330
1F
100
AcDbEntity
  8
0
  6
Continuous
 62
     7
370
    25
100
AcDbLine
 10
167.5816785607
 20
158.7035713494
 30
0.0
 11
155.9066779043
 21
158.7035713494
 31
0.0
  0
LINE
  5
A8
330
1F
100
AcDbEntity
  8
0
  6
Continuous
 62
     7
370
    25
100
AcDbLine
 10
167.5816785607
 20
62.4933896363
 30
0.0
 11
167.5816785607
 21
158.7035713494
 31
0.0
  0
LINE
  5
A9
330
1F
100
AcDbEntity
  8
0
  6
Continuous
 62
     7
370
    25
100
AcDbLine
 10
155.9066779043
 20
62.4933896363
 30
0.0
 11
167.5816785607
 21
62.4933896363
 31
0.0
  0
LINE
  5
AA
330
1F
100
AcDbEntity
  8
0
  6
Continuous
 62
     7
370
    25
100
AcDbLine
 10
154.9066777404
 20
63.59659338
 30
0.0
 11
154.9066777404
 21
157.6003676057
 31
0.0
  0
SPLINE
  5
AB
330
1F
100
AcDbEntity
  8
0
  6
Continuous
 62
     7
370
    25
100
AcDbSpline
210
0.0
220
0.0
230
1.0
 70
     8
 71
     3
 72
    12
 73
     8
 74
     0
 42
0.000000001
 43
0.00000001
 40
0.0
 40
0.0
 40
0.0
 40
0.0
 40
0.2500000000000004
 40
0.2500000000000004
 40
0.5000000000000009
 40
0.5000000000000009
 40
1.0
 40
1.0
 40
1.0
 40
1.0
 10
155.2928141343527
 20
158.5329142266844
 30
0.0
 10
155.2411840122429
 20
158.4767099559698
 30
0.0
 10
155.1926517792525
 20
158.4154205454494
 30
0.0
 10
155.1028266422946
 20
158.2809584714047
 30
0.0
 10
155.0611163690822
 20
158.2068394011618
 30
0.0
 10
154.95498498892
 20
157.9705317559933
 30
0.0
 10
154.906677714303
 20
157.7887082133435
 30
0.0
 10
154.906677714303
 20
157.6003687527543
 30
0.0
  0
SPLINE
  5
AC
330
1F
100
AcDbEntity
  8
0
  6
Continuous
 62
     7
370
    25
100
AcDbSpline
210
0.0
220
0.0
230
1.0
 70
     8
 71
     3
 72
     8
 73
     4
 74
     0
 42
0.000000001
 43
0.00000001
 40
0.0
 40
0.0
 40
0.0
 40
0.0
 40
1.0
 40
1.0
 40
1.0
 40
1.0
 10
155.906677714303
 20
158.7035719882775
 30
0.0
 10
155.6797834706032
 20
158.7035719882775
 30
0.0
 10
155.4619338246768
 20
158.6395598213087
 30
0.0
 10
155.2928141343527
 20
158.5329142266844
 30
0.0
  0
SPLINE
  5
AD
330
1F
100
AcDbEntity
  8
0
  6
Continuous
 62
     7
370
    25
100
AcDbSpline
210
0.0
220
0.0
230
1.0
 70
     8
 71
     3
 72
    10
 73
     6
 74
     0
 42
0.000000001
 43
0.00000001
 40
0.0
 40
0.0
 40
0.0
 40
0.0
 40
0.5
 40
0.5
 40
1.0
 40
1.0
 40
1.0
 40
1.0
 10
155.2928141343527
 20
62.66404675894188
 30
0.0
 10
155.3774247750835
 20
62.6106919303292
 30
0.0
 10
155.47265939719
 20
62.56812246837901
 30
0.0
 10
155.6826967563699
 20
62.50884013369804
 30
0.0
 10
155.793128661154
 20
62.49338899734877
 30
0.0
 10
155.906677714303
 20
62.49338899734877
 30
0.0
  0
SPLINE
  5
AE
330
1F
100
AcDbEntity
  8
0
  6
Continuous
 62
     7
370
    25
100
AcDbSpline
210
0.0
220
0.0
230
1.0
 70
     8
 71
     3
 72
    12
 73
     8
 74
     0
 42
0.000000001
 43
0.00000001
 40
0.0
 40
0.0
 40
0.0
 40
0.0
 40
0.2500000000000004
 40
0.2500000000000004
 40
0.5000000000000009
 40
0.5000000000000009
 40
1.0
 40
1.0
 40
1.0
 40
1.0
 10
155.2928141343527
 20
62.66404675894188
 30
0.0
 10
155.2411840122429
 20
62.7202510296565
 30
0.0
 10
155.1926517792525
 20
62.78154044017692
 30
0.0
 10
155.1028266422946
 20
62.91600251422164
 30
0.0
 10
155.0611163690822
 20
62.99012158446446
 30
0.0
 10
154.95498498892
 20
63.22642922963293
 30
0.0
 10
154.906677714303
 20
63.40825277228279
 30
0.0
 10
154.906677714303
 20
63.59659223287192
 30
0.0
  0
SPLINE
  5
AF
330
1F
100
AcDbEntity
  8
0
  6
Continuous
 62
     7
370
    25
100
AcDbSpline
210
0.0
220
0.0
230
1.0
 70
     8
 71
     3
 72
     8
 73
     4
 74
     0
 42
0.000000001
 43
0.00000001
 40
0.0
 40
0.0
 40
0.0
 40
0.0
 40
0.0012417047560385
 40
0.0012417047560385
 40
0.0012417047560385
 40
0.0012417047560385
 10
168.1392467508307
 20
157.9190506467341
 30
0.0
 10
167.9538581995362
 20
158.1807237322827
 30
0.0
 10
167.7679919539283
 20
158.4422278411603
 30
0.0
 10
167.5816777143029
 20
158.7035719882775
 30
0.0
  0
SPLINE
  5
B0
330
1F
100
AcDbEntity
  8
0
  6
Continuous
 62
     7
370
    25
100
AcDbSpline
210
0.0
220
0.0
230
1.0
 70
     8
 71
     3
 72
     8
 73
     4
 74
     0
 42
0.000000001
 43
0.00000001
 40
0.0
 40
0.0
 40
0.0
 40
0.0
 40
1.0
 40
1.0
 40
1.0
 40
1.0
 10
171.6808646255493
 20
151.5287565729961
 30
0.0
 10
170.5058771496464
 20
153.661833327932
 30
0.0
 10
169.32463061555
 20
155.7915518938082
 30
0.0
 10
168.1392467508307
 20
157.9190506467341
 30
0.0
  0
SPLINE
  5
B1
330
1F
100
AcDbEntity
  8
0
  6
Continuous
 62
     7
370
    25
100
AcDbSpline
210
0.0
220
0.0
230
1.0
 70
     8
 71
     3
 72
     8
 73
     4
 74
     0
 42
0.000000001
 43
0.00000001
 40
0.0
 40
0.0
 40
0.0
 40
0.0
 40
1.0
 40
1.0
 40
1.0
 40
1.0
 10
171.6808646255493
 20
69.66820441263015
 30
0.0
 10
170.5058278277223
 20
67.53503811848479
 30
0.0
 10
169.3245806202833
 20
65.4053193615031
 30
0.0
 10
168.1392467508307
 20
63.27791033889213
 30
0.0
  0
SPLINE
  5
B2
330
1F
100
AcDbEntity
  8
0
  6
Continuous
 62
     7
370
    25
100
AcDbSpline
210
0.0
220
0.0
230
1.0
 70
     8
 71
     3
 72
     8
 73
     4
 74
     0
 42
0.000000001
 43
0.00000001
 40
0.0
 40
0.0
 40
0.0
 40
0.0
 40
0.0012417047560384
 40
0.0012417047560384
 40
0.0012417047560384
 40
0.0012417047560384
 10
167.5816777143029
 20
62.49338899734878
 30
0.0
 10
167.7679919539283
 20
62.75473314446602
 30
0.0
 10
167.9538581995362
 20
63.01623725334358
 30
0.0
 10
168.1392467508307
 20
63.27791033889213
 30
0.0
  0
SPLINE
  5
B3
330
1F
100
AcDbEntity
  8
0
  6
Continuous
 62
     7
370
    25
100
AcDbSpline
210
0.0
220
0.0
230
1.0
 70
     8
 71
     3
 72
    12
 73
     8
 74
     0
 42
0.000000001
 43
0.00000001
 40
0.0
 40
0.0
 40
0.0
 40
0.0
 40
0.2499999999999951
 40
0.2499999999999951
 40
0.4999999999999902
 40
0.4999999999999902
 40
1.0
 40
1.0
 40
1.0
 40
1.0
 10
178.5324908030566
 20
152.0378778721245
 30
0.0
 10
178.4962703816697
 20
151.9672708040247
 30
0.0
 10
178.4533447070219
 20
151.903536212699
 30
0.0
 10
178.3558181237629
 20
151.7877620364505
 30
0.0
 10
178.3003866041461
 20
151.735214192439
 30
0.0
 10
178.121898701242
 20
151.6010655892246
 30
0.0
 10
177.9850618725942
 20
151.5405434871608
 30
0.0
 10
177.8396704800298
 20
151.5199969032324
 30
0.0
  0
SPLINE
  5
B4
330
1F
100
AcDbEntity
  8
0
  6
Continuous
 62
     7
370
    25
100
AcDbSpline
210
0.0
220
0.0
230
1.0
 70
     8
 71
     3
 72
    12
 73
     8
 74
     0
 42
0.000000001
 43
0.00000001
 40
0.0
 40
0.0
 40
0.0
 40
0.0
 40
0.2499999999999957
 40
0.2499999999999957
 40
0.4999999999999913
 40
0.4999999999999913
 40
1.0
 40
1.0
 40
1.0
 40
1.0
 10
178.5324908030566
 20
69.15908311350185
 30
0.0
 10
178.4962703816697
 20
69.22969018160177
 30
0.0
 10
178.4533447070218
 20
69.2934247729275
 30
0.0
 10
178.3558181237628
 20
69.40919894917592
 30
0.0
 10
178.3003866041461
 20
69.46174679318734
 30
0.0
 10
178.1218987012419
 20
69.59589539640172
 30
0.0
 10
177.9850618725942
 20
69.65641749846552
 30
0.0
 10
177.8396704800298
 20
69.67696408239394
 30
0.0
  0
SPLINE
  5
B5
330
1F
100
AcDbEntity
  8
0
  6
Continuous
 62
     7
370
    25
100
AcDbSpline
210
0.0
220
0.0
230
1.0
 70
     8
 71
     3
 72
    10
 73
     6
 74
     0
 42
0.000000001
 43
0.00000001
 40
0.0
 40
0.0
 40
0.0
 40
0.0
 40
0.5
 40
0.5
 40
1.0
 40
1.0
 40
1.0
 40
1.0
 10
172.0566777143029
 20
70.01894927866398
 30
0.0
 10
171.9776776460517
 20
69.98318504405607
 30
0.0
 10
171.9039203957751
 20
69.93369544049663
 30
0.0
 10
171.7758652726419
 20
69.81340694899369
 30
0.0
 10
171.7230152382302
 20
69.74472479600435
 30
0.0
 10
171.6808646255493
 20
69.66820441263015
 30
0.0
  0
SPLINE
  5
B6
330
1F
100
AcDbEntity
  8
0
  6
Continuous
 62
     7
370
    25
100
AcDbSpline
210
0.0
220
0.0
230
1.0
 70
     8
 71
     3
 72
    10
 73
     6
 74
     0
 42
0.000000001
 43
0.00000001
 40
0.0
 40
0.0
 40
0.0
 40
0.0
 40
0.5
 40
0.5
 40
1.0
 40
1.0
 40
1.0
 40
1.0
 10
172.056677714303
 20
151.1780117069623
 30
0.0
 10
171.9773912666202
 20
151.2139055888148
 30
0.0
 10
171.9038790474996
 20
151.2634072986658
 30
0.0
 10
171.7769265946289
 20
151.3824549953344
 30
0.0
 10
171.7228607458923
 20
151.4525166556026
 30
0.0
 10
171.6808646255493
 20
151.5287565729961
 30
0.0
  0
SPLINE
  5
B7
330
1F
100
AcDbEntity
  8
0
  6
Continuous
 62
     7
370
    25
100
AcDbSpline
210
0.0
220
0.0
230
1.0
 70
     8
 71
     3
 72
     8
 73
     4
 74
     0
 42
0.000000001
 43
0.00000001
 40
0.0
 40
0.0
 40
0.0
 40
0.0
 40
1.0
 40
1.0
 40
1.0
 40
1.0
 10
172.3736849485769
 20
151.1105526884758
 30
0.0
 10
172.2639831632752
 20
151.1096942712765
 30
0.0
 10
172.1566361422907
 20
151.1327593831512
 30
0.0
 10
172.0566777143029
 20
151.1780117069622
 30
0.0
  0
SPLINE
  5
B8
330
1F
100
AcDbEntity
  8
0
  6
Continuous
 62
     7
370
    25
100
AcDbSpline
210
0.0
220
0.0
230
1.0
 70
     8
 71
     3
 72
     8
 73
     4
 74
     0
 42
0.000000001
 43
0.00000001
 40
0.0
 40
0.0
 40
0.0
 40
0.0
 40
1.0
 40
1.0
 40
1.0
 40
1.0
 10
172.3736849485769
 20
70.0864082971505
 30
0.0
 10
172.2639831632752
 20
70.08726671434984
 30
0.0
 10
172.1566361422906
 20
70.06420160247505
 30
0.0
 10
172.0566777143029
 20
70.01894927866412
 30
0.0
  0
SPLINE
  5
B9
330
1F
100
AcDbEntity
  8
0
  6
Continuous
 62
     7
370
    25
100
AcDbSpline
210
0.0
220
0.0
230
1.0
 70
     8
 71
     3
 72
    10
 73
     6
 74
     0
 42
0.000000001
 43
0.00000001
 40
0.0
 40
0.0
 40
0.0
 40
0.0
 40
0.5
 40
0.5
 40
1.0
 40
1.0
 40
1.0
 40
1.0
 10
177.8396704800291
 20
151.5199969032352
 30
0.0
 10
176.9921061132609
 20
151.4002198511742
 30
0.0
 10
176.1113926775389
 20
151.3015296715103
 30
0.0
 10
174.2838364263234
 20
151.1602572652732
 30
0.0
 10
173.3304040232221
 20
151.1180390215956
 30
0.0
 10
172.3736849485769
 20
151.1105526884758
 30
0.0
  0
SPLINE
  5
BA
330
1F
100
AcDbEntity
  8
0
  6
Continuous
 62
     7
370
    25
100
AcDbSpline
210
0.0
220
0.0
230
1.0
 70
     8
 71
     3
 72
    10
 73
     6
 74
     0
 42
0.000000001
 43
0.00000001
 40
0.0
 40
0.0
 40
0.0
 40
0.0
 40
0.5
 40
0.5
 40
1.0
 40
1.0
 40
1.0
 40
1.0
 10
177.8396704800291
 20
69.6769640823911
 30
0.0
 10
176.9921061132609
 20
69.79674113445213
 30
0.0
 10
176.1113926775389
 20
69.89543131411597
 30
0.0
 10
174.2838364263234
 20
70.03670372035309
 30
0.0
 10
173.3304040232221
 20
70.0789219640307
 30
0.0
 10
172.3736849485769
 20
70.08640829715051
 30
0.0
  0
LINE
  5
BB
330
1F
100
AcDbEntity
  8
0
  6
Continuous
 62
     7
370
    25
100
AcDbLine
 10
151.9066777143
 20
75.6734816134
 30
0.0
 11
151.9066777143
 21
145.5234793722
 31
0.0
  0
LINE
  5
BC
330
1F
100
AcDbEntity
  8
0
  6
Continuous
 62
     7
370
    25
100
AcDbLine
 10
50.1066755566
 20
92.2488031685
 30
0.0
 11
50.1066755566
 21
128.9481578171
 31
0.0
  0
LINE
  5
BD
330
1F
100
AcDbEntity
  8
0
  6
Continuous
 62
     7
370
    25
100
AcDbLine
 10
254.9066778335
 20
94.8984810859
 30
0.0
 11
254.9066778335
 21
126.2984798997
 31
0.0
  0
LINE
  5
BE
330
1F
100
AcDbEntity
  8
0
  6
Continuous
 62
     7
370
    25
100
AcDbLine
 10
254.6066802058
 20
94.5984797329
 30
0.0
 11
254.6066802058
 21
126.5984812528
 31
0.0
  0
SPLINE
  5
BF
330
1F
100
AcDbEntity
  8
0
  6
Continuous
 62
     7
370
    25
100
AcDbSpline
210
0.0
220
0.0
230
1.0
 70
     8
 71
     3
 72
    42
 73
    38
 74
     0
 42
0.000000001
 43
0.00000001
 40
0.0
 40
0.0
 40
0.0
 40
0.0
 40
0.0312500000000001
 40
0.0312500000000001
 40
0.0625000000000002
 40
0.0625000000000002
 40
0.1249999999999996
 40
0.1249999999999996
 40
0.1874999999999991
 40
0.1874999999999991
 40
0.2499999999999986
 40
0.2499999999999986
 40
0.312499999999998
 40
0.312499999999998
 40
0.3749999999999974
 40
0.3749999999999974
 40
0.4374999999999968
 40
0.4374999999999968
 40
0.4999999999999963
 40
0.4999999999999963
 40
0.5624999999999957
 40
0.5624999999999957
 40
0.6249999999999951
 40
0.6249999999999951
 40
0.6874999999999944
 40
0.6874999999999944
 40
0.7499999999999939
 40
0.7499999999999939
 40
0.7812499999999947
 40
0.7812499999999947
 40
0.8124999999999954
 40
0.8124999999999954
 40
0.874999999999997
 40
0.874999999999997
 40
0.9374999999999986
 40
0.9374999999999986
 40
1.0
 40
1.0
 40
1.0
 40
1.0
 10
250.856677714303
 20
110.5984804928132
 30
0.0
 10
250.856677714303
 20
110.4375477218059
 30
0.0
 10
250.8468770605478
 20
110.2764763419259
 30
0.0
 10
250.8072485175489
 20
109.954050579833
 30
0.0
 10
250.777260914825
 20
109.7928809797541
 30
0.0
 10
250.6602016622685
 20
109.3224879687705
 30
0.0
 10
250.5458345481654
 20
109.0214181416648
 30
0.0
 10
250.2480534416545
 20
108.4437916233149
 30
0.0
 10
250.0697860044147
 20
108.1770174152675
 30
0.0
 10
249.6608451257702
 20
107.6821450483584
 30
0.0
 10
249.4288253337502
 20
107.4538892772625
 30
0.0
 10
248.9322611642547
 20
107.0499869902597
 30
0.0
 10
248.6657282666775
 20
106.8717097247215
 30
0.0
 10
248.0975165426039
 20
106.5610539078944
 30
0.0
 10
247.8032693345493
 20
106.4327165194915
 30
0.0
 10
247.1956651697818
 20
106.2259466769624
 30
0.0
 10
246.8798275181415
 20
106.147197729554
 30
0.0
 10
246.2400281660573
 20
106.0430068908427
 30
0.0
 10
245.9191579231308
 20
106.0176136399852
 30
0.0
 10
245.2755264483328
 20
106.0186236870579
 30
0.0
 10
244.9499024636919
 20
106.0455803912612
 30
0.0
 10
244.3113136312907
 20
106.152148475247
 30
0.0
 10
244.0002204093219
 20
106.2308787837349
 30
0.0
 10
243.3942144829321
 20
106.4391878985334
 30
0.0
 10
243.096532669995
 20
106.570359324866
 30
0.0
 10
242.5333483511982
 20
106.8808428253329
 30
0.0
 10
242.2690515508731
 20
107.0587313413808
 30
0.0
 10
241.8992202909446
 20
107.3611601688494
 30
0.0
 10
241.7804099772704
 20
107.4679443976926
 30
0.0
 10
241.5522827409915
 20
107.6943463398272
 30
0.0
 10
241.4426911279504
 20
107.8144520689062
 30
0.0
 10
241.1370549031876
 20
108.1861429917705
 30
0.0
 10
240.9610709664679
 20
108.4514324495978
 30
0.0
 10
240.6685253103287
 20
109.0200424314488
 30
0.0
 10
240.5512988709021
 20
109.3283096924686
 30
0.0
 10
240.396523219641
 20
109.9535525114032
 30
0.0
 10
240.356677714303
 20
110.2725966159394
 30
0.0
 10
240.356677714303
 20
110.5984804928131
 30
0.0
  0
SPLINE
  5
C0
330
1F
100
AcDbEntity
  8
0
  6
Continuous
 62
     7
370
    25
100
AcDbSpline
210
0.0
220
0.0
230
1.0
 70
     8
 71
     3
 72
    42
 73
    38
 74
     0
 42
0.000000001
 43
0.00000001
 40
0.0
 40
0.0
 40
0.0
 40
0.0
 40
0.0312499999999993
 40
0.0312499999999993
 40
0.0624999999999986
 40
0.0624999999999986
 40
0.1249999999999979
 40
0.1249999999999979
 40
0.1874999999999972
 40
0.1874999999999972
 40
0.2499999999999964
 40
0.2499999999999964
 40
0.3124999999999957
 40
0.3124999999999957
 40
0.3749999999999948
 40
0.3749999999999948
 40
0.4999999999999931
 40
0.4999999999999931
 40
0.5624999999999936
 40
0.5624999999999936
 40
0.6249999999999941
 40
0.6249999999999941
 40
0.6874999999999946
 40
0.6874999999999946
 40
0.7499999999999951
 40
0.7499999999999951
 40
0.8124999999999954
 40
0.8124999999999954
 40
0.8437499999999957
 40
0.8437499999999957
 40
0.8749999999999959
 40
0.8749999999999959
 40
0.9374999999999976
 40
0.9374999999999976
 40
0.9687499999999988
 40
0.9687499999999988
 40
1.0
 40
1.0
 40
1.0
 40
1.0
 10
240.356677714303
 20
110.5984804928132
 30
0.0
 10
240.356677714303
 20
110.761424923166
 30
0.0
 10
240.366894619641
 20
110.9252609509765
 30
0.0
 10
240.4067249641346
 20
111.2465126889876
 30
0.0
 10
240.436315396535
 20
111.4051163527749
 30
0.0
 10
240.5533671265337
 20
111.8750316391301
 30
0.0
 10
240.6708026594898
 20
112.1827087231648
 30
0.0
 10
240.9665654143127
 20
112.7548077290999
 30
0.0
 10
241.1467797049121
 20
113.0246677364648
 30
0.0
 10
241.5593225093785
 20
113.5221996371686
 30
0.0
 10
241.7887890425473
 20
113.7472657106269
 30
0.0
 10
242.2908914557052
 20
114.1541924332962
 30
0.0
 10
242.5586483416726
 20
114.3318043889687
 30
0.0
 10
243.1188900556337
 20
114.6370342346076
 30
0.0
 10
243.4123612235226
 20
114.765362450998
 30
0.0
 10
244.333420817206
 20
115.0777617215451
 30
0.0
 10
244.9705465598272
 20
115.1803546905704
 30
0.0
 10
245.9456266688064
 20
115.1780726886284
 30
0.0
 10
246.2662388408905
 20
115.150906752342
 30
0.0
 10
246.8989366885779
 20
115.045339621649
 30
0.0
 10
247.2124382023083
 20
114.9664627822082
 30
0.0
 10
247.8243162581707
 20
114.7558520278881
 30
0.0
 10
248.1167388816612
 20
114.6264484023795
 30
0.0
 10
248.6748822950092
 20
114.3191410989971
 30
0.0
 10
248.9421462847627
 20
114.1400418258511
 30
0.0
 10
249.4404762849711
 20
113.7324376766873
 30
0.0
 10
249.6664834299017
 20
113.5085316648343
 30
0.0
 10
249.969609526571
 20
113.1408943528567
 30
0.0
 10
250.0646261212669
 20
113.0130133433619
 30
0.0
 10
250.2417764171713
 20
112.7457438042163
 30
0.0
 10
250.3243864442566
 20
112.6053394244345
 30
0.0
 10
250.5461081500595
 20
112.1745286448065
 30
0.0
 10
250.6602978207466
 20
111.8743472885608
 30
0.0
 10
250.777498308591
 20
111.4029952435476
 30
0.0
 10
250.8074528755501
 20
111.2415254813422
 30
0.0
 10
250.8468762121828
 20
110.9202123366117
 30
0.0
 10
250.856677714303
 20
110.7594157250096
 30
0.0
 10
250.856677714303
 20
110.5984804928132
 30
0.0
  0
CIRCLE
  5
C1
330
1F
100
AcDbEntity
  8
0
  6
HIDDEN
 62
     7
370
    18
100
AcDbCircle
 10
245.6066777143
 20
110.5984804928
 30
0.0
 40
3.508270759903358
  0
CIRCLE
  5
C2
330
1F
100
AcDbEntity
  8
0
  6
HIDDEN
 62
     7
370
    18
100
AcDbCircle
 10
245.6066777143
 20
110.5984804928
 30
0.0
 40
2.499560044878004
  0
LWPOLYLINE
  5
C3
330
1F
100
AcDbEntity
  8
0
  6
HIDDEN
 62
     7
370
    18
100
AcDbPolyline
 90
        3
 70
   128
 43
0.0
 10
246.8999709997
 20
108.8193080397
 10
246.2134670529
 20
108.4842725433
 10
245.5378931078
 20
108.3999962322
  0
LINE
  5
C4
330
1F
100
AcDbEntity
  8
0
  6
HIDDEN
 62
     7
370
    18
100
AcDbLine
 10
244.026520482
 20
109.0683938712
 30
0.0
 11
243.6757844004
 21
109.5450508185
 31
0.0
  0
LINE
  5
C5
330
1F
100
AcDbEntity
  8
0
  6
HIDDEN
 62
     7
370
    18
100
AcDbLine
 10
243.501306704
 20
111.2352609527
 30
0.0
 11
243.7172170791
 21
111.7245360985
 31
0.0
  0
LINE
  5
C6
330
1F
100
AcDbEntity
  8
0
  6
HIDDEN
 62
     7
370
    18
100
AcDbLine
 10
245.1208021554
 20
112.7437049765
 30
0.0
 11
245.6867035541
 21
112.7965840753
 31
0.0
  0
LINE
  5
C7
330
1F
100
AcDbEntity
  8
0
  6
HIDDEN
 62
     7
370
    18
100
AcDbLine
 10
247.1889417681
 20
112.1263863062
 30
0.0
 11
247.500182322
 21
111.7177180024
 31
0.0
  0
LWPOLYLINE
  5
C8
330
1F
100
AcDbEntity
  8
0
  6
HIDDEN
 62
     7
370
    18
100
AcDbPolyline
 90
        3
 70
   128
 43
0.0
 10
247.7021228585
 20
109.929772025
 10
247.4304895911
 20
109.3689379524
 10
246.8999709997
 20
108.8193080397
  0
SPLINE
  5
C9
330
1F
100
AcDbEntity
  8
0
  6
HIDDEN
 62
     7
370
    18
100
AcDbSpline
210
0.0
220
0.0
230
1.0
 70
     8
 71
     3
 72
     9
 73
     5
 74
     0
 42
0.000000001
 43
0.00000001
 40
0.0
 40
0.0
 40
0.0
 40
0.0
 40
0.3267158099365908
 40
1.0
 40
1.0
 40
1.0
 40
1.0
 10
184.5306467327623
 20
60.97471916673855
 30
0.0
 10
184.3738526258834
 20
61.01680204099868
 30
0.0
 10
183.8939428629938
 20
61.1456077889308
 30
0.0
 10
183.1397328579144
 20
61.32063426889884
 30
0.0
 10
182.6319351855068
 20
61.43847683070378
 30
0.0
  0
LINE
  5
CA
330
1F
100
AcDbEntity
  8
0
  6
HIDDEN
 62
     7
370
    18
100
AcDbLine
 10
154.9066777404
 20
145.8984819949
 30
0.0
 11
155.0782506417
 21
145.8984819949
 31
0.0
  0
ELLIPSE
  5
CB
330
1F
100
AcDbEntity
  8
0
  6
HIDDEN
 62
     7
370
    18
100
AcDbEllipse
 10
155.0782505896
 20
147.8984804928
 30
0.0
 11
0.0
 21
2.0
 31
0.0
210
0.0
220
0.0
230
1.0
 40
0.4142135624
 41
3.141592653589793
 42
4.712388980384695
  0
ELLIPSE
  5
CC
330
1F
100
AcDbEntity
  8
0
  6
HIDDEN
 62
     7
370
    18
100
AcDbEllipse
 10
155.0782505896
 20
73.2984804928
 30
0.0
 11
0.0
 21
2.0
 31
0.0
210
0.0
220
0.0
230
1.0
 40
0.4142135624
 41
4.712388980384695
 42
6.283185307179586
  0
LINE
  5
CD
330
1F
100
AcDbEntity
  8
0
  6
HIDDEN
 62
     7
370
    18
100
AcDbLine
 10
155.0782506417
 20
75.2984789908
 30
0.0
 11
154.9066777404
 21
75.2984789908
 31
0.0
  0
LINE
  5
CE
330
1F
100
AcDbEntity
  8
0
  6
HIDDEN
 62
     7
370
    18
100
AcDbLine
 10
155.9066779043
 20
63.2779096961
 30
0.0
 11
155.2928140915
 21
62.6640451848
 31
0.0
  0
LINE
  5
CF
330
1F
100
AcDbEntity
  8
0
  6
HIDDEN
 62
     7
370
    18
100
AcDbLine
 10
155.2928140915
 20
158.5329158008
 30
0.0
 11
155.9066779043
 21
157.9190512895
 31
0.0
  0
LINE
  5
D0
330
1F
100
AcDbEntity
  8
0
  6
HIDDEN
 62
     7
370
    18
100
AcDbLine
 10
254.4566776666
 20
121.3984546959
 30
0.0
 11
254.4566776666
 21
123.1334527731
 31
0.0
  0
LINE
  5
D1
330
1F
100
AcDbEntity
  8
0
  6
HIDDEN
 62
     7
370
    18
100
AcDbLine
 10
254.4566776666
 20
102.4169141203
 30
0.0
 11
254.4566776666
 21
118.7800468653
 31
0.0
  0
LINE
  5
D2
330
1F
100
AcDbEntity
  8
0
  6
HIDDEN
 62
     7
370
    18
100
AcDbLine
 10
254.4566776666
 20
98.0635082125
 30
0.0
 11
254.4566776666
 21
99.7985062897
 31
0.0
  0
LINE
  5
D3
330
1F
100
AcDbEntity
  8
0
  6
HIDDEN
 62
     7
370
    18
100
AcDbLine
 10
182.9066772077
 20
75.2984789908
 30
0.0
 11
172.0566779438
 21
75.2984789908
 31
0.0
  0
LINE
  5
D4
330
1F
100
AcDbEntity
  8
0
  6
HIDDEN
 62
     7
370
    18
100
AcDbLine
 10
172.0566779438
 20
145.8984819949
 30
0.0
 11
182.9066772077
 21
145.8984819949
 31
0.0
  0
LINE
  5
D5
330
1F
100
AcDbEntity
  8
0
  6
HIDDEN
 62
     7
370
    18
100
AcDbLine
 10
172.0566779438
 20
75.2984789908
 30
0.0
 11
155.0782506417
 21
75.2984789908
 31
0.0
  0
LINE
  5
D6
330
1F
100
AcDbEntity
  8
0
  6
HIDDEN
 62
     7
370
    18
100
AcDbLine
 10
155.0782506417
 20
145.8984819949
 30
0.0
 11
172.0566779438
 21
145.8984819949
 31
0.0
  0
LINE
  5
D7
330
1F
100
AcDbEntity
  8
0
  6
HIDDEN
 62
     7
370
    18
100
AcDbLine
 10
168.139246485
 20
63.2779096961
 30
0.0
 11
155.9066779043
 21
63.2779096961
 31
0.0
  0
LINE
  5
D8
330
1F
100
AcDbEntity
  8
0
  6
HIDDEN
 62
     7
370
    18
100
AcDbLine
 10
155.9066779043
 20
63.2779096961
 30
0.0
 11
155.9066779043
 21
73.298478663
 31
0.0
  0
SPLINE
  5
D9
330
1F
100
AcDbEntity
  8
0
  6
HIDDEN
 62
     7
370
    18
100
AcDbSpline
210
0.0
220
0.0
230
1.0
 70
     8
 71
     3
 72
    14
 73
    10
 74
     0
 42
0.000000001
 43
0.00000001
 40
0.0
 40
0.0
 40
0.0
 40
0.0
 40
0.0005824381182948
 40
0.1215113240614776
 40
0.2449973263523064
 40
0.3711155482160605
 40
0.4999362643929746
 40
0.7262881120721423
 40
1.0
 40
1.0
 40
1.0
 40
1.0
 10
184.9062454018144
 20
61.59861215947346
 30
0.0
 10
184.9063899607149
 20
61.59856854035635
 30
0.0
 10
184.9365486039206
 20
61.58946848919557
 30
0.0
 10
184.861945613179
 20
61.61255824785592
 30
0.0
 10
184.7416556984884
 20
61.64939550805173
 30
0.0
 10
184.5013094778297
 20
61.72110476761905
 30
0.0
 10
184.0811814517426
 20
61.84254139712252
 30
0.0
 10
183.33489244008
 20
62.05930929884983
 30
0.0
 10
182.4663673328894
 20
62.27461300213869
 30
0.0
 10
181.9909766379146
 20
62.39246034620479
 30
0.0
  0
SPLINE
  5
DA
330
1F
100
AcDbEntity
  8
0
  6
HIDDEN
 62
     7
370
    18
100
AcDbSpline
210
0.0
220
0.0
230
1.0
 70
     8
 71
     3
 72
    14
 73
    10
 74
     0
 42
0.000000001
 43
0.00000001
 40
0.0
 40
0.0
 40
0.0
 40
0.0
 40
0.1878283068745983
 40
0.3545817382986141
 40
0.500302529246609
 40
0.6713282127934905
 40
0.8376421998681889
 40
0.9994166143211657
 40
1.0
 40
1.0
 40
1.0
 40
1.0
 10
181.9909766379146
 20
158.8045006394215
 30
0.0
 10
182.3239795183879
 20
158.8860495269741
 30
0.0
 10
182.952621399803
 20
159.0399972826977
 30
0.0
 10
183.6520608515636
 20
159.2309715402884
 30
0.0
 10
184.1999366889696
 20
159.3883478960293
 30
0.0
 10
184.606052289711
 20
159.5066774202583
 30
0.0
 10
184.8391696495444
 20
159.5770243901242
 30
0.0
 10
184.9331843496597
 20
159.6067413213838
 30
0.0
 10
184.9064866186912
 20
159.5984197056594
 30
0.0
 10
184.906390688136
 20
159.5983898043461
 30
0.0
  0
LINE
  5
DB
330
1F
100
AcDbEntity
  8
0
  6
HIDDEN
 62
     7
370
    18
100
AcDbLine
 10
182.4903108242
 20
158.928817302
 30
0.0
 11
181.9909729126
 21
158.8045453429
 31
0.0
  0
LINE
  5
DC
330
1F
100
AcDbEntity
  8
0
  6
HIDDEN
 62
     7
370
    18
100
AcDbLine
 10
155.9066779043
 20
157.9190512895
 30
0.0
 11
168.139246485
 21
157.9190512895
 31
0.0
  0
LINE
  5
DD
330
1F
100
AcDbEntity
  8
0
  6
HIDDEN
 62
     7
370
    18
100
AcDbLine
 10
155.9066779043
 20
157.9190512895
 30
0.0
 11
155.9066779043
 21
147.8984823227
 31
0.0
  0
LINE
  5
DE
330
1F
100
AcDbEntity
  8
0
  6
HIDDEN
 62
     7
370
    18
100
AcDbLine
 10
60.106680921
 20
98.0984803065
 30
0.0
 11
60.106680921
 21
123.0984806791
 31
0.0
  0
LINE
  5
DF
330
1F
100
AcDbEntity
  8
0
  6
HIDDEN
 62
     7
370
    18
100
AcDbLine
 10
63.3912842783
 20
100.0984806344
 30
0.0
 11
63.3912842783
 21
121.0984803513
 31
0.0
  0
LINE
  5
E0
330
1F
100
AcDbEntity
  8
0
  6
HIDDEN
 62
     7
370
    18
100
AcDbLine
 10
252.7246262941
 20
106.2341362014
 30
0.0
 11
252.7246262941
 21
114.9628247842
 31
0.0
  0
LINE
  5
E1
330
1F
100
AcDbEntity
  8
0
  6
HIDDEN
 62
     7
370
    18
100
AcDbLine
 10
251.5566807303
 20
106.2341362014
 30
0.0
 11
251.5566807303
 21
114.9628247842
 31
0.0
  0
LINE
  5
E2
330
1F
100
AcDbEntity
  8
0
  6
HIDDEN
 62
     7
370
    18
100
AcDbLine
 10
108.106677613
 20
100.0984806344
 30
0.0
 11
108.106677613
 21
121.0984803513
 31
0.0
  0
LINE
  5
E3
330
1F
100
AcDbEntity
  8
0
  6
HIDDEN
 62
     7
370
    18
100
AcDbLine
 10
111.8620570812
 20
106.3484802618
 30
0.0
 11
111.8620570812
 21
114.8484807238
 31
0.0
  0
LINE
  5
E4
330
1F
100
AcDbEntity
  8
0
  6
HIDDEN
 62
     7
370
    18
100
AcDbLine
 10
251.5566807303
 20
118.198480621
 30
0.0
 11
251.5566807303
 21
114.9628247842
 31
0.0
  0
LINE
  5
E5
330
1F
100
AcDbEntity
  8
0
  6
HIDDEN
 62
     7
370
    18
100
AcDbLine
 10
251.5566807303
 20
114.9628247842
 30
0.0
 11
252.7246262941
 21
114.9628247842
 31
0.0
  0
SPLINE
  5
E6
330
1F
100
AcDbEntity
  8
0
  6
HIDDEN
 62
     7
370
    18
100
AcDbSpline
210
0.0
220
0.0
230
1.0
 70
     8
 71
     3
 72
     8
 73
     4
 74
     0
 42
0.000000001
 43
0.00000001
 40
0.0
 40
0.0
 40
0.0
 40
0.0
 40
1.0
 40
1.0
 40
1.0
 40
1.0
 10
252.724626906734
 20
114.9628246588936
 30
0.0
 10
253.2513738001911
 20
115.6944886194278
 30
0.0
 10
253.8388990952541
 20
116.3650964780739
 30
0.0
 10
254.456677714303
 20
117.0053127834229
 30
0.0
  0
LINE
  5
E7
330
1F
100
AcDbEntity
  8
0
  6
HIDDEN
 62
     7
370
    18
100
AcDbLine
 10
254.4566776666
 20
121.3984546959
 30
0.0
 11
254.4566776666
 21
121.3386442289
 31
0.0
  0
LINE
  5
E8
330
1F
100
AcDbEntity
  8
0
  6
HIDDEN
 62
     7
370
    18
100
AcDbLine
 10
251.5566807303
 20
121.3386442289
 30
0.0
 11
254.4566776666
 21
121.3386442289
 31
0.0
  0
LINE
  5
E9
330
1F
100
AcDbEntity
  8
0
  6
HIDDEN
 62
     7
370
    18
100
AcDbLine
 10
251.5566807303
 20
121.398480773
 30
0.0
 11
251.5566807303
 21
118.198480621
 31
0.0
  0
LINE
  5
EA
330
1F
100
AcDbEntity
  8
0
  6
HIDDEN
 62
     7
370
    18
100
AcDbLine
 10
251.5566807303
 20
99.8583167568
 30
0.0
 11
254.4566776666
 21
99.8583167568
 31
0.0
  0
LINE
  5
EB
330
1F
100
AcDbEntity
  8
0
  6
HIDDEN
 62
     7
370
    18
100
AcDbLine
 10
254.4566776666
 20
99.8583167568
 30
0.0
 11
254.4566776666
 21
99.7985062897
 31
0.0
  0
LINE
  5
EC
330
1F
100
AcDbEntity
  8
0
  6
HIDDEN
 62
     7
370
    18
100
AcDbLine
 10
251.5566807303
 20
102.9984803647
 30
0.0
 11
251.5566807303
 21
99.7984802127
 31
0.0
  0
LINE
  5
ED
330
1F
100
AcDbEntity
  8
0
  6
HIDDEN
 62
     7
370
    18
100
AcDbLine
 10
251.5566807303
 20
106.2341362014
 30
0.0
 11
251.5566807303
 21
102.9984803647
 31
0.0
  0
LINE
  5
EE
330
1F
100
AcDbEntity
  8
0
  6
HIDDEN
 62
     7
370
    18
100
AcDbLine
 10
252.7246262941
 20
106.2341362014
 30
0.0
 11
251.5566807303
 21
106.2341362014
 31
0.0
  0
SPLINE
  5
EF
330
1F
100
AcDbEntity
  8
0
  6
HIDDEN
 62
     7
370
    18
100
AcDbSpline
210
0.0
220
0.0
230
1.0
 70
     8
 71
     3
 72
     8
 73
     4
 74
     0
 42
0.000000001
 43
0.00000001
 40
0.0
 40
0.0
 40
0.0
 40
0.0
 40
1.0
 40
1.0
 40
1.0
 40
1.0
 10
254.456677714303
 20
104.1916482022034
 30
0.0
 10
253.8335356254685
 20
104.837422778273
 30
0.0
 10
253.2457594381914
 20
105.5102708485202
 30
0.0
 10
252.724626906734
 20
106.2341363267327
 30
0.0
  0
LINE
  5
F0
330
1F
100
AcDbEntity
  8
0
  6
HIDDEN
 62
     7
370
    18
100
AcDbLine
 10
250.7566746387
 20
101.5984808802
 30
0.0
 11
250.7566746387
 21
119.5984801054
 31
0.0
  0
SPLINE
  5
F1
330
1F
100
AcDbEntity
  8
0
  6
HIDDEN
 62
     7
370
    18
100
AcDbSpline
210
0.0
220
0.0
230
1.0
 70
     8
 71
     3
 72
     9
 73
     5
 74
     0
 42
0.000000001
 43
0.00000001
 40
0.0
 40
0.0
 40
0.0
 40
0.0
 40
0.5048004989128174
 40
1.0
 40
1.0
 40
1.0
 40
1.0
 10
182.6316984839835
 20
61.43848470067537
 30
0.0
 10
182.5233085368608
 20
61.59932754112198
 30
0.0
 10
182.3085901533487
 20
61.91795408921976
 30
0.0
 10
182.0961581505439
 20
62.23531256802855
 30
0.0
 10
181.99096192874
 20
62.39246832840045
 30
0.0
  0
SPLINE
  5
F2
330
1F
100
AcDbEntity
  8
0
  6
HIDDEN
 62
     7
370
    18
100
AcDbSpline
210
0.0
220
0.0
230
1.0
 70
     8
 71
     3
 72
     9
 73
     5
 74
     0
 42
0.000000001
 43
0.00000001
 40
0.0
 40
0.0
 40
0.0
 40
0.0
 40
0.4951994982841695
 40
1.0
 40
1.0
 40
1.0
 40
1.0
 10
181.99096192874
 20
158.8044926572258
 30
0.0
 10
182.0961581499438
 20
158.9616484166995
 30
0.0
 10
182.3085901527392
 20
159.2790068954909
 30
0.0
 10
182.5233085362564
 20
159.5976334436037
 30
0.0
 10
182.6316984839835
 20
159.758476284951
 30
0.0
  0
LINE
  5
F3
330
1F
100
AcDbEntity
  8
0
  6
HIDDEN
 62
     7
370
    18
100
AcDbLine
 10
235.9066765818
 20
101.9984802008
 30
0.0
 11
235.9066765818
 21
119.1984798536
 31
0.0
  0
LINE
  5
F4
330
1F
100
AcDbEntity
  8
0
  6
HIDDEN
 62
     7
370
    18
100
AcDbLine
 10
237.9066806349
 20
101.5984808802
 30
0.0
 11
237.9066806349
 21
119.5984801054
 31
0.0
  0
LINE
  5
F5
330
1F
100
AcDbEntity
  8
0
  6
HIDDEN
 62
     7
370
    18
100
AcDbLine
 10
251.5566807303
 20
122.7734807655
 30
0.0
 11
251.5566807303
 21
121.398480773
 31
0.0
  0
LINE
  5
F6
330
1F
100
AcDbEntity
  8
0
  6
HIDDEN
 62
     7
370
    18
100
AcDbLine
 10
251.5566807303
 20
99.7984802127
 30
0.0
 11
251.5566807303
 21
98.4234802201
 31
0.0
  0
ARC
  5
F7
330
1F
100
AcDbEntity
  8
0
  6
HIDDEN
 62
     7
370
    18
100
AcDbCircle
 10
51.3066777143
 20
96.8984804928
 30
0.0
 40
1.200000000000003
100
AcDbArc
 50
90.0
 51
180.0
  0
ARC
  5
F8
330
1F
100
AcDbEntity
  8
0
  6
HIDDEN
 62
     7
370
    18
100
AcDbCircle
 10
51.3066777143
 20
124.2984804928
 30
0.0
 40
1.200000000000003
100
AcDbArc
 50
180.0
 51
270.0
  0
LINE
  5
F9
330
1F
100
AcDbEntity
  8
0
  6
HIDDEN
 62
     7
370
    18
100
AcDbLine
 10
254.9066778335
 20
124.098480843
 30
0.0
 11
254.4566776666
 21
123.1334527731
 31
0.0
  0
LINE
  5
FA
330
1F
100
AcDbEntity
  8
0
  6
HIDDEN
 62
     7
370
    18
100
AcDbLine
 10
254.4566776666
 20
98.0635082125
 30
0.0
 11
254.9066778335
 21
97.0984801426
 31
0.0
  0
ARC
  5
FB
330
1F
100
AcDbEntity
  8
0
  6
HIDDEN
 62
     7
370
    18
100
AcDbCircle
 10
182.9066777143
 20
73.2984804928
 30
0.0
 40
2.0
100
AcDbArc
 50
0.0
 51
90.0
  0
ARC
  5
FC
330
1F
100
AcDbEntity
  8
0
  6
HIDDEN
 62
     7
370
    18
100
AcDbCircle
 10
182.9066777143
 20
147.8984804928
 30
0.0
 40
2.0
100
AcDbArc
 50
270.0
 51
0.0
  0
LINE
  5
FD
330
1F
100
AcDbEntity
  8
0
  6
HIDDEN
 62
     7
370
    18
100
AcDbLine
 10
184.9066775355
 20
61.4982640147
 30
0.0
 11
184.9066775355
 21
73.298478663
 31
0.0
  0
LINE
  5
FE
330
1F
100
AcDbEntity
  8
0
  6
HIDDEN
 62
     7
370
    18
100
AcDbLine
 10
184.9066775355
 20
147.8984823227
 30
0.0
 11
184.9066775355
 21
159.6985852122
 31
0.0
  0
ARC
  5
FF
330
1F
100
AcDbEntity
  8
0
  6
HIDDEN
 62
     7
370
    18
100
AcDbCircle
 10
60.999050145
 20
98.2734804928
 30
0.0
 40
0.4000000000000057
100
AcDbArc
 50
255.0
 51
270.0
  0
ARC
  5
100
330
1F
100
AcDbEntity
  8
0
  6
HIDDEN
 62
     7
370
    18
100
AcDbCircle
 10
60.999050145
 20
122.9234804928
 30
0.0
 40
0.3999999999999915
100
AcDbArc
 50
90.0
 51
105.0
  0
ARC
  5
101
330
1F
100
AcDbEntity
  8
0
  6
HIDDEN
 62
     7
370
    18
100
AcDbCircle
 10
61.8757376066
 20
98.2734804928
 30
0.0
 40
0.4000000000000057
100
AcDbArc
 50
270.0
 51
330.0
  0
ARC
  5
102
330
1F
100
AcDbEntity
  8
0
  6
HIDDEN
 62
     7
370
    18
100
AcDbCircle
 10
61.8757376066
 20
122.9234804928
 30
0.0
 40
0.400000000000004
100
AcDbArc
 50
30.0
 51
90.0
  0
LINE
  5
103
330
1F
100
AcDbEntity
  8
0
  6
HIDDEN
 62
     7
370
    18
100
AcDbLine
 10
60.9990518603
 20
97.8734802231
 30
0.0
 11
61.8757393274
 21
97.8734802231
 31
0.0
  0
LINE
  5
104
330
1F
100
AcDbEntity
  8
0
  6
HIDDEN
 62
     7
370
    18
100
AcDbLine
 10
61.8757393274
 20
123.3234807625
 30
0.0
 11
60.9990518603
 21
123.3234807625
 31
0.0
  0
LINE
  5
105
330
1F
100
AcDbEntity
  8
0
  6
HIDDEN
 62
     7
370
    18
100
AcDbLine
 10
60.8955260429
 20
123.3098508566
 30
0.0
 11
60.106680921
 21
123.0984806791
 31
0.0
  0
LINE
  5
106
330
1F
100
AcDbEntity
  8
0
  6
HIDDEN
 62
     7
370
    18
100
AcDbLine
 10
60.106680921
 20
98.0984803065
 30
0.0
 11
60.8955260429
 21
97.887110129
 31
0.0
  0
LINE
  5
107
330
1F
100
AcDbEntity
  8
0
  6
HIDDEN
 62
     7
370
    18
100
AcDbLine
 10
62.2221466217
 20
98.0734808147
 30
0.0
 11
63.3912842783
 21
100.0984806344
 31
0.0
  0
LINE
  5
108
330
1F
100
AcDbEntity
  8
0
  6
HIDDEN
 62
     7
370
    18
100
AcDbLine
 10
63.3912842783
 20
121.0984803513
 30
0.0
 11
62.2221466217
 21
123.1234801709
 31
0.0
  0
LINE
  5
109
330
1F
100
AcDbEntity
  8
0
  6
HIDDEN
 62
     7
370
    18
100
AcDbLine
 10
51.3066809687
 20
98.0984803065
 30
0.0
 11
60.106680921
 21
98.0984803065
 31
0.0
  0
LINE
  5
10A
330
1F
100
AcDbEntity
  8
0
  6
HIDDEN
 62
     7
370
    18
100
AcDbLine
 10
60.106680921
 20
123.0984806791
 30
0.0
 11
51.3066809687
 21
123.0984806791
 31
0.0
  0
LINE
  5
10B
330
1F
100
AcDbEntity
  8
0
  6
HIDDEN
 62
     7
370
    18
100
AcDbLine
 10
63.3912842783
 20
100.0984806344
 30
0.0
 11
108.106677613
 21
100.0984806344
 31
0.0
  0
LINE
  5
10C
330
1F
100
AcDbEntity
  8
0
  6
HIDDEN
 62
     7
370
    18
100
AcDbLine
 10
108.106677613
 20
121.0984803513
 30
0.0
 11
63.3912842783
 21
121.0984803513
 31
0.0
  0
LINE
  5
10D
330
1F
100
AcDbEntity
  8
0
  6
HIDDEN
 62
     7
370
    18
100
AcDbLine
 10
108.106677613
 20
100.0984806344
 30
0.0
 11
111.8620570812
 21
106.3484802618
 31
0.0
  0
LINE
  5
10E
330
1F
100
AcDbEntity
  8
0
  6
HIDDEN
 62
     7
370
    18
100
AcDbLine
 10
111.8620570812
 20
114.8484807238
 30
0.0
 11
108.106677613
 21
121.0984803513
 31
0.0
  0
LINE
  5
10F
330
1F
100
AcDbEntity
  8
0
  6
HIDDEN
 62
     7
370
    18
100
AcDbLine
 10
254.4538538966
 20
121.398480773
 30
0.0
 11
251.5566807303
 21
121.398480773
 31
0.0
  0
LINE
  5
110
330
1F
100
AcDbEntity
  8
0
  6
HIDDEN
 62
     7
370
    18
100
AcDbLine
 10
251.5566807303
 20
99.7984802127
 30
0.0
 11
254.4566776666
 21
99.7984802127
 31
0.0
  0
LINE
  5
111
330
1F
100
AcDbEntity
  8
0
  6
HIDDEN
 62
     7
370
    18
100
AcDbLine
 10
251.5566807303
 20
120.0603611544
 30
0.0
 11
250.7566746387
 21
119.5984801054
 31
0.0
  0
LINE
  5
112
330
1F
100
AcDbEntity
  8
0
  6
HIDDEN
 62
     7
370
    18
100
AcDbLine
 10
250.7566746387
 20
101.5984808802
 30
0.0
 11
251.5566807303
 21
101.1365998313
 31
0.0
  0
LINE
  5
113
330
1F
100
AcDbEntity
  8
0
  6
HIDDEN
 62
     7
370
    18
100
AcDbLine
 10
185.9066832873
 20
60.5984797478
 30
0.0
 11
184.9066812608
 21
61.5984817743
 31
0.0
  0
LINE
  5
114
330
1F
100
AcDbEntity
  8
0
  6
HIDDEN
 62
     7
370
    18
100
AcDbLine
 10
184.9066812608
 20
159.5984792113
 30
0.0
 11
185.9066832873
 21
160.5984812379
 31
0.0
  0
LINE
  5
115
330
1F
100
AcDbEntity
  8
0
  6
HIDDEN
 62
     7
370
    18
100
AcDbLine
 10
236.5066792879
 20
101.3984802887
 30
0.0
 11
237.0812755141
 21
101.3984802887
 31
0.0
  0
LINE
  5
116
330
1F
100
AcDbEntity
  8
0
  6
HIDDEN
 62
     7
370
    18
100
AcDbLine
 10
237.0812755141
 20
119.798480697
 30
0.0
 11
236.5066792879
 21
119.798480697
 31
0.0
  0
ARC
  5
117
330
1F
100
AcDbEntity
  8
0
  6
HIDDEN
 62
     7
370
    18
100
AcDbCircle
 10
237.0812760542
 20
101.9984804928
 30
0.0
 40
0.6000000000000085
100
AcDbArc
 50
270.0
 51
285.0
  0
ARC
  5
118
330
1F
100
AcDbEntity
  8
0
  6
HIDDEN
 62
     7
370
    18
100
AcDbCircle
 10
237.0812760542
 20
119.1984804928
 30
0.0
 40
0.6000000000000085
100
AcDbArc
 50
75.0
 51
90.0
  0
ARC
  5
119
330
1F
100
AcDbEntity
  8
0
  6
HIDDEN
 62
     7
370
    18
100
AcDbCircle
 10
236.5066777143
 20
101.9984804928
 30
0.0
 40
0.6000000000000085
100
AcDbArc
 50
180.0
 51
270.0
  0
ARC
  5
11A
330
1F
100
AcDbEntity
  8
0
  6
HIDDEN
 62
     7
370
    18
100
AcDbCircle
 10
236.5066777143
 20
119.1984804928
 30
0.0
 40
0.6000000000000085
100
AcDbArc
 50
90.0
 51
180.0
  0
LINE
  5
11B
330
1F
100
AcDbEntity
  8
0
  6
HIDDEN
 62
     7
370
    18
100
AcDbLine
 10
237.2365679655
 20
101.4189246818
 30
0.0
 11
237.9066806349
 21
101.5984808802
 31
0.0
  0
LINE
  5
11C
330
1F
100
AcDbEntity
  8
0
  6
HIDDEN
 62
     7
370
    18
100
AcDbLine
 10
237.9066806349
 20
119.5984801054
 30
0.0
 11
237.2365679655
 21
119.7780363038
 31
0.0
  0
LINE
  5
11D
330
1F
100
AcDbEntity
  8
0
  6
HIDDEN
 62
     7
370
    18
100
AcDbLine
 10
237.9066806349
 20
101.5984808802
 30
0.0
 11
250.7566746387
 21
101.5984808802
 31
0.0
  0
LINE
  5
11E
330
1F
100
AcDbEntity
  8
0
  6
HIDDEN
 62
     7
370
    18
100
AcDbLine
 10
250.7566746387
 20
119.5984801054
 30
0.0
 11
237.9066806349
 21
119.5984801054
 31
0.0
  0
LINE
  5
11F
330
1F
100
AcDbEntity
  8
0
  6
HIDDEN
 62
     7
370
    18
100
AcDbLine
 10
254.4566776666
 20
122.7734807655
 30
0.0
 11
251.5566807303
 21
122.7734807655
 31
0.0
  0
LINE
  5
120
330
1F
100
AcDbEntity
  8
0
  6
HIDDEN
 62
     7
370
    18
100
AcDbLine
 10
251.5566807303
 20
98.4234802201
 30
0.0
 11
254.4566776666
 21
98.4234802201
 31
0.0
  0
LINE
  5
121
330
1F
100
AcDbEntity
  8
0
  6
HIDDEN
 62
     7
370
    18
100
AcDbLine
 10
111.8620570812
 20
106.3484802618
 30
0.0
 11
235.9066765818
 21
106.3484802618
 31
0.0
  0
LINE
  5
122
330
1F
100
AcDbEntity
  8
0
  6
HIDDEN
 62
     7
370
    18
100
AcDbLine
 10
235.9066765818
 20
114.8484807238
 30
0.0
 11
111.8620570812
 21
114.8484807238
 31
0.0
  0
LINE
  5
123
330
1F
100
AcDbEntity
  8
0
  6
HIDDEN
 62
     7
370
    18
100
AcDbLine
 10
254.4543456349
 20
121.398480773
 30
0.0
 11
254.4538538966
 21
121.398480773
 31
0.0
  0
DIMENSION
  5
124
330
1F
100
AcDbEntity
  8
VERMASSUNG
100
AcDbDimension
  2
_D
 10
34.1066777143
 20
60.5984804928
 30
0.0
 11
34.1066777143
 21
110.5984804928
 31
0.0
 70
   160
  1
MAS BT 50 %%c<>
 71
     2
 42
-1.0
  3
SLDDIMSTYLE0
100
AcDbAlignedDimension
 13
185.9066796228
 23
160.5984804928
 33
0.0
 14
185.9066797764
 24
60.5984804928
 34
0.0
 50
90.0
100
AcDbRotatedDimension
  0
DIMENSION
  5
131
330
1F
100
AcDbEntity
  8
VERMASSUNG
100
AcDbDimension
  2
_D_1
 10
254.9066777143
 20
179.273049632
 30
0.0
 11
152.5066777143
 21
179.273049632
 31
0.0
 70
   160
  1
<>
 71
     2
 42
-1.0
  3
SLDDIMSTYLE0
100
AcDbAlignedDimension
 13
50.1066777143
 23
128.9481583535
 33
0.0
 14
254.9066777143
 24
126.2984804928
 34
0.0
100
AcDbRotatedDimension
  0
DIMENSION
  5
13B
330
1F
100
AcDbEntity
  8
VERMASSUNG
100
AcDbDimension
  2
_D_2
 10
254.9066777143
 20
173.273049632
 30
0.0
 11
203.4066777143
 21
173.273049632
 31
0.0
 70
   160
  1
<>
 71
     2
 42
-1.0
  3
SLDDIMSTYLE0
100
AcDbAlignedDimension
 13
151.9066777143
 23
145.5234804928
 33
0.0
 14
254.9066777143
 24
126.2984804928
 34
0.0
100
AcDbRotatedDimension
  0
DIMENSION
  5
145
330
1F
100
AcDbEntity
  8
VERMASSUNG
100
AcDbDimension
  2
_D_3
 10
254.9066777143
 20
167.273049632
 30
0.0
 11
222.4066777143
 21
167.273049632
 31
0.0
 70
   160
  1
<>
 71
     2
 42
-1.0
  3
SLDDIMSTYLE0
100
AcDbAlignedDimension
 13
189.9066777143
 23
159.5984804928
 33
0.0
 14
254.9066777143
 24
126.2984804928
 34
0.0
100
AcDbRotatedDimension
  0
DIMENSION
  5
14F
330
1F
100
AcDbEntity
  8
VERMASSUNG
100
AcDbDimension
  2
_D_4
 10
264.9066777143
 20
94.5984804928
 30
0.0
 11
264.9066777143
 21
110.5984804928
 31
0.0
 70
   160
  1
MBM %%c<>
 71
     2
 42
-1.0
  3
SLDDIMSTYLE0
100
AcDbAlignedDimension
 13
254.6066777143
 23
126.5984804928
 33
0.0
 14
254.6066777143
 24
94.5984804928
 34
0.0
 50
90.0
100
AcDbRotatedDimension
  0
DIMENSION
  5
15B
330
1F
100
AcDbEntity
  8
VERMASSUNG
100
AcDbDimension
  2
_D_5
 10
43.6405205872
 20
98.0984804928
 30
0.0
 11
43.6405205872
 21
110.5984804928
 31
0.0
 70
   160
  1
M<>
 71
     2
 42
-1.0
  3
SLDDIMSTYLE0
100
AcDbAlignedDimension
 13
51.3066777143
 23
123.0984804928
 33
0.0
 14
51.3066777143
 24
98.0984804928
 34
0.0
 50
90.0
100
AcDbRotatedDimension
  0
LINE
  5
166
330
1F
100
AcDbEntity
  8
VERMASSUNG
  6
CENTERX2
 62
     7
370
    18
100
AcDbLine
 10
48.1066777143
 20
110.5984804928
 30
0.0
 11
256.9066777143
 21
110.5984804928
 31
0.0
  0
LINE
  5
167
330
1F
100
AcDbEntity
  8
0
  6
Continuous
 62
     7
370
    25
100
AcDbLine
 10
279.3999283491
 20
36.5437639957
 30
0.0
 11
279.2231227312
 21
36.6458653567
 31
0.0
  0
LINE
  5
168
330
1F
100
AcDbEntity
  8
0
  6
Continuous
 62
     7
370
    25
100
AcDbLine
 10
276.7478478845
 20
36.6458647965
 30
0.0
 11
276.5710421044
 21
36.5437638171
 31
0.0
  0
LINE
  5
169
330
1F
100
AcDbEntity
  8
0
  6
Continuous
 62
     7
370
    25
100
AcDbLine
 10
279.9854855461
 20
35.4212856697
 30
0.0
 11
279.9854855461
 21
35.7274883343
 31
0.0
  0
LINE
  5
16A
330
1F
100
AcDbEntity
  8
0
  6
Continuous
 62
     7
370
    25
100
AcDbLine
 10
275.9854858753
 20
35.7274881442
 30
0.0
 11
275.9854858753
 21
35.4212854797
 31
0.0
  0
SPLINE
  5
16B
330
1F
100
AcDbEntity
  8
0
  6
Continuous
 62
     7
370
    25
100
AcDbSpline
210
0.0
220
0.0
230
1.0
 70
     8
 71
     3
 72
    21
 73
    17
 74
     0
 42
0.000000001
 43
0.00000001
 40
0.0
 40
0.0
 40
0.0
 40
0.0
 40
0.018681594267406
 40
0.0995614299375631
 40
0.1807752087433986
 40
0.2622824822137246
 40
0.3440120352854759
 40
0.4258877210546448
 40
0.5078446276447437
 40
0.589834697742263
 40
0.6718201157879181
 40
0.7537845505005881
 40
0.8357211087120852
 40
0.9176283619418988
 40
0.9995080375240449
 40
1.0
 40
1.0
 40
1.0
 40
1.0
 10
249.3023695898322
 20
18.15554213625559
 30
0.0
 10
249.3966118882644
 20
18.14367578072306
 30
0.0
 10
249.8988654892263
 20
18.08043538977705
 30
0.0
 10
250.8604375332904
 20
18.10915282074059
 30
0.0
 10
252.1805239658201
 20
18.24789631133497
 30
0.0
 10
253.5420511534053
 20
18.54343665795837
 30
0.0
 10
254.9306674359718
 20
18.97879049393223
 30
0.0
 10
256.3386167233245
 20
19.55531716988562
 30
0.0
 10
257.7562023709035
 20
20.26797611061874
 30
0.0
 10
259.1742269642287
 20
21.11224415342269
 30
0.0
 10
260.583727457227
 20
22.08204905449433
 30
0.0
 10
261.9752452413619
 20
23.17187190753739
 30
0.0
 10
263.3423591223466
 20
24.37105873121807
 30
0.0
 10
264.6683937728973
 20
25.6850325855425
 30
0.0
 10
265.5428343874034
 20
26.6021320359431
 30
0.0
 10
265.9575239738883
 20
27.10112700776805
 30
0.0
 10
265.9600006967086
 20
27.10410724231984
 30
0.0
  0
SPLINE
  5
16C
330
1F
100
AcDbEntity
  8
0
  6
Continuous
 62
     7
370
    25
100
AcDbSpline
210
0.0
220
0.0
230
1.0
 70
     8
 71
     3
 72
    20
 73
    16
 74
     0
 42
0.000000001
 43
0.00000001
 40
0.0
 40
0.0
 40
0.0
 40
0.0
 40
0.0650881036938587
 40
0.1468739915903779
 40
0.228692256836909
 40
0.3105474884251185
 40
0.3924426042799663
 40
0.4743774753873453
 40
0.5563469765145391
 40
0.6383381156077087
 40
0.7203155816563827
 40
0.8022324145615684
 40
0.8840231082511807
 40
0.9656066376094328
 40
1.0
 40
1.0
 40
1.0
 40
1.0
 10
273.9527619755399
 20
40.96469307178474
 30
0.0
 10
274.1145583273481
 20
41.44679089476476
 30
0.0
 10
274.4796584710949
 20
42.53466452419404
 30
0.0
 10
274.9251636243526
 20
44.22042057486735
 30
0.0
 10
275.3075881046292
 20
46.00934720542617
 30
0.0
 10
275.5772474102534
 20
47.76732165678779
 30
0.0
 10
275.7360375919791
 20
49.48350060996788
 30
0.0
 10
275.7815250130312
 20
51.14722394319279
 30
0.0
 10
275.7131857680175
 20
52.74805009746794
 30
0.0
 10
275.5309735053003
 20
54.27594920167013
 30
0.0
 10
275.2349464550999
 20
55.72032041887766
 30
0.0
 10
274.8286118962099
 20
57.07391911230808
 30
0.0
 10
274.3064945362874
 20
58.31834540931825
 30
0.0
 10
273.8171073047048
 20
59.25617857163432
 30
0.0
 10
273.466177598509
 20
59.73372601726783
 30
0.0
 10
273.3621081379741
 20
59.87534442166459
 30
0.0
  0
LINE
  5
16D
330
1F
100
AcDbEntity
  8
0
  6
Continuous
 62
     7
370
    25
100
AcDbLine
 10
243.2214776044
 20
20.6014003202
 30
0.0
 11
245.4400251483
 21
19.3206600844
 31
0.0
  0
LINE
  5
16E
330
1F
100
AcDbEntity
  8
0
  6
Continuous
 62
     7
370
    25
100
AcDbLine
 10
270.4379927155
 20
62.6231034467
 30
0.0
 11
268.2194451716
 21
63.9038436824
 31
0.0
  0
LINE
  5
16F
330
1F
100
AcDbEntity
  8
0
  6
Continuous
 62
     7
370
    25
100
AcDbLine
 10
281.1683868041
 20
21.0305828299
 30
0.0
 11
281.2744347438
 21
21.0918236677
 31
0.0
  0
LINE
  5
170
330
1F
100
AcDbEntity
  8
0
  6
Continuous
 62
     7
370
    25
100
AcDbLine
 10
286.8243206073
 20
30.7055497113
 30
0.0
 11
286.8243219243
 21
30.8280107201
 31
0.0
  0
LINE
  5
171
330
1F
100
AcDbEntity
  8
0
  6
Continuous
 62
     7
370
    25
100
AcDbLine
 10
255.7071005078
 20
33.022980954
 30
0.0
 11
277.1677923979
 21
20.633987233
 31
0.0
  0
LINE
  5
172
330
1F
100
AcDbEntity
  8
0
  6
Continuous
 62
     7
370
    25
100
AcDbLine
 10
285.1671424145
 20
34.4907690024
 30
0.0
 11
263.7064505244
 21
46.8797627234
 31
0.0
  0
LINE
  5
173
330
1F
100
AcDbEntity
  8
0
  6
Continuous
 62
     7
370
    25
100
AcDbLine
 10
262.8984667918
 20
66.9755791174
 30
0.0
 11
258.7707307245
 21
69.3584704278
 31
0.0
  0
SPLINE
  5
174
330
1F
100
AcDbEntity
  8
0
  6
Continuous
 62
     7
370
    25
100
AcDbSpline
210
0.0
220
0.0
230
1.0
 70
     8
 71
     3
 72
    31
 73
    27
 74
     0
 42
0.000000001
 43
0.00000001
 40
0.0
 40
0.0
 40
0.0
 40
0.0
 40
0.0183424793119189
 40
0.0620149517245319
 40
0.1058649480356319
 40
0.1498655293315278
 40
0.1939766166308576
 40
0.2381579692081492
 40
0.2823764864327341
 40
0.3266079327703292
 40
0.3708338747661426
 40
0.4150473266316858
 40
0.4592453712322881
 40
0.5034276798421571
 40
0.5475955027221787
 40
0.5917510695223901
 40
0.635897101448135
 40
0.6800366522123247
 40
0.7241728266627343
 40
0.7683088499788406
 40
0.81244744313106
 40
0.8565914137813536
 40
0.9007441272512868
 40
0.9449088505568336
 40
0.9890887960362
 40
1.0
 40
1.0
 40
1.0
 40
1.0
 10
254.8635152828057
 20
70.52232647458159
 30
0.0
 10
254.6906511455957
 20
70.54028808116416
 30
0.0
 10
254.1062066470261
 20
70.6010153223496
 30
0.0
 10
253.0574727187042
 20
70.55136721922214
 30
0.0
 10
251.7273098017118
 20
70.37742872243133
 30
0.0
 10
250.3589134281681
 20
70.0502733446052
 30
0.0
 10
248.9651438006402
 20
69.5829310906588
 30
0.0
 10
247.5542200738026
 20
68.975444909403
 30
0.0
 10
246.1357327749838
 20
68.2327647974919
 30
0.0
 10
244.7188402106432
 20
67.35976751260198
 30
0.0
 10
243.3126054698459
 20
66.36242107676115
 30
0.0
 10
241.925848654299
 20
65.24735389006844
 30
0.0
 10
240.567151881843
 20
64.02182068279285
 30
0.0
 10
239.2448875032617
 20
62.6937091784676
 30
0.0
 10
237.9671980741858
 20
61.27148063269976
 30
0.0
 10
236.7419589293221
 20
59.76414085777336
 30
0.0
 10
235.5767336993083
 20
58.18119285272905
 30
0.0
 10
234.4787410878936
 20
56.53258098951131
 30
0.0
 10
233.4547958428805
 20
54.82863727105824
 30
0.0
 10
232.5113093958205
 20
53.08003120113267
 30
0.0
 10
231.6541210288472
 20
51.29767614079378
 30
0.0
 10
230.8889137121856
 20
49.49276585155864
 30
0.0
 10
230.2195043548017
 20
47.67626885996527
 30
0.0
 10
229.6540487613655
 20
45.86046803496647
 30
0.0
 10
229.3004022199623
 20
44.50683762512429
 30
0.0
 10
229.1430750239133
 20
43.76435218043999
 30
0.0
 10
229.1119152252433
 20
43.61729752267757
 30
0.0
  0
LINE
  5
175
330
1F
100
AcDbEntity
  8
0
  6
Continuous
 62
     7
370
    25
100
AcDbLine
 10
244.3479436686
 20
67.0747457915
 30
0.0
 11
214.0013839625
 21
78.0104423003
 31
0.0
  0
LINE
  5
176
330
1F
100
AcDbEntity
  8
0
  6
Continuous
 62
     7
370
    25
100
AcDbLine
 10
203.8920293541
 20
60.4986291834
 30
0.0
 11
233.3557656955
 21
35.6196937808
 31
0.0
  0
LINE
  5
177
330
1F
100
AcDbEntity
  8
0
  6
Continuous
 62
     7
370
    25
100
AcDbLine
 10
233.7727631573
 20
26.0560270655
 30
0.0
 11
237.9004992246
 21
23.6731357551
 31
0.0
  0
SPLINE
  5
178
330
1F
100
AcDbEntity
  8
0
  6
Continuous
 62
     7
370
    25
100
AcDbSpline
210
0.0
220
0.0
230
1.0
 70
     8
 71
     3
 72
    11
 73
     7
 74
     0
 42
0.000000001
 43
0.00000001
 40
0.0
 40
0.0
 40
0.0
 40
0.0
 40
0.1050885488042601
 40
0.4236182800053118
 40
0.7416591622910343
 40
1.0
 40
1.0
 40
1.0
 40
1.0
 10
229.117204078505
 20
32.5304397862574
 30
0.0
 10
229.1596106311863
 20
32.38008604540101
 30
0.0
 10
229.3305540033442
 20
31.77400104547788
 30
0.0
 10
229.7116674649045
 20
30.7839848297913
 30
0.0
 10
230.2516150421104
 20
29.66629579402775
 30
0.0
 10
230.6820481881113
 20
29.0363096010067
 30
0.0
 10
230.8749732161927
 20
28.75394262925116
 30
0.0
  0
SPLINE
  5
179
330
1F
100
AcDbEntity
  8
0
  6
Continuous
 62
     7
370
    25
100
AcDbSpline
210
0.0
220
0.0
230
1.0
 70
     8
 71
     3
 72
    26
 73
    22
 74
     0
 42
0.000000001
 43
0.00000001
 40
0.0
 40
0.0
 40
0.0
 40
0.0
 40
0.0211003381036583
 40
0.0734660926208931
 40
0.1265293755584024
 40
0.1807963921464802
 40
0.2363312352339531
 40
0.2928241554534577
 40
0.349829963578208
 40
0.4069680210579834
 40
0.4640247059122236
 40
0.5209555342377817
 40
0.5777730779092578
 40
0.6345160031995213
 40
0.6912339144400492
 40
0.7479784694346993
 40
0.8047900222859633
 40
0.8617257553922989
 40
0.9188408498587521
 40
0.9761800877168696
 40
1.0
 40
1.0
 40
1.0
 40
1.0
 10
214.041812668342
 20
77.97560508344273
 30
0.0
 10
213.942644205137
 20
78.01770478449203
 30
0.0
 10
213.5973644533578
 20
78.16428539952318
 30
0.0
 10
212.9424933820601
 20
78.2649818907557
 30
0.0
 10
212.0964543893043
 20
78.27978490124929
 30
0.0
 10
211.2093161885343
 20
78.14131000504604
 30
0.0
 10
210.2950909645337
 20
77.86044577650196
 30
0.0
 10
209.3656357970825
 20
77.43579602177186
 30
0.0
 10
208.437676939984
 20
76.87468221179101
 30
0.0
 10
207.5278390170922
 20
76.18755139345569
 30
0.0
 10
206.6512813067072
 20
75.38757403975482
 30
0.0
 10
205.8211535552637
 20
74.48879867631506
 30
0.0
 10
205.0491638970935
 20
73.50572556470668
 30
0.0
 10
204.346141761526
 20
72.4534829010029
 30
0.0
 10
203.7221119994961
 20
71.34781411048851
 30
0.0
 10
203.1862729243587
 20
70.20498877505757
 30
0.0
 10
202.7470006395282
 20
69.04163117204263
 30
0.0
 10
202.4110806902009
 20
67.87404680396628
 30
0.0
 10
202.1865638153814
 20
66.71939268255942
 30
0.0
 10
202.0947155981645
 20
65.81180281140334
 30
0.0
 10
202.0874470930702
 20
65.2984890181962
 30
0.0
 10
202.0853138135389
 20
65.1478333064664
 30
0.0
  0
SPLINE
  5
17A
330
1F
100
AcDbEntity
  8
0
  6
Continuous
 62
     7
370
    25
100
AcDbSpline
210
0.0
220
0.0
230
1.0
 70
     8
 71
     3
 72
    13
 73
     9
 74
     0
 42
0.000000001
 43
0.00000001
 40
0.0
 40
0.0
 40
0.0
 40
0.0
 40
0.1011487834154329
 40
0.2919018044811577
 40
0.4826418418763315
 40
0.6715266900532422
 40
0.8566629306124651
 40
1.0
 40
1.0
 40
1.0
 40
1.0
 10
202.0853138135389
 20
65.1478333064664
 30
0.0
 10
202.0887713799326
 20
64.95718745080369
 30
0.0
 10
202.0987494521875
 20
64.40700911542778
 30
0.0
 10
202.2106102449677
 20
63.54369337011175
 30
0.0
 10
202.4622996213085
 20
62.59558409393805
 30
0.0
 10
202.8441672144093
 20
61.75088163808769
 30
0.0
 10
203.2983096993084
 20
61.05879463369697
 30
0.0
 10
203.6736825959704
 20
60.71397205354572
 30
0.0
 10
203.8374854052268
 20
60.56350059482799
 30
0.0
  0
LWPOLYLINE
  5
17B
330
1F
100
AcDbEntity
  8
0
  6
Continuous
 62
     7
370
    25
100
AcDbPolyline
 90
       20
 70
   128
 43
0.0
 10
277.7121384558
 20
34.9337705671
 10
277.1656995434
 20
35.039074662
 10
276.7080966388
 20
35.2411005694
 10
276.3889213539
 20
35.5179538914
 10
276.2427542722
 20
35.839637199
 10
276.2854420739
 20
36.1712871054
 10
276.5123565286
 20
36.476965425
 10
276.8989051253
 20
36.7235488373
 10
277.4032020562
 20
36.8843146057
 10
277.9706009585
 20
36.9418401192
 10
278.5396106607
 20
36.8898942606
 10
279.0485725459
 20
36.7341048239
 10
279.4423321123
 20
36.4913543355
 10
279.6782211087
 20
36.1879475889
 10
279.730676319
 20
35.8567640319
 10
279.5940112938
 20
35.5336936278
 10
279.2830388701
 20
35.2537444121
 10
278.8314559575
 20
35.0472542141
 10
278.2881977946
 20
34.9365998847
 10
277.7121384558
 20
34.9337705671
  0
LWPOLYLINE
  5
17C
330
1F
100
AcDbEntity
  8
0
  6
Continuous
 62
     7
370
    25
100
AcDbPolyline
 90
        9
 70
   128
 43
0.0
 10
277.6730899768
 20
34.5870838289
 10
277.1046925564
 20
34.6909067829
 10
276.6145600227
 20
34.8868331533
 10
276.2462387135
 20
35.15745616
 10
276.0324575502
 20
35.4787288843
 10
275.9922127429
 20
35.822104292
 10
276.1290785419
 20
36.1570728182
 10
276.4308942026
 20
36.453870945
 10
276.5710421044
 20
36.5437638171
  0
LWPOLYLINE
  5
17D
330
1F
100
AcDbEntity
  8
0
  6
Continuous
 62
     7
370
    25
100
AcDbPolyline
 90
       10
 70
   128
 43
0.0
 10
279.3999283491
 20
36.5437639957
 10
279.5581372463
 20
36.4407989422
 10
279.8524756075
 20
36.141508435
 10
279.9809244668
 20
35.805429956
 10
279.9320681199
 20
35.4624270671
 10
279.7102501205
 20
35.1429755692
 10
279.3351794196
 20
34.8754604673
 10
278.8401820221
 20
34.6836520767
 10
278.269241344
 20
34.5845929574
 10
277.6730899768
 20
34.5870838289
  0
LWPOLYLINE
  5
17E
330
1F
100
AcDbEntity
  8
0
  6
Continuous
 62
     7
370
    25
100
AcDbPolyline
 90
       17
 70
   128
 43
0.0
 10
277.8019517847
 20
35.2616370727
 10
277.3717901417
 20
35.3531817111
 10
277.0350552613
 20
35.5327905823
 10
276.8430162742
 20
35.7731173942
 10
276.8249082347
 20
36.0375751659
 10
276.9834873574
 20
36.2859029094
 10
277.2946114007
 20
36.480295034
 10
277.7109144273
 20
36.5911571617
 10
278.1690196367
 20
36.6016106391
 10
278.5991812798
 20
36.5100660006
 10
278.9359161601
 20
36.3304571294
 10
279.1279551473
 20
36.0901303176
 10
279.1460631868
 20
35.8256725459
 10
278.987484064
 20
35.5773448024
 10
278.6763600208
 20
35.3829526778
 10
278.2600569941
 20
35.2720905501
 10
277.8019517847
 20
35.2616370727
  0
SPLINE
  5
17F
330
1F
100
AcDbEntity
  8
0
  6
Continuous
 62
     7
370
    25
100
AcDbSpline
210
0.0
220
0.0
230
1.0
 70
     8
 71
     3
 72
     9
 73
     5
 74
     0
 42
0.000000001
 43
0.00000001
 40
0.0
 40
0.0
 40
0.0
 40
0.0
 40
0.7468205463430845
 40
1.0
 40
1.0
 40
1.0
 40
1.0
 10
279.1260146223945
 20
35.81092620768731
 30
0.0
 10
279.021646941883
 20
35.67371786258707
 30
0.0
 10
278.8818975991225
 20
35.48999454944028
 30
0.0
 10
278.7340714536583
 20
35.41549861346285
 30
0.0
 10
278.6966449109135
 20
35.39663777309243
 30
0.0
  0
SPLINE
  5
180
330
1F
100
AcDbEntity
  8
0
  6
Continuous
 62
     7
370
    25
100
AcDbSpline
210
0.0
220
0.0
230
1.0
 70
     8
 71
     3
 72
    10
 73
     6
 74
     0
 42
0.000000001
 43
0.00000001
 40
0.0
 40
0.0
 40
0.0
 40
0.0
 40
0.4391197561900421
 40
0.7513709145842571
 40
1.0
 40
1.0
 40
1.0
 40
1.0
 10
278.7119493711672
 20
36.43318858366192
 30
0.0
 10
278.7712257105793
 20
36.28818073677813
 30
0.0
 10
278.8726525234917
 20
36.04006008859709
 30
0.0
 10
279.0200969712895
 20
35.86101980560804
 30
0.0
 10
279.0934835473681
 20
35.82631173196302
 30
0.0
 10
279.1260146223945
 20
35.81092620768731
 30
0.0
  0
SPLINE
  5
181
330
1F
100
AcDbEntity
  8
0
  6
Continuous
 62
     7
370
    25
100
AcDbSpline
210
0.0
220
0.0
230
1.0
 70
     8
 71
     3
 72
    11
 73
     7
 74
     0
 42
0.000000001
 43
0.00000001
 40
0.0
 40
0.0
 40
0.0
 40
0.0
 40
0.1845132362991499
 40
0.5180567650745349
 40
0.8676123130068335
 40
0.9999999999999999
 40
0.9999999999999999
 40
0.9999999999999999
 40
0.9999999999999999
 10
277.5714204594902
 20
36.53731042222402
 30
0.0
 10
277.6376567051043
 20
36.50584019414543
 30
0.0
 10
277.8236278355324
 20
36.41748141359639
 30
0.0
 10
278.1702728195749
 20
36.33281759740729
 30
0.0
 10
278.4923748632792
 20
36.36732764633977
 30
0.0
 10
278.6646312887058
 20
36.41899561885387
 30
0.0
 10
278.7119493711672
 20
36.43318858366192
 30
0.0
  0
SPLINE
  5
182
330
1F
100
AcDbEntity
  8
0
  6
Continuous
 62
     7
370
    25
100
AcDbSpline
210
0.0
220
0.0
230
1.0
 70
     8
 71
     3
 72
    10
 73
     6
 74
     0
 42
0.000000001
 43
0.00000001
 40
0.0
 40
0.0
 40
0.0
 40
0.0
 40
0.4391224580232972
 40
0.7513717567024402
 40
1.0
 40
1.0
 40
1.0
 40
1.0
 10
276.8449594332186
 20
36.01916836413289
 30
0.0
 10
276.9489588871456
 20
36.0374203093803
 30
0.0
 10
277.1269098230758
 20
36.06865076893256
 30
0.0
 10
277.3855919432352
 20
36.29569135308994
 30
0.0
 10
277.514345861147
 20
36.46310054528578
 30
0.0
 10
277.5714204594902
 20
36.53731042222402
 30
0.0
  0
SPLINE
  5
183
330
1F
100
AcDbEntity
  8
0
  6
Continuous
 62
     7
370
    25
100
AcDbSpline
210
0.0
220
0.0
230
1.0
 70
     8
 71
     3
 72
    10
 73
     6
 74
     0
 42
0.000000001
 43
0.00000001
 40
0.0
 40
0.0
 40
0.0
 40
0.0
 40
0.3667849502409863
 40
0.7193077269293483
 40
1.0
 40
1.0
 40
1.0
 40
1.0
 10
277.211929450184
 20
35.43537690097538
 30
0.0
 10
277.1679806049291
 20
35.46131425289374
 30
0.0
 10
277.0817918342048
 20
35.51218040113319
 30
0.0
 10
276.9508147459406
 20
35.75181648917435
 30
0.0
 10
276.8774712291112
 20
35.9370554369058
 30
0.0
 10
276.8449594332186
 20
36.01916836413289
 30
0.0
  0
LINE
  5
184
330
1F
100
AcDbEntity
  8
0
  6
Continuous
 62
     7
370
    25
100
AcDbLine
 10
278.7119493712
 20
35.3984894658
 30
0.0
 11
278.7119493712
 21
36.4331885837
 31
0.0
  0
LINE
  5
185
330
1F
100
AcDbEntity
  8
0
  6
Continuous
 62
     7
370
    25
100
AcDbLine
 10
277.5714204595
 20
35.2968235821
 30
0.0
 11
277.5714204595
 21
36.5373104222
 31
0.0
  0
ARC
  5
186
330
1F
100
AcDbEntity
  8
0
  6
Continuous
 62
     7
370
    25
100
AcDbCircle
 10
266.0832493023
 20
55.0755554505
 30
0.0
 40
8.703886327962008
100
AcDbArc
 50
34.3325361505
 51
84.2964956608
  0
ARC
  5
187
330
1F
100
AcDbEntity
  8
0
  6
Continuous
 62
     7
370
    25
100
AcDbCircle
 10
249.7900749745
 20
26.852823866
 30
0.0
 40
8.690194303449745
100
AcDbArc
 50
215.0388871107
 51
265.8628938452
  0
LWPOLYLINE
  5
188
330
1F
100
AcDbEntity
  8
0
  6
Continuous
 62
     7
370
    25
100
AcDbPolyline
 90
        9
 70
   128
 43
0.0
 10
243.2214776044
 20
20.6014003202
 10
243.0551542864
 20
20.7000061383
 10
242.0642594874
 20
21.4064619178
 10
241.1698388246
 20
22.2601829301
 10
240.378209057
 20
23.2551396327
 10
239.6949638616
 20
24.3843025424
 10
239.1249303697
 20
25.6396954713
 10
238.6721336053
 20
27.0124480026
 10
238.3397754117
 20
28.492865455
  0
SPLINE
  5
189
330
1F
100
AcDbEntity
  8
0
  6
Continuous
 62
     7
370
    25
100
AcDbSpline
210
0.0
220
0.0
230
1.0
 70
     8
 71
     3
 72
    32
 73
    28
 74
     0
 42
0.000000001
 43
0.00000001
 40
0.0
 40
0.0
 40
0.0
 40
0.0
 40
0.0193254758663125
 40
0.0385826927428108
 40
0.0577846348043409
 40
0.0769443985998404
 40
0.0960751672996142
 40
0.115190184063639
 40
0.1343027247935363
 40
0.1534260705455366
 40
0.172573479889897
 40
0.1917581615035368
 40
0.2109932472770013
 40
0.2302917662046344
 40
0.2496666193083524
 40
0.3745846283054451
 40
0.4997410234225896
 40
0.4999962720874477
 40
0.6248627021450398
 40
0.7503411293898965
 40
0.786145132310273
 40
0.8217618639985517
 40
0.8572756267680857
 40
0.8927714566736213
 40
0.9283345184902196
 40
0.9640494961170433
 40
1.0
 40
1.0
 40
1.0
 40
1.0
 10
238.3397195330554
 20
35.94468989316052
 30
0.0
 10
238.3616627503447
 20
35.88459884944159
 30
0.0
 10
238.4054716798801
 20
35.76462900795148
 30
0.0
 10
238.4679109311064
 20
35.58388145383202
 30
0.0
 10
238.5278195586367
 20
35.40303805740676
 30
0.0
 10
238.5850061442731
 20
35.22203094185939
 30
0.0
 10
238.639564215483
 20
35.04090153953346
 30
0.0
 10
238.6915119620749
 20
34.85966302220021
 30
0.0
 10
238.740888441538
 20
34.67833706799038
 30
0.0
 10
238.7877278229849
 20
34.49694399125708
 30
0.0
 10
238.8320664293288
 20
34.31550563585888
 30
0.0
 10
238.8739402725496
 20
34.13404374689237
 30
0.0
 10
238.9133878637345
 20
33.95258369444878
 30
0.0
 10
238.9504413830902
 20
33.77114124876766
 30
0.0
 10
239.0481334827161
 20
33.26079029702081
 30
0.0
 10
239.1656296815448
 20
32.43418876834033
 30
0.0
 10
239.2004811176729
 20
31.71886927304476
 30
0.0
 10
239.2008769418463
 20
31.04215730815674
 30
0.0
 10
239.1658255908002
 20
30.40046618405948
 30
0.0
 10
239.0408915106311
 20
29.77916524528406
 30
0.0
 10
238.9201653297602
 20
29.4065411433023
 30
0.0
 10
238.8458579172399
 20
29.21774444217015
 30
0.0
 10
238.7629444460086
 20
29.04355315920798
 30
0.0
 10
238.6712456449987
 20
28.88373698914252
 30
0.0
 10
238.5703435773751
 20
28.7385331165275
 30
0.0
 10
238.4607906805732
 20
28.60648615640056
 30
0.0
 10
238.3802623826712
 20
28.53078667145977
 30
0.0
 10
238.3398659069143
 20
28.49281253705128
 30
0.0
  0
LWPOLYLINE
  5
18A
330
1F
100
AcDbEntity
  8
0
  6
Continuous
 62
     7
370
    25
100
AcDbPolyline
 90
       27
 70
   128
 43
0.0
 10
238.339720094
 20
35.9446900007
 10
238.6720585312
 20
37.8088552664
 10
239.1248381735
 20
39.7044148273
 10
239.6948598116
 20
41.6179764715
 10
240.3780957874
 20
43.5360218281
 10
241.1697189695
 20
45.4449999014
 10
242.0641369981
 20
47.3314244067
 10
243.0550317971
 20
49.1819703456
 10
244.1354030384
 20
50.9835622157
 10
245.2976188497
 20
52.7234747666
 10
246.533467181
 20
54.3894143656
 10
247.8342183663
 20
55.9696113869
 10
249.1906824169
 20
57.452904999
 10
250.5932768518
 20
58.8288127397
 10
252.032092881
 20
60.0876173935
 10
253.4969657053
 20
61.2204243043
 10
254.9775467095
 20
62.2192319497
 10
256.4633760665
 20
63.0769829797
 10
257.9439570707
 20
63.7876177753
 10
259.4088298951
 20
64.346117027
 10
260.8476459243
 20
64.7485340004
 10
262.2502403591
 20
64.9920273243
 10
263.6067044098
 20
65.0748737689
 10
264.907455595
 20
64.996492099
 10
266.1433039263
 20
64.7574326114
 10
267.3055197376
 20
64.3593858737
 10
268.2194451716
 20
63.9038436824
  0
LWPOLYLINE
  5
18B
330
1F
100
AcDbEntity
  8
0
  6
Continuous
 62
     7
370
    25
100
AcDbPolyline
 90
       43
 70
   128
 43
0.0
 10
275.722744562
 20
24.2967462756
 10
275.7847419176
 20
25.2878744631
 10
275.9693503824
 20
26.3284438574
 10
276.272445163
 20
27.3952093009
 10
276.6872560924
 20
28.4643414688
 10
277.2045167909
 20
29.5119573724
 10
277.8126727658
 20
30.5146550407
 10
278.4981385733
 20
31.4500361237
 10
279.245601901
 20
32.2972053937
 10
280.0383660115
 20
33.0372387773
 10
280.8587216552
 20
33.6536045224
 10
281.688343514
 20
34.1325350271
 10
282.5086991577
 20
34.4633317473
 10
283.3014632682
 20
34.6386043229
 10
284.0489265959
 20
34.6544378416
 10
284.7343924034
 20
34.5104787339
 10
285.3425483784
 20
34.2099430084
 10
285.8598090769
 20
33.7595435952
 10
286.2746200063
 20
33.1693419321
 10
286.5777147868
 20
32.4525222734
 10
286.7623232516
 20
31.6250972757
 10
286.8243206073
 20
30.7055497113
 10
286.7623232516
 20
29.7144215238
 10
286.5777147868
 20
28.6738521295
 10
286.2746200063
 20
27.607086686
 10
285.8598090769
 20
26.5379545182
 10
285.3425483784
 20
25.4903386145
 10
284.7343924034
 20
24.4876409463
 10
284.0489265959
 20
23.5522598632
 10
283.3014632682
 20
22.7050905932
 10
282.5086991577
 20
21.9650572096
 10
281.688343514
 20
21.3486914646
 10
280.8587216552
 20
20.8697609598
 10
280.0383660115
 20
20.5389642396
 10
279.245601901
 20
20.363691664
 10
278.4981385733
 20
20.3478581453
 10
277.8126727658
 20
20.491817253
 10
277.2045167909
 20
20.7923529785
 10
276.6872560924
 20
21.2427523918
 10
276.272445163
 20
21.8329540548
 10
275.9693503824
 20
22.5497737136
 10
275.7847419176
 20
23.3771987112
 10
275.722744562
 20
24.2967462756
  0
LWPOLYLINE
  5
18C
330
1F
100
AcDbEntity
  8
0
  6
Continuous
 62
     7
370
    25
100
AcDbPolyline
 90
       23
 70
   128
 43
0.0
 10
275.510612888
 20
24.2967455153
 10
275.5737956237
 20
25.3068129199
 10
275.7619312529
 20
26.3672656163
 10
276.0708179324
 20
27.4544152945
 10
276.4935551035
 20
28.5439765541
 10
277.0206998965
 20
29.6116107159
 10
277.6404765479
 20
30.633468297
 10
278.3390401471
 20
31.5867224511
 10
279.100786482
 20
32.4500797803
 10
279.9086989272
 20
33.2042539758
 10
280.7447301527
 20
33.8323975825
 10
281.5902046596
 20
34.3204796262
 10
282.4262358851
 20
34.6575971263
 10
283.2341483303
 20
34.836218785
 10
283.9958946653
 20
34.8523550535
 10
284.6944582644
 20
34.7056452633
 10
285.3142349158
 20
34.3993665723
 10
285.8413797088
 20
33.9403608335
 10
286.2641168799
 20
33.3388815225
 10
286.5730035594
 20
32.6083648132
 10
286.7611391886
 20
31.7651288908
 10
286.8243219243
 20
30.8280107201
 10
286.8243219243
 20
30.8280107201
  0
LWPOLYLINE
  5
18D
330
1F
100
AcDbEntity
  8
0
  6
Continuous
 62
     7
370
    25
100
AcDbPolyline
 90
       12
 70
   128
 43
0.0
 10
281.1683868041
 20
21.0305828299
 10
280.7447301527
 20
20.8042766091
 10
279.9086989272
 20
20.467159109
 10
279.100786482
 20
20.2885374504
 10
278.3390401471
 20
20.2724011818
 10
277.6404765479
 20
20.4191109721
 10
277.0206998965
 20
20.7253896631
 10
276.4935551035
 20
21.1843954018
 10
276.0708179324
 20
21.7858747129
 10
275.7619312529
 20
22.5163914221
 10
275.5737956237
 20
23.3596273446
 10
275.510612888
 20
24.2967455153
  0
SPLINE
  5
18E
330
1F
100
AcDbEntity
  8
0
  6
Continuous
 62
     7
370
    25
100
AcDbSpline
210
0.0
220
0.0
230
1.0
 70
     8
 71
     3
 72
    42
 73
    38
 74
     0
 42
0.000000001
 43
0.00000001
 40
0.0
 40
0.0
 40
0.0
 40
0.0
 40
0.0312500000000001
 40
0.0312500000000001
 40
0.0625000000000002
 40
0.0625000000000002
 40
0.1249999999999996
 40
0.1249999999999996
 40
0.1874999999999991
 40
0.1874999999999991
 40
0.2499999999999986
 40
0.2499999999999986
 40
0.312499999999998
 40
0.312499999999998
 40
0.3749999999999974
 40
0.3749999999999974
 40
0.4374999999999968
 40
0.4374999999999968
 40
0.4999999999999963
 40
0.4999999999999963
 40
0.5624999999999957
 40
0.5624999999999957
 40
0.6249999999999951
 40
0.6249999999999951
 40
0.6874999999999944
 40
0.6874999999999944
 40
0.7499999999999939
 40
0.7499999999999939
 40
0.7812499999999947
 40
0.7812499999999947
 40
0.8124999999999954
 40
0.8124999999999954
 40
0.874999999999997
 40
0.874999999999997
 40
0.9374999999999986
 40
0.9374999999999986
 40
1.0
 40
1.0
 40
1.0
 40
1.0
 10
279.8416413105749
 20
34.86008772610371
 30
0.0
 10
279.7847429837277
 20
34.82724102117663
 30
0.0
 10
279.7243305968784
 20
34.79537529241425
 30
0.0
 10
279.5963250697343
 20
34.73367841777687
 30
0.0
 10
279.5287407925471
 20
34.70390219741216
 30
0.0
 10
279.3210450529608
 20
34.62021348094062
 30
0.0
 10
279.1741659138187
 20
34.57092458905407
 30
0.0
 10
278.8646625798979
 20
34.48611705345038
 30
0.0
 10
278.7073165972515
 20
34.45203889631282
 30
0.0
 10
278.3877703598229
 20
34.40031940747846
 30
0.0
 10
278.225038373876
 20
34.38284903599381
 30
0.0
 10
277.9066754050655
 20
34.36649080004928
 30
0.0
 10
277.7494112637257
 20
34.36728906469565
 30
0.0
 10
277.4386846647579
 20
34.38813558169049
 30
0.0
 10
277.2892784478678
 20
34.40791590037132
 30
0.0
 10
277.0013537563771
 20
34.46635510582333
 30
0.0
 10
276.8618463264008
 20
34.50540889744276
 30
0.0
 10
276.5988060718769
 20
34.60225045582409
 30
0.0
 10
276.4763834396109
 20
34.65943014677523
 30
0.0
 10
276.2491824549707
 20
34.7911259960464
 30
0.0
 10
276.1435876253127
 20
34.8664067548178
 30
0.0
 10
275.9554898858445
 20
35.03124512429418
 30
0.0
 10
275.8733371899352
 20
35.1201324701927
 30
0.0
 10
275.732730133769
 20
35.30984785081293
 30
0.0
 10
275.6738598220159
 20
35.41173476883738
 30
0.0
 10
275.5845165908897
 20
35.62167573139945
 30
0.0
 10
275.5539666490081
 20
35.72905904358547
 30
0.0
 10
275.5301362904777
 20
35.89260883566271
 30
0.0
 10
275.5258844274101
 20
35.94754025666243
 30
0.0
 10
275.5252744438157
 20
36.05806044013599
 30
0.0
 10
275.52899174519
 20
36.1138317355346
 30
0.0
 10
275.5523456076684
 20
36.27766142875583
 30
0.0
 10
275.5839198774547
 20
36.38355787612061
 30
0.0
 10
275.681523355832
 20
36.58653337660378
 30
0.0
 10
275.7490664860479
 20
36.68483107212516
 30
0.0
 10
275.9154017483417
 20
36.85933884653421
 30
0.0
 10
276.0141133597371
 20
36.93664545949034
 30
0.0
 10
276.1293307093455
 20
37.00315901963833
 30
0.0
  0
SPLINE
  5
18F
330
1F
100
AcDbEntity
  8
0
  6
Continuous
 62
     7
370
    25
100
AcDbSpline
210
0.0
220
0.0
230
1.0
 70
     8
 71
     3
 72
    42
 73
    38
 74
     0
 42
0.000000001
 43
0.00000001
 40
0.0
 40
0.0
 40
0.0
 40
0.0
 40
0.0312499999999993
 40
0.0312499999999993
 40
0.0624999999999986
 40
0.0624999999999986
 40
0.1249999999999979
 40
0.1249999999999979
 40
0.1874999999999972
 40
0.1874999999999972
 40
0.2499999999999964
 40
0.2499999999999964
 40
0.3124999999999957
 40
0.3124999999999957
 40
0.3749999999999948
 40
0.3749999999999948
 40
0.4999999999999931
 40
0.4999999999999931
 40
0.5624999999999936
 40
0.5624999999999936
 40
0.6249999999999941
 40
0.6249999999999941
 40
0.6874999999999946
 40
0.6874999999999946
 40
0.7499999999999951
 40
0.7499999999999951
 40
0.8124999999999954
 40
0.8124999999999954
 40
0.8437499999999957
 40
0.8437499999999957
 40
0.8749999999999959
 40
0.8749999999999959
 40
0.9374999999999976
 40
0.9374999999999976
 40
0.9687499999999988
 40
0.9687499999999988
 40
1.0
 40
1.0
 40
1.0
 40
1.0
 10
276.1293307093455
 20
37.00315901963834
 30
0.0
 10
276.1869402651751
 20
37.03641630831743
 30
0.0
 10
276.2484772698324
 20
37.06673726631066
 30
0.0
 10
276.3761390643844
 20
37.12017864871623
 30
0.0
 10
276.4426757251812
 20
37.14354867669413
 30
0.0
 10
276.6501999039796
 20
37.20399744269137
 30
0.0
 10
276.8004999111006
 20
37.23135346869126
 30
0.0
 10
277.1073353791829
 20
37.26026311896579
 30
0.0
 10
277.266460673247
 20
37.2623711483916
 30
0.0
 10
277.5882206709531
 20
37.24527301578912
 30
0.0
 10
277.7489222151613
 20
37.22635182949607
 30
0.0
 10
278.0703125482812
 20
37.1713280854052
 30
0.0
 10
278.2277742123075
 20
37.13572394479107
 30
0.0
 10
278.5337646166661
 20
37.05247562517775
 30
0.0
 10
278.6828932191282
 20
37.00469820387225
 30
0.0
 10
279.1189867827343
 20
36.84514123496741
 30
0.0
 10
279.3805168413222
 20
36.72305480247844
 30
0.0
 10
279.7244529104279
 20
36.5238515756873
 30
0.0
 10
279.828201822051
 20
36.4562120584508
 30
0.0
 10
280.0145706743303
 20
36.31816133308277
 30
0.0
 10
280.0975230234421
 20
36.24742206038876
 30
0.0
 10
280.2393924384367
 20
36.10331762082317
 30
0.0
 10
280.2970283579043
 20
36.03137404025732
 30
0.0
 10
280.3857123150658
 20
35.88604619677894
 30
0.0
 10
280.4168832495531
 20
35.8122209323685
 30
0.0
 10
280.4489596818044
 20
35.66281424036163
 30
0.0
 10
280.4497025445281
 20
35.58880549064608
 30
0.0
 10
280.4268943856245
 20
35.47725537333249
 30
0.0
 10
280.4152750603425
 20
35.43998363686694
 30
0.0
 10
280.3834130963369
 20
35.36499263352378
 30
0.0
 10
280.3629797069839
 20
35.32701412749754
 30
0.0
 10
280.289055555997
 20
35.21445392318447
 30
0.0
 10
280.2232975649457
 20
35.14104277076733
 30
0.0
 10
280.0980860811247
 20
35.03250492704584
 30
0.0
 10
280.0515884379308
 20
34.99643342317233
 30
0.0
 10
279.9519253405041
 20
34.92676323639196
 30
0.0
 10
279.8985405075838
 20
34.89293493336453
 30
0.0
 10
279.8416413105749
 20
34.86008772610371
 30
0.0
  0
LWPOLYLINE
  5
190
330
1F
100
AcDbEntity
  8
0
  6
Continuous
 62
     7
370
    25
100
AcDbPolyline
 90
       39
 70
   128
 43
0.0
 10
276.5005616878
 20
24.7457705446
 10
276.5656588124
 20
25.6905381519
 10
276.759174421
 20
26.6846945194
 10
277.07582995
 20
27.7011215605
 10
277.5069879298
 20
28.7120937035
 10
278.0408874138
 20
29.690034816
 10
278.6629650197
 20
30.6082684658
 10
279.356252031
 20
31.4417481184
 10
280.101837519
 20
32.1677383732
 10
280.8793837773
 20
32.7664360946
 10
281.667681392
 20
33.221510621
 10
282.4452276502
 20
33.5205487006
 10
283.1908131383
 20
33.6553931269
 10
283.8841001496
 20
33.6223656195
 10
284.5061777554
 20
33.4223674853
 10
285.0400772395
 20
33.0608535961
 10
285.4712352192
 20
32.5476858603
 10
285.7878907482
 20
31.8968615111
 10
285.9814063568
 20
31.1261335094
 10
286.0465034814
 20
30.2565254423
 10
285.9814063568
 20
29.311757835
 10
285.7878907482
 20
28.3176014675
 10
285.4712352192
 20
27.3011744265
 10
285.0400772395
 20
26.2902022834
 10
284.5061777554
 20
25.3122611709
 10
283.8841001496
 20
24.3940275211
 10
283.1908131383
 20
23.5605478685
 10
282.4452276502
 20
22.8345576137
 10
281.667681392
 20
22.2358598924
 10
280.8793837773
 20
21.7807853659
 10
280.101837519
 20
21.4817472864
 10
279.356252031
 20
21.3469028601
 10
278.6629650197
 20
21.3799303675
 10
278.0408874138
 20
21.5799285016
 10
277.5069879298
 20
21.9414423909
 10
277.07582995
 20
22.4546101266
 10
276.759174421
 20
23.1054344759
 10
276.5656588124
 20
23.8761624775
 10
276.5005616878
 20
24.7457705446
  0
SPLINE
  5
191
330
1F
100
AcDbEntity
  8
0
  6
Continuous
 62
     7
370
    25
100
AcDbSpline
210
0.0
220
0.0
230
1.0
 70
     8
 71
     3
 72
    22
 73
    18
 74
     0
 42
0.000000001
 43
0.00000001
 40
0.0
 40
0.0
 40
0.0
 40
0.0
 40
0.1249999999999998
 40
0.1249999999999998
 40
0.2499999999999997
 40
0.2499999999999997
 40
0.3749999999999995
 40
0.3749999999999995
 40
0.4999999999999993
 40
0.4999999999999993
 40
0.6249999999999991
 40
0.6249999999999991
 40
0.7499999999999994
 40
0.7499999999999994
 40
0.8749999999999997
 40
0.8749999999999997
 40
1.0
 40
1.0
 40
1.0
 40
1.0
 10
278.2218129602264
 20
22.04589419804827
 30
0.0
 10
278.1734356582275
 20
22.01398674600381
 30
0.0
 10
278.1247438537027
 20
21.9901721301686
 30
0.0
 10
278.0269683723145
 20
21.95849369477802
 30
0.0
 10
277.9775783397376
 20
21.95063389893785
 30
0.0
 10
277.8799158900142
 20
21.95203733260433
 30
0.0
 10
277.832490613265
 20
21.96117931173654
 30
0.0
 10
277.7405108933185
 20
21.99601819291377
 30
0.0
 10
277.695540142895
 20
22.02207765629645
 30
0.0
 10
277.610854347377
 20
22.09016347292987
 30
0.0
 10
277.571385877422
 20
22.1317645708624
 30
0.0
 10
277.4980280258349
 20
22.22974007293191
 30
0.0
 10
277.4638651025911
 20
22.28681085379513
 30
0.0
 10
277.4034036402624
 20
22.41211533973287
 30
0.0
 10
277.376889964162
 20
22.48039842961801
 30
0.0
 10
277.3309535058575
 20
22.62799134098253
 30
0.0
 10
277.3115279511655
 20
22.70762835387669
 30
0.0
 10
277.2960660445866
 20
22.79092693523756
 30
0.0
  0
LWPOLYLINE
  5
192
330
1F
100
AcDbEntity
  8
0
  6
Continuous
 62
     7
370
    25
100
AcDbPolyline
 90
        9
 70
   128
 43
0.0
 10
284.0070540312
 20
25.3856428545
 10
283.3676682293
 20
24.4869153712
 10
282.6572501705
 20
23.6861051008
 10
281.8981957185
 20
23.008458118
 10
281.1144334999
 20
22.4753357188
 10
280.3306712812
 20
22.1035455219
 10
279.5716168292
 20
21.904806889
 10
278.8611987704
 20
21.8853859276
 10
278.2218129685
 20
22.0458942776
  0
SPLINE
  5
193
330
1F
100
AcDbEntity
  8
0
  6
Continuous
 62
     7
370
    25
100
AcDbSpline
210
0.0
220
0.0
230
1.0
 70
     8
 71
     3
 72
    22
 73
    18
 74
     0
 42
0.000000001
 43
0.00000001
 40
0.0
 40
0.0
 40
0.0
 40
0.0
 40
0.125
 40
0.125
 40
0.25
 40
0.25
 40
0.375
 40
0.375
 40
0.5
 40
0.5
 40
0.625
 40
0.625
 40
0.75
 40
0.75
 40
0.875
 40
0.875
 40
1.0
 40
1.0
 40
1.0
 40
1.0
 10
284.9328009888347
 20
27.19952017900621
 30
0.0
 10
284.9477399211401
 20
27.115937799048
 30
0.0
 10
284.955323911977
 20
27.03091047987116
 30
0.0
 10
284.9561006624892
 20
26.85791903993326
 30
0.0
 10
284.9492032690616
 20
26.76939996157324
 30
0.0
 10
284.9204259068602
 20
26.59160333249481
 30
0.0
 10
284.8988932341904
 20
26.50388298727266
 30
0.0
 10
284.8418673163326
 20
26.33071358538333
 30
0.0
 10
284.8059331568001
 20
26.244444592216
 30
0.0
 10
284.7213084958042
 20
26.07852652824485
 30
0.0
 10
284.6730668669965
 20
25.99940168162426
 30
0.0
 10
284.564976326005
 20
25.84865787580221
 30
0.0
 10
284.5044289529327
 20
25.77641866481779
 30
0.0
 10
284.3755722102878
 20
25.64448772736353
 30
0.0
 10
284.3071582430902
 20
25.58439491458505
 30
0.0
 10
284.1624411335133
 20
25.47575219636346
 30
0.0
 10
284.0858446484795
 20
25.42714702331875
 30
0.0
 10
284.0070540731948
 20
25.38564280401702
 30
0.0
  0
LWPOLYLINE
  5
194
330
1F
100
AcDbEntity
  8
0
  6
Continuous
 62
     7
370
    25
100
AcDbPolyline
 90
        9
 70
   128
 43
0.0
 10
284.9328009977
 20
32.3950609009
 10
285.1975721098
 20
31.9397765817
 10
285.390112414
 20
31.4075976105
 10
285.5070162472
 20
30.8079385522
 10
285.5462154505
 20
30.1514072029
 10
285.5070162472
 20
29.4496174167
 10
285.390112414
 20
28.7149840657
 10
285.1975721098
 20
27.9605027911
 10
284.9328009977
 20
27.1995202528
  0
SPLINE
  5
195
330
1F
100
AcDbEntity
  8
0
  6
Continuous
 62
     7
370
    25
100
AcDbSpline
210
0.0
220
0.0
230
1.0
 70
     8
 71
     3
 72
    22
 73
    18
 74
     0
 42
0.000000001
 43
0.00000001
 40
0.0
 40
0.0
 40
0.0
 40
0.0
 40
0.1249999999999998
 40
0.1249999999999998
 40
0.2499999999999997
 40
0.2499999999999997
 40
0.3749999999999995
 40
0.3749999999999995
 40
0.4999999999999993
 40
0.4999999999999993
 40
0.6249999999999991
 40
0.6249999999999991
 40
0.7499999999999994
 40
0.7499999999999994
 40
0.8749999999999997
 40
0.8749999999999997
 40
1.0
 40
1.0
 40
1.0
 40
1.0
 10
284.0070540731948
 20
33.1400936627063
 30
0.0
 10
284.0858291781773
 20
33.15445283661396
 30
0.0
 10
284.1612096202916
 20
33.16286042991648
 30
0.0
 10
284.3053978877079
 20
33.16774533424936
 30
0.0
 10
284.3746103164248
 20
33.16416190437382
 30
0.0
 10
284.5042657437262
 20
33.14428931787855
 30
0.0
 10
284.5636328127352
 20
33.12825348881449
 30
0.0
 10
284.671710872104
 20
33.08412123410375
 30
0.0
 10
284.7208262635742
 20
33.05566912037384
 30
0.0
 10
284.8055401356823
 20
32.98756709546995
 30
0.0
 10
284.8409849938676
 20
32.94828877917028
 30
0.0
 10
284.898347085792
 20
32.85954743259952
 30
0.0
 10
284.9203410155592
 20
32.80950166213874
 30
0.0
 10
284.9490380177924
 20
32.70253440869519
 30
0.0
 10
284.9560086018093
 20
32.64553330572595
 30
0.0
 10
284.9554300129043
 20
32.52479295954259
 30
0.0
 10
284.9477428549324
 20
32.46080778251059
 30
0.0
 10
284.9328009888347
 20
32.39506092551701
 30
0.0
  0
LWPOLYLINE
  5
196
330
1F
100
AcDbEntity
  8
0
  6
Continuous
 62
     7
370
    25
100
AcDbPolyline
 90
        9
 70
   128
 43
0.0
 10
278.2218129685
 20
29.8003450257
 10
278.8611987704
 20
30.699072509
 10
279.5716168292
 20
31.4998827794
 10
280.3306712812
 20
32.1775297622
 10
281.1144334999
 20
32.7106521615
 10
281.8981957185
 20
33.0824423583
 10
282.6572501705
 20
33.2811809913
 10
283.3676682293
 20
33.3006019526
 10
284.0070540312
 20
33.1400936026
  0
SPLINE
  5
197
330
1F
100
AcDbEntity
  8
0
  6
Continuous
 62
     7
370
    25
100
AcDbSpline
210
0.0
220
0.0
230
1.0
 70
     8
 71
     3
 72
    22
 73
    18
 74
     0
 42
0.000000001
 43
0.00000001
 40
0.0
 40
0.0
 40
0.0
 40
0.0
 40
0.125
 40
0.125
 40
0.25
 40
0.25
 40
0.375
 40
0.375
 40
0.5
 40
0.5
 40
0.625
 40
0.625
 40
0.75
 40
0.75
 40
0.875
 40
0.875
 40
1.0
 40
1.0
 40
1.0
 40
1.0
 10
277.2960660445866
 20
27.98646768174836
 30
0.0
 10
277.3115249152647
 20
28.05250178356977
 30
0.0
 10
277.3306295620172
 20
28.1221220802139
 30
0.0
 10
277.3762655975331
 20
28.26831998909412
 30
0.0
 10
277.4029853871008
 20
28.34539584173843
 30
0.0
 10
277.4637557268802
 20
28.50472331798807
 30
0.0
 10
277.4972301918097
 20
28.58554981327836
 30
0.0
 10
277.5703544490898
 20
28.74942584163419
 30
0.0
 10
277.6104332496691
 20
28.83330218445428
 30
0.0
 10
277.695085987255
 20
28.99920404015498
 30
0.0
 10
277.7393040042931
 20
29.08065166840841
 30
0.0
 10
277.8313987856218
 20
29.24062962972922
 30
0.0
 10
277.8797771652175
 20
29.31989385111608
 30
0.0
 10
277.9768694477669
 20
29.47016202106454
 30
0.0
 10
278.0257403228812
 20
29.54153682075892
 30
0.0
 10
278.1239423852485
 20
29.67703210416165
 30
0.0
 10
278.1734261576183
 20
29.74128911306854
 30
0.0
 10
278.2218129602264
 20
29.80034505673755
 30
0.0
  0
LWPOLYLINE
  5
198
330
1F
100
AcDbEntity
  8
0
  6
Continuous
 62
     7
370
    25
100
AcDbPolyline
 90
        9
 70
   128
 43
0.0
 10
277.296066002
 20
22.7909269793
 10
277.0312948899
 20
23.2462112985
 10
276.8387545857
 20
23.7783902697
 10
276.7218507525
 20
24.378049328
 10
276.6826515492
 20
25.0345806773
 10
276.7218507525
 20
25.7363704635
 10
276.8387545857
 20
26.4710038146
 10
277.0312948899
 20
27.2254850891
 10
277.296066002
 20
27.9864676274
  0
ARC
  5
199
330
1F
100
AcDbEntity
  8
0
  6
Continuous
 62
     7
370
    25
100
AcDbCircle
 10
284.4592778592
 20
31.9143973204
 30
0.0
 40
1.306460013512789
100
AcDbArc
 50
110.2516703451
 51
120.2336532865
  0
LINE
  5
19A
330
1F
100
AcDbEntity
  8
0
  6
Continuous
 62
     7
370
    25
100
AcDbLine
 10
283.3795908484
 20
32.7996236607
 30
0.0
 11
283.8014393137
 21
33.0431515961
 31
0.0
  0
LWPOLYLINE
  5
19B
330
1F
100
AcDbEntity
  8
0
  6
Continuous
 62
     7
370
    25
100
AcDbPolyline
 90
        9
 70
   128
 43
0.0
 10
278.8492761513
 20
30.1843286542
 10
279.3709268722
 20
30.8280133496
 10
279.9305574188
 20
31.4012270905
 10
280.5159771858
 20
31.8914836734
 10
281.1144334999
 20
32.2881036176
 10
281.7128898139
 20
32.5824466261
 10
282.2983095809
 20
32.7681013189
 10
282.8579401275
 20
32.8410232538
 10
283.3795908484
 20
32.7996236607
  0
LINE
  5
19C
330
1F
100
AcDbEntity
  8
0
  6
Continuous
 62
     7
370
    25
100
AcDbLine
 10
278.427427686
 20
29.9408007189
 30
0.0
 11
278.8492761513
 21
30.1843286542
 31
0.0
  0
ARC
  5
19D
330
1F
100
AcDbEntity
  8
0
  6
Continuous
 62
     7
370
    25
100
AcDbCircle
 10
279.2901573237
 20
28.4571120697
 30
0.0
 40
1.716285068166214
100
AcDbArc
 50
120.1769820595
 51
128.4970899924
  0
LWPOLYLINE
  5
19E
330
1F
100
AcDbEntity
  8
0
  6
Continuous
 62
     7
370
    25
100
AcDbPolyline
 90
       22
 70
   128
 43
0.0
 10
281.529033695
 20
32.50297208
 10
281.9476676399
 20
32.4697719584
 10
282.4545997264
 20
32.2820033662
 10
282.8706281399
 20
31.9367849944
 10
283.1797653956
 20
31.4473834777
 10
283.3701308565
 20
30.8326058454
 10
283.4344097396
 20
30.1160782272
 10
283.3701308565
 20
29.3253357902
 10
283.1797653956
 20
28.4907668751
 10
282.8706281399
 20
27.6444430804
 10
282.4545997264
 20
26.8188885266
 10
281.9476676399
 20
26.0458286056
 10
281.3693129442
 20
25.3549712539
 10
280.7417614753
 20
24.7728664942
 10
280.0891297503
 20
24.3218833372
 10
279.4364980253
 20
24.0193539435
 10
278.8089465564
 20
23.8769031997
 10
278.2305918607
 20
23.9000064334
 10
277.7236597742
 20
24.0877750256
 10
277.3076313607
 20
24.4329933973
 10
276.998494105
 20
24.922394914
 10
276.8211200809
 20
25.4728252826
  0
LINE
  5
19F
330
1F
100
AcDbEntity
  8
0
  6
Continuous
 62
     7
370
    25
100
AcDbLine
 10
277.4021239365
 20
22.7347315399
 30
0.0
 11
278.5461010284
 21
23.3951354579
 31
0.0
  0
LWPOLYLINE
  5
1A0
330
1F
100
AcDbEntity
  8
0
  6
Continuous
 62
     7
370
    25
100
AcDbPolyline
 90
        3
 70
   128
 43
0.0
 10
283.8863510547
 20
32.718028044
 10
283.9070978409
 20
33.0165760336
 10
283.9029285956
 20
33.096471987
  0
ARC
  5
1A1
330
1F
100
AcDbEntity
  8
0
  6
Continuous
 62
     7
370
    25
100
AcDbCircle
 10
278.8227928604
 20
30.376978395
 30
0.0
 40
5.57854237649942
100
AcDbArc
 50
335.1873452281
 51
24.8126547719
  0
ARC
  5
1A2
330
1F
100
AcDbEntity
  8
0
  6
Continuous
 62
     7
370
    25
100
AcDbCircle
 10
281.5314529592
 20
27.8452344456
 30
0.0
 40
2.362606475190129
100
AcDbArc
 50
301.7912526661
 51
4.6295804276
  0
LINE
  5
1A3
330
1F
100
AcDbEntity
  8
0
  6
Continuous
 62
     7
370
    25
100
AcDbLine
 10
281.6321584722
 20
25.1766784991
 30
0.0
 11
282.7761355641
 21
25.8370824171
 31
0.0
  0
ARC
  5
1A4
330
1F
100
AcDbEntity
  8
0
  6
Continuous
 62
     7
370
    25
100
AcDbCircle
 10
277.8386764966
 20
28.1842287453
 30
0.0
 40
4.841060212683941
100
AcDbArc
 50
278.4027252788
 51
321.5918981885
  0
ARC
  5
1A5
330
1F
100
AcDbEntity
  8
0
  6
Continuous
 62
     7
370
    25
100
AcDbCircle
 10
279.02046615
 20
22.7906304189
 30
0.0
 40
1.724400173482624
100
AcDbArc
 50
171.017860925
 51
179.9901463351
  0
ARC
  5
1A6
330
1F
100
AcDbEntity
  8
0
  6
Continuous
 62
     7
370
    25
100
AcDbCircle
 10
282.3807703897
 20
25.400904741
 30
0.0
 40
5.578542376499369
100
AcDbArc
 50
155.1873452281
 51
204.8126547719
  0
ARC
  5
1A7
330
1F
100
AcDbEntity
  8
0
  6
Continuous
 62
     7
370
    25
100
AcDbCircle
 10
278.5954437344
 20
27.9756704635
 30
0.0
 40
1.299422591047621
100
AcDbArc
 50
179.5239123517
 51
190.3616916501
  0
SPLINE
  5
1A8
330
1F
100
AcDbEntity
  8
0
  6
Continuous
 62
     7
370
    25
100
AcDbSpline
210
0.0
220
0.0
230
1.0
 70
     8
 71
     3
 72
     8
 73
     4
 74
     0
 42
0.000000001
 43
0.00000001
 40
0.0
 40
0.0
 40
0.0
 40
0.0
 40
1.0
 40
1.0
 40
1.0
 40
1.0
 10
282.0450897586485
 20
32.73626288447239
 30
0.0
 10
282.4900051828365
 20
32.77808687342554
 30
0.0
 10
282.9348224251482
 20
32.7950441931406
 30
0.0
 10
283.3795907960182
 20
32.79962377041711
 30
0.0
  0
LWPOLYLINE
  5
1A9
330
1F
100
AcDbEntity
  8
0
  6
Continuous
 62
     7
370
    25
100
AcDbPolyline
 90
       20
 70
   128
 43
0.0
 10
281.4121888015
 20
32.4473882254
 10
281.7539941453
 20
32.378213726
 10
282.2206384544
 20
32.13537372
 10
282.5884388548
 20
31.7374851758
 10
282.8423373971
 20
31.2008377657
 10
282.9719396149
 20
30.5474019292
 10
282.9719396149
 20
29.8039293474
 10
282.8423373971
 20
29.0008579754
 10
282.5884388548
 20
28.1710655481
 10
282.2206384544
 20
27.3485237005
 10
281.7539941453
 20
26.5669076435
 10
281.2076104684
 20
25.8582167184
 10
280.6038563696
 20
25.2514651434
 10
279.9674495555
 20
24.7714929613
 10
279.3244446605
 20
24.4379503578
 10
278.7011663634
 20
24.2644927883
 10
278.1231317203
 20
24.2582214017
 10
277.6140055282
 20
24.4193931052
 10
277.1946315439
 20
24.7414095928
 10
276.9029238211
 20
25.1684669163
  0
SPLINE
  5
1AA
330
1F
100
AcDbEntity
  8
0
  6
Continuous
 62
     7
370
    25
100
AcDbSpline
210
0.0
220
0.0
230
1.0
 70
     8
 71
     3
 72
     8
 73
     4
 74
     0
 42
0.000000001
 43
0.00000001
 40
0.0
 40
0.0
 40
0.0
 40
0.0
 40
1.0
 40
1.0
 40
1.0
 40
1.0
 10
237.3777262539992
 20
41.38002761108689
 30
0.0
 10
236.2080998340613
 20
41.18447143784415
 30
0.0
 10
235.0374965912014
 20
40.99088647112423
 30
0.0
 10
233.8662651095486
 20
40.79860702187796
 30
0.0
  0
SPLINE
  5
1AB
330
1F
100
AcDbEntity
  8
0
  6
Continuous
 62
     7
370
    25
100
AcDbSpline
210
0.0
220
0.0
230
1.0
 70
     8
 71
     3
 72
     8
 73
     4
 74
     0
 42
0.000000001
 43
0.00000001
 40
0.0
 40
0.0
 40
0.0
 40
0.0
 40
0.0012417047560384
 40
0.0012417047560384
 40
0.0012417047560384
 40
0.0012417047560384
 10
233.3917645058989
 20
41.07258244275782
 30
0.0
 10
233.5500356463593
 20
40.98119711799988
 30
0.0
 10
233.7082049520385
 20
40.88987057059628
 30
0.0
 10
233.8662651095486
 20
40.79860702187796
 30
0.0
  0
LWPOLYLINE
  5
1AC
330
1F
100
AcDbEntity
  8
0
  6
Continuous
 62
     7
370
    25
100
AcDbPolyline
 90
       28
 70
   128
 43
0.0
 10
233.391765031
 20
41.0725824709
 10
233.8706006453
 20
43.0212487942
 10
234.4724826667
 20
44.9870596146
 10
235.1929290414
 20
46.9553817651
 10
236.026579217
 20
48.9115623893
 10
236.9672244358
 20
50.8410376844
 10
238.0078643699
 20
52.7294462053
 10
239.1407519015
 20
54.5627284804
 10
240.3574517341
 20
56.327237654
 10
241.6489082222
 20
58.00983872
 10
243.0055066159
 20
59.598003194
 10
244.4171474767
 20
61.0799113885
 10
245.8733233977
 20
62.444530163
 10
247.3631934191
 20
63.681701511
 10
248.8756663344
 20
64.7822149862
 10
250.3994830082
 20
65.7378780376
 10
251.9232996819
 20
66.5415762686
 10
253.4357725972
 20
67.1873268511
 10
254.9256426186
 20
67.6703228151
 10
256.3818185396
 20
67.9869689722
 10
257.7934594004
 20
68.1349066233
 10
259.1500577941
 20
68.1130373152
 10
260.4415142822
 20
67.9215201717
 10
261.6582141148
 20
67.5617827235
 10
262.7911016465
 20
67.0365045508
 10
263.8317415805
 20
66.3495933232
 10
264.7723867994
 20
65.5061638806
 10
265.2726172076
 20
64.9437036833
  0
LINE
  5
1AD
330
1F
100
AcDbEntity
  8
0
  6
Continuous
 62
     7
370
    25
100
AcDbLine
 10
229.2640289638
 20
43.4554737812
 30
0.0
 11
233.391765031
 21
41.0725824709
 31
0.0
  0
ARC
  5
1AE
330
1F
100
AcDbEntity
  8
0
  6
Continuous
 62
     7
370
    25
100
AcDbCircle
 10
254.3817998232
 20
61.6413016331
 30
0.0
 40
8.877916910030054
100
AcDbArc
 50
60.3721172196
 51
85.9816400316
  0
SPLINE
  5
1AF
330
1F
100
AcDbEntity
  8
0
  6
Continuous
 62
     7
370
    25
100
AcDbSpline
210
0.0
220
0.0
230
1.0
 70
     8
 71
     3
 72
    10
 73
     6
 74
     0
 42
0.000000001
 43
0.00000001
 40
0.0
 40
0.0
 40
0.0
 40
0.0
 40
0.1982375560047947
 40
0.6709251615693307
 40
1.0
 40
1.0
 40
1.0
 40
1.0
 10
239.219659363001
 20
39.99191688796263
 30
0.0
 10
239.1353365450764
 20
40.10233012209996
 30
0.0
 10
238.8499501562395
 20
40.47601822866235
 30
0.0
 10
238.358687857956
 20
40.92536725546969
 30
0.0
 10
237.9416860959871
 20
41.2068493667413
 30
0.0
 10
237.770532173185
 20
41.32238069523088
 30
0.0
  0
ARC
  5
1B0
330
1F
100
AcDbEntity
  8
0
  6
Continuous
 62
     7
370
    25
100
AcDbCircle
 10
277.7695891405
 20
23.2715905598
 30
0.0
 40
1.306460013506604
100
AcDbArc
 50
290.2516703451
 51
300.2336532866
  0
ARC
  5
1B1
330
1F
100
AcDbEntity
  8
0
  6
Continuous
 62
     7
370
    25
100
AcDbCircle
 10
283.2084008497
 20
32.3953574613
 30
0.0
 40
1.724400173497289
100
AcDbArc
 50
351.017860925
 51
359.990146335
  0
LINE
  5
1B2
330
1F
100
AcDbEntity
  8
0
  6
Continuous
 62
     7
370
    25
100
AcDbLine
 10
283.8863510547
 20
32.718028044
 30
0.0
 11
284.9116548043
 21
32.1261327883
 31
0.0
  0
SPLINE
  5
1B3
330
1F
100
AcDbEntity
  8
0
  6
Continuous
 62
     7
370
    25
100
AcDbSpline
210
0.0
220
0.0
230
1.0
 70
     8
 71
     3
 72
    10
 73
     6
 74
     0
 42
0.000000001
 43
0.00000001
 40
0.0
 40
0.0
 40
0.0
 40
0.0
 40
0.5
 40
0.5
 40
1.0
 40
1.0
 40
1.0
 40
1.0
 10
237.6346032823768
 20
41.37491113599253
 30
0.0
 10
237.5940279739819
 20
41.3837356573195
 30
0.0
 10
237.5504536309282
 20
41.38868873322818
 30
0.0
 10
237.4626509039414
 20
41.3902739184943
 30
0.0
 10
237.4196827870196
 20
41.38704255098575
 30
0.0
 10
237.3777262539992
 20
41.38002761108689
 30
0.0
  0
SPLINE
  5
1B4
330
1F
100
AcDbEntity
  8
0
  6
Continuous
 62
     7
370
    25
100
AcDbSpline
210
0.0
220
0.0
230
1.0
 70
     8
 71
     3
 72
     8
 73
     4
 74
     0
 42
0.000000001
 43
0.00000001
 40
0.0
 40
0.0
 40
0.0
 40
0.0
 40
1.0
 40
1.0
 40
1.0
 40
1.0
 10
237.770532629609
 20
41.32238115418321
 30
0.0
 10
237.7320506877728
 20
41.34605196397909
 30
0.0
 10
237.6859430360259
 20
41.36374550918853
 30
0.0
 10
237.6346032823769
 20
41.37491113599258
 30
0.0
  0
SPLINE
  5
1B5
330
1F
100
AcDbEntity
  8
0
  6
Continuous
 62
     7
370
    25
100
AcDbSpline
210
0.0
220
0.0
230
1.0
 70
     8
 71
     3
 72
    10
 73
     6
 74
     0
 42
0.000000001
 43
0.00000001
 40
0.0
 40
0.0
 40
0.0
 40
0.0
 40
0.5
 40
0.5
 40
1.0
 40
1.0
 40
1.0
 40
1.0
 10
229.1073317509116
 20
43.54592150232094
 30
0.0
 10
229.1183823492617
 20
43.53954566777681
 30
0.0
 10
229.1370022952011
 20
43.52879942627142
 30
0.0
 10
229.1903022452617
 20
43.49803395343146
 30
0.0
 10
229.223883017983
 20
43.47864921116051
 30
0.0
 10
229.2640286707225
 20
43.45547361914035
 30
0.0
  0
LWPOLYLINE
  5
1B6
330
1F
100
AcDbEntity
  8
0
  6
Continuous
 62
     7
370
    25
100
AcDbPolyline
 90
        9
 70
   128
 43
0.0
 10
283.3795908484
 20
25.001659226
 10
282.8579401275
 20
24.3579745306
 10
282.2983095809
 20
23.7847607897
 10
281.7128898139
 20
23.2945042068
 10
281.1144334999
 20
22.8978842626
 10
280.5159771858
 20
22.6035412541
 10
279.9305574188
 20
22.4178865613
 10
279.3709268722
 20
22.3449646264
 10
278.8492761513
 20
22.3863642195
  0
LINE
  5
1B7
330
1F
100
AcDbEntity
  8
0
  6
Continuous
 62
     7
370
    25
100
AcDbLine
 10
283.8014393137
 20
25.2451871614
 30
0.0
 11
283.3795908484
 21
25.001659226
 31
0.0
  0
ARC
  5
1B8
330
1F
100
AcDbEntity
  8
0
  6
Continuous
 62
     7
370
    25
100
AcDbCircle
 10
282.938709676
 20
26.7288758105
 30
0.0
 40
1.716285068156299
100
AcDbArc
 50
300.1769820595
 51
308.4970899924
  0
LINE
  5
1B9
330
1F
100
AcDbEntity
  8
0
  6
Continuous
 62
     7
370
    25
100
AcDbLine
 10
278.8492761513
 20
22.3863642195
 30
0.0
 11
278.427427686
 21
22.1428362841
 31
0.0
  0
LINE
  5
1BA
330
1F
100
AcDbEntity
  8
0
  6
Continuous
 62
     7
370
    25
100
AcDbLine
 10
278.5461010284
 20
23.3951354579
 30
0.0
 11
278.9590321425
 21
23.1567553998
 31
0.0
  0
SPLINE
  5
1BB
330
1F
100
AcDbEntity
  8
0
  6
Continuous
 62
     7
370
    25
100
AcDbSpline
210
0.0
220
0.0
230
1.0
 70
     8
 71
     3
 72
     8
 73
     4
 74
     0
 42
0.000000001
 43
0.00000001
 40
0.0
 40
0.0
 40
0.0
 40
0.0
 40
1.0
 40
1.0
 40
1.0
 40
1.0
 10
278.9590324033811
 20
23.15675514097638
 30
0.0
 10
278.8865832795256
 20
22.89991093367533
 30
0.0
 10
278.8572091574716
 20
22.643123405565
 30
0.0
 10
278.8492762374031
 20
22.38636409033746
 30
0.0
  0
ARC
  5
1BC
330
1F
100
AcDbEntity
  8
0
  6
Continuous
 62
     7
370
    25
100
AcDbCircle
 10
278.2516076107
 20
27.9458486872
 30
0.0
 40
4.841060212683495
100
AcDbArc
 50
278.4027252788
 51
321.5918981885
  0
SPLINE
  5
1BD
330
1F
100
AcDbEntity
  8
0
  6
Continuous
 62
     7
370
    25
100
AcDbSpline
210
0.0
220
0.0
230
1.0
 70
     8
 71
     3
 72
     8
 73
     4
 74
     0
 42
0.000000001
 43
0.00000001
 40
0.0
 40
0.0
 40
0.0
 40
0.0
 40
1.0
 40
1.0
 40
1.0
 40
1.0
 10
283.3795907960182
 20
25.0016590169082
 30
0.0
 10
282.9309610067611
 20
24.99703968036583
 30
0.0
 10
282.4852630262492
 20
24.97967633652962
 30
0.0
 10
282.0450897586485
 20
24.93829813096346
 30
0.0
  0
ARC
  5
1BE
330
1F
100
AcDbEntity
  8
0
  6
Continuous
 62
     7
370
    25
100
AcDbCircle
 10
283.6334232653
 20
27.2103174168
 30
0.0
 40
1.29942259105722
100
AcDbArc
 50
359.5239123517
 51
10.3616916501
  0
ARC
  5
1BF
330
1F
100
AcDbEntity
  8
0
  6
Continuous
 62
     7
370
    25
100
AcDbCircle
 10
279.84809661
 20
29.7850831392
 30
0.0
 40
5.57854237650009
100
AcDbArc
 50
335.1873452281
 51
24.8126547719
  0
LINE
  5
1C0
330
1F
100
AcDbEntity
  8
0
  6
Continuous
 62
     7
370
    25
100
AcDbLine
 10
283.8863510547
 20
28.0359287459
 30
0.0
 11
284.9116548043
 21
27.4440334902
 31
0.0
  0
LINE
  5
1C1
330
1F
100
AcDbEntity
  8
0
  6
Continuous
 62
     7
370
    25
100
AcDbLine
 10
282.0450895863
 20
24.938298441
 30
0.0
 11
281.6321584722
 21
25.1766784991
 31
0.0
  0
SPLINE
  5
1C2
330
1F
100
AcDbEntity
  8
0
  6
Continuous
 62
     7
370
    25
100
AcDbSpline
210
0.0
220
0.0
230
1.0
 70
     8
 71
     3
 72
     9
 73
     5
 74
     0
 42
0.000000001
 43
0.00000001
 40
0.0
 40
0.0
 40
0.0
 40
0.0
 40
0.5377957415485425
 40
0.9999999999999999
 40
0.9999999999999999
 40
0.9999999999999999
 40
0.9999999999999999
 10
237.770532173185
 20
30.83302477956609
 30
0.0
 10
238.0105986913276
 20
30.70625888188065
 30
0.0
 10
238.4569884627515
 20
30.47054504502426
 30
0.0
 10
238.8485947424425
 20
30.35490038021587
 30
0.0
 10
239.0295968325521
 20
30.30144892367425
 30
0.0
  0
SPLINE
  5
1C3
330
1F
100
AcDbEntity
  8
0
  6
Continuous
 62
     7
370
    25
100
AcDbSpline
210
0.0
220
0.0
230
1.0
 70
     8
 71
     3
 72
     8
 73
     4
 74
     0
 42
0.000000001
 43
0.00000001
 40
0.0
 40
0.0
 40
0.0
 40
0.0
 40
1.0
 40
1.0
 40
1.0
 40
1.0
 10
237.6346032823774
 20
30.88236170326053
 30
0.0
 10
237.6859316643746
 20
30.87119854962024
 30
0.0
 10
237.7320522284788
 20
30.85448454531853
 30
0.0
 10
237.7705326296091
 20
30.83302509124014
 30
0.0
  0
SPLINE
  5
1C4
330
1F
100
AcDbEntity
  8
0
  6
Continuous
 62
     7
370
    25
100
AcDbSpline
210
0.0
220
0.0
230
1.0
 70
     8
 71
     3
 72
    12
 73
     8
 74
     0
 42
0.000000001
 43
0.00000001
 40
0.0
 40
0.0
 40
0.0
 40
0.0
 40
0.1882348884678616
 40
0.3552030831695644
 40
0.500946652109129
 40
0.7563025915848568
 40
1.0
 40
1.0
 40
1.0
 40
1.0
 10
238.4505202074367
 20
29.21678691338224
 30
0.0
 10
238.5395637022581
 20
29.31106872874403
 30
0.0
 10
238.7075905975602
 20
29.48898044200779
 30
0.0
 10
238.887500205313
 20
29.83629702124161
 30
0.0
 10
239.0490237007801
 20
30.2969497204164
 30
0.0
 10
239.1747802540326
 20
30.9185004536149
 30
0.0
 10
239.1920836645911
 20
31.50182857975856
 30
0.0
 10
239.2005332548556
 20
31.78667899344211
 30
0.0
  0
SPLINE
  5
1C5
330
1F
100
AcDbEntity
  8
0
  6
Continuous
 62
     7
370
    25
100
AcDbSpline
210
0.0
220
0.0
230
1.0
 70
     8
 71
     3
 72
     9
 73
     5
 74
     0
 42
0.000000001
 43
0.00000001
 40
0.0
 40
0.0
 40
0.0
 40
0.0
 40
0.5048004989128174
 40
1.0
 40
1.0
 40
1.0
 40
1.0
 10
238.3397853866784
 20
28.49276217369766
 30
0.0
 10
238.3583302849595
 20
28.61447604939172
 30
0.0
 10
238.395067368859
 20
28.85558887704579
 30
0.0
 10
238.4321644802133
 20
29.09709511029444
 30
0.0
 10
238.4505349512476
 20
29.21668887650862
 30
0.0
  0
LINE
  5
1C6
330
1F
100
AcDbEntity
  8
0
  6
Continuous
 62
     7
370
    25
100
AcDbLine
 10
229.5413986909
 20
43.2952988327
 30
0.0
 11
229.1073311792
 21
43.5459210231
 31
0.0
  0
LINE
  5
1C7
330
1F
100
AcDbEntity
  8
0
  6
Continuous
 62
     7
370
    25
100
AcDbLine
 10
233.8662647883
 20
40.7986067783
 30
0.0
 11
229.5413986909
 21
43.2952988327
 31
0.0
  0
SPLINE
  5
1C8
330
1F
100
AcDbEntity
  8
0
  6
Continuous
 62
     7
370
    25
100
AcDbSpline
210
0.0
220
0.0
230
1.0
 70
     8
 71
     3
 72
    10
 73
     6
 74
     0
 42
0.000000001
 43
0.00000001
 40
0.0
 40
0.0
 40
0.0
 40
0.0
 40
0.0763301814869589
 40
0.889232882586759
 40
1.0
 40
1.0
 40
1.0
 40
1.0
 10
233.437758273377
 20
37.98256760637821
 30
0.0
 10
233.4373276182383
 20
38.06080089232465
 30
0.0
 10
233.4323105633464
 20
38.97220459949739
 30
0.0
 10
233.3424388839038
 20
40.04432710111637
 30
0.0
 10
233.3638253917013
 20
40.97551003891547
 30
0.0
 10
233.3663900763676
 20
41.0871781347405
 30
0.0
  0
LINE
  5
1C9
330
1F
100
AcDbEntity
  8
0
  6
Continuous
 62
     7
370
    25
100
AcDbLine
 10
233.4377582734
 20
36.2067667924
 30
0.0
 11
233.4377582734
 21
37.9825676064
 31
0.0
  0
LINE
  5
1CA
330
1F
100
AcDbEntity
  8
0
  6
Continuous
 62
     7
370
    25
100
AcDbLine
 10
232.5096815411
 20
41.3953937996
 30
0.0
 11
232.5107220414
 21
41.5811452233
 31
0.0
  0
ARC
  5
1CB
330
1F
100
AcDbEntity
  8
0
  6
Continuous
 62
     7
370
    25
100
AcDbCircle
 10
244.4455074029
 20
41.1297985174
 30
0.0
 40
11.93878050130635
100
AcDbArc
 50
178.7252681123
 51
202.7773694951
  0
LINE
  5
1CC
330
1F
100
AcDbEntity
  8
0
  6
Continuous
 62
     7
370
    25
100
AcDbLine
 10
203.8920293541
 20
60.4986291834
 30
0.0
 11
203.8392042064
 21
60.5441417605
 31
0.0
  0
LWPOLYLINE
  5
1CD
330
1F
100
AcDbEntity
  8
0
  6
Continuous
 62
     7
370
    25
100
AcDbPolyline
 90
       10
 70
   128
 43
0.0
 10
240.8473271886
 20
22.6332756741
 10
240.3574517341
 20
22.7271947008
 10
239.1407519015
 20
23.0869321491
 10
238.0078643699
 20
23.6122103218
 10
236.9672244358
 20
24.2991215494
 10
236.026579217
 20
25.142550992
 10
235.1929290414
 20
26.1362196111
 10
234.4724826667
 20
27.272732083
 10
233.8706006453
 20
28.5436247132
 10
233.391765031
 20
29.939439204
  0
SPLINE
  5
1CE
330
1F
100
AcDbEntity
  8
0
  6
Continuous
 62
     7
370
    25
100
AcDbSpline
210
0.0
220
0.0
230
1.0
 70
     8
 71
     3
 72
     8
 73
     4
 74
     0
 42
0.000000001
 43
0.00000001
 40
0.0
 40
0.0
 40
0.0
 40
0.0
 40
0.0012417047560384
 40
0.0012417047560384
 40
0.0012417047560384
 40
0.0012417047560384
 10
233.8662651095486
 20
30.30605758914608
 30
0.0
 10
233.7082049520385
 20
30.18365438414193
 30
0.0
 10
233.5500356463593
 20
30.06145215417117
 30
0.0
 10
233.3917645058989
 20
29.93943931686041
 30
0.0
  0
SPLINE
  5
1CF
330
1F
100
AcDbEntity
  8
0
  6
Continuous
 62
     7
370
    25
100
AcDbSpline
210
0.0
220
0.0
230
1.0
 70
     8
 71
     3
 72
     8
 73
     4
 74
     0
 42
0.000000001
 43
0.00000001
 40
0.0
 40
0.0
 40
0.0
 40
0.0
 40
1.0
 40
1.0
 40
1.0
 40
1.0
 10
233.8662651095486
 20
30.30605758914608
 30
0.0
 10
235.0374976942243
 20
30.49833721947408
 30
0.0
 10
236.2081170688167
 20
30.69192488668433
 30
0.0
 10
237.3777262539992
 20
30.887478178355
 30
0.0
  0
SPLINE
  5
1D0
330
1F
100
AcDbEntity
  8
0
  6
Continuous
 62
     7
370
    25
100
AcDbSpline
210
0.0
220
0.0
230
1.0
 70
     8
 71
     3
 72
    10
 73
     6
 74
     0
 42
0.000000001
 43
0.00000001
 40
0.0
 40
0.0
 40
0.0
 40
0.0
 40
0.5
 40
0.5
 40
1.0
 40
1.0
 40
1.0
 40
1.0
 10
237.3777262539992
 20
30.88747817835501
 30
0.0
 10
237.4194921150136
 20
30.89446123876895
 30
0.0
 10
237.4633894008277
 20
30.89775132977732
 30
0.0
 10
237.5510167836177
 20
30.89608835534828
 30
0.0
 10
237.5935220806783
 20
30.89129624879754
 30
0.0
 10
237.6346032823774
 20
30.88236170326053
 30
0.0
  0
LINE
  5
1D1
330
1F
100
AcDbEntity
  8
0
  6
Continuous
 62
     7
370
    25
100
AcDbLine
 10
229.5413986909
 20
32.8027497333
 30
0.0
 11
233.8662647883
 21
30.3060576789
 31
0.0
  0
LINE
  5
1D2
330
1F
100
AcDbEntity
  8
0
  6
Continuous
 62
     7
370
    25
100
AcDbLine
 10
229.5413986909
 20
32.8027497333
 30
0.0
 11
233.0842048248
 21
34.8479681807
 31
0.0
  0
LINE
  5
1D3
330
1F
100
AcDbEntity
  8
0
  6
Continuous
 62
     7
370
    25
100
AcDbLine
 10
229.1073311792
 20
32.5521272578
 30
0.0
 11
229.5413986909
 21
32.8027497333
 31
0.0
  0
LINE
  5
1D4
330
1F
100
AcDbEntity
  8
0
  6
Continuous
 62
     7
370
    25
100
AcDbLine
 10
233.391765031
 20
29.939439204
 30
0.0
 11
229.2640289638
 21
32.3223305144
 31
0.0
  0
SPLINE
  5
1D5
330
1F
100
AcDbEntity
  8
0
  6
Continuous
 62
     7
370
    25
100
AcDbSpline
210
0.0
220
0.0
230
1.0
 70
     8
 71
     3
 72
     8
 73
     4
 74
     0
 42
0.000000001
 43
0.00000001
 40
0.0
 40
0.0
 40
0.0
 40
0.0
 40
1.0
 40
1.0
 40
1.0
 40
1.0
 10
229.2640286707225
 20
32.32233049324294
 30
0.0
 10
229.1838094415563
 20
32.36864006851354
 30
0.0
 10
229.1294196792705
 20
32.45230290952234
 30
0.0
 10
229.1073317509116
 20
32.55212740362936
 30
0.0
  0
ARC
  5
1D6
330
1F
100
AcDbEntity
  8
0
  6
Continuous
 62
     7
370
    25
100
AcDbCircle
 10
238.2931073975
 20
33.7476780637
 30
0.0
 40
8.92160339446058
100
AcDbArc
 50
214.8451319274
 51
239.5574623805
  0
ELLIPSE
  5
1D7
330
1F
100
AcDbEntity
  8
0
  6
Continuous
 62
     7
370
    25
100
AcDbEllipse
 10
232.7913121858
 20
35.8335928944
 30
0.0
 11
-7.507462981948264E-5
 21
1.066811201853398
 31
0.0
210
0.0
220
0.0
230
1.0
 40
0.7174342186
 41
3.534193645557456
 42
5.104989972352342
  0
ELLIPSE
  5
1D8
330
1F
100
AcDbEntity
  8
0
  6
Continuous
 62
     7
370
    25
100
AcDbEllipse
 10
232.730652014
 20
35.7985631387
 30
0.0
 11
0.3250094736511642
 21
1.213179526238669
 31
0.0
210
0.0
220
0.0
230
1.0
 40
0.5176380889
 41
3.619174351347738
 42
5.18997067814259
  0
LWPOLYLINE
  5
1D9
330
1F
100
AcDbEntity
  8
0
  6
Continuous
 62
     7
370
    18
100
AcDbPolyline
 90
       44
 70
   128
 43
0.0
 10
240.9684460359
 20
30.766780976
 10
241.0308562989
 20
32.4993732766
 10
241.2176366436
 20
34.2915392164
 10
241.527443639
 20
36.1303675926
 10
241.9580435022
 20
38.0026081192
 10
242.5063331716
 20
39.8947716163
 10
243.1683640142
 20
41.7932256363
 10
243.9393642166
 20
43.6842914204
 10
244.8137796143
 20
45.5543427552
 10
245.7853105706
 20
47.3899071107
 10
246.8469554402
 20
49.1777591735
 10
247.9910672045
 20
50.905016659
 10
249.2094015446
 20
52.5592365066
 10
250.4931800622
 20
54.128497763
 10
251.8331528413
 20
55.6014939736
 10
253.2196659486
 20
56.967614735
 10
254.6427295931
 20
58.2170139409
 10
256.092090237
 20
59.3406909541
 10
257.5573054221
 20
60.3305505338
 10
259.0278180217
 20
61.179459388
 10
260.4930332069
 20
61.8813012522
 10
261.9423938507
 20
62.4310204192
 10
263.3654574953
 20
62.8246555243
 10
264.7519706025
 20
63.0593687218
 10
266.0919433816
 20
63.133472151
 10
267.3757218993
 20
63.0464300212
 10
268.5940562394
 20
62.7988690611
 10
269.7381680036
 20
62.392574901
 10
270.7998128733
 20
61.830471914
 10
271.7713438296
 20
61.1166133244
 10
272.6457592273
 20
60.2561405183
 10
273.4167594296
 20
59.2552526199
 10
274.0787902722
 20
58.1211631409
 10
274.6270799416
 20
56.8620414213
 10
275.0576798048
 20
55.4869609145
 10
275.3674868003
 20
54.0058280814
 10
275.5542671449
 20
52.4293141372
 10
275.6166774079
 20
50.7687791926
 10
275.5542671449
 20
49.0361868921
 10
275.3674868003
 20
47.2440209522
 10
275.0576798048
 20
45.405192576
 10
274.6270799416
 20
43.5329520494
 10
274.0787902722
 20
41.6407885523
 10
273.8717135859
 20
41.0114808336
  0
LWPOLYLINE
  5
1DA
330
1F
100
AcDbEntity
  8
0
  6
Continuous
 62
     7
370
    18
100
AcDbPolyline
 90
       25
 70
   128
 43
0.0
 10
265.8723635692
 20
27.1546990642
 10
264.7519706025
 20
25.934066195
 10
263.3654574953
 20
24.5679454336
 10
261.9423938507
 20
23.3185462277
 10
260.4930332069
 20
22.1948692145
 10
259.0278180217
 20
21.2050096348
 10
257.5573054221
 20
20.3561007807
 10
256.092090237
 20
19.6542589164
 10
254.6427295931
 20
19.1045397494
 10
253.2196659486
 20
18.7109046443
 10
251.8331528413
 20
18.4761914468
 10
250.4931800622
 20
18.4020880176
 10
249.2094015446
 20
18.4891301474
 10
247.9910672045
 20
18.7366911075
 10
246.8469554402
 20
19.1429852676
 10
245.7853105706
 20
19.7050882546
 10
244.8137796143
 20
20.4189468442
 10
243.9393642166
 20
21.2794196503
 10
243.1683640142
 20
22.2803075487
 10
242.5063331716
 20
23.4143970278
 10
241.9580435022
 20
24.6735187473
 10
241.527443639
 20
26.0485992541
 10
241.2176366436
 20
27.5297320872
 10
241.0308562989
 20
29.1062460314
 10
240.9684460359
 20
30.766780976
  0
LWPOLYLINE
  5
1DB
330
1F
100
AcDbEntity
  8
0
  6
Continuous
 62
     7
370
    18
100
AcDbPolyline
 90
       27
 70
   128
 43
0.0
 10
240.2613391388
 20
30.7667802157
 10
240.323337153
 20
32.5107302583
 10
240.5088965561
 20
34.3140292993
 10
240.8167160642
 20
36.1640286817
 10
241.2446356513
 20
38.0477513087
 10
241.7896536716
 20
39.9519844194
 10
242.4479492497
 20
41.8633719822
 10
243.2149020375
 20
43.7685051886
 10
244.0851343605
 20
45.6540232102
 10
245.0525428282
 20
47.5066998886
 10
246.1103391637
 20
49.313538029
 10
247.2511055219
 20
51.0618667343
 10
248.4668399282
 20
52.7394208691
 10
249.74901489
 20
54.3344334507
 10
251.0886366649
 20
55.8357185335
 10
252.4763084812
 20
57.2327426871
 10
253.9022977097
 20
58.515710922
 10
255.3566013887
 20
59.6756197258
 10
256.8290189105
 20
60.7043370476
 10
258.3092221159
 20
61.5946442834
 10
259.7868285158
 20
62.3402983177
 10
261.2514739776
 20
62.9360674018
 10
262.6928846722
 20
63.3777742075
 10
264.1009506241
 20
63.6623200368
 10
265.4657946536
 20
63.7877078903
 10
266.7778438284
 20
63.7530593812
 10
266.9482468297
 20
63.7363531324
  0
ARC
  5
1DC
330
1F
100
AcDbEntity
  8
0
  6
Continuous
 62
     7
370
    18
100
AcDbCircle
 10
255.6544953729
 20
30.1608357127
 30
0.0
 40
15.40507798059273
100
AcDbArc
 50
177.7457419314
 51
212.5890822166
  0
LWPOLYLINE
  5
1DD
330
1F
100
AcDbEntity
  8
0
  6
Continuous
 62
     7
370
    18
100
AcDbPolyline
 90
       24
 70
   128
 43
0.0
 10
251.2214940681
 20
36.6857396164
 10
251.2845859247
 20
37.8105041303
 10
251.4727347248
 20
38.9880410192
 10
251.7825838671
 20
40.1973376776
 10
252.2086035533
 20
41.4168136381
 10
252.7431922041
 20
42.6247082079
 10
253.3768088269
 20
43.7994650604
 10
254.0981475293
 20
44.9201219562
 10
254.8943354127
 20
45.9666797391
 10
255.7511650379
 20
46.9204639143
 10
256.6533456599
 20
47.7644525744
 10
257.584778335
 20
48.4835854071
 10
258.5288412969
 20
49.0650295804
 10
259.4686878865
 20
49.4984095292
 10
260.3875463951
 20
49.7759906975
 10
261.2690199082
 20
49.8928206955
 10
262.0973786787
 20
49.846813671
 10
262.8578401933
 20
49.6387910753
 10
263.5368341546
 20
49.2724650506
 10
264.1222440022
 20
48.7543729122
 10
264.6036229154
 20
48.0937600176
 10
264.9723808395
 20
47.3024143475
 10
265.2219375979
 20
46.3944585054
 10
265.2924802271
 20
45.9641669632
  0
LWPOLYLINE
  5
1DE
330
1F
100
AcDbEntity
  8
0
  6
Continuous
 62
     7
370
    18
100
AcDbPolyline
 90
       12
 70
   128
 43
0.0
 10
257.2931305397
 20
32.1073853838
 10
256.6533456599
 20
31.878509014
 10
255.7511650379
 20
31.6808620999
 10
254.8943354127
 20
31.6453718472
 10
254.0981475293
 20
31.7726706668
 10
253.3768088269
 20
32.0604876243
 10
252.7431922041
 20
32.5036862959
 10
252.2086035533
 20
33.0943579473
 10
251.7825838671
 20
33.8219620479
 10
251.4727347248
 20
34.6735145014
 10
251.2845859247
 20
35.6338194096
 10
251.2214940681
 20
36.6857396164
  0
LWPOLYLINE
  5
1DF
330
1F
100
AcDbEntity
  8
0
  6
Continuous
 62
     7
370
    18
100
AcDbPolyline
 90
        7
 70
   128
 43
0.0
 10
254.0499209979
 20
36.6857392363
 10
254.1131037336
 20
35.7486210656
 10
254.3012393629
 20
34.9053851431
 10
254.6101260423
 20
34.1748684339
 10
255.0328632134
 20
33.5733891228
 10
255.5600080065
 20
33.1143833841
 10
255.7071005078
 20
33.022980954
  0
LWPOLYLINE
  5
1E0
330
1F
100
AcDbEntity
  8
0
  6
Continuous
 62
     7
370
    18
100
AcDbPolyline
 90
       17
 70
   128
 43
0.0
 10
263.7064505244
 20
46.8797627234
 10
263.2337663744
 20
47.0946389843
 10
262.5352027752
 20
47.2413487745
 10
261.7734564403
 20
47.2252125059
 10
260.9655439951
 20
47.0465908473
 10
260.1295127695
 20
46.7094733472
 10
259.2840382627
 20
46.2213913035
 10
258.4480070371
 20
45.5932476968
 10
257.6400945919
 20
44.8390735013
 10
256.878348257
 20
43.9757161721
 10
256.1797846578
 20
43.022462018
 10
255.5600080065
 20
42.0006044369
 10
255.0328632134
 20
40.9329702751
 10
254.6101260423
 20
39.8434090155
 10
254.3012393629
 20
38.7562593373
 10
254.1131037336
 20
37.6958066409
 10
254.0499209979
 20
36.6857392363
  0
LWPOLYLINE
  5
1E1
330
1F
100
AcDbEntity
  8
0
  6
Continuous
 62
     7
370
    18
100
AcDbPolyline
 90
       21
 70
   128
 43
0.0
 10
237.3777268378
 20
41.3800275998
 10
237.8473718049
 20
43.1394551159
 10
238.4315402962
 20
44.9099115258
 10
239.1254539126
 20
46.6769135015
 10
239.9234360005
 20
48.426009739
 10
240.8189603839
 20
50.1428927412
 10
241.8047020721
 20
51.8135193471
 10
242.8725978462
 20
53.4242255555
 10
244.0139134305
 20
54.9618367863
 10
245.2193132979
 20
56.4137758592
 10
246.4789383787
 20
57.7681656491
 10
247.7824850854
 20
59.0139309808
 10
249.1192917471
 20
60.1408789449
 10
250.4784237262
 20
61.1397951829
 10
251.8487642974
 20
62.0025054767
 10
253.2191048686
 20
62.7219567292
 10
254.5782368477
 20
63.2922608725
 10
255.9150435094
 20
63.7087570269
 10
257.2185902161
 20
63.9680346869
 10
258.4782152969
 20
64.0679770589
 10
258.6347328872
 20
64.0692095315
  0
LWPOLYLINE
  5
1E2
330
1F
100
AcDbEntity
  8
0
  6
Continuous
 62
     7
370
    18
100
AcDbPolyline
 90
       22
 70
   128
 43
0.0
 10
229.2640289638
 20
43.4554737812
 10
229.7428645781
 20
45.4041401046
 10
230.3447465995
 20
47.3699509249
 10
231.0651929741
 20
49.3382730754
 10
231.8988431497
 20
51.2944536996
 10
232.8394883686
 20
53.2239289948
 10
233.8801283026
 20
55.1123375157
 10
235.0130158343
 20
56.9456197908
 10
236.2297156669
 20
58.7101289643
 10
237.521172155
 20
60.3927300303
 10
238.8777705487
 20
61.9808945043
 10
240.2894114095
 20
63.4628026988
 10
241.7455873304
 20
64.8274214733
 10
243.2354573519
 20
66.0645928213
 10
244.7479302672
 20
67.1651062965
 10
246.2717469409
 20
68.120769348
 10
247.7955636146
 20
68.9244675789
 10
249.30803653
 20
69.5702181615
 10
250.7979065514
 20
70.0532141255
 10
252.2540824724
 20
70.3698602826
 10
253.6657233331
 20
70.5177979337
 10
255.0039298958
 20
70.4973934819
  0
LWPOLYLINE
  5
1E3
330
1F
100
AcDbEntity
  8
0
  6
Continuous
 62
     7
370
    18
100
AcDbPolyline
 90
       19
 70
   128
 43
0.0
 10
237.7705321732
 20
41.3223806952
 10
238.2577774008
 20
43.1267343273
 10
238.8661737445
 20
44.941766038
 10
239.5903975305
 20
46.7515837932
 10
240.4241043409
 20
48.5403401415
 10
241.3599948684
 20
50.2923717532
 10
242.3898741852
 20
51.9923370584
 10
243.5047248413
 20
53.6253497014
 10
244.6947839144
 20
55.177111995
 10
245.9496305962
 20
56.6340354449
 10
247.2582777301
 20
57.9833635566
 10
248.6092656539
 20
59.213277721
 10
249.9907649325
 20
60.3130127946
 10
251.3906784327
 20
61.2729357982
 10
252.796748007
 20
62.0846424858
 10
254.1966615072
 20
62.7410252054
 10
255.5781607858
 20
63.2363352475
 10
256.9291487096
 20
63.5662385383
 10
257.7022397908
 20
63.6815156697
  0
LINE
  5
1E4
330
1F
100
AcDbEntity
  8
0
  6
Continuous
 62
     7
370
    18
100
AcDbLine
 10
277.4021239365
 20
22.7347315399
 30
0.0
 11
278.427427686
 21
22.1428362841
 31
0.0
  0
LINE
  5
1E5
330
1F
100
AcDbEntity
  8
0
  6
Continuous
 62
     7
370
    18
100
AcDbLine
 10
237.6346033184
 20
30.8823617971
 30
0.0
 11
238.7940920969
 21
31.5517204212
 31
0.0
  0
LINE
  5
1E6
330
1F
100
AcDbEntity
  8
0
  6
Continuous
 62
     7
370
    18
100
AcDbLine
 10
239.1794242692
 20
31.3481768598
 30
0.0
 11
238.7940920969
 21
31.5517204212
 31
0.0
  0
LINE
  5
1E7
330
1F
100
AcDbEntity
  8
0
  6
Continuous
 62
     7
370
    18
100
AcDbLine
 10
282.7761355641
 20
25.8370824171
 30
0.0
 11
283.8014393137
 21
25.2451871614
 31
0.0
  0
ARC
  5
1E8
330
1F
100
AcDbEntity
  8
0
  6
Continuous
 62
     7
370
    18
100
AcDbCircle
 10
238.0689907859
 20
32.7275933879
 30
0.0
 40
1.381466302575622
100
AcDbArc
 50
301.6600326363
 51
324.2382948908
  0
LINE
  5
1E9
330
1F
100
AcDbEntity
  8
0
  6
Continuous
 62
     7
370
    18
100
AcDbLine
 10
233.4984184544
 20
36.2417965534
 30
0.0
 11
239.0734216525
 21
33.0234157123
 31
0.0
  0
LINE
  5
1EA
330
1F
100
AcDbEntity
  8
0
  6
Continuous
 62
     7
370
    18
100
AcDbLine
 10
233.4377582734
 20
36.2067667924
 30
0.0
 11
233.4984184544
 21
36.2417965534
 31
0.0
  0
LINE
  5
1EB
330
1F
100
AcDbEntity
  8
0
  6
Continuous
 62
     7
370
    18
100
AcDbLine
 10
233.2167883559
 20
40.9871897243
 30
0.0
 11
233.2178288562
 21
41.172941148
 31
0.0
  0
LWPOLYLINE
  5
1EC
330
1F
100
AcDbEntity
  8
0
  6
Continuous
 62
     7
370
    18
100
AcDbPolyline
 90
        3
 70
   128
 43
0.0
 10
233.3556279774
 20
38.9350932502
 10
233.2801403375
 20
39.5812186936
 10
233.2167883559
 20
40.9871897243
  0
LWPOLYLINE
  5
1ED
330
1F
100
AcDbEntity
  8
0
  6
Continuous
 62
     7
370
    18
100
AcDbPolyline
 90
       18
 70
   128
 43
0.0
 10
202.2835692962
 20
64.8028076773
 10
202.3476977019
 20
65.9460598974
 10
202.5389396855
 20
67.142952558
 10
202.853882011
 20
68.3721266681
 10
203.2869046595
 20
69.6116477733
 10
203.8302796112
 20
70.8393960641
 10
204.4743114446
 20
72.0334629438
 10
205.2075069117
 20
73.1725399901
 10
206.0167820501
 20
74.2363008771
 10
206.8876953081
 20
75.2057614338
 10
207.8047053646
 20
76.063623538
 10
208.751448047
 20
76.7945771853
 10
209.7110287871
 20
77.385578826
 10
210.6663237608
 20
77.8260814841
 10
211.6002859053
 20
78.1082258662
 10
212.4962482208
 20
78.2269759092
 10
213.3382227282
 20
78.1802122773
 10
214.0013839625
 20
78.0104423003
  0
ARC
  5
1EE
330
1F
100
AcDbEntity
  8
0
  6
Continuous
 62
     7
370
    18
100
AcDbCircle
 10
207.669833572
 20
64.3568800143
 30
0.0
 40
5.404691881015323
100
AcDbArc
 50
175.2672879263
 51
224.8658859066
  0
LWPOLYLINE
  5
1EF
330
1F
100
AcDbEntity
  8
0
  6
Continuous
 62
     7
370
    18
100
AcDbPolyline
 90
        3
 70
   128
 43
0.0
 10
238.4434579761
 20
29.2130308104
 10
238.2577774008
 20
29.5912325129
 10
237.7705321732
 20
30.8330247796
  0
LWPOLYLINE
  5
1F0
330
1F
100
AcDbEntity
  8
0
  6
Continuous
 62
     7
370
    18
100
AcDbPolyline
 90
        3
 70
   128
 43
0.0
 10
238.3577714575
 20
28.6953910395
 10
237.8473718049
 20
29.6702915214
 10
237.3777268378
 20
30.8874785004
  0
LINE
  5
1F1
330
1F
100
AcDbEntity
  8
0
  6
Continuous
 62
     7
370
    18
100
AcDbLine
 10
238.7940920969
 20
31.5517204212
 30
0.0
 11
233.0842048248
 21
34.8479681807
 31
0.0
  0
ARC
  5
1F2
330
1F
100
AcDbEntity
  8
0
  6
Continuous
 62
     7
370
    18
100
AcDbCircle
 10
240.9325651834
 20
35.5140546281
 30
0.0
 40
12.09718315670543
100
AcDbArc
 50
195.2980530561
 51
214.5684511116
  0
OLE2FRAME
  5
1F3
330
1F
100
AcDbEntity
  8
0
100
AcDbOle2Frame
 70
     2
  3
Paintbrush-Bild
 10
13.8511154363
 20
38.264191557
 30
0.0
 11
51.6290888628
 21
31.9806341108
 31
0.0
 71
     2
 72
     0
 73
     1
 90
    12928
310
80552BED0767C5B32B40DDAF6807D121434000000000000000006FFBDDFB85D0
310
4940DDAF6807D121434000000000000000006FFBDDFB85D04940416F4BD60AFB
310
3F4000000000000000002BED0767C5B32B40416F4BD60AFB3F40000000000000
310
0000000000000100000000010000010000000100000000000100000000320000
310
D0CF11E0A1B11AE1000000000000000000000000000000003E000300FEFF0900
310
0600000000000000000000000100000001000000000000000010000002000000
310
01000000FEFFFFFF0000000000000000FFFFFFFFFFFFFFFFFFFFFFFFFFFFFFFF
310
FFFFFFFFFFFFFFFFFFFFFFFFFFFFFFFFFFFFFFFFFFFFFFFFFFFFFFFFFFFFFFFF
310
FFFFFFFFFFFFFFFFFFFFFFFFFFFFFFFFFFFFFFFFFFFFFFFFFFFFFFFFFFFFFFFF
310
FFFFFFFFFFFFFFFFFFFFFFFFFFFFFFFFFFFFFFFFFFFFFFFFFFFFFFFFFFFFFFFF
310
FFFFFFFFFFFFFFFFFFFFFFFFFFFFFFFFFFFFFFFFFFFFFFFFFFFFFFFFFFFFFFFF
310
FFFFFFFFFFFFFFFFFFFFFFFFFFFFFFFFFFFFFFFFFFFFFFFFFFFFFFFFFFFFFFFF
310
FFFFFFFFFFFFFFFFFFFFFFFFFFFFFFFFFFFFFFFFFFFFFFFFFFFFFFFFFFFFFFFF
310
FFFFFFFFFFFFFFFFFFFFFFFFFFFFFFFFFFFFFFFFFFFFFFFFFFFFFFFFFFFFFFFF
310
FFFFFFFFFFFFFFFFFFFFFFFFFFFFFFFFFFFFFFFFFFFFFFFFFFFFFFFFFFFFFFFF
310
FFFFFFFFFFFFFFFFFFFFFFFFFFFFFFFFFFFFFFFFFFFFFFFFFFFFFFFFFFFFFFFF
310
FFFFFFFFFFFFFFFFFFFFFFFFFFFFFFFFFFFFFFFFFFFFFFFFFFFFFFFFFFFFFFFF
310
FFFFFFFFFFFFFFFFFFFFFFFFFFFFFFFFFFFFFFFFFFFFFFFFFFFFFFFFFFFFFFFF
310
FFFFFFFFFFFFFFFFFFFFFFFFFFFFFFFFFFFFFFFFFFFFFFFFFFFFFFFFFFFFFFFF
310
FFFFFFFFFFFFFFFFFFFFFFFFFFFFFFFFFFFFFFFFFFFFFFFFFFFFFFFFFFFFFFFF
310
FDFFFFFFFEFFFFFFFEFFFFFFFEFFFFFF05000000060000000700000008000000
310
090000000A0000000B0000000C0000000D0000000E0000000F00000010000000
310
11000000120000001300000014000000150000001600000017000000FEFFFFFF
310
FFFFFFFFFFFFFFFFFFFFFFFFFFFFFFFFFFFFFFFFFFFFFFFFFFFFFFFFFFFFFFFF
310
FFFFFFFFFFFFFFFFFFFFFFFFFFFFFFFFFFFFFFFFFFFFFFFFFFFFFFFFFFFFFFFF
310
FFFFFFFFFFFFFFFFFFFFFFFFFFFFFFFFFFFFFFFFFFFFFFFFFFFFFFFFFFFFFFFF
310
FFFFFFFFFFFFFFFFFFFFFFFFFFFFFFFFFFFFFFFFFFFFFFFFFFFFFFFFFFFFFFFF
310
FFFFFFFFFFFFFFFFFFFFFFFFFFFFFFFFFFFFFFFFFFFFFFFFFFFFFFFFFFFFFFFF
310
FFFFFFFFFFFFFFFFFFFFFFFFFFFFFFFFFFFFFFFFFFFFFFFFFFFFFFFFFFFFFFFF
310
FFFFFFFFFFFFFFFFFFFFFFFFFFFFFFFFFFFFFFFFFFFFFFFFFFFFFFFFFFFFFFFF
310
FFFFFFFFFFFFFFFFFFFFFFFFFFFFFFFFFFFFFFFFFFFFFFFFFFFFFFFFFFFFFFFF
310
FFFFFFFFFFFFFFFFFFFFFFFFFFFFFFFFFFFFFFFFFFFFFFFFFFFFFFFFFFFFFFFF
310
FFFFFFFFFFFFFFFFFFFFFFFFFFFFFFFFFFFFFFFFFFFFFFFFFFFFFFFFFFFFFFFF
310
FFFFFFFFFFFFFFFFFFFFFFFFFFFFFFFFFFFFFFFFFFFFFFFFFFFFFFFFFFFFFFFF
310
FFFFFFFFFFFFFFFFFFFFFFFFFFFFFFFFFFFFFFFFFFFFFFFFFFFFFFFFFFFFFFFF
310
FFFFFFFFFFFFFFFFFFFFFFFFFFFFFFFFFFFFFFFFFFFFFFFFFFFFFFFFFFFFFFFF
310
52006F006F007400200045006E00740072007900000000000000000000000000
310
0000000000000000000000000000000000000000000000000000000000000000
310
16000500FFFFFFFFFFFFFFFF020000000A00030000000000C000000000000046
310
000000000000000000000000104810FDDDB9D30103000000C000000000000000
310
01004F006C006500000000000000000000000000000000000000000000000000
310
0000000000000000000000000000000000000000000000000000000000000000
310
0A000200FFFFFFFFFFFFFFFFFFFFFFFF00000000000000000000000000000000
310
0000000000000000000000000000000000000000000000001400000000000000
310
010043006F006D0070004F0062006A0000000000000000000000000000000000
310
0000000000000000000000000000000000000000000000000000000000000000
310
120002010100000003000000FFFFFFFF00000000000000000000000000000000
310
0000000000000000000000000000000000000000010000004D00000000000000
310
01004F006C006500310030004E00610074006900760065000000000000000000
310
0000000000000000000000000000000000000000000000000000000000000000
310
1A000200FFFFFFFFFFFFFFFFFFFFFFFF00000000000000000000000000000000
310
0000000000000000000000000000000000000000040000002426000000000000
310
FEFFFFFF02000000FEFFFFFFFFFFFFFFFFFFFFFFFFFFFFFFFFFFFFFFFFFFFFFF
310
FFFFFFFFFFFFFFFFFFFFFFFFFFFFFFFFFFFFFFFFFFFFFFFFFFFFFFFFFFFFFFFF
310
FFFFFFFFFFFFFFFFFFFFFFFFFFFFFFFFFFFFFFFFFFFFFFFFFFFFFFFFFFFFFFFF
310
FFFFFFFFFFFFFFFFFFFFFFFFFFFFFFFFFFFFFFFFFFFFFFFFFFFFFFFFFFFFFFFF
310
FFFFFFFFFFFFFFFFFFFFFFFFFFFFFFFFFFFFFFFFFFFFFFFFFFFFFFFFFFFFFFFF
310
FFFFFFFFFFFFFFFFFFFFFFFFFFFFFFFFFFFFFFFFFFFFFFFFFFFFFFFFFFFFFFFF
310
FFFFFFFFFFFFFFFFFFFFFFFFFFFFFFFFFFFFFFFFFFFFFFFFFFFFFFFFFFFFFFFF
310
FFFFFFFFFFFFFFFFFFFFFFFFFFFFFFFFFFFFFFFFFFFFFFFFFFFFFFFFFFFFFFFF
310
FFFFFFFFFFFFFFFFFFFFFFFFFFFFFFFFFFFFFFFFFFFFFFFFFFFFFFFFFFFFFFFF
310
FFFFFFFFFFFFFFFFFFFFFFFFFFFFFFFFFFFFFFFFFFFFFFFFFFFFFFFFFFFFFFFF
310
FFFFFFFFFFFFFFFFFFFFFFFFFFFFFFFFFFFFFFFFFFFFFFFFFFFFFFFFFFFFFFFF
310
FFFFFFFFFFFFFFFFFFFFFFFFFFFFFFFFFFFFFFFFFFFFFFFFFFFFFFFFFFFFFFFF
310
FFFFFFFFFFFFFFFFFFFFFFFFFFFFFFFFFFFFFFFFFFFFFFFFFFFFFFFFFFFFFFFF
310
FFFFFFFFFFFFFFFFFFFFFFFFFFFFFFFFFFFFFFFFFFFFFFFFFFFFFFFFFFFFFFFF
310
FFFFFFFFFFFFFFFFFFFFFFFFFFFFFFFFFFFFFFFFFFFFFFFFFFFFFFFFFFFFFFFF
310
FFFFFFFFFFFFFFFFFFFFFFFFFFFFFFFFFFFFFFFFFFFFFFFFFFFFFFFFFFFFFFFF
310
0100000200000000000000000000000000000000000000000000000000000000
310
0000000000000000000000000000000000000000000000000000000000000000
310
0100FEFF030A0000FFFFFFFF0A00030000000000C00000000000004607000000
310
5042727573680007000000504272757368000700000050427275736800F439B2
310
7100000000000000000000000000000000000000000000000000000000000000
310
0000000000000000000000000000000000000000000000000000000000000000
310
0000000000000000000000000000000000000000000000000000000000000000
310
0000000000000000000000000000000000000000000000000000000000000000
310
0000000000000000000000000000000000000000000000000000000000000000
310
0000000000000000000000000000000000000000000000000000000000000000
310
0000000000000000000000000000000000000000000000000000000000000000
310
0000000000000000000000000000000000000000000000000000000000000000
310
0000000000000000000000000000000000000000000000000000000000000000
310
0000000000000000000000000000000000000000000000000000000000000000
310
0000000000000000000000000000000000000000000000000000000000000000
310
0000000000000000000000000000000000000000000000000000000000000000
310
20260000424D0E260000000000003E00000028000000B40200006E0000000100
310
01000000000000000000130B0000130B00000200000002000000000000FFFFFF
310
FFFFFFFFFFFFFFFFFFFFFFFFFFFFFFFFFFFFFFFFFFFFFFFFFFFFFFFFFFFFFFFF
310
FFFFFFFFFFFFFFFFFFFFFFFFFFFFFFFFFFFFFFFFFFFFFFFFFFFFFFFFFFFFFFFF
310
FFFFFFFFFFFFFFFFFFFFFFFFFFFFFFFFFFFFFFFFFFFFFFFFF000FFFFFFFFFFFF
310
FFFFFFFFFFFFFFFFFFFFFFFFFFFFFFFFFFFFFFFFFFFFFFFFFFFFFFFFFFFFFFFF
310
FFFFFFFFFFFFFFFFFFFFFFFFFFFFFFFFFFFFFFFFFFFFFFFFFFFFFFFFFFFFFFFF
310
FFFFFFFFFFFFFFFFFFFFFFFFFFFFFFFFF000FFFFFFFFFFFFFFFFFFFFFFFFFFFF
310
FFFFFFFFFFFFFFFFFFFFFFFFFFFFFFFFFFFFFFFFFFFFFFFFFFFFFFFFFFFFFFFF
310
FFFFFFFFFFFFFFFFFFFFFFFFFFFFFFFFFFFFFFFFFFFFFFFFFFFFFFFFFFFFFFFF
310
FFFFFFFFFFFFFFFFF000FFFFFFFFFFFFFFFFFFFFFFFFFFFFFFFFFFFFFFFFFFFF
310
FFFFFFFFFFFFFFFFFFFFFFFFFFFFFFFFFFFFFFFFFFFFFFFFFFFFFFFFFFFFFFFF
310
FFFFFFFFFFFFFFFFFFFFFFFFFFFFFFFFFFFFFFFFFFFFFFFFFFFFFFFFFFFFFFFF
310
F000FFFFFFFFFFFFFFFFFFFFFFFFFFFFFFFFFFFFFFFFFFFFFFFFFFFFFFFFFFFF
310
FFFFFFFFFFFFFFFFFFFFFFFFFFFFFFFFFFFFFFFFFFFFFFFFFFFFFFFFFFFFFFFF
310
FFFFFFFFFFFFFFFFFFFFFFFFFFFFFFFFFFFFFFFFFFFFFFFFF000FFFFFFFFFFFF
310
FFFFFFFFFFFFFFFFFFFFFFFFFFFFFFFFFFFFFFFFFFFFFFFFFFFFFFFFFFFFFFFF
310
FFFFFFFFFFFFFFFFFFFFFFFFFFFFFFFFFFFFFFFFFFFFFFFFFFFFFFFFFFFFFFFF
310
FFFFFFFFFFFFFFFFFFFFFFFFFFFFFFFFF000FFFFFFFFFFFFFFFFFFFFFFFFFFFF
310
FFFFFFFFFFFFFFFFFFFFFFFFFFFFFFFFFFFFFFFFFFFFFFFFFFFFFFFFFFFFFFFF
310
FFFFFFFFFFFFFFFFFFFFFFFFFFFFFFFFFFFFFFFFFFFFFFFFFFFFFFFFFFFFFFFF
310
FFFFFFFFFFFFFFFFF000FFFFFFFFFFFFFFFFFFFFFFFFFFFFFFFFFFFFFFFFFFFF
310
FFFFFFFFFFFFFFFFFFFFFFFFFFFFFFFFFFFFFFFFFFFFFFFFFFFFFFFFFFFFFFFF
310
FFFFFFFFFFFFFFFFFFFFFFFFFFFFFFFFFFFFFFFFFFFFFFFFFFFFFFFFFFFFFFFF
310
F000FFFFFFFFFFFFFFFFFFFFFFFFFFFFFFFFFFFFFFFFFFFFFFFFFFFFFFFFFFFF
310
FFFFFFFFFFFFFFFFFFFFFFFFFFFFFFFFFFFFFFFFFFFFFFFFFFFFFFFFFFFFFFFF
310
FFFFFFFFFFFFFFFFFFFFFFFFFFFFFFFFFFFFFFFFFFFFFFFFF000FFFFFFFFFFFF
310
FFFFFFFFFFFFFFFFFFFFFFFFFFFFFFFFFFFFFFFFFFFFFFFFFFFFFFFFFFFFFFFF
310
FFFFFFFFFFFFFFFFFFFFFFFFFFFFFFFFFFFFFFFFFFFFFFFFFFFFFFFFFFFFFFFF
310
FFFFFFFFFFFFFFFFFFFFFFFFFFFFFFFFF000FFFFFFFFFFFFFFFFFFFFFFFFFFFF
310
FFFFFFFFFFFFFFFFFFFFFFFFFFFFFFFFFFFFFFFFFFFFFFFFFFFFFFFFFFFFFFFF
310
FFFFFFFFFFFFFFFFFFFFFFFFFFFFFFFFFFFFFFFFFFFFFFFFFFFFFFFFFFFFFFFF
310
FFFFFFFFFFFFFFFFF000FFFFFFFFFFFFFFFFFFFFFFFFFFFFFFFFFFFFFFFFFFFF
310
FFFFFFFFFFFFFFFFFFFFFFFFFFFFFFFFFFFFFFFFFFFFFFFFFFFFFFFFFFFFFFFF
310
FFFFFFFFFFFFFFFFFFFFFFFFFFFFFFFFFFFFFFFFFFFFFFFFFFFFFFFFFFFFFFFF
310
F000FFFFFFFFFFFFFFFFFFFFFFFFFFFFFFFFFFFFFFFFFFFFFFFFFFFFFFFFFFFF
310
FFFFFFFFFFFFFFFFFFFFFFFFFFFFFFFFFFFFFFFFFFFFFFFFFFFFFFFFFFFFFFFF
310
FFFFFFFFFFFFFFFFFFFFFFFFFFFFFFFFFFFFFFFFFFFFFFFFF000FFFFFFFFFFFF
310
FFFFFFFFFFFFFFFFFFFFFFFFFFFFFFFFFFFFFFFFFFFFFFFFFFFFFFFFFFFFFFFF
310
FFFFFFFFFFFFFFFFFFFFFFFFFFFFFFFFFFFFFFFFFFFFFFFFFFFFFFFFFFFFFFFF
310
FFFFFFFFFFFFFFFFFFFFFFFFFFFFFFFFF000FFFFFFFFFFFFFFFFFFFFFFFFFFFF
310
FFFFFFFFFFFFFFFFFFFFFFFFFFFFFFFFFFFFFFFFFFFFFFFFFFFFFFFFFFFFFFFF
310
FFFFFFFFFFFFFFFFFFFFFFFFFFFFFFFFFFFFFFFFFFFFFFFFFFFFFFFFFFFFFFFF
310
FFFFFFFFFFFFFFFFF000FFFFFFFFFFFFFFFFFFFFFFFFFFFFFFFFFFFFFFFFFFFF
310
FFFFFFFFFFFFFFFFFFFFFFFFFFFFFFFFFFFFFFFFFFFFFFFFFFFFFFFFFFFFFFFF
310
FFFFFFFFFFFFFFFFFFFFFFFFFFFFFFFFFFFFFFFFFFFFFFFFFFFFFFFFFFFFFFFF
310
F000FFFFFFFFFFFFFFFFFFFFFFFFFFFFFFFFFFFFFFFFFFFFFFFFFFFFFFFFFFFF
310
FFFFFFFFFFFFFFFFFFFFFFFFFFFFFFFFFFFFFFFFFFFFFFFFFFFFFFFFFFFFFFFF
310
FFFFFFFFFFFFFFFFFFFFFFFFFFFFFFFFFFFFFFFFFFFFFFFFF000FFFFFFFFFFFF
310
FFFFFFFFFFFFFFFFFFFFFFFFFFFFFFFFFFFFFFFFFFFFFFFFFFFFFFFFFFFFFFFF
310
FFFFFFFFFFFFFFFFFFFFFFFFFFFFFFFFFFFFFFFFFFFFFFFFFFFFFFFFFFFFFFFF
310
FFFFFFFFFFFFFFFFFFFFFFFFFFFFFFFFF000FFFFFFFFFFFFFFFFFFFFFFFFFFFF
310
FFFFFFFFFFFFFFFFFFFFFFFFFFFFFFFFFFFFFFFFFFFFFFFFFFFFFFFFFFFFFFFF
310
FFFFFFFFFFFFFFFFFFFFFFFFFFFFFFFFFFFFFFFFFFFFFFFFFFFFFFFFFFFFFFFF
310
FFFFFFFFFFFFFFFFF000FFFFF80003FFFFFFFFFFFFFFFFFFFFFFFFFFFFFFFFFF
310
FFFFF00007FFFFFFFFFF00007FFFFFF800000000000000007FFFFFFFFFFFFFFF
310
FFFFFFFC001FFFFFFFFFFFFFFC001FFFFFFFFFFFFFFFFFFFFFFFFFFE0007FFFF
310
F000FFFF8000007FFFFFFFF8000FFFFFC0007FFFFF80007FFFFF0000007FFFFF
310
FFF8000007FFFFF800000000000000007FFFFFF0001FFFFFFFFFFFC00001FFFF
310
FFFFFFFFC00001FFFFFFFF000000000003FFFFE000007FFFF000FFFE0000000F
310
FFFFFFF0000FFFFF80007FFFFF80007FFFFC0000001FFFFFFFC0000001FFFFF8
310
00000000000000007FFFFFF0001FFFFFFFFFFE0000003FFFFFFFFFFE0000003F
310
FFFFFF000000000003FFFF0000000FFFF000FFF800000003FFFFFFF00007FFFF
310
80007FFFFF80007FFFF000000007FFFFFF000000003FFFF80000000000000000
310
7FFFFFF0001FFFFFFFFFF80000000FFFFFFFFFF80000000FFFFFFF0000000000
310
03FFFC00000003FFF000FFE000000000FFFFFFF00007FFFF80003FFFFF80007F
310
FFC000000001FFFFFC000000001FFFF800000000000000007FFFFFF0001FFFFF
310
FFFFE000000003FFFFFFFFE000000003FFFFFF000000000003FFF000000000FF
310
F000FF80000000007FFFFFF00007FFFF80003FFFFF80007FFF8000000000FFFF
310
F80000000007FFF800000000000000007FFFFFF0001FFFFFFFFFC000000001FF
310
FFFFFFC000000001FFFFFF000000000003FFC0000000007FF000FF0000000000
310
3FFFFFE00007FFFF00003FFFFF80007FFE00000000003FFFF00000000003FFF8
310
00000000000000007FFFFFF0001FFFFFFFFF8000000000FFFFFFFF8000000000
310
FFFFFF000000000003FF80000000003FF000FE00000000001FFFFFE00003FFFF
310
00003FFFFF80007FFC00000000001FFFE00000000001FFF8000001FFFE000000
310
7FFFFFF0001FFFFFFFFE00000000003FFFFFFE00000000003FFFFF0000000000
310
03FF00000000001FF000FC00000000000FFFFFE00003FFFF00001FFFFF80007F
310
F800000000001FFFC00000000000FFF8000001FFFE0000007FFFFFF0001FFFFF
310
FFFC00000000001FFFFFFC00000000001FFFFF000000000003FE00000000000F
310
F000F8000000000007FFFFE00003FFFF00001FFFFF80007FF800000000000FFF
310
800000000000FFF8000001FFFE0000007FFFFFF0001FFFFFFFF800000000000F
310
FFFFF800000000000FFFFF000000000003FC000000000007F000F80000000000
310
03FFFFC00003FFFE00001FFFFF80007FF0000000000007FF0000000000007FF8
310
000001FFFE0000007FFFFFF0001FFFFFFFF0000000000007FFFFF00000000000
310
07FFFF000000000003F8000000000003F000F0000000000003FFFFC00001FFFE
310
00001FFFFF80007FE0000000000007FE0000000000003FF8000001FFFE000000
310
7FFFFFF0001FFFFFFFF0000000000007FFFFF0000000000007FFFF0000000000
310
03F800001F800003F000E00001FFF00001FFFFC00001FFFE00000FFFFF80007F
310
E00001FFE00003FE00001FFF00003FF8000001FFFE0000007FFFFFF0001FFFFF
310
FFE000003E000003FFFFE000003E000003FFFF000000000003F00001FFF80001
310
F000E00007FFFC0001FFFFC00001FFFE00000FFFFF80007FC0000FFFFC0003FC
310
0000FFFFC0001FF8000001FFFE0000007FFFFFF0001FFFFFFFC00003FFE00001
310
FFFFC00003FFE00001FFFF0001FFFFFFFFF00007FFFE0001F000E0000FFFFF00
310
00FFFF800001FFFC00000FFFFF80007FC0001FFFFE0001FC0001FFFFE0001FF8
310
000001FFFE0000007FFFFFF0001FFFFFFF80000FFFF80000FFFF80000FFFF800
310
00FFFF0003FFFFFFFFE0000FFFFF8000F000C0003FFFFF8000FFFF800000FFFC
310
000007FFFF80007F80003FFFFF0001FC0003FFFFF0001FF8000001FFFE000000
310
7FFFFFF0001FFFFFFF80003FFFFE0000FFFF80003FFFFE0000FFFF0003FFFFFF
310
FFE0003FFFFF8000F000C0003FFFFF8000FFFF800000FFFC000007FFFF80007F
310
80007FFFFF8001F80007FFFFF8000FF8000001FFFE0000007FFFFFF0001FFFFF
310
FF00007FFFFF00007FFF00007FFFFF00007FFF0003FFFFFFFFE0003FFFFFC000
310
F000C0007FFFFFC000FFFF000000FFFC000007FFFF80007F8000FFFFFF8000F8
310
000FFFFFF8000FF8000001FFFE0000007FFFFFF0001FFFFFFF0000FFFFFF8000
310
7FFF0000FFFFFF80007FFF0003FFFFFFFFC0007FFFFFC00070008000FFFFFFC0
310
00FFFF000000FFF8000007FFFF80007F8000FFFFFF8000F8000FFFFFF8000FF8
310
000001FFFE0000007FFFFFF0001FFFFFFE0001FFFFFFC0003FFE0001FFFFFFC0
310
003FFF0003FFFFFFFFC0007FFFFFE00070008000FFFFFFC0007FFF0000007FF8
310
000003FFFF80007F0001FFFFFF8000F8000FFFFFF8000FF8000001FFFE000000
310
7FFFFFF0001FFFFFFE0001FFFFFFC0003FFE0001FFFFFFC0003FFF0003FFFFFF
310
FFC000FFFFFFE00070008000FFFFFFC0007FFF0000007FF8000003FFFF80007F
310
0001FFFFFF8000F8001FFFFFF8000FF8000001FFFE0000007FFFFFF0001FFFFF
310
FE0003FFFFFFE0003FFE0003FFFFFFE0003FFF0003FFFFFFFFC000FFFFFFE000
310
70008000FFFFFFC0007FFE0000007FF8000003FFFF80007F0001FFFFFF8000F0
310
001FFFFFF8000FF8000001FFFE0000007FFFFFF0001FFFFFFC0003FFFFFFE000
310
1FFC0003FFFFFFE0001FFF0003FFFFFFFFC000FFFFFFC00070008000FFFFFF80
310
007FFE0000007FF0000003FFFF80007F0001FFFFFF0000F0001FFFFFF8000FF8
310
000001FFFE0000007FFFFFF0001FFFFFFC0007FFFFFFF0001FFC0007FFFFFFF0
310
001FFF0003FFFFFFFFC000FFFFFFC00070008001FFFFFF0000FFFE0000003FF0
310
000001FFFF80007F0001FFFFFF0000F8001FFFFFF0000FF8000001FFFE000000
310
7FFFFFF0001FFFFFFC0007FFFFFFF0001FFC0007FFFFFFF0001FFF0003FFFFFF
310
FFC001FFFFFF80007000FFFFFFFFFE0000FFFE0008003FF0008001FFFF80007F
310
FFFFFFFFFC0000FFFFFFFFFFE0000FF8000001FFFE0000007FFFFFF0001FFFFF
310
F8000FFFFFFFF8000FF8000FFFFFFFF8000FFF0003FFFFFFFFFFFFFFFFFF0000
310
7000FFFFFFFFFC0000FFFC0008003FF0008001FFFF80007FFFFFFFFFF80001FF
310
FFFFFFFF80000FF8000001FFFE0000007FFFFFF0001FFFFFF8000FFFFFFFF800
310
0FF8000FFFFFFFF8000FFF0003FFFFFFFFFFFFFFFFFE0000F000FFFFFFFFE000
310
00FFFC000C003FE000C001FFFF80007FFFFFFFFFC00001FFFFFFFFFE00001FF8
310
000001FFFE0000007FFFFFF0001FFFFFF8000FFFFFFFF8000FF8000FFFFFFFF8
310
000FFF0003FFFFFFFFFFFFFFFFF00000F000FFFFFFFE000001FFFC000C001FE0
310
00C000FFFF80007FFFFFFFFE000001FFFFFFFFE000001FF80FFFFFFFFFFFFFC0
310
7FFFFFF0001FFFFFF8000FFFFFFFF8000FF8000FFFFFFFF8000FFF0003FFFFFF
310
FFFFFFFFFF800000F000FFFFFFC0000001FFFC001C001FE001C000FFFF80007F
310
FFFFFF80000003FFFFFFF80000001FF80FFFFFFFFFFFFFC07FFFFFF0001FFFFF
310
F8001FFFFFFFFC000FF8001FFFFFFFFC000FFF0003FFFFFFFFFFFFFFF0000001
310
F000FFFFF800000001FFF8001C001FE001C000FFFF80007FFFFFF800000003FF
310
FFFF800000003FF80FFFFFFFFFFFFFC07FFFFFF0001FFFFFF8001FFFFFFFFC00
310
0FF8001FFFFFFFFC000FFF0003FFFFFFFFFFFFFE00000001F000FFFFC0000000
310
03FFF8001E001FC001E000FFFF80007FFFFF8000000007FFFFFC000000003FF8
310
0FFFFFFFFFFFFFC07FFFFFF0001FFFFFF8001FFFFFFFFC000FF8001FFFFFFFFC
310
000FFF0003FFFFFFFFFFFFE000000003F000FFFE0000000007FFF8001E000FC0
310
01E0007FFF80007FFFFE0000000007FFFFE0000000007FF80FFFFFFFFFFFFFC0
310
7FFFFFF0001FFFFFF0001FFFFFFFFC0007F0001FFFFFFFFC0007FF0003FFFFFF
310
FFFFFF0000000003F000FFF80000000007FFF8001E000FC003E0007FFF80007F
310
FFF0000000000FFFFF8000000000FFF80FFFFFFFFFFFFFC07FFFFFF0001FFFFF
310
F0001FFFFFFFFC0007F0001FFFFFFFFC0007FF0003FFFFFFFFFFFC0000000007
310
F000FFE0000000000FFFF0003E000FC003E0007FFF80007FFFC0000000001FFF
310
FE0000000001FFF80FFFFFFFFFFFFFC07FFFFFF0001FFFFFF0001FFFFFFFFC00
310
07F0001FFFFFFFFC0007FF0003FFFFFFFFFFF0000000000FF000FFC000000000
310
1FFFF0003F000F8003F0003FFF80007FFF80000000003FFFF80000000003FFF8
310
0FFFFFFFFFFFFFC07FFFFFF0001FFFFFF0001FFFFFFFFC0007F0001FFFFFFFFC
310
0007FF0003FFFFFFFFFFE0000000001FF000FF00000000007FFFF0003F000780
310
03F0003FFF80007FFF00000000007FFFF00000000007FFF80FFFFFFFFFFFFFC0
310
7FFFFFF0001FFFFFF0001FFFFFFFFC0007F0001FFFFFFFFC0007FF0003FFFFFF
310
FFFF80000000007FF000FE0000000000FFFFE0003F00078007F0003FFF80007F
310
FE0000000001FFFFE0000000001FFFF80FFFFFFFFFFFFFC07FFFFFF0001FFFFF
310
F0001FFFFFFFFC0007F0001FFFFFFFFC0007FF0003FFFFFFFFFF0000000000FF
310
F000FC0000000003FFFFE0007F00078007F0003FFF80007FFC0000000007FFFF
310
C0000000007FFFF80FFFFFFFFFFFFFC07FFFFFF0001FFFFFF8001FFFFFFFFC00
310
0FF8001FFFFFFFFC000FFF0003FFFFFFFFFE0000000003FFF000FC000000000F
310
FFFFE0007F80070007F8001FFF80007FF8000000001FFFFF8000000001FFFFF8
310
0FFFFFFFFFFFFFC07FFFFFF0001FFFFFF8001FFFFFFFFC000FF8001FFFFFFFFC
310
000FFF0003FFFFFFFFFC000000000FFFF000F8000000007FFFFFE0007F800700
310
07F8001FFF80007FF000000000FFFFFF800000000FFFFFF80FFFFFFFFFFFFFC0
310
7FFFFFF0001FFFFFF8000FFFFFFFF8000FF8000FFFFFFFF8000FFF0003FFFFFF
310
FFFC000000007FFFF000F800000007FFFFFFC0007F8003000FF8001FFF80007F
310
F000000007FFFFFF000000007FFFFFF80FFFFFFFFFFFFFC07FFFFFF0001FFFFF
310
F8000FFFFFFFF8000FF8000FFFFFFFF8000FFF0003FFFFFFFFF80000000FFFFF
310
F000F0000000FFFFFFFFC000FF8003000FF8001FFF80007FE0000000FFFFFFFF
310
0000000FFFFFFFF8000001FFFE0000007FFFFFF0001FFFFFF8000FFFFFFFF800
310
0FF8000FFFFFFFF8000FFF0003FFFFFFFFF8000000FFFFFFF000F000000FFFFF
310
FFFFC000FFC002000FF8000FFF80007FE000001FFFFFFFFE000001FFFFFFFFF8
310
000001FFFE0000007FFFFFF0001FFFFFF8000FFFFFFFF8000FF8000FFFFFFFF8
310
000FFF0003FFFFFFFFF000001FFFFFFFF000E00000FFFFFFFFFFC000FFC00200
310
0FFC000FFF80007FE00001FFFFFFFFFE00001FFFFFFFFFF8000001FFFE000000
310
7FFFFFF0001FFFFFFC000FFFFFFFF8001FFC000FFFFFFFF8001FFF0003FFFFFF
310
FFF00001FFFFFFFFF000E00007FFFFFFFFFF8000FFC000001FFC000FFF80007F
310
C0000FFFFFFFFFFE0000FFFFFFFFFFF8000001FFFE0000007FFFFFF0001FFFFF
310
FC0007FFFFFFF0001FFC0007FFFFFFF0001FFF0003FFFFFFFFF00007FFFFFFFF
310
F000E0001FFFFFFFFFFF8000FFC000001FFC000FFF80007FC0003FFFFFFFFFFE
310
0001FFFFFFFFFFF8000001FFFE0000007FFFFFF0001FFFFFFC0007FFFFFFF000
310
1FFC0007FFFFFFF0001FFF0003FFFFFFFFF0001FFFFFFFFFF000E0003FFFFF00
310
03FF8001FFE000001FFC0007FF80007FC0007FFFFF0007FC0003FFFFF0003FF8
310
000001FFFE0000007FFFFFF0001FFFFFFC0003FFFFFFE0001FFC0003FFFFFFE0
310
001FFF0003FFFFFFFFF0003FFFFFFFFFF000E0003FFFFF0001FF8001FFE00000
310
1FFE0007FF80007FC0007FFFFE0003FC0007FFFFE0003FF8000001FFFE000000
310
7FFFFFF0001FFFFFFE0003FFFFFFE0003FFE0003FFFFFFE0003FFF0003FFFFFF
310
FFF0003FFFFF8001F000E0003FFFFF0001FF0001FFE000001FFE0007FF80007F
310
C0007FFFFE0003FC0007FFFFE0003FF8000001FFFE0000007FFFFFF0001FFFFF
310
FE0001FFFFFFC0003FFE0001FFFFFFC0003FFF0003FFFFFFFFF0003FFFFF0001
310
F000E0003FFFFF0003FF0001FFE000003FFE0007FF80007FC0007FFFFE0003FC
310
0007FFFFE0003FF8000001FFFE0000007FFFFFF0001FFFFFFF0001FFFFFFC000
310
7FFF0001FFFFFFC0007FFF0003FFFFFFFFF0003FFFFF0001F000E0003FFFFE00
310
03FF0003FFF000003FFE0003FF80007FC0007FFFFC0003FE0007FFFFE0003FF8
310
000001FFFE0000007FFFFFF0001FFFFFFF0000FFFFFF80007FFF0000FFFFFF80
310
007FFF0003FFFFFFFFF0003FFFFF0001F000E0003FFFFE0003FF0003FFF00000
310
3FFF0003FF80007FC0007FFFFC0007FE0007FFFFC0003FF8000001FFFE000000
310
7FFFFFF0001FFFFFFF80007FFFFF0000FFFF80007FFFFF0000FFFF0003FFFFFF
310
FFF0003FFFFF0003F000E0003FFFFC0003FE0003FFF000003FFF0003FF80007F
310
E0003FFFF80007FE0003FFFFC0007FF8000001FFFE0000007FFFFFF0001FFFFF
310
FF80003FFFFE0000FFFF80003FFFFE0000FFFF0003FFFFFFFFF0001FFFFE0003
310
F000F0001FFFF80003FE0003FFF000007FFF0001FF80007FE0003FFFF00007FE
310
0001FFFF80007FF8000001FFFE0000007FFFFFF0001FFFFFFFC0000FFFF80001
310
FFFFC0000FFFF80001FFFF0003FFFFFFFFF0001FFFFC0003F000F0000FFFF000
310
07FE0007FFF800007FFF0001FF80007FE0001FFFE00007FF0000FFFE00007FF8
310
000001FFFE0000007FFFFFF0001FFFFFFFC00003FFE00001FFFFC00003FFE000
310
01FFFF0003FFFFFFFFF8000FFFF80003F000F00003FFC00007FC0007FFF80000
310
7FFF8001FF80007FF00007FF80000FFF00007FF80000FFF8000001FFFE000000
310
7F80000000000001FFE000003E000003FFFFE000003E000003FFFF0003FFFFFF
310
FFF80003FFE00007F000F800000000000FFC0007FFF800007FFF8001FF80007F
310
F000000000000FFF000000000000FFF8000001FFFE0000007F80000000000001
310
FFF0000000000007FFFFF0000000000007FFFF0003FFFFFFFFFC00007E000007
310
F000F800000000000FFC0007FFF80000FFFF8000FF80007FF800000000001FFF
310
800000000001FFF8000001FFFE0000007F80000000000001FFF800000000000F
310
FFFFF800000000000FFFFF0003FFFFFFFFFC00000000000FF000FC0000000000
310
1FFC0007FFFC0000FFFF8000FF80007FF800000000003FFFC00000000001FFF8
310
000001FFFE0000007F80000000000001FFF800000000000FFFFFF80000000000
310
0FFFFF0003FFFFFFFFFE00000000001FF000FE00000000003FF8000FFFFC0000
310
FFFF8000FF80007FFC00000000003FFFC00000000003FFF8000001FFFE000000
310
7F80000000000001FFFC00000000001FFFFFFC00000000001FFFFF0003FFFFFF
310
FFFF00000000001FF000FF00000000003FF8000FFFFC0000FFFFC000FF80007F
310
FE00000000007FFFE00000000007FFF8000001FFFE0000007F80000000000001
310
FFFE00000000003FFFFFFE00000000003FFFFF0003FFFFFFFFFF80000000003F
310
F000FF80000000007FF8000FFFFC0001FFFFC0007F80007FFF0000000000FFFF
310
F0000000000FFFF800000000000000007F80000000000001FFFF8000000000FF
310
FFFFFF8000000000FFFFFF0003FFFFFFFFFFC0000000007FF000FFC000000000
310
FFF8000FFFFE0001FFFFC0007F80007FFF8000000001FFFFF8000000001FFFF8
310
00000000000000007F80000000000001FFFFC000000001FFFFFFFFC000000001
310
FFFFFF0003FFFFFFFFFFE000000000FFF000FFE000000003FFF0001FFFFE0001
310
FFFFC0007F80007FFFC000000007FFFFFE000000003FFFF80000000000000000
310
7F80000000000001FFFFE000000003FFFFFFFFE000000003FFFFFF0003FFFFFF
310
FFFFF000000003FFF000FFF80000000FFFF0001FFFFE0001FFFFE0007F80007F
310
FFF00000000FFFFFFF00000000FFFFF800000000000000007F80000000000001
310
FFFFF80000000FFFFFFFFFF80000000FFFFFFF0003FFFFFFFFFFFC0000000FFF
310
F000FFFE0000003FFFF0001FFFFE0003FFFFE0003F80007FFFFC0000003FFFFF
310
FFC0000003FFFFF800000000000000007F80000000000001FFFFFE0000003FFF
310
FFFFFFFE0000003FFFFFFF0003FFFFFFFFFFFF0000003FFFF000FFFF800000FF
310
FFF0001FFFFF0003FFFFE0003F80007FFFFF000001FFFFFFFFF800001FFFFFF8
310
00000000000000007F80000000000001FFFFFFC00001FFFFFFFFFFFFC00001FF
310
FFFFFF0003FFFFFFFFFFFFC00000FFFFF000FFFFF8000FFFFFFFFFFFFFFFFFFF
310
FFFFFFFFFFFFFFFFFFFFF0001FFFFFFFFFFF0000FFFFFFF80000000000000000
310
7FFFFFFFFFFFFFFFFFFFFFFC001FFFFFFFFFFFFFFC001FFFFFFFFFFFFFFFFFFF
310
FFFFFFFC001FFFFFF000FFFFFFFFFFFFFFFFFFFFFFFFFFFFFFFFFFFFFFFFFFFF
310
FFFFFFFFFFFFFFFFFFFFFFFFFFFFFFFFFFFFFFFFFFFFFFFFFFFFFFFFFFFFFFFF
310
FFFFFFFFFFFFFFFFFFFFFFFFFFFFFFFFFFFFFFFFFFFFFFFFFFFFFFFFFFFFFFFF
310
F000FFFFFFFFFFFFFFFFFFFFFFFFFFFFFFFFFFFFFFFFFFFFFFFFFFFFFFFFFFFF
310
FFFFFFFFFFFFFFFFFFFFFFFFFFFFFFFFFFFFFFFFFFFFFFFFFFFFFFFFFFFFFFFF
310
FFFFFFFFFFFFFFFFFFFFFFFFFFFFFFFFFFFFFFFFFFFFFFFFF000FFFFFFFFFFFF
310
FFFFFFFFFFFFFFFFFFFFFFFFFFFFFFFFFFFFFFFFFFFFFFFFFFFFFFFFFFFFFFFF
310
FFFFFFFFFFFFFFFFFFFFFFFFFFFFFFFFFFFFFFFFFFFFFFFFFFFFFFFFFFFFFFFF
310
FFFFFFFFFFFFFFFFFFFFFFFFFFFFFFFFF000FFFFFFFFFFFFFFFFFFFFFFFFFFFF
310
FFFFFFFFFFFFFFFFFFFFFFFFFFFFFFFFFFFFFFFFFFFFFFFFFFFFFFFFFFFFFFFF
310
FFFFFFFFFFFFFFFFFFFFFFFFFFFFFFFFFFFFFFFFFFFFFFFFFFFFFFFFFFFFFFFF
310
FFFFFFFFFFFFFFFFF000FFFFFFFFFFFFFFFFFFFFFFFFFFFFFFFFFFFFFFFFFFFF
310
FFFFFFFFFFFFFFFFFFFFFFFFFFFFFFFFFFFFFFFFFFFFFFFFFFFFFFFFFFFFFFFF
310
FFFFFFFFFFFFFFFFFFFFFFFFFFFFFFFFFFFFFFFFFFFFFFFFFFFFFFFFFFFFFFFF
310
F000FFFFFFFFFFFFFFFFFFFFFFFFFFFFFFFFFFFFFFFFFFFFFFFFFFFFFFFFFFFF
310
FFFFFFFFFFFFFFFFFFFFFFFFFFFFFFFFFFFFFFFFFFFFFFFFFFFFFFFFFFFFFFFF
310
FFFFFFFFFFFFFFFFFFFFFFFFFFFFFFFFFFFFFFFFFFFFFFFFF000FFFFFFFFFFFF
310
FFFFFFFFFFFFFFFFFFFFFFFFFFFFFFFFFFFFFFFFFFFFFFFFFFFFFFFFFFFFFFFF
310
FFFFFFFFFFFFFFFFFFFFFFFFFFFFFFFFFFFFFFFFFFFFFFFFFFFFFFFFFFFFFFFF
310
FFFFFFFFFFFFFFFFFFFFFFFFFFFFFFFFF000FFFFFFFFFFFFFFFFFFFFFFFFFFFF
310
FFFFFFFFFFFFFFFFFFFFFFFFFFFFFFFFFFFFFFFFFFFFFFFFFFFFFFFFFFFFFFFF
310
FFFFFFFFFFFFFFFFFFFFFFFFFFFFFFFFFFFFFFFFFFFFFFFFFFFFFFFFFFFFFFFF
310
FFFFFFFFFFFFFFFFF000FFFFFFFFFFFFFFFFFFFFFFFFFFFFFFFFFFFFFFFFFFFF
310
FFFFFFFFFFFFFFFFFFFFFFFFFFFFFFFFFFFFFFFFFFFFFFFFFFFFFFFFFFFFFFFF
310
FFFFFFFFFFFFFFFFFFFFFFFFFFFFFFFFFFFFFFFFFFFFFFFFFFFFFFFFFFFFFFFF
310
F000FFFFFFFFFFFFFFFFFFFFFFFFFFFFFFFFFFFFFFFFFFFFFFFFFFFFFFFFFFFF
310
FFFFFFFFFFFFFFFFFFFFFFFFFFFFFFFFFFFFFFFFFFFFFFFFFFFFFFFFFFFFFFFF
310
FFFFFFFFFFFFFFFFFFFFFFFFFFFFFFFFFFFFFFFFFFFFFFFFF000FFFFFFFFFFFF
310
FFFFFFFFFFFFFFFFFFFFFFFFFFFFFFFFFFFFFFFFFFFFFFFFFFFFFFFFFFFFFFFF
310
FFFFFFFFFFFFFFFFFFFFFFFFFFFFFFFFFFFFFFFFFFFFFFFFFFFFFFFFFFFFFFFF
310
FFFFFFFFFFFFFFFFFFFFFFFFFFFFFFFFF000FFFFFFFFFFFFFFFFFFFFFFFFFFFF
310
FFFFFFFFFFFFFFFFFFFFFFFFFFFFFFFFFFFFFFFFFFFFFFFFFFFFFFFFFFFFFFFF
310
FFFFFFFFFFFFFFFFFFFFFFFFFFFFFFFFFFFFFFFFFFFFFFFFFFFFFFFFFFFFFFFF
310
FFFFFFFFFFFFFFFFF000FFFFFFFFFFFFFFFFFFFFFFFFFFFFFFFFFFFFFFFFFFFF
310
FFFFFFFFFFFFFFFFFFFFFFFFFFFFFFFFFFFFFFFFFFFFFFFFFFFFFFFFFFFFFFFF
310
FFFFFFFFFFFFFFFFFFFFFFFFFFFFFFFFFFFFFFFFFFFFFFFFFFFFFFFFFFFFFFFF
310
F000FFFFFFFFFFFFFFFFFFFFFFFFFFFFFFFFFFFFFFFFFFFFFFFFFFFFFFFFFFFF
310
FFFFFFFFFFFFFFFFFFFFFFFFFFFFFFFFFFFFFFFFFFFFFFFFFFFFFFFFFFFFFFFF
310
FFFFFFFFFFFFFFFFFFFFFFFFFFFFFFFFFFFFFFFFFFFFFFFFF000FFFFFFFFFFFF
310
FFFFFFFFFFFFFFFFFFFFFFFFFFFFFFFFFFFFFFFFFFFFFFFFFFFFFFFFFFFFFFFF
310
FFFFFFFFFFFFFFFFFFFFFFFFFFFFFFFFFFFFFFFFFFFFFFFFFFFFFFFFFFFFFFFF
310
FFFFFFFFFFFFFFFFFFFFFFFFFFFFFFFFF000FFFFFFFFFFFFFFFFFFFFFFFFFFFF
310
FFFFFFFFFFFFFFFFFFFFFFFFFFFFFFFFFFFFFFFFFFFFFFFFFFFFFFFFFFFFFFFF
310
FFFFFFFFFFFFFFFFFFFFFFFFFFFFFFFFFFFFFFFFFFFFFFFFFFFFFFFFFFFFFFFF
310
FFFFFFFFFFFFFFFFF000FFFFFFFFFFFFFFFFFFFFFFFFFFFFFFFFFFFFFFFFFFFF
310
FFFFFFFFFFFFFFFFFFFFFFFFFFFFFFFFFFFFFFFFFFFFFFFFFFFFFFFFFFFFFFFF
310
FFFFFFFFFFFFFFFFFFFFFFFFFFFFFFFFFFFFFFFFFFFFFFFFFFFFFFFFFFFFFFFF
310
F000FFFFFFFFFFFFFFFFFFFFFFFFFFFFFFFFFFFFFFFFFFFFFFFFFFFFFFFFFFFF
310
FFFFFFFFFFFFFFFFFFFFFFFFFFFFFFFFFFFFFFFFFFFFFFFFFFFFFFFFFFFFFFFF
310
FFFFFFFFFFFFFFFFFFFFFFFFFFFFFFFFFFFFFFFFFFFFFFFFF000FFFFFFFFFFFF
310
FFFFFFFFFFFFFFFFFFFFFFFFFFFFFFFFFFFFFFFFFFFFFFFFFFFFFFFFFFFFFFFF
310
FFFFFFFFFFFFFFFFFFFFFFFFFFFFFFFFFFFFFFFFFFFFFFFFFFFFFFFFFFFFFFFF
310
FFFFFFFFFFFFFFFFFFFFFFFFFFFFFFFFF000FFFFFFFFFFFFFFFFFFFFFFFFFFFF
310
FFFFFFFFFFFFFFFFFFFFFFFFFFFFFFFFFFFFFFFFFFFFFFFFFFFFFFFFFFFFFFFF
310
FFFFFFFFFFFFFFFFFFFFFFFFFFFFFFFFFFFFFFFFFFFFFFFFFFFFFFFFFFFFFFFF
310
FFFFFFFFFFFFFFFFF000FFFFFFFFFFFFFFFFFFFFFFFFFFFFFFFFFFFFFFFFFFFF
310
FFFFFFFFFFFFFFFFFFFFFFFFFFFFFFFFFFFFFFFFFFFFFFFFFFFFFFFFFFFFFFFF
310
FFFFFFFFFFFFFFFFFFFFFFFFFFFFFFFFFFFFFFFFFFFFFFFFFFFFFFFFFFFFFFFF
310
F000FFFFFFFFFFFFFFFFFFFFFFFFFFFFFFFFFFFFFFFFFFFFFFFFFFFFFFFFFFFF
310
FFFFFFFFFFFFFFFFFFFFFFFFFFFFFFFFFFFFFFFFFFFFFFFFFFFFFFFFFFFFFFFF
310
FFFFFFFFFFFFFFFFFFFFFFFFFFFFFFFFFFFFFFFFFFFFFFFFF000FFFFFFFFFFFF
310
FFFFFFFFFFFFFFFFFFFFFFFFFFFFFFFFFFFFFFFFFFFFFFFFFFFFFFFFFFFFFFFF
310
FFFFFFFFFFFFFFFFFFFFFFFFFFFFFFFFFFFFFFFFFFFFFFFFFFFFFFFFFFFFFFFF
310
FFFFFFFFFFFFFFFFFFFFFFFFFFFFFFFFF0000000000000000000000000000000
310
0000000000000000000000000000000000000000000000000000000000000000
310
0000000000000000000000000000000000000000000000000000000000000000
310
0000000000000000000000000000000000000000000000000000000000000000
310
0000000000000000000000000000000000000000000000000000000000000000
310
0000000000000000000000000000000000000000000000000000000000000000
310
0000000000000000000000000000000000000000000000000000000000000000
310
0000000000000000000000000000000000000000000000000000000000000000
310
0000000000000000000000000000000000000000000000000000000000000000
310
0000000000000000000000000000000000000000000000000000000000000000
310
0000000000000000000000000000000000000000000000000000000000000000
310
0000000000000000000000000000000000000000000000000000000000000000
310
0000000000000000000000000000000000000000000000000000000000000000
310
0000000000000000000000000000000000000000000000000000000000000000
310
0000000000000000000000000000000000000000000000000000000000000000
310
0000000000000000000000000000000000000000000000000000000000000000
  1
OLE
  0
ENDSEC
  0
SECTION
  2
OBJECTS
  0
DICTIONARY
  5
C
330
0
100
AcDbDictionary
281
     1
  3
ACAD_GROUP
350
D
  3
ACAD_LAYOUT
350
1A
  3
ACAD_MLINESTYLE
350
17
  3
ACAD_PLOTSETTINGS
350
19
  3
ACAD_PLOTSTYLENAME
350
E
  3
ACAD_SCALELIST
350
47
  0
DICTIONARY
  5
D
102
{ACAD_REACTORS
330
C
102
}
330
C
100
AcDbDictionary
281
     1
  0
DICTIONARY
  5
1A
102
{ACAD_REACTORS
330
C
102
}
330
C
100
AcDbDictionary
281
     1
  3
Layout1
350
1E
  3
Layout2
350
26
  3
Model
350
22
  0
DICTIONARY
  5
17
102
{ACAD_REACTORS
330
C
102
}
330
C
100
AcDbDictionary
281
     1
  3
Standard
350
18
  0
DICTIONARY
  5
19
102
{ACAD_REACTORS
330
C
102
}
330
C
100
AcDbDictionary
281
     1
  0
ACDBDICTIONARYWDFLT
  5
E
102
{ACAD_REACTORS
330
C
102
}
330
C
100
AcDbDictionary
281
     1
  3
Normal
350
F
100
AcDbDictionaryWithDefault
340
F
  0
DICTIONARY
  5
47
102
{ACAD_REACTORS
330
C
102
}
330
C
100
AcDbDictionary
281
     1
  3
A0
350
48
  3
A1
350
49
  3
A2
350
4A
  3
A3
350
4B
  3
A4
350
4C
  3
A5
350
4D
  3
A6
350
4E
  3
A7
350
4F
  3
A8
350
50
  3
A9
350
51
  3
B0
350
52
  3
B1
350
53
  3
B2
350
54
  3
B3
350
55
  3
B4
350
56
  3
B5
350
57
  3
B6
350
58
  3
B7
350
59
  3
B8
350
5A
  3
B9
350
5B
  3
C0
350
5C
  3
C1
350
5D
  3
C2
350
5E
  3
C3
350
5F
  3
C4
350
60
  3
C5
350
61
  3
C6
350
62
  3
C7
350
63
  3
C8
350
64
  3
C9
350
65
  3
D0
350
66
  3
D1
350
67
  3
D2
350
68
  0
LAYOUT
  5
1E
102
{ACAD_REACTORS
330
1A
102
}
330
1A
100
AcDbPlotSettings
  1

  2
none_device
  4

  6

 40
0.0
 41
0.0
 42
0.0
 43
0.0
 44
0.0
 45
0.0
 46
0.0
 47
0.0
 48
0.0
 49
0.0
140
0.0
141
0.0
142
1.0
143
1.0
 70
   688
 72
     1
 73
     0
 74
     5
  7

 75
    16
147
1.0
148
0.0
149
0.0
100
AcDbLayout
  1
Layout1
 70
     1
 71
     1
 10
0.0
 20
0.0
 11
420.0
 21
297.0
 12
0.0
 22
0.0
 32
0.0
 14
1.0000000000E+20
 24
1.0000000000E+20
 34
1.0000000000E+20
 15
-1.0000000000E+20
 25
-1.0000000000E+20
 35
-1.0000000000E+20
146
0.0
 13
0.0
 23
0.0
 33
0.0
 16
1.0
 26
0.0
 36
0.0
 17
0.0
 27
1.0
 37
0.0
 76
     0
330
1B
  0
LAYOUT
  5
26
102
{ACAD_REACTORS
330
1A
102
}
330
1A
100
AcDbPlotSettings
  1

  2
none_device
  4

  6

 40
0.0
 41
0.0
 42
0.0
 43
0.0
 44
0.0
 45
0.0
 46
0.0
 47
0.0
 48
0.0
 49
0.0
140
0.0
141
0.0
142
1.0
143
1.0
 70
   688
 72
     1
 73
     0
 74
     5
  7

 75
    16
147
1.0
148
0.0
149
0.0
100
AcDbLayout
  1
Layout2
 70
     1
 71
     2
 10
0.0
 20
0.0
 11
0.0
 21
0.0
 12
0.0
 22
0.0
 32
0.0
 14
0.0
 24
0.0
 34
0.0
 15
0.0
 25
0.0
 35
0.0
146
0.0
 13
0.0
 23
0.0
 33
0.0
 16
1.0
 26
0.0
 36
0.0
 17
0.0
 27
1.0
 37
0.0
 76
     0
330
23
  0
LAYOUT
  5
22
102
{ACAD_REACTORS
330
1A
102
}
330
1A
100
AcDbPlotSettings
  1

  2
none_device
  4
Letter_(8.50_x_11.00_Inches)
  6

 40
6.35
 41
6.35
 42
6.35000508
 43
6.35000508
 44
215.9
 45
279.4
 46
0.0
 47
0.0
 48
0.0
 49
0.0
140
0.0
141
0.0
142
1.0
143
1.0
 70
  1712
 72
     1
 73
     0
 74
     0
  7

 75
     0
147
1.0
148
0.0
149
0.0
100
AcDbLayout
  1
Model
 70
     1
 71
     0
 10
0.0
 20
0.0
 11
297.0
 21
210.0
 12
0.0
 22
0.0
 32
0.0
 14
0.0
 24
0.0
 34
0.0
 15
297.0
 25
210.0
 35
0.0
146
0.0
 13
0.0
 23
0.0
 33
0.0
 16
1.0
 26
0.0
 36
0.0
 17
0.0
 27
1.0
 37
0.0
 76
     0
330
1F
331
29
  0
MLINESTYLE
  5
18
102
{ACAD_REACTORS
330
17
102
}
330
17
100
AcDbMlineStyle
  2
Standard
 70
     0
  3

 62
   256
 51
90.0
 52
90.0
 71
     2
 49
0.5
 62
   256
  6
BYLAYER
 49
-0.5
 62
   256
  6
BYLAYER
  0
ACDBPLACEHOLDER
  5
F
102
{ACAD_REACTORS
330
E
102
}
330
E
  0
SCALE
  5
48
102
{ACAD_REACTORS
330
47
102
}
330
47
100
AcDbScale
 70
     0
300
1:1
140
1.0
141
1.0
290
     1
  0
SCALE
  5
49
102
{ACAD_REACTORS
330
47
102
}
330
47
100
AcDbScale
 70
     0
300
1:2
140
1.0
141
2.0
290
     0
  0
SCALE
  5
4A
102
{ACAD_REACTORS
330
47
102
}
330
47
100
AcDbScale
 70
     0
300
1:4
140
1.0
141
4.0
290
     0
  0
SCALE
  5
4B
102
{ACAD_REACTORS
330
47
102
}
330
47
100
AcDbScale
 70
     0
300
1:5
140
1.0
141
5.0
290
     0
  0
SCALE
  5
4C
102
{ACAD_REACTORS
330
47
102
}
330
47
100
AcDbScale
 70
     0
300
1:8
140
1.0
141
8.0
290
     0
  0
SCALE
  5
4D
102
{ACAD_REACTORS
330
47
102
}
330
47
100
AcDbScale
 70
     0
300
1:10
140
1.0
141
10.0
290
     0
  0
SCALE
  5
4E
102
{ACAD_REACTORS
330
47
102
}
330
47
100
AcDbScale
 70
     0
300
1:16
140
1.0
141
16.0
290
     0
  0
SCALE
  5
4F
102
{ACAD_REACTORS
330
47
102
}
330
47
100
AcDbScale
 70
     0
300
1:20
140
1.0
141
20.0
290
     0
  0
SCALE
  5
50
102
{ACAD_REACTORS
330
47
102
}
330
47
100
AcDbScale
 70
     0
300
1:30
140
1.0
141
30.0
290
     0
  0
SCALE
  5
51
102
{ACAD_REACTORS
330
47
102
}
330
47
100
AcDbScale
 70
     0
300
1:40
140
1.0
141
40.0
290
     0
  0
SCALE
  5
52
102
{ACAD_REACTORS
330
47
102
}
330
47
100
AcDbScale
 70
     0
300
1:50
140
1.0
141
50.0
290
     0
  0
SCALE
  5
53
102
{ACAD_REACTORS
330
47
102
}
330
47
100
AcDbScale
 70
     0
300
1:100
140
1.0
141
100.0
290
     0
  0
SCALE
  5
54
102
{ACAD_REACTORS
330
47
102
}
330
47
100
AcDbScale
 70
     0
300
2:1
140
2.0
141
1.0
290
     0
  0
SCALE
  5
55
102
{ACAD_REACTORS
330
47
102
}
330
47
100
AcDbScale
 70
     0
300
4:1
140
4.0
141
1.0
290
     0
  0
SCALE
  5
56
102
{ACAD_REACTORS
330
47
102
}
330
47
100
AcDbScale
 70
     0
300
8:1
140
8.0
141
1.0
290
     0
  0
SCALE
  5
57
102
{ACAD_REACTORS
330
47
102
}
330
47
100
AcDbScale
 70
     0
300
10:1
140
10.0
141
1.0
290
     0
  0
SCALE
  5
58
102
{ACAD_REACTORS
330
47
102
}
330
47
100
AcDbScale
 70
     0
300
100:1
140
100.0
141
1.0
290
     0
  0
SCALE
  5
59
102
{ACAD_REACTORS
330
47
102
}
330
47
100
AcDbScale
 70
     0
300
1/128" = 1'-0"
140
0.0078125
141
12.0
290
     0
  0
SCALE
  5
5A
102
{ACAD_REACTORS
330
47
102
}
330
47
100
AcDbScale
 70
     0
300
1/64" = 1'-0"
140
0.015625
141
12.0
290
     0
  0
SCALE
  5
5B
102
{ACAD_REACTORS
330
47
102
}
330
47
100
AcDbScale
 70
     0
300
1/32" = 1'-0"
140
0.03125
141
12.0
290
     0
  0
SCALE
  5
5C
102
{ACAD_REACTORS
330
47
102
}
330
47
100
AcDbScale
 70
     0
300
1/16" = 1'-0"
140
0.0625
141
12.0
290
     0
  0
SCALE
  5
5D
102
{ACAD_REACTORS
330
47
102
}
330
47
100
AcDbScale
 70
     0
300
3/32" = 1'-0"
140
0.09375
141
12.0
290
     0
  0
SCALE
  5
5E
102
{ACAD_REACTORS
330
47
102
}
330
47
100
AcDbScale
 70
     0
300
1/8" = 1'-0"
140
0.125
141
12.0
290
     0
  0
SCALE
  5
5F
102
{ACAD_REACTORS
330
47
102
}
330
47
100
AcDbScale
 70
     0
300
3/16" = 1'-0"
140
0.1875
141
12.0
290
     0
  0
SCALE
  5
60
102
{ACAD_REACTORS
330
47
102
}
330
47
100
AcDbScale
 70
     0
300
1/4" = 1'-0"
140
0.25
141
12.0
290
     0
  0
SCALE
  5
61
102
{ACAD_REACTORS
330
47
102
}
330
47
100
AcDbScale
 70
     0
300
3/8" = 1'-0"
140
0.375
141
12.0
290
     0
  0
SCALE
  5
62
102
{ACAD_REACTORS
330
47
102
}
330
47
100
AcDbScale
 70
     0
300
1/2" = 1'-0"
140
0.5
141
12.0
290
     0
  0
SCALE
  5
63
102
{ACAD_REACTORS
330
47
102
}
330
47
100
AcDbScale
 70
     0
300
3/4" = 1'-0"
140
0.75
141
12.0
290
     0
  0
SCALE
  5
64
102
{ACAD_REACTORS
330
47
102
}
330
47
100
AcDbScale
 70
     0
300
1" = 1'-0"
140
1.0
141
12.0
290
     0
  0
SCALE
  5
65
102
{ACAD_REACTORS
330
47
102
}
330
47
100
AcDbScale
 70
     0
300
1-1/2" = 1'-0"
140
1.5
141
12.0
290
     0
  0
SCALE
  5
66
102
{ACAD_REACTORS
330
47
102
}
330
47
100
AcDbScale
 70
     0
300
3" = 1'-0"
140
3.0
141
12.0
290
     0
  0
SCALE
  5
67
102
{ACAD_REACTORS
330
47
102
}
330
47
100
AcDbScale
 70
     0
300
6" = 1'-0"
140
6.0
141
12.0
290
     0
  0
SCALE
  5
68
102
{ACAD_REACTORS
330
47
102
}
330
47
100
AcDbScale
 70
     0
300
1'-0" = 1'-0"
140
12.0
141
12.0
290
     0
  0
ENDSEC
  0
EOF
