  0
SECTION
  2
HEADER
  9
$ACADVER
  1
AC1015
  9
$ACADMAINTVER
 70
     6
  9
$DWGCODEPAGE
  3
ANSI_1252
  9
$INSBASE
 10
0.0
 20
0.0
 30
0.0
  9
$EXTMIN
 10
0.0
 20
0.0
 30
0.0
  9
$EXTMAX
 10
297.0
 20
210.0
 30
0.0
  9
$LIMMIN
 10
0.0
 20
0.0
  9
$LIMMAX
 10
297.0
 20
210.0
  9
$ORTHOMODE
 70
     0
  9
$REGENMODE
 70
     1
  9
$FILLMODE
 70
     1
  9
$QTEXTMODE
 70
     0
  9
$MIRRTEXT
 70
     1
  9
$LTSCALE
 40
1.0
  9
$ATTMODE
 70
     1
  9
$TEXTSIZE
 40
2.0
  9
$TRACEWID
 40
1.0
  9
$TEXTSTYLE
  7
Standard
  9
$CLAYER
  8
0
  9
$CELTYPE
  6
ByLayer
  9
$CECOLOR
 62
   256
  9
$CELTSCALE
 40
1.0
  9
$DISPSILH
 70
     0
  9
$DIMSCALE
 40
1.0
  9
$DIMASZ
 40
3.0
  9
$DIMEXO
 40
0.0
  9
$DIMDLI
 40
3.75
  9
$DIMRND
 40
0.0
  9
$DIMDLE
 40
0.0
  9
$DIMEXE
 40
1.0
  9
$DIMTP
 40
0.0
  9
$DIMTM
 40
0.0
  9
$DIMTXT
 40
2.0
  9
$DIMCEN
 40
2.5
  9
$DIMTSZ
 40
0.0
  9
$DIMTOL
 70
     0
  9
$DIMLIM
 70
     0
  9
$DIMTIH
 70
     1
  9
$DIMTOH
 70
     1
  9
$DIMSE1
 70
     0
  9
$DIMSE2
 70
     0
  9
$DIMTAD
 70
     1
  9
$DIMZIN
 70
     0
  9
$DIMBLK
  1

  9
$DIMASO
 70
     1
  9
$DIMSHO
 70
     1
  9
$DIMPOST
  1

  9
$DIMAPOST
  1

  9
$DIMALT
 70
     0
  9
$DIMALTD
 70
     3
  9
$DIMALTF
 40
0.0393700787
  9
$DIMLFAC
 40
1.0
  9
$DIMTOFL
 70
     1
  9
$DIMTVP
 40
0.0
  9
$DIMTIX
 70
     0
  9
$DIMSOXD
 70
     0
  9
$DIMSAH
 70
     0
  9
$DIMBLK1
  1

  9
$DIMBLK2
  1

  9
$DIMSTYLE
  2
ISO-25
  9
$DIMCLRD
 70
     0
  9
$DIMCLRE
 70
     0
  9
$DIMCLRT
 70
     0
  9
$DIMTFAC
 40
1.0
  9
$DIMGAP
 40
1.524
  9
$DIMJUST
 70
     0
  9
$DIMSD1
 70
     0
  9
$DIMSD2
 70
     0
  9
$DIMTOLJ
 70
     0
  9
$DIMTZIN
 70
     0
  9
$DIMALTZ
 70
     0
  9
$DIMALTTZ
 70
     0
  9
$DIMUPT
 70
     0
  9
$DIMDEC
 70
     2
  9
$DIMTDEC
 70
     3
  9
$DIMALTU
 70
     2
  9
$DIMALTTD
 70
     3
  9
$DIMTXSTY
  7
Standard
  9
$DIMAUNIT
 70
     0
  9
$DIMADEC
 70
     2
  9
$DIMALTRND
 40
0.0
  9
$DIMAZIN
 70
     0
  9
$DIMDSEP
 70
    44
  9
$DIMATFIT
 70
     3
  9
$DIMFRAC
 70
     0
  9
$DIMLDRBLK
  1

  9
$DIMLUNIT
 70
     2
  9
$DIMLWD
 70
    -2
  9
$DIMLWE
 70
    -2
  9
$DIMTMOVE
 70
     0
  9
$LUNITS
 70
     2
  9
$LUPREC
 70
     2
  9
$SKETCHINC
 40
1.0
  9
$FILLETRAD
 40
10.0
  9
$AUNITS
 70
     0
  9
$AUPREC
 70
     2
  9
$MENU
  1
.
  9
$ELEVATION
 40
0.0
  9
$PELEVATION
 40
0.0
  9
$THICKNESS
 40
0.0
  9
$LIMCHECK
 70
     0
  9
$CHAMFERA
 40
0.0
  9
$CHAMFERB
 40
0.0
  9
$CHAMFERC
 40
0.0
  9
$CHAMFERD
 40
0.0
  9
$SKPOLY
 70
     0
  9
$TDCREATE
 40
2457627.611289155
  9
$TDUCREATE
 40
2457627.527955822
  9
$TDUPDATE
 40
2457627.611290393
  9
$TDUUPDATE
 40
2457627.52795706
  9
$TDINDWG
 40
0.0000000116
  9
$TDUSRTIMER
 40
0.0000000116
  9
$USRTIMER
 70
     1
  9
$ANGBASE
 50
0.0
  9
$ANGDIR
 70
     0
  9
$PDMODE
 70
     0
  9
$PDSIZE
 40
-1.0
  9
$PLINEWID
 40
0.0
  9
$SPLFRAME
 70
     0
  9
$SPLINETYPE
 70
     6
  9
$SPLINESEGS
 70
     8
  9
$HANDSEED
  5
28F
  9
$SURFTAB1
 70
     6
  9
$SURFTAB2
 70
     6
  9
$SURFTYPE
 70
     6
  9
$SURFU
 70
     6
  9
$SURFV
 70
     6
  9
$UCSBASE
  2

  9
$UCSNAME
  2

  9
$UCSORG
 10
0.0
 20
0.0
 30
0.0
  9
$UCSXDIR
 10
1.0
 20
0.0
 30
0.0
  9
$UCSYDIR
 10
0.0
 20
1.0
 30
0.0
  9
$UCSORTHOREF
  2

  9
$UCSORTHOVIEW
 70
     0
  9
$UCSORGTOP
 10
0.0
 20
0.0
 30
0.0
  9
$UCSORGBOTTOM
 10
0.0
 20
0.0
 30
0.0
  9
$UCSORGLEFT
 10
0.0
 20
0.0
 30
0.0
  9
$UCSORGRIGHT
 10
0.0
 20
0.0
 30
0.0
  9
$UCSORGFRONT
 10
0.0
 20
0.0
 30
0.0
  9
$UCSORGBACK
 10
0.0
 20
0.0
 30
0.0
  9
$PUCSBASE
  2

  9
$PUCSNAME
  2

  9
$PUCSORG
 10
0.0
 20
0.0
 30
0.0
  9
$PUCSXDIR
 10
1.0
 20
0.0
 30
0.0
  9
$PUCSYDIR
 10
0.0
 20
1.0
 30
0.0
  9
$PUCSORTHOREF
  2

  9
$PUCSORTHOVIEW
 70
     0
  9
$PUCSORGTOP
 10
0.0
 20
0.0
 30
0.0
  9
$PUCSORGBOTTOM
 10
0.0
 20
0.0
 30
0.0
  9
$PUCSORGLEFT
 10
0.0
 20
0.0
 30
0.0
  9
$PUCSORGRIGHT
 10
0.0
 20
0.0
 30
0.0
  9
$PUCSORGFRONT
 10
0.0
 20
0.0
 30
0.0
  9
$PUCSORGBACK
 10
0.0
 20
0.0
 30
0.0
  9
$USERI1
 70
     0
  9
$USERI2
 70
     0
  9
$USERI3
 70
     0
  9
$USERI4
 70
     0
  9
$USERI5
 70
     0
  9
$USERR1
 40
0.0
  9
$USERR2
 40
0.0
  9
$USERR3
 40
0.0
  9
$USERR4
 40
0.0
  9
$USERR5
 40
0.0
  9
$WORLDVIEW
 70
     1
  9
$SHADEDGE
 70
     3
  9
$SHADEDIF
 70
    70
  9
$TILEMODE
 70
     1
  9
$MAXACTVP
 70
    64
  9
$PINSBASE
 10
0.0
 20
0.0
 30
0.0
  9
$PLIMCHECK
 70
     0
  9
$PEXTMIN
 10
1.0000000000E+20
 20
1.0000000000E+20
 30
1.0000000000E+20
  9
$PEXTMAX
 10
-1.0000000000E+20
 20
-1.0000000000E+20
 30
-1.0000000000E+20
  9
$PLIMMIN
 10
0.0
 20
0.0
  9
$PLIMMAX
 10
420.0
 20
297.0
  9
$UNITMODE
 70
     0
  9
$VISRETAIN
 70
     1
  9
$PLINEGEN
 70
     0
  9
$PSLTSCALE
 70
     1
  9
$TREEDEPTH
 70
  3020
  9
$CMLSTYLE
  2
Standard
  9
$CMLJUST
 70
     0
  9
$CMLSCALE
 40
20.0
  9
$PROXYGRAPHICS
 70
     1
  9
$MEASUREMENT
 70
     1
  9
$CELWEIGHT
370
    -1
  9
$ENDCAPS
280
     0
  9
$JOINSTYLE
280
     0
  9
$LWDISPLAY
290
     1
  9
$INSUNITS
 70
     4
  9
$HYPERLINKBASE
  1

  9
$STYLESHEET
  1

  9
$XEDIT
290
     1
  9
$CEPSNTYPE
380
     0
  9
$PSTYLEMODE
290
     1
  9
$FINGERPRINTGUID
  2
{646B0F44-8A27-4A8A-A829-7D554CECA6A7}
  9
$VERSIONGUID
  2
{FAEB1C32-E019-11D5-929B-00C0DF256EC4}
  9
$EXTNAMES
290
     1
  9
$PSVPSCALE
 40
0.0
  9
$OLESTARTUP
290
     0
  0
ENDSEC
  0
SECTION
  2
CLASSES
  0
CLASS
  1
ACDBDICTIONARYWDFLT
  2
AcDbDictionaryWithDefault
  3
ObjectDBX Classes
 90
        0
280
     0
281
     0
  0
CLASS
  1
VISUALSTYLE
  2
AcDbVisualStyle
  3
ObjectDBX Classes
 90
     4095
280
     0
281
     0
  0
CLASS
  1
MATERIAL
  2
AcDbMaterial
  3
ObjectDBX Classes
 90
     1153
280
     0
281
     0
  0
CLASS
  1
SCALE
  2
AcDbScale
  3
ObjectDBX Classes
 90
     1153
280
     0
281
     0
  0
CLASS
  1
TABLESTYLE
  2
AcDbTableStyle
  3
ObjectDBX Classes
 90
     4095
280
     0
281
     0
  0
CLASS
  1
MLEADERSTYLE
  2
AcDbMLeaderStyle
  3
ACDB_MLEADERSTYLE_CLASS
 90
     4095
280
     0
281
     0
  0
CLASS
  1
SUN
  2
AcDbSun
  3
SCENEOE
 90
     1153
280
     0
281
     0
  0
CLASS
  1
ACDBPLACEHOLDER
  2
AcDbPlaceHolder
  3
ObjectDBX Classes
 90
        0
280
     0
281
     0
  0
CLASS
  1
LAYOUT
  2
AcDbLayout
  3
ObjectDBX Classes
 90
        0
280
     0
281
     0
  0
ENDSEC
  0
SECTION
  2
TABLES
  0
TABLE
  2
VPORT
  5
8
330
0
100
AcDbSymbolTable
 70
     1
  0
VPORT
  5
29
330
8
100
AcDbSymbolTableRecord
100
AcDbViewportTableRecord
  2
*Active
 70
     0
 10
0.0
 20
0.0
 11
1.0
 21
1.0
 12
148.5
 22
105.0
 13
0.0
 23
0.0
 14
10.0
 24
10.0
 15
10.0
 25
10.0
 16
0.0
 26
0.0
 36
1.0
 17
0.0
 27
0.0
 37
0.0
 40
210.0
 41
1.4142857143
 42
50.0
 43
0.0
 44
0.0
 50
0.0
 51
0.0
 71
     0
 72
  2000
 73
     1
 74
     3
 75
     0
 76
     0
 77
     0
 78
     0
281
     0
 65
     1
110
0.0
120
0.0
130
0.0
111
1.0
121
0.0
131
0.0
112
0.0
122
1.0
132
0.0
 79
     0
146
0.0
  0
ENDTAB
  0
TABLE
  2
LTYPE
  5
5
330
0
100
AcDbSymbolTable
 70
     6
  0
LTYPE
  5
14
330
5
100
AcDbSymbolTableRecord
100
AcDbLinetypeTableRecord
  2
ByBlock
 70
     0
  3

 72
    65
 73
     0
 40
0.0
  0
LTYPE
  5
15
330
5
100
AcDbSymbolTableRecord
100
AcDbLinetypeTableRecord
  2
ByLayer
 70
     0
  3

 72
    65
 73
     0
 40
0.0
  0
LTYPE
  5
16
330
5
100
AcDbSymbolTableRecord
100
AcDbLinetypeTableRecord
  2
Continuous
 70
     0
  3
Solid line
 72
    65
 73
     0
 40
0.0
  0
LTYPE
  5
6E
330
5
100
AcDbSymbolTableRecord
100
AcDbLinetypeTableRecord
  2
HIDDEN
 70
     0
  3
Hidden __ __ __ __ __ __ __ __ __ __ __ __ __ __
 72
    65
 73
     2
 40
1.905
 49
1.27
 74
     0
 49
-0.635
 74
     0
  0
LTYPE
  5
6F
330
5
100
AcDbSymbolTableRecord
100
AcDbLinetypeTableRecord
  2
PHANTOM
 70
     0
  3
Phantom ______  __  __  ______  __  __  ______
 72
    65
 73
     6
 40
12.7
 49
6.35
 74
     0
 49
-1.27
 74
     0
 49
1.27
 74
     0
 49
-1.27
 74
     0
 49
1.27
 74
     0
 49
-1.27
 74
     0
  0
LTYPE
  5
70
330
5
100
AcDbSymbolTableRecord
100
AcDbLinetypeTableRecord
  2
CENTER
 70
     0
  3
Center ____ _ ____ _ ____ _ ____ _ ____ _ ____
 72
    65
 73
     4
 40
10.16
 49
6.35
 74
     0
 49
-1.27
 74
     0
 49
1.27
 74
     0
 49
-1.27
 74
     0
  0
LTYPE
  5
71
330
5
100
AcDbSymbolTableRecord
100
AcDbLinetypeTableRecord
  2
CENTERX2
 70
     0
  3
Center (2x) ________  __  ________  __  _____
 72
    65
 73
     4
 40
20.32
 49
12.7
 74
     0
 49
-2.54
 74
     0
 49
2.54
 74
     0
 49
-2.54
 74
     0
  0
LTYPE
  5
72
330
5
100
AcDbSymbolTableRecord
100
AcDbLinetypeTableRecord
  2
DOT2
 70
     0
  3
Dot (.5x) ........................................
 72
    65
 73
     2
 40
0.635
 49
0.0
 74
     0
 49
-0.635
 74
     0
  0
ENDTAB
  0
TABLE
  2
LAYER
  5
2
330
0
100
AcDbSymbolTable
 70
     5
  0
LAYER
  5
10
330
2
100
AcDbSymbolTableRecord
100
AcDbLayerTableRecord
  2
0
 70
     0
 62
     7
  6
Continuous
370
    -3
390
F
  0
LAYER
  5
73
330
2
100
AcDbSymbolTableRecord
100
AcDbLayerTableRecord
  2
FORMAT
 70
     0
 62
     7
  6
Continuous
370
    -3
390
F
  0
LAYER
  5
74
330
2
100
AcDbSymbolTableRecord
100
AcDbLayerTableRecord
  2
VERMASSUNG
 70
     0
 62
     7
  6
Continuous
370
    -3
390
F
  0
LAYER
  5
75
330
2
100
AcDbSymbolTableRecord
100
AcDbLayerTableRecord
  2
KOPF_DÜNN
 70
     0
 62
     7
  6
Continuous
370
    -3
390
F
  0
LAYER
  5
76
330
2
100
AcDbSymbolTableRecord
100
AcDbLayerTableRecord
  2
KOPF_DICK
 70
     0
 62
     7
  6
Continuous
370
    15
390
F
  0
ENDTAB
  0
TABLE
  2
STYLE
  5
3
330
0
100
AcDbSymbolTable
 70
     2
  0
STYLE
  5
11
330
3
100
AcDbSymbolTableRecord
100
AcDbTextStyleTableRecord
  2
Standard
 70
     0
 40
0.0
 41
1.0
 50
0.0
 71
     0
 42
2.0
  3
txt
  4

  0
STYLE
  5
77
330
3
100
AcDbSymbolTableRecord
100
AcDbTextStyleTableRecord
  2
SLDTEXTSTYLE0
 70
     0
 40
0.0
 41
0.7
 50
0.0
 71
     0
 42
2.0
  3
TXT
  4

  0
ENDTAB
  0
TABLE
  2
VIEW
  5
6
330
0
100
AcDbSymbolTable
 70
     0
  0
ENDTAB
  0
TABLE
  2
UCS
  5
7
330
0
100
AcDbSymbolTable
 70
     0
  0
ENDTAB
  0
TABLE
  2
APPID
  5
9
330
0
100
AcDbSymbolTable
 70
     1
  0
APPID
  5
12
330
9
100
AcDbSymbolTableRecord
100
AcDbRegAppTableRecord
  2
ACAD
 70
     0
  0
ENDTAB
  0
TABLE
  2
DIMSTYLE
  5
A
330
0
100
AcDbSymbolTable
 70
     2
100
AcDbDimStyleTable
  0
DIMSTYLE
105
27
330
A
100
AcDbSymbolTableRecord
100
AcDbDimStyleTableRecord
  2
ISO-25
 70
     0
 41
2.5
 42
0.625
 43
3.75
 44
1.25
 73
     0
 74
     0
 77
     1
 78
     8
140
2.5
141
2.5
143
0.0393700787
147
0.625
171
     3
172
     1
178
     0
271
     2
272
     2
274
     3
278
    44
283
     0
284
     8
340
11
  0
DIMSTYLE
105
1E3
102
{ACAD_REACTORS
330
1E2
330
1F0
330
1FC
330
206
102
}
330
A
100
AcDbSymbolTableRecord
100
AcDbDimStyleTableRecord
  2
SLDDIMSTYLE0
 70
     0
 41
3.0
 44
0.0
 45
0.000000001
 73
     0
 74
     0
 77
     1
 78
    12
 79
     3
140
2.0
147
0.5
173
     1
178
     0
271
     2
272
     3
276
     2
284
    12
340
77
  0
ENDTAB
  0
TABLE
  2
BLOCK_RECORD
  5
1
330
0
100
AcDbSymbolTable
 70
     5
  0
BLOCK_RECORD
  5
1F
330
1
100
AcDbSymbolTableRecord
100
AcDbBlockTableRecord
  2
*Model_Space
340
22
  0
BLOCK_RECORD
  5
1B
330
1
100
AcDbSymbolTableRecord
100
AcDbBlockTableRecord
  2
*Paper_Space
340
1E
  0
BLOCK_RECORD
  5
23
330
1
100
AcDbSymbolTableRecord
100
AcDbBlockTableRecord
  2
*Paper_Space0
340
26
  0
BLOCK_RECORD
  5
1E4
330
1
100
AcDbSymbolTableRecord
100
AcDbBlockTableRecord
  2
_D
340
0
  0
BLOCK_RECORD
  5
1F1
330
1
100
AcDbSymbolTableRecord
100
AcDbBlockTableRecord
  2
_D_1
340
0
  0
BLOCK_RECORD
  5
1FD
330
1
100
AcDbSymbolTableRecord
100
AcDbBlockTableRecord
  2
_D_2
340
0
  0
BLOCK_RECORD
  5
207
330
1
100
AcDbSymbolTableRecord
100
AcDbBlockTableRecord
  2
_D_3
340
0
  0
ENDTAB
  0
ENDSEC
  0
SECTION
  2
BLOCKS
  0
BLOCK
  5
20
330
1F
100
AcDbEntity
  8
0
100
AcDbBlockBegin
  2
*Model_Space
 70
     0
 10
0.0
 20
0.0
 30
0.0
  3
*Model_Space
  1

  0
ENDBLK
  5
21
330
1F
100
AcDbEntity
  8
0
100
AcDbBlockEnd
  0
BLOCK
  5
1C
330
1B
100
AcDbEntity
 67
     1
  8
0
100
AcDbBlockBegin
  2
*Paper_Space
 70
     0
 10
0.0
 20
0.0
 30
0.0
  3
*Paper_Space
  1

  0
ENDBLK
  5
1D
330
1B
100
AcDbEntity
 67
     1
  8
0
100
AcDbBlockEnd
  0
BLOCK
  5
24
330
23
100
AcDbEntity
  8
0
100
AcDbBlockBegin
  2
*Paper_Space0
 70
     0
 10
0.0
 20
0.0
 30
0.0
  3
*Paper_Space0
  1

  0
ENDBLK
  5
25
330
23
100
AcDbEntity
  8
0
100
AcDbBlockEnd
  0
BLOCK
  5
1E5
330
1E4
100
AcDbEntity
  8
0
100
AcDbBlockBegin
  2
_D
 70
     0
 10
0.0
 20
0.0
 30
0.0
  3
_D
  1

  0
SOLID
  5
1E7
330
1E4
100
AcDbEntity
  8
VERMASSUNG
100
AcDbTrace
 10
71.5294172273
 20
79.844776364
 30
0.0
 11
71.9794172273
 21
82.844776364
 31
0.0
 12
71.0794172273
 22
82.844776364
 32
0.0
 13
71.0794172273
 23
82.844776364
 33
0.0
  0
SOLID
  5
1E8
330
1E4
100
AcDbEntity
  8
VERMASSUNG
100
AcDbTrace
 10
71.5294172273
 20
143.344776364
 30
0.0
 11
71.0794172273
 21
140.344776364
 31
0.0
 12
71.9794172273
 22
140.344776364
 32
0.0
 13
71.9794172273
 23
140.344776364
 33
0.0
  0
LINE
  5
1E9
330
1E4
100
AcDbEntity
  8
VERMASSUNG
100
AcDbLine
 10
166.2939156763
 20
79.844776364
 30
0.0
 11
70.5294172273
 21
79.844776364
 31
0.0
  0
LINE
  5
1EA
330
1E4
100
AcDbEntity
  8
VERMASSUNG
100
AcDbLine
 10
166.2939156763
 20
143.344776364
 30
0.0
 11
70.5294172273
 21
143.344776364
 31
0.0
  0
LINE
  5
1EB
330
1E4
100
AcDbEntity
  8
VERMASSUNG
100
AcDbLine
 10
71.5294172273
 20
79.844776364
 30
0.0
 11
71.5294172273
 21
143.344776364
 31
0.0
  0
MTEXT
  5
1EC
330
1E4
100
AcDbEntity
  8
VERMASSUNG
100
AcDbMText
 10
68.751281971
 20
102.1929184855
 30
0.0
 40
2.0
 41
0.0
 71
     1
 72
     1
  1
ISO 40
  7
SLDTEXTSTYLE0
 11
3.391901413832837E-15
 21
1.0
 31
0.0
 73
     1
 44
1.0
  0
MTEXT
  5
1ED
330
1E4
100
AcDbEntity
  8
VERMASSUNG
100
AcDbMText
 10
68.9512819223
 20
111.3929186897
 30
0.0
 40
2.0
 41
0.0
 71
     1
 72
     1
  1
%%c
  7
SLDTEXTSTYLE0
 11
3.391901413832837E-15
 21
1.0
 31
0.0
 73
     1
 44
1.0
  0
MTEXT
  5
1EE
330
1E4
100
AcDbEntity
  8
VERMASSUNG
100
AcDbMText
 10
68.9512816313
 20
115.0007990211
 30
0.0
 40
2.0
 41
0.0
 71
     1
 72
     1
  1
63.5
  7
SLDTEXTSTYLE0
 11
3.391901413832837E-15
 21
1.0
 31
0.0
 73
     1
 44
1.0
  0
MTEXT
  5
1EF
330
1E4
100
AcDbEntity
  8
VERMASSUNG
100
AcDbMText
 10
68.9512816313
 20
120.9862907821
 30
0.0
 40
2.0
 41
0.0
 71
     1
 72
     1
  1

  7
SLDTEXTSTYLE0
 11
3.391901413832837E-15
 21
1.0
 31
0.0
 73
     1
 44
1.0
  0
ENDBLK
  5
1E6
330
1E4
100
AcDbEntity
  8
0
100
AcDbBlockEnd
  0
BLOCK
  5
1F2
330
1F1
100
AcDbEntity
  8
0
100
AcDbBlockBegin
  2
_D_1
 70
     0
 10
0.0
 20
0.0
 30
0.0
  3
_D_1
  1

  0
ARC
  5
1F4
330
1F1
100
AcDbEntity
  8
VERMASSUNG
100
AcDbCircle
 10
151.1806844714
 20
171.8554547307
 30
0.0
 40
4.247059938537297
100
AcDbArc
 50
153.4349488229
 51
206.5650511771
  0
ARC
  5
1F5
330
1F1
100
AcDbEntity
  8
VERMASSUNG
100
AcDbCircle
 10
154.1571468812
 20
171.8554547307
 30
0.0
 40
4.247059938537297
100
AcDbArc
 50
333.4349488229
 51
26.5650511771
  0
SOLID
  5
1F6
330
1F1
100
AcDbEntity
  8
VERMASSUNG
100
AcDbTrace
 10
78.9939156763
 20
169.9561117853
 30
0.0
 11
81.9939156763
 21
169.5061117853
 31
0.0
 12
81.9939156763
 22
170.4061117853
 32
0.0
 13
81.9939156763
 23
170.4061117853
 33
0.0
  0
SOLID
  5
1F7
330
1F1
100
AcDbEntity
  8
VERMASSUNG
100
AcDbTrace
 10
226.3439156763
 20
169.9561117853
 30
0.0
 11
223.3439156763
 21
170.4061117853
 31
0.0
 12
223.3439156763
 22
169.5061117853
 32
0.0
 13
223.3439156763
 23
169.5061117853
 33
0.0
  0
LINE
  5
1F8
330
1F1
100
AcDbEntity
  8
VERMASSUNG
100
AcDbLine
 10
78.9939156763
 20
123.0019069611
 30
0.0
 11
78.9939156763
 21
170.9561117853
 31
0.0
  0
LINE
  5
1F9
330
1F1
100
AcDbEntity
  8
VERMASSUNG
100
AcDbLine
 10
226.3439156763
 20
157.694776364
 30
0.0
 11
226.3439156763
 21
170.9561117853
 31
0.0
  0
LINE
  5
1FA
330
1F1
100
AcDbEntity
  8
VERMASSUNG
100
AcDbLine
 10
78.9939156763
 20
169.9561117853
 30
0.0
 11
226.3439156763
 21
169.9561117853
 31
0.0
  0
MTEXT
  5
1FB
330
1F1
100
AcDbEntity
  8
VERMASSUNG
100
AcDbMText
 10
148.9694985805
 20
172.5342473813
 30
0.0
 40
2.0
 41
0.0
 71
     1
 72
     1
  1
147.35
  7
SLDTEXTSTYLE0
 73
     1
 44
1.0
  0
ENDBLK
  5
1F3
330
1F1
100
AcDbEntity
  8
0
100
AcDbBlockEnd
  0
BLOCK
  5
1FE
330
1FD
100
AcDbEntity
  8
0
100
AcDbBlockBegin
  2
_D_2
 70
     0
 10
0.0
 20
0.0
 30
0.0
  3
_D_2
  1

  0
SOLID
  5
200
330
1FD
100
AcDbEntity
  8
VERMASSUNG
100
AcDbTrace
 10
147.2439156763
 20
163.9561117853
 30
0.0
 11
150.2439156763
 21
163.5061117853
 31
0.0
 12
150.2439156763
 22
164.4061117853
 32
0.0
 13
150.2439156763
 23
164.4061117853
 33
0.0
  0
SOLID
  5
201
330
1FD
100
AcDbEntity
  8
VERMASSUNG
100
AcDbTrace
 10
226.3439156763
 20
163.9561117853
 30
0.0
 11
223.3439156763
 21
164.4061117853
 31
0.0
 12
223.3439156763
 22
163.5061117853
 32
0.0
 13
223.3439156763
 23
163.5061117853
 33
0.0
  0
LINE
  5
202
330
1FD
100
AcDbEntity
  8
VERMASSUNG
100
AcDbLine
 10
147.2439156763
 20
133.819776364
 30
0.0
 11
147.2439156763
 21
164.9561117853
 31
0.0
  0
LINE
  5
203
330
1FD
100
AcDbEntity
  8
VERMASSUNG
100
AcDbLine
 10
226.3439156763
 20
157.694776364
 30
0.0
 11
226.3439156763
 21
164.9561117853
 31
0.0
  0
LINE
  5
204
330
1FD
100
AcDbEntity
  8
VERMASSUNG
100
AcDbLine
 10
147.2439156763
 20
163.9561117853
 30
0.0
 11
226.3439156763
 21
163.9561117853
 31
0.0
  0
MTEXT
  5
205
330
1FD
100
AcDbEntity
  8
VERMASSUNG
100
AcDbMText
 10
184.5945603725
 20
166.5342473813
 30
0.0
 40
2.0
 41
0.0
 71
     1
 72
     1
  1
79.1
  7
SLDTEXTSTYLE0
 73
     1
 44
1.0
  0
ENDBLK
  5
1FF
330
1FD
100
AcDbEntity
  8
0
100
AcDbBlockEnd
  0
BLOCK
  5
208
330
207
100
AcDbEntity
  8
0
100
AcDbBlockBegin
  2
_D_3
 70
     0
 10
0.0
 20
0.0
 30
0.0
  3
_D_3
  1

  0
SOLID
  5
20A
330
207
100
AcDbEntity
  8
VERMASSUNG
100
AcDbTrace
 10
235.0794420804
 20
158.594776364
 30
0.0
 11
234.6294420804
 21
155.594776364
 31
0.0
 12
235.5294420804
 22
155.594776364
 32
0.0
 13
235.5294420804
 23
155.594776364
 33
0.0
  0
SOLID
  5
20B
330
207
100
AcDbEntity
  8
VERMASSUNG
100
AcDbTrace
 10
235.0794420804
 20
64.594776364
 30
0.0
 11
235.5294420804
 21
67.594776364
 31
0.0
 12
234.6294420804
 22
67.594776364
 32
0.0
 13
234.6294420804
 23
67.594776364
 33
0.0
  0
LINE
  5
20C
330
207
100
AcDbEntity
  8
VERMASSUNG
100
AcDbLine
 10
225.4439156763
 20
158.594776364
 30
0.0
 11
236.0794420804
 21
158.594776364
 31
0.0
  0
LINE
  5
20D
330
207
100
AcDbEntity
  8
VERMASSUNG
100
AcDbLine
 10
225.4439156763
 20
64.594776364
 30
0.0
 11
236.0794420804
 21
64.594776364
 31
0.0
  0
LINE
  5
20E
330
207
100
AcDbEntity
  8
VERMASSUNG
100
AcDbLine
 10
235.0794420804
 20
158.594776364
 30
0.0
 11
235.0794420804
 21
64.594776364
 31
0.0
  0
MTEXT
  5
20F
330
207
100
AcDbEntity
  8
VERMASSUNG
100
AcDbMText
 10
232.3013068242
 20
105.0897764247
 30
0.0
 40
2.0
 41
0.0
 71
     1
 72
     1
  1
MBM
  7
SLDTEXTSTYLE0
 11
-7.044195017643634E-15
 21
1.0
 31
0.0
 73
     1
 44
1.0
  0
MTEXT
  5
210
330
207
100
AcDbEntity
  8
VERMASSUNG
100
AcDbMText
 10
232.5013067755
 20
111.489776263
 30
0.0
 40
2.0
 41
0.0
 71
     1
 72
     1
  1
%%c
  7
SLDTEXTSTYLE0
 11
-7.044195017643634E-15
 21
1.0
 31
0.0
 73
     1
 44
1.0
  0
MTEXT
  5
211
330
207
100
AcDbEntity
  8
VERMASSUNG
100
AcDbMText
 10
232.3013068242
 20
115.099776743
 30
0.0
 40
2.0
 41
0.0
 71
     1
 72
     1
  1
94
  7
SLDTEXTSTYLE0
 11
-7.044195017643634E-15
 21
1.0
 31
0.0
 73
     1
 44
1.0
  0
ENDBLK
  5
209
330
207
100
AcDbEntity
  8
0
100
AcDbBlockEnd
  0
ENDSEC
  0
SECTION
  2
ENTITIES
  0
MTEXT
  5
78
330
1F
100
AcDbEntity
  8
KOPF_DÜNN
100
AcDbMText
 10
13.8892156294
 20
23.8442973028
 30
0.0
 40
3.0
 41
0.0
 71
     1
 72
     1
  1
102.425.941
  7
SLDTEXTSTYLE0
 73
     1
 44
1.0
  0
MTEXT
  5
79
330
1F
100
AcDbEntity
  8
VERMASSUNG
100
AcDbMText
 10
13.9329988022
 20
28.8834360957
 30
0.0
 40
3.0
 41
0.0
 71
     1
 72
     1
  1
Aufnahme_Master shank MBM 94
  7
SLDTEXTSTYLE0
 73
     1
 44
1.0
  0
MTEXT
  5
7A
330
1F
100
AcDbEntity
  8
VERMASSUNG
100
AcDbMText
 10
98.8601118557
 20
13.8365368761
 30
0.0
 40
2.0
 41
0.0
 71
     1
 72
     1
  1
Datum: 01.11.2007
  7
SLDTEXTSTYLE0
 73
     1
 44
1.0
  0
MTEXT
  5
7B
330
1F
100
AcDbEntity
  8
VERMASSUNG
100
AcDbMText
 10
13.933048693
 20
18.0482802738
 30
0.0
 40
2.0
 41
0.0
 71
     1
 72
     1
  1
DIN 69871 B 40
  7
SLDTEXTSTYLE0
 73
     1
 44
1.0
  0
MTEXT
  5
7C
330
1F
100
AcDbEntity
  8
VERMASSUNG
100
AcDbMText
 10
13.9808475933
 20
13.9090974274
 30
0.0
 40
2.0
 41
0.0
 71
     1
 72
     1
  1
Gewicht: 3046g
  7
SLDTEXTSTYLE0
 73
     1
 44
1.0
  0
LINE
  5
7D
330
1F
100
AcDbEntity
  8
0
  6
Continuous
 62
     7
370
    15
100
AcDbLine
 10
225.4439132206
 20
158.5947747547
 30
0.0
 11
175.6758583627
 21
158.5947747547
 31
0.0
  0
LINE
  5
7E
330
1F
100
AcDbEntity
  8
0
  6
Continuous
 62
     7
370
    15
100
AcDbLine
 10
175.6758583627
 20
64.5947779733
 30
0.0
 11
225.4439132206
 21
64.5947779733
 31
0.0
  0
ARC
  5
7F
330
1F
100
AcDbEntity
  8
0
  6
Continuous
 62
     7
370
    15
100
AcDbCircle
 10
175.6758575506
 20
65.594776364
 30
0.0
 40
1.0
100
AcDbArc
 50
210.0
 51
270.0
  0
ARC
  5
80
330
1F
100
AcDbEntity
  8
0
  6
Continuous
 62
     7
370
    15
100
AcDbCircle
 10
175.6758575506
 20
157.594776364
 30
0.0
 40
1.0
100
AcDbArc
 50
90.0
 51
150.0
  0
LINE
  5
81
330
1F
100
AcDbEntity
  8
0
  6
Continuous
 62
     7
370
    15
100
AcDbLine
 10
225.4439132206
 20
64.5947779733
 30
0.0
 11
226.3439135544
 21
65.4947745818
 31
0.0
  0
LINE
  5
82
330
1F
100
AcDbEntity
  8
0
  6
Continuous
 62
     7
370
    15
100
AcDbLine
 10
226.3439135544
 20
157.6947781462
 30
0.0
 11
225.4439132206
 21
158.5947747547
 31
0.0
  0
LINE
  5
83
330
1F
100
AcDbEntity
  8
0
  6
Continuous
 62
     7
370
    15
100
AcDbLine
 10
174.8098326765
 20
158.0947774667
 30
0.0
 11
174.3247179232
 21
157.2545345146
 31
0.0
  0
LINE
  5
84
330
1F
100
AcDbEntity
  8
0
  6
Continuous
 62
     7
370
    15
100
AcDbLine
 10
174.3247179232
 20
65.9350182134
 30
0.0
 11
174.8098326765
 21
65.0947752613
 31
0.0
  0
ARC
  5
85
330
1F
100
AcDbEntity
  8
0
  6
Continuous
 62
     7
370
    15
100
AcDbCircle
 10
149.8439156763
 20
88.769776364
 30
0.0
 40
0.6000000000000227
100
AcDbArc
 50
0.0
 51
90.0
  0
ARC
  5
86
330
1F
100
AcDbEntity
  8
0
  6
Continuous
 62
     7
370
    15
100
AcDbCircle
 10
149.8439156763
 20
134.419776364
 30
0.0
 40
0.6000000000000227
100
AcDbArc
 50
270.0
 51
0.0
  0
LINE
  5
87
330
1F
100
AcDbEntity
  8
0
  6
Continuous
 62
     7
370
    15
100
AcDbLine
 10
147.2439156763
 20
89.3697763998
 30
0.0
 11
149.8439156834
 21
89.3697763998
 31
0.0
  0
LINE
  5
88
330
1F
100
AcDbEntity
  8
0
  6
Continuous
 62
     7
370
    15
100
AcDbLine
 10
149.8439156834
 20
133.8197763283
 30
0.0
 11
147.2439156763
 21
133.8197763283
 31
0.0
  0
LINE
  5
89
330
1F
100
AcDbEntity
  8
0
  6
Continuous
 62
     7
370
    15
100
AcDbLine
 10
147.2439156763
 20
133.8197763283
 30
0.0
 11
79.8496069304
 21
123.9914397914
 31
0.0
  0
LINE
  5
8A
330
1F
100
AcDbEntity
  8
0
  6
Continuous
 62
     7
370
    15
100
AcDbLine
 10
79.8496069304
 20
99.1981129367
 30
0.0
 11
147.2439156763
 21
89.3697763998
 31
0.0
  0
ARC
  5
8B
330
1F
100
AcDbEntity
  8
0
  6
Continuous
 62
     7
370
    15
100
AcDbCircle
 10
79.9939156763
 20
100.187645767
 30
0.0
 40
0.9999999999999938
100
AcDbArc
 50
180.0
 51
261.7028550302
  0
ARC
  5
8C
330
1F
100
AcDbEntity
  8
0
  6
Continuous
 62
     7
370
    15
100
AcDbCircle
 10
79.9939156763
 20
123.0019069611
 30
0.0
 40
0.9999999999999938
100
AcDbArc
 50
98.2971449698
 51
180.0
  0
ARC
  5
8D
330
1F
100
AcDbEntity
  8
0
  6
Continuous
 62
     7
370
    15
100
AcDbCircle
 10
160.2439156763
 20
102.8732627092
 30
0.0
 40
1.50000000000003
100
AcDbArc
 50
191.527441716
 51
336.6037645748
  0
SPLINE
  5
8E
330
1F
100
AcDbEntity
  8
0
  6
Continuous
 62
     7
370
    15
100
AcDbSpline
210
0.0
220
0.0
230
1.0
 70
     8
 71
     3
 72
    13
 73
     9
 74
     0
 42
0.000000001
 43
0.00000001
 40
0.0
 40
0.0
 40
0.0
 40
0.0
 40
0.1282074302024815
 40
0.3044418407682137
 40
0.4802278075939209
 40
0.6477339105317531
 40
0.8155707424615143
 40
1.0
 40
1.0
 40
1.0
 40
1.0
 10
197.4119046620789
 20
107.8356129321975
 30
0.0
 10
197.3689903696173
 20
108.0643738833206
 30
0.0
 10
197.2670859310706
 20
108.607590488987
 30
0.0
 10
197.0968036767068
 20
109.5152575061041
 30
0.0
 10
196.9048863167558
 20
110.5382989288706
 30
0.0
 10
196.7150504435506
 20
111.5502187350474
 30
0.0
 10
196.5278918926235
 20
112.5479059965286
 30
0.0
 10
196.4094112595198
 20
113.1794712448926
 30
0.0
 10
196.3473806075516
 20
113.510127851717
 30
0.0
  0
SPLINE
  5
8F
330
1F
100
AcDbEntity
  8
0
  6
Continuous
 62
     7
370
    15
100
AcDbSpline
210
0.0
220
0.0
230
1.0
 70
     8
 71
     3
 72
    11
 73
     7
 74
     0
 42
0.000000001
 43
0.00000001
 40
0.0
 40
0.0
 40
0.0
 40
0.0
 40
0.2164573986193448
 40
0.4403157817950487
 40
0.7519042567253963
 40
1.0
 40
1.0
 40
1.0
 40
1.0
 10
202.8584392659131
 20
105.9202614445014
 30
0.0
 10
202.4853432807078
 20
106.0514661905862
 30
0.0
 10
201.7263946309593
 20
106.3183617585642
 30
0.0
 10
200.3179918147777
 20
106.8136462152459
 30
0.0
 10
198.8072422558182
 20
107.3449226657887
 30
0.0
 10
197.8404586420559
 20
107.6849058434263
 30
0.0
 10
197.4119046620789
 20
107.8356129321975
 30
0.0
  0
SPLINE
  5
90
330
1F
100
AcDbEntity
  8
0
  6
Continuous
 62
     7
370
    15
100
AcDbSpline
210
0.0
220
0.0
230
1.0
 70
     8
 71
     3
 72
    11
 73
     7
 74
     0
 42
0.000000001
 43
0.00000001
 40
0.0
 40
0.0
 40
0.0
 40
0.0
 40
0.2164576668822095
 40
0.4403159215436201
 40
0.7519041977719636
 40
1.0
 40
1.0
 40
1.0
 40
1.0
 10
207.2404535405102
 20
109.6794248763246
 30
0.0
 10
206.9402782461798
 20
109.4219160308148
 30
0.0
 10
206.329664802676
 20
108.8980942311555
 30
0.0
 10
205.1965338506388
 20
107.9260234928005
 30
0.0
 10
203.9810590740706
 20
106.883314818087
 30
0.0
 10
203.2032327778113
 20
106.2160468496859
 30
0.0
 10
202.8584392659131
 20
105.9202614445014
 30
0.0
  0
SPLINE
  5
91
330
1F
100
AcDbEntity
  8
0
  6
Continuous
 62
     7
370
    15
100
AcDbSpline
210
0.0
220
0.0
230
1.0
 70
     8
 71
     3
 72
    13
 73
     9
 74
     0
 42
0.000000001
 43
0.00000001
 40
0.0
 40
0.0
 40
0.0
 40
0.0
 40
0.1844292291994224
 40
0.3522661736433139
 40
0.5197722569964496
 40
0.6955582145491181
 40
0.8717924795275553
 40
1.0
 40
1.0
 40
1.0
 40
1.0
 10
206.1759257606926
 20
115.353939795844
 30
0.0
 10
206.2379559372989
 20
115.0232831253639
 30
0.0
 10
206.3564357089616
 20
114.3917175074556
 30
0.0
 10
206.543600653672
 20
113.3940311047656
 30
0.0
 10
206.7334343992404
 20
112.3821106610123
 30
0.0
 10
206.9253543618304
 20
111.3590699019842
 30
0.0
 10
207.0956289141607
 20
110.4514016519511
 30
0.0
 10
207.1975374743259
 20
109.9081857385527
 30
0.0
 10
207.2404535405102
 20
109.6794248763246
 30
0.0
  0
SPLINE
  5
92
330
1F
100
AcDbEntity
  8
0
  6
Continuous
 62
     7
370
    15
100
AcDbSpline
210
0.0
220
0.0
230
1.0
 70
     8
 71
     3
 72
    11
 73
     7
 74
     0
 42
0.000000001
 43
0.00000001
 40
0.0
 40
0.0
 40
0.0
 40
0.0
 40
0.2164573986193448
 40
0.4403157817950487
 40
0.7519042567253963
 40
1.0
 40
1.0
 40
1.0
 40
1.0
 10
200.7293911568585
 20
117.2692912835402
 30
0.0
 10
201.1024871420638
 20
117.1380865374554
 30
0.0
 10
201.8614357918123
 20
116.8711909694774
 30
0.0
 10
203.2698386079939
 20
116.3759065127957
 30
0.0
 10
204.7805881669533
 20
115.8446300622528
 30
0.0
 10
205.7473717807156
 20
115.5046468846153
 30
0.0
 10
206.1759257606926
 20
115.353939795844
 30
0.0
  0
SPLINE
  5
93
330
1F
100
AcDbEntity
  8
0
  6
Continuous
 62
     7
370
    15
100
AcDbSpline
210
0.0
220
0.0
230
1.0
 70
     8
 71
     3
 72
    11
 73
     7
 74
     0
 42
0.000000001
 43
0.00000001
 40
0.0
 40
0.0
 40
0.0
 40
0.0
 40
0.2164573265889133
 40
0.4403156784722098
 40
0.7519040900236841
 40
1.0
 40
1.0
 40
1.0
 40
1.0
 10
196.3473806075516
 20
113.510127851717
 30
0.0
 10
196.64755450817
 20
113.767636844784
 30
0.0
 10
197.258165739461
 20
114.2914594789346
 30
0.0
 10
198.3912967825077
 20
115.2635290699003
 30
0.0
 10
199.6067713029145
 20
116.3062379459397
 30
0.0
 10
200.3845976308977
 20
116.9735058894079
 30
0.0
 10
200.7293911568585
 20
117.2692912835402
 30
0.0
  0
CIRCLE
  5
94
330
1F
100
AcDbEntity
  8
0
  6
Continuous
 62
     7
370
    15
100
AcDbCircle
 10
201.7939156763
 20
111.594776364
 30
0.0
 40
6.000000000000002
  0
CIRCLE
  5
95
330
1F
100
AcDbEntity
  8
0
  6
Continuous
 62
     7
370
    15
100
AcDbCircle
 10
201.7939156763
 20
111.594776364
 30
0.0
 40
8.999999999999991
  0
CIRCLE
  5
96
330
1F
100
AcDbEntity
  8
0
  6
Continuous
 62
     7
370
    15
100
AcDbCircle
 10
201.7939156763
 20
111.594776364
 30
0.0
 40
9.999999999999984
  0
ARC
  5
97
330
1F
100
AcDbEntity
  8
0
  6
Continuous
 62
     7
370
    15
100
AcDbCircle
 10
201.7939156763
 20
111.594776364
 30
0.0
 40
5.000000000000011
100
AcDbArc
 50
10.6250567209
 51
70.6250567209
  0
ARC
  5
98
330
1F
100
AcDbEntity
  8
0
  6
Continuous
 62
     7
370
    15
100
AcDbCircle
 10
201.7939156763
 20
111.594776364
 30
0.0
 40
5.000000000000011
100
AcDbArc
 50
70.6250567209
 51
130.6250567209
  0
ARC
  5
99
330
1F
100
AcDbEntity
  8
0
  6
Continuous
 62
     7
370
    15
100
AcDbCircle
 10
201.7939156763
 20
111.594776364
 30
0.0
 40
5.000000000000009
100
AcDbArc
 50
310.6250567209
 51
10.6250567209
  0
ARC
  5
9A
330
1F
100
AcDbEntity
  8
0
  6
Continuous
 62
     7
370
    15
100
AcDbCircle
 10
201.7939156763
 20
111.594776364
 30
0.0
 40
4.999999999999999
100
AcDbArc
 50
250.6250567209
 51
310.6250567209
  0
ARC
  5
9B
330
1F
100
AcDbEntity
  8
0
  6
Continuous
 62
     7
370
    15
100
AcDbCircle
 10
201.7939156763
 20
111.594776364
 30
0.0
 40
5.000000000000002
100
AcDbArc
 50
130.6250567209
 51
190.6250567209
  0
ARC
  5
9C
330
1F
100
AcDbEntity
  8
0
  6
Continuous
 62
     7
370
    15
100
AcDbCircle
 10
201.7939156763
 20
111.594776364
 30
0.0
 40
4.999999999999988
100
AcDbArc
 50
190.6250567209
 51
250.6250567209
  0
SPLINE
  5
9D
330
1F
100
AcDbEntity
  8
0
  6
Continuous
 62
     7
370
    15
100
AcDbSpline
210
0.0
220
0.0
230
1.0
 70
     8
 71
     3
 72
    52
 73
    48
 74
     0
 42
0.000000001
 43
0.00000001
 40
0.0
 40
0.0
 40
0.0
 40
0.0
 40
0.0312499999999999
 40
0.0312499999999999
 40
0.0624999999999999
 40
0.0624999999999999
 40
0.1249999999999997
 40
0.1249999999999997
 40
0.1562499999999993
 40
0.1562499999999993
 40
0.1874999999999989
 40
0.1874999999999989
 40
0.249999999999999
 40
0.249999999999999
 40
0.3124999999999994
 40
0.3124999999999994
 40
0.3749999999999999
 40
0.3749999999999999
 40
0.4062500000000004
 40
0.4062500000000004
 40
0.4375000000000009
 40
0.4375000000000009
 40
0.5000000000000013
 40
0.5000000000000013
 40
0.5312500000000012
 40
0.5312500000000012
 40
0.5625000000000012
 40
0.5625000000000012
 40
0.625000000000001
 40
0.625000000000001
 40
0.6875000000000009
 40
0.6875000000000009
 40
0.7187500000000009
 40
0.7187500000000009
 40
0.7500000000000008
 40
0.7500000000000008
 40
0.8125000000000003
 40
0.8125000000000003
 40
0.8437500000000001
 40
0.8437500000000001
 40
0.8749999999999999
 40
0.8749999999999999
 40
0.9374999999999999
 40
0.9374999999999999
 40
0.96875
 40
0.96875
 40
1.0
 40
1.0
 40
1.0
 40
1.0
 10
214.043915676302
 20
111.5947763640208
 30
0.0
 10
214.043915676302
 20
111.9786064874145
 30
0.0
 10
214.0209616286124
 20
112.3629103682528
 30
0.0
 10
213.9313523197879
 20
113.1186595845921
 30
0.0
 10
213.864717356149
 20
113.4922421768999
 30
0.0
 10
213.6006237512609
 20
114.60039291361
 30
0.0
 10
213.3349371174013
 20
115.3286655435636
 30
0.0
 10
212.8297653183037
 20
116.348546624993
 30
0.0
 10
212.6433832176636
 20
116.6782265678596
 30
0.0
 10
212.2357746296461
 20
117.3177784724388
 30
0.0
 10
212.013757832074
 20
117.6286225800429
 30
0.0
 10
211.3007020311042
 20
118.5250633839467
 30
0.0
 10
210.7715982469293
 20
119.0653412958528
 30
0.0
 10
209.6147998514062
 20
120.0421324654637
 30
0.0
 10
208.9819771380232
 20
120.4802250086826
 30
0.0
 10
207.6640352688187
 20
121.2262284763006
 30
0.0
 10
206.9748197613942
 20
121.5386287882922
 30
0.0
 10
205.8961435640962
 20
121.9184627542382
 30
0.0
 10
205.5280688706085
 20
122.0302785719445
 30
0.0
 10
204.7901466691683
 20
122.2202452317855
 30
0.0
 10
204.4187903490261
 20
122.2990187393276
 30
0.0
 10
203.2976985968132
 20
122.4879796093159
 30
0.0
 10
202.5409964945507
 20
122.5512067961262
 30
0.0
 10
201.3915927673933
 20
122.5495828609084
 30
0.0
 10
201.0077238589931
 20
122.5327090035068
 30
0.0
 10
200.249375042104
 20
122.4673491692062
 30
0.0
 10
199.8732894818627
 20
122.4188785858169
 30
0.0
 10
198.7541864449928
 20
122.2265684982086
 30
0.0
 10
198.020240851381
 20
122.0362746815232
 30
0.0
 10
196.5778421960043
 20
121.5240265504961
 30
0.0
 10
195.8868283421378
 20
121.2078857896193
 30
0.0
 10
194.903630213859
 20
120.6473845859799
 30
0.0
 10
194.5843537602659
 20
120.4458983323174
 30
0.0
 10
193.9632858450816
 20
120.0124138742082
 30
0.0
 10
193.6600298668979
 20
119.7791274866351
 30
0.0
 10
192.7901429317033
 20
119.0405577600277
 30
0.0
 10
192.2639726600603
 20
118.4989989449575
 30
0.0
 10
191.5591921692233
 20
117.6083028672293
 30
0.0
 10
191.3373569791898
 20
117.2964555676796
 30
0.0
 10
190.9297605403729
 20
116.653309760213
 30
0.0
 10
190.7446864474973
 20
116.323555892433
 30
0.0
 10
190.2455840776339
 20
115.3096514562742
 30
0.0
 10
189.9869800537807
 20
114.6011590184392
 30
0.0
 10
189.7214290081165
 20
113.4843026608832
 30
0.0
 10
189.654459678391
 20
113.1056440292475
 30
0.0
 10
189.5659944230128
 20
112.3513800678438
 30
0.0
 10
189.543915676302
 20
111.9734674467143
 30
0.0
 10
189.543915676302
 20
111.5947763640208
 30
0.0
  0
SPLINE
  5
9E
330
1F
100
AcDbEntity
  8
0
  6
Continuous
 62
     7
370
    15
100
AcDbSpline
210
0.0
220
0.0
230
1.0
 70
     8
 71
     3
 72
    52
 73
    48
 74
     0
 42
0.000000001
 43
0.00000001
 40
0.0
 40
0.0
 40
0.0
 40
0.0
 40
0.0312500000000003
 40
0.0312500000000003
 40
0.0625000000000006
 40
0.0625000000000006
 40
0.1250000000000014
 40
0.1250000000000014
 40
0.1875000000000022
 40
0.1875000000000022
 40
0.2500000000000031
 40
0.2500000000000031
 40
0.3125000000000039
 40
0.3125000000000039
 40
0.3437500000000043
 40
0.3437500000000043
 40
0.3750000000000047
 40
0.3750000000000047
 40
0.4062500000000052
 40
0.4062500000000052
 40
0.4375000000000056
 40
0.4375000000000056
 40
0.5000000000000064
 40
0.5000000000000064
 40
0.5312500000000069
 40
0.5312500000000069
 40
0.5625000000000073
 40
0.5625000000000073
 40
0.6250000000000077
 40
0.6250000000000077
 40
0.6562500000000074
 40
0.6562500000000074
 40
0.6875000000000073
 40
0.6875000000000073
 40
0.7500000000000066
 40
0.7500000000000066
 40
0.7812500000000058
 40
0.7812500000000058
 40
0.812500000000005
 40
0.812500000000005
 40
0.8750000000000032
 40
0.8750000000000032
 40
0.9062500000000024
 40
0.9062500000000024
 40
0.9375000000000017
 40
0.9375000000000017
 40
1.0
 40
1.0
 40
1.0
 40
1.0
 10
189.543915676302
 20
111.5947763640208
 30
0.0
 10
189.543915676302
 20
111.2156196275971
 30
0.0
 10
189.566045692077
 20
110.8356826190773
 30
0.0
 10
189.6558425777143
 20
110.0742040121122
 30
0.0
 10
189.7235843794026
 20
109.6947637969985
 30
0.0
 10
189.9886828838027
 20
108.5841233310771
 30
0.0
 10
190.2482264986195
 20
107.8708202502212
 30
0.0
 10
190.9284055960791
 20
106.4966035871579
 30
0.0
 10
191.3381750064003
 20
105.8578866652197
 30
0.0
 10
192.2809261093812
 20
104.6719005391103
 30
0.0
 10
192.819258405829
 20
104.1213459651671
 30
0.0
 10
193.9757273252049
 20
103.1454564010524
 30
0.0
 10
194.5973352664058
 20
102.7144268034339
 30
0.0
 10
195.593389668138
 20
102.1502089635954
 30
0.0
 10
195.9344525511323
 20
101.977057209304
 30
0.0
 10
196.6256239425461
 20
101.6636617614022
 30
0.0
 10
196.976983163628
 20
101.5226985308458
 30
0.0
 10
197.691002343125
 20
101.2713918493097
 30
0.0
 10
198.0536630670851
 20
101.1610507405968
 30
0.0
 10
198.7903413817104
 20
100.9709952629867
 30
0.0
 10
199.1659656221256
 20
100.8910322574046
 30
0.0
 10
200.2983477320067
 20
100.7002287115974
 30
0.0
 10
201.0549453351468
 20
100.6383541100277
 30
0.0
 10
202.1922714984384
 20
100.639965902813
 30
0.0
 10
202.5717876660431
 20
100.6563431736263
 30
0.0
 10
203.3316503891265
 20
100.7214047338061
 30
0.0
 10
203.7138021953103
 20
100.7704708797932
 30
0.0
 10
204.842975812395
 20
100.9647407867767
 30
0.0
 10
205.5753828082591
 20
101.1561163877769
 30
0.0
 10
206.6438516341799
 20
101.5354620268582
 30
0.0
 10
206.9949533517682
 20
101.6773895437179
 30
0.0
 10
207.6867157305939
 20
101.9934054331889
 30
0.0
 10
208.0287016601083
 20
102.1683946910976
 30
0.0
 10
209.018517058179
 20
102.7329288179936
 30
0.0
 10
209.6361185403076
 20
103.1635689742422
 30
0.0
 10
210.4977221769426
 20
103.8939215143846
 30
0.0
 10
210.7740487982645
 20
104.151535681013
 30
0.0
 10
211.3036653390073
 20
104.6969824139403
 30
0.0
 10
211.5570788708527
 20
104.9854293762975
 30
0.0
 10
212.2624616312691
 20
105.8764866164766
 30
0.0
 10
212.6670163417739
 20
106.5110063759106
 30
0.0
 10
213.1695673137836
 20
107.5277525309749
 30
0.0
 10
213.3196254985042
 20
107.8777139429532
 30
0.0
 10
213.581628036057
 20
108.6007877335432
 30
0.0
 10
213.6907493736042
 20
108.9661137169372
 30
0.0
 10
213.9537276728488
 20
110.0732747022639
 30
0.0
 10
214.043915676302
 20
110.8261721714323
 30
0.0
 10
214.043915676302
 20
111.5947763640208
 30
0.0
  0
LINE
  5
9F
330
1F
100
AcDbEntity
  8
0
  6
Continuous
 62
     7
370
    15
100
AcDbLine
 10
225.4439132206
 20
111.594776364
 30
0.0
 11
225.4439132206
 21
64.5947779733
 31
0.0
  0
LINE
  5
A0
330
1F
100
AcDbEntity
  8
0
  6
Continuous
 62
     7
370
    15
100
AcDbLine
 10
225.4439132206
 20
158.5947747547
 30
0.0
 11
225.4439132206
 21
111.594776364
 31
0.0
  0
LINE
  5
A1
330
1F
100
AcDbEntity
  8
0
  6
Continuous
 62
     7
370
    15
100
AcDbLine
 10
226.3439135544
 20
111.594776364
 30
0.0
 11
226.3439135544
 21
65.4947745818
 31
0.0
  0
LINE
  5
A2
330
1F
100
AcDbEntity
  8
0
  6
Continuous
 62
     7
370
    15
100
AcDbLine
 10
226.3439135544
 20
157.6947781462
 30
0.0
 11
226.3439135544
 21
111.594776364
 31
0.0
  0
SPLINE
  5
A3
330
1F
100
AcDbEntity
  8
0
  6
Continuous
 62
     7
370
    15
100
AcDbSpline
210
0.0
220
0.0
230
1.0
 70
     8
 71
     3
 72
    10
 73
     6
 74
     0
 42
0.000000001
 43
0.00000001
 40
0.0
 40
0.0
 40
0.0
 40
0.0
 40
0.5
 40
0.5
 40
1.0
 40
1.0
 40
1.0
 40
1.0
 10
174.2818191578489
 20
149.1006916043832
 30
0.0
 10
172.8591500210564
 20
146.1057313694699
 30
0.0
 10
171.4790485294099
 20
143.0887532469321
 30
0.0
 10
168.879718523151
 20
136.999205150359
 30
0.0
 10
167.6580265842122
 20
133.9253443324214
 30
0.0
 10
166.5825908108968
 20
130.7969246813316
 30
0.0
  0
SPLINE
  5
A4
330
1F
100
AcDbEntity
  8
0
  6
Continuous
 62
     7
370
    15
100
AcDbSpline
210
0.0
220
0.0
230
1.0
 70
     8
 71
     3
 72
    36
 73
    32
 74
     0
 42
0.000000001
 43
0.00000001
 40
0.0
 40
0.0
 40
0.0
 40
0.0
 40
0.2499999999999976
 40
0.2499999999999976
 40
0.3749999999999965
 40
0.3749999999999965
 40
0.4374999999999966
 40
0.4374999999999966
 40
0.4999999999999967
 40
0.4999999999999967
 40
0.6249999999999968
 40
0.6249999999999968
 40
0.6874999999999973
 40
0.6874999999999973
 40
0.7499999999999978
 40
0.7499999999999978
 40
0.7812499999999981
 40
0.7812499999999981
 40
0.8124999999999983
 40
0.8124999999999983
 40
0.8437499999999986
 40
0.8437499999999986
 40
0.8749999999999989
 40
0.8749999999999989
 40
0.9062499999999991
 40
0.9062499999999991
 40
0.9374999999999993
 40
0.9374999999999993
 40
0.9687499999999997
 40
0.9687499999999997
 40
1.0
 40
1.0
 40
1.0
 40
1.0
 10
166.5825908108968
 20
138.1117287673375
 30
0.0
 10
167.2213109361969
 20
139.4412447943903
 30
0.0
 10
167.8890148597767
 20
140.7490421195464
 30
0.0
 10
168.9308153630073
 20
142.6753218533724
 30
0.0
 10
169.2848825268685
 20
143.3114444322211
 30
0.0
 10
169.8274613902911
 20
144.2548521658676
 30
0.0
 10
170.0101991652419
 20
144.5673790109873
 30
0.0
 10
170.3756155860964
 20
145.1809701119649
 30
0.0
 10
170.5587785744611
 20
145.482894295826
 30
0.0
 10
171.1096213440746
 20
146.371696207403
 30
0.0
 10
171.4785477838539
 20
146.9424764833049
 30
0.0
 10
172.0357217162647
 20
147.7464990620397
 30
0.0
 10
172.2236896995658
 20
148.0076990424473
 30
0.0
 10
172.591105839886
 20
148.4911169483554
 30
0.0
 10
172.7708690613265
 20
148.7140980324581
 30
0.0
 10
173.0328157022847
 20
149.0100899214945
 30
0.0
 10
173.1188393667084
 20
149.1022826834283
 30
0.0
 10
173.2878201363236
 20
149.270760551305
 30
0.0
 10
173.3713715318108
 20
149.3474692058731
 30
0.0
 10
173.5297832016888
 20
149.4767935894815
 30
0.0
 10
173.6050605014098
 20
149.5299290035869
 30
0.0
 10
173.7468755301896
 20
149.6099528747305
 30
0.0
 10
173.8139688535171
 20
149.6368363448126
 30
0.0
 10
173.934320108812
 20
149.6596398721537
 30
0.0
 10
173.9878974504434
 20
149.6559847578777
 30
0.0
 10
174.0821549908079
 20
149.6186048653801
 30
0.0
 10
174.1231179215246
 20
149.5843494144538
 30
0.0
 10
174.1905865814316
 20
149.488205141926
 30
0.0
 10
174.2172222592407
 20
149.4267584736662
 30
0.0
 10
174.2583189766195
 20
149.2804013651237
 30
0.0
 10
174.2727962491839
 20
149.194917307161
 30
0.0
 10
174.2818191578488
 20
149.1006916043826
 30
0.0
  0
SPLINE
  5
A5
330
1F
100
AcDbEntity
  8
0
  6
Continuous
 62
     7
370
    15
100
AcDbSpline
210
0.0
220
0.0
230
1.0
 70
     8
 71
     3
 72
    17
 73
    13
 74
     0
 42
0.000000001
 43
0.00000001
 40
0.0
 40
0.0
 40
0.0
 40
0.0
 40
0.0535825781229564
 40
0.1186681544426713
 40
0.1738327110219835
 40
0.2304875485133808
 40
0.3302806740137811
 40
0.4325081073704164
 40
0.5331786040950813
 40
0.6338957078917637
 40
0.8400536000586666
 40
1.0
 40
1.0
 40
1.0
 40
1.0
 10
174.3260776541892
 20
157.2537484783454
 30
0.0
 10
174.3194339968631
 20
157.2410657749673
 30
0.0
 10
174.3047204354546
 20
157.2129776714094
 30
0.0
 10
174.0618730692103
 20
156.7497764603372
 30
0.0
 10
173.7369450412488
 20
156.1308668615497
 30
0.0
 10
173.2682278401224
 20
155.2394316984485
 30
0.0
 10
172.6135547844638
 20
153.997466307782
 30
0.0
 10
171.7805196353204
 20
152.4237858991263
 30
0.0
 10
170.9038710850211
 20
150.7758882395396
 30
0.0
 10
169.6890017519059
 20
148.5063497769421
 30
0.0
 10
168.2509471249698
 20
145.8430290098742
 30
0.0
 10
167.0898565243503
 20
143.7428189007304
 30
0.0
 10
166.5825905196133
 20
142.8252632934374
 30
0.0
  0
SPLINE
  5
A6
330
1F
100
AcDbEntity
  8
0
  6
Continuous
 62
     7
370
    15
100
AcDbSpline
210
0.0
220
0.0
230
1.0
 70
     8
 71
     3
 72
    17
 73
    13
 74
     0
 42
0.000000001
 43
0.00000001
 40
0.0
 40
0.0
 40
0.0
 40
0.0
 40
0.0535825781229564
 40
0.1186681544426713
 40
0.1738327110219835
 40
0.2304875485133808
 40
0.3302806740137811
 40
0.4325081073704164
 40
0.5331786040950813
 40
0.6338957078917637
 40
0.8400536000586666
 40
1.0
 40
1.0
 40
1.0
 40
1.0
 10
174.3260776541892
 20
65.93580424969622
 30
0.0
 10
174.3194339968631
 20
65.94848695307428
 30
0.0
 10
174.3047204354546
 20
65.97657505663226
 30
0.0
 10
174.0618730692103
 20
66.43977626770436
 30
0.0
 10
173.7369450412488
 20
67.05868586649189
 30
0.0
 10
173.2682278401224
 20
67.9501210295931
 30
0.0
 10
172.6135547844638
 20
69.19208642025959
 30
0.0
 10
171.7805196353204
 20
70.7657668289153
 30
0.0
 10
170.9038710850211
 20
72.41366448850196
 30
0.0
 10
169.6890017519059
 20
74.68320295109947
 30
0.0
 10
168.2509471249698
 20
77.34652371816739
 30
0.0
 10
167.0898565243503
 20
79.44673382731115
 30
0.0
 10
166.5825905196133
 20
80.36428943460413
 30
0.0
  0
SPLINE
  5
A7
330
1F
100
AcDbEntity
  8
0
  6
Continuous
 62
     7
370
    15
100
AcDbSpline
210
0.0
220
0.0
230
1.0
 70
     8
 71
     3
 72
     8
 73
     4
 74
     0
 42
0.000000001
 43
0.00000001
 40
0.0
 40
0.0
 40
0.0
 40
0.0
 40
1.0
 40
1.0
 40
1.0
 40
1.0
 10
166.293915676302
 20
80.69257351995319
 30
0.0
 10
166.1262287964354
 20
80.81510317607862
 30
0.0
 10
165.9243135833904
 20
80.88223820775633
 30
0.0
 10
165.7165654071124
 20
80.88223820775633
 30
0.0
  0
SPLINE
  5
A8
330
1F
100
AcDbEntity
  8
0
  6
Continuous
 62
     7
370
    15
100
AcDbSpline
210
0.0
220
0.0
230
1.0
 70
     8
 71
     3
 72
    14
 73
    10
 74
     0
 42
0.000000001
 43
0.00000001
 40
0.0
 40
0.0
 40
0.0
 40
0.0
 40
0.25
 40
0.25
 40
0.5
 40
0.5
 40
0.75
 40
0.75
 40
1.0
 40
1.0
 40
1.0
 40
1.0
 10
165.7165654071124
 20
129.9447763640208
 30
0.0
 10
165.8257788455623
 20
129.9447763640208
 30
0.0
 10
165.9311396246819
 20
129.9764822079071
 30
0.0
 10
166.1191312837866
 20
130.0816792963751
 30
0.0
 10
166.2018446573415
 20
130.1543916123245
 30
0.0
 10
166.3428183342075
 20
130.3157693937017
 30
0.0
 10
166.4030309158253
 20
130.4063780729903
 30
0.0
 10
166.505257547369
 20
130.5958116479656
 30
0.0
 10
166.547453880013
 20
130.6947121012933
 30
0.0
 10
166.5825908108968
 20
130.7969246813316
 30
0.0
  0
SPLINE
  5
A9
330
1F
100
AcDbEntity
  8
0
  6
Continuous
 62
     7
370
    15
100
AcDbSpline
210
0.0
220
0.0
230
1.0
 70
     8
 71
     3
 72
     8
 73
     4
 74
     0
 42
0.000000001
 43
0.00000001
 40
0.0
 40
0.0
 40
0.0
 40
0.0
 40
1.0
 40
1.0
 40
1.0
 40
1.0
 10
166.5825908108968
 20
80.36428912265146
 30
0.0
 10
166.5106932440758
 20
80.49354920129953
 30
0.0
 10
166.4134187513058
 20
80.60525201514734
 30
0.0
 10
166.293915676302
 20
80.69257351995319
 30
0.0
  0
LINE
  5
AA
330
1F
100
AcDbEntity
  8
0
  6
Continuous
 62
     7
370
    15
100
AcDbLine
 10
154.822079084
 20
80.8822388965
 30
0.0
 11
151.4439155265
 21
80.8822388965
 31
0.0
  0
ARC
  5
AB
330
1F
100
AcDbEntity
  8
0
  6
Continuous
 62
     7
370
    15
100
AcDbCircle
 10
159.4939156763
 20
111.594776364
 30
0.0
 40
31.74999999999999
100
AcDbArc
 50
254.5651942478
 51
255.31271361
  0
LINE
  5
AC
330
1F
100
AcDbEntity
  8
0
  6
Continuous
 62
     7
370
    15
100
AcDbLine
 10
154.822079084
 20
129.9447759259
 30
0.0
 11
151.0439157404
 21
129.9447759259
 31
0.0
  0
LINE
  5
AD
330
1F
100
AcDbEntity
  8
0
  6
Continuous
 62
     7
370
    15
100
AcDbLine
 10
154.822079084
 20
80.8822388965
 30
0.0
 11
154.822079084
 21
129.9447759259
 31
0.0
  0
SPLINE
  5
AE
330
1F
100
AcDbEntity
  8
0
  6
Continuous
 62
     7
370
    15
100
AcDbSpline
210
0.0
220
0.0
230
1.0
 70
     8
 71
     3
 72
     8
 73
     4
 74
     0
 42
0.000000001
 43
0.00000001
 40
0.0
 40
0.0
 40
0.0
 40
0.0
 40
1.0
 40
1.0
 40
1.0
 40
1.0
 10
156.433915676302
 20
83.77794990451933
 30
0.0
 10
155.8981420461026
 20
82.81188523468897
 30
0.0
 10
155.3607220762988
 20
81.84671038135717
 30
0.0
 10
154.8220790342453
 20
80.88223820775633
 30
0.0
  0
SPLINE
  5
AF
330
1F
100
AcDbEntity
  8
0
  6
Continuous
 62
     7
370
    15
100
AcDbSpline
210
0.0
220
0.0
230
1.0
 70
    24
 71
     3
 72
     8
 73
     4
 74
     0
 42
0.000000001
 43
0.00000001
 40
0.0
 40
0.0
 40
0.0
 40
0.0
 40
1.0
 40
1.0
 40
1.0
 40
1.0
 10
156.433915676302
 20
129.9447763640208
 30
0.0
 10
155.9091831879401
 20
129.9447763640208
 30
0.0
 10
155.3705077037213
 20
129.9447763640208
 30
0.0
 10
154.8220790342453
 20
129.9447763640208
 30
0.0
  0
LINE
  5
B0
330
1F
100
AcDbEntity
  8
0
  6
Continuous
 62
     7
370
    15
100
AcDbLine
 10
156.4339153386
 20
83.7779498864
 30
0.0
 11
156.4339153386
 21
129.9447759259
 31
0.0
  0
LINE
  5
B1
330
1F
100
AcDbEntity
  8
0
  6
Continuous
 62
     7
370
    15
100
AcDbLine
 10
161.8657527409
 20
101.8427561242
 30
0.0
 11
161.8657527409
 21
129.9447759259
 31
0.0
  0
LINE
  5
B2
330
1F
100
AcDbEntity
  8
0
  6
Continuous
 62
     7
370
    15
100
AcDbLine
 10
165.7165648333
 20
129.9447759259
 30
0.0
 11
161.8657527409
 21
129.9447759259
 31
0.0
  0
LINE
  5
B3
330
1F
100
AcDbEntity
  8
0
  6
Continuous
 62
     7
370
    15
100
AcDbLine
 10
165.7165648333
 20
80.8822388965
 30
0.0
 11
161.8657527409
 21
80.8822388965
 31
0.0
  0
LINE
  5
B4
330
1F
100
AcDbEntity
  8
0
  6
Continuous
 62
     7
370
    15
100
AcDbLine
 10
161.8657527409
 20
80.8822388965
 30
0.0
 11
161.8657527409
 21
99.6432767454
 31
0.0
  0
SPLINE
  5
B5
330
1F
100
AcDbEntity
  8
0
  6
Continuous
 62
     7
370
    15
100
AcDbSpline
210
0.0
220
0.0
230
1.0
 70
     8
 71
     3
 72
    12
 73
     8
 74
     0
 42
0.000000001
 43
0.00000001
 40
0.0
 40
0.0
 40
0.0
 40
0.0
 40
0.2499999999999997
 40
0.2499999999999997
 40
0.4999999999999993
 40
0.4999999999999993
 40
1.0
 40
1.0
 40
1.0
 40
1.0
 10
161.8657523183587
 20
99.64327656581375
 30
0.0
 10
161.9886998121543
 20
99.80123341450883
 30
0.0
 10
162.0822440152632
 20
99.97306678148637
 30
0.0
 10
162.2111834044254
 20
100.3447394911322
 30
0.0
 10
162.2437361618105
 20
100.5379279373234
 30
0.0
 10
162.2442725035443
 20
101.1262244755997
 30
0.0
 10
162.1116488465763
 20
101.5182427134884
 30
0.0
 10
161.8657523183587
 20
101.8427562961971
 30
0.0
  0
LINE
  5
B6
330
1F
100
AcDbEntity
  8
0
  6
Continuous
 62
     7
370
    15
100
AcDbLine
 10
160.253915555
 20
103.5934935529
 30
0.0
 11
160.253915555
 21
129.9447759259
 31
0.0
  0
SPLINE
  5
B7
330
1F
100
AcDbEntity
  8
0
  6
Continuous
 62
     7
370
    15
100
AcDbSpline
210
0.0
220
0.0
230
1.0
 70
    24
 71
     3
 72
     8
 73
     4
 74
     0
 42
0.000000001
 43
0.00000001
 40
0.0
 40
0.0
 40
0.0
 40
0.0
 40
1.0
 40
1.0
 40
1.0
 40
1.0
 10
161.8657523183587
 20
129.9447763640208
 30
0.0
 10
161.3173236488827
 20
129.9447763640208
 30
0.0
 10
160.7786481646639
 20
129.9447763640208
 30
0.0
 10
160.253915676302
 20
129.9447763640208
 30
0.0
  0
SPLINE
  5
B8
330
1F
100
AcDbEntity
  8
0
  6
Continuous
 62
     7
370
    15
100
AcDbSpline
210
0.0
220
0.0
230
1.0
 70
     8
 71
     3
 72
    12
 73
     8
 74
     0
 42
0.000000001
 43
0.00000001
 40
0.0
 40
0.0
 40
0.0
 40
0.0
 40
0.2499999999999994
 40
0.2499999999999994
 40
0.4999999999999989
 40
0.4999999999999989
 40
1.0
 40
1.0
 40
1.0
 40
1.0
 10
161.8657523183587
 20
101.8427562961971
 30
0.0
 10
161.7508562670981
 20
102.0624967312537
 30
0.0
 10
161.6240902506254
 20
102.2594650828754
 30
0.0
 10
161.3638753170069
 20
102.6131826557143
 30
0.0
 10
161.2303678590447
 20
102.7700079495865
 30
0.0
 10
160.8219695904564
 20
103.1965505204942
 30
0.0
 10
160.5383164555189
 20
103.4232426994494
 30
0.0
 10
160.2539156763021
 20
103.5934938438449
 30
0.0
  0
SPLINE
  5
B9
330
1F
100
AcDbEntity
  8
0
  6
Continuous
 62
     7
370
    15
100
AcDbSpline
210
0.0
220
0.0
230
1.0
 70
     8
 71
     3
 72
    14
 73
    10
 74
     0
 42
0.000000001
 43
0.00000001
 40
0.0
 40
0.0
 40
0.0
 40
0.0
 40
0.25
 40
0.25
 40
0.5
 40
0.5
 40
0.75
 40
0.75
 40
1.0
 40
1.0
 40
1.0
 40
1.0
 10
151.043915676302
 20
80.9898747958079
 30
0.0
 10
150.9710675015464
 20
81.00998814514551
 30
0.0
 10
150.9016100410625
 20
81.04276605162525
 30
0.0
 10
150.7689227296383
 20
81.13158242581291
 30
0.0
 10
150.7056787572271
 20
81.18819632146413
 30
0.0
 10
150.5943972146245
 20
81.32150459044162
 30
0.0
 10
150.544222267446
 20
81.40050850854335
 30
0.0
 10
150.4691618979454
 20
81.58041771001216
 30
0.0
 10
150.443915676302
 20
81.68281496571139
 30
0.0
 10
150.443915676302
 20
81.78840120701788
 30
0.0
  0
LINE
  5
BA
330
1F
100
AcDbEntity
  8
0
  6
Continuous
 62
     7
370
    15
100
AcDbLine
 10
150.4439155955
 20
81.7884008605
 30
0.0
 11
150.4439155955
 21
129.9447759259
 31
0.0
  0
SPLINE
  5
BB
330
1F
100
AcDbEntity
  8
0
  6
Continuous
 62
     7
370
    15
100
AcDbSpline
210
0.0
220
0.0
230
1.0
 70
    24
 71
     3
 72
    12
 73
     8
 74
     0
 42
0.000000001
 43
0.00000001
 40
0.0
 40
0.0
 40
0.0
 40
0.0
 40
0.25
 40
0.25
 40
0.5
 40
0.5
 40
1.0
 40
1.0
 40
1.0
 40
1.0
 10
151.043915676302
 20
129.9447763640208
 30
0.0
 10
150.9555002989915
 20
129.9447763640208
 30
0.0
 10
150.8682298618209
 20
129.9447763640208
 30
0.0
 10
150.7157661370491
 20
129.9447763640208
 30
0.0
 10
150.6501275248267
 20
129.9447763640208
 30
0.0
 10
150.4934691235428
 20
129.9447763640208
 30
0.0
 10
150.443915676302
 20
129.9447763640208
 30
0.0
 10
150.443915676302
 20
129.9447763640208
 30
0.0
  0
SPLINE
  5
BC
330
1F
100
AcDbEntity
  8
0
  6
Continuous
 62
     7
370
    15
100
AcDbSpline
210
0.0
220
0.0
230
1.0
 70
     8
 71
     3
 72
    14
 73
    10
 74
     0
 42
0.000000001
 43
0.00000001
 40
0.0
 40
0.0
 40
0.0
 40
0.0
 40
0.2499999999999995
 40
0.2499999999999995
 40
0.4999999999999997
 40
0.4999999999999997
 40
0.7499999999999998
 40
0.7499999999999998
 40
1.0
 40
1.0
 40
1.0
 40
1.0
 10
160.253915676302
 20
103.6477374936911
 30
0.0
 10
160.253915676302
 20
103.684388361855
 30
0.0
 10
160.2325878875902
 20
103.7208551591039
 30
0.0
 10
160.1501294849336
 20
103.7859940136447
 30
0.0
 10
160.0890132930784
 20
103.8140651442356
 30
0.0
 10
159.9377102000163
 20
103.8478930259625
 30
0.0
 10
159.8463321766257
 20
103.853356167359
 30
0.0
 10
159.6539584635728
 20
103.8324302493464
 30
0.0
 10
159.5517781240939
 20
103.8058948239711
 30
0.0
 10
159.453915676302
 20
103.7654086506898
 30
0.0
  0
SPLINE
  5
BD
330
1F
100
AcDbEntity
  8
0
  6
Continuous
 62
     7
370
    15
100
AcDbSpline
210
0.0
220
0.0
230
1.0
 70
     8
 71
     3
 72
    12
 73
     8
 74
     0
 42
0.000000001
 43
0.00000001
 40
0.0
 40
0.0
 40
0.0
 40
0.0
 40
0.499999999999999
 40
0.499999999999999
 40
0.7499999999999994
 40
0.7499999999999994
 40
1.0
 40
1.0
 40
1.0
 40
1.0
 10
160.253915676302
 20
99.83477034562385
 30
0.0
 10
160.5381222108673
 20
99.66730618333011
 30
0.0
 10
160.8168179449711
 20
99.5556690838185
 30
0.0
 10
161.2261639881604
 20
99.48835581817914
 30
0.0
 10
161.3623033254799
 20
99.48320477816519
 30
0.0
 10
161.623623374476
 20
99.52097071578456
 30
0.0
 10
161.7490445569077
 20
99.56252047412883
 30
0.0
 10
161.8657523183591
 20
99.64327656581165
 30
0.0
  0
LINE
  5
BE
330
1F
100
AcDbEntity
  8
0
  6
Continuous
 62
     7
370
    15
100
AcDbLine
 10
160.253915555
 20
99.8890136573
 30
0.0
 11
160.253915555
 21
99.8347706366
 31
0.0
  0
SPLINE
  5
BF
330
1F
100
AcDbEntity
  8
0
  6
Continuous
 62
     7
370
    15
100
AcDbSpline
210
0.0
220
0.0
230
1.0
 70
     8
 71
     3
 72
    14
 73
    10
 74
     0
 42
0.000000001
 43
0.00000001
 40
0.0
 40
0.0
 40
0.0
 40
0.0
 40
0.25
 40
0.25
 40
0.5
 40
0.5
 40
0.75
 40
0.75
 40
1.0
 40
1.0
 40
1.0
 40
1.0
 10
159.4539156762985
 20
100.312297173914
 30
0.0
 10
159.5513250962823
 20
100.2738824545198
 30
0.0
 10
159.6536493392959
 20
100.2361820497371
 30
0.0
 10
159.8456510248334
 20
100.1651372641429
 30
0.0
 10
159.9370856544878
 20
100.1309358027849
 30
0.0
 10
160.0888645217828
 20
100.0639393773795
 30
0.0
 10
160.1498414116974
 20
100.03079790907
 30
0.0
 10
160.2328593502617
 20
99.96112034141993
 30
0.0
 10
160.253915676302
 20
99.92538663025273
 30
0.0
 10
160.253915676302
 20
99.88901399547196
 30
0.0
  0
SPLINE
  5
C0
330
1F
100
AcDbEntity
  8
0
  6
Continuous
 62
     7
370
    15
100
AcDbSpline
210
0.0
220
0.0
230
1.0
 70
     8
 71
     3
 72
    22
 73
    18
 74
     0
 42
0.000000001
 43
0.00000001
 40
0.0
 40
0.0
 40
0.0
 40
0.0
 40
0.125
 40
0.125
 40
0.25
 40
0.25
 40
0.375
 40
0.375
 40
0.5
 40
0.5
 40
0.625
 40
0.625
 40
0.75
 40
0.75
 40
0.875
 40
0.875
 40
1.0
 40
1.0
 40
1.0
 40
1.0
 10
159.453915676302
 20
103.7654086506899
 30
0.0
 10
159.2738989817327
 20
103.6909348637133
 30
0.0
 10
159.1094671598625
 20
103.5934856017294
 30
0.0
 10
158.8110709261041
 20
103.3541161681652
 30
0.0
 10
158.6807671987392
 20
103.2142195560948
 30
0.0
 10
158.4675484151202
 20
102.9059679660348
 30
0.0
 10
158.3839205580087
 20
102.7358047479157
 30
0.0
 10
158.2727896810904
 20
102.3853100131254
 30
0.0
 10
158.2439536862366
 20
102.2001850519742
 30
0.0
 10
158.2438777435767
 20
101.8369781773572
 30
0.0
 10
158.2725363690038
 20
101.6536081636497
 30
0.0
 10
158.3836874621161
 20
101.3077170511565
 30
0.0
 10
158.4667545827599
 20
101.142197523889
 30
0.0
 10
158.6804405408782
 20
100.8416577864852
 30
0.0
 10
158.8094475308023
 20
100.7077858652012
 30
0.0
 10
159.1090568102914
 20
100.4765390957969
 30
0.0
 10
159.2738995085526
 20
100.3832889791369
 30
0.0
 10
159.453915676302
 20
100.3122971739126
 30
0.0
  0
SPLINE
  5
C1
330
1F
100
AcDbEntity
  8
0
  6
Continuous
 62
     7
370
    15
100
AcDbSpline
210
0.0
220
0.0
230
1.0
 70
     8
 71
     3
 72
     8
 73
     4
 74
     0
 42
0.000000001
 43
0.00000001
 40
0.0
 40
0.0
 40
0.0
 40
0.0
 40
1.0
 40
1.0
 40
1.0
 40
1.0
 10
161.8657523183587
 20
80.88223820775633
 30
0.0
 10
161.3271092763052
 20
81.84671038135717
 30
0.0
 10
160.7896893065014
 20
82.81188523468897
 30
0.0
 10
160.253915676302
 20
83.77794990451933
 30
0.0
  0
LINE
  5
C2
330
1F
100
AcDbEntity
  8
0
  6
Continuous
 62
     7
370
    15
100
AcDbLine
 10
160.253915555
 20
83.7779498864
 30
0.0
 11
160.253915555
 21
99.8347706366
 31
0.0
  0
SPLINE
  5
C3
330
1F
100
AcDbEntity
  8
0
  6
Continuous
 62
     7
370
    15
100
AcDbSpline
210
0.0
220
0.0
230
1.0
 70
    24
 71
     3
 72
    14
 73
    10
 74
     0
 42
0.000000001
 43
0.00000001
 40
0.0
 40
0.0
 40
0.0
 40
0.0
 40
0.25
 40
0.25
 40
0.5
 40
0.5
 40
0.75
 40
0.75
 40
1.0
 40
1.0
 40
1.0
 40
1.0
 10
160.253915676302
 20
129.9447763640208
 30
0.0
 10
160.253915676302
 20
129.9447763640208
 30
0.0
 10
160.2378340748422
 20
129.9447763640208
 30
0.0
 10
160.1723425615753
 20
129.9447763640208
 30
0.0
 10
160.123034588448
 20
129.9447763640208
 30
0.0
 10
159.988465066751
 20
129.9447763640208
 30
0.0
 10
159.9029419906658
 20
129.9447763640208
 30
0.0
 10
159.6959464951107
 20
129.9447763640208
 30
0.0
 10
159.5752528611671
 20
129.9447763640208
 30
0.0
 10
159.4539156763021
 20
129.9447763640208
 30
0.0
  0
SPLINE
  5
C4
330
1F
100
AcDbEntity
  8
0
  6
Continuous
 62
     7
370
    15
100
AcDbSpline
210
0.0
220
0.0
230
1.0
 70
     8
 71
     3
 72
    12
 73
     8
 74
     0
 42
0.000000001
 43
0.00000001
 40
0.0
 40
0.0
 40
0.0
 40
0.0
 40
0.2500000000000015
 40
0.2500000000000015
 40
0.500000000000003
 40
0.500000000000003
 40
1.0
 40
1.0
 40
1.0
 40
1.0
 10
157.233915676302
 20
84.77691850773405
 30
0.0
 10
157.1275138259446
 20
84.77691850773407
 30
0.0
 10
157.020198414548
 20
84.75414774371556
 30
0.0
 10
156.8247268235208
 20
84.66790479706346
 30
0.0
 10
156.7345447075832
 20
84.60322847659292
 30
0.0
 10
156.5163232208625
 20
84.37029915253612
 30
0.0
 10
156.4339156763017
 20
84.1557139146451
 30
0.0
 10
156.433915676302
 20
83.94269687621238
 30
0.0
  0
SPLINE
  5
C5
330
1F
100
AcDbEntity
  8
0
  6
Continuous
 62
     7
370
    15
100
AcDbSpline
210
0.0
220
0.0
230
1.0
 70
    24
 71
     3
 72
    14
 73
    10
 74
     0
 42
0.000000001
 43
0.00000001
 40
0.0
 40
0.0
 40
0.0
 40
0.0
 40
0.1250000000000007
 40
0.1250000000000007
 40
0.2500000000000014
 40
0.2500000000000014
 40
0.499999999999999
 40
0.499999999999999
 40
1.0
 40
1.0
 40
1.0
 40
1.0
 10
157.233915676302
 20
129.9447763640208
 30
0.0
 10
157.1732983528844
 20
129.9447763640208
 30
0.0
 10
157.1111732047494
 20
129.9447763640208
 30
0.0
 10
156.994955541728
 20
129.9447763640208
 30
0.0
 10
156.9403389020356
 20
129.9447763640208
 30
0.0
 10
156.7856625635274
 20
129.9447763640208
 30
0.0
 10
156.6995458147433
 20
129.9447763640208
 30
0.0
 10
156.4982382342027
 20
129.9447763640208
 30
0.0
 10
156.433915676302
 20
129.9447763640208
 30
0.0
 10
156.433915676302
 20
129.9447763640208
 30
0.0
  0
LINE
  5
C6
330
1F
100
AcDbEntity
  8
0
  6
Continuous
 62
     7
370
    15
100
AcDbLine
 10
159.4539159827
 20
84.7769181449
 30
0.0
 11
157.2339158423
 21
84.7769181449
 31
0.0
  0
LINE
  5
C7
330
1F
100
AcDbEntity
  8
0
  6
Continuous
 62
     7
370
    15
100
AcDbLine
 10
159.4539159827
 20
129.9447759259
 30
0.0
 11
157.2339158423
 21
129.9447759259
 31
0.0
  0
SPLINE
  5
C8
330
1F
100
AcDbEntity
  8
0
  6
Continuous
 62
     7
370
    15
100
AcDbSpline
210
0.0
220
0.0
230
1.0
 70
     8
 71
     3
 72
     8
 73
     4
 74
     0
 42
0.000000001
 43
0.00000001
 40
0.0
 40
0.0
 40
0.0
 40
0.0
 40
1.0
 40
1.0
 40
1.0
 40
1.0
 10
166.5825908108968
 20
138.1117287673375
 30
0.0
 10
166.5124921283874
 20
137.965816155256
 30
0.0
 10
166.416591514131
 20
137.8355368914161
 30
0.0
 10
166.293915676302
 20
137.7295451714141
 30
0.0
  0
SPLINE
  5
C9
330
1F
100
AcDbEntity
  8
0
  6
Continuous
 62
     7
370
    15
100
AcDbSpline
210
0.0
220
0.0
230
1.0
 70
     8
 71
     3
 72
    12
 73
     8
 74
     0
 42
0.000000001
 43
0.00000001
 40
0.0
 40
0.0
 40
0.0
 40
0.0
 40
0.4999999999999987
 40
0.4999999999999987
 40
0.7499999999999993
 40
0.7499999999999993
 40
1.0
 40
1.0
 40
1.0
 40
1.0
 10
160.253915676302
 20
83.94269687621373
 30
0.0
 10
160.253915676302
 20
84.15551943514663
 30
0.0
 10
160.1719903184823
 20
84.3697759417846
 30
0.0
 10
159.9530685150139
 20
84.60346557023449
 30
0.0
 10
159.8630212235228
 20
84.66795039507846
 30
0.0
 10
159.667607755503
 20
84.75415000623403
 30
0.0
 10
159.5603247885192
 20
84.77691850773405
 30
0.0
 10
159.453915676302
 20
84.77691850773405
 30
0.0
  0
LINE
  5
CA
330
1F
100
AcDbEntity
  8
0
  6
Continuous
 62
     7
370
    15
100
AcDbLine
 10
147.2439156763
 20
89.3697763998
 30
0.0
 11
147.2439156763
 21
133.8197763283
 31
0.0
  0
SPLINE
  5
CB
330
1F
100
AcDbEntity
  8
0
  6
Continuous
 62
     7
370
    15
100
AcDbSpline
210
0.0
220
0.0
230
1.0
 70
     8
 71
     3
 72
     8
 73
     4
 74
     0
 42
0.000000001
 43
0.00000001
 40
0.0
 40
0.0
 40
0.0
 40
0.0
 40
1.0
 40
1.0
 40
1.0
 40
1.0
 10
166.293915676302
 20
137.7295451714141
 30
0.0
 10
166.1327449754363
 20
137.5902939537253
 30
0.0
 10
165.9300709225264
 20
137.5050060040684
 30
0.0
 10
165.7165654071124
 20
137.5050060040684
 30
0.0
  0
SPLINE
  5
CC
330
1F
100
AcDbEntity
  8
0
  6
Continuous
 62
     7
370
    15
100
AcDbSpline
210
0.0
220
0.0
230
1.0
 70
     8
 71
     3
 72
     8
 73
     4
 74
     0
 42
0.000000001
 43
0.00000001
 40
0.0
 40
0.0
 40
0.0
 40
0.0
 40
1.0
 40
1.0
 40
1.0
 40
1.0
 10
165.7165654071124
 20
142.3073145202852
 30
0.0
 10
165.9243187458262
 20
142.3073145202852
 30
0.0
 10
166.1262188239756
 20
142.3744422650359
 30
0.0
 10
166.293915676302
 20
142.4969792080884
 30
0.0
  0
SPLINE
  5
CD
330
1F
100
AcDbEntity
  8
0
  6
Continuous
 62
     7
370
    15
100
AcDbSpline
210
0.0
220
0.0
230
1.0
 70
     8
 71
     3
 72
     8
 73
     4
 74
     0
 42
0.000000001
 43
0.00000001
 40
0.0
 40
0.0
 40
0.0
 40
0.0
 40
1.0
 40
1.0
 40
1.0
 40
1.0
 10
166.293915676302
 20
142.4969792080884
 30
0.0
 10
166.4134610730816
 20
142.5843316376311
 30
0.0
 10
166.5106729556017
 20
142.6959670513804
 30
0.0
 10
166.5825908108968
 20
142.8252636053901
 30
0.0
  0
SPLINE
  5
CE
330
1F
100
AcDbEntity
  8
0
  6
Continuous
 62
     7
370
    15
100
AcDbSpline
210
0.0
220
0.0
230
1.0
 70
     8
 71
     3
 72
     8
 73
     4
 74
     0
 42
0.000000001
 43
0.00000001
 40
0.0
 40
0.0
 40
0.0
 40
0.0
 40
1.0
 40
1.0
 40
1.0
 40
1.0
 10
161.8657523183587
 20
142.3073145202852
 30
0.0
 10
161.3271026232952
 20
141.3428304340771
 30
0.0
 10
160.7896878301904
 20
140.3776648313853
 30
0.0
 10
160.253915676302
 20
139.4116028235223
 30
0.0
  0
LINE
  5
CF
330
1F
100
AcDbEntity
  8
0
  6
Continuous
 62
     7
370
    15
100
AcDbLine
 10
161.8657527409
 20
137.5050067175
 30
0.0
 11
161.8657527409
 21
142.3073138315
 31
0.0
  0
SPLINE
  5
D0
330
1F
100
AcDbEntity
  8
0
  6
Continuous
 62
     7
370
    15
100
AcDbSpline
210
0.0
220
0.0
230
1.0
 70
     8
 71
     3
 72
     8
 73
     4
 74
     0
 42
0.000000001
 43
0.00000001
 40
0.0
 40
0.0
 40
0.0
 40
0.0
 40
1.0
 40
1.0
 40
1.0
 40
1.0
 10
160.253915676302
 20
133.9969154198793
 30
0.0
 10
160.7786966351914
 20
135.1718698585691
 30
0.0
 10
161.3172013216885
 20
136.3407456649399
 30
0.0
 10
161.8657523183587
 20
137.5050060040684
 30
0.0
  0
LINE
  5
D1
330
1F
100
AcDbEntity
  8
0
  6
Continuous
 62
     7
370
    15
100
AcDbLine
 10
160.253915555
 20
133.9969157446
 30
0.0
 11
160.253915555
 21
139.4116028417
 31
0.0
  0
LINE
  5
D2
330
1F
100
AcDbEntity
  8
0
  6
Continuous
 62
     7
370
    15
100
AcDbLine
 10
159.4539159827
 20
138.4126345832
 30
0.0
 11
157.2339158423
 21
138.4126345832
 31
0.0
  0
LINE
  5
D3
330
1F
100
AcDbEntity
  8
0
  6
Continuous
 62
     7
370
    15
100
AcDbLine
 10
157.2339158423
 20
132.743713187
 30
0.0
 11
159.4539159827
 21
132.743713187
 31
0.0
  0
SPLINE
  5
D4
330
1F
100
AcDbEntity
  8
0
  6
Continuous
 62
     7
370
    15
100
AcDbSpline
210
0.0
220
0.0
230
1.0
 70
     8
 71
     3
 72
     8
 73
     4
 74
     0
 42
0.000000001
 43
0.00000001
 40
0.0
 40
0.0
 40
0.0
 40
0.0
 40
1.0
 40
1.0
 40
1.0
 40
1.0
 10
156.433915676302
 20
139.4116028235223
 30
0.0
 10
155.8981435224136
 20
140.3776648313853
 30
0.0
 10
155.3607287293089
 20
141.3428304340771
 30
0.0
 10
154.8220790342453
 20
142.3073145202852
 30
0.0
  0
SPLINE
  5
D5
330
1F
100
AcDbEntity
  8
0
  6
Continuous
 62
     7
370
    15
100
AcDbSpline
210
0.0
220
0.0
230
1.0
 70
     8
 71
     3
 72
     8
 73
     4
 74
     0
 42
0.000000001
 43
0.00000001
 40
0.0
 40
0.0
 40
0.0
 40
0.0
 40
1.0
 40
1.0
 40
1.0
 40
1.0
 10
154.8220790342453
 20
137.5050060040684
 30
0.0
 10
155.371072790991
 20
136.3398059382804
 30
0.0
 10
155.9096471590041
 20
135.1707225312658
 30
0.0
 10
156.433915676302
 20
133.9969154198793
 30
0.0
  0
LINE
  5
D6
330
1F
100
AcDbEntity
  8
0
  6
Continuous
 62
     7
370
    15
100
AcDbLine
 10
154.822079084
 20
137.5050067175
 30
0.0
 11
154.822079084
 21
142.3073138315
 31
0.0
  0
LINE
  5
D7
330
1F
100
AcDbEntity
  8
0
  6
Continuous
 62
     7
370
    15
100
AcDbLine
 10
156.4339153386
 20
133.9969157446
 30
0.0
 11
156.4339153386
 21
139.4116028417
 31
0.0
  0
SPLINE
  5
D8
330
1F
100
AcDbEntity
  8
0
  6
Continuous
 62
     7
370
    15
100
AcDbSpline
210
0.0
220
0.0
230
1.0
 70
     8
 71
     3
 72
    12
 73
     8
 74
     0
 42
0.000000001
 43
0.00000001
 40
0.0
 40
0.0
 40
0.0
 40
0.0
 40
0.5
 40
0.5
 40
0.75
 40
0.75
 40
1.0
 40
1.0
 40
1.0
 40
1.0
 10
160.253915676302
 20
139.2468558518279
 30
0.0
 10
160.253915676302
 20
139.0337184501764
 30
0.0
 10
160.1712732611541
 20
138.8187389254387
 30
0.0
 10
159.9526898503437
 20
138.5858198565529
 30
0.0
 10
159.863599897363
 20
138.5219529467324
 30
0.0
 10
159.6681945794654
 20
138.4355667923506
 30
0.0
 10
159.5616705325221
 20
138.4126342203075
 30
0.0
 10
159.453915676302
 20
138.4126342203075
 30
0.0
  0
SPLINE
  5
D9
330
1F
100
AcDbEntity
  8
0
  6
Continuous
 62
     7
370
    15
100
AcDbSpline
210
0.0
220
0.0
230
1.0
 70
     8
 71
     3
 72
    12
 73
     8
 74
     0
 42
0.000000001
 43
0.00000001
 40
0.0
 40
0.0
 40
0.0
 40
0.0
 40
0.2500000000000015
 40
0.2500000000000015
 40
0.500000000000003
 40
0.500000000000003
 40
1.0
 40
1.0
 40
1.0
 40
1.0
 10
159.453915676302
 20
132.7437125074773
 30
0.0
 10
159.5759976737903
 20
132.7437125074773
 30
0.0
 10
159.696588216276
 20
132.782438863651
 30
0.0
 10
159.9020834999758
 20
132.9124024513973
 30
0.0
 10
159.9875999829283
 20
133.001608687944
 30
0.0
 10
160.1909943344725
 20
133.3064852254896
 30
0.0
 10
160.253915676302
 20
133.5492558395917
 30
0.0
 10
160.253915676302
 20
133.7920171835461
 30
0.0
  0
SPLINE
  5
DA
330
1F
100
AcDbEntity
  8
0
  6
Continuous
 62
     7
370
    15
100
AcDbSpline
210
0.0
220
0.0
230
1.0
 70
     8
 71
     3
 72
    12
 73
     8
 74
     0
 42
0.000000001
 43
0.00000001
 40
0.0
 40
0.0
 40
0.0
 40
0.0
 40
0.4999999999999996
 40
0.4999999999999996
 40
0.7499999999999998
 40
0.7499999999999998
 40
1.0
 40
1.0
 40
1.0
 40
1.0
 10
150.443915676302
 20
136.7661887201043
 30
0.0
 10
150.443915676302
 20
136.9412765907404
 30
0.0
 10
150.4942658929485
 20
137.1193637848754
 30
0.0
 10
150.6492174696786
 20
137.3314045395024
 30
0.0
 10
150.7149623252571
 20
137.3932234514884
 30
0.0
 10
150.8680845928843
 20
137.4803008723655
 30
0.0
 10
150.9556612421293
 20
137.5050060040684
 30
0.0
 10
151.043915676302
 20
137.5050060040684
 30
0.0
  0
LINE
  5
DB
330
1F
100
AcDbEntity
  8
0
  6
Continuous
 62
     7
370
    15
100
AcDbLine
 10
151.0439157404
 20
137.5050067175
 30
0.0
 11
154.822079084
 21
137.5050067175
 31
0.0
  0
SPLINE
  5
DC
330
1F
100
AcDbEntity
  8
0
  6
Continuous
 62
     7
370
    15
100
AcDbSpline
210
0.0
220
0.0
230
1.0
 70
     8
 71
     3
 72
    14
 73
    10
 74
     0
 42
0.000000001
 43
0.00000001
 40
0.0
 40
0.0
 40
0.0
 40
0.0
 40
0.25
 40
0.25
 40
0.5
 40
0.5
 40
0.75
 40
0.75
 40
1.0
 40
1.0
 40
1.0
 40
1.0
 10
156.433915676302
 20
133.7920171835461
 30
0.0
 10
156.433915676302
 20
133.6700818483645
 30
0.0
 10
156.449960043842
 20
133.5505276078631
 30
0.0
 10
156.5156893860213
 20
133.3164116247198
 30
0.0
 10
156.5648967562696
 20
133.2044790845852
 30
0.0
 10
156.6999097371685
 20
133.0020792753483
 30
0.0
 10
156.7858298057748
 20
132.9122140817853
 30
0.0
 10
156.9923446077802
 20
132.7818795721751
 30
0.0
 10
157.1124833201513
 20
132.7437125074773
 30
0.0
 10
157.233915676302
 20
132.7437125074773
 30
0.0
  0
LINE
  5
DD
330
1F
100
AcDbEntity
  8
0
  6
Continuous
 62
     7
370
    15
100
AcDbLine
 10
161.8657527409
 20
137.5050067175
 30
0.0
 11
165.7165648333
 21
137.5050067175
 31
0.0
  0
LINE
  5
DE
330
1F
100
AcDbEntity
  8
0
  6
Continuous
 62
     7
370
    15
100
AcDbLine
 10
160.253915555
 20
133.7920173276
 30
0.0
 11
160.253915555
 21
133.9969157446
 31
0.0
  0
LINE
  5
DF
330
1F
100
AcDbEntity
  8
0
  6
Continuous
 62
     7
370
    15
100
AcDbLine
 10
156.4339153386
 20
133.9969157446
 30
0.0
 11
156.4339153386
 21
133.7920173276
 31
0.0
  0
LINE
  5
E0
330
1F
100
AcDbEntity
  8
0
  6
Continuous
 62
     7
370
    15
100
AcDbLine
 10
150.4439155955
 20
136.7661885191
 30
0.0
 11
150.4439155955
 21
129.9447759259
 31
0.0
  0
SPLINE
  5
E1
330
1F
100
AcDbEntity
  8
0
  6
Continuous
 62
     7
370
    15
100
AcDbSpline
210
0.0
220
0.0
230
1.0
 70
     8
 71
     3
 72
    14
 73
    10
 74
     0
 42
0.000000001
 43
0.00000001
 40
0.0
 40
0.0
 40
0.0
 40
0.0
 40
0.25
 40
0.25
 40
0.5
 40
0.5
 40
0.75
 40
0.75
 40
1.0
 40
1.0
 40
1.0
 40
1.0
 10
151.043915676302
 20
142.1996779322337
 30
0.0
 10
150.9710675015464
 20
142.1795645828961
 30
0.0
 10
150.9016100410625
 20
142.1467866764163
 30
0.0
 10
150.7689227296383
 20
142.0579703022287
 30
0.0
 10
150.7056787572271
 20
142.0013564065774
 30
0.0
 10
150.5943972146245
 20
141.8680481376
 30
0.0
 10
150.544222267446
 20
141.7890442194982
 30
0.0
 10
150.4691618979454
 20
141.6091350180294
 30
0.0
 10
150.443915676302
 20
141.5067377623302
 30
0.0
 10
150.443915676302
 20
141.4011515210237
 30
0.0
  0
LINE
  5
E2
330
1F
100
AcDbEntity
  8
0
  6
Continuous
 62
     7
370
    15
100
AcDbLine
 10
150.4439155955
 20
136.7661885191
 30
0.0
 11
150.4439155955
 21
141.4011518676
 31
0.0
  0
SPLINE
  5
E3
330
1F
100
AcDbEntity
  8
0
  6
Continuous
 62
     7
370
    15
100
AcDbSpline
210
0.0
220
0.0
230
1.0
 70
     8
 71
     3
 72
    14
 73
    10
 74
     0
 42
0.000000001
 43
0.00000001
 40
0.0
 40
0.0
 40
0.0
 40
0.0
 40
0.25
 40
0.25
 40
0.5
 40
0.5
 40
0.75
 40
0.75
 40
1.0
 40
1.0
 40
1.0
 40
1.0
 10
157.233915676302
 20
138.4126342203075
 30
0.0
 10
157.1265466317876
 20
138.4126342203075
 30
0.0
 10
157.0197411400248
 20
138.4355592157125
 30
0.0
 10
156.824599771508
 20
138.5217516495867
 30
0.0
 10
156.7353900539181
 20
138.5855956462507
 30
0.0
 10
156.5894632611017
 20
138.741011754192
 30
0.0
 10
156.5314735173036
 20
138.8336663323998
 30
0.0
 10
156.4538796757811
 20
139.0328996724493
 30
0.0
 10
156.433915676302
 20
139.1395047675045
 30
0.0
 10
156.433915676302
 20
139.2468558518279
 30
0.0
  0
ARC
  5
E4
330
1F
100
AcDbEntity
  8
0
  6
Continuous
 62
     7
370
    15
100
AcDbCircle
 10
159.4939156763
 20
111.594776364
 30
0.0
 40
31.74999999999998
100
AcDbArc
 50
104.68728639
 51
105.4348057522
  0
LINE
  5
E5
330
1F
100
AcDbEntity
  8
0
  6
Continuous
 62
     7
370
    15
100
AcDbLine
 10
154.822079084
 20
142.3073138315
 30
0.0
 11
151.4439155265
 21
142.3073138315
 31
0.0
  0
LINE
  5
E6
330
1F
100
AcDbEntity
  8
0
  6
Continuous
 62
     7
370
    15
100
AcDbLine
 10
165.7165648333
 20
142.3073138315
 30
0.0
 11
161.8657527409
 21
142.3073138315
 31
0.0
  0
LINE
  5
E7
330
1F
100
AcDbEntity
  8
0
  6
Continuous
 62
     7
370
    15
100
AcDbLine
 10
78.9939151995
 20
100.1876459662
 30
0.0
 11
78.9939151995
 21
123.0019067619
 31
0.0
  0
ARC
  5
E8
330
1F
100
AcDbEntity
  8
0
  6
Continuous
 62
     7
370
    15
100
AcDbCircle
 10
160.1338602564
 20
102.363663029
 30
0.0
 40
1.892804725181413
100
AcDbArc
 50
185.5168289074
 51
252.3473473685
  0
ARC
  5
E9
330
1F
100
AcDbEntity
  8
0
  6
Continuous
 62
     7
370
    15
100
AcDbCircle
 10
160.2486135063
 20
102.4839858933
 30
0.0
 40
2.043559659855703
100
AcDbArc
 50
250.3040533785
 51
331.9803415661
  0
ARC
  5
EA
330
1F
100
AcDbEntity
  8
0
  6
Continuous
 62
     7
370
    15
100
AcDbCircle
 10
160.1072616335
 20
102.2952776907
 30
0.0
 40
1.757771930600331
100
AcDbArc
 50
161.2892351507
 51
253.0251659732
  0
ARC
  5
EB
330
1F
100
AcDbEntity
  8
0
  6
Continuous
 62
     7
370
    15
100
AcDbCircle
 10
160.248683285
 20
102.435614617
 30
0.0
 40
1.935581019847015
100
AcDbArc
 50
250.2329881711
 51
335.318847275
  0
ARC
  5
EC
330
1F
100
AcDbEntity
  8
0
  6
Continuous
 62
     7
370
    15
100
AcDbCircle
 10
160.1634469439
 20
102.300869645
 30
0.0
 40
1.401973602343364
100
AcDbArc
 50
87.3111691038
 51
252.0288936932
  0
ARC
  5
ED
330
1F
100
AcDbEntity
  8
0
  6
Continuous
 62
     7
370
    15
100
AcDbCircle
 10
160.252135785
 20
102.377716446
 30
0.0
 40
1.50365876694385
100
AcDbArc
 50
249.7171755107
 51
349.3882944071
  0
CIRCLE
  5
EE
330
1F
100
AcDbEntity
  8
0
  6
HIDDEN
 62
     7
370
     0
100
AcDbCircle
 10
201.7939156763
 20
111.594776364
 30
0.0
 40
8.980667620239291
  0
CIRCLE
  5
EF
330
1F
100
AcDbEntity
  8
0
  6
HIDDEN
 62
     7
370
     0
100
AcDbCircle
 10
201.7939156763
 20
111.594776364
 30
0.0
 40
6.375755334184825
  0
CIRCLE
  5
F0
330
1F
100
AcDbEntity
  8
0
  6
HIDDEN
 62
     7
370
     0
100
AcDbCircle
 10
201.7939156763
 20
111.594776364
 30
0.0
 40
5.975755334184845
  0
CIRCLE
  5
F1
330
1F
100
AcDbEntity
  8
0
  6
HIDDEN
 62
     7
370
     0
100
AcDbCircle
 10
201.7939156763
 20
111.594776364
 30
0.0
 40
9.25
  0
LINE
  5
F2
330
1F
100
AcDbEntity
  8
0
  6
HIDDEN
 62
     7
370
     0
100
AcDbLine
 10
225.5939157597
 20
138.9287661034
 30
0.0
 11
225.5939157597
 21
84.2607866246
 31
0.0
  0
SPLINE
  5
F3
330
1F
100
AcDbEntity
  8
0
  6
HIDDEN
 62
     7
370
     0
100
AcDbSpline
210
0.0
220
0.0
230
1.0
 70
     8
 71
     3
 72
    22
 73
    18
 74
     0
 42
0.000000001
 43
0.00000001
 40
0.0
 40
0.0
 40
0.0
 40
0.0
 40
0.125
 40
0.125
 40
0.25
 40
0.25
 40
0.375
 40
0.375
 40
0.5
 40
0.5
 40
0.625
 40
0.625
 40
0.75
 40
0.75
 40
0.875
 40
0.875
 40
1.0
 40
1.0
 40
1.0
 40
1.0
 10
225.593915676302
 20
84.26078594282546
 30
0.0
 10
225.6693060308788
 20
83.9768984083866
 30
0.0
 10
225.7359105450513
 20
83.69980109445615
 30
0.0
 10
225.85212254538
 20
83.15927468849542
 30
0.0
 10
225.901943991096
 20
82.89450705618022
 30
0.0
 10
225.9826933023828
 20
82.3856780071608
 30
0.0
 10
226.0129253041141
 20
82.14653100514282
 30
0.0
 10
226.0536968932805
 20
81.69833696249175
 30
0.0
 10
226.0642199555961
 20
81.48762445835958
 30
0.0
 10
226.0642997573516
 20
81.10653203477796
 30
0.0
 10
226.0540581621869
 20
80.93790347858135
 30
0.0
 10
226.0135341454442
 20
80.64315851258479
 30
0.0
 10
225.9827688807205
 20
80.5161562414771
 30
0.0
 10
225.9025535119063
 20
80.31291925496149
 30
0.0
 10
225.8533346827132
 20
80.23595610456097
 30
0.0
 10
225.7369236840159
 20
80.12951061674443
 30
0.0
 10
225.6693229110616
 20
80.10023661817308
 30
0.0
 10
225.593915676302
 20
80.09547780677053
 30
0.0
  0
LINE
  5
F4
330
1F
100
AcDbEntity
  8
0
  6
HIDDEN
 62
     7
370
     0
100
AcDbLine
 10
225.5939157597
 20
80.095476212
 30
0.0
 11
225.5939157597
 21
73.2031564433
 31
0.0
  0
LINE
  5
F5
330
1F
100
AcDbEntity
  8
0
  6
HIDDEN
 62
     7
370
     0
100
AcDbLine
 10
225.5939157597
 20
149.9863962848
 30
0.0
 11
225.5939157597
 21
143.0940765161
 31
0.0
  0
SPLINE
  5
F6
330
1F
100
AcDbEntity
  8
0
  6
HIDDEN
 62
     7
370
     0
100
AcDbSpline
210
0.0
220
0.0
230
1.0
 70
     8
 71
     3
 72
    22
 73
    18
 74
     0
 42
0.000000001
 43
0.00000001
 40
0.0
 40
0.0
 40
0.0
 40
0.0
 40
0.1250000000000004
 40
0.1250000000000004
 40
0.2500000000000007
 40
0.2500000000000007
 40
0.3750000000000006
 40
0.3750000000000006
 40
0.5000000000000004
 40
0.5000000000000004
 40
0.6250000000000002
 40
0.6250000000000002
 40
0.7500000000000001
 40
0.7500000000000001
 40
0.8750000000000001
 40
0.8750000000000001
 40
1.0
 40
1.0
 40
1.0
 40
1.0
 10
225.593915676302
 20
143.094074921271
 30
0.0
 10
225.6693060308788
 20
143.0893171751457
 30
0.0
 10
225.7359105450513
 20
143.0605562451648
 30
0.0
 10
225.85212254538
 20
142.9551094412173
 30
0.0
 10
225.9019439910959
 20
142.8779014880006
 30
0.0
 10
225.9826933023828
 20
142.6738619314413
 30
0.0
 10
226.012925304114
 20
142.5492986181884
 30
0.0
 10
226.0536968932805
 20
142.2557648166295
 30
0.0
 10
226.0642199555961
 20
142.0850685896841
 30
0.0
 10
226.0642997573516
 20
141.7042793915707
 30
0.0
 10
226.0540581621869
 20
141.4967038031617
 30
0.0
 10
226.0135341454442
 20
141.0482336556498
 30
0.0
 10
225.9827688807205
 20
140.8046282908664
 30
0.0
 10
225.9025535119062
 20
140.2986115030001
 30
0.0
 10
225.8533346827132
 20
140.036342432062
 30
0.0
 10
225.7369236840159
 20
139.4940455360544
 30
0.0
 10
225.6693229110616
 20
139.2127178831373
 30
0.0
 10
225.593915676302
 20
138.9287667852161
 30
0.0
  0
SPLINE
  5
F7
330
1F
100
AcDbEntity
  8
0
  6
HIDDEN
 62
     7
370
     0
100
AcDbSpline
210
0.0
220
0.0
230
1.0
 70
     8
 71
     3
 72
     9
 73
     5
 74
     0
 42
0.000000001
 43
0.00000001
 40
0.0
 40
0.0
 40
0.0
 40
0.0
 40
0.9333113421934416
 40
1.0
 40
1.0
 40
1.0
 40
1.0
 10
158.2680247641864
 20
103.8482372853679
 30
0.0
 10
158.2534489456377
 20
103.7472671973083
 30
0.0
 10
158.2378316292184
 20
103.6390824110585
 30
0.0
 10
158.2448614841015
 20
103.5465999140836
 30
0.0
 10
158.2453302956882
 20
103.5404323804898
 30
0.0
  0
LWPOLYLINE
  5
F8
330
1F
100
AcDbEntity
  8
0
  6
HIDDEN
 62
     7
370
     0
100
AcDbPolyline
 90
       19
 70
   128
 43
0.0
 10
158.2680247642
 20
103.2663683612
 10
158.4766438149
 20
102.6774223167
 10
158.8780410506
 20
102.1844555828
 10
159.4284312717
 20
101.8412417937
 10
160.0677758373
 20
101.6852201167
 10
160.7263345189
 20
101.733410472
 10
161.3322697498
 20
101.9805546123
 10
161.8194855667
 20
102.3996944744
 10
162.1348332532
 20
102.9451086391
 10
162.243915341
 20
103.5573032889
 10
162.1348332532
 20
104.1694970075
 10
161.8194855667
 20
104.7149116378
 10
161.3322697498
 20
105.1340514999
 10
160.7263345189
 20
105.3811956402
 10
160.0677758373
 20
105.4293855298
 10
159.4284312717
 20
105.2733638529
 10
158.8780410506
 20
104.9301505293
 10
158.4766438149
 20
104.4371837955
 10
158.2680247642
 20
103.8482372854
  0
LINE
  5
F9
330
1F
100
AcDbEntity
  8
0
  6
HIDDEN
 62
     7
370
     0
100
AcDbLine
 10
220.7939164631
 20
124.5416325722
 30
0.0
 11
220.7939164631
 21
98.6479201559
 31
0.0
  0
LWPOLYLINE
  5
FA
330
1F
100
AcDbEntity
  8
0
  6
HIDDEN
 62
     7
370
     0
100
AcDbPolyline
 90
       21
 70
   128
 43
0.0
 10
150.6941272795
 20
102.6965917293
 10
150.8569711271
 20
102.0602655802
 10
151.1168655392
 20
101.4862272162
 10
151.4483700424
 20
101.0306679848
 10
151.8190350301
 20
100.7381814737
 10
152.1925768733
 20
100.6373965386
 10
152.5324309163
 20
100.7381814737
 10
152.805329851
 20
101.0306679848
 10
152.9845600866
 20
101.4862272162
 10
153.0525782995
 20
102.0602655802
 10
153.0027250677
 20
102.6965917293
 10
152.8398814529
 20
103.3329178784
 10
152.5799870409
 20
103.9069562424
 10
152.2484823048
 20
104.3625154737
 10
151.8778173171
 20
104.6550024505
 10
151.5042754739
 20
104.7557864543
 10
151.164421431
 20
104.6550024505
 10
150.8915224962
 20
104.3625154737
 10
150.7122920278
 20
103.9069562424
 10
150.6442742806
 20
103.3329178784
 10
150.6941272795
 20
102.6965917293
  0
LINE
  5
FB
330
1F
100
AcDbEntity
  8
0
  6
HIDDEN
 62
     7
370
     0
100
AcDbLine
 10
220.7939164631
 20
142.9448376614
 30
0.0
 11
225.5939157597
 21
142.9448376614
 31
0.0
  0
LINE
  5
FC
330
1F
100
AcDbEntity
  8
0
  6
HIDDEN
 62
     7
370
     0
100
AcDbLine
 10
225.5939157597
 20
142.9448376614
 30
0.0
 11
225.5939157597
 21
143.0941323954
 31
0.0
  0
LINE
  5
FD
330
1F
100
AcDbEntity
  8
0
  6
HIDDEN
 62
     7
370
     0
100
AcDbLine
 10
220.7939164631
 20
137.8947763908
 30
0.0
 11
220.7939164631
 21
143.0947768707
 31
0.0
  0
LINE
  5
FE
330
1F
100
AcDbEntity
  8
0
  6
HIDDEN
 62
     7
370
     0
100
AcDbLine
 10
225.5939157597
 20
124.5416325722
 30
0.0
 11
220.7939164631
 21
124.5416325722
 31
0.0
  0
LINE
  5
FF
330
1F
100
AcDbEntity
  8
0
  6
HIDDEN
 62
     7
370
     0
100
AcDbLine
 10
220.7939164631
 20
124.5416325722
 30
0.0
 11
220.7939164631
 21
137.8947763908
 31
0.0
  0
LINE
  5
100
330
1F
100
AcDbEntity
  8
0
  6
HIDDEN
 62
     7
370
     0
100
AcDbLine
 10
220.7939164631
 20
98.6479201559
 30
0.0
 11
225.5939157597
 21
98.6479201559
 31
0.0
  0
LINE
  5
101
330
1F
100
AcDbEntity
  8
0
  6
HIDDEN
 62
     7
370
     0
100
AcDbLine
 10
220.7939164631
 20
85.2947763372
 30
0.0
 11
220.7939164631
 21
98.6479201559
 31
0.0
  0
LINE
  5
102
330
1F
100
AcDbEntity
  8
0
  6
HIDDEN
 62
     7
370
     0
100
AcDbLine
 10
220.7939164631
 20
80.2447150666
 30
0.0
 11
225.5939157597
 21
80.2447150666
 31
0.0
  0
LINE
  5
103
330
1F
100
AcDbEntity
  8
0
  6
HIDDEN
 62
     7
370
     0
100
AcDbLine
 10
225.5939157597
 20
80.2447150666
 30
0.0
 11
225.5939157597
 21
80.0954203326
 31
0.0
  0
LINE
  5
104
330
1F
100
AcDbEntity
  8
0
  6
HIDDEN
 62
     7
370
     0
100
AcDbLine
 10
220.7939164631
 20
80.0947758574
 30
0.0
 11
220.7939164631
 21
85.2947763372
 31
0.0
  0
LINE
  5
105
330
1F
100
AcDbEntity
  8
0
  6
HIDDEN
 62
     7
370
     0
100
AcDbLine
 10
174.2818193428
 20
149.1006898898
 30
0.0
 11
174.2818193428
 21
129.9447759259
 31
0.0
  0
LWPOLYLINE
  5
106
330
1F
100
AcDbEntity
  8
0
  6
HIDDEN
 62
     7
370
     0
100
AcDbPolyline
 90
       19
 70
   128
 43
0.0
 10
151.0756431065
 20
102.7287223581
 10
151.222822807
 20
102.1753546987
 10
151.4616413891
 20
101.6887312028
 10
151.7632944427
 20
101.3275466133
 10
152.0913984544
 20
101.1353635434
 10
152.4063782684
 20
101.1353635434
 10
152.6702438399
 20
101.3275466133
 10
152.8511681512
 20
101.6887312028
 10
152.927329383
 20
102.1753546987
 10
152.8895414352
 20
102.7287223581
 10
152.7423622004
 20
103.2820900175
 10
152.5035431526
 20
103.7687135134
 10
152.201890099
 20
104.1298985686
 10
151.8737860873
 20
104.3220811728
 10
151.5588062733
 20
104.3220811728
 10
151.2949407018
 20
104.1298985686
 10
151.1140166234
 20
103.7687135134
 10
151.0378553916
 20
103.2820900175
 10
151.0756431065
 20
102.7287223581
  0
LINE
  5
107
330
1F
100
AcDbEntity
  8
0
  6
HIDDEN
 62
     7
370
     0
100
AcDbLine
 10
174.2818193428
 20
129.9447759259
 30
0.0
 11
165.7165648333
 21
129.9447759259
 31
0.0
  0
LINE
  5
108
330
1F
100
AcDbEntity
  8
0
  6
HIDDEN
 62
     7
370
     0
100
AcDbLine
 10
219.2939134232
 20
111.594776364
 30
0.0
 11
219.2939134232
 21
86.5947759915
 31
0.0
  0
LINE
  5
109
330
1F
100
AcDbEntity
  8
0
  6
HIDDEN
 62
     7
370
     0
100
AcDbLine
 10
219.2939134232
 20
136.5947767365
 30
0.0
 11
219.2939134232
 21
111.594776364
 31
0.0
  0
ELLIPSE
  5
10A
330
1F
100
AcDbEntity
  8
0
  6
HIDDEN
 62
     7
370
     0
100
AcDbEllipse
 10
160.2439156763
 20
104.7071863035
 30
0.0
 11
1.383467579512086
 21
-1.091267719176599
 31
0.0
210
0.0
220
0.0
230
1.0
 40
0.8239737799
 41
2.147131942757454
 42
5.28872459634726
  0
ELLIPSE
  5
10B
330
1F
100
AcDbEntity
  8
0
  6
HIDDEN
 62
     7
370
     0
100
AcDbEllipse
 10
160.2439156763
 20
104.7071863035
 30
0.0
 11
1.383467579512086
 21
1.753907414218489
 31
0.0
210
0.0
220
0.0
230
1.0
 40
0.5126701559
 41
0.9944607108323444
 42
4.13605336442215
  0
SPLINE
  5
10C
330
1F
100
AcDbEntity
  8
0
  6
HIDDEN
 62
     7
370
     0
100
AcDbSpline
210
0.0
220
0.0
230
1.0
 70
     8
 71
     3
 72
    14
 73
    10
 74
     0
 42
0.000000001
 43
0.00000001
 40
0.0
 40
0.0
 40
0.0
 40
0.0
 40
0.25
 40
0.25
 40
0.5
 40
0.5
 40
0.75
 40
0.75
 40
1.0
 40
1.0
 40
1.0
 40
1.0
 10
158.2680249136616
 20
103.266368797183
 30
0.0
 10
158.3043887416919
 20
103.3118634325848
 30
0.0
 10
158.3368664689021
 20
103.3602552388011
 30
0.0
 10
158.3856200983178
 20
103.4657403827307
 30
0.0
 10
158.4005238759923
 20
103.5223248909736
 30
0.0
 10
158.4005343096499
 20
103.631212484924
 30
0.0
 10
158.3856440138418
 20
103.6833971506867
 30
0.0
 10
158.3367550829642
 20
103.7746745496302
 30
0.0
 10
158.3043829046938
 20
103.8133412550044
 30
0.0
 10
158.2680249136616
 20
103.8482371945521
 30
0.0
  0
LINE
  5
10D
330
1F
100
AcDbEntity
  8
0
  6
HIDDEN
 62
     7
370
     0
100
AcDbLine
 10
175.3439163707
 20
111.594776364
 30
0.0
 11
175.3439163707
 21
86.8947754819
 31
0.0
  0
LINE
  5
10E
330
1F
100
AcDbEntity
  8
0
  6
HIDDEN
 62
     7
370
     0
100
AcDbLine
 10
175.3439163707
 20
136.2947772462
 30
0.0
 11
175.3439163707
 21
111.594776364
 31
0.0
  0
LINE
  5
10F
330
1F
100
AcDbEntity
  8
0
  6
HIDDEN
 62
     7
370
     0
100
AcDbLine
 10
177.8439158492
 20
111.594776364
 30
0.0
 11
177.8439158492
 21
86.5947759915
 31
0.0
  0
LINE
  5
110
330
1F
100
AcDbEntity
  8
0
  6
HIDDEN
 62
     7
370
     0
100
AcDbLine
 10
177.8439158492
 20
136.5947767365
 30
0.0
 11
177.8439158492
 21
111.594776364
 31
0.0
  0
LWPOLYLINE
  5
111
330
1F
100
AcDbEntity
  8
0
  6
HIDDEN
 62
     7
370
     0
100
AcDbPolyline
 90
       19
 70
   128
 43
0.0
 10
160.2439159445
 20
102.050379591
 10
160.808248996
 20
102.1438862402
 10
161.3045154057
 20
102.4131260086
 10
161.6728572093
 20
102.825626472
 10
161.8688484572
 20
103.3316326532
 10
161.8688484572
 20
103.8701131213
 10
161.6728572093
 20
104.3761193026
 10
161.3045154057
 20
104.7886193003
 10
160.808248996
 20
105.0578595344
 10
160.2439159445
 20
105.1513657179
 10
159.6795828931
 20
105.0578595344
 10
159.1833164833
 20
104.7886193003
 10
158.8149737485
 20
104.3761193026
 10
158.6189825006
 20
103.8701131213
 10
158.6189825006
 20
103.3316326532
 10
158.8149737485
 20
102.825626472
 10
159.1833164833
 20
102.4131260086
 10
159.6795828931
 20
102.1438862402
 10
160.2439159445
 20
102.050379591
  0
SPLINE
  5
112
330
1F
100
AcDbEntity
  8
0
  6
HIDDEN
 62
     7
370
     0
100
AcDbSpline
210
0.0
220
0.0
230
1.0
 70
    11
 71
     3
 72
    60
 73
    56
 74
     0
 42
0.000000001
 43
0.00000001
 40
0.0
 40
0.0
 40
0.0
 40
0.0
 40
0.0312500000000003
 40
0.0312500000000003
 40
0.0625000000000007
 40
0.0625000000000007
 40
0.1250000000000009
 40
0.1250000000000009
 40
0.1875000000000012
 40
0.1875000000000012
 40
0.2187500000000012
 40
0.2187500000000012
 40
0.2500000000000012
 40
0.2500000000000012
 40
0.2812500000000012
 40
0.2812500000000012
 40
0.3125000000000011
 40
0.3125000000000011
 40
0.3437500000000011
 40
0.3437500000000011
 40
0.3750000000000011
 40
0.3750000000000011
 40
0.406250000000001
 40
0.406250000000001
 40
0.4375000000000009
 40
0.4375000000000009
 40
0.5000000000000013
 40
0.5000000000000013
 40
0.5312500000000013
 40
0.5312500000000013
 40
0.5625000000000012
 40
0.5625000000000012
 40
0.5937500000000011
 40
0.5937500000000011
 40
0.6250000000000011
 40
0.6250000000000011
 40
0.6562500000000011
 40
0.6562500000000011
 40
0.687500000000001
 40
0.687500000000001
 40
0.718750000000001
 40
0.718750000000001
 40
0.750000000000001
 40
0.750000000000001
 40
0.812500000000001
 40
0.812500000000001
 40
0.8437500000000009
 40
0.8437500000000009
 40
0.8750000000000008
 40
0.8750000000000008
 40
0.9062500000000008
 40
0.9062500000000008
 40
0.9375000000000007
 40
0.9375000000000007
 40
1.0
 40
1.0
 40
1.0
 40
1.0
 10
160.243915676302
 20
108.7047167734606
 30
0.0
 10
160.1337227653317
 20
108.7047167734606
 30
0.0
 10
160.0256135620443
 20
108.7133920425513
 30
0.0
 10
159.8133084075579
 20
108.7474083400947
 30
0.0
 10
159.7079997440989
 20
108.7732123851917
 30
0.0
 10
159.4092017834903
 20
108.8740299373043
 30
0.0
 10
159.2277795791043
 20
108.9738659541101
 30
0.0
 10
158.9265736784474
 20
109.2275018692294
 30
0.0
 10
158.8040191996552
 20
109.3842106716223
 30
0.0
 10
158.679885749036
 20
109.6482537459488
 30
0.0
 10
158.6475826322
 20
109.7428765045978
 30
0.0
 10
158.6047329703681
 20
109.9379643008462
 30
0.0
 10
158.5939878028556
 20
110.0378551245658
 30
0.0
 10
158.5938442665025
 20
110.2424826593455
 30
0.0
 10
158.6048273875389
 20
110.347776697693
 30
0.0
 10
158.6474990470662
 20
110.553180134422
 30
0.0
 10
158.6790619411736
 20
110.6545211217712
 30
0.0
 10
158.7630270366613
 20
110.8541188030893
 30
0.0
 10
158.814061589662
 20
110.9491303531131
 30
0.0
 10
158.9332949204408
 20
111.1296152640584
 30
0.0
 10
159.0023539777753
 20
111.2158746722276
 30
0.0
 10
159.1536525016297
 20
111.3726146103675
 30
0.0
 10
159.2358852063847
 20
111.4435049705605
 30
0.0
 10
159.4139977235328
 20
111.5696578352166
 30
0.0
 10
159.5101326077371
 20
111.6247034333343
 30
0.0
 10
159.807379292856
 20
111.7573682068918
 30
0.0
 10
160.026437033635
 20
111.8056297226606
 30
0.0
 10
160.3518907085229
 20
111.8057386438567
 30
0.0
 10
160.4617273097159
 20
111.7939749188968
 30
0.0
 10
160.6756596066983
 20
111.7475688566684
 30
0.0
 10
160.7788992676418
 20
111.7134298137575
 30
0.0
 10
160.9783283242043
 20
111.6244226637239
 30
0.0
 10
161.0744208314778
 20
111.5692707930082
 30
0.0
 10
161.2519648810438
 20
111.4434627431678
 30
0.0
 10
161.334661448157
 20
111.3722513473312
 30
0.0
 10
161.4871360065221
 20
111.2140177653192
 30
0.0
 10
161.5548129275639
 20
111.1292264826572
 30
0.0
 10
161.6737905918326
 20
110.9490689967617
 30
0.0
 10
161.7255348750328
 20
110.8525225384014
 30
0.0
 10
161.808711581689
 20
110.6545170681411
 30
0.0
 10
161.840222618638
 20
110.5535838121256
 30
0.0
 10
161.8829582260898
 20
110.3481207232883
 30
0.0
 10
161.89396393051
 20
110.2427083326916
 30
0.0
 10
161.8938186775064
 20
109.9360851909512
 30
0.0
 10
161.849465788922
 20
109.7364407182973
 30
0.0
 10
161.7248805806405
 20
109.4716322261259
 30
0.0
 10
161.6730967669745
 20
109.3875320540124
 30
0.0
 10
161.5531390886442
 20
109.2334464813689
 30
0.0
 10
161.4852880266485
 20
109.1634001431924
 30
0.0
 10
161.3337622878933
 20
109.0360672912298
 30
0.0
 10
161.2497930146303
 20
108.9789032964745
 30
0.0
 10
161.0723017462914
 20
108.8812227192573
 30
0.0
 10
160.9780202113371
 20
108.839974710782
 30
0.0
 10
160.6771351041077
 20
108.7387814638496
 30
0.0
 10
160.4643014982426
 20
108.7047167734606
 30
0.0
 10
160.243915676302
 20
108.7047167734606
 30
0.0
  0
ELLIPSE
  5
113
330
1F
100
AcDbEntity
  8
0
  6
HIDDEN
 62
     7
370
     0
100
AcDbEllipse
 10
160.2439156763
 20
104.7071863035
 30
0.0
 11
1.383467579512086
 21
-1.091267719176599
 31
0.0
210
0.0
220
0.0
230
1.0
 40
0.8239737799
 41
5.288724596347251
 42
5.331125843630463
  0
SPLINE
  5
114
330
1F
100
AcDbEntity
  8
0
  6
HIDDEN
 62
     7
370
     0
100
AcDbSpline
210
0.0
220
0.0
230
1.0
 70
     8
 71
     3
 72
     8
 73
     4
 74
     0
 42
0.000000001
 43
0.00000001
 40
0.0
 40
0.0
 40
0.0
 40
0.0
 40
1.0
 40
1.0
 40
1.0
 40
1.0
 10
160.3138567724723
 20
103.1456344376453
 30
0.0
 10
160.2968720463599
 20
103.1527501476989
 30
0.0
 10
160.2798679018086
 20
103.1606252772252
 30
0.0
 10
160.2628690177191
 20
103.1692483966851
 30
0.0
  0
ELLIPSE
  5
115
330
1F
100
AcDbEntity
  8
0
  6
HIDDEN
 62
     7
370
     0
100
AcDbEllipse
 10
160.2439156763
 20
104.7071863035
 30
0.0
 11
1.383467579512086
 21
1.753907414218489
 31
0.0
210
0.0
220
0.0
230
1.0
 40
0.5126701559
 41
4.13605336442216
 42
4.147540490648014
  0
ELLIPSE
  5
116
330
1F
100
AcDbEntity
  8
0
  6
HIDDEN
 62
     7
370
     0
100
AcDbEllipse
 10
160.2439156763
 20
104.7071863035
 30
0.0
 11
1.383467579512086
 21
1.753907414218489
 31
0.0
210
0.0
220
0.0
230
1.0
 40
0.5126701559
 41
0.9829735846064821
 42
0.9944607108323534
  0
SPLINE
  5
117
330
1F
100
AcDbEntity
  8
0
  6
HIDDEN
 62
     7
370
     0
100
AcDbSpline
210
0.0
220
0.0
230
1.0
 70
     8
 71
     3
 72
     8
 73
     4
 74
     0
 42
0.000000001
 43
0.00000001
 40
0.0
 40
0.0
 40
0.0
 40
0.0
 40
1.0
 40
1.0
 40
1.0
 40
1.0
 10
160.262869017719
 20
106.2700294536909
 30
0.0
 10
160.2798679018085
 20
106.2620461801732
 30
0.0
 10
160.2968720463599
 20
106.2533097777202
 30
0.0
 10
160.3138567724723
 20
106.2438329258765
 30
0.0
  0
ELLIPSE
  5
118
330
1F
100
AcDbEntity
  8
0
  6
HIDDEN
 62
     7
370
     0
100
AcDbEllipse
 10
160.2439156763
 20
104.7071863035
 30
0.0
 11
1.383467579512086
 21
-1.091267719176599
 31
0.0
210
0.0
220
0.0
230
1.0
 40
0.8239737799
 41
2.104730695474109
 42
2.147131942757445
  0
LINE
  5
119
330
1F
100
AcDbEntity
  8
0
  6
HIDDEN
 62
     7
370
     0
100
AcDbLine
 10
220.7939164631
 20
143.0947768707
 30
0.0
 11
220.7939164631
 21
149.119774552
 31
0.0
  0
LINE
  5
11A
330
1F
100
AcDbEntity
  8
0
  6
HIDDEN
 62
     7
370
     0
100
AcDbLine
 10
220.7939164631
 20
74.069778176
 30
0.0
 11
220.7939164631
 21
80.0947758574
 31
0.0
  0
LINE
  5
11B
330
1F
100
AcDbEntity
  8
0
  6
HIDDEN
 62
     7
370
     0
100
AcDbLine
 10
150.4439155955
 20
136.3947770763
 30
0.0
 11
150.7811740424
 21
136.3947770763
 31
0.0
  0
ELLIPSE
  5
11C
330
1F
100
AcDbEntity
  8
0
  6
HIDDEN
 62
     7
370
     0
100
AcDbEllipse
 10
150.7811739765
 20
137.994776364
 30
0.0
 11
0.0
 21
1.599999999999994
 31
0.0
210
0.0
220
0.0
230
1.0
 40
0.4142135624
 41
3.141592653589793
 42
4.712388980384695
  0
ELLIPSE
  5
11D
330
1F
100
AcDbEntity
  8
0
  6
HIDDEN
 62
     7
370
     0
100
AcDbEllipse
 10
150.7811739765
 20
87.394776364
 30
0.0
 11
0.0
 21
1.59999999999998
 31
0.0
210
0.0
220
0.0
230
1.0
 40
0.4142135624
 41
4.712388980384695
 42
6.283185307179586
  0
LINE
  5
11E
330
1F
100
AcDbEntity
  8
0
  6
HIDDEN
 62
     7
370
     0
100
AcDbLine
 10
150.7811740424
 20
88.9947756398
 30
0.0
 11
150.4439155955
 21
88.9947756398
 31
0.0
  0
LINE
  5
11F
330
1F
100
AcDbEntity
  8
0
  6
HIDDEN
 62
     7
370
     0
100
AcDbLine
 10
85.9939144842
 20
103.0947759021
 30
0.0
 11
85.9939144842
 21
120.094776826
 31
0.0
  0
LINE
  5
120
330
1F
100
AcDbEntity
  8
0
  6
HIDDEN
 62
     7
370
     0
100
AcDbLine
 10
88.9898450963
 20
104.594776148
 30
0.0
 11
88.9898450963
 21
118.5947765801
 31
0.0
  0
LINE
  5
121
330
1F
100
AcDbEntity
  8
0
  6
HIDDEN
 62
     7
370
     0
100
AcDbLine
 10
151.4439155265
 20
80.8822388965
 30
0.0
 11
151.4439155265
 21
87.3947764952
 31
0.0
  0
LINE
  5
122
330
1F
100
AcDbEntity
  8
0
  6
HIDDEN
 62
     7
370
     0
100
AcDbLine
 10
172.7439151995
 20
88.9947756398
 30
0.0
 11
166.2939159117
 21
88.9947756398
 31
0.0
  0
LINE
  5
123
330
1F
100
AcDbEntity
  8
0
  6
HIDDEN
 62
     7
370
     0
100
AcDbLine
 10
166.2939159117
 20
88.9947756398
 30
0.0
 11
150.7811740424
 21
88.9947756398
 31
0.0
  0
LINE
  5
124
330
1F
100
AcDbEntity
  8
0
  6
HIDDEN
 62
     7
370
     0
100
AcDbLine
 10
151.4439155265
 20
142.3073138315
 30
0.0
 11
151.4439155265
 21
137.994776221
 31
0.0
  0
LINE
  5
125
330
1F
100
AcDbEntity
  8
0
  6
HIDDEN
 62
     7
370
     0
100
AcDbLine
 10
150.7811740424
 20
136.3947770763
 30
0.0
 11
166.2939159117
 21
136.3947770763
 31
0.0
  0
LINE
  5
126
330
1F
100
AcDbEntity
  8
0
  6
HIDDEN
 62
     7
370
     0
100
AcDbLine
 10
166.2939159117
 20
136.3947770763
 30
0.0
 11
172.7439151995
 21
136.3947770763
 31
0.0
  0
LINE
  5
127
330
1F
100
AcDbEntity
  8
0
  6
HIDDEN
 62
     7
370
     0
100
AcDbLine
 10
121.9939147971
 20
104.594776148
 30
0.0
 11
121.9939147971
 21
118.5947765801
 31
0.0
  0
LINE
  5
128
330
1F
100
AcDbEntity
  8
0
  6
HIDDEN
 62
     7
370
     0
100
AcDbLine
 10
123.6462822102
 20
107.3447761331
 30
0.0
 11
123.6462822102
 21
115.844776595
 31
0.0
  0
SPLINE
  5
129
330
1F
100
AcDbEntity
  8
0
  6
HIDDEN
 62
     7
370
     0
100
AcDbSpline
210
0.0
220
0.0
230
1.0
 70
    11
 71
     3
 72
    60
 73
    56
 74
     0
 42
0.000000001
 43
0.00000001
 40
0.0
 40
0.0
 40
0.0
 40
0.0
 40
0.0312499999999999
 40
0.0312499999999999
 40
0.0624999999999998
 40
0.0624999999999998
 40
0.1249999999999996
 40
0.1249999999999996
 40
0.1874999999999994
 40
0.1874999999999994
 40
0.2187499999999993
 40
0.2187499999999993
 40
0.2499999999999992
 40
0.2499999999999992
 40
0.2812499999999992
 40
0.2812499999999992
 40
0.3124999999999991
 40
0.3124999999999991
 40
0.3437499999999989
 40
0.3437499999999989
 40
0.3749999999999988
 40
0.3749999999999988
 40
0.4062499999999988
 40
0.4062499999999988
 40
0.4374999999999987
 40
0.4374999999999987
 40
0.4999999999999986
 40
0.4999999999999986
 40
0.5312499999999987
 40
0.5312499999999987
 40
0.5624999999999988
 40
0.5624999999999988
 40
0.5937499999999989
 40
0.5937499999999989
 40
0.624999999999999
 40
0.624999999999999
 40
0.6562499999999991
 40
0.6562499999999991
 40
0.6874999999999992
 40
0.6874999999999992
 40
0.7187499999999993
 40
0.7187499999999993
 40
0.7499999999999994
 40
0.7499999999999994
 40
0.8124999999999998
 40
0.8124999999999998
 40
0.8437499999999999
 40
0.8437499999999999
 40
0.875
 40
0.875
 40
0.9062500000000001
 40
0.9062500000000001
 40
0.9375000000000002
 40
0.9375000000000002
 40
1.0
 40
1.0
 40
1.0
 40
1.0
 10
160.2439156763021
 20
111.3838503059875
 30
0.0
 10
160.3541085872723
 20
111.3838503059875
 30
0.0
 10
160.4622177905597
 20
111.3957079282922
 30
0.0
 10
160.6745229450462
 20
111.4417136551824
 30
0.0
 10
160.7798316085051
 20
111.4764735074961
 30
0.0
 10
161.0786295691137
 20
111.6100273456604
 30
0.0
 10
161.2600517734997
 20
111.739935758804
 30
0.0
 10
161.5612576741566
 20
112.0523942459143
 30
0.0
 10
161.6838121529488
 20
112.2381717287419
 30
0.0
 10
161.8079456035681
 20
112.5329824772455
 30
0.0
 10
161.840248720404
 20
112.6359615636667
 30
0.0
 10
161.883098382236
 20
112.8422392033716
 30
0.0
 10
161.8938435497484
 20
112.945007188291
 30
0.0
 10
161.8939870861015
 20
113.1496728418093
 30
0.0
 10
161.8830039650651
 20
113.2520269280035
 30
0.0
 10
161.8403323055379
 20
113.4462870370108
 30
0.0
 10
161.8087694114304
 20
113.5394553457543
 30
0.0
 10
161.7248043159427
 20
113.7182388663964
 30
0.0
 10
161.673769762942
 20
113.8009562581082
 30
0.0
 10
161.5545364321633
 20
113.9545078735221
 30
0.0
 10
161.4854773748287
 20
114.0259583342754
 30
0.0
 10
161.3341788509744
 20
114.1531703766628
 30
0.0
 10
161.2519461462194
 20
114.20931326051
 30
0.0
 10
161.0738336290712
 20
114.3076350733539
 30
0.0
 10
160.9776987448669
 20
114.3496293675052
 30
0.0
 10
160.680452059748
 20
114.4497684777817
 30
0.0
 10
160.461394318969
 20
114.4847825856826
 30
0.0
 10
160.1359406440812
 20
114.4848625451425
 30
0.0
 10
160.0261040428881
 20
114.4762571407197
 30
0.0
 10
159.8121717459057
 20
114.4419443452455
 30
0.0
 10
159.7089320849622
 20
114.4166025320509
 30
0.0
 10
159.5095030283997
 20
114.3494174428661
 30
0.0
 10
159.4134105211263
 20
114.3073354578075
 30
0.0
 10
159.2358664715603
 20
114.2092783022436
 30
0.0
 10
159.153169904447
 20
114.1528888379197
 30
0.0
 10
159.0006953460819
 20
114.0244377682701
 30
0.0
 10
158.9330184250402
 20
113.954180251637
 30
0.0
 10
158.8140407607714
 20
113.8009009072689
 30
0.0
 10
158.7622964775712
 20
113.7168217305095
 30
0.0
 10
158.679119770915
 20
113.5394389426252
 30
0.0
 10
158.6476087339661
 20
113.4466623003503
 30
0.0
 10
158.6048731265143
 20
113.2523587806986
 30
0.0
 10
158.5938674220941
 20
113.1498923657603
 30
0.0
 10
158.5940126750976
 20
112.843230649389
 30
0.0
 10
158.638365563682
 20
112.6314587649904
 30
0.0
 10
158.7629507719636
 20
112.3357734239161
 30
0.0
 10
158.8147345856296
 20
112.239196896077
 30
0.0
 10
158.9346922639598
 20
112.0580326477614
 30
0.0
 10
159.0025433259556
 20
111.973443329062
 30
0.0
 10
159.1540690647107
 20
111.816545296269
 30
0.0
 10
159.2380383379737
 20
111.744349065316
 30
0.0
 10
159.4155296063126
 20
111.6189872220869
 30
0.0
 10
159.5098111412669
 20
111.564920868976
 30
0.0
 10
159.8106962484963
 20
111.43084888696
 30
0.0
 10
160.0235298543614
 20
111.3838503059875
 30
0.0
 10
160.243915676302
 20
111.3838503059875
 30
0.0
  0
ELLIPSE
  5
12A
330
1F
100
AcDbEntity
  8
0
  6
HIDDEN
 62
     7
370
     0
100
AcDbEllipse
 10
160.2439156763
 20
118.4823664246
 30
0.0
 11
-1.383467579512114
 21
1.753907414218503
 31
0.0
210
0.0
220
0.0
230
1.0
 40
0.5126701559
 41
5.277237470135193
 42
5.288724596347214
  0
ELLIPSE
  5
12B
330
1F
100
AcDbEntity
  8
0
  6
HIDDEN
 62
     7
370
     0
100
AcDbEllipse
 10
160.2439156763
 20
118.4823664246
 30
0.0
 11
1.383467579512114
 21
1.091267719176599
 31
0.0
210
0.0
220
0.0
230
1.0
 40
0.8239737799
 41
0.9944607108323432
 42
4.136053364422167
  0
ELLIPSE
  5
12C
330
1F
100
AcDbEntity
  8
0
  6
HIDDEN
 62
     7
370
     0
100
AcDbEllipse
 10
160.2439156763
 20
118.4823664246
 30
0.0
 11
-1.383467579512114
 21
1.753907414218503
 31
0.0
210
0.0
220
0.0
230
1.0
 40
0.5126701559
 41
2.147131942757425
 42
2.158619068967448
  0
SPLINE
  5
12D
330
1F
100
AcDbEntity
  8
0
  6
HIDDEN
 62
     7
370
     0
100
AcDbSpline
210
0.0
220
0.0
230
1.0
 70
     8
 71
     3
 72
     8
 73
     4
 74
     0
 42
0.000000001
 43
0.00000001
 40
0.0
 40
0.0
 40
0.0
 40
0.0
 40
1.0
 40
1.0
 40
1.0
 40
1.0
 10
160.2628690177903
 20
116.9195232743843
 30
0.0
 10
160.2798679018323
 20
116.9275065478818
 30
0.0
 10
160.2968720463361
 20
116.9362429503103
 30
0.0
 10
160.3138567724011
 20
116.9457198021255
 30
0.0
  0
ELLIPSE
  5
12E
330
1F
100
AcDbEntity
  8
0
  6
HIDDEN
 62
     7
370
     0
100
AcDbEllipse
 10
160.2439156763
 20
118.4823664246
 30
0.0
 11
1.383467579512114
 21
1.091267719176599
 31
0.0
210
0.0
220
0.0
230
1.0
 40
0.8239737799
 41
4.136053364422164
 42
4.178454611649785
  0
ELLIPSE
  5
12F
330
1F
100
AcDbEntity
  8
0
  6
HIDDEN
 62
     7
370
     0
100
AcDbEllipse
 10
160.2439156763
 20
118.4823664246
 30
0.0
 11
-1.383467579512114
 21
1.753907414218503
 31
0.0
210
0.0
220
0.0
230
1.0
 40
0.5126701559
 41
5.288724596347226
 42
8.430317249937023
  0
ELLIPSE
  5
130
330
1F
100
AcDbEntity
  8
0
  6
HIDDEN
 62
     7
370
     0
100
AcDbEllipse
 10
160.2439156763
 20
118.4823664246
 30
0.0
 11
1.383467579512114
 21
1.091267719176599
 31
0.0
210
0.0
220
0.0
230
1.0
 40
0.8239737799
 41
0.9520594635972215
 42
0.9944607108323411
  0
SPLINE
  5
131
330
1F
100
AcDbEntity
  8
0
  6
HIDDEN
 62
     7
370
     0
100
AcDbSpline
210
0.0
220
0.0
230
1.0
 70
     8
 71
     3
 72
     8
 73
     4
 74
     0
 42
0.000000001
 43
0.00000001
 40
0.0
 40
0.0
 40
0.0
 40
0.0
 40
1.0
 40
1.0
 40
1.0
 40
1.0
 10
160.3138567724099
 20
120.0439182903703
 30
0.0
 10
160.296872046339
 20
120.0368025803323
 30
0.0
 10
160.2798679018294
 20
120.0289274508252
 30
0.0
 10
160.2628690177814
 20
120.0203043313883
 30
0.0
  0
LWPOLYLINE
  5
132
330
1F
100
AcDbEntity
  8
0
  6
HIDDEN
 62
     7
370
     0
100
AcDbPolyline
 90
       19
 70
   128
 43
0.0
 10
160.2439159445
 20
118.0381870102
 10
160.808248996
 20
118.1316931937
 10
161.3045154057
 20
118.4009334277
 10
161.6728572093
 20
118.8134334255
 10
161.8688484572
 20
119.3194396067
 10
161.8688484572
 20
119.8579200748
 10
161.6728572093
 20
120.3639262561
 10
161.3045154057
 20
120.7764267195
 10
160.808248996
 20
121.0456664879
 10
160.2439159445
 20
121.139173137
 10
159.6795828931
 20
121.0456664879
 10
159.1833164833
 20
120.7764267195
 10
158.8149737485
 20
120.3639262561
 10
158.6189825006
 20
119.8579200748
 10
158.6189825006
 20
119.3194396067
 10
158.8149737485
 20
118.8134334255
 10
159.1833164833
 20
118.4009334277
 10
159.6795828931
 20
118.1316931937
 10
160.2439159445
 20
118.0381870102
  0
LINE
  5
133
330
1F
100
AcDbEntity
  8
0
  6
HIDDEN
 62
     7
370
     0
100
AcDbLine
 10
156.4339153386
 20
133.7920173276
 30
0.0
 11
156.4339153386
 21
129.9447759259
 31
0.0
  0
LINE
  5
134
330
1F
100
AcDbEntity
  8
0
  6
HIDDEN
 62
     7
370
     0
100
AcDbLine
 10
161.8657527409
 20
137.5050067175
 30
0.0
 11
161.8657527409
 21
129.9447759259
 31
0.0
  0
SPLINE
  5
135
330
1F
100
AcDbEntity
  8
0
  6
HIDDEN
 62
     7
370
     0
100
AcDbSpline
210
0.0
220
0.0
230
1.0
 70
     8
 71
     3
 72
    14
 73
    10
 74
     0
 42
0.000000001
 43
0.00000001
 40
0.0
 40
0.0
 40
0.0
 40
0.0
 40
0.25
 40
0.25
 40
0.5
 40
0.5
 40
0.75
 40
0.75
 40
1.0
 40
1.0
 40
1.0
 40
1.0
 10
159.4539156763019
 20
122.8772555541289
 30
0.0
 10
159.5515979274159
 20
122.9157778681613
 30
0.0
 10
159.6537114364532
 20
122.9533932276201
 30
0.0
 10
159.8458836076221
 20
123.024501953207
 30
0.0
 10
159.9373022809489
 20
123.0587080037111
 30
0.0
 10
160.0888182699632
 20
123.125597482068
 30
0.0
 10
160.1499654725021
 20
123.1588679446289
 30
0.0
 10
160.2326721741906
 20
123.2282662947227
 30
0.0
 10
160.253915676302
 20
123.2640434003187
 30
0.0
 10
160.253915676302
 20
123.3005387325694
 30
0.0
  0
LINE
  5
136
330
1F
100
AcDbEntity
  8
0
  6
HIDDEN
 62
     7
370
     0
100
AcDbLine
 10
160.253915555
 20
133.7920173276
 30
0.0
 11
160.253915555
 21
129.9447759259
 31
0.0
  0
LINE
  5
137
330
1F
100
AcDbEntity
  8
0
  6
HIDDEN
 62
     7
370
     0
100
AcDbLine
 10
154.822079084
 20
137.5050067175
 30
0.0
 11
154.822079084
 21
129.9447759259
 31
0.0
  0
LINE
  5
138
330
1F
100
AcDbEntity
  8
0
  6
HIDDEN
 62
     7
370
     0
100
AcDbLine
 10
161.8657527409
 20
101.8427561242
 30
0.0
 11
161.8657527409
 21
99.6432767454
 31
0.0
  0
SPLINE
  5
139
330
1F
100
AcDbEntity
  8
0
  6
HIDDEN
 62
     7
370
     0
100
AcDbSpline
210
0.0
220
0.0
230
1.0
 70
     8
 71
     3
 72
    14
 73
    10
 74
     0
 42
0.000000001
 43
0.00000001
 40
0.0
 40
0.0
 40
0.0
 40
0.0
 40
0.2500000000000005
 40
0.2500000000000005
 40
0.5000000000000003
 40
0.5000000000000003
 40
0.7500000000000001
 40
0.7500000000000001
 40
1.0
 40
1.0
 40
1.0
 40
1.0
 10
160.253915676302
 20
119.5418152343504
 30
0.0
 10
160.253915676302
 20
119.5053263034432
 30
0.0
 10
160.2327463001297
 20
119.4688275117094
 30
0.0
 10
160.1500006822774
 20
119.4034521639725
 30
0.0
 10
160.0891470574496
 20
119.3755153296261
 30
0.0
 10
159.9375421907585
 20
119.3416243003794
 30
0.0
 10
159.8463198802913
 20
119.3361988477929
 30
0.0
 10
159.653989330588
 20
119.3571181716055
 30
0.0
 10
159.551738446111
 20
119.383674319046
 30
0.0
 10
159.4539156763019
 20
119.4241440773518
 30
0.0
  0
LINE
  5
13A
330
1F
100
AcDbEntity
  8
0
  6
HIDDEN
 62
     7
370
     0
100
AcDbLine
 10
160.253915555
 20
103.5934935529
 30
0.0
 11
160.253915555
 21
99.8347706366
 31
0.0
  0
SPLINE
  5
13B
330
1F
100
AcDbEntity
  8
0
  6
HIDDEN
 62
     7
370
     0
100
AcDbSpline
210
0.0
220
0.0
230
1.0
 70
     8
 71
     3
 72
    10
 73
     6
 74
     0
 42
0.000000001
 43
0.00000001
 40
0.0
 40
0.0
 40
0.0
 40
0.0
 40
0.5
 40
0.5
 40
1.0
 40
1.0
 40
1.0
 40
1.0
 10
158.2680249136616
 20
119.3413155334897
 30
0.0
 10
158.2524188626804
 20
119.4465877340982
 30
0.0
 10
158.2439143996518
 20
119.5505262318891
 30
0.0
 10
158.2439169532415
 20
119.7500395038451
 30
0.0
 10
158.252414540842
 20
119.8412519985154
 30
0.0
 10
158.2680249136616
 20
119.9231839308586
 30
0.0
  0
SPLINE
  5
13C
330
1F
100
AcDbEntity
  8
0
  6
HIDDEN
 62
     7
370
     0
100
AcDbSpline
210
0.0
220
0.0
230
1.0
 70
     8
 71
     3
 72
    14
 73
    10
 74
     0
 42
0.000000001
 43
0.00000001
 40
0.0
 40
0.0
 40
0.0
 40
0.0
 40
0.25
 40
0.25
 40
0.5
 40
0.5
 40
0.75
 40
0.75
 40
1.0
 40
1.0
 40
1.0
 40
1.0
 10
158.2680249136617
 20
119.9231839308586
 30
0.0
 10
158.3043887416919
 20
119.8776892954568
 30
0.0
 10
158.3368664689021
 20
119.8292974892405
 30
0.0
 10
158.3856200983177
 20
119.723812345311
 30
0.0
 10
158.4005238759922
 20
119.6672278370681
 30
0.0
 10
158.4005343096499
 20
119.5583402431176
 30
0.0
 10
158.3856440138417
 20
119.506155577355
 30
0.0
 10
158.3367550829641
 20
119.4148781784115
 30
0.0
 10
158.3043829046937
 20
119.3762114730374
 30
0.0
 10
158.2680249136616
 20
119.3413155334897
 30
0.0
  0
LWPOLYLINE
  5
13D
330
1F
100
AcDbEntity
  8
0
  6
HIDDEN
 62
     7
370
     0
100
AcDbPolyline
 90
       19
 70
   128
 43
0.0
 10
151.0756431065
 20
119.5748222265
 10
151.222822807
 20
119.1652354058
 10
151.4616413891
 20
118.9119165968
 10
151.7632944427
 20
118.8454196993
 10
152.0913984544
 20
118.9737652633
 10
152.4063782684
 20
119.281472845
 10
152.6702438399
 20
119.7314278427
 10
152.8511681512
 20
120.2693597618
 10
152.927329383
 20
120.8303866181
 10
152.8895414352
 20
121.3468385134
 10
152.7423622004
 20
121.7564248685
 10
152.5035431526
 20
122.0097436774
 10
152.201890099
 20
122.0762401093
 10
151.8737860873
 20
121.9478954766
 10
151.5588062733
 20
121.6401874292
 10
151.2949407018
 20
121.1902319658
 10
151.1140166234
 20
120.6523000467
 10
151.0378553916
 20
120.0912741218
 10
151.0756431065
 20
119.5748222265
  0
LWPOLYLINE
  5
13E
330
1F
100
AcDbEntity
  8
0
  6
HIDDEN
 62
     7
370
     0
100
AcDbPolyline
 90
       19
 70
   128
 43
0.0
 10
158.2680247642
 20
119.3413154427
 10
158.4766438149
 20
118.7523689326
 10
158.8780410506
 20
118.2594021987
 10
159.4284312717
 20
117.9161888752
 10
160.0677758373
 20
117.7601671982
 10
160.7263345189
 20
117.8083570879
 10
161.3322697498
 20
118.0555012282
 10
161.8194855667
 20
118.4746410902
 10
162.1348332532
 20
119.0200557206
 10
162.243915341
 20
119.6322494391
 10
162.1348332532
 20
120.244444089
 10
161.8194855667
 20
120.7898582537
 10
161.3322697498
 20
121.2089981157
 10
160.7263345189
 20
121.456142256
 10
160.0677758373
 20
121.5043326113
 10
159.4284312717
 20
121.3483109344
 10
158.8780410506
 20
121.0050971452
 10
158.4766438149
 20
120.5121304113
 10
158.2680247642
 20
119.9231843669
  0
SPLINE
  5
13F
330
1F
100
AcDbEntity
  8
0
  6
HIDDEN
 62
     7
370
     0
100
AcDbSpline
210
0.0
220
0.0
230
1.0
 70
     8
 71
     3
 72
    12
 73
     8
 74
     0
 42
0.000000001
 43
0.00000001
 40
0.0
 40
0.0
 40
0.0
 40
0.0
 40
0.2499999999999997
 40
0.2499999999999997
 40
0.4999999999999993
 40
0.4999999999999993
 40
1.0
 40
1.0
 40
1.0
 40
1.0
 10
161.8657523183587
 20
121.3467964318445
 30
0.0
 10
161.7508562670981
 20
121.1270559967879
 30
0.0
 10
161.6240902506254
 20
120.9300876451662
 30
0.0
 10
161.3638753170069
 20
120.5763700723273
 30
0.0
 10
161.2303678590447
 20
120.419544778455
 30
0.0
 10
160.8219695904565
 20
119.9930022075474
 30
0.0
 10
160.5383164555189
 20
119.7663100285921
 30
0.0
 10
160.2539156763021
 20
119.5960588841967
 30
0.0
  0
SPLINE
  5
140
330
1F
100
AcDbEntity
  8
0
  6
HIDDEN
 62
     7
370
     0
100
AcDbSpline
210
0.0
220
0.0
230
1.0
 70
     8
 71
     3
 72
    11
 73
     7
 74
     0
 42
0.000000001
 43
0.00000001
 40
0.0
 40
0.0
 40
0.0
 40
0.0
 40
0.1586629657729187
 40
0.4474174176205519
 40
0.7365954204410801
 40
1.0
 40
1.0
 40
1.0
 40
1.0
 10
158.2719707779351
 20
121.1702290195746
 30
0.0
 10
158.2676297660041
 20
121.2863742492078
 30
0.0
 10
158.2553884446689
 20
121.613894905703
 30
0.0
 10
158.4844778493243
 20
122.1173896996743
 30
0.0
 10
158.8932326783357
 20
122.5999054455262
 30
0.0
 10
159.2729247159776
 20
122.787725741136
 30
0.0
 10
159.4539159826699
 20
122.8772557545228
 30
0.0
  0
SPLINE
  5
141
330
1F
100
AcDbEntity
  8
0
  6
HIDDEN
 62
     7
370
     0
100
AcDbSpline
210
0.0
220
0.0
230
1.0
 70
     8
 71
     3
 72
    12
 73
     8
 74
     0
 42
0.000000001
 43
0.00000001
 40
0.0
 40
0.0
 40
0.0
 40
0.0
 40
0.2499999999999992
 40
0.2499999999999992
 40
0.4999999999999983
 40
0.4999999999999983
 40
1.0
 40
1.0
 40
1.0
 40
1.0
 10
161.8657523183587
 20
123.5462761622278
 30
0.0
 10
161.9886998121543
 20
123.3883193135327
 30
0.0
 10
162.0822440152632
 20
123.2164859465552
 30
0.0
 10
162.2111834044254
 20
122.8448132369094
 30
0.0
 10
162.2437361618105
 20
122.6516247907181
 30
0.0
 10
162.2442725035443
 20
122.0633282524419
 30
0.0
 10
162.1116488465763
 20
121.6713100145532
 30
0.0
 10
161.8657523183587
 20
121.3467964318445
 30
0.0
  0
SPLINE
  5
142
330
1F
100
AcDbEntity
  8
0
  6
HIDDEN
 62
     7
370
     0
100
AcDbSpline
210
0.0
220
0.0
230
1.0
 70
     8
 71
     3
 72
    12
 73
     8
 74
     0
 42
0.000000001
 43
0.00000001
 40
0.0
 40
0.0
 40
0.0
 40
0.0
 40
0.5000000000000013
 40
0.5000000000000013
 40
0.7500000000000007
 40
0.7500000000000007
 40
1.0
 40
1.0
 40
1.0
 40
1.0
 10
160.253915676302
 20
123.3547823824177
 30
0.0
 10
160.5381222108673
 20
123.5222465447115
 30
0.0
 10
160.8168179449711
 20
123.6338836442231
 30
0.0
 10
161.2261639881604
 20
123.7011969098624
 30
0.0
 10
161.3623033254799
 20
123.7063479498764
 30
0.0
 10
161.623623374476
 20
123.668582012257
 30
0.0
 10
161.7490445569077
 20
123.6270322539127
 30
0.0
 10
161.8657523183591
 20
123.5462761622299
 30
0.0
  0
LWPOLYLINE
  5
143
330
1F
100
AcDbEntity
  8
0
  6
HIDDEN
 62
     7
370
     0
100
AcDbPolyline
 90
       21
 70
   128
 43
0.0
 10
150.6941272795
 20
119.3653137628
 10
150.8569711271
 20
118.8880714793
 10
151.1168655392
 20
118.5679270159
 10
151.4483700424
 20
118.4362179804
 10
151.8190350301
 20
118.5058376025
 10
152.1925768733
 20
118.7699704636
 10
152.5324309163
 20
119.2027616519
 10
152.805329851
 20
119.7618467007
 10
152.9845600866
 20
120.3924983013
 10
153.0525782995
 20
121.032983737
 10
153.0027250677
 20
121.6206082348
 10
152.8398814529
 20
122.0978505183
 10
152.5799870409
 20
122.4179945159
 10
152.2484823048
 20
122.5497040171
 10
151.8778173171
 20
122.4800839294
 10
151.5042754739
 20
122.215951534
 10
151.164421431
 20
121.7831603456
 10
150.8915224962
 20
121.2240752969
 10
150.7122920278
 20
120.5934236962
 10
150.6442742806
 20
119.9529382605
 10
150.6941272795
 20
119.3653137628
  0
LWPOLYLINE
  5
144
330
1F
100
AcDbEntity
  8
0
  6
HIDDEN
 62
     7
370
     0
100
AcDbPolyline
 90
       18
 70
   128
 43
0.0
 10
160.7502369128
 20
120.8368565161
 10
160.2135203697
 20
120.920456687
 10
159.6809090964
 20
120.8162212018
 10
159.2243347235
 20
120.5382251385
 10
158.9054610498
 20
120.1240147669
 10
158.7673524312
 20
119.6295318398
 10
158.8286613963
 20
119.121557774
 10
159.0811094187
 20
118.6686984468
 10
159.4905998476
 20
118.3321142774
 10
160.0018307484
 20
118.1572631206
 10
160.5457557283
 20
118.1677595917
 10
161.0489157878
 20
118.3621862177
 10
161.4433560438
 20
118.7142843585
 10
161.6758057765
 20
119.1765011493
 10
161.7148701019
 20
119.6864123661
 10
161.5552740089
 20
120.1751499641
 10
161.2185720272
 20
120.57670925
 10
160.7502369128
 20
120.8368565161
  0
LWPOLYLINE
  5
145
330
1F
100
AcDbEntity
  8
0
  6
HIDDEN
 62
     7
370
     0
100
AcDbPolyline
 90
       20
 70
   128
 43
0.0
 10
160.9279556118
 20
121.3982940856
 10
160.2806575514
 20
121.5113175306
 10
159.6293771557
 20
121.4207156766
 10
159.0446919121
 20
121.1363046635
 10
158.5899606265
 20
120.6889066119
 10
158.3144614391
 20
120.127003381
 10
158.2480488263
 20
119.5114857722
 10
158.3979191176
 20
118.9090546425
 10
158.7478319101
 20
118.3849929105
 10
159.259868405
 20
117.9960912298
 10
159.8785413347
 20
117.7844924126
 10
160.5368085123
 20
117.7731270175
 10
161.1633362166
 20
117.9632262531
 10
161.6902310319
 20
118.3341901954
 10
162.0603945024
 20
118.845818771
 10
162.2337145649
 20
119.4426694158
 10
162.1914083056
 20
120.060064571
 10
161.9380615569
 20
120.6310984883
 10
161.5011278458
 20
121.0938922334
 10
160.9279556118
 20
121.3982940856
  0
LWPOLYLINE
  5
146
330
1F
100
AcDbEntity
  8
0
  6
HIDDEN
 62
     7
370
     0
100
AcDbPolyline
 90
       20
 70
   128
 43
0.0
 10
160.9279556118
 20
121.7232129741
 10
160.2806575514
 20
121.8362373505
 10
159.6293771557
 20
121.7456345651
 10
159.0446919121
 20
121.461223552
 10
158.5899606265
 20
121.0138255004
 10
158.3144614391
 20
120.4519222695
 10
158.2480488263
 20
119.8364046607
 10
158.3979191176
 20
119.233973531
 10
158.7478319101
 20
118.7099122647
 10
159.259868405
 20
118.3210101183
 10
159.8785413347
 20
118.1094117667
 10
160.5368085123
 20
118.098045906
 10
161.1633362166
 20
118.2881451417
 10
161.6902310319
 20
118.6591090839
 10
162.0603945024
 20
119.1707381252
 10
162.2337145649
 20
119.7675883043
 10
162.1914083056
 20
120.3849834595
 10
161.9380615569
 20
120.9560173768
 10
161.5011278458
 20
121.4188111219
 10
160.9279556118
 20
121.7232129741
  0
LWPOLYLINE
  5
147
330
1F
100
AcDbEntity
  8
0
  6
HIDDEN
 62
     7
370
     0
100
AcDbPolyline
 90
       18
 70
   128
 43
0.0
 10
160.7569461606
 20
122.2222575191
 10
160.2131180383
 20
122.3069659639
 10
159.6734492026
 20
122.201348396
 10
159.2108249582
 20
121.9196698833
 10
158.887725874
 20
121.4999712277
 10
158.7477872066
 20
120.998935515
 10
158.8099092163
 20
120.4842317123
 10
159.065701618
 20
120.0253709424
 10
159.4806188635
 20
119.6843271348
 10
159.9986232735
 20
119.5071597788
 10
160.5497548274
 20
119.5177954826
 10
161.0595822252
 20
119.7147981468
 10
161.4592490636
 20
120.0715617481
 10
161.69477868
 20
120.5399024505
 10
161.7343608208
 20
121.0565694812
 10
161.5726496942
 20
121.5517834965
 10
161.2314866774
 20
121.9586634282
 10
160.7569461606
 20
122.2222575191
  0
LWPOLYLINE
  5
148
330
1F
100
AcDbEntity
  8
0
  6
HIDDEN
 62
     7
370
     0
100
AcDbPolyline
 90
       18
 70
   128
 43
0.0
 10
160.7569461606
 20
121.2187788654
 10
160.2131180383
 20
121.3034873102
 10
159.6734492026
 20
121.1978697423
 10
159.2108249582
 20
120.9161912296
 10
158.887725874
 20
120.496492574
 10
158.7477872066
 20
119.9954568613
 10
158.8099092163
 20
119.4807530585
 10
159.065701618
 20
119.0218927543
 10
159.4806188635
 20
118.6808489468
 10
159.9986232735
 20
118.5036811251
 10
160.5497548274
 20
118.5143168289
 10
161.0595822252
 20
118.7113194931
 10
161.4592490636
 20
119.0680830944
 10
161.69477868
 20
119.5364237968
 10
161.7343608208
 20
120.0530908275
 10
161.5726496942
 20
120.5483057741
 10
161.2314866774
 20
120.9551847745
 10
160.7569461606
 20
121.2187788654
  0
LWPOLYLINE
  5
149
330
1F
100
AcDbEntity
  8
0
  6
HIDDEN
 62
     7
370
     0
100
AcDbPolyline
 90
       20
 70
   128
 43
0.0
 10
160.9279556118
 20
121.9156000037
 10
160.2806575514
 20
122.0286234487
 10
159.6293771557
 20
121.9380206633
 10
159.0446919121
 20
121.6536105815
 10
158.5899606265
 20
121.2062115986
 10
158.3144614391
 20
120.6443083677
 10
158.2480488263
 20
120.0287907589
 10
158.3979191176
 20
119.4263600949
 10
158.7478319101
 20
118.9022983629
 10
159.259868405
 20
118.5133966822
 10
159.8785413347
 20
118.3017978649
 10
160.5368085123
 20
118.2904324699
 10
161.1633362166
 20
118.4805317055
 10
161.6902310319
 20
118.8514956478
 10
162.0603945024
 20
119.3631242234
 10
162.2337145649
 20
119.9599753339
 10
162.1914083056
 20
120.5773695577
 10
161.9380615569
 20
121.1484044064
 10
161.5011278458
 20
121.6111981515
 10
160.9279556118
 20
121.9156000037
  0
LWPOLYLINE
  5
14A
330
1F
100
AcDbEntity
  8
0
  6
HIDDEN
 62
     7
370
     0
100
AcDbPolyline
 90
       20
 70
   128
 43
0.0
 10
160.8732329599
 20
121.6300267
 10
160.2777182974
 20
121.7340079341
 10
159.6785407431
 20
121.6506536323
 10
159.1406302444
 20
121.388995761
 10
158.72227735
 20
120.9773893673
 10
158.4688179113
 20
120.4604382831
 10
158.4077184938
 20
119.8941624928
 10
158.5455989383
 20
119.3399259094
 10
158.8675180368
 20
118.8577895257
 10
159.3385921709
 20
118.499999607
 10
159.907771825
 20
118.3053289745
 10
160.5133773677
 20
118.2948725503
 10
161.0897831537
 20
118.4697637539
 10
161.5745253779
 20
118.8110506367
 10
161.9150755845
 20
119.2817489821
 10
162.0745301164
 20
119.8308521155
 10
162.0356092147
 20
120.3988545779
 10
161.8025299079
 20
120.9242061917
 10
161.400551527
 20
121.3499761391
 10
160.8732329599
 20
121.6300267
  0
LWPOLYLINE
  5
14B
330
1F
100
AcDbEntity
  8
0
  6
HIDDEN
 62
     7
370
     0
100
AcDbPolyline
 90
       20
 70
   128
 43
0.0
 10
160.9279556118
 20
122.1079861019
 10
160.2806575514
 20
122.2210095469
 10
159.6293771557
 20
122.1304067615
 10
159.0446919121
 20
121.8459966797
 10
158.5899606265
 20
121.3985986281
 10
158.3144614391
 20
120.8366944659
 10
158.2480488263
 20
120.2211768571
 10
158.3979191176
 20
119.6187461931
 10
158.7478319101
 20
119.0946849268
 10
159.259868405
 20
118.7057827804
 10
159.8785413347
 20
118.4941844288
 10
160.5368085123
 20
118.4828185681
 10
161.1633362166
 20
118.6729178037
 10
161.6902310319
 20
119.043881746
 10
162.0603945024
 20
119.5555103216
 10
162.2337145649
 20
120.1523614321
 10
162.1914083056
 20
120.7697556559
 10
161.9380615569
 20
121.3407905046
 10
161.5011278458
 20
121.8035842497
 10
160.9279556118
 20
122.1079861019
  0
LWPOLYLINE
  5
14C
330
1F
100
AcDbEntity
  8
0
  6
HIDDEN
 62
     7
370
     0
100
AcDbPolyline
 90
       20
 70
   128
 43
0.0
 10
160.8732329599
 20
121.8224127982
 10
160.2777182974
 20
121.9263940323
 10
159.6785407431
 20
121.8430397305
 10
159.1406302444
 20
121.5813827906
 10
158.72227735
 20
121.1697763968
 10
158.4688179113
 20
120.6528253127
 10
158.4077184938
 20
120.086548591
 10
158.5455989383
 20
119.5323120076
 10
158.8675180368
 20
119.0501756239
 10
159.3385921709
 20
118.6923857052
 10
159.907771825
 20
118.4977150727
 10
160.5133773677
 20
118.4872586485
 10
161.0897831537
 20
118.6621503178
 10
161.5745253779
 20
119.0034367349
 10
161.9150755845
 20
119.4741350803
 10
162.0745301164
 20
120.0232382137
 10
162.0356092147
 20
120.5912406761
 10
161.8025299079
 20
121.1165932212
 10
161.400551527
 20
121.5423631686
 10
160.8732329599
 20
121.8224127982
  0
LWPOLYLINE
  5
14D
330
1F
100
AcDbEntity
  8
0
  6
HIDDEN
 62
     7
370
     0
100
AcDbPolyline
 90
       20
 70
   128
 43
0.0
 10
160.9279556118
 20
122.3003722001
 10
160.2806575514
 20
122.4133956451
 10
159.6293771557
 20
122.322793791
 10
159.0446919121
 20
122.0383827779
 10
158.5899606265
 20
121.5909847263
 10
158.3144614391
 20
121.0290814955
 10
158.2480488263
 20
120.4135638866
 10
158.3979191176
 20
119.8111322913
 10
158.7478319101
 20
119.287071025
 10
159.259868405
 20
118.8981693443
 10
159.8785413347
 20
118.686570527
 10
160.5368085123
 20
118.675205132
 10
161.1633362166
 20
118.8653043676
 10
161.6902310319
 20
119.2362683099
 10
162.0603945024
 20
119.7478973511
 10
162.2337145649
 20
120.3447475303
 10
162.1914083056
 20
120.9621426854
 10
161.9380615569
 20
121.5331766028
 10
161.5011278458
 20
121.9959703479
 10
160.9279556118
 20
122.3003722001
  0
LWPOLYLINE
  5
14E
330
1F
100
AcDbEntity
  8
0
  6
HIDDEN
 62
     7
370
     0
100
AcDbPolyline
 90
       20
 70
   128
 43
0.0
 10
160.8732329599
 20
122.0147988964
 10
160.2777182974
 20
122.1187810618
 10
159.6785407431
 20
122.0354267601
 10
159.1406302444
 20
121.7737688888
 10
158.72227735
 20
121.362162495
 10
158.4688179113
 20
120.8452114109
 10
158.4077184938
 20
120.2789346892
 10
158.5455989383
 20
119.7246990371
 10
158.8675180368
 20
119.2425621878
 10
159.3385921709
 20
118.884772269
 10
159.907771825
 20
118.6901016366
 10
160.5133773677
 20
118.6796452123
 10
161.0897831537
 20
118.854536416
 10
161.5745253779
 20
119.1958232987
 10
161.9150755845
 20
119.6665211785
 10
162.0745301164
 20
120.2156243119
 10
162.0356092147
 20
120.7836277056
 10
161.8025299079
 20
121.3089793194
 10
161.400551527
 20
121.7347492669
 10
160.8732329599
 20
122.0147988964
  0
LWPOLYLINE
  5
14F
330
1F
100
AcDbEntity
  8
0
  6
HIDDEN
 62
     7
370
     0
100
AcDbPolyline
 90
       20
 70
   128
 43
0.0
 10
160.9279556118
 20
122.4927582983
 10
160.2806575514
 20
122.6057826746
 10
159.6293771557
 20
122.5151798893
 10
159.0446919121
 20
122.2307688761
 10
158.5899606265
 20
121.7833708245
 10
158.3144614391
 20
121.2214675937
 10
158.2480488263
 20
120.6059499848
 10
158.3979191176
 20
120.0035193208
 10
158.7478319101
 20
119.4794575888
 10
159.259868405
 20
119.0905554425
 10
159.8785413347
 20
118.8789570909
 10
160.5368085123
 20
118.8675912302
 10
161.1633362166
 20
119.0576904658
 10
161.6902310319
 20
119.4286548737
 10
162.0603945024
 20
119.9402834493
 10
162.2337145649
 20
120.5371336285
 10
162.1914083056
 20
121.1545287836
 10
161.9380615569
 20
121.725562701
 10
161.5011278458
 20
122.1883564461
 10
160.9279556118
 20
122.4927582983
  0
LWPOLYLINE
  5
150
330
1F
100
AcDbEntity
  8
0
  6
HIDDEN
 62
     7
370
     0
100
AcDbPolyline
 90
       20
 70
   128
 43
0.0
 10
160.8732329599
 20
122.2071849946
 10
160.2777182974
 20
122.31116716
 10
159.6785407431
 20
122.2278128583
 10
159.1406302444
 20
121.966154987
 10
158.72227735
 20
121.5545485932
 10
158.4688179113
 20
121.0375975091
 10
158.4077184938
 20
120.4713217187
 10
158.5455989383
 20
119.9170851353
 10
158.8675180368
 20
119.4349487517
 10
159.3385921709
 20
119.0771583672
 10
159.907771825
 20
118.8824877348
 10
160.5133773677
 20
118.8720313106
 10
161.0897831537
 20
119.0469229799
 10
161.5745253779
 20
119.388209397
 10
161.9150755845
 20
119.8589082081
 10
162.0745301164
 20
120.4080104101
 10
162.0356092147
 20
120.9760138038
 10
161.8025299079
 20
121.5013654176
 10
161.400551527
 20
121.9271353651
 10
160.8732329599
 20
122.2071849946
  0
LWPOLYLINE
  5
151
330
1F
100
AcDbEntity
  8
0
  6
HIDDEN
 62
     7
370
     0
100
AcDbPolyline
 90
       20
 70
   128
 43
0.0
 10
160.9279556118
 20
122.6295667905
 10
160.2806575514
 20
122.7425902355
 10
159.6293771557
 20
122.6519874502
 10
159.0446919121
 20
122.3675773684
 10
158.5899606265
 20
121.9201793168
 10
158.3144614391
 20
121.3582751546
 10
158.2480488263
 20
120.7427584771
 10
158.3979191176
 20
120.1403268818
 10
158.7478319101
 20
119.6162651498
 10
159.259868405
 20
119.2273639347
 10
159.8785413347
 20
119.0157651175
 10
160.5368085123
 20
119.0043992568
 10
161.1633362166
 20
119.1944984924
 10
161.6902310319
 20
119.5654624346
 10
162.0603945024
 20
120.0770910103
 10
162.2337145649
 20
120.6739421207
 10
162.1914083056
 20
121.2913363445
 10
161.9380615569
 20
121.8623711932
 10
161.5011278458
 20
122.3251649383
 10
160.9279556118
 20
122.6295667905
  0
LWPOLYLINE
  5
152
330
1F
100
AcDbEntity
  8
0
  6
HIDDEN
 62
     7
370
     0
100
AcDbPolyline
 90
       20
 70
   128
 43
0.0
 10
160.8937537215
 20
122.5754662622
 10
160.278820052
 20
122.6828393731
 10
159.6601042814
 20
122.5967665408
 10
159.1046532534
 20
122.3265768233
 10
158.6726592771
 20
121.9015482086
 10
158.4109343506
 20
121.3677401859
 10
158.3478419028
 20
120.7829981316
 10
158.4902187727
 20
120.2106892336
 10
158.8226357393
 20
119.7128302622
 10
159.3090701766
 20
119.3433736656
 10
159.8968101583
 20
119.1423546728
 10
160.5221643962
 20
119.1315573845
 10
161.117365203
 20
119.3121520076
 10
161.6179147653
 20
119.6645672638
 10
161.9695700623
 20
120.1506152022
 10
162.1342241682
 20
120.7176230121
 10
162.0940338738
 20
121.3041476179
 10
161.8533549748
 20
121.8466309104
 10
161.4382672973
 20
122.2862850148
 10
160.8937537215
 20
122.5754662622
  0
ARC
  5
153
330
1F
100
AcDbEntity
  8
0
  6
HIDDEN
 62
     7
370
     0
100
AcDbCircle
 10
160.2246930529
 20
102.2775743609
 30
0.0
 40
1.977196273213844
100
AcDbArc
 50
337.5953074315
 51
182.7795875284
  0
ARC
  5
154
330
1F
100
AcDbEntity
  8
0
  6
HIDDEN
 62
     7
370
     0
100
AcDbCircle
 10
160.2254777943
 20
102.2448975359
 30
0.0
 40
1.88592730371651
100
AcDbArc
 50
340.8867909806
 51
160.9916582474
  0
ARC
  5
155
330
1F
100
AcDbEntity
  8
0
  6
HIDDEN
 62
     7
370
     0
100
AcDbCircle
 10
160.296742095
 20
102.2606595214
 30
0.0
 40
1.442221892588817
100
AcDbArc
 50
353.6366910507
 51
92.6836218313
  0
LWPOLYLINE
  5
156
330
1F
100
AcDbEntity
  8
0
  6
HIDDEN
 62
     7
370
     0
100
AcDbPolyline
 90
       20
 70
   128
 43
0.0
 10
159.559875346
 20
100.6967944298
 10
158.986703112
 20
101.001196282
 10
158.5497694008
 20
101.4639900271
 10
158.2964226521
 20
102.0350239444
 10
158.2541173242
 20
102.6524190996
 10
158.4274373866
 20
103.2492692787
 10
158.7976008571
 20
103.7608978543
 10
159.3244947411
 20
104.1318622622
 10
159.9510224454
 20
104.3219614979
 10
160.609289623
 20
104.3105956372
 10
161.2279634841
 20
104.0989972856
 10
161.739999979
 20
103.7100951392
 10
162.0899118401
 20
103.1860334072
 10
162.2397821314
 20
102.5836027432
 10
162.1733695186
 20
101.9680851344
 10
161.8978703312
 20
101.4061819035
 10
161.4431390457
 20
100.9587838519
 10
160.858453802
 20
100.6743728388
 10
160.2071743376
 20
100.5837700534
 10
159.559875346
 20
100.6967944298
  0
LWPOLYLINE
  5
157
330
1F
100
AcDbEntity
  8
0
  6
HIDDEN
 62
     7
370
     0
100
AcDbPolyline
 90
       18
 70
   128
 43
0.0
 10
159.7308857284
 20
101.9707738627
 10
159.2563452117
 20
102.2343679536
 10
158.9151812635
 20
102.641246954
 10
158.7534710683
 20
103.1364619005
 10
158.793053209
 20
103.6531289313
 10
159.0285828255
 20
104.1214696336
 10
159.4282487325
 20
104.4782332349
 10
159.9380761303
 20
104.6752358991
 10
160.4892086155
 20
104.6858716029
 10
161.0072130255
 20
104.5087037813
 10
161.4221293397
 20
104.1676599737
 10
161.6779217414
 20
103.7087996695
 10
161.7400437511
 20
103.1940958667
 10
161.6001050837
 20
102.6930601541
 10
161.2770059995
 20
102.2733614985
 10
160.8143817551
 20
101.9916829858
 10
160.2747138507
 20
101.8860654179
 10
159.7308857284
 20
101.9707738627
  0
LWPOLYLINE
  5
158
330
1F
100
AcDbEntity
  8
0
  6
HIDDEN
 62
     7
370
     0
100
AcDbPolyline
 90
       20
 70
   128
 43
0.0
 10
159.559875346
 20
100.889180528
 10
158.986703112
 20
101.1935823802
 10
158.5497694008
 20
101.6563761253
 10
158.2964226521
 20
102.2274100426
 10
158.2541173242
 20
102.8448051978
 10
158.4274373866
 20
103.4416553769
 10
158.7976008571
 20
103.9532844182
 10
159.3244947411
 20
104.3242483604
 10
159.9510224454
 20
104.5143475961
 10
160.609289623
 20
104.502982201
 10
161.2279634841
 20
104.2913833838
 10
161.739999979
 20
103.9024817031
 10
162.0899118401
 20
103.3784204367
 10
162.2397821314
 20
102.7759888414
 10
162.1733695186
 20
102.1604712326
 10
161.8978703312
 20
101.5985680017
 10
161.4431390457
 20
101.1511699501
 10
160.858453802
 20
100.866758937
 10
160.2071743376
 20
100.776157083
 10
159.559875346
 20
100.889180528
  0
LWPOLYLINE
  5
159
330
1F
100
AcDbEntity
  8
0
  6
HIDDEN
 62
     7
370
     0
100
AcDbPolyline
 90
       20
 70
   128
 43
0.0
 10
159.6145989291
 20
100.9823677335
 10
159.0872803621
 20
101.262417363
 10
158.6853010498
 20
101.6881873104
 10
158.4522226743
 20
102.2135389242
 10
158.4133008413
 20
102.7815423179
 10
158.5727553732
 20
103.33064452
 10
158.9133055798
 20
103.8013433311
 10
159.3980487354
 20
104.1426297482
 10
159.9744545214
 20
104.3175214175
 10
160.580060064
 20
104.3070649933
 10
161.1492397181
 20
104.1123943608
 10
161.6203129209
 20
103.7546039764
 10
161.9422329508
 20
103.2724675927
 10
162.0801133953
 20
102.7182310093
 10
162.0190130464
 20
102.151955219
 10
161.7655536078
 20
101.6350041348
 10
161.3472016446
 20
101.2233977411
 10
160.8092911459
 20
100.9617398698
 10
160.2101135917
 20
100.878385568
 10
159.6145989291
 20
100.9823677335
  0
LWPOLYLINE
  5
15A
330
1F
100
AcDbEntity
  8
0
  6
HIDDEN
 62
     7
370
     0
100
AcDbPolyline
 90
       20
 70
   128
 43
0.0
 10
159.559875346
 20
101.0815666262
 10
158.986703112
 20
101.3859684784
 10
158.5497694008
 20
101.8487622235
 10
158.2964226521
 20
102.4197970722
 10
158.2541173242
 20
103.037191296
 10
158.4274373866
 20
103.6340424064
 10
158.7976008571
 20
104.1456709821
 10
159.3244947411
 20
104.5166349243
 10
159.9510224454
 20
104.7067341599
 10
160.609289623
 20
104.6953682992
 10
161.2279634841
 20
104.4837699476
 10
161.739999979
 20
104.0948678013
 10
162.0899118401
 20
103.5708065349
 10
162.2397821314
 20
102.9683758709
 10
162.1733695186
 20
102.3528582621
 10
161.8978703312
 20
101.7909540999
 10
161.4431390457
 20
101.3435560483
 10
160.858453802
 20
101.0591459665
 10
160.2071743376
 20
100.9685431812
 10
159.559875346
 20
101.0815666262
  0
LWPOLYLINE
  5
15B
330
1F
100
AcDbEntity
  8
0
  6
HIDDEN
 62
     7
370
     0
100
AcDbPolyline
 90
       20
 70
   128
 43
0.0
 10
159.6145989291
 20
101.1747538317
 10
159.0872803621
 20
101.4548034612
 10
158.6853010498
 20
101.8805734087
 10
158.4522226743
 20
102.4059250224
 10
158.4133008413
 20
102.9739284161
 10
158.5727553732
 20
103.5230315495
 10
158.9133055798
 20
103.9937294293
 10
159.3980487354
 20
104.3350163121
 10
159.9744545214
 20
104.5099075157
 10
160.580060064
 20
104.4994510915
 10
161.1492397181
 20
104.304780459
 10
161.6203129209
 20
103.9469905402
 10
161.9422329508
 20
103.4648536909
 10
162.0801133953
 20
102.9106180388
 10
162.0190130464
 20
102.3443413172
 10
161.7655536078
 20
101.827390233
 10
161.3472016446
 20
101.4157838393
 10
160.8092911459
 20
101.154125968
 10
160.2101135917
 20
101.0707716662
 10
159.6145989291
 20
101.1747538317
  0
LWPOLYLINE
  5
15C
330
1F
100
AcDbEntity
  8
0
  6
HIDDEN
 62
     7
370
     0
100
AcDbPolyline
 90
       20
 70
   128
 43
0.0
 10
159.559875346
 20
101.2739527244
 10
158.986703112
 20
101.5783545766
 10
158.5497694008
 20
102.0411483217
 10
158.2964226521
 20
102.6121831704
 10
158.2541173242
 20
103.2295773942
 10
158.4274373866
 20
103.8264285046
 10
158.7976008571
 20
104.3380570803
 10
159.3244947411
 20
104.7090210225
 10
159.9510224454
 20
104.8991202581
 10
160.609289623
 20
104.8877548631
 10
161.2279634841
 20
104.6761560458
 10
161.739999979
 20
104.2872543651
 10
162.0899118401
 20
103.7631926331
 10
162.2397821314
 20
103.1607619691
 10
162.1733695186
 20
102.5452443603
 10
161.8978703312
 20
101.9833411295
 10
161.4431390457
 20
101.5359421465
 10
160.858453802
 20
101.2515320647
 10
160.2071743376
 20
101.1609292794
 10
159.559875346
 20
101.2739527244
  0
LWPOLYLINE
  5
15D
330
1F
100
AcDbEntity
  8
0
  6
HIDDEN
 62
     7
370
     0
100
AcDbPolyline
 90
       20
 70
   128
 43
0.0
 10
159.6145989291
 20
101.3671399299
 10
159.0872803621
 20
101.6471895594
 10
158.6853010498
 20
102.0729595069
 10
158.4522226743
 20
102.5983120519
 10
158.4133008413
 20
103.1663145143
 10
158.5727553732
 20
103.7154176477
 10
158.9133055798
 20
104.1861159932
 10
159.3980487354
 20
104.5274024103
 10
159.9744545214
 20
104.7022940796
 10
160.580060064
 20
104.6918376554
 10
161.1492397181
 20
104.4971670229
 10
161.6203129209
 20
104.1393771041
 10
161.9422329508
 20
103.6572407204
 10
162.0801133953
 20
103.103004137
 10
162.0190130464
 20
102.5367274154
 10
161.7655536078
 20
102.0197763312
 10
161.3472016446
 20
101.6081699375
 10
160.8092911459
 20
101.3465129975
 10
160.2101135917
 20
101.2631586957
 10
159.6145989291
 20
101.3671399299
  0
LWPOLYLINE
  5
15E
330
1F
100
AcDbEntity
  8
0
  6
HIDDEN
 62
     7
370
     0
100
AcDbPolyline
 90
       20
 70
   128
 43
0.0
 10
159.559875346
 20
101.4663397539
 10
158.986703112
 20
101.7707416061
 10
158.5497694008
 20
102.2335353512
 10
158.2964226521
 20
102.8045692686
 10
158.2541173242
 20
103.4219644237
 10
158.4274373866
 20
104.0188146028
 10
158.7976008571
 20
104.5304436441
 10
159.3244947411
 20
104.9014075864
 10
159.9510224454
 20
105.091506822
 10
160.609289623
 20
105.0801409613
 10
161.2279634841
 20
104.8685426097
 10
161.739999979
 20
104.4796404633
 10
162.0899118401
 20
103.955579197
 10
162.2397821314
 20
103.3531480673
 10
162.1733695186
 20
102.7376304585
 10
161.8978703312
 20
102.1757272277
 10
161.4431390457
 20
101.7283291761
 10
160.858453802
 20
101.4439181629
 10
160.2071743376
 20
101.3533153776
 10
159.559875346
 20
101.4663397539
  0
LWPOLYLINE
  5
15F
330
1F
100
AcDbEntity
  8
0
  6
HIDDEN
 62
     7
370
     0
100
AcDbPolyline
 90
       20
 70
   128
 43
0.0
 10
159.6145989291
 20
101.5595260281
 10
159.0872803621
 20
101.8395765889
 10
158.6853010498
 20
102.2653465364
 10
158.4522226743
 20
102.7906981502
 10
158.4133008413
 20
103.3587006125
 10
158.5727553732
 20
103.9078037459
 10
158.9133055798
 20
104.3785020914
 10
159.3980487354
 20
104.7197889741
 10
159.9744545214
 20
104.8946801778
 10
160.580060064
 20
104.8842237536
 10
161.1492397181
 20
104.6895531211
 10
161.6203129209
 20
104.3317632023
 10
161.9422329508
 20
103.8496268186
 10
162.0801133953
 20
103.2953902352
 10
162.0190130464
 20
102.7291144449
 10
161.7655536078
 20
102.2121633608
 10
161.3472016446
 20
101.800556967
 10
160.8092911459
 20
101.5388990957
 10
160.2101135917
 20
101.455544794
 10
159.6145989291
 20
101.5595260281
  0
LWPOLYLINE
  5
160
330
1F
100
AcDbEntity
  8
0
  6
HIDDEN
 62
     7
370
     0
100
AcDbPolyline
 90
       20
 70
   128
 43
0.0
 10
159.559875346
 20
101.7912586424
 10
158.986703112
 20
102.0956604946
 10
158.5497694008
 20
102.5584542397
 10
158.2964226521
 20
103.1294881571
 10
158.2541173242
 20
103.7468833122
 10
158.4274373866
 20
104.343733957
 10
158.7976008571
 20
104.8553625326
 10
159.3244947411
 20
105.2263264749
 10
159.9510224454
 20
105.4164257105
 10
160.609289623
 20
105.4050603155
 10
161.2279634841
 20
105.1934614982
 10
161.739999979
 20
104.8045598175
 10
162.0899118401
 20
104.2804980855
 10
162.2397821314
 20
103.6780669559
 10
162.1733695186
 20
103.062549347
 10
161.8978703312
 20
102.5006461162
 10
161.4431390457
 20
102.0532480646
 10
160.858453802
 20
101.7688370514
 10
160.2071743376
 20
101.6782351974
 10
159.559875346
 20
101.7912586424
  0
LWPOLYLINE
  5
161
330
1F
100
AcDbEntity
  8
0
  6
HIDDEN
 62
     7
370
     0
100
AcDbPolyline
 90
       18
 70
   128
 43
0.0
 10
159.7375940449
 20
102.352696212
 10
159.2692589305
 20
102.6128434781
 10
158.9325569488
 20
103.0144027639
 10
158.7729608558
 20
103.503140362
 10
158.8120261125
 20
104.0130515788
 10
159.0444749139
 20
104.4752683695
 10
159.43891517
 20
104.8273665104
 10
159.9420752294
 20
105.0217931364
 10
160.4860011406
 20
105.0322896074
 10
160.9972311102
 20
104.8574384507
 10
161.4067224703
 20
104.5208542812
 10
161.6591695614
 20
104.067994954
 10
161.7204794578
 20
103.5600208882
 10
161.5823708392
 20
103.0655379612
 10
161.2634962342
 20
102.6513275895
 10
160.8069218613
 20
102.3733315263
 10
160.2743105881
 20
102.2690960411
 10
159.7375940449
 20
102.352696212
  0
LWPOLYLINE
  5
162
330
1F
100
AcDbEntity
  8
0
  6
HIDDEN
 62
     7
370
     0
100
AcDbPolyline
 90
       20
 70
   128
 43
0.0
 10
154.9374732107
 20
121.233617628
 10
155.3087482147
 20
121.5279928613
 10
155.6823072873
 20
121.6198566574
 10
156.0176690958
 20
121.499255972
 10
156.2784915708
 20
121.1792581919
 10
156.436511866
 20
120.6945401821
 10
156.4746048219
 20
120.097629467
 10
156.388642817
 20
119.4532101247
 10
156.1879409395
 20
118.8311145846
 10
155.8942492969
 20
118.2987570967
 10
155.5393921129
 20
117.9138270411
 10
155.1618255593
 20
117.7180369589
 10
154.8024644993
 20
117.7326037753
 10
154.5002503238
 20
117.9559498299
 10
154.2879329912
 20
118.3638709802
 10
154.1885208256
 20
118.9121633973
 10
154.2127864353
 20
119.5414110292
 10
154.358100231
 20
120.1834247652
 10
154.6087149448
 20
120.7686324809
 10
154.9374732107
 20
121.233617628
  0
LWPOLYLINE
  5
163
330
1F
100
AcDbEntity
  8
0
  6
HIDDEN
 62
     7
370
     0
100
AcDbPolyline
 90
       17
 70
   128
 43
0.0
 10
155.6989677168
 20
120.4960874486
 10
155.9754606254
 20
120.7008610684
 10
156.2471916817
 20
120.7246554289
 10
156.4727924682
 20
120.5638467539
 10
156.6179186024
 20
120.2429176513
 10
156.6604744561
 20
119.8107262347
 10
156.5939826809
 20
119.3330695126
 10
156.4285648905
 20
118.8826670144
 10
156.1894049786
 20
118.5280878301
 10
155.9129130013
 20
118.3233137447
 10
155.641181945
 20
118.2995198499
 10
155.4155802272
 20
118.4603280592
 10
155.270454093
 20
118.7812571618
 10
155.2278982393
 20
119.2134485785
 10
155.2943900145
 20
119.6911053005
 10
155.4598078049
 20
120.1415077988
 10
155.6989677168
 20
120.4960874486
  0
LWPOLYLINE
  5
164
330
1F
100
AcDbEntity
  8
0
  6
HIDDEN
 62
     7
370
     0
100
AcDbPolyline
 90
       20
 70
   128
 43
0.0
 10
151.6405223787
 20
122.0231882501
 10
152.0117978483
 20
122.3175634835
 10
152.3853564553
 20
122.4094272796
 10
152.7207182638
 20
122.2888265941
 10
152.9815412044
 20
121.9688288141
 10
153.139561034
 20
121.4841108043
 10
153.1776539899
 20
120.8872000891
 10
153.091691985
 20
120.2427798155
 10
152.8909905731
 20
119.6206852067
 10
152.5972984649
 20
119.0883277189
 10
152.2424417466
 20
118.7033971976
 10
151.8648751929
 20
118.5076071154
 10
151.5055136673
 20
118.5221743975
 10
151.2032994918
 20
118.7455199864
 10
150.9909826249
 20
119.1534416023
 10
150.8915702265
 20
119.7017335538
 10
150.9158358361
 20
120.33098072
 10
151.0611496318
 20
120.972994456
 10
151.3117645785
 20
121.5582021717
 10
151.6405223787
 20
122.0231882501
  0
LINE
  5
165
330
1F
100
AcDbEntity
  8
0
  6
HIDDEN
 62
     7
370
     0
100
AcDbLine
 10
153.2440591521
 20
119.8723499868
 30
0.0
 11
153.6697834648
 21
120.9115038831
 31
0.0
  0
LINE
  5
166
330
1F
100
AcDbEntity
  8
0
  6
HIDDEN
 62
     7
370
     0
100
AcDbLine
 10
153.2440591521
 20
119.8723499868
 30
0.0
 11
153.4705824136
 21
118.9633698407
 31
0.0
  0
LINE
  5
167
330
1F
100
AcDbEntity
  8
0
  6
HIDDEN
 62
     7
370
     0
100
AcDbLine
 10
153.2440591521
 20
119.8723499868
 30
0.0
 11
151.1961790651
 21
120.3627863172
 31
0.0
  0
LINE
  5
168
330
1F
100
AcDbEntity
  8
0
  6
HIDDEN
 62
     7
370
     0
100
AcDbLine
 10
154.3220301077
 20
121.0416785646
 30
0.0
 11
153.6697834648
 21
120.9115038831
 31
0.0
  0
LINE
  5
169
330
1F
100
AcDbEntity
  8
0
  6
HIDDEN
 62
     7
370
     0
100
AcDbLine
 10
153.6697834648
 20
120.9115038831
 30
0.0
 11
151.6219033777
 21
121.4019411448
 31
0.0
  0
LINE
  5
16A
330
1F
100
AcDbEntity
  8
0
  6
HIDDEN
 62
     7
370
     0
100
AcDbLine
 10
152.2741500206
 20
121.532114895
 30
0.0
 11
151.6219033777
 21
121.4019411448
 31
0.0
  0
LINE
  5
16B
330
1F
100
AcDbEntity
  8
0
  6
HIDDEN
 62
     7
370
     0
100
AcDbLine
 10
151.1961790651
 20
120.3627863172
 30
0.0
 11
151.4227023266
 21
119.4538071025
 31
0.0
  0
LWPOLYLINE
  5
16C
330
1F
100
AcDbEntity
  8
0
  6
HIDDEN
 62
     7
370
     0
100
AcDbPolyline
 90
       18
 70
   128
 43
0.0
 10
151.5325848862
 20
121.7603522558
 10
151.8673865042
 20
122.0148082096
 10
152.1996274508
 20
122.0637305844
 10
152.4844366044
 20
121.9005116466
 10
152.6833489455
 20
121.5471948702
 10
152.7695004746
 20
121.0514984298
 10
152.7312557131
 20
120.4803676549
 10
152.5737802416
 20
119.9109384063
 10
152.3183412768
 20
119.4201146457
 10
151.9994378008
 20
119.0741841886
 10
151.6601397574
 20
118.9198672976
 10
151.3462700799
 20
118.9780060407
 10
151.1002200108
 20
119.2407475058
 10
150.9552191395
 20
119.6726073716
 10
150.9308506187
 20
120.2152601648
 10
151.0304059751
 20
120.7954182494
 10
151.2404397048
 20
121.3347275946
 10
151.5325848862
 20
121.7603522558
  0
LINE
  5
16D
330
1F
100
AcDbEntity
  8
0
  6
HIDDEN
 62
     7
370
     0
100
AcDbLine
 10
151.1961790651
 20
120.3627863172
 30
0.0
 11
151.6219033777
 21
121.4019411448
 31
0.0
  0
LINE
  5
16E
330
1F
100
AcDbEntity
  8
0
  6
HIDDEN
 62
     7
370
     0
100
AcDbLine
 10
154.1228295222
 20
119.0935445223
 30
0.0
 11
152.0749494351
 21
119.5839808527
 31
0.0
  0
LINE
  5
16F
330
1F
100
AcDbEntity
  8
0
  6
HIDDEN
 62
     7
370
     0
100
AcDbLine
 10
151.4227023266
 20
119.4538071025
 30
0.0
 11
152.0749494351
 21
119.5839808527
 31
0.0
  0
LINE
  5
170
330
1F
100
AcDbEntity
  8
0
  6
HIDDEN
 62
     7
370
     0
100
AcDbLine
 10
153.4705824136
 20
118.9633698407
 30
0.0
 11
151.4227023266
 21
119.4538071025
 31
0.0
  0
LINE
  5
171
330
1F
100
AcDbEntity
  8
0
  6
HIDDEN
 62
     7
370
     0
100
AcDbLine
 10
153.4705824136
 20
118.9633698407
 30
0.0
 11
154.1228295222
 21
119.0935445223
 31
0.0
  0
LINE
  5
172
330
1F
100
AcDbEntity
  8
0
  6
HIDDEN
 62
     7
370
     0
100
AcDbLine
 10
154.5485533692
 20
120.1326984185
 30
0.0
 11
152.5006732821
 21
120.623134749
 31
0.0
  0
LINE
  5
173
330
1F
100
AcDbEntity
  8
0
  6
HIDDEN
 62
     7
370
     0
100
AcDbLine
 10
152.2741500206
 20
121.532114895
 30
0.0
 11
152.5006732821
 21
120.623134749
 31
0.0
  0
LINE
  5
174
330
1F
100
AcDbEntity
  8
0
  6
HIDDEN
 62
     7
370
     0
100
AcDbLine
 10
154.3220301077
 20
121.0416785646
 30
0.0
 11
152.2741500206
 21
121.532114895
 31
0.0
  0
LINE
  5
175
330
1F
100
AcDbEntity
  8
0
  6
HIDDEN
 62
     7
370
     0
100
AcDbLine
 10
154.3220301077
 20
121.0416785646
 30
0.0
 11
154.5485533692
 21
120.1326984185
 31
0.0
  0
LINE
  5
176
330
1F
100
AcDbEntity
  8
0
  6
HIDDEN
 62
     7
370
     0
100
AcDbLine
 10
152.5006732821
 20
120.623134749
 30
0.0
 11
152.0749494351
 21
119.5839808527
 31
0.0
  0
LINE
  5
177
330
1F
100
AcDbEntity
  8
0
  6
HIDDEN
 62
     7
370
     0
100
AcDbLine
 10
154.5485533692
 20
120.1326984185
 30
0.0
 11
154.1228295222
 21
119.0935445223
 31
0.0
  0
LWPOLYLINE
  5
178
330
1F
100
AcDbEntity
  8
0
  6
HIDDEN
 62
     7
370
     0
100
AcDbPolyline
 90
       18
 70
   128
 43
0.0
 10
152.164267461
 20
101.1206514407
 10
152.4564131081
 20
101.2608760241
 10
152.6664463721
 20
101.5950019676
 10
152.7660014957
 20
102.0779029671
 10
152.7416334405
 20
102.644362228
 10
152.5966325693
 20
103.2178743947
 10
152.3505822673
 20
103.7209850941
 10
152.0367130555
 20
104.0857459623
 10
151.6974145464
 20
104.2628937606
 10
151.3785110704
 20
104.2285037432
 10
151.1230723385
 20
103.9872204158
 10
150.9655964013
 20
103.5716307554
 10
150.9273518726
 20
103.0378618482
 10
151.0135034017
 20
102.4580027181
 10
151.2124157429
 20
101.9103664178
 10
151.4972248964
 20
101.4689148608
 10
151.829465843
 20
101.1932666618
 10
152.164267461
 20
101.1206514407
  0
LWPOLYLINE
  5
179
330
1F
100
AcDbEntity
  8
0
  6
HIDDEN
 62
     7
370
     0
100
AcDbPolyline
 90
       20
 70
   128
 43
0.0
 10
152.4252212524
 20
100.7830740157
 10
152.7539795182
 20
100.926892573
 10
153.0045942321
 20
101.2672723476
 10
153.1499080278
 20
101.7673273776
 10
153.1741736375
 20
102.372868659
 10
153.0747610062
 20
103.0182779971
 10
152.8624441392
 20
103.6336149294
 10
152.5602299638
 20
104.1521962937
 10
152.2008684382
 20
104.5178279485
 10
151.8233018845
 20
104.690886775
 10
151.4684456318
 20
104.6526196617
 10
151.1747535236
 20
104.4071728568
 10
150.9740516461
 20
103.9811453987
 10
150.8880896412
 20
103.4207034129
 10
150.9261825971
 20
102.7865789104
 10
151.0842024266
 20
102.1474895272
 10
151.3450253673
 20
101.572691204
 10
151.6803871758
 20
101.1244717259
 10
152.0539462484
 20
100.8514023591
 10
152.4252212524
 20
100.7830740157
  0
LWPOLYLINE
  5
17A
330
1F
100
AcDbEntity
  8
0
  6
HIDDEN
 62
     7
370
     0
100
AcDbPolyline
 90
       20
 70
   128
 43
0.0
 10
155.7221716188
 20
101.5726446379
 10
156.0509294189
 20
101.7164631951
 10
156.3015445985
 20
102.0568420384
 10
156.4468588598
 20
102.5568970684
 10
156.4711235381
 20
103.1624392811
 10
156.3717113726
 20
103.8078486193
 10
156.1593949713
 20
104.4231850859
 10
155.8571807958
 20
104.9417669158
 10
155.4978188045
 20
105.307398105
 10
155.1202522509
 20
105.4804569315
 10
154.7653959982
 20
105.4421898182
 10
154.4717038899
 20
105.196743479
 10
154.2710024781
 20
104.7707160208
 10
154.1850404732
 20
104.2102735694
 10
154.2231329635
 20
103.5761495325
 10
154.381152793
 20
102.9370601494
 10
154.6419757336
 20
102.3622618261
 10
154.9773375422
 20
101.9140414167
 10
155.3508961491
 20
101.6409720499
 10
155.7221716188
 20
101.5726446379
  0
LINE
  5
17B
330
1F
100
AcDbEntity
  8
0
  6
HIDDEN
 62
     7
370
     0
100
AcDbLine
 10
152.2741500206
 20
103.3198514227
 30
0.0
 11
151.6219033777
 21
103.8268643636
 31
0.0
  0
LINE
  5
17C
330
1F
100
AcDbEntity
  8
0
  6
HIDDEN
 62
     7
370
     0
100
AcDbLine
 10
151.1961790651
 20
103.2036046702
 30
0.0
 11
151.6219033777
 21
103.8268643636
 31
0.0
  0
LINE
  5
17D
330
1F
100
AcDbEntity
  8
0
  6
HIDDEN
 62
     7
370
     0
100
AcDbLine
 10
151.4227023266
 20
102.0733320359
 30
0.0
 11
151.1961790651
 21
103.2036046702
 31
0.0
  0
LINE
  5
17E
330
1F
100
AcDbEntity
  8
0
  6
HIDDEN
 62
     7
370
     0
100
AcDbLine
 10
151.4227023266
 20
102.0733320359
 30
0.0
 11
152.0749494351
 21
101.5663190949
 31
0.0
  0
LINE
  5
17F
330
1F
100
AcDbEntity
  8
0
  6
HIDDEN
 62
     7
370
     0
100
AcDbLine
 10
152.5006732821
 20
102.1895787883
 30
0.0
 11
152.0749494351
 21
101.5663190949
 31
0.0
  0
LINE
  5
180
330
1F
100
AcDbEntity
  8
0
  6
HIDDEN
 62
     7
370
     0
100
AcDbLine
 10
152.5006732821
 20
102.1895787883
 30
0.0
 11
152.2741500206
 21
103.3198514227
 31
0.0
  0
LINE
  5
181
330
1F
100
AcDbEntity
  8
0
  6
HIDDEN
 62
     7
370
     0
100
AcDbLine
 10
154.3220301077
 20
103.8102882188
 30
0.0
 11
152.2741500206
 21
103.3198514227
 31
0.0
  0
LINE
  5
182
330
1F
100
AcDbEntity
  8
0
  6
HIDDEN
 62
     7
370
     0
100
AcDbLine
 10
154.5485533692
 20
102.6800160501
 30
0.0
 11
152.5006732821
 21
102.1895787883
 31
0.0
  0
LINE
  5
183
330
1F
100
AcDbEntity
  8
0
  6
HIDDEN
 62
     7
370
     0
100
AcDbLine
 10
153.2440591521
 20
103.6940410007
 30
0.0
 11
153.6697834648
 21
104.3173011597
 31
0.0
  0
LINE
  5
184
330
1F
100
AcDbEntity
  8
0
  6
HIDDEN
 62
     7
370
     0
100
AcDbLine
 10
153.2440591521
 20
103.6940410007
 30
0.0
 11
151.1961790651
 21
103.2036046702
 31
0.0
  0
LINE
  5
185
330
1F
100
AcDbEntity
  8
0
  6
HIDDEN
 62
     7
370
     0
100
AcDbLine
 10
153.6697834648
 20
104.3173011597
 30
0.0
 11
151.6219033777
 21
103.8268643636
 31
0.0
  0
LINE
  5
186
330
1F
100
AcDbEntity
  8
0
  6
HIDDEN
 62
     7
370
     0
100
AcDbLine
 10
153.4705824136
 20
102.5637683663
 30
0.0
 11
151.4227023266
 21
102.0733320359
 31
0.0
  0
LINE
  5
187
330
1F
100
AcDbEntity
  8
0
  6
HIDDEN
 62
     7
370
     0
100
AcDbLine
 10
153.4705824136
 20
102.5637683663
 30
0.0
 11
154.1228295222
 21
102.0567563567
 31
0.0
  0
LINE
  5
188
330
1F
100
AcDbEntity
  8
0
  6
HIDDEN
 62
     7
370
     0
100
AcDbLine
 10
154.1228295222
 20
102.0567563567
 30
0.0
 11
152.0749494351
 21
101.5663190949
 31
0.0
  0
LINE
  5
189
330
1F
100
AcDbEntity
  8
0
  6
HIDDEN
 62
     7
370
     0
100
AcDbLine
 10
153.4705824136
 20
102.5637683663
 30
0.0
 11
153.2440591521
 21
103.6940410007
 31
0.0
  0
LINE
  5
18A
330
1F
100
AcDbEntity
  8
0
  6
HIDDEN
 62
     7
370
     0
100
AcDbLine
 10
154.5485533692
 20
102.6800160501
 30
0.0
 11
154.1228295222
 21
102.0567563567
 31
0.0
  0
LINE
  5
18B
330
1F
100
AcDbEntity
  8
0
  6
HIDDEN
 62
     7
370
     0
100
AcDbLine
 10
154.5485533692
 20
102.6800160501
 30
0.0
 11
154.3220301077
 21
103.8102882188
 31
0.0
  0
LINE
  5
18C
330
1F
100
AcDbEntity
  8
0
  6
HIDDEN
 62
     7
370
     0
100
AcDbLine
 10
154.3220301077
 20
103.8102882188
 30
0.0
 11
153.6697834648
 21
104.3173011597
 31
0.0
  0
LWPOLYLINE
  5
18D
330
1F
100
AcDbEntity
  8
0
  6
HIDDEN
 62
     7
370
     0
100
AcDbPolyline
 90
       17
 70
   128
 43
0.0
 10
156.1894049786
 20
102.4539095554
 10
156.4285648905
 20
102.5748501736
 10
156.5939826809
 20
102.8636551667
 10
156.6604744561
 20
103.2763540018
 10
156.6179186024
 20
103.7501196582
 10
156.4727924682
 20
104.2128235306
 10
156.2471916817
 20
104.5940245706
 10
155.9754606254
 20
104.8356874119
 10
155.6989677168
 20
104.9010210875
 10
155.4598078049
 20
104.7800800036
 10
155.2943900145
 20
104.4912759419
 10
155.2278982393
 20
104.0785761755
 10
155.270454093
 20
103.6048109848
 10
155.4155802272
 20
103.1421066466
 10
155.641181945
 20
102.7609060723
 10
155.9129130013
 20
102.5192436967
 10
156.1894049786
 20
102.4539095554
  0
LINE
  5
18E
330
1F
100
AcDbEntity
  8
0
  6
HIDDEN
 62
     7
370
     0
100
AcDbLine
 10
226.3439135544
 20
151.59477547
 30
0.0
 11
225.5939157597
 21
149.9863962848
 31
0.0
  0
LINE
  5
18F
330
1F
100
AcDbEntity
  8
0
  6
HIDDEN
 62
     7
370
     0
100
AcDbLine
 10
225.5939157597
 20
73.2031564433
 30
0.0
 11
226.3439135544
 21
71.5947772581
 31
0.0
  0
LINE
  5
190
330
1F
100
AcDbEntity
  8
0
  6
HIDDEN
 62
     7
370
     0
100
AcDbLine
 10
162.243915341
 20
100.735933261
 30
0.0
 11
162.243915341
 21
103.5573032889
 31
0.0
  0
LINE
  5
191
330
1F
100
AcDbEntity
  8
0
  6
HIDDEN
 62
     7
370
     0
100
AcDbLine
 10
158.2439156167
 20
103.5403485615
 30
0.0
 11
158.2439156167
 21
102.0188925061
 31
0.0
  0
LINE
  5
192
330
1F
100
AcDbEntity
  8
0
  6
HIDDEN
 62
     7
370
     0
100
AcDbLine
 10
150.4439155955
 20
100.200851189
 30
0.0
 11
152.3375148803
 21
100.6543400902
 31
0.0
  0
LINE
  5
193
330
1F
100
AcDbEntity
  8
0
  6
HIDDEN
 62
     7
370
     0
100
AcDbLine
 10
151.3593374669
 20
104.7388433683
 30
0.0
 11
150.4439155955
 21
104.5196137596
 31
0.0
  0
LINE
  5
194
330
1F
100
AcDbEntity
  8
0
  6
HIDDEN
 62
     7
370
     0
100
AcDbLine
 10
225.5933644168
 20
143.0947768707
 30
0.0
 11
220.7939164631
 21
143.0947768707
 31
0.0
  0
LINE
  5
195
330
1F
100
AcDbEntity
  8
0
  6
HIDDEN
 62
     7
370
     0
100
AcDbLine
 10
220.7939164631
 20
80.0947758574
 30
0.0
 11
225.5999358289
 21
80.0947758574
 31
0.0
  0
LINE
  5
196
330
1F
100
AcDbEntity
  8
0
  6
HIDDEN
 62
     7
370
     0
100
AcDbLine
 10
220.7939164631
 20
137.4608024228
 30
0.0
 11
219.2939134232
 21
136.5947767365
 31
0.0
  0
LINE
  5
197
330
1F
100
AcDbEntity
  8
0
  6
HIDDEN
 62
     7
370
     0
100
AcDbLine
 10
219.2939134232
 20
86.5947759915
 30
0.0
 11
220.7939164631
 21
85.7287503052
 31
0.0
  0
LINE
  5
198
330
1F
100
AcDbEntity
  8
0
  6
HIDDEN
 62
     7
370
     0
100
AcDbLine
 10
152.3668762214
 20
101.1240964029
 30
0.0
 11
159.5739364542
 21
102.8500792775
 31
0.0
  0
LINE
  5
199
330
1F
100
AcDbEntity
  8
0
  6
HIDDEN
 62
     7
370
     0
100
AcDbLine
 10
159.5739364542
 20
106.243393125
 30
0.0
 11
151.5983083203
 21
104.333348779
 31
0.0
  0
ARC
  5
19A
330
1F
100
AcDbEntity
  8
0
  6
HIDDEN
 62
     7
370
     0
100
AcDbCircle
 10
176.6453089355
 20
136.294776364
 30
0.0
 40
0.5999999999999807
100
AcDbArc
 50
75.0
 51
90.0
  0
ARC
  5
19B
330
1F
100
AcDbEntity
  8
0
  6
HIDDEN
 62
     7
370
     0
100
AcDbCircle
 10
176.6453089355
 20
86.894776364
 30
0.0
 40
0.6000000000000081
100
AcDbArc
 50
270.0
 51
285.0
  0
LINE
  5
19C
330
1F
100
AcDbEntity
  8
0
  6
HIDDEN
 62
     7
370
     0
100
AcDbLine
 10
176.6453092836
 20
136.8947762269
 30
0.0
 11
175.9439153515
 21
136.8947762269
 31
0.0
  0
LINE
  5
19D
330
1F
100
AcDbEntity
  8
0
  6
HIDDEN
 62
     7
370
     0
100
AcDbLine
 10
175.9439153515
 20
86.2947765011
 30
0.0
 11
176.6453092836
 21
86.2947765011
 31
0.0
  0
ARC
  5
19E
330
1F
100
AcDbEntity
  8
0
  6
HIDDEN
 62
     7
370
     0
100
AcDbCircle
 10
175.9439156763
 20
136.294776364
 30
0.0
 40
0.5999999999999659
100
AcDbArc
 50
90.0
 51
180.0
  0
ARC
  5
19F
330
1F
100
AcDbEntity
  8
0
  6
HIDDEN
 62
     7
370
     0
100
AcDbCircle
 10
175.9439156763
 20
86.894776364
 30
0.0
 40
0.5999999999999943
100
AcDbArc
 50
180.0
 51
270.0
  0
LINE
  5
1A0
330
1F
100
AcDbEntity
  8
0
  6
HIDDEN
 62
     7
370
     0
100
AcDbLine
 10
176.8005998723
 20
86.3152208943
 30
0.0
 11
177.8439158492
 21
86.5947759915
 31
0.0
  0
LINE
  5
1A1
330
1F
100
AcDbEntity
  8
0
  6
HIDDEN
 62
     7
370
     0
100
AcDbLine
 10
177.8439158492
 20
136.5947767365
 30
0.0
 11
176.8005998723
 21
136.8743318338
 31
0.0
  0
LINE
  5
1A2
330
1F
100
AcDbEntity
  8
0
  6
HIDDEN
 62
     7
370
     0
100
AcDbLine
 10
219.2939134232
 20
136.5947767365
 30
0.0
 11
177.8439158492
 21
136.5947767365
 31
0.0
  0
LINE
  5
1A3
330
1F
100
AcDbEntity
  8
0
  6
HIDDEN
 62
     7
370
     0
100
AcDbLine
 10
177.8439158492
 20
86.5947759915
 30
0.0
 11
219.2939134232
 21
86.5947759915
 31
0.0
  0
LINE
  5
1A4
330
1F
100
AcDbEntity
  8
0
  6
HIDDEN
 62
     7
370
     0
100
AcDbLine
 10
161.8939159356
 20
103.6008724216
 30
0.0
 11
161.8939159356
 21
110.1436859201
 31
0.0
  0
LINE
  5
1A5
330
1F
100
AcDbEntity
  8
0
  6
HIDDEN
 62
     7
370
     0
100
AcDbLine
 10
158.5939159535
 20
103.6231124047
 30
0.0
 11
158.5939159535
 21
103.6008724216
 31
0.0
  0
LINE
  5
1A6
330
1F
100
AcDbEntity
  8
0
  6
HIDDEN
 62
     7
370
     0
100
AcDbLine
 10
158.5939159535
 20
110.1433938341
 30
0.0
 11
158.5939159535
 21
105.0009594504
 31
0.0
  0
LINE
  5
1A7
330
1F
100
AcDbEntity
  8
0
  6
HIDDEN
 62
     7
370
     0
100
AcDbLine
 10
225.5939157597
 20
149.119774552
 30
0.0
 11
220.7939164631
 21
149.119774552
 31
0.0
  0
LINE
  5
1A8
330
1F
100
AcDbEntity
  8
0
  6
HIDDEN
 62
     7
370
     0
100
AcDbLine
 10
220.7939164631
 20
74.069778176
 30
0.0
 11
225.5939157597
 21
74.069778176
 31
0.0
  0
ARC
  5
1A9
330
1F
100
AcDbEntity
  8
0
  6
HIDDEN
 62
     7
370
     0
100
AcDbCircle
 10
79.7939156763
 20
102.294776364
 30
0.0
 40
0.7999999999999972
100
AcDbArc
 50
90.0
 51
180.0
  0
ARC
  5
1AA
330
1F
100
AcDbEntity
  8
0
  6
HIDDEN
 62
     7
370
     0
100
AcDbCircle
 10
79.7939156763
 20
120.894776364
 30
0.0
 40
0.7999999999999972
100
AcDbArc
 50
180.0
 51
270.0
  0
ARC
  5
1AB
330
1F
100
AcDbEntity
  8
0
  6
HIDDEN
 62
     7
370
     0
100
AcDbCircle
 10
87.7629755686
 20
103.269776364
 30
0.0
 40
0.4000000000000199
100
AcDbArc
 50
270.0
 51
330.0
  0
ARC
  5
1AC
330
1F
100
AcDbEntity
  8
0
  6
HIDDEN
 62
     7
370
     0
100
AcDbCircle
 10
87.7629755686
 20
119.919776364
 30
0.0
 40
0.4000000000000057
100
AcDbArc
 50
30.0
 51
90.0
  0
LINE
  5
1AD
330
1F
100
AcDbEntity
  8
0
  6
HIDDEN
 62
     7
370
     0
100
AcDbLine
 10
86.8862891488
 20
102.86977675
 30
0.0
 11
87.7629766159
 21
102.86977675
 31
0.0
  0
LINE
  5
1AE
330
1F
100
AcDbEntity
  8
0
  6
HIDDEN
 62
     7
370
     0
100
AcDbLine
 10
87.7629766159
 20
120.3197759781
 30
0.0
 11
86.8862891488
 21
120.3197759781
 31
0.0
  0
ARC
  5
1AF
330
1F
100
AcDbEntity
  8
0
  6
HIDDEN
 62
     7
370
     0
100
AcDbCircle
 10
86.886288107
 20
103.269776364
 30
0.0
 40
0.4000000000000057
100
AcDbArc
 50
255.0
 51
270.0
  0
ARC
  5
1B0
330
1F
100
AcDbEntity
  8
0
  6
HIDDEN
 62
     7
370
     0
100
AcDbCircle
 10
86.886288107
 20
119.919776364
 30
0.0
 40
0.4000000000000023
100
AcDbArc
 50
90.0
 51
105.0
  0
LINE
  5
1B1
330
1F
100
AcDbEntity
  8
0
  6
HIDDEN
 62
     7
370
     0
100
AcDbLine
 10
86.7827596061
 20
120.3061470035
 30
0.0
 11
85.9939144842
 21
120.094776826
 31
0.0
  0
LINE
  5
1B2
330
1F
100
AcDbEntity
  8
0
  6
HIDDEN
 62
     7
370
     0
100
AcDbLine
 10
85.9939144842
 20
103.0947759021
 30
0.0
 11
86.7827596061
 21
102.8834057245
 31
0.0
  0
LINE
  5
1B3
330
1F
100
AcDbEntity
  8
0
  6
HIDDEN
 62
     7
370
     0
100
AcDbLine
 10
88.1093839101
 20
103.0697764102
 30
0.0
 11
88.9898450963
 21
104.594776148
 31
0.0
  0
LINE
  5
1B4
330
1F
100
AcDbEntity
  8
0
  6
HIDDEN
 62
     7
370
     0
100
AcDbLine
 10
88.9898450963
 20
118.5947765801
 30
0.0
 11
88.1093839101
 21
120.1197763178
 31
0.0
  0
LINE
  5
1B5
330
1F
100
AcDbEntity
  8
0
  6
HIDDEN
 62
     7
370
     0
100
AcDbLine
 10
79.7939138405
 20
103.0947759021
 30
0.0
 11
85.9939144842
 21
103.0947759021
 31
0.0
  0
LINE
  5
1B6
330
1F
100
AcDbEntity
  8
0
  6
HIDDEN
 62
     7
370
     0
100
AcDbLine
 10
85.9939144842
 20
120.094776826
 30
0.0
 11
79.7939138405
 21
120.094776826
 31
0.0
  0
ARC
  5
1B7
330
1F
100
AcDbEntity
  8
0
  6
HIDDEN
 62
     7
370
     0
100
AcDbCircle
 10
172.7439156763
 20
87.394776364
 30
0.0
 40
1.600000000000023
100
AcDbArc
 50
0.0
 51
90.0
  0
LINE
  5
1B8
330
1F
100
AcDbEntity
  8
0
  6
HIDDEN
 62
     7
370
     0
100
AcDbLine
 10
174.3439162068
 20
65.9357260186
 30
0.0
 11
174.3439162068
 21
87.3947764952
 31
0.0
  0
LINE
  5
1B9
330
1F
100
AcDbEntity
  8
0
  6
HIDDEN
 62
     7
370
     0
100
AcDbLine
 10
174.3439162068
 20
137.994776221
 30
0.0
 11
174.3439162068
 21
157.2538267094
 31
0.0
  0
ARC
  5
1BA
330
1F
100
AcDbEntity
  8
0
  6
HIDDEN
 62
     7
370
     0
100
AcDbCircle
 10
172.7439156763
 20
137.994776364
 30
0.0
 40
1.600000000000023
100
AcDbArc
 50
270.0
 51
0.0
  0
LINE
  5
1BB
330
1F
100
AcDbEntity
  8
0
  6
HIDDEN
 62
     7
370
     0
100
AcDbLine
 10
88.9898450963
 20
104.594776148
 30
0.0
 11
121.9939147971
 21
104.594776148
 31
0.0
  0
LINE
  5
1BC
330
1F
100
AcDbEntity
  8
0
  6
HIDDEN
 62
     7
370
     0
100
AcDbLine
 10
121.9939147971
 20
118.5947765801
 30
0.0
 11
88.9898450963
 21
118.5947765801
 31
0.0
  0
LINE
  5
1BD
330
1F
100
AcDbEntity
  8
0
  6
HIDDEN
 62
     7
370
     0
100
AcDbLine
 10
121.9939147971
 20
104.594776148
 30
0.0
 11
123.6462822102
 21
107.3447761331
 31
0.0
  0
LINE
  5
1BE
330
1F
100
AcDbEntity
  8
0
  6
HIDDEN
 62
     7
370
     0
100
AcDbLine
 10
123.6462822102
 20
115.844776595
 30
0.0
 11
121.9939147971
 21
118.5947765801
 31
0.0
  0
LINE
  5
1BF
330
1F
100
AcDbEntity
  8
0
  6
HIDDEN
 62
     7
370
     0
100
AcDbLine
 10
123.6462822102
 20
107.3447761331
 30
0.0
 11
175.3439163707
 21
107.3447761331
 31
0.0
  0
LINE
  5
1C0
330
1F
100
AcDbEntity
  8
0
  6
HIDDEN
 62
     7
370
     0
100
AcDbLine
 10
175.3439163707
 20
115.844776595
 30
0.0
 11
123.6462822102
 21
115.844776595
 31
0.0
  0
LINE
  5
1C1
330
1F
100
AcDbEntity
  8
0
  6
HIDDEN
 62
     7
370
     0
100
AcDbLine
 10
161.8939159356
 20
113.0461588939
 30
0.0
 11
161.8939159356
 21
119.5886803064
 31
0.0
  0
LINE
  5
1C2
330
1F
100
AcDbEntity
  8
0
  6
HIDDEN
 62
     7
370
     0
100
AcDbLine
 10
158.5939159535
 20
118.1885932777
 30
0.0
 11
158.5939159535
 21
113.0458668079
 31
0.0
  0
LINE
  5
1C3
330
1F
100
AcDbEntity
  8
0
  6
HIDDEN
 62
     7
370
     0
100
AcDbLine
 10
158.5939159535
 20
119.5886803064
 30
0.0
 11
158.5939159535
 21
119.5664403233
 31
0.0
  0
LINE
  5
1C4
330
1F
100
AcDbEntity
  8
0
  6
HIDDEN
 62
     7
370
     0
100
AcDbLine
 10
151.5983083203
 20
118.8562039491
 30
0.0
 11
159.5739364542
 21
116.9461596031
 31
0.0
  0
LINE
  5
1C5
330
1F
100
AcDbEntity
  8
0
  6
HIDDEN
 62
     7
370
     0
100
AcDbLine
 10
159.5739364542
 20
120.3394734505
 30
0.0
 11
152.3668762214
 21
122.0654563252
 31
0.0
  0
LINE
  5
1C6
330
1F
100
AcDbEntity
  8
0
  6
HIDDEN
 62
     7
370
     0
100
AcDbLine
 10
225.5939157597
 20
143.0947768707
 30
0.0
 11
225.5933644168
 21
143.0947768707
 31
0.0
  0
LINE
  5
1C7
330
1F
100
AcDbEntity
  8
0
  6
HIDDEN
 62
     7
370
     0
100
AcDbLine
 10
162.243915341
 20
119.6322494391
 30
0.0
 11
162.243915341
 21
122.4536194671
 31
0.0
  0
LINE
  5
1C8
330
1F
100
AcDbEntity
  8
0
  6
HIDDEN
 62
     7
370
     0
100
AcDbLine
 10
158.2439156167
 20
121.1706602219
 30
0.0
 11
158.2439156167
 21
119.6492041666
 31
0.0
  0
LINE
  5
1C9
330
1F
100
AcDbEntity
  8
0
  6
HIDDEN
 62
     7
370
     0
100
AcDbLine
 10
150.4439155955
 20
118.6699389685
 30
0.0
 11
151.3593374669
 21
118.4507093597
 31
0.0
  0
LINE
  5
1CA
330
1F
100
AcDbEntity
  8
0
  6
HIDDEN
 62
     7
370
     0
100
AcDbLine
 10
152.3375148803
 20
122.5352126378
 30
0.0
 11
150.4439155955
 21
122.9887015391
 31
0.0
  0
LINE
  5
1CB
330
1F
100
AcDbEntity
  8
0
  6
HIDDEN
 62
     7
370
     0
100
AcDbLine
 10
162.243915341
 20
119.6322494391
 30
0.0
 11
162.243915341
 21
119.9571692589
 31
0.0
  0
LINE
  5
1CC
330
1F
100
AcDbEntity
  8
0
  6
HIDDEN
 62
     7
370
     0
100
AcDbLine
 10
158.2439156167
 20
119.9571692589
 30
0.0
 11
158.2439156167
 21
119.6322494391
 31
0.0
  0
LINE
  5
1CD
330
1F
100
AcDbEntity
  8
0
  6
HIDDEN
 62
     7
370
     0
100
AcDbLine
 10
161.7439152591
 20
119.8942463118
 30
0.0
 11
161.7439152591
 21
120.8977240342
 31
0.0
  0
LINE
  5
1CE
330
1F
100
AcDbEntity
  8
0
  6
HIDDEN
 62
     7
370
     0
100
AcDbLine
 10
158.7439156987
 20
120.8977240342
 30
0.0
 11
158.7439156987
 21
119.8942463118
 31
0.0
  0
LINE
  5
1CF
330
1F
100
AcDbEntity
  8
0
  6
HIDDEN
 62
     7
370
     0
100
AcDbLine
 10
162.243915341
 20
120.7267145831
 30
0.0
 11
162.243915341
 21
120.863522144
 31
0.0
  0
LINE
  5
1D0
330
1F
100
AcDbEntity
  8
0
  6
HIDDEN
 62
     7
370
     0
100
AcDbLine
 10
158.2439156167
 20
120.863522144
 30
0.0
 11
158.2439156167
 21
120.7267145831
 31
0.0
  0
LINE
  5
1D1
330
1F
100
AcDbEntity
  8
0
  6
HIDDEN
 62
     7
370
     0
100
AcDbLine
 10
158.2439156167
 20
102.462838145
 30
0.0
 11
158.2439156167
 21
102.326030584
 31
0.0
  0
LINE
  5
1D2
330
1F
100
AcDbEntity
  8
0
  6
HIDDEN
 62
     7
370
     0
100
AcDbLine
 10
162.243915341
 20
102.326030584
 30
0.0
 11
162.243915341
 21
102.462838145
 31
0.0
  0
LINE
  5
1D3
330
1F
100
AcDbEntity
  8
0
  6
HIDDEN
 62
     7
370
     0
100
AcDbLine
 10
158.7439156987
 20
103.2953064162
 30
0.0
 11
158.7439156987
 21
102.2918286938
 31
0.0
  0
LINE
  5
1D4
330
1F
100
AcDbEntity
  8
0
  6
HIDDEN
 62
     7
370
     0
100
AcDbLine
 10
161.7439152591
 20
102.2918286938
 30
0.0
 11
161.7439152591
 21
103.2953064162
 31
0.0
  0
LINE
  5
1D5
330
1F
100
AcDbEntity
  8
0
  6
HIDDEN
 62
     7
370
     0
100
AcDbLine
 10
158.2439156167
 20
103.5573032889
 30
0.0
 11
158.2439156167
 21
103.2323834691
 31
0.0
  0
LINE
  5
1D6
330
1F
100
AcDbEntity
  8
0
  6
HIDDEN
 62
     7
370
     0
100
AcDbLine
 10
162.243915341
 20
103.2323834691
 30
0.0
 11
162.243915341
 21
103.5573032889
 31
0.0
  0
CIRCLE
  5
1D7
330
1F
100
AcDbEntity
  8
0
  6
HIDDEN
 62
     7
370
     0
100
AcDbCircle
 10
160.2439156763
 20
120.3162900188
 30
0.0
 40
1.500000000000005
  0
ARC
  5
1D8
330
1F
100
AcDbEntity
  8
0
  6
HIDDEN
 62
     7
370
     0
100
AcDbCircle
 10
160.2439156763
 20
102.8732627092
 30
0.0
 40
1.50000000000003
100
AcDbArc
 50
71.1182787691
 51
191.527441716
  0
ARC
  5
1D9
330
1F
100
AcDbEntity
  8
0
  6
HIDDEN
 62
     7
370
     0
100
AcDbCircle
 10
160.2439156763
 20
102.8732627092
 30
0.0
 40
1.499999999999992
100
AcDbArc
 50
336.6037645748
 51
71.1182787691
  0
LINE
  5
1DA
330
1F
100
AcDbEntity
  8
0
  6
HIDDEN
 62
     7
370
     0
100
AcDbLine
 10
155.6426804431
 20
118.003894316
 30
0.0
 11
156.1397226445
 21
118.4775095638
 31
0.0
  0
LINE
  5
1DB
330
1F
100
AcDbEntity
  8
0
  6
HIDDEN
 62
     7
370
     0
100
AcDbLine
 10
156.5871626056
 20
120.3458539415
 30
0.0
 11
156.3585853122
 21
120.9932442028
 31
0.0
  0
LINE
  5
1DC
330
1F
100
AcDbEntity
  8
0
  6
HIDDEN
 62
     7
370
     0
100
AcDbLine
 10
151.5670731582
 20
118.5037872959
 30
0.0
 11
154.8640235245
 21
117.7142166737
 31
0.0
  0
LINE
  5
1DD
330
1F
100
AcDbEntity
  8
0
  6
HIDDEN
 62
     7
370
     0
100
AcDbLine
 10
155.7956213049
 20
121.6042197514
 30
0.0
 11
152.4986709386
 21
122.3937903736
 31
0.0
  0
LINE
  5
1DE
330
1F
100
AcDbEntity
  8
0
  6
HIDDEN
 62
     7
370
     0
100
AcDbLine
 10
152.4986709386
 20
100.7957623545
 30
0.0
 11
155.7956213049
 21
101.5853329766
 31
0.0
  0
LINE
  5
1DF
330
1F
100
AcDbEntity
  8
0
  6
HIDDEN
 62
     7
370
     0
100
AcDbLine
 10
154.8640235245
 20
105.4753360543
 30
0.0
 11
151.5670731582
 21
104.6857654322
 31
0.0
  0
LINE
  5
1E0
330
1F
100
AcDbEntity
  8
0
  6
HIDDEN
 62
     7
370
     0
100
AcDbLine
 10
156.3585853122
 20
102.1963085253
 30
0.0
 11
156.5871626056
 21
102.8436987865
 31
0.0
  0
LINE
  5
1E1
330
1F
100
AcDbEntity
  8
0
  6
HIDDEN
 62
     7
370
     0
100
AcDbLine
 10
156.1397226445
 20
104.7120431643
 30
0.0
 11
155.6426804431
 21
105.185658412
 31
0.0
  0
DIMENSION
  5
1E2
330
1F
100
AcDbEntity
  8
VERMASSUNG
100
AcDbDimension
  2
_D
 10
71.5294172273
 20
143.344776364
 30
0.0
 11
71.5294172273
 21
111.594776364
 31
0.0
 70
   160
  1
ISO 40 %%c<> 
 71
     2
 42
-1.0
  3
SLDDIMSTYLE0
100
AcDbAlignedDimension
 13
166.2939156763
 23
79.844776364
 33
0.0
 14
166.2939156763
 24
143.344776364
 34
0.0
 50
90.0
100
AcDbRotatedDimension
  0
DIMENSION
  5
1F0
330
1F
100
AcDbEntity
  8
VERMASSUNG
100
AcDbDimension
  2
_D_1
 10
226.3439156763
 20
169.9561117853
 30
0.0
 11
152.6689156763
 21
169.9561117853
 31
0.0
 70
   160
  1
(<>)
 71
     2
 42
-1.0
  3
SLDDIMSTYLE0
100
AcDbAlignedDimension
 13
78.9939156763
 23
123.0019069611
 33
0.0
 14
226.3439156763
 24
157.694776364
 34
0.0
100
AcDbRotatedDimension
  0
DIMENSION
  5
1FC
330
1F
100
AcDbEntity
  8
VERMASSUNG
100
AcDbDimension
  2
_D_2
 10
226.3439156763
 20
163.9561117853
 30
0.0
 11
186.7939156763
 21
163.9561117853
 31
0.0
 70
   160
  1
<>
 71
     2
 42
-1.0
  3
SLDDIMSTYLE0
100
AcDbAlignedDimension
 13
147.2439156763
 23
133.819776364
 33
0.0
 14
226.3439156763
 24
157.694776364
 34
0.0
100
AcDbRotatedDimension
  0
DIMENSION
  5
206
330
1F
100
AcDbEntity
  8
VERMASSUNG
100
AcDbDimension
  2
_D_3
 10
235.0794420804
 20
64.594776364
 30
0.0
 11
235.0794420804
 21
111.594776364
 31
0.0
 70
   160
  1
MBM %%c<>
 71
     2
 42
-1.0
  3
SLDDIMSTYLE0
100
AcDbAlignedDimension
 13
225.4439156763
 23
158.594776364
 33
0.0
 14
225.4439156763
 24
64.594776364
 34
0.0
 50
90.0
100
AcDbRotatedDimension
  0
LINE
  5
212
330
1F
100
AcDbEntity
  8
VERMASSUNG
  6
CENTERX2
 62
     7
370
     0
100
AcDbLine
 10
228.3439156763
 20
111.594776364
 30
0.0
 11
76.9939156763
 21
111.594776364
 31
0.0
  0
LINE
  5
213
330
1F
100
AcDbEntity
  8
VERMASSUNG
  6
CENTERX2
370
     0
100
AcDbLine
 10
150.0375906791
 20
120.9266290093
 30
0.0
 11
161.5189384818
 21
118.1770174827
 31
0.0
  0
LINE
  5
214
330
1F
100
AcDbEntity
  8
VERMASSUNG
  6
CENTERX2
370
     0
100
AcDbLine
 10
150.0375906791
 20
102.2629237187
 30
0.0
 11
161.5189384818
 21
105.0125352453
 31
0.0
  0
LINE
  5
215
330
1F
100
AcDbEntity
  8
0
  6
Continuous
 62
     7
370
    15
100
AcDbLine
 10
277.3079052926
 20
32.5214128048
 30
0.0
 11
277.1664612592
 21
32.603092943
 31
0.0
  0
LINE
  5
216
330
1F
100
AcDbEntity
  8
0
  6
Continuous
 62
     7
370
    15
100
AcDbLine
 10
274.6204630792
 20
32.6030930674
 30
0.0
 11
274.479018982
 21
32.5214125882
 31
0.0
  0
LINE
  5
217
330
1F
100
AcDbEntity
  8
0
  6
Continuous
 62
     7
370
    15
100
AcDbLine
 10
277.8934618639
 20
31.5010023821
 30
0.0
 11
277.8934618639
 21
31.7051373904
 31
0.0
  0
LINE
  5
218
330
1F
100
AcDbEntity
  8
0
  6
Continuous
 62
     7
370
    15
100
AcDbLine
 10
273.893462259
 20
31.7051372384
 30
0.0
 11
273.893462259
 21
31.5010022301
 31
0.0
  0
LINE
  5
219
330
1F
100
AcDbEntity
  8
0
  6
Continuous
 62
     7
370
    15
100
AcDbLine
 10
279.2391571474
 20
14.5872970792
 30
0.0
 11
279.3664157288
 21
14.6607857805
 31
0.0
  0
LINE
  5
21A
330
1F
100
AcDbEntity
  8
0
  6
Continuous
 62
     7
370
    15
100
AcDbLine
 10
285.8848808973
 20
25.9523215922
 30
0.0
 11
285.8848803705
 21
26.0992748027
 31
0.0
  0
LINE
  5
21B
330
1F
100
AcDbEntity
  8
0
  6
Continuous
 62
     7
370
    15
100
AcDbLine
 10
283.9376949156
 20
30.4030161788
 30
0.0
 11
276.8994291003
 21
34.4661205484
 31
0.0
  0
LINE
  5
21C
330
1F
100
AcDbEntity
  8
0
  6
Continuous
 62
     7
370
    15
100
AcDbLine
 10
267.500192979
 20
18.1844018077
 30
0.0
 11
274.5384587943
 21
14.1212974382
 31
0.0
  0
SPLINE
  5
21D
330
1F
100
AcDbEntity
  8
0
  6
Continuous
 62
     7
370
    15
100
AcDbSpline
210
0.0
220
0.0
230
1.0
 70
     8
 71
     3
 72
    15
 73
    11
 74
     0
 42
0.000000001
 43
0.00000001
 40
0.0
 40
0.0
 40
0.0
 40
0.0
 40
0.0576274440735278
 40
0.2106962178248945
 40
0.3637513606593424
 40
0.5167078906252974
 40
0.669449503429829
 40
0.8218288287517856
 40
0.9736877171334063
 40
1.0
 40
1.0
 40
1.0
 40
1.0
 10
265.5063425334176
 20
22.22085824158595
 30
0.0
 10
265.5081264665779
 20
22.14644174750165
 30
0.0
 10
265.5146488445135
 20
21.87436176721747
 30
0.0
 10
265.5682159141476
 20
21.43047017658906
 30
0.0
 10
265.6664980019761
 20
20.89320548545798
 30
0.0
 10
265.8078282498764
 20
20.39014396199936
 30
0.0
 10
265.9870084432028
 20
19.92122242992333
 30
0.0
 10
266.2079828064717
 20
19.49522696432659
 30
0.0
 10
266.386266939381
 20
19.20542230679111
 30
0.0
 10
266.5010585806393
 20
19.07189523700221
 30
0.0
 10
266.5180109872175
 20
19.05217598609299
 30
0.0
  0
SPLINE
  5
21E
330
1F
100
AcDbEntity
  8
0
  6
Continuous
 62
     7
370
    15
100
AcDbSpline
210
0.0
220
0.0
230
1.0
 70
     8
 71
     3
 72
    15
 73
    11
 74
     0
 42
0.000000001
 43
0.00000001
 40
0.0
 40
0.0
 40
0.0
 40
0.0
 40
0.0278477996022272
 40
0.1831216508330291
 40
0.3390596904192227
 40
0.4956307605497955
 40
0.6527192543720358
 40
0.8101773114985056
 40
0.9678648137920923
 40
0.9999999999999999
 40
0.9999999999999999
 40
0.9999999999999999
 40
0.9999999999999999
 10
275.6255424480184
 20
34.88690450499082
 30
0.0
 10
275.5992535130856
 20
34.89160414817117
 30
0.0
 10
275.4263826495954
 20
34.92250807702027
 30
0.0
 10
275.087746848023
 20
34.92948869569174
 30
0.0
 10
274.6115534870574
 20
34.90485024084088
 30
0.0
 10
274.1188154000661
 20
34.82339427672207
 30
0.0
 10
273.6148202095644
 20
34.692829472489
 30
0.0
 10
273.1020675817817
 20
34.50710852475131
 30
0.0
 10
272.7217993574163
 20
34.34565354055842
 30
0.0
 10
272.5133790409475
 20
34.23203430969387
 30
0.0
 10
272.478095452183
 20
34.21279964828719
 30
0.0
  0
SPLINE
  5
21F
330
1F
100
AcDbEntity
  8
0
  6
Continuous
 62
     7
370
    15
100
AcDbSpline
210
0.0
220
0.0
230
1.0
 70
     8
 71
     3
 72
    28
 73
    24
 74
     0
 42
0.000000001
 43
0.00000001
 40
0.0
 40
0.0
 40
0.0
 40
0.0
 40
0.0092013054717932
 40
0.0585636156457475
 40
0.1080816676008888
 40
0.1578281122111277
 40
0.2077674909259008
 40
0.2578398193011406
 40
0.3079869216976144
 40
0.3581649679080238
 40
0.4083417469862869
 40
0.4585037808882141
 40
0.5086467390915366
 40
0.5587707183137904
 40
0.6088782140375316
 40
0.658973089059024
 40
0.7090596890331603
 40
0.7591428384494384
 40
0.809227412689094
 40
0.859316797598227
 40
0.9094159519519261
 40
0.9595298847856107
 40
1.0
 40
1.0
 40
1.0
 40
1.0
 10
271.2616494884668
 20
34.07897940771624
 30
0.0
 10
271.2398740303067
 20
34.0844022902148
 30
0.0
 10
271.101279613883
 20
34.11891734976928
 30
0.0
 10
270.8308439184621
 20
34.14718565364628
 30
0.0
 10
270.4452040299696
 20
34.14238239181491
 30
0.0
 10
270.0432375989945
 20
34.08369024141053
 30
0.0
 10
269.6294883323849
 20
33.97421207861705
 30
0.0
 10
269.2074109631539
 20
33.8140888937548
 30
0.0
 10
268.7810068418179
 20
33.60498887902128
 30
0.0
 10
268.3541848338748
 20
33.34884552959458
 30
0.0
 10
267.9308116187062
 20
33.04810358317555
 30
0.0
 10
267.5146435441039
 20
32.70556386489025
 30
0.0
 10
267.109315118582
 20
32.32435641953258
 30
0.0
 10
266.7183469422981
 20
31.90791246494647
 30
0.0
 10
266.3451323301824
 20
31.4599494798711
 30
0.0
 10
265.9929131860603
 20
30.98444181676508
 30
0.0
 10
265.6647654407334
 20
30.48559239331437
 30
0.0
 10
265.3635332467492
 20
29.96779170765778
 30
0.0
 10
265.0919571941459
 20
29.43561663828048
 30
0.0
 10
264.8520931786526
 20
28.89366772570432
 30
0.0
 10
264.6473571914594
 20
28.34697559366296
 30
0.0
 10
264.485891247714
 20
27.83447849755325
 30
0.0
 10
264.410062508385
 20
27.50877322199764
 30
0.0
 10
264.3761846029112
 20
27.36325830726701
 30
0.0
  0
LINE
  5
220
330
1F
100
AcDbEntity
  8
0
  6
Continuous
 62
     7
370
    15
100
AcDbLine
 10
268.2772799765
 20
33.2863771053
 30
0.0
 11
259.7530341622
 21
36.3581776717
 31
0.0
  0
LINE
  5
221
330
1F
100
AcDbEntity
  8
0
  6
Continuous
 62
     7
370
    15
100
AcDbLine
 10
257.2871213643
 20
32.0866286135
 30
0.0
 11
265.4056166033
 21
25.2314385785
 31
0.0
  0
SPLINE
  5
222
330
1F
100
AcDbEntity
  8
0
  6
Continuous
 62
     7
370
    15
100
AcDbSpline
210
0.0
220
0.0
230
1.0
 70
     8
 71
     3
 72
     9
 73
     5
 74
     0
 42
0.000000001
 43
0.00000001
 40
0.0
 40
0.0
 40
0.0
 40
0.0
 40
0.3965864599186836
 40
1.0
 40
1.0
 40
1.0
 40
1.0
 10
264.3705543766402
 20
24.44782377468914
 30
0.0
 10
264.3794087928462
 20
24.41516995427037
 30
0.0
 10
264.4017353649832
 20
24.3328327498548
 30
0.0
 10
264.4330245535689
 20
24.25850264675297
 30
0.0
 10
264.4519048736197
 20
24.21365085610568
 30
0.0
  0
SPLINE
  5
223
330
1F
100
AcDbEntity
  8
0
  6
Continuous
 62
     7
370
    15
100
AcDbSpline
210
0.0
220
0.0
230
1.0
 70
     8
 71
     3
 72
    22
 73
    18
 74
     0
 42
0.000000001
 43
0.00000001
 40
0.0
 40
0.0
 40
0.0
 40
0.0
 40
0.0538946953161859
 40
0.1186830835908258
 40
0.1849278312564432
 40
0.2527643073509523
 40
0.3216589604368809
 40
0.390970828181305
 40
0.4602403360483581
 40
0.5293698918213172
 40
0.5983759371841998
 40
0.6673172800107557
 40
0.7362678860275502
 40
0.8052884359253163
 40
0.8744543838189854
 40
0.9438464837058277
 40
1.0
 40
1.0
 40
1.0
 40
1.0
 10
259.7314374584471
 20
36.36175413913836
 30
0.0
 10
259.6685905487955
 20
36.38049674958611
 30
0.0
 10
259.5301935323947
 20
36.42177039979286
 30
0.0
 10
259.2950452537147
 20
36.42328018174797
 30
0.0
 10
259.0359868544579
 20
36.37926573199466
 30
0.0
 10
258.7671234628143
 20
36.28273709729409
 30
0.0
 10
258.4948659237632
 20
36.13682540190329
 30
0.0
 10
258.225946392283
 20
35.94442433274603
 30
0.0
 10
257.9671751220462
 20
35.71081604139341
 30
0.0
 10
257.7245045299188
 20
35.44195089007872
 30
0.0
 10
257.5031188959054
 20
35.14415709099457
 30
0.0
 10
257.3076820545059
 20
34.82411000817394
 30
0.0
 10
257.1424843394709
 20
34.488870581828
 30
0.0
 10
257.0109684836418
 20
34.14556192505884
 30
0.0
 10
256.9171886185117
 20
33.80191988568657
 30
0.0
 10
256.863918138724
 20
33.48539792263073
 30
0.0
 10
256.8578456697956
 20
33.29201875806989
 30
0.0
 10
256.8551296013792
 20
33.2055249369518
 30
0.0
  0
SPLINE
  5
224
330
1F
100
AcDbEntity
  8
0
  6
Continuous
 62
     7
370
    15
100
AcDbSpline
210
0.0
220
0.0
230
1.0
 70
     8
 71
     3
 72
    12
 73
     8
 74
     0
 42
0.000000001
 43
0.00000001
 40
0.0
 40
0.0
 40
0.0
 40
0.0
 40
0.1296376613894609
 40
0.3750546877376679
 40
0.6203533367641463
 40
0.862471557330215
 40
1.0
 40
1.0
 40
1.0
 40
1.0
 10
256.8551296013792
 20
33.2055249369518
 30
0.0
 10
256.8563469091233
 20
33.15006946994759
 30
0.0
 10
256.859868701872
 20
32.98963127137408
 30
0.0
 10
256.8986809184406
 20
32.74108746768395
 30
0.0
 10
256.9885468633588
 20
32.47819760387765
 30
0.0
 10
257.0979398207708
 20
32.27776949141577
 30
0.0
 10
257.1922801723485
 20
32.18583954793004
 30
0.0
 10
257.2264553222703
 20
32.15253757747532
 30
0.0
  0
LWPOLYLINE
  5
225
330
1F
100
AcDbEntity
  8
0
  6
Continuous
 62
     7
370
    15
100
AcDbPolyline
 90
       34
 70
   128
 43
0.0
 10
274.4078130304
 20
32.4551375958
 10
274.6269953428
 20
32.6068458148
 10
274.8919508006
 20
32.7318664788
 10
275.1931031053
 20
32.8256810389
 10
275.5195687414
 20
32.8848982979
 10
275.8595472169
 20
32.9073787178
 10
276.2007523632
 20
32.8923088308
 10
276.5308506954
 20
32.8402341043
 10
276.837911692
 20
32.753036644
 10
277.1108384827
 20
32.6338675243
 10
277.3397663344
 20
32.4870337631
 10
277.5164203718
 20
32.317842909
 10
277.6344168621
 20
32.1324095726
 10
277.6894902149
 20
31.9374361068
 10
277.679651099
 20
31.7399687282
 10
277.605253943
 20
31.5471451218
 10
277.4689889012
 20
31.3659337215
 10
277.2757789396
 20
31.2028851258
 10
277.0326096513
 20
31.0638909096
 10
276.7482675513
 20
30.9539759746
 10
276.4330314162
 20
30.8771118486
 10
276.0982937037
 20
30.8360772108
 10
275.7561526998
 20
30.8323550457
 10
275.4189745531
 20
30.8660799336
 10
275.0989452347
 20
30.9360330505
 10
274.807632013
 20
31.03968585
 10
274.555563961
 20
31.1732918362
 10
274.3518505932
 20
31.3320228546
 10
274.2038549639
 20
31.5101416889
 10
274.1169263645
 20
31.7012102801
 10
274.0942063814
 20
31.8983232646
 10
274.1365162855
 20
32.0943562251
 10
274.242326706
 20
32.282224339
 10
274.4078130304
 20
32.4551375958
  0
LWPOLYLINE
  5
226
330
1F
100
AcDbEntity
  8
0
  6
Continuous
 62
     7
370
    15
100
AcDbPolyline
 90
        3
 70
   128
 43
0.0
 10
274.2427409635
 20
32.3570177148
 10
274.4708977228
 20
32.5166956963
 10
274.479018982
 20
32.5214125882
  0
LWPOLYLINE
  5
227
330
1F
100
AcDbEntity
  8
0
  6
Continuous
 62
     7
370
    15
100
AcDbPolyline
 90
       28
 70
   128
 43
0.0
 10
277.3079052926
 20
32.5214128048
 10
277.3616826956
 20
32.4891288739
 10
277.5805788071
 20
32.3251876305
 10
277.7452495735
 20
32.1413174376
 10
277.8504026678
 20
31.9434278045
 10
277.8926574518
 20
31.7378797678
 10
277.8706573237
 20
31.5312788513
 10
277.7851081116
 20
31.3302660865
 10
277.6387599631
 20
31.1413019625
 10
277.4363158575
 20
30.9704603262
 10
277.1842835315
 20
30.8232315877
 10
276.8907633132
 20
30.7043479279
 10
276.5651893793
 20
30.6176302798
 10
276.2180253271
 20
30.5658661138
 10
275.860429008
 20
30.5507193565
 10
275.5038946577
 20
30.5726764729
 10
275.1598815434
 20
30.6310316022
 10
274.8394465616
 20
30.7239092532
 10
274.5528876361
 20
30.8483248662
 10
274.3094164875
 20
31.0002787523
 10
274.1168580734
 20
31.1748873281
 10
273.9814007365
 20
31.3665387573
 10
273.9073990364
 20
31.5690729231
 10
273.8972305824
 20
31.7759804084
 10
273.9512229344
 20
31.9806109056
 10
274.067640202
 20
32.1763874988
 10
274.2427409635
 20
32.3570177148
 10
274.2427409635
 20
32.3570177148
  0
LWPOLYLINE
  5
228
330
1F
100
AcDbEntity
  8
0
  6
Continuous
 62
     7
370
    15
100
AcDbPolyline
 90
       28
 70
   128
 43
0.0
 10
274.9030297253
 20
32.2595732609
 10
275.0859751472
 20
32.3808885405
 10
275.3124531515
 20
32.4745774379
 10
275.5702526975
 20
32.5355900576
 10
275.84547715
 20
32.5606363946
 10
276.1232884313
 20
32.5483665331
 10
276.3887093951
 20
32.4994421204
 10
276.6274317134
 20
32.4165003173
 10
276.826585385
 20
32.3040128693
 10
276.9754344879
 20
32.1680435964
 10
277.0659538013
 20
32.01592312
 10
277.0932637079
 20
31.8558521176
 10
277.0558925583
 20
31.6964597181
 10
276.9558537865
 20
31.5463395043
 10
276.7985418269
 20
31.4135837105
 10
276.5924364936
 20
31.3053497906
 10
276.3486491778
 20
31.2274725316
 10
276.080322518
 20
31.1841503369
 10
275.8019225309
 20
31.1777184556
 10
275.5284572483
 20
31.2085239447
 10
275.2746698025
 20
31.2749057098
 10
275.0542409286
 20
31.3732858224
 10
274.8790552479
 20
31.4983596991
 10
274.758556486
 20
31.6433850693
 10
274.6992403285
 20
31.800543706
 10
274.7043052931
 20
31.9613627492
 10
274.7734783143
 20
32.1171724109
 10
274.9030297253
 20
32.2595732609
  0
SPLINE
  5
229
330
1F
100
AcDbEntity
  8
0
  6
Continuous
 62
     7
370
    15
100
AcDbSpline
210
0.0
220
0.0
230
1.0
 70
     8
 71
     3
 72
    11
 73
     7
 74
     0
 42
0.000000001
 43
0.00000001
 40
0.0
 40
0.0
 40
0.0
 40
0.0
 40
0.1285561403137185
 40
0.4801536548309563
 40
0.8150691151626125
 40
1.0
 40
1.0
 40
1.0
 40
1.0
 10
274.7421261956927
 20
31.88230663660469
 30
0.0
 10
274.7683822586332
 20
31.88646727999395
 30
0.0
 10
274.8664479329102
 20
31.90200716883105
 30
0.0
 10
275.0503412852919
 20
31.99239992259755
 30
0.0
 10
275.2494612595091
 20
32.2133494627668
 30
0.0
 10
275.3561306382072
 20
32.3749863181451
 30
0.0
 10
275.3940773560615
 20
32.4324872450348
 30
0.0
  0
SPLINE
  5
22A
330
1F
100
AcDbEntity
  8
0
  6
Continuous
 62
     7
370
    15
100
AcDbSpline
210
0.0
220
0.0
230
1.0
 70
     8
 71
     3
 72
    11
 73
     7
 74
     0
 42
0.000000001
 43
0.00000001
 40
0.0
 40
0.0
 40
0.0
 40
0.0
 40
0.016637840824928
 40
0.29758473846803
 40
0.6886347144893329
 40
1.0
 40
1.0
 40
1.0
 40
1.0
 10
275.1438014670697
 20
31.32256954451002
 30
0.0
 10
275.141680159634
 20
31.32344495885241
 30
0.0
 10
275.1037384143611
 20
31.33910263648448
 30
0.0
 10
275.0080002448761
 20
31.42540083518285
 30
0.0
 10
274.8701890581108
 20
31.61788707843623
 30
0.0
 10
274.7814585046785
 20
31.80109471015384
 30
0.0
 10
274.7421261956927
 20
31.88230663660469
 30
0.0
  0
SPLINE
  5
22B
330
1F
100
AcDbEntity
  8
0
  6
Continuous
 62
     7
370
    15
100
AcDbSpline
210
0.0
220
0.0
230
1.0
 70
     8
 71
     3
 72
     9
 73
     5
 74
     0
 42
0.000000001
 43
0.00000001
 40
0.0
 40
0.0
 40
0.0
 40
0.0
 40
0.3698247976974111
 40
1.0
 40
1.0
 40
1.0
 40
1.0
 10
277.0447979272433
 20
31.78060714877688
 30
0.0
 10
277.0068554081522
 20
31.7222631998168
 30
0.0
 10
276.9042594780595
 20
31.56450214830447
 30
0.0
 10
276.7903639060435
 20
31.45283641323109
 30
0.0
 10
276.7185897409069
 20
31.38246743604095
 30
0.0
  0
SPLINE
  5
22C
330
1F
100
AcDbEntity
  8
0
  6
Continuous
 62
     7
370
    15
100
AcDbSpline
210
0.0
220
0.0
230
1.0
 70
     8
 71
     3
 72
    11
 73
     7
 74
     0
 42
0.000000001
 43
0.00000001
 40
0.0
 40
0.0
 40
0.0
 40
0.0
 40
0.2164573986193448
 40
0.4403157817950487
 40
0.7519042567253963
 40
1.0
 40
1.0
 40
1.0
 40
1.0
 10
276.5454132218368
 20
32.3816375011209
 30
0.0
 10
276.5796218089351
 20
32.3108908839454
 30
0.0
 10
276.6492086230999
 20
32.1669787227087
 30
0.0
 10
276.7783430599056
 20
31.961417181146
 30
0.0
 10
276.9168614752958
 20
31.82493854041271
 30
0.0
 10
277.0055044430627
 20
31.79422277442096
 30
0.0
 10
277.0447979272433
 20
31.78060714877688
 30
0.0
  0
SPLINE
  5
22D
330
1F
100
AcDbEntity
  8
0
  6
Continuous
 62
     7
370
    15
100
AcDbSpline
210
0.0
220
0.0
230
1.0
 70
     8
 71
     3
 72
    11
 73
     7
 74
     0
 42
0.000000001
 43
0.00000001
 40
0.0
 40
0.0
 40
0.0
 40
0.0
 40
0.2164573265889133
 40
0.4403156784722098
 40
0.7519040900236841
 40
1.0
 40
1.0
 40
1.0
 40
1.0
 10
275.3940773560615
 20
32.4324872450348
 30
0.0
 10
275.4729456272369
 20
32.39942895083247
 30
0.0
 10
275.6333788030491
 20
32.33218204600267
 30
0.0
 10
275.9310991318628
 20
32.268889892244
 30
0.0
 10
276.2504544904208
 20
32.28501922989687
 30
0.0
 10
276.4548216821802
 20
32.35196284830719
 30
0.0
 10
276.5454132218368
 20
32.3816375011209
 30
0.0
  0
LINE
  5
22E
330
1F
100
AcDbEntity
  8
0
  6
Continuous
 62
     7
370
    15
100
AcDbLine
 10
276.5454132218
 20
31.2868556551
 30
0.0
 11
276.5454132218
 21
32.3816375011
 31
0.0
  0
LINE
  5
22F
330
1F
100
AcDbEntity
  8
0
  6
Continuous
 62
     7
370
    15
100
AcDbLine
 10
275.3940773561
 20
31.238536171
 30
0.0
 11
275.3940773561
 21
32.432487245
 31
0.0
  0
LWPOLYLINE
  5
230
330
1F
100
AcDbEntity
  8
0
  6
Continuous
 62
     7
370
    15
100
AcDbPolyline
 90
       77
 70
   128
 43
0.0
 10
279.3653561228
 20
29.7171866278
 10
278.8269780421
 20
29.3806735894
 10
278.2922776692
 20
28.9950320978
 10
277.7649075222
 20
28.5628969472
 10
277.2484699385
 20
28.0872189091
 10
276.7464929385
 20
27.5712477566
 10
276.2624053
 20
27.0185081416
 10
275.799514102
 20
26.4327762887
 10
275.3609814116
 20
25.8180531526
 10
274.9498022893
 20
25.1785371201
 10
274.5687860859
 20
24.5185976994
 10
274.2205351061
 20
23.842742214
 10
273.9074288026
 20
23.1555884277
 10
273.6316056014
 20
22.4618294125
 10
273.3949494665
 20
21.7662041964
 10
273.1990772564
 20
21.0734650645
 10
273.0453271336
 20
20.3883439477
 10
272.9347496082
 20
19.7155213203
 10
272.8680991088
 20
19.0595925509
 10
272.8458313482
 20
18.4250385102
 10
272.8680991088
 20
17.8161942786
 10
272.9347496082
 20
17.2372185378
 10
273.0453271336
 20
16.6920660037
 10
273.1990772564
 20
16.1844610002
 10
273.3949494665
 20
15.7178711084
 10
273.6316056014
 20
15.2954832497
 10
273.9074288026
 20
14.920182924
 10
274.2205351061
 20
14.5945339808
 10
274.5687860859
 20
14.3207605182
 10
274.9498022893
 20
14.100733042
 10
275.3609814116
 20
13.935954319
 10
275.799514102
 20
13.82755025
 10
276.2624053
 20
13.7762611984
 10
276.7464929385
 20
13.782437274
 10
277.2484699385
 20
13.8460364292
 10
277.7649075222
 20
13.9666245333
 10
278.2922776692
 20
14.1433779939
 10
278.8269780421
 20
14.3750884122
 10
279.3653561228
 20
14.6601734746
 10
279.9037342034
 20
14.996686513
 10
280.4384345763
 20
15.3823280046
 10
280.9658047233
 20
15.8144631551
 10
281.482242307
 20
16.2901411933
 10
281.984219307
 20
16.8061123458
 10
282.4683069455
 20
17.3588519608
 10
282.9311981436
 20
17.9445838137
 10
283.369730834
 20
18.5593069498
 10
283.7809099563
 20
19.1988229823
 10
284.1619261596
 20
19.858762403
 10
284.5101771395
 20
20.5346178884
 10
284.8232834429
 20
21.2217716747
 10
285.0991066441
 20
21.9155306899
 10
285.335762779
 20
22.611155906
 10
285.5316349891
 20
23.3038950378
 10
285.6853851119
 20
23.9890161547
 10
285.7959626374
 20
24.661838782
 10
285.8626131368
 20
25.3177675515
 10
285.8848808973
 20
25.9523215922
 10
285.8626131368
 20
26.5611658238
 10
285.7959626374
 20
27.1401415646
 10
285.6853851119
 20
27.6852940986
 10
285.5316349891
 20
28.1928991022
 10
285.335762779
 20
28.659488994
 10
285.0991066441
 20
29.0818768527
 10
284.8232834429
 20
29.4571771784
 10
284.5101771395
 20
29.7828261216
 10
284.1619261596
 20
30.0565995842
 10
283.7809099563
 20
30.2766270604
 10
283.369730834
 20
30.4414057834
 10
282.9311981436
 20
30.5498098524
 10
282.4683069455
 20
30.6010989039
 10
281.984219307
 20
30.5949228284
 10
281.482242307
 20
30.5313236732
 10
280.9658047233
 20
30.4107355691
 10
280.4384345763
 20
30.2339821085
 10
279.9037342034
 20
30.0022716902
 10
279.3653561228
 20
29.7171866278
  0
LWPOLYLINE
  5
231
330
1F
100
AcDbEntity
  8
0
  6
Continuous
 62
     7
370
    15
100
AcDbPolyline
 90
       40
 70
   128
 43
0.0
 10
279.2380768549
 20
29.9376401774
 10
278.6963006517
 20
29.5993400469
 10
278.158129848
 20
29.212212233
 10
277.6271459381
 20
28.778832886
 10
277.1068824742
 20
28.3020856918
 10
276.6008018199
 20
27.7851441935
 10
276.1122719036
 20
27.2314480288
 10
275.6445435644
 20
26.644681944
 10
275.2007296105
 20
26.0287509279
 10
274.7837834822
 20
25.3877539028
 10
274.3964797593
 20
24.7259560444
 10
274.0413962485
 20
24.0477626247
 10
273.7208958073
 20
23.3576863128
 10
273.4371115933
 20
22.6603191919
 10
273.1919312583
 20
21.9603023421
 10
272.9869874659
 20
21.2622945098
 10
272.8236436666
 20
20.5709404747
 10
272.7029867224
 20
19.8908412393
 10
272.6258195306
 20
19.2265225472
 10
272.5926562828
 20
18.5824058144
 10
272.6037166696
 20
17.9627768561
 10
272.6589279874
 20
17.3717598026
 10
272.7579225052
 20
16.813287479
 10
272.9000411516
 20
16.2910764436
 10
273.0843382566
 20
15.8086020244
 10
273.3095878737
 20
15.3690750108
 10
273.5742901021
 20
14.9754199796
 10
273.8766842572
 20
14.6302570427
 10
274.2147578268
 20
14.3358835954
 10
274.5862601693
 20
14.0942578887
 10
274.9887201623
 20
13.9069885333
 10
275.4194585834
 20
13.7753209628
 10
275.8756094467
 20
13.7001321076
 10
276.3541368622
 20
13.6819221809
 10
276.8518563719
 20
13.7208117867
 10
277.3654558922
 20
13.8165430587
 10
277.8915173137
 20
13.9684787455
 10
278.4265398796
 20
14.1756071896
 10
278.966963136
 20
14.436550101
 10
279.2391571474
 20
14.5872970792
  0
LWPOLYLINE
  5
232
330
1F
100
AcDbEntity
  8
0
  6
Continuous
 62
     7
370
    15
100
AcDbPolyline
 90
       21
 70
   128
 43
0.0
 10
285.8848803705
 20
26.0992748027
 10
285.883497427
 20
26.2550450902
 10
285.8503341793
 20
26.8608723522
 10
285.7731669875
 20
27.4360957011
 10
285.6525100433
 20
27.9768873939
 10
285.489166244
 20
28.4796486928
 10
285.2842224516
 20
28.9410334589
 10
285.0390421166
 20
29.3579711195
 10
284.7552579025
 20
29.727687961
 10
284.4347574614
 20
30.0477223401
 10
284.0796739505
 20
30.3159450647
 10
283.6923702277
 20
30.5305715629
 10
283.2754240994
 20
30.6901728352
 10
282.8316101455
 20
30.7936871672
 10
282.3638818063
 20
30.8404256064
 10
281.87535189
 20
30.8300771357
 10
281.3692712357
 20
30.762710348
 10
280.8490077718
 20
30.6387741326
 10
280.3180238619
 20
30.4590925066
 10
279.7798530581
 20
30.2248615365
 10
279.2380768549
 20
29.9376401774
  0
SPLINE
  5
233
330
1F
100
AcDbEntity
  8
0
  6
Continuous
 62
     7
370
    15
100
AcDbSpline
210
0.0
220
0.0
230
1.0
 70
     8
 71
     3
 72
    52
 73
    48
 74
     0
 42
0.000000001
 43
0.00000001
 40
0.0
 40
0.0
 40
0.0
 40
0.0
 40
0.0312499999999999
 40
0.0312499999999999
 40
0.0624999999999999
 40
0.0624999999999999
 40
0.1249999999999997
 40
0.1249999999999997
 40
0.1562499999999993
 40
0.1562499999999993
 40
0.1874999999999989
 40
0.1874999999999989
 40
0.249999999999999
 40
0.249999999999999
 40
0.3124999999999994
 40
0.3124999999999994
 40
0.3749999999999999
 40
0.3749999999999999
 40
0.4062500000000004
 40
0.4062500000000004
 40
0.4375000000000009
 40
0.4375000000000009
 40
0.5000000000000013
 40
0.5000000000000013
 40
0.5312500000000012
 40
0.5312500000000012
 40
0.5625000000000012
 40
0.5625000000000012
 40
0.625000000000001
 40
0.625000000000001
 40
0.6875000000000009
 40
0.6875000000000009
 40
0.7187500000000009
 40
0.7187500000000009
 40
0.7500000000000008
 40
0.7500000000000008
 40
0.8125000000000003
 40
0.8125000000000003
 40
0.8437500000000001
 40
0.8437500000000001
 40
0.8749999999999999
 40
0.8749999999999999
 40
0.9374999999999999
 40
0.9374999999999999
 40
0.96875
 40
0.96875
 40
1.0
 40
1.0
 40
1.0
 40
1.0
 10
277.6258737411241
 20
30.86834548722574
 30
0.0
 10
277.6801555177393
 20
30.89968168985579
 30
0.0
 10
277.7312581012192
 20
30.93215366527763
 30
0.0
 10
277.8254645103838
 20
30.9981591557858
 30
0.0
 10
277.868873460324
 20
31.03186626183051
 30
0.0
 10
277.988241164648
 20
31.13515889559251
 30
0.0
 10
278.053660703592
 20
31.20761769294898
 30
0.0
 10
278.1264515883673
 20
31.31641350276715
 30
0.0
 10
278.1467169635608
 20
31.35285719357309
 30
0.0
 10
278.1795187019592
 20
31.42626096191595
 30
0.0
 10
278.1920807806148
 20
31.46334268078811
 30
0.0
 10
278.2180153364434
 20
31.57483673177391
 30
0.0
 10
278.2195955967418
 20
31.64825624011857
 30
0.0
 10
278.1941387307209
 20
31.79503567513937
 30
0.0
 10
278.1665997259559
 20
31.86886602910892
 30
0.0
 10
278.0857154215194
 20
32.01288978556692
 30
0.0
 10
278.0324257055304
 20
32.08366269717042
 30
0.0
 10
277.9335944893767
 20
32.1889503022865
 30
0.0
 10
277.8973540116158
 20
32.22398114854976
 30
0.0
 10
277.8198613957651
 20
32.29260261107878
 30
0.0
 10
277.7784839375955
 20
32.32634484688988
 30
0.0
 10
277.6466607240406
 20
32.426036004521
 30
0.0
 10
277.5485885609808
 20
32.49047810392306
 30
0.0
 10
277.385808667901
 20
32.58424734476188
 30
0.0
 10
277.3291350824591
 20
32.61487107469819
 30
0.0
 10
277.2126450878634
 20
32.67399334640639
 30
0.0
 10
277.1526037822323
 20
32.70262358408148
 30
0.0
 10
276.9671419595812
 20
32.78567380052862
 30
0.0
 10
276.8364347686889
 20
32.83729851837386
 30
0.0
 10
276.5600059691909
 20
32.93180679092105
 30
0.0
 10
276.4175727976332
 20
32.9735203944127
 30
0.0
 10
276.1992607444907
 20
33.02638201337131
 30
0.0
 10
276.1256137761528
 20
33.04240423434468
 30
0.0
 10
275.9764775492984
 20
33.07094900417472
 30
0.0
 10
275.9005990002543
 20
33.08352176026431
 30
0.0
 10
275.6731288776932
 20
33.11491095846218
 30
0.0
 10
275.5221291821562
 20
33.12750789654041
 30
0.0
 10
275.2964947219849
 20
33.1320378627832
 30
0.0
 10
275.2210206205079
 20
33.13111231020409
 30
0.0
 10
275.0724232269827
 20
33.12398435276225
 30
0.0
 10
274.9996155585579
 20
33.11782839829554
 30
0.0
 10
274.785644084054
 20
33.0913361164834
 30
0.0
 10
274.6488759908297
 20
33.06306546043102
 30
0.0
 10
274.4533740609938
 20
33.0023517435382
 30
0.0
 10
274.3903527503209
 20
32.9791494411854
 30
0.0
 10
274.2711728415428
 20
32.927765250716
 30
0.0
 10
274.2146055198196
 20
32.89946200836997
 30
0.0
 10
274.1610505133101
 20
32.86854536119138
 30
0.0
  0
SPLINE
  5
234
330
1F
100
AcDbEntity
  8
0
  6
Continuous
 62
     7
370
    15
100
AcDbSpline
210
0.0
220
0.0
230
1.0
 70
     8
 71
     3
 72
    52
 73
    48
 74
     0
 42
0.000000001
 43
0.00000001
 40
0.0
 40
0.0
 40
0.0
 40
0.0
 40
0.0312500000000003
 40
0.0312500000000003
 40
0.0625000000000006
 40
0.0625000000000006
 40
0.1250000000000014
 40
0.1250000000000014
 40
0.1875000000000022
 40
0.1875000000000022
 40
0.2500000000000031
 40
0.2500000000000031
 40
0.3125000000000039
 40
0.3125000000000039
 40
0.3437500000000043
 40
0.3437500000000043
 40
0.3750000000000047
 40
0.3750000000000047
 40
0.4062500000000052
 40
0.4062500000000052
 40
0.4375000000000056
 40
0.4375000000000056
 40
0.5000000000000064
 40
0.5000000000000064
 40
0.5312500000000069
 40
0.5312500000000069
 40
0.5625000000000073
 40
0.5625000000000073
 40
0.6250000000000077
 40
0.6250000000000077
 40
0.6562500000000074
 40
0.6562500000000074
 40
0.6875000000000073
 40
0.6875000000000073
 40
0.7500000000000066
 40
0.7500000000000066
 40
0.7812500000000058
 40
0.7812500000000058
 40
0.812500000000005
 40
0.812500000000005
 40
0.8750000000000032
 40
0.8750000000000032
 40
0.9062500000000024
 40
0.9062500000000024
 40
0.9375000000000017
 40
0.9375000000000017
 40
1.0
 40
1.0
 40
1.0
 40
1.0
 10
274.1610505133101
 20
32.86854536119138
 30
0.0
 10
274.1074296534185
 20
32.83759069766453
 30
0.0
 10
274.0568281032334
 20
32.8040164927457
 30
0.0
 10
273.9618379632433
 20
32.73150093893603
 30
0.0
 10
273.9177571508798
 20
32.69272298162223
 30
0.0
 10
273.7981794599258
 20
32.5716353190311
 30
0.0
 10
273.734008180833
 20
32.48371729421137
 30
0.0
 10
273.6358564470258
 20
32.29483894021839
 30
0.0
 10
273.6034783794257
 20
32.19692999129862
 30
0.0
 10
273.5690797525705
 20
31.99681365656469
 30
0.0
 10
273.5673512615108
 20
31.89378378788593
 30
0.0
 10
273.5928890388403
 20
31.69230450944081
 30
0.0
 10
273.6198408866591
 20
31.59299027895574
 30
0.0
 10
273.680911798915
 20
31.44709892457197
 30
0.0
 10
273.7046580184635
 20
31.39924230749225
 30
0.0
 10
273.7580836047488
 20
31.30634701624872
 30
0.0
 10
273.7878380910758
 20
31.26112367774065
 30
0.0
 10
273.8532755200854
 20
31.17319171825843
 30
0.0
 10
273.8889589022789
 20
31.13048308940825
 30
0.0
 10
273.9662630452399
 20
31.04768955522269
 30
0.0
 10
274.0080758580568
 20
31.00744351485476
 30
0.0
 10
274.1412351755921
 20
30.8920840579183
 30
0.0
 10
274.2394838446834
 20
30.82281777755007
 30
0.0
 10
274.400553995102
 20
30.73016022733111
 30
0.0
 10
274.4565417820885
 20
30.70115580515369
 30
0.0
 10
274.5732036930207
 20
30.64696630396494
 30
0.0
 10
274.6341871206506
 20
30.6216797475278
 30
0.0
 10
274.8213502987278
 20
30.55281448035409
 30
0.0
 10
274.9519928864448
 20
30.51592006796906
 30
0.0
 10
275.1567447716653
 20
30.47341208806284
 30
0.0
 10
275.2264696346656
 20
30.46139235340747
 30
0.0
 10
275.3689910041546
 20
30.44167108839587
 30
0.0
 10
275.442102336301
 20
30.43396332875836
 30
0.0
 10
275.6619205541887
 20
30.41772479162137
 30
0.0
 10
275.8101643083523
 20
30.41579422171333
 30
0.0
 10
276.0353009099426
 20
30.42553346361695
 30
0.0
 10
276.110811540325
 20
30.43089991084597
 30
0.0
 10
276.2628484465283
 20
30.44594306688349
 30
0.0
 10
276.3394790925098
 20
30.45566690636093
 30
0.0
 10
276.5652498025456
 20
30.49054783245339
 30
0.0
 10
276.7121971233158
 20
30.5214908945163
 30
0.0
 10
276.9270581835541
 20
30.57910448184132
 30
0.0
 10
276.9977716330645
 20
30.60020065630859
 30
0.0
 10
277.1370824633877
 20
30.64629495299831
 30
0.0
 10
277.2041794469784
 20
30.6707956010683
 30
0.0
 10
277.3979464028365
 20
30.74841811200544
 30
0.0
 10
277.5171766937986
 20
30.80559601746472
 30
0.0
 10
277.6258737411241
 20
30.86834548722574
 30
0.0
  0
ARC
  5
235
330
1F
100
AcDbEntity
  8
0
  6
Continuous
 62
     7
370
    15
100
AcDbCircle
 10
275.2724721984
 20
31.6260949692
 30
0.0
 40
3.273031324518027
100
AcDbArc
 50
60.1930287801
 51
82.9301095709
  0
ARC
  5
236
330
1F
100
AcDbEntity
  8
0
  6
Continuous
 62
     7
370
    15
100
AcDbCircle
 10
269.1526151792
 20
21.0203369428
 30
0.0
 40
3.282229001493912
100
AcDbArc
 50
217.6273186478
 51
239.7718092038
  0
LWPOLYLINE
  5
237
330
1F
100
AcDbEntity
  8
0
  6
Continuous
 62
     7
370
    15
100
AcDbPolyline
 90
       72
 70
   128
 43
0.0
 10
279.3653561228
 20
28.7210064003
 10
278.8654027642
 20
28.4068275743
 10
278.3693622136
 20
28.0439827106
 10
277.8811166569
 20
27.6353128003
 10
277.4044872984
 20
27.1840154215
 10
276.9432043977
 20
26.6936225743
 10
276.5008779641
 20
26.1679722042
 10
276.0809702295
 20
25.6111789273
 10
275.6867670675
 20
25.0275998875
 10
275.3213538909
 20
24.4218022875
 10
274.9875906268
 20
23.7985276493
 10
274.6880890627
 20
23.1626534889
 10
274.4251938804
 20
22.5191571201
 10
274.2009615828
 20
21.8730739831
 10
274.0171481129
 20
21.2294609913
 10
273.8751917319
 20
20.593355316
 10
273.7762030093
 20
19.9697349952
 10
273.7209569203
 20
19.3634809492
 10
273.7098859968
 20
18.779337941
 10
273.7430771669
 20
18.2218778749
 10
273.8202701736
 20
17.6954633132
 10
273.9408607366
 20
17.204214111
 10
274.1039052932
 20
16.7519752571
 10
274.3081278476
 20
16.3422857613
 10
274.5519305075
 20
15.9783524935
 10
274.8334040206
 20
15.6630232622
 10
275.1503467409
 20
15.3987664323
 10
275.5002775361
 20
15.1876496311
 10
275.8804576514
 20
15.0313252973
 10
276.2879120459
 20
14.9310171426
 10
276.7194515205
 20
14.8875098078
 10
277.1716986637
 20
14.9011446773
 10
277.6411143256
 20
14.9718138695
 10
278.1240244865
 20
15.0989647965
 10
278.6166496276
 20
15.281602519
 10
279.1151345308
 20
15.5182972154
 10
279.6155777148
 20
15.8071969161
 10
280.1140626179
 20
16.1460406382
 10
280.606687759
 20
16.532175797
 10
281.0895979199
 20
16.9625810738
 10
281.5590135818
 20
17.4338876686
 10
282.011260725
 20
17.9424062363
 10
282.4428001996
 20
18.484158443
 10
282.8502545942
 20
19.0549034281
 10
283.2304347094
 20
19.6501743797
 10
283.5803655046
 20
20.2653126772
 10
283.8973082249
 20
20.8955037828
 10
284.178781738
 20
21.5358154149
 10
284.4225843979
 20
22.1812372421
 10
284.6268069523
 20
22.8267170804
 10
284.789851509
 20
23.4672031724
 10
284.9104420719
 20
24.0976832751
 10
284.9876350786
 20
24.7132229852
 10
285.0208262487
 20
25.3090047605
 10
285.0097553252
 20
25.8803655526
 10
284.9545092362
 20
26.4228338219
 10
284.8555205136
 20
26.9321641964
 10
284.7135641326
 20
27.4043705229
 10
284.5297506627
 20
27.8357569997
 10
284.3055183651
 20
28.2229470366
 10
284.0426231828
 20
28.5629110888
 10
283.7431216187
 20
28.8529881038
 10
283.4093583546
 20
29.0909078797
 10
283.043945178
 20
29.2748084063
 10
282.649742016
 20
29.4032501632
 10
282.2298342814
 20
29.4752282893
 10
281.7875078478
 20
29.4901794296
 10
281.3262249471
 20
29.4479863761
 10
280.8495955887
 20
29.3489792112
 10
280.3613500319
 20
29.1939328007
 10
279.8653094813
 20
28.9840614354
 10
279.3653561228
 20
28.7210064003
  0
LWPOLYLINE
  5
238
330
1F
100
AcDbEntity
  8
0
  6
Continuous
 62
     7
370
    15
100
AcDbPolyline
 90
       18
 70
   128
 43
0.0
 10
283.1249003178
 20
28.8840489879
 10
282.7532557296
 20
29.0658789025
 10
282.351275157
 20
29.1885298559
 10
281.9224486224
 20
29.2509370245
 10
281.4704997999
 20
29.2525589137
 10
280.9993521659
 20
29.1933809346
 10
280.5130967306
 20
29.0739165481
 10
280.0159552254
 20
28.8952036561
 10
279.5122441131
 20
28.6587941675
 10
279.0063367219
 20
28.3667400471
 10
278.5026256095
 20
28.0215770646
 10
278.0054841043
 20
27.6263025923
 10
277.519228669
 20
27.1843484033
 10
277.048081035
 20
26.6995509031
 10
276.5961322125
 20
26.1761200104
 10
276.1673056779
 20
25.6186002636
 10
275.7653251053
 20
25.0318324201
 10
275.3936805171
 20
24.4209107976
  0
SPLINE
  5
239
330
1F
100
AcDbEntity
  8
0
  6
Continuous
 62
     7
370
    15
100
AcDbSpline
210
0.0
220
0.0
230
1.0
 70
     8
 71
     3
 72
    22
 73
    18
 74
     0
 42
0.000000001
 43
0.00000001
 40
0.0
 40
0.0
 40
0.0
 40
0.0
 40
0.125
 40
0.125
 40
0.25
 40
0.25
 40
0.375
 40
0.375
 40
0.5
 40
0.5
 40
0.625
 40
0.625
 40
0.75
 40
0.75
 40
0.875
 40
0.875
 40
1.0
 40
1.0
 40
1.0
 40
1.0
 10
275.393680408922
 20
24.42091083365912
 30
0.0
 10
275.3641944549742
 20
24.38217260677013
 30
0.0
 10
275.3344262777543
 20
24.34092507223638
 30
0.0
 10
275.2744191590388
 20
24.25338782833127
 30
0.0
 10
275.2440211778119
 20
24.20684402614035
 30
0.0
 10
275.183481560724
 20
24.10937511618167
 30
0.0
 10
275.1539365180452
 20
24.05943396570271
 30
0.0
 10
275.0963182821118
 20
23.95715407737943
 30
0.0
 10
275.0680072197457
 20
23.90434351770983
 30
0.0
 10
275.0141238980236
 20
23.79840703701054
 30
0.0
 10
274.9888278386277
 20
23.74587893855196
 30
0.0
 10
274.9414136443844
 20
23.64168546045834
 30
0.0
 10
274.9191019454969
 20
23.58951001433373
 30
0.0
 10
274.8790157289775
 20
23.48924633430666
 30
0.0
 10
274.8611709022906
 20
23.4410812856879
 30
0.0
 10
274.8296542357216
 20
23.34858618779783
 30
0.0
 10
274.8159540741472
 20
23.30409692210648
 30
0.0
 10
274.8046168831748
 20
23.26255471068265
 30
0.0
  0
LWPOLYLINE
  5
23A
330
1F
100
AcDbEntity
  8
0
  6
Continuous
 62
     7
370
    15
100
AcDbPolyline
 90
       14
 70
   128
 43
0.0
 10
274.8046166694
 20
23.26255447
 10
274.5339501351
 20
22.6096957071
 10
274.3046728597
 20
21.9536853525
 10
274.1187936674
 20
21.3002697316
 10
273.977941007
 20
20.6551722395
 10
273.8833476739
 20
20.0240428478
 10
273.8358434341
 20
19.412410481
 10
273.8358434341
 20
18.8256318768
 10
273.8833476739
 20
18.2688467378
 10
273.977941007
 20
17.7469324838
 10
274.1187936674
 20
17.2644600118
 10
274.3046728597
 20
16.8256559382
 10
274.5339501351
 20
16.4343634911
 10
274.8046166694
 20
16.0940096569
  0
SPLINE
  5
23B
330
1F
100
AcDbEntity
  8
0
  6
Continuous
 62
     7
370
    15
100
AcDbSpline
210
0.0
220
0.0
230
1.0
 70
     8
 71
     3
 72
    22
 73
    18
 74
     0
 42
0.000000001
 43
0.00000001
 40
0.0
 40
0.0
 40
0.0
 40
0.0
 40
0.1249999999999997
 40
0.1249999999999997
 40
0.2499999999999993
 40
0.2499999999999993
 40
0.3749999999999994
 40
0.3749999999999994
 40
0.4999999999999996
 40
0.4999999999999996
 40
0.6249999999999997
 40
0.6249999999999997
 40
0.7499999999999998
 40
0.7499999999999998
 40
0.8749999999999999
 40
0.8749999999999999
 40
1.0
 40
1.0
 40
1.0
 40
1.0
 10
274.8046168831748
 20
16.09400969023323
 30
0.0
 10
274.815951536276
 20
16.0409437712842
 30
0.0
 10
274.8294382467263
 20
15.9909541463572
 30
0.0
 10
274.8607855354489
 20
15.89709097400601
 30
0.0
 10
274.8787502053281
 20
15.85300439856985
 30
0.0
 10
274.9190254332601
 20
15.77235833081714
 30
0.0
 10
274.9409167966443
 20
15.73655561539012
 30
0.0
 10
274.9881947183982
 20
15.67383527591899
 30
0.0
 10
275.0138229960619
 20
15.64673087312181
 30
0.0
 10
275.067686006572
 20
15.60295386203575
 30
0.0
 10
275.0955932475284
 20
15.58642658237901
 30
0.0
 10
275.1532855426136
 20
15.56377856517856
 30
0.0
 10
275.1833856782256
 20
15.55768913907248
 30
0.0
 10
275.2436030923957
 20
15.55643301835328
 30
0.0
 10
275.27373294653
 20
15.56111914464803
 30
0.0
 10
275.33396230773
 20
15.58075638214113
 30
0.0
 10
275.3641878529587
 20
15.59584212631279
 30
0.0
 10
275.393680408922
 20
15.61577183736002
 30
0.0
  0
LWPOLYLINE
  5
23C
330
1F
100
AcDbEntity
  8
0
  6
Continuous
 62
     7
370
    15
100
AcDbPolyline
 90
       18
 70
   128
 43
0.0
 10
275.3936805171
 20
15.6157719712
 10
275.7653251053
 20
15.4339420566
 10
276.1673056779
 20
15.3112911032
 10
276.5961322125
 20
15.2488839345
 10
277.048081035
 20
15.2472620454
 10
277.519228669
 20
15.3064400244
 10
278.0054841043
 20
15.4259044109
 10
278.5026256095
 20
15.6046173029
 10
279.0063367219
 20
15.8410267916
 10
279.5122441131
 20
16.133080912
 10
280.0159552254
 20
16.4782438945
 10
280.5130967306
 20
16.8735183668
 10
280.9993521659
 20
17.3154725557
 10
281.4704997999
 20
17.800270056
 10
281.9224486224
 20
18.3237009487
 10
282.351275157
 20
18.8812206954
 10
282.7532557296
 20
19.4679885389
 10
283.1249003178
 20
20.0789101615
  0
SPLINE
  5
23D
330
1F
100
AcDbEntity
  8
0
  6
Continuous
 62
     7
370
    15
100
AcDbSpline
210
0.0
220
0.0
230
1.0
 70
     8
 71
     3
 72
    22
 73
    18
 74
     0
 42
0.000000001
 43
0.00000001
 40
0.0
 40
0.0
 40
0.0
 40
0.0
 40
0.1249999999999999
 40
0.1249999999999999
 40
0.2499999999999998
 40
0.2499999999999998
 40
0.3749999999999997
 40
0.3749999999999997
 40
0.4999999999999996
 40
0.4999999999999996
 40
0.6249999999999994
 40
0.6249999999999994
 40
0.7499999999999993
 40
0.7499999999999993
 40
0.8749999999999997
 40
0.8749999999999997
 40
1.0
 40
1.0
 40
1.0
 40
1.0
 10
283.1249004024082
 20
20.07891013902964
 30
0.0
 10
283.1757099687388
 20
20.10533850651269
 30
0.0
 10
283.2243167474104
 20
20.13571074791557
 30
0.0
 10
283.317193583521
 20
20.20427270786877
 30
0.0
 10
283.3616831975936
 20
20.24268158357463
 30
0.0
 10
283.4450621689163
 20
20.32696561498158
 30
0.0
 10
283.4831581129683
 20
20.37197043517054
 30
0.0
 10
283.5523082957734
 20
20.46759307226834
 30
0.0
 10
283.5835957296284
 20
20.51868540925081
 30
0.0
 10
283.6375016226956
 20
20.62460885978998
 30
0.0
 10
283.659900921535
 20
20.67880922252267
 30
0.0
 10
283.6958531929624
 20
20.78961952781476
 30
0.0
 10
283.7094631609255
 20
20.84681837627594
 30
0.0
 10
283.7268610449473
 20
20.96017975186156
 30
0.0
 10
283.7307846844803
 20
21.01638133076185
 30
0.0
 10
283.7293753484159
 20
21.12788420538029
 30
0.0
 10
283.7239551240025
 20
21.18341143495272
 30
0.0
 10
283.7139639281554
 20
21.23726626200611
 30
0.0
  0
LWPOLYLINE
  5
23E
330
1F
100
AcDbEntity
  8
0
  6
Continuous
 62
     7
370
    15
100
AcDbPolyline
 90
       14
 70
   128
 43
0.0
 10
283.7139641655
 20
21.2372664891
 10
283.9846306998
 20
21.890125252
 10
284.2139079752
 20
22.5461356066
 10
284.3997871675
 20
23.1995512274
 10
284.5406398279
 20
23.8446487195
 10
284.635233161
 20
24.4757781113
 10
284.6827374008
 20
25.0874104781
 10
284.6827374008
 20
25.6741890822
 10
284.635233161
 20
26.2309742212
 10
284.5406398279
 20
26.7528884753
 10
284.3997871675
 20
27.2353609472
 10
284.2139079752
 20
27.6741650208
 10
283.9846306998
 20
28.0654574679
 10
283.7139641655
 20
28.4058113022
  0
SPLINE
  5
23F
330
1F
100
AcDbEntity
  8
0
  6
Continuous
 62
     7
370
    15
100
AcDbSpline
210
0.0
220
0.0
230
1.0
 70
     8
 71
     3
 72
    22
 73
    18
 74
     0
 42
0.000000001
 43
0.00000001
 40
0.0
 40
0.0
 40
0.0
 40
0.0
 40
0.1250000000000004
 40
0.1250000000000004
 40
0.2500000000000007
 40
0.2500000000000007
 40
0.3750000000000006
 40
0.3750000000000006
 40
0.5000000000000004
 40
0.5000000000000004
 40
0.6250000000000002
 40
0.6250000000000002
 40
0.7500000000000001
 40
0.7500000000000001
 40
0.8750000000000001
 40
0.8750000000000001
 40
1.0
 40
1.0
 40
1.0
 40
1.0
 10
283.7139639281554
 20
28.40581128245553
 30
0.0
 10
283.7239528874371
 20
28.44656734199863
 30
0.0
 10
283.7293047784384
 20
28.48568167379474
 30
0.0
 10
283.7308272071108
 20
28.56056956219402
 30
0.0
 10
283.7269541700774
 20
28.59652121114513
 30
0.0
 10
283.7095182963801
 20
28.66398240034611
 30
0.0
 10
283.6961778343691
 20
28.69484878548312
 30
0.0
 10
283.660431859487
 20
28.75091187372879
 30
0.0
 10
283.6377799533122
 20
28.77629805383883
 30
0.0
 10
283.5839395141471
 20
28.82006203476477
 30
0.0
 10
283.5531355126343
 20
28.83826157869561
 30
0.0
 10
283.4839812947332
 20
28.86752642309454
 30
0.0
 10
283.4451794281967
 20
28.87863925153718
 30
0.0
 10
283.362273681529
 20
28.89299306781493
 30
0.0
 10
283.3182226402409
 20
28.89634347180171
 30
0.0
 10
283.2250672764076
 20
28.89571401103698
 30
0.0
 10
283.1757213451911
 20
28.89166623074641
 30
0.0
 10
283.1249004024082
 20
28.88404913532874
 30
0.0
  0
LINE
  5
240
330
1F
100
AcDbEntity
  8
0
  6
Continuous
 62
     7
370
    15
100
AcDbLine
 10
282.9786720903
 20
28.8165909431
 30
0.0
 11
281.0902523814
 21
27.7264294499
 31
0.0
  0
LWPOLYLINE
  5
241
330
1F
100
AcDbEntity
  8
0
  6
Continuous
 62
     7
370
    15
100
AcDbPolyline
 90
        9
 70
   128
 43
0.0
 10
281.0902523814
 20
27.7264294499
 10
280.6528080017
 20
27.6818035681
 10
280.198039555
 20
27.5696492185
 10
279.7316008435
 20
27.3913610538
 10
279.2592904175
 20
27.1491552413
 10
278.7869799914
 20
26.8460430433
 10
278.3205412799
 20
26.4857925348
 10
277.8657728332
 20
26.0728824122
 10
277.4283284535
 20
25.6124457637
  0
LINE
  5
242
330
1F
100
AcDbEntity
  8
0
  6
Continuous
 62
     7
370
    15
100
AcDbLine
 10
277.4283284535
 20
25.6124457637
 30
0.0
 11
275.5399087446
 21
24.5222842705
 31
0.0
  0
ARC
  5
243
330
1F
100
AcDbEntity
  8
0
  6
Continuous
 62
     7
370
    15
100
AcDbCircle
 10
276.1077074994
 20
23.5470997342
 30
0.0
 40
1.128441538536395
100
AcDbArc
 50
120.2099965849
 51
129.2536723413
  0
ARC
  5
244
330
1F
100
AcDbEntity
  8
0
  6
Continuous
 62
     7
370
    15
100
AcDbCircle
 10
283.4008455743
 20
28.0936669501
 30
0.0
 40
0.8371675759892037
100
AcDbArc
 50
109.2455734938
 51
120.2840933907
  0
LWPOLYLINE
  5
245
330
1F
100
AcDbEntity
  8
0
  6
Continuous
 62
     7
370
    15
100
AcDbPolyline
 90
       52
 70
   128
 43
0.0
 10
276.7182239935
 20
25.202510942
 10
276.6648680589
 20
25.1345548249
 10
276.3336727233
 20
24.6781736414
 10
276.0297504816
 20
24.1970732578
 10
275.7567903685
 20
23.6970937591
 10
275.5181059165
 20
23.1843040886
 10
275.3165944581
 20
22.6649292758
 10
275.1547020909
 20
22.1452734807
 10
275.0343936484
 20
21.6316445586
 10
274.9571297823
 20
21.1302774076
 10
274.9238485234
 20
20.6472580288
 10
274.9349536911
 20
20.1884495437
 10
274.9903101522
 20
19.7594210724
 10
275.0892464546
 20
19.3653807555
 10
275.2305614133
 20
19.0111114851
 10
275.4125399148
 20
18.7009137635
 10
275.6329724106
 20
18.4385528501
 10
275.8891838929
 20
18.2272136621
 10
276.178063661
 20
18.0694610767
 10
276.4961053603
 20
17.9672104203
 10
276.8394484714
 20
17.9217029027
 10
277.2039251977
 20
17.9334907068
 10
277.5851112397
 20
18.0024310144
 10
277.9783795977
 20
18.1276866479
 10
278.3789565156
 20
18.3077373767
 10
278.7819794983
 20
18.5403975923
 10
279.1825564163
 20
18.8228431285
 10
279.5758247743
 20
19.1516454762
 10
279.9570108163
 20
19.5228132047
 10
280.3214875426
 20
19.9318412715
 10
280.6648306536
 20
20.3737643072
 10
280.982872353
 20
20.8432180935
 10
281.2717521211
 20
21.3345041597
 10
281.5279636034
 20
21.8416588285
 10
281.7483960992
 20
22.3585256844
 10
281.9303746007
 20
22.8788313114
 10
282.0716895593
 20
23.3962593602
 10
282.1706258618
 20
23.9045291004
 10
282.2259823229
 20
24.3974707813
 10
282.2370874906
 20
24.8691010201
 10
282.2038062317
 20
25.3136946753
 10
282.1265423656
 20
25.7258548653
 10
282.0062339231
 20
26.1005786164
 10
281.8443415559
 20
26.433317463
 10
281.6428300975
 20
26.7200320982
 10
281.4041456455
 20
26.9572425663
 10
281.1311855324
 20
27.1420690267
 10
280.8272632907
 20
27.2722682591
 10
280.496067955
 20
27.3462594475
 10
280.1416198079
 20
27.3631451725
 10
279.7682213841
 20
27.3227196294
 10
279.4173871975
 20
27.2370200162
  0
LWPOLYLINE
  5
246
330
1F
100
AcDbEntity
  8
0
  6
Continuous
 62
     7
370
    15
100
AcDbPolyline
 90
        3
 70
   128
 43
0.0
 10
283.0332072147
 20
28.8457351905
 10
283.0351654626
 20
28.7716230311
 10
283.0140361938
 20
28.5691000574
  0
LWPOLYLINE
  5
247
330
1F
100
AcDbEntity
  8
0
  6
Continuous
 62
     7
370
    15
100
AcDbPolyline
 90
       13
 70
   128
 43
0.0
 10
283.0140361938
 20
28.5691000574
 10
283.27559216
 20
28.208558005
 10
283.4930288051
 20
27.7957055688
 10
283.6643020071
 20
27.3344217576
 10
283.7878028099
 20
26.829041589
 10
283.8623705948
 20
26.2843140725
 10
283.8873041435
 20
25.7053576075
 10
283.8623705948
 20
25.0976134798
 10
283.7878028099
 20
24.4667918315
 10
283.6643020071
 20
23.818820671
 10
283.4930288051
 20
23.15978903
 10
283.27559216
 20
22.495889587
 10
283.0140361938
 20
21.833361444
  0
ARC
  5
248
330
1F
100
AcDbEntity
  8
0
  6
Continuous
 62
     7
370
    15
100
AcDbCircle
 10
281.5076579196
 20
21.6620649214
 30
0.0
 40
1.516086410327032
100
AcDbArc
 50
301.5017191795
 51
6.4874735737
  0
LINE
  5
249
330
1F
100
AcDbEntity
  8
0
  6
Continuous
 62
     7
370
    15
100
AcDbLine
 10
282.2998496798
 20
20.3694125248
 30
0.0
 11
280.411429971
 21
19.2792510316
 31
0.0
  0
LWPOLYLINE
  5
24A
330
1F
100
AcDbEntity
  8
0
  6
Continuous
 62
     7
370
    15
100
AcDbPolyline
 90
        9
 70
   128
 43
0.0
 10
276.749506043
 20
17.1652673454
 10
277.1869504228
 20
17.2098932272
 10
277.6417188695
 20
17.3220475768
 10
278.108157581
 20
17.5003357415
 10
278.580468007
 20
17.742541554
 10
279.052778433
 20
18.045653752
 10
279.5192171445
 20
18.4059042605
 10
279.9739855912
 20
18.8188143831
 10
280.411429971
 20
19.2792510316
  0
LINE
  5
24B
330
1F
100
AcDbEntity
  8
0
  6
Continuous
 62
     7
370
    15
100
AcDbLine
 10
276.749506043
 20
17.1652673454
 30
0.0
 11
274.8610863342
 21
16.0751058522
 31
0.0
  0
ARC
  5
24C
330
1F
100
AcDbEntity
  8
0
  6
Continuous
 62
     7
370
    15
100
AcDbCircle
 10
275.625116472
 20
23.2441510131
 30
0.0
 40
0.8207061673735612
100
AcDbArc
 50
178.7150958032
 51
193.0857748737
  0
LWPOLYLINE
  5
24D
330
1F
100
AcDbEntity
  8
0
  6
Continuous
 62
     7
370
    15
100
AcDbPolyline
 90
       13
 70
   128
 43
0.0
 10
274.8257222307
 20
23.0583353513
 10
274.5641662645
 20
22.3958072083
 10
274.3467296194
 20
21.7319077653
 10
274.1754564174
 20
21.0728761243
 10
274.0519556145
 20
20.4249049638
 10
273.9773878297
 20
19.7940833155
 10
273.9524542809
 20
19.1863391878
 10
273.9773878297
 20
18.6073827228
 10
274.0519556145
 20
18.0626552064
 10
274.1754564174
 20
17.5572750377
 10
274.3467296194
 20
17.0959912265
 10
274.5641662645
 20
16.6831387903
 10
274.8257222307
 20
16.3225967379
  0
ARC
  5
24E
330
1F
100
AcDbEntity
  8
0
  6
Continuous
 62
     7
370
    15
100
AcDbCircle
 10
275.9503714742
 20
16.1034894182
 30
0.0
 40
1.145794020981634
100
AcDbArc
 50
168.9755719698
 51
180.4740437654
  0
LWPOLYLINE
  5
24F
330
1F
100
AcDbEntity
  8
0
  6
Continuous
 62
     7
370
    15
100
AcDbPolyline
 90
       37
 70
   128
 43
0.0
 10
275.1164743725
 20
19.284653582
 10
275.1829296793
 20
19.153933205
 10
275.3747133816
 20
18.8639370206
 10
275.6041437028
 20
18.6229894416
 10
275.8683354275
 20
18.4341205749
 10
276.1639661987
 20
18.2997057339
 10
276.4873181376
 20
18.2214351683
 10
276.8343248634
 20
18.2002931463
 10
277.2006227287
 20
18.2365450988
 10
277.5816052146
 20
18.3297358647
 10
277.9724813438
 20
18.4786929936
 10
278.3683355427
 20
18.6815436605
 10
278.7641897416
 20
18.9357365232
 10
279.1550658709
 20
19.238075367
 10
279.5360483568
 20
19.5847576163
 10
279.902346222
 20
19.971424177
 10
280.2493529479
 20
20.3932116367
 10
280.5727048868
 20
20.8448164044
 10
280.868335658
 20
21.3205592684
 10
281.1325273827
 20
21.8144574077
 10
281.3619577038
 20
22.3202995971
 10
281.5537414062
 20
22.831724531
 10
281.7054671633
 20
23.3423012011
 10
281.8152262496
 20
23.8456082856
 10
281.8816388827
 20
24.3353168096
 10
281.9038695014
 20
24.8052680907
 10
281.8816388827
 20
25.2495524458
 10
281.8152262496
 20
25.6625825758
 10
281.7054671633
 20
26.0391645167
 10
281.5537414062
 20
26.3745623565
 10
281.3619577038
 20
26.6645585409
 10
281.1325273827
 20
26.9055061199
 10
280.868335658
 20
27.0943749866
 10
280.5727048868
 20
27.2287898275
 10
280.2493529479
 20
27.3070603932
 10
279.902346222
 20
27.3282024152
 10
279.7553945176
 20
27.3203695199
  0
LWPOLYLINE
  5
250
330
1F
100
AcDbEntity
  8
0
  6
Continuous
 62
     7
370
    15
100
AcDbPolyline
 90
       22
 70
   128
 43
0.0
 10
265.5082022631
 20
22.2544249557
 10
265.5012432916
 20
22.5996664076
 10
265.5237044008
 20
23.2397264097
 10
265.5909328389
 20
23.9013463531
 10
265.7024702588
 20
24.5800072682
 10
265.8575543294
 20
25.2710727983
 10
266.0551261112
 20
25.9698226214
 10
266.2938353244
 20
26.6714832867
 10
266.5720519398
 20
27.3712622058
 10
266.8878751344
 20
28.0643786788
 10
267.2391475165
 20
28.7460979621
 10
267.6234698767
 20
29.4117638145
 10
268.0382164663
 20
30.0568283058
 10
268.4805544903
 20
30.6768855799
 10
268.947462283
 20
31.2676999899
 10
269.4357501183
 20
31.825235146
 10
269.9420826
 20
32.3456832671
 10
270.4630010523
 20
32.8254884493
 10
270.9949471616
 20
33.2613736974
 10
271.5342870465
 20
33.6503609045
 10
272.0773365126
 20
33.9897939482
 10
272.4487228525
 20
34.1920707653
  0
ARC
  5
251
330
1F
100
AcDbEntity
  8
0
  6
Continuous
 62
     7
370
    15
100
AcDbCircle
 10
275.1177352606
 20
16.406154009
 30
0.0
 40
0.8371675759861519
100
AcDbArc
 50
289.2455734938
 51
300.2840933907
  0
ARC
  5
252
330
1F
100
AcDbEntity
  8
0
  6
Continuous
 62
     7
370
    15
100
AcDbCircle
 10
273.8920400652
 20
26.4026137718
 30
0.0
 40
7.222445285031298
100
AcDbArc
 50
120.1785813928
 51
134.0803920874
  0
LINE
  5
253
330
1F
100
AcDbEntity
  8
0
  6
Continuous
 62
     7
370
    15
100
AcDbLine
 10
266.109618035
 20
26.1408925746
 30
0.0
 11
265.9033584707
 21
26.2599636866
 31
0.0
  0
ARC
  5
254
330
1F
100
AcDbEntity
  8
0
  6
Continuous
 62
     7
370
    15
100
AcDbCircle
 10
276.1627791525
 20
24.04972043
 30
0.0
 40
10.49480290327044
100
AcDbArc
 50
136.4488539367
 51
167.8422730079
  0
SPLINE
  5
255
330
1F
100
AcDbEntity
  8
0
  6
Continuous
 62
     7
370
    15
100
AcDbSpline
210
0.0
220
0.0
230
1.0
 70
     8
 71
     3
 72
    12
 73
     8
 74
     0
 42
0.000000001
 43
0.00000001
 40
0.0
 40
0.0
 40
0.0
 40
0.0
 40
0.2499999999999997
 40
0.2499999999999997
 40
0.4999999999999993
 40
0.4999999999999993
 40
1.0
 40
1.0
 40
1.0
 40
1.0
 10
268.5565698025396
 20
31.28065872788208
 30
0.0
 10
268.5962956756275
 20
31.29399796160041
 30
0.0
 10
268.6338257315041
 20
31.31155084220221
 30
0.0
 10
268.7046229734664
 20
31.3548029497205
 30
0.0
 10
268.7365476006348
 20
31.37976514579298
 30
0.0
 10
268.8198211451229
 20
31.46272417690889
 30
0.0
 10
268.8565050785573
 20
31.5272883920264
 30
0.0
 10
268.8676232090269
 20
31.59096159504204
 30
0.0
  0
LINE
  5
256
330
1F
100
AcDbEntity
  8
0
  6
Continuous
 62
     7
370
    15
100
AcDbLine
 10
283.0140361938
 20
28.5691000574
 30
0.0
 11
283.6928586043
 21
28.1772242212
 31
0.0
  0
ARC
  5
257
330
1F
100
AcDbEntity
  8
0
  6
Continuous
 62
     7
370
    15
100
AcDbCircle
 10
282.5682093607
 20
28.3963315408
 30
0.0
 40
1.145794020981635
100
AcDbArc
 50
348.9755719698
 51
0.4740437654
  0
LINE
  5
258
330
1F
100
AcDbEntity
  8
0
  6
Continuous
 62
     7
370
    15
100
AcDbLine
 10
275.5399087446
 20
15.683230016
 30
0.0
 11
277.4283284535
 21
16.7733915091
 31
0.0
  0
LWPOLYLINE
  5
259
330
1F
100
AcDbEntity
  8
0
  6
Continuous
 62
     7
370
    15
100
AcDbPolyline
 90
        9
 70
   128
 43
0.0
 10
277.4283284535
 20
16.7733915091
 10
277.8657728332
 20
16.818017391
 10
278.3205412799
 20
16.9301717406
 10
278.7869799914
 20
17.1084599052
 10
279.2592904175
 20
17.3506657177
 10
279.7316008435
 20
17.6537779157
 10
280.198039555
 20
18.0140284242
 10
280.6528080017
 20
18.4269385469
 10
281.0902523814
 20
18.8873751953
  0
LINE
  5
25A
330
1F
100
AcDbEntity
  8
0
  6
Continuous
 62
     7
370
    15
100
AcDbLine
 10
281.0902523814
 20
18.8873751953
 30
0.0
 11
282.9786720903
 21
19.9775366885
 31
0.0
  0
ARC
  5
25B
330
1F
100
AcDbEntity
  8
0
  6
Continuous
 62
     7
370
    15
100
AcDbCircle
 10
282.4108733355
 20
20.9527212249
 30
0.0
 40
1.128441538532355
100
AcDbArc
 50
300.2099965849
 51
309.2536723413
  0
LINE
  5
25C
330
1F
100
AcDbEntity
  8
0
  6
Continuous
 62
     7
370
    15
100
AcDbLine
 10
277.4283284535
 20
16.7733915091
 30
0.0
 11
276.749506043
 21
17.1652673454
 31
0.0
  0
SPLINE
  5
25D
330
1F
100
AcDbEntity
  8
0
  6
Continuous
 62
     7
370
    15
100
AcDbSpline
210
0.0
220
0.0
230
1.0
 70
     8
 71
     3
 72
     8
 73
     4
 74
     0
 42
0.000000001
 43
0.00000001
 40
0.0
 40
0.0
 40
0.0
 40
0.0
 40
1.0
 40
1.0
 40
1.0
 40
1.0
 10
265.5446960841722
 20
26.93983141817615
 30
0.0
 10
265.3323040749328
 20
26.90470210865621
 30
0.0
 10
265.1198050771699
 20
26.86977985297781
 30
0.0
 10
264.9072324847911
 20
26.83501481725325
 30
0.0
  0
LWPOLYLINE
  5
25E
330
1F
100
AcDbEntity
  8
0
  6
Continuous
 62
     7
370
    15
100
AcDbPolyline
 90
       20
 70
   128
 43
0.0
 10
264.9072325892
 20
26.8350149176
 10
265.0451202188
 20
27.4166155574
 10
265.2263943411
 20
28.0045213825
 10
265.4491852165
 20
28.5926672685
 10
265.7111942613
 20
29.1749853935
 10
266.0097180185
 20
29.74546805
 10
266.3416773975
 20
30.2982303047
 10
266.7036471766
 20
30.8275691594
 10
267.0918932767
 20
31.3280237002
 10
267.50241043
 20
31.7944312162
 10
267.9309632735
 20
32.2219795155
 10
268.3731306686
 20
32.6062580618
 10
268.8243510422
 20
32.943302401
 10
269.2799692747
 20
33.2296349165
 10
269.735284939
 20
33.4623024118
 10
270.1856007028
 20
33.6389037476
 10
270.6262709628
 20
33.757617614
 10
271.0527492594
 20
33.8172189518
 10
271.4606360543
 20
33.8170934534
 10
271.7339876063
 20
33.7812252107
  0
LWPOLYLINE
  5
25F
330
1F
100
AcDbEntity
  8
0
  6
Continuous
 62
     7
370
    15
100
AcDbPolyline
 90
       17
 70
   128
 43
0.0
 10
265.5446960339
 20
26.9398314924
 10
265.684086462
 20
27.4846468803
 10
265.8644560076
 20
28.0339069787
 10
266.0838564324
 20
28.5816795996
 10
266.3399188203
 20
29.1220491722
 10
266.6298772842
 20
29.6491801639
 10
266.9506008403
 20
30.1573794349
 10
267.2986254125
 20
30.6411588215
 10
267.6701926876
 20
31.0952937638
 10
268.0612900219
 20
31.5148795007
 10
268.4676935112
 20
31.8953851343
 10
268.8850142854
 20
32.2327010407
 10
269.3087453813
 20
32.5231844836
 10
269.7343107376
 20
32.7636985459
 10
270.1571144382
 20
32.9516454232
 10
270.5725903
 20
33.0849953552
 10
270.8438331266
 20
33.1429207882
  0
LINE
  5
260
330
1F
100
AcDbEntity
  8
0
  6
Continuous
 62
     7
370
    15
100
AcDbLine
 10
264.9072325892
 20
26.8350149176
 30
0.0
 11
264.4294881173
 21
27.1108109307
 31
0.0
  0
ELLIPSE
  5
261
330
1F
100
AcDbEntity
  8
0
  6
Continuous
 62
     7
370
    15
100
AcDbEllipse
 10
269.9113387584
 20
27.6463681055
 30
0.0
 11
-4.490310499850751
 21
7.777024581976558
 31
0.0
210
0.0
220
0.0
230
1.0
 40
0.5773346305
 41
1.301367514982109
 42
1.314414189074321
  0
LINE
  5
262
330
1F
100
AcDbEntity
  8
0
  6
Continuous
 62
     7
370
    15
100
AcDbLine
 10
271.7674198036
 20
33.8024451301
 30
0.0
 11
271.3114101322
 21
34.06569391
 31
0.0
  0
ARC
  5
263
330
1F
100
AcDbEntity
  8
0
  6
Continuous
 62
     7
370
    15
100
AcDbCircle
 10
282.893464363
 20
21.255669946
 30
0.0
 40
0.8207061673735615
100
AcDbArc
 50
358.7150958032
 51
13.0857748737
  0
LWPOLYLINE
  5
264
330
1F
100
AcDbEntity
  8
0
  6
Continuous
 62
     7
370
    15
100
AcDbPolyline
 90
       13
 70
   128
 43
0.0
 10
283.6928586043
 20
21.4414856077
 10
283.9544145704
 20
22.1040137507
 10
284.1718512156
 20
22.7679131937
 10
284.3431244175
 20
23.4269448348
 10
284.4666252204
 20
24.0749159952
 10
284.5411930053
 20
24.7057376436
 10
284.566126554
 20
25.3134817712
 10
284.5411930053
 20
25.8924382362
 10
284.4666252204
 20
26.4371657527
 10
284.3431244175
 20
26.9425459213
 10
284.1718512156
 20
27.4038297326
 10
283.9544145704
 20
27.8166821688
 10
283.6928586043
 20
28.1772242212
  0
LINE
  5
265
330
1F
100
AcDbEntity
  8
0
  6
Continuous
 62
     7
370
    15
100
AcDbLine
 10
283.0140361938
 20
21.833361444
 30
0.0
 11
283.6928586043
 21
21.4414856077
 31
0.0
  0
LINE
  5
266
330
1F
100
AcDbEntity
  8
0
  6
Continuous
 62
     7
370
    15
100
AcDbLine
 10
266.0353128777
 20
26.8197175751
 30
0.0
 11
265.799108636
 21
26.9560753813
 31
0.0
  0
SPLINE
  5
267
330
1F
100
AcDbEntity
  8
0
  6
Continuous
 62
     7
370
    15
100
AcDbSpline
210
0.0
220
0.0
230
1.0
 70
     8
 71
     3
 72
    14
 73
    10
 74
     0
 42
0.000000001
 43
0.00000001
 40
0.0
 40
0.0
 40
0.0
 40
0.0
 40
0.1134875903227499
 40
0.2884507601050068
 40
0.4634438893900288
 40
0.6380744063983101
 40
0.8124676993590939
 40
0.9871167959912229
 40
0.9999999999999999
 40
0.9999999999999999
 40
0.9999999999999999
 40
0.9999999999999999
 10
268.7530027825937
 20
31.40078172703074
 30
0.0
 10
268.72518259763
 20
31.40212173879981
 30
0.0
 10
268.654472192411
 20
31.40552763905936
 30
0.0
 10
268.5365379834556
 20
31.37146922044294
 30
0.0
 10
268.4194795397343
 20
31.30609497553606
 30
0.0
 10
268.3292625958045
 20
31.21381989848613
 30
0.0
 10
268.281625995525
 20
31.10872643117276
 30
0.0
 10
268.2679992041696
 20
31.03074332161612
 30
0.0
 10
268.2806641126915
 20
30.99643168633046
 30
0.0
 10
268.2815341740073
 20
30.99407452548004
 30
0.0
  0
SPLINE
  5
268
330
1F
100
AcDbEntity
  8
0
  6
Continuous
 62
     7
370
    15
100
AcDbSpline
210
0.0
220
0.0
230
1.0
 70
     8
 71
     3
 72
    12
 73
     8
 74
     0
 42
0.000000001
 43
0.00000001
 40
0.0
 40
0.0
 40
0.0
 40
0.0
 40
0.2500000000000015
 40
0.2500000000000015
 40
0.500000000000003
 40
0.500000000000003
 40
1.0
 40
1.0
 40
1.0
 40
1.0
 10
265.7991086638671
 20
26.9560753763424
 30
0.0
 10
265.7840611698834
 20
26.96476210971688
 30
0.0
 10
265.7656642065285
 20
26.97166440330994
 30
0.0
 10
265.7258237545381
 20
26.98058191844107
 30
0.0
 10
265.7039234644365
 20
26.98266423227284
 30
0.0
 10
265.6401211049088
 20
26.98146347250199
 30
0.0
 10
265.5981199828218
 20
26.97067237839831
 30
0.0
 10
265.567994824345
 20
26.95328149458499
 30
0.0
  0
SPLINE
  5
269
330
1F
100
AcDbEntity
  8
0
  6
Continuous
 62
     7
370
    15
100
AcDbSpline
210
0.0
220
0.0
230
1.0
 70
     8
 71
     3
 72
     9
 73
     5
 74
     0
 42
0.000000001
 43
0.00000001
 40
0.0
 40
0.0
 40
0.0
 40
0.0
 40
0.5404383862015826
 40
1.0
 40
1.0
 40
1.0
 40
1.0
 10
264.3881417296882
 20
27.21757793722316
 30
0.0
 10
264.379771454433
 20
27.24450333196013
 30
0.0
 10
264.3642835182152
 20
27.29432472774625
 30
0.0
 10
264.3724478169755
 20
27.34155173555301
 30
0.0
 10
264.3761998152893
 20
27.36325545547556
 30
0.0
  0
LINE
  5
26A
330
1F
100
AcDbEntity
  8
0
  6
Continuous
 62
     7
370
    15
100
AcDbLine
 10
265.5679948117
 20
26.9532815906
 30
0.0
 11
265.5446960339
 21
26.9398314924
 31
0.0
  0
LINE
  5
26B
330
1F
100
AcDbEntity
  8
0
  6
Continuous
 62
     7
370
    15
100
AcDbLine
 10
280.411429971
 20
19.2792510316
 30
0.0
 11
281.0902523814
 21
18.8873751953
 31
0.0
  0
LINE
  5
26C
330
1F
100
AcDbEntity
  8
0
  6
Continuous
 62
     7
370
    15
100
AcDbLine
 10
265.4353527196
 20
26.9217746562
 30
0.0
 11
265.4353527196
 21
26.0180435601
 31
0.0
  0
LINE
  5
26D
330
1F
100
AcDbEntity
  8
0
  6
Continuous
 62
     7
370
    15
100
AcDbLine
 10
265.4353527196
 20
26.0180435601
 30
0.0
 11
265.4353527196
 21
25.4317203972
 31
0.0
  0
ARC
  5
26E
330
1F
100
AcDbEntity
  8
0
  6
Continuous
 62
     7
370
    15
100
AcDbCircle
 10
269.5452100126
 20
26.5340177845
 30
0.0
 40
4.142119791687024
100
AcDbArc
 50
174.7205741756
 51
187.1557901448
  0
ARC
  5
26F
330
1F
100
AcDbEntity
  8
0
  6
Continuous
 62
     7
370
    15
100
AcDbCircle
 10
267.7695216545
 20
26.7176012596
 30
0.0
 40
2.736076812149654
100
AcDbArc
 50
177.6036730573
 51
210.9856850777
  0
LINE
  5
270
330
1F
100
AcDbEntity
  8
0
  6
Continuous
 62
     7
370
    15
100
AcDbLine
 10
259.7357230027
 20
36.364206953
 30
0.0
 11
259.7530341622
 21
36.3581776717
 31
0.0
  0
LWPOLYLINE
  5
271
330
1F
100
AcDbEntity
  8
0
  6
Continuous
 62
     7
370
    15
100
AcDbPolyline
 90
        3
 70
   128
 43
0.0
 10
257.2871213643
 20
32.0866286135
 10
257.2463870938
 20
32.1233105496
 10
257.230484561
 20
32.1389599346
  0
SPLINE
  5
272
330
1F
100
AcDbEntity
  8
0
  6
Continuous
 62
     7
370
    15
100
AcDbSpline
210
0.0
220
0.0
230
1.0
 70
     8
 71
     3
 72
    10
 73
     6
 74
     0
 42
0.000000001
 43
0.00000001
 40
0.0
 40
0.0
 40
0.0
 40
0.0
 40
0.4187212396328967
 40
0.8812586696300739
 40
1.0
 40
1.0
 40
1.0
 40
1.0
 10
265.5679948117105
 20
24.32402007996992
 30
0.0
 10
265.5815501205972
 20
24.33048001384914
 30
0.0
 10
265.6100792047355
 20
24.34407586759971
 30
0.0
 10
265.6514258776954
 20
24.35246147343504
 30
0.0
 10
265.6758097921023
 20
24.35235175080225
 30
0.0
 10
265.6807908418734
 20
24.35232933709598
 30
0.0
  0
LINE
  5
273
330
1F
100
AcDbEntity
  8
0
  6
Continuous
 62
     7
370
    15
100
AcDbLine
 10
265.5446960339
 20
24.3105699818
 30
0.0
 11
265.5679948117
 21
24.32402008
 31
0.0
  0
SPLINE
  5
274
330
1F
100
AcDbEntity
  8
0
  6
Continuous
 62
     7
370
    15
100
AcDbSpline
210
0.0
220
0.0
230
1.0
 70
     8
 71
     3
 72
     8
 73
     4
 74
     0
 42
0.000000001
 43
0.00000001
 40
0.0
 40
0.0
 40
0.0
 40
0.0
 40
1.0
 40
1.0
 40
1.0
 40
1.0
 10
264.9072324847911
 20
24.20575340298113
 30
0.0
 10
265.1198050771699
 20
24.24051843870569
 30
0.0
 10
265.3323040749328
 20
24.2754406943841
 30
0.0
 10
265.5446960841722
 20
24.31057000390403
 30
0.0
  0
LINE
  5
275
330
1F
100
AcDbEntity
  8
0
  6
Continuous
 62
     7
370
    15
100
AcDbLine
 10
264.4294881173
 20
24.4815494201
 30
0.0
 11
264.9072325892
 21
24.205753407
 31
0.0
  0
LINE
  5
276
330
1F
100
AcDbEntity
  8
0
  6
Continuous
 62
     7
370
    15
100
AcDbLine
 10
264.4294881173
 20
24.4815494201
 30
0.0
 11
265.3505000171
 21
25.0132382725
 31
0.0
  0
ELLIPSE
  5
277
330
1F
100
AcDbEntity
  8
0
  6
Continuous
 62
     7
370
    15
100
AcDbEllipse
 10
265.2567741897
 20
25.3286381275
 30
0.0
 11
-2.402388150812840E-5
 21
0.341379584593092
 31
0.0
210
0.0
220
0.0
230
1.0
 40
0.7174342186
 41
3.534193645557675
 42
5.104989972352327
  0
LINE
  5
278
330
1F
100
AcDbEntity
  8
0
  6
Continuous
 62
     7
370
    15
100
AcDbLine
 10
265.6177652349
 20
24.0901250096
 30
0.0
 11
265.5446960339
 21
24.3105699818
 31
0.0
  0
ARC
  5
279
330
1F
100
AcDbEntity
  8
0
  6
Continuous
 62
     7
370
    15
100
AcDbCircle
 10
267.7631006853
 20
24.8802846967
 30
0.0
 40
2.934446292352253
100
AcDbArc
 50
193.2892200207
 51
219.8470511398
  0
ARC
  5
27A
330
1F
100
AcDbEntity
  8
0
  6
Continuous
 62
     7
370
    15
100
AcDbCircle
 10
266.8548127936
 20
24.9683206882
 30
0.0
 40
2.504717227808045
100
AcDbArc
 50
198.5439781661
 51
237.3906148988
  0
ELLIPSE
  5
27B
330
1F
100
AcDbEntity
  8
0
  6
Continuous
 62
     7
370
    15
100
AcDbEllipse
 10
269.9113387584
 20
27.6463681055
 30
0.0
 11
6.349999985891998
 21
3.666372828084377
 31
0.0
210
0.0
220
0.0
230
1.0
 40
0.0000703729
 41
2.612495364527057
 42
2.625542038629494
  0
SPLINE
  5
27C
330
1F
100
AcDbEntity
  8
0
  6
Continuous
 62
     7
370
    15
100
AcDbSpline
210
0.0
220
0.0
230
1.0
 70
     8
 71
     3
 72
     9
 73
     5
 74
     0
 42
0.000000001
 43
0.00000001
 40
0.0
 40
0.0
 40
0.0
 40
0.0
 40
0.45981812871213
 40
1.0
 40
1.0
 40
1.0
 40
1.0
 10
264.3718065331677
 20
24.4482311292382
 30
0.0
 10
264.3714196803626
 20
24.44800902838733
 30
0.0
 10
264.3705783633702
 20
24.44752600947834
 30
0.0
 10
264.3819817999678
 20
24.45411231550345
 30
0.0
 10
264.3881417296882
 20
24.45767011861696
 30
0.0
  0
ELLIPSE
  5
27D
330
1F
100
AcDbEntity
  8
0
  6
Continuous
 62
     7
370
    15
100
AcDbEllipse
 10
265.2090786635
 20
25.3010951355
 30
0.0
 11
0.1040030315683111
 21
0.3882174483963716
 31
0.0
210
0.0
220
0.0
230
1.0
 40
0.5176380889
 41
3.619174351347369
 42
5.189970678142672
  0
LWPOLYLINE
  5
27E
330
1F
100
AcDbEntity
  8
0
  6
Continuous
 62
     7
370
    15
100
AcDbPolyline
 90
        3
 70
   128
 43
0.0
 10
268.3600200353
 20
31.0685993982
 10
268.4124392562
 20
31.1387422405
 10
268.4762100722
 20
31.1955111029
  0
LWPOLYLINE
  5
27F
330
1F
100
AcDbEntity
  8
0
  6
Continuous
 62
     7
370
    15
100
AcDbPolyline
 90
        3
 70
   128
 43
0.0
 10
268.3832072557
 20
31.0942919114
 10
268.4223107066
 20
31.1437177732
 10
268.4659266362
 20
31.1844618934
  0
LWPOLYLINE
  5
280
330
1F
100
AcDbEntity
  8
0
  6
Continuous
 62
     7
370
     0
100
AcDbPolyline
 90
       35
 70
   128
 43
0.0
 10
275.6753168224
 20
34.8742406341
 10
275.5622784479
 20
34.887285879
 10
275.0837510324
 20
34.9054958057
 10
274.5860315227
 20
34.8666061998
 10
274.0724320024
 20
34.7708749278
 10
273.5463705809
 20
34.618939241
 10
273.011348015
 20
34.4118107969
 10
272.4709247586
 20
34.1508678856
 10
271.9286973207
 20
33.8378466485
 10
271.3882740643
 20
33.4748301493
 10
270.8532514984
 20
33.0642346875
 10
270.3271900769
 20
32.6087927855
 10
269.8135905566
 20
32.1115346735
 10
269.3158710469
 20
31.5757695652
 10
268.8373436314
 20
31.0050636448
 10
268.3811927681
 20
30.4032142131
 10
267.9504543471
 20
29.7742266474
 10
267.547994354
 20
29.122286875
 10
267.1764920115
 20
28.4517336935
 10
266.8384184419
 20
27.7670288111
 10
266.5360242869
 20
27.0727290145
 10
266.2713220585
 20
26.3734552956
 10
266.0460724413
 20
25.6738606097
 10
265.8617753363
 20
24.9786012823
 10
265.7196566899
 20
24.2923035505
 10
265.6206621722
 20
23.6195345896
 10
265.5654508543
 20
22.9647719053
 10
265.5543904676
 20
22.3323728963
 10
265.5875537153
 20
21.7265456344
 10
265.6647209071
 20
21.1513222855
 10
265.7853778513
 20
20.6105305927
 10
265.9487216506
 20
20.1077692938
 10
266.153665443
 20
19.6463845277
 10
266.398845778
 20
19.2294468671
 10
266.5530942873
 20
19.0164611106
  0
LINE
  5
281
330
1F
100
AcDbEntity
  8
0
  6
Continuous
 62
     7
370
     0
100
AcDbLine
 10
274.8610863342
 20
16.0751058522
 30
0.0
 11
275.5399087446
 21
15.683230016
 31
0.0
  0
LWPOLYLINE
  5
282
330
1F
100
AcDbEntity
  8
0
  6
Continuous
 62
     7
370
     0
100
AcDbPolyline
 90
       20
 70
   128
 43
0.0
 10
264.3881417297
 20
27.2175779372
 10
264.5305722627
 20
27.7963626129
 10
264.7156043034
 20
28.3806418942
 10
264.9413549412
 20
28.96446929
 10
265.2055261193
 20
29.5419023026
 10
265.505429659
 20
30.1070649354
 10
265.8380128114
 20
30.6542039648
 10
266.1998906576
 20
31.177751599
 10
266.5873802218
 20
31.6723786316
 10
266.9965376124
 20
32.1330514725
 10
267.423198721
 20
32.5550808898
 10
267.8630209732
 20
32.9341722727
 10
268.3115279788
 20
33.2664669201
 10
268.7641549334
 20
33.5485825481
 10
269.2162951001
 20
33.7776483351
 10
269.6633467881
 20
33.9513329556
 10
270.1007598212
 20
34.0678683635
 10
270.5240826359
 20
34.1260684642
 10
270.9290065073
 20
34.1253412614
 10
271.3114101322
 20
34.06569391
  0
LWPOLYLINE
  5
283
330
1F
100
AcDbEntity
  8
0
  6
Continuous
 62
     7
370
     0
100
AcDbPolyline
 90
       15
 70
   128
 43
0.0
 10
265.799108636
 20
26.9560753813
 10
265.9481981077
 20
27.5182142684
 10
266.1419466435
 20
28.0841855002
 10
266.3779797953
 20
28.6470517488
 10
266.6534044453
 20
29.1999142141
 10
266.9648443677
 20
29.7359961197
 10
267.308482375
 20
30.2487266641
 10
267.68010668
 20
30.7318213207
 10
268.0751619986
 20
31.1793584884
 10
268.4888059871
 20
31.5858528323
 10
268.9159686432
 20
31.9463218189
 10
269.3514142086
 20
32.256347308
 10
269.7898053119
 20
32.5121287028
 10
270.2257685592
 20
32.7105317651
 10
270.4064612526
 20
32.7760062926
  0
LWPOLYLINE
  5
284
330
1F
100
AcDbEntity
  8
0
  6
Continuous
 62
     7
370
     0
100
AcDbPolyline
 90
       16
 70
   128
 43
0.0
 10
265.5679948117
 20
26.9532815906
 10
265.7164594564
 20
27.5263722666
 10
265.9103223154
 20
28.1039254896
 10
266.1472442389
 20
28.6789721409
 10
266.4243658265
 20
29.2445728088
 10
266.7383432526
 20
29.7939021962
 10
267.0853877789
 20
30.3203317036
 10
267.4613113258
 20
30.8175083608
 10
267.8615777071
 20
31.2794333776
 10
268.2813568938
 20
31.7005321018
 10
268.7155832958
 20
32.0757229492
 10
269.1590169732
 20
32.4004789006
 10
269.6063069967
 20
32.6708811132
 10
270.052055845
 20
32.8836658302
 10
270.4908845511
 20
33.036266248
 10
270.8001811087
 20
33.1079183438
  0
LINE
  5
285
330
1F
100
AcDbEntity
  8
0
  6
Continuous
 62
     7
370
     0
100
AcDbLine
 10
265.4830482666
 20
25.4592633252
 30
0.0
 11
265.8513773795
 21
25.2466314543
 31
0.0
  0
LINE
  5
286
330
1F
100
AcDbEntity
  8
0
  6
Continuous
 62
     7
370
     0
100
AcDbLine
 10
265.4353527196
 20
25.4317203972
 30
0.0
 11
265.4830482666
 21
25.4592633252
 31
0.0
  0
LWPOLYLINE
  5
287
330
1F
100
AcDbEntity
  8
0
  6
Continuous
 62
     7
370
     0
100
AcDbPolyline
 90
        3
 70
   128
 43
0.0
 10
265.4038154183
 20
26.5712396678
 10
265.4035330344
 20
26.6197349072
 10
265.413379065
 20
26.9124828616
  0
LWPOLYLINE
  5
288
330
1F
100
AcDbEntity
  8
0
  6
Continuous
 62
     7
370
     0
100
AcDbPolyline
 90
       15
 70
   128
 43
0.0
 10
256.8947796442
 20
33.1365204194
 10
256.9174824393
 20
33.4743752975
 10
256.9850031394
 20
33.8296922059
 10
257.0955927821
 20
34.1932684149
 10
257.2463870938
 20
34.5556876093
 10
257.4334807739
 20
34.90756323
 10
257.652028186
 20
35.239782078
 10
257.8963689426
 20
35.5437397046
 10
258.1601748261
 20
35.8115637075
 10
258.4366133549
 20
36.0363176617
 10
258.7185249482
 20
36.2121806579
 10
258.9986082409
 20
36.3345977807
 10
259.2696092171
 20
36.400398571
 10
259.5245090763
 20
36.4078788628
 10
259.7357230027
 20
36.364206953
  0
ARC
  5
289
330
1F
100
AcDbEntity
  8
0
  6
Continuous
 62
     7
370
     0
100
AcDbCircle
 10
258.2841306616
 20
33.0488060505
 30
0.0
 40
1.392117114264751
100
AcDbArc
 50
176.387520595
 51
220.8113157753
  0
LINE
  5
28A
330
1F
100
AcDbEntity
  8
0
  6
Continuous
 62
     7
370
     0
100
AcDbLine
 10
265.7443838508
 20
24.7858539753
 30
0.0
 11
265.3505000171
 21
25.0132382725
 31
0.0
  0
LINE
  5
28B
330
1F
100
AcDbEntity
  8
0
  6
Continuous
 62
     7
370
     0
100
AcDbLine
 10
282.2998496798
 20
20.3694125248
 30
0.0
 11
282.9786720903
 21
19.9775366885
 31
0.0
  0
LINE
  5
28C
330
1F
100
AcDbEntity
  8
0
  6
Continuous
 62
     7
370
     0
100
AcDbLine
 10
264.4801409243
 20
24.1717393022
 30
0.0
 11
264.3881417297
 21
24.4576701186
 31
0.0
  0
LINE
  5
28D
330
1F
100
AcDbEntity
  8
0
  6
Continuous
 62
     7
370
     0
100
AcDbLine
 10
265.6262472881
 20
24.1454308546
 30
0.0
 11
265.5679948117
 21
24.32402008
 31
0.0
  0
OLE2FRAME
  5
28E
330
1F
100
AcDbEntity
  8
0
100
AcDbOle2Frame
 70
     2
  3
Paintbrush-Bild
 10
13.8511154363
 20
38.264191557
 30
0.0
 11
51.6290888628
 21
31.9806341108
 31
0.0
 71
     2
 72
     0
 73
     1
 90
    12928
310
80552BED0767C5B32B40DDAF6807D121434000000000000000006FFBDDFB85D0
310
4940DDAF6807D121434000000000000000006FFBDDFB85D04940416F4BD60AFB
310
3F4000000000000000002BED0767C5B32B40416F4BD60AFB3F40000000000000
310
0000000000000100000000010000010000000100000000000100000000320000
310
D0CF11E0A1B11AE1000000000000000000000000000000003E000300FEFF0900
310
0600000000000000000000000100000001000000000000000010000002000000
310
01000000FEFFFFFF0000000000000000FFFFFFFFFFFFFFFFFFFFFFFFFFFFFFFF
310
FFFFFFFFFFFFFFFFFFFFFFFFFFFFFFFFFFFFFFFFFFFFFFFFFFFFFFFFFFFFFFFF
310
FFFFFFFFFFFFFFFFFFFFFFFFFFFFFFFFFFFFFFFFFFFFFFFFFFFFFFFFFFFFFFFF
310
FFFFFFFFFFFFFFFFFFFFFFFFFFFFFFFFFFFFFFFFFFFFFFFFFFFFFFFFFFFFFFFF
310
FFFFFFFFFFFFFFFFFFFFFFFFFFFFFFFFFFFFFFFFFFFFFFFFFFFFFFFFFFFFFFFF
310
FFFFFFFFFFFFFFFFFFFFFFFFFFFFFFFFFFFFFFFFFFFFFFFFFFFFFFFFFFFFFFFF
310
FFFFFFFFFFFFFFFFFFFFFFFFFFFFFFFFFFFFFFFFFFFFFFFFFFFFFFFFFFFFFFFF
310
FFFFFFFFFFFFFFFFFFFFFFFFFFFFFFFFFFFFFFFFFFFFFFFFFFFFFFFFFFFFFFFF
310
FFFFFFFFFFFFFFFFFFFFFFFFFFFFFFFFFFFFFFFFFFFFFFFFFFFFFFFFFFFFFFFF
310
FFFFFFFFFFFFFFFFFFFFFFFFFFFFFFFFFFFFFFFFFFFFFFFFFFFFFFFFFFFFFFFF
310
FFFFFFFFFFFFFFFFFFFFFFFFFFFFFFFFFFFFFFFFFFFFFFFFFFFFFFFFFFFFFFFF
310
FFFFFFFFFFFFFFFFFFFFFFFFFFFFFFFFFFFFFFFFFFFFFFFFFFFFFFFFFFFFFFFF
310
FFFFFFFFFFFFFFFFFFFFFFFFFFFFFFFFFFFFFFFFFFFFFFFFFFFFFFFFFFFFFFFF
310
FFFFFFFFFFFFFFFFFFFFFFFFFFFFFFFFFFFFFFFFFFFFFFFFFFFFFFFFFFFFFFFF
310
FDFFFFFFFEFFFFFFFEFFFFFFFEFFFFFF05000000060000000700000008000000
310
090000000A0000000B0000000C0000000D0000000E0000000F00000010000000
310
11000000120000001300000014000000150000001600000017000000FEFFFFFF
310
FFFFFFFFFFFFFFFFFFFFFFFFFFFFFFFFFFFFFFFFFFFFFFFFFFFFFFFFFFFFFFFF
310
FFFFFFFFFFFFFFFFFFFFFFFFFFFFFFFFFFFFFFFFFFFFFFFFFFFFFFFFFFFFFFFF
310
FFFFFFFFFFFFFFFFFFFFFFFFFFFFFFFFFFFFFFFFFFFFFFFFFFFFFFFFFFFFFFFF
310
FFFFFFFFFFFFFFFFFFFFFFFFFFFFFFFFFFFFFFFFFFFFFFFFFFFFFFFFFFFFFFFF
310
FFFFFFFFFFFFFFFFFFFFFFFFFFFFFFFFFFFFFFFFFFFFFFFFFFFFFFFFFFFFFFFF
310
FFFFFFFFFFFFFFFFFFFFFFFFFFFFFFFFFFFFFFFFFFFFFFFFFFFFFFFFFFFFFFFF
310
FFFFFFFFFFFFFFFFFFFFFFFFFFFFFFFFFFFFFFFFFFFFFFFFFFFFFFFFFFFFFFFF
310
FFFFFFFFFFFFFFFFFFFFFFFFFFFFFFFFFFFFFFFFFFFFFFFFFFFFFFFFFFFFFFFF
310
FFFFFFFFFFFFFFFFFFFFFFFFFFFFFFFFFFFFFFFFFFFFFFFFFFFFFFFFFFFFFFFF
310
FFFFFFFFFFFFFFFFFFFFFFFFFFFFFFFFFFFFFFFFFFFFFFFFFFFFFFFFFFFFFFFF
310
FFFFFFFFFFFFFFFFFFFFFFFFFFFFFFFFFFFFFFFFFFFFFFFFFFFFFFFFFFFFFFFF
310
FFFFFFFFFFFFFFFFFFFFFFFFFFFFFFFFFFFFFFFFFFFFFFFFFFFFFFFFFFFFFFFF
310
FFFFFFFFFFFFFFFFFFFFFFFFFFFFFFFFFFFFFFFFFFFFFFFFFFFFFFFFFFFFFFFF
310
52006F006F007400200045006E00740072007900000000000000000000000000
310
0000000000000000000000000000000000000000000000000000000000000000
310
16000500FFFFFFFFFFFFFFFF020000000A00030000000000C000000000000046
310
00000000000000000000000000D8C3FE96FFD10103000000C000000000000000
310
01004F006C006500000000000000000000000000000000000000000000000000
310
0000000000000000000000000000000000000000000000000000000000000000
310
0A000200FFFFFFFFFFFFFFFFFFFFFFFF00000000000000000000000000000000
310
0000000000000000000000000000000000000000000000001400000000000000
310
010043006F006D0070004F0062006A0000000000000000000000000000000000
310
0000000000000000000000000000000000000000000000000000000000000000
310
120002010100000003000000FFFFFFFF00000000000000000000000000000000
310
0000000000000000000000000000000000000000010000004D00000000000000
310
01004F006C006500310030004E00610074006900760065000000000000000000
310
0000000000000000000000000000000000000000000000000000000000000000
310
1A000200FFFFFFFFFFFFFFFFFFFFFFFF00000000000000000000000000000000
310
0000000000000000000000000000000000000000040000002426000000000000
310
FEFFFFFF02000000FEFFFFFFFFFFFFFFFFFFFFFFFFFFFFFFFFFFFFFFFFFFFFFF
310
FFFFFFFFFFFFFFFFFFFFFFFFFFFFFFFFFFFFFFFFFFFFFFFFFFFFFFFFFFFFFFFF
310
FFFFFFFFFFFFFFFFFFFFFFFFFFFFFFFFFFFFFFFFFFFFFFFFFFFFFFFFFFFFFFFF
310
FFFFFFFFFFFFFFFFFFFFFFFFFFFFFFFFFFFFFFFFFFFFFFFFFFFFFFFFFFFFFFFF
310
FFFFFFFFFFFFFFFFFFFFFFFFFFFFFFFFFFFFFFFFFFFFFFFFFFFFFFFFFFFFFFFF
310
FFFFFFFFFFFFFFFFFFFFFFFFFFFFFFFFFFFFFFFFFFFFFFFFFFFFFFFFFFFFFFFF
310
FFFFFFFFFFFFFFFFFFFFFFFFFFFFFFFFFFFFFFFFFFFFFFFFFFFFFFFFFFFFFFFF
310
FFFFFFFFFFFFFFFFFFFFFFFFFFFFFFFFFFFFFFFFFFFFFFFFFFFFFFFFFFFFFFFF
310
FFFFFFFFFFFFFFFFFFFFFFFFFFFFFFFFFFFFFFFFFFFFFFFFFFFFFFFFFFFFFFFF
310
FFFFFFFFFFFFFFFFFFFFFFFFFFFFFFFFFFFFFFFFFFFFFFFFFFFFFFFFFFFFFFFF
310
FFFFFFFFFFFFFFFFFFFFFFFFFFFFFFFFFFFFFFFFFFFFFFFFFFFFFFFFFFFFFFFF
310
FFFFFFFFFFFFFFFFFFFFFFFFFFFFFFFFFFFFFFFFFFFFFFFFFFFFFFFFFFFFFFFF
310
FFFFFFFFFFFFFFFFFFFFFFFFFFFFFFFFFFFFFFFFFFFFFFFFFFFFFFFFFFFFFFFF
310
FFFFFFFFFFFFFFFFFFFFFFFFFFFFFFFFFFFFFFFFFFFFFFFFFFFFFFFFFFFFFFFF
310
FFFFFFFFFFFFFFFFFFFFFFFFFFFFFFFFFFFFFFFFFFFFFFFFFFFFFFFFFFFFFFFF
310
FFFFFFFFFFFFFFFFFFFFFFFFFFFFFFFFFFFFFFFFFFFFFFFFFFFFFFFFFFFFFFFF
310
0100000200000000000000000000000000000000000000000000000000000000
310
0000000000000000000000000000000000000000000000000000000000000000
310
0100FEFF030A0000FFFFFFFF0A00030000000000C00000000000004607000000
310
5042727573680007000000504272757368000700000050427275736800F439B2
310
7100000000000000000000000000000000000000000000000000000000000000
310
0000000000000000000000000000000000000000000000000000000000000000
310
0000000000000000000000000000000000000000000000000000000000000000
310
0000000000000000000000000000000000000000000000000000000000000000
310
0000000000000000000000000000000000000000000000000000000000000000
310
0000000000000000000000000000000000000000000000000000000000000000
310
0000000000000000000000000000000000000000000000000000000000000000
310
0000000000000000000000000000000000000000000000000000000000000000
310
0000000000000000000000000000000000000000000000000000000000000000
310
0000000000000000000000000000000000000000000000000000000000000000
310
0000000000000000000000000000000000000000000000000000000000000000
310
0000000000000000000000000000000000000000000000000000000000000000
310
20260000424D0E260000000000003E00000028000000B40200006E0000000100
310
01000000000000000000130B0000130B00000200000002000000000000FFFFFF
310
FFFFFFFFFFFFFFFFFFFFFFFFFFFFFFFFFFFFFFFFFFFFFFFFFFFFFFFFFFFFFFFF
310
FFFFFFFFFFFFFFFFFFFFFFFFFFFFFFFFFFFFFFFFFFFFFFFFFFFFFFFFFFFFFFFF
310
FFFFFFFFFFFFFFFFFFFFFFFFFFFFFFFFFFFFFFFFFFFFFFFFF000FFFFFFFFFFFF
310
FFFFFFFFFFFFFFFFFFFFFFFFFFFFFFFFFFFFFFFFFFFFFFFFFFFFFFFFFFFFFFFF
310
FFFFFFFFFFFFFFFFFFFFFFFFFFFFFFFFFFFFFFFFFFFFFFFFFFFFFFFFFFFFFFFF
310
FFFFFFFFFFFFFFFFFFFFFFFFFFFFFFFFF000FFFFFFFFFFFFFFFFFFFFFFFFFFFF
310
FFFFFFFFFFFFFFFFFFFFFFFFFFFFFFFFFFFFFFFFFFFFFFFFFFFFFFFFFFFFFFFF
310
FFFFFFFFFFFFFFFFFFFFFFFFFFFFFFFFFFFFFFFFFFFFFFFFFFFFFFFFFFFFFFFF
310
FFFFFFFFFFFFFFFFF000FFFFFFFFFFFFFFFFFFFFFFFFFFFFFFFFFFFFFFFFFFFF
310
FFFFFFFFFFFFFFFFFFFFFFFFFFFFFFFFFFFFFFFFFFFFFFFFFFFFFFFFFFFFFFFF
310
FFFFFFFFFFFFFFFFFFFFFFFFFFFFFFFFFFFFFFFFFFFFFFFFFFFFFFFFFFFFFFFF
310
F000FFFFFFFFFFFFFFFFFFFFFFFFFFFFFFFFFFFFFFFFFFFFFFFFFFFFFFFFFFFF
310
FFFFFFFFFFFFFFFFFFFFFFFFFFFFFFFFFFFFFFFFFFFFFFFFFFFFFFFFFFFFFFFF
310
FFFFFFFFFFFFFFFFFFFFFFFFFFFFFFFFFFFFFFFFFFFFFFFFF000FFFFFFFFFFFF
310
FFFFFFFFFFFFFFFFFFFFFFFFFFFFFFFFFFFFFFFFFFFFFFFFFFFFFFFFFFFFFFFF
310
FFFFFFFFFFFFFFFFFFFFFFFFFFFFFFFFFFFFFFFFFFFFFFFFFFFFFFFFFFFFFFFF
310
FFFFFFFFFFFFFFFFFFFFFFFFFFFFFFFFF000FFFFFFFFFFFFFFFFFFFFFFFFFFFF
310
FFFFFFFFFFFFFFFFFFFFFFFFFFFFFFFFFFFFFFFFFFFFFFFFFFFFFFFFFFFFFFFF
310
FFFFFFFFFFFFFFFFFFFFFFFFFFFFFFFFFFFFFFFFFFFFFFFFFFFFFFFFFFFFFFFF
310
FFFFFFFFFFFFFFFFF000FFFFFFFFFFFFFFFFFFFFFFFFFFFFFFFFFFFFFFFFFFFF
310
FFFFFFFFFFFFFFFFFFFFFFFFFFFFFFFFFFFFFFFFFFFFFFFFFFFFFFFFFFFFFFFF
310
FFFFFFFFFFFFFFFFFFFFFFFFFFFFFFFFFFFFFFFFFFFFFFFFFFFFFFFFFFFFFFFF
310
F000FFFFFFFFFFFFFFFFFFFFFFFFFFFFFFFFFFFFFFFFFFFFFFFFFFFFFFFFFFFF
310
FFFFFFFFFFFFFFFFFFFFFFFFFFFFFFFFFFFFFFFFFFFFFFFFFFFFFFFFFFFFFFFF
310
FFFFFFFFFFFFFFFFFFFFFFFFFFFFFFFFFFFFFFFFFFFFFFFFF000FFFFFFFFFFFF
310
FFFFFFFFFFFFFFFFFFFFFFFFFFFFFFFFFFFFFFFFFFFFFFFFFFFFFFFFFFFFFFFF
310
FFFFFFFFFFFFFFFFFFFFFFFFFFFFFFFFFFFFFFFFFFFFFFFFFFFFFFFFFFFFFFFF
310
FFFFFFFFFFFFFFFFFFFFFFFFFFFFFFFFF000FFFFFFFFFFFFFFFFFFFFFFFFFFFF
310
FFFFFFFFFFFFFFFFFFFFFFFFFFFFFFFFFFFFFFFFFFFFFFFFFFFFFFFFFFFFFFFF
310
FFFFFFFFFFFFFFFFFFFFFFFFFFFFFFFFFFFFFFFFFFFFFFFFFFFFFFFFFFFFFFFF
310
FFFFFFFFFFFFFFFFF000FFFFFFFFFFFFFFFFFFFFFFFFFFFFFFFFFFFFFFFFFFFF
310
FFFFFFFFFFFFFFFFFFFFFFFFFFFFFFFFFFFFFFFFFFFFFFFFFFFFFFFFFFFFFFFF
310
FFFFFFFFFFFFFFFFFFFFFFFFFFFFFFFFFFFFFFFFFFFFFFFFFFFFFFFFFFFFFFFF
310
F000FFFFFFFFFFFFFFFFFFFFFFFFFFFFFFFFFFFFFFFFFFFFFFFFFFFFFFFFFFFF
310
FFFFFFFFFFFFFFFFFFFFFFFFFFFFFFFFFFFFFFFFFFFFFFFFFFFFFFFFFFFFFFFF
310
FFFFFFFFFFFFFFFFFFFFFFFFFFFFFFFFFFFFFFFFFFFFFFFFF000FFFFFFFFFFFF
310
FFFFFFFFFFFFFFFFFFFFFFFFFFFFFFFFFFFFFFFFFFFFFFFFFFFFFFFFFFFFFFFF
310
FFFFFFFFFFFFFFFFFFFFFFFFFFFFFFFFFFFFFFFFFFFFFFFFFFFFFFFFFFFFFFFF
310
FFFFFFFFFFFFFFFFFFFFFFFFFFFFFFFFF000FFFFFFFFFFFFFFFFFFFFFFFFFFFF
310
FFFFFFFFFFFFFFFFFFFFFFFFFFFFFFFFFFFFFFFFFFFFFFFFFFFFFFFFFFFFFFFF
310
FFFFFFFFFFFFFFFFFFFFFFFFFFFFFFFFFFFFFFFFFFFFFFFFFFFFFFFFFFFFFFFF
310
FFFFFFFFFFFFFFFFF000FFFFFFFFFFFFFFFFFFFFFFFFFFFFFFFFFFFFFFFFFFFF
310
FFFFFFFFFFFFFFFFFFFFFFFFFFFFFFFFFFFFFFFFFFFFFFFFFFFFFFFFFFFFFFFF
310
FFFFFFFFFFFFFFFFFFFFFFFFFFFFFFFFFFFFFFFFFFFFFFFFFFFFFFFFFFFFFFFF
310
F000FFFFFFFFFFFFFFFFFFFFFFFFFFFFFFFFFFFFFFFFFFFFFFFFFFFFFFFFFFFF
310
FFFFFFFFFFFFFFFFFFFFFFFFFFFFFFFFFFFFFFFFFFFFFFFFFFFFFFFFFFFFFFFF
310
FFFFFFFFFFFFFFFFFFFFFFFFFFFFFFFFFFFFFFFFFFFFFFFFF000FFFFFFFFFFFF
310
FFFFFFFFFFFFFFFFFFFFFFFFFFFFFFFFFFFFFFFFFFFFFFFFFFFFFFFFFFFFFFFF
310
FFFFFFFFFFFFFFFFFFFFFFFFFFFFFFFFFFFFFFFFFFFFFFFFFFFFFFFFFFFFFFFF
310
FFFFFFFFFFFFFFFFFFFFFFFFFFFFFFFFF000FFFFFFFFFFFFFFFFFFFFFFFFFFFF
310
FFFFFFFFFFFFFFFFFFFFFFFFFFFFFFFFFFFFFFFFFFFFFFFFFFFFFFFFFFFFFFFF
310
FFFFFFFFFFFFFFFFFFFFFFFFFFFFFFFFFFFFFFFFFFFFFFFFFFFFFFFFFFFFFFFF
310
FFFFFFFFFFFFFFFFF000FFFFF80003FFFFFFFFFFFFFFFFFFFFFFFFFFFFFFFFFF
310
FFFFF00007FFFFFFFFFF00007FFFFFF800000000000000007FFFFFFFFFFFFFFF
310
FFFFFFFC001FFFFFFFFFFFFFFC001FFFFFFFFFFFFFFFFFFFFFFFFFFE0007FFFF
310
F000FFFF8000007FFFFFFFF8000FFFFFC0007FFFFF80007FFFFF0000007FFFFF
310
FFF8000007FFFFF800000000000000007FFFFFF0001FFFFFFFFFFFC00001FFFF
310
FFFFFFFFC00001FFFFFFFF000000000003FFFFE000007FFFF000FFFE0000000F
310
FFFFFFF0000FFFFF80007FFFFF80007FFFFC0000001FFFFFFFC0000001FFFFF8
310
00000000000000007FFFFFF0001FFFFFFFFFFE0000003FFFFFFFFFFE0000003F
310
FFFFFF000000000003FFFF0000000FFFF000FFF800000003FFFFFFF00007FFFF
310
80007FFFFF80007FFFF000000007FFFFFF000000003FFFF80000000000000000
310
7FFFFFF0001FFFFFFFFFF80000000FFFFFFFFFF80000000FFFFFFF0000000000
310
03FFFC00000003FFF000FFE000000000FFFFFFF00007FFFF80003FFFFF80007F
310
FFC000000001FFFFFC000000001FFFF800000000000000007FFFFFF0001FFFFF
310
FFFFE000000003FFFFFFFFE000000003FFFFFF000000000003FFF000000000FF
310
F000FF80000000007FFFFFF00007FFFF80003FFFFF80007FFF8000000000FFFF
310
F80000000007FFF800000000000000007FFFFFF0001FFFFFFFFFC000000001FF
310
FFFFFFC000000001FFFFFF000000000003FFC0000000007FF000FF0000000000
310
3FFFFFE00007FFFF00003FFFFF80007FFE00000000003FFFF00000000003FFF8
310
00000000000000007FFFFFF0001FFFFFFFFF8000000000FFFFFFFF8000000000
310
FFFFFF000000000003FF80000000003FF000FE00000000001FFFFFE00003FFFF
310
00003FFFFF80007FFC00000000001FFFE00000000001FFF8000001FFFE000000
310
7FFFFFF0001FFFFFFFFE00000000003FFFFFFE00000000003FFFFF0000000000
310
03FF00000000001FF000FC00000000000FFFFFE00003FFFF00001FFFFF80007F
310
F800000000001FFFC00000000000FFF8000001FFFE0000007FFFFFF0001FFFFF
310
FFFC00000000001FFFFFFC00000000001FFFFF000000000003FE00000000000F
310
F000F8000000000007FFFFE00003FFFF00001FFFFF80007FF800000000000FFF
310
800000000000FFF8000001FFFE0000007FFFFFF0001FFFFFFFF800000000000F
310
FFFFF800000000000FFFFF000000000003FC000000000007F000F80000000000
310
03FFFFC00003FFFE00001FFFFF80007FF0000000000007FF0000000000007FF8
310
000001FFFE0000007FFFFFF0001FFFFFFFF0000000000007FFFFF00000000000
310
07FFFF000000000003F8000000000003F000F0000000000003FFFFC00001FFFE
310
00001FFFFF80007FE0000000000007FE0000000000003FF8000001FFFE000000
310
7FFFFFF0001FFFFFFFF0000000000007FFFFF0000000000007FFFF0000000000
310
03F800001F800003F000E00001FFF00001FFFFC00001FFFE00000FFFFF80007F
310
E00001FFE00003FE00001FFF00003FF8000001FFFE0000007FFFFFF0001FFFFF
310
FFE000003E000003FFFFE000003E000003FFFF000000000003F00001FFF80001
310
F000E00007FFFC0001FFFFC00001FFFE00000FFFFF80007FC0000FFFFC0003FC
310
0000FFFFC0001FF8000001FFFE0000007FFFFFF0001FFFFFFFC00003FFE00001
310
FFFFC00003FFE00001FFFF0001FFFFFFFFF00007FFFE0001F000E0000FFFFF00
310
00FFFF800001FFFC00000FFFFF80007FC0001FFFFE0001FC0001FFFFE0001FF8
310
000001FFFE0000007FFFFFF0001FFFFFFF80000FFFF80000FFFF80000FFFF800
310
00FFFF0003FFFFFFFFE0000FFFFF8000F000C0003FFFFF8000FFFF800000FFFC
310
000007FFFF80007F80003FFFFF0001FC0003FFFFF0001FF8000001FFFE000000
310
7FFFFFF0001FFFFFFF80003FFFFE0000FFFF80003FFFFE0000FFFF0003FFFFFF
310
FFE0003FFFFF8000F000C0003FFFFF8000FFFF800000FFFC000007FFFF80007F
310
80007FFFFF8001F80007FFFFF8000FF8000001FFFE0000007FFFFFF0001FFFFF
310
FF00007FFFFF00007FFF00007FFFFF00007FFF0003FFFFFFFFE0003FFFFFC000
310
F000C0007FFFFFC000FFFF000000FFFC000007FFFF80007F8000FFFFFF8000F8
310
000FFFFFF8000FF8000001FFFE0000007FFFFFF0001FFFFFFF0000FFFFFF8000
310
7FFF0000FFFFFF80007FFF0003FFFFFFFFC0007FFFFFC00070008000FFFFFFC0
310
00FFFF000000FFF8000007FFFF80007F8000FFFFFF8000F8000FFFFFF8000FF8
310
000001FFFE0000007FFFFFF0001FFFFFFE0001FFFFFFC0003FFE0001FFFFFFC0
310
003FFF0003FFFFFFFFC0007FFFFFE00070008000FFFFFFC0007FFF0000007FF8
310
000003FFFF80007F0001FFFFFF8000F8000FFFFFF8000FF8000001FFFE000000
310
7FFFFFF0001FFFFFFE0001FFFFFFC0003FFE0001FFFFFFC0003FFF0003FFFFFF
310
FFC000FFFFFFE00070008000FFFFFFC0007FFF0000007FF8000003FFFF80007F
310
0001FFFFFF8000F8001FFFFFF8000FF8000001FFFE0000007FFFFFF0001FFFFF
310
FE0003FFFFFFE0003FFE0003FFFFFFE0003FFF0003FFFFFFFFC000FFFFFFE000
310
70008000FFFFFFC0007FFE0000007FF8000003FFFF80007F0001FFFFFF8000F0
310
001FFFFFF8000FF8000001FFFE0000007FFFFFF0001FFFFFFC0003FFFFFFE000
310
1FFC0003FFFFFFE0001FFF0003FFFFFFFFC000FFFFFFC00070008000FFFFFF80
310
007FFE0000007FF0000003FFFF80007F0001FFFFFF0000F0001FFFFFF8000FF8
310
000001FFFE0000007FFFFFF0001FFFFFFC0007FFFFFFF0001FFC0007FFFFFFF0
310
001FFF0003FFFFFFFFC000FFFFFFC00070008001FFFFFF0000FFFE0000003FF0
310
000001FFFF80007F0001FFFFFF0000F8001FFFFFF0000FF8000001FFFE000000
310
7FFFFFF0001FFFFFFC0007FFFFFFF0001FFC0007FFFFFFF0001FFF0003FFFFFF
310
FFC001FFFFFF80007000FFFFFFFFFE0000FFFE0008003FF0008001FFFF80007F
310
FFFFFFFFFC0000FFFFFFFFFFE0000FF8000001FFFE0000007FFFFFF0001FFFFF
310
F8000FFFFFFFF8000FF8000FFFFFFFF8000FFF0003FFFFFFFFFFFFFFFFFF0000
310
7000FFFFFFFFFC0000FFFC0008003FF0008001FFFF80007FFFFFFFFFF80001FF
310
FFFFFFFF80000FF8000001FFFE0000007FFFFFF0001FFFFFF8000FFFFFFFF800
310
0FF8000FFFFFFFF8000FFF0003FFFFFFFFFFFFFFFFFE0000F000FFFFFFFFE000
310
00FFFC000C003FE000C001FFFF80007FFFFFFFFFC00001FFFFFFFFFE00001FF8
310
000001FFFE0000007FFFFFF0001FFFFFF8000FFFFFFFF8000FF8000FFFFFFFF8
310
000FFF0003FFFFFFFFFFFFFFFFF00000F000FFFFFFFE000001FFFC000C001FE0
310
00C000FFFF80007FFFFFFFFE000001FFFFFFFFE000001FF80FFFFFFFFFFFFFC0
310
7FFFFFF0001FFFFFF8000FFFFFFFF8000FF8000FFFFFFFF8000FFF0003FFFFFF
310
FFFFFFFFFF800000F000FFFFFFC0000001FFFC001C001FE001C000FFFF80007F
310
FFFFFF80000003FFFFFFF80000001FF80FFFFFFFFFFFFFC07FFFFFF0001FFFFF
310
F8001FFFFFFFFC000FF8001FFFFFFFFC000FFF0003FFFFFFFFFFFFFFF0000001
310
F000FFFFF800000001FFF8001C001FE001C000FFFF80007FFFFFF800000003FF
310
FFFF800000003FF80FFFFFFFFFFFFFC07FFFFFF0001FFFFFF8001FFFFFFFFC00
310
0FF8001FFFFFFFFC000FFF0003FFFFFFFFFFFFFE00000001F000FFFFC0000000
310
03FFF8001E001FC001E000FFFF80007FFFFF8000000007FFFFFC000000003FF8
310
0FFFFFFFFFFFFFC07FFFFFF0001FFFFFF8001FFFFFFFFC000FF8001FFFFFFFFC
310
000FFF0003FFFFFFFFFFFFE000000003F000FFFE0000000007FFF8001E000FC0
310
01E0007FFF80007FFFFE0000000007FFFFE0000000007FF80FFFFFFFFFFFFFC0
310
7FFFFFF0001FFFFFF0001FFFFFFFFC0007F0001FFFFFFFFC0007FF0003FFFFFF
310
FFFFFF0000000003F000FFF80000000007FFF8001E000FC003E0007FFF80007F
310
FFF0000000000FFFFF8000000000FFF80FFFFFFFFFFFFFC07FFFFFF0001FFFFF
310
F0001FFFFFFFFC0007F0001FFFFFFFFC0007FF0003FFFFFFFFFFFC0000000007
310
F000FFE0000000000FFFF0003E000FC003E0007FFF80007FFFC0000000001FFF
310
FE0000000001FFF80FFFFFFFFFFFFFC07FFFFFF0001FFFFFF0001FFFFFFFFC00
310
07F0001FFFFFFFFC0007FF0003FFFFFFFFFFF0000000000FF000FFC000000000
310
1FFFF0003F000F8003F0003FFF80007FFF80000000003FFFF80000000003FFF8
310
0FFFFFFFFFFFFFC07FFFFFF0001FFFFFF0001FFFFFFFFC0007F0001FFFFFFFFC
310
0007FF0003FFFFFFFFFFE0000000001FF000FF00000000007FFFF0003F000780
310
03F0003FFF80007FFF00000000007FFFF00000000007FFF80FFFFFFFFFFFFFC0
310
7FFFFFF0001FFFFFF0001FFFFFFFFC0007F0001FFFFFFFFC0007FF0003FFFFFF
310
FFFF80000000007FF000FE0000000000FFFFE0003F00078007F0003FFF80007F
310
FE0000000001FFFFE0000000001FFFF80FFFFFFFFFFFFFC07FFFFFF0001FFFFF
310
F0001FFFFFFFFC0007F0001FFFFFFFFC0007FF0003FFFFFFFFFF0000000000FF
310
F000FC0000000003FFFFE0007F00078007F0003FFF80007FFC0000000007FFFF
310
C0000000007FFFF80FFFFFFFFFFFFFC07FFFFFF0001FFFFFF8001FFFFFFFFC00
310
0FF8001FFFFFFFFC000FFF0003FFFFFFFFFE0000000003FFF000FC000000000F
310
FFFFE0007F80070007F8001FFF80007FF8000000001FFFFF8000000001FFFFF8
310
0FFFFFFFFFFFFFC07FFFFFF0001FFFFFF8001FFFFFFFFC000FF8001FFFFFFFFC
310
000FFF0003FFFFFFFFFC000000000FFFF000F8000000007FFFFFE0007F800700
310
07F8001FFF80007FF000000000FFFFFF800000000FFFFFF80FFFFFFFFFFFFFC0
310
7FFFFFF0001FFFFFF8000FFFFFFFF8000FF8000FFFFFFFF8000FFF0003FFFFFF
310
FFFC000000007FFFF000F800000007FFFFFFC0007F8003000FF8001FFF80007F
310
F000000007FFFFFF000000007FFFFFF80FFFFFFFFFFFFFC07FFFFFF0001FFFFF
310
F8000FFFFFFFF8000FF8000FFFFFFFF8000FFF0003FFFFFFFFF80000000FFFFF
310
F000F0000000FFFFFFFFC000FF8003000FF8001FFF80007FE0000000FFFFFFFF
310
0000000FFFFFFFF8000001FFFE0000007FFFFFF0001FFFFFF8000FFFFFFFF800
310
0FF8000FFFFFFFF8000FFF0003FFFFFFFFF8000000FFFFFFF000F000000FFFFF
310
FFFFC000FFC002000FF8000FFF80007FE000001FFFFFFFFE000001FFFFFFFFF8
310
000001FFFE0000007FFFFFF0001FFFFFF8000FFFFFFFF8000FF8000FFFFFFFF8
310
000FFF0003FFFFFFFFF000001FFFFFFFF000E00000FFFFFFFFFFC000FFC00200
310
0FFC000FFF80007FE00001FFFFFFFFFE00001FFFFFFFFFF8000001FFFE000000
310
7FFFFFF0001FFFFFFC000FFFFFFFF8001FFC000FFFFFFFF8001FFF0003FFFFFF
310
FFF00001FFFFFFFFF000E00007FFFFFFFFFF8000FFC000001FFC000FFF80007F
310
C0000FFFFFFFFFFE0000FFFFFFFFFFF8000001FFFE0000007FFFFFF0001FFFFF
310
FC0007FFFFFFF0001FFC0007FFFFFFF0001FFF0003FFFFFFFFF00007FFFFFFFF
310
F000E0001FFFFFFFFFFF8000FFC000001FFC000FFF80007FC0003FFFFFFFFFFE
310
0001FFFFFFFFFFF8000001FFFE0000007FFFFFF0001FFFFFFC0007FFFFFFF000
310
1FFC0007FFFFFFF0001FFF0003FFFFFFFFF0001FFFFFFFFFF000E0003FFFFF00
310
03FF8001FFE000001FFC0007FF80007FC0007FFFFF0007FC0003FFFFF0003FF8
310
000001FFFE0000007FFFFFF0001FFFFFFC0003FFFFFFE0001FFC0003FFFFFFE0
310
001FFF0003FFFFFFFFF0003FFFFFFFFFF000E0003FFFFF0001FF8001FFE00000
310
1FFE0007FF80007FC0007FFFFE0003FC0007FFFFE0003FF8000001FFFE000000
310
7FFFFFF0001FFFFFFE0003FFFFFFE0003FFE0003FFFFFFE0003FFF0003FFFFFF
310
FFF0003FFFFF8001F000E0003FFFFF0001FF0001FFE000001FFE0007FF80007F
310
C0007FFFFE0003FC0007FFFFE0003FF8000001FFFE0000007FFFFFF0001FFFFF
310
FE0001FFFFFFC0003FFE0001FFFFFFC0003FFF0003FFFFFFFFF0003FFFFF0001
310
F000E0003FFFFF0003FF0001FFE000003FFE0007FF80007FC0007FFFFE0003FC
310
0007FFFFE0003FF8000001FFFE0000007FFFFFF0001FFFFFFF0001FFFFFFC000
310
7FFF0001FFFFFFC0007FFF0003FFFFFFFFF0003FFFFF0001F000E0003FFFFE00
310
03FF0003FFF000003FFE0003FF80007FC0007FFFFC0003FE0007FFFFE0003FF8
310
000001FFFE0000007FFFFFF0001FFFFFFF0000FFFFFF80007FFF0000FFFFFF80
310
007FFF0003FFFFFFFFF0003FFFFF0001F000E0003FFFFE0003FF0003FFF00000
310
3FFF0003FF80007FC0007FFFFC0007FE0007FFFFC0003FF8000001FFFE000000
310
7FFFFFF0001FFFFFFF80007FFFFF0000FFFF80007FFFFF0000FFFF0003FFFFFF
310
FFF0003FFFFF0003F000E0003FFFFC0003FE0003FFF000003FFF0003FF80007F
310
E0003FFFF80007FE0003FFFFC0007FF8000001FFFE0000007FFFFFF0001FFFFF
310
FF80003FFFFE0000FFFF80003FFFFE0000FFFF0003FFFFFFFFF0001FFFFE0003
310
F000F0001FFFF80003FE0003FFF000007FFF0001FF80007FE0003FFFF00007FE
310
0001FFFF80007FF8000001FFFE0000007FFFFFF0001FFFFFFFC0000FFFF80001
310
FFFFC0000FFFF80001FFFF0003FFFFFFFFF0001FFFFC0003F000F0000FFFF000
310
07FE0007FFF800007FFF0001FF80007FE0001FFFE00007FF0000FFFE00007FF8
310
000001FFFE0000007FFFFFF0001FFFFFFFC00003FFE00001FFFFC00003FFE000
310
01FFFF0003FFFFFFFFF8000FFFF80003F000F00003FFC00007FC0007FFF80000
310
7FFF8001FF80007FF00007FF80000FFF00007FF80000FFF8000001FFFE000000
310
7F80000000000001FFE000003E000003FFFFE000003E000003FFFF0003FFFFFF
310
FFF80003FFE00007F000F800000000000FFC0007FFF800007FFF8001FF80007F
310
F000000000000FFF000000000000FFF8000001FFFE0000007F80000000000001
310
FFF0000000000007FFFFF0000000000007FFFF0003FFFFFFFFFC00007E000007
310
F000F800000000000FFC0007FFF80000FFFF8000FF80007FF800000000001FFF
310
800000000001FFF8000001FFFE0000007F80000000000001FFF800000000000F
310
FFFFF800000000000FFFFF0003FFFFFFFFFC00000000000FF000FC0000000000
310
1FFC0007FFFC0000FFFF8000FF80007FF800000000003FFFC00000000001FFF8
310
000001FFFE0000007F80000000000001FFF800000000000FFFFFF80000000000
310
0FFFFF0003FFFFFFFFFE00000000001FF000FE00000000003FF8000FFFFC0000
310
FFFF8000FF80007FFC00000000003FFFC00000000003FFF8000001FFFE000000
310
7F80000000000001FFFC00000000001FFFFFFC00000000001FFFFF0003FFFFFF
310
FFFF00000000001FF000FF00000000003FF8000FFFFC0000FFFFC000FF80007F
310
FE00000000007FFFE00000000007FFF8000001FFFE0000007F80000000000001
310
FFFE00000000003FFFFFFE00000000003FFFFF0003FFFFFFFFFF80000000003F
310
F000FF80000000007FF8000FFFFC0001FFFFC0007F80007FFF0000000000FFFF
310
F0000000000FFFF800000000000000007F80000000000001FFFF8000000000FF
310
FFFFFF8000000000FFFFFF0003FFFFFFFFFFC0000000007FF000FFC000000000
310
FFF8000FFFFE0001FFFFC0007F80007FFF8000000001FFFFF8000000001FFFF8
310
00000000000000007F80000000000001FFFFC000000001FFFFFFFFC000000001
310
FFFFFF0003FFFFFFFFFFE000000000FFF000FFE000000003FFF0001FFFFE0001
310
FFFFC0007F80007FFFC000000007FFFFFE000000003FFFF80000000000000000
310
7F80000000000001FFFFE000000003FFFFFFFFE000000003FFFFFF0003FFFFFF
310
FFFFF000000003FFF000FFF80000000FFFF0001FFFFE0001FFFFE0007F80007F
310
FFF00000000FFFFFFF00000000FFFFF800000000000000007F80000000000001
310
FFFFF80000000FFFFFFFFFF80000000FFFFFFF0003FFFFFFFFFFFC0000000FFF
310
F000FFFE0000003FFFF0001FFFFE0003FFFFE0003F80007FFFFC0000003FFFFF
310
FFC0000003FFFFF800000000000000007F80000000000001FFFFFE0000003FFF
310
FFFFFFFE0000003FFFFFFF0003FFFFFFFFFFFF0000003FFFF000FFFF800000FF
310
FFF0001FFFFF0003FFFFE0003F80007FFFFF000001FFFFFFFFF800001FFFFFF8
310
00000000000000007F80000000000001FFFFFFC00001FFFFFFFFFFFFC00001FF
310
FFFFFF0003FFFFFFFFFFFFC00000FFFFF000FFFFF8000FFFFFFFFFFFFFFFFFFF
310
FFFFFFFFFFFFFFFFFFFFF0001FFFFFFFFFFF0000FFFFFFF80000000000000000
310
7FFFFFFFFFFFFFFFFFFFFFFC001FFFFFFFFFFFFFFC001FFFFFFFFFFFFFFFFFFF
310
FFFFFFFC001FFFFFF000FFFFFFFFFFFFFFFFFFFFFFFFFFFFFFFFFFFFFFFFFFFF
310
FFFFFFFFFFFFFFFFFFFFFFFFFFFFFFFFFFFFFFFFFFFFFFFFFFFFFFFFFFFFFFFF
310
FFFFFFFFFFFFFFFFFFFFFFFFFFFFFFFFFFFFFFFFFFFFFFFFFFFFFFFFFFFFFFFF
310
F000FFFFFFFFFFFFFFFFFFFFFFFFFFFFFFFFFFFFFFFFFFFFFFFFFFFFFFFFFFFF
310
FFFFFFFFFFFFFFFFFFFFFFFFFFFFFFFFFFFFFFFFFFFFFFFFFFFFFFFFFFFFFFFF
310
FFFFFFFFFFFFFFFFFFFFFFFFFFFFFFFFFFFFFFFFFFFFFFFFF000FFFFFFFFFFFF
310
FFFFFFFFFFFFFFFFFFFFFFFFFFFFFFFFFFFFFFFFFFFFFFFFFFFFFFFFFFFFFFFF
310
FFFFFFFFFFFFFFFFFFFFFFFFFFFFFFFFFFFFFFFFFFFFFFFFFFFFFFFFFFFFFFFF
310
FFFFFFFFFFFFFFFFFFFFFFFFFFFFFFFFF000FFFFFFFFFFFFFFFFFFFFFFFFFFFF
310
FFFFFFFFFFFFFFFFFFFFFFFFFFFFFFFFFFFFFFFFFFFFFFFFFFFFFFFFFFFFFFFF
310
FFFFFFFFFFFFFFFFFFFFFFFFFFFFFFFFFFFFFFFFFFFFFFFFFFFFFFFFFFFFFFFF
310
FFFFFFFFFFFFFFFFF000FFFFFFFFFFFFFFFFFFFFFFFFFFFFFFFFFFFFFFFFFFFF
310
FFFFFFFFFFFFFFFFFFFFFFFFFFFFFFFFFFFFFFFFFFFFFFFFFFFFFFFFFFFFFFFF
310
FFFFFFFFFFFFFFFFFFFFFFFFFFFFFFFFFFFFFFFFFFFFFFFFFFFFFFFFFFFFFFFF
310
F000FFFFFFFFFFFFFFFFFFFFFFFFFFFFFFFFFFFFFFFFFFFFFFFFFFFFFFFFFFFF
310
FFFFFFFFFFFFFFFFFFFFFFFFFFFFFFFFFFFFFFFFFFFFFFFFFFFFFFFFFFFFFFFF
310
FFFFFFFFFFFFFFFFFFFFFFFFFFFFFFFFFFFFFFFFFFFFFFFFF000FFFFFFFFFFFF
310
FFFFFFFFFFFFFFFFFFFFFFFFFFFFFFFFFFFFFFFFFFFFFFFFFFFFFFFFFFFFFFFF
310
FFFFFFFFFFFFFFFFFFFFFFFFFFFFFFFFFFFFFFFFFFFFFFFFFFFFFFFFFFFFFFFF
310
FFFFFFFFFFFFFFFFFFFFFFFFFFFFFFFFF000FFFFFFFFFFFFFFFFFFFFFFFFFFFF
310
FFFFFFFFFFFFFFFFFFFFFFFFFFFFFFFFFFFFFFFFFFFFFFFFFFFFFFFFFFFFFFFF
310
FFFFFFFFFFFFFFFFFFFFFFFFFFFFFFFFFFFFFFFFFFFFFFFFFFFFFFFFFFFFFFFF
310
FFFFFFFFFFFFFFFFF000FFFFFFFFFFFFFFFFFFFFFFFFFFFFFFFFFFFFFFFFFFFF
310
FFFFFFFFFFFFFFFFFFFFFFFFFFFFFFFFFFFFFFFFFFFFFFFFFFFFFFFFFFFFFFFF
310
FFFFFFFFFFFFFFFFFFFFFFFFFFFFFFFFFFFFFFFFFFFFFFFFFFFFFFFFFFFFFFFF
310
F000FFFFFFFFFFFFFFFFFFFFFFFFFFFFFFFFFFFFFFFFFFFFFFFFFFFFFFFFFFFF
310
FFFFFFFFFFFFFFFFFFFFFFFFFFFFFFFFFFFFFFFFFFFFFFFFFFFFFFFFFFFFFFFF
310
FFFFFFFFFFFFFFFFFFFFFFFFFFFFFFFFFFFFFFFFFFFFFFFFF000FFFFFFFFFFFF
310
FFFFFFFFFFFFFFFFFFFFFFFFFFFFFFFFFFFFFFFFFFFFFFFFFFFFFFFFFFFFFFFF
310
FFFFFFFFFFFFFFFFFFFFFFFFFFFFFFFFFFFFFFFFFFFFFFFFFFFFFFFFFFFFFFFF
310
FFFFFFFFFFFFFFFFFFFFFFFFFFFFFFFFF000FFFFFFFFFFFFFFFFFFFFFFFFFFFF
310
FFFFFFFFFFFFFFFFFFFFFFFFFFFFFFFFFFFFFFFFFFFFFFFFFFFFFFFFFFFFFFFF
310
FFFFFFFFFFFFFFFFFFFFFFFFFFFFFFFFFFFFFFFFFFFFFFFFFFFFFFFFFFFFFFFF
310
FFFFFFFFFFFFFFFFF000FFFFFFFFFFFFFFFFFFFFFFFFFFFFFFFFFFFFFFFFFFFF
310
FFFFFFFFFFFFFFFFFFFFFFFFFFFFFFFFFFFFFFFFFFFFFFFFFFFFFFFFFFFFFFFF
310
FFFFFFFFFFFFFFFFFFFFFFFFFFFFFFFFFFFFFFFFFFFFFFFFFFFFFFFFFFFFFFFF
310
F000FFFFFFFFFFFFFFFFFFFFFFFFFFFFFFFFFFFFFFFFFFFFFFFFFFFFFFFFFFFF
310
FFFFFFFFFFFFFFFFFFFFFFFFFFFFFFFFFFFFFFFFFFFFFFFFFFFFFFFFFFFFFFFF
310
FFFFFFFFFFFFFFFFFFFFFFFFFFFFFFFFFFFFFFFFFFFFFFFFF000FFFFFFFFFFFF
310
FFFFFFFFFFFFFFFFFFFFFFFFFFFFFFFFFFFFFFFFFFFFFFFFFFFFFFFFFFFFFFFF
310
FFFFFFFFFFFFFFFFFFFFFFFFFFFFFFFFFFFFFFFFFFFFFFFFFFFFFFFFFFFFFFFF
310
FFFFFFFFFFFFFFFFFFFFFFFFFFFFFFFFF000FFFFFFFFFFFFFFFFFFFFFFFFFFFF
310
FFFFFFFFFFFFFFFFFFFFFFFFFFFFFFFFFFFFFFFFFFFFFFFFFFFFFFFFFFFFFFFF
310
FFFFFFFFFFFFFFFFFFFFFFFFFFFFFFFFFFFFFFFFFFFFFFFFFFFFFFFFFFFFFFFF
310
FFFFFFFFFFFFFFFFF000FFFFFFFFFFFFFFFFFFFFFFFFFFFFFFFFFFFFFFFFFFFF
310
FFFFFFFFFFFFFFFFFFFFFFFFFFFFFFFFFFFFFFFFFFFFFFFFFFFFFFFFFFFFFFFF
310
FFFFFFFFFFFFFFFFFFFFFFFFFFFFFFFFFFFFFFFFFFFFFFFFFFFFFFFFFFFFFFFF
310
F000FFFFFFFFFFFFFFFFFFFFFFFFFFFFFFFFFFFFFFFFFFFFFFFFFFFFFFFFFFFF
310
FFFFFFFFFFFFFFFFFFFFFFFFFFFFFFFFFFFFFFFFFFFFFFFFFFFFFFFFFFFFFFFF
310
FFFFFFFFFFFFFFFFFFFFFFFFFFFFFFFFFFFFFFFFFFFFFFFFF000FFFFFFFFFFFF
310
FFFFFFFFFFFFFFFFFFFFFFFFFFFFFFFFFFFFFFFFFFFFFFFFFFFFFFFFFFFFFFFF
310
FFFFFFFFFFFFFFFFFFFFFFFFFFFFFFFFFFFFFFFFFFFFFFFFFFFFFFFFFFFFFFFF
310
FFFFFFFFFFFFFFFFFFFFFFFFFFFFFFFFF000FFFFFFFFFFFFFFFFFFFFFFFFFFFF
310
FFFFFFFFFFFFFFFFFFFFFFFFFFFFFFFFFFFFFFFFFFFFFFFFFFFFFFFFFFFFFFFF
310
FFFFFFFFFFFFFFFFFFFFFFFFFFFFFFFFFFFFFFFFFFFFFFFFFFFFFFFFFFFFFFFF
310
FFFFFFFFFFFFFFFFF000FFFFFFFFFFFFFFFFFFFFFFFFFFFFFFFFFFFFFFFFFFFF
310
FFFFFFFFFFFFFFFFFFFFFFFFFFFFFFFFFFFFFFFFFFFFFFFFFFFFFFFFFFFFFFFF
310
FFFFFFFFFFFFFFFFFFFFFFFFFFFFFFFFFFFFFFFFFFFFFFFFFFFFFFFFFFFFFFFF
310
F000FFFFFFFFFFFFFFFFFFFFFFFFFFFFFFFFFFFFFFFFFFFFFFFFFFFFFFFFFFFF
310
FFFFFFFFFFFFFFFFFFFFFFFFFFFFFFFFFFFFFFFFFFFFFFFFFFFFFFFFFFFFFFFF
310
FFFFFFFFFFFFFFFFFFFFFFFFFFFFFFFFFFFFFFFFFFFFFFFFF000FFFFFFFFFFFF
310
FFFFFFFFFFFFFFFFFFFFFFFFFFFFFFFFFFFFFFFFFFFFFFFFFFFFFFFFFFFFFFFF
310
FFFFFFFFFFFFFFFFFFFFFFFFFFFFFFFFFFFFFFFFFFFFFFFFFFFFFFFFFFFFFFFF
310
FFFFFFFFFFFFFFFFFFFFFFFFFFFFFFFFF0000000000000000000000000000000
310
0000000000000000000000000000000000000000000000000000000000000000
310
0000000000000000000000000000000000000000000000000000000000000000
310
0000000000000000000000000000000000000000000000000000000000000000
310
0000000000000000000000000000000000000000000000000000000000000000
310
0000000000000000000000000000000000000000000000000000000000000000
310
0000000000000000000000000000000000000000000000000000000000000000
310
0000000000000000000000000000000000000000000000000000000000000000
310
0000000000000000000000000000000000000000000000000000000000000000
310
0000000000000000000000000000000000000000000000000000000000000000
310
0000000000000000000000000000000000000000000000000000000000000000
310
0000000000000000000000000000000000000000000000000000000000000000
310
0000000000000000000000000000000000000000000000000000000000000000
310
0000000000000000000000000000000000000000000000000000000000000000
310
0000000000000000000000000000000000000000000000000000000000000000
310
0000000000000000000000000000000000000000000000000000000000000000
  1
OLE
  0
ENDSEC
  0
SECTION
  2
OBJECTS
  0
DICTIONARY
  5
C
330
0
100
AcDbDictionary
281
     1
  3
ACAD_GROUP
350
D
  3
ACAD_LAYOUT
350
1A
  3
ACAD_MLINESTYLE
350
17
  3
ACAD_PLOTSETTINGS
350
19
  3
ACAD_PLOTSTYLENAME
350
E
  3
ACAD_SCALELIST
350
47
  0
DICTIONARY
  5
D
102
{ACAD_REACTORS
330
C
102
}
330
C
100
AcDbDictionary
281
     1
  0
DICTIONARY
  5
1A
102
{ACAD_REACTORS
330
C
102
}
330
C
100
AcDbDictionary
281
     1
  3
Layout1
350
1E
  3
Layout2
350
26
  3
Model
350
22
  0
DICTIONARY
  5
17
102
{ACAD_REACTORS
330
C
102
}
330
C
100
AcDbDictionary
281
     1
  3
Standard
350
18
  0
DICTIONARY
  5
19
102
{ACAD_REACTORS
330
C
102
}
330
C
100
AcDbDictionary
281
     1
  0
ACDBDICTIONARYWDFLT
  5
E
102
{ACAD_REACTORS
330
C
102
}
330
C
100
AcDbDictionary
281
     1
  3
Normal
350
F
100
AcDbDictionaryWithDefault
340
F
  0
DICTIONARY
  5
47
102
{ACAD_REACTORS
330
C
102
}
330
C
100
AcDbDictionary
281
     1
  3
A0
350
48
  3
A1
350
49
  3
A2
350
4A
  3
A3
350
4B
  3
A4
350
4C
  3
A5
350
4D
  3
A6
350
4E
  3
A7
350
4F
  3
A8
350
50
  3
A9
350
51
  3
B0
350
52
  3
B1
350
53
  3
B2
350
54
  3
B3
350
55
  3
B4
350
56
  3
B5
350
57
  3
B6
350
58
  3
B7
350
59
  3
B8
350
5A
  3
B9
350
5B
  3
C0
350
5C
  3
C1
350
5D
  3
C2
350
5E
  3
C3
350
5F
  3
C4
350
60
  3
C5
350
61
  3
C6
350
62
  3
C7
350
63
  3
C8
350
64
  3
C9
350
65
  3
D0
350
66
  3
D1
350
67
  3
D2
350
68
  0
LAYOUT
  5
1E
102
{ACAD_REACTORS
330
1A
102
}
330
1A
100
AcDbPlotSettings
  1

  2
none_device
  4

  6

 40
0.0
 41
0.0
 42
0.0
 43
0.0
 44
0.0
 45
0.0
 46
0.0
 47
0.0
 48
0.0
 49
0.0
140
0.0
141
0.0
142
1.0
143
1.0
 70
   688
 72
     1
 73
     0
 74
     5
  7

 75
    16
147
1.0
148
0.0
149
0.0
100
AcDbLayout
  1
Layout1
 70
     1
 71
     1
 10
0.0
 20
0.0
 11
420.0
 21
297.0
 12
0.0
 22
0.0
 32
0.0
 14
1.0000000000E+20
 24
1.0000000000E+20
 34
1.0000000000E+20
 15
-1.0000000000E+20
 25
-1.0000000000E+20
 35
-1.0000000000E+20
146
0.0
 13
0.0
 23
0.0
 33
0.0
 16
1.0
 26
0.0
 36
0.0
 17
0.0
 27
1.0
 37
0.0
 76
     0
330
1B
  0
LAYOUT
  5
26
102
{ACAD_REACTORS
330
1A
102
}
330
1A
100
AcDbPlotSettings
  1

  2
none_device
  4

  6

 40
0.0
 41
0.0
 42
0.0
 43
0.0
 44
0.0
 45
0.0
 46
0.0
 47
0.0
 48
0.0
 49
0.0
140
0.0
141
0.0
142
1.0
143
1.0
 70
   688
 72
     1
 73
     0
 74
     5
  7

 75
    16
147
1.0
148
0.0
149
0.0
100
AcDbLayout
  1
Layout2
 70
     1
 71
     2
 10
0.0
 20
0.0
 11
0.0
 21
0.0
 12
0.0
 22
0.0
 32
0.0
 14
0.0
 24
0.0
 34
0.0
 15
0.0
 25
0.0
 35
0.0
146
0.0
 13
0.0
 23
0.0
 33
0.0
 16
1.0
 26
0.0
 36
0.0
 17
0.0
 27
1.0
 37
0.0
 76
     0
330
23
  0
LAYOUT
  5
22
102
{ACAD_REACTORS
330
1A
102
}
330
1A
100
AcDbPlotSettings
  1

  2
none_device
  4
Letter_(8.50_x_11.00_Inches)
  6

 40
6.35
 41
6.35
 42
6.35000508
 43
6.35000508
 44
215.9
 45
279.4
 46
0.0
 47
0.0
 48
0.0
 49
0.0
140
0.0
141
0.0
142
1.0
143
1.0
 70
  1712
 72
     1
 73
     0
 74
     0
  7

 75
     0
147
1.0
148
0.0
149
0.0
100
AcDbLayout
  1
Model
 70
     1
 71
     0
 10
0.0
 20
0.0
 11
297.0
 21
210.0
 12
0.0
 22
0.0
 32
0.0
 14
0.0
 24
0.0
 34
0.0
 15
297.0
 25
210.0
 35
0.0
146
0.0
 13
0.0
 23
0.0
 33
0.0
 16
1.0
 26
0.0
 36
0.0
 17
0.0
 27
1.0
 37
0.0
 76
     0
330
1F
331
29
  0
MLINESTYLE
  5
18
102
{ACAD_REACTORS
330
17
102
}
330
17
100
AcDbMlineStyle
  2
Standard
 70
     0
  3

 62
   256
 51
90.0
 52
90.0
 71
     2
 49
0.5
 62
   256
  6
BYLAYER
 49
-0.5
 62
   256
  6
BYLAYER
  0
ACDBPLACEHOLDER
  5
F
102
{ACAD_REACTORS
330
E
102
}
330
E
  0
SCALE
  5
48
102
{ACAD_REACTORS
330
47
102
}
330
47
100
AcDbScale
 70
     0
300
1:1
140
1.0
141
1.0
290
     1
  0
SCALE
  5
49
102
{ACAD_REACTORS
330
47
102
}
330
47
100
AcDbScale
 70
     0
300
1:2
140
1.0
141
2.0
290
     0
  0
SCALE
  5
4A
102
{ACAD_REACTORS
330
47
102
}
330
47
100
AcDbScale
 70
     0
300
1:4
140
1.0
141
4.0
290
     0
  0
SCALE
  5
4B
102
{ACAD_REACTORS
330
47
102
}
330
47
100
AcDbScale
 70
     0
300
1:5
140
1.0
141
5.0
290
     0
  0
SCALE
  5
4C
102
{ACAD_REACTORS
330
47
102
}
330
47
100
AcDbScale
 70
     0
300
1:8
140
1.0
141
8.0
290
     0
  0
SCALE
  5
4D
102
{ACAD_REACTORS
330
47
102
}
330
47
100
AcDbScale
 70
     0
300
1:10
140
1.0
141
10.0
290
     0
  0
SCALE
  5
4E
102
{ACAD_REACTORS
330
47
102
}
330
47
100
AcDbScale
 70
     0
300
1:16
140
1.0
141
16.0
290
     0
  0
SCALE
  5
4F
102
{ACAD_REACTORS
330
47
102
}
330
47
100
AcDbScale
 70
     0
300
1:20
140
1.0
141
20.0
290
     0
  0
SCALE
  5
50
102
{ACAD_REACTORS
330
47
102
}
330
47
100
AcDbScale
 70
     0
300
1:30
140
1.0
141
30.0
290
     0
  0
SCALE
  5
51
102
{ACAD_REACTORS
330
47
102
}
330
47
100
AcDbScale
 70
     0
300
1:40
140
1.0
141
40.0
290
     0
  0
SCALE
  5
52
102
{ACAD_REACTORS
330
47
102
}
330
47
100
AcDbScale
 70
     0
300
1:50
140
1.0
141
50.0
290
     0
  0
SCALE
  5
53
102
{ACAD_REACTORS
330
47
102
}
330
47
100
AcDbScale
 70
     0
300
1:100
140
1.0
141
100.0
290
     0
  0
SCALE
  5
54
102
{ACAD_REACTORS
330
47
102
}
330
47
100
AcDbScale
 70
     0
300
2:1
140
2.0
141
1.0
290
     0
  0
SCALE
  5
55
102
{ACAD_REACTORS
330
47
102
}
330
47
100
AcDbScale
 70
     0
300
4:1
140
4.0
141
1.0
290
     0
  0
SCALE
  5
56
102
{ACAD_REACTORS
330
47
102
}
330
47
100
AcDbScale
 70
     0
300
8:1
140
8.0
141
1.0
290
     0
  0
SCALE
  5
57
102
{ACAD_REACTORS
330
47
102
}
330
47
100
AcDbScale
 70
     0
300
10:1
140
10.0
141
1.0
290
     0
  0
SCALE
  5
58
102
{ACAD_REACTORS
330
47
102
}
330
47
100
AcDbScale
 70
     0
300
100:1
140
100.0
141
1.0
290
     0
  0
SCALE
  5
59
102
{ACAD_REACTORS
330
47
102
}
330
47
100
AcDbScale
 70
     0
300
1/128" = 1'-0"
140
0.0078125
141
12.0
290
     0
  0
SCALE
  5
5A
102
{ACAD_REACTORS
330
47
102
}
330
47
100
AcDbScale
 70
     0
300
1/64" = 1'-0"
140
0.015625
141
12.0
290
     0
  0
SCALE
  5
5B
102
{ACAD_REACTORS
330
47
102
}
330
47
100
AcDbScale
 70
     0
300
1/32" = 1'-0"
140
0.03125
141
12.0
290
     0
  0
SCALE
  5
5C
102
{ACAD_REACTORS
330
47
102
}
330
47
100
AcDbScale
 70
     0
300
1/16" = 1'-0"
140
0.0625
141
12.0
290
     0
  0
SCALE
  5
5D
102
{ACAD_REACTORS
330
47
102
}
330
47
100
AcDbScale
 70
     0
300
3/32" = 1'-0"
140
0.09375
141
12.0
290
     0
  0
SCALE
  5
5E
102
{ACAD_REACTORS
330
47
102
}
330
47
100
AcDbScale
 70
     0
300
1/8" = 1'-0"
140
0.125
141
12.0
290
     0
  0
SCALE
  5
5F
102
{ACAD_REACTORS
330
47
102
}
330
47
100
AcDbScale
 70
     0
300
3/16" = 1'-0"
140
0.1875
141
12.0
290
     0
  0
SCALE
  5
60
102
{ACAD_REACTORS
330
47
102
}
330
47
100
AcDbScale
 70
     0
300
1/4" = 1'-0"
140
0.25
141
12.0
290
     0
  0
SCALE
  5
61
102
{ACAD_REACTORS
330
47
102
}
330
47
100
AcDbScale
 70
     0
300
3/8" = 1'-0"
140
0.375
141
12.0
290
     0
  0
SCALE
  5
62
102
{ACAD_REACTORS
330
47
102
}
330
47
100
AcDbScale
 70
     0
300
1/2" = 1'-0"
140
0.5
141
12.0
290
     0
  0
SCALE
  5
63
102
{ACAD_REACTORS
330
47
102
}
330
47
100
AcDbScale
 70
     0
300
3/4" = 1'-0"
140
0.75
141
12.0
290
     0
  0
SCALE
  5
64
102
{ACAD_REACTORS
330
47
102
}
330
47
100
AcDbScale
 70
     0
300
1" = 1'-0"
140
1.0
141
12.0
290
     0
  0
SCALE
  5
65
102
{ACAD_REACTORS
330
47
102
}
330
47
100
AcDbScale
 70
     0
300
1-1/2" = 1'-0"
140
1.5
141
12.0
290
     0
  0
SCALE
  5
66
102
{ACAD_REACTORS
330
47
102
}
330
47
100
AcDbScale
 70
     0
300
3" = 1'-0"
140
3.0
141
12.0
290
     0
  0
SCALE
  5
67
102
{ACAD_REACTORS
330
47
102
}
330
47
100
AcDbScale
 70
     0
300
6" = 1'-0"
140
6.0
141
12.0
290
     0
  0
SCALE
  5
68
102
{ACAD_REACTORS
330
47
102
}
330
47
100
AcDbScale
 70
     0
300
1'-0" = 1'-0"
140
12.0
141
12.0
290
     0
  0
ENDSEC
  0
EOF
