  0
SECTION
  2
HEADER
  9
$ACADVER
  1
AC1015
  9
$ACADMAINTVER
 70
     6
  9
$DWGCODEPAGE
  3
ANSI_1252
  9
$INSBASE
 10
0.0
 20
0.0
 30
0.0
  9
$EXTMIN
 10
0.0
 20
0.0
 30
0.0
  9
$EXTMAX
 10
297.0
 20
210.0
 30
0.0
  9
$LIMMIN
 10
0.0
 20
0.0
  9
$LIMMAX
 10
297.0
 20
210.0
  9
$ORTHOMODE
 70
     0
  9
$REGENMODE
 70
     1
  9
$FILLMODE
 70
     1
  9
$QTEXTMODE
 70
     0
  9
$MIRRTEXT
 70
     1
  9
$LTSCALE
 40
1.0
  9
$ATTMODE
 70
     1
  9
$TEXTSIZE
 40
2.0
  9
$TRACEWID
 40
1.0
  9
$TEXTSTYLE
  7
Standard
  9
$CLAYER
  8
0
  9
$CELTYPE
  6
ByLayer
  9
$CECOLOR
 62
   256
  9
$CELTSCALE
 40
1.0
  9
$DISPSILH
 70
     0
  9
$DIMSCALE
 40
1.0
  9
$DIMASZ
 40
3.0
  9
$DIMEXO
 40
0.0
  9
$DIMDLI
 40
3.75
  9
$DIMRND
 40
0.0
  9
$DIMDLE
 40
0.0
  9
$DIMEXE
 40
1.0
  9
$DIMTP
 40
0.0
  9
$DIMTM
 40
0.0
  9
$DIMTXT
 40
2.0
  9
$DIMCEN
 40
2.5
  9
$DIMTSZ
 40
0.0
  9
$DIMTOL
 70
     0
  9
$DIMLIM
 70
     0
  9
$DIMTIH
 70
     1
  9
$DIMTOH
 70
     1
  9
$DIMSE1
 70
     0
  9
$DIMSE2
 70
     0
  9
$DIMTAD
 70
     1
  9
$DIMZIN
 70
     0
  9
$DIMBLK
  1

  9
$DIMASO
 70
     1
  9
$DIMSHO
 70
     1
  9
$DIMPOST
  1

  9
$DIMAPOST
  1

  9
$DIMALT
 70
     0
  9
$DIMALTD
 70
     3
  9
$DIMALTF
 40
0.0393700787
  9
$DIMLFAC
 40
1.0
  9
$DIMTOFL
 70
     1
  9
$DIMTVP
 40
0.0
  9
$DIMTIX
 70
     0
  9
$DIMSOXD
 70
     0
  9
$DIMSAH
 70
     0
  9
$DIMBLK1
  1

  9
$DIMBLK2
  1

  9
$DIMSTYLE
  2
ISO-25
  9
$DIMCLRD
 70
     0
  9
$DIMCLRE
 70
     0
  9
$DIMCLRT
 70
     0
  9
$DIMTFAC
 40
1.0
  9
$DIMGAP
 40
1.524
  9
$DIMJUST
 70
     0
  9
$DIMSD1
 70
     0
  9
$DIMSD2
 70
     0
  9
$DIMTOLJ
 70
     0
  9
$DIMTZIN
 70
     0
  9
$DIMALTZ
 70
     0
  9
$DIMALTTZ
 70
     0
  9
$DIMUPT
 70
     0
  9
$DIMDEC
 70
     2
  9
$DIMTDEC
 70
     3
  9
$DIMALTU
 70
     2
  9
$DIMALTTD
 70
     3
  9
$DIMTXSTY
  7
Standard
  9
$DIMAUNIT
 70
     0
  9
$DIMADEC
 70
     2
  9
$DIMALTRND
 40
0.0
  9
$DIMAZIN
 70
     0
  9
$DIMDSEP
 70
    44
  9
$DIMATFIT
 70
     3
  9
$DIMFRAC
 70
     0
  9
$DIMLDRBLK
  1

  9
$DIMLUNIT
 70
     2
  9
$DIMLWD
 70
    -2
  9
$DIMLWE
 70
    -2
  9
$DIMTMOVE
 70
     0
  9
$LUNITS
 70
     2
  9
$LUPREC
 70
     2
  9
$SKETCHINC
 40
1.0
  9
$FILLETRAD
 40
10.0
  9
$AUNITS
 70
     0
  9
$AUPREC
 70
     2
  9
$MENU
  1
.
  9
$ELEVATION
 40
0.0
  9
$PELEVATION
 40
0.0
  9
$THICKNESS
 40
0.0
  9
$LIMCHECK
 70
     0
  9
$CHAMFERA
 40
0.0
  9
$CHAMFERB
 40
0.0
  9
$CHAMFERC
 40
0.0
  9
$CHAMFERD
 40
0.0
  9
$SKPOLY
 70
     0
  9
$TDCREATE
 40
2457627.61290228
  9
$TDUCREATE
 40
2457627.529568947
  9
$TDUPDATE
 40
2457627.612903669
  9
$TDUUPDATE
 40
2457627.529570336
  9
$TDINDWG
 40
0.0000000116
  9
$TDUSRTIMER
 40
0.0000000116
  9
$USRTIMER
 70
     1
  9
$ANGBASE
 50
0.0
  9
$ANGDIR
 70
     0
  9
$PDMODE
 70
     0
  9
$PDSIZE
 40
-1.0
  9
$PLINEWID
 40
0.0
  9
$SPLFRAME
 70
     0
  9
$SPLINETYPE
 70
     6
  9
$SPLINESEGS
 70
     8
  9
$HANDSEED
  5
2F7
  9
$SURFTAB1
 70
     6
  9
$SURFTAB2
 70
     6
  9
$SURFTYPE
 70
     6
  9
$SURFU
 70
     6
  9
$SURFV
 70
     6
  9
$UCSBASE
  2

  9
$UCSNAME
  2

  9
$UCSORG
 10
0.0
 20
0.0
 30
0.0
  9
$UCSXDIR
 10
1.0
 20
0.0
 30
0.0
  9
$UCSYDIR
 10
0.0
 20
1.0
 30
0.0
  9
$UCSORTHOREF
  2

  9
$UCSORTHOVIEW
 70
     0
  9
$UCSORGTOP
 10
0.0
 20
0.0
 30
0.0
  9
$UCSORGBOTTOM
 10
0.0
 20
0.0
 30
0.0
  9
$UCSORGLEFT
 10
0.0
 20
0.0
 30
0.0
  9
$UCSORGRIGHT
 10
0.0
 20
0.0
 30
0.0
  9
$UCSORGFRONT
 10
0.0
 20
0.0
 30
0.0
  9
$UCSORGBACK
 10
0.0
 20
0.0
 30
0.0
  9
$PUCSBASE
  2

  9
$PUCSNAME
  2

  9
$PUCSORG
 10
0.0
 20
0.0
 30
0.0
  9
$PUCSXDIR
 10
1.0
 20
0.0
 30
0.0
  9
$PUCSYDIR
 10
0.0
 20
1.0
 30
0.0
  9
$PUCSORTHOREF
  2

  9
$PUCSORTHOVIEW
 70
     0
  9
$PUCSORGTOP
 10
0.0
 20
0.0
 30
0.0
  9
$PUCSORGBOTTOM
 10
0.0
 20
0.0
 30
0.0
  9
$PUCSORGLEFT
 10
0.0
 20
0.0
 30
0.0
  9
$PUCSORGRIGHT
 10
0.0
 20
0.0
 30
0.0
  9
$PUCSORGFRONT
 10
0.0
 20
0.0
 30
0.0
  9
$PUCSORGBACK
 10
0.0
 20
0.0
 30
0.0
  9
$USERI1
 70
     0
  9
$USERI2
 70
     0
  9
$USERI3
 70
     0
  9
$USERI4
 70
     0
  9
$USERI5
 70
     0
  9
$USERR1
 40
0.0
  9
$USERR2
 40
0.0
  9
$USERR3
 40
0.0
  9
$USERR4
 40
0.0
  9
$USERR5
 40
0.0
  9
$WORLDVIEW
 70
     1
  9
$SHADEDGE
 70
     3
  9
$SHADEDIF
 70
    70
  9
$TILEMODE
 70
     1
  9
$MAXACTVP
 70
    64
  9
$PINSBASE
 10
0.0
 20
0.0
 30
0.0
  9
$PLIMCHECK
 70
     0
  9
$PEXTMIN
 10
1.0000000000E+20
 20
1.0000000000E+20
 30
1.0000000000E+20
  9
$PEXTMAX
 10
-1.0000000000E+20
 20
-1.0000000000E+20
 30
-1.0000000000E+20
  9
$PLIMMIN
 10
0.0
 20
0.0
  9
$PLIMMAX
 10
420.0
 20
297.0
  9
$UNITMODE
 70
     0
  9
$VISRETAIN
 70
     1
  9
$PLINEGEN
 70
     0
  9
$PSLTSCALE
 70
     1
  9
$TREEDEPTH
 70
  3020
  9
$CMLSTYLE
  2
Standard
  9
$CMLJUST
 70
     0
  9
$CMLSCALE
 40
20.0
  9
$PROXYGRAPHICS
 70
     1
  9
$MEASUREMENT
 70
     1
  9
$CELWEIGHT
370
    -1
  9
$ENDCAPS
280
     0
  9
$JOINSTYLE
280
     0
  9
$LWDISPLAY
290
     1
  9
$INSUNITS
 70
     4
  9
$HYPERLINKBASE
  1

  9
$STYLESHEET
  1

  9
$XEDIT
290
     1
  9
$CEPSNTYPE
380
     0
  9
$PSTYLEMODE
290
     1
  9
$FINGERPRINTGUID
  2
{625841F1-0E15-4203-8023-C964E9D37947}
  9
$VERSIONGUID
  2
{FAEB1C32-E019-11D5-929B-00C0DF256EC4}
  9
$EXTNAMES
290
     1
  9
$PSVPSCALE
 40
0.0
  9
$OLESTARTUP
290
     0
  0
ENDSEC
  0
SECTION
  2
CLASSES
  0
CLASS
  1
ACDBDICTIONARYWDFLT
  2
AcDbDictionaryWithDefault
  3
ObjectDBX Classes
 90
        0
280
     0
281
     0
  0
CLASS
  1
VISUALSTYLE
  2
AcDbVisualStyle
  3
ObjectDBX Classes
 90
     4095
280
     0
281
     0
  0
CLASS
  1
MATERIAL
  2
AcDbMaterial
  3
ObjectDBX Classes
 90
     1153
280
     0
281
     0
  0
CLASS
  1
SCALE
  2
AcDbScale
  3
ObjectDBX Classes
 90
     1153
280
     0
281
     0
  0
CLASS
  1
TABLESTYLE
  2
AcDbTableStyle
  3
ObjectDBX Classes
 90
     4095
280
     0
281
     0
  0
CLASS
  1
MLEADERSTYLE
  2
AcDbMLeaderStyle
  3
ACDB_MLEADERSTYLE_CLASS
 90
     4095
280
     0
281
     0
  0
CLASS
  1
SUN
  2
AcDbSun
  3
SCENEOE
 90
     1153
280
     0
281
     0
  0
CLASS
  1
ACDBPLACEHOLDER
  2
AcDbPlaceHolder
  3
ObjectDBX Classes
 90
        0
280
     0
281
     0
  0
CLASS
  1
LAYOUT
  2
AcDbLayout
  3
ObjectDBX Classes
 90
        0
280
     0
281
     0
  0
ENDSEC
  0
SECTION
  2
TABLES
  0
TABLE
  2
VPORT
  5
8
330
0
100
AcDbSymbolTable
 70
     1
  0
VPORT
  5
29
330
8
100
AcDbSymbolTableRecord
100
AcDbViewportTableRecord
  2
*Active
 70
     0
 10
0.0
 20
0.0
 11
1.0
 21
1.0
 12
148.5
 22
105.0
 13
0.0
 23
0.0
 14
10.0
 24
10.0
 15
10.0
 25
10.0
 16
0.0
 26
0.0
 36
1.0
 17
0.0
 27
0.0
 37
0.0
 40
210.0
 41
1.4142857143
 42
50.0
 43
0.0
 44
0.0
 50
0.0
 51
0.0
 71
     0
 72
  2000
 73
     1
 74
     3
 75
     0
 76
     0
 77
     0
 78
     0
281
     0
 65
     1
110
0.0
120
0.0
130
0.0
111
1.0
121
0.0
131
0.0
112
0.0
122
1.0
132
0.0
 79
     0
146
0.0
  0
ENDTAB
  0
TABLE
  2
LTYPE
  5
5
330
0
100
AcDbSymbolTable
 70
     6
  0
LTYPE
  5
14
330
5
100
AcDbSymbolTableRecord
100
AcDbLinetypeTableRecord
  2
ByBlock
 70
     0
  3

 72
    65
 73
     0
 40
0.0
  0
LTYPE
  5
15
330
5
100
AcDbSymbolTableRecord
100
AcDbLinetypeTableRecord
  2
ByLayer
 70
     0
  3

 72
    65
 73
     0
 40
0.0
  0
LTYPE
  5
16
330
5
100
AcDbSymbolTableRecord
100
AcDbLinetypeTableRecord
  2
Continuous
 70
     0
  3
Solid line
 72
    65
 73
     0
 40
0.0
  0
LTYPE
  5
6E
330
5
100
AcDbSymbolTableRecord
100
AcDbLinetypeTableRecord
  2
HIDDEN
 70
     0
  3
Hidden __ __ __ __ __ __ __ __ __ __ __ __ __ __
 72
    65
 73
     2
 40
1.905
 49
1.27
 74
     0
 49
-0.635
 74
     0
  0
LTYPE
  5
6F
330
5
100
AcDbSymbolTableRecord
100
AcDbLinetypeTableRecord
  2
PHANTOM
 70
     0
  3
Phantom ______  __  __  ______  __  __  ______
 72
    65
 73
     6
 40
12.7
 49
6.35
 74
     0
 49
-1.27
 74
     0
 49
1.27
 74
     0
 49
-1.27
 74
     0
 49
1.27
 74
     0
 49
-1.27
 74
     0
  0
LTYPE
  5
70
330
5
100
AcDbSymbolTableRecord
100
AcDbLinetypeTableRecord
  2
CENTER
 70
     0
  3
Center ____ _ ____ _ ____ _ ____ _ ____ _ ____
 72
    65
 73
     4
 40
10.16
 49
6.35
 74
     0
 49
-1.27
 74
     0
 49
1.27
 74
     0
 49
-1.27
 74
     0
  0
LTYPE
  5
71
330
5
100
AcDbSymbolTableRecord
100
AcDbLinetypeTableRecord
  2
CENTERX2
 70
     0
  3
Center (2x) ________  __  ________  __  _____
 72
    65
 73
     4
 40
20.32
 49
12.7
 74
     0
 49
-2.54
 74
     0
 49
2.54
 74
     0
 49
-2.54
 74
     0
  0
LTYPE
  5
72
330
5
100
AcDbSymbolTableRecord
100
AcDbLinetypeTableRecord
  2
DOT2
 70
     0
  3
Dot (.5x) ........................................
 72
    65
 73
     2
 40
0.635
 49
0.0
 74
     0
 49
-0.635
 74
     0
  0
ENDTAB
  0
TABLE
  2
LAYER
  5
2
330
0
100
AcDbSymbolTable
 70
     5
  0
LAYER
  5
10
330
2
100
AcDbSymbolTableRecord
100
AcDbLayerTableRecord
  2
0
 70
     0
 62
     7
  6
Continuous
370
    -3
390
F
  0
LAYER
  5
73
330
2
100
AcDbSymbolTableRecord
100
AcDbLayerTableRecord
  2
FORMAT
 70
     0
 62
     7
  6
Continuous
370
    -3
390
F
  0
LAYER
  5
74
330
2
100
AcDbSymbolTableRecord
100
AcDbLayerTableRecord
  2
VERMASSUNG
 70
     0
 62
     7
  6
Continuous
370
    -3
390
F
  0
LAYER
  5
75
330
2
100
AcDbSymbolTableRecord
100
AcDbLayerTableRecord
  2
KOPF_DÜNN
 70
     0
 62
     7
  6
Continuous
370
    -3
390
F
  0
LAYER
  5
76
330
2
100
AcDbSymbolTableRecord
100
AcDbLayerTableRecord
  2
KOPF_DICK
 70
     0
 62
     7
  6
Continuous
370
    15
390
F
  0
ENDTAB
  0
TABLE
  2
STYLE
  5
3
330
0
100
AcDbSymbolTable
 70
     2
  0
STYLE
  5
11
330
3
100
AcDbSymbolTableRecord
100
AcDbTextStyleTableRecord
  2
Standard
 70
     0
 40
0.0
 41
1.0
 50
0.0
 71
     0
 42
2.0
  3
txt
  4

  0
STYLE
  5
77
330
3
100
AcDbSymbolTableRecord
100
AcDbTextStyleTableRecord
  2
SLDTEXTSTYLE0
 70
     0
 40
0.0
 41
0.7
 50
0.0
 71
     0
 42
2.0
  3
TXT
  4

  0
ENDTAB
  0
TABLE
  2
VIEW
  5
6
330
0
100
AcDbSymbolTable
 70
     0
  0
ENDTAB
  0
TABLE
  2
UCS
  5
7
330
0
100
AcDbSymbolTable
 70
     0
  0
ENDTAB
  0
TABLE
  2
APPID
  5
9
330
0
100
AcDbSymbolTable
 70
     1
  0
APPID
  5
12
330
9
100
AcDbSymbolTableRecord
100
AcDbRegAppTableRecord
  2
ACAD
 70
     0
  0
ENDTAB
  0
TABLE
  2
DIMSTYLE
  5
A
330
0
100
AcDbSymbolTable
 70
     2
100
AcDbDimStyleTable
  0
DIMSTYLE
105
27
330
A
100
AcDbSymbolTableRecord
100
AcDbDimStyleTableRecord
  2
ISO-25
 70
     0
 41
2.5
 42
0.625
 43
3.75
 44
1.25
 73
     0
 74
     0
 77
     1
 78
     8
140
2.5
141
2.5
143
0.0393700787
147
0.625
171
     3
172
     1
178
     0
271
     2
272
     2
274
     3
278
    44
283
     0
284
     8
340
11
  0
DIMSTYLE
105
1F0
102
{ACAD_REACTORS
330
1EF
330
1FC
330
208
330
212
330
21C
102
}
330
A
100
AcDbSymbolTableRecord
100
AcDbDimStyleTableRecord
  2
SLDDIMSTYLE0
 70
     0
 41
3.0
 44
0.0
 45
0.000000001
 73
     0
 74
     0
 77
     1
 78
    12
 79
     3
140
2.0
147
0.5
173
     1
178
     0
271
     2
272
     3
276
     2
284
    12
340
77
  0
ENDTAB
  0
TABLE
  2
BLOCK_RECORD
  5
1
330
0
100
AcDbSymbolTable
 70
     6
  0
BLOCK_RECORD
  5
1F
330
1
100
AcDbSymbolTableRecord
100
AcDbBlockTableRecord
  2
*Model_Space
340
22
  0
BLOCK_RECORD
  5
1B
330
1
100
AcDbSymbolTableRecord
100
AcDbBlockTableRecord
  2
*Paper_Space
340
1E
  0
BLOCK_RECORD
  5
23
330
1
100
AcDbSymbolTableRecord
100
AcDbBlockTableRecord
  2
*Paper_Space0
340
26
  0
BLOCK_RECORD
  5
1F1
330
1
100
AcDbSymbolTableRecord
100
AcDbBlockTableRecord
  2
_D
340
0
  0
BLOCK_RECORD
  5
1FD
330
1
100
AcDbSymbolTableRecord
100
AcDbBlockTableRecord
  2
_D_1
340
0
  0
BLOCK_RECORD
  5
209
330
1
100
AcDbSymbolTableRecord
100
AcDbBlockTableRecord
  2
_D_2
340
0
  0
BLOCK_RECORD
  5
213
330
1
100
AcDbSymbolTableRecord
100
AcDbBlockTableRecord
  2
_D_3
340
0
  0
BLOCK_RECORD
  5
21D
330
1
100
AcDbSymbolTableRecord
100
AcDbBlockTableRecord
  2
_D_4
340
0
  0
ENDTAB
  0
ENDSEC
  0
SECTION
  2
BLOCKS
  0
BLOCK
  5
20
330
1F
100
AcDbEntity
  8
0
100
AcDbBlockBegin
  2
*Model_Space
 70
     0
 10
0.0
 20
0.0
 30
0.0
  3
*Model_Space
  1

  0
ENDBLK
  5
21
330
1F
100
AcDbEntity
  8
0
100
AcDbBlockEnd
  0
BLOCK
  5
1C
330
1B
100
AcDbEntity
 67
     1
  8
0
100
AcDbBlockBegin
  2
*Paper_Space
 70
     0
 10
0.0
 20
0.0
 30
0.0
  3
*Paper_Space
  1

  0
ENDBLK
  5
1D
330
1B
100
AcDbEntity
 67
     1
  8
0
100
AcDbBlockEnd
  0
BLOCK
  5
24
330
23
100
AcDbEntity
  8
0
100
AcDbBlockBegin
  2
*Paper_Space0
 70
     0
 10
0.0
 20
0.0
 30
0.0
  3
*Paper_Space0
  1

  0
ENDBLK
  5
25
330
23
100
AcDbEntity
  8
0
100
AcDbBlockEnd
  0
BLOCK
  5
1F2
330
1F1
100
AcDbEntity
  8
0
100
AcDbBlockBegin
  2
_D
 70
     0
 10
0.0
 20
0.0
 30
0.0
  3
_D
  1

  0
SOLID
  5
1F4
330
1F1
100
AcDbEntity
  8
VERMASSUNG
100
AcDbTrace
 10
71.4220249898
 20
85.6760452718
 30
0.0
 11
71.8720249898
 21
88.6760452718
 31
0.0
 12
70.9720249898
 22
88.6760452718
 32
0.0
 13
70.9720249898
 23
88.6760452718
 33
0.0
  0
SOLID
  5
1F5
330
1F1
100
AcDbEntity
  8
VERMASSUNG
100
AcDbTrace
 10
71.4220249898
 20
149.1760452718
 30
0.0
 11
70.9720249898
 21
146.1760452718
 31
0.0
 12
71.8720249898
 22
146.1760452718
 32
0.0
 13
71.8720249898
 23
146.1760452718
 33
0.0
  0
LINE
  5
1F6
330
1F1
100
AcDbEntity
  8
VERMASSUNG
100
AcDbLine
 10
163.2897785788
 20
85.6760452718
 30
0.0
 11
70.4220249898
 21
85.6760452718
 31
0.0
  0
LINE
  5
1F7
330
1F1
100
AcDbEntity
  8
VERMASSUNG
100
AcDbLine
 10
163.2897785788
 20
149.1760452718
 30
0.0
 11
70.4220249898
 21
149.1760452718
 31
0.0
  0
LINE
  5
1F8
330
1F1
100
AcDbEntity
  8
VERMASSUNG
100
AcDbLine
 10
71.4220249898
 20
85.6760452718
 30
0.0
 11
71.4220249898
 21
149.1760452718
 31
0.0
  0
MTEXT
  5
1F9
330
1F1
100
AcDbEntity
  8
VERMASSUNG
100
AcDbMText
 10
68.6438897336
 20
108.6231091235
 30
0.0
 40
2.0
 41
0.0
 71
     1
 72
     1
  1
ISO 40
  7
SLDTEXTSTYLE0
 11
3.391901413832837E-15
 21
1.0
 31
0.0
 73
     1
 44
1.0
  0
MTEXT
  5
1FA
330
1F1
100
AcDbEntity
  8
VERMASSUNG
100
AcDbMText
 10
68.8438896849
 20
117.8231093277
 30
0.0
 40
2.0
 41
0.0
 71
     1
 72
     1
  1
%%c
  7
SLDTEXTSTYLE0
 11
3.391901413832837E-15
 21
1.0
 31
0.0
 73
     1
 44
1.0
  0
MTEXT
  5
1FB
330
1F1
100
AcDbEntity
  8
VERMASSUNG
100
AcDbMText
 10
68.8438893939
 20
121.430989659
 30
0.0
 40
2.0
 41
0.0
 71
     1
 72
     1
  1
63.5
  7
SLDTEXTSTYLE0
 11
3.391901413832837E-15
 21
1.0
 31
0.0
 73
     1
 44
1.0
  0
ENDBLK
  5
1F3
330
1F1
100
AcDbEntity
  8
0
100
AcDbBlockEnd
  0
BLOCK
  5
1FE
330
1FD
100
AcDbEntity
  8
0
100
AcDbBlockBegin
  2
_D_1
 70
     0
 10
0.0
 20
0.0
 30
0.0
  3
_D_1
  1

  0
ARC
  5
200
330
1FD
100
AcDbEntity
  8
VERMASSUNG
100
AcDbCircle
 10
148.7765473738
 20
173.8589190359
 30
0.0
 40
4.247059938537272
100
AcDbArc
 50
153.4349488229
 51
206.5650511771
  0
ARC
  5
201
330
1FD
100
AcDbEntity
  8
VERMASSUNG
100
AcDbCircle
 10
151.7530097837
 20
173.8589190359
 30
0.0
 40
4.247059938537272
100
AcDbArc
 50
333.4349488229
 51
26.5650511771
  0
SOLID
  5
202
330
1FD
100
AcDbEntity
  8
VERMASSUNG
100
AcDbTrace
 10
76.5897785788
 20
171.9595760905
 30
0.0
 11
79.5897785788
 21
171.5095760905
 31
0.0
 12
79.5897785788
 22
172.4095760905
 32
0.0
 13
79.5897785788
 23
172.4095760905
 33
0.0
  0
SOLID
  5
203
330
1FD
100
AcDbEntity
  8
VERMASSUNG
100
AcDbTrace
 10
223.9397785788
 20
171.9595760905
 30
0.0
 11
220.9397785788
 21
172.4095760905
 31
0.0
 12
220.9397785788
 22
171.5095760905
 32
0.0
 13
220.9397785788
 23
171.5095760905
 33
0.0
  0
LINE
  5
204
330
1FD
100
AcDbEntity
  8
VERMASSUNG
100
AcDbLine
 10
76.5897785788
 20
128.8331758688
 30
0.0
 11
76.5897785788
 21
172.9595760905
 31
0.0
  0
LINE
  5
205
330
1FD
100
AcDbEntity
  8
VERMASSUNG
100
AcDbLine
 10
223.9397785788
 20
152.7260452718
 30
0.0
 11
223.9397785788
 21
172.9595760905
 31
0.0
  0
LINE
  5
206
330
1FD
100
AcDbEntity
  8
VERMASSUNG
100
AcDbLine
 10
76.5897785788
 20
171.9595760905
 30
0.0
 11
223.9397785788
 21
171.9595760905
 31
0.0
  0
MTEXT
  5
207
330
1FD
100
AcDbEntity
  8
VERMASSUNG
100
AcDbMText
 10
146.565361483
 20
174.5377116864
 30
0.0
 40
2.0
 41
0.0
 71
     1
 72
     1
  1
147.35
  7
SLDTEXTSTYLE0
 73
     1
 44
1.0
  0
ENDBLK
  5
1FF
330
1FD
100
AcDbEntity
  8
0
100
AcDbBlockEnd
  0
BLOCK
  5
20A
330
209
100
AcDbEntity
  8
0
100
AcDbBlockBegin
  2
_D_2
 70
     0
 10
0.0
 20
0.0
 30
0.0
  3
_D_2
  1

  0
SOLID
  5
20C
330
209
100
AcDbEntity
  8
VERMASSUNG
100
AcDbTrace
 10
144.8397785788
 20
165.9595760905
 30
0.0
 11
147.8397785788
 21
165.5095760905
 31
0.0
 12
147.8397785788
 22
166.4095760905
 32
0.0
 13
147.8397785788
 23
166.4095760905
 33
0.0
  0
SOLID
  5
20D
330
209
100
AcDbEntity
  8
VERMASSUNG
100
AcDbTrace
 10
223.9397785788
 20
165.9595760905
 30
0.0
 11
220.9397785788
 21
166.4095760905
 31
0.0
 12
220.9397785788
 22
165.5095760905
 32
0.0
 13
220.9397785788
 23
165.5095760905
 33
0.0
  0
LINE
  5
20E
330
209
100
AcDbEntity
  8
VERMASSUNG
100
AcDbLine
 10
144.8397785788
 20
139.6510452718
 30
0.0
 11
144.8397785788
 21
166.9595760905
 31
0.0
  0
LINE
  5
20F
330
209
100
AcDbEntity
  8
VERMASSUNG
100
AcDbLine
 10
223.9397785788
 20
152.7260452718
 30
0.0
 11
223.9397785788
 21
166.9595760905
 31
0.0
  0
LINE
  5
210
330
209
100
AcDbEntity
  8
VERMASSUNG
100
AcDbLine
 10
144.8397785788
 20
165.9595760905
 30
0.0
 11
223.9397785788
 21
165.9595760905
 31
0.0
  0
MTEXT
  5
211
330
209
100
AcDbEntity
  8
VERMASSUNG
100
AcDbMText
 10
182.190423275
 20
168.5377116864
 30
0.0
 40
2.0
 41
0.0
 71
     1
 72
     1
  1
79.1
  7
SLDTEXTSTYLE0
 73
     1
 44
1.0
  0
ENDBLK
  5
20B
330
209
100
AcDbEntity
  8
0
100
AcDbBlockEnd
  0
BLOCK
  5
214
330
213
100
AcDbEntity
  8
0
100
AcDbBlockBegin
  2
_D_3
 70
     0
 10
0.0
 20
0.0
 30
0.0
  3
_D_3
  1

  0
SOLID
  5
216
330
213
100
AcDbEntity
  8
VERMASSUNG
100
AcDbTrace
 10
163.8897785788
 20
159.9595760905
 30
0.0
 11
166.8897785788
 21
159.5095760905
 31
0.0
 12
166.8897785788
 22
160.4095760905
 32
0.0
 13
166.8897785788
 23
160.4095760905
 33
0.0
  0
SOLID
  5
217
330
213
100
AcDbEntity
  8
VERMASSUNG
100
AcDbTrace
 10
223.9397785788
 20
159.9595760905
 30
0.0
 11
220.9397785788
 21
160.4095760905
 31
0.0
 12
220.9397785788
 22
159.5095760905
 32
0.0
 13
220.9397785788
 23
159.5095760905
 33
0.0
  0
LINE
  5
218
330
213
100
AcDbEntity
  8
VERMASSUNG
100
AcDbLine
 10
163.8897785788
 20
147.4365964053
 30
0.0
 11
163.8897785788
 21
160.9595760905
 31
0.0
  0
LINE
  5
219
330
213
100
AcDbEntity
  8
VERMASSUNG
100
AcDbLine
 10
223.9397785788
 20
152.7260452718
 30
0.0
 11
223.9397785788
 21
160.9595760905
 31
0.0
  0
LINE
  5
21A
330
213
100
AcDbEntity
  8
VERMASSUNG
100
AcDbLine
 10
163.8897785788
 20
159.9595760905
 30
0.0
 11
223.9397785788
 21
159.9595760905
 31
0.0
  0
MTEXT
  5
21B
330
213
100
AcDbEntity
  8
VERMASSUNG
100
AcDbMText
 10
190.8153861998
 20
162.5377116864
 30
0.0
 40
2.0
 41
0.0
 71
     1
 72
     1
  1
60.05
  7
SLDTEXTSTYLE0
 73
     1
 44
1.0
  0
ENDBLK
  5
215
330
213
100
AcDbEntity
  8
0
100
AcDbBlockEnd
  0
BLOCK
  5
21E
330
21D
100
AcDbEntity
  8
0
100
AcDbBlockBegin
  2
_D_4
 70
     0
 10
0.0
 20
0.0
 30
0.0
  3
_D_4
  1

  0
SOLID
  5
220
330
21D
100
AcDbEntity
  8
VERMASSUNG
100
AcDbTrace
 10
231.7669849442
 20
153.4260452718
 30
0.0
 11
231.3169849442
 21
150.4260452718
 31
0.0
 12
232.2169849442
 22
150.4260452718
 32
0.0
 13
232.2169849442
 23
150.4260452718
 33
0.0
  0
SOLID
  5
221
330
21D
100
AcDbEntity
  8
VERMASSUNG
100
AcDbTrace
 10
231.7669849442
 20
81.4260452718
 30
0.0
 11
232.2169849442
 21
84.4260452718
 31
0.0
 12
231.3169849442
 22
84.4260452718
 32
0.0
 13
231.3169849442
 23
84.4260452718
 33
0.0
  0
LINE
  5
222
330
21D
100
AcDbEntity
  8
VERMASSUNG
100
AcDbLine
 10
223.2397785788
 20
153.4260452718
 30
0.0
 11
232.7669849442
 21
153.4260452718
 31
0.0
  0
LINE
  5
223
330
21D
100
AcDbEntity
  8
VERMASSUNG
100
AcDbLine
 10
223.2397785788
 20
81.4260452718
 30
0.0
 11
232.7669849442
 21
81.4260452718
 31
0.0
  0
LINE
  5
224
330
21D
100
AcDbEntity
  8
VERMASSUNG
100
AcDbLine
 10
231.7669849442
 20
153.4260452718
 30
0.0
 11
231.7669849442
 21
81.4260452718
 31
0.0
  0
MTEXT
  5
225
330
21D
100
AcDbEntity
  8
VERMASSUNG
100
AcDbMText
 10
228.988849688
 20
111.0210456283
 30
0.0
 40
2.0
 41
0.0
 71
     1
 72
     1
  1
MBM
  7
SLDTEXTSTYLE0
 11
-7.044195017643634E-15
 21
1.0
 31
0.0
 73
     1
 44
1.0
  0
MTEXT
  5
226
330
21D
100
AcDbEntity
  8
VERMASSUNG
100
AcDbMText
 10
229.1888496392
 20
117.4210454666
 30
0.0
 40
2.0
 41
0.0
 71
     1
 72
     1
  1
%%c
  7
SLDTEXTSTYLE0
 11
-7.044195017643634E-15
 21
1.0
 31
0.0
 73
     1
 44
1.0
  0
MTEXT
  5
227
330
21D
100
AcDbEntity
  8
VERMASSUNG
100
AcDbMText
 10
228.988849688
 20
121.0310459465
 30
0.0
 40
2.0
 41
0.0
 71
     1
 72
     1
  1
72
  7
SLDTEXTSTYLE0
 11
-7.044195017643634E-15
 21
1.0
 31
0.0
 73
     1
 44
1.0
  0
ENDBLK
  5
21F
330
21D
100
AcDbEntity
  8
0
100
AcDbBlockEnd
  0
ENDSEC
  0
SECTION
  2
ENTITIES
  0
MTEXT
  5
78
330
1F
100
AcDbEntity
  8
KOPF_DÜNN
100
AcDbMText
 10
13.8892156294
 20
23.8442973028
 30
0.0
 40
3.0
 41
0.0
 71
     1
 72
     1
  1
102.425.721
  7
SLDTEXTSTYLE0
 73
     1
 44
1.0
  0
MTEXT
  5
79
330
1F
100
AcDbEntity
  8
VERMASSUNG
100
AcDbMText
 10
13.9329988022
 20
28.8834360957
 30
0.0
 40
3.0
 41
0.0
 71
     1
 72
     1
  1
Aufnahme_Master shank MBM 72
  7
SLDTEXTSTYLE0
 73
     1
 44
1.0
  0
MTEXT
  5
7A
330
1F
100
AcDbEntity
  8
VERMASSUNG
100
AcDbMText
 10
98.8601118557
 20
13.8365368761
 30
0.0
 40
2.0
 41
0.0
 71
     1
 72
     1
  1
Datum: 01.11.2007
  7
SLDTEXTSTYLE0
 73
     1
 44
1.0
  0
MTEXT
  5
7B
330
1F
100
AcDbEntity
  8
VERMASSUNG
100
AcDbMText
 10
13.933048693
 20
18.0482802738
 30
0.0
 40
2.0
 41
0.0
 71
     1
 72
     1
  1
DIN 69871 B 40
  7
SLDTEXTSTYLE0
 73
     1
 44
1.0
  0
MTEXT
  5
7C
330
1F
100
AcDbEntity
  8
VERMASSUNG
100
AcDbMText
 10
13.9808475933
 20
13.9090974274
 30
0.0
 40
2.0
 41
0.0
 71
     1
 72
     1
  1
Gewicht: 1954g
  7
SLDTEXTSTYLE0
 73
     1
 44
1.0
  0
ARC
  5
7D
330
1F
100
AcDbEntity
  8
0
  6
Continuous
 62
     7
370
    15
100
AcDbCircle
 10
186.7679818091
 20
152.4260452718
 30
0.0
 40
1.000000000000008
100
AcDbArc
 50
90.0
 51
150.0
  0
ARC
  5
7E
330
1F
100
AcDbEntity
  8
0
  6
Continuous
 62
     7
370
    15
100
AcDbCircle
 10
186.7679818091
 20
82.4260452718
 30
0.0
 40
1.000000000000015
100
AcDbArc
 50
210.0
 51
270.0
  0
LINE
  5
7F
330
1F
100
AcDbEntity
  8
0
  6
Continuous
 62
     7
370
    15
100
AcDbLine
 10
223.2397795086
 20
81.4260468215
 30
0.0
 11
223.9397764569
 21
82.1260437698
 31
0.0
  0
LINE
  5
80
330
1F
100
AcDbEntity
  8
0
  6
Continuous
 62
     7
370
    15
100
AcDbLine
 10
223.9397764569
 20
152.7260467739
 30
0.0
 11
223.2397795086
 21
153.4260437221
 31
0.0
  0
LINE
  5
81
330
1F
100
AcDbEntity
  8
0
  6
Continuous
 62
     7
370
    15
100
AcDbLine
 10
186.7679804926
 20
81.4260468215
 30
0.0
 11
223.2397795086
 21
81.4260468215
 31
0.0
  0
LINE
  5
82
330
1F
100
AcDbEntity
  8
0
  6
Continuous
 62
     7
370
    15
100
AcDbLine
 10
223.2397795086
 20
153.4260437221
 30
0.0
 11
186.7679804926
 21
153.4260437221
 31
0.0
  0
LINE
  5
83
330
1F
100
AcDbEntity
  8
0
  6
Continuous
 62
     7
370
    15
100
AcDbLine
 10
185.9019548064
 20
152.9260464341
 30
0.0
 11
180.1284551983
 21
142.926044795
 31
0.0
  0
LINE
  5
84
330
1F
100
AcDbEntity
  8
0
  6
Continuous
 62
     7
370
    15
100
AcDbLine
 10
180.1284551983
 20
91.9260457487
 30
0.0
 11
185.9019548064
 21
81.9260441095
 31
0.0
  0
ARC
  5
85
330
1F
100
AcDbEntity
  8
0
  6
Continuous
 62
     7
370
    15
100
AcDbCircle
 10
179.2624283096
 20
91.4260452718
 30
0.0
 40
1.000000000000008
100
AcDbArc
 50
30.0
 51
90.0
  0
ARC
  5
86
330
1F
100
AcDbEntity
  8
0
  6
Continuous
 62
     7
370
    15
100
AcDbCircle
 10
179.2624283096
 20
143.4260452718
 30
0.0
 40
1.000000000000008
100
AcDbArc
 50
270.0
 51
330.0
  0
LINE
  5
87
330
1F
100
AcDbEntity
  8
0
  6
Continuous
 62
     7
370
    15
100
AcDbLine
 10
171.9157826518
 20
92.4260448993
 30
0.0
 11
179.2624295121
 21
92.4260448993
 31
0.0
  0
LINE
  5
88
330
1F
100
AcDbEntity
  8
0
  6
Continuous
 62
     7
370
    15
100
AcDbLine
 10
179.2624295121
 20
142.4260456443
 30
0.0
 11
171.9140168642
 21
142.4260456443
 31
0.0
  0
ARC
  5
89
330
1F
100
AcDbEntity
  8
0
  6
Continuous
 62
     7
370
    15
100
AcDbCircle
 10
147.4397785788
 20
94.6010452718
 30
0.0
 40
0.5999999999999943
100
AcDbArc
 50
0.0
 51
90.0
  0
ARC
  5
8A
330
1F
100
AcDbEntity
  8
0
  6
Continuous
 62
     7
370
    15
100
AcDbCircle
 10
147.4397785788
 20
140.2510452718
 30
0.0
 40
0.5999999999999943
100
AcDbArc
 50
270.0
 51
0.0
  0
LINE
  5
8B
330
1F
100
AcDbEntity
  8
0
  6
Continuous
 62
     7
370
    15
100
AcDbLine
 10
144.8397785788
 20
95.2010453076
 30
0.0
 11
147.4397785859
 21
95.2010453076
 31
0.0
  0
LINE
  5
8C
330
1F
100
AcDbEntity
  8
0
  6
Continuous
 62
     7
370
    15
100
AcDbLine
 10
147.4397785859
 20
139.6510452361
 30
0.0
 11
144.8397785788
 21
139.6510452361
 31
0.0
  0
LINE
  5
8D
330
1F
100
AcDbEntity
  8
0
  6
Continuous
 62
     7
370
    15
100
AcDbLine
 10
144.8397785788
 20
139.6510452361
 30
0.0
 11
77.4454698329
 21
129.8227086992
 31
0.0
  0
LINE
  5
8E
330
1F
100
AcDbEntity
  8
0
  6
Continuous
 62
     7
370
    15
100
AcDbLine
 10
77.4454698329
 20
105.0293818445
 30
0.0
 11
144.8397785788
 21
95.2010453076
 31
0.0
  0
ARC
  5
8F
330
1F
100
AcDbEntity
  8
0
  6
Continuous
 62
     7
370
    15
100
AcDbCircle
 10
77.5897785788
 20
106.0189146748
 30
0.0
 40
1.0
100
AcDbArc
 50
180.0
 51
261.7028550302
  0
ARC
  5
90
330
1F
100
AcDbEntity
  8
0
  6
Continuous
 62
     7
370
    15
100
AcDbCircle
 10
77.5897785788
 20
128.8331758688
 30
0.0
 40
1.0
100
AcDbArc
 50
98.2971449698
 51
180.0
  0
ARC
  5
91
330
1F
100
AcDbEntity
  8
0
  6
Continuous
 62
     7
370
    15
100
AcDbCircle
 10
157.8397785788
 20
108.704531617
 30
0.0
 40
1.500000000000034
100
AcDbArc
 50
191.5274417164
 51
336.2380297609
  0
SPLINE
  5
92
330
1F
100
AcDbEntity
  8
0
  6
Continuous
 62
     7
370
    15
100
AcDbSpline
210
0.0
220
0.0
230
1.0
 70
     8
 71
     3
 72
    12
 73
     8
 74
     0
 42
0.000000001
 43
0.00000001
 40
0.0
 40
0.0
 40
0.0
 40
0.0
 40
0.1302930376996692
 40
0.3062462598687742
 40
0.4817564052073356
 40
0.8155259718680105
 40
1.0
 40
1.0
 40
1.0
 40
1.0
 10
200.4615068798331
 20
114.9966407430033
 30
0.0
 10
200.4557863248232
 20
115.1855536215693
 30
0.0
 10
200.4423404906703
 20
115.6295824317288
 30
0.0
 10
200.4199196924939
 20
116.3700202744919
 30
0.0
 10
200.3867543964694
 20
117.4653387461916
 30
0.0
 10
200.3526667502623
 20
118.5910918135752
 30
0.0
 10
200.3298405701393
 20
119.3449748556805
 30
0.0
 10
200.3217153613833
 20
119.613327118815
 30
0.0
  0
SPLINE
  5
93
330
1F
100
AcDbEntity
  8
0
  6
Continuous
 62
     7
370
    15
100
AcDbSpline
210
0.0
220
0.0
230
1.0
 70
     8
 71
     3
 72
    11
 73
     7
 74
     0
 42
0.000000001
 43
0.00000001
 40
0.0
 40
0.0
 40
0.0
 40
0.0
 40
0.2164566736490133
 40
0.4403141041717468
 40
0.7519031426742685
 40
1.0
 40
1.0
 40
1.0
 40
1.0
 10
204.5295685892371
 20
112.8093591288338
 30
0.0
 10
204.2509003235003
 20
112.9591908754949
 30
0.0
 10
203.6840359911585
 20
113.2639771876719
 30
0.0
 10
202.6320923384035
 20
113.8295786614644
 30
0.0
 10
201.5036990081539
 20
114.436282061794
 30
0.0
 10
200.7815986257344
 20
114.8245360190037
 30
0.0
 10
200.4615068798331
 20
114.9966407430033
 30
0.0
  0
SPLINE
  5
94
330
1F
100
AcDbEntity
  8
0
  6
Continuous
 62
     7
370
    15
100
AcDbSpline
210
0.0
220
0.0
230
1.0
 70
     8
 71
     3
 72
    11
 73
     7
 74
     0
 42
0.000000001
 43
0.00000001
 40
0.0
 40
0.0
 40
0.0
 40
0.0
 40
0.2164572508936409
 40
0.4403145754361529
 40
0.7519026535659842
 40
1.0
 40
1.0
 40
1.0
 40
1.0
 10
208.4578425054816
 20
115.2387634248148
 30
0.0
 10
208.1887486708442
 20
115.0723459829872
 30
0.0
 10
207.6413614289678
 20
114.733821748105
 30
0.0
 10
206.6255662267361
 20
114.1056108203364
 30
0.0
 10
205.5359500234192
 20
113.431745288107
 30
0.0
 10
204.8386622865594
 20
113.0005149198668
 30
0.0
 10
204.5295685892371
 20
112.8093591288338
 30
0.0
  0
SPLINE
  5
95
330
1F
100
AcDbEntity
  8
0
  6
Continuous
 62
     7
370
    15
100
AcDbSpline
210
0.0
220
0.0
230
1.0
 70
     8
 71
     3
 72
    12
 73
     8
 74
     0
 42
0.000000001
 43
0.00000001
 40
0.0
 40
0.0
 40
0.0
 40
0.0
 40
0.1844740325988529
 40
0.5182436060882782
 40
0.6937537782528191
 40
0.869706981672276
 40
1.0
 40
1.0
 40
1.0
 40
1.0
 10
208.3180547123221
 20
119.8554498006265
 30
0.0
 10
208.3261785755834
 20
119.5870974954192
 30
0.0
 10
208.3490009757479
 20
118.8332143369418
 30
0.0
 10
208.3830868507321
 20
117.7074611805831
 30
0.0
 10
208.4162616008825
 20
116.6121429868016
 30
0.0
 10
208.4386750089555
 20
115.8717049591354
 30
0.0
 10
208.4521216200562
 20
115.4276762540887
 30
0.0
 10
208.4578425054816
 20
115.2387634248148
 30
0.0
  0
CIRCLE
  5
96
330
1F
100
AcDbEntity
  8
0
  6
Continuous
 62
     7
370
    15
100
AcDbCircle
 10
204.3897785788
 20
117.4260452718
 30
0.0
 40
4.750000000000001
  0
SPLINE
  5
97
330
1F
100
AcDbEntity
  8
0
  6
Continuous
 62
     7
370
    15
100
AcDbSpline
210
0.0
220
0.0
230
1.0
 70
     8
 71
     3
 72
    11
 73
     7
 74
     0
 42
0.000000001
 43
0.00000001
 40
0.0
 40
0.0
 40
0.0
 40
0.0
 40
0.2164566326156674
 40
0.4403139468722394
 40
0.7519026649657202
 40
1.0
 40
1.0
 40
1.0
 40
1.0
 10
200.3217153613833
 20
119.613327118815
 30
0.0
 10
200.5908078649319
 20
119.7797446652774
 30
0.0
 10
201.1381931812396
 20
120.1182695966975
 30
0.0
 10
202.1539886859242
 20
120.74648054539
 30
0.0
 10
203.2436072669736
 20
121.4203443224488
 30
0.0
 10
203.9408956536083
 20
121.8515754920152
 30
0.0
 10
204.2499892776278
 20
122.042731414796
 30
0.0
  0
SPLINE
  5
98
330
1F
100
AcDbEntity
  8
0
  6
Continuous
 62
     7
370
    15
100
AcDbSpline
210
0.0
220
0.0
230
1.0
 70
     8
 71
     3
 72
    11
 73
     7
 74
     0
 42
0.000000001
 43
0.00000001
 40
0.0
 40
0.0
 40
0.0
 40
0.0
 40
0.2164565461984802
 40
0.4403138449130862
 40
0.7519020223872699
 40
1.0
 40
1.0
 40
1.0
 40
1.0
 10
204.2499892776278
 20
122.042731414796
 30
0.0
 10
204.5286575154588
 20
121.8928996287108
 30
0.0
 10
205.0955217910349
 20
121.5881132363378
 30
0.0
 10
206.1474649904733
 20
121.0225129710079
 30
0.0
 10
207.2758566943843
 20
120.415805698637
 30
0.0
 10
207.9979602587975
 20
120.0275541530296
 30
0.0
 10
208.3180547123221
 20
119.8554498006265
 30
0.0
  0
CIRCLE
  5
99
330
1F
100
AcDbEntity
  8
0
  6
Continuous
 62
     7
370
    15
100
AcDbCircle
 10
204.3897785788
 20
117.4260452718
 30
0.0
 40
7.199999999999984
  0
CIRCLE
  5
9A
330
1F
100
AcDbEntity
  8
0
  6
Continuous
 62
     7
370
    15
100
AcDbCircle
 10
204.3897785788
 20
117.4260452718
 30
0.0
 40
8.000000000000007
  0
ARC
  5
9B
330
1F
100
AcDbEntity
  8
0
  6
Continuous
 62
     7
370
    15
100
AcDbCircle
 10
204.3897785788
 20
117.4260452718
 30
0.0
 40
4.000000000000007
100
AcDbArc
 50
241.7343399772
 51
301.7343399772
  0
ARC
  5
9C
330
1F
100
AcDbEntity
  8
0
  6
Continuous
 62
     7
370
    15
100
AcDbCircle
 10
204.3897785788
 20
117.4260452718
 30
0.0
 40
4.000000000000004
100
AcDbArc
 50
121.7343399772
 51
181.7343399772
  0
ARC
  5
9D
330
1F
100
AcDbEntity
  8
0
  6
Continuous
 62
     7
370
    15
100
AcDbCircle
 10
204.3897785788
 20
117.4260452718
 30
0.0
 40
4.000000000000007
100
AcDbArc
 50
181.7343399772
 51
241.7343399772
  0
ARC
  5
9E
330
1F
100
AcDbEntity
  8
0
  6
Continuous
 62
     7
370
    15
100
AcDbCircle
 10
204.3897785788
 20
117.4260452718
 30
0.0
 40
4.000000000000004
100
AcDbArc
 50
1.7343399772
 51
61.7343399772
  0
ARC
  5
9F
330
1F
100
AcDbEntity
  8
0
  6
Continuous
 62
     7
370
    15
100
AcDbCircle
 10
204.3897785788
 20
117.4260452718
 30
0.0
 40
4.000000000000003
100
AcDbArc
 50
61.7343399772
 51
121.7343399772
  0
ARC
  5
A0
330
1F
100
AcDbEntity
  8
0
  6
Continuous
 62
     7
370
    15
100
AcDbCircle
 10
204.3897785788
 20
117.4260452718
 30
0.0
 40
4.000000000000004
100
AcDbArc
 50
301.7343399772
 51
1.7343399772
  0
LINE
  5
A1
330
1F
100
AcDbEntity
  8
0
  6
Continuous
 62
     7
370
    15
100
AcDbLine
 10
223.9397764569
 20
82.1260437698
 30
0.0
 11
223.9397764569
 21
152.7260467739
 31
0.0
  0
LINE
  5
A2
330
1F
100
AcDbEntity
  8
0
  6
Continuous
 62
     7
370
    15
100
AcDbLine
 10
223.2397795086
 20
81.4260468215
 30
0.0
 11
223.2397795086
 21
153.4260437221
 31
0.0
  0
SPLINE
  5
A3
330
1F
100
AcDbEntity
  8
0
  6
Continuous
 62
     7
370
    15
100
AcDbSpline
210
0.0
220
0.0
230
1.0
 70
     8
 71
     3
 72
    50
 73
    46
 74
     0
 42
0.000000001
 43
0.00000001
 40
0.0
 40
0.0
 40
0.0
 40
0.0
 40
0.0312500000000001
 40
0.0312500000000001
 40
0.0625000000000002
 40
0.0625000000000002
 40
0.1250000000000005
 40
0.1250000000000005
 40
0.1562500000000002
 40
0.1562500000000002
 40
0.1875
 40
0.1875
 40
0.2187499999999998
 40
0.2187499999999998
 40
0.2499999999999996
 40
0.2499999999999996
 40
0.3125000000000001
 40
0.3125000000000001
 40
0.3437500000000004
 40
0.3437500000000004
 40
0.3750000000000007
 40
0.3750000000000007
 40
0.4375000000000013
 40
0.4375000000000013
 40
0.4687500000000012
 40
0.4687500000000012
 40
0.5000000000000011
 40
0.5000000000000011
 40
0.5625000000000009
 40
0.5625000000000009
 40
0.6250000000000007
 40
0.6250000000000007
 40
0.6875000000000006
 40
0.6875000000000006
 40
0.7500000000000003
 40
0.7500000000000003
 40
0.8125000000000001
 40
0.8125000000000001
 40
0.8749999999999999
 40
0.8749999999999999
 40
0.90625
 40
0.90625
 40
0.9375
 40
0.9375
 40
1.0
 40
1.0
 40
1.0
 40
1.0
 10
214.1397785787848
 20
117.4260452718149
 30
0.0
 10
214.1397785787848
 20
117.1247023194118
 30
0.0
 10
214.1220717209404
 20
116.8236620497042
 30
0.0
 10
214.050893986482
 20
116.2221924722966
 30
0.0
 10
213.9968410284849
 20
115.9197718163746
 30
0.0
 10
213.7841504399258
 20
115.0333291166335
 30
0.0
 10
213.5763784296969
 20
114.4675048760141
 30
0.0
 10
213.1715791615819
 20
113.6539866681774
 30
0.0
 10
213.0204385617593
 20
113.3882338865821
 30
0.0
 10
212.6942941151244
 20
112.8798245358424
 30
0.0
 10
212.5186205291456
 20
112.6356252548961
 30
0.0
 10
212.1432452288411
 20
112.1661819642524
 30
0.0
 10
211.9435394911489
 20
111.9409413642912
 30
0.0
 10
211.5204467093882
 20
111.5090105679043
 30
0.0
 10
211.2968595302253
 20
111.3023941832501
 30
0.0
 10
210.6043978368787
 20
110.7212941234153
 30
0.0
 10
210.1099592214281
 20
110.3807443579804
 30
0.0
 10
209.3212176305185
 20
109.9361503489924
 30
0.0
 10
209.0491053574971
 20
109.7985571505513
 30
0.0
 10
208.4972271169352
 20
109.5495684991704
 30
0.0
 10
208.2171903773983
 20
109.4378566685055
 30
0.0
 10
207.3651746431988
 20
109.1396297354741
 30
0.0
 10
206.7813870314118
 20
108.9897095640362
 30
0.0
 10
205.8816983470658
 20
108.8385741991181
 30
0.0
 10
205.5784243662089
 20
108.800820460067
 30
0.0
 10
204.9750888205306
 20
108.7512807337602
 30
0.0
 10
204.6736595990864
 20
108.7392423668757
 30
0.0
 10
203.7700761888099
 20
108.7406847512116
 30
0.0
 10
203.1686204992524
 20
108.7913953460328
 30
0.0
 10
201.9676500905896
 20
108.9966174056054
 30
0.0
 10
201.3817459204313
 20
109.149146473719
 30
0.0
 10
200.250063522836
 20
109.5491829984668
 30
0.0
 10
199.7022728900574
 20
109.7969610084906
 30
0.0
 10
198.6453476249101
 20
110.3961743450727
 30
0.0
 10
198.1520280402935
 20
110.738797653223
 30
0.0
 10
197.2388732273872
 20
111.5089914671565
 30
0.0
 10
196.8168815660154
 20
111.9386365649149
 30
0.0
 10
196.060559533143
 20
112.8879875377093
 30
0.0
 10
195.7375317373894
 20
113.3928958904289
 30
0.0
 10
195.3378067473272
 20
114.1973137551941
 30
0.0
 10
195.2188074721481
 20
114.4733528857726
 30
0.0
 10
195.0111237492569
 20
115.0423197730912
 30
0.0
 10
194.9222916756362
 20
115.3368133086234
 30
0.0
 10
194.7109677503562
 20
116.2213317994623
 30
0.0
 10
194.6397785787848
 20
116.8193953291264
 30
0.0
 10
194.6397785787848
 20
117.4260452718149
 30
0.0
  0
SPLINE
  5
A4
330
1F
100
AcDbEntity
  8
0
  6
Continuous
 62
     7
370
    15
100
AcDbSpline
210
0.0
220
0.0
230
1.0
 70
     8
 71
     3
 72
    54
 73
    50
 74
     0
 42
0.000000001
 43
0.00000001
 40
0.0
 40
0.0
 40
0.0
 40
0.0
 40
0.0312499999999996
 40
0.0312499999999996
 40
0.0624999999999991
 40
0.0624999999999991
 40
0.0937499999999987
 40
0.0937499999999987
 40
0.1249999999999982
 40
0.1249999999999982
 40
0.1874999999999977
 40
0.1874999999999977
 40
0.2187499999999977
 40
0.2187499999999977
 40
0.2499999999999977
 40
0.2499999999999977
 40
0.3124999999999978
 40
0.3124999999999978
 40
0.3749999999999979
 40
0.3749999999999979
 40
0.4374999999999981
 40
0.4374999999999981
 40
0.4687499999999984
 40
0.4687499999999984
 40
0.4999999999999989
 40
0.4999999999999989
 40
0.5625000000000004
 40
0.5625000000000004
 40
0.5937500000000012
 40
0.5937500000000012
 40
0.625000000000002
 40
0.625000000000002
 40
0.6875000000000034
 40
0.6875000000000034
 40
0.7187500000000036
 40
0.7187500000000036
 40
0.7500000000000037
 40
0.7500000000000037
 40
0.8125000000000028
 40
0.8125000000000028
 40
0.8437500000000023
 40
0.8437500000000023
 40
0.8750000000000019
 40
0.8750000000000019
 40
0.9375000000000011
 40
0.9375000000000011
 40
0.9687500000000006
 40
0.9687500000000006
 40
1.0
 40
1.0
 40
1.0
 40
1.0
 10
194.6397785787848
 20
117.4260452718149
 30
0.0
 10
194.6397785787848
 20
117.7294348335922
 30
0.0
 10
194.6581096394038
 20
118.0370370558751
 30
0.0
 10
194.7304248248369
 20
118.6413381250779
 30
0.0
 10
194.7841522548015
 20
118.9391422023869
 30
0.0
 10
194.9254608877495
 20
119.5263918515226
 30
0.0
 10
195.013045469665
 20
119.8158365632656
 30
0.0
 10
195.2219154510232
 20
120.3864315950334
 30
0.0
 10
195.3436395470364
 20
120.667932290688
 30
0.0
 10
195.7495300938881
 20
121.4803776881388
 30
0.0
 10
196.0761964873136
 20
121.9866660508693
 30
0.0
 10
196.6454706468534
 20
122.6967268197378
 30
0.0
 10
196.8480768593215
 20
122.9243020389167
 30
0.0
 10
197.272761417278
 20
123.3561217272801
 30
0.0
 10
197.4955572598909
 20
123.5612840392303
 30
0.0
 10
198.1946304438638
 20
124.1454640794632
 30
0.0
 10
198.6915571288852
 20
124.4851376946998
 30
0.0
 10
199.7359445837769
 20
125.0709550686223
 30
0.0
 10
200.2859023290524
 20
125.3183211727544
 30
0.0
 10
201.4334975074722
 20
125.7182745874567
 30
0.0
 10
202.0174320979184
 20
125.8663611681642
 30
0.0
 10
202.9078565569531
 20
126.014811161448
 30
0.0
 10
203.2071011771043
 20
126.0519278380983
 30
0.0
 10
203.8105320820135
 20
126.1011366330255
 30
0.0
 10
204.1161834582569
 20
126.1131798330306
 30
0.0
 10
205.0270094407136
 20
126.1106593538882
 30
0.0
 10
205.6268833089786
 20
126.0584368922654
 30
0.0
 10
206.5159347913082
 20
125.9058107549167
 30
0.0
 10
206.8104814707951
 20
125.84247570648
 30
0.0
 10
207.3958775334208
 20
125.690168548308
 30
0.0
 10
207.6879513167619
 20
125.600677731931
 30
0.0
 10
208.5427402585321
 20
125.297620872774
 30
0.0
 10
209.087979234687
 20
125.0492861007172
 30
0.0
 10
209.8688266413459
 20
124.6062615321994
 30
0.0
 10
210.1229005203236
 20
124.44675474514
 30
0.0
 10
210.6180726673212
 20
124.1028250520826
 30
0.0
 10
210.8598784328103
 20
123.9176192154291
 30
0.0
 10
211.5492696279758
 20
123.3352471637166
 30
0.0
 10
211.9663539242974
 20
122.9085231525145
 30
0.0
 10
212.525387970727
 20
122.2072815496644
 30
0.0
 10
212.7005532063168
 20
121.96326835302
 30
0.0
 10
213.0268675376517
 20
121.4530454799588
 30
0.0
 10
213.1771200761643
 20
121.187753370799
 30
0.0
 10
213.5782882518023
 20
120.3791388659727
 30
0.0
 10
213.7845150093271
 20
119.8167303034155
 30
0.0
 10
213.9961181278323
 20
118.9355864653682
 30
0.0
 10
214.0504221416352
 20
118.6332008276136
 30
0.0
 10
214.1220653400316
 20
118.0291623057015
 30
0.0
 10
214.1397785787848
 20
117.7274523925972
 30
0.0
 10
214.1397785787848
 20
117.4260452718149
 30
0.0
  0
LINE
  5
A5
330
1F
100
AcDbEntity
  8
0
  6
Continuous
 62
     7
370
    15
100
AcDbLine
 10
148.6397786429
 20
86.9779531241
 30
0.0
 11
152.4179419865
 21
86.9779531241
 31
0.0
  0
LINE
  5
A6
330
1F
100
AcDbEntity
  8
0
  6
Continuous
 62
     7
370
    15
100
AcDbLine
 10
152.4179419865
 20
135.7760448337
 30
0.0
 11
148.6397786429
 21
135.7760448337
 31
0.0
  0
LINE
  5
A7
330
1F
100
AcDbEntity
  8
0
  6
Continuous
 62
     7
370
    15
100
AcDbLine
 10
152.4179419865
 20
86.9779531241
 30
0.0
 11
152.4179419865
 21
135.7760448337
 31
0.0
  0
SPLINE
  5
A8
330
1F
100
AcDbEntity
  8
0
  6
Continuous
 62
     7
370
    15
100
AcDbSpline
210
0.0
220
0.0
230
1.0
 70
     8
 71
     3
 72
     8
 73
     4
 74
     0
 42
0.000000001
 43
0.00000001
 40
0.0
 40
0.0
 40
0.0
 40
0.0
 40
1.0
 40
1.0
 40
1.0
 40
1.0
 10
154.0297785787848
 20
89.60921881231343
 30
0.0
 10
153.6456438302005
 20
88.91657739036926
 30
0.0
 10
153.2606575537075
 20
88.22439121604556
 30
0.0
 10
152.8749889750812
 20
87.53259692520137
 30
0.0
  0
SPLINE
  5
A9
330
1F
100
AcDbEntity
  8
0
  6
Continuous
 62
     7
370
    15
100
AcDbSpline
210
0.0
220
0.0
230
1.0
 70
     8
 71
     3
 72
     8
 73
     4
 74
     0
 42
0.000000001
 43
0.00000001
 40
0.0
 40
0.0
 40
0.0
 40
0.0
 40
0.0011901715795577
 40
0.0011901715795577
 40
0.0011901715795577
 40
0.0011901715795577
 10
152.4179419367281
 20
86.97795292317822
 30
0.0
 10
152.571788126224
 20
87.16251816086182
 30
0.0
 10
152.7241833938967
 20
87.34739352139046
 30
0.0
 10
152.8749889750812
 20
87.53259692520137
 30
0.0
  0
SPLINE
  5
AA
330
1F
100
AcDbEntity
  8
0
  6
Continuous
 62
     7
370
    15
100
AcDbSpline
210
0.0
220
0.0
230
1.0
 70
    24
 71
     3
 72
     8
 73
     4
 74
     0
 42
0.000000001
 43
0.00000001
 40
0.0
 40
0.0
 40
0.0
 40
0.0
 40
1.0
 40
1.0
 40
1.0
 40
1.0
 10
154.0297785787848
 20
135.7760452718149
 30
0.0
 10
153.5050460904229
 20
135.7760452718149
 30
0.0
 10
152.9663706062041
 20
135.7760452718149
 30
0.0
 10
152.4179419367281
 20
135.7760452718149
 30
0.0
  0
LINE
  5
AB
330
1F
100
AcDbEntity
  8
0
  6
Continuous
 62
     7
370
    15
100
AcDbLine
 10
154.0297782411
 20
89.6092187942
 30
0.0
 11
154.0297782411
 21
135.7760448337
 31
0.0
  0
SPLINE
  5
AC
330
1F
100
AcDbEntity
  8
0
  6
Continuous
 62
     7
370
    15
100
AcDbSpline
210
0.0
220
0.0
230
1.0
 70
     8
 71
     3
 72
    12
 73
     8
 74
     0
 42
0.000000001
 43
0.00000001
 40
0.0
 40
0.0
 40
0.0
 40
0.0
 40
0.249999999999999
 40
0.249999999999999
 40
0.499999999999998
 40
0.499999999999998
 40
1.0
 40
1.0
 40
1.0
 40
1.0
 10
163.2897785787848
 20
86.97795292317822
 30
0.0
 10
163.3853204889208
 20
86.97795292317822
 30
0.0
 10
163.4774654307836
 20
86.99420659237444
 30
0.0
 10
163.6337917073935
 20
87.04781501328792
 30
0.0
 10
163.6974598500135
 20
87.0842261385696
 30
0.0
 10
163.8463276954438
 20
87.20634977825608
 30
0.0
 10
163.8897785787848
 20
87.30150245369312
 30
0.0
 10
163.8897785787848
 20
87.39712890931281
 30
0.0
  0
SPLINE
  5
AD
330
1F
100
AcDbEntity
  8
0
  6
Continuous
 62
     7
370
    15
100
AcDbSpline
210
0.0
220
0.0
230
1.0
 70
    24
 71
     3
 72
    12
 73
     8
 74
     0
 42
0.000000001
 43
0.00000001
 40
0.0
 40
0.0
 40
0.0
 40
0.0
 40
0.4999999999999971
 40
0.4999999999999971
 40
0.7499999999999986
 40
0.7499999999999986
 40
1.0
 40
1.0
 40
1.0
 40
1.0
 10
163.8897785787848
 20
135.7760452718149
 30
0.0
 10
163.8897785787848
 20
135.7760452718149
 30
0.0
 10
163.8400985838298
 20
135.7760452718149
 30
0.0
 10
163.6841800268122
 20
135.7760452718149
 30
0.0
 10
163.6182989622361
 20
135.7760452718149
 30
0.0
 10
163.4656533067474
 20
135.7760452718149
 30
0.0
 10
163.3784033988864
 20
135.7760452718149
 30
0.0
 10
163.2897785787847
 20
135.7760452718149
 30
0.0
  0
LINE
  5
AE
330
1F
100
AcDbEntity
  8
0
  6
Continuous
 62
     7
370
    15
100
AcDbLine
 10
163.8897788142
 20
87.3971283764
 30
0.0
 11
163.8897788142
 21
135.7760448337
 31
0.0
  0
LINE
  5
AF
330
1F
100
AcDbEntity
  8
0
  6
Continuous
 62
     7
370
    15
100
AcDbLine
 10
159.4616156434
 20
107.674025032
 30
0.0
 11
159.4616156434
 21
135.7760448337
 31
0.0
  0
LINE
  5
B0
330
1F
100
AcDbEntity
  8
0
  6
Continuous
 62
     7
370
    15
100
AcDbLine
 10
163.2897779708
 20
135.7760448337
 30
0.0
 11
159.4616156434
 21
135.7760448337
 31
0.0
  0
LINE
  5
B1
330
1F
100
AcDbEntity
  8
0
  6
Continuous
 62
     7
370
    15
100
AcDbLine
 10
159.4616156434
 20
86.9779531241
 30
0.0
 11
163.2897779708
 21
86.9779531241
 31
0.0
  0
LINE
  5
B2
330
1F
100
AcDbEntity
  8
0
  6
Continuous
 62
     7
370
    15
100
AcDbLine
 10
159.4616156434
 20
86.9779531241
 30
0.0
 11
159.4616156434
 21
105.4745456532
 31
0.0
  0
SPLINE
  5
B3
330
1F
100
AcDbEntity
  8
0
  6
Continuous
 62
     7
370
    15
100
AcDbSpline
210
0.0
220
0.0
230
1.0
 70
     8
 71
     3
 72
    12
 73
     8
 74
     0
 42
0.000000001
 43
0.00000001
 40
0.0
 40
0.0
 40
0.0
 40
0.0
 40
0.2500000000000008
 40
0.2500000000000008
 40
0.5000000000000017
 40
0.5000000000000017
 40
1.0
 40
1.0
 40
1.0
 40
1.0
 10
159.4616152208415
 20
105.4745454736078
 30
0.0
 10
159.5845627146371
 20
105.6325023223029
 30
0.0
 10
159.6781069177459
 20
105.8043356892805
 30
0.0
 10
159.8070463069082
 20
106.1760083989263
 30
0.0
 10
159.8395990642933
 20
106.3691968451175
 30
0.0
 10
159.8401354060271
 20
106.9574933833938
 30
0.0
 10
159.7075117490591
 20
107.3495116212825
 30
0.0
 10
159.4616152208415
 20
107.6740252039912
 30
0.0
  0
SPLINE
  5
B4
330
1F
100
AcDbEntity
  8
0
  6
Continuous
 62
     7
370
    15
100
AcDbSpline
210
0.0
220
0.0
230
1.0
 70
     8
 71
     3
 72
    10
 73
     6
 74
     0
 42
0.000000001
 43
0.00000001
 40
0.0
 40
0.0
 40
0.0
 40
0.0
 40
0.5
 40
0.5
 40
1.0
 40
1.0
 40
1.0
 40
1.0
 10
148.255923120132
 20
87.0743154223467
 30
0.0
 10
148.3046930931134
 20
87.04608741513869
 30
0.0
 10
148.3621452164157
 20
87.02199281089707
 30
0.0
 10
148.4927421194044
 20
86.98772933780452
 30
0.0
 10
148.5652317992466
 20
86.97795292317822
 30
0.0
 10
148.6397785787848
 20
86.97795292317822
 30
0.0
  0
SPLINE
  5
B5
330
1F
100
AcDbEntity
  8
0
  6
Continuous
 62
     7
370
    15
100
AcDbSpline
210
0.0
220
0.0
230
1.0
 70
     8
 71
     3
 72
    10
 73
     6
 74
     0
 42
0.000000001
 43
0.00000001
 40
0.0
 40
0.0
 40
0.0
 40
0.0
 40
0.5
 40
0.5
 40
1.0
 40
1.0
 40
1.0
 40
1.0
 10
148.255923120132
 20
87.0743154223467
 30
0.0
 10
148.1978004600559
 20
87.1416205822085
 30
0.0
 10
148.1453972940524
 20
87.22170596924214
 30
0.0
 10
148.066494272506
 20
87.4057254109309
 30
0.0
 10
148.0397785787848
 20
87.51093676835136
 30
0.0
 10
148.0397785787848
 20
87.619670114812
 30
0.0
  0
LINE
  5
B6
330
1F
100
AcDbEntity
  8
0
  6
Continuous
 62
     7
370
    15
100
AcDbLine
 10
148.0397784979
 20
87.6196697683
 30
0.0
 11
148.0397784979
 21
135.7760448337
 31
0.0
  0
SPLINE
  5
B7
330
1F
100
AcDbEntity
  8
0
  6
Continuous
 62
     7
370
    15
100
AcDbSpline
210
0.0
220
0.0
230
1.0
 70
    24
 71
     3
 72
    12
 73
     8
 74
     0
 42
0.000000001
 43
0.00000001
 40
0.0
 40
0.0
 40
0.0
 40
0.0
 40
0.25
 40
0.25
 40
0.5
 40
0.5
 40
1.0
 40
1.0
 40
1.0
 40
1.0
 10
148.6397785787848
 20
135.7760452718149
 30
0.0
 10
148.5513632014743
 20
135.7760452718149
 30
0.0
 10
148.4640927643038
 20
135.7760452718149
 30
0.0
 10
148.3116290395319
 20
135.7760452718149
 30
0.0
 10
148.2459904273095
 20
135.7760452718149
 30
0.0
 10
148.0893320260256
 20
135.7760452718149
 30
0.0
 10
148.0397785787848
 20
135.7760452718149
 30
0.0
 10
148.0397785787848
 20
135.7760452718149
 30
0.0
  0
LINE
  5
B8
330
1F
100
AcDbEntity
  8
0
  6
Continuous
 62
     7
370
    15
100
AcDbLine
 10
157.8497784575
 20
109.4247624607
 30
0.0
 11
157.8497784575
 21
135.7760448337
 31
0.0
  0
SPLINE
  5
B9
330
1F
100
AcDbEntity
  8
0
  6
Continuous
 62
     7
370
    15
100
AcDbSpline
210
0.0
220
0.0
230
1.0
 70
    24
 71
     3
 72
     8
 73
     4
 74
     0
 42
0.000000001
 43
0.00000001
 40
0.0
 40
0.0
 40
0.0
 40
0.0
 40
1.0
 40
1.0
 40
1.0
 40
1.0
 10
159.4616152208415
 20
135.7760452718149
 30
0.0
 10
158.9131865513655
 20
135.7760452718149
 30
0.0
 10
158.3745110671467
 20
135.7760452718149
 30
0.0
 10
157.8497785787848
 20
135.7760452718149
 30
0.0
  0
SPLINE
  5
BA
330
1F
100
AcDbEntity
  8
0
  6
Continuous
 62
     7
370
    15
100
AcDbSpline
210
0.0
220
0.0
230
1.0
 70
     8
 71
     3
 72
    12
 73
     8
 74
     0
 42
0.000000001
 43
0.00000001
 40
0.0
 40
0.0
 40
0.0
 40
0.0
 40
0.2499999999999997
 40
0.2499999999999997
 40
0.4999999999999993
 40
0.4999999999999993
 40
1.0
 40
1.0
 40
1.0
 40
1.0
 10
159.4616152208415
 20
107.6740252039912
 30
0.0
 10
159.3467191695809
 20
107.8937656390478
 30
0.0
 10
159.2199531531082
 20
108.0907339906695
 30
0.0
 10
158.9597382194897
 20
108.4444515635084
 30
0.0
 10
158.8262307615275
 20
108.6012768573806
 30
0.0
 10
158.4178324929393
 20
109.0278194282883
 30
0.0
 10
158.1341793580017
 20
109.2545116072435
 30
0.0
 10
157.8497785787849
 20
109.424762751639
 30
0.0
  0
SPLINE
  5
BB
330
1F
100
AcDbEntity
  8
0
  6
Continuous
 62
     7
370
    15
100
AcDbSpline
210
0.0
220
0.0
230
1.0
 70
     8
 71
     3
 72
    14
 73
    10
 74
     0
 42
0.000000001
 43
0.00000001
 40
0.0
 40
0.0
 40
0.0
 40
0.0
 40
0.2499999999999995
 40
0.2499999999999995
 40
0.4999999999999997
 40
0.4999999999999997
 40
0.7499999999999998
 40
0.7499999999999998
 40
1.0
 40
1.0
 40
1.0
 40
1.0
 10
157.8497785787848
 20
109.4790064014852
 30
0.0
 10
157.8497785787848
 20
109.515657269649
 30
0.0
 10
157.828450790073
 20
109.552124066898
 30
0.0
 10
157.7459923874164
 20
109.6172629214389
 30
0.0
 10
157.6848761955612
 20
109.6453340520298
 30
0.0
 10
157.5335731024991
 20
109.6791619337566
 30
0.0
 10
157.4421950791085
 20
109.6846250751531
 30
0.0
 10
157.2498213660556
 20
109.6636991571405
 30
0.0
 10
157.1476410265766
 20
109.6371637317652
 30
0.0
 10
157.0497785787848
 20
109.596677558484
 30
0.0
  0
SPLINE
  5
BC
330
1F
100
AcDbEntity
  8
0
  6
Continuous
 62
     7
370
    15
100
AcDbSpline
210
0.0
220
0.0
230
1.0
 70
     8
 71
     3
 72
    12
 73
     8
 74
     0
 42
0.000000001
 43
0.00000001
 40
0.0
 40
0.0
 40
0.0
 40
0.0
 40
0.5000000000000009
 40
0.5000000000000009
 40
0.7500000000000004
 40
0.7500000000000004
 40
1.0
 40
1.0
 40
1.0
 40
1.0
 10
157.8497785787848
 20
105.666039253418
 30
0.0
 10
158.1339851133501
 20
105.4985750911242
 30
0.0
 10
158.4126808474539
 20
105.3869379916126
 30
0.0
 10
158.8220268906431
 20
105.3196247259733
 30
0.0
 10
158.9581662279627
 20
105.3144736859593
 30
0.0
 10
159.2194862769587
 20
105.3522396235787
 30
0.0
 10
159.3449074593905
 20
105.3937893819229
 30
0.0
 10
159.461615220842
 20
105.4745454736058
 30
0.0
  0
LINE
  5
BD
330
1F
100
AcDbEntity
  8
0
  6
Continuous
 62
     7
370
    15
100
AcDbLine
 10
157.8497784575
 20
105.7202825651
 30
0.0
 11
157.8497784575
 21
105.6660395444
 31
0.0
  0
SPLINE
  5
BE
330
1F
100
AcDbEntity
  8
0
  6
Continuous
 62
     7
370
    15
100
AcDbSpline
210
0.0
220
0.0
230
1.0
 70
     8
 71
     3
 72
    14
 73
    10
 74
     0
 42
0.000000001
 43
0.00000001
 40
0.0
 40
0.0
 40
0.0
 40
0.0
 40
0.25
 40
0.25
 40
0.5
 40
0.5
 40
0.75
 40
0.75
 40
1.0
 40
1.0
 40
1.0
 40
1.0
 10
157.0497785787813
 20
106.1435660817081
 30
0.0
 10
157.1471879987651
 20
106.1051513623139
 30
0.0
 10
157.2495122417787
 20
106.0674509575312
 30
0.0
 10
157.4415139273162
 20
105.9964061719371
 30
0.0
 10
157.5329485569706
 20
105.962204710579
 30
0.0
 10
157.6847274242656
 20
105.8952082851736
 30
0.0
 10
157.7457043141802
 20
105.8620668168641
 30
0.0
 10
157.8287222527445
 20
105.792389249214
 30
0.0
 10
157.8497785787848
 20
105.7566555380468
 30
0.0
 10
157.8497785787848
 20
105.7202829032661
 30
0.0
  0
SPLINE
  5
BF
330
1F
100
AcDbEntity
  8
0
  6
Continuous
 62
     7
370
    15
100
AcDbSpline
210
0.0
220
0.0
230
1.0
 70
     8
 71
     3
 72
    22
 73
    18
 74
     0
 42
0.000000001
 43
0.00000001
 40
0.0
 40
0.0
 40
0.0
 40
0.0
 40
0.125
 40
0.125
 40
0.25
 40
0.25
 40
0.375
 40
0.375
 40
0.5
 40
0.5
 40
0.625
 40
0.625
 40
0.75
 40
0.75
 40
0.875
 40
0.875
 40
1.0
 40
1.0
 40
1.0
 40
1.0
 10
157.0497785787848
 20
109.596677558484
 30
0.0
 10
156.8697618842155
 20
109.5222037715074
 30
0.0
 10
156.7053300623453
 20
109.4247545095235
 30
0.0
 10
156.4069338285868
 20
109.1853850759593
 30
0.0
 10
156.276630101222
 20
109.0454884638889
 30
0.0
 10
156.063411317603
 20
108.7372368738289
 30
0.0
 10
155.9797834604915
 20
108.5670736557098
 30
0.0
 10
155.8686525835732
 20
108.2165789209195
 30
0.0
 10
155.8398165887194
 20
108.0314539597683
 30
0.0
 10
155.8397406460595
 20
107.6682470851513
 30
0.0
 10
155.8683992714866
 20
107.4848770714438
 30
0.0
 10
155.979550364599
 20
107.1389859589506
 30
0.0
 10
156.0626174852427
 20
106.9734664316831
 30
0.0
 10
156.276303443361
 20
106.6729266942793
 30
0.0
 10
156.4053104332851
 20
106.5390547729953
 30
0.0
 10
156.7049197127742
 20
106.307808003591
 30
0.0
 10
156.8697624110354
 20
106.214557886931
 30
0.0
 10
157.0497785787848
 20
106.1435660817067
 30
0.0
  0
SPLINE
  5
C0
330
1F
100
AcDbEntity
  8
0
  6
Continuous
 62
     7
370
    15
100
AcDbSpline
210
0.0
220
0.0
230
1.0
 70
     8
 71
     3
 72
     8
 73
     4
 74
     0
 42
0.000000001
 43
0.00000001
 40
0.0
 40
0.0
 40
0.0
 40
0.0
 40
0.0011901715795577
 40
0.0011901715795577
 40
0.0011901715795577
 40
0.0011901715795577
 10
159.0045681824884
 20
87.53259692520139
 30
0.0
 10
159.155373763673
 20
87.34739352139046
 30
0.0
 10
159.3077690313456
 20
87.16251816086182
 30
0.0
 10
159.4616152208415
 20
86.97795292317822
 30
0.0
  0
SPLINE
  5
C1
330
1F
100
AcDbEntity
  8
0
  6
Continuous
 62
     7
370
    15
100
AcDbSpline
210
0.0
220
0.0
230
1.0
 70
     8
 71
     3
 72
     8
 73
     4
 74
     0
 42
0.000000001
 43
0.00000001
 40
0.0
 40
0.0
 40
0.0
 40
0.0
 40
1.0
 40
1.0
 40
1.0
 40
1.0
 10
159.0045681824884
 20
87.53259692520139
 30
0.0
 10
158.6188996038621
 20
88.22439121604556
 30
0.0
 10
158.2339133273692
 20
88.91657739036926
 30
0.0
 10
157.8497785787848
 20
89.60921881231343
 30
0.0
  0
LINE
  5
C2
330
1F
100
AcDbEntity
  8
0
  6
Continuous
 62
     7
370
    15
100
AcDbLine
 10
157.8497784575
 20
89.6092187942
 30
0.0
 11
157.8497784575
 21
105.6660395444
 31
0.0
  0
SPLINE
  5
C3
330
1F
100
AcDbEntity
  8
0
  6
Continuous
 62
     7
370
    15
100
AcDbSpline
210
0.0
220
0.0
230
1.0
 70
     8
 71
     3
 72
    12
 73
     8
 74
     0
 42
0.000000001
 43
0.00000001
 40
0.0
 40
0.0
 40
0.0
 40
0.0
 40
0.2500000000000015
 40
0.2500000000000015
 40
0.500000000000003
 40
0.500000000000003
 40
1.0
 40
1.0
 40
1.0
 40
1.0
 10
154.8297785787848
 20
90.60818741552816
 30
0.0
 10
154.7233767284274
 20
90.60818741552818
 30
0.0
 10
154.6160613170308
 20
90.58541665150966
 30
0.0
 10
154.4205897260036
 20
90.49917370485755
 30
0.0
 10
154.330407610066
 20
90.43449738438703
 30
0.0
 10
154.1121861233453
 20
90.20156806033022
 30
0.0
 10
154.0297785787845
 20
89.9869828224392
 30
0.0
 10
154.0297785787848
 20
89.77396578400648
 30
0.0
  0
SPLINE
  5
C4
330
1F
100
AcDbEntity
  8
0
  6
Continuous
 62
     7
370
    15
100
AcDbSpline
210
0.0
220
0.0
230
1.0
 70
    24
 71
     3
 72
    14
 73
    10
 74
     0
 42
0.000000001
 43
0.00000001
 40
0.0
 40
0.0
 40
0.0
 40
0.0
 40
0.1250000000000007
 40
0.1250000000000007
 40
0.2500000000000014
 40
0.2500000000000014
 40
0.499999999999999
 40
0.499999999999999
 40
1.0
 40
1.0
 40
1.0
 40
1.0
 10
154.8297785787848
 20
135.7760452718149
 30
0.0
 10
154.7691612553672
 20
135.7760452718149
 30
0.0
 10
154.7070361072322
 20
135.7760452718149
 30
0.0
 10
154.5908184442108
 20
135.7760452718149
 30
0.0
 10
154.5362018045184
 20
135.7760452718149
 30
0.0
 10
154.3815254660102
 20
135.7760452718149
 30
0.0
 10
154.2954087172262
 20
135.7760452718149
 30
0.0
 10
154.0941011366856
 20
135.7760452718149
 30
0.0
 10
154.0297785787848
 20
135.7760452718149
 30
0.0
 10
154.0297785787848
 20
135.7760452718149
 30
0.0
  0
SPLINE
  5
C5
330
1F
100
AcDbEntity
  8
0
  6
Continuous
 62
     7
370
    15
100
AcDbSpline
210
0.0
220
0.0
230
1.0
 70
    24
 71
     3
 72
    14
 73
    10
 74
     0
 42
0.000000001
 43
0.00000001
 40
0.0
 40
0.0
 40
0.0
 40
0.0
 40
0.25
 40
0.25
 40
0.5
 40
0.5
 40
0.75
 40
0.75
 40
1.0
 40
1.0
 40
1.0
 40
1.0
 10
157.8497785787848
 20
135.7760452718149
 30
0.0
 10
157.8497785787848
 20
135.7760452718149
 30
0.0
 10
157.833696977325
 20
135.7760452718149
 30
0.0
 10
157.7682054640581
 20
135.7760452718149
 30
0.0
 10
157.7188974909308
 20
135.7760452718149
 30
0.0
 10
157.5843279692338
 20
135.7760452718149
 30
0.0
 10
157.4988048931486
 20
135.7760452718149
 30
0.0
 10
157.2918093975935
 20
135.7760452718149
 30
0.0
 10
157.1711157636499
 20
135.7760452718149
 30
0.0
 10
157.0497785787849
 20
135.7760452718149
 30
0.0
  0
LINE
  5
C6
330
1F
100
AcDbEntity
  8
0
  6
Continuous
 62
     7
370
    15
100
AcDbLine
 10
157.0497788852
 20
90.6081870527
 30
0.0
 11
154.8297787448
 21
90.6081870527
 31
0.0
  0
LINE
  5
C7
330
1F
100
AcDbEntity
  8
0
  6
Continuous
 62
     7
370
    15
100
AcDbLine
 10
157.0497788852
 20
135.7760448337
 30
0.0
 11
154.8297787448
 21
135.7760448337
 31
0.0
  0
SPLINE
  5
C8
330
1F
100
AcDbEntity
  8
0
  6
Continuous
 62
     7
370
    15
100
AcDbSpline
210
0.0
220
0.0
230
1.0
 70
     8
 71
     3
 72
    12
 73
     8
 74
     0
 42
0.000000001
 43
0.00000001
 40
0.0
 40
0.0
 40
0.0
 40
0.0
 40
0.5000000000000013
 40
0.5000000000000013
 40
0.7500000000000007
 40
0.7500000000000007
 40
1.0
 40
1.0
 40
1.0
 40
1.0
 10
157.8497785787848
 20
89.77396578400784
 30
0.0
 10
157.8497785787848
 20
89.98678834294071
 30
0.0
 10
157.7678532209651
 20
90.2010448495787
 30
0.0
 10
157.5489314174967
 20
90.43473447802857
 30
0.0
 10
157.4588841260056
 20
90.49921930287255
 30
0.0
 10
157.2634706579858
 20
90.58541891402812
 30
0.0
 10
157.156187691002
 20
90.60818741552818
 30
0.0
 10
157.0497785787848
 20
90.60818741552818
 30
0.0
  0
SPLINE
  5
C9
330
1F
100
AcDbEntity
  8
0
  6
Continuous
 62
     7
370
    15
100
AcDbSpline
210
0.0
220
0.0
230
1.0
 70
    24
 71
     3
 72
    18
 73
    14
 74
     0
 42
0.000000001
 43
0.00000001
 40
0.0
 40
0.0
 40
0.0
 40
0.0
 40
0.0312499999999996
 40
0.0312499999999996
 40
0.0624999999999992
 40
0.0624999999999992
 40
0.1249999999999985
 40
0.1249999999999985
 40
0.2499999999999982
 40
0.2499999999999982
 40
0.4999999999999988
 40
0.4999999999999988
 40
1.0
 40
1.0
 40
1.0
 40
1.0
 10
164.8897785787848
 20
142.2260452718149
 30
0.0
 10
164.8529244730262
 20
142.2260452718149
 30
0.0
 10
164.8175219850662
 20
142.2260452718149
 30
0.0
 10
164.7595045914382
 20
142.2260452718149
 30
0.0
 10
164.7354305876498
 20
142.2260452718149
 30
0.0
 10
164.6704114625011
 20
142.2260452718149
 30
0.0
 10
164.6359869530889
 20
142.2260452718149
 30
0.0
 10
164.5434086561025
 20
142.2260452718149
 30
0.0
 10
164.4951989757218
 20
142.2260452718149
 30
0.0
 10
164.3628241519551
 20
142.2260452718149
 30
0.0
 10
164.2939265226246
 20
142.2260452718149
 30
0.0
 10
164.1106168457875
 20
142.2260452718149
 30
0.0
 10
164.0218580061662
 20
142.2260452718149
 30
0.0
 10
163.9627389692393
 20
142.2260452718149
 30
0.0
  0
SPLINE
  5
CA
330
1F
100
AcDbEntity
  8
0
  6
Continuous
 62
     7
370
    15
100
AcDbSpline
210
0.0
220
0.0
230
1.0
 70
     8
 71
     3
 72
    10
 73
     6
 74
     0
 42
0.000000001
 43
0.00000001
 40
0.0
 40
0.0
 40
0.0
 40
0.0
 40
0.5
 40
0.5
 40
1.0
 40
1.0
 40
1.0
 40
1.0
 10
164.8897785787848
 20
93.73643784577257
 30
0.0
 10
164.7123378268716
 20
93.74392808183778
 30
0.0
 10
164.535718663359
 20
93.69813965728531
 30
0.0
 10
164.2322674390445
 20
93.51666937751145
 30
0.0
 10
164.106244456324
 20
93.38117962467786
 30
0.0
 10
164.0217803994156
 20
93.2260452718151
 30
0.0
  0
SPLINE
  5
CB
330
1F
100
AcDbEntity
  8
0
  6
Continuous
 62
     7
370
    15
100
AcDbSpline
210
0.0
220
0.0
230
1.0
 70
     8
 71
     3
 72
     8
 73
     4
 74
     0
 42
0.000000001
 43
0.00000001
 40
0.0
 40
0.0
 40
0.0
 40
0.0
 40
1.0
 40
1.0
 40
1.0
 40
1.0
 10
163.8897785787848
 20
135.8455322353543
 30
0.0
 10
163.8897785787848
 20
135.8223933957675
 30
0.0
 10
163.8901814102034
 20
135.7992311061552
 30
0.0
 10
163.8909886995937
 20
135.776045271815
 30
0.0
  0
SPLINE
  5
CC
330
1F
100
AcDbEntity
  8
0
  6
Continuous
 62
     7
370
    15
100
AcDbSpline
210
0.0
220
0.0
230
1.0
 70
     8
 71
     3
 72
    14
 73
    10
 74
     0
 42
0.000000001
 43
0.00000001
 40
0.0
 40
0.0
 40
0.0
 40
0.0
 40
0.0632946074895864
 40
0.2483034408601601
 40
0.4246496233424851
 40
0.6058174355269424
 40
0.7878172561839285
 40
0.9747088455670364
 40
1.0
 40
1.0
 40
1.0
 40
1.0
 10
171.9157826518086
 20
92.43375811284884
 30
0.0
 10
171.9222269073701
 20
92.43168698672682
 30
0.0
 10
171.9475075891399
 20
92.42356200163012
 30
0.0
 10
171.7700751558981
 20
92.48069194666506
 30
0.0
 10
171.3907736639401
 20
92.59869933935768
 30
0.0
 10
170.8090681943971
 20
92.7697609797802
 30
0.0
 10
170.0396305345404
 20
92.97615213167172
 30
0.0
 10
169.3720679567649
 20
93.13391575647019
 30
0.0
 10
168.9805070756567
 20
93.21623352410693
 30
0.0
 10
168.9338349168567
 20
93.22604540294512
 30
0.0
  0
SPLINE
  5
CD
330
1F
100
AcDbEntity
  8
0
  6
Continuous
 62
     7
370
    15
100
AcDbSpline
210
0.0
220
0.0
230
1.0
 70
     8
 71
     3
 72
    12
 73
     8
 74
     0
 42
0.000000001
 43
0.00000001
 40
0.0
 40
0.0
 40
0.0
 40
0.0
 40
0.4999999999999991
 40
0.4999999999999991
 40
0.7499999999999996
 40
0.7499999999999996
 40
1.0
 40
1.0
 40
1.0
 40
1.0
 10
168.9338344864845
 20
93.2260452718149
 30
0.0
 10
168.3569518339235
 20
93.34628611279422
 30
0.0
 10
167.7280709377096
 20
93.4579037962985
 30
0.0
 10
166.7037500424868
 20
93.59326553910272
 30
0.0
 10
166.3485221397222
 20
93.63288181722996
 30
0.0
 10
165.6293507804016
 20
93.69641571881125
 30
0.0
 10
165.2630523892271
 20
93.72068098649966
 30
0.0
 10
164.8897785787848
 20
93.73643784577257
 30
0.0
  0
LINE
  5
CE
330
1F
100
AcDbEntity
  8
0
  6
Continuous
 62
     7
370
    15
100
AcDbLine
 10
171.2953504538
 20
142.2260459841
 30
0.0
 11
164.8897789781
 21
142.2260459841
 31
0.0
  0
SPLINE
  5
CF
330
1F
100
AcDbEntity
  8
0
  6
Continuous
 62
     7
370
    15
100
AcDbSpline
210
0.0
220
0.0
230
1.0
 70
     8
 71
     3
 72
    10
 73
     6
 74
     0
 42
0.000000001
 43
0.00000001
 40
0.0
 40
0.0
 40
0.0
 40
0.0
 40
0.2002212969593108
 40
0.6082979763038335
 40
1.0
 40
1.0
 40
1.0
 40
1.0
 10
171.9140168642072
 20
142.4177624613653
 30
0.0
 10
171.9185922194625
 20
142.4192478400522
 30
0.0
 10
171.9324927354662
 20
142.4237606109862
 30
0.0
 10
171.738927054219
 20
142.3609340430586
 30
0.0
 10
171.4411772792939
 20
142.270390743082
 30
0.0
 10
171.295350453761
 20
142.2260459840904
 30
0.0
  0
LINE
  5
D0
330
1F
100
AcDbEntity
  8
0
  6
Continuous
 62
     7
370
    15
100
AcDbLine
 10
144.8397785788
 20
95.2010453076
 30
0.0
 11
144.8397785788
 21
139.6510452361
 31
0.0
  0
SPLINE
  5
D1
330
1F
100
AcDbEntity
  8
0
  6
Continuous
 62
     7
370
    15
100
AcDbSpline
210
0.0
220
0.0
230
1.0
 70
     8
 71
     3
 72
     8
 73
     4
 74
     0
 42
0.000000001
 43
0.00000001
 40
0.0
 40
0.0
 40
0.0
 40
0.0
 40
1.0
 40
1.0
 40
1.0
 40
1.0
 10
158.9037332650808
 20
147.1385834280794
 30
0.0
 10
158.5517892421726
 20
146.5070220400656
 30
0.0
 10
158.2004308191124
 20
145.8751401403667
 30
0.0
 10
157.8497785787848
 20
145.2428717313164
 30
0.0
  0
SPLINE
  5
D2
330
1F
100
AcDbEntity
  8
0
  6
Continuous
 62
     7
370
    15
100
AcDbSpline
210
0.0
220
0.0
230
1.0
 70
     8
 71
     3
 72
     8
 73
     4
 74
     0
 42
0.000000001
 43
0.00000001
 40
0.0
 40
0.0
 40
0.0
 40
0.0
 40
0.0012409313617635
 40
0.0012409313617635
 40
0.0012409313617635
 40
0.0012409313617635
 10
159.4616152208415
 20
147.9223813510305
 30
0.0
 10
159.2749422926093
 20
147.6613694733319
 30
0.0
 10
159.0889571046368
 20
147.4001109715565
 30
0.0
 10
158.9037332650808
 20
147.1385834280794
 30
0.0
  0
LINE
  5
D3
330
1F
100
AcDbEntity
  8
0
  6
Continuous
 62
     7
370
    15
100
AcDbLine
 10
159.4616156434
 20
143.3362756253
 30
0.0
 11
159.4616156434
 21
147.9223817915
 31
0.0
  0
SPLINE
  5
D4
330
1F
100
AcDbEntity
  8
0
  6
Continuous
 62
     7
370
    15
100
AcDbSpline
210
0.0
220
0.0
230
1.0
 70
     8
 71
     3
 72
     8
 73
     4
 74
     0
 42
0.000000001
 43
0.00000001
 40
0.0
 40
0.0
 40
0.0
 40
0.0
 40
1.0
 40
1.0
 40
1.0
 40
1.0
 10
157.8497785787848
 20
139.8281843276734
 30
0.0
 10
158.3745696982808
 20
141.0031615153781
 30
0.0
 10
158.9130859494636
 20
142.1720606831163
 30
0.0
 10
159.4616152208415
 20
143.3362749118625
 30
0.0
  0
LINE
  5
D5
330
1F
100
AcDbEntity
  8
0
  6
Continuous
 62
     7
370
    15
100
AcDbLine
 10
157.8497784575
 20
139.8281846524
 30
0.0
 11
157.8497784575
 21
145.2428717495
 31
0.0
  0
SPLINE
  5
D6
330
1F
100
AcDbEntity
  8
0
  6
Continuous
 62
     7
370
    15
100
AcDbSpline
210
0.0
220
0.0
230
1.0
 70
     8
 71
     3
 72
    12
 73
     8
 74
     0
 42
0.000000001
 43
0.00000001
 40
0.0
 40
0.0
 40
0.0
 40
0.0
 40
0.5000000000000003
 40
0.5000000000000003
 40
0.7500000000000001
 40
0.7500000000000001
 40
1.0
 40
1.0
 40
1.0
 40
1.0
 10
148.0397785787848
 20
142.5974576278985
 30
0.0
 10
148.0397785787848
 20
142.7740740244203
 30
0.0
 10
148.0891192136067
 20
142.949131195794
 30
0.0
 10
148.2453347718948
 20
143.1630814082866
 30
0.0
 10
148.3106373517955
 20
143.2244140511336
 30
0.0
 10
148.4644063697558
 20
143.3118021491048
 30
0.0
 10
148.5514194763663
 20
143.3362749118625
 30
0.0
 10
148.6397785787848
 20
143.3362749118625
 30
0.0
  0
LINE
  5
D7
330
1F
100
AcDbEntity
  8
0
  6
Continuous
 62
     7
370
    15
100
AcDbLine
 10
148.6397786429
 20
143.3362756253
 30
0.0
 11
152.4179419865
 21
143.3362756253
 31
0.0
  0
SPLINE
  5
D8
330
1F
100
AcDbEntity
  8
0
  6
Continuous
 62
     7
370
    15
100
AcDbSpline
210
0.0
220
0.0
230
1.0
 70
     8
 71
     3
 72
     8
 73
     4
 74
     0
 42
0.000000001
 43
0.00000001
 40
0.0
 40
0.0
 40
0.0
 40
0.0
 40
1.0
 40
1.0
 40
1.0
 40
1.0
 10
152.4179419367281
 20
143.3362749118625
 30
0.0
 10
152.966886714925
 20
142.1711787995488
 30
0.0
 10
153.5054970894417
 20
141.0020204827243
 30
0.0
 10
154.0297785787848
 20
139.8281843276734
 30
0.0
  0
SPLINE
  5
D9
330
1F
100
AcDbEntity
  8
0
  6
Continuous
 62
     7
370
    15
100
AcDbSpline
210
0.0
220
0.0
230
1.0
 70
     8
 71
     3
 72
    14
 73
    10
 74
     0
 42
0.000000001
 43
0.00000001
 40
0.0
 40
0.0
 40
0.0
 40
0.0
 40
0.25
 40
0.25
 40
0.5
 40
0.5
 40
0.75
 40
0.75
 40
1.0
 40
1.0
 40
1.0
 40
1.0
 10
154.0297785787848
 20
139.6232860913402
 30
0.0
 10
154.0297785787848
 20
139.5013507561586
 30
0.0
 10
154.0458229463248
 20
139.3817965156572
 30
0.0
 10
154.1115522885041
 20
139.147680532514
 30
0.0
 10
154.1607596587524
 20
139.0357479923792
 30
0.0
 10
154.2957726396513
 20
138.8333481831424
 30
0.0
 10
154.3816927082576
 20
138.7434829895794
 30
0.0
 10
154.588207510263
 20
138.6131484799692
 30
0.0
 10
154.7083462226341
 20
138.5749814152714
 30
0.0
 10
154.8297785787848
 20
138.5749814152714
 30
0.0
  0
LINE
  5
DA
330
1F
100
AcDbEntity
  8
0
  6
Continuous
 62
     7
370
    15
100
AcDbLine
 10
154.8297787448
 20
138.5749820948
 30
0.0
 11
157.0497788852
 21
138.5749820948
 31
0.0
  0
SPLINE
  5
DB
330
1F
100
AcDbEntity
  8
0
  6
Continuous
 62
     7
370
    15
100
AcDbSpline
210
0.0
220
0.0
230
1.0
 70
     8
 71
     3
 72
    12
 73
     8
 74
     0
 42
0.000000001
 43
0.00000001
 40
0.0
 40
0.0
 40
0.0
 40
0.0
 40
0.2500000000000015
 40
0.2500000000000015
 40
0.500000000000003
 40
0.500000000000003
 40
1.0
 40
1.0
 40
1.0
 40
1.0
 10
157.0497785787848
 20
138.5749814152714
 30
0.0
 10
157.1718605762731
 20
138.5749814152714
 30
0.0
 10
157.2924511187588
 20
138.6137077714451
 30
0.0
 10
157.4979464024586
 20
138.7436713591914
 30
0.0
 10
157.5834628854111
 20
138.8328775957381
 30
0.0
 10
157.7868572369553
 20
139.1377541332837
 30
0.0
 10
157.8497785787848
 20
139.3805247473858
 30
0.0
 10
157.8497785787848
 20
139.6232860913402
 30
0.0
  0
LINE
  5
DC
330
1F
100
AcDbEntity
  8
0
  6
Continuous
 62
     7
370
    15
100
AcDbLine
 10
157.8497784575
 20
139.6232862354
 30
0.0
 11
157.8497784575
 21
139.8281846524
 31
0.0
  0
LINE
  5
DD
330
1F
100
AcDbEntity
  8
0
  6
Continuous
 62
     7
370
    15
100
AcDbLine
 10
159.4616156434
 20
143.3362756253
 30
0.0
 11
163.2897779708
 21
143.3362756253
 31
0.0
  0
SPLINE
  5
DE
330
1F
100
AcDbEntity
  8
0
  6
Continuous
 62
     7
370
    15
100
AcDbSpline
210
0.0
220
0.0
230
1.0
 70
     8
 71
     3
 72
    14
 73
    10
 74
     0
 42
0.000000001
 43
0.00000001
 40
0.0
 40
0.0
 40
0.0
 40
0.0
 40
0.25
 40
0.25
 40
0.5
 40
0.5
 40
0.75
 40
0.75
 40
1.0
 40
1.0
 40
1.0
 40
1.0
 10
163.2897785787848
 20
143.3362749118625
 30
0.0
 10
163.3782011169073
 20
143.3362749118625
 30
0.0
 10
163.4662551066004
 20
143.3112025614031
 30
0.0
 10
163.6180848704717
 20
143.2248604964317
 30
0.0
 10
163.6839278150355
 20
143.1633172419189
 30
0.0
 10
163.787726875581
 20
143.021489495668
 30
0.0
 10
163.8261989850557
 20
142.9414409056979
 30
0.0
 10
163.8774216483303
 20
142.7724284090242
 30
0.0
 10
163.8897785787848
 20
142.6856491021546
 30
0.0
 10
163.8897785787848
 20
142.5974576278985
 30
0.0
  0
LINE
  5
DF
330
1F
100
AcDbEntity
  8
0
  6
Continuous
 62
     7
370
    15
100
AcDbLine
 10
163.8897788142
 20
142.5974574268
 30
0.0
 11
163.8897788142
 21
135.8455326737
 31
0.0
  0
LINE
  5
E0
330
1F
100
AcDbEntity
  8
0
  6
Continuous
 62
     7
370
    15
100
AcDbLine
 10
154.0297782411
 20
139.8281846524
 30
0.0
 11
154.0297782411
 21
139.6232862354
 31
0.0
  0
LINE
  5
E1
330
1F
100
AcDbEntity
  8
0
  6
Continuous
 62
     7
370
    15
100
AcDbLine
 10
148.0397784979
 20
142.5974574268
 30
0.0
 11
148.0397784979
 21
135.7760448337
 31
0.0
  0
SPLINE
  5
E2
330
1F
100
AcDbEntity
  8
0
  6
Continuous
 62
     7
370
    15
100
AcDbSpline
210
0.0
220
0.0
230
1.0
 70
     8
 71
     3
 72
    12
 73
     8
 74
     0
 42
0.000000001
 43
0.00000001
 40
0.0
 40
0.0
 40
0.0
 40
0.0
 40
0.5
 40
0.5
 40
0.75
 40
0.75
 40
1.0
 40
1.0
 40
1.0
 40
1.0
 10
157.8497785787848
 20
145.0781247596219
 30
0.0
 10
157.8497785787848
 20
144.8649873579704
 30
0.0
 10
157.7671361636368
 20
144.6500078332328
 30
0.0
 10
157.5485527528265
 20
144.417088764347
 30
0.0
 10
157.4594627998458
 20
144.3532218545265
 30
0.0
 10
157.2640574819483
 20
144.2668357001448
 30
0.0
 10
157.157533435005
 20
144.2439031281016
 30
0.0
 10
157.0497785787848
 20
144.2439031281016
 30
0.0
  0
LINE
  5
E3
330
1F
100
AcDbEntity
  8
0
  6
Continuous
 62
     7
370
    15
100
AcDbLine
 10
163.2897779708
 20
147.9223817915
 30
0.0
 11
159.4616156434
 21
147.9223817915
 31
0.0
  0
SPLINE
  5
E4
330
1F
100
AcDbEntity
  8
0
  6
Continuous
 62
     7
370
    15
100
AcDbSpline
210
0.0
220
0.0
230
1.0
 70
     8
 71
     3
 72
     8
 73
     4
 74
     0
 42
0.000000001
 43
0.00000001
 40
0.0
 40
0.0
 40
0.0
 40
0.0
 40
0.0012409313617635
 40
0.0012409313617635
 40
0.0012409313617635
 40
0.0012409313617635
 10
152.9758238924888
 20
147.1385834280794
 30
0.0
 10
152.7906000529328
 20
147.4001109715565
 30
0.0
 10
152.6046148649603
 20
147.6613694733319
 30
0.0
 10
152.4179419367281
 20
147.9223813510305
 30
0.0
  0
SPLINE
  5
E5
330
1F
100
AcDbEntity
  8
0
  6
Continuous
 62
     7
370
    15
100
AcDbSpline
210
0.0
220
0.0
230
1.0
 70
     8
 71
     3
 72
     8
 73
     4
 74
     0
 42
0.000000001
 43
0.00000001
 40
0.0
 40
0.0
 40
0.0
 40
0.0
 40
1.0
 40
1.0
 40
1.0
 40
1.0
 10
154.0297785787848
 20
145.2428717313164
 30
0.0
 10
153.6791263384573
 20
145.8751401403667
 30
0.0
 10
153.3277679153971
 20
146.5070220400656
 30
0.0
 10
152.9758238924888
 20
147.1385834280794
 30
0.0
  0
LINE
  5
E6
330
1F
100
AcDbEntity
  8
0
  6
Continuous
 62
     7
370
    15
100
AcDbLine
 10
152.4179419865
 20
143.3362756253
 30
0.0
 11
152.4179419865
 21
147.9223817915
 31
0.0
  0
LINE
  5
E7
330
1F
100
AcDbEntity
  8
0
  6
Continuous
 62
     7
370
    15
100
AcDbLine
 10
154.0297782411
 20
139.8281846524
 30
0.0
 11
154.0297782411
 21
145.2428717495
 31
0.0
  0
LINE
  5
E8
330
1F
100
AcDbEntity
  8
0
  6
Continuous
 62
     7
370
    15
100
AcDbLine
 10
157.0497788852
 20
144.243903491
 30
0.0
 11
154.8297787448
 21
144.243903491
 31
0.0
  0
SPLINE
  5
E9
330
1F
100
AcDbEntity
  8
0
  6
Continuous
 62
     7
370
    15
100
AcDbSpline
210
0.0
220
0.0
230
1.0
 70
     8
 71
     3
 72
    12
 73
     8
 74
     0
 42
0.000000001
 43
0.00000001
 40
0.0
 40
0.0
 40
0.0
 40
0.0
 40
0.4999999999999986
 40
0.4999999999999986
 40
0.7499999999999992
 40
0.7499999999999992
 40
1.0
 40
1.0
 40
1.0
 40
1.0
 10
163.8897785787848
 20
147.4365964052561
 30
0.0
 10
163.8897785787848
 20
147.5569234383092
 30
0.0
 10
163.8359837671918
 20
147.675021011791
 30
0.0
 10
163.6750601972255
 20
147.81466375423
 30
0.0
 10
163.610308736123
 20
147.8529397076245
 30
0.0
 10
163.4580885528053
 20
147.9077795372589
 30
0.0
 10
163.3752810372804
 20
147.9223813510305
 30
0.0
 10
163.2897785787848
 20
147.9223813510305
 30
0.0
  0
LINE
  5
EA
330
1F
100
AcDbEntity
  8
0
  6
Continuous
 62
     7
370
    15
100
AcDbLine
 10
163.8897788142
 20
142.5974574268
 30
0.0
 11
163.8897788142
 21
147.436596486
 31
0.0
  0
SPLINE
  5
EB
330
1F
100
AcDbEntity
  8
0
  6
Continuous
 62
     7
370
    15
100
AcDbSpline
210
0.0
220
0.0
230
1.0
 70
     8
 71
     3
 72
    10
 73
     6
 74
     0
 42
0.000000001
 43
0.00000001
 40
0.0
 40
0.0
 40
0.0
 40
0.0
 40
0.5
 40
0.5
 40
1.0
 40
1.0
 40
1.0
 40
1.0
 10
148.3270201800923
 20
147.8513418267718
 30
0.0
 10
148.2511805860889
 20
147.7812926404432
 30
0.0
 10
148.1838570683628
 20
147.6960738668695
 30
0.0
 10
148.0772134300578
 20
147.4858477402077
 30
0.0
 10
148.0397785787848
 20
147.3623385493404
 30
0.0
 10
148.0397785787848
 20
147.2324204288178
 30
0.0
  0
SPLINE
  5
EC
330
1F
100
AcDbEntity
  8
0
  6
Continuous
 62
     7
370
    15
100
AcDbSpline
210
0.0
220
0.0
230
1.0
 70
     8
 71
     3
 72
     8
 73
     4
 74
     0
 42
0.000000001
 43
0.00000001
 40
0.0
 40
0.0
 40
0.0
 40
0.0
 40
1.0
 40
1.0
 40
1.0
 40
1.0
 10
148.6397785787848
 20
147.9223813510305
 30
0.0
 10
148.5276003246051
 20
147.9223813510305
 30
0.0
 10
148.4189308118767
 20
147.8967002857695
 30
0.0
 10
148.3270201800923
 20
147.8513418267718
 30
0.0
  0
LINE
  5
ED
330
1F
100
AcDbEntity
  8
0
  6
Continuous
 62
     7
370
    15
100
AcDbLine
 10
148.0397784979
 20
142.5974574268
 30
0.0
 11
148.0397784979
 21
147.2324207754
 31
0.0
  0
SPLINE
  5
EE
330
1F
100
AcDbEntity
  8
0
  6
Continuous
 62
     7
370
    15
100
AcDbSpline
210
0.0
220
0.0
230
1.0
 70
     8
 71
     3
 72
    14
 73
    10
 74
     0
 42
0.000000001
 43
0.00000001
 40
0.0
 40
0.0
 40
0.0
 40
0.0
 40
0.25
 40
0.25
 40
0.5
 40
0.5
 40
0.75
 40
0.75
 40
1.0
 40
1.0
 40
1.0
 40
1.0
 10
154.8297785787848
 20
144.2439031281016
 30
0.0
 10
154.7224095342705
 20
144.2439031281016
 30
0.0
 10
154.6156040425076
 20
144.2668281235066
 30
0.0
 10
154.4204626739908
 20
144.3530205573808
 30
0.0
 10
154.3312529564009
 20
144.4168645540448
 30
0.0
 10
154.1853261635845
 20
144.5722806619862
 30
0.0
 10
154.1273364197864
 20
144.6649352401939
 30
0.0
 10
154.0497425782639
 20
144.8641685802434
 30
0.0
 10
154.0297785787848
 20
144.9707736752987
 30
0.0
 10
154.0297785787848
 20
145.0781247596219
 30
0.0
  0
LINE
  5
EF
330
1F
100
AcDbEntity
  8
0
  6
Continuous
 62
     7
370
    15
100
AcDbLine
 10
152.4179419865
 20
147.9223817915
 30
0.0
 11
148.6397786429
 21
147.9223817915
 31
0.0
  0
LINE
  5
F0
330
1F
100
AcDbEntity
  8
0
  6
Continuous
 62
     7
370
    15
100
AcDbLine
 10
76.5897781019
 20
106.018914874
 30
0.0
 11
76.5897781019
 21
128.8331756697
 31
0.0
  0
ARC
  5
F1
330
1F
100
AcDbEntity
  8
0
  6
Continuous
 62
     7
370
    15
100
AcDbCircle
 10
157.7512799827
 20
108.1988529697
 30
0.0
 40
1.911953068577046
100
AcDbArc
 50
181.2453372486
 51
264.1664998399
  0
ARC
  5
F2
330
1F
100
AcDbEntity
  8
0
  6
Continuous
 62
     7
370
    15
100
AcDbCircle
 10
157.8606382361
 20
108.2915363438
 30
0.0
 40
2.017719922005174
100
AcDbArc
 50
261.343566863
 51
333.1188803035
  0
ARC
  5
F3
330
1F
100
AcDbEntity
  8
0
  6
Continuous
 62
     7
370
    15
100
AcDbCircle
 10
157.7353642538
 20
108.1315417586
 30
0.0
 40
1.783499586068321
100
AcDbArc
 50
157.7189569589
 51
264.7152538747
  0
ARC
  5
F4
330
1F
100
AcDbEntity
  8
0
  6
Continuous
 62
     7
370
    15
100
AcDbCircle
 10
157.8607895853
 20
108.2451713588
 30
0.0
 40
1.91162627894188
100
AcDbArc
 50
261.2835874235
 51
335.9537038302
  0
ARC
  5
F5
330
1F
100
AcDbEntity
  8
0
  6
Continuous
 62
     7
370
    15
100
AcDbCircle
 10
157.7698333077
 20
108.1273965344
 30
0.0
 40
1.406875746905331
100
AcDbArc
 50
87.2353172717
 51
264.1999713708
  0
ARC
  5
F6
330
1F
100
AcDbEntity
  8
0
  6
Continuous
 62
     7
370
    15
100
AcDbCircle
 10
157.8649103724
 20
108.1925245269
 30
0.0
 40
1.483890682529877
100
AcDbArc
 50
260.7997960967
 51
350.0992226508
  0
CIRCLE
  5
F7
330
1F
100
AcDbEntity
  8
0
  6
HIDDEN
 62
     7
370
     0
100
AcDbCircle
 10
204.3897785788
 20
117.4260452718
 30
0.0
 40
7.012850235103767
  0
CIRCLE
  5
F8
330
1F
100
AcDbEntity
  8
0
  6
HIDDEN
 62
     7
370
     0
100
AcDbCircle
 10
204.3897785788
 20
117.4260452718
 30
0.0
 40
5.294716599621015
  0
CIRCLE
  5
F9
330
1F
100
AcDbEntity
  8
0
  6
HIDDEN
 62
     7
370
     0
100
AcDbCircle
 10
204.3897785788
 20
117.4260452718
 30
0.0
 40
4.894716599621032
  0
CIRCLE
  5
FA
330
1F
100
AcDbEntity
  8
0
  6
HIDDEN
 62
     7
370
     0
100
AcDbCircle
 10
204.3897785788
 20
117.4260452718
 30
0.0
 40
7.25
  0
LINE
  5
FB
330
1F
100
AcDbEntity
  8
0
  6
HIDDEN
 62
     7
370
     0
100
AcDbLine
 10
223.1897786622
 20
141.420342061
 30
0.0
 11
223.1897786622
 21
146.3176645667
 31
0.0
  0
SPLINE
  5
FC
330
1F
100
AcDbEntity
  8
0
  6
HIDDEN
 62
     7
370
     0
100
AcDbSpline
210
0.0
220
0.0
230
1.0
 70
     8
 71
     3
 72
    16
 73
    12
 74
     0
 42
0.000000001
 43
0.00000001
 40
0.0
 40
0.0
 40
0.0
 40
0.0
 40
0.2499999999999999
 40
0.2499999999999999
 40
0.4999999999999998
 40
0.4999999999999998
 40
0.6249999999999998
 40
0.6249999999999998
 40
0.7499999999999997
 40
0.7499999999999997
 40
1.0
 40
1.0
 40
1.0
 40
1.0
 10
223.1897785787848
 20
137.3440888836848
 30
0.0
 10
223.3252831254772
 20
137.8924462499773
 30
0.0
 10
223.4290909021574
 20
138.414591725761
 30
0.0
 10
223.5726907115929
 20
139.3965456164157
 30
0.0
 10
223.6087130927477
 20
139.8308344277836
 30
0.0
 10
223.608613886712
 20
140.388574836658
 30
0.0
 10
223.5994115561504
 20
140.5536079049021
 30
0.0
 10
223.5633498251663
 20
140.8436992802594
 30
0.0
 10
223.5362383521193
 20
140.9694289035409
 30
0.0
 10
223.4286210702089
 20
141.2797425385903
 30
0.0
 10
223.3252713194279
 20
141.3940570200676
 30
0.0
 10
223.1897785787848
 20
141.4203429581102
 30
0.0
  0
LINE
  5
FD
330
1F
100
AcDbEntity
  8
0
  6
HIDDEN
 62
     7
370
     0
100
AcDbLine
 10
223.1897786622
 20
97.5080021054
 30
0.0
 11
223.1897786622
 21
137.3440884382
 31
0.0
  0
SPLINE
  5
FE
330
1F
100
AcDbEntity
  8
0
  6
HIDDEN
 62
     7
370
     0
100
AcDbSpline
210
0.0
220
0.0
230
1.0
 70
     8
 71
     3
 72
    16
 73
    12
 74
     0
 42
0.000000001
 43
0.00000001
 40
0.0
 40
0.0
 40
0.0
 40
0.0
 40
0.2499999999999986
 40
0.2499999999999986
 40
0.4999999999999972
 40
0.4999999999999972
 40
0.6249999999999977
 40
0.6249999999999977
 40
0.749999999999998
 40
0.749999999999998
 40
1.0
 40
1.0
 40
1.0
 40
1.0
 10
223.1897785787848
 20
93.43174758551956
 30
0.0
 10
223.3252831254772
 20
93.45803581396595
 30
0.0
 10
223.4290909021574
 20
93.57278097227474
 30
0.0
 10
223.5726907115929
 20
93.98870029353665
 30
0.0
 10
223.6087130927477
 20
94.27933555119937
 30
0.0
 10
223.6086138867119
 20
94.83747006258105
 30
0.0
 10
223.5994115561504
 20
95.03909428604112
 30
0.0
 10
223.5633498251663
 20
95.47216207014205
 30
0.0
 10
223.5362383521193
 20
95.70527501902498
 30
0.0
 10
223.4286210702089
 20
96.4397729366914
 30
0.0
 10
223.3252713194279
 20
96.9596920701607
 30
0.0
 10
223.1897785787848
 20
97.50800165994497
 30
0.0
  0
LINE
  5
FF
330
1F
100
AcDbEntity
  8
0
  6
HIDDEN
 62
     7
370
     0
100
AcDbLine
 10
223.1897786622
 20
88.5344259769
 30
0.0
 11
223.1897786622
 21
93.4317484826
 31
0.0
  0
SPLINE
  5
100
330
1F
100
AcDbEntity
  8
0
  6
HIDDEN
 62
     7
370
     0
100
AcDbSpline
210
0.0
220
0.0
230
1.0
 70
     8
 71
     3
 72
    10
 73
     6
 74
     0
 42
0.000000001
 43
0.00000001
 40
0.0
 40
0.0
 40
0.0
 40
0.0
 40
0.5
 40
0.5
 40
1.0
 40
1.0
 40
1.0
 40
1.0
 10
155.8638878161444
 20
109.6795061023463
 30
0.0
 10
155.8482817651632
 20
109.5742339017377
 30
0.0
 10
155.8397773021346
 20
109.4702954039468
 30
0.0
 10
155.8397798557243
 20
109.2707821319907
 30
0.0
 10
155.8482774433248
 20
109.1795696373202
 30
0.0
 10
155.8638878161444
 20
109.0976377049771
 30
0.0
  0
LWPOLYLINE
  5
101
330
1F
100
AcDbEntity
  8
0
  6
HIDDEN
 62
     7
370
     0
100
AcDbPolyline
 90
       20
 70
   128
 43
0.0
 10
155.8638876667
 20
109.097637269
 10
156.0564255705
 20
108.5378248573
 10
156.4237224301
 20
108.0613797859
 10
156.9297844907
 20
107.7149929807
 10
157.5250206878
 20
107.5326074243
 10
158.1511022886
 20
107.5320951969
 10
158.7466746931
 20
107.7135084525
 10
159.2533775037
 20
108.0590682433
 10
159.6215544631
 20
108.5349126116
 10
159.8151279976
 20
109.0944102362
 10
159.8151279976
 20
109.6827336915
 10
159.6215544631
 20
110.2422317818
 10
159.2533775037
 20
110.7180756845
 10
158.7466746931
 20
111.0636354752
 10
158.1511022886
 20
111.2450482652
 10
157.5250206878
 20
111.2445369691
 10
156.9297844907
 20
111.0621509471
 10
156.4237224301
 20
110.7157636762
 10
156.0564255705
 20
110.2393190705
 10
155.8638876667
 20
109.6795061932
  0
LWPOLYLINE
  5
102
330
1F
100
AcDbEntity
  8
0
  6
HIDDEN
 62
     7
370
     0
100
AcDbPolyline
 90
       22
 70
   128
 43
0.0
 10
148.289990182
 20
108.5278606371
 10
148.4427126487
 20
107.920902814
 10
148.6844295067
 20
107.3678750873
 10
148.9936635261
 20
106.9179177613
 10
149.3429374312
 20
106.6110106514
 10
149.70121676
 20
106.4744238139
 10
150.0366670442
 20
106.5202942446
 10
150.3194817705
 20
106.7445455447
 10
150.524531993
 20
107.127252999
 10
150.6335977828
 20
107.6344093636
 10
150.6369882626
 20
108.2209535272
 10
150.5344026153
 20
108.834767747
 10
150.3349552294
 20
109.4213119105
 10
150.056368242
 20
109.9284687408
 10
149.7233952758
 20
110.3111757294
 10
149.3656225865
 20
110.5354270295
 10
149.0148399388
 20
110.5812974603
 10
148.7022154396
 20
110.4447110884
 10
148.4555276473
 20
110.1378039785
 10
148.2966957045
 20
109.6878466525
 10
148.2398321749
 20
109.1348193914
 10
148.289990182
 20
108.5278606371
  0
LWPOLYLINE
  5
103
330
1F
100
AcDbEntity
  8
0
  6
HIDDEN
 62
     7
370
     0
100
AcDbPolyline
 90
       19
 70
   128
 43
0.0
 10
148.671506009
 20
108.5599912659
 10
148.8186857094
 20
108.0066236064
 10
149.0575042916
 20
107.5200001106
 10
149.3591573452
 20
107.1588155211
 10
149.6872613569
 20
106.9666324512
 10
150.0022411709
 20
106.9666324512
 10
150.2661067424
 20
107.1588155211
 10
150.4470310537
 20
107.5200001106
 10
150.5231922855
 20
108.0066236064
 10
150.4854043377
 20
108.5599912659
 10
150.3382251029
 20
109.1133589253
 10
150.0994060551
 20
109.5999824212
 10
149.7977530015
 20
109.9611674764
 10
149.4696489898
 20
110.1533500806
 10
149.1546691758
 20
110.1533500806
 10
148.8908036043
 20
109.9611674764
 10
148.7098795259
 20
109.5999824212
 10
148.633718294
 20
109.1133589253
 10
148.671506009
 20
108.5599912659
  0
ELLIPSE
  5
104
330
1F
100
AcDbEntity
  8
0
  6
HIDDEN
 62
     7
370
     0
100
AcDbEllipse
 10
157.8397785788
 20
110.5384552113
 30
0.0
 11
1.383467579512143
 21
-1.091267719176585
 31
0.0
210
0.0
220
0.0
230
1.0
 40
0.8239737799
 41
2.14713194275741
 42
5.288724596347217
  0
ELLIPSE
  5
105
330
1F
100
AcDbEntity
  8
0
  6
HIDDEN
 62
     7
370
     0
100
AcDbEllipse
 10
157.8397785788
 20
110.5384552113
 30
0.0
 11
1.383467579512143
 21
1.753907414218503
 31
0.0
210
0.0
220
0.0
230
1.0
 40
0.5126701559
 41
0.9944607108323779
 42
4.136053364422184
  0
SPLINE
  5
106
330
1F
100
AcDbEntity
  8
0
  6
HIDDEN
 62
     7
370
     0
100
AcDbSpline
210
0.0
220
0.0
230
1.0
 70
     8
 71
     3
 72
    14
 73
    10
 74
     0
 42
0.000000001
 43
0.00000001
 40
0.0
 40
0.0
 40
0.0
 40
0.0
 40
0.25
 40
0.25
 40
0.5
 40
0.5
 40
0.75
 40
0.75
 40
1.0
 40
1.0
 40
1.0
 40
1.0
 10
155.8638878161444
 20
109.0976377049771
 30
0.0
 10
155.9002516441747
 20
109.1431323403789
 30
0.0
 10
155.9327293713848
 20
109.1915241465952
 30
0.0
 10
155.9814830008006
 20
109.2970092905248
 30
0.0
 10
155.9963867784751
 20
109.3535937987677
 30
0.0
 10
155.9963972121327
 20
109.4624813927181
 30
0.0
 10
155.9815069163246
 20
109.5146660584807
 30
0.0
 10
155.932617985447
 20
109.6059434574243
 30
0.0
 10
155.9002458071766
 20
109.6446101627985
 30
0.0
 10
155.8638878161444
 20
109.6795061023462
 30
0.0
  0
LINE
  5
107
330
1F
100
AcDbEntity
  8
0
  6
HIDDEN
 62
     7
370
     0
100
AcDbLine
 10
218.8897803788
 20
106.4278632731
 30
0.0
 11
218.8897803788
 21
128.4242272705
 31
0.0
  0
LWPOLYLINE
  5
108
330
1F
100
AcDbEntity
  8
0
  6
HIDDEN
 62
     7
370
     0
100
AcDbPolyline
 90
       19
 70
   128
 43
0.0
 10
157.839778847
 20
107.8816484988
 10
158.4041118984
 20
107.975155148
 10
158.9003783082
 20
108.2443949164
 10
159.2687201118
 20
108.6568953798
 10
159.4647113596
 20
109.162901561
 10
159.4647113596
 20
109.7013820291
 10
159.2687201118
 20
110.2073882104
 10
158.9003783082
 20
110.6198882081
 10
158.4041118984
 20
110.8891284422
 10
157.839778847
 20
110.9826346256
 10
157.2754457956
 20
110.8891284422
 10
156.7791793858
 20
110.6198882081
 10
156.4108366509
 20
110.2073882104
 10
156.214845403
 20
109.7013820291
 10
156.214845403
 20
109.162901561
 10
156.4108366509
 20
108.6568953798
 10
156.7791793858
 20
108.2443949164
 10
157.2754457956
 20
107.975155148
 10
157.839778847
 20
107.8816484988
  0
SPLINE
  5
109
330
1F
100
AcDbEntity
  8
0
  6
HIDDEN
 62
     7
370
     0
100
AcDbSpline
210
0.0
220
0.0
230
1.0
 70
    11
 71
     3
 72
    60
 73
    56
 74
     0
 42
0.000000001
 43
0.00000001
 40
0.0
 40
0.0
 40
0.0
 40
0.0
 40
0.0312500000000002
 40
0.0312500000000002
 40
0.0625000000000004
 40
0.0625000000000004
 40
0.1250000000000003
 40
0.1250000000000003
 40
0.1875000000000002
 40
0.1875000000000002
 40
0.2187500000000001
 40
0.2187500000000001
 40
0.2499999999999999
 40
0.2499999999999999
 40
0.2812499999999997
 40
0.2812499999999997
 40
0.3124999999999996
 40
0.3124999999999996
 40
0.3437499999999994
 40
0.3437499999999994
 40
0.3749999999999993
 40
0.3749999999999993
 40
0.4062499999999991
 40
0.4062499999999991
 40
0.4374999999999989
 40
0.4374999999999989
 40
0.4999999999999987
 40
0.4999999999999987
 40
0.5312499999999988
 40
0.5312499999999988
 40
0.5624999999999988
 40
0.5624999999999988
 40
0.5937499999999989
 40
0.5937499999999989
 40
0.6249999999999989
 40
0.6249999999999989
 40
0.656249999999999
 40
0.656249999999999
 40
0.6874999999999991
 40
0.6874999999999991
 40
0.7187499999999991
 40
0.7187499999999991
 40
0.7499999999999992
 40
0.7499999999999992
 40
0.8124999999999994
 40
0.8124999999999994
 40
0.8437499999999997
 40
0.8437499999999997
 40
0.8749999999999998
 40
0.8749999999999998
 40
0.90625
 40
0.90625
 40
0.9375000000000002
 40
0.9375000000000002
 40
1.0
 40
1.0
 40
1.0
 40
1.0
 10
157.8397785787848
 20
114.5359856812547
 30
0.0
 10
157.7295856678145
 20
114.5359856812547
 30
0.0
 10
157.6214764645271
 20
114.5446609503454
 30
0.0
 10
157.4091713100407
 20
114.5786772478888
 30
0.0
 10
157.3038626465817
 20
114.6044812929858
 30
0.0
 10
157.0050646859731
 20
114.7052988450984
 30
0.0
 10
156.8236424815871
 20
114.8051348619042
 30
0.0
 10
156.5224365809302
 20
115.0587707770236
 30
0.0
 10
156.399882102138
 20
115.2154795794164
 30
0.0
 10
156.2757486515188
 20
115.4795226537429
 30
0.0
 10
156.2434455346828
 20
115.5741454123919
 30
0.0
 10
156.2005958728509
 20
115.7692332086403
 30
0.0
 10
156.1898507053384
 20
115.8691240323599
 30
0.0
 10
156.1897071689854
 20
116.0737515671396
 30
0.0
 10
156.2006902900217
 20
116.1790456054871
 30
0.0
 10
156.243361949549
 20
116.3844490422161
 30
0.0
 10
156.2749248436564
 20
116.4857900295653
 30
0.0
 10
156.3588899391441
 20
116.6853877108834
 30
0.0
 10
156.4099244921448
 20
116.7803992609072
 30
0.0
 10
156.5291578229236
 20
116.9608841718525
 30
0.0
 10
156.5982168802581
 20
117.0471435800217
 30
0.0
 10
156.7495154041125
 20
117.2038835181616
 30
0.0
 10
156.8317481088675
 20
117.2747738783546
 30
0.0
 10
157.0098606260156
 20
117.4009267430107
 30
0.0
 10
157.1059955102199
 20
117.4559723411284
 30
0.0
 10
157.4032421953388
 20
117.588637114686
 30
0.0
 10
157.6222999361178
 20
117.6368986304548
 30
0.0
 10
157.9477536110057
 20
117.6370075516508
 30
0.0
 10
158.0575902121987
 20
117.6252438266909
 30
0.0
 10
158.2715225091811
 20
117.5788377644625
 30
0.0
 10
158.3747621701246
 20
117.5446987215516
 30
0.0
 10
158.5741912266871
 20
117.455691571518
 30
0.0
 10
158.6702837339606
 20
117.4005397008023
 30
0.0
 10
158.8478277835266
 20
117.2747316509619
 30
0.0
 10
158.9305243506398
 20
117.2035202551253
 30
0.0
 10
159.0829989090049
 20
117.0452866731133
 30
0.0
 10
159.1506758300467
 20
116.9604953904513
 30
0.0
 10
159.2696534943154
 20
116.7803379045558
 30
0.0
 10
159.3213977775156
 20
116.6837914461955
 30
0.0
 10
159.4045744841718
 20
116.4857859759352
 30
0.0
 10
159.4360855211208
 20
116.3848527199197
 30
0.0
 10
159.4788211285726
 20
116.1793896310824
 30
0.0
 10
159.4898268329927
 20
116.0739772404857
 30
0.0
 10
159.4896815799892
 20
115.7673540987453
 30
0.0
 10
159.4453286914049
 20
115.5677096260914
 30
0.0
 10
159.3207434831233
 20
115.30290113392
 30
0.0
 10
159.2689596694572
 20
115.2188009618065
 30
0.0
 10
159.149001991127
 20
115.064715389163
 30
0.0
 10
159.0811509291313
 20
114.9946690509865
 30
0.0
 10
158.9296251903761
 20
114.8673361990239
 30
0.0
 10
158.8456559171132
 20
114.8101722042686
 30
0.0
 10
158.6681646487742
 20
114.7124916270514
 30
0.0
 10
158.57388311382
 20
114.6712436185761
 30
0.0
 10
158.2729980065906
 20
114.5700503716437
 30
0.0
 10
158.0601644007255
 20
114.5359856812547
 30
0.0
 10
157.8397785787848
 20
114.5359856812547
 30
0.0
  0
ELLIPSE
  5
10A
330
1F
100
AcDbEntity
  8
0
  6
HIDDEN
 62
     7
370
     0
100
AcDbEllipse
 10
157.8397785788
 20
110.5384552113
 30
0.0
 11
1.383467579512143
 21
-1.091267719176585
 31
0.0
210
0.0
220
0.0
230
1.0
 40
0.8239737799
 41
5.288724596347221
 42
5.331125843614134
  0
SPLINE
  5
10B
330
1F
100
AcDbEntity
  8
0
  6
HIDDEN
 62
     7
370
     0
100
AcDbSpline
210
0.0
220
0.0
230
1.0
 70
     8
 71
     3
 72
     8
 73
     4
 74
     0
 42
0.000000001
 43
0.00000001
 40
0.0
 40
0.0
 40
0.0
 40
0.0
 40
1.0
 40
1.0
 40
1.0
 40
1.0
 10
157.9097196749275
 20
108.976903345451
 30
0.0
 10
157.8927349488335
 20
108.9840190554976
 30
0.0
 10
157.8757308043006
 20
108.9918941850155
 30
0.0
 10
157.8587319202294
 20
109.0005173044652
 30
0.0
  0
ELLIPSE
  5
10C
330
1F
100
AcDbEntity
  8
0
  6
HIDDEN
 62
     7
370
     0
100
AcDbEllipse
 10
157.8397785788
 20
110.5384552113
 30
0.0
 11
1.383467579512143
 21
1.753907414218503
 31
0.0
210
0.0
220
0.0
230
1.0
 40
0.5126701559
 41
4.136053364422188
 42
4.147540490641942
  0
ELLIPSE
  5
10D
330
1F
100
AcDbEntity
  8
0
  6
HIDDEN
 62
     7
370
     0
100
AcDbEllipse
 10
157.8397785788
 20
110.5384552113
 30
0.0
 11
1.383467579512143
 21
1.753907414218503
 31
0.0
210
0.0
220
0.0
230
1.0
 40
0.5126701559
 41
0.982973584612574
 42
0.9944607108323814
  0
SPLINE
  5
10E
330
1F
100
AcDbEntity
  8
0
  6
HIDDEN
 62
     7
370
     0
100
AcDbSpline
210
0.0
220
0.0
230
1.0
 70
     8
 71
     3
 72
     8
 73
     4
 74
     0
 42
0.000000001
 43
0.00000001
 40
0.0
 40
0.0
 40
0.0
 40
0.0
 40
1.0
 40
1.0
 40
1.0
 40
1.0
 10
157.8587319202292
 20
112.1012983614721
 30
0.0
 10
157.8757308043005
 20
112.0933150879622
 30
0.0
 10
157.8927349488335
 20
112.0845786855186
 30
0.0
 10
157.9097196749277
 20
112.0751018336859
 30
0.0
  0
ELLIPSE
  5
10F
330
1F
100
AcDbEntity
  8
0
  6
HIDDEN
 62
     7
370
     0
100
AcDbEllipse
 10
157.8397785788
 20
110.5384552113
 30
0.0
 11
1.383467579512143
 21
-1.091267719176585
 31
0.0
210
0.0
220
0.0
230
1.0
 40
0.8239737799
 41
2.104730695490762
 42
2.147131942757414
  0
LINE
  5
110
330
1F
100
AcDbEntity
  8
0
  6
HIDDEN
 62
     7
370
     0
100
AcDbLine
 10
218.8897803788
 20
128.4242272705
 30
0.0
 11
223.1897786622
 21
128.4242272705
 31
0.0
  0
LINE
  5
111
330
1F
100
AcDbEntity
  8
0
  6
HIDDEN
 62
     7
370
     0
100
AcDbLine
 10
218.8897803788
 20
136.2260450006
 30
0.0
 11
218.8897803788
 21
128.4242272705
 31
0.0
  0
LINE
  5
112
330
1F
100
AcDbEntity
  8
0
  6
HIDDEN
 62
     7
370
     0
100
AcDbLine
 10
223.1897786622
 20
141.420342061
 30
0.0
 11
223.1897786622
 21
141.2943117649
 31
0.0
  0
LINE
  5
113
330
1F
100
AcDbEntity
  8
0
  6
HIDDEN
 62
     7
370
     0
100
AcDbLine
 10
218.8897803788
 20
141.2943117649
 30
0.0
 11
223.1897786622
 21
141.2943117649
 31
0.0
  0
LINE
  5
114
330
1F
100
AcDbEntity
  8
0
  6
HIDDEN
 62
     7
370
     0
100
AcDbLine
 10
218.8897803788
 20
141.4260454804
 30
0.0
 11
218.8897803788
 21
136.2260450006
 31
0.0
  0
LINE
  5
115
330
1F
100
AcDbEntity
  8
0
  6
HIDDEN
 62
     7
370
     0
100
AcDbLine
 10
223.1897786622
 20
106.4278632731
 30
0.0
 11
218.8897803788
 21
106.4278632731
 31
0.0
  0
LINE
  5
116
330
1F
100
AcDbEntity
  8
0
  6
HIDDEN
 62
     7
370
     0
100
AcDbLine
 10
218.8897803788
 20
106.4278632731
 30
0.0
 11
218.8897803788
 21
98.626045543
 31
0.0
  0
LINE
  5
117
330
1F
100
AcDbEntity
  8
0
  6
HIDDEN
 62
     7
370
     0
100
AcDbLine
 10
218.8897803788
 20
93.5577787787
 30
0.0
 11
223.1897786622
 21
93.5577787787
 31
0.0
  0
LINE
  5
118
330
1F
100
AcDbEntity
  8
0
  6
HIDDEN
 62
     7
370
     0
100
AcDbLine
 10
223.1897786622
 20
93.5577787787
 30
0.0
 11
223.1897786622
 21
93.4317484826
 31
0.0
  0
LINE
  5
119
330
1F
100
AcDbEntity
  8
0
  6
HIDDEN
 62
     7
370
     0
100
AcDbLine
 10
218.8897803788
 20
98.626045543
 30
0.0
 11
218.8897803788
 21
93.4260450632
 31
0.0
  0
LINE
  5
11A
330
1F
100
AcDbEntity
  8
0
  6
HIDDEN
 62
     7
370
     0
100
AcDbLine
 10
217.389777339
 20
97.4260457188
 30
0.0
 11
217.389777339
 21
137.4260448248
 31
0.0
  0
LINE
  5
11B
330
1F
100
AcDbEntity
  8
0
  6
HIDDEN
 62
     7
370
     0
100
AcDbLine
 10
182.9397790497
 20
97.7260452092
 30
0.0
 11
182.9397790497
 21
137.1260453344
 31
0.0
  0
LINE
  5
11C
330
1F
100
AcDbEntity
  8
0
  6
HIDDEN
 62
     7
370
     0
100
AcDbLine
 10
185.4397803908
 20
97.4260457188
 30
0.0
 11
185.4397803908
 21
137.4260448248
 31
0.0
  0
LINE
  5
11D
330
1F
100
AcDbEntity
  8
0
  6
HIDDEN
 62
     7
370
     0
100
AcDbLine
 10
218.8897803788
 20
145.4510446966
 30
0.0
 11
218.8897803788
 21
141.4260454804
 31
0.0
  0
LINE
  5
11E
330
1F
100
AcDbEntity
  8
0
  6
HIDDEN
 62
     7
370
     0
100
AcDbLine
 10
218.8897803788
 20
93.4260450632
 30
0.0
 11
218.8897803788
 21
89.401045847
 31
0.0
  0
LINE
  5
11F
330
1F
100
AcDbEntity
  8
0
  6
HIDDEN
 62
     7
370
     0
100
AcDbLine
 10
148.0397784979
 20
142.2260459841
 30
0.0
 11
148.3770369449
 21
142.2260459841
 31
0.0
  0
ELLIPSE
  5
120
330
1F
100
AcDbEntity
  8
0
  6
HIDDEN
 62
     7
370
     0
100
AcDbEllipse
 10
148.377036879
 20
143.8260452718
 30
0.0
 11
0.0
 21
1.600000000000023
 31
0.0
210
0.0
220
0.0
230
1.0
 40
0.4142135624
 41
3.141592653589793
 42
4.712388980384695
  0
ELLIPSE
  5
121
330
1F
100
AcDbEntity
  8
0
  6
HIDDEN
 62
     7
370
     0
100
AcDbEllipse
 10
148.377036879
 20
93.2260452718
 30
0.0
 11
0.0
 21
1.600000000000009
 31
0.0
210
0.0
220
0.0
230
1.0
 40
0.4142135624
 41
4.712388980384695
 42
6.283185307179586
  0
LINE
  5
122
330
1F
100
AcDbEntity
  8
0
  6
HIDDEN
 62
     7
370
     0
100
AcDbLine
 10
148.3770369449
 20
94.8260445476
 30
0.0
 11
148.0397784979
 21
94.8260445476
 31
0.0
  0
LINE
  5
123
330
1F
100
AcDbEntity
  8
0
  6
HIDDEN
 62
     7
370
     0
100
AcDbLine
 10
149.039778429
 20
87.5325966955
 30
0.0
 11
148.2559231007
 21
87.0743152083
 31
0.0
  0
LINE
  5
124
330
1F
100
AcDbEntity
  8
0
  6
HIDDEN
 62
     7
370
     0
100
AcDbLine
 10
148.327020266
 20
147.8513423682
 30
0.0
 11
149.039778429
 21
147.1385825754
 31
0.0
  0
LINE
  5
125
330
1F
100
AcDbEntity
  8
0
  6
HIDDEN
 62
     7
370
     0
100
AcDbLine
 10
83.5897773867
 20
108.9260448099
 30
0.0
 11
83.5897773867
 21
125.9260457338
 31
0.0
  0
LINE
  5
126
330
1F
100
AcDbEntity
  8
0
  6
HIDDEN
 62
     7
370
     0
100
AcDbLine
 10
86.5857079988
 20
110.4260450557
 30
0.0
 11
86.5857079988
 21
124.4260454879
 31
0.0
  0
LINE
  5
127
330
1F
100
AcDbEntity
  8
0
  6
HIDDEN
 62
     7
370
     0
100
AcDbLine
 10
152.87498854
 20
87.5325966955
 30
0.0
 11
149.039778429
 21
87.5325966955
 31
0.0
  0
LINE
  5
128
330
1F
100
AcDbEntity
  8
0
  6
HIDDEN
 62
     7
370
     0
100
AcDbLine
 10
163.8897788142
 20
87.5325966955
 30
0.0
 11
159.0045681586
 21
87.5325966955
 31
0.0
  0
LINE
  5
129
330
1F
100
AcDbEntity
  8
0
  6
HIDDEN
 62
     7
370
     0
100
AcDbLine
 10
149.039778429
 20
87.5325966955
 30
0.0
 11
149.039778429
 21
93.2260454029
 31
0.0
  0
LINE
  5
12A
330
1F
100
AcDbEntity
  8
0
  6
HIDDEN
 62
     7
370
     0
100
AcDbLine
 10
163.8897788142
 20
94.8260445476
 30
0.0
 11
148.3770369449
 21
94.8260445476
 31
0.0
  0
SPLINE
  5
12B
330
1F
100
AcDbEntity
  8
0
  6
HIDDEN
 62
     7
370
     0
100
AcDbSpline
210
0.0
220
0.0
230
1.0
 70
    24
 71
     3
 72
    12
 73
     8
 74
     0
 42
0.000000001
 43
0.00000001
 40
0.0
 40
0.0
 40
0.0
 40
0.0
 40
0.25
 40
0.25
 40
0.5
 40
0.5
 40
1.0
 40
1.0
 40
1.0
 40
1.0
 10
164.680210853333
 20
94.8260452718149
 30
0.0
 10
164.6234496039876
 20
94.8260452718149
 30
0.0
 10
164.5660347920449
 20
94.82604527181489
 30
0.0
 10
164.4520681802025
 20
94.8260452718149
 30
0.0
 10
164.3952292600311
 20
94.82604527181489
 30
0.0
 10
164.2244836546661
 20
94.82604527181489
 30
0.0
 10
164.1103651515625
 20
94.82604527181489
 30
0.0
 10
163.9955440127066
 20
94.8260452718149
 30
0.0
  0
LINE
  5
12C
330
1F
100
AcDbEntity
  8
0
  6
HIDDEN
 62
     7
370
     0
100
AcDbLine
 10
163.9955435311
 20
94.8260445476
 30
0.0
 11
163.8897788142
 21
94.8260445476
 31
0.0
  0
LINE
  5
12D
330
1F
100
AcDbEntity
  8
0
  6
HIDDEN
 62
     7
370
     0
100
AcDbLine
 10
148.3770369449
 20
142.2260459841
 30
0.0
 11
163.9627386247
 21
142.2260459841
 31
0.0
  0
LINE
  5
12E
330
1F
100
AcDbEntity
  8
0
  6
HIDDEN
 62
     7
370
     0
100
AcDbLine
 10
149.039778429
 20
147.1385825754
 30
0.0
 11
152.9758237665
 21
147.1385825754
 31
0.0
  0
LINE
  5
12F
330
1F
100
AcDbEntity
  8
0
  6
HIDDEN
 62
     7
370
     0
100
AcDbLine
 10
158.9037329321
 20
147.1385825754
 30
0.0
 11
163.8897788142
 21
147.1385825754
 31
0.0
  0
LINE
  5
130
330
1F
100
AcDbEntity
  8
0
  6
HIDDEN
 62
     7
370
     0
100
AcDbLine
 10
149.039778429
 20
147.1385825754
 30
0.0
 11
149.039778429
 21
143.8260451288
 31
0.0
  0
LINE
  5
131
330
1F
100
AcDbEntity
  8
0
  6
HIDDEN
 62
     7
370
     0
100
AcDbLine
 10
119.5897776996
 20
110.4260450557
 30
0.0
 11
119.5897776996
 21
124.4260454879
 31
0.0
  0
LINE
  5
132
330
1F
100
AcDbEntity
  8
0
  6
HIDDEN
 62
     7
370
     0
100
AcDbLine
 10
121.2421451127
 20
113.1760450408
 30
0.0
 11
121.2421451127
 21
121.6760455028
 31
0.0
  0
SPLINE
  5
133
330
1F
100
AcDbEntity
  8
0
  6
HIDDEN
 62
     7
370
     0
100
AcDbSpline
210
0.0
220
0.0
230
1.0
 70
    24
 71
     3
 72
    12
 73
     8
 74
     0
 42
0.000000001
 43
0.00000001
 40
0.0
 40
0.0
 40
0.0
 40
0.0
 40
0.5000000000000013
 40
0.5000000000000013
 40
0.7500000000000007
 40
0.7500000000000007
 40
1.0
 40
1.0
 40
1.0
 40
1.0
 10
167.9312892129044
 20
94.8260452718149
 30
0.0
 10
167.4596980763197
 20
94.8260452718149
 30
0.0
 10
166.9537726190721
 20
94.8260452718149
 30
0.0
 10
166.1381736033158
 20
94.82604527181489
 30
0.0
 10
165.8548406214883
 20
94.82604527181489
 30
0.0
 10
165.2754088653226
 20
94.82604527181489
 30
0.0
 10
164.9805709501704
 20
94.82604527181489
 30
0.0
 10
164.680210853333
 20
94.8260452718149
 30
0.0
  0
LINE
  5
134
330
1F
100
AcDbEntity
  8
0
  6
HIDDEN
 62
     7
370
     0
100
AcDbLine
 10
170.3397781019
 20
94.8260445476
 30
0.0
 11
167.931288517
 21
94.8260445476
 31
0.0
  0
SPLINE
  5
135
330
1F
100
AcDbEntity
  8
0
  6
HIDDEN
 62
     7
370
     0
100
AcDbSpline
210
0.0
220
0.0
230
1.0
 70
    11
 71
     3
 72
    60
 73
    56
 74
     0
 42
0.000000001
 43
0.00000001
 40
0.0
 40
0.0
 40
0.0
 40
0.0
 40
0.0312499999999997
 40
0.0312499999999997
 40
0.0624999999999995
 40
0.0624999999999995
 40
0.1249999999999989
 40
0.1249999999999989
 40
0.1874999999999984
 40
0.1874999999999984
 40
0.2187499999999983
 40
0.2187499999999983
 40
0.2499999999999981
 40
0.2499999999999981
 40
0.2812499999999979
 40
0.2812499999999979
 40
0.3124999999999977
 40
0.3124999999999977
 40
0.3437499999999977
 40
0.3437499999999977
 40
0.3749999999999976
 40
0.3749999999999976
 40
0.4062499999999974
 40
0.4062499999999974
 40
0.4374999999999973
 40
0.4374999999999973
 40
0.4999999999999971
 40
0.4999999999999971
 40
0.5312499999999973
 40
0.5312499999999973
 40
0.5624999999999974
 40
0.5624999999999974
 40
0.5937499999999977
 40
0.5937499999999977
 40
0.6249999999999978
 40
0.6249999999999978
 40
0.656249999999998
 40
0.656249999999998
 40
0.6874999999999982
 40
0.6874999999999982
 40
0.7187499999999983
 40
0.7187499999999983
 40
0.7499999999999986
 40
0.7499999999999986
 40
0.8124999999999989
 40
0.8124999999999989
 40
0.8437499999999991
 40
0.8437499999999991
 40
0.8749999999999992
 40
0.8749999999999992
 40
0.9062499999999994
 40
0.9062499999999994
 40
0.9374999999999997
 40
0.9374999999999997
 40
1.0
 40
1.0
 40
1.0
 40
1.0
 10
157.8397785787848
 20
117.2151192137815
 30
0.0
 10
157.9499714897551
 20
117.2151192137816
 30
0.0
 10
158.0580806930425
 20
117.2269768360863
 30
0.0
 10
158.270385847529
 20
117.2729825629765
 30
0.0
 10
158.3756945109879
 20
117.3077424152902
 30
0.0
 10
158.6744924715965
 20
117.4412962534545
 30
0.0
 10
158.8559146759825
 20
117.571204666598
 30
0.0
 10
159.1571205766394
 20
117.8836631537084
 30
0.0
 10
159.2796750554316
 20
118.069440636536
 30
0.0
 10
159.4038085060508
 20
118.3642513850396
 30
0.0
 10
159.4361116228868
 20
118.4672304714608
 30
0.0
 10
159.4789612847188
 20
118.6735081111657
 30
0.0
 10
159.4897064522312
 20
118.7762760960851
 30
0.0
 10
159.4898499885843
 20
118.9809417496035
 30
0.0
 10
159.4788668675479
 20
119.0832958357976
 30
0.0
 10
159.4361952080206
 20
119.2775559448049
 30
0.0
 10
159.4046323139133
 20
119.3707242535484
 30
0.0
 10
159.3206672184255
 20
119.5495077741905
 30
0.0
 10
159.2696326654248
 20
119.6322251659023
 30
0.0
 10
159.1503993346461
 20
119.7857767813162
 30
0.0
 10
159.0813402773115
 20
119.8572272420695
 30
0.0
 10
158.9300417534571
 20
119.9844392844569
 30
0.0
 10
158.8478090487022
 20
120.0405821683041
 30
0.0
 10
158.669696531554
 20
120.138903981148
 30
0.0
 10
158.5735616473497
 20
120.1808982752993
 30
0.0
 10
158.2763149622308
 20
120.2810373855758
 30
0.0
 10
158.0572572214518
 20
120.3160514934767
 30
0.0
 10
157.731803546564
 20
120.3161314529367
 30
0.0
 10
157.6219669453709
 20
120.3075260485138
 30
0.0
 10
157.4080346483885
 20
120.2732132530396
 30
0.0
 10
157.304794987445
 20
120.247871439845
 30
0.0
 10
157.1053659308825
 20
120.1806863506602
 30
0.0
 10
157.0092734236091
 20
120.1386043656016
 30
0.0
 10
156.8317293740431
 20
120.0405472100377
 30
0.0
 10
156.7490328069298
 20
119.9841577457138
 30
0.0
 10
156.5965582485647
 20
119.8557066760642
 30
0.0
 10
156.528881327523
 20
119.7854491594312
 30
0.0
 10
156.4099036632542
 20
119.632169815063
 30
0.0
 10
156.358159380054
 20
119.5480906383036
 30
0.0
 10
156.2749826733979
 20
119.3707078504193
 30
0.0
 10
156.2434716364488
 20
119.2779312081444
 30
0.0
 10
156.200736028997
 20
119.0836276884927
 30
0.0
 10
156.1897303245769
 20
118.9811612735544
 30
0.0
 10
156.1898755775804
 20
118.6744995571831
 30
0.0
 10
156.2342284661648
 20
118.4627276727845
 30
0.0
 10
156.3588136744463
 20
118.1670423317102
 30
0.0
 10
156.4105974881124
 20
118.0704658038711
 30
0.0
 10
156.5305551664426
 20
117.8893015555555
 30
0.0
 10
156.5984062284384
 20
117.8047122368561
 30
0.0
 10
156.7499319671935
 20
117.6478142040631
 30
0.0
 10
156.8339012404565
 20
117.5756179731101
 30
0.0
 10
157.0113925087954
 20
117.450256129881
 30
0.0
 10
157.1056740437497
 20
117.3961897767701
 30
0.0
 10
157.4065591509791
 20
117.2621177947541
 30
0.0
 10
157.6193927568442
 20
117.2151192137816
 30
0.0
 10
157.8397785787848
 20
117.2151192137816
 30
0.0
  0
LINE
  5
136
330
1F
100
AcDbEntity
  8
0
  6
HIDDEN
 62
     7
370
     0
100
AcDbLine
 10
171.9397791093
 20
142.2260459841
 30
0.0
 11
171.2953504538
 21
142.2260459841
 31
0.0
  0
LINE
  5
137
330
1F
100
AcDbEntity
  8
0
  6
HIDDEN
 62
     7
370
     0
100
AcDbLine
 10
163.8897788142
 20
135.8455326737
 30
0.0
 11
163.8897788142
 21
135.7760448337
 31
0.0
  0
ELLIPSE
  5
138
330
1F
100
AcDbEntity
  8
0
  6
HIDDEN
 62
     7
370
     0
100
AcDbEllipse
 10
157.8397785788
 20
124.3136353324
 30
0.0
 11
-1.383467579512086
 21
1.753907414218489
 31
0.0
210
0.0
220
0.0
230
1.0
 40
0.5126701559
 41
5.277237470131228
 42
5.288724596347246
  0
ELLIPSE
  5
139
330
1F
100
AcDbEntity
  8
0
  6
HIDDEN
 62
     7
370
     0
100
AcDbEllipse
 10
157.8397785788
 20
124.3136353324
 30
0.0
 11
1.383467579512143
 21
1.091267719176585
 31
0.0
210
0.0
220
0.0
230
1.0
 40
0.8239737799
 41
0.9944607108323826
 42
4.136053364422189
  0
ELLIPSE
  5
13A
330
1F
100
AcDbEntity
  8
0
  6
HIDDEN
 62
     7
370
     0
100
AcDbEllipse
 10
157.8397785788
 20
124.3136353324
 30
0.0
 11
-1.383467579512086
 21
1.753907414218489
 31
0.0
210
0.0
220
0.0
230
1.0
 40
0.5126701559
 41
2.14713194275744
 42
2.158619068971408
  0
SPLINE
  5
13B
330
1F
100
AcDbEntity
  8
0
  6
HIDDEN
 62
     7
370
     0
100
AcDbSpline
210
0.0
220
0.0
230
1.0
 70
     8
 71
     3
 72
     8
 73
     4
 74
     0
 42
0.000000001
 43
0.00000001
 40
0.0
 40
0.0
 40
0.0
 40
0.0
 40
1.0
 40
1.0
 40
1.0
 40
1.0
 10
157.8587319202553
 20
122.7507921821701
 30
0.0
 10
157.8757308043092
 20
122.7587754556726
 30
0.0
 10
157.8927349488248
 20
122.7675118581072
 30
0.0
 10
157.9097196749016
 20
122.7769887099295
 30
0.0
  0
ELLIPSE
  5
13C
330
1F
100
AcDbEntity
  8
0
  6
HIDDEN
 62
     7
370
     0
100
AcDbEllipse
 10
157.8397785788
 20
124.3136353324
 30
0.0
 11
1.383467579512143
 21
1.091267719176585
 31
0.0
210
0.0
220
0.0
230
1.0
 40
0.8239737799
 41
4.136053364422189
 42
4.178454611664497
  0
ELLIPSE
  5
13D
330
1F
100
AcDbEntity
  8
0
  6
HIDDEN
 62
     7
370
     0
100
AcDbEllipse
 10
157.8397785788
 20
124.3136353324
 30
0.0
 11
-1.383467579512086
 21
1.753907414218489
 31
0.0
210
0.0
220
0.0
230
1.0
 40
0.5126701559
 41
5.288724596347255
 42
8.430317249937035
  0
ELLIPSE
  5
13E
330
1F
100
AcDbEntity
  8
0
  6
HIDDEN
 62
     7
370
     0
100
AcDbEllipse
 10
157.8397785788
 20
124.3136353324
 30
0.0
 11
1.383467579512143
 21
1.091267719176585
 31
0.0
210
0.0
220
0.0
230
1.0
 40
0.8239737799
 41
0.9520594635824183
 42
0.9944607108323826
  0
SPLINE
  5
13F
330
1F
100
AcDbEntity
  8
0
  6
HIDDEN
 62
     7
370
     0
100
AcDbSpline
210
0.0
220
0.0
230
1.0
 70
     8
 71
     3
 72
     8
 73
     4
 74
     0
 42
0.000000001
 43
0.00000001
 40
0.0
 40
0.0
 40
0.0
 40
0.0
 40
1.0
 40
1.0
 40
1.0
 40
1.0
 10
157.9097196749106
 20
125.8751871981718
 30
0.0
 10
157.8927349488278
 20
125.8680714881294
 30
0.0
 10
157.8757308043062
 20
125.8601963586168
 30
0.0
 10
157.8587319202464
 20
125.8515732391733
 30
0.0
  0
LWPOLYLINE
  5
140
330
1F
100
AcDbEntity
  8
0
  6
HIDDEN
 62
     7
370
     0
100
AcDbPolyline
 90
       19
 70
   128
 43
0.0
 10
157.839778847
 20
123.869455918
 10
158.4041118984
 20
123.9629621015
 10
158.9003783082
 20
124.2322023355
 10
159.2687201118
 20
124.6447023333
 10
159.4647113596
 20
125.1507085145
 10
159.4647113596
 20
125.6891889826
 10
159.2687201118
 20
126.1951951638
 10
158.9003783082
 20
126.6076956273
 10
158.4041118984
 20
126.8769353957
 10
157.839778847
 20
126.9704420448
 10
157.2754457956
 20
126.8769353957
 10
156.7791793858
 20
126.6076956273
 10
156.4108366509
 20
126.1951951638
 10
156.214845403
 20
125.6891889826
 10
156.214845403
 20
125.1507085145
 10
156.4108366509
 20
124.6447023333
 10
156.7791793858
 20
124.2322023355
 10
157.2754457956
 20
123.9629621015
 10
157.839778847
 20
123.869455918
  0
LINE
  5
141
330
1F
100
AcDbEntity
  8
0
  6
HIDDEN
 62
     7
370
     0
100
AcDbLine
 10
154.0297782411
 20
139.6232862354
 30
0.0
 11
154.0297782411
 21
135.7760448337
 31
0.0
  0
SPLINE
  5
142
330
1F
100
AcDbEntity
  8
0
  6
HIDDEN
 62
     7
370
     0
100
AcDbSpline
210
0.0
220
0.0
230
1.0
 70
     8
 71
     3
 72
    14
 73
    10
 74
     0
 42
0.000000001
 43
0.00000001
 40
0.0
 40
0.0
 40
0.0
 40
0.0
 40
0.25
 40
0.25
 40
0.5
 40
0.5
 40
0.75
 40
0.75
 40
1.0
 40
1.0
 40
1.0
 40
1.0
 10
157.0497785787847
 20
128.708524461923
 30
0.0
 10
157.1474608298987
 20
128.7470467759555
 30
0.0
 10
157.249574338936
 20
128.7846621354142
 30
0.0
 10
157.4417465101049
 20
128.8557708610011
 30
0.0
 10
157.5331651834317
 20
128.8899769115052
 30
0.0
 10
157.684681172446
 20
128.9568663898621
 30
0.0
 10
157.7458283749849
 20
128.990136852423
 30
0.0
 10
157.8285350766733
 20
129.0595352025169
 30
0.0
 10
157.8497785787848
 20
129.0953123081128
 30
0.0
 10
157.8497785787848
 20
129.1318076403635
 30
0.0
  0
LINE
  5
143
330
1F
100
AcDbEntity
  8
0
  6
HIDDEN
 62
     7
370
     0
100
AcDbLine
 10
157.8497784575
 20
139.6232862354
 30
0.0
 11
157.8497784575
 21
135.7760448337
 31
0.0
  0
LINE
  5
144
330
1F
100
AcDbEntity
  8
0
  6
HIDDEN
 62
     7
370
     0
100
AcDbLine
 10
157.8497784575
 20
109.4247624607
 30
0.0
 11
157.8497784575
 21
105.6660395444
 31
0.0
  0
SPLINE
  5
145
330
1F
100
AcDbEntity
  8
0
  6
HIDDEN
 62
     7
370
     0
100
AcDbSpline
210
0.0
220
0.0
230
1.0
 70
     8
 71
     3
 72
    14
 73
    10
 74
     0
 42
0.000000001
 43
0.00000001
 40
0.0
 40
0.0
 40
0.0
 40
0.0
 40
0.2500000000000005
 40
0.2500000000000005
 40
0.5000000000000003
 40
0.5000000000000003
 40
0.7500000000000001
 40
0.7500000000000001
 40
1.0
 40
1.0
 40
1.0
 40
1.0
 10
157.8497785787848
 20
125.3730841421445
 30
0.0
 10
157.8497785787848
 20
125.3365952112372
 30
0.0
 10
157.8286092026125
 20
125.3000964195035
 30
0.0
 10
157.7458635847602
 20
125.2347210717666
 30
0.0
 10
157.6850099599324
 20
125.2067842374202
 30
0.0
 10
157.5334050932413
 20
125.1728932081735
 30
0.0
 10
157.4421827827741
 20
125.167467755587
 30
0.0
 10
157.2498522330708
 20
125.1883870793996
 30
0.0
 10
157.1476013485938
 20
125.2149432268401
 30
0.0
 10
157.0497785787847
 20
125.2554129851459
 30
0.0
  0
LINE
  5
146
330
1F
100
AcDbEntity
  8
0
  6
HIDDEN
 62
     7
370
     0
100
AcDbLine
 10
152.4179419865
 20
143.3362756253
 30
0.0
 11
152.4179419865
 21
135.7760448337
 31
0.0
  0
LINE
  5
147
330
1F
100
AcDbEntity
  8
0
  6
HIDDEN
 62
     7
370
     0
100
AcDbLine
 10
159.4616156434
 20
107.674025032
 30
0.0
 11
159.4616156434
 21
105.4745456532
 31
0.0
  0
LINE
  5
148
330
1F
100
AcDbEntity
  8
0
  6
HIDDEN
 62
     7
370
     0
100
AcDbLine
 10
159.4616156434
 20
143.3362756253
 30
0.0
 11
159.4616156434
 21
135.7760448337
 31
0.0
  0
SPLINE
  5
149
330
1F
100
AcDbEntity
  8
0
  6
HIDDEN
 62
     7
370
     0
100
AcDbSpline
210
0.0
220
0.0
230
1.0
 70
     8
 71
     3
 72
    10
 73
     6
 74
     0
 42
0.000000001
 43
0.00000001
 40
0.0
 40
0.0
 40
0.0
 40
0.0
 40
0.5
 40
0.5
 40
1.0
 40
1.0
 40
1.0
 40
1.0
 10
155.8638878161444
 20
125.1725844412838
 30
0.0
 10
155.8482817651632
 20
125.2778566418923
 30
0.0
 10
155.8397773021346
 20
125.3817951396832
 30
0.0
 10
155.8397798557243
 20
125.5813084116392
 30
0.0
 10
155.8482774433248
 20
125.6725209063095
 30
0.0
 10
155.8638878161444
 20
125.7544528386527
 30
0.0
  0
SPLINE
  5
14A
330
1F
100
AcDbEntity
  8
0
  6
HIDDEN
 62
     7
370
     0
100
AcDbSpline
210
0.0
220
0.0
230
1.0
 70
     8
 71
     3
 72
    14
 73
    10
 74
     0
 42
0.000000001
 43
0.00000001
 40
0.0
 40
0.0
 40
0.0
 40
0.0
 40
0.25
 40
0.25
 40
0.5
 40
0.5
 40
0.75
 40
0.75
 40
1.0
 40
1.0
 40
1.0
 40
1.0
 10
155.8638878161444
 20
125.7544528386527
 30
0.0
 10
155.9002516441746
 20
125.7089582032509
 30
0.0
 10
155.9327293713848
 20
125.6605663970346
 30
0.0
 10
155.9814830008005
 20
125.5550812531051
 30
0.0
 10
155.996386778475
 20
125.4984967448622
 30
0.0
 10
155.9963972121326
 20
125.3896091509117
 30
0.0
 10
155.9815069163245
 20
125.3374244851491
 30
0.0
 10
155.9326179854469
 20
125.2461470862056
 30
0.0
 10
155.9002458071765
 20
125.2074803808315
 30
0.0
 10
155.8638878161444
 20
125.1725844412838
 30
0.0
  0
LWPOLYLINE
  5
14B
330
1F
100
AcDbEntity
  8
0
  6
HIDDEN
 62
     7
370
     0
100
AcDbPolyline
 90
       19
 70
   128
 43
0.0
 10
148.671506009
 20
125.4060911343
 10
148.8186857094
 20
124.9965043136
 10
149.0575042916
 20
124.7431855046
 10
149.3591573452
 20
124.6766886071
 10
149.6872613569
 20
124.8050341711
 10
150.0022411709
 20
125.1127417528
 10
150.2661067424
 20
125.5626967505
 10
150.4470310537
 20
126.1006286696
 10
150.5231922855
 20
126.6616555259
 10
150.4854043377
 20
127.1781074212
 10
150.3382251029
 20
127.5876937763
 10
150.0994060551
 20
127.8410125852
 10
149.7977530015
 20
127.9075090171
 10
149.4696489898
 20
127.7791643844
 10
149.1546691758
 20
127.471456337
 10
148.8908036043
 20
127.0215008736
 10
148.7098795259
 20
126.4835689545
 10
148.633718294
 20
125.9225430295
 10
148.671506009
 20
125.4060911343
  0
LWPOLYLINE
  5
14C
330
1F
100
AcDbEntity
  8
0
  6
HIDDEN
 62
     7
370
     0
100
AcDbPolyline
 90
       20
 70
   128
 43
0.0
 10
155.8638876667
 20
125.1725843505
 10
156.0564255705
 20
124.6127714731
 10
156.4237224301
 20
124.1363268674
 10
156.9297844907
 20
123.7899395966
 10
157.5250206878
 20
123.6075535745
 10
158.1511022886
 20
123.6070422784
 10
158.7466746931
 20
123.7884550684
 10
159.2533775037
 20
124.1340148591
 10
159.6215544631
 20
124.6098587618
 10
159.8151279976
 20
125.1693568521
 10
159.8151279976
 20
125.7576803074
 10
159.6215544631
 20
126.317177932
 10
159.2533775037
 20
126.7930223004
 10
158.7466746931
 20
127.1385820911
 10
158.1511022886
 20
127.3199953467
 10
157.5250206878
 20
127.3194831193
 10
156.9297844907
 20
127.1370975629
 10
156.4237224301
 20
126.7907107577
 10
156.0564255705
 20
126.3142656863
 10
155.8638876667
 20
125.7544532747
  0
SPLINE
  5
14D
330
1F
100
AcDbEntity
  8
0
  6
HIDDEN
 62
     7
370
     0
100
AcDbSpline
210
0.0
220
0.0
230
1.0
 70
     8
 71
     3
 72
    12
 73
     8
 74
     0
 42
0.000000001
 43
0.00000001
 40
0.0
 40
0.0
 40
0.0
 40
0.0
 40
0.2500000000000001
 40
0.2500000000000001
 40
0.5000000000000002
 40
0.5000000000000002
 40
1.0
 40
1.0
 40
1.0
 40
1.0
 10
159.4616152208415
 20
129.3775450700219
 30
0.0
 10
159.5845627146371
 20
129.2195882213268
 30
0.0
 10
159.678106917746
 20
129.0477548543493
 30
0.0
 10
159.8070463069082
 20
128.6760821447035
 30
0.0
 10
159.8395990642933
 20
128.4828936985122
 30
0.0
 10
159.8401354060271
 20
127.894597160236
 30
0.0
 10
159.7075117490591
 20
127.5025789223473
 30
0.0
 10
159.4616152208415
 20
127.1780653396386
 30
0.0
  0
SPLINE
  5
14E
330
1F
100
AcDbEntity
  8
0
  6
HIDDEN
 62
     7
370
     0
100
AcDbSpline
210
0.0
220
0.0
230
1.0
 70
     8
 71
     3
 72
    12
 73
     8
 74
     0
 42
0.000000001
 43
0.00000001
 40
0.0
 40
0.0
 40
0.0
 40
0.0
 40
0.2499999999999998
 40
0.2499999999999998
 40
0.4999999999999996
 40
0.4999999999999996
 40
1.0
 40
1.0
 40
1.0
 40
1.0
 10
159.4616152208415
 20
127.1780653396386
 30
0.0
 10
159.3467191695809
 20
126.958324904582
 30
0.0
 10
159.2199531531082
 20
126.7613565529603
 30
0.0
 10
158.9597382194897
 20
126.4076389801214
 30
0.0
 10
158.8262307615275
 20
126.2508136862492
 30
0.0
 10
158.4178324929393
 20
125.8242711153415
 30
0.0
 10
158.1341793580017
 20
125.5975789363862
 30
0.0
 10
157.8497785787849
 20
125.4273277919908
 30
0.0
  0
SPLINE
  5
14F
330
1F
100
AcDbEntity
  8
0
  6
HIDDEN
 62
     7
370
     0
100
AcDbSpline
210
0.0
220
0.0
230
1.0
 70
     8
 71
     3
 72
    12
 73
     8
 74
     0
 42
0.000000001
 43
0.00000001
 40
0.0
 40
0.0
 40
0.0
 40
0.0
 40
0.5000000000000013
 40
0.5000000000000013
 40
0.7500000000000007
 40
0.7500000000000007
 40
1.0
 40
1.0
 40
1.0
 40
1.0
 10
157.8497785787848
 20
129.1860512902118
 30
0.0
 10
158.1339851133501
 20
129.3535154525056
 30
0.0
 10
158.4126808474539
 20
129.4651525520171
 30
0.0
 10
158.8220268906432
 20
129.5324658176565
 30
0.0
 10
158.9581662279627
 20
129.5376168576705
 30
0.0
 10
159.2194862769587
 20
129.4998509200511
 30
0.0
 10
159.3449074593905
 20
129.4583011617068
 30
0.0
 10
159.461615220842
 20
129.377545070024
 30
0.0
  0
SPLINE
  5
150
330
1F
100
AcDbEntity
  8
0
  6
HIDDEN
 62
     7
370
     0
100
AcDbSpline
210
0.0
220
0.0
230
1.0
 70
     8
 71
     3
 72
     9
 73
     5
 74
     0
 42
0.000000001
 43
0.00000001
 40
0.0
 40
0.0
 40
0.0
 40
0.0
 40
0.5080475055405347
 40
1.0
 40
1.0
 40
1.0
 40
1.0
 10
157.0497788851527
 20
125.2554133862863
 30
0.0
 10
156.8489067996689
 20
125.3590286367346
 30
0.0
 10
156.4535262825064
 20
125.562976593015
 30
0.0
 10
156.2084791195956
 20
125.9209189263425
 30
0.0
 10
156.0879275565413
 20
126.0970095500956
 30
0.0
  0
SPLINE
  5
151
330
1F
100
AcDbEntity
  8
0
  6
HIDDEN
 62
     7
370
     0
100
AcDbSpline
210
0.0
220
0.0
230
1.0
 70
     8
 71
     3
 72
    12
 73
     8
 74
     0
 42
0.000000001
 43
0.00000001
 40
0.0
 40
0.0
 40
0.0
 40
0.0
 40
0.1530163631837634
 40
0.3696518229259929
 40
0.5859929976745571
 40
0.8026515061108124
 40
1.0
 40
1.0
 40
1.0
 40
1.0
 10
156.0123395537404
 20
126.2913579449664
 30
0.0
 10
155.9532865541418
 20
126.4315029180452
 30
0.0
 10
155.8106282887338
 20
126.7700604663661
 30
0.0
 10
155.8407896674534
 20
127.3566778199198
 30
0.0
 10
156.0722750580892
 20
127.9484696485618
 30
0.0
 10
156.490904846201
 20
128.4312167398553
 30
0.0
 10
156.8693716580258
 20
128.6190083315074
 30
0.0
 10
157.0497788851527
 20
128.7085246623168
 30
0.0
  0
LWPOLYLINE
  5
152
330
1F
100
AcDbEntity
  8
0
  6
HIDDEN
 62
     7
370
     0
100
AcDbPolyline
 90
       22
 70
   128
 43
0.0
 10
148.289990182
 20
125.1965826706
 10
148.4427126487
 20
124.7388208613
 10
148.6844295067
 20
124.4219290421
 10
148.9936635261
 20
124.2740652852
 10
149.3429374312
 20
124.3083677583
 10
149.70121676
 20
124.5217882425
 10
150.0366670442
 20
124.8953636133
 10
150.3194817705
 20
125.3958996714
 10
150.524531993
 20
125.9789225042
 10
150.6335977828
 20
126.592626828
 10
150.6369882626
 20
127.1824837059
 10
150.5344026153
 20
127.6960801662
 10
150.3349552294
 20
128.0877823339
 10
150.056368242
 20
128.3227848217
 10
149.7233952758
 20
128.3802064464
 10
149.3656225865
 20
128.2549463541
 10
149.0148399388
 20
127.9581329182
 10
148.7022154396
 20
127.5161402628
 10
148.4555276473
 20
126.9682413296
 10
148.2966957045
 20
126.3631191433
 10
148.2398321749
 20
125.7545417503
 10
148.289990182
 20
125.1965826706
  0
LWPOLYLINE
  5
153
330
1F
100
AcDbEntity
  8
0
  6
HIDDEN
 62
     7
370
     0
100
AcDbPolyline
 90
       18
 70
   128
 43
0.0
 10
158.0491243293
 20
126.7380398095
 10
157.505584917
 20
126.7161090255
 10
157.0071801906
 20
126.5111519352
 10
156.6212233519
 20
126.1508483768
 10
156.3998386627
 20
125.6838590235
 10
156.3729253029
 20
125.1732549027
 10
156.5441191559
 20
124.6879948632
 10
156.8902992075
 20
124.2936156087
 10
157.3647112017
 20
124.0433813401
 10
157.9032838707
 20
123.9710864939
 10
158.4332799902
 20
124.0864955217
 10
158.8831199696
 20
124.3740218089
 10
159.1920517748
 20
124.7948329293
 10
159.3183512231
 20
125.2920963199
 10
159.2449611416
 20
125.7986538441
 10
158.9817935964
 20
126.2460919425
 10
158.5643897196
 20
126.5739817501
 10
158.0491243293
 20
126.7380398095
  0
LWPOLYLINE
  5
154
330
1F
100
AcDbEntity
  8
0
  6
HIDDEN
 62
     7
370
     0
100
AcDbPolyline
 90
       21
 70
   128
 43
0.0
 10
158.1226047491
 20
127.3240177289
 10
157.4969394495
 20
127.3150854141
 10
156.9048324963
 20
127.1249093444
 10
156.4042456811
 20
126.7721047953
 10
156.0441786786
 20
126.2912061394
 10
155.8598773917
 20
125.7292880074
 10
155.8693824699
 20
125.1413547762
 10
156.0717635219
 20
124.5849570588
 10
156.4472103854
 20
124.1145590649
 10
156.9589721402
 20
123.7762063139
 10
157.5569529449
 20
123.6030198962
 10
158.1826182445
 20
123.6119517454
 10
158.7747242664
 20
123.8021282808
 10
159.2753110816
 20
124.1549328298
 10
159.6353790154
 20
124.6358310201
 10
159.8196803023
 20
125.1977491521
 10
159.8101742928
 20
125.7856823832
 10
159.6077932408
 20
126.3420805663
 10
159.2323463773
 20
126.8124785603
 10
158.7205855539
 20
127.1508308456
 10
158.1226047491
 20
127.3240177289
  0
LWPOLYLINE
  5
155
330
1F
100
AcDbEntity
  8
0
  6
HIDDEN
 62
     7
370
     0
100
AcDbPolyline
 90
       21
 70
   128
 43
0.0
 10
158.1226047491
 20
127.6489366174
 10
157.4969394495
 20
127.6400043026
 10
156.9048324963
 20
127.4498282329
 10
156.4042456811
 20
127.0970236838
 10
156.0441786786
 20
126.6161250279
 10
155.8598773917
 20
126.0542068959
 10
155.8693824699
 20
125.4662741304
 10
156.0717635219
 20
124.9098759473
 10
156.4472103854
 20
124.4394779534
 10
156.9589721402
 20
124.101125668
 10
157.5569529449
 20
123.9279392504
 10
158.1826182445
 20
123.9368710995
 10
158.7747242664
 20
124.1270471693
 10
159.2753110816
 20
124.479852184
 10
159.6353790154
 20
124.9607503743
 10
159.8196803023
 20
125.5226685063
 10
159.8101742928
 20
126.1106012717
 10
159.6077932408
 20
126.6669994549
 10
159.2323463773
 20
127.1373974488
 10
158.7205855539
 20
127.4757497341
 10
158.1226047491
 20
127.6489366174
  0
LWPOLYLINE
  5
156
330
1F
100
AcDbEntity
  8
0
  6
HIDDEN
 62
     7
370
     0
100
AcDbPolyline
 90
       19
 70
   128
 43
0.0
 10
158.0518978079
 20
128.1243674786
 10
157.5312307467
 20
128.1083897085
 10
157.0477793356
 20
127.9260367484
 10
156.6598546123
 20
127.5993027121
 10
156.4142462229
 20
127.1675965146
 10
156.3405776759
 20
126.6829884008
 10
156.44773472
 20
126.2039281756
 10
156.7227933919
 20
125.7881997482
 10
157.1325771873
 20
125.4859445945
 10
157.6276589548
 20
125.3336193368
 10
158.148326016
 20
125.3495961756
 10
158.6317774271
 20
125.531950067
 10
159.0197021504
 20
125.8586841033
 10
159.2653114711
 20
126.2903903008
 10
159.3389790868
 20
126.7749984146
 10
159.2318220427
 20
127.2540577084
 10
158.9567633708
 20
127.6697870672
 10
158.5469805067
 20
127.9720422209
 10
158.0518978079
 20
128.1243674786
  0
LWPOLYLINE
  5
157
330
1F
100
AcDbEntity
  8
0
  6
HIDDEN
 62
     7
370
     0
100
AcDbPolyline
 90
       19
 70
   128
 43
0.0
 10
158.0518978079
 20
127.1208888248
 10
157.5312307467
 20
127.1049110547
 10
157.0477793356
 20
126.9225580946
 10
156.6598546123
 20
126.5958240584
 10
156.4142462229
 20
126.1641178609
 10
156.3405776759
 20
125.6795097471
 10
156.44773472
 20
125.2004499876
 10
156.7227933919
 20
124.7847210944
 10
157.1325771873
 20
124.4824659408
 10
157.6276589548
 20
124.3301406831
 10
158.148326016
 20
124.3461179875
 10
158.6317774271
 20
124.5284714133
 10
159.0197021504
 20
124.8552054495
 10
159.2653114711
 20
125.2869116471
 10
159.3389790868
 20
125.7715197608
 10
159.2318220427
 20
126.2505790547
 10
158.9567633708
 20
126.6663084135
 10
158.5469805067
 20
126.9685635672
 10
158.0518978079
 20
127.1208888248
  0
LWPOLYLINE
  5
158
330
1F
100
AcDbEntity
  8
0
  6
HIDDEN
 62
     7
370
     0
100
AcDbPolyline
 90
       21
 70
   128
 43
0.0
 10
158.1226047491
 20
127.8413227156
 10
157.4969394495
 20
127.8323904008
 10
156.9048324963
 20
127.6422143311
 10
156.4042456811
 20
127.2894097821
 10
156.0441786786
 20
126.8085120574
 10
155.8598773917
 20
126.2465939254
 10
155.8693824699
 20
125.6586602286
 10
156.0717635219
 20
125.1022625112
 10
156.4472103854
 20
124.6318645172
 10
156.9589721402
 20
124.2935122319
 10
157.5569529449
 20
124.1203253486
 10
158.1826182445
 20
124.1292571977
 10
158.7747242664
 20
124.3194337331
 10
159.2753110816
 20
124.6722382822
 10
159.6353790154
 20
125.1531364725
 10
159.8196803023
 20
125.7150546045
 10
159.8101742928
 20
126.3029883013
 10
159.6077932408
 20
126.8593855531
 10
159.2323463773
 20
127.329783547
 10
158.7205855539
 20
127.6681358323
 10
158.1226047491
 20
127.8413227156
  0
LWPOLYLINE
  5
159
330
1F
100
AcDbEntity
  8
0
  6
HIDDEN
 62
     7
370
     0
100
AcDbPolyline
 90
       21
 70
   128
 43
0.0
 10
158.0999782672
 20
127.5481935919
 10
157.524365968
 20
127.5399756015
 10
156.9796288749
 20
127.3650136173
 10
156.5190879991
 20
127.0404337302
 10
156.1878268038
 20
126.5980070785
 10
156.0182692846
 20
126.0810420246
 10
156.0270144035
 20
125.5401438431
 10
156.213205344
 20
125.0282577567
 10
156.5586161231
 20
124.5954917141
 10
157.0294360062
 20
124.2842073881
 10
157.5795784955
 20
124.124875325
 10
158.1551907947
 20
124.1330928498
 10
158.6999288191
 20
124.3080552996
 10
159.1604687636
 20
124.6326356523
 10
159.4917308902
 20
125.0750618384
 10
159.6612874781
 20
125.592025961
 10
159.6525432905
 20
126.1329250739
 10
159.46635235
 20
126.6448106945
 10
159.1209406396
 20
127.0775776685
 10
158.6501207565
 20
127.3888610632
 10
158.0999782672
 20
127.5481935919
  0
LWPOLYLINE
  5
15A
330
1F
100
AcDbEntity
  8
0
  6
HIDDEN
 62
     7
370
     0
100
AcDbPolyline
 90
       21
 70
   128
 43
0.0
 10
158.1226047491
 20
128.0337088138
 10
157.4969394495
 20
128.0247774304
 10
156.9048324963
 20
127.8346013606
 10
156.4042456811
 20
127.4817958803
 10
156.0441786786
 20
127.0008981556
 10
155.8598773917
 20
126.4389800236
 10
155.8693824699
 20
125.8510463268
 10
156.0717635219
 20
125.294649075
 10
156.4472103854
 20
124.8242506154
 10
156.9589721402
 20
124.4858983301
 10
157.5569529449
 20
124.3127119125
 10
158.1826182445
 20
124.3216437616
 10
158.7747242664
 20
124.5118198313
 10
159.2753110816
 20
124.864624846
 10
159.6353790154
 20
125.3455225707
 10
159.8196803023
 20
125.9074407027
 10
159.8101742928
 20
126.4953743995
 10
159.6077932408
 20
127.0517716513
 10
159.2323463773
 20
127.5221696452
 10
158.7205855539
 20
127.8605228618
 10
158.1226047491
 20
128.0337088138
  0
LWPOLYLINE
  5
15B
330
1F
100
AcDbEntity
  8
0
  6
HIDDEN
 62
     7
370
     0
100
AcDbPolyline
 90
       21
 70
   128
 43
0.0
 10
158.0999782672
 20
127.7405796901
 10
157.524365968
 20
127.7323616997
 10
156.9796288749
 20
127.5573997155
 10
156.5190879991
 20
127.2328198285
 10
156.1878268038
 20
126.7903931767
 10
156.0182692846
 20
126.2734290541
 10
156.0270144035
 20
125.7325299413
 10
156.213205344
 20
125.2206438549
 10
156.5586161231
 20
124.7878778123
 10
157.0294360062
 20
124.4765934863
 10
157.5795784955
 20
124.3172618889
 10
158.1551907947
 20
124.3254794136
 10
158.6999288191
 20
124.5004413978
 10
159.1604687636
 20
124.8250217505
 10
159.4917308902
 20
125.2674479366
 10
159.6612874781
 20
125.7844129906
 10
159.6525432905
 20
126.3253111721
 10
159.46635235
 20
126.837197724
 10
159.1209406396
 20
127.2699637667
 10
158.6501207565
 20
127.5812480927
 10
158.0999782672
 20
127.7405796901
  0
LWPOLYLINE
  5
15C
330
1F
100
AcDbEntity
  8
0
  6
HIDDEN
 62
     7
370
     0
100
AcDbPolyline
 90
       21
 70
   128
 43
0.0
 10
158.1226047491
 20
128.2260958434
 10
157.4969394495
 20
128.2171635286
 10
156.9048324963
 20
128.0269874588
 10
156.4042456811
 20
127.6741829098
 10
156.0441786786
 20
127.1932842538
 10
155.8598773917
 20
126.6313661218
 10
155.8693824699
 20
126.0434333563
 10
156.0717635219
 20
125.4870351732
 10
156.4472103854
 20
125.0166371793
 10
156.9589721402
 20
124.678284894
 10
157.5569529449
 20
124.5050980107
 10
158.1826182445
 20
124.5140298598
 10
158.7747242664
 20
124.7042063952
 10
159.2753110816
 20
125.0570109442
 10
159.6353790154
 20
125.5379096002
 10
159.8196803023
 20
126.0998268009
 10
159.8101742928
 20
126.6877604977
 10
159.6077932408
 20
127.2441586808
 10
159.2323463773
 20
127.7145566747
 10
158.7205855539
 20
128.05290896
 10
158.1226047491
 20
128.2260958434
  0
LWPOLYLINE
  5
15D
330
1F
100
AcDbEntity
  8
0
  6
HIDDEN
 62
     7
370
     0
100
AcDbPolyline
 90
       21
 70
   128
 43
0.0
 10
158.0999782672
 20
127.9329657883
 10
157.524365968
 20
127.9247487292
 10
156.9796288749
 20
127.7497867451
 10
156.5190879991
 20
127.4252059267
 10
156.1878268038
 20
126.9827792749
 10
156.0182692846
 20
126.4658151523
 10
156.0270144035
 20
125.9249160395
 10
156.213205344
 20
125.4130304188
 10
156.5586161231
 20
124.9802643762
 10
157.0294360062
 20
124.6689800501
 10
157.5795784955
 20
124.5096479871
 10
158.1551907947
 20
124.5178655118
 10
158.6999288191
 20
124.6928279617
 10
159.1604687636
 20
125.0174083144
 10
159.4917308902
 20
125.4598340348
 10
159.6612874781
 20
125.9767990888
 10
159.6525432905
 20
126.5176982016
 10
159.46635235
 20
127.0295838223
 10
159.1209406396
 20
127.4623498649
 10
158.6501207565
 20
127.7736341909
 10
158.0999782672
 20
127.9329657883
  0
LWPOLYLINE
  5
15E
330
1F
100
AcDbEntity
  8
0
  6
HIDDEN
 62
     7
370
     0
100
AcDbPolyline
 90
       21
 70
   128
 43
0.0
 10
158.1226047491
 20
128.4184819416
 10
157.4969394495
 20
128.4095496268
 10
156.9048324963
 20
128.219373557
 10
156.4042456811
 20
127.866569008
 10
156.0441786786
 20
127.385670352
 10
155.8598773917
 20
126.82375222
 10
155.8693824699
 20
126.2358194546
 10
156.0717635219
 20
125.6794212714
 10
156.4472103854
 20
125.2090232775
 10
156.9589721402
 20
124.8706709922
 10
157.5569529449
 20
124.6974845745
 10
158.1826182445
 20
124.7064164237
 10
158.7747242664
 20
124.8965924934
 10
159.2753110816
 20
125.2493970425
 10
159.6353790154
 20
125.7302956984
 10
159.8196803023
 20
126.2922138304
 10
159.8101742928
 20
126.8801465959
 10
159.6077932408
 20
127.436544779
 10
159.2323463773
 20
127.9069427729
 10
158.7205855539
 20
128.2452950583
 10
158.1226047491
 20
128.4184819416
  0
LWPOLYLINE
  5
15F
330
1F
100
AcDbEntity
  8
0
  6
HIDDEN
 62
     7
370
     0
100
AcDbPolyline
 90
       21
 70
   128
 43
0.0
 10
158.0999782672
 20
128.1253518865
 10
157.524365968
 20
128.1171348274
 10
156.9796288749
 20
127.9421728433
 10
156.5190879991
 20
127.6175920249
 10
156.1878268038
 20
127.1751663045
 10
156.0182692846
 20
126.6582012505
 10
156.0270144035
 20
126.117303069
 10
156.213205344
 20
125.605416517
 10
156.5586161231
 20
125.1726504744
 10
157.0294360062
 20
124.8613661484
 10
157.5795784955
 20
124.702034551
 10
158.1551907947
 20
124.7102520757
 10
158.6999288191
 20
124.8852140599
 10
159.1604687636
 20
125.2097944126
 10
159.4917308902
 20
125.6522210643
 10
159.6612874781
 20
126.169185187
 10
159.6525432905
 20
126.7100842998
 10
159.46635235
 20
127.2219699205
 10
159.1209406396
 20
127.6547359631
 10
158.6501207565
 20
127.9660202891
 10
158.0999782672
 20
128.1253518865
  0
LWPOLYLINE
  5
160
330
1F
100
AcDbEntity
  8
0
  6
HIDDEN
 62
     7
370
     0
100
AcDbPolyline
 90
       21
 70
   128
 43
0.0
 10
158.1226047491
 20
128.5552895025
 10
157.4969394495
 20
128.546358119
 10
156.9048324963
 20
128.3561820493
 10
156.4042456811
 20
128.0033765689
 10
156.0441786786
 20
127.5224788443
 10
155.8598773917
 20
126.9605607123
 10
155.8693824699
 20
126.3726270155
 10
156.0717635219
 20
125.8162297637
 10
156.4472103854
 20
125.3458317698
 10
156.9589721402
 20
125.0074790188
 10
157.5569529449
 20
124.8342926011
 10
158.1826182445
 20
124.8432244503
 10
158.7747242664
 20
125.03340052
 10
159.2753110816
 20
125.3862055347
 10
159.6353790154
 20
125.8671032593
 10
159.8196803023
 20
126.4290213913
 10
159.8101742928
 20
127.0169550881
 10
159.6077932408
 20
127.5733523399
 10
159.2323463773
 20
128.0437503338
 10
158.7205855539
 20
128.3821035505
 10
158.1226047491
 20
128.5552895025
  0
LWPOLYLINE
  5
161
330
1F
100
AcDbEntity
  8
0
  6
HIDDEN
 62
     7
370
     0
100
AcDbPolyline
 90
       21
 70
   128
 43
0.0
 10
158.1084635471
 20
128.4964671687
 10
157.5140813728
 20
128.4879818887
 10
156.9515802329
 20
128.3073136911
 10
156.4760227119
 20
127.972149323
 10
156.1339581748
 20
127.5152964846
 10
155.9588723247
 20
126.981474492
 10
155.9679024284
 20
126.4229379923
 10
156.1601646607
 20
125.8943593458
 10
156.5168388551
 20
125.4474819035
 10
157.0030125221
 20
125.1260466271
 10
157.5710941469
 20
124.961519181
 10
158.1654763212
 20
124.9700049267
 10
158.7279774611
 20
125.1506721929
 10
159.2035349821
 20
125.4858365611
 10
159.5455985879
 20
125.9426903308
 10
159.720684438
 20
126.4765123234
 10
159.7116552656
 20
127.0350488231
 10
159.5193930333
 20
127.5636265383
 10
159.1627179076
 20
128.0105049119
 10
158.6765451719
 20
128.3319397227
 10
158.1084635471
 20
128.4964671687
  0
ARC
  5
162
330
1F
100
AcDbEntity
  8
0
  6
HIDDEN
 62
     7
370
     0
100
AcDbCircle
 10
157.8176855795
 20
108.1003507906
 30
0.0
 40
1.97872673551721
100
AcDbArc
 50
338.6274733312
 51
178.3507723466
  0
ARC
  5
163
330
1F
100
AcDbEntity
  8
0
  6
HIDDEN
 62
     7
370
     0
100
AcDbCircle
 10
157.8199471258
 20
108.0691991254
 30
0.0
 40
1.885578344856721
100
AcDbArc
 50
341.3504813105
 51
156.9404891885
  0
ARC
  5
164
330
1F
100
AcDbEntity
  8
0
  6
HIDDEN
 62
     7
370
     0
100
AcDbCircle
 10
157.8898655244
 20
108.0887860549
 30
0.0
 40
1.444791019405493
100
AcDbArc
 50
353.984705017
 51
92.0694574844
  0
LWPOLYLINE
  5
165
330
1F
100
AcDbEntity
  8
0
  6
HIDDEN
 62
     7
370
     0
100
AcDbPolyline
 90
       21
 70
   128
 43
0.0
 10
157.5569529449
 20
106.433608602
 10
156.9589721402
 20
106.6067954854
 10
156.4472103854
 20
106.9451477707
 10
156.0717635219
 20
107.4155457646
 10
155.8693824699
 20
107.9719439477
 10
155.8598773917
 20
108.5598767132
 10
156.0441786786
 20
109.1217948452
 10
156.4042456811
 20
109.6026935012
 10
156.9048324963
 20
109.9554980502
 10
157.4969394495
 20
110.14567412
 10
158.1226047491
 20
110.1546059691
 10
158.7205855539
 20
109.9814195514
 10
159.2323463773
 20
109.6430672661
 10
159.6077932408
 20
109.1726692722
 10
159.8101742928
 20
108.6162710891
 10
159.8196803023
 20
108.0283383236
 10
159.6353790154
 20
107.4664201916
 10
159.2753110816
 20
106.9855215356
 10
158.7747242664
 20
106.6327169866
 10
158.1826182445
 20
106.4425409169
 10
157.5569529449
 20
106.433608602
  0
LWPOLYLINE
  5
166
330
1F
100
AcDbEntity
  8
0
  6
HIDDEN
 62
     7
370
     0
100
AcDbPolyline
 90
       19
 70
   128
 43
0.0
 10
157.6276589548
 20
107.7312017188
 10
157.1325771873
 20
107.8835269765
 10
156.7227933919
 20
108.1857821301
 10
156.44773472
 20
108.6015114889
 10
156.3405776759
 20
109.0805707828
 10
156.4142462229
 20
109.5651788965
 10
156.6598546123
 20
109.9968850941
 10
157.0477793356
 20
110.3236191303
 10
157.5312307467
 20
110.5059725561
 10
158.0518978079
 20
110.5219498605
 10
158.5469805067
 20
110.3696246029
 10
158.9567633708
 20
110.0673694492
 10
159.2318220427
 20
109.6516405561
 10
159.3389790868
 20
109.1725807965
 10
159.2653114711
 20
108.6879726828
 10
159.0197021504
 20
108.2562664852
 10
158.6317774271
 20
107.929532449
 10
158.148326016
 20
107.7471794889
 10
157.6276589548
 20
107.7312017188
  0
LWPOLYLINE
  5
167
330
1F
100
AcDbEntity
  8
0
  6
HIDDEN
 62
     7
370
     0
100
AcDbPolyline
 90
       21
 70
   128
 43
0.0
 10
157.5569529449
 20
106.6259947003
 10
156.9589721402
 20
106.7991815836
 10
156.4472103854
 20
107.1375338689
 10
156.0717635219
 20
107.6079318628
 10
155.8693824699
 20
108.1643300459
 10
155.8598773917
 20
108.7522637427
 10
156.0441786786
 20
109.3141809434
 10
156.4042456811
 20
109.7950795994
 10
156.9048324963
 20
110.1478841484
 10
157.4969394495
 20
110.3380606838
 10
158.1226047491
 20
110.346992533
 10
158.7205855539
 20
110.1738056496
 10
159.2323463773
 20
109.8354533643
 10
159.6077932408
 20
109.3650553704
 10
159.8101742928
 20
108.8086571873
 10
159.8196803023
 20
108.2207244218
 10
159.6353790154
 20
107.6588062898
 10
159.2753110816
 20
107.1779076338
 10
158.7747242664
 20
106.8251030848
 10
158.1826182445
 20
106.6349270151
 10
157.5569529449
 20
106.6259947003
  0
LWPOLYLINE
  5
168
330
1F
100
AcDbEntity
  8
0
  6
HIDDEN
 62
     7
370
     0
100
AcDbPolyline
 90
       21
 70
   128
 43
0.0
 10
157.5795784955
 20
106.7267386571
 10
157.0294360062
 20
106.8860702545
 10
156.5586161231
 20
107.1973545805
 10
156.213205344
 20
107.6301206232
 10
156.0270144035
 20
108.1420062438
 10
156.0182692846
 20
108.6829053566
 10
156.1878268038
 20
109.1998694793
 10
156.5190879991
 20
109.642296131
 10
156.9796288749
 20
109.9668764838
 10
157.524365968
 20
110.1418384679
 10
158.0999782672
 20
110.1500559927
 10
158.6501207565
 20
109.9907243953
 10
159.1209406396
 20
109.6794400693
 10
159.46635235
 20
109.2466740266
 10
159.6525432905
 20
108.7347874746
 10
159.6612874781
 20
108.1938892931
 10
159.4917308902
 20
107.6769242392
 10
159.1604687636
 20
107.2344985188
 10
158.6999288191
 20
106.9099177004
 10
158.1551907947
 20
106.7349557162
 10
157.5795784955
 20
106.7267386571
  0
LWPOLYLINE
  5
169
330
1F
100
AcDbEntity
  8
0
  6
HIDDEN
 62
     7
370
     0
100
AcDbPolyline
 90
       21
 70
   128
 43
0.0
 10
157.5569529449
 20
106.8183817298
 10
156.9589721402
 20
106.9915676818
 10
156.4472103854
 20
107.3299208984
 10
156.0717635219
 20
107.8003188924
 10
155.8693824699
 20
108.3567161441
 10
155.8598773917
 20
108.944649841
 10
156.0441786786
 20
109.506567973
 10
156.4042456811
 20
109.9874656976
 10
156.9048324963
 20
110.3402707123
 10
157.4969394495
 20
110.530446782
 10
158.1226047491
 20
110.5393786312
 10
158.7205855539
 20
110.3661922135
 10
159.2323463773
 20
110.0278399282
 10
159.6077932408
 20
109.5574414686
 10
159.8101742928
 20
109.0010442168
 10
159.8196803023
 20
108.41311052
 10
159.6353790154
 20
107.851192388
 10
159.2753110816
 20
107.3702946634
 10
158.7747242664
 20
107.017489183
 10
158.1826182445
 20
106.8273131133
 10
157.5569529449
 20
106.8183817298
  0
LWPOLYLINE
  5
16A
330
1F
100
AcDbEntity
  8
0
  6
HIDDEN
 62
     7
370
     0
100
AcDbPolyline
 90
       21
 70
   128
 43
0.0
 10
157.5795784955
 20
106.9191247553
 10
157.0294360062
 20
107.0784563527
 10
156.5586161231
 20
107.3897406787
 10
156.213205344
 20
107.8225067214
 10
156.0270144035
 20
108.334392342
 10
156.0182692846
 20
108.8752914549
 10
156.1878268038
 20
109.3922565088
 10
156.5190879991
 20
109.8346822292
 10
156.9796288749
 20
110.159262582
 10
157.524365968
 20
110.3342250318
 10
158.0999782672
 20
110.3424425565
 10
158.6501207565
 20
110.1831104935
 10
159.1209406396
 20
109.8718261675
 10
159.46635235
 20
109.4390601248
 10
159.6525432905
 20
108.9271745042
 10
159.6612874781
 20
108.3862753913
 10
159.4917308902
 20
107.8693112687
 10
159.1604687636
 20
107.426884617
 10
158.6999288191
 20
107.1023037986
 10
158.1551907947
 20
106.9273418144
 10
157.5795784955
 20
106.9191247553
  0
LWPOLYLINE
  5
16B
330
1F
100
AcDbEntity
  8
0
  6
HIDDEN
 62
     7
370
     0
100
AcDbPolyline
 90
       21
 70
   128
 43
0.0
 10
157.5569529449
 20
107.010767828
 10
156.9589721402
 20
107.1839547113
 10
156.4472103854
 20
107.5223069966
 10
156.0717635219
 20
107.9927049906
 10
155.8693824699
 20
108.5491022424
 10
155.8598773917
 20
109.1370359392
 10
156.0441786786
 20
109.6989540712
 10
156.4042456811
 20
110.1798522615
 10
156.9048324963
 20
110.5326568105
 10
157.4969394495
 20
110.7228333459
 10
158.1226047491
 20
110.731765195
 10
158.7205855539
 20
110.5585783117
 10
159.2323463773
 20
110.2202260264
 10
159.6077932408
 20
109.7498280325
 10
159.8101742928
 20
109.193430315
 10
159.8196803023
 20
108.6054966182
 10
159.6353790154
 20
108.0435784862
 10
159.2753110816
 20
107.5626807616
 10
158.7747242664
 20
107.2098762125
 10
158.1826182445
 20
107.0197001428
 10
157.5569529449
 20
107.010767828
  0
LWPOLYLINE
  5
16C
330
1F
100
AcDbEntity
  8
0
  6
HIDDEN
 62
     7
370
     0
100
AcDbPolyline
 90
       21
 70
   128
 43
0.0
 10
157.5795784955
 20
107.1115108535
 10
157.0294360062
 20
107.2708424509
 10
156.5586161231
 20
107.5821267769
 10
156.213205344
 20
108.0148928196
 10
156.0270144035
 20
108.5267793716
 10
156.0182692846
 20
109.0676775531
 10
156.1878268038
 20
109.584642607
 10
156.5190879991
 20
110.0270687931
 10
156.9796288749
 20
110.3516491458
 10
157.524365968
 20
110.52661113
 10
158.0999782672
 20
110.5348286547
 10
158.6501207565
 20
110.3754970573
 10
159.1209406396
 20
110.0642127313
 10
159.46635235
 20
109.6314466887
 10
159.6525432905
 20
109.1195606024
 10
159.6612874781
 20
108.5786614895
 10
159.4917308902
 20
108.0616973669
 10
159.1604687636
 20
107.6192707152
 10
158.6999288191
 20
107.2946908281
 10
158.1551907947
 20
107.1197288439
 10
157.5795784955
 20
107.1115108535
  0
LWPOLYLINE
  5
16D
330
1F
100
AcDbEntity
  8
0
  6
HIDDEN
 62
     7
370
     0
100
AcDbPolyline
 90
       21
 70
   128
 43
0.0
 10
157.5569529449
 20
107.2031539262
 10
156.9589721402
 20
107.3763408095
 10
156.4472103854
 20
107.7146930949
 10
156.0717635219
 20
108.1850910888
 10
155.8693824699
 20
108.7414892719
 10
155.8598773917
 20
109.3294220374
 10
156.0441786786
 20
109.8913401694
 10
156.4042456811
 20
110.3722383597
 10
156.9048324963
 20
110.7250433744
 10
157.4969394495
 20
110.9152194441
 10
158.1226047491
 20
110.9241512932
 10
158.7205855539
 20
110.7509648756
 10
159.2323463773
 20
110.4126125903
 10
159.6077932408
 20
109.9422145963
 10
159.8101742928
 20
109.3858164132
 10
159.8196803023
 20
108.7978836477
 10
159.6353790154
 20
108.2359655157
 10
159.2753110816
 20
107.7550668598
 10
158.7747242664
 20
107.4022623107
 10
158.1826182445
 20
107.212086241
 10
157.5569529449
 20
107.2031539262
  0
LWPOLYLINE
  5
16E
330
1F
100
AcDbEntity
  8
0
  6
HIDDEN
 62
     7
370
     0
100
AcDbPolyline
 90
       21
 70
   128
 43
0.0
 10
157.5795784955
 20
107.3038969517
 10
157.0294360062
 20
107.4632294804
 10
156.5586161231
 20
107.7745128751
 10
156.213205344
 20
108.2072798491
 10
156.0270144035
 20
108.7191654698
 10
156.0182692846
 20
109.2600645826
 10
156.1878268038
 20
109.7770287052
 10
156.5190879991
 20
110.2194548913
 10
156.9796288749
 20
110.544035244
 10
157.524365968
 20
110.7189976939
 10
158.0999782672
 20
110.7272152186
 10
158.6501207565
 20
110.5678831556
 10
159.1209406396
 20
110.2565988295
 10
159.46635235
 20
109.8238327869
 10
159.6525432905
 20
109.3119467006
 10
159.6612874781
 20
108.7710485191
 10
159.4917308902
 20
108.2540834651
 10
159.1604687636
 20
107.8116568134
 10
158.6999288191
 20
107.4870769263
 10
158.1551907947
 20
107.3121149421
 10
157.5795784955
 20
107.3038969517
  0
LWPOLYLINE
  5
16F
330
1F
100
AcDbEntity
  8
0
  6
HIDDEN
 62
     7
370
     0
100
AcDbPolyline
 90
       21
 70
   128
 43
0.0
 10
157.5569529449
 20
107.5280728147
 10
156.9589721402
 20
107.701259698
 10
156.4472103854
 20
108.0396119834
 10
156.0717635219
 20
108.5100099773
 10
155.8693824699
 20
109.0664081604
 10
155.8598773917
 20
109.6543413915
 10
156.0441786786
 20
110.2162595235
 10
156.4042456811
 20
110.6971577138
 10
156.9048324963
 20
111.0499622629
 10
157.4969394495
 20
111.2401387983
 10
158.1226047491
 20
111.2490706474
 10
158.7205855539
 20
111.0758842298
 10
159.2323463773
 20
110.7375314788
 10
159.6077932408
 20
110.2671334848
 10
159.8101742928
 20
109.7107357674
 10
159.8196803023
 20
109.1228025363
 10
159.6353790154
 20
108.5608844042
 10
159.2753110816
 20
108.0799857483
 10
158.7747242664
 20
107.7271811993
 10
158.1826182445
 20
107.5370051295
 10
157.5569529449
 20
107.5280728147
  0
LWPOLYLINE
  5
170
330
1F
100
AcDbEntity
  8
0
  6
HIDDEN
 62
     7
370
     0
100
AcDbPolyline
 90
       18
 70
   128
 43
0.0
 10
157.6304324334
 20
108.1140507341
 10
157.1151670431
 20
108.2781087936
 10
156.6977640977
 20
108.6059986011
 10
156.4345965525
 20
109.0534366996
 10
156.3612064709
 20
109.5599942238
 10
156.4875059192
 20
110.0572576143
 10
156.7964367931
 20
110.4780687348
 10
157.2462777038
 20
110.7655950219
 10
157.7762738233
 20
110.8810040497
 10
158.3148464923
 20
110.8087092035
 10
158.7892584865
 20
110.5584749349
 10
159.1354385381
 20
110.1640956805
 10
159.3066314598
 20
109.6788356409
 10
159.2797190314
 20
109.1682315201
 10
159.0583343421
 20
108.7012421668
 10
158.6723765721
 20
108.3409386084
 10
158.1739718457
 20
108.1359815181
 10
157.6304324334
 20
108.1140507341
  0
LWPOLYLINE
  5
171
330
1F
100
AcDbEntity
  8
0
  6
HIDDEN
 62
     7
370
     0
100
AcDbPolyline
 90
       19
 70
   128
 43
0.0
 10
149.7601303635
 20
106.9519203485
 10
150.0378763666
 20
107.0789676488
 10
150.2440274124
 20
107.3807720423
 10
150.353717654
 20
107.8209318549
 10
150.353717654
 20
108.3463589058
 10
150.2440274124
 20
108.8936766938
 10
150.0378763666
 20
109.3968721435
 10
149.7601303635
 20
109.7952523597
 10
149.4442890761
 20
110.0407657542
 10
149.1284477887
 20
110.1038009257
 10
148.8507017856
 20
109.976754091
 10
148.6445509726
 20
109.6749496975
 10
148.5348604982
 20
109.2347894192
 10
148.5348604982
 20
108.7093623683
 10
148.6445509726
 20
108.1620445803
 10
148.8507017856
 20
107.6588491306
 10
149.1284477887
 20
107.2604693801
 10
149.4442890761
 20
107.0149559856
 10
149.7601303635
 20
106.9519203485
  0
LWPOLYLINE
  5
172
330
1F
100
AcDbEntity
  8
0
  6
HIDDEN
 62
     7
370
     0
100
AcDbPolyline
 90
       21
 70
   128
 43
0.0
 10
150.0210841549
 20
106.6143429235
 10
150.3349924823
 20
106.7460812957
 10
150.5797678036
 20
107.0565563024
 10
150.7314490517
 20
107.5153770254
 10
150.7751886164
 20
108.0776304335
 10
150.7067056735
 20
108.6882790879
 10
150.5327034173
 20
109.2875497744
 10
150.2702143406
 20
109.8167794154
 10
149.9449331676
 20
110.2241650552
 10
149.5886999545
 20
110.4698283926
 10
149.2363852811
 20
110.5297222131
 10
148.9224769538
 20
110.3979838409
 10
148.6777018653
 20
110.0875088342
 10
148.5260206172
 20
109.6286881112
 10
148.4822808196
 20
109.0664351687
 10
148.5507637625
 20
108.455785583
 10
148.7247660187
 20
107.8565158278
 10
148.9872550954
 20
107.3272861869
 10
149.3125367341
 20
106.919900547
 10
149.6687699472
 20
106.6742372096
 10
150.0210841549
 20
106.6143429235
  0
LWPOLYLINE
  5
173
330
1F
100
AcDbEntity
  8
0
  6
HIDDEN
 62
     7
370
     0
100
AcDbPolyline
 90
       21
 70
   128
 43
0.0
 10
153.3180345212
 20
107.4039135457
 10
153.6319433143
 20
107.5356519178
 10
153.87671817
 20
107.8461269245
 10
154.0283989524
 20
108.3049476475
 10
154.0721394484
 20
108.8672010556
 10
154.0036565056
 20
109.47784971
 10
153.8296537836
 20
110.0771199309
 10
153.5671651726
 20
110.6063500375
 10
153.2418830683
 20
111.0137356774
 10
152.8856503209
 20
111.2593990148
 10
152.5333361132
 20
111.3192928352
 10
152.2194273201
 20
111.1875544631
 10
151.9746524644
 20
110.8770789907
 10
151.8229712163
 20
110.4182587334
 10
151.779231186
 20
109.8560053252
 10
151.8477141288
 20
109.2453562052
 10
152.0217163851
 20
108.64608645
 10
152.2842054618
 20
108.116856809
 10
152.6094871004
 20
107.7094711692
 10
152.9657207792
 20
107.4638078318
 10
153.3180345212
 20
107.4039135457
  0
LINE
  5
174
330
1F
100
AcDbEntity
  8
0
  6
HIDDEN
 62
     7
370
     0
100
AcDbLine
 10
149.8700129231
 20
109.1511203305
 30
0.0
 11
149.2177662802
 21
109.6581332714
 31
0.0
  0
LINE
  5
175
330
1F
100
AcDbEntity
  8
0
  6
HIDDEN
 62
     7
370
     0
100
AcDbLine
 10
148.7920419676
 20
109.034873578
 30
0.0
 11
149.2177662802
 21
109.6581332714
 31
0.0
  0
LINE
  5
176
330
1F
100
AcDbEntity
  8
0
  6
HIDDEN
 62
     7
370
     0
100
AcDbLine
 10
149.0185652291
 20
107.9046009437
 30
0.0
 11
148.7920419676
 21
109.034873578
 31
0.0
  0
LINE
  5
177
330
1F
100
AcDbEntity
  8
0
  6
HIDDEN
 62
     7
370
     0
100
AcDbLine
 10
149.0185652291
 20
107.9046009437
 30
0.0
 11
149.6708123376
 21
107.3975880027
 31
0.0
  0
LINE
  5
178
330
1F
100
AcDbEntity
  8
0
  6
HIDDEN
 62
     7
370
     0
100
AcDbLine
 10
150.0965361846
 20
108.0208476961
 30
0.0
 11
149.6708123376
 21
107.3975880027
 31
0.0
  0
LINE
  5
179
330
1F
100
AcDbEntity
  8
0
  6
HIDDEN
 62
     7
370
     0
100
AcDbLine
 10
150.0965361846
 20
108.0208476961
 30
0.0
 11
149.8700129231
 21
109.1511203305
 31
0.0
  0
LINE
  5
17A
330
1F
100
AcDbEntity
  8
0
  6
HIDDEN
 62
     7
370
     0
100
AcDbLine
 10
151.9178930101
 20
109.6415571266
 30
0.0
 11
149.8700129231
 21
109.1511203305
 31
0.0
  0
LINE
  5
17B
330
1F
100
AcDbEntity
  8
0
  6
HIDDEN
 62
     7
370
     0
100
AcDbLine
 10
152.1444162717
 20
108.5112849579
 30
0.0
 11
150.0965361846
 21
108.0208476961
 31
0.0
  0
LINE
  5
17C
330
1F
100
AcDbEntity
  8
0
  6
HIDDEN
 62
     7
370
     0
100
AcDbLine
 10
150.8399220546
 20
109.5253099085
 30
0.0
 11
151.2656463673
 21
110.1485700675
 31
0.0
  0
LINE
  5
17D
330
1F
100
AcDbEntity
  8
0
  6
HIDDEN
 62
     7
370
     0
100
AcDbLine
 10
150.8399220546
 20
109.5253099085
 30
0.0
 11
148.7920419676
 21
109.034873578
 31
0.0
  0
LINE
  5
17E
330
1F
100
AcDbEntity
  8
0
  6
HIDDEN
 62
     7
370
     0
100
AcDbLine
 10
151.2656463673
 20
110.1485700675
 30
0.0
 11
149.2177662802
 21
109.6581332714
 31
0.0
  0
LINE
  5
17F
330
1F
100
AcDbEntity
  8
0
  6
HIDDEN
 62
     7
370
     0
100
AcDbLine
 10
151.0664453161
 20
108.3950372741
 30
0.0
 11
149.0185652291
 21
107.9046009437
 31
0.0
  0
LINE
  5
180
330
1F
100
AcDbEntity
  8
0
  6
HIDDEN
 62
     7
370
     0
100
AcDbLine
 10
151.0664453161
 20
108.3950372741
 30
0.0
 11
151.7186924247
 21
107.8880252645
 31
0.0
  0
LINE
  5
181
330
1F
100
AcDbEntity
  8
0
  6
HIDDEN
 62
     7
370
     0
100
AcDbLine
 10
151.7186924247
 20
107.8880252645
 30
0.0
 11
149.6708123376
 21
107.3975880027
 31
0.0
  0
LINE
  5
182
330
1F
100
AcDbEntity
  8
0
  6
HIDDEN
 62
     7
370
     0
100
AcDbLine
 10
151.0664453161
 20
108.3950372741
 30
0.0
 11
150.8399220546
 21
109.5253099085
 31
0.0
  0
LINE
  5
183
330
1F
100
AcDbEntity
  8
0
  6
HIDDEN
 62
     7
370
     0
100
AcDbLine
 10
152.1444162717
 20
108.5112849579
 30
0.0
 11
151.7186924247
 21
107.8880252645
 31
0.0
  0
LINE
  5
184
330
1F
100
AcDbEntity
  8
0
  6
HIDDEN
 62
     7
370
     0
100
AcDbLine
 10
152.1444162717
 20
108.5112849579
 30
0.0
 11
151.9178930101
 21
109.6415571266
 31
0.0
  0
LINE
  5
185
330
1F
100
AcDbEntity
  8
0
  6
HIDDEN
 62
     7
370
     0
100
AcDbLine
 10
151.9178930101
 20
109.6415571266
 30
0.0
 11
151.2656463673
 21
110.1485700675
 31
0.0
  0
LWPOLYLINE
  5
186
330
1F
100
AcDbEntity
  8
0
  6
HIDDEN
 62
     7
370
     0
100
AcDbPolyline
 90
       17
 70
   128
 43
0.0
 10
153.7852678811
 20
108.2851784632
 10
154.0244277929
 20
108.4061190814
 10
154.1898455833
 20
108.6949240745
 10
154.2563373586
 20
109.1076229096
 10
154.2137815048
 20
109.581388566
 10
154.0686553707
 20
110.0440924384
 10
153.8430545842
 20
110.4252934784
 10
153.5713235279
 20
110.6669563197
 10
153.2948306193
 20
110.7322899953
 10
153.0556707074
 20
110.6113489114
 10
152.890252917
 20
110.3225448497
 10
152.8237611418
 20
109.9098450833
 10
152.8663169955
 20
109.4360798926
 10
153.0114431297
 20
108.9733755544
 10
153.2370448475
 20
108.5921749801
 10
153.5087759038
 20
108.3505126045
 10
153.7852678811
 20
108.2851784632
  0
LWPOLYLINE
  5
187
330
1F
100
AcDbEntity
  8
0
  6
HIDDEN
 62
     7
370
     0
100
AcDbPolyline
 90
       21
 70
   128
 43
0.0
 10
152.5333361132
 20
127.0648865358
 10
152.8856503209
 20
127.3491727517
 10
153.2418830683
 20
127.4515167207
 10
153.5671651726
 20
127.3619029999
 10
153.8296537836
 20
127.0891009227
 10
154.0036565056
 20
126.6598161638
 10
154.0721394484
 20
126.1160690666
 10
154.0283989524
 20
125.5110856474
 10
153.87671817
 20
124.9040854492
 10
153.6319433143
 20
124.3544868522
 10
153.3180345212
 20
123.9160881706
 10
152.9657207792
 20
123.6318024204
 10
152.6094871004
 20
123.52945752
 10
152.2842054618
 20
123.6190721721
 10
152.0217163851
 20
123.8918737837
 10
151.8477141288
 20
124.3211590082
 10
151.779231186
 20
124.8649061055
 10
151.8229712163
 20
125.4698895246
 10
151.9746524644
 20
126.0768892572
 10
152.2194273201
 20
126.6264878542
 10
152.5333361132
 20
127.0648865358
  0
LWPOLYLINE
  5
188
330
1F
100
AcDbEntity
  8
0
  6
HIDDEN
 62
     7
370
     0
100
AcDbPolyline
 90
       17
 70
   128
 43
0.0
 10
153.2948306193
 20
126.3273563564
 10
153.5713235279
 20
126.5321299762
 10
153.8430545842
 20
126.5559243367
 10
154.0686553707
 20
126.3951156617
 10
154.2137815048
 20
126.0741865591
 10
154.2563373586
 20
125.6419951425
 10
154.1898455833
 20
125.1643384204
 10
154.0244277929
 20
124.7139359221
 10
153.7852678811
 20
124.3593567379
 10
153.5087759038
 20
124.1545826525
 10
153.2370448475
 20
124.1307887577
 10
153.0114431297
 20
124.291596967
 10
152.8663169955
 20
124.6125260696
 10
152.8237611418
 20
125.0447174863
 10
152.890252917
 20
125.5223742083
 10
153.0556707074
 20
125.9727767066
 10
153.2948306193
 20
126.3273563564
  0
LWPOLYLINE
  5
189
330
1F
100
AcDbEntity
  8
0
  6
HIDDEN
 62
     7
370
     0
100
AcDbPolyline
 90
       21
 70
   128
 43
0.0
 10
149.2363852811
 20
127.8544571579
 10
149.5886999545
 20
128.1387424425
 10
149.9449331676
 20
128.2410873429
 10
150.2702143406
 20
128.1514726908
 10
150.5327034173
 20
127.8786715449
 10
150.7067056735
 20
127.4493858547
 10
150.7751886164
 20
126.9056387574
 10
150.7314490517
 20
126.3006553382
 10
150.5797678036
 20
125.6936556057
 10
150.3349924823
 20
125.1440574743
 10
150.0210841549
 20
124.7056587928
 10
149.6687699472
 20
124.4213725769
 10
149.3125367341
 20
124.3190281422
 10
148.9872550954
 20
124.4086427943
 10
148.7247660187
 20
124.6814444058
 10
148.5507637625
 20
125.1107296304
 10
148.4822808196
 20
125.6544767276
 10
148.5260206172
 20
126.2594601468
 10
148.6777018653
 20
126.8664598793
 10
148.9224769538
 20
127.4160584763
 10
149.2363852811
 20
127.8544571579
  0
LINE
  5
18A
330
1F
100
AcDbEntity
  8
0
  6
HIDDEN
 62
     7
370
     0
100
AcDbLine
 10
150.8399220546
 20
125.7036188946
 30
0.0
 11
151.2656463673
 21
126.7427727909
 31
0.0
  0
LINE
  5
18B
330
1F
100
AcDbEntity
  8
0
  6
HIDDEN
 62
     7
370
     0
100
AcDbLine
 10
150.8399220546
 20
125.7036188946
 30
0.0
 11
148.7920419676
 21
126.194055225
 31
0.0
  0
LINE
  5
18C
330
1F
100
AcDbEntity
  8
0
  6
HIDDEN
 62
     7
370
     0
100
AcDbLine
 10
150.8399220546
 20
125.7036188946
 30
0.0
 11
151.0664453161
 21
124.7946387485
 31
0.0
  0
LINE
  5
18D
330
1F
100
AcDbEntity
  8
0
  6
HIDDEN
 62
     7
370
     0
100
AcDbLine
 10
151.2656463673
 20
126.7427727909
 30
0.0
 11
149.2177662802
 21
127.2332100526
 31
0.0
  0
LINE
  5
18E
330
1F
100
AcDbEntity
  8
0
  6
HIDDEN
 62
     7
370
     0
100
AcDbLine
 10
151.9178930101
 20
126.8729474724
 30
0.0
 11
151.2656463673
 21
126.7427727909
 31
0.0
  0
LINE
  5
18F
330
1F
100
AcDbEntity
  8
0
  6
HIDDEN
 62
     7
370
     0
100
AcDbLine
 10
149.8700129231
 20
127.3633838028
 30
0.0
 11
149.2177662802
 21
127.2332100526
 31
0.0
  0
LINE
  5
190
330
1F
100
AcDbEntity
  8
0
  6
HIDDEN
 62
     7
370
     0
100
AcDbLine
 10
148.7920419676
 20
126.194055225
 30
0.0
 11
149.0185652291
 21
125.2850760103
 31
0.0
  0
LWPOLYLINE
  5
191
330
1F
100
AcDbEntity
  8
0
  6
HIDDEN
 62
     7
370
     0
100
AcDbPolyline
 90
       19
 70
   128
 43
0.0
 10
149.1284477887
 20
127.5916211635
 10
149.4442890761
 20
127.837134558
 10
149.7601303635
 20
127.9001701952
 10
150.0378763666
 20
127.7731228948
 10
150.2440274124
 20
127.4713185013
 10
150.353717654
 20
127.0311586887
 10
150.353717654
 20
126.5057316378
 10
150.2440274124
 20
125.9584138498
 10
150.0378763666
 20
125.4552184001
 10
149.7601303635
 20
125.0568381839
 10
149.4442890761
 20
124.8113247894
 10
149.1284477887
 20
124.748289618
 10
148.8507017856
 20
124.8753364526
 10
148.6445509726
 20
125.1771408462
 10
148.5348604982
 20
125.6173011244
 10
148.5348604982
 20
126.1427281753
 10
148.6445509726
 20
126.6900459633
 10
148.8507017856
 20
127.193241413
 10
149.1284477887
 20
127.5916211635
  0
LINE
  5
192
330
1F
100
AcDbEntity
  8
0
  6
HIDDEN
 62
     7
370
     0
100
AcDbLine
 10
148.7920419676
 20
126.194055225
 30
0.0
 11
149.2177662802
 21
127.2332100526
 31
0.0
  0
LINE
  5
193
330
1F
100
AcDbEntity
  8
0
  6
HIDDEN
 62
     7
370
     0
100
AcDbLine
 10
151.7186924247
 20
124.9248134301
 30
0.0
 11
149.6708123376
 21
125.4152497605
 31
0.0
  0
LINE
  5
194
330
1F
100
AcDbEntity
  8
0
  6
HIDDEN
 62
     7
370
     0
100
AcDbLine
 10
149.0185652291
 20
125.2850760103
 30
0.0
 11
149.6708123376
 21
125.4152497605
 31
0.0
  0
LINE
  5
195
330
1F
100
AcDbEntity
  8
0
  6
HIDDEN
 62
     7
370
     0
100
AcDbLine
 10
151.0664453161
 20
124.7946387485
 30
0.0
 11
149.0185652291
 21
125.2850760103
 31
0.0
  0
LINE
  5
196
330
1F
100
AcDbEntity
  8
0
  6
HIDDEN
 62
     7
370
     0
100
AcDbLine
 10
151.0664453161
 20
124.7946387485
 30
0.0
 11
151.7186924247
 21
124.9248134301
 31
0.0
  0
LINE
  5
197
330
1F
100
AcDbEntity
  8
0
  6
HIDDEN
 62
     7
370
     0
100
AcDbLine
 10
152.1444162717
 20
125.9639673263
 30
0.0
 11
150.0965361846
 21
126.4544036568
 31
0.0
  0
LINE
  5
198
330
1F
100
AcDbEntity
  8
0
  6
HIDDEN
 62
     7
370
     0
100
AcDbLine
 10
149.8700129231
 20
127.3633838028
 30
0.0
 11
150.0965361846
 21
126.4544036568
 31
0.0
  0
LINE
  5
199
330
1F
100
AcDbEntity
  8
0
  6
HIDDEN
 62
     7
370
     0
100
AcDbLine
 10
151.9178930101
 20
126.8729474724
 30
0.0
 11
149.8700129231
 21
127.3633838028
 31
0.0
  0
LINE
  5
19A
330
1F
100
AcDbEntity
  8
0
  6
HIDDEN
 62
     7
370
     0
100
AcDbLine
 10
151.9178930101
 20
126.8729474724
 30
0.0
 11
152.1444162717
 21
125.9639673263
 31
0.0
  0
LINE
  5
19B
330
1F
100
AcDbEntity
  8
0
  6
HIDDEN
 62
     7
370
     0
100
AcDbLine
 10
150.0965361846
 20
126.4544036568
 30
0.0
 11
149.6708123376
 21
125.4152497605
 31
0.0
  0
LINE
  5
19C
330
1F
100
AcDbEntity
  8
0
  6
HIDDEN
 62
     7
370
     0
100
AcDbLine
 10
152.1444162717
 20
125.9639673263
 30
0.0
 11
151.7186924247
 21
124.9248134301
 31
0.0
  0
LINE
  5
19D
330
1F
100
AcDbEntity
  8
0
  6
HIDDEN
 62
     7
370
     0
100
AcDbLine
 10
223.9397764569
 20
147.9260456145
 30
0.0
 11
223.1897786622
 21
146.3176645667
 31
0.0
  0
LINE
  5
19E
330
1F
100
AcDbEntity
  8
0
  6
HIDDEN
 62
     7
370
     0
100
AcDbLine
 10
223.1897786622
 20
88.5344259769
 30
0.0
 11
223.9397764569
 21
86.9260449291
 31
0.0
  0
LINE
  5
19F
330
1F
100
AcDbEntity
  8
0
  6
HIDDEN
 62
     7
370
     0
100
AcDbLine
 10
159.8397782435
 20
106.5672021688
 30
0.0
 11
159.8397782435
 21
109.3885721967
 31
0.0
  0
LINE
  5
1A0
330
1F
100
AcDbEntity
  8
0
  6
HIDDEN
 62
     7
370
     0
100
AcDbLine
 10
155.8397785192
 20
109.3716174693
 30
0.0
 11
155.8397785192
 21
107.8501614139
 31
0.0
  0
LINE
  5
1A1
330
1F
100
AcDbEntity
  8
0
  6
HIDDEN
 62
     7
370
     0
100
AcDbLine
 10
148.0397784979
 20
106.0321200967
 30
0.0
 11
149.9333777828
 21
106.485608998
 31
0.0
  0
LINE
  5
1A2
330
1F
100
AcDbEntity
  8
0
  6
HIDDEN
 62
     7
370
     0
100
AcDbLine
 10
148.9552003694
 20
110.5701122761
 30
0.0
 11
148.0397784979
 21
110.3508826674
 31
0.0
  0
LINE
  5
1A3
330
1F
100
AcDbEntity
  8
0
  6
HIDDEN
 62
     7
370
     0
100
AcDbLine
 10
149.9627391239
 20
106.9553653107
 30
0.0
 11
157.1697993567
 21
108.6813481853
 31
0.0
  0
LINE
  5
1A4
330
1F
100
AcDbEntity
  8
0
  6
HIDDEN
 62
     7
370
     0
100
AcDbLine
 10
157.1697993567
 20
112.0746620328
 30
0.0
 11
149.1941712228
 21
110.1646176868
 31
0.0
  0
LINE
  5
1A5
330
1F
100
AcDbEntity
  8
0
  6
HIDDEN
 62
     7
370
     0
100
AcDbLine
 10
159.4897788381
 20
109.4321413294
 30
0.0
 11
159.4897788381
 21
115.9749548279
 31
0.0
  0
LINE
  5
1A6
330
1F
100
AcDbEntity
  8
0
  6
HIDDEN
 62
     7
370
     0
100
AcDbLine
 10
156.1897788559
 20
109.4543813125
 30
0.0
 11
156.1897788559
 21
109.4321413294
 31
0.0
  0
LINE
  5
1A7
330
1F
100
AcDbEntity
  8
0
  6
HIDDEN
 62
     7
370
     0
100
AcDbLine
 10
156.1897788559
 20
115.9746627419
 30
0.0
 11
156.1897788559
 21
110.8322283582
 31
0.0
  0
LINE
  5
1A8
330
1F
100
AcDbEntity
  8
0
  6
HIDDEN
 62
     7
370
     0
100
AcDbLine
 10
223.1897786622
 20
141.4260454804
 30
0.0
 11
218.8897803788
 21
141.4260454804
 31
0.0
  0
LINE
  5
1A9
330
1F
100
AcDbEntity
  8
0
  6
HIDDEN
 62
     7
370
     0
100
AcDbLine
 10
218.8897803788
 20
93.4260450632
 30
0.0
 11
223.1897786622
 21
93.4260450632
 31
0.0
  0
LINE
  5
1AA
330
1F
100
AcDbEntity
  8
0
  6
HIDDEN
 62
     7
370
     0
100
AcDbLine
 10
218.8897803788
 20
138.292070511
 30
0.0
 11
217.389777339
 21
137.4260448248
 31
0.0
  0
LINE
  5
1AB
330
1F
100
AcDbEntity
  8
0
  6
HIDDEN
 62
     7
370
     0
100
AcDbLine
 10
217.389777339
 20
97.4260457188
 30
0.0
 11
218.8897803788
 21
96.5600200326
 31
0.0
  0
ARC
  5
1AC
330
1F
100
AcDbEntity
  8
0
  6
HIDDEN
 62
     7
370
     0
100
AcDbCircle
 10
184.241171838
 20
97.7260452718
 30
0.0
 40
0.6000000000000008
100
AcDbArc
 50
270.0
 51
285.0
  0
ARC
  5
1AD
330
1F
100
AcDbEntity
  8
0
  6
HIDDEN
 62
     7
370
     0
100
AcDbCircle
 10
184.241171838
 20
137.1260452718
 30
0.0
 40
0.6000000000000008
100
AcDbArc
 50
75.0
 51
90.0
  0
ARC
  5
1AE
330
1F
100
AcDbEntity
  8
0
  6
HIDDEN
 62
     7
370
     0
100
AcDbCircle
 10
183.5397785788
 20
97.7260452718
 30
0.0
 40
0.6000000000000227
100
AcDbArc
 50
180.0
 51
270.0
  0
ARC
  5
1AF
330
1F
100
AcDbEntity
  8
0
  6
HIDDEN
 62
     7
370
     0
100
AcDbCircle
 10
183.5397785788
 20
137.1260452718
 30
0.0
 40
0.6000000000000227
100
AcDbArc
 50
90.0
 51
180.0
  0
LINE
  5
1B0
330
1F
100
AcDbEntity
  8
0
  6
HIDDEN
 62
     7
370
     0
100
AcDbLine
 10
183.5397780304
 20
97.1260443658
 30
0.0
 11
184.2411719625
 21
97.1260443658
 31
0.0
  0
LINE
  5
1B1
330
1F
100
AcDbEntity
  8
0
  6
HIDDEN
 62
     7
370
     0
100
AcDbLine
 10
184.2411719625
 20
137.7260461778
 30
0.0
 11
183.5397780304
 21
137.7260461778
 31
0.0
  0
LINE
  5
1B2
330
1F
100
AcDbEntity
  8
0
  6
HIDDEN
 62
     7
370
     0
100
AcDbLine
 10
184.3964644139
 20
97.1464906216
 30
0.0
 11
185.4397803908
 21
97.4260457188
 31
0.0
  0
LINE
  5
1B3
330
1F
100
AcDbEntity
  8
0
  6
HIDDEN
 62
     7
370
     0
100
AcDbLine
 10
185.4397803908
 20
137.4260448248
 30
0.0
 11
184.3964644139
 21
137.705599922
 31
0.0
  0
LINE
  5
1B4
330
1F
100
AcDbEntity
  8
0
  6
HIDDEN
 62
     7
370
     0
100
AcDbLine
 10
185.4397803908
 20
97.4260457188
 30
0.0
 11
217.389777339
 21
97.4260457188
 31
0.0
  0
LINE
  5
1B5
330
1F
100
AcDbEntity
  8
0
  6
HIDDEN
 62
     7
370
     0
100
AcDbLine
 10
217.389777339
 20
137.4260448248
 30
0.0
 11
185.4397803908
 21
137.4260448248
 31
0.0
  0
LINE
  5
1B6
330
1F
100
AcDbEntity
  8
0
  6
HIDDEN
 62
     7
370
     0
100
AcDbLine
 10
223.1897786622
 20
145.4510446966
 30
0.0
 11
218.8897803788
 21
145.4510446966
 31
0.0
  0
LINE
  5
1B7
330
1F
100
AcDbEntity
  8
0
  6
HIDDEN
 62
     7
370
     0
100
AcDbLine
 10
218.8897803788
 20
89.401045847
 30
0.0
 11
223.1897786622
 21
89.401045847
 31
0.0
  0
ARC
  5
1B8
330
1F
100
AcDbEntity
  8
0
  6
HIDDEN
 62
     7
370
     0
100
AcDbCircle
 10
77.3897785788
 20
108.1260452718
 30
0.0
 40
0.7999999999999972
100
AcDbArc
 50
90.0
 51
180.0
  0
ARC
  5
1B9
330
1F
100
AcDbEntity
  8
0
  6
HIDDEN
 62
     7
370
     0
100
AcDbCircle
 10
77.3897785788
 20
126.7260452718
 30
0.0
 40
0.8000000000000256
100
AcDbArc
 50
180.0
 51
270.0
  0
LINE
  5
1BA
330
1F
100
AcDbEntity
  8
0
  6
HIDDEN
 62
     7
370
     0
100
AcDbLine
 10
84.4821520512
 20
108.7010456578
 30
0.0
 11
85.3588395183
 21
108.7010456578
 31
0.0
  0
LINE
  5
1BB
330
1F
100
AcDbEntity
  8
0
  6
HIDDEN
 62
     7
370
     0
100
AcDbLine
 10
85.3588395183
 20
126.1510448859
 30
0.0
 11
84.4821520512
 21
126.1510448859
 31
0.0
  0
ARC
  5
1BC
330
1F
100
AcDbEntity
  8
0
  6
HIDDEN
 62
     7
370
     0
100
AcDbCircle
 10
85.3588384711
 20
109.1010452718
 30
0.0
 40
0.3999999999999927
100
AcDbArc
 50
270.0
 51
330.0
  0
ARC
  5
1BD
330
1F
100
AcDbEntity
  8
0
  6
HIDDEN
 62
     7
370
     0
100
AcDbCircle
 10
85.3588384711
 20
125.7510452718
 30
0.0
 40
0.3999999999999856
100
AcDbArc
 50
30.0
 51
90.0
  0
ARC
  5
1BE
330
1F
100
AcDbEntity
  8
0
  6
HIDDEN
 62
     7
370
     0
100
AcDbCircle
 10
84.4821510095
 20
109.1010452718
 30
0.0
 40
0.3999999999999915
100
AcDbArc
 50
255.0
 51
270.0
  0
ARC
  5
1BF
330
1F
100
AcDbEntity
  8
0
  6
HIDDEN
 62
     7
370
     0
100
AcDbCircle
 10
84.4821510095
 20
125.7510452718
 30
0.0
 40
0.3999999999999773
100
AcDbArc
 50
90.0
 51
105.0
  0
LINE
  5
1C0
330
1F
100
AcDbEntity
  8
0
  6
HIDDEN
 62
     7
370
     0
100
AcDbLine
 10
84.3786225086
 20
126.1374159113
 30
0.0
 11
83.5897773867
 21
125.9260457338
 31
0.0
  0
LINE
  5
1C1
330
1F
100
AcDbEntity
  8
0
  6
HIDDEN
 62
     7
370
     0
100
AcDbLine
 10
83.5897773867
 20
108.9260448099
 30
0.0
 11
84.3786225086
 21
108.7146746323
 31
0.0
  0
LINE
  5
1C2
330
1F
100
AcDbEntity
  8
0
  6
HIDDEN
 62
     7
370
     0
100
AcDbLine
 10
85.7052468126
 20
108.901045318
 30
0.0
 11
86.5857079988
 21
110.4260450557
 31
0.0
  0
LINE
  5
1C3
330
1F
100
AcDbEntity
  8
0
  6
HIDDEN
 62
     7
370
     0
100
AcDbLine
 10
86.5857079988
 20
124.4260454879
 30
0.0
 11
85.7052468126
 21
125.9510452256
 31
0.0
  0
LINE
  5
1C4
330
1F
100
AcDbEntity
  8
0
  6
HIDDEN
 62
     7
370
     0
100
AcDbLine
 10
77.389776743
 20
108.9260448099
 30
0.0
 11
83.5897773867
 21
108.9260448099
 31
0.0
  0
LINE
  5
1C5
330
1F
100
AcDbEntity
  8
0
  6
HIDDEN
 62
     7
370
     0
100
AcDbLine
 10
83.5897773867
 20
125.9260457338
 30
0.0
 11
77.389776743
 21
125.9260457338
 31
0.0
  0
LINE
  5
1C6
330
1F
100
AcDbEntity
  8
0
  6
HIDDEN
 62
     7
370
     0
100
AcDbLine
 10
86.5857079988
 20
110.4260450557
 30
0.0
 11
119.5897776996
 21
110.4260450557
 31
0.0
  0
LINE
  5
1C7
330
1F
100
AcDbEntity
  8
0
  6
HIDDEN
 62
     7
370
     0
100
AcDbLine
 10
119.5897776996
 20
124.4260454879
 30
0.0
 11
86.5857079988
 21
124.4260454879
 31
0.0
  0
LINE
  5
1C8
330
1F
100
AcDbEntity
  8
0
  6
HIDDEN
 62
     7
370
     0
100
AcDbLine
 10
119.5897776996
 20
110.4260450557
 30
0.0
 11
121.2421451127
 21
113.1760450408
 31
0.0
  0
LINE
  5
1C9
330
1F
100
AcDbEntity
  8
0
  6
HIDDEN
 62
     7
370
     0
100
AcDbLine
 10
121.2421451127
 20
121.6760455028
 30
0.0
 11
119.5897776996
 21
124.4260454879
 31
0.0
  0
ARC
  5
1CA
330
1F
100
AcDbEntity
  8
0
  6
HIDDEN
 62
     7
370
     0
100
AcDbCircle
 10
170.3397785788
 20
93.2260452718
 30
0.0
 40
1.600000000000009
100
AcDbArc
 50
0.0
 51
90.0
  0
LINE
  5
1CB
330
1F
100
AcDbEntity
  8
0
  6
HIDDEN
 62
     7
370
     0
100
AcDbLine
 10
171.9397791093
 20
92.4260448993
 30
0.0
 11
171.9397791093
 21
93.2260454029
 31
0.0
  0
LINE
  5
1CC
330
1F
100
AcDbEntity
  8
0
  6
HIDDEN
 62
     7
370
     0
100
AcDbLine
 10
121.2421451127
 20
113.1760450408
 30
0.0
 11
182.9397790497
 21
113.1760450408
 31
0.0
  0
LINE
  5
1CD
330
1F
100
AcDbEntity
  8
0
  6
HIDDEN
 62
     7
370
     0
100
AcDbLine
 10
182.9397790497
 20
121.6760455028
 30
0.0
 11
121.2421451127
 21
121.6760455028
 31
0.0
  0
LINE
  5
1CE
330
1F
100
AcDbEntity
  8
0
  6
HIDDEN
 62
     7
370
     0
100
AcDbLine
 10
171.9397791093
 20
142.2260459841
 30
0.0
 11
171.9397791093
 21
142.4260456443
 31
0.0
  0
LINE
  5
1CF
330
1F
100
AcDbEntity
  8
0
  6
HIDDEN
 62
     7
370
     0
100
AcDbLine
 10
159.4897788381
 20
118.8774278017
 30
0.0
 11
159.4897788381
 21
125.4199492142
 31
0.0
  0
LINE
  5
1D0
330
1F
100
AcDbEntity
  8
0
  6
HIDDEN
 62
     7
370
     0
100
AcDbLine
 10
156.1897788559
 20
124.0198621855
 30
0.0
 11
156.1897788559
 21
118.8771357157
 31
0.0
  0
LINE
  5
1D1
330
1F
100
AcDbEntity
  8
0
  6
HIDDEN
 62
     7
370
     0
100
AcDbLine
 10
156.1897788559
 20
125.4199492142
 30
0.0
 11
156.1897788559
 21
125.3977092311
 31
0.0
  0
LINE
  5
1D2
330
1F
100
AcDbEntity
  8
0
  6
HIDDEN
 62
     7
370
     0
100
AcDbLine
 10
149.1941712228
 20
124.6874728569
 30
0.0
 11
157.1697993567
 21
122.7774285108
 31
0.0
  0
LINE
  5
1D3
330
1F
100
AcDbEntity
  8
0
  6
HIDDEN
 62
     7
370
     0
100
AcDbLine
 10
157.1697993567
 20
126.1707423583
 30
0.0
 11
149.9627391239
 21
127.896725233
 31
0.0
  0
LINE
  5
1D4
330
1F
100
AcDbEntity
  8
0
  6
HIDDEN
 62
     7
370
     0
100
AcDbLine
 10
159.8397782435
 20
125.4635183469
 30
0.0
 11
159.8397782435
 21
128.2848883749
 31
0.0
  0
LINE
  5
1D5
330
1F
100
AcDbEntity
  8
0
  6
HIDDEN
 62
     7
370
     0
100
AcDbLine
 10
155.8397785192
 20
127.0019291297
 30
0.0
 11
155.8397785192
 21
125.4804730744
 31
0.0
  0
LINE
  5
1D6
330
1F
100
AcDbEntity
  8
0
  6
HIDDEN
 62
     7
370
     0
100
AcDbLine
 10
148.0397784979
 20
124.5012078763
 30
0.0
 11
148.9552003694
 21
124.2819782675
 31
0.0
  0
LINE
  5
1D7
330
1F
100
AcDbEntity
  8
0
  6
HIDDEN
 62
     7
370
     0
100
AcDbLine
 10
149.9333777828
 20
128.3664815456
 30
0.0
 11
148.0397784979
 21
128.8199704469
 31
0.0
  0
LINE
  5
1D8
330
1F
100
AcDbEntity
  8
0
  6
HIDDEN
 62
     7
370
     0
100
AcDbLine
 10
159.8397782435
 20
125.4635183469
 30
0.0
 11
159.8397782435
 21
125.7884381667
 31
0.0
  0
LINE
  5
1D9
330
1F
100
AcDbEntity
  8
0
  6
HIDDEN
 62
     7
370
     0
100
AcDbLine
 10
155.8397785192
 20
125.7884381667
 30
0.0
 11
155.8397785192
 21
125.4635183469
 31
0.0
  0
LINE
  5
1DA
330
1F
100
AcDbEntity
  8
0
  6
HIDDEN
 62
     7
370
     0
100
AcDbLine
 10
159.3397781616
 20
125.7255152196
 30
0.0
 11
159.3397781616
 21
126.728992942
 31
0.0
  0
LINE
  5
1DB
330
1F
100
AcDbEntity
  8
0
  6
HIDDEN
 62
     7
370
     0
100
AcDbLine
 10
156.3397786011
 20
126.728992942
 30
0.0
 11
156.3397786011
 21
125.7255152196
 31
0.0
  0
LINE
  5
1DC
330
1F
100
AcDbEntity
  8
0
  6
HIDDEN
 62
     7
370
     0
100
AcDbLine
 10
159.8397782435
 20
126.5579834909
 30
0.0
 11
159.8397782435
 21
126.6947910518
 31
0.0
  0
LINE
  5
1DD
330
1F
100
AcDbEntity
  8
0
  6
HIDDEN
 62
     7
370
     0
100
AcDbLine
 10
155.8397785192
 20
126.6947910518
 30
0.0
 11
155.8397785192
 21
126.5579834909
 31
0.0
  0
LINE
  5
1DE
330
1F
100
AcDbEntity
  8
0
  6
HIDDEN
 62
     7
370
     0
100
AcDbLine
 10
155.8397785192
 20
108.2941070527
 30
0.0
 11
155.8397785192
 21
108.1572994918
 31
0.0
  0
LINE
  5
1DF
330
1F
100
AcDbEntity
  8
0
  6
HIDDEN
 62
     7
370
     0
100
AcDbLine
 10
159.8397782435
 20
108.1572994918
 30
0.0
 11
159.8397782435
 21
108.2941070527
 31
0.0
  0
LINE
  5
1E0
330
1F
100
AcDbEntity
  8
0
  6
HIDDEN
 62
     7
370
     0
100
AcDbLine
 10
156.3397786011
 20
109.126575324
 30
0.0
 11
156.3397786011
 21
108.1230976016
 31
0.0
  0
LINE
  5
1E1
330
1F
100
AcDbEntity
  8
0
  6
HIDDEN
 62
     7
370
     0
100
AcDbLine
 10
159.3397781616
 20
108.1230976016
 30
0.0
 11
159.3397781616
 21
109.126575324
 31
0.0
  0
LINE
  5
1E2
330
1F
100
AcDbEntity
  8
0
  6
HIDDEN
 62
     7
370
     0
100
AcDbLine
 10
155.8397785192
 20
109.3885721967
 30
0.0
 11
155.8397785192
 21
109.0636523769
 31
0.0
  0
LINE
  5
1E3
330
1F
100
AcDbEntity
  8
0
  6
HIDDEN
 62
     7
370
     0
100
AcDbLine
 10
159.8397782435
 20
109.0636523769
 30
0.0
 11
159.8397782435
 21
109.3885721967
 31
0.0
  0
CIRCLE
  5
1E4
330
1F
100
AcDbEntity
  8
0
  6
HIDDEN
 62
     7
370
     0
100
AcDbCircle
 10
157.8397785788
 20
126.1475589266
 30
0.0
 40
1.499999999999982
  0
ARC
  5
1E5
330
1F
100
AcDbEntity
  8
0
  6
HIDDEN
 62
     7
370
     0
100
AcDbCircle
 10
157.8397785788
 20
108.704531617
 30
0.0
 40
1.499999999999996
100
AcDbArc
 50
82.3546739613
 51
191.5274417164
  0
ARC
  5
1E6
330
1F
100
AcDbEntity
  8
0
  6
HIDDEN
 62
     7
370
     0
100
AcDbCircle
 10
157.8397785788
 20
108.704531617
 30
0.0
 40
1.500000000000034
100
AcDbArc
 50
336.2380297609
 51
82.3546739613
  0
LINE
  5
1E7
330
1F
100
AcDbEntity
  8
0
  6
HIDDEN
 62
     7
370
     0
100
AcDbLine
 10
150.0945338411
 20
106.6270312623
 30
0.0
 11
153.3914842074
 21
107.4166018844
 31
0.0
  0
LINE
  5
1E8
330
1F
100
AcDbEntity
  8
0
  6
HIDDEN
 62
     7
370
     0
100
AcDbLine
 10
152.459886427
 20
111.3066049621
 30
0.0
 11
149.1629360606
 21
110.51703434
 31
0.0
  0
LINE
  5
1E9
330
1F
100
AcDbEntity
  8
0
  6
HIDDEN
 62
     7
370
     0
100
AcDbLine
 10
153.9544482147
 20
108.0275774331
 30
0.0
 11
154.1830255081
 21
108.6749676943
 31
0.0
  0
LINE
  5
1EA
330
1F
100
AcDbEntity
  8
0
  6
HIDDEN
 62
     7
370
     0
100
AcDbLine
 10
153.735585547
 20
110.5433120721
 30
0.0
 11
153.2385433455
 21
111.0169273198
 31
0.0
  0
LINE
  5
1EB
330
1F
100
AcDbEntity
  8
0
  6
HIDDEN
 62
     7
370
     0
100
AcDbLine
 10
153.2385433455
 20
123.8351632238
 30
0.0
 11
153.735585547
 21
124.3087784716
 31
0.0
  0
LINE
  5
1EC
330
1F
100
AcDbEntity
  8
0
  6
HIDDEN
 62
     7
370
     0
100
AcDbLine
 10
154.1830255081
 20
126.1771228493
 30
0.0
 11
153.9544482147
 21
126.8245131106
 31
0.0
  0
LINE
  5
1ED
330
1F
100
AcDbEntity
  8
0
  6
HIDDEN
 62
     7
370
     0
100
AcDbLine
 10
149.1629360606
 20
124.3350562037
 30
0.0
 11
152.459886427
 21
123.5454855815
 31
0.0
  0
LINE
  5
1EE
330
1F
100
AcDbEntity
  8
0
  6
HIDDEN
 62
     7
370
     0
100
AcDbLine
 10
153.3914842074
 20
127.4354886592
 30
0.0
 11
150.0945338411
 21
128.2250592814
 31
0.0
  0
DIMENSION
  5
1EF
330
1F
100
AcDbEntity
  8
VERMASSUNG
100
AcDbDimension
  2
_D
 10
71.4220249898
 20
149.1760452718
 30
0.0
 11
71.4220249898
 21
117.4260452718
 31
0.0
 70
   160
  1
ISO 40 %%c<>
 71
     2
 42
-1.0
  3
SLDDIMSTYLE0
100
AcDbAlignedDimension
 13
163.2897785788
 23
85.6760452718
 33
0.0
 14
163.2897785788
 24
149.1760452718
 34
0.0
 50
90.0
100
AcDbRotatedDimension
  0
DIMENSION
  5
1FC
330
1F
100
AcDbEntity
  8
VERMASSUNG
100
AcDbDimension
  2
_D_1
 10
223.9397785788
 20
171.9595760905
 30
0.0
 11
150.2647785788
 21
171.9595760905
 31
0.0
 70
   160
  1
(<>)
 71
     2
 42
-1.0
  3
SLDDIMSTYLE0
100
AcDbAlignedDimension
 13
76.5897785788
 23
128.8331758688
 33
0.0
 14
223.9397785788
 24
152.7260452718
 34
0.0
100
AcDbRotatedDimension
  0
DIMENSION
  5
208
330
1F
100
AcDbEntity
  8
VERMASSUNG
100
AcDbDimension
  2
_D_2
 10
223.9397785788
 20
165.9595760905
 30
0.0
 11
184.3897785788
 21
165.9595760905
 31
0.0
 70
   160
  1
<>
 71
     2
 42
-1.0
  3
SLDDIMSTYLE0
100
AcDbAlignedDimension
 13
144.8397785788
 23
139.6510452718
 33
0.0
 14
223.9397785788
 24
152.7260452718
 34
0.0
100
AcDbRotatedDimension
  0
DIMENSION
  5
212
330
1F
100
AcDbEntity
  8
VERMASSUNG
100
AcDbDimension
  2
_D_3
 10
223.9397785788
 20
159.9595760905
 30
0.0
 11
193.9147785788
 21
159.9595760905
 31
0.0
 70
   160
  1
<>
 71
     2
 42
-1.0
  3
SLDDIMSTYLE0
100
AcDbAlignedDimension
 13
163.8897785788
 23
147.4365964053
 33
0.0
 14
223.9397785788
 24
152.7260452718
 34
0.0
100
AcDbRotatedDimension
  0
DIMENSION
  5
21C
330
1F
100
AcDbEntity
  8
VERMASSUNG
100
AcDbDimension
  2
_D_4
 10
231.7669849442
 20
81.4260452718
 30
0.0
 11
231.7669849442
 21
117.4260452718
 31
0.0
 70
   160
  1
MBM %%c<>
 71
     2
 42
-1.0
  3
SLDDIMSTYLE0
100
AcDbAlignedDimension
 13
223.2397785788
 23
153.4260452718
 33
0.0
 14
223.2397785788
 24
81.4260452718
 34
0.0
 50
90.0
100
AcDbRotatedDimension
  0
LINE
  5
228
330
1F
100
AcDbEntity
  8
VERMASSUNG
  6
CENTERX2
 62
     7
370
     0
100
AcDbLine
 10
74.5897785788
 20
117.4260452718
 30
0.0
 11
225.9397785788
 21
117.4260452718
 31
0.0
  0
LINE
  5
229
330
1F
100
AcDbEntity
  8
VERMASSUNG
  6
CENTERX2
370
     0
100
AcDbLine
 10
147.6334535816
 20
126.7578979171
 30
0.0
 11
159.1148013843
 21
124.0082863905
 31
0.0
  0
LINE
  5
22A
330
1F
100
AcDbEntity
  8
VERMASSUNG
  6
CENTERX2
370
     0
100
AcDbLine
 10
147.6334535816
 20
108.0941926265
 30
0.0
 11
159.1148013843
 21
110.8438041531
 31
0.0
  0
LINE
  5
22B
330
1F
100
AcDbEntity
  8
0
  6
Continuous
 62
     7
370
    15
100
AcDbLine
 10
275.4692887643
 20
46.6881778976
 30
0.0
 11
275.1864001049
 21
46.8515387443
 31
0.0
  0
LINE
  5
22C
330
1F
100
AcDbEntity
  8
0
  6
Continuous
 62
     7
370
    15
100
AcDbLine
 10
270.0944044693
 20
46.8515384989
 30
0.0
 11
269.8115162748
 21
46.6881775404
 31
0.0
  0
LINE
  5
22D
330
1F
100
AcDbEntity
  8
0
  6
Continuous
 62
     7
370
    15
100
AcDbLine
 10
276.6404031582
 20
44.6677692071
 30
0.0
 11
276.6404031582
 21
45.0556265746
 31
0.0
  0
LINE
  5
22E
330
1F
100
AcDbEntity
  8
0
  6
Continuous
 62
     7
370
    15
100
AcDbLine
 10
268.6404024996
 20
45.0556269548
 30
0.0
 11
268.6404024996
 21
44.6677695873
 31
0.0
  0
LINE
  5
22F
330
1F
100
AcDbEntity
  8
0
  6
Continuous
 62
     7
370
    15
100
AcDbLine
 10
279.3069530902
 20
12.1406454312
 30
0.0
 11
279.554399161
 21
12.2835409731
 31
0.0
  0
LINE
  5
230
330
1F
100
AcDbEntity
  8
0
  6
Continuous
 62
     7
370
    15
100
AcDbLine
 10
292.0328059584
 20
33.8991163057
 30
0.0
 11
292.0328059584
 21
34.1848578991
 31
0.0
  0
LINE
  5
231
330
1F
100
AcDbEntity
  8
0
  6
Continuous
 62
     7
370
    15
100
AcDbLine
 10
257.4108873908
 20
18.6922735281
 30
0.0
 11
270.305615594
 21
11.2483053857
 31
0.0
  0
LINE
  5
232
330
1F
100
AcDbEntity
  8
0
  6
Continuous
 62
     7
370
    15
100
AcDbLine
 10
288.304153296
 20
42.4260650323
 30
0.0
 11
275.4094250929
 21
49.8700331747
 31
0.0
  0
SPLINE
  5
233
330
1F
100
AcDbEntity
  8
0
  6
Continuous
 62
     7
370
    15
100
AcDbSpline
210
0.0
220
0.0
230
1.0
 70
     8
 71
     3
 72
    15
 73
    11
 74
     0
 42
0.000000001
 43
0.00000001
 40
0.0
 40
0.0
 40
0.0
 40
0.0
 40
0.0709213218144941
 40
0.2164396775915504
 40
0.3619621176886395
 40
0.5073717799376757
 40
0.6525091768012142
 40
0.7971690073323117
 40
0.9411336758845371
 40
1.0
 40
1.0
 40
1.0
 40
1.0
 10
253.5485291198462
 20
26.91367606212841
 30
0.0
 10
253.549006745625
 20
26.71357735007592
 30
0.0
 10
253.5504643773631
 20
26.10291049256289
 30
0.0
 10
253.6494862295662
 20
25.13757813764927
 30
0.0
 10
253.8404283212483
 20
24.02475070681187
 30
0.0
 10
254.1253135827558
 20
22.98446762519233
 30
0.0
 10
254.4948154231193
 20
22.01924184451602
 30
0.0
 10
254.9540668665746
 20
21.14518873598878
 30
0.0
 10
255.3744999129702
 20
20.49784064436108
 30
0.0
 10
255.6682292431925
 20
20.17867178820887
 30
0.0
 10
255.7534764025525
 20
20.08604148015433
 30
0.0
  0
SPLINE
  5
234
330
1F
100
AcDbEntity
  8
0
  6
Continuous
 62
     7
370
    15
100
AcDbSpline
210
0.0
220
0.0
230
1.0
 70
     8
 71
     3
 72
    15
 73
    11
 74
     0
 42
0.000000001
 43
0.00000001
 40
0.0
 40
0.0
 40
0.0
 40
0.0
 40
0.0807093602553006
 40
0.2239483136998774
 40
0.36801468045881
 40
0.5128845456068878
 40
0.6584094060712171
 40
0.804392388436201
 40
0.9506474052223667
 40
1.0
 40
1.0
 40
1.0
 40
1.0
 10
273.3571475249055
 20
50.61164264729189
 30
0.0
 10
273.1887727783571
 20
50.64594063754065
 30
0.0
 10
272.7215749163013
 20
50.74110899292355
 30
0.0
 10
271.9082956833546
 20
50.77217404922706
 30
0.0
 10
270.9279974467785
 20
50.71515953747242
 30
0.0
 10
269.9139615450745
 20
50.53895616235069
 30
0.0
 10
268.8757589380636
 20
50.25347651064526
 30
0.0
 10
267.8203893139358
 20
49.84984302746516
 30
0.0
 10
266.9907196125668
 20
49.47207735362946
 30
0.0
 10
266.5160102572083
 20
49.19564266671917
 30
0.0
 10
266.396239159014
 20
49.1258970725856
 30
0.0
  0
LINE
  5
235
330
1F
100
AcDbEntity
  8
0
  6
Continuous
 62
     7
370
    15
100
AcDbLine
 10
252.4255520245
 20
27.9209278079
 30
0.0
 11
257.5070513526
 21
24.9874406869
 31
0.0
  0
LINE
  5
236
330
1F
100
AcDbEntity
  8
0
  6
Continuous
 62
     7
370
    15
100
AcDbLine
 10
266.051908688
 20
48.9213309785
 30
0.0
 11
264.9245358081
 21
49.5721494891
 31
0.0
  0
SPLINE
  5
237
330
1F
100
AcDbEntity
  8
0
  6
Continuous
 62
     7
370
    15
100
AcDbSpline
210
0.0
220
0.0
230
1.0
 70
     8
 71
     3
 72
    30
 73
    26
 74
     0
 42
0.000000001
 43
0.00000001
 40
0.0
 40
0.0
 40
0.0
 40
0.0
 40
0.0079931941738413
 40
0.0540133067257797
 40
0.1001680668237709
 40
0.1465231899372693
 40
0.1930535075561574
 40
0.2397114621711424
 40
0.2864476161047958
 40
0.3332219971859439
 40
0.3800053685775835
 40
0.4267796460647916
 40
0.4735385182768372
 40
0.5202801888181079
 40
0.5670055935563987
 40
0.6137171269832234
 40
0.6604180510277187
 40
0.707112058499324
 40
0.7538030375048903
 40
0.8004949315419272
 40
0.847190648580548
 40
0.8938940918751803
 40
0.9406093390658539
 40
0.9873404139660578
 40
1.0
 40
1.0
 40
1.0
 40
1.0
 10
259.3022897794635
 20
56.41868388526995
 30
0.0
 10
259.2549032349903
 20
56.4305678061186
 30
0.0
 10
258.9346928277815
 20
56.51087235620744
 30
0.0
 10
258.3088468600832
 20
56.58275691699487
 30
0.0
 10
257.4127654581946
 20
56.58733947780325
 30
0.0
 10
256.4796998611047
 20
56.47394507964499
 30
0.0
 10
255.5191064564142
 20
56.24931065895525
 30
0.0
 10
254.5379061166305
 20
55.91328859993934
 30
0.0
 10
253.5442574415891
 20
55.4689890362099
 30
0.0
 10
252.5461403312961
 20
54.9199676427669
 30
0.0
 10
251.551516423826
 20
54.27084683262633
 30
0.0
 10
250.5681487744392
 20
53.52695404593545
 30
0.0
 10
249.6035889754489
 20
52.69430174896689
 30
0.0
 10
248.6651661052745
 20
51.77948748515832
 30
0.0
 10
247.7599935261484
 20
50.78968727627741
 30
0.0
 10
246.8949335821
 20
49.73260802330901
 30
0.0
 10
246.0765580033853
 20
48.61643750881259
 30
0.0
 10
245.3110949035518
 20
47.44979090566238
 30
0.0
 10
244.6044054405593
 20
46.24165189423567
 30
0.0
 10
243.9618743392271
 20
45.00130113292338
 30
0.0
 10
243.3886177481627
 20
43.73830322292937
 30
0.0
 10
242.8884967467224
 20
42.46218451674655
 30
0.0
 10
242.4676187780124
 20
41.18326843035516
 30
0.0
 10
242.2053930509722
 20
40.21898426391497
 30
0.0
 10
242.0876493403959
 20
39.68544239909147
 30
0.0
 10
242.0625513433278
 20
39.57171375835564
 30
0.0
  0
LINE
  5
238
330
1F
100
AcDbEntity
  8
0
  6
Continuous
 62
     7
370
    15
100
AcDbLine
 10
251.8337401364
 20
54.4379953774
 30
0.0
 11
230.521565838
 21
62.1180584635
 31
0.0
  0
LINE
  5
239
330
1F
100
AcDbEntity
  8
0
  6
Continuous
 62
     7
370
    15
100
AcDbLine
 10
224.3567838433
 20
51.4391858182
 30
0.0
 11
244.6530219409
 21
34.3012107306
 31
0.0
  0
LINE
  5
23A
330
1F
100
AcDbEntity
  8
0
  6
Continuous
 62
     7
370
    15
100
AcDbLine
 10
248.8190435633
 20
26.1059123185
 30
0.0
 11
250.1725033339
 21
25.3245766241
 31
0.0
  0
LINE
  5
23B
330
1F
100
AcDbEntity
  8
0
  6
Continuous
 62
     7
370
    15
100
AcDbLine
 10
244.9929463993
 20
28.3146711965
 30
0.0
 11
246.3287288596
 21
27.5435403961
 31
0.0
  0
SPLINE
  5
23C
330
1F
100
AcDbEntity
  8
0
  6
Continuous
 62
     7
370
    15
100
AcDbSpline
210
0.0
220
0.0
230
1.0
 70
     8
 71
     3
 72
    10
 73
     6
 74
     0
 42
0.000000001
 43
0.00000001
 40
0.0
 40
0.0
 40
0.0
 40
0.0
 40
0.2308270215804885
 40
0.9027610689598123
 40
1.0
 40
1.0
 40
1.0
 40
1.0
 10
242.0733303175164
 20
32.31229816624047
 30
0.0
 10
242.1058781427064
 20
32.20360886197927
 30
0.0
 10
242.2331722058522
 20
31.77852659982679
 30
0.0
 10
242.3998615005993
 20
31.327825104216
 30
0.0
 10
242.5687424656669
 20
31.02337599733996
 30
0.0
 10
242.5900924155182
 20
30.98488750835326
 30
0.0
  0
SPLINE
  5
23D
330
1F
100
AcDbEntity
  8
0
  6
Continuous
 62
     7
370
    15
100
AcDbSpline
210
0.0
220
0.0
230
1.0
 70
     8
 71
     3
 72
    11
 73
     7
 74
     0
 42
0.000000001
 43
0.00000001
 40
0.0
 40
0.0
 40
0.0
 40
0.0
 40
0.3584327752832043
 40
0.402742800475261
 40
0.8244560758779118
 40
1.0
 40
1.0
 40
1.0
 40
1.0
 10
268.4849040069619
 20
50.08743514513792
 30
0.0
 10
268.3606783543925
 20
50.31271569260546
 30
0.0
 10
268.2210957306575
 20
50.5658457767837
 30
0.0
 10
267.9386168587851
 20
51.08753340582725
 30
0.0
 10
267.6654024221928
 20
51.4361143584291
 30
0.0
 10
267.3900741118077
 20
51.73070028971934
 30
0.0
 10
267.3091504962107
 20
51.81728404360459
 30
0.0
  0
SPLINE
  5
23E
330
1F
100
AcDbEntity
  8
0
  6
Continuous
 62
     7
370
    15
100
AcDbSpline
210
0.0
220
0.0
230
1.0
 70
     8
 71
     3
 72
    23
 73
    19
 74
     0
 42
0.000000001
 43
0.00000001
 40
0.0
 40
0.0
 40
0.0
 40
0.0
 40
0.0407558534632904
 40
0.1025766456941532
 40
0.1657414307513784
 40
0.230324876914133
 40
0.2958788073859106
 40
0.3618544565578182
 40
0.4278376469455507
 40
0.4936995880843668
 40
0.5594364129935746
 40
0.6250889360887323
 40
0.6907151107623444
 40
0.7563752507230361
 40
0.8221191493215944
 40
0.8880154112197615
 40
0.9541281140093321
 40
0.9999999999999999
 40
0.9999999999999999
 40
0.9999999999999999
 40
0.9999999999999999
 10
230.3078021260389
 20
62.17075921142015
 30
0.0
 10
230.1898745554169
 20
62.20200059613885
 30
0.0
 10
229.8930677509622
 20
62.28063068676306
 30
0.0
 10
229.3745731020995
 20
62.27757898405406
 30
0.0
 10
228.7691899020274
 20
62.17895483048093
 30
0.0
 10
228.1412058008543
 20
61.96375706311459
 30
0.0
 10
227.5044339721472
 20
61.64021458206844
 30
0.0
 10
226.8725058126083
 20
61.21332349882634
 30
0.0
 10
226.2595522700637
 20
60.6935742043238
 30
0.0
 10
225.6780161189365
 20
60.09271088581006
 30
0.0
 10
225.1388246277114
 20
59.42335254903358
 30
0.0
 10
224.6518840665663
 20
58.69880763437487
 30
0.0
 10
224.2262257573717
 20
57.9330518031731
 30
0.0
 10
223.8701144095713
 20
57.14074057264617
 30
0.0
 10
223.5901598947843
 20
56.3364701775764
 30
0.0
 10
223.3942134374044
 20
55.53599320513636
 30
0.0
 10
223.2919885155575
 20
54.83151656908792
 30
0.0
 10
223.2812168135509
 20
54.4093552191596
 30
0.0
 10
223.2768044359929
 20
54.2364266267121
 30
0.0
  0
SPLINE
  5
23F
330
1F
100
AcDbEntity
  8
0
  6
Continuous
 62
     7
370
    15
100
AcDbSpline
210
0.0
220
0.0
230
1.0
 70
     8
 71
     3
 72
    13
 73
     9
 74
     0
 42
0.000000001
 43
0.00000001
 40
0.0
 40
0.0
 40
0.0
 40
0.0
 40
0.1142656175834677
 40
0.3304524561687551
 40
0.5465995360202415
 40
0.7604161510324478
 40
0.9695787726329614
 40
1.0
 40
1.0
 40
1.0
 40
1.0
 10
223.2768044359929
 20
54.2364266267121
 30
0.0
 10
223.2794340427716
 20
54.10665445108336
 30
0.0
 10
223.2870387801996
 20
53.73135753250191
 30
0.0
 10
223.3729311970615
 20
53.14871247481933
 30
0.0
 10
223.5642994951518
 20
52.51803866102078
 30
0.0
 10
223.8589066977365
 20
51.97997399963329
 30
0.0
 10
224.1145713318459
 20
51.6338479614264
 30
0.0
 10
224.2904362326061
 20
51.50444611680219
 30
0.0
 10
224.3127667284011
 20
51.48801528077551
 30
0.0
  0
LWPOLYLINE
  5
240
330
1F
100
AcDbEntity
  8
0
  6
Continuous
 62
     7
370
    15
100
AcDbPolyline
 90
       33
 70
   128
 43
0.0
 10
270.0189421455
 20
46.8066277054
 10
270.5506735879
 20
47.0744961275
 10
271.1627122589
 20
47.2773321764
 10
271.8315377991
 20
47.4073409784
 10
272.5314472986
 20
47.4595263913
 10
273.2355439888
 20
47.4318831154
 10
273.9167702513
 20
47.3254729644
 10
274.5489459787
 20
47.1443856134
 10
275.1077786164
 20
46.8955795927
 10
275.5717902291
 20
46.5886175946
 10
275.9231499013
 20
46.2352954281
 10
276.1483574704
 20
45.8491897118
 10
276.2387542286
 20
45.4451406532
 10
276.190868494
 20
45.0386744759
 10
276.0065394167
 20
44.6454118758
 10
275.6928549112
 20
44.280463456
 10
275.2618648295
 20
43.9578566035
 10
274.7301333871
 20
43.6899881814
 10
274.1180920819
 20
43.4871536532
 10
273.4492678588
 20
43.3571440908
 10
272.7493583592
 20
43.3049586779
 10
272.045260352
 20
43.3326027142
 10
271.3640340894
 20
43.4390128651
 10
270.7318596792
 20
43.6200994558
 10
270.1730270415
 20
43.8689054765
 10
269.7090154288
 20
44.1758674746
 10
269.3576557566
 20
44.5291896411
 10
269.1324495046
 20
44.9152945971
 10
269.0420514292
 20
45.3193444161
 10
269.0899371639
 20
45.7258105933
 10
269.2742649241
 20
46.1190739538
 10
269.5879507467
 20
46.4840216132
 10
270.0189421455
 20
46.8066277054
  0
LINE
  5
241
330
1F
100
AcDbEntity
  8
0
  6
Continuous
 62
     7
370
    15
100
AcDbLine
 10
269.7276686608
 20
46.6382769953
 30
0.0
 11
269.8115162748
 21
46.6881775404
 31
0.0
  0
LWPOLYLINE
  5
242
330
1F
100
AcDbEntity
  8
0
  6
Continuous
 62
     7
370
    15
100
AcDbPolyline
 90
       27
 70
   128
 43
0.0
 10
275.4692887643
 20
46.6881778976
 10
275.7685508158
 20
46.4947633555
 10
276.1838112018
 20
46.1269982588
 10
276.4710022971
 20
45.7205116474
 10
276.619746428
 20
45.289993847
 10
276.6246677311
 20
44.8510047262
 10
276.4855847774
 20
44.4194127565
 10
276.2075289292
 20
44.0108140651
 10
275.8005475589
 20
43.6399778391
 10
275.2793496492
 20
43.3203071853
 10
274.6627734213
 20
43.0633554001
 10
273.9731027248
 20
42.87841004
 10
273.2352677294
 20
42.7721531449
 10
272.4759305149
 20
42.7484283726
 10
271.7225369939
 20
42.8080921028
 10
271.0023179817
 20
42.9489872529
 10
270.341304755
 20
43.1660212602
 10
269.7633855219
 20
43.45135132
 10
269.2894504665
 20
43.7946633344
 10
268.9366271792
 20
44.1835501818
 10
268.7176677158
 20
44.6039562298
 10
268.640486958
 20
45.0406863825
 10
268.7078718662
 20
45.4779575166
 10
268.9173906002
 20
45.8999634135
 10
269.2614675522
 20
46.2914533538
 10
269.7276686608
 20
46.6382769953
 10
269.7276686608
 20
46.6382769953
  0
LWPOLYLINE
  5
243
330
1F
100
AcDbEntity
  8
0
  6
Continuous
 62
     7
370
    15
100
AcDbPolyline
 90
       27
 70
   128
 43
0.0
 10
270.9109663597
 20
46.3219414291
 10
271.3507745427
 20
46.5335639442
 10
271.865531455
 20
46.6782757124
 10
272.4253203816
 20
46.7476671762
 10
272.9976101294
 20
46.7377044978
 10
273.5491386029
 20
46.6489683864
 10
274.0478558406
 20
46.4866139901
 10
274.4647777344
 20
46.260076977
 10
274.7756719868
 20
45.982524618
 10
274.9624734048
 20
45.6700852306
 10
275.0143230012
 20
45.340918236
 10
274.928211392
 20
45.014151585
 10
274.709138165
 20
44.7087785059
 10
274.3698392982
 20
44.4425436402
 10
273.9300297981
 20
44.2309218854
 10
273.4152755199
 20
44.0862085965
 10
272.8554839592
 20
44.0168186534
 10
272.2831955285
 20
44.0267805715
 10
271.7316657378
 20
44.1155174432
 10
271.2329485002
 20
44.2778718395
 10
270.8160279235
 20
44.5044080923
 10
270.5051336711
 20
44.7819604512
 10
270.318332253
 20
45.0943998386
 10
270.2664813396
 20
45.4235675936
 10
270.3525942658
 20
45.7503334843
 10
270.5716674929
 20
46.0557065633
 10
270.9109663597
 20
46.3219414291
  0
SPLINE
  5
244
330
1F
100
AcDbEntity
  8
0
  6
Continuous
 62
     7
370
    15
100
AcDbSpline
210
0.0
220
0.0
230
1.0
 70
     8
 71
     3
 72
    11
 73
     7
 74
     0
 42
0.000000001
 43
0.00000001
 40
0.0
 40
0.0
 40
0.0
 40
0.0
 40
0.1304720118795823
 40
0.4810445312345525
 40
0.8152725731562827
 40
1.0
 40
1.0
 40
1.0
 40
1.0
 10
270.392624716934
 20
45.63460047185561
 30
0.0
 10
270.4573308417447
 20
45.63777791932088
 30
0.0
 10
270.6958994590992
 20
45.64949302744588
 30
0.0
 10
271.1426340100824
 20
45.79478002779344
 30
0.0
 10
271.6248828049554
 20
46.19649265256373
 30
0.0
 10
271.8834179012022
 20
46.49806097408443
 30
0.0
 10
271.9754460730839
 20
46.60540725600072
 30
0.0
  0
SPLINE
  5
245
330
1F
100
AcDbEntity
  8
0
  6
Continuous
 62
     7
370
    15
100
AcDbSpline
210
0.0
220
0.0
230
1.0
 70
     8
 71
     3
 72
    11
 73
     7
 74
     0
 42
0.000000001
 43
0.00000001
 40
0.0
 40
0.0
 40
0.0
 40
0.0
 40
0.1873855900255073
 40
0.419548595828649
 40
0.7426982343514139
 40
1.0
 40
1.0
 40
1.0
 40
1.0
 10
271.034674413671
 20
44.37498479615281
 30
0.0
 10
270.996605670851
 20
44.39906251582823
 30
0.0
 10
270.9113713281625
 20
44.45297153561573
 30
0.0
 10
270.747347730913
 20
44.67435158298788
 30
0.0
 10
270.5629951238329
 20
45.08806694087082
 30
0.0
 10
270.4449511157929
 20
45.46674190972237
 30
0.0
 10
270.392624716934
 20
45.63460047185561
 30
0.0
  0
SPLINE
  5
246
330
1F
100
AcDbEntity
  8
0
  6
Continuous
 62
     7
370
    15
100
AcDbSpline
210
0.0
220
0.0
230
1.0
 70
     8
 71
     3
 72
     9
 73
     5
 74
     0
 42
0.000000001
 43
0.00000001
 40
0.0
 40
0.0
 40
0.0
 40
0.0
 40
0.4025274345938233
 40
1.0
 40
1.0
 40
1.0
 40
1.0
 10
274.8881822580367
 20
45.02275590862411
 30
0.0
 10
274.796275112109
 20
44.91335187863046
 30
0.0
 10
274.5679499396387
 20
44.64155914951118
 30
0.0
 10
274.3144762096717
 20
44.45621175122774
 30
0.0
 10
274.1630326099653
 20
44.34547176568398
 30
0.0
  0
SPLINE
  5
247
330
1F
100
AcDbEntity
  8
0
  6
Continuous
 62
     7
370
    15
100
AcDbSpline
210
0.0
220
0.0
230
1.0
 70
     8
 71
     3
 72
    11
 73
     7
 74
     0
 42
0.000000001
 43
0.00000001
 40
0.0
 40
0.0
 40
0.0
 40
0.0
 40
0.2164565461984802
 40
0.4403138449130862
 40
0.7519020223872699
 40
1.0
 40
1.0
 40
1.0
 40
1.0
 10
274.2232247613172
 20
46.29948492686377
 30
0.0
 10
274.2687753256639
 20
46.15287803908269
 30
0.0
 10
274.3614338498699
 20
45.85465170412847
 30
0.0
 10
274.5333820432151
 20
45.42422067948336
 30
0.0
 10
274.7178253428058
 20
45.13055002031668
 30
0.0
 10
274.8358598560109
 20
45.05586314609869
 30
0.0
 10
274.8881822580367
 20
45.02275590862411
 30
0.0
  0
SPLINE
  5
248
330
1F
100
AcDbEntity
  8
0
  6
Continuous
 62
     7
370
    15
100
AcDbSpline
210
0.0
220
0.0
230
1.0
 70
     8
 71
     3
 72
    11
 73
     7
 74
     0
 42
0.000000001
 43
0.00000001
 40
0.0
 40
0.0
 40
0.0
 40
0.0
 40
0.2164566326156674
 40
0.4403139468722394
 40
0.7519026649657202
 40
1.0
 40
1.0
 40
1.0
 40
1.0
 10
271.9754460730839
 20
46.60540725600072
 30
0.0
 10
272.1294221279027
 20
46.52530192068149
 30
0.0
 10
272.4426386997482
 20
46.36235243775869
 30
0.0
 10
273.0238827554969
 20
46.1829585360371
 30
0.0
 10
273.6473679224574
 20
46.15856827283402
 30
0.0
 10
274.0463598379031
 20
46.25620470243842
 30
0.0
 10
274.2232247613172
 20
46.29948492686377
 30
0.0
  0
LINE
  5
249
330
1F
100
AcDbEntity
  8
0
  6
Continuous
 62
     7
370
    15
100
AcDbLine
 10
274.2232247613
 20
44.394542875
 30
0.0
 11
274.2232247613
 21
46.2994849269
 31
0.0
  0
LINE
  5
24A
330
1F
100
AcDbEntity
  8
0
  6
Continuous
 62
     7
370
    15
100
AcDbLine
 10
271.9754460731
 20
44.0660201396
 30
0.0
 11
271.9754460731
 21
46.605407256
 31
0.0
  0
LWPOLYLINE
  5
24B
330
1F
100
AcDbEntity
  8
0
  6
Continuous
 62
     7
370
    15
100
AcDbPolyline
 90
       72
 70
   128
 43
0.0
 10
267.0719355204
 20
19.4895125189
 10
267.1207744982
 20
20.7914359004
 10
267.2669068417
 20
22.1395568283
 10
267.5091893174
 20
23.523324843
 10
267.8457266344
 20
24.9319104652
 10
268.2738832975
 20
26.3542887513
 10
268.7903099494
 20
27.7793283597
 10
269.3909644439
 20
29.1958767209
 10
270.0711454317
 20
30.5928459667
 10
270.8255305561
 20
31.9593049425
 10
271.6482146485
 20
33.2845579115
 10
272.5327591193
 20
34.5582331443
 10
273.4722420071
 20
35.7703627626
 10
274.459310004
 20
36.9114599213
 10
275.4862380536
 20
37.9725935185
 10
276.5449889494
 20
38.9454598636
 10
277.6272770491
 20
39.822445314
 10
278.7246314124
 20
40.5966840175
 10
279.8284640015
 20
41.262118576
 10
280.9301358238
 20
41.8135397501
 10
282.0210247617
 20
42.2466317
 10
283.092593074
 20
42.5580079113
 10
284.1364542785
 20
42.7452269918
 10
285.144438966
 20
42.8068276231
 10
286.1086581026
 20
42.7423247999
 10
287.0215654268
 20
42.5522245577
 10
287.8760163892
 20
42.2380154127
 10
288.6653228118
 20
41.8021550479
 10
289.3833088642
 20
41.24805624
 10
290.0243538689
 20
40.5800537745
 10
290.5834416926
 20
39.8033766847
 10
291.0561963069
 20
38.9241037612
 10
291.4389186673
 20
37.9491163995
 10
291.7286110793
 20
36.8860442249
 10
291.9230094668
 20
35.7432086248
 10
292.0205899578
 20
34.5295527383
 10
292.0205899578
 20
33.254575579
 10
291.9230094668
 20
31.9282556557
 10
291.7286110793
 20
30.560972455
 10
291.4389186673
 20
29.1634285409
 10
291.0561963069
 20
27.7465593475
 10
290.5834416926
 20
26.3214555647
 10
290.0243538689
 20
24.8992694138
 10
289.3833088642
 20
23.49113214
 10
288.6653228118
 20
22.1080642811
 10
287.8760163892
 20
20.7608901187
 10
287.0215654268
 20
19.4601528913
 10
286.1086581026
 20
18.2160322881
 10
285.144438966
 20
17.0382657462
 10
284.1364542785
 20
15.9360720294
 10
283.092593074
 20
14.9180746169
 10
282.0210247617
 20
13.9922443895
 10
280.9301358238
 20
13.1658227812
 10
279.8284640015
 20
12.4452807438
 10
278.7246314124
 20
11.8362573225
 10
277.6272770491
 20
11.3435176465
 10
276.5449889494
 20
10.9709198552
 10
275.4862380536
 20
10.7213784356
 10
274.459310004
 20
10.5968461444
 10
273.4722420071
 20
10.5982988519
 10
272.5327591193
 20
10.7257246165
 10
271.6482146485
 20
10.9781265418
 10
270.8255305561
 20
11.3535286758
 10
270.0711454317
 20
11.8489931266
 10
269.3909644439
 20
12.4606421199
 10
268.7903099494
 20
13.1836895634
 10
268.2738832975
 20
14.0124756511
 10
267.8457266344
 20
14.9405147763
 10
267.5091893174
 20
15.9605426829
 10
267.2669068417
 20
17.0645773054
 10
267.1207744982
 20
18.243977421
 10
267.0719355204
 20
19.4895125189
  0
LWPOLYLINE
  5
24C
330
1F
100
AcDbEntity
  8
0
  6
Continuous
 62
     7
370
    15
100
AcDbPolyline
 90
       37
 70
   128
 43
0.0
 10
266.5769629315
 20
19.4895125189
 10
266.6253962459
 20
20.7984644216
 10
266.7703287212
 20
22.15337497
 10
267.0106553198
 20
23.5439314401
 10
267.3445505562
 20
24.9595527327
 10
267.7694698146
 20
26.3894633272
 10
268.2821802998
 20
27.8227805427
 10
268.8787807943
 20
29.248597806
 10
269.5547306336
 20
30.6560629775
 10
270.3048846095
 20
32.0344635188
 10
271.1235337998
 20
33.3733097604
 10
272.0044483732
 20
34.6624128444
 10
272.9409236883
 20
35.8919607672
 10
273.9258319884
 20
37.0525953708
 10
274.9516787079
 20
38.1354851524
 10
276.0106558138
 20
39.1323895181
 10
277.0947040383
 20
40.0357175231
 10
278.1955729714
 20
40.8385983039
 10
279.304884445
 20
41.5349191903
 10
280.4141959186
 20
42.1193820691
 10
281.5150648516
 20
42.5875375036
 10
282.5991130762
 20
42.9358249373
 10
283.6580901821
 20
43.1615895128
 10
284.6839369016
 20
43.2631171425
 10
285.6688452017
 20
43.2396334573
 10
286.6053205167
 20
43.0913169186
 10
287.4862350902
 20
42.8192961519
 10
288.3048842804
 20
42.4256421463
 10
289.0550382564
 20
41.91335095
 10
289.7309880957
 20
41.286320851
 10
290.3275885902
 20
40.5493238566
 10
290.8402990754
 20
39.7079695671
 10
291.2652183337
 20
38.7686603055
 10
291.5991135702
 20
37.7385462472
 10
291.8394401687
 20
36.6254649615
 10
291.984372644
 20
35.4378898874
 10
292.0328059584
 20
34.1848578991
  0
LWPOLYLINE
  5
24D
330
1F
100
AcDbEntity
  8
0
  6
Continuous
 62
     7
370
    15
100
AcDbPolyline
 90
       20
 70
   128
 43
0.0
 10
279.3069530902
 20
12.1406454312
 10
279.304884445
 20
12.1394512278
 10
278.1955729714
 20
11.554988349
 10
277.0947040383
 20
11.0868329144
 10
276.0106558138
 20
10.7385454807
 10
274.9516787079
 20
10.5127809052
 10
273.9258319884
 20
10.4112532755
 10
272.9409236883
 20
10.4347369607
 10
272.0044483732
 20
10.5830534994
 10
271.1235337998
 20
10.8550742662
 10
270.3048846095
 20
11.2487282717
 10
269.5547306336
 20
11.761019468
 10
268.8787807943
 20
12.388049567
 10
268.2821802998
 20
13.1250465614
 10
267.7694698146
 20
13.9664008509
 10
267.3445505562
 20
14.9057101125
 10
267.0106553198
 20
15.9358241708
 10
266.7703287212
 20
17.0489054565
 10
266.6253962459
 20
18.2364805307
 10
266.5769629315
 20
19.4895125189
  0
SPLINE
  5
24E
330
1F
100
AcDbEntity
  8
0
  6
Continuous
 62
     7
370
    15
100
AcDbSpline
210
0.0
220
0.0
230
1.0
 70
     8
 71
     3
 72
    50
 73
    46
 74
     0
 42
0.000000001
 43
0.00000001
 40
0.0
 40
0.0
 40
0.0
 40
0.0
 40
0.0312500000000001
 40
0.0312500000000001
 40
0.0625000000000002
 40
0.0625000000000002
 40
0.1250000000000005
 40
0.1250000000000005
 40
0.1562500000000002
 40
0.1562500000000002
 40
0.1875
 40
0.1875
 40
0.2187499999999998
 40
0.2187499999999998
 40
0.2499999999999996
 40
0.2499999999999996
 40
0.3125000000000001
 40
0.3125000000000001
 40
0.3437500000000004
 40
0.3437500000000004
 40
0.3750000000000007
 40
0.3750000000000007
 40
0.4375000000000013
 40
0.4375000000000013
 40
0.4687500000000012
 40
0.4687500000000012
 40
0.5000000000000011
 40
0.5000000000000011
 40
0.5625000000000009
 40
0.5625000000000009
 40
0.6250000000000007
 40
0.6250000000000007
 40
0.6875000000000006
 40
0.6875000000000006
 40
0.7500000000000003
 40
0.7500000000000003
 40
0.8125000000000001
 40
0.8125000000000001
 40
0.8749999999999999
 40
0.8749999999999999
 40
0.90625
 40
0.90625
 40
0.9375
 40
0.9375
 40
1.0
 40
1.0
 40
1.0
 40
1.0
 10
276.0875482618383
 20
43.39224846713593
 30
0.0
 10
275.9810074392848
 20
43.3307437594403
 30
0.0
 10
275.8683133115969
 20
43.27137031741091
 30
0.0
 10
275.6304965738133
 20
43.15697441327343
 30
0.0
 10
275.5044641189552
 20
43.10161456418479
 30
0.0
 10
275.1158618181627
 20
42.94596461118071
 30
0.0
 10
274.842354240725
 20
42.85536784285407
 30
0.0
 10
274.4116139662832
 20
42.73949454551552
 30
0.0
 10
274.2642198977671
 20
42.70421388477411
 30
0.0
 10
273.9691605730728
 20
42.64208860475789
 30
0.0
 10
273.8207130973533
 20
42.61501040317951
 30
0.0
 10
273.5220246200873
 20
42.56879315706076
 30
0.0
 10
273.3717834015898
 20
42.54965478633924
 30
0.0
 10
273.0694869164985
 20
42.51956756029679
 30
0.0
 10
272.9173869878657
 20
42.50867062322098
 30
0.0
 10
272.4671149118985
 20
42.48911116204481
 30
0.0
 10
272.1719019387304
 20
42.49310617444178
 30
0.0
 10
271.7358519556472
 20
42.52553538351427
 30
0.0
 10
271.590999197067
 20
42.54088876030072
 30
0.0
 10
271.3078499920068
 20
42.5802936939855
 30
0.0
 10
271.1693459567518
 20
42.60431247348147
 30
0.0
 10
270.7626737617474
 20
42.68927091758577
 30
0.0
 10
270.5032688872835
 20
42.76302840002416
 30
0.0
 10
270.1317464817492
 20
42.9007474021683
 30
0.0
 10
270.0111749750894
 20
42.95113379472828
 30
0.0
 10
269.7803487090446
 20
43.0591582170477
 30
0.0
 10
269.6695211803499
 20
43.11699849380386
 30
0.0
 10
269.3505661618353
 20
43.30186250946307
 30
0.0
 10
269.1558483662387
 20
43.44016717435588
 30
0.0
 10
268.8037981612401
 20
43.74761364412161
 30
0.0
 10
268.6505769245135
 20
43.91336458162959
 30
0.0
 10
268.3919010454547
 20
44.26359290245671
 30
0.0
 10
268.285830565459
 20
44.44857819737659
 30
0.0
 10
268.1240049611998
 20
44.83747309053702
 30
0.0
 10
268.0707257817053
 20
45.03557957967219
 30
0.0
 10
268.0201814357959
 20
45.43506489819964
 30
0.0
 10
268.02288733418
 20
45.63746460228056
 30
0.0
 10
268.0911333703722
 20
46.04009614738895
 30
0.0
 10
268.1554378579705
 20
46.2341390454564
 30
0.0
 10
268.2985183959706
 20
46.51195979162636
 30
0.0
 10
268.3540403693053
 20
46.6023491468201
 30
0.0
 10
268.4817732570529
 20
46.77812938753666
 30
0.0
 10
268.5544855642261
 20
46.86388337516653
 30
0.0
 10
268.7924957854084
 20
47.10556932220261
 30
0.0
 10
268.9787740011288
 20
47.24841952870973
 30
0.0
 10
269.1932571452695
 20
47.37223801227164
 30
0.0
  0
SPLINE
  5
24F
330
1F
100
AcDbEntity
  8
0
  6
Continuous
 62
     7
370
    15
100
AcDbSpline
210
0.0
220
0.0
230
1.0
 70
     8
 71
     3
 72
    54
 73
    50
 74
     0
 42
0.000000001
 43
0.00000001
 40
0.0
 40
0.0
 40
0.0
 40
0.0
 40
0.0312499999999996
 40
0.0312499999999996
 40
0.0624999999999991
 40
0.0624999999999991
 40
0.0937499999999987
 40
0.0937499999999987
 40
0.1249999999999982
 40
0.1249999999999982
 40
0.1874999999999977
 40
0.1874999999999977
 40
0.2187499999999977
 40
0.2187499999999977
 40
0.2499999999999977
 40
0.2499999999999977
 40
0.3124999999999978
 40
0.3124999999999978
 40
0.3749999999999979
 40
0.3749999999999979
 40
0.4374999999999981
 40
0.4374999999999981
 40
0.4687499999999984
 40
0.4687499999999984
 40
0.4999999999999989
 40
0.4999999999999989
 40
0.5625000000000004
 40
0.5625000000000004
 40
0.5937500000000012
 40
0.5937500000000012
 40
0.625000000000002
 40
0.625000000000002
 40
0.6875000000000034
 40
0.6875000000000034
 40
0.7187500000000036
 40
0.7187500000000036
 40
0.7500000000000037
 40
0.7500000000000037
 40
0.8125000000000028
 40
0.8125000000000028
 40
0.8437500000000023
 40
0.8437500000000023
 40
0.8750000000000019
 40
0.8750000000000019
 40
0.9375000000000011
 40
0.9375000000000011
 40
0.9687500000000006
 40
0.9687500000000006
 40
1.0
 40
1.0
 40
1.0
 40
1.0
 10
269.1932571452695
 20
47.37223801227164
 30
0.0
 10
269.3005215535065
 20
47.43416043709097
 30
0.0
 10
269.4157563707837
 20
47.49160236423041
 30
0.0
 10
269.6549763417407
 20
47.5939217236956
 30
0.0
 10
269.7792614980377
 20
47.63909978573218
 30
0.0
 10
270.0368457489132
 20
47.71806947061116
 30
0.0
 10
270.1701457340391
 20
47.75185973674355
 30
0.0
 10
270.4457282322786
 20
47.80832998367494
 30
0.0
 10
270.5882897245441
 20
47.83095935819694
 30
0.0
 10
271.0190365285338
 20
47.88141745014875
 30
0.0
 10
271.3135305067836
 20
47.89278297075342
 30
0.0
 10
271.7658437084267
 20
47.88057838418315
 30
0.0
 10
271.9179358121558
 20
47.87156655203439
 30
0.0
 10
272.2207557924997
 20
47.84468011598491
 30
0.0
 10
272.3720618490776
 20
47.82679366321329
 30
0.0
 10
272.8257603774853
 20
47.76074340879966
 30
0.0
 10
273.1215432502129
 20
47.70122337726304
 30
0.0
 10
273.6979076948016
 20
47.55773249356842
 30
0.0
 10
273.9798042451606
 20
47.47337863624331
 30
0.0
 10
274.5269452973668
 20
47.28311451286928
 30
0.0
 10
274.7857538644142
 20
47.17952606361665
 30
0.0
 10
275.1530514494322
 20
47.01328892659924
 30
0.0
 10
275.2719731263807
 20
46.95604534366716
 30
0.0
 10
275.5027161050936
 20
46.83795420277181
 30
0.0
 10
275.6150380996993
 20
46.77680270914252
 30
0.0
 10
275.9361725900906
 20
46.59064269566437
 30
0.0
 10
276.1297966017722
 20
46.46289561630094
 30
0.0
 10
276.3901622794089
 20
46.26548574192468
 30
0.0
 10
276.4719079355114
 20
46.1987034549655
 30
0.0
 10
276.6250279861093
 20
46.06294572594658
 30
0.0
 10
276.6966518809559
 20
45.99366265460986
 30
0.0
 10
276.891718629463
 20
45.78581763710669
 30
0.0
 10
276.9966901175032
 20
45.64646873985702
 30
0.0
 10
277.1161285273478
 20
45.43427860090955
 30
0.0
 10
277.1495630433341
 20
45.36301341045394
 30
0.0
 10
277.2030353257263
 20
45.21896116867929
 30
0.0
 10
277.2230464224735
 20
45.14592094317288
 30
0.0
 10
277.2608834034996
 20
44.92859491672662
 30
0.0
 10
277.2574752496192
 20
44.78467342306082
 30
0.0
 10
277.2071972858789
 20
44.56772382940254
 30
0.0
 10
277.1828558558125
 20
44.49523023075241
 30
0.0
 10
277.1178343673262
 20
44.34944629024731
 30
0.0
 10
277.0771617370714
 20
44.27646018626098
 30
0.0
 10
276.9331077059021
 20
44.06171732889897
 30
0.0
 10
276.8071784210653
 20
43.92222358630055
 30
0.0
 10
276.5704600295309
 20
43.71723414796054
 30
0.0
 10
276.4827499302389
 20
43.64912163202449
 30
0.0
 10
276.2945197584739
 20
43.51741604492042
 30
0.0
 10
276.1941117713399
 20
43.45376627172787
 30
0.0
 10
276.0875482618383
 20
43.39224846713593
 30
0.0
  0
ARC
  5
250
330
1F
100
AcDbEntity
  8
0
  6
Continuous
 62
     7
370
    15
100
AcDbCircle
 10
272.3040568026
 20
44.4449918458
 30
0.0
 40
6.250950778688358
100
AcDbArc
 50
60.2125844159
 51
79.3005469968
  0
ARC
  5
251
330
1F
100
AcDbEntity
  8
0
  6
Continuous
 62
     7
370
    15
100
AcDbCircle
 10
260.5326180236
 20
24.0661365011
 30
0.0
 40
6.214789247931341
100
AcDbArc
 50
220.7948241103
 51
239.847268473
  0
LWPOLYLINE
  5
252
330
1F
100
AcDbEntity
  8
0
  6
Continuous
 62
     7
370
    15
100
AcDbPolyline
 90
       67
 70
   128
 43
0.0
 10
268.7689922052
 20
20.4692024897
 10
268.8178199877
 20
21.6810515143
 10
268.9638621105
 20
22.9383018881
 10
269.2057948991
 20
24.2295668492
 10
269.5414280345
 20
25.5431528703
 10
269.9677216753
 20
26.8671643155
 10
270.4808154334
 20
28.189610188
 10
271.0760626189
 20
29.4985143937
 10
271.748073045
 20
30.782023723
 10
272.4907597848
 20
32.0285139312
 10
273.2973977817
 20
33.2266965777
 10
274.1606814723
 20
34.3657207326
 10
275.072793604
 20
35.4352720206
 10
276.0254730652
 20
36.4256634901
 10
277.0100929229
 20
37.3279270512
 10
278.0177359904
 20
38.1338898003
 10
279.0392769401
 20
38.8362548828
 10
280.0654645387
 20
39.4286603737
 10
281.0870054884
 20
39.9057413666
 10
282.094648556
 20
40.2631785396
 10
283.0792684137
 20
40.4977328684
 10
284.0319478749
 20
40.6072816919
 10
284.9440600066
 20
40.5908326552
 10
285.8073436972
 20
40.4485346336
 10
286.6139816941
 20
40.1816763946
 10
287.3566684339
 20
39.792674044
 10
288.02867886
 20
39.2850514373
 10
288.6239260455
 20
38.6634050033
 10
289.1370198036
 20
37.9333645743
 10
289.5633134443
 20
37.1015412902
 10
289.8989465797
 20
36.1754690388
 10
290.1408793683
 20
35.1635337297
 10
290.2869214912
 20
34.0749000017
 10
290.3357492737
 20
32.9194263349
 10
290.2869214912
 20
31.7075773104
 10
290.1408793683
 20
30.4503269365
 10
289.8989465797
 20
29.1590619754
 10
289.5633134443
 20
27.8454759543
 10
289.1370198036
 20
26.5214645091
 10
288.6239260455
 20
25.1990186366
 10
288.02867886
 20
23.890114431
 10
287.3566684339
 20
22.6066051016
 10
286.6139816941
 20
21.3601148934
 10
285.8073436972
 20
20.1619322469
 10
284.9440600066
 20
19.022908092
 10
284.0319478749
 20
17.953356804
 10
283.0792684137
 20
16.9629653345
 10
282.094648556
 20
16.0607017734
 10
281.0870054884
 20
15.2547390243
 10
280.0654645387
 20
14.5523739419
 10
279.0392769401
 20
13.9599684509
 10
278.0177359904
 20
13.4828874581
 10
277.0100929229
 20
13.125450285
 10
276.0254730652
 20
12.8908959563
 10
275.072793604
 20
12.7813471327
 10
274.1606814723
 20
12.7977961694
 10
273.2973977817
 20
12.9400941911
 10
272.4907597848
 20
13.2069524301
 10
271.748073045
 20
13.5959547807
 10
271.0760626189
 20
14.1035773873
 10
270.4808154334
 20
14.7252238213
 10
269.9677216753
 20
15.4552642503
 10
269.5414280345
 20
16.2870875345
 10
269.2057948991
 20
17.2131597859
 10
268.9638621105
 20
18.225095095
 10
268.8178199877
 20
19.3137288229
 10
268.7689922052
 20
20.4692024897
  0
SPLINE
  5
253
330
1F
100
AcDbEntity
  8
0
  6
Continuous
 62
     7
370
    15
100
AcDbSpline
210
0.0
220
0.0
230
1.0
 70
     8
 71
     3
 72
    16
 73
    12
 74
     0
 42
0.000000001
 43
0.00000001
 40
0.0
 40
0.0
 40
0.0
 40
0.0
 40
0.2499999999999998
 40
0.2499999999999998
 40
0.4999999999999996
 40
0.4999999999999996
 40
0.6249999999999994
 40
0.6249999999999994
 40
0.7499999999999993
 40
0.7499999999999993
 40
1.0
 40
1.0
 40
1.0
 40
1.0
 10
272.2451145937461
 20
14.23763779856943
 30
0.0
 10
272.0991490795605
 20
14.14734860854715
 30
0.0
 10
271.9512443676295
 20
14.10368489962476
 30
0.0
 10
271.6548414396968
 20
14.11500605461807
 30
0.0
 10
271.5140329929354
 20
14.16981633900718
 30
0.0
 10
271.3168069056767
 20
14.32625394403485
 30
0.0
 10
271.2552053896676
 20
14.38952433264502
 30
0.0
 10
271.1398928530681
 20
14.53738076069765
 30
0.0
 10
271.0858553652391
 20
14.62261975522901
 30
0.0
 10
270.9380944725143
 20
14.9072315438836
 30
0.0
 10
270.8611385451885
 20
15.12836577676368
 30
0.0
 10
270.8039411448134
 20
15.37962326334052
 30
0.0
  0
LWPOLYLINE
  5
254
330
1F
100
AcDbEntity
  8
0
  6
Continuous
 62
     7
370
    15
100
AcDbPolyline
 90
       16
 70
   128
 43
0.0
 10
286.3292981717
 20
22.3682641148
 10
285.5439410405
 20
21.1354468508
 10
284.6942790138
 20
19.961335371
 10
283.7890447209
 20
18.8579968317
 10
282.8375420788
 20
17.8367703827
 10
281.8495498147
 20
16.9081529164
 10
280.8352228496
 20
16.0816873841
 10
279.8049857785
 20
15.3658686041
 10
278.7694271739
 20
14.7680533465
 10
277.7391901028
 20
14.2943857232
 10
276.7248631378
 20
13.9497342695
 10
275.7368708737
 20
13.7376401485
 10
274.7853682315
 20
13.6602850308
 10
273.8801339386
 20
13.7184623024
 10
273.0304719119
 20
13.9115748872
 10
272.2451147807
 20
14.2376381085
  0
SPLINE
  5
255
330
1F
100
AcDbEntity
  8
0
  6
Continuous
 62
     7
370
    15
100
AcDbSpline
210
0.0
220
0.0
230
1.0
 70
     8
 71
     3
 72
    16
 73
    12
 74
     0
 42
0.000000001
 43
0.00000001
 40
0.0
 40
0.0
 40
0.0
 40
0.0
 40
0.2499999999999992
 40
0.2499999999999992
 40
0.4999999999999984
 40
0.4999999999999984
 40
0.6249999999999986
 40
0.6249999999999986
 40
0.7499999999999988
 40
0.7499999999999988
 40
1.0
 40
1.0
 40
1.0
 40
1.0
 10
287.7704717486016
 20
25.17419289763069
 30
0.0
 10
287.8090855482255
 20
24.91218255646344
 30
0.0
 10
287.8052185998665
 20
24.64325092160782
 30
0.0
 10
287.7089391131356
 20
24.09317009415807
 30
0.0
 10
287.6189198673575
 20
23.82625033960801
 30
0.0
 10
287.4215544438211
 20
23.44223654944031
 30
0.0
 10
287.3470160008196
 20
23.32048201342353
 30
0.0
 10
287.181153670134
 20
23.08896131687686
 30
0.0
 10
287.0891504434455
 20
22.97851089890235
 30
0.0
 10
286.7914177593649
 20
22.67058783599813
 30
0.0
 10
286.5710589320869
 20
22.50180486176609
 30
0.0
 10
286.3292982996688
 20
22.36826398675397
 30
0.0
  0
LWPOLYLINE
  5
256
330
1F
100
AcDbEntity
  8
0
  6
Continuous
 62
     7
370
    15
100
AcDbPolyline
 90
       13
 70
   128
 43
0.0
 10
287.7704714609
 20
38.3151573877
 10
288.288742696
 20
37.619478749
 10
288.7198068331
 20
36.8194397045
 10
289.0594880416
 20
35.9227920441
 10
289.3044962331
 20
34.9382220838
 10
289.452456696
 20
33.8752683423
 10
289.5019364376
 20
32.7442285722
 10
289.452456696
 20
31.5560607084
 10
289.3044962331
 20
30.3222754526
 10
289.0594880416
 20
29.0548250557
 10
288.7198068331
 20
27.76598982
 10
288.288742696
 20
26.4682547164
 10
287.7704714609
 20
25.1741928467
  0
SPLINE
  5
257
330
1F
100
AcDbEntity
  8
0
  6
Continuous
 62
     7
370
    15
100
AcDbSpline
210
0.0
220
0.0
230
1.0
 70
     8
 71
     3
 72
    16
 73
    12
 74
     0
 42
0.000000001
 43
0.00000001
 40
0.0
 40
0.0
 40
0.0
 40
0.0
 40
0.2499999999999999
 40
0.2499999999999999
 40
0.4999999999999998
 40
0.4999999999999998
 40
0.6249999999999998
 40
0.6249999999999998
 40
0.7499999999999997
 40
0.7499999999999997
 40
1.0
 40
1.0
 40
1.0
 40
1.0
 10
286.3292982996688
 20
39.45714320181767
 30
0.0
 10
286.5710799977022
 20
39.49211888628569
 30
0.0
 10
286.7923878924637
 20
39.49340783973209
 30
0.0
 10
287.1903312194254
 20
39.42346866009909
 30
0.0
 10
287.3566113361757
 20
39.35395389361901
 30
0.0
 10
287.5537672741739
 20
39.19755678489751
 30
0.0
 10
287.6088617598402
 20
39.1380428249464
 30
0.0
 10
287.6986748019196
 20
39.00490694174464
 30
0.0
 10
287.7335415833089
 20
38.93073496047284
 30
0.0
 10
287.8052055662222
 20
38.6900529827802
 30
0.0
 10
287.8090821839368
 20
38.51110653734636
 30
0.0
 10
287.7704717486016
 20
38.31515773704658
 30
0.0
  0
LWPOLYLINE
  5
258
330
1F
100
AcDbEntity
  8
0
  6
Continuous
 62
     7
370
    15
100
AcDbPolyline
 90
       16
 70
   128
 43
0.0
 10
272.2451147807
 20
31.3265168515
 10
273.0304719119
 20
32.5593341156
 10
273.8801339386
 20
33.7334455954
 10
274.7853682315
 20
34.8367841346
 10
275.7368708737
 20
35.8580105836
 10
276.7248631378
 20
36.7866280499
 10
277.7391901028
 20
37.6130935822
 10
278.7694271739
 20
38.3289123622
 10
279.8049857785
 20
38.9267276198
 10
280.8352228496
 20
39.4003952432
 10
281.8495498147
 20
39.7450466968
 10
282.8375420788
 20
39.9571408178
 10
283.7890447209
 20
40.0344959355
 10
284.6942790138
 20
39.976318664
 10
285.5439410405
 20
39.7832060791
 10
286.3292981717
 20
39.4571428578
  0
SPLINE
  5
259
330
1F
100
AcDbEntity
  8
0
  6
Continuous
 62
     7
370
    15
100
AcDbSpline
210
0.0
220
0.0
230
1.0
 70
     8
 71
     3
 72
    16
 73
    12
 74
     0
 42
0.000000001
 43
0.00000001
 40
0.0
 40
0.0
 40
0.0
 40
0.0
 40
0.2499999999999986
 40
0.2499999999999986
 40
0.4999999999999972
 40
0.4999999999999972
 40
0.6249999999999977
 40
0.6249999999999977
 40
0.749999999999998
 40
0.749999999999998
 40
1.0
 40
1.0
 40
1.0
 40
1.0
 10
270.8039411448134
 20
28.52058810275642
 30
0.0
 10
270.8611435290372
 20
28.72728493836939
 30
0.0
 10
270.9384136602266
 20
28.95384181774902
 30
0.0
 10
271.1362335459866
 20
29.4453046205591
 30
0.0
 10
271.2517244617537
 20
29.69751989301817
 30
0.0
 10
271.4490197360295
 20
30.08157417949205
 30
0.0
 10
271.5170511486882
 20
30.2070851441679
 30
0.0
 10
271.6574139848536
 20
30.45332638556543
 30
0.0
 10
271.7302465051026
 20
30.5748438167995
 30
0.0
 10
271.9518822793714
 20
30.92669669066566
 30
0.0
 10
272.0991617970382
 20
31.13766745234395
 30
0.0
 10
272.2451145937461
 20
31.32651701363314
 30
0.0
  0
LWPOLYLINE
  5
25A
330
1F
100
AcDbEntity
  8
0
  6
Continuous
 62
     7
370
    15
100
AcDbPolyline
 90
       13
 70
   128
 43
0.0
 10
270.8039414915
 20
15.3796235787
 10
270.2856702564
 20
16.0753022173
 10
269.8546061193
 20
16.8753412619
 10
269.5149249108
 20
17.7719889222
 10
269.2699167193
 20
18.7565588825
 10
269.1219562564
 20
19.819512624
 10
269.0724765148
 20
20.9505523942
 10
269.1219562564
 20
22.1387202579
 10
269.2699167193
 20
23.3725055137
 10
269.5149249108
 20
24.6399559106
 10
269.8546061193
 20
25.9287911464
 10
270.2856702564
 20
27.2265262499
 10
270.8039414915
 20
28.5205881196
  0
ARC
  5
25B
330
1F
100
AcDbEntity
  8
0
  6
Continuous
 62
     7
370
    15
100
AcDbCircle
 10
286.9768161554
 20
37.4967021157
 30
0.0
 40
2.06460830248451
100
AcDbArc
 50
108.2779783612
 51
120.3371026508
  0
LINE
  5
25C
330
1F
100
AcDbEntity
  8
0
  6
Continuous
 62
     7
370
    15
100
AcDbLine
 10
283.1756510122
 20
37.686234008
 30
0.0
 11
285.9340101235
 21
39.2786008284
 31
0.0
  0
LWPOLYLINE
  5
25D
330
1F
100
AcDbEntity
  8
0
  6
Continuous
 62
     7
370
    15
100
AcDbPolyline
 90
        9
 70
   128
 43
0.0
 10
275.3987619402
 20
33.1967315085
 10
276.3205431516
 20
34.2058549375
 10
277.2852543856
 20
35.1084963206
 10
278.2789351572
 20
35.8915925952
 10
279.2872064762
 20
36.5438125026
 10
280.2954777952
 20
37.0557178811
 10
281.2891585668
 20
37.4199010047
 10
282.2538698008
 20
37.6310915039
 10
283.1756510122
 20
37.686234008
  0
LINE
  5
25E
330
1F
100
AcDbEntity
  8
0
  6
Continuous
 62
     7
370
    15
100
AcDbLine
 10
272.6404028289
 20
31.604364688
 30
0.0
 11
275.3987619402
 21
33.1967315085
 31
0.0
  0
ARC
  5
25F
330
1F
100
AcDbEntity
  8
0
  6
Continuous
 62
     7
370
    15
100
AcDbCircle
 10
274.0766036421
 20
29.1410054065
 30
0.0
 40
2.851457824595833
100
AcDbArc
 50
120.24326773
 51
129.9634737695
  0
ARC
  5
260
330
1F
100
AcDbEntity
  8
0
  6
Continuous
 62
     7
370
    15
100
AcDbCircle
 10
286.2266524864
 20
22.7521393251
 30
0.0
 40
15.85307001859651
100
AcDbArc
 50
144.2050019814
 51
177.418274481
  0
LWPOLYLINE
  5
261
330
1F
100
AcDbEntity
  8
0
  6
Continuous
 62
     7
370
    15
100
AcDbPolyline
 90
       39
 70
   128
 43
0.0
 10
280.7453534209
 20
37.2382635321
 10
281.4555544893
 20
37.2320814393
 10
282.1723182831
 20
37.1014784464
 10
282.8295065187
 20
36.8440755677
 10
283.4182318086
 20
36.4633525646
 10
283.9305333377
 20
35.9644590882
 10
284.3594822299
 20
35.3541412847
 10
284.6992786837
 20
34.640653002
 10
284.9453267169
 20
33.8336426641
 10
285.0942993628
 20
32.9440238911
 10
285.1441814751
 20
31.9838269197
 10
285.0942993628
 20
30.9660372873
 10
284.9453267169
 20
29.9044183585
 10
284.6992786837
 20
28.8133270083
 10
284.3594822299
 20
27.7075180909
 10
283.9305333377
 20
26.6019464382
 10
283.4182318086
 20
25.5115622066
 10
282.8295065187
 20
24.4511114521
 10
282.1723182831
 20
23.4349351875
 10
281.4555544893
 20
22.4767743335
 10
280.6889085833
 20
21.5895875989
 10
279.8827478665
 20
20.7853721191
 10
279.047974214
 20
20.0750032017
 10
278.1958766839
 20
19.4680884022
 10
277.3379783233
 20
18.9728342205
 10
276.4858807932
 20
18.5959381526
 10
275.6511071407
 20
18.3424979262
 10
274.8449464239
 20
18.2159400543
 10
274.0783005178
 20
18.2179762668
 10
273.3615367241
 20
18.3485792596
 10
272.7043484885
 20
18.6059821383
 10
272.1156231985
 20
18.9867051415
 10
271.6033216694
 20
19.4855986178
 10
271.1743727772
 20
20.0959164213
 10
270.8345763235
 20
20.809404704
 10
270.5885282902
 20
21.6164150419
 10
270.4395556443
 20
22.5060338149
 10
270.389673532
 20
23.4662307863
 10
270.389673532
 20
23.4662307863
  0
LINE
  5
262
330
1F
100
AcDbEntity
  8
0
  6
Continuous
 62
     7
370
    15
100
AcDbLine
 10
271.1201238563
 20
15.2938185077
 30
0.0
 11
273.8784829676
 21
16.8861853282
 31
0.0
  0
LINE
  5
263
330
1F
100
AcDbEntity
  8
0
  6
Continuous
 62
     7
370
    15
100
AcDbLine
 10
270.8751729582
 20
15.1713392856
 30
0.0
 11
271.1201238563
 21
15.2938185077
 31
0.0
  0
LWPOLYLINE
  5
264
330
1F
100
AcDbEntity
  8
0
  6
Continuous
 62
     7
370
    15
100
AcDbPolyline
 90
        3
 70
   128
 43
0.0
 10
286.2056340498
 20
38.5928376836
 10
286.2522076345
 20
39.0923855692
 10
286.2245988145
 20
39.4451760206
  0
LWPOLYLINE
  5
265
330
1F
100
AcDbEntity
  8
0
  6
Continuous
 62
     7
370
    15
100
AcDbPolyline
 90
       12
 70
   128
 43
0.0
 10
286.2056340498
 20
26.6003432125
 10
286.683144014
 20
27.881836174
 10
287.0710425343
 20
29.1617542603
 10
287.36542971
 20
30.4272317557
 10
287.5633467008
 20
31.6655507664
 10
287.6628053608
 20
32.864265981
 10
287.6628053608
 20
34.0113290995
 10
287.5633467008
 20
35.0952117896
 10
287.36542971
 20
36.1050207067
 10
287.0710425343
 20
37.0306060038
 10
286.683144014
 20
37.8626659915
 10
286.2056340498
 20
38.5928376836
  0
ARC
  5
266
330
1F
100
AcDbEntity
  8
0
  6
Continuous
 62
     7
370
    15
100
AcDbCircle
 10
282.4192483727
 20
26.2101256925
 30
0.0
 40
3.806440096553132
100
AcDbArc
 50
301.5993251811
 51
5.8840186056
  0
LINE
  5
267
330
1F
100
AcDbEntity
  8
0
  6
Continuous
 62
     7
370
    15
100
AcDbLine
 10
281.6553720396
 20
21.3756878277
 30
0.0
 11
284.4137311508
 21
22.9680546482
 31
0.0
  0
LWPOLYLINE
  5
268
330
1F
100
AcDbEntity
  8
0
  6
Continuous
 62
     7
370
    15
100
AcDbPolyline
 90
        9
 70
   128
 43
0.0
 10
281.6553720396
 20
21.3756878277
 10
280.7335908282
 20
20.3665643986
 10
279.7688795941
 20
19.4639230156
 10
278.7751988226
 20
18.680826741
 10
277.7669275036
 20
18.0286068335
 10
276.7586561845
 20
17.5167014551
 10
275.764975413
 20
17.1525183315
 10
274.800264179
 20
16.9413278323
 10
273.8784829676
 20
16.8861853282
  0
ARC
  5
269
330
1F
100
AcDbEntity
  8
0
  6
Continuous
 62
     7
370
    15
100
AcDbCircle
 10
273.5801132744
 20
15.4750730697
 30
0.0
 40
2.777812155914259
100
AcDbArc
 50
169.5358164779
 51
181.9691503398
  0
LWPOLYLINE
  5
26A
330
1F
100
AcDbEntity
  8
0
  6
Continuous
 62
     7
370
    15
100
AcDbPolyline
 90
       12
 70
   128
 43
0.0
 10
270.84849993
 20
15.9795816526
 10
270.3709899658
 20
16.7097533446
 10
269.9830914455
 20
17.5418133323
 10
269.6887042698
 20
18.4673986294
 10
269.490787279
 20
19.4772075466
 10
269.391328619
 20
20.5610902367
 10
269.391328619
 20
21.7081533551
 10
269.490787279
 20
22.9068685697
 10
269.6887042698
 20
24.1451875805
 10
269.9830914455
 20
25.4106650759
 10
270.3709899658
 20
26.6905831622
 10
270.84849993
 20
27.9720761237
  0
ARC
  5
26B
330
1F
100
AcDbEntity
  8
0
  6
Continuous
 62
     7
370
    15
100
AcDbCircle
 10
272.9300200032
 20
28.4172345122
 30
0.0
 40
2.128589158586618
100
AcDbArc
 50
177.2169101887
 51
192.0715528643
  0
LWPOLYLINE
  5
26C
330
1F
100
AcDbEntity
  8
0
  6
Continuous
 62
     7
370
    15
100
AcDbPolyline
 90
       34
 70
   128
 43
0.0
 10
280.5383248083
 20
37.1578325437
 10
281.0112977301
 20
37.114907752
 10
281.6919900777
 20
36.9438608337
 10
282.310138807
 20
36.6476994938
 10
282.8570662771
 20
36.2305816169
 10
283.3250938589
 20
35.6983615866
 10
283.7076529003
 20
35.058511377
 10
283.9993723122
 20
34.3200127491
 10
284.196157265
 20
33.4932328122
 10
284.2952451644
 20
32.58977763
 10
284.2952451644
 20
31.6223298578
 10
284.196157265
 20
30.6044702222
 10
283.9993723122
 20
29.550487215
 10
283.7076529003
 20
28.4751765232
 10
283.3250938589
 20
27.3936330462
 10
282.8570662771
 20
26.3210398721
 10
282.310138807
 20
25.2724529795
 10
281.6919900777
 20
24.2625923082
 10
281.0112977301
 20
23.3056347339
 10
280.2776165865
 20
22.4150133174
 10
279.5012461183
 20
21.6032309081
 10
278.6930850725
 20
20.8816826852
 10
277.8644781543
 20
20.2604973064
 10
277.0270570706
 20
19.7483957144
 10
276.1925774993
 20
19.3525666025
 10
275.372753548
 20
19.0785655262
 10
274.5790939816
 20
18.9302401323
 10
273.8227398091
 20
18.9096721405
 10
273.1143089083
 20
19.0171500057
 10
272.4637456305
 20
19.2511646068
 10
271.8801830002
 20
19.6084319785
 10
271.3718123233
 20
20.0839359091
 10
270.9457709051
 20
20.6710022869
 10
270.7595509818
 20
21.0161406344
  0
LWPOLYLINE
  5
26D
330
1F
100
AcDbEntity
  8
0
  6
Continuous
 62
     7
370
    15
100
AcDbPolyline
 90
       19
 70
   128
 43
0.0
 10
253.5528241471
 20
27.2122887205
 10
253.6019397136
 20
28.521588376
 10
253.7488991889
 20
29.8773469354
 10
253.9925553885
 20
31.2689553837
 10
254.3309985333
 20
32.6855215049
 10
254.7615812744
 20
34.1159585688
 10
255.2809344981
 20
35.5490721173
 10
255.8849916921
 20
36.9736457044
 10
256.5690271409
 20
38.3785313875
 10
257.3276855606
 20
39.7527318547
 10
258.155030831
 20
41.0854931969
 10
259.0445868255
 20
42.3663847523
 10
259.9893927286
 20
43.5853819917
 10
260.9820530854
 20
44.7329433207
 10
262.014799705
 20
45.8000899224
 10
263.0795492827
 20
46.7784679199
 10
264.1679690904
 20
47.6604212792
 10
265.2715408547
 20
48.439047698
 10
266.3308309544
 20
49.0801068394
  0
ARC
  5
26E
330
1F
100
AcDbEntity
  8
0
  6
Continuous
 62
     7
370
    15
100
AcDbCircle
 10
271.597596797
 20
16.1980788506
 30
0.0
 40
2.064608302481232
100
AcDbArc
 50
288.2779783612
 51
300.3371026508
  0
LWPOLYLINE
  5
26F
330
1F
100
AcDbEntity
  8
0
  6
Continuous
 62
     7
370
    15
100
AcDbPolyline
 90
        3
 70
   128
 43
0.0
 10
252.4255520245
 20
27.9209278079
 10
252.2414710538
 20
28.0336483429
 10
252.2228131708
 20
28.0458174999
  0
SPLINE
  5
270
330
1F
100
AcDbEntity
  8
0
  6
Continuous
 62
     7
370
    15
100
AcDbSpline
210
0.0
220
0.0
230
1.0
 70
     8
 71
     3
 72
    12
 73
     8
 74
     0
 42
0.000000001
 43
0.00000001
 40
0.0
 40
0.0
 40
0.0
 40
0.0
 40
0.4999999999999998
 40
0.4999999999999998
 40
0.7499999999999999
 40
0.7499999999999999
 40
1.0
 40
1.0
 40
1.0
 40
1.0
 10
250.2995027478188
 20
30.65032204713467
 30
0.0
 10
250.5527915838831
 20
30.52944421556569
 30
0.0
 10
250.7823573109146
 20
30.44943674641839
 30
0.0
 10
251.0971377724437
 20
30.39033620302247
 30
0.0
 10
251.1972362793873
 20
30.38114819924385
 30
0.0
 10
251.3825541364295
 20
30.38463905432586
 30
0.0
 10
251.4686276084485
 20
30.39709213252606
 30
0.0
 10
251.5488414006784
 20
30.42048119948754
 30
0.0
  0
SPLINE
  5
271
330
1F
100
AcDbEntity
  8
0
  6
Continuous
 62
     7
370
    15
100
AcDbSpline
210
0.0
220
0.0
230
1.0
 70
     8
 71
     3
 72
    28
 73
    24
 74
     0
 42
0.000000001
 43
0.00000001
 40
0.0
 40
0.0
 40
0.0
 40
0.0
 40
0.1249999999999998
 40
0.1249999999999998
 40
0.2499999999999996
 40
0.2499999999999996
 40
0.3749999999999994
 40
0.3749999999999994
 40
0.4374999999999993
 40
0.4374999999999993
 40
0.4999999999999992
 40
0.4999999999999992
 40
0.6249999999999991
 40
0.6249999999999991
 40
0.749999999999999
 40
0.749999999999999
 40
0.8124999999999993
 40
0.8124999999999993
 40
0.8749999999999996
 40
0.8749999999999996
 40
0.9374999999999998
 40
0.9374999999999998
 40
1.0
 40
1.0
 40
1.0
 40
1.0
 10
251.5488414006784
 20
30.42048119948754
 30
0.0
 10
251.6785088475313
 20
30.45829016616091
 30
0.0
 10
251.7935292217934
 20
30.52580373390075
 30
0.0
 10
251.987530946313
 20
30.71607838876045
 30
0.0
 10
252.0680590257664
 20
30.83873584382765
 30
0.0
 10
252.1991705425339
 20
31.14501632580951
 30
0.0
 10
252.2472741258105
 20
31.32293264647334
 30
0.0
 10
252.2959543208836
 20
31.62690816400492
 30
0.0
 10
252.308226182556
 20
31.73449292950117
 30
0.0
 10
252.3247010325088
 20
31.96288458179153
 30
0.0
 10
252.3287558076024
 20
32.08197882019606
 30
0.0
 10
252.3287696149282
 20
32.45061962499655
 30
0.0
 10
252.3128740776466
 20
32.71274859288159
 30
0.0
 10
252.2472666735808
 20
33.26953037130772
 30
0.0
 10
252.1988263062025
 20
33.55339656345361
 30
0.0
 10
252.1016422605943
 20
33.98607670877181
 30
0.0
 10
252.0649309248203
 20
34.13208691141934
 30
0.0
 10
251.9832281814124
 20
34.42338661523625
 30
0.0
 10
251.938619538813
 20
34.56744089344036
 30
0.0
 10
251.8415428227849
 20
34.85226355816315
 30
0.0
 10
251.7890755698641
 20
34.99303216429905
 30
0.0
 10
251.6755806634449
 20
35.27104208426626
 30
0.0
 10
251.6142089728544
 20
35.40898036919374
 30
0.0
 10
251.5488414006784
 20
35.54325808362153
 30
0.0
  0
SPLINE
  5
272
330
1F
100
AcDbEntity
  8
0
  6
Continuous
 62
     7
370
    15
100
AcDbSpline
210
0.0
220
0.0
230
1.0
 70
     8
 71
     3
 72
    12
 73
     8
 74
     0
 42
0.000000001
 43
0.00000001
 40
0.0
 40
0.0
 40
0.0
 40
0.0
 40
0.4999999999999991
 40
0.4999999999999991
 40
0.7499999999999996
 40
0.7499999999999996
 40
1.0
 40
1.0
 40
1.0
 40
1.0
 10
251.5488414006784
 20
35.54325808362153
 30
0.0
 10
251.387394139907
 20
35.87490217648527
 30
0.0
 10
251.2045139772244
 20
36.18007114066258
 30
0.0
 10
250.8902194547879
 20
36.59494842244562
 30
0.0
 10
250.7786338947867
 20
36.72578775266042
 30
0.0
 10
250.546831048603
 20
36.96484824551241
 30
0.0
 10
250.4259040780993
 20
37.07408058762324
 30
0.0
 10
250.2995027478188
 20
37.17256157862623
 30
0.0
  0
SPLINE
  5
273
330
1F
100
AcDbEntity
  8
0
  6
Continuous
 62
     7
370
    15
100
AcDbSpline
210
0.0
220
0.0
230
1.0
 70
     8
 71
     3
 72
    12
 73
     8
 74
     0
 42
0.000000001
 43
0.00000001
 40
0.0
 40
0.0
 40
0.0
 40
0.0
 40
0.249999999999999
 40
0.249999999999999
 40
0.499999999999998
 40
0.499999999999998
 40
1.0
 40
1.0
 40
1.0
 40
1.0
 10
247.3443320632128
 20
36.53247774090332
 30
0.0
 10
247.3781112294851
 20
36.51297744328981
 30
0.0
 10
247.4164359259606
 20
36.48613769471264
 30
0.0
 10
247.4906590500732
 20
36.42773719138999
 30
0.0
 10
247.5260424145679
 20
36.39674753290909
 30
0.0
 10
247.6218523729529
 20
36.30600817988834
 30
0.0
 10
247.6708561311071
 20
36.2501140511708
 30
0.0
 10
247.7046651887219
 20
36.20285418740414
 30
0.0
  0
SPLINE
  5
274
330
1F
100
AcDbEntity
  8
0
  6
Continuous
 62
     7
370
    15
100
AcDbSpline
210
0.0
220
0.0
230
1.0
 70
     8
 71
     3
 72
    12
 73
     8
 74
     0
 42
0.000000001
 43
0.00000001
 40
0.0
 40
0.0
 40
0.0
 40
0.0
 40
0.4999999999999971
 40
0.4999999999999971
 40
0.7499999999999986
 40
0.7499999999999986
 40
1.0
 40
1.0
 40
1.0
 40
1.0
 10
264.809195101913
 20
52.97265571172566
 30
0.0
 10
264.809195101913
 20
53.04407474345034
 30
0.0
 10
264.7916305712519
 20
53.12660450264354
 30
0.0
 10
264.736505036762
 20
53.24554921867641
 30
0.0
 10
264.7132125630052
 20
53.284182105901
 30
0.0
 10
264.6592441739478
 20
53.35074461717805
 30
0.0
 10
264.6283966731946
 20
53.37866565543071
 30
0.0
 10
264.5970630675569
 20
53.39675416094067
 30
0.0
  0
ARC
  5
275
330
1F
100
AcDbEntity
  8
0
  6
Continuous
 62
     7
370
    15
100
AcDbCircle
 10
273.2664157022
 20
30.3317686334
 30
0.0
 40
26.24765126513419
100
AcDbArc
 50
138.6607616314
 51
163.1803865394
  0
ARC
  5
276
330
1F
100
AcDbEntity
  8
0
  6
Continuous
 62
     7
370
    15
100
AcDbCircle
 10
284.994299678
 20
38.2197078966
 30
0.0
 40
2.777812155905759
100
AcDbArc
 50
349.5358164779
 51
1.9691503398
  0
LINE
  5
277
330
1F
100
AcDbEntity
  8
0
  6
Continuous
 62
     7
370
    15
100
AcDbLine
 10
286.2056340498
 20
38.5928376836
 30
0.0
 11
287.7259130224
 21
37.7151993137
 31
0.0
  0
LWPOLYLINE
  5
278
330
1F
100
AcDbEntity
  8
0
  6
Continuous
 62
     7
370
    15
100
AcDbPolyline
 90
       11
 70
   128
 43
0.0
 10
253.3080385437
 20
50.2000178795
 10
254.3132609663
 20
51.0963072121
 10
255.3395225688
 20
51.8957663514
 10
256.3779839965
 20
52.5915091612
 10
257.4197004862
 20
53.1775437955
 10
258.455699369
 20
53.6488212425
 10
259.4770572844
 20
54.0012829409
 10
260.474977107
 20
54.2318930215
 10
261.4408630198
 20
54.3386649163
 10
262.3663953007
 20
54.3206786754
 10
263.2436029271
 20
54.1780901813
  0
LINE
  5
279
330
1F
100
AcDbEntity
  8
0
  6
Continuous
 62
     7
370
    15
100
AcDbLine
 10
264.5970626977
 20
53.3967544869
 30
0.0
 11
263.2436029271
 21
54.1780901813
 31
0.0
  0
LINE
  5
27A
330
1F
100
AcDbEntity
  8
0
  6
Continuous
 62
     7
370
    15
100
AcDbLine
 10
245.9908721487
 20
37.3138136249
 30
0.0
 11
247.3443319193
 21
36.5324779305
 31
0.0
  0
ARC
  5
27B
330
1F
100
AcDbEntity
  8
0
  6
Continuous
 62
     7
370
    15
100
AcDbCircle
 10
271.6439798941
 20
31.2822338629
 30
0.0
 40
26.35264486573509
100
AcDbArc
 50
136.493814506
 51
166.7688887241
  0
SPLINE
  5
27C
330
1F
100
AcDbEntity
  8
0
  6
Continuous
 62
     7
370
    15
100
AcDbSpline
210
0.0
220
0.0
230
1.0
 70
     8
 71
     3
 72
    12
 73
     8
 74
     0
 42
0.000000001
 43
0.00000001
 40
0.0
 40
0.0
 40
0.0
 40
0.0
 40
0.2500000000000008
 40
0.2500000000000008
 40
0.5000000000000017
 40
0.5000000000000017
 40
1.0
 40
1.0
 40
1.0
 40
1.0
 10
252.5304049388937
 20
49.42426110403781
 30
0.0
 10
252.6297196216136
 20
49.45760918833362
 30
0.0
 10
252.7235447613051
 20
49.50149138983814
 30
0.0
 10
252.9005378662107
 20
49.60962165863387
 30
0.0
 10
252.9803494341317
 20
49.67202714881505
 30
0.0
 10
253.1885332953521
 20
49.87942472660482
 30
0.0
 10
253.2802431289381
 20
50.0408352643986
 30
0.0
 10
253.3080384551119
 20
50.20001827193769
 30
0.0
  0
LINE
  5
27D
330
1F
100
AcDbEntity
  8
0
  6
Continuous
 62
     7
370
    15
100
AcDbLine
 10
247.7525603671
 20
36.1359041212
 30
0.0
 11
249.5807991178
 21
37.1913238867
 31
0.0
  0
LINE
  5
27E
330
1F
100
AcDbEntity
  8
0
  6
Continuous
 62
     7
370
    15
100
AcDbLine
 10
247.7046650836
 20
36.2028540648
 30
0.0
 11
247.7525603671
 21
36.1359041212
 31
0.0
  0
LINE
  5
27F
330
1F
100
AcDbEntity
  8
0
  6
Continuous
 62
     7
370
    15
100
AcDbLine
 10
264.8091950303
 20
50.2160444323
 30
0.0
 11
264.8091950303
 21
52.9726554922
 31
0.0
  0
LWPOLYLINE
  5
280
330
1F
100
AcDbEntity
  8
0
  6
Continuous
 62
     7
370
    15
100
AcDbPolyline
 90
        9
 70
   128
 43
0.0
 10
283.1756510122
 20
20.4980494579
 10
282.2538698008
 20
19.4889260288
 10
281.2891585668
 20
18.5862846458
 10
280.2954777952
 20
17.8031883711
 10
279.2872064762
 20
17.1509684637
 10
278.2789351572
 20
16.6390630853
 10
277.2852543856
 20
16.2748799616
 10
276.3205431516
 20
16.0636894624
 10
275.3987619402
 20
16.0085469583
  0
LINE
  5
281
330
1F
100
AcDbEntity
  8
0
  6
Continuous
 62
     7
370
    15
100
AcDbLine
 10
285.9340101235
 20
22.0904162783
 30
0.0
 11
283.1756510122
 21
20.4980494579
 31
0.0
  0
ARC
  5
282
330
1F
100
AcDbEntity
  8
0
  6
Continuous
 62
     7
370
    15
100
AcDbCircle
 10
284.4978093103
 20
24.5537755598
 30
0.0
 40
2.851457824587942
100
AcDbArc
 50
300.24326773
 51
309.9634737695
  0
LINE
  5
283
330
1F
100
AcDbEntity
  8
0
  6
Continuous
 62
     7
370
    15
100
AcDbLine
 10
275.3987619402
 20
16.0085469583
 30
0.0
 11
272.6404028289
 21
14.4161801379
 31
0.0
  0
LINE
  5
284
330
1F
100
AcDbEntity
  8
0
  6
Continuous
 62
     7
370
    15
100
AcDbLine
 10
273.8784829676
 20
16.8861853282
 30
0.0
 11
275.3987619402
 21
16.0085469583
 31
0.0
  0
SPLINE
  5
285
330
1F
100
AcDbEntity
  8
0
  6
Continuous
 62
     7
370
    15
100
AcDbSpline
210
0.0
220
0.0
230
1.0
 70
     8
 71
     3
 72
     8
 73
     4
 74
     0
 42
0.000000001
 43
0.00000001
 40
0.0
 40
0.0
 40
0.0
 40
0.0
 40
1.0
 40
1.0
 40
1.0
 40
1.0
 10
245.0007206429752
 20
38.57219282977298
 30
0.0
 10
244.6200227769748
 20
38.50922599210237
 30
0.0
 10
244.2391848047349
 20
38.44652586996734
 30
0.0
 10
243.8582441539953
 20
38.38404499129431
 30
0.0
  0
SPLINE
  5
286
330
1F
100
AcDbEntity
  8
0
  6
Continuous
 62
     7
370
    15
100
AcDbSpline
210
0.0
220
0.0
230
1.0
 70
     8
 71
     3
 72
     8
 73
     4
 74
     0
 42
0.000000001
 43
0.00000001
 40
0.0
 40
0.0
 40
0.0
 40
0.0
 40
0.0011901715795577
 40
0.0011901715795577
 40
0.0011901715795577
 40
0.0011901715795577
 10
243.5005573564374
 20
38.75144164714995
 30
0.0
 10
243.6202038639323
 20
38.62882673739445
 30
0.0
 10
243.7394470380803
 20
38.50635469689873
 30
0.0
 10
243.8582441539953
 20
38.38404499129431
 30
0.0
  0
LWPOLYLINE
  5
287
330
1F
100
AcDbEntity
  8
0
  6
Continuous
 62
     7
370
    15
100
AcDbPolyline
 90
       21
 70
   128
 43
0.0
 10
243.5005574451
 20
38.7514417025
 10
243.8508148784
 20
40.1160408637
 10
244.2949603436
 20
41.4912415736
 10
244.8289898902
 20
42.8646463813
 10
245.4480902163
 20
44.2238754027
 10
246.1466788402
 20
45.5566735416
 10
246.9184594178
 20
46.8510272158
 10
247.7564731093
 20
48.0952666346
 10
248.6531664091
 20
49.2781764395
 10
249.600455025
 20
50.3890918971
 10
250.589799281
 20
51.417997942
 10
251.6122806734
 20
52.35561976
 10
252.6586812255
 20
53.1935043403
 10
253.719567987
 20
53.9240989138
 10
254.7853769571
 20
54.5408176523
 10
255.8465000948
 20
55.0380987428
 10
256.8933713417
 20
55.4114601302
 10
257.9165534254
 20
55.6575367013
 10
258.9068219486
 20
55.774109055
 10
259.8552501758
 20
55.7601281151
 10
260.7532882235
 20
55.6157182589
  0
LINE
  5
288
330
1F
100
AcDbEntity
  8
0
  6
Continuous
 62
     7
370
    15
100
AcDbLine
 10
261.1829308923
 20
54.2950601989
 30
0.0
 11
260.7532882235
 21
55.6157182589
 31
0.0
  0
LWPOLYLINE
  5
289
330
1F
100
AcDbEntity
  8
0
  6
Continuous
 62
     7
370
    15
100
AcDbPolyline
 90
       20
 70
   128
 43
0.0
 10
245.0007205172
 20
38.5721930154
 10
245.3293039336
 20
39.8657426415
 10
245.750547855
 20
41.1699889893
 10
246.260346915
 20
42.4722178847
 10
246.8537317367
 20
43.7597372882
 10
247.5249183236
 20
45.0199966827
 10
248.267364036
 20
46.2407110238
 10
249.0738321285
 20
47.4099816475
 10
249.9364612259
 20
48.5164109034
 10
250.8468430319
 20
49.5492146956
 10
251.7961039885
 20
50.4983258985
 10
252.7749910516
 20
51.3544925432
 10
253.7739622405
 20
52.1093688744
 10
254.78328028
 20
52.755597546
 10
255.7931069525
 20
53.2868785382
 10
256.7935988853
 20
53.6980335798
 10
257.7750038933
 20
53.9850549215
 10
258.7277554651
 20
54.1451454328
 10
259.6425673
 20
54.1767442795
 10
260.0494987444
 20
54.1478600274
  0
SPLINE
  5
28A
330
1F
100
AcDbEntity
  8
0
  6
Continuous
 62
     7
370
    15
100
AcDbSpline
210
0.0
220
0.0
230
1.0
 70
     8
 71
     3
 72
    10
 73
     6
 74
     0
 42
0.000000001
 43
0.00000001
 40
0.0
 40
0.0
 40
0.0
 40
0.0
 40
0.5
 40
0.5
 40
1.0
 40
1.0
 40
1.0
 40
1.0
 10
250.2995027478188
 20
37.17256157862623
 30
0.0
 10
250.2394161667076
 20
37.21937584901939
 30
0.0
 10
250.1607832098535
 20
37.25245641493917
 30
0.0
 10
249.9893375679115
 20
37.28497334859207
 30
0.0
 10
249.896878853573
 20
37.28442313524954
 30
0.0
 10
249.8121680234177
 20
37.27056472315773
 30
0.0
  0
SPLINE
  5
28B
330
1F
100
AcDbEntity
  8
0
  6
Continuous
 62
     7
370
    15
100
AcDbSpline
210
0.0
220
0.0
230
1.0
 70
     8
 71
     3
 72
    10
 73
     6
 74
     0
 42
0.000000001
 43
0.00000001
 40
0.0
 40
0.0
 40
0.0
 40
0.0
 40
0.5
 40
0.5
 40
1.0
 40
1.0
 40
1.0
 40
1.0
 10
249.8121680234177
 20
37.27056472315773
 30
0.0
 10
249.7687775968313
 20
37.26346619264668
 30
0.0
 10
249.7266333236638
 20
37.25283904356918
 30
0.0
 10
249.64878035691
 20
37.22602794298869
 30
0.0
 10
249.6131270983062
 20
37.20998640829358
 30
0.0
 10
249.5807989073033
 20
37.19132374087368
 30
0.0
  0
SPLINE
  5
28C
330
1F
100
AcDbEntity
  8
0
  6
Continuous
 62
     7
370
    15
100
AcDbSpline
210
0.0
220
0.0
230
1.0
 70
     8
 71
     3
 72
     9
 73
     5
 74
     0
 42
0.000000001
 43
0.00000001
 40
0.0
 40
0.0
 40
0.0
 40
0.0
 40
0.5
 40
1.0
 40
1.0
 40
1.0
 40
1.0
 10
264.8096229442282
 20
50.1874279692591
 30
0.0
 10
264.8094803092166
 20
50.19224084537184
 30
0.0
 10
264.8092664201941
 20
50.20182309274985
 30
0.0
 10
264.809195101913
 20
50.21131844700092
 30
0.0
 10
264.809195101913
 20
50.21604439081565
 30
0.0
  0
SPLINE
  5
28D
330
1F
100
AcDbEntity
  8
0
  6
Continuous
 62
     7
370
    15
100
AcDbSpline
210
0.0
220
0.0
230
1.0
 70
     8
 71
     3
 72
     8
 73
     4
 74
     0
 42
0.000000001
 43
0.00000001
 40
0.0
 40
0.0
 40
0.0
 40
0.0
 40
1.0
 40
1.0
 40
1.0
 40
1.0
 10
264.8337624534743
 20
50.20185735017854
 30
0.0
 10
264.825581638284
 20
50.19713466609432
 30
0.0
 10
264.8175349546716
 20
50.19232496461382
 30
0.0
 10
264.809622944228
 20
50.18742796925925
 30
0.0
  0
ARC
  5
28E
330
1F
100
AcDbEntity
  8
0
  6
Continuous
 62
     7
370
    15
100
AcDbCircle
 10
285.6443929492
 20
25.2775464541
 30
0.0
 40
2.128589158580736
100
AcDbArc
 50
357.2169101887
 51
12.0715528644
  0
LWPOLYLINE
  5
28F
330
1F
100
AcDbEntity
  8
0
  6
Continuous
 62
     7
370
    15
100
AcDbPolyline
 90
       12
 70
   128
 43
0.0
 10
287.7259130224
 20
37.7151993137
 10
288.2034229866
 20
36.9850276217
 10
288.5913215069
 20
36.152967634
 10
288.8857086827
 20
35.2273823369
 10
289.0836256735
 20
34.2175734197
 10
289.1830843334
 20
33.1336907297
 10
289.1830843334
 20
31.9866276112
 10
289.0836256735
 20
30.7879123966
 10
288.8857086827
 20
29.5495933859
 10
288.5913215069
 20
28.2841158904
 10
288.2034229866
 20
27.0041978041
 10
287.7259130224
 20
25.7227048427
  0
LINE
  5
290
330
1F
100
AcDbEntity
  8
0
  6
Continuous
 62
     7
370
    15
100
AcDbLine
 10
242.1647749847
 20
39.5225725029
 30
0.0
 11
243.5005574451
 21
38.7514417025
 31
0.0
  0
LINE
  5
291
330
1F
100
AcDbEntity
  8
0
  6
Continuous
 62
     7
370
    15
100
AcDbLine
 10
260.7532882235
 20
55.6157182589
 30
0.0
 11
259.4175057631
 21
56.3868490593
 31
0.0
  0
LINE
  5
292
330
1F
100
AcDbEntity
  8
0
  6
Continuous
 62
     7
370
    15
100
AcDbLine
 10
286.2056340498
 20
26.6003432125
 30
0.0
 11
287.7259130224
 21
25.7227048427
 31
0.0
  0
LINE
  5
293
330
1F
100
AcDbEntity
  8
0
  6
Continuous
 62
     7
370
    15
100
AcDbLine
 10
283.1756510122
 20
20.4980494579
 30
0.0
 11
281.6553720396
 21
21.3756878277
 31
0.0
  0
LINE
  5
294
330
1F
100
AcDbEntity
  8
0
  6
Continuous
 62
     7
370
    15
100
AcDbLine
 10
246.2272626267
 20
38.2719082221
 30
0.0
 11
245.6367520226
 21
38.6128027377
 31
0.0
  0
SPLINE
  5
295
330
1F
100
AcDbEntity
  8
0
  6
Continuous
 62
     7
370
    15
100
AcDbSpline
210
0.0
220
0.0
230
1.0
 70
     8
 71
     3
 72
    14
 73
    10
 74
     0
 42
0.000000001
 43
0.00000001
 40
0.0
 40
0.0
 40
0.0
 40
0.0
 40
0.1134875903227499
 40
0.2884507601050068
 40
0.4634438893900288
 40
0.6380744063983101
 40
0.8124676993590939
 40
0.9871167959912229
 40
0.9999999999999999
 40
0.9999999999999999
 40
0.9999999999999999
 40
0.9999999999999999
 10
253.021487389029
 20
49.72456860190946
 30
0.0
 10
252.9519369266197
 20
49.72791863133213
 30
0.0
 10
252.7751609135723
 20
49.73643338198102
 30
0.0
 10
252.4803253911836
 20
49.65128733543996
 30
0.0
 10
252.1876792818805
 20
49.48785172317277
 30
0.0
 10
251.9621369220559
 20
49.25716403054794
 30
0.0
 10
251.8430454213572
 20
48.9944303622645
 30
0.0
 10
251.8089784429689
 20
48.79947258837291
 30
0.0
 10
251.8406407142736
 20
48.71369350015875
 30
0.0
 10
251.842815867563
 20
48.7078005980327
 30
0.0
  0
SPLINE
  5
296
330
1F
100
AcDbEntity
  8
0
  6
Continuous
 62
     7
370
    15
100
AcDbSpline
210
0.0
220
0.0
230
1.0
 70
     8
 71
     3
 72
    12
 73
     8
 74
     0
 42
0.000000001
 43
0.00000001
 40
0.0
 40
0.0
 40
0.0
 40
0.0
 40
0.2500000000000015
 40
0.2500000000000015
 40
0.500000000000003
 40
0.500000000000003
 40
1.0
 40
1.0
 40
1.0
 40
1.0
 10
245.6367520922127
 20
38.61280272518862
 30
0.0
 10
245.5991333572534
 20
38.6345195586248
 30
0.0
 10
245.5531409488661
 20
38.65177529260745
 30
0.0
 10
245.4535398188901
 20
38.67406908043527
 30
0.0
 10
245.3987890936361
 20
38.67927486501471
 30
0.0
 10
245.2392831948168
 20
38.67627296558759
 30
0.0
 10
245.1342803895992
 20
38.64929523032838
 30
0.0
 10
245.0589674934073
 20
38.60581802079509
 30
0.0
  0
SPLINE
  5
297
330
1F
100
AcDbEntity
  8
0
  6
Continuous
 62
     7
370
    15
100
AcDbSpline
210
0.0
220
0.0
230
1.0
 70
     8
 71
     3
 72
    10
 73
     6
 74
     0
 42
0.000000001
 43
0.00000001
 40
0.0
 40
0.0
 40
0.0
 40
0.0
 40
0.5
 40
0.5
 40
1.0
 40
1.0
 40
1.0
 40
1.0
 10
242.0631307804239
 20
39.55329450174776
 30
0.0
 10
242.0703934620725
 20
39.55729110723559
 30
0.0
 10
242.0821871260382
 20
39.55747288562076
 30
0.0
 10
242.1162461368055
 20
39.54775125611101
 30
0.0
 10
242.1384186243578
 20
39.53778759933531
 30
0.0
 10
242.1647748910213
 20
39.522572450454
 30
0.0
  0
LINE
  5
298
330
1F
100
AcDbEntity
  8
0
  6
Continuous
 62
     7
370
    15
100
AcDbLine
 10
245.0589674618
 20
38.6058182609
 30
0.0
 11
245.0007205172
 21
38.5721930154
 31
0.0
  0
LINE
  5
299
330
1F
100
AcDbEntity
  8
0
  6
Continuous
 62
     7
370
    15
100
AcDbLine
 10
247.7525603671
 20
36.1359041212
 30
0.0
 11
246.025377576
 21
37.132985523
 31
0.0
  0
SPLINE
  5
29A
330
1F
100
AcDbEntity
  8
0
  6
Continuous
 62
     7
370
    15
100
AcDbSpline
210
0.0
220
0.0
230
1.0
 70
     8
 71
     3
 72
     8
 73
     4
 74
     0
 42
0.000000001
 43
0.00000001
 40
0.0
 40
0.0
 40
0.0
 40
0.0
 40
0.0011901715795577
 40
0.0011901715795577
 40
0.0011901715795577
 40
0.0011901715795577
 10
246.0253776656842
 20
37.13298544454752
 30
0.0
 10
246.0132161988656
 20
37.19373570025837
 30
0.0
 10
246.0017327519095
 20
37.25399937438842
 30
0.0
 10
245.990871928267
 20
37.31381364560516
 30
0.0
  0
LINE
  5
29B
330
1F
100
AcDbEntity
  8
0
  6
Continuous
 62
     7
370
    15
100
AcDbLine
 10
251.7778346468
 20
30.525525206
 30
0.0
 11
251.5488415992
 21
30.4204811319
 31
0.0
  0
LINE
  5
29C
330
1F
100
AcDbEntity
  8
0
  6
Continuous
 62
     7
370
    15
100
AcDbLine
 10
244.7273622316
 20
38.5270509248
 30
0.0
 11
244.7273622316
 21
36.2677231846
 31
0.0
  0
LINE
  5
29D
330
1F
100
AcDbEntity
  8
0
  6
Continuous
 62
     7
370
    15
100
AcDbLine
 10
244.7273622316
 20
36.2677231846
 30
0.0
 11
244.7273622316
 21
34.8019152773
 31
0.0
  0
ARC
  5
29E
330
1F
100
AcDbEntity
  8
0
  6
Continuous
 62
     7
370
    15
100
AcDbCircle
 10
255.0025549624
 20
37.5577023635
 30
0.0
 40
10.35585013102818
100
AcDbArc
 50
174.7154604192
 51
187.1556508786
  0
LINE
  5
29F
330
1F
100
AcDbEntity
  8
0
  6
Continuous
 62
     7
370
    15
100
AcDbLine
 10
242.5022923806
 20
39.166819315
 30
0.0
 11
242.0631306979
 21
39.5532944342
 31
0.0
  0
LINE
  5
2A0
330
1F
100
AcDbEntity
  8
0
  6
Continuous
 62
     7
370
    15
100
AcDbLine
 10
243.858243919
 20
38.3840451537
 30
0.0
 11
242.5022923806
 21
39.166819315
 31
0.0
  0
LINE
  5
2A1
330
1F
100
AcDbEntity
  8
0
  6
Continuous
 62
     7
370
    15
100
AcDbLine
 10
243.7285742004
 20
38.3026168265
 30
0.0
 11
243.7292643551
 21
38.4232535054
 31
0.0
  0
ARC
  5
2A2
330
1F
100
AcDbEntity
  8
0
  6
Continuous
 62
     7
370
    15
100
AcDbCircle
 10
250.6355484667
 20
38.0351575221
 30
0.0
 40
6.912150750291809
100
AcDbArc
 50
177.7824390018
 51
210.8069191332
  0
LWPOLYLINE
  5
2A3
330
1F
100
AcDbEntity
  8
0
  6
Continuous
 62
     7
370
    15
100
AcDbPolyline
 90
        3
 70
   128
 43
0.0
 10
230.3397036684
 20
62.1746590053
 10
230.4914943908
 20
62.1286417955
 10
230.521565838
 20
62.1180584635
  0
LINE
  5
2A4
330
1F
100
AcDbEntity
  8
0
  6
Continuous
 62
     7
370
    15
100
AcDbLine
 10
224.3567838433
 20
51.4391858182
 30
0.0
 11
224.3145540182
 21
51.4757999853
 31
0.0
  0
SPLINE
  5
2A5
330
1F
100
AcDbEntity
  8
0
  6
Continuous
 62
     7
370
    15
100
AcDbSpline
210
0.0
220
0.0
230
1.0
 70
     8
 71
     3
 72
     8
 73
     4
 74
     0
 42
0.000000001
 43
0.00000001
 40
0.0
 40
0.0
 40
0.0
 40
0.0
 40
1.0
 40
1.0
 40
1.0
 40
1.0
 10
249.5807989073033
 20
30.61817020519339
 30
0.0
 10
249.6446939371573
 20
30.65505602079148
 30
0.0
 10
249.7248224770749
 20
30.68283926163256
 30
0.0
 10
249.81216802341
 20
30.69829496114767
 30
0.0
  0
SPLINE
  5
2A6
330
1F
100
AcDbEntity
  8
0
  6
Continuous
 62
     7
370
    15
100
AcDbSpline
210
0.0
220
0.0
230
1.0
 70
     8
 71
     3
 72
    14
 73
    10
 74
     0
 42
0.000000001
 43
0.00000001
 40
0.0
 40
0.0
 40
0.0
 40
0.0
 40
0.25
 40
0.25
 40
0.5
 40
0.5
 40
0.75
 40
0.75
 40
1.0
 40
1.0
 40
1.0
 40
1.0
 10
249.81216802341
 20
30.69829496114767
 30
0.0
 10
249.8548590713136
 20
30.70584909568651
 30
0.0
 10
249.8983405873616
 20
30.71041128701124
 30
0.0
 10
249.9869488840797
 20
30.71369684001974
 30
0.0
 10
250.031713279143
 20
30.71229744323171
 30
0.0
 10
250.1171009462924
 20
30.70375478280064
 30
0.0
 10
250.1590264414189
 20
30.6964409719076
 30
0.0
 10
250.2347777088749
 20
30.67696055313962
 30
0.0
 10
250.2694024988373
 20
30.66468688406589
 30
0.0
 10
250.2995027478188
 20
30.65032204713468
 30
0.0
  0
LINE
  5
2A7
330
1F
100
AcDbEntity
  8
0
  6
Continuous
 62
     7
370
    15
100
AcDbLine
 10
247.7525603671
 20
29.5627503446
 30
0.0
 11
247.7046650836
 21
29.4405016837
 31
0.0
  0
LINE
  5
2A8
330
1F
100
AcDbEntity
  8
0
  6
Continuous
 62
     7
370
    15
100
AcDbLine
 10
247.7525603671
 20
29.5627503446
 30
0.0
 11
249.5807991178
 21
30.6181701101
 31
0.0
  0
LINE
  5
2A9
330
1F
100
AcDbEntity
  8
0
  6
Continuous
 62
     7
370
    15
100
AcDbLine
 10
246.025377576
 20
30.5598317464
 30
0.0
 11
247.7525603671
 21
29.5627503446
 31
0.0
  0
SPLINE
  5
2AA
330
1F
100
AcDbEntity
  8
0
  6
Continuous
 62
     7
370
    15
100
AcDbSpline
210
0.0
220
0.0
230
1.0
 70
     8
 71
     3
 72
    14
 73
    10
 74
     0
 42
0.000000001
 43
0.00000001
 40
0.0
 40
0.0
 40
0.0
 40
0.0
 40
0.25
 40
0.25
 40
0.5
 40
0.5
 40
0.75
 40
0.75
 40
1.0
 40
1.0
 40
1.0
 40
1.0
 10
247.7046651887219
 20
29.44050187473015
 30
0.0
 10
247.6877569911838
 20
29.39734502518101
 30
0.0
 10
247.6672338003028
 20
29.357329052692
 30
0.0
 10
247.6184503647405
 20
29.28401942570708
 30
0.0
 10
247.5899933863647
 20
29.25073226710101
 30
0.0
 10
247.5266307638565
 20
29.19780942077069
 30
0.0
 10
247.4913117031156
 20
29.17774575434542
 30
0.0
 10
247.4164936260644
 20
29.16098676386338
 30
0.0
 10
247.3781241519998
 20
29.16518365947456
 30
0.0
 10
247.3443320632128
 20
29.18469141709701
 30
0.0
  0
LINE
  5
2AB
330
1F
100
AcDbEntity
  8
0
  6
Continuous
 62
     7
370
    15
100
AcDbLine
 10
247.3443319193
 20
29.1846915577
 30
0.0
 11
245.9908721487
 21
29.966027252
 31
0.0
  0
SPLINE
  5
2AC
330
1F
100
AcDbEntity
  8
0
  6
Continuous
 62
     7
370
    15
100
AcDbSpline
210
0.0
220
0.0
230
1.0
 70
     8
 71
     3
 72
     8
 73
     4
 74
     0
 42
0.000000001
 43
0.00000001
 40
0.0
 40
0.0
 40
0.0
 40
0.0
 40
0.0011901715795577
 40
0.0011901715795577
 40
0.0011901715795577
 40
0.0011901715795577
 10
245.990871928267
 20
29.96602732179885
 30
0.0
 10
246.0017327519095
 20
30.16398251015702
 30
0.0
 10
246.0132161988656
 20
30.36192142265861
 30
0.0
 10
246.0253776656842
 20
30.55983190886724
 30
0.0
  0
ARC
  5
2AD
330
1F
100
AcDbEntity
  8
0
  6
Continuous
 62
     7
370
    15
100
AcDbCircle
 10
253.0481324806
 20
30.3050521627
 30
0.0
 40
5.732125119687032
100
AcDbArc
 50
204.7918774763
 51
275.3922059553
  0
SPLINE
  5
2AE
330
1F
100
AcDbEntity
  8
0
  6
Continuous
 62
     7
370
    15
100
AcDbSpline
210
0.0
220
0.0
230
1.0
 70
     8
 71
     3
 72
     8
 73
     4
 74
     0
 42
0.000000001
 43
0.00000001
 40
0.0
 40
0.0
 40
0.0
 40
0.0
 40
1.0
 40
1.0
 40
1.0
 40
1.0
 10
246.3512945950415
 20
31.219369547302
 30
0.0
 10
246.2422210146545
 20
30.99959734724278
 30
0.0
 10
246.1336094491866
 20
30.77974426557312
 30
0.0
 10
246.0253776656842
 20
30.55983190886724
 30
0.0
  0
LINE
  5
2AF
330
1F
100
AcDbEntity
  8
0
  6
Continuous
 62
     7
370
    15
100
AcDbLine
 10
246.4095414904
 20
31.2529946933
 30
0.0
 11
246.3512945457
 21
31.2193694479
 31
0.0
  0
SPLINE
  5
2B0
330
1F
100
AcDbEntity
  8
0
  6
Continuous
 62
     7
370
    15
100
AcDbSpline
210
0.0
220
0.0
230
1.0
 70
     8
 71
     3
 72
    12
 73
     8
 74
     0
 42
0.000000001
 43
0.00000001
 40
0.0
 40
0.0
 40
0.0
 40
0.0
 40
0.2499999999999986
 40
0.2499999999999986
 40
0.4999999999999971
 40
0.4999999999999971
 40
1.0
 40
1.0
 40
1.0
 40
1.0
 10
246.4216406193297
 20
31.58654268744672
 30
0.0
 10
246.4596782268823
 20
31.56458404400948
 30
0.0
 10
246.489151630794
 20
31.53832710740481
 30
0.0
 10
246.5279453408369
 20
31.4804590981055
 30
0.0
 10
246.5367675437835
 20
31.44967696329637
 30
0.0
 10
246.5316582710967
 20
31.35669697990961
 30
0.0
 10
246.4850345293274
 20
31.29657596798031
 30
0.0
 10
246.4095414454741
 20
31.25299473832438
 30
0.0
  0
LINE
  5
2B1
330
1F
100
AcDbEntity
  8
0
  6
Continuous
 62
     7
370
    15
100
AcDbLine
 10
245.6367520226
 20
32.0396489611
 30
0.0
 11
246.4216405994
 21
31.5865424304
 31
0.0
  0
SPLINE
  5
2B2
330
1F
100
AcDbEntity
  8
0
  6
Continuous
 62
     7
370
    15
100
AcDbSpline
210
0.0
220
0.0
230
1.0
 70
     8
 71
     3
 72
    12
 73
     8
 74
     0
 42
0.000000001
 43
0.00000001
 40
0.0
 40
0.0
 40
0.0
 40
0.0
 40
0.4999999999999984
 40
0.4999999999999984
 40
0.7499999999999992
 40
0.7499999999999992
 40
1.0
 40
1.0
 40
1.0
 40
1.0
 10
245.0589674934078
 20
32.03266448511508
 30
0.0
 10
245.1348983011591
 20
32.07649840739862
 30
0.0
 10
245.2387882605832
 20
32.10315574990783
 30
0.0
 10
245.3994903404156
 20
32.10611161268155
 30
0.0
 10
245.4532751408384
 20
32.1009583410456
 30
0.0
 10
245.553044026281
 20
32.07865983844224
 30
0.0
 10
245.5985962521084
 20
32.06167608714482
 30
0.0
 10
245.6367520922127
 20
32.03964918950832
 30
0.0
  0
LINE
  5
2B3
330
1F
100
AcDbEntity
  8
0
  6
Continuous
 62
     7
370
    15
100
AcDbLine
 10
245.0007205172
 20
31.9990392388
 30
0.0
 11
245.0589674618
 21
32.0326644843
 31
0.0
  0
SPLINE
  5
2B4
330
1F
100
AcDbEntity
  8
0
  6
Continuous
 62
     7
370
    15
100
AcDbSpline
210
0.0
220
0.0
230
1.0
 70
     8
 71
     3
 72
     8
 73
     4
 74
     0
 42
0.000000001
 43
0.00000001
 40
0.0
 40
0.0
 40
0.0
 40
0.0
 40
1.0
 40
1.0
 40
1.0
 40
1.0
 10
243.8582441539953
 20
31.81089145561402
 30
0.0
 10
244.239184804735
 20
31.87337233428705
 30
0.0
 10
244.6200227769748
 20
31.93607245642209
 30
0.0
 10
245.0007206429752
 20
31.99903929409269
 30
0.0
  0
LINE
  5
2B5
330
1F
100
AcDbEntity
  8
0
  6
Continuous
 62
     7
370
    15
100
AcDbLine
 10
242.5022923806
 20
32.5936655384
 30
0.0
 11
243.858243919
 21
31.8108913771
 31
0.0
  0
LINE
  5
2B6
330
1F
100
AcDbEntity
  8
0
  6
Continuous
 62
     7
370
    15
100
AcDbLine
 10
242.5022923806
 20
32.5936655384
 30
0.0
 11
244.5152304753
 21
33.7557099656
 31
0.0
  0
ARC
  5
2B7
330
1F
100
AcDbEntity
  8
0
  6
Continuous
 62
     7
370
    15
100
AcDbCircle
 10
252.1754014925
 20
31.5311072513
 30
0.0
 40
6.379488898678215
100
AcDbArc
 50
194.2013364212
 51
238.2565264866
  0
ELLIPSE
  5
2B8
330
1F
100
AcDbEntity
  8
0
  6
Continuous
 62
     7
370
    15
100
AcDbEllipse
 10
244.2809159068
 20
34.5442096032
 30
0.0
 11
-6.005970382716441E-5
 21
0.8534489614827194
 31
0.0
210
0.0
220
0.0
230
1.0
 40
0.7174342186
 41
3.534193645557497
 42
5.104989972352381
  0
ARC
  5
2B9
330
1F
100
AcDbEntity
  8
0
  6
Continuous
 62
     7
370
    15
100
AcDbCircle
 10
251.6097118021
 20
33.8389775678
 30
0.0
 40
6.860330812609121
100
AcDbArc
 50
195.5571636347
 51
215.5080547584
  0
ARC
  5
2BA
330
1F
100
AcDbEntity
  8
0
  6
Continuous
 62
     7
370
    15
100
AcDbCircle
 10
249.4484052308
 20
32.8535906706
 30
0.0
 40
6.122026280117737
100
AcDbArc
 50
193.7000576687
 51
253.1334089572
  0
SPLINE
  5
2BB
330
1F
100
AcDbEntity
  8
0
  6
Continuous
 62
     7
370
    15
100
AcDbSpline
210
0.0
220
0.0
230
1.0
 70
     8
 71
     3
 72
     8
 73
     4
 74
     0
 42
0.000000001
 43
0.00000001
 40
0.0
 40
0.0
 40
0.0
 40
0.0
 40
0.0011901715795577
 40
0.0011901715795577
 40
0.0011901715795577
 40
0.0011901715795577
 10
243.8582441539953
 20
31.81089145561402
 30
0.0
 10
243.7394470380803
 20
31.67454041929897
 30
0.0
 10
243.6202038639323
 20
31.53880987316306
 30
0.0
 10
243.5005573564374
 20
31.40365532334363
 30
0.0
  0
LINE
  5
2BC
330
1F
100
AcDbEntity
  8
0
  6
Continuous
 62
     7
370
    15
100
AcDbLine
 10
242.0631306979
 20
32.3400909815
 30
0.0
 11
242.5022923806
 21
32.5936655384
 31
0.0
  0
LINE
  5
2BD
330
1F
100
AcDbEntity
  8
0
  6
Continuous
 62
     7
370
    15
100
AcDbLine
 10
243.5005574451
 20
31.4036553297
 30
0.0
 11
242.1647749847
 21
32.1747861301
 31
0.0
  0
SPLINE
  5
2BE
330
1F
100
AcDbEntity
  8
0
  6
Continuous
 62
     7
370
    15
100
AcDbSpline
210
0.0
220
0.0
230
1.0
 70
     8
 71
     3
 72
    10
 73
     6
 74
     0
 42
0.000000001
 43
0.00000001
 40
0.0
 40
0.0
 40
0.0
 40
0.0
 40
0.5
 40
0.5
 40
1.0
 40
1.0
 40
1.0
 40
1.0
 10
242.1647748910213
 20
32.17478612664769
 30
0.0
 10
242.1384706386444
 20
32.18997124832046
 30
0.0
 10
242.1162725245259
 20
32.21360089925433
 30
0.0
 10
242.0822606380941
 20
32.27104329206423
 30
0.0
 10
242.070389757688
 20
32.30468157021485
 30
0.0
 10
242.0631307804239
 20
32.34009099345798
 30
0.0
  0
ARC
  5
2BF
330
1F
100
AcDbEntity
  8
0
  6
Continuous
 62
     7
370
    15
100
AcDbCircle
 10
248.0436346309
 20
33.4116827461
 30
0.0
 40
5.940220991151482
100
AcDbArc
 50
204.996470484
 51
239.0984295664
  0
ELLIPSE
  5
2C0
330
1F
100
AcDbEntity
  8
0
  6
Continuous
 62
     7
370
    15
100
AcDbEllipse
 10
244.1616770913
 20
34.4753521231
 30
0.0
 11
0.2600075789209484
 21
0.9705436209909378
 31
0.0
210
0.0
220
0.0
230
1.0
 40
0.5176380889
 41
3.619174351347763
 42
5.189970678142624
  0
SPLINE
  5
2C1
330
1F
100
AcDbEntity
  8
0
  6
Continuous
 62
     7
370
    15
100
AcDbSpline
210
0.0
220
0.0
230
1.0
 70
     8
 71
     3
 72
    12
 73
     8
 74
     0
 42
0.000000001
 43
0.00000001
 40
0.0
 40
0.0
 40
0.0
 40
0.0
 40
0.5000000000000003
 40
0.5000000000000003
 40
0.7500000000000001
 40
0.7500000000000001
 40
1.0
 40
1.0
 40
1.0
 40
1.0
 10
261.6171073281378
 20
54.81495615849973
 30
0.0
 10
261.6795506539625
 20
54.85100392320004
 30
0.0
 10
261.7588872591846
 20
54.87666292325784
 30
0.0
 10
261.8897606225257
 20
54.88844668326431
 30
0.0
 10
261.9345329348967
 20
54.88763641106078
 30
0.0
 10
262.0197948508999
 20
54.87408793067343
 30
0.0
 10
262.0592110580183
 20
54.86132331966403
 30
0.0
 10
262.0904507182681
 20
54.84328904767207
 30
0.0
  0
LINE
  5
2C2
330
1F
100
AcDbEntity
  8
0
  6
Continuous
 62
     7
370
    15
100
AcDbLine
 10
262.0904509932
 20
54.8432890013
 30
0.0
 11
263.2421142873
 21
54.1784479332
 31
0.0
  0
SPLINE
  5
2C3
330
1F
100
AcDbEntity
  8
0
  6
Continuous
 62
     7
370
    15
100
AcDbSpline
210
0.0
220
0.0
230
1.0
 70
     8
 71
     3
 72
     9
 73
     5
 74
     0
 42
0.000000001
 43
0.00000001
 40
0.0
 40
0.0
 40
0.0
 40
0.0
 40
0.8664443272572582
 40
1.0
 40
1.0
 40
1.0
 40
1.0
 10
264.8091950302634
 20
52.39813379046124
 30
0.0
 10
265.1283717283893
 20
52.46742378169715
 30
0.0
 10
265.4967470389372
 20
52.54739428765598
 30
0.0
 10
265.8670871363013
 20
52.62426376814708
 30
0.0
 10
265.9165481571484
 20
52.63453012332746
 30
0.0
  0
LINE
  5
2C4
330
1F
100
AcDbEntity
  8
0
  6
Continuous
 62
     7
370
    15
100
AcDbLine
 10
265.9165481571
 20
52.6345301233
 30
0.0
 11
267.2700079277
 21
51.853194429
 31
0.0
  0
SPLINE
  5
2C5
330
1F
100
AcDbEntity
  8
0
  6
Continuous
 62
     7
370
    15
100
AcDbSpline
210
0.0
220
0.0
230
1.0
 70
     8
 71
     3
 72
    14
 73
    10
 74
     0
 42
0.000000001
 43
0.00000001
 40
0.0
 40
0.0
 40
0.0
 40
0.0
 40
0.25
 40
0.25
 40
0.5
 40
0.5
 40
0.75
 40
0.75
 40
1.0
 40
1.0
 40
1.0
 40
1.0
 10
267.2700078904596
 20
51.85319433812139
 30
0.0
 10
267.3012699786177
 20
51.8351471187736
 30
0.0
 10
267.3235373507138
 20
51.81205780333328
 30
0.0
 10
267.3466907487021
 20
51.76344645006458
 30
0.0
 10
267.3482109186981
 20
51.73744666849947
 30
0.0
 10
267.3347657479271
 20
51.68731373911205
 30
0.0
 10
267.320066242279
 20
51.66312342400064
 30
0.0
 10
267.2784212473034
 20
51.61817298122806
 30
0.0
 10
267.2521089637858
 20
51.5979390741463
 30
0.0
 10
267.2209285690412
 20
51.57993901540224
 30
0.0
  0
LINE
  5
2C6
330
1F
100
AcDbEntity
  8
0
  6
Continuous
 62
     7
370
    15
100
AcDbLine
 10
267.2209285812
 20
51.5799387475
 30
0.0
 11
264.8337626917
 21
50.2018572127
 31
0.0
  0
LINE
  5
2C7
330
1F
100
AcDbEntity
  8
0
  6
Continuous
 62
     7
370
    15
100
AcDbLine
 10
261.6171072285
 20
54.8149559551
 30
0.0
 11
261.1091863374
 21
54.521739466
 31
0.0
  0
ARC
  5
2C8
330
1F
100
AcDbEntity
  8
0
  6
Continuous
 62
     7
370
    15
100
AcDbCircle
 10
252.9567379643
 20
48.3455417867
 30
0.0
 40
1.069166538151293
100
AcDbArc
 50
125.9200245869
 51
149.1306054369
  0
LINE
  5
2C9
330
1F
100
AcDbEntity
  8
0
  6
Continuous
 62
     7
370
    15
100
AcDbLine
 10
252.0969985718
 20
48.9583440628
 30
0.0
 11
252.3037970232
 21
49.1837690178
 31
0.0
  0
LWPOLYLINE
  5
2CA
330
1F
100
AcDbEntity
  8
0
  6
Continuous
 62
     7
370
     0
100
AcDbPolyline
 90
       33
 70
   128
 43
0.0
 10
273.464591037
 20
50.5872671513
 10
272.7741169986
 20
50.6836015997
 10
271.7892086984
 20
50.7070852849
 10
270.7633619789
 20
50.6055576551
 10
269.704384873
 20
50.3797930796
 10
268.6203366485
 20
50.031505646
 10
267.5194677155
 20
49.5633502114
 10
266.4101562418
 20
48.9788873326
 10
265.3008447682
 20
48.2825664462
 10
264.1999758352
 20
47.4796856655
 10
263.1159276106
 20
46.5763576605
 10
262.0569505048
 20
45.5794532948
 10
261.0311037853
 20
44.4965635132
 10
260.0461954851
 20
43.3359289096
 10
259.1097201701
 20
42.1063809868
 10
258.2288055966
 20
40.8172779027
 10
257.4101564064
 20
39.4784316612
 10
256.6600024305
 20
38.1000311198
 10
255.9840525911
 20
36.6925659484
 10
255.3874520967
 20
35.266748685
 10
254.8747416114
 20
33.8334314696
 10
254.4498223531
 20
32.4035208751
 10
254.1159271167
 20
30.9878995825
 10
253.8756005181
 20
29.5973431123
 10
253.7306680428
 20
28.242432564
 10
253.6822347284
 20
26.9334806613
 10
253.7306680428
 20
25.680448673
 10
253.8756005181
 20
24.4928735989
 10
254.1159271167
 20
23.3797923132
 10
254.4498223531
 20
22.3496782549
 10
254.8747416114
 20
21.4103689933
 10
255.3874520967
 20
20.5690147038
 10
255.8276864661
 20
20.0056901666
  0
LINE
  5
2CB
330
1F
100
AcDbEntity
  8
0
  6
Continuous
 62
     7
370
     0
100
AcDbLine
 10
271.1201238563
 20
15.2938185077
 30
0.0
 11
272.6404028289
 21
14.4161801379
 31
0.0
  0
ARC
  5
2CC
330
1F
100
AcDbEntity
  8
0
  6
Continuous
 62
     7
370
     0
100
AcDbCircle
 10
255.0783756807
 20
32.1669142827
 30
0.0
 40
5.013748691400846
100
AcDbArc
 50
197.6070194745
 51
235.2813992077
  0
LWPOLYLINE
  5
2CD
330
1F
100
AcDbEntity
  8
0
  6
Continuous
 62
     7
370
     0
100
AcDbPolyline
 90
       20
 70
   128
 43
0.0
 10
250.2995029837
 20
37.1725614186
 10
250.6511953854
 20
38.3953333554
 10
251.0956839524
 20
39.6221673428
 10
251.6278267689
 20
40.8388743861
 10
252.2414710538
 20
42.0313838374
 10
252.9295183558
 20
43.1859042278
 10
253.6840131278
 20
44.2890835258
 10
254.4962286675
 20
45.3281636941
 10
255.3567721544
 20
46.2911276387
 10
256.2556911701
 20
47.1668382688
 10
257.1825899309
 20
47.945168715
 10
258.1267489374
 20
48.61711779
 10
259.0772488633
 20
49.1749142072
 10
260.0230972835
 20
49.6121064705
 10
260.9533555267
 20
49.923639146
 10
261.857265322
 20
50.1059092432
 10
262.7243728513
 20
50.1568081713
 10
263.5446499635
 20
50.0757483682
 10
264.3086103251
 20
49.8636664735
 10
264.9245358081
 20
49.5721494891
  0
LWPOLYLINE
  5
2CE
330
1F
100
AcDbEntity
  8
0
  6
Continuous
 62
     7
370
     0
100
AcDbPolyline
 90
       21
 70
   128
 43
0.0
 10
247.3443319193
 20
36.5324779305
 10
247.6945893526
 20
37.8970770917
 10
248.1387348178
 20
39.2722778016
 10
248.6727643644
 20
40.6456826093
 10
249.2918646906
 20
42.0049116307
 10
249.9904533144
 20
43.3377097696
 10
250.762233892
 20
44.6320634438
 10
251.6002475835
 20
45.8763028626
 10
252.4969408834
 20
47.0592126675
 10
253.4442294992
 20
48.1701281251
 10
254.4335737552
 20
49.19903417
 10
255.4560551476
 20
50.136655988
 10
256.5024556997
 20
50.9745405683
 10
257.5633424612
 20
51.7051351418
 10
258.6291514313
 20
52.3218538803
 10
259.6902745691
 20
52.8191349708
 10
260.7371458159
 20
53.1924963582
 10
261.7603278997
 20
53.4385729293
 10
262.7505964228
 20
53.555145283
 10
263.69902465
 20
53.5411643431
 10
264.5970626977
 20
53.3967544869
  0
LWPOLYLINE
  5
2CF
330
1F
100
AcDbEntity
  8
0
  6
Continuous
 62
     7
370
     0
100
AcDbPolyline
 90
        3
 70
   128
 43
0.0
 10
247.7046650836
 20
36.2028540648
 10
248.036495783
 20
37.5608940614
 10
248.1416258282
 20
37.9267755936
  0
LWPOLYLINE
  5
2D0
330
1F
100
AcDbEntity
  8
0
  6
Continuous
 62
     7
370
     0
100
AcDbPolyline
 90
       13
 70
   128
 43
0.0
 10
253.5593651405
 20
47.6687624644
 10
253.70574806
 20
47.8328073807
 10
254.6914973215
 20
48.8620426632
 10
255.7110804596
 20
49.7988963054
 10
256.7549945123
 20
50.6346382296
 10
257.8135091553
 20
51.3614770757
 10
258.8767586098
 20
51.9726391145
 10
259.9348324807
 20
52.4624267709
 10
260.9778691875
 20
52.8262771236
 10
261.9961464318
 20
53.0607966398
 10
262.9801735994
 20
53.16380083
 10
263.9207789763
 20
53.1343288543
 10
264.8091950303
 20
52.9726554922
  0
LWPOLYLINE
  5
2D1
330
1F
100
AcDbEntity
  8
0
  6
Continuous
 62
     7
370
     0
100
AcDbPolyline
 90
       20
 70
   128
 43
0.0
 10
249.5807991178
 20
37.1913238867
 10
249.9360311963
 20
38.4588570977
 10
250.3877914117
 20
39.7320512624
 10
250.9308805551
 20
40.9962504675
 10
251.5590464049
 20
42.236901941
 10
252.2650581425
 20
43.4397241079
 10
253.0407876822
 20
44.5908695114
 10
253.8773058191
 20
45.6770883038
 10
254.7649829861
 20
46.6858753863
 10
255.6936007127
 20
47.6056191642
 10
256.6524693398
 20
48.4257318601
 10
257.630550756
 20
49.1367720799
 10
258.6165859082
 20
49.7305549246
 10
259.5992241231
 20
50.2002456584
 10
260.5671537464
 20
50.5404374059
 10
261.509232452
 20
50.7472134504
 10
262.4146155759
 20
50.8181939428
 10
263.2728811574
 20
50.7525616979
 10
264.0741487239
 20
50.5510714518
 10
264.8091950303
 20
50.2160444323
  0
ARC
  5
2D2
330
1F
100
AcDbEntity
  8
0
  6
Continuous
 62
     7
370
     0
100
AcDbCircle
 10
262.5188681165
 20
46.2667369814
 30
0.0
 40
4.56551290980074
100
AcDbArc
 50
36.6954095264
 51
59.533179014
  0
LWPOLYLINE
  5
2D3
330
1F
100
AcDbEntity
  8
0
  6
Continuous
 62
     7
370
     0
100
AcDbPolyline
 90
       21
 70
   128
 43
0.0
 10
242.1647749847
 20
39.5225725029
 10
242.515032418
 20
40.8871716641
 10
242.9591778832
 20
42.2623723739
 10
243.4932074298
 20
43.6357771817
 10
244.112307756
 20
44.9950062031
 10
244.8108963798
 20
46.327804342
 10
245.5826769574
 20
47.6221580162
 10
246.4206906489
 20
48.866397435
 10
247.3173839488
 20
50.0493072399
 10
248.2646725646
 20
51.1602226975
 10
249.2540168206
 20
52.1891287424
 10
250.276498213
 20
53.1267505604
 10
251.3228987651
 20
53.9646351407
 10
252.3837855266
 20
54.6952297142
 10
253.4495944967
 20
55.3119484527
 10
254.5107176345
 20
55.8092295432
 10
255.5575888813
 20
56.1825909306
 10
256.5807709651
 20
56.4286675017
 10
257.5710394882
 20
56.5452398554
 10
258.5194677154
 20
56.5312589155
 10
259.4175057631
 20
56.3868490593
  0
LWPOLYLINE
  5
2D4
330
1F
100
AcDbEntity
  8
0
  6
Continuous
 62
     7
370
     0
100
AcDbPolyline
 90
       17
 70
   128
 43
0.0
 10
245.6367520226
 20
38.6128027377
 10
245.9670924358
 20
39.8768979502
 10
246.3883067227
 20
41.1501584798
 10
246.8962118087
 20
42.4199397421
 10
247.4857639013
 20
43.6736325949
 10
248.1511085399
 20
44.8987876693
 10
248.8856392059
 20
46.0832389395
 10
249.6820612019
 20
47.2152238696
 10
250.5324667254
 20
48.2835035602
 10
251.4284102723
 20
49.2774671145
 10
252.3609954003
 20
50.187246365
 10
253.3209611626
 20
51.0038060754
 10
254.2987747158
 20
51.7190377065
 10
255.2847264591
 20
52.3258386737
 10
256.2690254616
 20
52.8181834056
 10
257.2418974614
 20
53.1911829596
 10
257.7467737366
 20
53.3384436164
  0
LWPOLYLINE
  5
2D5
330
1F
100
AcDbEntity
  8
0
  6
Continuous
 62
     7
370
     0
100
AcDbPolyline
 90
       20
 70
   128
 43
0.0
 10
245.0589674618
 20
38.6058182609
 10
245.3878208815
 20
39.8944830282
 10
245.8090364855
 20
41.1935951134
 10
246.3184977122
 20
42.4904536516
 10
246.9112220137
 20
43.7723802928
 10
247.581416174
 20
45.0268423915
 10
248.3225283338
 20
46.2415761973
 10
249.1273118694
 20
47.4047054808
 10
249.9879001374
 20
48.5048607291
 10
250.8958792437
 20
49.5312850335
 10
251.8423726671
 20
50.4739445388
 10
252.8181273632
 20
51.3236230179
 10
253.8136039857
 20
52.0720142593
 10
254.8190704492
 20
52.7118011757
 10
255.8246970856
 20
53.2367297479
 10
256.8206525522
 20
53.6416681934
 10
257.7972004652
 20
53.9226574288
 10
258.7447933286
 20
54.0769500848
 10
259.6541672322
 20
54.1030377968
 10
259.8198860064
 20
54.0936016326
  0
ARC
  5
2D6
330
1F
100
AcDbEntity
  8
0
  6
Continuous
 62
     7
370
     0
100
AcDbCircle
 10
251.0791863653
 20
31.0574316024
 30
0.0
 40
0.7913797700721057
100
AcDbArc
 50
306.4031961401
 51
30.6408161238
  0
LWPOLYLINE
  5
2D7
330
1F
100
AcDbEntity
  8
0
  6
Continuous
 62
     7
370
     0
100
AcDbPolyline
 90
        3
 70
   128
 43
0.0
 10
251.7600730429
 20
31.4607618304
 10
252.1183153283
 20
31.6705238864
 10
252.3224931017
 20
31.9050823483
  0
LINE
  5
2D8
330
1F
100
AcDbEntity
  8
0
  6
Continuous
 62
     7
370
     0
100
AcDbLine
 10
250.8955568862
 20
36.5816794548
 30
0.0
 11
250.6106435317
 21
36.8245611081
 31
0.0
  0
LINE
  5
2D9
330
1F
100
AcDbEntity
  8
0
  6
Continuous
 62
     7
370
     0
100
AcDbLine
 10
250.3311835843
 20
36.9712789381
 30
0.0
 11
249.8126489315
 21
37.2706226215
 31
0.0
  0
ARC
  5
2DA
330
1F
100
AcDbEntity
  8
0
  6
Continuous
 62
     7
370
     0
100
AcDbCircle
 10
248.7917991467
 20
34.3049087579
 30
0.0
 40
3.078836530955308
100
AcDbArc
 50
59.1938981408
 51
60.0007269053
  0
SPLINE
  5
2DB
330
1F
100
AcDbEntity
  8
0
  6
Continuous
 62
     7
370
     0
100
AcDbSpline
210
0.0
220
0.0
230
1.0
 70
     8
 71
     3
 72
    12
 73
     8
 74
     0
 42
0.000000001
 43
0.00000001
 40
0.0
 40
0.0
 40
0.0
 40
0.0
 40
0.25
 40
0.25
 40
0.5
 40
0.5
 40
1.0
 40
1.0
 40
1.0
 40
1.0
 10
250.6106437678192
 20
36.82456123285264
 30
0.0
 10
250.5905756356588
 20
36.83937998415315
 30
0.0
 10
250.5702764342263
 20
36.85001699445412
 30
0.0
 10
250.5299831521949
 20
36.86909159195991
 30
0.0
 10
250.5098875592507
 20
36.87776219340412
 30
0.0
 10
250.449519871545
 20
36.90514767357848
 30
0.0
 10
250.4091728878433
 20
36.92513402136018
 30
0.0
 10
250.368577484889
 20
36.94933804655092
 30
0.0
  0
SPLINE
  5
2DC
330
1F
100
AcDbEntity
  8
0
  6
Continuous
 62
     7
370
     0
100
AcDbSpline
210
0.0
220
0.0
230
1.0
 70
     8
 71
     3
 72
    12
 73
     8
 74
     0
 42
0.000000001
 43
0.00000001
 40
0.0
 40
0.0
 40
0.0
 40
0.0
 40
0.5000000000000013
 40
0.5000000000000013
 40
0.7500000000000007
 40
0.7500000000000007
 40
1.0
 40
1.0
 40
1.0
 40
1.0
 10
250.6106437678192
 20
31.52865095908741
 30
0.0
 10
250.8228237026129
 20
31.44035156340752
 30
0.0
 10
251.0249488971568
 20
31.39482612326517
 30
0.0
 10
251.3149687032984
 20
31.38034663722801
 30
0.0
 10
251.4094116982539
 20
31.38472402486436
 30
0.0
 10
251.590017621537
 20
31.41033476647991
 30
0.0
 10
251.6767629380353
 20
31.43150862889883
 30
0.0
 10
251.7600735449324
 20
31.46076180708225
 30
0.0
  0
SPLINE
  5
2DD
330
1F
100
AcDbEntity
  8
0
  6
Continuous
 62
     7
370
     0
100
AcDbSpline
210
0.0
220
0.0
230
1.0
 70
     8
 71
     3
 72
    12
 73
     8
 74
     0
 42
0.000000001
 43
0.00000001
 40
0.0
 40
0.0
 40
0.0
 40
0.0
 40
0.4999999999999998
 40
0.4999999999999998
 40
0.7499999999999999
 40
0.7499999999999999
 40
1.0
 40
1.0
 40
1.0
 40
1.0
 10
250.3685774848868
 20
31.6833579266821
 30
0.0
 10
250.4089934540889
 20
31.66079168406201
 30
0.0
 10
250.4493560619469
 20
31.63420493683283
 30
0.0
 10
250.5096865080746
 20
31.59192359518848
 30
0.0
 10
250.5297724038068
 20
31.5774004814682
 30
0.0
 10
250.5700348699556
 20
31.54995940336146
 30
0.0
 10
250.590217649632
 20
31.53715135707995
 30
0.0
 10
250.6106437678191
 20
31.52865095908648
 30
0.0
  0
ARC
  5
2DE
330
1F
100
AcDbEntity
  8
0
  6
Continuous
 62
     7
370
     0
100
AcDbCircle
 10
251.8331257503
 20
34.3061686691
 30
0.0
 40
3.004003848631834
100
AcDbArc
 50
240.0013160935
 51
240.821489213
  0
LINE
  5
2DF
330
1F
100
AcDbEntity
  8
0
  6
Continuous
 62
     7
370
     0
100
AcDbLine
 10
244.846601099
 20
34.8707725972
 30
0.0
 11
250.3311835843
 21
31.7045905225
 31
0.0
  0
LINE
  5
2E0
330
1F
100
AcDbEntity
  8
0
  6
Continuous
 62
     7
370
     0
100
AcDbLine
 10
244.7273622316
 20
34.8019152773
 30
0.0
 11
244.846601099
 21
34.8707725972
 31
0.0
  0
ARC
  5
2E1
330
1F
100
AcDbEntity
  8
0
  6
Continuous
 62
     7
370
     0
100
AcDbCircle
 10
249.8876649437
 20
36.9777038672
 30
0.0
 40
0.4817479495832713
100
AcDbArc
 50
356.6244020389
 51
29.3435807983
  0
LWPOLYLINE
  5
2E2
330
1F
100
AcDbEntity
  8
0
  6
Continuous
 62
     7
370
     0
100
AcDbPolyline
 90
        3
 70
   128
 43
0.0
 10
250.2964815815
 20
37.1765191513
 10
250.3203143072
 20
37.0924435598
 10
250.3311835843
 20
36.9712789381
  0
LWPOLYLINE
  5
2E3
330
1F
100
AcDbEntity
  8
0
  6
Continuous
 62
     7
370
     0
100
AcDbPolyline
 90
        3
 70
   128
 43
0.0
 10
244.6485189782
 20
37.650713454
 10
244.6478130185
 20
37.7719515524
 10
244.6725025106
 20
38.5049399297
  0
LINE
  5
2E4
330
1F
100
AcDbEntity
  8
0
  6
Continuous
 62
     7
370
     0
100
AcDbLine
 10
284.4137311508
 20
22.9680546482
 30
0.0
 11
285.9340101235
 21
22.0904162783
 31
0.0
  0
LWPOLYLINE
  5
2E5
330
1F
100
AcDbEntity
  8
0
  6
Continuous
 62
     7
370
     0
100
AcDbPolyline
 90
       16
 70
   128
 43
0.0
 10
223.3759295432
 20
54.0639153328
 10
223.4248827784
 20
54.846506808
 10
223.5706486418
 20
55.6681364969
 10
223.8099712893
 20
56.5104506479
 10
224.1375046565
 20
57.3546335344
 10
224.5459316554
 20
58.1818271238
 10
225.026129469
 20
58.9735537841
 10
225.5673707365
 20
59.7121272959
 10
226.1575652393
 20
60.3810490302
 10
226.783528834
 20
60.9653767006
 10
227.4312787068
 20
61.4520571686
 10
228.0863451531
 20
61.8302189787
 10
228.7340950259
 20
62.0914145948
 10
229.3600586206
 20
62.2298091072
 10
229.9502531233
 20
62.2423114413
 10
230.3397036684
 20
62.1746590053
  0
ARC
  5
2E6
330
1F
100
AcDbEntity
  8
0
  6
Continuous
 62
     7
370
     0
100
AcDbCircle
 10
226.7462554332
 20
53.8219600776
 30
0.0
 40
3.378999696794685
100
AcDbArc
 50
175.8937879862
 51
223.9743040518
  0
ARC
  5
2E7
330
1F
100
AcDbEntity
  8
0
  6
Continuous
 62
     7
370
     0
100
AcDbCircle
 10
249.4697349888
 20
31.4385342814
 30
0.0
 40
1.14446200632959
100
AcDbArc
 50
316.4712495032
 51
4.5162221875
  0
ARC
  5
2E8
330
1F
100
AcDbEntity
  8
0
  6
Continuous
 62
     7
370
     0
100
AcDbCircle
 10
254.1842989902
 20
31.8480073964
 30
0.0
 40
4.764946046450157
100
AcDbArc
 50
194.9574113239
 51
266.067345014
  0
ARC
  5
2E9
330
1F
100
AcDbEntity
  8
0
  6
Continuous
 62
     7
370
     0
100
AcDbCircle
 10
253.4396411124
 20
30.5803405036
 30
0.0
 40
5.847151664402959
100
AcDbArc
 50
191.2411693731
 51
272.6370207784
  0
LWPOLYLINE
  5
2EA
330
1F
100
AcDbEntity
  8
0
  6
Continuous
 62
     7
370
     0
100
AcDbPolyline
 90
        3
 70
   128
 43
0.0
 10
247.8442975927
 20
27.9014380408
 10
247.6957911963
 20
28.2217330896
 10
247.3443319193
 20
29.1846915577
  0
LINE
  5
2EB
330
1F
100
AcDbEntity
  8
0
  6
Continuous
 62
     7
370
     0
100
AcDbLine
 10
249.7654984618
 20
30.7247947719
 30
0.0
 11
244.5152304753
 21
33.7557099656
 31
0.0
  0
LINE
  5
2EC
330
1F
100
AcDbEntity
  8
0
  6
Continuous
 62
     7
370
     0
100
AcDbLine
 10
249.5807991178
 20
30.6181701101
 30
0.0
 11
249.7654984618
 21
30.7247947719
 31
0.0
  0
ARC
  5
2ED
330
1F
100
AcDbEntity
  8
0
  6
Continuous
 62
     7
370
     0
100
AcDbCircle
 10
249.1567917175
 20
31.7181556445
 30
0.0
 40
1.212284865380545
100
AcDbArc
 50
302.7253511183
 51
358.35514161
  0
ARC
  5
2EE
330
1F
100
AcDbEntity
  8
0
  6
Continuous
 62
     7
370
     0
100
AcDbCircle
 10
251.6427022577
 20
33.9764298693
 30
0.0
 40
3.754600497871737
100
AcDbArc
 50
240.0016995741
 51
240.8206971994
  0
ARC
  5
2EF
330
1F
100
AcDbEntity
  8
0
  6
Continuous
 62
     7
370
     0
100
AcDbCircle
 10
249.1030106341
 20
31.7604791915
 30
0.0
 40
1.229443914554744
100
AcDbArc
 50
302.6054968531
 51
357.3945222572
  0
LINE
  5
2F0
330
1F
100
AcDbEntity
  8
0
  6
Continuous
 62
     7
370
     0
100
AcDbLine
 10
246.4984696944
 20
31.348651022
 30
0.0
 11
246.4216405994
 21
31.5865424304
 31
0.0
  0
LWPOLYLINE
  5
2F1
330
1F
100
AcDbEntity
  8
0
  6
Continuous
 62
     7
370
     0
100
AcDbPolyline
 90
        3
 70
   128
 43
0.0
 10
246.1350950423
 20
30.8105854217
 10
245.9771023123
 20
31.1348243607
 10
245.6367520226
 20
32.0396489611
  0
ARC
  5
2F2
330
1F
100
AcDbEntity
  8
0
  6
Continuous
 62
     7
370
     0
100
AcDbCircle
 10
251.6460155286
 20
33.8838302922
 30
0.0
 40
6.842223109681004
100
AcDbArc
 50
195.6970180704
 51
214.8144371563
  0
LWPOLYLINE
  5
2F3
330
1F
100
AcDbEntity
  8
0
  6
Continuous
 62
     7
370
     0
100
AcDbPolyline
 90
        3
 70
   128
 43
0.0
 10
242.6598114524
 20
30.9015685242
 10
242.5162342617
 20
31.211827662
 10
242.1647749847
 20
32.1747861301
  0
LINE
  5
2F4
330
1F
100
AcDbEntity
  8
0
  6
Continuous
 62
     7
370
     0
100
AcDbLine
 10
264.8337626917
 20
50.2018572127
 30
0.0
 11
264.8091950303
 21
50.1876746037
 31
0.0
  0
ARC
  5
2F5
330
1F
100
AcDbEntity
  8
0
  6
Continuous
 62
     7
370
     0
100
AcDbCircle
 10
262.7203060508
 20
47.1779092052
 30
0.0
 40
6.295511675145558
100
AcDbArc
 50
26.9953361889
 51
44.3655001743
  0
OLE2FRAME
  5
2F6
330
1F
100
AcDbEntity
  8
0
100
AcDbOle2Frame
 70
     2
  3
Paintbrush-Bild
 10
13.8511154363
 20
38.264191557
 30
0.0
 11
51.6290888628
 21
31.9806341108
 31
0.0
 71
     2
 72
     0
 73
     1
 90
    12928
310
80552BED0767C5B32B40DDAF6807D121434000000000000000006FFBDDFB85D0
310
4940DDAF6807D121434000000000000000006FFBDDFB85D04940416F4BD60AFB
310
3F4000000000000000002BED0767C5B32B40416F4BD60AFB3F40000000000000
310
0000000000000100000000010000010000000100000000000100000000320000
310
D0CF11E0A1B11AE1000000000000000000000000000000003E000300FEFF0900
310
0600000000000000000000000100000001000000000000000010000002000000
310
01000000FEFFFFFF0000000000000000FFFFFFFFFFFFFFFFFFFFFFFFFFFFFFFF
310
FFFFFFFFFFFFFFFFFFFFFFFFFFFFFFFFFFFFFFFFFFFFFFFFFFFFFFFFFFFFFFFF
310
FFFFFFFFFFFFFFFFFFFFFFFFFFFFFFFFFFFFFFFFFFFFFFFFFFFFFFFFFFFFFFFF
310
FFFFFFFFFFFFFFFFFFFFFFFFFFFFFFFFFFFFFFFFFFFFFFFFFFFFFFFFFFFFFFFF
310
FFFFFFFFFFFFFFFFFFFFFFFFFFFFFFFFFFFFFFFFFFFFFFFFFFFFFFFFFFFFFFFF
310
FFFFFFFFFFFFFFFFFFFFFFFFFFFFFFFFFFFFFFFFFFFFFFFFFFFFFFFFFFFFFFFF
310
FFFFFFFFFFFFFFFFFFFFFFFFFFFFFFFFFFFFFFFFFFFFFFFFFFFFFFFFFFFFFFFF
310
FFFFFFFFFFFFFFFFFFFFFFFFFFFFFFFFFFFFFFFFFFFFFFFFFFFFFFFFFFFFFFFF
310
FFFFFFFFFFFFFFFFFFFFFFFFFFFFFFFFFFFFFFFFFFFFFFFFFFFFFFFFFFFFFFFF
310
FFFFFFFFFFFFFFFFFFFFFFFFFFFFFFFFFFFFFFFFFFFFFFFFFFFFFFFFFFFFFFFF
310
FFFFFFFFFFFFFFFFFFFFFFFFFFFFFFFFFFFFFFFFFFFFFFFFFFFFFFFFFFFFFFFF
310
FFFFFFFFFFFFFFFFFFFFFFFFFFFFFFFFFFFFFFFFFFFFFFFFFFFFFFFFFFFFFFFF
310
FFFFFFFFFFFFFFFFFFFFFFFFFFFFFFFFFFFFFFFFFFFFFFFFFFFFFFFFFFFFFFFF
310
FFFFFFFFFFFFFFFFFFFFFFFFFFFFFFFFFFFFFFFFFFFFFFFFFFFFFFFFFFFFFFFF
310
FDFFFFFFFEFFFFFFFEFFFFFFFEFFFFFF05000000060000000700000008000000
310
090000000A0000000B0000000C0000000D0000000E0000000F00000010000000
310
11000000120000001300000014000000150000001600000017000000FEFFFFFF
310
FFFFFFFFFFFFFFFFFFFFFFFFFFFFFFFFFFFFFFFFFFFFFFFFFFFFFFFFFFFFFFFF
310
FFFFFFFFFFFFFFFFFFFFFFFFFFFFFFFFFFFFFFFFFFFFFFFFFFFFFFFFFFFFFFFF
310
FFFFFFFFFFFFFFFFFFFFFFFFFFFFFFFFFFFFFFFFFFFFFFFFFFFFFFFFFFFFFFFF
310
FFFFFFFFFFFFFFFFFFFFFFFFFFFFFFFFFFFFFFFFFFFFFFFFFFFFFFFFFFFFFFFF
310
FFFFFFFFFFFFFFFFFFFFFFFFFFFFFFFFFFFFFFFFFFFFFFFFFFFFFFFFFFFFFFFF
310
FFFFFFFFFFFFFFFFFFFFFFFFFFFFFFFFFFFFFFFFFFFFFFFFFFFFFFFFFFFFFFFF
310
FFFFFFFFFFFFFFFFFFFFFFFFFFFFFFFFFFFFFFFFFFFFFFFFFFFFFFFFFFFFFFFF
310
FFFFFFFFFFFFFFFFFFFFFFFFFFFFFFFFFFFFFFFFFFFFFFFFFFFFFFFFFFFFFFFF
310
FFFFFFFFFFFFFFFFFFFFFFFFFFFFFFFFFFFFFFFFFFFFFFFFFFFFFFFFFFFFFFFF
310
FFFFFFFFFFFFFFFFFFFFFFFFFFFFFFFFFFFFFFFFFFFFFFFFFFFFFFFFFFFFFFFF
310
FFFFFFFFFFFFFFFFFFFFFFFFFFFFFFFFFFFFFFFFFFFFFFFFFFFFFFFFFFFFFFFF
310
FFFFFFFFFFFFFFFFFFFFFFFFFFFFFFFFFFFFFFFFFFFFFFFFFFFFFFFFFFFFFFFF
310
FFFFFFFFFFFFFFFFFFFFFFFFFFFFFFFFFFFFFFFFFFFFFFFFFFFFFFFFFFFFFFFF
310
52006F006F007400200045006E00740072007900000000000000000000000000
310
0000000000000000000000000000000000000000000000000000000000000000
310
16000500FFFFFFFFFFFFFFFF020000000A00030000000000C000000000000046
310
000000000000000000000000B09CD85197FFD10103000000C000000000000000
310
01004F006C006500000000000000000000000000000000000000000000000000
310
0000000000000000000000000000000000000000000000000000000000000000
310
0A000200FFFFFFFFFFFFFFFFFFFFFFFF00000000000000000000000000000000
310
0000000000000000000000000000000000000000000000001400000000000000
310
010043006F006D0070004F0062006A0000000000000000000000000000000000
310
0000000000000000000000000000000000000000000000000000000000000000
310
120002010100000003000000FFFFFFFF00000000000000000000000000000000
310
0000000000000000000000000000000000000000010000004D00000000000000
310
01004F006C006500310030004E00610074006900760065000000000000000000
310
0000000000000000000000000000000000000000000000000000000000000000
310
1A000200FFFFFFFFFFFFFFFFFFFFFFFF00000000000000000000000000000000
310
0000000000000000000000000000000000000000040000002426000000000000
310
FEFFFFFF02000000FEFFFFFFFFFFFFFFFFFFFFFFFFFFFFFFFFFFFFFFFFFFFFFF
310
FFFFFFFFFFFFFFFFFFFFFFFFFFFFFFFFFFFFFFFFFFFFFFFFFFFFFFFFFFFFFFFF
310
FFFFFFFFFFFFFFFFFFFFFFFFFFFFFFFFFFFFFFFFFFFFFFFFFFFFFFFFFFFFFFFF
310
FFFFFFFFFFFFFFFFFFFFFFFFFFFFFFFFFFFFFFFFFFFFFFFFFFFFFFFFFFFFFFFF
310
FFFFFFFFFFFFFFFFFFFFFFFFFFFFFFFFFFFFFFFFFFFFFFFFFFFFFFFFFFFFFFFF
310
FFFFFFFFFFFFFFFFFFFFFFFFFFFFFFFFFFFFFFFFFFFFFFFFFFFFFFFFFFFFFFFF
310
FFFFFFFFFFFFFFFFFFFFFFFFFFFFFFFFFFFFFFFFFFFFFFFFFFFFFFFFFFFFFFFF
310
FFFFFFFFFFFFFFFFFFFFFFFFFFFFFFFFFFFFFFFFFFFFFFFFFFFFFFFFFFFFFFFF
310
FFFFFFFFFFFFFFFFFFFFFFFFFFFFFFFFFFFFFFFFFFFFFFFFFFFFFFFFFFFFFFFF
310
FFFFFFFFFFFFFFFFFFFFFFFFFFFFFFFFFFFFFFFFFFFFFFFFFFFFFFFFFFFFFFFF
310
FFFFFFFFFFFFFFFFFFFFFFFFFFFFFFFFFFFFFFFFFFFFFFFFFFFFFFFFFFFFFFFF
310
FFFFFFFFFFFFFFFFFFFFFFFFFFFFFFFFFFFFFFFFFFFFFFFFFFFFFFFFFFFFFFFF
310
FFFFFFFFFFFFFFFFFFFFFFFFFFFFFFFFFFFFFFFFFFFFFFFFFFFFFFFFFFFFFFFF
310
FFFFFFFFFFFFFFFFFFFFFFFFFFFFFFFFFFFFFFFFFFFFFFFFFFFFFFFFFFFFFFFF
310
FFFFFFFFFFFFFFFFFFFFFFFFFFFFFFFFFFFFFFFFFFFFFFFFFFFFFFFFFFFFFFFF
310
FFFFFFFFFFFFFFFFFFFFFFFFFFFFFFFFFFFFFFFFFFFFFFFFFFFFFFFFFFFFFFFF
310
0100000200000000000000000000000000000000000000000000000000000000
310
0000000000000000000000000000000000000000000000000000000000000000
310
0100FEFF030A0000FFFFFFFF0A00030000000000C00000000000004607000000
310
5042727573680007000000504272757368000700000050427275736800F439B2
310
7100000000000000000000000000000000000000000000000000000000000000
310
0000000000000000000000000000000000000000000000000000000000000000
310
0000000000000000000000000000000000000000000000000000000000000000
310
0000000000000000000000000000000000000000000000000000000000000000
310
0000000000000000000000000000000000000000000000000000000000000000
310
0000000000000000000000000000000000000000000000000000000000000000
310
0000000000000000000000000000000000000000000000000000000000000000
310
0000000000000000000000000000000000000000000000000000000000000000
310
0000000000000000000000000000000000000000000000000000000000000000
310
0000000000000000000000000000000000000000000000000000000000000000
310
0000000000000000000000000000000000000000000000000000000000000000
310
0000000000000000000000000000000000000000000000000000000000000000
310
20260000424D0E260000000000003E00000028000000B40200006E0000000100
310
01000000000000000000130B0000130B00000200000002000000000000FFFFFF
310
FFFFFFFFFFFFFFFFFFFFFFFFFFFFFFFFFFFFFFFFFFFFFFFFFFFFFFFFFFFFFFFF
310
FFFFFFFFFFFFFFFFFFFFFFFFFFFFFFFFFFFFFFFFFFFFFFFFFFFFFFFFFFFFFFFF
310
FFFFFFFFFFFFFFFFFFFFFFFFFFFFFFFFFFFFFFFFFFFFFFFFF000FFFFFFFFFFFF
310
FFFFFFFFFFFFFFFFFFFFFFFFFFFFFFFFFFFFFFFFFFFFFFFFFFFFFFFFFFFFFFFF
310
FFFFFFFFFFFFFFFFFFFFFFFFFFFFFFFFFFFFFFFFFFFFFFFFFFFFFFFFFFFFFFFF
310
FFFFFFFFFFFFFFFFFFFFFFFFFFFFFFFFF000FFFFFFFFFFFFFFFFFFFFFFFFFFFF
310
FFFFFFFFFFFFFFFFFFFFFFFFFFFFFFFFFFFFFFFFFFFFFFFFFFFFFFFFFFFFFFFF
310
FFFFFFFFFFFFFFFFFFFFFFFFFFFFFFFFFFFFFFFFFFFFFFFFFFFFFFFFFFFFFFFF
310
FFFFFFFFFFFFFFFFF000FFFFFFFFFFFFFFFFFFFFFFFFFFFFFFFFFFFFFFFFFFFF
310
FFFFFFFFFFFFFFFFFFFFFFFFFFFFFFFFFFFFFFFFFFFFFFFFFFFFFFFFFFFFFFFF
310
FFFFFFFFFFFFFFFFFFFFFFFFFFFFFFFFFFFFFFFFFFFFFFFFFFFFFFFFFFFFFFFF
310
F000FFFFFFFFFFFFFFFFFFFFFFFFFFFFFFFFFFFFFFFFFFFFFFFFFFFFFFFFFFFF
310
FFFFFFFFFFFFFFFFFFFFFFFFFFFFFFFFFFFFFFFFFFFFFFFFFFFFFFFFFFFFFFFF
310
FFFFFFFFFFFFFFFFFFFFFFFFFFFFFFFFFFFFFFFFFFFFFFFFF000FFFFFFFFFFFF
310
FFFFFFFFFFFFFFFFFFFFFFFFFFFFFFFFFFFFFFFFFFFFFFFFFFFFFFFFFFFFFFFF
310
FFFFFFFFFFFFFFFFFFFFFFFFFFFFFFFFFFFFFFFFFFFFFFFFFFFFFFFFFFFFFFFF
310
FFFFFFFFFFFFFFFFFFFFFFFFFFFFFFFFF000FFFFFFFFFFFFFFFFFFFFFFFFFFFF
310
FFFFFFFFFFFFFFFFFFFFFFFFFFFFFFFFFFFFFFFFFFFFFFFFFFFFFFFFFFFFFFFF
310
FFFFFFFFFFFFFFFFFFFFFFFFFFFFFFFFFFFFFFFFFFFFFFFFFFFFFFFFFFFFFFFF
310
FFFFFFFFFFFFFFFFF000FFFFFFFFFFFFFFFFFFFFFFFFFFFFFFFFFFFFFFFFFFFF
310
FFFFFFFFFFFFFFFFFFFFFFFFFFFFFFFFFFFFFFFFFFFFFFFFFFFFFFFFFFFFFFFF
310
FFFFFFFFFFFFFFFFFFFFFFFFFFFFFFFFFFFFFFFFFFFFFFFFFFFFFFFFFFFFFFFF
310
F000FFFFFFFFFFFFFFFFFFFFFFFFFFFFFFFFFFFFFFFFFFFFFFFFFFFFFFFFFFFF
310
FFFFFFFFFFFFFFFFFFFFFFFFFFFFFFFFFFFFFFFFFFFFFFFFFFFFFFFFFFFFFFFF
310
FFFFFFFFFFFFFFFFFFFFFFFFFFFFFFFFFFFFFFFFFFFFFFFFF000FFFFFFFFFFFF
310
FFFFFFFFFFFFFFFFFFFFFFFFFFFFFFFFFFFFFFFFFFFFFFFFFFFFFFFFFFFFFFFF
310
FFFFFFFFFFFFFFFFFFFFFFFFFFFFFFFFFFFFFFFFFFFFFFFFFFFFFFFFFFFFFFFF
310
FFFFFFFFFFFFFFFFFFFFFFFFFFFFFFFFF000FFFFFFFFFFFFFFFFFFFFFFFFFFFF
310
FFFFFFFFFFFFFFFFFFFFFFFFFFFFFFFFFFFFFFFFFFFFFFFFFFFFFFFFFFFFFFFF
310
FFFFFFFFFFFFFFFFFFFFFFFFFFFFFFFFFFFFFFFFFFFFFFFFFFFFFFFFFFFFFFFF
310
FFFFFFFFFFFFFFFFF000FFFFFFFFFFFFFFFFFFFFFFFFFFFFFFFFFFFFFFFFFFFF
310
FFFFFFFFFFFFFFFFFFFFFFFFFFFFFFFFFFFFFFFFFFFFFFFFFFFFFFFFFFFFFFFF
310
FFFFFFFFFFFFFFFFFFFFFFFFFFFFFFFFFFFFFFFFFFFFFFFFFFFFFFFFFFFFFFFF
310
F000FFFFFFFFFFFFFFFFFFFFFFFFFFFFFFFFFFFFFFFFFFFFFFFFFFFFFFFFFFFF
310
FFFFFFFFFFFFFFFFFFFFFFFFFFFFFFFFFFFFFFFFFFFFFFFFFFFFFFFFFFFFFFFF
310
FFFFFFFFFFFFFFFFFFFFFFFFFFFFFFFFFFFFFFFFFFFFFFFFF000FFFFFFFFFFFF
310
FFFFFFFFFFFFFFFFFFFFFFFFFFFFFFFFFFFFFFFFFFFFFFFFFFFFFFFFFFFFFFFF
310
FFFFFFFFFFFFFFFFFFFFFFFFFFFFFFFFFFFFFFFFFFFFFFFFFFFFFFFFFFFFFFFF
310
FFFFFFFFFFFFFFFFFFFFFFFFFFFFFFFFF000FFFFFFFFFFFFFFFFFFFFFFFFFFFF
310
FFFFFFFFFFFFFFFFFFFFFFFFFFFFFFFFFFFFFFFFFFFFFFFFFFFFFFFFFFFFFFFF
310
FFFFFFFFFFFFFFFFFFFFFFFFFFFFFFFFFFFFFFFFFFFFFFFFFFFFFFFFFFFFFFFF
310
FFFFFFFFFFFFFFFFF000FFFFFFFFFFFFFFFFFFFFFFFFFFFFFFFFFFFFFFFFFFFF
310
FFFFFFFFFFFFFFFFFFFFFFFFFFFFFFFFFFFFFFFFFFFFFFFFFFFFFFFFFFFFFFFF
310
FFFFFFFFFFFFFFFFFFFFFFFFFFFFFFFFFFFFFFFFFFFFFFFFFFFFFFFFFFFFFFFF
310
F000FFFFFFFFFFFFFFFFFFFFFFFFFFFFFFFFFFFFFFFFFFFFFFFFFFFFFFFFFFFF
310
FFFFFFFFFFFFFFFFFFFFFFFFFFFFFFFFFFFFFFFFFFFFFFFFFFFFFFFFFFFFFFFF
310
FFFFFFFFFFFFFFFFFFFFFFFFFFFFFFFFFFFFFFFFFFFFFFFFF000FFFFFFFFFFFF
310
FFFFFFFFFFFFFFFFFFFFFFFFFFFFFFFFFFFFFFFFFFFFFFFFFFFFFFFFFFFFFFFF
310
FFFFFFFFFFFFFFFFFFFFFFFFFFFFFFFFFFFFFFFFFFFFFFFFFFFFFFFFFFFFFFFF
310
FFFFFFFFFFFFFFFFFFFFFFFFFFFFFFFFF000FFFFFFFFFFFFFFFFFFFFFFFFFFFF
310
FFFFFFFFFFFFFFFFFFFFFFFFFFFFFFFFFFFFFFFFFFFFFFFFFFFFFFFFFFFFFFFF
310
FFFFFFFFFFFFFFFFFFFFFFFFFFFFFFFFFFFFFFFFFFFFFFFFFFFFFFFFFFFFFFFF
310
FFFFFFFFFFFFFFFFF000FFFFF80003FFFFFFFFFFFFFFFFFFFFFFFFFFFFFFFFFF
310
FFFFF00007FFFFFFFFFF00007FFFFFF800000000000000007FFFFFFFFFFFFFFF
310
FFFFFFFC001FFFFFFFFFFFFFFC001FFFFFFFFFFFFFFFFFFFFFFFFFFE0007FFFF
310
F000FFFF8000007FFFFFFFF8000FFFFFC0007FFFFF80007FFFFF0000007FFFFF
310
FFF8000007FFFFF800000000000000007FFFFFF0001FFFFFFFFFFFC00001FFFF
310
FFFFFFFFC00001FFFFFFFF000000000003FFFFE000007FFFF000FFFE0000000F
310
FFFFFFF0000FFFFF80007FFFFF80007FFFFC0000001FFFFFFFC0000001FFFFF8
310
00000000000000007FFFFFF0001FFFFFFFFFFE0000003FFFFFFFFFFE0000003F
310
FFFFFF000000000003FFFF0000000FFFF000FFF800000003FFFFFFF00007FFFF
310
80007FFFFF80007FFFF000000007FFFFFF000000003FFFF80000000000000000
310
7FFFFFF0001FFFFFFFFFF80000000FFFFFFFFFF80000000FFFFFFF0000000000
310
03FFFC00000003FFF000FFE000000000FFFFFFF00007FFFF80003FFFFF80007F
310
FFC000000001FFFFFC000000001FFFF800000000000000007FFFFFF0001FFFFF
310
FFFFE000000003FFFFFFFFE000000003FFFFFF000000000003FFF000000000FF
310
F000FF80000000007FFFFFF00007FFFF80003FFFFF80007FFF8000000000FFFF
310
F80000000007FFF800000000000000007FFFFFF0001FFFFFFFFFC000000001FF
310
FFFFFFC000000001FFFFFF000000000003FFC0000000007FF000FF0000000000
310
3FFFFFE00007FFFF00003FFFFF80007FFE00000000003FFFF00000000003FFF8
310
00000000000000007FFFFFF0001FFFFFFFFF8000000000FFFFFFFF8000000000
310
FFFFFF000000000003FF80000000003FF000FE00000000001FFFFFE00003FFFF
310
00003FFFFF80007FFC00000000001FFFE00000000001FFF8000001FFFE000000
310
7FFFFFF0001FFFFFFFFE00000000003FFFFFFE00000000003FFFFF0000000000
310
03FF00000000001FF000FC00000000000FFFFFE00003FFFF00001FFFFF80007F
310
F800000000001FFFC00000000000FFF8000001FFFE0000007FFFFFF0001FFFFF
310
FFFC00000000001FFFFFFC00000000001FFFFF000000000003FE00000000000F
310
F000F8000000000007FFFFE00003FFFF00001FFFFF80007FF800000000000FFF
310
800000000000FFF8000001FFFE0000007FFFFFF0001FFFFFFFF800000000000F
310
FFFFF800000000000FFFFF000000000003FC000000000007F000F80000000000
310
03FFFFC00003FFFE00001FFFFF80007FF0000000000007FF0000000000007FF8
310
000001FFFE0000007FFFFFF0001FFFFFFFF0000000000007FFFFF00000000000
310
07FFFF000000000003F8000000000003F000F0000000000003FFFFC00001FFFE
310
00001FFFFF80007FE0000000000007FE0000000000003FF8000001FFFE000000
310
7FFFFFF0001FFFFFFFF0000000000007FFFFF0000000000007FFFF0000000000
310
03F800001F800003F000E00001FFF00001FFFFC00001FFFE00000FFFFF80007F
310
E00001FFE00003FE00001FFF00003FF8000001FFFE0000007FFFFFF0001FFFFF
310
FFE000003E000003FFFFE000003E000003FFFF000000000003F00001FFF80001
310
F000E00007FFFC0001FFFFC00001FFFE00000FFFFF80007FC0000FFFFC0003FC
310
0000FFFFC0001FF8000001FFFE0000007FFFFFF0001FFFFFFFC00003FFE00001
310
FFFFC00003FFE00001FFFF0001FFFFFFFFF00007FFFE0001F000E0000FFFFF00
310
00FFFF800001FFFC00000FFFFF80007FC0001FFFFE0001FC0001FFFFE0001FF8
310
000001FFFE0000007FFFFFF0001FFFFFFF80000FFFF80000FFFF80000FFFF800
310
00FFFF0003FFFFFFFFE0000FFFFF8000F000C0003FFFFF8000FFFF800000FFFC
310
000007FFFF80007F80003FFFFF0001FC0003FFFFF0001FF8000001FFFE000000
310
7FFFFFF0001FFFFFFF80003FFFFE0000FFFF80003FFFFE0000FFFF0003FFFFFF
310
FFE0003FFFFF8000F000C0003FFFFF8000FFFF800000FFFC000007FFFF80007F
310
80007FFFFF8001F80007FFFFF8000FF8000001FFFE0000007FFFFFF0001FFFFF
310
FF00007FFFFF00007FFF00007FFFFF00007FFF0003FFFFFFFFE0003FFFFFC000
310
F000C0007FFFFFC000FFFF000000FFFC000007FFFF80007F8000FFFFFF8000F8
310
000FFFFFF8000FF8000001FFFE0000007FFFFFF0001FFFFFFF0000FFFFFF8000
310
7FFF0000FFFFFF80007FFF0003FFFFFFFFC0007FFFFFC00070008000FFFFFFC0
310
00FFFF000000FFF8000007FFFF80007F8000FFFFFF8000F8000FFFFFF8000FF8
310
000001FFFE0000007FFFFFF0001FFFFFFE0001FFFFFFC0003FFE0001FFFFFFC0
310
003FFF0003FFFFFFFFC0007FFFFFE00070008000FFFFFFC0007FFF0000007FF8
310
000003FFFF80007F0001FFFFFF8000F8000FFFFFF8000FF8000001FFFE000000
310
7FFFFFF0001FFFFFFE0001FFFFFFC0003FFE0001FFFFFFC0003FFF0003FFFFFF
310
FFC000FFFFFFE00070008000FFFFFFC0007FFF0000007FF8000003FFFF80007F
310
0001FFFFFF8000F8001FFFFFF8000FF8000001FFFE0000007FFFFFF0001FFFFF
310
FE0003FFFFFFE0003FFE0003FFFFFFE0003FFF0003FFFFFFFFC000FFFFFFE000
310
70008000FFFFFFC0007FFE0000007FF8000003FFFF80007F0001FFFFFF8000F0
310
001FFFFFF8000FF8000001FFFE0000007FFFFFF0001FFFFFFC0003FFFFFFE000
310
1FFC0003FFFFFFE0001FFF0003FFFFFFFFC000FFFFFFC00070008000FFFFFF80
310
007FFE0000007FF0000003FFFF80007F0001FFFFFF0000F0001FFFFFF8000FF8
310
000001FFFE0000007FFFFFF0001FFFFFFC0007FFFFFFF0001FFC0007FFFFFFF0
310
001FFF0003FFFFFFFFC000FFFFFFC00070008001FFFFFF0000FFFE0000003FF0
310
000001FFFF80007F0001FFFFFF0000F8001FFFFFF0000FF8000001FFFE000000
310
7FFFFFF0001FFFFFFC0007FFFFFFF0001FFC0007FFFFFFF0001FFF0003FFFFFF
310
FFC001FFFFFF80007000FFFFFFFFFE0000FFFE0008003FF0008001FFFF80007F
310
FFFFFFFFFC0000FFFFFFFFFFE0000FF8000001FFFE0000007FFFFFF0001FFFFF
310
F8000FFFFFFFF8000FF8000FFFFFFFF8000FFF0003FFFFFFFFFFFFFFFFFF0000
310
7000FFFFFFFFFC0000FFFC0008003FF0008001FFFF80007FFFFFFFFFF80001FF
310
FFFFFFFF80000FF8000001FFFE0000007FFFFFF0001FFFFFF8000FFFFFFFF800
310
0FF8000FFFFFFFF8000FFF0003FFFFFFFFFFFFFFFFFE0000F000FFFFFFFFE000
310
00FFFC000C003FE000C001FFFF80007FFFFFFFFFC00001FFFFFFFFFE00001FF8
310
000001FFFE0000007FFFFFF0001FFFFFF8000FFFFFFFF8000FF8000FFFFFFFF8
310
000FFF0003FFFFFFFFFFFFFFFFF00000F000FFFFFFFE000001FFFC000C001FE0
310
00C000FFFF80007FFFFFFFFE000001FFFFFFFFE000001FF80FFFFFFFFFFFFFC0
310
7FFFFFF0001FFFFFF8000FFFFFFFF8000FF8000FFFFFFFF8000FFF0003FFFFFF
310
FFFFFFFFFF800000F000FFFFFFC0000001FFFC001C001FE001C000FFFF80007F
310
FFFFFF80000003FFFFFFF80000001FF80FFFFFFFFFFFFFC07FFFFFF0001FFFFF
310
F8001FFFFFFFFC000FF8001FFFFFFFFC000FFF0003FFFFFFFFFFFFFFF0000001
310
F000FFFFF800000001FFF8001C001FE001C000FFFF80007FFFFFF800000003FF
310
FFFF800000003FF80FFFFFFFFFFFFFC07FFFFFF0001FFFFFF8001FFFFFFFFC00
310
0FF8001FFFFFFFFC000FFF0003FFFFFFFFFFFFFE00000001F000FFFFC0000000
310
03FFF8001E001FC001E000FFFF80007FFFFF8000000007FFFFFC000000003FF8
310
0FFFFFFFFFFFFFC07FFFFFF0001FFFFFF8001FFFFFFFFC000FF8001FFFFFFFFC
310
000FFF0003FFFFFFFFFFFFE000000003F000FFFE0000000007FFF8001E000FC0
310
01E0007FFF80007FFFFE0000000007FFFFE0000000007FF80FFFFFFFFFFFFFC0
310
7FFFFFF0001FFFFFF0001FFFFFFFFC0007F0001FFFFFFFFC0007FF0003FFFFFF
310
FFFFFF0000000003F000FFF80000000007FFF8001E000FC003E0007FFF80007F
310
FFF0000000000FFFFF8000000000FFF80FFFFFFFFFFFFFC07FFFFFF0001FFFFF
310
F0001FFFFFFFFC0007F0001FFFFFFFFC0007FF0003FFFFFFFFFFFC0000000007
310
F000FFE0000000000FFFF0003E000FC003E0007FFF80007FFFC0000000001FFF
310
FE0000000001FFF80FFFFFFFFFFFFFC07FFFFFF0001FFFFFF0001FFFFFFFFC00
310
07F0001FFFFFFFFC0007FF0003FFFFFFFFFFF0000000000FF000FFC000000000
310
1FFFF0003F000F8003F0003FFF80007FFF80000000003FFFF80000000003FFF8
310
0FFFFFFFFFFFFFC07FFFFFF0001FFFFFF0001FFFFFFFFC0007F0001FFFFFFFFC
310
0007FF0003FFFFFFFFFFE0000000001FF000FF00000000007FFFF0003F000780
310
03F0003FFF80007FFF00000000007FFFF00000000007FFF80FFFFFFFFFFFFFC0
310
7FFFFFF0001FFFFFF0001FFFFFFFFC0007F0001FFFFFFFFC0007FF0003FFFFFF
310
FFFF80000000007FF000FE0000000000FFFFE0003F00078007F0003FFF80007F
310
FE0000000001FFFFE0000000001FFFF80FFFFFFFFFFFFFC07FFFFFF0001FFFFF
310
F0001FFFFFFFFC0007F0001FFFFFFFFC0007FF0003FFFFFFFFFF0000000000FF
310
F000FC0000000003FFFFE0007F00078007F0003FFF80007FFC0000000007FFFF
310
C0000000007FFFF80FFFFFFFFFFFFFC07FFFFFF0001FFFFFF8001FFFFFFFFC00
310
0FF8001FFFFFFFFC000FFF0003FFFFFFFFFE0000000003FFF000FC000000000F
310
FFFFE0007F80070007F8001FFF80007FF8000000001FFFFF8000000001FFFFF8
310
0FFFFFFFFFFFFFC07FFFFFF0001FFFFFF8001FFFFFFFFC000FF8001FFFFFFFFC
310
000FFF0003FFFFFFFFFC000000000FFFF000F8000000007FFFFFE0007F800700
310
07F8001FFF80007FF000000000FFFFFF800000000FFFFFF80FFFFFFFFFFFFFC0
310
7FFFFFF0001FFFFFF8000FFFFFFFF8000FF8000FFFFFFFF8000FFF0003FFFFFF
310
FFFC000000007FFFF000F800000007FFFFFFC0007F8003000FF8001FFF80007F
310
F000000007FFFFFF000000007FFFFFF80FFFFFFFFFFFFFC07FFFFFF0001FFFFF
310
F8000FFFFFFFF8000FF8000FFFFFFFF8000FFF0003FFFFFFFFF80000000FFFFF
310
F000F0000000FFFFFFFFC000FF8003000FF8001FFF80007FE0000000FFFFFFFF
310
0000000FFFFFFFF8000001FFFE0000007FFFFFF0001FFFFFF8000FFFFFFFF800
310
0FF8000FFFFFFFF8000FFF0003FFFFFFFFF8000000FFFFFFF000F000000FFFFF
310
FFFFC000FFC002000FF8000FFF80007FE000001FFFFFFFFE000001FFFFFFFFF8
310
000001FFFE0000007FFFFFF0001FFFFFF8000FFFFFFFF8000FF8000FFFFFFFF8
310
000FFF0003FFFFFFFFF000001FFFFFFFF000E00000FFFFFFFFFFC000FFC00200
310
0FFC000FFF80007FE00001FFFFFFFFFE00001FFFFFFFFFF8000001FFFE000000
310
7FFFFFF0001FFFFFFC000FFFFFFFF8001FFC000FFFFFFFF8001FFF0003FFFFFF
310
FFF00001FFFFFFFFF000E00007FFFFFFFFFF8000FFC000001FFC000FFF80007F
310
C0000FFFFFFFFFFE0000FFFFFFFFFFF8000001FFFE0000007FFFFFF0001FFFFF
310
FC0007FFFFFFF0001FFC0007FFFFFFF0001FFF0003FFFFFFFFF00007FFFFFFFF
310
F000E0001FFFFFFFFFFF8000FFC000001FFC000FFF80007FC0003FFFFFFFFFFE
310
0001FFFFFFFFFFF8000001FFFE0000007FFFFFF0001FFFFFFC0007FFFFFFF000
310
1FFC0007FFFFFFF0001FFF0003FFFFFFFFF0001FFFFFFFFFF000E0003FFFFF00
310
03FF8001FFE000001FFC0007FF80007FC0007FFFFF0007FC0003FFFFF0003FF8
310
000001FFFE0000007FFFFFF0001FFFFFFC0003FFFFFFE0001FFC0003FFFFFFE0
310
001FFF0003FFFFFFFFF0003FFFFFFFFFF000E0003FFFFF0001FF8001FFE00000
310
1FFE0007FF80007FC0007FFFFE0003FC0007FFFFE0003FF8000001FFFE000000
310
7FFFFFF0001FFFFFFE0003FFFFFFE0003FFE0003FFFFFFE0003FFF0003FFFFFF
310
FFF0003FFFFF8001F000E0003FFFFF0001FF0001FFE000001FFE0007FF80007F
310
C0007FFFFE0003FC0007FFFFE0003FF8000001FFFE0000007FFFFFF0001FFFFF
310
FE0001FFFFFFC0003FFE0001FFFFFFC0003FFF0003FFFFFFFFF0003FFFFF0001
310
F000E0003FFFFF0003FF0001FFE000003FFE0007FF80007FC0007FFFFE0003FC
310
0007FFFFE0003FF8000001FFFE0000007FFFFFF0001FFFFFFF0001FFFFFFC000
310
7FFF0001FFFFFFC0007FFF0003FFFFFFFFF0003FFFFF0001F000E0003FFFFE00
310
03FF0003FFF000003FFE0003FF80007FC0007FFFFC0003FE0007FFFFE0003FF8
310
000001FFFE0000007FFFFFF0001FFFFFFF0000FFFFFF80007FFF0000FFFFFF80
310
007FFF0003FFFFFFFFF0003FFFFF0001F000E0003FFFFE0003FF0003FFF00000
310
3FFF0003FF80007FC0007FFFFC0007FE0007FFFFC0003FF8000001FFFE000000
310
7FFFFFF0001FFFFFFF80007FFFFF0000FFFF80007FFFFF0000FFFF0003FFFFFF
310
FFF0003FFFFF0003F000E0003FFFFC0003FE0003FFF000003FFF0003FF80007F
310
E0003FFFF80007FE0003FFFFC0007FF8000001FFFE0000007FFFFFF0001FFFFF
310
FF80003FFFFE0000FFFF80003FFFFE0000FFFF0003FFFFFFFFF0001FFFFE0003
310
F000F0001FFFF80003FE0003FFF000007FFF0001FF80007FE0003FFFF00007FE
310
0001FFFF80007FF8000001FFFE0000007FFFFFF0001FFFFFFFC0000FFFF80001
310
FFFFC0000FFFF80001FFFF0003FFFFFFFFF0001FFFFC0003F000F0000FFFF000
310
07FE0007FFF800007FFF0001FF80007FE0001FFFE00007FF0000FFFE00007FF8
310
000001FFFE0000007FFFFFF0001FFFFFFFC00003FFE00001FFFFC00003FFE000
310
01FFFF0003FFFFFFFFF8000FFFF80003F000F00003FFC00007FC0007FFF80000
310
7FFF8001FF80007FF00007FF80000FFF00007FF80000FFF8000001FFFE000000
310
7F80000000000001FFE000003E000003FFFFE000003E000003FFFF0003FFFFFF
310
FFF80003FFE00007F000F800000000000FFC0007FFF800007FFF8001FF80007F
310
F000000000000FFF000000000000FFF8000001FFFE0000007F80000000000001
310
FFF0000000000007FFFFF0000000000007FFFF0003FFFFFFFFFC00007E000007
310
F000F800000000000FFC0007FFF80000FFFF8000FF80007FF800000000001FFF
310
800000000001FFF8000001FFFE0000007F80000000000001FFF800000000000F
310
FFFFF800000000000FFFFF0003FFFFFFFFFC00000000000FF000FC0000000000
310
1FFC0007FFFC0000FFFF8000FF80007FF800000000003FFFC00000000001FFF8
310
000001FFFE0000007F80000000000001FFF800000000000FFFFFF80000000000
310
0FFFFF0003FFFFFFFFFE00000000001FF000FE00000000003FF8000FFFFC0000
310
FFFF8000FF80007FFC00000000003FFFC00000000003FFF8000001FFFE000000
310
7F80000000000001FFFC00000000001FFFFFFC00000000001FFFFF0003FFFFFF
310
FFFF00000000001FF000FF00000000003FF8000FFFFC0000FFFFC000FF80007F
310
FE00000000007FFFE00000000007FFF8000001FFFE0000007F80000000000001
310
FFFE00000000003FFFFFFE00000000003FFFFF0003FFFFFFFFFF80000000003F
310
F000FF80000000007FF8000FFFFC0001FFFFC0007F80007FFF0000000000FFFF
310
F0000000000FFFF800000000000000007F80000000000001FFFF8000000000FF
310
FFFFFF8000000000FFFFFF0003FFFFFFFFFFC0000000007FF000FFC000000000
310
FFF8000FFFFE0001FFFFC0007F80007FFF8000000001FFFFF8000000001FFFF8
310
00000000000000007F80000000000001FFFFC000000001FFFFFFFFC000000001
310
FFFFFF0003FFFFFFFFFFE000000000FFF000FFE000000003FFF0001FFFFE0001
310
FFFFC0007F80007FFFC000000007FFFFFE000000003FFFF80000000000000000
310
7F80000000000001FFFFE000000003FFFFFFFFE000000003FFFFFF0003FFFFFF
310
FFFFF000000003FFF000FFF80000000FFFF0001FFFFE0001FFFFE0007F80007F
310
FFF00000000FFFFFFF00000000FFFFF800000000000000007F80000000000001
310
FFFFF80000000FFFFFFFFFF80000000FFFFFFF0003FFFFFFFFFFFC0000000FFF
310
F000FFFE0000003FFFF0001FFFFE0003FFFFE0003F80007FFFFC0000003FFFFF
310
FFC0000003FFFFF800000000000000007F80000000000001FFFFFE0000003FFF
310
FFFFFFFE0000003FFFFFFF0003FFFFFFFFFFFF0000003FFFF000FFFF800000FF
310
FFF0001FFFFF0003FFFFE0003F80007FFFFF000001FFFFFFFFF800001FFFFFF8
310
00000000000000007F80000000000001FFFFFFC00001FFFFFFFFFFFFC00001FF
310
FFFFFF0003FFFFFFFFFFFFC00000FFFFF000FFFFF8000FFFFFFFFFFFFFFFFFFF
310
FFFFFFFFFFFFFFFFFFFFF0001FFFFFFFFFFF0000FFFFFFF80000000000000000
310
7FFFFFFFFFFFFFFFFFFFFFFC001FFFFFFFFFFFFFFC001FFFFFFFFFFFFFFFFFFF
310
FFFFFFFC001FFFFFF000FFFFFFFFFFFFFFFFFFFFFFFFFFFFFFFFFFFFFFFFFFFF
310
FFFFFFFFFFFFFFFFFFFFFFFFFFFFFFFFFFFFFFFFFFFFFFFFFFFFFFFFFFFFFFFF
310
FFFFFFFFFFFFFFFFFFFFFFFFFFFFFFFFFFFFFFFFFFFFFFFFFFFFFFFFFFFFFFFF
310
F000FFFFFFFFFFFFFFFFFFFFFFFFFFFFFFFFFFFFFFFFFFFFFFFFFFFFFFFFFFFF
310
FFFFFFFFFFFFFFFFFFFFFFFFFFFFFFFFFFFFFFFFFFFFFFFFFFFFFFFFFFFFFFFF
310
FFFFFFFFFFFFFFFFFFFFFFFFFFFFFFFFFFFFFFFFFFFFFFFFF000FFFFFFFFFFFF
310
FFFFFFFFFFFFFFFFFFFFFFFFFFFFFFFFFFFFFFFFFFFFFFFFFFFFFFFFFFFFFFFF
310
FFFFFFFFFFFFFFFFFFFFFFFFFFFFFFFFFFFFFFFFFFFFFFFFFFFFFFFFFFFFFFFF
310
FFFFFFFFFFFFFFFFFFFFFFFFFFFFFFFFF000FFFFFFFFFFFFFFFFFFFFFFFFFFFF
310
FFFFFFFFFFFFFFFFFFFFFFFFFFFFFFFFFFFFFFFFFFFFFFFFFFFFFFFFFFFFFFFF
310
FFFFFFFFFFFFFFFFFFFFFFFFFFFFFFFFFFFFFFFFFFFFFFFFFFFFFFFFFFFFFFFF
310
FFFFFFFFFFFFFFFFF000FFFFFFFFFFFFFFFFFFFFFFFFFFFFFFFFFFFFFFFFFFFF
310
FFFFFFFFFFFFFFFFFFFFFFFFFFFFFFFFFFFFFFFFFFFFFFFFFFFFFFFFFFFFFFFF
310
FFFFFFFFFFFFFFFFFFFFFFFFFFFFFFFFFFFFFFFFFFFFFFFFFFFFFFFFFFFFFFFF
310
F000FFFFFFFFFFFFFFFFFFFFFFFFFFFFFFFFFFFFFFFFFFFFFFFFFFFFFFFFFFFF
310
FFFFFFFFFFFFFFFFFFFFFFFFFFFFFFFFFFFFFFFFFFFFFFFFFFFFFFFFFFFFFFFF
310
FFFFFFFFFFFFFFFFFFFFFFFFFFFFFFFFFFFFFFFFFFFFFFFFF000FFFFFFFFFFFF
310
FFFFFFFFFFFFFFFFFFFFFFFFFFFFFFFFFFFFFFFFFFFFFFFFFFFFFFFFFFFFFFFF
310
FFFFFFFFFFFFFFFFFFFFFFFFFFFFFFFFFFFFFFFFFFFFFFFFFFFFFFFFFFFFFFFF
310
FFFFFFFFFFFFFFFFFFFFFFFFFFFFFFFFF000FFFFFFFFFFFFFFFFFFFFFFFFFFFF
310
FFFFFFFFFFFFFFFFFFFFFFFFFFFFFFFFFFFFFFFFFFFFFFFFFFFFFFFFFFFFFFFF
310
FFFFFFFFFFFFFFFFFFFFFFFFFFFFFFFFFFFFFFFFFFFFFFFFFFFFFFFFFFFFFFFF
310
FFFFFFFFFFFFFFFFF000FFFFFFFFFFFFFFFFFFFFFFFFFFFFFFFFFFFFFFFFFFFF
310
FFFFFFFFFFFFFFFFFFFFFFFFFFFFFFFFFFFFFFFFFFFFFFFFFFFFFFFFFFFFFFFF
310
FFFFFFFFFFFFFFFFFFFFFFFFFFFFFFFFFFFFFFFFFFFFFFFFFFFFFFFFFFFFFFFF
310
F000FFFFFFFFFFFFFFFFFFFFFFFFFFFFFFFFFFFFFFFFFFFFFFFFFFFFFFFFFFFF
310
FFFFFFFFFFFFFFFFFFFFFFFFFFFFFFFFFFFFFFFFFFFFFFFFFFFFFFFFFFFFFFFF
310
FFFFFFFFFFFFFFFFFFFFFFFFFFFFFFFFFFFFFFFFFFFFFFFFF000FFFFFFFFFFFF
310
FFFFFFFFFFFFFFFFFFFFFFFFFFFFFFFFFFFFFFFFFFFFFFFFFFFFFFFFFFFFFFFF
310
FFFFFFFFFFFFFFFFFFFFFFFFFFFFFFFFFFFFFFFFFFFFFFFFFFFFFFFFFFFFFFFF
310
FFFFFFFFFFFFFFFFFFFFFFFFFFFFFFFFF000FFFFFFFFFFFFFFFFFFFFFFFFFFFF
310
FFFFFFFFFFFFFFFFFFFFFFFFFFFFFFFFFFFFFFFFFFFFFFFFFFFFFFFFFFFFFFFF
310
FFFFFFFFFFFFFFFFFFFFFFFFFFFFFFFFFFFFFFFFFFFFFFFFFFFFFFFFFFFFFFFF
310
FFFFFFFFFFFFFFFFF000FFFFFFFFFFFFFFFFFFFFFFFFFFFFFFFFFFFFFFFFFFFF
310
FFFFFFFFFFFFFFFFFFFFFFFFFFFFFFFFFFFFFFFFFFFFFFFFFFFFFFFFFFFFFFFF
310
FFFFFFFFFFFFFFFFFFFFFFFFFFFFFFFFFFFFFFFFFFFFFFFFFFFFFFFFFFFFFFFF
310
F000FFFFFFFFFFFFFFFFFFFFFFFFFFFFFFFFFFFFFFFFFFFFFFFFFFFFFFFFFFFF
310
FFFFFFFFFFFFFFFFFFFFFFFFFFFFFFFFFFFFFFFFFFFFFFFFFFFFFFFFFFFFFFFF
310
FFFFFFFFFFFFFFFFFFFFFFFFFFFFFFFFFFFFFFFFFFFFFFFFF000FFFFFFFFFFFF
310
FFFFFFFFFFFFFFFFFFFFFFFFFFFFFFFFFFFFFFFFFFFFFFFFFFFFFFFFFFFFFFFF
310
FFFFFFFFFFFFFFFFFFFFFFFFFFFFFFFFFFFFFFFFFFFFFFFFFFFFFFFFFFFFFFFF
310
FFFFFFFFFFFFFFFFFFFFFFFFFFFFFFFFF000FFFFFFFFFFFFFFFFFFFFFFFFFFFF
310
FFFFFFFFFFFFFFFFFFFFFFFFFFFFFFFFFFFFFFFFFFFFFFFFFFFFFFFFFFFFFFFF
310
FFFFFFFFFFFFFFFFFFFFFFFFFFFFFFFFFFFFFFFFFFFFFFFFFFFFFFFFFFFFFFFF
310
FFFFFFFFFFFFFFFFF000FFFFFFFFFFFFFFFFFFFFFFFFFFFFFFFFFFFFFFFFFFFF
310
FFFFFFFFFFFFFFFFFFFFFFFFFFFFFFFFFFFFFFFFFFFFFFFFFFFFFFFFFFFFFFFF
310
FFFFFFFFFFFFFFFFFFFFFFFFFFFFFFFFFFFFFFFFFFFFFFFFFFFFFFFFFFFFFFFF
310
F000FFFFFFFFFFFFFFFFFFFFFFFFFFFFFFFFFFFFFFFFFFFFFFFFFFFFFFFFFFFF
310
FFFFFFFFFFFFFFFFFFFFFFFFFFFFFFFFFFFFFFFFFFFFFFFFFFFFFFFFFFFFFFFF
310
FFFFFFFFFFFFFFFFFFFFFFFFFFFFFFFFFFFFFFFFFFFFFFFFF000FFFFFFFFFFFF
310
FFFFFFFFFFFFFFFFFFFFFFFFFFFFFFFFFFFFFFFFFFFFFFFFFFFFFFFFFFFFFFFF
310
FFFFFFFFFFFFFFFFFFFFFFFFFFFFFFFFFFFFFFFFFFFFFFFFFFFFFFFFFFFFFFFF
310
FFFFFFFFFFFFFFFFFFFFFFFFFFFFFFFFF000FFFFFFFFFFFFFFFFFFFFFFFFFFFF
310
FFFFFFFFFFFFFFFFFFFFFFFFFFFFFFFFFFFFFFFFFFFFFFFFFFFFFFFFFFFFFFFF
310
FFFFFFFFFFFFFFFFFFFFFFFFFFFFFFFFFFFFFFFFFFFFFFFFFFFFFFFFFFFFFFFF
310
FFFFFFFFFFFFFFFFF000FFFFFFFFFFFFFFFFFFFFFFFFFFFFFFFFFFFFFFFFFFFF
310
FFFFFFFFFFFFFFFFFFFFFFFFFFFFFFFFFFFFFFFFFFFFFFFFFFFFFFFFFFFFFFFF
310
FFFFFFFFFFFFFFFFFFFFFFFFFFFFFFFFFFFFFFFFFFFFFFFFFFFFFFFFFFFFFFFF
310
F000FFFFFFFFFFFFFFFFFFFFFFFFFFFFFFFFFFFFFFFFFFFFFFFFFFFFFFFFFFFF
310
FFFFFFFFFFFFFFFFFFFFFFFFFFFFFFFFFFFFFFFFFFFFFFFFFFFFFFFFFFFFFFFF
310
FFFFFFFFFFFFFFFFFFFFFFFFFFFFFFFFFFFFFFFFFFFFFFFFF000FFFFFFFFFFFF
310
FFFFFFFFFFFFFFFFFFFFFFFFFFFFFFFFFFFFFFFFFFFFFFFFFFFFFFFFFFFFFFFF
310
FFFFFFFFFFFFFFFFFFFFFFFFFFFFFFFFFFFFFFFFFFFFFFFFFFFFFFFFFFFFFFFF
310
FFFFFFFFFFFFFFFFFFFFFFFFFFFFFFFFF0000000000000000000000000000000
310
0000000000000000000000000000000000000000000000000000000000000000
310
0000000000000000000000000000000000000000000000000000000000000000
310
0000000000000000000000000000000000000000000000000000000000000000
310
0000000000000000000000000000000000000000000000000000000000000000
310
0000000000000000000000000000000000000000000000000000000000000000
310
0000000000000000000000000000000000000000000000000000000000000000
310
0000000000000000000000000000000000000000000000000000000000000000
310
0000000000000000000000000000000000000000000000000000000000000000
310
0000000000000000000000000000000000000000000000000000000000000000
310
0000000000000000000000000000000000000000000000000000000000000000
310
0000000000000000000000000000000000000000000000000000000000000000
310
0000000000000000000000000000000000000000000000000000000000000000
310
0000000000000000000000000000000000000000000000000000000000000000
310
0000000000000000000000000000000000000000000000000000000000000000
310
0000000000000000000000000000000000000000000000000000000000000000
  1
OLE
  0
ENDSEC
  0
SECTION
  2
OBJECTS
  0
DICTIONARY
  5
C
330
0
100
AcDbDictionary
281
     1
  3
ACAD_GROUP
350
D
  3
ACAD_LAYOUT
350
1A
  3
ACAD_MLINESTYLE
350
17
  3
ACAD_PLOTSETTINGS
350
19
  3
ACAD_PLOTSTYLENAME
350
E
  3
ACAD_SCALELIST
350
47
  0
DICTIONARY
  5
D
102
{ACAD_REACTORS
330
C
102
}
330
C
100
AcDbDictionary
281
     1
  0
DICTIONARY
  5
1A
102
{ACAD_REACTORS
330
C
102
}
330
C
100
AcDbDictionary
281
     1
  3
Layout1
350
1E
  3
Layout2
350
26
  3
Model
350
22
  0
DICTIONARY
  5
17
102
{ACAD_REACTORS
330
C
102
}
330
C
100
AcDbDictionary
281
     1
  3
Standard
350
18
  0
DICTIONARY
  5
19
102
{ACAD_REACTORS
330
C
102
}
330
C
100
AcDbDictionary
281
     1
  0
ACDBDICTIONARYWDFLT
  5
E
102
{ACAD_REACTORS
330
C
102
}
330
C
100
AcDbDictionary
281
     1
  3
Normal
350
F
100
AcDbDictionaryWithDefault
340
F
  0
DICTIONARY
  5
47
102
{ACAD_REACTORS
330
C
102
}
330
C
100
AcDbDictionary
281
     1
  3
A0
350
48
  3
A1
350
49
  3
A2
350
4A
  3
A3
350
4B
  3
A4
350
4C
  3
A5
350
4D
  3
A6
350
4E
  3
A7
350
4F
  3
A8
350
50
  3
A9
350
51
  3
B0
350
52
  3
B1
350
53
  3
B2
350
54
  3
B3
350
55
  3
B4
350
56
  3
B5
350
57
  3
B6
350
58
  3
B7
350
59
  3
B8
350
5A
  3
B9
350
5B
  3
C0
350
5C
  3
C1
350
5D
  3
C2
350
5E
  3
C3
350
5F
  3
C4
350
60
  3
C5
350
61
  3
C6
350
62
  3
C7
350
63
  3
C8
350
64
  3
C9
350
65
  3
D0
350
66
  3
D1
350
67
  3
D2
350
68
  0
LAYOUT
  5
1E
102
{ACAD_REACTORS
330
1A
102
}
330
1A
100
AcDbPlotSettings
  1

  2
none_device
  4

  6

 40
0.0
 41
0.0
 42
0.0
 43
0.0
 44
0.0
 45
0.0
 46
0.0
 47
0.0
 48
0.0
 49
0.0
140
0.0
141
0.0
142
1.0
143
1.0
 70
   688
 72
     1
 73
     0
 74
     5
  7

 75
    16
147
1.0
148
0.0
149
0.0
100
AcDbLayout
  1
Layout1
 70
     1
 71
     1
 10
0.0
 20
0.0
 11
420.0
 21
297.0
 12
0.0
 22
0.0
 32
0.0
 14
1.0000000000E+20
 24
1.0000000000E+20
 34
1.0000000000E+20
 15
-1.0000000000E+20
 25
-1.0000000000E+20
 35
-1.0000000000E+20
146
0.0
 13
0.0
 23
0.0
 33
0.0
 16
1.0
 26
0.0
 36
0.0
 17
0.0
 27
1.0
 37
0.0
 76
     0
330
1B
  0
LAYOUT
  5
26
102
{ACAD_REACTORS
330
1A
102
}
330
1A
100
AcDbPlotSettings
  1

  2
none_device
  4

  6

 40
0.0
 41
0.0
 42
0.0
 43
0.0
 44
0.0
 45
0.0
 46
0.0
 47
0.0
 48
0.0
 49
0.0
140
0.0
141
0.0
142
1.0
143
1.0
 70
   688
 72
     1
 73
     0
 74
     5
  7

 75
    16
147
1.0
148
0.0
149
0.0
100
AcDbLayout
  1
Layout2
 70
     1
 71
     2
 10
0.0
 20
0.0
 11
0.0
 21
0.0
 12
0.0
 22
0.0
 32
0.0
 14
0.0
 24
0.0
 34
0.0
 15
0.0
 25
0.0
 35
0.0
146
0.0
 13
0.0
 23
0.0
 33
0.0
 16
1.0
 26
0.0
 36
0.0
 17
0.0
 27
1.0
 37
0.0
 76
     0
330
23
  0
LAYOUT
  5
22
102
{ACAD_REACTORS
330
1A
102
}
330
1A
100
AcDbPlotSettings
  1

  2
none_device
  4
Letter_(8.50_x_11.00_Inches)
  6

 40
6.35
 41
6.35
 42
6.35000508
 43
6.35000508
 44
215.9
 45
279.4
 46
0.0
 47
0.0
 48
0.0
 49
0.0
140
0.0
141
0.0
142
1.0
143
1.0
 70
  1712
 72
     1
 73
     0
 74
     0
  7

 75
     0
147
1.0
148
0.0
149
0.0
100
AcDbLayout
  1
Model
 70
     1
 71
     0
 10
0.0
 20
0.0
 11
297.0
 21
210.0
 12
0.0
 22
0.0
 32
0.0
 14
0.0
 24
0.0
 34
0.0
 15
297.0
 25
210.0
 35
0.0
146
0.0
 13
0.0
 23
0.0
 33
0.0
 16
1.0
 26
0.0
 36
0.0
 17
0.0
 27
1.0
 37
0.0
 76
     0
330
1F
331
29
  0
MLINESTYLE
  5
18
102
{ACAD_REACTORS
330
17
102
}
330
17
100
AcDbMlineStyle
  2
Standard
 70
     0
  3

 62
   256
 51
90.0
 52
90.0
 71
     2
 49
0.5
 62
   256
  6
BYLAYER
 49
-0.5
 62
   256
  6
BYLAYER
  0
ACDBPLACEHOLDER
  5
F
102
{ACAD_REACTORS
330
E
102
}
330
E
  0
SCALE
  5
48
102
{ACAD_REACTORS
330
47
102
}
330
47
100
AcDbScale
 70
     0
300
1:1
140
1.0
141
1.0
290
     1
  0
SCALE
  5
49
102
{ACAD_REACTORS
330
47
102
}
330
47
100
AcDbScale
 70
     0
300
1:2
140
1.0
141
2.0
290
     0
  0
SCALE
  5
4A
102
{ACAD_REACTORS
330
47
102
}
330
47
100
AcDbScale
 70
     0
300
1:4
140
1.0
141
4.0
290
     0
  0
SCALE
  5
4B
102
{ACAD_REACTORS
330
47
102
}
330
47
100
AcDbScale
 70
     0
300
1:5
140
1.0
141
5.0
290
     0
  0
SCALE
  5
4C
102
{ACAD_REACTORS
330
47
102
}
330
47
100
AcDbScale
 70
     0
300
1:8
140
1.0
141
8.0
290
     0
  0
SCALE
  5
4D
102
{ACAD_REACTORS
330
47
102
}
330
47
100
AcDbScale
 70
     0
300
1:10
140
1.0
141
10.0
290
     0
  0
SCALE
  5
4E
102
{ACAD_REACTORS
330
47
102
}
330
47
100
AcDbScale
 70
     0
300
1:16
140
1.0
141
16.0
290
     0
  0
SCALE
  5
4F
102
{ACAD_REACTORS
330
47
102
}
330
47
100
AcDbScale
 70
     0
300
1:20
140
1.0
141
20.0
290
     0
  0
SCALE
  5
50
102
{ACAD_REACTORS
330
47
102
}
330
47
100
AcDbScale
 70
     0
300
1:30
140
1.0
141
30.0
290
     0
  0
SCALE
  5
51
102
{ACAD_REACTORS
330
47
102
}
330
47
100
AcDbScale
 70
     0
300
1:40
140
1.0
141
40.0
290
     0
  0
SCALE
  5
52
102
{ACAD_REACTORS
330
47
102
}
330
47
100
AcDbScale
 70
     0
300
1:50
140
1.0
141
50.0
290
     0
  0
SCALE
  5
53
102
{ACAD_REACTORS
330
47
102
}
330
47
100
AcDbScale
 70
     0
300
1:100
140
1.0
141
100.0
290
     0
  0
SCALE
  5
54
102
{ACAD_REACTORS
330
47
102
}
330
47
100
AcDbScale
 70
     0
300
2:1
140
2.0
141
1.0
290
     0
  0
SCALE
  5
55
102
{ACAD_REACTORS
330
47
102
}
330
47
100
AcDbScale
 70
     0
300
4:1
140
4.0
141
1.0
290
     0
  0
SCALE
  5
56
102
{ACAD_REACTORS
330
47
102
}
330
47
100
AcDbScale
 70
     0
300
8:1
140
8.0
141
1.0
290
     0
  0
SCALE
  5
57
102
{ACAD_REACTORS
330
47
102
}
330
47
100
AcDbScale
 70
     0
300
10:1
140
10.0
141
1.0
290
     0
  0
SCALE
  5
58
102
{ACAD_REACTORS
330
47
102
}
330
47
100
AcDbScale
 70
     0
300
100:1
140
100.0
141
1.0
290
     0
  0
SCALE
  5
59
102
{ACAD_REACTORS
330
47
102
}
330
47
100
AcDbScale
 70
     0
300
1/128" = 1'-0"
140
0.0078125
141
12.0
290
     0
  0
SCALE
  5
5A
102
{ACAD_REACTORS
330
47
102
}
330
47
100
AcDbScale
 70
     0
300
1/64" = 1'-0"
140
0.015625
141
12.0
290
     0
  0
SCALE
  5
5B
102
{ACAD_REACTORS
330
47
102
}
330
47
100
AcDbScale
 70
     0
300
1/32" = 1'-0"
140
0.03125
141
12.0
290
     0
  0
SCALE
  5
5C
102
{ACAD_REACTORS
330
47
102
}
330
47
100
AcDbScale
 70
     0
300
1/16" = 1'-0"
140
0.0625
141
12.0
290
     0
  0
SCALE
  5
5D
102
{ACAD_REACTORS
330
47
102
}
330
47
100
AcDbScale
 70
     0
300
3/32" = 1'-0"
140
0.09375
141
12.0
290
     0
  0
SCALE
  5
5E
102
{ACAD_REACTORS
330
47
102
}
330
47
100
AcDbScale
 70
     0
300
1/8" = 1'-0"
140
0.125
141
12.0
290
     0
  0
SCALE
  5
5F
102
{ACAD_REACTORS
330
47
102
}
330
47
100
AcDbScale
 70
     0
300
3/16" = 1'-0"
140
0.1875
141
12.0
290
     0
  0
SCALE
  5
60
102
{ACAD_REACTORS
330
47
102
}
330
47
100
AcDbScale
 70
     0
300
1/4" = 1'-0"
140
0.25
141
12.0
290
     0
  0
SCALE
  5
61
102
{ACAD_REACTORS
330
47
102
}
330
47
100
AcDbScale
 70
     0
300
3/8" = 1'-0"
140
0.375
141
12.0
290
     0
  0
SCALE
  5
62
102
{ACAD_REACTORS
330
47
102
}
330
47
100
AcDbScale
 70
     0
300
1/2" = 1'-0"
140
0.5
141
12.0
290
     0
  0
SCALE
  5
63
102
{ACAD_REACTORS
330
47
102
}
330
47
100
AcDbScale
 70
     0
300
3/4" = 1'-0"
140
0.75
141
12.0
290
     0
  0
SCALE
  5
64
102
{ACAD_REACTORS
330
47
102
}
330
47
100
AcDbScale
 70
     0
300
1" = 1'-0"
140
1.0
141
12.0
290
     0
  0
SCALE
  5
65
102
{ACAD_REACTORS
330
47
102
}
330
47
100
AcDbScale
 70
     0
300
1-1/2" = 1'-0"
140
1.5
141
12.0
290
     0
  0
SCALE
  5
66
102
{ACAD_REACTORS
330
47
102
}
330
47
100
AcDbScale
 70
     0
300
3" = 1'-0"
140
3.0
141
12.0
290
     0
  0
SCALE
  5
67
102
{ACAD_REACTORS
330
47
102
}
330
47
100
AcDbScale
 70
     0
300
6" = 1'-0"
140
6.0
141
12.0
290
     0
  0
SCALE
  5
68
102
{ACAD_REACTORS
330
47
102
}
330
47
100
AcDbScale
 70
     0
300
1'-0" = 1'-0"
140
12.0
141
12.0
290
     0
  0
ENDSEC
  0
EOF
