  0
SECTION
  2
HEADER
  9
$ACADVER
  1
AC1015
  9
$ACADMAINTVER
 70
     6
  9
$DWGCODEPAGE
  3
ANSI_1252
  9
$INSBASE
 10
0.0
 20
0.0
 30
0.0
  9
$EXTMIN
 10
0.0
 20
0.0
 30
0.0
  9
$EXTMAX
 10
297.0
 20
210.0
 30
0.0
  9
$LIMMIN
 10
0.0
 20
0.0
  9
$LIMMAX
 10
297.0
 20
210.0
  9
$ORTHOMODE
 70
     0
  9
$REGENMODE
 70
     1
  9
$FILLMODE
 70
     1
  9
$QTEXTMODE
 70
     0
  9
$MIRRTEXT
 70
     1
  9
$LTSCALE
 40
1.0
  9
$ATTMODE
 70
     1
  9
$TEXTSIZE
 40
2.0
  9
$TRACEWID
 40
1.0
  9
$TEXTSTYLE
  7
Standard
  9
$CLAYER
  8
0
  9
$CELTYPE
  6
ByLayer
  9
$CECOLOR
 62
   256
  9
$CELTSCALE
 40
1.0
  9
$DISPSILH
 70
     0
  9
$DIMSCALE
 40
1.0
  9
$DIMASZ
 40
3.0
  9
$DIMEXO
 40
0.0
  9
$DIMDLI
 40
3.75
  9
$DIMRND
 40
0.0
  9
$DIMDLE
 40
0.0
  9
$DIMEXE
 40
1.0
  9
$DIMTP
 40
0.0
  9
$DIMTM
 40
0.0
  9
$DIMTXT
 40
2.0
  9
$DIMCEN
 40
2.5
  9
$DIMTSZ
 40
0.0
  9
$DIMTOL
 70
     0
  9
$DIMLIM
 70
     0
  9
$DIMTIH
 70
     1
  9
$DIMTOH
 70
     1
  9
$DIMSE1
 70
     0
  9
$DIMSE2
 70
     0
  9
$DIMTAD
 70
     1
  9
$DIMZIN
 70
     0
  9
$DIMBLK
  1

  9
$DIMASO
 70
     1
  9
$DIMSHO
 70
     1
  9
$DIMPOST
  1

  9
$DIMAPOST
  1

  9
$DIMALT
 70
     0
  9
$DIMALTD
 70
     3
  9
$DIMALTF
 40
0.0393700787
  9
$DIMLFAC
 40
1.0
  9
$DIMTOFL
 70
     1
  9
$DIMTVP
 40
0.0
  9
$DIMTIX
 70
     0
  9
$DIMSOXD
 70
     0
  9
$DIMSAH
 70
     0
  9
$DIMBLK1
  1

  9
$DIMBLK2
  1

  9
$DIMSTYLE
  2
ISO-25
  9
$DIMCLRD
 70
     0
  9
$DIMCLRE
 70
     0
  9
$DIMCLRT
 70
     0
  9
$DIMTFAC
 40
1.0
  9
$DIMGAP
 40
1.524
  9
$DIMJUST
 70
     0
  9
$DIMSD1
 70
     0
  9
$DIMSD2
 70
     0
  9
$DIMTOLJ
 70
     0
  9
$DIMTZIN
 70
     0
  9
$DIMALTZ
 70
     0
  9
$DIMALTTZ
 70
     0
  9
$DIMUPT
 70
     0
  9
$DIMDEC
 70
     2
  9
$DIMTDEC
 70
     3
  9
$DIMALTU
 70
     2
  9
$DIMALTTD
 70
     3
  9
$DIMTXSTY
  7
Standard
  9
$DIMAUNIT
 70
     0
  9
$DIMADEC
 70
     2
  9
$DIMALTRND
 40
0.0
  9
$DIMAZIN
 70
     0
  9
$DIMDSEP
 70
    44
  9
$DIMATFIT
 70
     3
  9
$DIMFRAC
 70
     0
  9
$DIMLDRBLK
  1

  9
$DIMLUNIT
 70
     2
  9
$DIMLWD
 70
    -2
  9
$DIMLWE
 70
    -2
  9
$DIMTMOVE
 70
     0
  9
$LUNITS
 70
     2
  9
$LUPREC
 70
     2
  9
$SKETCHINC
 40
1.0
  9
$FILLETRAD
 40
10.0
  9
$AUNITS
 70
     0
  9
$AUPREC
 70
     2
  9
$MENU
  1
.
  9
$ELEVATION
 40
0.0
  9
$PELEVATION
 40
0.0
  9
$THICKNESS
 40
0.0
  9
$LIMCHECK
 70
     0
  9
$CHAMFERA
 40
0.0
  9
$CHAMFERB
 40
0.0
  9
$CHAMFERC
 40
0.0
  9
$CHAMFERD
 40
0.0
  9
$SKPOLY
 70
     0
  9
$TDCREATE
 40
2457627.614030428
  9
$TDUCREATE
 40
2457627.530697095
  9
$TDUPDATE
 40
2457627.614031875
  9
$TDUUPDATE
 40
2457627.530698542
  9
$TDINDWG
 40
0.0000000116
  9
$TDUSRTIMER
 40
0.0000000116
  9
$USRTIMER
 70
     1
  9
$ANGBASE
 50
0.0
  9
$ANGDIR
 70
     0
  9
$PDMODE
 70
     0
  9
$PDSIZE
 40
-1.0
  9
$PLINEWID
 40
0.0
  9
$SPLFRAME
 70
     0
  9
$SPLINETYPE
 70
     6
  9
$SPLINESEGS
 70
     8
  9
$HANDSEED
  5
2F0
  9
$SURFTAB1
 70
     6
  9
$SURFTAB2
 70
     6
  9
$SURFTYPE
 70
     6
  9
$SURFU
 70
     6
  9
$SURFV
 70
     6
  9
$UCSBASE
  2

  9
$UCSNAME
  2

  9
$UCSORG
 10
0.0
 20
0.0
 30
0.0
  9
$UCSXDIR
 10
1.0
 20
0.0
 30
0.0
  9
$UCSYDIR
 10
0.0
 20
1.0
 30
0.0
  9
$UCSORTHOREF
  2

  9
$UCSORTHOVIEW
 70
     0
  9
$UCSORGTOP
 10
0.0
 20
0.0
 30
0.0
  9
$UCSORGBOTTOM
 10
0.0
 20
0.0
 30
0.0
  9
$UCSORGLEFT
 10
0.0
 20
0.0
 30
0.0
  9
$UCSORGRIGHT
 10
0.0
 20
0.0
 30
0.0
  9
$UCSORGFRONT
 10
0.0
 20
0.0
 30
0.0
  9
$UCSORGBACK
 10
0.0
 20
0.0
 30
0.0
  9
$PUCSBASE
  2

  9
$PUCSNAME
  2

  9
$PUCSORG
 10
0.0
 20
0.0
 30
0.0
  9
$PUCSXDIR
 10
1.0
 20
0.0
 30
0.0
  9
$PUCSYDIR
 10
0.0
 20
1.0
 30
0.0
  9
$PUCSORTHOREF
  2

  9
$PUCSORTHOVIEW
 70
     0
  9
$PUCSORGTOP
 10
0.0
 20
0.0
 30
0.0
  9
$PUCSORGBOTTOM
 10
0.0
 20
0.0
 30
0.0
  9
$PUCSORGLEFT
 10
0.0
 20
0.0
 30
0.0
  9
$PUCSORGRIGHT
 10
0.0
 20
0.0
 30
0.0
  9
$PUCSORGFRONT
 10
0.0
 20
0.0
 30
0.0
  9
$PUCSORGBACK
 10
0.0
 20
0.0
 30
0.0
  9
$USERI1
 70
     0
  9
$USERI2
 70
     0
  9
$USERI3
 70
     0
  9
$USERI4
 70
     0
  9
$USERI5
 70
     0
  9
$USERR1
 40
0.0
  9
$USERR2
 40
0.0
  9
$USERR3
 40
0.0
  9
$USERR4
 40
0.0
  9
$USERR5
 40
0.0
  9
$WORLDVIEW
 70
     1
  9
$SHADEDGE
 70
     3
  9
$SHADEDIF
 70
    70
  9
$TILEMODE
 70
     1
  9
$MAXACTVP
 70
    64
  9
$PINSBASE
 10
0.0
 20
0.0
 30
0.0
  9
$PLIMCHECK
 70
     0
  9
$PEXTMIN
 10
1.0000000000E+20
 20
1.0000000000E+20
 30
1.0000000000E+20
  9
$PEXTMAX
 10
-1.0000000000E+20
 20
-1.0000000000E+20
 30
-1.0000000000E+20
  9
$PLIMMIN
 10
0.0
 20
0.0
  9
$PLIMMAX
 10
420.0
 20
297.0
  9
$UNITMODE
 70
     0
  9
$VISRETAIN
 70
     1
  9
$PLINEGEN
 70
     0
  9
$PSLTSCALE
 70
     1
  9
$TREEDEPTH
 70
  3020
  9
$CMLSTYLE
  2
Standard
  9
$CMLJUST
 70
     0
  9
$CMLSCALE
 40
20.0
  9
$PROXYGRAPHICS
 70
     1
  9
$MEASUREMENT
 70
     1
  9
$CELWEIGHT
370
    -1
  9
$ENDCAPS
280
     0
  9
$JOINSTYLE
280
     0
  9
$LWDISPLAY
290
     1
  9
$INSUNITS
 70
     4
  9
$HYPERLINKBASE
  1

  9
$STYLESHEET
  1

  9
$XEDIT
290
     1
  9
$CEPSNTYPE
380
     0
  9
$PSTYLEMODE
290
     1
  9
$FINGERPRINTGUID
  2
{1A8C208A-D7DA-4EE9-A0D2-50316838EF4E}
  9
$VERSIONGUID
  2
{FAEB1C32-E019-11D5-929B-00C0DF256EC4}
  9
$EXTNAMES
290
     1
  9
$PSVPSCALE
 40
0.0
  9
$OLESTARTUP
290
     0
  0
ENDSEC
  0
SECTION
  2
CLASSES
  0
CLASS
  1
ACDBDICTIONARYWDFLT
  2
AcDbDictionaryWithDefault
  3
ObjectDBX Classes
 90
        0
280
     0
281
     0
  0
CLASS
  1
VISUALSTYLE
  2
AcDbVisualStyle
  3
ObjectDBX Classes
 90
     4095
280
     0
281
     0
  0
CLASS
  1
MATERIAL
  2
AcDbMaterial
  3
ObjectDBX Classes
 90
     1153
280
     0
281
     0
  0
CLASS
  1
SCALE
  2
AcDbScale
  3
ObjectDBX Classes
 90
     1153
280
     0
281
     0
  0
CLASS
  1
TABLESTYLE
  2
AcDbTableStyle
  3
ObjectDBX Classes
 90
     4095
280
     0
281
     0
  0
CLASS
  1
MLEADERSTYLE
  2
AcDbMLeaderStyle
  3
ACDB_MLEADERSTYLE_CLASS
 90
     4095
280
     0
281
     0
  0
CLASS
  1
SUN
  2
AcDbSun
  3
SCENEOE
 90
     1153
280
     0
281
     0
  0
CLASS
  1
ACDBPLACEHOLDER
  2
AcDbPlaceHolder
  3
ObjectDBX Classes
 90
        0
280
     0
281
     0
  0
CLASS
  1
LAYOUT
  2
AcDbLayout
  3
ObjectDBX Classes
 90
        0
280
     0
281
     0
  0
ENDSEC
  0
SECTION
  2
TABLES
  0
TABLE
  2
VPORT
  5
8
330
0
100
AcDbSymbolTable
 70
     1
  0
VPORT
  5
29
330
8
100
AcDbSymbolTableRecord
100
AcDbViewportTableRecord
  2
*Active
 70
     0
 10
0.0
 20
0.0
 11
1.0
 21
1.0
 12
148.5
 22
105.0
 13
0.0
 23
0.0
 14
10.0
 24
10.0
 15
10.0
 25
10.0
 16
0.0
 26
0.0
 36
1.0
 17
0.0
 27
0.0
 37
0.0
 40
210.0
 41
1.4142857143
 42
50.0
 43
0.0
 44
0.0
 50
0.0
 51
0.0
 71
     0
 72
  2000
 73
     1
 74
     3
 75
     0
 76
     0
 77
     0
 78
     0
281
     0
 65
     1
110
0.0
120
0.0
130
0.0
111
1.0
121
0.0
131
0.0
112
0.0
122
1.0
132
0.0
 79
     0
146
0.0
  0
ENDTAB
  0
TABLE
  2
LTYPE
  5
5
330
0
100
AcDbSymbolTable
 70
     6
  0
LTYPE
  5
14
330
5
100
AcDbSymbolTableRecord
100
AcDbLinetypeTableRecord
  2
ByBlock
 70
     0
  3

 72
    65
 73
     0
 40
0.0
  0
LTYPE
  5
15
330
5
100
AcDbSymbolTableRecord
100
AcDbLinetypeTableRecord
  2
ByLayer
 70
     0
  3

 72
    65
 73
     0
 40
0.0
  0
LTYPE
  5
16
330
5
100
AcDbSymbolTableRecord
100
AcDbLinetypeTableRecord
  2
Continuous
 70
     0
  3
Solid line
 72
    65
 73
     0
 40
0.0
  0
LTYPE
  5
6E
330
5
100
AcDbSymbolTableRecord
100
AcDbLinetypeTableRecord
  2
HIDDEN
 70
     0
  3
Hidden __ __ __ __ __ __ __ __ __ __ __ __ __ __
 72
    65
 73
     2
 40
1.905
 49
1.27
 74
     0
 49
-0.635
 74
     0
  0
LTYPE
  5
6F
330
5
100
AcDbSymbolTableRecord
100
AcDbLinetypeTableRecord
  2
PHANTOM
 70
     0
  3
Phantom ______  __  __  ______  __  __  ______
 72
    65
 73
     6
 40
12.7
 49
6.35
 74
     0
 49
-1.27
 74
     0
 49
1.27
 74
     0
 49
-1.27
 74
     0
 49
1.27
 74
     0
 49
-1.27
 74
     0
  0
LTYPE
  5
70
330
5
100
AcDbSymbolTableRecord
100
AcDbLinetypeTableRecord
  2
CENTER
 70
     0
  3
Center ____ _ ____ _ ____ _ ____ _ ____ _ ____
 72
    65
 73
     4
 40
10.16
 49
6.35
 74
     0
 49
-1.27
 74
     0
 49
1.27
 74
     0
 49
-1.27
 74
     0
  0
LTYPE
  5
71
330
5
100
AcDbSymbolTableRecord
100
AcDbLinetypeTableRecord
  2
CENTERX2
 70
     0
  3
Center (2x) ________  __  ________  __  _____
 72
    65
 73
     4
 40
20.32
 49
12.7
 74
     0
 49
-2.54
 74
     0
 49
2.54
 74
     0
 49
-2.54
 74
     0
  0
LTYPE
  5
72
330
5
100
AcDbSymbolTableRecord
100
AcDbLinetypeTableRecord
  2
DOT2
 70
     0
  3
Dot (.5x) ........................................
 72
    65
 73
     2
 40
0.635
 49
0.0
 74
     0
 49
-0.635
 74
     0
  0
ENDTAB
  0
TABLE
  2
LAYER
  5
2
330
0
100
AcDbSymbolTable
 70
     5
  0
LAYER
  5
10
330
2
100
AcDbSymbolTableRecord
100
AcDbLayerTableRecord
  2
0
 70
     0
 62
     7
  6
Continuous
370
    -3
390
F
  0
LAYER
  5
73
330
2
100
AcDbSymbolTableRecord
100
AcDbLayerTableRecord
  2
FORMAT
 70
     0
 62
     7
  6
Continuous
370
    -3
390
F
  0
LAYER
  5
74
330
2
100
AcDbSymbolTableRecord
100
AcDbLayerTableRecord
  2
VERMASSUNG
 70
     0
 62
     7
  6
Continuous
370
    -3
390
F
  0
LAYER
  5
75
330
2
100
AcDbSymbolTableRecord
100
AcDbLayerTableRecord
  2
KOPF_DÜNN
 70
     0
 62
     7
  6
Continuous
370
    -3
390
F
  0
LAYER
  5
76
330
2
100
AcDbSymbolTableRecord
100
AcDbLayerTableRecord
  2
KOPF_DICK
 70
     0
 62
     7
  6
Continuous
370
    15
390
F
  0
ENDTAB
  0
TABLE
  2
STYLE
  5
3
330
0
100
AcDbSymbolTable
 70
     2
  0
STYLE
  5
11
330
3
100
AcDbSymbolTableRecord
100
AcDbTextStyleTableRecord
  2
Standard
 70
     0
 40
0.0
 41
1.0
 50
0.0
 71
     0
 42
2.0
  3
txt
  4

  0
STYLE
  5
77
330
3
100
AcDbSymbolTableRecord
100
AcDbTextStyleTableRecord
  2
SLDTEXTSTYLE0
 70
     0
 40
0.0
 41
0.7
 50
0.0
 71
     0
 42
2.0
  3
TXT
  4

  0
ENDTAB
  0
TABLE
  2
VIEW
  5
6
330
0
100
AcDbSymbolTable
 70
     0
  0
ENDTAB
  0
TABLE
  2
UCS
  5
7
330
0
100
AcDbSymbolTable
 70
     0
  0
ENDTAB
  0
TABLE
  2
APPID
  5
9
330
0
100
AcDbSymbolTable
 70
     1
  0
APPID
  5
12
330
9
100
AcDbSymbolTableRecord
100
AcDbRegAppTableRecord
  2
ACAD
 70
     0
  0
ENDTAB
  0
TABLE
  2
DIMSTYLE
  5
A
330
0
100
AcDbSymbolTable
 70
     2
100
AcDbDimStyleTable
  0
DIMSTYLE
105
27
330
A
100
AcDbSymbolTableRecord
100
AcDbDimStyleTableRecord
  2
ISO-25
 70
     0
 41
2.5
 42
0.625
 43
3.75
 44
1.25
 73
     0
 74
     0
 77
     1
 78
     8
140
2.5
141
2.5
143
0.0393700787
147
0.625
171
     3
172
     1
178
     0
271
     2
272
     2
274
     3
278
    44
283
     0
284
     8
340
11
  0
DIMSTYLE
105
1E8
102
{ACAD_REACTORS
330
1E7
330
1F4
330
200
330
20A
330
214
102
}
330
A
100
AcDbSymbolTableRecord
100
AcDbDimStyleTableRecord
  2
SLDDIMSTYLE0
 70
     0
 41
3.0
 44
0.0
 45
0.000000001
 73
     0
 74
     0
 77
     1
 78
    12
 79
     3
140
2.0
147
0.5
173
     1
178
     0
271
     2
272
     3
276
     2
284
    12
340
77
  0
ENDTAB
  0
TABLE
  2
BLOCK_RECORD
  5
1
330
0
100
AcDbSymbolTable
 70
     6
  0
BLOCK_RECORD
  5
1F
330
1
100
AcDbSymbolTableRecord
100
AcDbBlockTableRecord
  2
*Model_Space
340
22
  0
BLOCK_RECORD
  5
1B
330
1
100
AcDbSymbolTableRecord
100
AcDbBlockTableRecord
  2
*Paper_Space
340
1E
  0
BLOCK_RECORD
  5
23
330
1
100
AcDbSymbolTableRecord
100
AcDbBlockTableRecord
  2
*Paper_Space0
340
26
  0
BLOCK_RECORD
  5
1E9
330
1
100
AcDbSymbolTableRecord
100
AcDbBlockTableRecord
  2
_D
340
0
  0
BLOCK_RECORD
  5
1F5
330
1
100
AcDbSymbolTableRecord
100
AcDbBlockTableRecord
  2
_D_1
340
0
  0
BLOCK_RECORD
  5
201
330
1
100
AcDbSymbolTableRecord
100
AcDbBlockTableRecord
  2
_D_2
340
0
  0
BLOCK_RECORD
  5
20B
330
1
100
AcDbSymbolTableRecord
100
AcDbBlockTableRecord
  2
_D_3
340
0
  0
BLOCK_RECORD
  5
215
330
1
100
AcDbSymbolTableRecord
100
AcDbBlockTableRecord
  2
_D_4
340
0
  0
ENDTAB
  0
ENDSEC
  0
SECTION
  2
BLOCKS
  0
BLOCK
  5
20
330
1F
100
AcDbEntity
  8
0
100
AcDbBlockBegin
  2
*Model_Space
 70
     0
 10
0.0
 20
0.0
 30
0.0
  3
*Model_Space
  1

  0
ENDBLK
  5
21
330
1F
100
AcDbEntity
  8
0
100
AcDbBlockEnd
  0
BLOCK
  5
1C
330
1B
100
AcDbEntity
 67
     1
  8
0
100
AcDbBlockBegin
  2
*Paper_Space
 70
     0
 10
0.0
 20
0.0
 30
0.0
  3
*Paper_Space
  1

  0
ENDBLK
  5
1D
330
1B
100
AcDbEntity
 67
     1
  8
0
100
AcDbBlockEnd
  0
BLOCK
  5
24
330
23
100
AcDbEntity
  8
0
100
AcDbBlockBegin
  2
*Paper_Space0
 70
     0
 10
0.0
 20
0.0
 30
0.0
  3
*Paper_Space0
  1

  0
ENDBLK
  5
25
330
23
100
AcDbEntity
  8
0
100
AcDbBlockEnd
  0
BLOCK
  5
1EA
330
1E9
100
AcDbEntity
  8
0
100
AcDbBlockBegin
  2
_D
 70
     0
 10
0.0
 20
0.0
 30
0.0
  3
_D
  1

  0
SOLID
  5
1EC
330
1E9
100
AcDbEntity
  8
VERMASSUNG
100
AcDbTrace
 10
43.9746372074
 20
83.4984774998
 30
0.0
 11
44.4246372074
 21
86.4984774998
 31
0.0
 12
43.5246372074
 22
86.4984774998
 32
0.0
 13
43.5246372074
 23
86.4984774998
 33
0.0
  0
SOLID
  5
1ED
330
1E9
100
AcDbEntity
  8
VERMASSUNG
100
AcDbTrace
 10
43.9746372074
 20
146.9984774998
 30
0.0
 11
43.5246372074
 21
143.9984774998
 31
0.0
 12
44.4246372074
 22
143.9984774998
 32
0.0
 13
44.4246372074
 23
143.9984774998
 33
0.0
  0
LINE
  5
1EE
330
1E9
100
AcDbEntity
  8
VERMASSUNG
100
AcDbLine
 10
137.1706262834
 20
83.4984774998
 30
0.0
 11
42.9746372074
 21
83.4984774998
 31
0.0
  0
LINE
  5
1EF
330
1E9
100
AcDbEntity
  8
VERMASSUNG
100
AcDbLine
 10
137.1706262834
 20
146.9984774998
 30
0.0
 11
42.9746372074
 21
146.9984774998
 31
0.0
  0
LINE
  5
1F0
330
1E9
100
AcDbEntity
  8
VERMASSUNG
100
AcDbLine
 10
43.9746372074
 20
83.4984774998
 30
0.0
 11
43.9746372074
 21
146.9984774998
 31
0.0
  0
MTEXT
  5
1F1
330
1E9
100
AcDbEntity
  8
VERMASSUNG
100
AcDbMText
 10
41.1965019512
 20
106.4455413515
 30
0.0
 40
2.0
 41
0.0
 71
     1
 72
     1
  1
ISO 40
  7
SLDTEXTSTYLE0
 11
3.391901413832837E-15
 21
1.0
 31
0.0
 73
     1
 44
1.0
  0
MTEXT
  5
1F2
330
1E9
100
AcDbEntity
  8
VERMASSUNG
100
AcDbMText
 10
41.3965019025
 20
115.6455415556
 30
0.0
 40
2.0
 41
0.0
 71
     1
 72
     1
  1
%%c
  7
SLDTEXTSTYLE0
 11
3.391901413832837E-15
 21
1.0
 31
0.0
 73
     1
 44
1.0
  0
MTEXT
  5
1F3
330
1E9
100
AcDbEntity
  8
VERMASSUNG
100
AcDbMText
 10
41.3965016114
 20
119.253421887
 30
0.0
 40
2.0
 41
0.0
 71
     1
 72
     1
  1
63.5
  7
SLDTEXTSTYLE0
 11
3.391901413832837E-15
 21
1.0
 31
0.0
 73
     1
 44
1.0
  0
ENDBLK
  5
1EB
330
1E9
100
AcDbEntity
  8
0
100
AcDbBlockEnd
  0
BLOCK
  5
1F6
330
1F5
100
AcDbEntity
  8
0
100
AcDbBlockBegin
  2
_D_1
 70
     0
 10
0.0
 20
0.0
 30
0.0
  3
_D_1
  1

  0
ARC
  5
1F8
330
1F5
100
AcDbEntity
  8
VERMASSUNG
100
AcDbCircle
 10
142.7577668601
 20
165.6143267884
 30
0.0
 40
4.247059938537284
100
AcDbArc
 50
153.4349488229
 51
206.5650511771
  0
ARC
  5
1F9
330
1F5
100
AcDbEntity
  8
VERMASSUNG
100
AcDbCircle
 10
145.5334857066
 20
165.6143267884
 30
0.0
 40
4.247059938537284
100
AcDbArc
 50
333.4349488229
 51
26.5650511771
  0
SOLID
  5
1FA
330
1F5
100
AcDbEntity
  8
VERMASSUNG
100
AcDbTrace
 10
50.4706262834
 20
163.714983843
 30
0.0
 11
53.4706262834
 21
163.264983843
 31
0.0
 12
53.4706262834
 22
164.164983843
 32
0.0
 13
53.4706262834
 23
164.164983843
 33
0.0
  0
SOLID
  5
1FB
330
1F5
100
AcDbEntity
  8
VERMASSUNG
100
AcDbTrace
 10
237.8206262834
 20
163.714983843
 30
0.0
 11
234.8206262834
 21
164.164983843
 31
0.0
 12
234.8206262834
 22
163.264983843
 32
0.0
 13
234.8206262834
 23
163.264983843
 33
0.0
  0
LINE
  5
1FC
330
1F5
100
AcDbEntity
  8
VERMASSUNG
100
AcDbLine
 10
50.4706262834
 20
126.6556080968
 30
0.0
 11
50.4706262834
 21
164.714983843
 31
0.0
  0
LINE
  5
1FD
330
1F5
100
AcDbEntity
  8
VERMASSUNG
100
AcDbLine
 10
237.8206262834
 20
142.2484774998
 30
0.0
 11
237.8206262834
 21
164.714983843
 31
0.0
  0
LINE
  5
1FE
330
1F5
100
AcDbEntity
  8
VERMASSUNG
100
AcDbLine
 10
50.4706262834
 20
163.714983843
 30
0.0
 11
237.8206262834
 21
163.714983843
 31
0.0
  0
MTEXT
  5
1FF
330
1F5
100
AcDbEntity
  8
VERMASSUNG
100
AcDbMText
 10
140.5465809693
 20
166.2931194389
 30
0.0
 40
2.0
 41
0.0
 71
     1
 72
     1
  1
187.35
  7
SLDTEXTSTYLE0
 73
     1
 44
1.0
  0
ENDBLK
  5
1F7
330
1F5
100
AcDbEntity
  8
0
100
AcDbBlockEnd
  0
BLOCK
  5
202
330
201
100
AcDbEntity
  8
0
100
AcDbBlockBegin
  2
_D_2
 70
     0
 10
0.0
 20
0.0
 30
0.0
  3
_D_2
  1

  0
SOLID
  5
204
330
201
100
AcDbEntity
  8
VERMASSUNG
100
AcDbTrace
 10
118.7206262834
 20
157.714983843
 30
0.0
 11
121.7206262834
 21
157.264983843
 31
0.0
 12
121.7206262834
 22
158.164983843
 32
0.0
 13
121.7206262834
 23
158.164983843
 33
0.0
  0
SOLID
  5
205
330
201
100
AcDbEntity
  8
VERMASSUNG
100
AcDbTrace
 10
237.8206262834
 20
157.714983843
 30
0.0
 11
234.8206262834
 21
158.164983843
 31
0.0
 12
234.8206262834
 22
157.264983843
 32
0.0
 13
234.8206262834
 23
157.264983843
 33
0.0
  0
LINE
  5
206
330
201
100
AcDbEntity
  8
VERMASSUNG
100
AcDbLine
 10
118.7206262834
 20
137.4734774998
 30
0.0
 11
118.7206262834
 21
158.714983843
 31
0.0
  0
LINE
  5
207
330
201
100
AcDbEntity
  8
VERMASSUNG
100
AcDbLine
 10
237.8206262834
 20
142.2484774998
 30
0.0
 11
237.8206262834
 21
158.714983843
 31
0.0
  0
LINE
  5
208
330
201
100
AcDbEntity
  8
VERMASSUNG
100
AcDbLine
 10
118.7206262834
 20
157.714983843
 30
0.0
 11
237.8206262834
 21
157.714983843
 31
0.0
  0
MTEXT
  5
209
330
201
100
AcDbEntity
  8
VERMASSUNG
100
AcDbMText
 10
175.7712586212
 20
160.2931194389
 30
0.0
 40
2.0
 41
0.0
 71
     1
 72
     1
  1
119.1
  7
SLDTEXTSTYLE0
 73
     1
 44
1.0
  0
ENDBLK
  5
203
330
201
100
AcDbEntity
  8
0
100
AcDbBlockEnd
  0
BLOCK
  5
20C
330
20B
100
AcDbEntity
  8
0
100
AcDbBlockBegin
  2
_D_3
 70
     0
 10
0.0
 20
0.0
 30
0.0
  3
_D_3
  1

  0
SOLID
  5
20E
330
20B
100
AcDbEntity
  8
VERMASSUNG
100
AcDbTrace
 10
137.7706262834
 20
151.714983843
 30
0.0
 11
140.7706262834
 21
151.264983843
 31
0.0
 12
140.7706262834
 22
152.164983843
 32
0.0
 13
140.7706262834
 23
152.164983843
 33
0.0
  0
SOLID
  5
20F
330
20B
100
AcDbEntity
  8
VERMASSUNG
100
AcDbTrace
 10
237.8206262834
 20
151.714983843
 30
0.0
 11
234.8206262834
 21
152.164983843
 31
0.0
 12
234.8206262834
 22
151.264983843
 32
0.0
 13
234.8206262834
 23
151.264983843
 33
0.0
  0
LINE
  5
210
330
20B
100
AcDbEntity
  8
VERMASSUNG
100
AcDbLine
 10
137.7706262834
 20
145.2590286332
 30
0.0
 11
137.7706262834
 21
152.714983843
 31
0.0
  0
LINE
  5
211
330
20B
100
AcDbEntity
  8
VERMASSUNG
100
AcDbLine
 10
237.8206262834
 20
142.2484774998
 30
0.0
 11
237.8206262834
 21
152.714983843
 31
0.0
  0
LINE
  5
212
330
20B
100
AcDbEntity
  8
VERMASSUNG
100
AcDbLine
 10
137.7706262834
 20
151.714983843
 30
0.0
 11
237.8206262834
 21
151.714983843
 31
0.0
  0
MTEXT
  5
213
330
20B
100
AcDbEntity
  8
VERMASSUNG
100
AcDbMText
 10
184.1965809693
 20
154.2931194389
 30
0.0
 40
2.0
 41
0.0
 71
     1
 72
     1
  1
100.05
  7
SLDTEXTSTYLE0
 73
     1
 44
1.0
  0
ENDBLK
  5
20D
330
20B
100
AcDbEntity
  8
0
100
AcDbBlockEnd
  0
BLOCK
  5
216
330
215
100
AcDbEntity
  8
0
100
AcDbBlockBegin
  2
_D_4
 70
     0
 10
0.0
 20
0.0
 30
0.0
  3
_D_4
  1

  0
SOLID
  5
218
330
215
100
AcDbEntity
  8
VERMASSUNG
100
AcDbTrace
 10
246.1770933752
 20
142.7484774998
 30
0.0
 11
245.7270933752
 21
139.7484774998
 31
0.0
 12
246.6270933752
 22
139.7484774998
 32
0.0
 13
246.6270933752
 23
139.7484774998
 33
0.0
  0
SOLID
  5
219
330
215
100
AcDbEntity
  8
VERMASSUNG
100
AcDbTrace
 10
246.1770933752
 20
87.7484774998
 30
0.0
 11
246.6270933752
 21
90.7484774998
 31
0.0
 12
245.7270933752
 22
90.7484774998
 32
0.0
 13
245.7270933752
 23
90.7484774998
 33
0.0
  0
LINE
  5
21A
330
215
100
AcDbEntity
  8
VERMASSUNG
100
AcDbLine
 10
237.3206262834
 20
142.7484774998
 30
0.0
 11
247.1770933752
 21
142.7484774998
 31
0.0
  0
LINE
  5
21B
330
215
100
AcDbEntity
  8
VERMASSUNG
100
AcDbLine
 10
237.3206262834
 20
87.7484774998
 30
0.0
 11
247.1770933752
 21
87.7484774998
 31
0.0
  0
LINE
  5
21C
330
215
100
AcDbEntity
  8
VERMASSUNG
100
AcDbLine
 10
246.1770933752
 20
142.7484774998
 30
0.0
 11
246.1770933752
 21
87.7484774998
 31
0.0
  0
MTEXT
  5
21D
330
215
100
AcDbEntity
  8
VERMASSUNG
100
AcDbMText
 10
243.398958119
 20
108.8434778562
 30
0.0
 40
2.0
 41
0.0
 71
     1
 72
     1
  1
MBM
  7
SLDTEXTSTYLE0
 11
-7.044195017643634E-15
 21
1.0
 31
0.0
 73
     1
 44
1.0
  0
MTEXT
  5
21E
330
215
100
AcDbEntity
  8
VERMASSUNG
100
AcDbMText
 10
243.5989580703
 20
115.2434776946
 30
0.0
 40
2.0
 41
0.0
 71
     1
 72
     1
  1
%%c
  7
SLDTEXTSTYLE0
 11
-7.044195017643634E-15
 21
1.0
 31
0.0
 73
     1
 44
1.0
  0
MTEXT
  5
21F
330
215
100
AcDbEntity
  8
VERMASSUNG
100
AcDbMText
 10
243.398958119
 20
118.8534781745
 30
0.0
 40
2.0
 41
0.0
 71
     1
 72
     1
  1
55
  7
SLDTEXTSTYLE0
 11
-7.044195017643634E-15
 21
1.0
 31
0.0
 73
     1
 44
1.0
  0
ENDBLK
  5
217
330
215
100
AcDbEntity
  8
0
100
AcDbBlockEnd
  0
ENDSEC
  0
SECTION
  2
ENTITIES
  0
MTEXT
  5
78
330
1F
100
AcDbEntity
  8
KOPF_DÜNN
100
AcDbMText
 10
13.8892156294
 20
23.8442973028
 30
0.0
 40
3.0
 41
0.0
 71
     1
 72
     1
  1
102.425.552
  7
SLDTEXTSTYLE0
 73
     1
 44
1.0
  0
MTEXT
  5
79
330
1F
100
AcDbEntity
  8
VERMASSUNG
100
AcDbMText
 10
13.9329988022
 20
28.8834360957
 30
0.0
 40
3.0
 41
0.0
 71
     1
 72
     1
  1
Aufnahme_Master shank MBM 55
  7
SLDTEXTSTYLE0
 73
     1
 44
1.0
  0
MTEXT
  5
7A
330
1F
100
AcDbEntity
  8
VERMASSUNG
100
AcDbMText
 10
98.8601118557
 20
13.8365368761
 30
0.0
 40
2.0
 41
0.0
 71
     1
 72
     1
  1
Datum: 01.11.2007
  7
SLDTEXTSTYLE0
 73
     1
 44
1.0
  0
MTEXT
  5
7B
330
1F
100
AcDbEntity
  8
VERMASSUNG
100
AcDbMText
 10
13.933048693
 20
18.0482802738
 30
0.0
 40
2.0
 41
0.0
 71
     1
 72
     1
  1
DIN 69871 B 40
  7
SLDTEXTSTYLE0
 73
     1
 44
1.0
  0
MTEXT
  5
7C
330
1F
100
AcDbEntity
  8
VERMASSUNG
100
AcDbMText
 10
13.9808475933
 20
13.9090974274
 30
0.0
 40
2.0
 41
0.0
 71
     1
 72
     1
  1
Gewicht: 2394g
  7
SLDTEXTSTYLE0
 73
     1
 44
1.0
  0
LINE
  5
7D
330
1F
100
AcDbEntity
  8
0
  6
Continuous
 62
     7
370
    15
100
AcDbLine
 10
237.3206297047
 20
87.7484776488
 30
0.0
 11
237.8206232674
 21
88.2484767994
 31
0.0
  0
LINE
  5
7E
330
1F
100
AcDbEntity
  8
0
  6
Continuous
 62
     7
370
    15
100
AcDbLine
 10
237.8206232674
 20
142.2484782002
 30
0.0
 11
237.3206297047
 21
142.7484773508
 31
0.0
  0
LINE
  5
7F
330
1F
100
AcDbEntity
  8
0
  6
Continuous
 62
     7
370
    15
100
AcDbLine
 10
155.1640013344
 20
142.7484773508
 30
0.0
 11
153.7206264324
 21
140.2484778723
 31
0.0
  0
LINE
  5
80
330
1F
100
AcDbEntity
  8
0
  6
Continuous
 62
     7
370
    15
100
AcDbLine
 10
153.7206264324
 20
90.2484771273
 30
0.0
 11
155.1640013344
 21
87.7484776488
 31
0.0
  0
LINE
  5
81
330
1F
100
AcDbEntity
  8
0
  6
Continuous
 62
     7
370
    15
100
AcDbLine
 10
155.1640013344
 20
87.7484776488
 30
0.0
 11
237.3206297047
 21
87.7484776488
 31
0.0
  0
LINE
  5
82
330
1F
100
AcDbEntity
  8
0
  6
Continuous
 62
     7
370
    15
100
AcDbLine
 10
237.3206297047
 20
142.7484773508
 30
0.0
 11
155.1640013344
 21
142.7484773508
 31
0.0
  0
LINE
  5
83
330
1F
100
AcDbEntity
  8
0
  6
Continuous
 62
     7
370
    15
100
AcDbLine
 10
145.7966303564
 20
90.2484771273
 30
0.0
 11
153.7206264324
 21
90.2484771273
 31
0.0
  0
LINE
  5
84
330
1F
100
AcDbEntity
  8
0
  6
Continuous
 62
     7
370
    15
100
AcDbLine
 10
153.7206264324
 20
140.2484778723
 30
0.0
 11
145.7948645688
 21
140.2484778723
 31
0.0
  0
ARC
  5
85
330
1F
100
AcDbEntity
  8
0
  6
Continuous
 62
     7
370
    15
100
AcDbCircle
 10
121.3206262834
 20
92.4234774998
 30
0.0
 40
0.5999999999999943
100
AcDbArc
 50
0.0
 51
90.0
  0
ARC
  5
86
330
1F
100
AcDbEntity
  8
0
  6
Continuous
 62
     7
370
    15
100
AcDbCircle
 10
121.3206262834
 20
138.0734774998
 30
0.0
 40
0.5999999999999943
100
AcDbArc
 50
270.0
 51
0.0
  0
LINE
  5
87
330
1F
100
AcDbEntity
  8
0
  6
Continuous
 62
     7
370
    15
100
AcDbLine
 10
118.7206262834
 20
137.473477464
 30
0.0
 11
51.3263175375
 21
127.6451409272
 31
0.0
  0
LINE
  5
88
330
1F
100
AcDbEntity
  8
0
  6
Continuous
 62
     7
370
    15
100
AcDbLine
 10
51.3263175375
 20
102.8518140724
 30
0.0
 11
118.7206262834
 21
93.0234775356
 31
0.0
  0
LINE
  5
89
330
1F
100
AcDbEntity
  8
0
  6
Continuous
 62
     7
370
    15
100
AcDbLine
 10
118.7206262834
 20
93.0234775356
 30
0.0
 11
121.3206262904
 21
93.0234775356
 31
0.0
  0
LINE
  5
8A
330
1F
100
AcDbEntity
  8
0
  6
Continuous
 62
     7
370
    15
100
AcDbLine
 10
121.3206262904
 20
137.473477464
 30
0.0
 11
118.7206262834
 21
137.473477464
 31
0.0
  0
ARC
  5
8B
330
1F
100
AcDbEntity
  8
0
  6
Continuous
 62
     7
370
    15
100
AcDbCircle
 10
51.4706262834
 20
103.8413469028
 30
0.0
 40
0.9999999999999959
100
AcDbArc
 50
180.0
 51
261.7028550302
  0
ARC
  5
8C
330
1F
100
AcDbEntity
  8
0
  6
Continuous
 62
     7
370
    15
100
AcDbCircle
 10
51.4706262834
 20
126.6556080968
 30
0.0
 40
0.9999999999999959
100
AcDbArc
 50
98.2971449698
 51
180.0
  0
ARC
  5
8D
330
1F
100
AcDbEntity
  8
0
  6
Continuous
 62
     7
370
    15
100
AcDbCircle
 10
131.7206262834
 20
106.526963845
 30
0.0
 40
1.500000000000001
100
AcDbArc
 50
191.5274417161
 51
336.596033829
  0
SPLINE
  5
8E
330
1F
100
AcDbEntity
  8
0
  6
Continuous
 62
     7
370
    15
100
AcDbSpline
210
0.0
220
0.0
230
1.0
 70
     8
 71
     3
 72
     8
 73
     4
 74
     0
 42
0.000000001
 43
0.00000001
 40
0.0
 40
0.0
 40
0.0
 40
0.0
 40
1.0
 40
1.0
 40
1.0
 40
1.0
 10
127.9106262833676
 20
87.43165104029619
 30
0.0
 10
127.5264915347832
 20
86.73900961835201
 30
0.0
 10
127.1415052582903
 20
86.0468234440283
 30
0.0
 10
126.7558366796639
 20
85.35502915318413
 30
0.0
  0
SPLINE
  5
8F
330
1F
100
AcDbEntity
  8
0
  6
Continuous
 62
     7
370
    15
100
AcDbSpline
210
0.0
220
0.0
230
1.0
 70
     8
 71
     3
 72
     8
 73
     4
 74
     0
 42
0.000000001
 43
0.00000001
 40
0.0
 40
0.0
 40
0.0
 40
0.0
 40
0.0011901715795577
 40
0.0011901715795577
 40
0.0011901715795577
 40
0.0011901715795577
 10
126.2987896413109
 20
84.80038515116098
 30
0.0
 10
126.4526358308068
 20
84.98495038884457
 30
0.0
 10
126.6050310984794
 20
85.1698257493732
 30
0.0
 10
126.7558366796639
 20
85.35502915318413
 30
0.0
  0
LINE
  5
90
330
1F
100
AcDbEntity
  8
0
  6
Continuous
 62
     7
370
    15
100
AcDbLine
 10
126.2987896911
 20
84.8003853521
 30
0.0
 11
126.2987896911
 21
133.5984770617
 31
0.0
  0
SPLINE
  5
91
330
1F
100
AcDbEntity
  8
0
  6
Continuous
 62
     7
370
    15
100
AcDbSpline
210
0.0
220
0.0
230
1.0
 70
    24
 71
     3
 72
     8
 73
     4
 74
     0
 42
0.000000001
 43
0.00000001
 40
0.0
 40
0.0
 40
0.0
 40
0.0
 40
1.0
 40
1.0
 40
1.0
 40
1.0
 10
127.9106262833676
 20
133.5984774997976
 30
0.0
 10
127.3858937950057
 20
133.5984774997976
 30
0.0
 10
126.8472183107869
 20
133.5984774997976
 30
0.0
 10
126.2987896413109
 20
133.5984774997976
 30
0.0
  0
LINE
  5
92
330
1F
100
AcDbEntity
  8
0
  6
Continuous
 62
     7
370
    15
100
AcDbLine
 10
127.9106259457
 20
87.4316510222
 30
0.0
 11
127.9106259457
 21
133.5984770617
 31
0.0
  0
SPLINE
  5
93
330
1F
100
AcDbEntity
  8
0
  6
Continuous
 62
     7
370
    15
100
AcDbSpline
210
0.0
220
0.0
230
1.0
 70
     8
 71
     3
 72
    12
 73
     8
 74
     0
 42
0.000000001
 43
0.00000001
 40
0.0
 40
0.0
 40
0.0
 40
0.0
 40
0.249999999999999
 40
0.249999999999999
 40
0.499999999999998
 40
0.499999999999998
 40
1.0
 40
1.0
 40
1.0
 40
1.0
 10
137.1706262833676
 20
84.80038515116098
 30
0.0
 10
137.2661681935036
 20
84.80038515116098
 30
0.0
 10
137.3583131353663
 20
84.8166388203572
 30
0.0
 10
137.5146394119762
 20
84.87024724127066
 30
0.0
 10
137.5783075545962
 20
84.90665836655235
 30
0.0
 10
137.7271754000266
 20
85.02878200623884
 30
0.0
 10
137.7706262833676
 20
85.12393468167586
 30
0.0
 10
137.7706262833676
 20
85.21956113729556
 30
0.0
  0
SPLINE
  5
94
330
1F
100
AcDbEntity
  8
0
  6
Continuous
 62
     7
370
    15
100
AcDbSpline
210
0.0
220
0.0
230
1.0
 70
    24
 71
     3
 72
    12
 73
     8
 74
     0
 42
0.000000001
 43
0.00000001
 40
0.0
 40
0.0
 40
0.0
 40
0.0
 40
0.4999999999999971
 40
0.4999999999999971
 40
0.7499999999999986
 40
0.7499999999999986
 40
1.0
 40
1.0
 40
1.0
 40
1.0
 10
137.7706262833676
 20
133.5984774997976
 30
0.0
 10
137.7706262833676
 20
133.5984774997976
 30
0.0
 10
137.7209462884125
 20
133.5984774997976
 30
0.0
 10
137.565027731395
 20
133.5984774997977
 30
0.0
 10
137.4991466668188
 20
133.5984774997976
 30
0.0
 10
137.3465010113301
 20
133.5984774997976
 30
0.0
 10
137.2592511034692
 20
133.5984774997976
 30
0.0
 10
137.1706262833675
 20
133.5984774997976
 30
0.0
  0
LINE
  5
95
330
1F
100
AcDbEntity
  8
0
  6
Continuous
 62
     7
370
    15
100
AcDbLine
 10
137.7706265188
 20
85.2195606044
 30
0.0
 11
137.7706265188
 21
133.5984770617
 31
0.0
  0
LINE
  5
96
330
1F
100
AcDbEntity
  8
0
  6
Continuous
 62
     7
370
    15
100
AcDbLine
 10
122.5206263474
 20
84.8003853521
 30
0.0
 11
126.2987896911
 21
84.8003853521
 31
0.0
  0
LINE
  5
97
330
1F
100
AcDbEntity
  8
0
  6
Continuous
 62
     7
370
    15
100
AcDbLine
 10
126.2987896911
 20
133.5984770617
 30
0.0
 11
122.5206263474
 21
133.5984770617
 31
0.0
  0
LINE
  5
98
330
1F
100
AcDbEntity
  8
0
  6
Continuous
 62
     7
370
    15
100
AcDbLine
 10
133.342463348
 20
105.49645726
 30
0.0
 11
133.342463348
 21
133.5984770617
 31
0.0
  0
LINE
  5
99
330
1F
100
AcDbEntity
  8
0
  6
Continuous
 62
     7
370
    15
100
AcDbLine
 10
137.1706256754
 20
133.5984770617
 30
0.0
 11
133.342463348
 21
133.5984770617
 31
0.0
  0
LINE
  5
9A
330
1F
100
AcDbEntity
  8
0
  6
Continuous
 62
     7
370
    15
100
AcDbLine
 10
133.342463348
 20
84.8003853521
 30
0.0
 11
137.1706256754
 21
84.8003853521
 31
0.0
  0
LINE
  5
9B
330
1F
100
AcDbEntity
  8
0
  6
Continuous
 62
     7
370
    15
100
AcDbLine
 10
133.342463348
 20
84.8003853521
 30
0.0
 11
133.342463348
 21
103.2969778812
 31
0.0
  0
SPLINE
  5
9C
330
1F
100
AcDbEntity
  8
0
  6
Continuous
 62
     7
370
    15
100
AcDbSpline
210
0.0
220
0.0
230
1.0
 70
     8
 71
     3
 72
    12
 73
     8
 74
     0
 42
0.000000001
 43
0.00000001
 40
0.0
 40
0.0
 40
0.0
 40
0.0
 40
0.2500000000000001
 40
0.2500000000000001
 40
0.5000000000000002
 40
0.5000000000000002
 40
1.0
 40
1.0
 40
1.0
 40
1.0
 10
133.3424629254243
 20
103.2969777015906
 30
0.0
 10
133.4654104192198
 20
103.4549345502857
 30
0.0
 10
133.5589546223287
 20
103.6267679172632
 30
0.0
 10
133.6878940114909
 20
103.9984406269091
 30
0.0
 10
133.720446768876
 20
104.1916290731003
 30
0.0
 10
133.7209831106098
 20
104.7799256113766
 30
0.0
 10
133.5883594536419
 20
105.1719438492653
 30
0.0
 10
133.3424629254243
 20
105.496457431974
 30
0.0
  0
SPLINE
  5
9D
330
1F
100
AcDbEntity
  8
0
  6
Continuous
 62
     7
370
    15
100
AcDbSpline
210
0.0
220
0.0
230
1.0
 70
     8
 71
     3
 72
    10
 73
     6
 74
     0
 42
0.000000001
 43
0.00000001
 40
0.0
 40
0.0
 40
0.0
 40
0.0
 40
0.5
 40
0.5
 40
1.0
 40
1.0
 40
1.0
 40
1.0
 10
122.1367708247148
 20
84.89674765032944
 30
0.0
 10
122.1855407976961
 20
84.86851964312143
 30
0.0
 10
122.2429929209984
 20
84.84442503887983
 30
0.0
 10
122.3735898239872
 20
84.81016156578727
 30
0.0
 10
122.4460795038294
 20
84.80038515116098
 30
0.0
 10
122.5206262833676
 20
84.80038515116098
 30
0.0
  0
SPLINE
  5
9E
330
1F
100
AcDbEntity
  8
0
  6
Continuous
 62
     7
370
    15
100
AcDbSpline
210
0.0
220
0.0
230
1.0
 70
     8
 71
     3
 72
    10
 73
     6
 74
     0
 42
0.000000001
 43
0.00000001
 40
0.0
 40
0.0
 40
0.0
 40
0.0
 40
0.5
 40
0.5
 40
1.0
 40
1.0
 40
1.0
 40
1.0
 10
122.1367708247148
 20
84.89674765032944
 30
0.0
 10
122.0786481646387
 20
84.96405281019126
 30
0.0
 10
122.0262449986351
 20
85.0441381972249
 30
0.0
 10
121.9473419770888
 20
85.22815763891366
 30
0.0
 10
121.9206262833676
 20
85.3333689963341
 30
0.0
 10
121.9206262833676
 20
85.44210234279474
 30
0.0
  0
LINE
  5
9F
330
1F
100
AcDbEntity
  8
0
  6
Continuous
 62
     7
370
    15
100
AcDbLine
 10
121.9206262025
 20
85.4421019963
 30
0.0
 11
121.9206262025
 21
133.5984770617
 31
0.0
  0
SPLINE
  5
A0
330
1F
100
AcDbEntity
  8
0
  6
Continuous
 62
     7
370
    15
100
AcDbSpline
210
0.0
220
0.0
230
1.0
 70
    24
 71
     3
 72
    12
 73
     8
 74
     0
 42
0.000000001
 43
0.00000001
 40
0.0
 40
0.0
 40
0.0
 40
0.0
 40
0.25
 40
0.25
 40
0.5
 40
0.5
 40
1.0
 40
1.0
 40
1.0
 40
1.0
 10
122.5206262833676
 20
133.5984774997976
 30
0.0
 10
122.4322109060571
 20
133.5984774997976
 30
0.0
 10
122.3449404688865
 20
133.5984774997976
 30
0.0
 10
122.1924767441146
 20
133.5984774997976
 30
0.0
 10
122.1268381318922
 20
133.5984774997976
 30
0.0
 10
121.9701797306083
 20
133.5984774997976
 30
0.0
 10
121.9206262833676
 20
133.5984774997976
 30
0.0
 10
121.9206262833676
 20
133.5984774997976
 30
0.0
  0
LINE
  5
A1
330
1F
100
AcDbEntity
  8
0
  6
Continuous
 62
     7
370
    15
100
AcDbLine
 10
131.7306261621
 20
107.2471946886
 30
0.0
 11
131.7306261621
 21
133.5984770617
 31
0.0
  0
SPLINE
  5
A2
330
1F
100
AcDbEntity
  8
0
  6
Continuous
 62
     7
370
    15
100
AcDbSpline
210
0.0
220
0.0
230
1.0
 70
    24
 71
     3
 72
     8
 73
     4
 74
     0
 42
0.000000001
 43
0.00000001
 40
0.0
 40
0.0
 40
0.0
 40
0.0
 40
1.0
 40
1.0
 40
1.0
 40
1.0
 10
133.3424629254243
 20
133.5984774997976
 30
0.0
 10
132.7940342559483
 20
133.5984774997976
 30
0.0
 10
132.2553587717294
 20
133.5984774997976
 30
0.0
 10
131.7306262833676
 20
133.5984774997976
 30
0.0
  0
SPLINE
  5
A3
330
1F
100
AcDbEntity
  8
0
  6
Continuous
 62
     7
370
    15
100
AcDbSpline
210
0.0
220
0.0
230
1.0
 70
     8
 71
     3
 72
    12
 73
     8
 74
     0
 42
0.000000001
 43
0.00000001
 40
0.0
 40
0.0
 40
0.0
 40
0.0
 40
0.2499999999999994
 40
0.2499999999999994
 40
0.4999999999999989
 40
0.4999999999999989
 40
1.0
 40
1.0
 40
1.0
 40
1.0
 10
133.3424629254243
 20
105.496457431974
 30
0.0
 10
133.2275668741636
 20
105.7161978670305
 30
0.0
 10
133.100800857691
 20
105.9131662186522
 30
0.0
 10
132.8405859240724
 20
106.2668837914911
 30
0.0
 10
132.7070784661102
 20
106.4237090853634
 30
0.0
 10
132.298680197522
 20
106.8502516562711
 30
0.0
 10
132.0150270625844
 20
107.0769438352263
 30
0.0
 10
131.7306262833677
 20
107.2471949796218
 30
0.0
  0
SPLINE
  5
A4
330
1F
100
AcDbEntity
  8
0
  6
Continuous
 62
     7
370
    15
100
AcDbSpline
210
0.0
220
0.0
230
1.0
 70
     8
 71
     3
 72
    14
 73
    10
 74
     0
 42
0.000000001
 43
0.00000001
 40
0.0
 40
0.0
 40
0.0
 40
0.0
 40
0.2499999999999995
 40
0.2499999999999995
 40
0.4999999999999997
 40
0.4999999999999997
 40
0.7499999999999998
 40
0.7499999999999998
 40
1.0
 40
1.0
 40
1.0
 40
1.0
 10
131.7306262833676
 20
107.301438629468
 30
0.0
 10
131.7306262833676
 20
107.3380894976318
 30
0.0
 10
131.7092984946557
 20
107.3745562948807
 30
0.0
 10
131.6268400919992
 20
107.4396951494216
 30
0.0
 10
131.565723900144
 20
107.4677662800125
 30
0.0
 10
131.4144208070818
 20
107.5015941617394
 30
0.0
 10
131.3230427836913
 20
107.5070573031359
 30
0.0
 10
131.1306690706384
 20
107.4861313851233
 30
0.0
 10
131.0284887311594
 20
107.459595959748
 30
0.0
 10
130.9306262833676
 20
107.4191097864667
 30
0.0
  0
SPLINE
  5
A5
330
1F
100
AcDbEntity
  8
0
  6
Continuous
 62
     7
370
    15
100
AcDbSpline
210
0.0
220
0.0
230
1.0
 70
     8
 71
     3
 72
    12
 73
     8
 74
     0
 42
0.000000001
 43
0.00000001
 40
0.0
 40
0.0
 40
0.0
 40
0.0
 40
0.5000000000000009
 40
0.5000000000000009
 40
0.7500000000000004
 40
0.7500000000000004
 40
1.0
 40
1.0
 40
1.0
 40
1.0
 10
131.7306262833676
 20
103.4884714814007
 30
0.0
 10
132.0148328179329
 20
103.321007319107
 30
0.0
 10
132.2935285520367
 20
103.2093702195954
 30
0.0
 10
132.7028745952259
 20
103.142056953956
 30
0.0
 10
132.8390139325455
 20
103.136905913942
 30
0.0
 10
133.1003339815415
 20
103.1746718515614
 30
0.0
 10
133.2257551639733
 20
103.2162216099057
 30
0.0
 10
133.3424629254247
 20
103.2969777015885
 30
0.0
  0
LINE
  5
A6
330
1F
100
AcDbEntity
  8
0
  6
Continuous
 62
     7
370
    15
100
AcDbLine
 10
131.7306261621
 20
103.5427147931
 30
0.0
 11
131.7306261621
 21
103.4884717724
 31
0.0
  0
SPLINE
  5
A7
330
1F
100
AcDbEntity
  8
0
  6
Continuous
 62
     7
370
    15
100
AcDbSpline
210
0.0
220
0.0
230
1.0
 70
     8
 71
     3
 72
    14
 73
    10
 74
     0
 42
0.000000001
 43
0.00000001
 40
0.0
 40
0.0
 40
0.0
 40
0.0
 40
0.25
 40
0.25
 40
0.5
 40
0.5
 40
0.75
 40
0.75
 40
1.0
 40
1.0
 40
1.0
 40
1.0
 10
130.930626283364
 20
103.9659983096909
 30
0.0
 10
131.0280357033478
 20
103.9275835902967
 30
0.0
 10
131.1303599463614
 20
103.889883185514
 30
0.0
 10
131.3223616318989
 20
103.8188383999198
 30
0.0
 10
131.4137962615534
 20
103.7846369385618
 30
0.0
 10
131.5655751288484
 20
103.7176405131564
 30
0.0
 10
131.6265520187629
 20
103.6844990448469
 30
0.0
 10
131.7095699573272
 20
103.6148214771968
 30
0.0
 10
131.7306262833676
 20
103.5790877660296
 30
0.0
 10
131.7306262833676
 20
103.5427151312488
 30
0.0
  0
SPLINE
  5
A8
330
1F
100
AcDbEntity
  8
0
  6
Continuous
 62
     7
370
    15
100
AcDbSpline
210
0.0
220
0.0
230
1.0
 70
     8
 71
     3
 72
    22
 73
    18
 74
     0
 42
0.000000001
 43
0.00000001
 40
0.0
 40
0.0
 40
0.0
 40
0.0
 40
0.125
 40
0.125
 40
0.25
 40
0.25
 40
0.375
 40
0.375
 40
0.5
 40
0.5
 40
0.625
 40
0.625
 40
0.75
 40
0.75
 40
0.875
 40
0.875
 40
1.0
 40
1.0
 40
1.0
 40
1.0
 10
130.9306262833676
 20
107.4191097864667
 30
0.0
 10
130.7506095887983
 20
107.3446359994902
 30
0.0
 10
130.586177766928
 20
107.2471867375062
 30
0.0
 10
130.2877815331696
 20
107.0078173039421
 30
0.0
 10
130.1574778058047
 20
106.8679206918717
 30
0.0
 10
129.9442590221857
 20
106.5596691018117
 30
0.0
 10
129.8606311650742
 20
106.3895058836926
 30
0.0
 10
129.7495002881559
 20
106.0390111489023
 30
0.0
 10
129.7206642933021
 20
105.8538861877511
 30
0.0
 10
129.7205883506423
 20
105.490679313134
 30
0.0
 10
129.7492469760694
 20
105.3073092994265
 30
0.0
 10
129.8603980691817
 20
104.9614181869333
 30
0.0
 10
129.9434651898255
 20
104.7958986596659
 30
0.0
 10
130.1571511479438
 20
104.4953589222621
 30
0.0
 10
130.2861581378678
 20
104.361487000978
 30
0.0
 10
130.585767417357
 20
104.1302402315737
 30
0.0
 10
130.7506101156181
 20
104.0369901149137
 30
0.0
 10
130.9306262833676
 20
103.9659983096895
 30
0.0
  0
SPLINE
  5
A9
330
1F
100
AcDbEntity
  8
0
  6
Continuous
 62
     7
370
    15
100
AcDbSpline
210
0.0
220
0.0
230
1.0
 70
     8
 71
     3
 72
     8
 73
     4
 74
     0
 42
0.000000001
 43
0.00000001
 40
0.0
 40
0.0
 40
0.0
 40
0.0
 40
0.0011901715795577
 40
0.0011901715795577
 40
0.0011901715795577
 40
0.0011901715795577
 10
132.8854158870712
 20
85.35502915318415
 30
0.0
 10
133.0362214682557
 20
85.1698257493732
 30
0.0
 10
133.1886167359283
 20
84.98495038884457
 30
0.0
 10
133.3424629254243
 20
84.80038515116098
 30
0.0
  0
SPLINE
  5
AA
330
1F
100
AcDbEntity
  8
0
  6
Continuous
 62
     7
370
    15
100
AcDbSpline
210
0.0
220
0.0
230
1.0
 70
     8
 71
     3
 72
     8
 73
     4
 74
     0
 42
0.000000001
 43
0.00000001
 40
0.0
 40
0.0
 40
0.0
 40
0.0
 40
1.0
 40
1.0
 40
1.0
 40
1.0
 10
132.8854158870712
 20
85.35502915318415
 30
0.0
 10
132.4997473084449
 20
86.0468234440283
 30
0.0
 10
132.1147610319519
 20
86.73900961835201
 30
0.0
 10
131.7306262833676
 20
87.43165104029619
 30
0.0
  0
LINE
  5
AB
330
1F
100
AcDbEntity
  8
0
  6
Continuous
 62
     7
370
    15
100
AcDbLine
 10
131.7306261621
 20
87.4316510222
 30
0.0
 11
131.7306261621
 21
103.4884717724
 31
0.0
  0
SPLINE
  5
AC
330
1F
100
AcDbEntity
  8
0
  6
Continuous
 62
     7
370
    15
100
AcDbSpline
210
0.0
220
0.0
230
1.0
 70
    24
 71
     3
 72
    14
 73
    10
 74
     0
 42
0.000000001
 43
0.00000001
 40
0.0
 40
0.0
 40
0.0
 40
0.0
 40
0.25
 40
0.25
 40
0.5
 40
0.5
 40
0.75
 40
0.75
 40
1.0
 40
1.0
 40
1.0
 40
1.0
 10
131.7306262833676
 20
133.5984774997976
 30
0.0
 10
131.7306262833676
 20
133.5984774997976
 30
0.0
 10
131.7145446819078
 20
133.5984774997976
 30
0.0
 10
131.6490531686409
 20
133.5984774997976
 30
0.0
 10
131.5997451955135
 20
133.5984774997976
 30
0.0
 10
131.4651756738166
 20
133.5984774997976
 30
0.0
 10
131.3796525977313
 20
133.5984774997976
 30
0.0
 10
131.1726571021763
 20
133.5984774997976
 30
0.0
 10
131.0519634682327
 20
133.5984774997976
 30
0.0
 10
130.9306262833676
 20
133.5984774997976
 30
0.0
  0
SPLINE
  5
AD
330
1F
100
AcDbEntity
  8
0
  6
Continuous
 62
     7
370
    15
100
AcDbSpline
210
0.0
220
0.0
230
1.0
 70
     8
 71
     3
 72
    12
 73
     8
 74
     0
 42
0.000000001
 43
0.00000001
 40
0.0
 40
0.0
 40
0.0
 40
0.0
 40
0.2500000000000015
 40
0.2500000000000015
 40
0.500000000000003
 40
0.500000000000003
 40
1.0
 40
1.0
 40
1.0
 40
1.0
 10
128.7106262833676
 20
88.43061964351091
 30
0.0
 10
128.6042244330101
 20
88.43061964351092
 30
0.0
 10
128.4969090216136
 20
88.4078488794924
 30
0.0
 10
128.3014374305863
 20
88.3216059328403
 30
0.0
 10
128.2112553146488
 20
88.25692961236977
 30
0.0
 10
127.993033827928
 20
88.02400028831298
 30
0.0
 10
127.9106262833672
 20
87.80941505042196
 30
0.0
 10
127.9106262833675
 20
87.59639801198924
 30
0.0
  0
SPLINE
  5
AE
330
1F
100
AcDbEntity
  8
0
  6
Continuous
 62
     7
370
    15
100
AcDbSpline
210
0.0
220
0.0
230
1.0
 70
    24
 71
     3
 72
    14
 73
    10
 74
     0
 42
0.000000001
 43
0.00000001
 40
0.0
 40
0.0
 40
0.0
 40
0.0
 40
0.1250000000000007
 40
0.1250000000000007
 40
0.2500000000000014
 40
0.2500000000000014
 40
0.499999999999999
 40
0.499999999999999
 40
1.0
 40
1.0
 40
1.0
 40
1.0
 10
128.7106262833676
 20
133.5984774997976
 30
0.0
 10
128.65000895995
 20
133.5984774997976
 30
0.0
 10
128.5878838118149
 20
133.5984774997976
 30
0.0
 10
128.4716661487935
 20
133.5984774997976
 30
0.0
 10
128.4170495091011
 20
133.5984774997976
 30
0.0
 10
128.262373170593
 20
133.5984774997976
 30
0.0
 10
128.1762564218089
 20
133.5984774997976
 30
0.0
 10
127.9749488412683
 20
133.5984774997976
 30
0.0
 10
127.9106262833675
 20
133.5984774997976
 30
0.0
 10
127.9106262833675
 20
133.5984774997976
 30
0.0
  0
LINE
  5
AF
330
1F
100
AcDbEntity
  8
0
  6
Continuous
 62
     7
370
    15
100
AcDbLine
 10
130.9306265897
 20
88.4306192807
 30
0.0
 11
128.7106264494
 21
88.4306192807
 31
0.0
  0
LINE
  5
B0
330
1F
100
AcDbEntity
  8
0
  6
Continuous
 62
     7
370
    15
100
AcDbLine
 10
130.9306265897
 20
133.5984770617
 30
0.0
 11
128.7106264494
 21
133.5984770617
 31
0.0
  0
LINE
  5
B1
330
1F
100
AcDbEntity
  8
0
  6
Continuous
 62
     7
370
    15
100
AcDbLine
 10
237.8206232674
 20
88.2484767994
 30
0.0
 11
237.8206232674
 21
142.2484782002
 31
0.0
  0
LINE
  5
B2
330
1F
100
AcDbEntity
  8
0
  6
Continuous
 62
     7
370
    15
100
AcDbLine
 10
237.3206297047
 20
87.7484776488
 30
0.0
 11
237.3206297047
 21
142.7484773508
 31
0.0
  0
LINE
  5
B3
330
1F
100
AcDbEntity
  8
0
  6
Continuous
 62
     7
370
    15
100
AcDbLine
 10
155.1640013344
 20
87.7484776488
 30
0.0
 11
155.1640013344
 21
142.7484773508
 31
0.0
  0
LINE
  5
B4
330
1F
100
AcDbEntity
  8
0
  6
Continuous
 62
     7
370
    15
100
AcDbLine
 10
153.7206264324
 20
90.2484771273
 30
0.0
 11
153.7206264324
 21
140.2484778723
 31
0.0
  0
SPLINE
  5
B5
330
1F
100
AcDbEntity
  8
0
  6
Continuous
 62
     7
370
    15
100
AcDbSpline
210
0.0
220
0.0
230
1.0
 70
     8
 71
     3
 72
    52
 73
    48
 74
     0
 42
0.000000001
 43
0.00000001
 40
0.0
 40
0.0
 40
0.0
 40
0.0
 40
0.0312500000000002
 40
0.0312500000000002
 40
0.0625000000000005
 40
0.0625000000000005
 40
0.1250000000000005
 40
0.1250000000000005
 40
0.1562500000000009
 40
0.1562500000000009
 40
0.1875000000000013
 40
0.1875000000000013
 40
0.2187500000000017
 40
0.2187500000000017
 40
0.2500000000000021
 40
0.2500000000000021
 40
0.3125000000000029
 40
0.3125000000000029
 40
0.3437500000000026
 40
0.3437500000000026
 40
0.3750000000000023
 40
0.3750000000000023
 40
0.4375000000000016
 40
0.4375000000000016
 40
0.468750000000002
 40
0.468750000000002
 40
0.5000000000000024
 40
0.5000000000000024
 40
0.5625000000000017
 40
0.5625000000000017
 40
0.5937500000000021
 40
0.5937500000000021
 40
0.6250000000000026
 40
0.6250000000000026
 40
0.6875000000000018
 40
0.6875000000000018
 40
0.750000000000001
 40
0.750000000000001
 40
0.8125000000000003
 40
0.8125000000000003
 40
0.8749999999999997
 40
0.8749999999999997
 40
0.9062499999999997
 40
0.9062499999999997
 40
0.9374999999999997
 40
0.9374999999999997
 40
1.0
 40
1.0
 40
1.0
 40
1.0
 10
231.2706262833675
 20
115.2484774997976
 30
0.0
 10
231.2706262833675
 20
115.0018417433717
 30
0.0
 10
231.255942060151
 20
114.7556849626579
 30
0.0
 10
231.1970785621481
 20
114.2643327982489
 30
0.0
 10
231.1524571433103
 20
114.017505959283
 30
0.0
 10
230.9762298506731
 20
113.2918392847887
 30
0.0
 10
230.8042661084477
 20
112.8297489572987
 30
0.0
 10
230.4702997050741
 20
112.1666209003498
 30
0.0
 10
230.34558834709
 20
111.9499257129748
 30
0.0
 10
230.0765613361861
 20
111.5354772885859
 30
0.0
 10
229.9317852631298
 20
111.3365971549028
 30
0.0
 10
229.6227435803219
 20
110.9545681545865
 30
0.0
 10
229.4584742450322
 20
110.7714225207673
 30
0.0
 10
229.1107940742401
 20
110.4204592097901
 30
0.0
 10
228.9270511193527
 20
110.2525394849391
 30
0.0
 10
228.3582848638536
 20
109.7804626295658
 30
0.0
 10
227.9526683547448
 20
109.5041432434239
 30
0.0
 10
227.3064081048745
 20
109.1436623797738
 30
0.0
 10
227.0835710085646
 20
109.0321400348294
 30
0.0
 10
226.6313626183668
 20
108.8301974176428
 30
0.0
 10
226.4019896338987
 20
108.7396275361447
 30
0.0
 10
225.7043785178988
 20
108.4979087691768
 30
0.0
 10
225.2267242700778
 20
108.3764981347413
 30
0.0
 10
224.4911334268432
 20
108.2541303011297
 30
0.0
 10
224.2427753936553
 20
108.2235029795038
 30
0.0
 10
223.74891262481
 20
108.1833599450347
 30
0.0
 10
223.5022435969583
 20
108.1736214051693
 30
0.0
 10
222.7630099718697
 20
108.1748422624138
 30
0.0
 10
222.2712126854873
 20
108.2159771966561
 30
0.0
 10
221.5351091645321
 20
108.3405431794981
 30
0.0
 10
221.2910818542905
 20
108.3925312766163
 30
0.0
 10
220.8127167377273
 20
108.5157053603934
 30
0.0
 10
220.5773285781072
 20
108.5870562503833
 30
0.0
 10
219.8824500694884
 20
108.8303196292728
 30
0.0
 10
219.4341332843027
 20
109.0311340664047
 30
0.0
 10
218.5693092351446
 20
109.5163177427843
 30
0.0
 10
218.1630146158136
 20
109.7953994167014
 30
0.0
 10
217.4133801171875
 20
110.4209147197288
 30
0.0
 10
217.0681611818586
 20
110.7682408268693
 30
0.0
 10
216.4443698829353
 20
111.5420507914889
 30
0.0
 10
216.1776258408322
 20
111.9541485853597
 30
0.0
 10
215.8478788826804
 20
112.6098941919064
 30
0.0
 10
215.7497147349798
 20
112.8348702953407
 30
0.0
 10
215.5783531873449
 20
113.2984739772549
 30
0.0
 10
215.504803388062
 20
113.5389828515893
 30
0.0
 10
215.3294577391013
 20
114.2635250454461
 30
0.0
 10
215.2706262833675
 20
114.7528183436828
 30
0.0
 10
215.2706262833675
 20
115.2484774997976
 30
0.0
  0
SPLINE
  5
B6
330
1F
100
AcDbEntity
  8
0
  6
Continuous
 62
     7
370
    15
100
AcDbSpline
210
0.0
220
0.0
230
1.0
 70
     8
 71
     3
 72
    52
 73
    48
 74
     0
 42
0.000000001
 43
0.00000001
 40
0.0
 40
0.0
 40
0.0
 40
0.0
 40
0.0312499999999997
 40
0.0312499999999997
 40
0.0624999999999994
 40
0.0624999999999994
 40
0.0937499999999991
 40
0.0937499999999991
 40
0.1249999999999988
 40
0.1249999999999988
 40
0.1874999999999974
 40
0.1874999999999974
 40
0.2499999999999961
 40
0.2499999999999961
 40
0.3124999999999947
 40
0.3124999999999947
 40
0.3749999999999933
 40
0.3749999999999933
 40
0.4374999999999919
 40
0.4374999999999919
 40
0.4687499999999921
 40
0.4687499999999921
 40
0.4999999999999923
 40
0.4999999999999923
 40
0.5624999999999944
 40
0.5624999999999944
 40
0.5937499999999946
 40
0.5937499999999946
 40
0.6249999999999947
 40
0.6249999999999947
 40
0.6874999999999933
 40
0.6874999999999933
 40
0.7187499999999936
 40
0.7187499999999936
 40
0.7499999999999937
 40
0.7499999999999937
 40
0.812499999999994
 40
0.812499999999994
 40
0.8437499999999948
 40
0.8437499999999948
 40
0.8749999999999954
 40
0.8749999999999954
 40
0.9374999999999977
 40
0.9374999999999977
 40
0.9687499999999989
 40
0.9687499999999989
 40
1.0
 40
1.0
 40
1.0
 40
1.0
 10
215.2706262833675
 20
115.2484774997976
 30
0.0
 10
215.2706262833675
 20
115.4963755858306
 30
0.0
 10
215.2857509811696
 20
115.7477225748126
 30
0.0
 10
215.3457410190016
 20
116.2428317999608
 30
0.0
 10
215.3903078554336
 20
116.4865756595403
 30
0.0
 10
215.5073655242145
 20
116.966776658312
 30
0.0
 10
215.5798599486505
 20
117.2032328385688
 30
0.0
 10
215.7525093134296
 20
117.6689527245363
 30
0.0
 10
215.8531641638889
 20
117.8988437166026
 30
0.0
 10
216.1886241005959
 20
118.5620059427412
 30
0.0
 10
216.4581707934975
 20
118.9744740616677
 30
0.0
 10
217.0831263482033
 20
119.7447128150892
 30
0.0
 10
217.4346647993814
 20
120.0968357924668
 30
0.0
 10
218.2000234539569
 20
120.729160867646
 30
0.0
 10
218.6080384794596
 20
121.0049254440513
 30
0.0
 10
219.4639857796006
 20
121.4797944292375
 30
0.0
 10
219.9133596728809
 20
121.6797968575973
 30
0.0
 10
220.8536278315024
 20
122.0040888491402
 30
0.0
 10
221.3316652415494
 20
122.1239997782404
 30
0.0
 10
222.0600171143835
 20
122.244111860946
 30
0.0
 10
222.3046961193673
 20
122.2741195105584
 30
0.0
 10
222.7978911033369
 20
122.3138803702483
 30
0.0
 10
223.0475474079322
 20
122.3236116932542
 30
0.0
 10
223.7934461842974
 20
122.3214838398326
 30
0.0
 10
224.2843480647597
 20
122.2790247764768
 30
0.0
 10
225.0114223449861
 20
122.1552783156568
 30
0.0
 10
225.252224949405
 20
122.1039570802397
 30
0.0
 10
225.7306516359724
 20
121.9806419932482
 30
0.0
 10
225.9694474429974
 20
121.9082014499638
 30
0.0
 10
226.6701530088915
 20
121.6621775558147
 30
0.0
 10
227.1168540900503
 20
121.460643866674
 30
0.0
 10
227.7563693733513
 20
121.1014345611739
 30
0.0
 10
227.9644185183309
 20
120.9721498275512
 30
0.0
 10
228.3698441809277
 20
120.6935153879076
 30
0.0
 10
228.5682339039388
 20
120.5432408386202
 30
0.0
 10
229.1352498421698
 20
120.0694308616184
 30
0.0
 10
229.4781358463255
 20
119.7223764768465
 30
0.0
 10
229.9377150216835
 20
119.1523908336615
 30
0.0
 10
230.0817161371983
 20
118.9541019365451
 30
0.0
 10
230.350017726103
 20
118.5396196496097
 30
0.0
 10
230.4744625143503
 20
118.3226885436565
 30
0.0
 10
230.8063125669869
 20
117.6618727205118
 30
0.0
 10
230.9766491802883
 20
117.2026484831621
 30
0.0
 10
231.1514545798181
 20
116.483945129676
 30
0.0
 10
231.1963419412601
 20
116.2377155783904
 30
0.0
 10
231.2559358083496
 20
115.7423645500733
 30
0.0
 10
231.2706262833675
 20
115.4951814341889
 30
0.0
 10
231.2706262833675
 20
115.2484774997976
 30
0.0
  0
SPLINE
  5
B7
330
1F
100
AcDbEntity
  8
0
  6
Continuous
 62
     7
370
    15
100
AcDbSpline
210
0.0
220
0.0
230
1.0
 70
     8
 71
     3
 72
    12
 73
     8
 74
     0
 42
0.000000001
 43
0.00000001
 40
0.0
 40
0.0
 40
0.0
 40
0.0
 40
0.5000000000000013
 40
0.5000000000000013
 40
0.7500000000000007
 40
0.7500000000000007
 40
1.0
 40
1.0
 40
1.0
 40
1.0
 10
131.7306262833676
 20
87.5963980119906
 30
0.0
 10
131.7306262833676
 20
87.80922057092347
 30
0.0
 10
131.6487009255478
 20
88.02347707756145
 30
0.0
 10
131.4297791220794
 20
88.25716670601133
 30
0.0
 10
131.3397318305884
 20
88.3216515308553
 30
0.0
 10
131.1443183625686
 20
88.40785114201088
 30
0.0
 10
131.0370353955848
 20
88.43061964351092
 30
0.0
 10
130.9306262833676
 20
88.43061964351092
 30
0.0
  0
SPLINE
  5
B8
330
1F
100
AcDbEntity
  8
0
  6
Continuous
 62
     7
370
    15
100
AcDbSpline
210
0.0
220
0.0
230
1.0
 70
    24
 71
     3
 72
    18
 73
    14
 74
     0
 42
0.000000001
 43
0.00000001
 40
0.0
 40
0.0
 40
0.0
 40
0.0
 40
0.0312499999999996
 40
0.0312499999999996
 40
0.0624999999999992
 40
0.0624999999999992
 40
0.1249999999999985
 40
0.1249999999999985
 40
0.2499999999999982
 40
0.2499999999999982
 40
0.4999999999999988
 40
0.4999999999999988
 40
1.0
 40
1.0
 40
1.0
 40
1.0
 10
138.7706262833676
 20
140.0484774997977
 30
0.0
 10
138.733772177609
 20
140.0484774997977
 30
0.0
 10
138.698369689649
 20
140.0484774997977
 30
0.0
 10
138.640352296021
 20
140.0484774997977
 30
0.0
 10
138.6162782922326
 20
140.0484774997977
 30
0.0
 10
138.5512591670838
 20
140.0484774997977
 30
0.0
 10
138.5168346576717
 20
140.0484774997977
 30
0.0
 10
138.4242563606853
 20
140.0484774997977
 30
0.0
 10
138.3760466803045
 20
140.0484774997977
 30
0.0
 10
138.2436718565378
 20
140.0484774997977
 30
0.0
 10
138.1747742272073
 20
140.0484774997977
 30
0.0
 10
137.9914645503703
 20
140.0484774997977
 30
0.0
 10
137.902705710749
 20
140.0484774997977
 30
0.0
 10
137.843586673822
 20
140.0484774997977
 30
0.0
  0
SPLINE
  5
B9
330
1F
100
AcDbEntity
  8
0
  6
Continuous
 62
     7
370
    15
100
AcDbSpline
210
0.0
220
0.0
230
1.0
 70
     8
 71
     3
 72
    10
 73
     6
 74
     0
 42
0.000000001
 43
0.00000001
 40
0.0
 40
0.0
 40
0.0
 40
0.0
 40
0.5
 40
0.5
 40
1.0
 40
1.0
 40
1.0
 40
1.0
 10
138.7706262833676
 20
91.55887007375532
 30
0.0
 10
138.5931855314543
 20
91.56636030982052
 30
0.0
 10
138.4165663679417
 20
91.52057188526807
 30
0.0
 10
138.1131151436273
 20
91.3391016054942
 30
0.0
 10
137.9870921609067
 20
91.20361185266061
 30
0.0
 10
137.9026281039983
 20
91.04847749979784
 30
0.0
  0
SPLINE
  5
BA
330
1F
100
AcDbEntity
  8
0
  6
Continuous
 62
     7
370
    15
100
AcDbSpline
210
0.0
220
0.0
230
1.0
 70
     8
 71
     3
 72
     8
 73
     4
 74
     0
 42
0.000000001
 43
0.00000001
 40
0.0
 40
0.0
 40
0.0
 40
0.0
 40
1.0
 40
1.0
 40
1.0
 40
1.0
 10
137.7706262833676
 20
133.6679644633371
 30
0.0
 10
137.7706262833676
 20
133.6448256237503
 30
0.0
 10
137.7710291147862
 20
133.6216633341379
 30
0.0
 10
137.7718364041765
 20
133.5984774997977
 30
0.0
  0
SPLINE
  5
BB
330
1F
100
AcDbEntity
  8
0
  6
Continuous
 62
     7
370
    15
100
AcDbSpline
210
0.0
220
0.0
230
1.0
 70
     8
 71
     3
 72
    14
 73
    10
 74
     0
 42
0.000000001
 43
0.00000001
 40
0.0
 40
0.0
 40
0.0
 40
0.0
 40
0.0632946074895864
 40
0.2483034408601601
 40
0.4246496233424851
 40
0.6058174355269424
 40
0.7878172561839285
 40
0.9747088455670364
 40
1.0
 40
1.0
 40
1.0
 40
1.0
 10
145.7966303563913
 20
90.25619034083158
 30
0.0
 10
145.8030746119528
 20
90.25411921470956
 30
0.0
 10
145.8283552937227
 20
90.24599422961286
 30
0.0
 10
145.6509228604809
 20
90.3031241746478
 30
0.0
 10
145.2716213685229
 20
90.42113156734042
 30
0.0
 10
144.6899158989798
 20
90.59219320776296
 30
0.0
 10
143.9204782391232
 20
90.79858435965447
 30
0.0
 10
143.2529156613477
 20
90.95634798445295
 30
0.0
 10
142.8613547802395
 20
91.03866575208967
 30
0.0
 10
142.8146826214394
 20
91.04847763092786
 30
0.0
  0
SPLINE
  5
BC
330
1F
100
AcDbEntity
  8
0
  6
Continuous
 62
     7
370
    15
100
AcDbSpline
210
0.0
220
0.0
230
1.0
 70
     8
 71
     3
 72
    12
 73
     8
 74
     0
 42
0.000000001
 43
0.00000001
 40
0.0
 40
0.0
 40
0.0
 40
0.0
 40
0.4999999999999991
 40
0.4999999999999991
 40
0.7499999999999996
 40
0.7499999999999996
 40
1.0
 40
1.0
 40
1.0
 40
1.0
 10
142.8146821910672
 20
91.04847749979766
 30
0.0
 10
142.2377995385062
 20
91.16871834077698
 30
0.0
 10
141.6089186422924
 20
91.28033602428124
 30
0.0
 10
140.5845977470696
 20
91.41569776708548
 30
0.0
 10
140.229369844305
 20
91.4553140452127
 30
0.0
 10
139.5101984849843
 20
91.51884794679401
 30
0.0
 10
139.1439000938099
 20
91.54311321448242
 30
0.0
 10
138.7706262833676
 20
91.55887007375532
 30
0.0
  0
LINE
  5
BD
330
1F
100
AcDbEntity
  8
0
  6
Continuous
 62
     7
370
    15
100
AcDbLine
 10
145.1761981583
 20
140.0484782121
 30
0.0
 11
138.7706266827
 21
140.0484782121
 31
0.0
  0
SPLINE
  5
BE
330
1F
100
AcDbEntity
  8
0
  6
Continuous
 62
     7
370
    15
100
AcDbSpline
210
0.0
220
0.0
230
1.0
 70
     8
 71
     3
 72
    10
 73
     6
 74
     0
 42
0.000000001
 43
0.00000001
 40
0.0
 40
0.0
 40
0.0
 40
0.0
 40
0.2002212969593108
 40
0.6082979763038335
 40
1.0
 40
1.0
 40
1.0
 40
1.0
 10
145.7948645687899
 20
140.2401946893481
 30
0.0
 10
145.7994399240452
 20
140.241680068035
 30
0.0
 10
145.813340440049
 20
140.2461928389689
 30
0.0
 10
145.6197747588018
 20
140.1833662710414
 30
0.0
 10
145.3220249838766
 20
140.0928229710648
 30
0.0
 10
145.1761981583437
 20
140.0484782120732
 30
0.0
  0
LINE
  5
BF
330
1F
100
AcDbEntity
  8
0
  6
Continuous
 62
     7
370
    15
100
AcDbLine
 10
118.7206262834
 20
93.0234775356
 30
0.0
 11
118.7206262834
 21
137.473477464
 31
0.0
  0
SPLINE
  5
C0
330
1F
100
AcDbEntity
  8
0
  6
Continuous
 62
     7
370
    15
100
AcDbSpline
210
0.0
220
0.0
230
1.0
 70
     8
 71
     3
 72
    12
 73
     8
 74
     0
 42
0.000000001
 43
0.00000001
 40
0.0
 40
0.0
 40
0.0
 40
0.0
 40
0.5000000000000003
 40
0.5000000000000003
 40
0.7500000000000001
 40
0.7500000000000001
 40
1.0
 40
1.0
 40
1.0
 40
1.0
 10
121.9206262833676
 20
140.4198898558813
 30
0.0
 10
121.9206262833676
 20
140.596506252403
 30
0.0
 10
121.9699669181894
 20
140.7715634237767
 30
0.0
 10
122.1261824764775
 20
140.9855136362694
 30
0.0
 10
122.1914850563782
 20
141.0468462791164
 30
0.0
 10
122.3452540743386
 20
141.1342343770876
 30
0.0
 10
122.432267180949
 20
141.1587071398452
 30
0.0
 10
122.5206262833676
 20
141.1587071398452
 30
0.0
  0
LINE
  5
C1
330
1F
100
AcDbEntity
  8
0
  6
Continuous
 62
     7
370
    15
100
AcDbLine
 10
122.5206263474
 20
141.1587078533
 30
0.0
 11
126.2987896911
 21
141.1587078533
 31
0.0
  0
SPLINE
  5
C2
330
1F
100
AcDbEntity
  8
0
  6
Continuous
 62
     7
370
    15
100
AcDbSpline
210
0.0
220
0.0
230
1.0
 70
     8
 71
     3
 72
     8
 73
     4
 74
     0
 42
0.000000001
 43
0.00000001
 40
0.0
 40
0.0
 40
0.0
 40
0.0
 40
1.0
 40
1.0
 40
1.0
 40
1.0
 10
126.2987896413109
 20
141.1587071398452
 30
0.0
 10
126.8477344195077
 20
139.9936110275315
 30
0.0
 10
127.3863447940245
 20
138.824452710707
 30
0.0
 10
127.9106262833676
 20
137.6506165556561
 30
0.0
  0
LINE
  5
C3
330
1F
100
AcDbEntity
  8
0
  6
Continuous
 62
     7
370
    15
100
AcDbLine
 10
127.9106259457
 20
137.6506168804
 30
0.0
 11
127.9106259457
 21
137.4457184634
 31
0.0
  0
SPLINE
  5
C4
330
1F
100
AcDbEntity
  8
0
  6
Continuous
 62
     7
370
    15
100
AcDbSpline
210
0.0
220
0.0
230
1.0
 70
     8
 71
     3
 72
    14
 73
    10
 74
     0
 42
0.000000001
 43
0.00000001
 40
0.0
 40
0.0
 40
0.0
 40
0.0
 40
0.25
 40
0.25
 40
0.5
 40
0.5
 40
0.75
 40
0.75
 40
1.0
 40
1.0
 40
1.0
 40
1.0
 10
127.9106262833675
 20
137.445718319323
 30
0.0
 10
127.9106262833676
 20
137.3237829841414
 30
0.0
 10
127.9266706509075
 20
137.20422874364
 30
0.0
 10
127.9923999930869
 20
136.9701127604967
 30
0.0
 10
128.0416073633352
 20
136.858180220362
 30
0.0
 10
128.176620344234
 20
136.6557804111251
 30
0.0
 10
128.2625404128403
 20
136.5659152175622
 30
0.0
 10
128.4690552148458
 20
136.435580707952
 30
0.0
 10
128.5891939272168
 20
136.3974136432542
 30
0.0
 10
128.7106262833676
 20
136.3974136432542
 30
0.0
  0
LINE
  5
C5
330
1F
100
AcDbEntity
  8
0
  6
Continuous
 62
     7
370
    15
100
AcDbLine
 10
128.7106264494
 20
136.3974143228
 30
0.0
 11
130.9306265897
 21
136.3974143228
 31
0.0
  0
SPLINE
  5
C6
330
1F
100
AcDbEntity
  8
0
  6
Continuous
 62
     7
370
    15
100
AcDbSpline
210
0.0
220
0.0
230
1.0
 70
     8
 71
     3
 72
    12
 73
     8
 74
     0
 42
0.000000001
 43
0.00000001
 40
0.0
 40
0.0
 40
0.0
 40
0.0
 40
0.2500000000000015
 40
0.2500000000000015
 40
0.500000000000003
 40
0.500000000000003
 40
1.0
 40
1.0
 40
1.0
 40
1.0
 10
130.9306262833676
 20
136.3974136432541
 30
0.0
 10
131.0527082808559
 20
136.3974136432541
 30
0.0
 10
131.1732988233416
 20
136.4361399994279
 30
0.0
 10
131.3787941070414
 20
136.5661035871741
 30
0.0
 10
131.4643105899939
 20
136.6553098237209
 30
0.0
 10
131.6677049415381
 20
136.9601863612665
 30
0.0
 10
131.7306262833676
 20
137.2029569753686
 30
0.0
 10
131.7306262833676
 20
137.445718319323
 30
0.0
  0
LINE
  5
C7
330
1F
100
AcDbEntity
  8
0
  6
Continuous
 62
     7
370
    15
100
AcDbLine
 10
131.7306261621
 20
137.4457184634
 30
0.0
 11
131.7306261621
 21
137.6506168804
 31
0.0
  0
SPLINE
  5
C8
330
1F
100
AcDbEntity
  8
0
  6
Continuous
 62
     7
370
    15
100
AcDbSpline
210
0.0
220
0.0
230
1.0
 70
     8
 71
     3
 72
     8
 73
     4
 74
     0
 42
0.000000001
 43
0.00000001
 40
0.0
 40
0.0
 40
0.0
 40
0.0
 40
1.0
 40
1.0
 40
1.0
 40
1.0
 10
131.7306262833676
 20
137.6506165556562
 30
0.0
 10
132.2554174028635
 20
138.8255937433609
 30
0.0
 10
132.7939336540463
 20
139.994492911099
 30
0.0
 10
133.3424629254243
 20
141.1587071398452
 30
0.0
  0
LINE
  5
C9
330
1F
100
AcDbEntity
  8
0
  6
Continuous
 62
     7
370
    15
100
AcDbLine
 10
133.342463348
 20
141.1587078533
 30
0.0
 11
137.1706256754
 21
141.1587078533
 31
0.0
  0
SPLINE
  5
CA
330
1F
100
AcDbEntity
  8
0
  6
Continuous
 62
     7
370
    15
100
AcDbSpline
210
0.0
220
0.0
230
1.0
 70
     8
 71
     3
 72
    14
 73
    10
 74
     0
 42
0.000000001
 43
0.00000001
 40
0.0
 40
0.0
 40
0.0
 40
0.0
 40
0.25
 40
0.25
 40
0.5
 40
0.5
 40
0.75
 40
0.75
 40
1.0
 40
1.0
 40
1.0
 40
1.0
 10
137.1706262833676
 20
141.1587071398452
 30
0.0
 10
137.2590488214901
 20
141.1587071398452
 30
0.0
 10
137.3471028111831
 20
141.1336347893858
 30
0.0
 10
137.4989325750544
 20
141.0472927244145
 30
0.0
 10
137.5647755196183
 20
140.9857494699016
 30
0.0
 10
137.6685745801637
 20
140.8439217236507
 30
0.0
 10
137.7070466896384
 20
140.7638731336806
 30
0.0
 10
137.758269352913
 20
140.594860637007
 30
0.0
 10
137.7706262833676
 20
140.5080813301373
 30
0.0
 10
137.7706262833676
 20
140.4198898558813
 30
0.0
  0
LINE
  5
CB
330
1F
100
AcDbEntity
  8
0
  6
Continuous
 62
     7
370
    15
100
AcDbLine
 10
137.7706265188
 20
140.4198896548
 30
0.0
 11
137.7706265188
 21
133.6679649016
 31
0.0
  0
LINE
  5
CC
330
1F
100
AcDbEntity
  8
0
  6
Continuous
 62
     7
370
    15
100
AcDbLine
 10
121.9206262025
 20
140.4198896548
 30
0.0
 11
121.9206262025
 21
133.5984770617
 31
0.0
  0
SPLINE
  5
CD
330
1F
100
AcDbEntity
  8
0
  6
Continuous
 62
     7
370
    15
100
AcDbSpline
210
0.0
220
0.0
230
1.0
 70
     8
 71
     3
 72
     8
 73
     4
 74
     0
 42
0.000000001
 43
0.00000001
 40
0.0
 40
0.0
 40
0.0
 40
0.0
 40
0.0012409313617635
 40
0.0012409313617635
 40
0.0012409313617635
 40
0.0012409313617635
 10
126.8566715970715
 20
144.9610156560621
 30
0.0
 10
126.6714477575156
 20
145.2225431995393
 30
0.0
 10
126.485462569543
 20
145.4838017013146
 30
0.0
 10
126.2987896413109
 20
145.7448135790132
 30
0.0
  0
SPLINE
  5
CE
330
1F
100
AcDbEntity
  8
0
  6
Continuous
 62
     7
370
    15
100
AcDbSpline
210
0.0
220
0.0
230
1.0
 70
     8
 71
     3
 72
     8
 73
     4
 74
     0
 42
0.000000001
 43
0.00000001
 40
0.0
 40
0.0
 40
0.0
 40
0.0
 40
1.0
 40
1.0
 40
1.0
 40
1.0
 10
127.9106262833676
 20
143.0653039592991
 30
0.0
 10
127.55997404304
 20
143.6975723683495
 30
0.0
 10
127.2086156199798
 20
144.3294542680483
 30
0.0
 10
126.8566715970715
 20
144.9610156560621
 30
0.0
  0
LINE
  5
CF
330
1F
100
AcDbEntity
  8
0
  6
Continuous
 62
     7
370
    15
100
AcDbLine
 10
127.9106259457
 20
137.6506168804
 30
0.0
 11
127.9106259457
 21
143.0653039774
 31
0.0
  0
LINE
  5
D0
330
1F
100
AcDbEntity
  8
0
  6
Continuous
 62
     7
370
    15
100
AcDbLine
 10
126.2987896911
 20
141.1587078533
 30
0.0
 11
126.2987896911
 21
145.7448140195
 31
0.0
  0
SPLINE
  5
D1
330
1F
100
AcDbEntity
  8
0
  6
Continuous
 62
     7
370
    15
100
AcDbSpline
210
0.0
220
0.0
230
1.0
 70
     8
 71
     3
 72
    12
 73
     8
 74
     0
 42
0.000000001
 43
0.00000001
 40
0.0
 40
0.0
 40
0.0
 40
0.0
 40
0.5
 40
0.5
 40
0.75
 40
0.75
 40
1.0
 40
1.0
 40
1.0
 40
1.0
 10
131.7306262833676
 20
142.9005569876047
 30
0.0
 10
131.7306262833676
 20
142.6874195859532
 30
0.0
 10
131.6479838682196
 20
142.4724400612155
 30
0.0
 10
131.4294004574093
 20
142.2395209923297
 30
0.0
 10
131.3403105044285
 20
142.1756540825093
 30
0.0
 10
131.144905186531
 20
142.0892679281275
 30
0.0
 10
131.0383811395877
 20
142.0663353560844
 30
0.0
 10
130.9306262833676
 20
142.0663353560844
 30
0.0
  0
LINE
  5
D2
330
1F
100
AcDbEntity
  8
0
  6
Continuous
 62
     7
370
    15
100
AcDbLine
 10
130.9306265897
 20
142.0663357189
 30
0.0
 11
128.7106264494
 21
142.0663357189
 31
0.0
  0
LINE
  5
D3
330
1F
100
AcDbEntity
  8
0
  6
Continuous
 62
     7
370
    15
100
AcDbLine
 10
137.1706256754
 20
145.7448140195
 30
0.0
 11
133.342463348
 21
145.7448140195
 31
0.0
  0
LINE
  5
D4
330
1F
100
AcDbEntity
  8
0
  6
Continuous
 62
     7
370
    15
100
AcDbLine
 10
133.342463348
 20
141.1587078533
 30
0.0
 11
133.342463348
 21
145.7448140195
 31
0.0
  0
SPLINE
  5
D5
330
1F
100
AcDbEntity
  8
0
  6
Continuous
 62
     7
370
    15
100
AcDbSpline
210
0.0
220
0.0
230
1.0
 70
     8
 71
     3
 72
     8
 73
     4
 74
     0
 42
0.000000001
 43
0.00000001
 40
0.0
 40
0.0
 40
0.0
 40
0.0
 40
1.0
 40
1.0
 40
1.0
 40
1.0
 10
132.7845809696636
 20
144.9610156560621
 30
0.0
 10
132.4326369467553
 20
144.3294542680483
 30
0.0
 10
132.0812785236951
 20
143.6975723683495
 30
0.0
 10
131.7306262833676
 20
143.0653039592991
 30
0.0
  0
SPLINE
  5
D6
330
1F
100
AcDbEntity
  8
0
  6
Continuous
 62
     7
370
    15
100
AcDbSpline
210
0.0
220
0.0
230
1.0
 70
     8
 71
     3
 72
     8
 73
     4
 74
     0
 42
0.000000001
 43
0.00000001
 40
0.0
 40
0.0
 40
0.0
 40
0.0
 40
0.0012409313617635
 40
0.0012409313617635
 40
0.0012409313617635
 40
0.0012409313617635
 10
133.3424629254243
 20
145.7448135790132
 30
0.0
 10
133.1557899971921
 20
145.4838017013146
 30
0.0
 10
132.9698048092195
 20
145.2225431995393
 30
0.0
 10
132.7845809696636
 20
144.9610156560621
 30
0.0
  0
LINE
  5
D7
330
1F
100
AcDbEntity
  8
0
  6
Continuous
 62
     7
370
    15
100
AcDbLine
 10
131.7306261621
 20
137.6506168804
 30
0.0
 11
131.7306261621
 21
143.0653039774
 31
0.0
  0
SPLINE
  5
D8
330
1F
100
AcDbEntity
  8
0
  6
Continuous
 62
     7
370
    15
100
AcDbSpline
210
0.0
220
0.0
230
1.0
 70
     8
 71
     3
 72
    12
 73
     8
 74
     0
 42
0.000000001
 43
0.00000001
 40
0.0
 40
0.0
 40
0.0
 40
0.0
 40
0.4999999999999986
 40
0.4999999999999986
 40
0.7499999999999992
 40
0.7499999999999992
 40
1.0
 40
1.0
 40
1.0
 40
1.0
 10
137.7706262833676
 20
145.2590286332389
 30
0.0
 10
137.7706262833676
 20
145.379355666292
 30
0.0
 10
137.7168314717746
 20
145.4974532397738
 30
0.0
 10
137.5559079018083
 20
145.6370959822127
 30
0.0
 10
137.4911564407058
 20
145.6753719356072
 30
0.0
 10
137.3389362573881
 20
145.7302117652416
 30
0.0
 10
137.2561287418631
 20
145.7448135790132
 30
0.0
 10
137.1706262833676
 20
145.7448135790132
 30
0.0
  0
LINE
  5
D9
330
1F
100
AcDbEntity
  8
0
  6
Continuous
 62
     7
370
    15
100
AcDbLine
 10
137.7706265188
 20
140.4198896548
 30
0.0
 11
137.7706265188
 21
145.259028714
 31
0.0
  0
SPLINE
  5
DA
330
1F
100
AcDbEntity
  8
0
  6
Continuous
 62
     7
370
    15
100
AcDbSpline
210
0.0
220
0.0
230
1.0
 70
     8
 71
     3
 72
    10
 73
     6
 74
     0
 42
0.000000001
 43
0.00000001
 40
0.0
 40
0.0
 40
0.0
 40
0.0
 40
0.5
 40
0.5
 40
1.0
 40
1.0
 40
1.0
 40
1.0
 10
122.2078678846751
 20
145.6737740547546
 30
0.0
 10
122.1320282906716
 20
145.603724868426
 30
0.0
 10
122.0647047729456
 20
145.5185060948523
 30
0.0
 10
121.9580611346405
 20
145.3082799681905
 30
0.0
 10
121.9206262833676
 20
145.1847707773232
 30
0.0
 10
121.9206262833676
 20
145.0548526568005
 30
0.0
  0
SPLINE
  5
DB
330
1F
100
AcDbEntity
  8
0
  6
Continuous
 62
     7
370
    15
100
AcDbSpline
210
0.0
220
0.0
230
1.0
 70
     8
 71
     3
 72
     8
 73
     4
 74
     0
 42
0.000000001
 43
0.00000001
 40
0.0
 40
0.0
 40
0.0
 40
0.0
 40
1.0
 40
1.0
 40
1.0
 40
1.0
 10
122.5206262833676
 20
145.7448135790132
 30
0.0
 10
122.4084480291879
 20
145.7448135790132
 30
0.0
 10
122.2997785164595
 20
145.7191325137522
 30
0.0
 10
122.2078678846751
 20
145.6737740547546
 30
0.0
  0
LINE
  5
DC
330
1F
100
AcDbEntity
  8
0
  6
Continuous
 62
     7
370
    15
100
AcDbLine
 10
121.9206262025
 20
140.4198896548
 30
0.0
 11
121.9206262025
 21
145.0548530033
 31
0.0
  0
LINE
  5
DD
330
1F
100
AcDbEntity
  8
0
  6
Continuous
 62
     7
370
    15
100
AcDbLine
 10
126.2987896911
 20
145.7448140195
 30
0.0
 11
122.5206263474
 21
145.7448140195
 31
0.0
  0
SPLINE
  5
DE
330
1F
100
AcDbEntity
  8
0
  6
Continuous
 62
     7
370
    15
100
AcDbSpline
210
0.0
220
0.0
230
1.0
 70
     8
 71
     3
 72
    14
 73
    10
 74
     0
 42
0.000000001
 43
0.00000001
 40
0.0
 40
0.0
 40
0.0
 40
0.0
 40
0.25
 40
0.25
 40
0.5
 40
0.5
 40
0.75
 40
0.75
 40
1.0
 40
1.0
 40
1.0
 40
1.0
 10
128.7106262833676
 20
142.0663353560844
 30
0.0
 10
128.6032572388532
 20
142.0663353560844
 30
0.0
 10
128.4964517470903
 20
142.0892603514894
 30
0.0
 10
128.3013103785735
 20
142.1754527853635
 30
0.0
 10
128.2121006609836
 20
142.2392967820275
 30
0.0
 10
128.0661738681673
 20
142.3947128899689
 30
0.0
 10
128.0081841243691
 20
142.4873674681766
 30
0.0
 10
127.9305902828466
 20
142.6866008082262
 30
0.0
 10
127.9106262833676
 20
142.7932059032814
 30
0.0
 10
127.9106262833675
 20
142.9005569876047
 30
0.0
  0
LINE
  5
DF
330
1F
100
AcDbEntity
  8
0
  6
Continuous
 62
     7
370
    15
100
AcDbLine
 10
50.4706258065
 20
103.8413471019
 30
0.0
 11
50.4706258065
 21
126.6556078977
 31
0.0
  0
SPLINE
  5
E0
330
1F
100
AcDbEntity
  8
0
  6
Continuous
 62
     7
370
    15
100
AcDbSpline
210
0.0
220
0.0
230
1.0
 70
     8
 71
     3
 72
    11
 73
     7
 74
     0
 42
0.000000001
 43
0.00000001
 40
0.0
 40
0.0
 40
0.0
 40
0.0
 40
0.1336649027153606
 40
0.4825471961791409
 40
0.8156359965140387
 40
0.9999999999999999
 40
0.9999999999999999
 40
0.9999999999999999
 40
0.9999999999999999
 10
226.7134020216068
 20
115.6322812953551
 30
0.0
 10
226.6552119269241
 20
115.4993367088703
 30
0.0
 10
226.4451383289629
 20
115.0193899453428
 30
0.0
 10
226.0527049377147
 20
114.1227868246577
 30
0.0
 10
225.6312188943112
 20
113.1598519354668
 30
0.0
 10
225.4049982206058
 20
112.6429995764586
 30
0.0
 10
225.3243977315029
 20
112.4588495063183
 30
0.0
  0
SPLINE
  5
E1
330
1F
100
AcDbEntity
  8
0
  6
Continuous
 62
     7
370
    15
100
AcDbSpline
210
0.0
220
0.0
230
1.0
 70
     8
 71
     3
 72
    11
 73
     7
 74
     0
 42
0.000000001
 43
0.00000001
 40
0.0
 40
0.0
 40
0.0
 40
0.0
 40
0.2164560460367846
 40
0.4403109759606093
 40
0.7519000910316874
 40
1.0
 40
1.0
 40
1.0
 40
1.0
 10
224.659627128323
 20
118.4219093470421
 30
0.0
 10
224.8003148112214
 20
118.2308175272497
 30
0.0
 10
225.0864991525546
 20
117.8421020018049
 30
0.0
 10
225.617566257376
 20
117.1207407583507
 30
0.0
 10
226.1872399409893
 20
116.3469577457879
 30
0.0
 10
226.551799455677
 20
115.851783141752
 30
0.0
 10
226.7134020216068
 20
115.6322812953551
 30
0.0
  0
SPLINE
  5
E2
330
1F
100
AcDbEntity
  8
0
  6
Continuous
 62
     7
370
    15
100
AcDbSpline
210
0.0
220
0.0
230
1.0
 70
     8
 71
     3
 72
    11
 73
     7
 74
     0
 42
0.000000001
 43
0.00000001
 40
0.0
 40
0.0
 40
0.0
 40
0.0
 40
0.2164548104762712
 40
0.4403111211132106
 40
0.7519014475384089
 40
0.9999999999999999
 40
0.9999999999999999
 40
0.9999999999999999
 40
0.9999999999999999
 10
221.2168553955158
 20
118.038105493277
 30
0.0
 10
221.4526878746665
 20
118.0643965051506
 30
0.0
 10
221.9324169371036
 20
118.1178775291473
 30
0.0
 10
222.8226678964361
 20
118.2171232115802
 30
0.0
 10
223.7776213975449
 20
118.3235819698329
 30
0.0
 10
224.3887336524198
 20
118.3917097190135
 30
0.0
 10
224.659627128323
 20
118.4219093470421
 30
0.0
  0
SPLINE
  5
E3
330
1F
100
AcDbEntity
  8
0
  6
Continuous
 62
     7
370
    15
100
AcDbSpline
210
0.0
220
0.0
230
1.0
 70
     8
 71
     3
 72
    11
 73
     7
 74
     0
 42
0.000000001
 43
0.00000001
 40
0.0
 40
0.0
 40
0.0
 40
0.0
 40
0.1843647713898579
 40
0.5174527904331849
 40
0.86633512998388
 40
1.0
 40
1.0
 40
1.0
 40
1.0
 10
219.8278511054119
 20
114.8646737042402
 30
0.0
 10
219.9084547755353
 20
115.0488234777009
 30
0.0
 10
220.1346834292531
 20
115.5656728378935
 30
0.0
 10
220.5561549045694
 20
116.5286134960106
 30
0.0
 10
220.9485919464509
 20
117.4252141593985
 30
0.0
 10
221.1586653660805
 20
117.9051609386485
 30
0.0
 10
221.2168553955158
 20
118.038105493277
 30
0.0
  0
SPLINE
  5
E4
330
1F
100
AcDbEntity
  8
0
  6
Continuous
 62
     7
370
    15
100
AcDbSpline
210
0.0
220
0.0
230
1.0
 70
     8
 71
     3
 72
    11
 73
     7
 74
     0
 42
0.000000001
 43
0.00000001
 40
0.0
 40
0.0
 40
0.0
 40
0.0
 40
0.2164560460367846
 40
0.4403109759606093
 40
0.7519000910316874
 40
1.0
 40
1.0
 40
1.0
 40
1.0
 10
221.8816259986958
 20
112.0750456525531
 30
0.0
 10
221.7409383157974
 20
112.2661374723456
 30
0.0
 10
221.4547539744642
 20
112.6548529977904
 30
0.0
 10
220.9236868696428
 20
113.3762142412446
 30
0.0
 10
220.3540131860295
 20
114.1499972538074
 30
0.0
 10
219.9894536713418
 20
114.6451718578433
 30
0.0
 10
219.8278511054119
 20
114.8646737042402
 30
0.0
  0
SPLINE
  5
E5
330
1F
100
AcDbEntity
  8
0
  6
Continuous
 62
     7
370
    15
100
AcDbSpline
210
0.0
220
0.0
230
1.0
 70
     8
 71
     3
 72
    11
 73
     7
 74
     0
 42
0.000000001
 43
0.00000001
 40
0.0
 40
0.0
 40
0.0
 40
0.0
 40
0.2164548104762712
 40
0.4403111211132106
 40
0.7519014475384089
 40
0.9999999999999999
 40
0.9999999999999999
 40
0.9999999999999999
 40
0.9999999999999999
 10
225.3243977315029
 20
112.4588495063183
 30
0.0
 10
225.0885652523522
 20
112.4325584944446
 30
0.0
 10
224.6088361899151
 20
112.379077470448
 30
0.0
 10
223.7185852305827
 20
112.2798317880151
 30
0.0
 10
222.7636317294739
 20
112.1733730297624
 30
0.0
 10
222.152519474599
 20
112.1052452805818
 30
0.0
 10
221.8816259986958
 20
112.0750456525531
 30
0.0
  0
CIRCLE
  5
E6
330
1F
100
AcDbEntity
  8
0
  6
Continuous
 62
     7
370
    15
100
AcDbCircle
 10
223.2706262834
 20
115.2484774998
 30
0.0
 40
3.499999999999975
  0
CIRCLE
  5
E7
330
1F
100
AcDbEntity
  8
0
  6
Continuous
 62
     7
370
    15
100
AcDbCircle
 10
223.2706262834
 20
115.2484774998
 30
0.0
 40
5.500000000000004
  0
CIRCLE
  5
E8
330
1F
100
AcDbEntity
  8
0
  6
Continuous
 62
     7
370
    15
100
AcDbCircle
 10
223.2706262834
 20
115.2484774998
 30
0.0
 40
5.999999999999962
  0
ARC
  5
E9
330
1F
100
AcDbEntity
  8
0
  6
Continuous
 62
     7
370
    15
100
AcDbCircle
 10
223.2706262834
 20
115.2484774998
 30
0.0
 40
3.000000000000008
100
AcDbArc
 50
36.3611235087
 51
96.3611235087
  0
ARC
  5
EA
330
1F
100
AcDbEntity
  8
0
  6
Continuous
 62
     7
370
    15
100
AcDbCircle
 10
223.2706262834
 20
115.2484774998
 30
0.0
 40
3.000000000000023
100
AcDbArc
 50
156.3611235087
 51
216.3611235087
  0
ARC
  5
EB
330
1F
100
AcDbEntity
  8
0
  6
Continuous
 62
     7
370
    15
100
AcDbCircle
 10
223.2706262834
 20
115.2484774998
 30
0.0
 40
3.000000000000023
100
AcDbArc
 50
96.3611235087
 51
156.3611235087
  0
ARC
  5
EC
330
1F
100
AcDbEntity
  8
0
  6
Continuous
 62
     7
370
    15
100
AcDbCircle
 10
223.2706262834
 20
115.2484774998
 30
0.0
 40
3.000000000000001
100
AcDbArc
 50
336.3611235087
 51
36.3611235087
  0
ARC
  5
ED
330
1F
100
AcDbEntity
  8
0
  6
Continuous
 62
     7
370
    15
100
AcDbCircle
 10
223.2706262834
 20
115.2484774998
 30
0.0
 40
2.999999999999994
100
AcDbArc
 50
276.3611235087
 51
336.3611235087
  0
ARC
  5
EE
330
1F
100
AcDbEntity
  8
0
  6
Continuous
 62
     7
370
    15
100
AcDbCircle
 10
223.2706262834
 20
115.2484774998
 30
0.0
 40
3.000000000000015
100
AcDbArc
 50
216.3611235087
 51
276.3611235087
  0
ARC
  5
EF
330
1F
100
AcDbEntity
  8
0
  6
Continuous
 62
     7
370
    15
100
AcDbCircle
 10
131.6698520273
 20
106.051620262
 30
0.0
 40
1.955989991622834
100
AcDbArc
 50
187.0495673119
 51
275.5980364139
  0
ARC
  5
F0
330
1F
100
AcDbEntity
  8
0
  6
Continuous
 62
     7
370
    15
100
AcDbCircle
 10
131.7625652735
 20
106.0917586775
 30
0.0
 40
1.98921976917905
100
AcDbArc
 50
272.8264814741
 51
332.6959981451
  0
ARC
  5
F1
330
1F
100
AcDbEntity
  8
0
  6
Continuous
 62
     7
370
    15
100
AcDbCircle
 10
131.6491002847
 20
105.9679242529
 30
0.0
 40
1.814992466144692
100
AcDbArc
 50
163.5398389576
 51
276.4711369937
  0
ARC
  5
F2
330
1F
100
AcDbEntity
  8
0
  6
Continuous
 62
     7
370
    15
100
AcDbCircle
 10
131.7651655702
 20
106.042587913
 30
0.0
 40
1.880175864908965
100
AcDbArc
 50
272.6975845279
 51
335.955074611
  0
ARC
  5
F3
330
1F
100
AcDbEntity
  8
0
  6
Continuous
 62
     7
370
    15
100
AcDbCircle
 10
131.6628024795
 20
105.9428113998
 30
0.0
 40
1.412778446448824
100
AcDbArc
 50
88.3221187592
 51
276.6190169285
  0
ARC
  5
F4
330
1F
100
AcDbEntity
  8
0
  6
Continuous
 62
     7
370
    15
100
AcDbCircle
 10
131.7693529034
 20
105.9958460771
 30
0.0
 40
1.457483976400736
100
AcDbArc
 50
272.2136309036
 51
350.5944031843
  0
SPLINE
  5
F5
330
1F
100
AcDbEntity
  8
0
  6
HIDDEN
 62
     7
370
     0
100
AcDbSpline
210
0.0
220
0.0
230
1.0
 70
     8
 71
     3
 72
     9
 73
     5
 74
     0
 42
0.000000001
 43
0.00000001
 40
0.0
 40
0.0
 40
0.0
 40
0.0
 40
0.9333113421934416
 40
1.0
 40
1.0
 40
1.0
 40
1.0
 10
129.744735371252
 20
107.5019384211448
 30
0.0
 10
129.7301595527032
 20
107.4009683330851
 30
0.0
 10
129.7145422362839
 20
107.2927835468354
 30
0.0
 10
129.721572091167
 20
107.2003010498605
 30
0.0
 10
129.7220409027537
 20
107.1941335162666
 30
0.0
  0
LWPOLYLINE
  5
F6
330
1F
100
AcDbEntity
  8
0
  6
HIDDEN
 62
     7
370
     0
100
AcDbPolyline
 90
       19
 70
   128
 43
0.0
 10
129.7447353713
 20
106.9200694969
 10
129.9533544219
 20
106.3311234525
 10
130.3547516576
 20
105.8381567186
 10
130.9051418788
 20
105.4949429295
 10
131.5444864444
 20
105.3389212525
 10
132.203045126
 20
105.3871116078
 10
132.8089803568
 20
105.6342557481
 10
133.2961961738
 20
106.0533956102
 10
133.6115438602
 20
106.5988097748
 10
133.7206259481
 20
107.2110044247
 10
133.6115438602
 20
107.8231981433
 10
133.2961961738
 20
108.3686127736
 10
132.8089803568
 20
108.7877526356
 10
132.203045126
 20
109.0348967759
 10
131.5444864444
 20
109.0830866656
 10
130.9051418788
 20
108.9270649886
 10
130.3547516576
 20
108.5838516651
 10
129.9533544219
 20
108.0908849313
 10
129.7447353713
 20
107.5019384211
  0
LWPOLYLINE
  5
F7
330
1F
100
AcDbEntity
  8
0
  6
HIDDEN
 62
     7
370
     0
100
AcDbPolyline
 90
       20
 70
   128
 43
0.0
 10
122.1708378866
 20
106.3502928651
 10
122.3451265245
 20
105.6816731057
 10
122.6256145741
 20
105.0855093113
 10
122.9819066934
 20
104.6264045349
 10
123.3753928094
 20
104.3541090971
 10
123.7634334824
 20
104.2981310225
 10
124.1039776354
 20
104.4645369461
 10
124.3601220771
 20
104.8352936691
 10
124.5041101351
 20
105.3702248669
 10
124.5203379653
 20
106.0113603658
 10
124.4070472307
 20
106.6892253643
 10
124.1765146255
 20
107.3303617945
 10
123.8537224121
 20
107.8652915953
 10
123.4736492037
 20
108.236048784
 10
123.0774827413
 20
108.4024547076
 10
122.7081532701
 20
108.3464770986
 10
122.4056836794
 20
108.0741816609
 10
122.2028511687
 20
107.6150764188
 10
122.1216354165
 20
107.0189126244
 10
122.1708378866
 20
106.3502928651
  0
LWPOLYLINE
  5
F8
330
1F
100
AcDbEntity
  8
0
  6
HIDDEN
 62
     7
370
     0
100
AcDbPolyline
 90
       18
 70
   128
 43
0.0
 10
122.5523537136
 20
106.3824234939
 10
122.7112792543
 20
105.797957111
 10
122.9712295457
 20
105.292424973
 10
123.2970969863
 20
104.9341042003
 10
123.6448709964
 20
104.7713872454
 10
123.9675831161
 20
104.8262486643
 10
124.2216488458
 20
105.0912807173
 10
124.3727559335
 20
105.5306889525
 10
124.4004963077
 20
106.0851285643
 10
124.301122792
 20
106.6797193548
 10
124.0880571417
 20
107.2341589666
 10
123.790074896
 20
107.6735667361
 10
123.4474199004
 20
107.9385987891
 10
123.1063695736
 20
107.9934606737
 10
122.8129852674
 20
107.8307432531
 10
122.6068894024
 20
107.4724220148
 10
122.515916882
 20
106.9668908081
 10
122.5523537136
 20
106.3824234939
  0
ELLIPSE
  5
F9
330
1F
100
AcDbEntity
  8
0
  6
HIDDEN
 62
     7
370
     0
100
AcDbEllipse
 10
131.7206262834
 20
108.3608874393
 30
0.0
 11
1.383467579512143
 21
-1.091267719176585
 31
0.0
210
0.0
220
0.0
230
1.0
 40
0.8239737799
 41
2.14713194275741
 42
5.288724596347217
  0
ELLIPSE
  5
FA
330
1F
100
AcDbEntity
  8
0
  6
HIDDEN
 62
     7
370
     0
100
AcDbEllipse
 10
131.7206262834
 20
108.3608874393
 30
0.0
 11
1.383467579512143
 21
1.753907414218517
 31
0.0
210
0.0
220
0.0
230
1.0
 40
0.5126701559
 41
0.9944607108323729
 42
4.136053364422179
  0
LINE
  5
FB
330
1F
100
AcDbEntity
  8
0
  6
HIDDEN
 62
     7
370
     0
100
AcDbLine
 10
237.2706288583
 20
134.4150197169
 30
0.0
 11
237.2706288583
 21
137.5689994952
 31
0.0
  0
LINE
  5
FC
330
1F
100
AcDbEntity
  8
0
  6
HIDDEN
 62
     7
370
     0
100
AcDbLine
 10
237.2706288583
 20
99.3890505693
 30
0.0
 11
237.2706288583
 21
131.1079044303
 31
0.0
  0
LINE
  5
FD
330
1F
100
AcDbEntity
  8
0
  6
HIDDEN
 62
     7
370
     0
100
AcDbLine
 10
237.2706288583
 20
92.9279555044
 30
0.0
 11
237.2706288583
 21
96.0819352827
 31
0.0
  0
LWPOLYLINE
  5
FE
330
1F
100
AcDbEntity
  8
0
  6
HIDDEN
 62
     7
370
     0
100
AcDbPolyline
 90
       18
 70
   128
 43
0.0
 10
131.7206265516
 20
105.7040807268
 10
132.316674862
 20
105.8087828046
 10
132.8322243056
 20
106.1087459734
 10
133.1976454816
 20
106.5634595639
 10
133.3635876066
 20
107.1115121654
 10
133.307638403
 20
107.6788864507
 10
133.037354622
 20
108.1889545953
 10
132.589239452
 20
108.5728294625
 10
132.0238130278
 20
108.7786666526
 10
131.417439144
 20
108.7786666526
 10
130.8520136512
 20
108.5728294625
 10
130.4038975499
 20
108.1889545953
 10
130.1336137689
 20
107.6788864507
 10
130.0776645652
 20
107.1115121654
 10
130.2436066902
 20
106.5634595639
 10
130.6090287975
 20
106.1087459734
 10
131.1245773099
 20
105.8087828046
 10
131.7206265516
 20
105.7040807268
  0
SPLINE
  5
FF
330
1F
100
AcDbEntity
  8
0
  6
HIDDEN
 62
     7
370
     0
100
AcDbSpline
210
0.0
220
0.0
230
1.0
 70
    11
 71
     3
 72
    60
 73
    56
 74
     0
 42
0.000000001
 43
0.00000001
 40
0.0
 40
0.0
 40
0.0
 40
0.0
 40
0.0312500000000002
 40
0.0312500000000002
 40
0.0625000000000004
 40
0.0625000000000004
 40
0.1250000000000003
 40
0.1250000000000003
 40
0.1875000000000002
 40
0.1875000000000002
 40
0.2187500000000001
 40
0.2187500000000001
 40
0.2499999999999999
 40
0.2499999999999999
 40
0.2812499999999997
 40
0.2812499999999997
 40
0.3124999999999996
 40
0.3124999999999996
 40
0.3437499999999994
 40
0.3437499999999994
 40
0.3749999999999993
 40
0.3749999999999993
 40
0.4062499999999991
 40
0.4062499999999991
 40
0.4374999999999989
 40
0.4374999999999989
 40
0.4999999999999987
 40
0.4999999999999987
 40
0.5312499999999988
 40
0.5312499999999988
 40
0.5624999999999988
 40
0.5624999999999988
 40
0.5937499999999989
 40
0.5937499999999989
 40
0.6249999999999989
 40
0.6249999999999989
 40
0.656249999999999
 40
0.656249999999999
 40
0.6874999999999991
 40
0.6874999999999991
 40
0.7187499999999991
 40
0.7187499999999991
 40
0.7499999999999992
 40
0.7499999999999992
 40
0.8124999999999994
 40
0.8124999999999994
 40
0.8437499999999997
 40
0.8437499999999997
 40
0.8749999999999998
 40
0.8749999999999998
 40
0.90625
 40
0.90625
 40
0.9375000000000002
 40
0.9375000000000002
 40
1.0
 40
1.0
 40
1.0
 40
1.0
 10
131.7206262833676
 20
112.3584179092375
 30
0.0
 10
131.6104333723972
 20
112.3584179092375
 30
0.0
 10
131.5023241691098
 20
112.3670931783281
 30
0.0
 10
131.2900190146234
 20
112.4011094758715
 30
0.0
 10
131.1847103511645
 20
112.4269135209686
 30
0.0
 10
130.8859123905559
 20
112.5277310730811
 30
0.0
 10
130.7044901861699
 20
112.6275670898869
 30
0.0
 10
130.4032842855129
 20
112.8812030050063
 30
0.0
 10
130.2807298067208
 20
113.0379118073991
 30
0.0
 10
130.1565963561015
 20
113.3019548817257
 30
0.0
 10
130.1242932392656
 20
113.3965776403747
 30
0.0
 10
130.0814435774336
 20
113.591665436623
 30
0.0
 10
130.0706984099212
 20
113.6915562603427
 30
0.0
 10
130.0705548735681
 20
113.8961837951224
 30
0.0
 10
130.0815379946044
 20
114.0014778334698
 30
0.0
 10
130.1242096541317
 20
114.2068812701988
 30
0.0
 10
130.1557725482392
 20
114.3082222575481
 30
0.0
 10
130.2397376437268
 20
114.5078199388661
 30
0.0
 10
130.2907721967275
 20
114.6028314888899
 30
0.0
 10
130.4100055275063
 20
114.7833163998353
 30
0.0
 10
130.4790645848408
 20
114.8695758080045
 30
0.0
 10
130.6303631086952
 20
115.0263157461444
 30
0.0
 10
130.7125958134502
 20
115.0972061063374
 30
0.0
 10
130.8907083305984
 20
115.2233589709935
 30
0.0
 10
130.9868432148027
 20
115.2784045691112
 30
0.0
 10
131.2840898999216
 20
115.4110693426687
 30
0.0
 10
131.5031476407006
 20
115.4593308584375
 30
0.0
 10
131.8286013155884
 20
115.4594397796335
 30
0.0
 10
131.9384379167815
 20
115.4476760546736
 30
0.0
 10
132.1523702137638
 20
115.4012699924453
 30
0.0
 10
132.2556098747073
 20
115.3671309495344
 30
0.0
 10
132.4550389312699
 20
115.2781237995008
 30
0.0
 10
132.5511314385433
 20
115.222971928785
 30
0.0
 10
132.7286754881093
 20
115.0971638789447
 30
0.0
 10
132.8113720552226
 20
115.0259524831081
 30
0.0
 10
132.9638466135877
 20
114.8677189010961
 30
0.0
 10
133.0315235346294
 20
114.782927618434
 30
0.0
 10
133.1505011988982
 20
114.6027701325386
 30
0.0
 10
133.2022454820984
 20
114.5062236741783
 30
0.0
 10
133.2854221887546
 20
114.3082182039179
 30
0.0
 10
133.3169332257036
 20
114.2072849479025
 30
0.0
 10
133.3596688331553
 20
114.0018218590652
 30
0.0
 10
133.3706745375755
 20
113.8964094684685
 30
0.0
 10
133.3705292845719
 20
113.5897863267281
 30
0.0
 10
133.3261763959876
 20
113.3901418540742
 30
0.0
 10
133.201591187706
 20
113.1253333619027
 30
0.0
 10
133.14980737404
 20
113.0412331897892
 30
0.0
 10
133.0298496957097
 20
112.8871476171457
 30
0.0
 10
132.961998633714
 20
112.8171012789692
 30
0.0
 10
132.8104728949589
 20
112.6897684270066
 30
0.0
 10
132.7265036216959
 20
112.6326044322514
 30
0.0
 10
132.5490123533569
 20
112.5349238550342
 30
0.0
 10
132.4547308184027
 20
112.4936758465588
 30
0.0
 10
132.1538457111733
 20
112.3924825996264
 30
0.0
 10
131.9410121053082
 20
112.3584179092375
 30
0.0
 10
131.7206262833676
 20
112.3584179092375
 30
0.0
  0
ELLIPSE
  5
100
330
1F
100
AcDbEntity
  8
0
  6
HIDDEN
 62
     7
370
     0
100
AcDbEllipse
 10
131.7206262834
 20
108.3608874393
 30
0.0
 11
1.383467579512143
 21
-1.091267719176585
 31
0.0
210
0.0
220
0.0
230
1.0
 40
0.8239737799
 41
5.288724596347221
 42
5.331125843618927
  0
SPLINE
  5
101
330
1F
100
AcDbEntity
  8
0
  6
HIDDEN
 62
     7
370
     0
100
AcDbSpline
210
0.0
220
0.0
230
1.0
 70
     8
 71
     3
 72
     8
 73
     4
 74
     0
 42
0.000000001
 43
0.00000001
 40
0.0
 40
0.0
 40
0.0
 40
0.0
 40
1.0
 40
1.0
 40
1.0
 40
1.0
 10
131.7905673795184
 20
106.7993355734303
 30
0.0
 10
131.7735826534189
 20
106.806451283479
 30
0.0
 10
131.7565785088806
 20
106.8143264129994
 30
0.0
 10
131.739579624804
 20
106.8229495324521
 30
0.0
  0
ELLIPSE
  5
102
330
1F
100
AcDbEntity
  8
0
  6
HIDDEN
 62
     7
370
     0
100
AcDbEllipse
 10
131.7206262834
 20
108.3608874393
 30
0.0
 11
1.383467579512143
 21
1.753907414218517
 31
0.0
210
0.0
220
0.0
230
1.0
 40
0.5126701559
 41
4.136053364422186
 42
4.147540490647229
  0
ELLIPSE
  5
103
330
1F
100
AcDbEntity
  8
0
  6
HIDDEN
 62
     7
370
     0
100
AcDbEllipse
 10
131.7206262834
 20
108.3608874393
 30
0.0
 11
1.383467579512143
 21
1.753907414218517
 31
0.0
210
0.0
220
0.0
230
1.0
 40
0.5126701559
 41
0.9829735846073177
 42
0.9944607108323801
  0
SPLINE
  5
104
330
1F
100
AcDbEntity
  8
0
  6
HIDDEN
 62
     7
370
     0
100
AcDbSpline
210
0.0
220
0.0
230
1.0
 70
     8
 71
     3
 72
     8
 73
     4
 74
     0
 42
0.000000001
 43
0.00000001
 40
0.0
 40
0.0
 40
0.0
 40
0.0
 40
1.0
 40
1.0
 40
1.0
 40
1.0
 10
131.739579624804
 20
109.9237305894586
 30
0.0
 10
131.7565785088806
 20
109.9157473159464
 30
0.0
 10
131.7735826534189
 20
109.9070109135001
 30
0.0
 10
131.7905673795184
 20
109.8975340616642
 30
0.0
  0
ELLIPSE
  5
105
330
1F
100
AcDbEntity
  8
0
  6
HIDDEN
 62
     7
370
     0
100
AcDbEllipse
 10
131.7206262834
 20
108.3608874393
 30
0.0
 11
1.383467579512143
 21
-1.091267719176585
 31
0.0
210
0.0
220
0.0
230
1.0
 40
0.8239737799
 41
2.1047306954859
 42
2.147131942757414
  0
LINE
  5
106
330
1F
100
AcDbEntity
  8
0
  6
HIDDEN
 62
     7
370
     0
100
AcDbLine
 10
233.2706282026
 20
106.0480703077
 30
0.0
 11
233.2706282026
 21
124.4488846919
 31
0.0
  0
LINE
  5
107
330
1F
100
AcDbEntity
  8
0
  6
HIDDEN
 62
     7
370
     0
100
AcDbLine
 10
237.2706288583
 20
134.4150197169
 30
0.0
 11
237.2706288583
 21
134.27521516
 31
0.0
  0
LINE
  5
108
330
1F
100
AcDbEntity
  8
0
  6
HIDDEN
 62
     7
370
     0
100
AcDbLine
 10
233.2706282026
 20
134.27521516
 30
0.0
 11
237.2706288583
 21
134.27521516
 31
0.0
  0
LINE
  5
109
330
1F
100
AcDbEntity
  8
0
  6
HIDDEN
 62
     7
370
     0
100
AcDbLine
 10
233.2706282026
 20
134.4484784117
 30
0.0
 11
233.2706282026
 21
129.2484779319
 31
0.0
  0
LINE
  5
10A
330
1F
100
AcDbEntity
  8
0
  6
HIDDEN
 62
     7
370
     0
100
AcDbLine
 10
233.2706282026
 20
124.4488846919
 30
0.0
 11
237.2706288583
 21
124.4488846919
 31
0.0
  0
LINE
  5
10B
330
1F
100
AcDbEntity
  8
0
  6
HIDDEN
 62
     7
370
     0
100
AcDbLine
 10
233.2706282026
 20
129.2484779319
 30
0.0
 11
233.2706282026
 21
124.4488846919
 31
0.0
  0
LINE
  5
10C
330
1F
100
AcDbEntity
  8
0
  6
HIDDEN
 62
     7
370
     0
100
AcDbLine
 10
233.2706282026
 20
96.2217398396
 30
0.0
 11
237.2706288583
 21
96.2217398396
 31
0.0
  0
LINE
  5
10D
330
1F
100
AcDbEntity
  8
0
  6
HIDDEN
 62
     7
370
     0
100
AcDbLine
 10
237.2706288583
 20
96.2217398396
 30
0.0
 11
237.2706288583
 21
96.0819352827
 31
0.0
  0
LINE
  5
10E
330
1F
100
AcDbEntity
  8
0
  6
HIDDEN
 62
     7
370
     0
100
AcDbLine
 10
233.2706282026
 20
101.2484770677
 30
0.0
 11
233.2706282026
 21
96.0484765878
 31
0.0
  0
LINE
  5
10F
330
1F
100
AcDbEntity
  8
0
  6
HIDDEN
 62
     7
370
     0
100
AcDbLine
 10
237.2706288583
 20
106.0480703077
 30
0.0
 11
233.2706282026
 21
106.0480703077
 31
0.0
  0
LINE
  5
110
330
1F
100
AcDbEntity
  8
0
  6
HIDDEN
 62
     7
370
     0
100
AcDbLine
 10
233.2706282026
 20
106.0480703077
 30
0.0
 11
233.2706282026
 21
101.2484770677
 31
0.0
  0
LINE
  5
111
330
1F
100
AcDbEntity
  8
0
  6
HIDDEN
 62
     7
370
     0
100
AcDbLine
 10
232.0706227905
 20
100.2484778351
 30
0.0
 11
232.0706227905
 21
130.2484771645
 31
0.0
  0
LINE
  5
112
330
1F
100
AcDbEntity
  8
0
  6
HIDDEN
 62
     7
370
     0
100
AcDbLine
 10
206.8206274993
 20
100.5484773255
 30
0.0
 11
206.8206274993
 21
129.9484776741
 31
0.0
  0
LINE
  5
113
330
1F
100
AcDbEntity
  8
0
  6
HIDDEN
 62
     7
370
     0
100
AcDbLine
 10
209.3206251151
 20
100.2484778351
 30
0.0
 11
209.3206251151
 21
130.2484771645
 31
0.0
  0
LINE
  5
114
330
1F
100
AcDbEntity
  8
0
  6
HIDDEN
 62
     7
370
     0
100
AcDbLine
 10
233.2706282026
 20
136.5234781465
 30
0.0
 11
233.2706282026
 21
134.4484784117
 31
0.0
  0
LINE
  5
115
330
1F
100
AcDbEntity
  8
0
  6
HIDDEN
 62
     7
370
     0
100
AcDbLine
 10
233.2706282026
 20
96.0484765878
 30
0.0
 11
233.2706282026
 21
93.9734768531
 31
0.0
  0
LINE
  5
116
330
1F
100
AcDbEntity
  8
0
  6
HIDDEN
 62
     7
370
     0
100
AcDbLine
 10
121.9206262025
 20
140.0484782121
 30
0.0
 11
122.2578846495
 21
140.0484782121
 31
0.0
  0
ELLIPSE
  5
117
330
1F
100
AcDbEntity
  8
0
  6
HIDDEN
 62
     7
370
     0
100
AcDbEllipse
 10
122.2578845836
 20
141.6484774998
 30
0.0
 11
0.0
 21
1.600000000000023
 31
0.0
210
0.0
220
0.0
230
1.0
 40
0.4142135624
 41
3.141592653589793
 42
4.712388980384695
  0
ELLIPSE
  5
118
330
1F
100
AcDbEntity
  8
0
  6
HIDDEN
 62
     7
370
     0
100
AcDbEllipse
 10
122.2578845836
 20
91.0484774998
 30
0.0
 11
0.0
 21
1.599999999999994
 31
0.0
210
0.0
220
0.0
230
1.0
 40
0.4142135624
 41
4.712388980384695
 42
6.283185307179586
  0
LINE
  5
119
330
1F
100
AcDbEntity
  8
0
  6
HIDDEN
 62
     7
370
     0
100
AcDbLine
 10
122.2578846495
 20
92.6484767756
 30
0.0
 11
121.9206262025
 21
92.6484767756
 31
0.0
  0
LINE
  5
11A
330
1F
100
AcDbEntity
  8
0
  6
HIDDEN
 62
     7
370
     0
100
AcDbLine
 10
122.9206261336
 20
85.3550289235
 30
0.0
 11
122.1367708053
 21
84.8967474362
 31
0.0
  0
LINE
  5
11B
330
1F
100
AcDbEntity
  8
0
  6
HIDDEN
 62
     7
370
     0
100
AcDbLine
 10
122.2078679706
 20
145.6737745962
 30
0.0
 11
122.9206261336
 21
144.9610148034
 31
0.0
  0
LINE
  5
11C
330
1F
100
AcDbEntity
  8
0
  6
HIDDEN
 62
     7
370
     0
100
AcDbLine
 10
57.4706250913
 20
106.7484770379
 30
0.0
 11
57.4706250913
 21
123.7484779617
 31
0.0
  0
LINE
  5
11D
330
1F
100
AcDbEntity
  8
0
  6
HIDDEN
 62
     7
370
     0
100
AcDbLine
 10
60.4665557034
 20
108.2484772837
 30
0.0
 11
60.4665557034
 21
122.2484777159
 31
0.0
  0
LINE
  5
11E
330
1F
100
AcDbEntity
  8
0
  6
HIDDEN
 62
     7
370
     0
100
AcDbLine
 10
126.7558362446
 20
85.3550289235
 30
0.0
 11
122.9206261336
 21
85.3550289235
 31
0.0
  0
LINE
  5
11F
330
1F
100
AcDbEntity
  8
0
  6
HIDDEN
 62
     7
370
     0
100
AcDbLine
 10
137.7706265188
 20
85.3550289235
 30
0.0
 11
132.8854158632
 21
85.3550289235
 31
0.0
  0
LINE
  5
120
330
1F
100
AcDbEntity
  8
0
  6
HIDDEN
 62
     7
370
     0
100
AcDbLine
 10
122.9206261336
 20
85.3550289235
 30
0.0
 11
122.9206261336
 21
91.0484776309
 31
0.0
  0
LINE
  5
121
330
1F
100
AcDbEntity
  8
0
  6
HIDDEN
 62
     7
370
     0
100
AcDbLine
 10
137.7706265188
 20
92.6484767756
 30
0.0
 11
122.2578846495
 21
92.6484767756
 31
0.0
  0
SPLINE
  5
122
330
1F
100
AcDbEntity
  8
0
  6
HIDDEN
 62
     7
370
     0
100
AcDbSpline
210
0.0
220
0.0
230
1.0
 70
    24
 71
     3
 72
    12
 73
     8
 74
     0
 42
0.000000001
 43
0.00000001
 40
0.0
 40
0.0
 40
0.0
 40
0.0
 40
0.25
 40
0.25
 40
0.5
 40
0.5
 40
1.0
 40
1.0
 40
1.0
 40
1.0
 10
138.5610585579157
 20
92.64847749979765
 30
0.0
 10
138.5042973085703
 20
92.64847749979765
 30
0.0
 10
138.4468824966276
 20
92.64847749979764
 30
0.0
 10
138.3329158847852
 20
92.64847749979765
 30
0.0
 10
138.2760769646139
 20
92.64847749979764
 30
0.0
 10
138.1053313592489
 20
92.64847749979764
 30
0.0
 10
137.9912128561452
 20
92.64847749979764
 30
0.0
 10
137.8763917172894
 20
92.64847749979765
 30
0.0
  0
LINE
  5
123
330
1F
100
AcDbEntity
  8
0
  6
HIDDEN
 62
     7
370
     0
100
AcDbLine
 10
137.8763912357
 20
92.6484767756
 30
0.0
 11
137.7706265188
 21
92.6484767756
 31
0.0
  0
LINE
  5
124
330
1F
100
AcDbEntity
  8
0
  6
HIDDEN
 62
     7
370
     0
100
AcDbLine
 10
122.9206261336
 20
144.9610148034
 30
0.0
 11
126.8566714711
 21
144.9610148034
 31
0.0
  0
LINE
  5
125
330
1F
100
AcDbEntity
  8
0
  6
HIDDEN
 62
     7
370
     0
100
AcDbLine
 10
132.7845806367
 20
144.9610148034
 30
0.0
 11
137.7706265188
 21
144.9610148034
 31
0.0
  0
LINE
  5
126
330
1F
100
AcDbEntity
  8
0
  6
HIDDEN
 62
     7
370
     0
100
AcDbLine
 10
122.9206261336
 20
144.9610148034
 30
0.0
 11
122.9206261336
 21
141.6484773567
 31
0.0
  0
LINE
  5
127
330
1F
100
AcDbEntity
  8
0
  6
HIDDEN
 62
     7
370
     0
100
AcDbLine
 10
122.2578846495
 20
140.0484782121
 30
0.0
 11
137.8435863293
 21
140.0484782121
 31
0.0
  0
LINE
  5
128
330
1F
100
AcDbEntity
  8
0
  6
HIDDEN
 62
     7
370
     0
100
AcDbLine
 10
93.4706254042
 20
108.2484772837
 30
0.0
 11
93.4706254042
 21
122.2484777159
 31
0.0
  0
LINE
  5
129
330
1F
100
AcDbEntity
  8
0
  6
HIDDEN
 62
     7
370
     0
100
AcDbLine
 10
95.1229928172
 20
110.9984772688
 30
0.0
 11
95.1229928172
 21
119.4984777308
 31
0.0
  0
SPLINE
  5
12A
330
1F
100
AcDbEntity
  8
0
  6
HIDDEN
 62
     7
370
     0
100
AcDbSpline
210
0.0
220
0.0
230
1.0
 70
    24
 71
     3
 72
    12
 73
     8
 74
     0
 42
0.000000001
 43
0.00000001
 40
0.0
 40
0.0
 40
0.0
 40
0.0
 40
0.5000000000000013
 40
0.5000000000000013
 40
0.7500000000000007
 40
0.7500000000000007
 40
1.0
 40
1.0
 40
1.0
 40
1.0
 10
141.8121369174872
 20
92.64847749979765
 30
0.0
 10
141.3405457809025
 20
92.64847749979765
 30
0.0
 10
140.8346203236549
 20
92.64847749979765
 30
0.0
 10
140.0190213078986
 20
92.64847749979764
 30
0.0
 10
139.7356883260711
 20
92.64847749979764
 30
0.0
 10
139.1562565699054
 20
92.64847749979764
 30
0.0
 10
138.8614186547532
 20
92.64847749979764
 30
0.0
 10
138.5610585579157
 20
92.64847749979765
 30
0.0
  0
LINE
  5
12B
330
1F
100
AcDbEntity
  8
0
  6
HIDDEN
 62
     7
370
     0
100
AcDbLine
 10
144.2206258065
 20
92.6484767756
 30
0.0
 11
141.8121362216
 21
92.6484767756
 31
0.0
  0
SPLINE
  5
12C
330
1F
100
AcDbEntity
  8
0
  6
HIDDEN
 62
     7
370
     0
100
AcDbSpline
210
0.0
220
0.0
230
1.0
 70
    11
 71
     3
 72
    60
 73
    56
 74
     0
 42
0.000000001
 43
0.00000001
 40
0.0
 40
0.0
 40
0.0
 40
0.0
 40
0.0312499999999997
 40
0.0312499999999997
 40
0.0624999999999995
 40
0.0624999999999995
 40
0.1249999999999989
 40
0.1249999999999989
 40
0.1874999999999984
 40
0.1874999999999984
 40
0.2187499999999983
 40
0.2187499999999983
 40
0.2499999999999981
 40
0.2499999999999981
 40
0.2812499999999979
 40
0.2812499999999979
 40
0.3124999999999977
 40
0.3124999999999977
 40
0.3437499999999977
 40
0.3437499999999977
 40
0.3749999999999976
 40
0.3749999999999976
 40
0.4062499999999974
 40
0.4062499999999974
 40
0.4374999999999973
 40
0.4374999999999973
 40
0.4999999999999971
 40
0.4999999999999971
 40
0.5312499999999973
 40
0.5312499999999973
 40
0.5624999999999974
 40
0.5624999999999974
 40
0.5937499999999977
 40
0.5937499999999977
 40
0.6249999999999978
 40
0.6249999999999978
 40
0.656249999999998
 40
0.656249999999998
 40
0.6874999999999982
 40
0.6874999999999982
 40
0.7187499999999983
 40
0.7187499999999983
 40
0.7499999999999986
 40
0.7499999999999986
 40
0.8124999999999989
 40
0.8124999999999989
 40
0.8437499999999991
 40
0.8437499999999991
 40
0.8749999999999992
 40
0.8749999999999992
 40
0.9062499999999994
 40
0.9062499999999994
 40
0.9374999999999997
 40
0.9374999999999997
 40
1.0
 40
1.0
 40
1.0
 40
1.0
 10
131.7206262833676
 20
115.0375514417643
 30
0.0
 10
131.8308191943379
 20
115.0375514417643
 30
0.0
 10
131.9389283976253
 20
115.049409064069
 30
0.0
 10
132.1512335521117
 20
115.0954147909592
 30
0.0
 10
132.2565422155707
 20
115.1301746432729
 30
0.0
 10
132.5553401761792
 20
115.2637284814373
 30
0.0
 10
132.7367623805653
 20
115.3936368945808
 30
0.0
 10
133.0379682812222
 20
115.7060953816912
 30
0.0
 10
133.1605227600144
 20
115.8918728645187
 30
0.0
 10
133.2846562106336
 20
116.1866836130224
 30
0.0
 10
133.3169593274696
 20
116.2896626994435
 30
0.0
 10
133.3598089893015
 20
116.4959403391485
 30
0.0
 10
133.370554156814
 20
116.5987083240679
 30
0.0
 10
133.370697693167
 20
116.8033739775862
 30
0.0
 10
133.3597145721307
 20
116.9057280637804
 30
0.0
 10
133.3170429126034
 20
117.0999881727876
 30
0.0
 10
133.285480018496
 20
117.1931564815312
 30
0.0
 10
133.2015149230083
 20
117.3719400021733
 30
0.0
 10
133.1504803700076
 20
117.4546573938851
 30
0.0
 10
133.0312470392288
 20
117.608209009299
 30
0.0
 10
132.9621879818943
 20
117.6796594700523
 30
0.0
 10
132.8108894580399
 20
117.8068715124396
 30
0.0
 10
132.7286567532849
 20
117.8630143962868
 30
0.0
 10
132.5505442361367
 20
117.9613362091308
 30
0.0
 10
132.4544093519324
 20
118.0033305032821
 30
0.0
 10
132.1571626668135
 20
118.1034696135586
 30
0.0
 10
131.9381049260346
 20
118.1384837214594
 30
0.0
 10
131.6126512511467
 20
118.1385636809194
 30
0.0
 10
131.5028146499537
 20
118.1299582764966
 30
0.0
 10
131.2888823529713
 20
118.0956454810224
 30
0.0
 10
131.1856426920278
 20
118.0703036678277
 30
0.0
 10
130.9862136354653
 20
118.003118578643
 30
0.0
 10
130.8901211281919
 20
117.9610365935843
 30
0.0
 10
130.7125770786258
 20
117.8629794380204
 30
0.0
 10
130.6298805115126
 20
117.8065899736966
 30
0.0
 10
130.4774059531474
 20
117.678138904047
 30
0.0
 10
130.4097290321057
 20
117.6078813874139
 30
0.0
 10
130.290751367837
 20
117.4546020430458
 30
0.0
 10
130.2390070846368
 20
117.3705228662864
 30
0.0
 10
130.1558303779806
 20
117.1931400784021
 30
0.0
 10
130.1243193410316
 20
117.1003634361271
 30
0.0
 10
130.0815837335798
 20
116.9060599164755
 30
0.0
 10
130.0705780291596
 20
116.8035935015372
 30
0.0
 10
130.0707232821632
 20
116.4969317851658
 30
0.0
 10
130.1150761707476
 20
116.2851599007673
 30
0.0
 10
130.2396613790291
 20
115.9894745596929
 30
0.0
 10
130.2914451926951
 20
115.8928980318539
 30
0.0
 10
130.4114028710254
 20
115.7117337835383
 30
0.0
 10
130.4792539330211
 20
115.6271444648388
 30
0.0
 10
130.6307796717763
 20
115.4702464320459
 30
0.0
 10
130.7147489450392
 20
115.3980502010928
 30
0.0
 10
130.8922402133782
 20
115.2726883578638
 30
0.0
 10
130.9865217483324
 20
115.2186220047529
 30
0.0
 10
131.2874068555619
 20
115.0845500227368
 30
0.0
 10
131.500240461427
 20
115.0375514417643
 30
0.0
 10
131.7206262833676
 20
115.0375514417643
 30
0.0
  0
LINE
  5
12D
330
1F
100
AcDbEntity
  8
0
  6
HIDDEN
 62
     7
370
     0
100
AcDbLine
 10
145.8206268138
 20
140.0484782121
 30
0.0
 11
145.1761981583
 21
140.0484782121
 31
0.0
  0
ELLIPSE
  5
12E
330
1F
100
AcDbEntity
  8
0
  6
HIDDEN
 62
     7
370
     0
100
AcDbEllipse
 10
131.7206262834
 20
122.1360675603
 30
0.0
 11
-1.383467579512086
 21
1.753907414218503
 31
0.0
210
0.0
220
0.0
230
1.0
 40
0.5126701559
 41
5.277237470119408
 42
5.288724596347244
  0
ELLIPSE
  5
12F
330
1F
100
AcDbEntity
  8
0
  6
HIDDEN
 62
     7
370
     0
100
AcDbEllipse
 10
131.7206262834
 20
122.1360675603
 30
0.0
 11
1.383467579512143
 21
1.091267719176585
 31
0.0
210
0.0
220
0.0
230
1.0
 40
0.8239737799
 41
0.9944607108323792
 42
4.136053364422185
  0
ELLIPSE
  5
130
330
1F
100
AcDbEntity
  8
0
  6
HIDDEN
 62
     7
370
     0
100
AcDbEllipse
 10
131.7206262834
 20
122.1360675603
 30
0.0
 11
-1.383467579512086
 21
1.753907414218503
 31
0.0
210
0.0
220
0.0
230
1.0
 40
0.5126701559
 41
2.147131942757438
 42
2.158619068983293
  0
SPLINE
  5
131
330
1F
100
AcDbEntity
  8
0
  6
HIDDEN
 62
     7
370
     0
100
AcDbSpline
210
0.0
220
0.0
230
1.0
 70
     8
 71
     3
 72
     8
 73
     4
 74
     0
 42
0.000000001
 43
0.00000001
 40
0.0
 40
0.0
 40
0.0
 40
0.0
 40
1.0
 40
1.0
 40
1.0
 40
1.0
 10
131.7395796247847
 20
120.5732244101278
 30
0.0
 10
131.7565785088742
 20
120.5812076836455
 30
0.0
 10
131.7735826534254
 20
120.5899440860984
 30
0.0
 10
131.7905673795377
 20
120.599420937942
 30
0.0
  0
ELLIPSE
  5
132
330
1F
100
AcDbEntity
  8
0
  6
HIDDEN
 62
     7
370
     0
100
AcDbEllipse
 10
131.7206262834
 20
122.1360675603
 30
0.0
 11
1.383467579512143
 21
1.091267719176585
 31
0.0
210
0.0
220
0.0
230
1.0
 40
0.8239737799
 41
4.136053364422189
 42
4.178454611705418
  0
ELLIPSE
  5
133
330
1F
100
AcDbEntity
  8
0
  6
HIDDEN
 62
     7
370
     0
100
AcDbEllipse
 10
131.7206262834
 20
122.1360675603
 30
0.0
 11
-1.383467579512086
 21
1.753907414218503
 31
0.0
210
0.0
220
0.0
230
1.0
 40
0.5126701559
 41
5.28872459634726
 42
8.43031724993704
  0
ELLIPSE
  5
134
330
1F
100
AcDbEntity
  8
0
  6
HIDDEN
 62
     7
370
     0
100
AcDbEllipse
 10
131.7206262834
 20
122.1360675603
 30
0.0
 11
1.383467579512143
 21
1.091267719176585
 31
0.0
210
0.0
220
0.0
230
1.0
 40
0.8239737799
 41
0.9520594635383172
 42
0.9944607108323826
  0
SPLINE
  5
135
330
1F
100
AcDbEntity
  8
0
  6
HIDDEN
 62
     7
370
     0
100
AcDbSpline
210
0.0
220
0.0
230
1.0
 70
     8
 71
     3
 72
     8
 73
     4
 74
     0
 42
0.000000001
 43
0.00000001
 40
0.0
 40
0.0
 40
0.0
 40
0.0
 40
1.0
 40
1.0
 40
1.0
 40
1.0
 10
131.7905673795465
 20
123.6976194261769
 30
0.0
 10
131.7735826534283
 20
123.6905037161212
 30
0.0
 10
131.7565785088712
 20
123.6826285865921
 30
0.0
 10
131.7395796247759
 20
123.6740054671291
 30
0.0
  0
LWPOLYLINE
  5
136
330
1F
100
AcDbEntity
  8
0
  6
HIDDEN
 62
     7
370
     0
100
AcDbPolyline
 90
       18
 70
   128
 43
0.0
 10
131.7206265516
 20
121.691888146
 10
132.316674862
 20
121.7965897581
 10
132.8322243056
 20
122.0965529269
 10
133.1976454816
 20
122.551266983
 10
133.3635876066
 20
123.0993200502
 10
133.307638403
 20
123.6666938698
 10
133.037354622
 20
124.1767615488
 10
132.589239452
 20
124.5606368816
 10
132.0238130278
 20
124.7664740718
 10
131.417439144
 20
124.7664740718
 10
130.8520136512
 20
124.5606368816
 10
130.4038975499
 20
124.1767615488
 10
130.1336137689
 20
123.6666938698
 10
130.0776645652
 20
123.0993200502
 10
130.2436066902
 20
122.551266983
 10
130.6090287975
 20
122.0965529269
 10
131.1245773099
 20
121.7965897581
 10
131.7206265516
 20
121.691888146
  0
LINE
  5
137
330
1F
100
AcDbEntity
  8
0
  6
HIDDEN
 62
     7
370
     0
100
AcDbLine
 10
127.9106259457
 20
137.4457184634
 30
0.0
 11
127.9106259457
 21
133.5984770617
 31
0.0
  0
LINE
  5
138
330
1F
100
AcDbEntity
  8
0
  6
HIDDEN
 62
     7
370
     0
100
AcDbLine
 10
131.7306261621
 20
137.4457184634
 30
0.0
 11
131.7306261621
 21
133.5984770617
 31
0.0
  0
SPLINE
  5
139
330
1F
100
AcDbEntity
  8
0
  6
HIDDEN
 62
     7
370
     0
100
AcDbSpline
210
0.0
220
0.0
230
1.0
 70
     8
 71
     3
 72
    14
 73
    10
 74
     0
 42
0.000000001
 43
0.00000001
 40
0.0
 40
0.0
 40
0.0
 40
0.0
 40
0.25
 40
0.25
 40
0.5
 40
0.5
 40
0.75
 40
0.75
 40
1.0
 40
1.0
 40
1.0
 40
1.0
 10
130.9306262833675
 20
126.5309566899058
 30
0.0
 10
131.0283085344815
 20
126.5694790039382
 30
0.0
 10
131.1304220435188
 20
126.6070943633969
 30
0.0
 10
131.3225942146877
 20
126.6782030889838
 30
0.0
 10
131.4140128880145
 20
126.7124091394879
 30
0.0
 10
131.5655288770287
 20
126.7792986178449
 30
0.0
 10
131.6266760795676
 20
126.8125690804058
 30
0.0
 10
131.7093827812561
 20
126.8819674304996
 30
0.0
 10
131.7306262833676
 20
126.9177445360956
 30
0.0
 10
131.7306262833676
 20
126.9542398683462
 30
0.0
  0
SPLINE
  5
13A
330
1F
100
AcDbEntity
  8
0
  6
HIDDEN
 62
     7
370
     0
100
AcDbSpline
210
0.0
220
0.0
230
1.0
 70
     8
 71
     3
 72
    14
 73
    10
 74
     0
 42
0.000000001
 43
0.00000001
 40
0.0
 40
0.0
 40
0.0
 40
0.0
 40
0.2500000000000005
 40
0.2500000000000005
 40
0.5000000000000003
 40
0.5000000000000003
 40
0.7500000000000001
 40
0.7500000000000001
 40
1.0
 40
1.0
 40
1.0
 40
1.0
 10
131.7306262833676
 20
123.1955163701273
 30
0.0
 10
131.7306262833676
 20
123.15902743922
 30
0.0
 10
131.7094569071953
 20
123.1225286474862
 30
0.0
 10
131.6267112893429
 20
123.0571532997493
 30
0.0
 10
131.5658576645151
 20
123.029216465403
 30
0.0
 10
131.4142527978241
 20
122.9953254361563
 30
0.0
 10
131.3230304873568
 20
122.9898999835698
 30
0.0
 10
131.1306999376536
 20
123.0108193073824
 30
0.0
 10
131.0284490531766
 20
123.0373754548229
 30
0.0
 10
130.9306262833675
 20
123.0778452131286
 30
0.0
  0
LINE
  5
13B
330
1F
100
AcDbEntity
  8
0
  6
HIDDEN
 62
     7
370
     0
100
AcDbLine
 10
131.7306261621
 20
107.2471946886
 30
0.0
 11
131.7306261621
 21
103.4884717724
 31
0.0
  0
LINE
  5
13C
330
1F
100
AcDbEntity
  8
0
  6
HIDDEN
 62
     7
370
     0
100
AcDbLine
 10
126.2987896911
 20
141.1587078533
 30
0.0
 11
126.2987896911
 21
133.5984770617
 31
0.0
  0
LINE
  5
13D
330
1F
100
AcDbEntity
  8
0
  6
HIDDEN
 62
     7
370
     0
100
AcDbLine
 10
133.342463348
 20
105.49645726
 30
0.0
 11
133.342463348
 21
103.2969778812
 31
0.0
  0
LINE
  5
13E
330
1F
100
AcDbEntity
  8
0
  6
HIDDEN
 62
     7
370
     0
100
AcDbLine
 10
133.342463348
 20
141.1587078533
 30
0.0
 11
133.342463348
 21
133.5984770617
 31
0.0
  0
SPLINE
  5
13F
330
1F
100
AcDbEntity
  8
0
  6
HIDDEN
 62
     7
370
     0
100
AcDbSpline
210
0.0
220
0.0
230
1.0
 70
     8
 71
     3
 72
    10
 73
     6
 74
     0
 42
0.000000001
 43
0.00000001
 40
0.0
 40
0.0
 40
0.0
 40
0.0
 40
0.5
 40
0.5
 40
1.0
 40
1.0
 40
1.0
 40
1.0
 10
129.7447355207271
 20
122.9950166692665
 30
0.0
 10
129.729129469746
 20
123.100288869875
 30
0.0
 10
129.7206250067174
 20
123.2042273676659
 30
0.0
 10
129.7206275603071
 20
123.4037406396219
 30
0.0
 10
129.7291251479076
 20
123.4949531342923
 30
0.0
 10
129.7447355207272
 20
123.5768850666355
 30
0.0
  0
SPLINE
  5
140
330
1F
100
AcDbEntity
  8
0
  6
HIDDEN
 62
     7
370
     0
100
AcDbSpline
210
0.0
220
0.0
230
1.0
 70
     8
 71
     3
 72
    14
 73
    10
 74
     0
 42
0.000000001
 43
0.00000001
 40
0.0
 40
0.0
 40
0.0
 40
0.0
 40
0.25
 40
0.25
 40
0.5
 40
0.5
 40
0.75
 40
0.75
 40
1.0
 40
1.0
 40
1.0
 40
1.0
 10
129.7447355207272
 20
123.5768850666355
 30
0.0
 10
129.7810993487574
 20
123.5313904312336
 30
0.0
 10
129.8135770759676
 20
123.4829986250174
 30
0.0
 10
129.8623307053832
 20
123.3775134810878
 30
0.0
 10
129.8772344830578
 20
123.3209289728449
 30
0.0
 10
129.8772449167154
 20
123.2120413788945
 30
0.0
 10
129.8623546209072
 20
123.1598567131319
 30
0.0
 10
129.8134656900296
 20
123.0685793141883
 30
0.0
 10
129.7810935117593
 20
123.0299126088142
 30
0.0
 10
129.7447355207271
 20
122.9950166692665
 30
0.0
  0
LWPOLYLINE
  5
141
330
1F
100
AcDbEntity
  8
0
  6
HIDDEN
 62
     7
370
     0
100
AcDbPolyline
 90
       18
 70
   128
 43
0.0
 10
122.5523537136
 20
123.2285233623
 10
122.7112792543
 20
122.7993121779
 10
122.9712295457
 20
122.5477288886
 10
123.2970969863
 20
122.5077509357
 10
123.6448709964
 20
122.684777662
 10
123.9675831161
 20
123.05490062
 10
124.2216488458
 20
123.5681320018
 10
124.3727559335
 20
124.1551585904
 10
124.4004963077
 20
124.7366978264
 10
124.301122792
 20
125.2342094144
 10
124.0880571417
 20
125.5805030874
 10
123.790074896
 20
125.7288087568
 10
123.4474199004
 20
125.6590973994
 10
123.1063695736
 20
125.3807837552
 10
122.8129852674
 20
124.9314560032
 10
122.6068894024
 20
124.3717972598
 10
122.515916882
 20
123.777393665
 10
122.5523537136
 20
123.2285233623
  0
LWPOLYLINE
  5
142
330
1F
100
AcDbEntity
  8
0
  6
HIDDEN
 62
     7
370
     0
100
AcDbPolyline
 90
       19
 70
   128
 43
0.0
 10
129.7447353713
 20
122.9950165785
 10
129.9533544219
 20
122.4060700683
 10
130.3547516576
 20
121.9131033345
 10
130.9051418788
 20
121.569890011
 10
131.5444864444
 20
121.413868334
 10
132.203045126
 20
121.4620582236
 10
132.8089803568
 20
121.709202364
 10
133.2961961738
 20
122.128342226
 10
133.6115438602
 20
122.6737568563
 10
133.7206259481
 20
123.2859505749
 10
133.6115438602
 20
123.8981452248
 10
133.2961961738
 20
124.4435593894
 10
132.8089803568
 20
124.8626992515
 10
132.203045126
 20
125.1098433918
 10
131.5444864444
 20
125.1580337471
 10
130.9051418788
 20
125.0020120701
 10
130.3547516576
 20
124.658798281
 10
129.9533544219
 20
124.1658315471
 10
129.7447353713
 20
123.5768855027
  0
SPLINE
  5
143
330
1F
100
AcDbEntity
  8
0
  6
HIDDEN
 62
     7
370
     0
100
AcDbSpline
210
0.0
220
0.0
230
1.0
 70
     8
 71
     3
 72
    12
 73
     8
 74
     0
 42
0.000000001
 43
0.00000001
 40
0.0
 40
0.0
 40
0.0
 40
0.0
 40
0.2499999999999992
 40
0.2499999999999992
 40
0.4999999999999983
 40
0.4999999999999983
 40
1.0
 40
1.0
 40
1.0
 40
1.0
 10
133.3424629254243
 20
127.1999772980047
 30
0.0
 10
133.4654104192199
 20
127.0420204493096
 30
0.0
 10
133.5589546223287
 20
126.8701870823321
 30
0.0
 10
133.6878940114909
 20
126.4985143726862
 30
0.0
 10
133.720446768876
 20
126.305325926495
 30
0.0
 10
133.7209831106099
 20
125.7170293882187
 30
0.0
 10
133.5883594536419
 20
125.32501115033
 30
0.0
 10
133.3424629254243
 20
125.0004975676214
 30
0.0
  0
SPLINE
  5
144
330
1F
100
AcDbEntity
  8
0
  6
HIDDEN
 62
     7
370
     0
100
AcDbSpline
210
0.0
220
0.0
230
1.0
 70
     8
 71
     3
 72
    12
 73
     8
 74
     0
 42
0.000000001
 43
0.00000001
 40
0.0
 40
0.0
 40
0.0
 40
0.0
 40
0.2499999999999997
 40
0.2499999999999997
 40
0.4999999999999993
 40
0.4999999999999993
 40
1.0
 40
1.0
 40
1.0
 40
1.0
 10
133.3424629254243
 20
125.0004975676214
 30
0.0
 10
133.2275668741636
 20
124.7807571325648
 30
0.0
 10
133.100800857691
 20
124.5837887809431
 30
0.0
 10
132.8405859240724
 20
124.2300712081041
 30
0.0
 10
132.7070784661102
 20
124.0732459142319
 30
0.0
 10
132.298680197522
 20
123.6467033433242
 30
0.0
 10
132.0150270625844
 20
123.420011164369
 30
0.0
 10
131.7306262833677
 20
123.2497600199735
 30
0.0
  0
SPLINE
  5
145
330
1F
100
AcDbEntity
  8
0
  6
HIDDEN
 62
     7
370
     0
100
AcDbSpline
210
0.0
220
0.0
230
1.0
 70
     8
 71
     3
 72
    12
 73
     8
 74
     0
 42
0.000000001
 43
0.00000001
 40
0.0
 40
0.0
 40
0.0
 40
0.0
 40
0.5000000000000013
 40
0.5000000000000013
 40
0.7500000000000007
 40
0.7500000000000007
 40
1.0
 40
1.0
 40
1.0
 40
1.0
 10
131.7306262833676
 20
127.0084835181946
 30
0.0
 10
132.0148328179329
 20
127.1759476804883
 30
0.0
 10
132.2935285520367
 20
127.2875847799999
 30
0.0
 10
132.7028745952259
 20
127.3548980456393
 30
0.0
 10
132.8390139325455
 20
127.3600490856532
 30
0.0
 10
133.1003339815415
 20
127.3222831480339
 30
0.0
 10
133.2257551639733
 20
127.2807333896896
 30
0.0
 10
133.3424629254247
 20
127.1999772980068
 30
0.0
  0
SPLINE
  5
146
330
1F
100
AcDbEntity
  8
0
  6
HIDDEN
 62
     7
370
     0
100
AcDbSpline
210
0.0
220
0.0
230
1.0
 70
     8
 71
     3
 72
    11
 73
     7
 74
     0
 42
0.000000001
 43
0.00000001
 40
0.0
 40
0.0
 40
0.0
 40
0.0
 40
0.1586629657729187
 40
0.4474174176205519
 40
0.7365954204410801
 40
1.0
 40
1.0
 40
1.0
 40
1.0
 10
129.7486813850007
 20
124.8239301553515
 30
0.0
 10
129.7443403730696
 20
124.9400753849847
 30
0.0
 10
129.7320990517344
 20
125.2675960414799
 30
0.0
 10
129.9611884563898
 20
125.7710908354511
 30
0.0
 10
130.3699432854013
 20
126.2536065813031
 30
0.0
 10
130.7496353230432
 20
126.4414268769129
 30
0.0
 10
130.9306265897354
 20
126.5309568902996
 30
0.0
  0
LWPOLYLINE
  5
147
330
1F
100
AcDbEntity
  8
0
  6
HIDDEN
 62
     7
370
     0
100
AcDbPolyline
 90
       20
 70
   128
 43
0.0
 10
122.1708378866
 20
123.0190148986
 10
122.3451265245
 20
122.5206599979
 10
122.6256145741
 20
122.1985076031
 10
122.9819066934
 20
122.0874678752
 10
123.3753928094
 20
122.1995739675
 10
123.7634334824
 20
122.522676777
 10
124.1039776354
 20
123.0217641628
 10
124.3601220771
 20
123.6427514291
 10
124.5041101351
 20
124.3183449319
 10
124.5203379653
 20
124.975334335
 10
124.4070472307
 20
125.5425246841
 10
124.1765146255
 20
125.9584505519
 10
123.8537224121
 20
126.1780415139
 10
123.4736492037
 20
126.1775013468
 10
123.0774827413
 20
125.9568877927
 10
122.7081532701
 20
125.540107902
 10
122.4056836794
 20
124.9723270944
 10
122.2028511687
 20
124.3150722644
 10
122.1216354165
 20
123.6395681685
 10
122.1708378866
 20
123.0190148986
  0
CIRCLE
  5
148
330
1F
100
AcDbEntity
  8
0
  6
HIDDEN
 62
     7
370
     0
100
AcDbCircle
 10
223.2706262834
 20
115.2484774998
 30
0.0
 40
5.258613578496383
  0
CIRCLE
  5
149
330
1F
100
AcDbEntity
  8
0
  6
HIDDEN
 62
     7
370
     0
100
AcDbCircle
 10
223.2706262834
 20
115.2484774998
 30
0.0
 40
4.094716599620996
  0
CIRCLE
  5
14A
330
1F
100
AcDbEntity
  8
0
  6
HIDDEN
 62
     7
370
     0
100
AcDbCircle
 10
223.2706262834
 20
115.2484774998
 30
0.0
 40
3.694716599621035
  0
LWPOLYLINE
  5
14B
330
1F
100
AcDbEntity
  8
0
  6
HIDDEN
 62
     7
370
     0
100
AcDbPolyline
 90
       17
 70
   128
 43
0.0
 10
131.6169768683
 20
124.5710378921
 10
131.0597386322
 20
124.4281329623
 10
130.6031139679
 20
124.0957206524
 10
130.3166205175
 20
123.6244071683
 10
130.2438749111
 20
123.085946258
 10
130.3959505744
 20
122.5623134001
 10
130.7496966905
 20
122.1332265473
 10
131.2512576691
 20
121.8640109933
 10
131.8242753036
 20
121.7956519163
 10
132.381514471
 20
121.9385568461
 10
132.8381391353
 20
122.270969156
 10
133.1246316544
 20
122.7422826401
 10
133.197378192
 20
123.2807435504
 10
133.0453025288
 20
123.804376874
 10
132.6915564127
 20
124.2334632611
 10
132.1899954341
 20
124.5026788151
 10
131.6169768683
 20
124.5710378921
  0
LWPOLYLINE
  5
14C
330
1F
100
AcDbEntity
  8
0
  6
HIDDEN
 62
     7
370
     0
100
AcDbPolyline
 90
       20
 70
   128
 43
0.0
 10
131.5805956832
 20
125.160724338
 10
130.9403775371
 20
125.0164177677
 10
130.3847113735
 20
124.6845884657
 10
129.9738127849
 20
124.2011957279
 10
129.7522083036
 20
123.6186217925
 10
129.7439120821
 20
122.9999972916
 10
129.9498237781
 20
122.4123606867
 10
130.3476298339
 20
121.9193911588
 10
130.894220259
 20
121.5745093709
 10
131.5303657315
 20
121.4150888322
 10
132.1871278919
 20
121.4584055765
 10
132.7933378629
 20
121.6997648066
 10
133.2833029441
 20
122.1130121908
 10
133.6039275042
 20
122.6533655486
 10
133.7204676233
 20
123.2622698358
 10
133.6202936358
 20
123.8737399167
 10
133.3142610378
 20
124.4215140528
 10
132.8355332948
 20
124.8462316057
 10
132.2359878681
 20
125.1018694079
 10
131.5805956832
 20
125.160724338
  0
LWPOLYLINE
  5
14D
330
1F
100
AcDbEntity
  8
0
  6
HIDDEN
 62
     7
370
     0
100
AcDbPolyline
 90
       20
 70
   128
 43
0.0
 10
131.5805956832
 20
125.4856432265
 10
130.9403775371
 20
125.3413366562
 10
130.3847113735
 20
125.0095082855
 10
129.9738127849
 20
124.5261146164
 10
129.7522083036
 20
123.943540681
 10
129.7439120821
 20
123.3249161801
 10
129.9498237781
 20
122.7372795752
 10
130.3476298339
 20
122.2443100473
 10
130.894220259
 20
121.8994282594
 10
131.5303657315
 20
121.7400081864
 10
132.1871278919
 20
121.783324465
 10
132.7933378629
 20
122.0246841608
 10
133.2833029441
 20
122.4379315449
 10
133.6039275042
 20
122.9782849027
 10
133.7204676233
 20
123.5871887243
 10
133.6202936358
 20
124.1986588052
 10
133.3142610378
 20
124.7464329413
 10
132.8355332948
 20
125.1711504942
 10
132.2359878681
 20
125.4267882964
 10
131.5805956832
 20
125.4856432265
  0
LWPOLYLINE
  5
14E
330
1F
100
AcDbEntity
  8
0
  6
HIDDEN
 62
     7
370
     0
100
AcDbPolyline
 90
       17
 70
   128
 43
0.0
 10
131.6156031675
 20
125.9575052595
 10
131.0509814061
 20
125.8127069509
 10
130.5883068702
 20
125.4758904165
 10
130.298017349
 20
124.9983314833
 10
130.2243078239
 20
124.4527366421
 10
130.3783979378
 20
123.9221649653
 10
130.7368314005
 20
123.4873928538
 10
131.245038297
 20
123.2146103344
 10
131.8256490044
 20
123.1453460118
 10
132.3902707658
 20
123.2901433891
 10
132.8529462329
 20
123.6269608548
 10
133.1432348228
 20
124.1045188567
 10
133.2169452793
 20
124.6501146293
 10
133.0628542341
 20
125.1806853748
 10
132.7044207714
 20
125.6154574862
 10
132.1962138749
 20
125.888240937
 10
131.6156031675
 20
125.9575052595
  0
LWPOLYLINE
  5
14F
330
1F
100
AcDbEntity
  8
0
  6
HIDDEN
 62
     7
370
     0
100
AcDbPolyline
 90
       17
 70
   128
 43
0.0
 10
131.6156031675
 20
124.9540266058
 10
131.0509814061
 20
124.8092282972
 10
130.5883068702
 20
124.4724117628
 10
130.298017349
 20
123.9948537609
 10
130.2243078239
 20
123.4492579883
 10
130.3783979378
 20
122.9186867772
 10
130.7368314005
 20
122.4839146657
 10
131.245038297
 20
122.2111316806
 10
131.8256490044
 20
122.1418673581
 10
132.3902707658
 20
122.2866652011
 10
132.8529462329
 20
122.6234822011
 10
133.1432348228
 20
123.101040203
 10
133.2169452793
 20
123.6466359756
 10
133.0628542341
 20
124.1772076523
 10
132.7044207714
 20
124.6119797638
 10
132.1962138749
 20
124.8847622833
 10
131.6156031675
 20
124.9540266058
  0
LWPOLYLINE
  5
150
330
1F
100
AcDbEntity
  8
0
  6
HIDDEN
 62
     7
370
     0
100
AcDbPolyline
 90
       20
 70
   128
 43
0.0
 10
131.5805956832
 20
125.6780293247
 10
130.9403775371
 20
125.5337236858
 10
130.3847113735
 20
125.2018943837
 10
129.9738127849
 20
124.7185007146
 10
129.7522083036
 20
124.1359267792
 10
129.7439120821
 20
123.5173022783
 10
129.9498237781
 20
122.9296661391
 10
130.3476298339
 20
122.4366966112
 10
130.894220259
 20
122.0918148233
 10
131.5303657315
 20
121.9323942846
 10
132.1871278919
 20
121.9757110289
 10
132.7933378629
 20
122.217070259
 10
133.2833029441
 20
122.6303176432
 10
133.6039275042
 20
123.1706714666
 10
133.7204676233
 20
123.7795748225
 10
133.6202936358
 20
124.3910449034
 10
133.3142610378
 20
124.9388190395
 10
132.8355332948
 20
125.3635375238
 10
132.2359878681
 20
125.6191743946
 10
131.5805956832
 20
125.6780293247
  0
LWPOLYLINE
  5
151
330
1F
100
AcDbEntity
  8
0
  6
HIDDEN
 62
     7
370
     0
100
AcDbPolyline
 90
       19
 70
   128
 43
0.0
 10
131.5917985625
 20
125.3837574682
 10
130.9717947728
 20
125.2383361048
 10
130.4421115778
 20
124.9024182966
 10
130.0666358433
 20
124.4165221638
 10
129.8906559236
 20
123.8392539731
 10
129.9353975914
 20
123.2402403316
 10
130.1954638324
 20
122.6917309164
 10
130.6394877023
 20
122.2598850204
 10
131.2139125652
 20
121.9967882557
 10
131.8494545407
 20
121.934175439
 10
132.469457399
 20
122.0795977338
 10
132.9991405941
 20
122.4155150762
 10
133.3746163286
 20
122.9014107435
 10
133.5505962483
 20
123.4786793998
 10
133.5058545805
 20
124.0776930413
 10
133.2457883395
 20
124.6262019909
 10
132.8017654008
 20
125.0580488181
 10
132.227340538
 20
125.3211446515
 10
131.5917985625
 20
125.3837574682
  0
LWPOLYLINE
  5
152
330
1F
100
AcDbEntity
  8
0
  6
HIDDEN
 62
     7
370
     0
100
AcDbPolyline
 90
       20
 70
   128
 43
0.0
 10
131.5805956832
 20
125.8704154229
 10
130.9403775371
 20
125.726109784
 10
130.3847113735
 20
125.3942804819
 10
129.9738127849
 20
124.9108877441
 10
129.7522083036
 20
124.3283128774
 10
129.7439120821
 20
123.7096893078
 10
129.9498237781
 20
123.1220527029
 10
130.3476298339
 20
122.6290827094
 10
130.894220259
 20
122.2842009215
 10
131.5303657315
 20
122.1247808485
 10
132.1871278919
 20
122.1680971271
 10
132.7933378629
 20
122.4094568229
 10
133.2833029441
 20
122.822704207
 10
133.6039275042
 20
123.3630575648
 10
133.7204676233
 20
123.9719609207
 10
133.6202936358
 20
124.5834310016
 10
133.3142610378
 20
125.1312051377
 10
132.8355332948
 20
125.555923622
 10
132.2359878681
 20
125.8115614242
 10
131.5805956832
 20
125.8704154229
  0
LWPOLYLINE
  5
153
330
1F
100
AcDbEntity
  8
0
  6
HIDDEN
 62
     7
370
     0
100
AcDbPolyline
 90
       19
 70
   128
 43
0.0
 10
131.5917985625
 20
125.5761444977
 10
130.9717947728
 20
125.430722203
 10
130.4421115778
 20
125.0948043949
 10
130.0666358433
 20
124.608908262
 10
129.8906559236
 20
124.0316400713
 10
129.9353975914
 20
123.4326264298
 10
130.1954638324
 20
122.8841174802
 10
130.6394877023
 20
122.4522711186
 10
131.2139125652
 20
122.1891748196
 10
131.8494545407
 20
122.1265615373
 10
132.469457399
 20
122.271983832
 10
132.9991405941
 20
122.6079011744
 10
133.3746163286
 20
123.0937973073
 10
133.5505962483
 20
123.671065498
 10
133.5058545805
 20
124.2700791395
 10
133.2457883395
 20
124.8185880891
 10
132.8017654008
 20
125.2504349163
 10
132.227340538
 20
125.5135307497
 10
131.5917985625
 20
125.5761444977
  0
LWPOLYLINE
  5
154
330
1F
100
AcDbEntity
  8
0
  6
HIDDEN
 62
     7
370
     0
100
AcDbPolyline
 90
       20
 70
   128
 43
0.0
 10
131.5805956832
 20
126.0628024525
 10
130.9403775371
 20
125.9184958822
 10
130.3847113735
 20
125.5866665802
 10
129.9738127849
 20
125.1032738423
 10
129.7522083036
 20
124.520699907
 10
129.7439120821
 20
123.902075406
 10
129.9498237781
 20
123.3144388011
 10
130.3476298339
 20
122.8214692733
 10
130.894220259
 20
122.4765874854
 10
131.5303657315
 20
122.3171669467
 10
132.1871278919
 20
122.360483691
 10
132.7933378629
 20
122.6018429211
 10
133.2833029441
 20
123.0150903052
 10
133.6039275042
 20
123.555443663
 10
133.7204676233
 20
124.1643479502
 10
133.6202936358
 20
124.7758180311
 10
133.3142610378
 20
125.3235921672
 10
132.8355332948
 20
125.7483097202
 10
132.2359878681
 20
126.0039475224
 10
131.5805956832
 20
126.0628024525
  0
LWPOLYLINE
  5
155
330
1F
100
AcDbEntity
  8
0
  6
HIDDEN
 62
     7
370
     0
100
AcDbPolyline
 90
       19
 70
   128
 43
0.0
 10
131.5917985625
 20
125.7685305959
 10
130.9717947728
 20
125.6231083012
 10
130.4421115778
 20
125.2871904931
 10
130.0666358433
 20
124.8012952915
 10
129.8906559236
 20
124.2240261695
 10
129.9353975914
 20
123.625012528
 10
130.1954638324
 20
123.0765035784
 10
130.6394877023
 20
122.6446576825
 10
131.2139125652
 20
122.3815609178
 10
131.8494545407
 20
122.3189481011
 10
132.469457399
 20
122.4643703959
 10
132.9991405941
 20
122.8002877383
 10
133.3746163286
 20
123.2861834055
 10
133.5505962483
 20
123.8634515962
 10
133.5058545805
 20
124.4624652377
 10
133.2457883395
 20
125.0109751186
 10
132.8017654008
 20
125.4428210145
 10
132.227340538
 20
125.7059177792
 10
131.5917985625
 20
125.7685305959
  0
LWPOLYLINE
  5
156
330
1F
100
AcDbEntity
  8
0
  6
HIDDEN
 62
     7
370
     0
100
AcDbPolyline
 90
       20
 70
   128
 43
0.0
 10
131.5805956832
 20
126.2551885507
 10
130.9403775371
 20
126.1108819804
 10
130.3847113735
 20
125.7790536097
 10
129.9738127849
 20
125.2956599406
 10
129.7522083036
 20
124.7130860052
 10
129.7439120821
 20
124.0944615042
 10
129.9498237781
 20
123.5068248993
 10
130.3476298339
 20
123.0138553715
 10
130.894220259
 20
122.6689735836
 10
131.5303657315
 20
122.5095535106
 10
132.1871278919
 20
122.5528697892
 10
132.7933378629
 20
122.794229485
 10
133.2833029441
 20
123.2074764034
 10
133.6039275042
 20
123.7478297612
 10
133.7204676233
 20
124.3567340484
 10
133.6202936358
 20
124.9682041294
 10
133.3142610378
 20
125.5159782654
 10
132.8355332948
 20
125.9406958184
 10
132.2359878681
 20
126.1963336206
 10
131.5805956832
 20
126.2551885507
  0
LWPOLYLINE
  5
157
330
1F
100
AcDbEntity
  8
0
  6
HIDDEN
 62
     7
370
     0
100
AcDbPolyline
 90
       19
 70
   128
 43
0.0
 10
131.5917985625
 20
125.9609166941
 10
130.9717947728
 20
125.8154943994
 10
130.4421115778
 20
125.4795775226
 10
130.0666358433
 20
124.9936813897
 10
129.8906559236
 20
124.416413199
 10
129.9353975914
 20
123.8173995575
 10
130.1954638324
 20
123.2688896766
 10
130.6394877023
 20
122.8370437807
 10
131.2139125652
 20
122.5739474817
 10
131.8494545407
 20
122.5113341993
 10
132.469457399
 20
122.6567564941
 10
132.9991405941
 20
122.9926738365
 10
133.3746163286
 20
123.4785695037
 10
133.5505962483
 20
124.0558386257
 10
133.5058545805
 20
124.6548522672
 10
133.2457883395
 20
125.2033612168
 10
132.8017654008
 20
125.6352071127
 10
132.227340538
 20
125.8983038774
 10
131.5917985625
 20
125.9609166941
  0
LWPOLYLINE
  5
158
330
1F
100
AcDbEntity
  8
0
  6
HIDDEN
 62
     7
370
     0
100
AcDbPolyline
 90
       20
 70
   128
 43
0.0
 10
131.5805956832
 20
126.3919961116
 10
130.9403775371
 20
126.2476904726
 10
130.3847113735
 20
125.9158611706
 10
129.9738127849
 20
125.4324684328
 10
129.7522083036
 20
124.8498935661
 10
129.7439120821
 20
124.2312699965
 10
129.9498237781
 20
123.6436333916
 10
130.3476298339
 20
123.1506638637
 10
130.894220259
 20
122.8057820758
 10
131.5303657315
 20
122.6463615371
 10
132.1871278919
 20
122.6896778157
 10
132.7933378629
 20
122.9310375115
 10
133.2833029441
 20
123.3442848957
 10
133.6039275042
 20
123.8846382535
 10
133.7204676233
 20
124.4935416094
 10
133.6202936358
 20
125.1050116903
 10
133.3142610378
 20
125.6527858263
 10
132.8355332948
 20
126.0775043106
 10
132.2359878681
 20
126.3331421128
 10
131.5805956832
 20
126.3919961116
  0
LWPOLYLINE
  5
159
330
1F
100
AcDbEntity
  8
0
  6
HIDDEN
 62
     7
370
     0
100
AcDbPolyline
 90
       19
 70
   128
 43
0.0
 10
131.5875973664
 20
126.3324594534
 10
130.9473764262
 20
126.1822957954
 10
130.4004209227
 20
125.8354247025
 10
130.0127020217
 20
125.3336839786
 10
129.8309832922
 20
124.7375918961
 10
129.8771834112
 20
124.1190446949
 10
130.1457302756
 20
123.5526496953
 10
130.6042334176
 20
123.1067212707
 10
131.1973890401
 20
122.8350456281
 10
131.8536548055
 20
122.7703908867
 10
132.4938757456
 20
122.9205550103
 10
133.0408312491
 20
123.2674265689
 10
133.4285510815
 20
123.7691663614
 10
133.6102688796
 20
124.3652593753
 10
133.5640687607
 20
124.9838056451
 10
133.2955218963
 20
125.5502015761
 10
132.8370196856
 20
125.9961290693
 10
132.2438631318
 20
126.2678051776
 10
131.5875973664
 20
126.3324594534
  0
ARC
  5
15A
330
1F
100
AcDbEntity
  8
0
  6
HIDDEN
 62
     7
370
     0
100
AcDbCircle
 10
131.7015777507
 20
105.9293641154
 30
0.0
 40
1.976442708811743
100
AcDbArc
 50
337.6965439714
 51
183.4169269412
  0
ARC
  5
15B
330
1F
100
AcDbEntity
  8
0
  6
HIDDEN
 62
     7
370
     0
100
AcDbCircle
 10
131.6988258813
 20
105.8896798164
 30
0.0
 40
1.885835751928435
100
AcDbArc
 50
341.0254855964
 51
161.6877820377
  0
ARC
  5
15C
330
1F
100
AcDbEntity
  8
0
  6
HIDDEN
 62
     7
370
     0
100
AcDbCircle
 10
131.7786230117
 20
105.9191906128
 30
0.0
 40
1.437722614969837
100
AcDbArc
 50
353.5491259844
 51
92.9684453622
  0
LWPOLYLINE
  5
15D
330
1F
100
AcDbEntity
  8
0
  6
HIDDEN
 62
     7
370
     0
100
AcDbPolyline
 90
       20
 70
   128
 43
0.0
 10
131.8606564886
 20
104.2417664489
 10
131.2052643038
 20
104.300621379
 10
130.6057188771
 20
104.5562591812
 10
130.1269920654
 20
104.9809767342
 10
129.8209594674
 20
105.5287508702
 10
129.7207854799
 20
106.1402209512
 10
129.8373246677
 20
106.7491252384
 10
130.1579492278
 20
107.2894785962
 10
130.647914309
 20
107.7027255146
 10
131.25412428
 20
107.9440852104
 10
131.9108873717
 20
107.987401489
 10
132.5470319129
 20
107.827981416
 10
133.0936232693
 20
107.4830996281
 10
133.4914283938
 20
106.9901301003
 10
133.6973400898
 20
106.4024934954
 10
133.6890438683
 20
105.7838689944
 10
133.4674393869
 20
105.201295059
 10
133.0565407983
 20
104.7179013899
 10
132.5008746348
 20
104.3860730192
 10
131.8606564886
 20
104.2417664489
  0
LWPOLYLINE
  5
15E
330
1F
100
AcDbEntity
  8
0
  6
HIDDEN
 62
     7
370
     0
100
AcDbPolyline
 90
       17
 70
   128
 43
0.0
 10
131.8256490044
 20
105.5429283938
 10
131.245038297
 20
105.6121927163
 10
130.7368314005
 20
105.8849752358
 10
130.3783979378
 20
106.3197473473
 10
130.2243078239
 20
106.850319024
 10
130.298017349
 20
107.3959147966
 10
130.5883068702
 20
107.8734727985
 10
131.0509814061
 20
108.2102897985
 10
131.6156031675
 20
108.3550876415
 10
132.1962138749
 20
108.285823319
 10
132.7044207714
 20
108.0130403339
 10
133.0628542341
 20
107.5782682224
 10
133.2169452793
 20
107.0476970112
 10
133.1432348228
 20
106.5021012387
 10
132.8529462329
 20
106.0245432368
 10
132.3902707658
 20
105.6877267024
 10
131.8256490044
 20
105.5429283938
  0
LWPOLYLINE
  5
15F
330
1F
100
AcDbEntity
  8
0
  6
HIDDEN
 62
     7
370
     0
100
AcDbPolyline
 90
       20
 70
   128
 43
0.0
 10
131.8606564886
 20
104.4341525471
 10
131.2052643038
 20
104.4930074772
 10
130.6057188771
 20
104.7486452794
 10
130.1269920654
 20
105.1733628324
 10
129.8209594674
 20
105.7211369684
 10
129.7207854799
 20
106.3326070494
 10
129.8373246677
 20
106.9415113366
 10
130.1579492278
 20
107.4818646944
 10
130.647914309
 20
107.8951120785
 10
131.25412428
 20
108.1364713086
 10
131.9108873717
 20
108.1797880529
 10
132.5470319129
 20
108.0203675142
 10
133.0936232693
 20
107.6754857263
 10
133.4914283938
 20
107.1825161985
 10
133.6973400898
 20
106.5948795936
 10
133.6890438683
 20
105.9762550926
 10
133.4674393869
 20
105.3936811572
 10
133.0565407983
 20
104.9102884194
 10
132.5008746348
 20
104.5784591174
 10
131.8606564886
 20
104.4341525471
  0
LWPOLYLINE
  5
160
330
1F
100
AcDbEntity
  8
0
  6
HIDDEN
 62
     7
370
     0
100
AcDbPolyline
 90
       19
 70
   128
 43
0.0
 10
131.8494545407
 20
104.5360383055
 10
131.2139125652
 20
104.5986511222
 10
130.6394877023
 20
104.8617478869
 10
130.1954638324
 20
105.2935937828
 10
129.9353975914
 20
105.8421027324
 10
129.8906559236
 20
106.4411163739
 10
130.0666358433
 20
107.0183854959
 10
130.4421115778
 20
107.5042811631
 10
130.9717947728
 20
107.8401985055
 10
131.5917985625
 20
107.9856208003
 10
132.227340538
 20
107.9230075179
 10
132.8017654008
 20
107.6599112189
 10
133.2457883395
 20
107.228065323
 10
133.5058545805
 20
106.679555442
 10
133.5505962483
 20
106.0805418006
 10
133.3746163286
 20
105.5032736099
 10
132.9991405941
 20
105.017377477
 10
132.469457399
 20
104.6814606002
 10
131.8494545407
 20
104.5360383055
  0
LWPOLYLINE
  5
161
330
1F
100
AcDbEntity
  8
0
  6
HIDDEN
 62
     7
370
     0
100
AcDbPolyline
 90
       20
 70
   128
 43
0.0
 10
131.8606564886
 20
104.6265395767
 10
131.2052643038
 20
104.6853935754
 10
130.6057188771
 20
104.9410313776
 10
130.1269920654
 20
105.3657498619
 10
129.8209594674
 20
105.913523998
 10
129.7207854799
 20
106.5249940789
 10
129.8373246677
 20
107.1338974348
 10
130.1579492278
 20
107.6742507926
 10
130.647914309
 20
108.0874981767
 10
131.25412428
 20
108.3288578725
 10
131.9108873717
 20
108.3721741511
 10
132.5470319129
 20
108.2127540781
 10
133.0936232693
 20
107.8678722902
 10
133.4914283938
 20
107.3749022967
 10
133.6973400898
 20
106.7872656918
 10
133.6890438683
 20
106.1686421222
 10
133.4674393869
 20
105.5860672555
 10
133.0565407983
 20
105.1026745176
 10
132.5008746348
 20
104.7708452156
 10
131.8606564886
 20
104.6265395767
  0
LWPOLYLINE
  5
162
330
1F
100
AcDbEntity
  8
0
  6
HIDDEN
 62
     7
370
     0
100
AcDbPolyline
 90
       19
 70
   128
 43
0.0
 10
131.8494545407
 20
104.7284244037
 10
131.2139125652
 20
104.7910372204
 10
130.6394877023
 20
105.0541339851
 10
130.1954638324
 20
105.485979881
 10
129.9353975914
 20
106.0344897619
 10
129.8906559236
 20
106.6335034034
 10
130.0666358433
 20
107.2107715941
 10
130.4421115778
 20
107.6966672613
 10
130.9717947728
 20
108.0325846037
 10
131.5917985625
 20
108.1780068985
 10
132.227340538
 20
108.1153940818
 10
132.8017654008
 20
107.8522973171
 10
133.2457883395
 20
107.4204514212
 10
133.5058545805
 20
106.8719424716
 10
133.5505962483
 20
106.2729288301
 10
133.3746163286
 20
105.6956597081
 10
132.9991405941
 20
105.2097645065
 10
132.469457399
 20
104.8738466984
 10
131.8494545407
 20
104.7284244037
  0
LWPOLYLINE
  5
163
330
1F
100
AcDbEntity
  8
0
  6
HIDDEN
 62
     7
370
     0
100
AcDbPolyline
 90
       20
 70
   128
 43
0.0
 10
131.8606564886
 20
104.8189256749
 10
131.2052643038
 20
104.877780605
 10
130.6057188771
 20
105.1334174758
 10
130.1269920654
 20
105.5581359601
 10
129.8209594674
 20
106.1059100962
 10
129.7207854799
 20
106.7173801771
 10
129.8373246677
 20
107.326283533
 10
130.1579492278
 20
107.8666373564
 10
130.647914309
 20
108.2798847406
 10
131.25412428
 20
108.5212439707
 10
131.9108873717
 20
108.564560715
 10
132.5470319129
 20
108.4051401763
 10
133.0936232693
 20
108.0602583884
 10
133.4914283938
 20
107.5672888605
 10
133.6973400898
 20
106.9796527213
 10
133.6890438683
 20
106.3610282204
 10
133.4674393869
 20
105.778454285
 10
133.0565407983
 20
105.2950606159
 10
132.5008746348
 20
104.9632313138
 10
131.8606564886
 20
104.8189256749
  0
LWPOLYLINE
  5
164
330
1F
100
AcDbEntity
  8
0
  6
HIDDEN
 62
     7
370
     0
100
AcDbPolyline
 90
       19
 70
   128
 43
0.0
 10
131.8494545407
 20
104.9208105019
 10
131.2139125652
 20
104.9834242499
 10
130.6394877023
 20
105.2465200833
 10
130.1954638324
 20
105.6783669105
 10
129.9353975914
 20
106.2268758601
 10
129.8906559236
 20
106.8258895016
 10
130.0666358433
 20
107.4031576923
 10
130.4421115778
 20
107.8890538252
 10
130.9717947728
 20
108.2249711676
 10
131.5917985625
 20
108.3703934623
 10
132.227340538
 20
108.30778018
 10
132.8017654008
 20
108.044683881
 10
133.2457883395
 20
107.6128375194
 10
133.5058545805
 20
107.0643285698
 10
133.5505962483
 20
106.4653149283
 10
133.3746163286
 20
105.8880467376
 10
132.9991405941
 20
105.4021506047
 10
132.469457399
 20
105.0662327966
 10
131.8494545407
 20
104.9208105019
  0
LWPOLYLINE
  5
165
330
1F
100
AcDbEntity
  8
0
  6
HIDDEN
 62
     7
370
     0
100
AcDbPolyline
 90
       20
 70
   128
 43
0.0
 10
131.8606564886
 20
105.0113117731
 10
131.2052643038
 20
105.0701667032
 10
130.6057188771
 20
105.3258045054
 10
130.1269920654
 20
105.7505220583
 10
129.8209594674
 20
106.2982961944
 10
129.7207854799
 20
106.9097662753
 10
129.8373246677
 20
107.5186700969
 10
130.1579492278
 20
108.0590234547
 10
130.647914309
 20
108.4722708388
 10
131.25412428
 20
108.7136305346
 10
131.9108873717
 20
108.7569468132
 10
132.5470319129
 20
108.5975267401
 10
133.0936232693
 20
108.2526449523
 10
133.4914283938
 20
107.7596754244
 10
133.6973400898
 20
107.1720388195
 10
133.6890438683
 20
106.5534143186
 10
133.4674393869
 20
105.9708403832
 10
133.0565407983
 20
105.4874467141
 10
132.5008746348
 20
105.1556183434
 10
131.8606564886
 20
105.0113117731
  0
LWPOLYLINE
  5
166
330
1F
100
AcDbEntity
  8
0
  6
HIDDEN
 62
     7
370
     0
100
AcDbPolyline
 90
       19
 70
   128
 43
0.0
 10
131.8494545407
 20
105.1131975314
 10
131.2139125652
 20
105.1758103481
 10
130.6394877023
 20
105.4389061815
 10
130.1954638324
 20
105.8707530087
 10
129.9353975914
 20
106.4192619583
 10
129.8906559236
 20
107.0182755998
 10
130.0666358433
 20
107.5955442561
 10
130.4421115778
 20
108.0814399234
 10
130.9717947728
 20
108.4173572658
 10
131.5917985625
 20
108.5627795606
 10
132.227340538
 20
108.5001667439
 10
132.8017654008
 20
108.2370699792
 10
133.2457883395
 20
107.8052240832
 10
133.5058545805
 20
107.256714668
 10
133.5505962483
 20
106.6577010265
 10
133.3746163286
 20
106.0804328358
 10
132.9991405941
 20
105.5945367029
 10
132.469457399
 20
105.2586188948
 10
131.8494545407
 20
105.1131975314
  0
LWPOLYLINE
  5
167
330
1F
100
AcDbEntity
  8
0
  6
HIDDEN
 62
     7
370
     0
100
AcDbPolyline
 90
       20
 70
   128
 43
0.0
 10
131.8606564886
 20
105.3362306616
 10
131.2052643038
 20
105.3950855917
 10
130.6057188771
 20
105.6507233939
 10
130.1269920654
 20
106.0754409468
 10
129.8209594674
 20
106.6232150829
 10
129.7207854799
 20
107.2346851638
 10
129.8373246677
 20
107.843589451
 10
130.1579492278
 20
108.3839428088
 10
130.647914309
 20
108.797190193
 10
131.25412428
 20
109.0385494231
 10
131.9108873717
 20
109.0818661674
 10
132.5470319129
 20
108.9224456287
 10
133.0936232693
 20
108.5775638408
 10
133.4914283938
 20
108.0845943129
 10
133.6973400898
 20
107.496957708
 10
133.6890438683
 20
106.8783332071
 10
133.4674393869
 20
106.2957592717
 10
133.0565407983
 20
105.8123665339
 10
132.5008746348
 20
105.4805372319
 10
131.8606564886
 20
105.3362306616
  0
LWPOLYLINE
  5
168
330
1F
100
AcDbEntity
  8
0
  6
HIDDEN
 62
     7
370
     0
100
AcDbPolyline
 90
       17
 70
   128
 43
0.0
 10
131.8242753036
 20
105.9259171075
 10
131.2512576691
 20
105.9942761845
 10
130.7496966905
 20
106.2634917385
 10
130.3959505744
 20
106.6925781256
 10
130.2438749111
 20
107.2162114492
 10
130.3166205175
 20
107.7546723595
 10
130.6031139679
 20
108.2259858436
 10
131.0597386322
 20
108.5583981535
 10
131.6169768683
 20
108.7013030833
 10
132.1899954341
 20
108.6329440063
 10
132.6915564127
 20
108.3637284523
 10
133.0453025288
 20
107.9346415995
 10
133.197378192
 20
107.4110087416
 10
133.1246316544
 20
106.8725478313
 10
132.8381391353
 20
106.4012343472
 10
132.381514471
 20
106.0688220373
 10
131.8242753036
 20
105.9259171075
  0
LWPOLYLINE
  5
169
330
1F
100
AcDbEntity
  8
0
  6
HIDDEN
 62
     7
370
     0
100
AcDbPolyline
 90
       20
 70
   128
 43
0.0
 10
126.4141838177
 20
124.8873187637
 10
126.7854588217
 20
125.1816939971
 10
127.1590178943
 20
125.2735577932
 10
127.4943797029
 20
125.1529571077
 10
127.7552021778
 20
124.8329593277
 10
127.913222473
 20
124.3482413179
 10
127.951315429
 20
123.7513306028
 10
127.865353424
 20
123.1069112605
 10
127.6646515466
 20
122.4848157203
 10
127.370959904
 20
121.9524582325
 10
127.01610272
 20
121.5675281769
 10
126.6385361663
 20
121.3717380947
 10
126.2791751064
 20
121.3863049111
 10
125.9769609309
 20
121.6096509656
 10
125.7646435983
 20
122.017572116
 10
125.6652314327
 20
122.5658645331
 10
125.6894970424
 20
123.1951121649
 10
125.834810838
 20
123.837125901
 10
126.0854255519
 20
124.4223336166
 10
126.4141838177
 20
124.8873187637
  0
LWPOLYLINE
  5
16A
330
1F
100
AcDbEntity
  8
0
  6
HIDDEN
 62
     7
370
     0
100
AcDbPolyline
 90
       17
 70
   128
 43
0.0
 10
127.1756783239
 20
124.1497885844
 10
127.4521712325
 20
124.3545622042
 10
127.7239022888
 20
124.3783565647
 10
127.9495030753
 20
124.2175478897
 10
128.0946292094
 20
123.8966187871
 10
128.1371850631
 20
123.4644273704
 10
128.0706932879
 20
122.9867706484
 10
127.9052754975
 20
122.5363681501
 10
127.6661155856
 20
122.1817889659
 10
127.3896236084
 20
121.9770148805
 10
127.1178925521
 20
121.9532209857
 10
126.8922908343
 20
122.114029195
 10
126.7471647001
 20
122.4349582976
 10
126.7046088464
 20
122.8671497142
 10
126.7711006216
 20
123.3448064363
 10
126.936518412
 20
123.7952089346
 10
127.1756783239
 20
124.1497885844
  0
LWPOLYLINE
  5
16B
330
1F
100
AcDbEntity
  8
0
  6
HIDDEN
 62
     7
370
     0
100
AcDbPolyline
 90
       20
 70
   128
 43
0.0
 10
123.1172329857
 20
125.6768893859
 10
123.4885084554
 20
125.9712646192
 10
123.8620670623
 20
126.0631284154
 10
124.1974288709
 20
125.9425277299
 10
124.4582518115
 20
125.6225299499
 10
124.616271641
 20
125.13781194
 10
124.654364597
 20
124.5409012249
 10
124.568402592
 20
123.8964809513
 10
124.3677011802
 20
123.2743863425
 10
124.074009072
 20
122.7420288547
 10
123.7191523536
 20
122.3570983334
 10
123.3415858
 20
122.1613082512
 10
122.9822242744
 20
122.1758755332
 10
122.6800100989
 20
122.3992211221
 10
122.4676932319
 20
122.8071427381
 10
122.3682808335
 20
123.3554346895
 10
122.3925464432
 20
123.9846818558
 10
122.5378602389
 20
124.6266955918
 10
122.7884751856
 20
125.2119033075
 10
123.1172329857
 20
125.6768893859
  0
LINE
  5
16C
330
1F
100
AcDbEntity
  8
0
  6
HIDDEN
 62
     7
370
     0
100
AcDbLine
 10
124.7207697592
 20
123.5260511226
 30
0.0
 11
125.1464940719
 21
124.5652050188
 31
0.0
  0
LINE
  5
16D
330
1F
100
AcDbEntity
  8
0
  6
HIDDEN
 62
     7
370
     0
100
AcDbLine
 10
124.7207697592
 20
123.5260511226
 30
0.0
 11
124.9472930207
 21
122.6170709765
 31
0.0
  0
LINE
  5
16E
330
1F
100
AcDbEntity
  8
0
  6
HIDDEN
 62
     7
370
     0
100
AcDbLine
 10
124.7207697592
 20
123.5260511226
 30
0.0
 11
122.6728896722
 21
124.016487453
 31
0.0
  0
LINE
  5
16F
330
1F
100
AcDbEntity
  8
0
  6
HIDDEN
 62
     7
370
     0
100
AcDbLine
 10
125.7987407147
 20
124.6953797004
 30
0.0
 11
125.1464940719
 21
124.5652050188
 31
0.0
  0
LINE
  5
170
330
1F
100
AcDbEntity
  8
0
  6
HIDDEN
 62
     7
370
     0
100
AcDbLine
 10
125.1464940719
 20
124.5652050188
 30
0.0
 11
123.0986139848
 21
125.0556422806
 31
0.0
  0
LINE
  5
171
330
1F
100
AcDbEntity
  8
0
  6
HIDDEN
 62
     7
370
     0
100
AcDbLine
 10
123.7508606277
 20
125.1858160308
 30
0.0
 11
123.0986139848
 21
125.0556422806
 31
0.0
  0
LINE
  5
172
330
1F
100
AcDbEntity
  8
0
  6
HIDDEN
 62
     7
370
     0
100
AcDbLine
 10
122.6728896722
 20
124.016487453
 30
0.0
 11
122.8994129337
 21
123.1075082383
 31
0.0
  0
LWPOLYLINE
  5
173
330
1F
100
AcDbEntity
  8
0
  6
HIDDEN
 62
     7
370
     0
100
AcDbPolyline
 90
       18
 70
   128
 43
0.0
 10
123.0092954933
 20
125.4140533915
 10
123.3440971113
 20
125.6685093454
 10
123.6763380579
 20
125.7174317202
 10
123.9611472114
 20
125.5542127824
 10
124.1600595526
 20
125.2008960059
 10
124.2462110817
 20
124.7051995656
 10
124.2079663201
 20
124.1340687907
 10
124.0504908487
 20
123.5646395421
 10
123.7950518838
 20
123.0738157815
 10
123.4761484078
 20
122.7278853244
 10
123.1368503644
 20
122.5735684334
 10
122.822980687
 20
122.6317071764
 10
122.5769306178
 20
122.8944486416
 10
122.4319297466
 20
123.3263085073
 10
122.4075612257
 20
123.8689613006
 10
122.5071165822
 20
124.4491193852
 10
122.7171503118
 20
124.9884287304
 10
123.0092954933
 20
125.4140533915
  0
LINE
  5
174
330
1F
100
AcDbEntity
  8
0
  6
HIDDEN
 62
     7
370
     0
100
AcDbLine
 10
122.6728896722
 20
124.016487453
 30
0.0
 11
123.0986139848
 21
125.0556422806
 31
0.0
  0
LINE
  5
175
330
1F
100
AcDbEntity
  8
0
  6
HIDDEN
 62
     7
370
     0
100
AcDbLine
 10
125.5995401292
 20
122.7472456581
 30
0.0
 11
123.5516600422
 21
123.2376819885
 31
0.0
  0
LINE
  5
176
330
1F
100
AcDbEntity
  8
0
  6
HIDDEN
 62
     7
370
     0
100
AcDbLine
 10
122.8994129337
 20
123.1075082383
 30
0.0
 11
123.5516600422
 21
123.2376819885
 31
0.0
  0
LINE
  5
177
330
1F
100
AcDbEntity
  8
0
  6
HIDDEN
 62
     7
370
     0
100
AcDbLine
 10
124.9472930207
 20
122.6170709765
 30
0.0
 11
122.8994129337
 21
123.1075082383
 31
0.0
  0
LINE
  5
178
330
1F
100
AcDbEntity
  8
0
  6
HIDDEN
 62
     7
370
     0
100
AcDbLine
 10
124.9472930207
 20
122.6170709765
 30
0.0
 11
125.5995401292
 21
122.7472456581
 31
0.0
  0
LINE
  5
179
330
1F
100
AcDbEntity
  8
0
  6
HIDDEN
 62
     7
370
     0
100
AcDbLine
 10
126.0252639762
 20
123.7863995543
 30
0.0
 11
123.9773838892
 21
124.2768358848
 31
0.0
  0
LINE
  5
17A
330
1F
100
AcDbEntity
  8
0
  6
HIDDEN
 62
     7
370
     0
100
AcDbLine
 10
123.7508606277
 20
125.1858160308
 30
0.0
 11
123.9773838892
 21
124.2768358848
 31
0.0
  0
LINE
  5
17B
330
1F
100
AcDbEntity
  8
0
  6
HIDDEN
 62
     7
370
     0
100
AcDbLine
 10
125.7987407147
 20
124.6953797004
 30
0.0
 11
123.7508606277
 21
125.1858160308
 31
0.0
  0
LINE
  5
17C
330
1F
100
AcDbEntity
  8
0
  6
HIDDEN
 62
     7
370
     0
100
AcDbLine
 10
125.7987407147
 20
124.6953797004
 30
0.0
 11
126.0252639762
 21
123.7863995543
 31
0.0
  0
LINE
  5
17D
330
1F
100
AcDbEntity
  8
0
  6
HIDDEN
 62
     7
370
     0
100
AcDbLine
 10
123.9773838892
 20
124.2768358848
 30
0.0
 11
123.5516600422
 21
123.2376819885
 31
0.0
  0
LINE
  5
17E
330
1F
100
AcDbEntity
  8
0
  6
HIDDEN
 62
     7
370
     0
100
AcDbLine
 10
126.0252639762
 20
123.7863995543
 30
0.0
 11
125.5995401292
 21
122.7472456581
 31
0.0
  0
LWPOLYLINE
  5
17F
330
1F
100
AcDbEntity
  8
0
  6
HIDDEN
 62
     7
370
     0
100
AcDbPolyline
 90
       18
 70
   128
 43
0.0
 10
123.640978068
 20
104.7743525764
 10
123.9331237152
 20
104.9145771599
 10
124.1431569792
 20
105.2487031034
 10
124.2427121028
 20
105.7316041029
 10
124.2183440476
 20
106.2980633637
 10
124.0733431763
 20
106.8715755305
 10
123.8272928744
 20
107.3746862298
 10
123.5134236626
 20
107.7394470981
 10
123.1741251535
 20
107.9165948963
 10
122.8552216775
 20
107.8822048789
 10
122.5997829455
 20
107.6409215516
 10
122.4423070084
 20
107.2253318912
 10
122.4040624797
 20
106.691562984
 10
122.4902140088
 20
106.1117038539
 10
122.6891263499
 20
105.5640675536
 10
122.9739355034
 20
105.1226159966
 10
123.30617645
 20
104.8469677976
 10
123.640978068
 20
104.7743525764
  0
LWPOLYLINE
  5
180
330
1F
100
AcDbEntity
  8
0
  6
HIDDEN
 62
     7
370
     0
100
AcDbPolyline
 90
       20
 70
   128
 43
0.0
 10
123.9019318595
 20
104.4367751515
 10
124.2306901253
 20
104.5805937088
 10
124.4813048392
 20
104.9209734833
 10
124.6266186348
 20
105.4210285133
 10
124.6508842445
 20
106.0265697947
 10
124.5514716133
 20
106.6719791329
 10
124.3391547463
 20
107.2873160651
 10
124.0369405709
 20
107.8058974295
 10
123.6775790452
 20
108.1715290843
 10
123.3000124916
 20
108.3445879108
 10
122.9451562389
 20
108.3063207975
 10
122.6514641307
 20
108.0608739926
 10
122.4507622532
 20
107.6348465344
 10
122.3648002482
 20
107.0744045487
 10
122.4028932042
 20
106.4402800462
 10
122.5609130337
 20
105.801190663
 10
122.8217359743
 20
105.2263923398
 10
123.1570977829
 20
104.7781728617
 10
123.5306568555
 20
104.5051034948
 10
123.9019318595
 20
104.4367751515
  0
LWPOLYLINE
  5
181
330
1F
100
AcDbEntity
  8
0
  6
HIDDEN
 62
     7
370
     0
100
AcDbPolyline
 90
       20
 70
   128
 43
0.0
 10
127.1988822258
 20
105.2263457737
 10
127.527640026
 20
105.3701643309
 10
127.7782552055
 20
105.7105431742
 10
127.9235694668
 20
106.2105982042
 10
127.9478341452
 20
106.8161404169
 10
127.8484219796
 20
107.4615497551
 10
127.6361055783
 20
108.0768862216
 10
127.3338914029
 20
108.5954680516
 10
126.9745294116
 20
108.9610992408
 10
126.5969628579
 20
109.1341580673
 10
126.2421066053
 20
109.095890954
 10
125.948414497
 20
108.8504446148
 10
125.7477130852
 20
108.4244171566
 10
125.6617510802
 20
107.8639747052
 10
125.6998435705
 20
107.2298506683
 10
125.8578634001
 20
106.5907612851
 10
126.1186863407
 20
106.0159629619
 10
126.4540481492
 20
105.5677425525
 10
126.8276067562
 20
105.2946731857
 10
127.1988822258
 20
105.2263457737
  0
LINE
  5
182
330
1F
100
AcDbEntity
  8
0
  6
HIDDEN
 62
     7
370
     0
100
AcDbLine
 10
123.7508606277
 20
106.9735525584
 30
0.0
 11
123.0986139848
 21
107.4805654994
 31
0.0
  0
LINE
  5
183
330
1F
100
AcDbEntity
  8
0
  6
HIDDEN
 62
     7
370
     0
100
AcDbLine
 10
122.6728896722
 20
106.857305806
 30
0.0
 11
123.0986139848
 21
107.4805654994
 31
0.0
  0
LINE
  5
184
330
1F
100
AcDbEntity
  8
0
  6
HIDDEN
 62
     7
370
     0
100
AcDbLine
 10
122.8994129337
 20
105.7270331717
 30
0.0
 11
122.6728896722
 21
106.857305806
 31
0.0
  0
LINE
  5
185
330
1F
100
AcDbEntity
  8
0
  6
HIDDEN
 62
     7
370
     0
100
AcDbLine
 10
122.8994129337
 20
105.7270331717
 30
0.0
 11
123.5516600422
 21
105.2200202307
 31
0.0
  0
LINE
  5
186
330
1F
100
AcDbEntity
  8
0
  6
HIDDEN
 62
     7
370
     0
100
AcDbLine
 10
123.9773838892
 20
105.8432799241
 30
0.0
 11
123.5516600422
 21
105.2200202307
 31
0.0
  0
LINE
  5
187
330
1F
100
AcDbEntity
  8
0
  6
HIDDEN
 62
     7
370
     0
100
AcDbLine
 10
123.9773838892
 20
105.8432799241
 30
0.0
 11
123.7508606277
 21
106.9735525584
 31
0.0
  0
LINE
  5
188
330
1F
100
AcDbEntity
  8
0
  6
HIDDEN
 62
     7
370
     0
100
AcDbLine
 10
125.7987407147
 20
107.4639893545
 30
0.0
 11
123.7508606277
 21
106.9735525584
 31
0.0
  0
LINE
  5
189
330
1F
100
AcDbEntity
  8
0
  6
HIDDEN
 62
     7
370
     0
100
AcDbLine
 10
126.0252639762
 20
106.3337171859
 30
0.0
 11
123.9773838892
 21
105.8432799241
 31
0.0
  0
LINE
  5
18A
330
1F
100
AcDbEntity
  8
0
  6
HIDDEN
 62
     7
370
     0
100
AcDbLine
 10
124.7207697592
 20
107.3477421364
 30
0.0
 11
125.1464940719
 21
107.9710022955
 31
0.0
  0
LINE
  5
18B
330
1F
100
AcDbEntity
  8
0
  6
HIDDEN
 62
     7
370
     0
100
AcDbLine
 10
124.7207697592
 20
107.3477421364
 30
0.0
 11
122.6728896722
 21
106.857305806
 31
0.0
  0
LINE
  5
18C
330
1F
100
AcDbEntity
  8
0
  6
HIDDEN
 62
     7
370
     0
100
AcDbLine
 10
125.1464940719
 20
107.9710022955
 30
0.0
 11
123.0986139848
 21
107.4805654994
 31
0.0
  0
LINE
  5
18D
330
1F
100
AcDbEntity
  8
0
  6
HIDDEN
 62
     7
370
     0
100
AcDbLine
 10
124.9472930207
 20
106.2174695021
 30
0.0
 11
122.8994129337
 21
105.7270331717
 31
0.0
  0
LINE
  5
18E
330
1F
100
AcDbEntity
  8
0
  6
HIDDEN
 62
     7
370
     0
100
AcDbLine
 10
124.9472930207
 20
106.2174695021
 30
0.0
 11
125.5995401292
 21
105.7104574925
 31
0.0
  0
LINE
  5
18F
330
1F
100
AcDbEntity
  8
0
  6
HIDDEN
 62
     7
370
     0
100
AcDbLine
 10
125.5995401292
 20
105.7104574925
 30
0.0
 11
123.5516600422
 21
105.2200202307
 31
0.0
  0
LINE
  5
190
330
1F
100
AcDbEntity
  8
0
  6
HIDDEN
 62
     7
370
     0
100
AcDbLine
 10
124.9472930207
 20
106.2174695021
 30
0.0
 11
124.7207697592
 21
107.3477421364
 31
0.0
  0
LINE
  5
191
330
1F
100
AcDbEntity
  8
0
  6
HIDDEN
 62
     7
370
     0
100
AcDbLine
 10
126.0252639762
 20
106.3337171859
 30
0.0
 11
125.5995401292
 21
105.7104574925
 31
0.0
  0
LINE
  5
192
330
1F
100
AcDbEntity
  8
0
  6
HIDDEN
 62
     7
370
     0
100
AcDbLine
 10
126.0252639762
 20
106.3337171859
 30
0.0
 11
125.7987407147
 21
107.4639893545
 31
0.0
  0
LINE
  5
193
330
1F
100
AcDbEntity
  8
0
  6
HIDDEN
 62
     7
370
     0
100
AcDbLine
 10
125.7987407147
 20
107.4639893545
 30
0.0
 11
125.1464940719
 21
107.9710022955
 31
0.0
  0
LWPOLYLINE
  5
194
330
1F
100
AcDbEntity
  8
0
  6
HIDDEN
 62
     7
370
     0
100
AcDbPolyline
 90
       17
 70
   128
 43
0.0
 10
127.6661155856
 20
106.1076106912
 10
127.9052754975
 20
106.2285513094
 10
128.0706932879
 20
106.5173563025
 10
128.1371850631
 20
106.9300551376
 10
128.0946292094
 20
107.4038207939
 10
127.9495030753
 20
107.8665246664
 10
127.7239022888
 20
108.2477257064
 10
127.4521712325
 20
108.4893885477
 10
127.1756783239
 20
108.5547222233
 10
126.936518412
 20
108.4337811394
 10
126.7711006216
 20
108.1449770777
 10
126.7046088464
 20
107.7322773113
 10
126.7471647001
 20
107.2585121206
 10
126.8922908343
 20
106.7958077824
 10
127.1178925521
 20
106.4146072081
 10
127.3896236084
 20
106.1729448325
 10
127.6661155856
 20
106.1076106912
  0
LINE
  5
195
330
1F
100
AcDbEntity
  8
0
  6
HIDDEN
 62
     7
370
     0
100
AcDbLine
 10
133.7206259481
 20
104.3896343967
 30
0.0
 11
133.7206259481
 21
107.2110044247
 31
0.0
  0
LINE
  5
196
330
1F
100
AcDbEntity
  8
0
  6
HIDDEN
 62
     7
370
     0
100
AcDbLine
 10
129.7206262238
 20
107.1940496972
 30
0.0
 11
129.7206262238
 21
105.6725936419
 31
0.0
  0
LINE
  5
197
330
1F
100
AcDbEntity
  8
0
  6
HIDDEN
 62
     7
370
     0
100
AcDbLine
 10
121.9206262025
 20
103.8545523247
 30
0.0
 11
123.8142254873
 21
104.308041226
 31
0.0
  0
LINE
  5
198
330
1F
100
AcDbEntity
  8
0
  6
HIDDEN
 62
     7
370
     0
100
AcDbLine
 10
122.836048074
 20
108.3925445041
 30
0.0
 11
121.9206262025
 21
108.1733148953
 31
0.0
  0
LINE
  5
199
330
1F
100
AcDbEntity
  8
0
  6
HIDDEN
 62
     7
370
     0
100
AcDbLine
 10
123.8435868285
 20
104.7777975387
 30
0.0
 11
131.0506470612
 21
106.5037804133
 31
0.0
  0
LINE
  5
19A
330
1F
100
AcDbEntity
  8
0
  6
HIDDEN
 62
     7
370
     0
100
AcDbLine
 10
131.0506470612
 20
109.8970942608
 30
0.0
 11
123.0750189274
 21
107.9870499148
 31
0.0
  0
LINE
  5
19B
330
1F
100
AcDbEntity
  8
0
  6
HIDDEN
 62
     7
370
     0
100
AcDbLine
 10
237.8206232674
 20
138.7484766951
 30
0.0
 11
237.2706288583
 21
137.5689994952
 31
0.0
  0
LINE
  5
19C
330
1F
100
AcDbEntity
  8
0
  6
HIDDEN
 62
     7
370
     0
100
AcDbLine
 10
237.2706288583
 20
92.9279555044
 30
0.0
 11
237.8206232674
 21
91.7484783045
 31
0.0
  0
LINE
  5
19D
330
1F
100
AcDbEntity
  8
0
  6
HIDDEN
 62
     7
370
     0
100
AcDbLine
 10
133.3706265426
 20
107.2545735574
 30
0.0
 11
133.3706265426
 21
113.7973870559
 31
0.0
  0
LINE
  5
19E
330
1F
100
AcDbEntity
  8
0
  6
HIDDEN
 62
     7
370
     0
100
AcDbLine
 10
130.0706265605
 20
107.2768135405
 30
0.0
 11
130.0706265605
 21
107.2545735574
 31
0.0
  0
LINE
  5
19F
330
1F
100
AcDbEntity
  8
0
  6
HIDDEN
 62
     7
370
     0
100
AcDbLine
 10
130.0706265605
 20
113.7970949699
 30
0.0
 11
130.0706265605
 21
108.6546605861
 31
0.0
  0
LINE
  5
1A0
330
1F
100
AcDbEntity
  8
0
  6
HIDDEN
 62
     7
370
     0
100
AcDbLine
 10
237.2706288583
 20
134.4484784117
 30
0.0
 11
233.2706282026
 21
134.4484784117
 31
0.0
  0
LINE
  5
1A1
330
1F
100
AcDbEntity
  8
0
  6
HIDDEN
 62
     7
370
     0
100
AcDbLine
 10
233.2706282026
 20
96.0484765878
 30
0.0
 11
237.2706288583
 21
96.0484765878
 31
0.0
  0
LINE
  5
1A2
330
1F
100
AcDbEntity
  8
0
  6
HIDDEN
 62
     7
370
     0
100
AcDbLine
 10
233.2706282026
 20
130.9412982723
 30
0.0
 11
232.0706227905
 21
130.2484771645
 31
0.0
  0
LINE
  5
1A3
330
1F
100
AcDbEntity
  8
0
  6
HIDDEN
 62
     7
370
     0
100
AcDbLine
 10
232.0706227905
 20
100.2484778351
 30
0.0
 11
233.2706282026
 21
99.5556567273
 31
0.0
  0
LINE
  5
1A4
330
1F
100
AcDbEntity
  8
0
  6
HIDDEN
 62
     7
370
     0
100
AcDbLine
 10
207.4206227548
 20
99.9484774134
 30
0.0
 11
208.1220204122
 21
99.9484774134
 31
0.0
  0
LINE
  5
1A5
330
1F
100
AcDbEntity
  8
0
  6
HIDDEN
 62
     7
370
     0
100
AcDbLine
 10
208.1220204122
 20
130.5484775862
 30
0.0
 11
207.4206227548
 21
130.5484775862
 31
0.0
  0
ARC
  5
1A6
330
1F
100
AcDbEntity
  8
0
  6
HIDDEN
 62
     7
370
     0
100
AcDbCircle
 10
208.1220195425
 20
100.5484774998
 30
0.0
 40
0.599999999999986
100
AcDbArc
 50
270.0
 51
285.0
  0
ARC
  5
1A7
330
1F
100
AcDbEntity
  8
0
  6
HIDDEN
 62
     7
370
     0
100
AcDbCircle
 10
208.1220195425
 20
129.9484774998
 30
0.0
 40
0.5999999999999943
100
AcDbArc
 50
75.0
 51
90.0
  0
ARC
  5
1A8
330
1F
100
AcDbEntity
  8
0
  6
HIDDEN
 62
     7
370
     0
100
AcDbCircle
 10
207.4206262834
 20
100.5484774998
 30
0.0
 40
0.5999999999999943
100
AcDbArc
 50
180.0
 51
270.0
  0
ARC
  5
1A9
330
1F
100
AcDbEntity
  8
0
  6
HIDDEN
 62
     7
370
     0
100
AcDbCircle
 10
207.4206262834
 20
129.9484774998
 30
0.0
 40
0.5999999999999943
100
AcDbArc
 50
90.0
 51
180.0
  0
LINE
  5
1AA
330
1F
100
AcDbEntity
  8
0
  6
HIDDEN
 62
     7
370
     0
100
AcDbLine
 10
208.2773128635
 20
99.9689218065
 30
0.0
 11
209.3206251151
 21
100.2484778351
 31
0.0
  0
LINE
  5
1AB
330
1F
100
AcDbEntity
  8
0
  6
HIDDEN
 62
     7
370
     0
100
AcDbLine
 10
209.3206251151
 20
130.2484771645
 30
0.0
 11
208.2773128635
 21
130.5280331931
 31
0.0
  0
LINE
  5
1AC
330
1F
100
AcDbEntity
  8
0
  6
HIDDEN
 62
     7
370
     0
100
AcDbLine
 10
209.3206251151
 20
100.2484778351
 30
0.0
 11
232.0706227905
 21
100.2484778351
 31
0.0
  0
LINE
  5
1AD
330
1F
100
AcDbEntity
  8
0
  6
HIDDEN
 62
     7
370
     0
100
AcDbLine
 10
232.0706227905
 20
130.2484771645
 30
0.0
 11
209.3206251151
 21
130.2484771645
 31
0.0
  0
LINE
  5
1AE
330
1F
100
AcDbEntity
  8
0
  6
HIDDEN
 62
     7
370
     0
100
AcDbLine
 10
237.2706288583
 20
136.5234781465
 30
0.0
 11
233.2706282026
 21
136.5234781465
 31
0.0
  0
LINE
  5
1AF
330
1F
100
AcDbEntity
  8
0
  6
HIDDEN
 62
     7
370
     0
100
AcDbLine
 10
233.2706282026
 20
93.9734768531
 30
0.0
 11
237.2706288583
 21
93.9734768531
 31
0.0
  0
ARC
  5
1B0
330
1F
100
AcDbEntity
  8
0
  6
HIDDEN
 62
     7
370
     0
100
AcDbCircle
 10
51.2706262834
 20
105.9484774998
 30
0.0
 40
0.7999999999999972
100
AcDbArc
 50
90.0
 51
180.0
  0
ARC
  5
1B1
330
1F
100
AcDbEntity
  8
0
  6
HIDDEN
 62
     7
370
     0
100
AcDbCircle
 10
51.2706262834
 20
124.5484774998
 30
0.0
 40
0.7999999999999972
100
AcDbArc
 50
180.0
 51
270.0
  0
LINE
  5
1B2
330
1F
100
AcDbEntity
  8
0
  6
HIDDEN
 62
     7
370
     0
100
AcDbLine
 10
58.3629997558
 20
106.5234778857
 30
0.0
 11
59.2396872229
 21
106.5234778857
 31
0.0
  0
LINE
  5
1B3
330
1F
100
AcDbEntity
  8
0
  6
HIDDEN
 62
     7
370
     0
100
AcDbLine
 10
59.2396872229
 20
123.9734771139
 30
0.0
 11
58.3629997558
 21
123.9734771139
 31
0.0
  0
ARC
  5
1B4
330
1F
100
AcDbEntity
  8
0
  6
HIDDEN
 62
     7
370
     0
100
AcDbCircle
 10
59.2396861757
 20
106.9234774998
 30
0.0
 40
0.400000000000006
100
AcDbArc
 50
270.0
 51
330.0
  0
ARC
  5
1B5
330
1F
100
AcDbEntity
  8
0
  6
HIDDEN
 62
     7
370
     0
100
AcDbCircle
 10
59.2396861757
 20
123.5734774998
 30
0.0
 40
0.4000000000000057
100
AcDbArc
 50
30.0
 51
90.0
  0
ARC
  5
1B6
330
1F
100
AcDbEntity
  8
0
  6
HIDDEN
 62
     7
370
     0
100
AcDbCircle
 10
58.3629987141
 20
106.9234774998
 30
0.0
 40
0.4000000000000057
100
AcDbArc
 50
255.0
 51
270.0
  0
ARC
  5
1B7
330
1F
100
AcDbEntity
  8
0
  6
HIDDEN
 62
     7
370
     0
100
AcDbCircle
 10
58.3629987141
 20
123.5734774998
 30
0.0
 40
0.4000000000000057
100
AcDbArc
 50
90.0
 51
105.0
  0
LINE
  5
1B8
330
1F
100
AcDbEntity
  8
0
  6
HIDDEN
 62
     7
370
     0
100
AcDbLine
 10
58.2594702131
 20
123.9598481393
 30
0.0
 11
57.4706250913
 21
123.7484779617
 31
0.0
  0
LINE
  5
1B9
330
1F
100
AcDbEntity
  8
0
  6
HIDDEN
 62
     7
370
     0
100
AcDbLine
 10
57.4706250913
 20
106.7484770379
 30
0.0
 11
58.2594702131
 21
106.5371068603
 31
0.0
  0
LINE
  5
1BA
330
1F
100
AcDbEntity
  8
0
  6
HIDDEN
 62
     7
370
     0
100
AcDbLine
 10
59.5860945172
 20
106.723477546
 30
0.0
 11
60.4665557034
 21
108.2484772837
 31
0.0
  0
LINE
  5
1BB
330
1F
100
AcDbEntity
  8
0
  6
HIDDEN
 62
     7
370
     0
100
AcDbLine
 10
60.4665557034
 20
122.2484777159
 30
0.0
 11
59.5860945172
 21
123.7734774536
 31
0.0
  0
LINE
  5
1BC
330
1F
100
AcDbEntity
  8
0
  6
HIDDEN
 62
     7
370
     0
100
AcDbLine
 10
51.2706244475
 20
106.7484770379
 30
0.0
 11
57.4706250913
 21
106.7484770379
 31
0.0
  0
LINE
  5
1BD
330
1F
100
AcDbEntity
  8
0
  6
HIDDEN
 62
     7
370
     0
100
AcDbLine
 10
57.4706250913
 20
123.7484779617
 30
0.0
 11
51.2706244475
 21
123.7484779617
 31
0.0
  0
LINE
  5
1BE
330
1F
100
AcDbEntity
  8
0
  6
HIDDEN
 62
     7
370
     0
100
AcDbLine
 10
93.4706254042
 20
108.2484772837
 30
0.0
 11
95.1229928172
 21
110.9984772688
 31
0.0
  0
LINE
  5
1BF
330
1F
100
AcDbEntity
  8
0
  6
HIDDEN
 62
     7
370
     0
100
AcDbLine
 10
95.1229928172
 20
119.4984777308
 30
0.0
 11
93.4706254042
 21
122.2484777159
 31
0.0
  0
LINE
  5
1C0
330
1F
100
AcDbEntity
  8
0
  6
HIDDEN
 62
     7
370
     0
100
AcDbLine
 10
60.4665557034
 20
108.2484772837
 30
0.0
 11
93.4706254042
 21
108.2484772837
 31
0.0
  0
LINE
  5
1C1
330
1F
100
AcDbEntity
  8
0
  6
HIDDEN
 62
     7
370
     0
100
AcDbLine
 10
93.4706254042
 20
122.2484777159
 30
0.0
 11
60.4665557034
 21
122.2484777159
 31
0.0
  0
ARC
  5
1C2
330
1F
100
AcDbEntity
  8
0
  6
HIDDEN
 62
     7
370
     0
100
AcDbCircle
 10
144.2206262834
 20
91.0484774998
 30
0.0
 40
1.599999999999994
100
AcDbArc
 50
0.0
 51
90.0
  0
LINE
  5
1C3
330
1F
100
AcDbEntity
  8
0
  6
HIDDEN
 62
     7
370
     0
100
AcDbLine
 10
145.8206268138
 20
90.2484771273
 30
0.0
 11
145.8206268138
 21
91.0484776309
 31
0.0
  0
LINE
  5
1C4
330
1F
100
AcDbEntity
  8
0
  6
HIDDEN
 62
     7
370
     0
100
AcDbLine
 10
95.1229928172
 20
110.9984772688
 30
0.0
 11
206.8206274993
 21
110.9984772688
 31
0.0
  0
LINE
  5
1C5
330
1F
100
AcDbEntity
  8
0
  6
HIDDEN
 62
     7
370
     0
100
AcDbLine
 10
206.8206274993
 20
119.4984777308
 30
0.0
 11
95.1229928172
 21
119.4984777308
 31
0.0
  0
LINE
  5
1C6
330
1F
100
AcDbEntity
  8
0
  6
HIDDEN
 62
     7
370
     0
100
AcDbLine
 10
145.8206268138
 20
140.0484782121
 30
0.0
 11
145.8206268138
 21
140.2484778723
 31
0.0
  0
LINE
  5
1C7
330
1F
100
AcDbEntity
  8
0
  6
HIDDEN
 62
     7
370
     0
100
AcDbLine
 10
133.3706265426
 20
116.6998600297
 30
0.0
 11
133.3706265426
 21
123.2423814422
 31
0.0
  0
LINE
  5
1C8
330
1F
100
AcDbEntity
  8
0
  6
HIDDEN
 62
     7
370
     0
100
AcDbLine
 10
130.0706265605
 20
121.8422944135
 30
0.0
 11
130.0706265605
 21
116.6995679437
 31
0.0
  0
LINE
  5
1C9
330
1F
100
AcDbEntity
  8
0
  6
HIDDEN
 62
     7
370
     0
100
AcDbLine
 10
130.0706265605
 20
123.2423814422
 30
0.0
 11
130.0706265605
 21
123.2201414591
 31
0.0
  0
LINE
  5
1CA
330
1F
100
AcDbEntity
  8
0
  6
HIDDEN
 62
     7
370
     0
100
AcDbLine
 10
123.0750189274
 20
122.5099050848
 30
0.0
 11
131.0506470612
 21
120.5998607388
 31
0.0
  0
LINE
  5
1CB
330
1F
100
AcDbEntity
  8
0
  6
HIDDEN
 62
     7
370
     0
100
AcDbLine
 10
131.0506470612
 20
123.9931745863
 30
0.0
 11
123.8435868285
 21
125.7191574609
 31
0.0
  0
LINE
  5
1CC
330
1F
100
AcDbEntity
  8
0
  6
HIDDEN
 62
     7
370
     0
100
AcDbLine
 10
133.7206259481
 20
123.2859505749
 30
0.0
 11
133.7206259481
 21
126.1073206028
 31
0.0
  0
LINE
  5
1CD
330
1F
100
AcDbEntity
  8
0
  6
HIDDEN
 62
     7
370
     0
100
AcDbLine
 10
129.7206262238
 20
124.8243613577
 30
0.0
 11
129.7206262238
 21
123.3029053024
 31
0.0
  0
LINE
  5
1CE
330
1F
100
AcDbEntity
  8
0
  6
HIDDEN
 62
     7
370
     0
100
AcDbLine
 10
121.9206262025
 20
122.3236401042
 30
0.0
 11
122.836048074
 21
122.1044104955
 31
0.0
  0
LINE
  5
1CF
330
1F
100
AcDbEntity
  8
0
  6
HIDDEN
 62
     7
370
     0
100
AcDbLine
 10
123.8142254873
 20
126.1889137736
 30
0.0
 11
121.9206262025
 21
126.6424026749
 31
0.0
  0
LINE
  5
1D0
330
1F
100
AcDbEntity
  8
0
  6
HIDDEN
 62
     7
370
     0
100
AcDbLine
 10
133.7206259481
 20
123.2859505749
 30
0.0
 11
133.7206259481
 21
123.6108703947
 31
0.0
  0
LINE
  5
1D1
330
1F
100
AcDbEntity
  8
0
  6
HIDDEN
 62
     7
370
     0
100
AcDbLine
 10
129.7206262238
 20
123.6108703947
 30
0.0
 11
129.7206262238
 21
123.2859505749
 31
0.0
  0
LINE
  5
1D2
330
1F
100
AcDbEntity
  8
0
  6
HIDDEN
 62
     7
370
     0
100
AcDbLine
 10
133.2206258661
 20
123.5479474476
 30
0.0
 11
133.2206258661
 21
124.55142517
 31
0.0
  0
LINE
  5
1D3
330
1F
100
AcDbEntity
  8
0
  6
HIDDEN
 62
     7
370
     0
100
AcDbLine
 10
130.2206263057
 20
124.55142517
 30
0.0
 11
130.2206263057
 21
123.5479474476
 31
0.0
  0
LINE
  5
1D4
330
1F
100
AcDbEntity
  8
0
  6
HIDDEN
 62
     7
370
     0
100
AcDbLine
 10
133.7206259481
 20
124.3804157189
 30
0.0
 11
133.7206259481
 21
124.5172232798
 31
0.0
  0
LINE
  5
1D5
330
1F
100
AcDbEntity
  8
0
  6
HIDDEN
 62
     7
370
     0
100
AcDbLine
 10
129.7206262238
 20
124.5172232798
 30
0.0
 11
129.7206262238
 21
124.3804157189
 31
0.0
  0
LINE
  5
1D6
330
1F
100
AcDbEntity
  8
0
  6
HIDDEN
 62
     7
370
     0
100
AcDbLine
 10
129.7206262238
 20
106.1165392807
 30
0.0
 11
129.7206262238
 21
105.9797317198
 31
0.0
  0
LINE
  5
1D7
330
1F
100
AcDbEntity
  8
0
  6
HIDDEN
 62
     7
370
     0
100
AcDbLine
 10
133.7206259481
 20
105.9797317198
 30
0.0
 11
133.7206259481
 21
106.1165392807
 31
0.0
  0
LINE
  5
1D8
330
1F
100
AcDbEntity
  8
0
  6
HIDDEN
 62
     7
370
     0
100
AcDbLine
 10
130.2206263057
 20
106.949007552
 30
0.0
 11
130.2206263057
 21
105.9455298296
 31
0.0
  0
LINE
  5
1D9
330
1F
100
AcDbEntity
  8
0
  6
HIDDEN
 62
     7
370
     0
100
AcDbLine
 10
133.2206258661
 20
105.9455298296
 30
0.0
 11
133.2206258661
 21
106.949007552
 31
0.0
  0
LINE
  5
1DA
330
1F
100
AcDbEntity
  8
0
  6
HIDDEN
 62
     7
370
     0
100
AcDbLine
 10
129.7206262238
 20
107.2110044247
 30
0.0
 11
129.7206262238
 21
106.8860846049
 31
0.0
  0
LINE
  5
1DB
330
1F
100
AcDbEntity
  8
0
  6
HIDDEN
 62
     7
370
     0
100
AcDbLine
 10
133.7206259481
 20
106.8860846049
 30
0.0
 11
133.7206259481
 21
107.2110044247
 31
0.0
  0
CIRCLE
  5
1DC
330
1F
100
AcDbEntity
  8
0
  6
HIDDEN
 62
     7
370
     0
100
AcDbCircle
 10
131.7206262834
 20
123.9699911546
 30
0.0
 40
1.500000000000012
  0
ARC
  5
1DD
330
1F
100
AcDbEntity
  8
0
  6
HIDDEN
 62
     7
370
     0
100
AcDbCircle
 10
131.7206262834
 20
106.526963845
 30
0.0
 40
1.499999999999984
100
AcDbArc
 50
93.7734577691
 51
191.5274417161
  0
ARC
  5
1DE
330
1F
100
AcDbEntity
  8
0
  6
HIDDEN
 62
     7
370
     0
100
AcDbCircle
 10
131.7206262834
 20
106.526963845
 30
0.0
 40
1.500000000000001
100
AcDbArc
 50
336.596033829
 51
93.7734577691
  0
LINE
  5
1DF
330
1F
100
AcDbEntity
  8
0
  6
HIDDEN
 62
     7
370
     0
100
AcDbLine
 10
127.1193910501
 20
121.6575954518
 30
0.0
 11
127.6164332516
 21
122.1312106995
 31
0.0
  0
LINE
  5
1E0
330
1F
100
AcDbEntity
  8
0
  6
HIDDEN
 62
     7
370
     0
100
AcDbLine
 10
128.0638732127
 20
123.9995550773
 30
0.0
 11
127.8352959193
 21
124.6469453386
 31
0.0
  0
LINE
  5
1E1
330
1F
100
AcDbEntity
  8
0
  6
HIDDEN
 62
     7
370
     0
100
AcDbLine
 10
123.0437837652
 20
122.1574884316
 30
0.0
 11
126.3407341316
 21
121.3679178095
 31
0.0
  0
LINE
  5
1E2
330
1F
100
AcDbEntity
  8
0
  6
HIDDEN
 62
     7
370
     0
100
AcDbLine
 10
127.272331912
 20
125.2579208872
 30
0.0
 11
123.9753815457
 21
126.0474915093
 31
0.0
  0
LINE
  5
1E3
330
1F
100
AcDbEntity
  8
0
  6
HIDDEN
 62
     7
370
     0
100
AcDbLine
 10
123.9753815457
 20
104.4494634903
 30
0.0
 11
127.272331912
 21
105.2390341124
 31
0.0
  0
LINE
  5
1E4
330
1F
100
AcDbEntity
  8
0
  6
HIDDEN
 62
     7
370
     0
100
AcDbLine
 10
126.3407341316
 20
109.1290371901
 30
0.0
 11
123.0437837652
 21
108.3394665679
 31
0.0
  0
LINE
  5
1E5
330
1F
100
AcDbEntity
  8
0
  6
HIDDEN
 62
     7
370
     0
100
AcDbLine
 10
127.8352959193
 20
105.850009661
 30
0.0
 11
128.0638732127
 21
106.4973999223
 31
0.0
  0
LINE
  5
1E6
330
1F
100
AcDbEntity
  8
0
  6
HIDDEN
 62
     7
370
     0
100
AcDbLine
 10
127.6164332516
 20
108.3657443001
 30
0.0
 11
127.1193910501
 21
108.8393595478
 31
0.0
  0
DIMENSION
  5
1E7
330
1F
100
AcDbEntity
  8
VERMASSUNG
100
AcDbDimension
  2
_D
 10
43.9746372074
 20
146.9984774998
 30
0.0
 11
43.9746372074
 21
115.2484774998
 31
0.0
 70
   160
  1
ISO 40 %%c<>
 71
     2
 42
-1.0
  3
SLDDIMSTYLE0
100
AcDbAlignedDimension
 13
137.1706262834
 23
83.4984774998
 33
0.0
 14
137.1706262834
 24
146.9984774998
 34
0.0
 50
90.0
100
AcDbRotatedDimension
  0
DIMENSION
  5
1F4
330
1F
100
AcDbEntity
  8
VERMASSUNG
100
AcDbDimension
  2
_D_1
 10
237.8206262834
 20
163.714983843
 30
0.0
 11
144.1456262834
 21
163.714983843
 31
0.0
 70
   160
  1
(<>)
 71
     2
 42
-1.0
  3
SLDDIMSTYLE0
100
AcDbAlignedDimension
 13
50.4706262834
 23
126.6556080968
 33
0.0
 14
237.8206262834
 24
142.2484774998
 34
0.0
100
AcDbRotatedDimension
  0
DIMENSION
  5
200
330
1F
100
AcDbEntity
  8
VERMASSUNG
100
AcDbDimension
  2
_D_2
 10
237.8206262834
 20
157.714983843
 30
0.0
 11
178.2706262834
 21
157.714983843
 31
0.0
 70
   160
  1
<>
 71
     2
 42
-1.0
  3
SLDDIMSTYLE0
100
AcDbAlignedDimension
 13
118.7206262834
 23
137.4734774998
 33
0.0
 14
237.8206262834
 24
142.2484774998
 34
0.0
100
AcDbRotatedDimension
  0
DIMENSION
  5
20A
330
1F
100
AcDbEntity
  8
VERMASSUNG
100
AcDbDimension
  2
_D_3
 10
237.8206262834
 20
151.714983843
 30
0.0
 11
187.7956262834
 21
151.714983843
 31
0.0
 70
   160
  1
<>
 71
     2
 42
-1.0
  3
SLDDIMSTYLE0
100
AcDbAlignedDimension
 13
137.7706262834
 23
145.2590286332
 33
0.0
 14
237.8206262834
 24
142.2484774998
 34
0.0
100
AcDbRotatedDimension
  0
DIMENSION
  5
214
330
1F
100
AcDbEntity
  8
VERMASSUNG
100
AcDbDimension
  2
_D_4
 10
246.1770933752
 20
87.7484774998
 30
0.0
 11
246.1770933752
 21
115.2484774998
 31
0.0
 70
   160
  1
MBM %%c<>
 71
     2
 42
-1.0
  3
SLDDIMSTYLE0
100
AcDbAlignedDimension
 13
237.3206262834
 23
142.7484774998
 33
0.0
 14
237.3206262834
 24
87.7484774998
 34
0.0
 50
90.0
100
AcDbRotatedDimension
  0
LINE
  5
220
330
1F
100
AcDbEntity
  8
VERMASSUNG
  6
CENTERX2
 62
     7
370
     0
100
AcDbLine
 10
48.4706262834
 20
115.2484774998
 30
0.0
 11
239.8206262834
 21
115.2484774998
 31
0.0
  0
LINE
  5
221
330
1F
100
AcDbEntity
  8
VERMASSUNG
  6
CENTERX2
370
     0
100
AcDbLine
 10
121.5143012862
 20
124.5803301451
 30
0.0
 11
132.9956490888
 21
121.8307186185
 31
0.0
  0
LINE
  5
222
330
1F
100
AcDbEntity
  8
VERMASSUNG
  6
CENTERX2
370
     0
100
AcDbLine
 10
121.5143012862
 20
105.9166248545
 30
0.0
 11
132.9956490888
 21
108.6662363811
 31
0.0
  0
LINE
  5
223
330
1F
100
AcDbEntity
  8
0
  6
Continuous
 62
     7
370
    15
100
AcDbLine
 10
277.3983078891
 20
15.7433413891
 30
0.0
 11
277.5750535772
 21
15.8454107194
 31
0.0
  0
LINE
  5
224
330
1F
100
AcDbEntity
  8
0
  6
Continuous
 62
     7
370
    15
100
AcDbLine
 10
287.119443887
 20
32.3785704505
 30
0.0
 11
287.1194458626
 21
32.5826709913
 31
0.0
  0
LINE
  5
225
330
1F
100
AcDbEntity
  8
0
  6
Continuous
 62
     7
370
    15
100
AcDbLine
 10
241.4755317437
 20
31.8300274465
 30
0.0
 11
270.5222862637
 21
15.0616929861
 31
0.0
  0
LINE
  5
226
330
1F
100
AcDbEntity
  8
0
  6
Continuous
 62
     7
370
    15
100
AcDbLine
 10
284.2711690842
 20
38.8780375197
 30
0.0
 11
255.2244145642
 21
55.6463719801
 31
0.0
  0
LINE
  5
227
330
1F
100
AcDbEntity
  8
0
  6
Continuous
 62
     7
370
    15
100
AcDbLine
 10
236.3045480708
 20
36.2585098841
 30
0.0
 11
239.2361386319
 21
34.5661386763
 31
0.0
  0
LINE
  5
228
330
1F
100
AcDbEntity
  8
0
  6
Continuous
 62
     7
370
    15
100
AcDbLine
 10
251.7351224155
 20
56.2173603574
 30
0.0
 11
248.8035318544
 21
57.9097315653
 31
0.0
  0
SPLINE
  5
229
330
1F
100
AcDbEntity
  8
0
  6
Continuous
 62
     7
370
    15
100
AcDbSpline
210
0.0
220
0.0
230
1.0
 70
     8
 71
     3
 72
    27
 73
    23
 74
     0
 42
0.000000001
 43
0.00000001
 40
0.0
 40
0.0
 40
0.0
 40
0.0
 40
0.0505341908657589
 40
0.1016138564178007
 40
0.1528895557998201
 40
0.2043037685490996
 40
0.2557989753280961
 40
0.307330487420402
 40
0.3588654614237837
 40
0.4103873750527617
 40
0.4618907013241315
 40
0.5133746196679736
 40
0.5648410512884868
 40
0.6162933692634568
 40
0.6677357184143258
 40
0.7191726079300923
 40
0.7706087226749394
 40
0.8220480937489525
 40
0.8734947269866297
 40
0.924953491180885
 40
0.9764291930983099
 40
0.9999999999999999
 40
0.9999999999999999
 40
0.9999999999999999
 40
0.9999999999999999
 10
242.1254242115997
 20
64.90767689093013
 30
0.0
 10
241.8184875776999
 20
64.91337230322335
 30
0.0
 10
241.2013011834563
 20
64.92482460506275
 30
0.0
 10
240.2283827829597
 20
64.78751651610351
 30
0.0
 10
239.2272211648617
 20
64.53761432236607
 30
0.0
 10
238.2046264639953
 20
64.16590032277101
 30
0.0
 10
237.170576706329
 20
63.67863137725699
 30
0.0
 10
236.1338023760573
 20
63.07935467480485
 30
0.0
 10
235.1032491440852
 20
62.37366408134405
 30
0.0
 10
234.0875475022216
 20
61.56774016903371
 30
0.0
 10
233.0950887665275
 20
60.66856999864061
 30
0.0
 10
232.134003717048
 20
59.68380830169301
 30
0.0
 10
231.2121558204594
 20
58.6217653826966
 30
0.0
 10
230.3370959316671
 20
57.49134190041809
 30
0.0
 10
229.5160022643273
 20
56.30197060391033
 30
0.0
 10
228.7556497518331
 20
55.06354688525643
 30
0.0
 10
228.0622758775705
 20
53.7863424385864
 30
0.0
 10
227.441827358769
 20
52.48099242512037
 30
0.0
 10
226.8988098733573
 20
51.1581319272394
 30
0.0
 10
226.4403396884643
 20
49.82931056837315
 30
0.0
 10
226.1294560307354
 20
48.74293962864372
 30
0.0
 10
225.9867707436187
 20
48.10656241144514
 30
0.0
 10
225.9419557695011
 20
47.90668736410114
 30
0.0
  0
SPLINE
  5
22A
330
1F
100
AcDbEntity
  8
0
  6
Continuous
 62
     7
370
    15
100
AcDbSpline
210
0.0
220
0.0
230
1.0
 70
     8
 71
     3
 72
    10
 73
     6
 74
     0
 42
0.000000001
 43
0.00000001
 40
0.0
 40
0.0
 40
0.0
 40
0.0
 40
0.2078021289134827
 40
0.9950775661333411
 40
1.0
 40
1.0
 40
1.0
 40
1.0
 10
243.246505110344
 20
64.74000169037483
 30
0.0
 10
243.171642177252
 20
64.75855397926571
 30
0.0
 10
242.8131548718314
 20
64.84739313876933
 30
0.0
 10
242.4396975877738
 20
64.91061197644629
 30
0.0
 10
242.1273649348515
 20
64.90769501587846
 30
0.0
 10
242.1254242115997
 20
64.90767689093013
 30
0.0
  0
LINE
  5
22B
330
1F
100
AcDbEntity
  8
0
  6
Continuous
 62
     7
370
    15
100
AcDbLine
 10
235.7155965708
 20
62.774546299
 30
0.0
 11
214.4005618842
 21
70.4556405397
 31
0.0
  0
LINE
  5
22C
330
1F
100
AcDbEntity
  8
0
  6
Continuous
 62
     7
370
    15
100
AcDbLine
 10
208.2357798896
 20
59.7767678944
 30
0.0
 11
228.5320179872
 21
42.6387928068
 31
0.0
  0
SPLINE
  5
22D
330
1F
100
AcDbEntity
  8
0
  6
Continuous
 62
     7
370
    15
100
AcDbSpline
210
0.0
220
0.0
230
1.0
 70
     8
 71
     3
 72
    10
 73
     6
 74
     0
 42
0.000000001
 43
0.00000001
 40
0.0
 40
0.0
 40
0.0
 40
0.0
 40
0.0944395920014477
 40
0.6135799957314281
 40
1.0
 40
1.0
 40
1.0
 40
1.0
 10
237.9534931401033
 20
32.9546485717711
 30
0.0
 10
238.0115522788229
 20
32.9587612753462
 30
0.0
 10
238.38876617114
 20
32.98548177030575
 30
0.0
 10
239.0287788458625
 20
33.12453640309711
 30
0.0
 10
239.6173185477851
 20
33.31794220382435
 30
0.0
 10
239.8684597329788
 20
33.40047217055265
 30
0.0
  0
LINE
  5
22E
330
1F
100
AcDbEntity
  8
0
  6
Continuous
 62
     7
370
    15
100
AcDbLine
 10
232.6980396095
 20
34.4434943947
 30
0.0
 11
234.0514993801
 21
33.6621587003
 31
0.0
  0
LINE
  5
22F
330
1F
100
AcDbEntity
  8
0
  6
Continuous
 62
     7
370
    15
100
AcDbLine
 10
228.8719424455
 20
36.6522532727
 30
0.0
 11
230.2077249059
 21
35.8811224723
 31
0.0
  0
SPLINE
  5
230
330
1F
100
AcDbEntity
  8
0
  6
Continuous
 62
     7
370
    15
100
AcDbSpline
210
0.0
220
0.0
230
1.0
 70
     8
 71
     3
 72
     9
 73
     5
 74
     0
 42
0.000000001
 43
0.00000001
 40
0.0
 40
0.0
 40
0.0
 40
0.0
 40
0.3397058499956287
 40
0.9999999999999999
 40
0.9999999999999999
 40
0.9999999999999999
 40
0.9999999999999999
 10
225.9524750301994
 20
40.65007234126846
 30
0.0
 10
225.9862109276282
 20
40.53411900924269
 30
0.0
 10
226.0855200723757
 20
40.19278449284493
 30
0.0
 10
226.2213021990278
 20
39.88455042838094
 30
0.0
 10
226.3109583429313
 20
39.6810252787833
 30
0.0
  0
SPLINE
  5
231
330
1F
100
AcDbEntity
  8
0
  6
Continuous
 62
     7
370
    15
100
AcDbSpline
210
0.0
220
0.0
230
1.0
 70
     8
 71
     3
 72
    10
 73
     6
 74
     0
 42
0.000000001
 43
0.00000001
 40
0.0
 40
0.0
 40
0.0
 40
0.0
 40
0.1274536226439896
 40
0.8151711756892686
 40
1.0
 40
1.0
 40
1.0
 40
1.0
 10
251.9844170732196
 20
59.10768503994264
 30
0.0
 10
251.9563320298342
 20
59.15875620861313
 30
0.0
 10
251.7767049830639
 20
59.48539850990914
 30
0.0
 10
251.5014075458527
 20
59.82640435336615
 30
0.0
 10
251.243666349405
 20
60.09842560892744
 30
0.0
 10
251.1890698218711
 20
60.15604703760756
 30
0.0
  0
SPLINE
  5
232
330
1F
100
AcDbEntity
  8
0
  6
Continuous
 62
     7
370
    15
100
AcDbSpline
210
0.0
220
0.0
230
1.0
 70
     8
 71
     3
 72
    10
 73
     6
 74
     0
 42
0.000000001
 43
0.00000001
 40
0.0
 40
0.0
 40
0.0
 40
0.0
 40
0.184933706694277
 40
0.6342858747522853
 40
1.0
 40
1.0
 40
1.0
 40
1.0
 10
252.8586526882684
 20
57.11659394364788
 30
0.0
 10
252.8182110293754
 20
57.25195505805208
 30
0.0
 10
252.6795041735735
 20
57.71621678941534
 30
0.0
 10
252.4043718173273
 20
58.39986963912094
 30
0.0
 10
252.1144864573928
 20
58.888458767148
 30
0.0
 10
251.9844170732196
 20
59.10768503994264
 30
0.0
  0
SPLINE
  5
233
330
1F
100
AcDbEntity
  8
0
  6
Continuous
 62
     7
370
    15
100
AcDbSpline
210
0.0
220
0.0
230
1.0
 70
     8
 71
     3
 72
    29
 73
    25
 74
     0
 42
0.000000001
 43
0.00000001
 40
0.0
 40
0.0
 40
0.0
 40
0.0
 40
0.001511904303393
 40
0.0490874397565563
 40
0.0971816015927713
 40
0.1463897951975818
 40
0.19670742353399
 40
0.2477251033440143
 40
0.2990045975314399
 40
0.3502391964826043
 40
0.4013711047713119
 40
0.4524127734297624
 40
0.5034051533873684
 40
0.5543995781568672
 40
0.6054396314289986
 40
0.6565762485615675
 40
0.7078661523924736
 40
0.7612347414817551
 40
0.7885568669377716
 40
0.8402665011752252
 40
0.8919584121496203
 40
0.9430316035512288
 40
0.9928969890558254
 40
0.9999999999999999
 40
0.9999999999999999
 40
0.9999999999999999
 40
0.9999999999999999
 10
214.3443526409282
 20
70.47300336698386
 30
0.0
 10
214.3389303516561
 20
70.47552080143058
 30
0.0
 10
214.1628832980252
 20
70.55725508280462
 30
0.0
 10
213.7652093571034
 20
70.60764947051007
 30
0.0
 10
213.1659996106236
 20
70.61358548885424
 30
0.0
 10
212.5305180710249
 20
70.48458952307776
 30
0.0
 10
211.8764096861835
 20
70.23918825231797
 30
0.0
 10
211.214922262807
 20
69.87568168600724
 30
0.0
 10
210.5627489671359
 20
69.40382091612007
 30
0.0
 10
209.9350689588711
 20
68.83515876611206
 30
0.0
 10
209.345457505044
 20
68.18352758970721
 30
0.0
 10
208.8057120178628
 20
67.46329819859008
 30
0.0
 10
208.3265861819793
 20
66.68973683924705
 30
0.0
 10
207.9178119513995
 20
65.8788714743468
 30
0.0
 10
207.5879637938631
 20
65.04725873955574
 30
0.0
 10
207.3443796217987
 20
64.21154122653085
 30
0.0
 10
207.1912222527848
 20
63.37824891565461
 30
0.0
 10
207.1465859043691
 20
62.69932782644033
 30
0.0
 10
207.1694131866866
 20
62.05075486881429
 30
0.0
 10
207.2587019385475
 20
61.44576887488432
 30
0.0
 10
207.4664690479939
 20
60.79671809823444
 30
0.0
 10
207.783648226575
 20
60.24890842001361
 30
0.0
 10
208.0588587569083
 20
59.90039996596418
 30
0.0
 10
208.246181509818
 20
59.77537050519124
 30
0.0
 10
208.2695375395986
 20
59.75978141222786
 30
0.0
  0
LINE
  5
234
330
1F
100
AcDbEntity
  8
0
  6
Continuous
 62
     7
370
    15
100
AcDbLine
 10
274.5509655478
 20
42.085214363
 30
0.0
 11
274.3741598476
 21
42.187314916
 31
0.0
  0
LINE
  5
235
330
1F
100
AcDbEntity
  8
0
  6
Continuous
 62
     7
370
    15
100
AcDbLine
 10
270.4844417962
 20
42.1873142189
 30
0.0
 11
270.3076360161
 21
42.0852140001
 31
0.0
  0
LINE
  5
236
330
1F
100
AcDbEntity
  8
0
  6
Continuous
 62
     7
370
    15
100
AcDbLine
 10
275.4293010963
 20
40.2483946387
 30
0.0
 11
275.4293010963
 21
40.8608007282
 31
0.0
  0
LINE
  5
237
330
1F
100
AcDbEntity
  8
0
  6
Continuous
 62
     7
370
    15
100
AcDbLine
 10
269.4293017548
 20
40.8608005381
 30
0.0
 11
269.4293017548
 21
40.2483944486
 31
0.0
  0
LWPOLYLINE
  5
238
330
1F
100
AcDbEntity
  8
0
  6
Continuous
 62
     7
370
    15
100
AcDbPolyline
 90
       61
 70
   128
 43
0.0
 10
268.0275602997
 20
21.357060655
 10
268.079854002
 20
22.5394978817
 10
268.2361621751
 20
23.7693571299
 10
268.4947719449
 20
25.0331636333
 10
268.8528502527
 20
26.3170708642
 10
269.3064741491
 20
27.6070125283
 10
269.85067294
 20
28.8888551288
 10
270.479484822
 20
30.1485542359
 10
271.186020761
 20
31.3723103761
 10
271.9625382492
 20
32.5467131324
 10
272.8005311965
 20
33.6588968412
 10
273.6908178461
 20
34.6966765167
 10
274.6236438368
 20
35.648681112
 10
275.5887892162
 20
36.5044806969
 10
276.5756794884
 20
37.2546992332
 10
277.5735020933
 20
37.8911167992
 10
278.5713246982
 20
38.4067606906
 10
279.5582149704
 20
38.7959814088
 10
280.5233603499
 20
39.0545149598
 10
281.4561863405
 20
39.1795283283
 10
282.3464729901
 20
39.169651739
 10
283.1844659375
 20
39.0249940927
 10
283.9609834257
 20
38.7471393448
 10
284.6675193647
 20
38.3391322361
 10
285.2963312467
 20
37.8054438743
 10
285.8405300376
 20
37.1519198237
 10
286.2941539339
 20
36.3857211621
 10
286.6522322418
 20
35.5152423454
 10
286.9108420115
 20
34.5500203266
 10
287.0671501847
 20
33.5006306537
 10
287.119443887
 20
32.3785704505
 10
287.0671501847
 20
31.1961332239
 10
286.9108420115
 20
29.9662739756
 10
286.6522322418
 20
28.7024674722
 10
286.2941539339
 20
27.4185602414
 10
285.8405300376
 20
26.1286185773
 10
285.2963312467
 20
24.8467759768
 10
284.6675193647
 20
23.5870768696
 10
283.9609834257
 20
22.3633207295
 10
283.1844659375
 20
21.1889179732
 10
282.3464729901
 20
20.0767342643
 10
281.4561863405
 20
19.0389545888
 10
280.5233603499
 20
18.0869499935
 10
279.5582149704
 20
17.2311504087
 10
278.5713246982
 20
16.4809318723
 10
277.5735020933
 20
15.8445143064
 10
276.5756794884
 20
15.328870415
 10
275.5887892162
 20
14.9396496968
 10
274.6236438368
 20
14.6811161457
 10
273.6908178461
 20
14.5561027772
 10
272.8005311965
 20
14.5659793666
 10
271.9625382492
 20
14.7106370128
 10
271.186020761
 20
14.9884917608
 10
270.479484822
 20
15.3964988694
 10
269.85067294
 20
15.9301872312
 10
269.3064741491
 20
16.5837112819
 10
268.8528502527
 20
17.3499099435
 10
268.4947719449
 20
18.2203887602
 10
268.2361621751
 20
19.1856107789
 10
268.079854002
 20
20.2350004519
 10
268.0275602997
 20
21.357060655
  0
LWPOLYLINE
  5
239
330
1F
100
AcDbEntity
  8
0
  6
Continuous
 62
     7
370
    15
100
AcDbPolyline
 90
       32
 70
   128
 43
0.0
 10
267.6740094853
 20
21.3570595145
 10
267.727271248
 20
22.5613935139
 10
267.8864743829
 20
23.8140280689
 10
268.1498730883
 20
25.101238319
 10
268.5145822808
 20
26.4089215604
 10
268.9766065709
 20
27.7227508571
 10
269.5308830683
 20
29.0283311216
 10
270.1713399929
 20
30.3113589968
 10
270.8909592356
 20
31.5577760837
 10
271.6818573603
 20
32.75392787
 10
272.5353685796
 20
33.8867074503
 10
273.442141891
 20
34.9437051376
 10
274.3922424919
 20
35.913339254
 10
275.375260934
 20
36.7849868244
 10
276.3804268864
 20
37.5490986813
 10
277.396727674
 20
38.1973013555
 10
278.4130284615
 20
38.7224945942
 10
279.4181944139
 20
39.1189226432
 10
280.401212856
 20
39.3822440075
 10
281.3513134569
 20
39.5095726954
 10
282.2580867683
 20
39.4995131886
 10
283.1115979877
 20
39.3521766865
 10
283.9024961123
 20
39.069176438
 10
284.6221153551
 20
38.6536140435
 10
285.2625722796
 20
38.1100419936
 10
285.8168487771
 20
37.4444157513
 10
286.2788730672
 20
36.6640283453
 10
286.6435822597
 20
35.7774293745
 10
286.9069809651
 20
34.7943327965
 10
287.0661840999
 20
33.7255102684
 10
287.1194458626
 20
32.5826709913
 10
287.1194458626
 20
32.5826709913
  0
LWPOLYLINE
  5
23A
330
1F
100
AcDbEntity
  8
0
  6
Continuous
 62
     7
370
    15
100
AcDbPolyline
 90
       17
 70
   128
 43
0.0
 10
277.3983078891
 20
15.7433413891
 10
277.396727674
 20
15.7424291503
 10
276.3804268864
 20
15.2172359116
 10
275.375260934
 20
14.8208078626
 10
274.3922424919
 20
14.5574864983
 10
273.442141891
 20
14.4301578104
 10
272.5353685796
 20
14.4402173171
 10
271.6818573603
 20
14.5875538192
 10
270.8909592356
 20
14.8705540678
 10
270.1713399929
 20
15.2861164622
 10
269.5308830683
 20
15.8296885122
 10
268.9766065709
 20
16.4953147545
 10
268.5145822808
 20
17.2757021605
 10
268.1498730883
 20
18.1623011313
 10
267.8864743829
 20
19.1453977093
 10
267.727271248
 20
20.2142202374
 10
267.6740094853
 20
21.3570595145
  0
LWPOLYLINE
  5
23B
330
1F
100
AcDbEntity
  8
0
  6
Continuous
 62
     7
370
    15
100
AcDbPolyline
 90
       24
 70
   128
 43
0.0
 10
238.6272549653
 20
38.1253939749
 10
238.680516728
 20
39.3297279743
 10
238.8397198628
 20
40.5823625293
 10
239.1031185682
 20
41.8695727794
 10
239.4678277607
 20
43.1772560208
 10
239.9298520508
 20
44.4910853175
 10
240.4841285483
 20
45.7966655819
 10
241.1245854728
 20
47.0796934572
 10
241.8442047156
 20
48.3261105441
 10
242.6351028402
 20
49.5222623304
 10
243.4886140596
 20
50.6550419106
 10
244.395387371
 20
51.712039598
 10
245.3454879719
 20
52.6816737144
 10
246.328506414
 20
53.5533212848
 10
247.3336723664
 20
54.3174331417
 10
248.3499731539
 20
54.9656358159
 10
249.3662739415
 20
55.4908290546
 10
250.3714398939
 20
55.8872571036
 10
251.354458336
 20
56.1505784679
 10
252.3045589369
 20
56.2779071558
 10
253.2113322483
 20
56.267847649
 10
254.0648434676
 20
56.1205111469
 10
254.8557415923
 20
55.8375108984
 10
255.2244145642
 20
55.6463719801
  0
LWPOLYLINE
  5
23C
330
1F
100
AcDbEntity
  8
0
  6
Continuous
 62
     7
370
    15
100
AcDbPolyline
 90
        9
 70
   128
 43
0.0
 10
241.4755317437
 20
31.8300274465
 10
241.1245854728
 20
32.0544509226
 10
240.4841285483
 20
32.5980229726
 10
239.9298520508
 20
33.2636492149
 10
239.4678277607
 20
34.0440366208
 10
239.1031185682
 20
34.9306355916
 10
238.8397198628
 20
35.9137321697
 10
238.680516728
 20
36.9825546978
 10
238.6272549653
 20
38.1253939749
  0
SPLINE
  5
23D
330
1F
100
AcDbEntity
  8
0
  6
Continuous
 62
     7
370
    15
100
AcDbSpline
210
0.0
220
0.0
230
1.0
 70
     8
 71
     3
 72
    52
 73
    48
 74
     0
 42
0.000000001
 43
0.00000001
 40
0.0
 40
0.0
 40
0.0
 40
0.0
 40
0.0312500000000002
 40
0.0312500000000002
 40
0.0625000000000005
 40
0.0625000000000005
 40
0.1250000000000005
 40
0.1250000000000005
 40
0.1562500000000009
 40
0.1562500000000009
 40
0.1875000000000013
 40
0.1875000000000013
 40
0.2187500000000017
 40
0.2187500000000017
 40
0.2500000000000021
 40
0.2500000000000021
 40
0.3125000000000029
 40
0.3125000000000029
 40
0.3437500000000026
 40
0.3437500000000026
 40
0.3750000000000023
 40
0.3750000000000023
 40
0.4375000000000016
 40
0.4375000000000016
 40
0.468750000000002
 40
0.468750000000002
 40
0.5000000000000024
 40
0.5000000000000024
 40
0.5625000000000017
 40
0.5625000000000017
 40
0.5937500000000021
 40
0.5937500000000021
 40
0.6250000000000026
 40
0.6250000000000026
 40
0.6875000000000018
 40
0.6875000000000018
 40
0.750000000000001
 40
0.750000000000001
 40
0.8125000000000003
 40
0.8125000000000003
 40
0.8749999999999997
 40
0.8749999999999997
 40
0.9062499999999997
 40
0.9062499999999997
 40
0.9374999999999997
 40
0.9374999999999997
 40
1.0
 40
1.0
 40
1.0
 40
1.0
 10
275.2577284512577
 20
39.43211938374415
 30
0.0
 10
275.1705295433317
 20
39.38178052569123
 30
0.0
 10
275.0783083219864
 20
39.33318212442731
 30
0.0
 10
274.8837777089831
 20
39.23952145219859
 30
0.0
 10
274.7807351892542
 20
39.1941763687075
 30
0.0
 10
274.4618675192192
 20
39.06614416915073
 30
0.0
 10
274.2376955530518
 20
38.99159801144471
 30
0.0
 10
273.8851694258631
 20
38.89609729053686
 30
0.0
 10
273.7644639841806
 20
38.86694755505734
 30
0.0
 10
273.5228189266456
 20
38.81551832021445
 30
0.0
 10
273.4013181095545
 20
38.79306190770553
 30
0.0
 10
273.1569877263963
 20
38.75463135308603
 30
0.0
 10
273.034157986125
 20
38.73865787127546
 30
0.0
 10
272.7871502143296
 20
38.71339130446982
 30
0.0
 10
272.662818681563
 20
38.70412993358198
 30
0.0
 10
272.2948250706384
 20
38.6870959685136
 30
0.0
 10
272.0537243227052
 20
38.68967663609911
 30
0.0
 10
271.6977875885704
 20
38.71518980786325
 30
0.0
 10
271.5795736744381
 20
38.7274100255642
 30
0.0
 10
271.3482963678173
 20
38.75902955061348
 30
0.0
 10
271.2351794827589
 20
38.7783884727696
 30
0.0
 10
270.90307621775
 20
38.8470806414989
 30
0.0
 10
270.6912747974429
 20
38.90696212393745
 30
0.0
 10
270.3879405982549
 20
39.01906537945498
 30
0.0
 10
270.2893043801347
 20
39.06019816107585
 30
0.0
 10
270.1005048177764
 20
39.14845967929701
 30
0.0
 10
270.0098510528363
 20
39.19575662810384
 30
0.0
 10
269.7489241364638
 20
39.34701758038073
 30
0.0
 10
269.589590933852
 20
39.46030303907452
 30
0.0
 10
269.3733797637769
 20
39.64925040487645
 30
0.0
 10
269.3054836488503
 20
39.71517081756576
 30
0.0
 10
269.1799046549005
 20
39.85076831480251
 30
0.0
 10
269.1219087220391
 20
39.92071119458405
 30
0.0
 10
268.96223866168
 20
40.13666401392287
 30
0.0
 10
268.8747333673459
 20
40.28876379891713
 30
0.0
 10
268.7405102263439
 20
40.60839322199622
 30
0.0
 10
268.6955336581655
 20
40.77224555105948
 30
0.0
 10
268.6516508957238
 20
41.10150855562703
 30
0.0
 10
268.6523958934624
 20
41.26759529751255
 30
0.0
 10
268.7054355013716
 20
41.60040305215686
 30
0.0
 10
268.7568258131445
 20
41.76084555229452
 30
0.0
 10
268.8720837406133
 20
41.98995337825703
 30
0.0
 10
268.9169185375308
 20
42.06442285757159
 30
0.0
 10
269.0202417349794
 20
42.20908485910103
 30
0.0
 10
269.0792706820542
 20
42.27976548519367
 30
0.0
 10
269.2734409826043
 20
42.47924758570612
 30
0.0
 10
269.4256322265422
 20
42.59658679209716
 30
0.0
 10
269.6008742017652
 20
42.697751831035
 30
0.0
  0
SPLINE
  5
23E
330
1F
100
AcDbEntity
  8
0
  6
Continuous
 62
     7
370
    15
100
AcDbSpline
210
0.0
220
0.0
230
1.0
 70
     8
 71
     3
 72
    52
 73
    48
 74
     0
 42
0.000000001
 43
0.00000001
 40
0.0
 40
0.0
 40
0.0
 40
0.0
 40
0.0312499999999997
 40
0.0312499999999997
 40
0.0624999999999994
 40
0.0624999999999994
 40
0.0937499999999991
 40
0.0937499999999991
 40
0.1249999999999988
 40
0.1249999999999988
 40
0.1874999999999974
 40
0.1874999999999974
 40
0.2499999999999961
 40
0.2499999999999961
 40
0.3124999999999947
 40
0.3124999999999947
 40
0.3749999999999933
 40
0.3749999999999933
 40
0.4374999999999919
 40
0.4374999999999919
 40
0.4687499999999921
 40
0.4687499999999921
 40
0.4999999999999923
 40
0.4999999999999923
 40
0.5624999999999944
 40
0.5624999999999944
 40
0.5937499999999946
 40
0.5937499999999946
 40
0.6249999999999947
 40
0.6249999999999947
 40
0.6874999999999933
 40
0.6874999999999933
 40
0.7187499999999936
 40
0.7187499999999936
 40
0.7499999999999937
 40
0.7499999999999937
 40
0.812499999999994
 40
0.812499999999994
 40
0.8437499999999948
 40
0.8437499999999948
 40
0.8749999999999954
 40
0.8749999999999954
 40
0.9374999999999977
 40
0.9374999999999977
 40
0.9687499999999989
 40
0.9687499999999989
 40
1.0
 40
1.0
 40
1.0
 40
1.0
 10
269.6008742017652
 20
42.697751831035
 30
0.0
 10
269.6885194106038
 20
42.74834833312066
 30
0.0
 10
269.7827313789634
 20
42.79516676779997
 30
0.0
 10
269.9789886055059
 20
42.8784841083046
 30
0.0
 10
270.0809218296251
 20
42.91506797752362
 30
0.0
 10
270.2920846565995
 20
42.9786326976779
 30
0.0
 10
270.4013151904145
 20
43.00561214718258
 30
0.0
 10
270.6270128034665
 20
43.05025480650831
 30
0.0
 10
270.7438784068379
 20
43.06790345896789
 30
0.0
 10
271.0969446584335
 20
43.10636239249567
 30
0.0
 10
271.3380733075902
 20
43.11345899988821
 30
0.0
 10
271.831348985765
 20
43.09556621495907
 30
0.0
 10
272.0801308696606
 20
43.07053921713558
 30
0.0
 10
272.5742866912925
 20
42.99402595222475
 30
0.0
 10
272.8160392879656
 20
42.94319909867754
 30
0.0
 10
273.2865538978998
 20
42.82212240756675
 30
0.0
 10
273.5161430981865
 20
42.75166854973205
 30
0.0
 10
273.9632326268863
 20
42.5932485600426
 30
0.0
 10
274.1746392895915
 20
42.50746914466081
 30
0.0
 10
274.4746165978686
 20
42.37050604213156
 30
0.0
 10
274.5717329959519
 20
42.32345132861033
 30
0.0
 10
274.7601613415142
 20
42.22660194573219
 30
0.0
 10
274.8518687167306
 20
42.17657253040073
 30
0.0
 10
275.1148314483619
 20
42.02413004660316
 30
0.0
 10
275.2733799268372
 20
41.91992470088494
 30
0.0
 10
275.4866885230276
 20
41.75946319479744
 30
0.0
 10
275.5536803034923
 20
41.70527240595499
 30
0.0
 10
275.6792312135614
 20
41.59529141350283
 30
0.0
 10
275.7380466810999
 20
41.5392157502472
 30
0.0
 10
275.8988009277861
 20
41.37072981272468
 30
0.0
 10
275.985480690497
 20
41.25807134817855
 30
0.0
 10
276.084583819352
 20
41.08686026960486
 30
0.0
 10
276.1124312440454
 20
41.02941371377693
 30
0.0
 10
276.1572587108179
 20
40.91338779541425
 30
0.0
 10
276.1742699936269
 20
40.85448239240107
 30
0.0
 10
276.207223277243
 20
40.67882894987408
 30
0.0
 10
276.2057495321428
 20
40.56263766146831
 30
0.0
 10
276.1667149510992
 20
40.38753491827726
 30
0.0
 10
276.1475213218461
 20
40.32903249278392
 30
0.0
 10
276.0958386404181
 20
40.21137850506511
 30
0.0
 10
276.0631397892097
 20
40.1520625325234
 30
0.0
 10
275.9468328256574
 20
39.97760827946298
 30
0.0
 10
275.8446956266747
 20
39.86430112485302
 30
0.0
 10
275.6523986609167
 20
39.69769550984945
 30
0.0
 10
275.581213447028
 20
39.64237590418382
 30
0.0
 10
275.4271500252007
 20
39.53456601898895
 30
0.0
 10
275.3449514637344
 20
39.48247215705806
 30
0.0
 10
275.2577284512577
 20
39.43211938374415
 30
0.0
  0
LWPOLYLINE
  5
23F
330
1F
100
AcDbEntity
  8
0
  6
Continuous
 62
     7
370
    15
100
AcDbPolyline
 90
       57
 70
   128
 43
0.0
 10
269.2649976989
 20
22.0714180601
 10
269.3172393762
 20
23.1758033767
 10
269.4733091562
 20
24.3266185184
 10
269.7312432593
 20
25.5093903496
 10
270.0877983537
 20
26.7092450908
 10
270.5384904099
 20
27.9110942483
 10
271.0776513353
 20
29.099822823
 10
271.6985020727
 20
30.2604834123
 10
272.3932342599
 20
31.3784792834
 10
273.153110987
 20
32.4397499171
 10
273.9685771023
 20
33.4309510367
 10
274.8293769277
 20
34.3396168612
 10
275.7246858024
 20
35.154320455
 10
276.6432447555
 20
35.864816873
 10
277.5735020933
 20
36.4621697639
 10
278.5037594311
 20
36.9388691334
 10
279.4223183843
 20
37.2889183084
 10
280.317627259
 20
37.5079163383
 10
281.1784270843
 20
37.5931088373
 10
281.9938931997
 20
37.5434248537
 10
282.7537699267
 20
37.3594892145
 10
283.448502114
 20
37.0436140531
 10
284.0693528514
 20
36.5997724673
 10
284.6085137768
 20
36.0335458467
 10
285.059205833
 20
35.3520546612
 10
285.4157609274
 20
34.5638696694
 10
285.6736950305
 20
33.6789022146
 10
285.8297648105
 20
32.7082814054
 10
285.8820064878
 20
31.6642130455
 10
285.8297648105
 20
30.5598277289
 10
285.6736950305
 20
29.4090125872
 10
285.4157609274
 20
28.226240756
 10
285.059205833
 20
27.0263860147
 10
284.6085137768
 20
25.8245368573
 10
284.0693528514
 20
24.6358082826
 10
283.448502114
 20
23.4751476933
 10
282.7537699267
 20
22.3571518221
 10
281.9938931997
 20
21.2958811885
 10
281.1784270843
 20
20.3046800688
 10
280.317627259
 20
19.3960142444
 10
279.4223183843
 20
18.5813106505
 10
278.5037594311
 20
17.8708142325
 10
277.5735020933
 20
17.2734613416
 10
276.6432447555
 20
16.7967619721
 10
275.7246858024
 20
16.4467127972
 10
274.8293769277
 20
16.2277147673
 10
273.9685771023
 20
16.1425222683
 10
273.153110987
 20
16.1922062519
 10
272.3932342599
 20
16.3761418911
 10
271.6985020727
 20
16.6920170524
 10
271.0776513353
 20
17.1358586382
 10
270.5384904099
 20
17.7020852588
 10
270.0877983537
 20
18.3835764443
 10
269.7312432593
 20
19.1717614362
 10
269.4733091562
 20
20.0567288909
 10
269.3172393762
 20
21.0273497001
 10
269.2649976989
 20
22.0714180601
  0
SPLINE
  5
240
330
1F
100
AcDbEntity
  8
0
  6
Continuous
 62
     7
370
    15
100
AcDbSpline
210
0.0
220
0.0
230
1.0
 70
     8
 71
     3
 72
    18
 73
    14
 74
     0
 42
0.000000001
 43
0.00000001
 40
0.0
 40
0.0
 40
0.0
 40
0.0
 40
0.2499999999999987
 40
0.2499999999999987
 40
0.3749999999999988
 40
0.3749999999999988
 40
0.4999999999999989
 40
0.4999999999999989
 40
0.624999999999999
 40
0.624999999999999
 40
0.749999999999999
 40
0.749999999999999
 40
1.0
 40
1.0
 40
1.0
 40
1.0
 10
271.771894619368
 20
17.33075937969719
 30
0.0
 10
271.6482869598968
 20
17.29125295541998
 30
0.0
 10
271.5270442690733
 20
17.28520243438765
 30
0.0
 10
271.3495597563531
 20
17.3268797016242
 30
0.0
 10
271.2911100600848
 20
17.34955269954983
 30
0.0
 10
271.1795862208963
 20
17.41087013463587
 30
0.0
 10
271.1260073621517
 20
17.4495822744379
 30
0.0
 10
271.0232446087134
 20
17.54313109815473
 30
0.0
 10
270.9736868341132
 20
17.59851721724985
 30
0.0
 10
270.8813081378694
 20
17.72336056750038
 30
0.0
 10
270.8385215501489
 20
17.79253554419495
 30
0.0
 10
270.7199493363293
 20
18.01969765058501
 30
0.0
 10
270.6535427890025
 20
18.19915848973191
 30
0.0
 10
270.602653131348
 20
18.39796020282181
 30
0.0
  0
LWPOLYLINE
  5
241
330
1F
100
AcDbEntity
  8
0
  6
Continuous
 62
     7
370
    15
100
AcDbPolyline
 90
       14
 70
   128
 43
0.0
 10
282.9862038694
 20
23.8046410973
 10
282.2713610499
 20
22.6540361831
 10
281.4842936787
 20
21.5672952556
 10
280.6366211149
 20
20.5604629915
 10
279.7408575152
 20
19.6484025095
 10
278.8102267827
 20
18.8445775147
 10
277.8584679256
 20
18.1608562843
 10
276.8996314848
 20
17.6073317892
 10
275.9478726277
 20
17.1921756334
 10
275.0172418951
 20
16.9215172554
 10
274.1214782955
 20
16.7993510994
 10
273.2738057317
 20
16.8274814536
 10
272.4867383605
 20
17.0054937371
 10
271.771895541
 20
17.3307586999
  0
SPLINE
  5
242
330
1F
100
AcDbEntity
  8
0
  6
Continuous
 62
     7
370
    15
100
AcDbSpline
210
0.0
220
0.0
230
1.0
 70
     8
 71
     3
 72
    18
 73
    14
 74
     0
 42
0.000000001
 43
0.00000001
 40
0.0
 40
0.0
 40
0.0
 40
0.0
 40
0.2499999999999985
 40
0.2499999999999985
 40
0.3749999999999985
 40
0.3749999999999985
 40
0.4999999999999986
 40
0.4999999999999986
 40
0.6249999999999986
 40
0.6249999999999986
 40
0.7499999999999986
 40
0.7499999999999986
 40
1.0
 40
1.0
 40
1.0
 40
1.0
 10
284.1554444582866
 20
26.22182010032297
 30
0.0
 10
284.1685801907373
 20
26.00126319301872
 30
0.0
 10
284.1519921616715
 20
25.77842095689378
 30
0.0
 10
284.0823697510926
 20
25.44038878436287
 30
0.0
 10
284.0514123124527
 20
25.32698552572513
 30
0.0
 10
283.9761596659009
 20
25.10625323256458
 30
0.0
 10
283.9317119814505
 20
24.99797551292516
 30
0.0
 10
283.829169427322
 20
24.78559344493715
 30
0.0
 10
283.7705141422335
 20
24.68066537701873
 30
0.0
 10
283.6418167986818
 20
24.47985586465357
 30
0.0
 10
283.572033888341
 20
24.38410671030794
 30
0.0
 10
283.3468374242898
 20
24.1104264964159
 30
0.0
 10
283.1738598051182
 20
23.94483007386419
 30
0.0
 10
282.9862029702666
 20
23.80464179020916
 30
0.0
  0
LWPOLYLINE
  5
243
330
1F
100
AcDbEntity
  8
0
  6
Continuous
 62
     7
370
    15
100
AcDbPolyline
 90
       10
 70
   128
 43
0.0
 10
284.155445692
 20
35.5621816059
 10
284.5894930358
 20
34.8459620222
 10
284.9205710188
 20
34.0174131001
 10
285.1439526086
 20
33.0883675153
 10
285.25644584
 20
32.0720910346
 10
285.25644584
 20
30.9830980032
 10
285.1439526086
 20
29.8369396021
 10
284.9205710188
 20
28.6499831235
 10
284.5894930358
 20
27.4391796987
 10
284.155445692
 20
26.221819719
  0
SPLINE
  5
244
330
1F
100
AcDbEntity
  8
0
  6
Continuous
 62
     7
370
    15
100
AcDbSpline
210
0.0
220
0.0
230
1.0
 70
     8
 71
     3
 72
    18
 73
    14
 74
     0
 42
0.000000001
 43
0.00000001
 40
0.0
 40
0.0
 40
0.0
 40
0.0
 40
0.2499999999999991
 40
0.2499999999999991
 40
0.3749999999999994
 40
0.3749999999999994
 40
0.4999999999999997
 40
0.4999999999999997
 40
0.625
 40
0.625
 40
0.7500000000000002
 40
0.7500000000000002
 40
1.0
 40
1.0
 40
1.0
 40
1.0
 10
282.9862029702666
 20
36.62938272546485
 30
0.0
 10
283.173827169587
 20
36.63193318791689
 30
0.0
 10
283.3432823773746
 20
36.6101512153371
 30
0.0
 10
283.5702854001386
 20
36.53988752073151
 30
0.0
 10
283.6413047914287
 20
36.50995819232513
 30
0.0
 10
283.7693979216404
 20
36.43907550913347
 30
0.0
 10
283.8271377862671
 20
36.39796127176576
 30
0.0
 10
283.9300009640753
 20
36.30435447429421
 30
0.0
 10
283.9754131610077
 20
36.25136154624619
 30
0.0
 10
284.0512011193868
 20
36.13609582509934
 30
0.0
 10
284.0816449156277
 20
36.07404619025883
 30
0.0
 10
284.1512702442113
 20
35.87514051926037
 30
0.0
 10
284.168582475579
 20
35.72402122544989
 30
0.0
 10
284.1554444582866
 20
35.56218190234023
 30
0.0
  0
LWPOLYLINE
  5
245
330
1F
100
AcDbEntity
  8
0
  6
Continuous
 62
     7
370
    15
100
AcDbPolyline
 90
       14
 70
   128
 43
0.0
 10
271.771895541
 20
30.1554999567
 10
272.4867383605
 20
31.306104871
 10
273.2738057317
 20
32.3928457985
 10
274.1214782955
 20
33.3996780626
 10
275.0172418951
 20
34.3117385446
 10
275.9478726277
 20
35.1155635393
 10
276.8996314848
 20
35.7992847698
 10
277.8584679256
 20
36.3528092649
 10
278.8102267827
 20
36.7679654207
 10
279.7408575152
 20
37.0386237987
 10
280.6366211149
 20
37.1607899547
 10
281.4842936787
 20
37.1326596005
 10
282.2713610499
 20
36.954647317
 10
282.9862038694
 20
36.6293823542
  0
SPLINE
  5
246
330
1F
100
AcDbEntity
  8
0
  6
Continuous
 62
     7
370
    15
100
AcDbSpline
210
0.0
220
0.0
230
1.0
 70
     8
 71
     3
 72
    18
 73
    14
 74
     0
 42
0.000000001
 43
0.00000001
 40
0.0
 40
0.0
 40
0.0
 40
0.0
 40
0.2499999999999995
 40
0.2499999999999995
 40
0.3749999999999996
 40
0.3749999999999996
 40
0.4999999999999997
 40
0.4999999999999997
 40
0.6249999999999998
 40
0.6249999999999998
 40
0.7499999999999998
 40
0.7499999999999998
 40
1.0
 40
1.0
 40
1.0
 40
1.0
 10
270.602653131348
 20
27.73832200483908
 30
0.0
 10
270.6535339387465
 20
27.92192295031816
 30
0.0
 10
270.7183344847764
 20
28.11693269283097
 30
0.0
 10
270.8374754053991
 20
28.42637843799285
 30
0.0
 10
270.8810025390608
 20
28.53252536614984
 30
0.0
 10
270.9728244766357
 20
28.74369241120474
 30
0.0
 10
271.0214331669683
 20
28.84956803327851
 30
0.0
 10
271.1240761454666
 20
29.06189212751179
 30
0.0
 10
271.1785858528873
 20
29.16921338647731
 30
0.0
 10
271.2906924585745
 20
29.37960052794613
 30
0.0
 10
271.3481325774356
 20
29.48247502414583
 30
0.0
 10
271.5243821562507
 20
29.78441167342947
 30
0.0
 10
271.6482654594633
 20
29.97834964131761
 30
0.0
 10
271.771894619368
 20
30.15550031495287
 30
0.0
  0
LWPOLYLINE
  5
247
330
1F
100
AcDbEntity
  8
0
  6
Continuous
 62
     7
370
    15
100
AcDbPolyline
 90
       10
 70
   128
 43
0.0
 10
270.6026537184
 20
18.3979594482
 10
270.1686063746
 20
19.1141790319
 10
269.8375283916
 20
19.942727954
 10
269.6141468018
 20
20.8717735387
 10
269.5016535704
 20
21.8880500195
 10
269.5016535704
 20
22.9770430509
 10
269.6141468018
 20
24.123201452
 10
269.8375283916
 20
25.3101579305
 10
270.1686063746
 20
26.5209613553
 10
270.6026537184
 20
27.7383213351
  0
ARC
  5
248
330
1F
100
AcDbEntity
  8
0
  6
Continuous
 62
     7
370
    15
100
AcDbCircle
 10
283.2687620977
 20
34.8294496154
 30
0.0
 40
1.821976129508763
100
AcDbArc
 50
98.9216324289
 51
121.0578987032
  0
LINE
  5
249
330
1F
100
AcDbEntity
  8
0
  6
Continuous
 62
     7
370
    15
100
AcDbLine
 10
280.6318848628
 20
35.4106322037
 30
0.0
 11
282.3287973263
 21
36.3902389174
 31
0.0
  0
LWPOLYLINE
  5
24A
330
1F
100
AcDbEntity
  8
0
  6
Continuous
 62
     7
370
    15
100
AcDbPolyline
 90
        9
 70
   128
 43
0.0
 10
274.1262145476
 20
31.6549886719
 10
274.8900405661
 20
32.5279458894
 10
275.6959536701
 20
33.3070942541
 10
276.5303261044
 20
33.9792585992
 10
277.3790497052
 20
34.5330731343
 10
278.227773306
 20
34.9591740106
 10
279.0621457403
 20
35.2503555727
 10
279.8680588443
 20
35.401694672
 10
280.6318848628
 20
35.4106322037
  0
LINE
  5
24B
330
1F
100
AcDbEntity
  8
0
  6
Continuous
 62
     7
370
    15
100
AcDbLine
 10
272.4293020841
 20
30.6753819582
 30
0.0
 11
274.1262145476
 21
31.6549886719
 31
0.0
  0
ARC
  5
24C
330
1F
100
AcDbEntity
  8
0
  6
Continuous
 62
     7
370
    15
100
AcDbCircle
 10
274.01803875
 20
27.9907800589
 30
0.0
 40
3.119482577506143
100
AcDbArc
 50
120.6168768957
 51
136.0575441067
  0
ARC
  5
24D
330
1F
100
AcDbEntity
  8
0
  6
Continuous
 62
     7
370
    15
100
AcDbCircle
 10
282.2827953152
 20
24.0588540317
 30
0.0
 40
11.87824974077665
100
AcDbArc
 50
146.2122732652
 51
177.4200127919
  0
LWPOLYLINE
  5
24E
330
1F
100
AcDbEntity
  8
0
  6
Continuous
 62
     7
370
    15
100
AcDbPolyline
 90
       33
 70
   128
 43
0.0
 10
278.2097840103
 20
34.9514783896
 10
278.7389609071
 20
34.9464976088
 10
279.3806796029
 20
34.8171206796
 10
279.9559129622
 20
34.5510951877
 10
280.4534644114
 20
34.1535986545
 10
280.8636497242
 20
33.6323677975
 10
281.1784853655
 20
32.9975481309
 10
281.3918432494
 20
32.2614957555
 10
281.4995705942
 20
31.4385368509
 10
281.4995705942
 20
30.5446893389
 10
281.3918432494
 20
29.5973510896
 10
281.1784853655
 20
28.6149609448
 10
280.8636497242
 20
27.6166397841
 10
280.4534644114
 20
26.6218190456
 10
279.9559129622
 20
25.6498618369
 10
279.3806796029
 20
24.7196860451
 10
278.7389609071
 20
23.8493964806
 10
278.04324683
 20
23.055932423
 10
277.3070790223
 20
22.3547379832
 10
276.5447859308
 20
21.7594605096
 10
275.7712047896
 20
21.2816870544
 10
275.0013924575
 20
20.9307158462
 10
274.2503324066
 20
20.7133795333
 10
273.5326431932
 20
20.633907686
 10
272.8622941103
 20
20.6938470586
 10
272.252332077
 20
20.8920309222
 10
271.7146298277
 20
21.2246021408
 10
271.2596532809
 20
21.6850876226
 10
270.8962575554
 20
22.2645241015
 10
270.6315157485
 20
22.9516336292
 10
270.4705813002
 20
23.7330429822
 10
270.4165859189
 20
24.5935422287
 10
270.4165859189
 20
24.5935422287
  0
LINE
  5
24F
330
1F
100
AcDbEntity
  8
0
  6
Continuous
 62
     7
370
    15
100
AcDbLine
 10
271.0150882899
 20
18.3863103824
 30
0.0
 11
272.7120007534
 21
19.365917096
 31
0.0
  0
LINE
  5
250
330
1F
100
AcDbEntity
  8
0
  6
Continuous
 62
     7
370
    15
100
AcDbLine
 10
270.6548937493
 20
18.2195185844
 30
0.0
 11
271.0150882899
 21
18.3863103824
 31
0.0
  0
ARC
  5
251
330
1F
100
AcDbEntity
  8
0
  6
Continuous
 62
     7
370
    15
100
AcDbCircle
 10
280.3633270336
 20
36.1140571642
 30
0.0
 40
2.392071943297411
100
AcDbArc
 50
346.7587053597
 51
10.8660999186
  0
LWPOLYLINE
  5
252
330
1F
100
AcDbEntity
  8
0
  6
Continuous
 62
     7
370
    15
100
AcDbPolyline
 90
        9
 70
   128
 43
0.0
 10
282.6918035227
 20
27.7936019134
 10
283.0360326395
 20
28.9172660836
 10
283.2852673697
 20
30.0258734469
 10
283.4361603313
 20
31.1045314123
 10
283.4866845245
 20
32.1387495494
 10
283.4361603313
 20
33.1146336948
 10
283.2852673697
 20
34.0190743549
 10
283.0360326395
 20
34.839921424
 10
282.6918035227
 20
35.5661471156
  0
ARC
  5
253
330
1F
100
AcDbEntity
  8
0
  6
Continuous
 62
     7
370
    15
100
AcDbCircle
 10
278.9513997949
 20
27.3199925185
 30
0.0
 40
3.770268678167642
100
AcDbArc
 50
301.3793039235
 51
7.2163813133
  0
LINE
  5
254
330
1F
100
AcDbEntity
  8
0
  6
Continuous
 62
     7
370
    15
100
AcDbLine
 10
279.2176710686
 20
23.1215606279
 30
0.0
 11
280.9145835321
 21
24.1011673415
 31
0.0
  0
LWPOLYLINE
  5
255
330
1F
100
AcDbEntity
  8
0
  6
Continuous
 62
     7
370
    15
100
AcDbPolyline
 90
        9
 70
   128
 43
0.0
 10
279.2176710686
 20
23.1215606279
 10
278.4538450501
 20
22.2486034103
 10
277.6479319461
 20
21.4694550456
 10
276.8135595118
 20
20.7972907005
 10
275.964835911
 20
20.2434761654
 10
275.1161123102
 20
19.8173752891
 10
274.2817398759
 20
19.526193727
 10
273.4758267719
 20
19.3748546277
 10
272.7120007534
 20
19.365917096
  0
ARC
  5
256
330
1F
100
AcDbEntity
  8
0
  6
Continuous
 62
     7
370
    15
100
AcDbCircle
 10
273.3006566623
 20
18.6415400371
 30
0.0
 40
2.708976077527568
100
AcDbArc
 50
167.8781416141
 51
185.1587809378
  0
LWPOLYLINE
  5
257
330
1F
100
AcDbEntity
  8
0
  6
Continuous
 62
     7
370
    15
100
AcDbPolyline
 90
        9
 70
   128
 43
0.0
 10
270.6520820935
 20
19.2104021842
 10
270.3078529767
 20
19.9366278757
 10
270.0586182465
 20
20.7574749448
 10
269.9077252849
 20
21.6619156049
 10
269.8572010917
 20
22.6377997503
 10
269.9077252849
 20
23.6720178874
 10
270.0586182465
 20
24.7506758528
 10
270.3078529767
 20
25.8592832161
 10
270.6520820935
 20
26.9829473863
  0
ARC
  5
258
330
1F
100
AcDbEntity
  8
0
  6
Continuous
 62
     7
370
    15
100
AcDbCircle
 10
272.7726202663
 20
27.5010103143
 30
0.0
 40
2.182904335876918
100
AcDbArc
 50
173.7588441556
 51
193.7288526261
  0
LWPOLYLINE
  5
259
330
1F
100
AcDbEntity
  8
0
  6
Continuous
 62
     7
370
    15
100
AcDbPolyline
 90
       29
 70
   128
 43
0.0
 10
278.059123021
 20
34.8847352347
 10
278.4077508859
 20
34.8484746401
 10
279.0134932952
 20
34.6745311172
 10
279.5485373296
 20
34.365556361
 10
280.0019906629
 20
33.9278404217
 10
280.3646221475
 20
33.3702931785
 10
280.6290498287
 20
32.7042652325
 10
280.7898907637
 20
31.9433148116
 10
280.8438706692
 20
31.1029326617
 10
280.7898907637
 20
30.2002266396
 10
280.6290498287
 20
29.2535732279
 10
280.3646221475
 20
28.2822435798
 10
280.0019906629
 20
27.3060109364
 10
279.5485373296
 20
26.3447489225
 10
279.0134932952
 20
25.4180254733
 10
278.4077508859
 20
24.5447066512
 10
277.743640689
 20
23.7425705412
 10
277.0346824586
 20
23.0279463402
 10
276.2953083624
 20
22.4153815846
 10
275.5405699288
 20
21.9173463586
 10
274.7858314953
 20
21.5439791376
 10
274.046457399
 20
21.3028807323
 10
273.3374991687
 20
21.1989591839
 10
272.6733889718
 20
21.2343299816
 10
272.0676465625
 20
21.4082735045
 10
271.5326025281
 20
21.7172482607
 10
271.0791491948
 20
22.1549641999
 10
270.7165177102
 20
22.7125114432
 10
270.6895358246
 20
22.7662973328
  0
ARC
  5
25A
330
1F
100
AcDbEntity
  8
0
  6
Continuous
 62
     7
370
    15
100
AcDbCircle
 10
271.4893373127
 20
19.1306914386
 30
0.0
 40
1.82197612950941
100
AcDbArc
 50
278.9216324289
 51
301.0578987032
  0
ARC
  5
25B
330
1F
100
AcDbEntity
  8
0
  6
Continuous
 62
     7
370
    15
100
AcDbCircle
 10
281.4574427481
 20
35.3186010169
 30
0.0
 40
2.708976077527625
100
AcDbArc
 50
347.8781416141
 51
5.1587809378
  0
LINE
  5
25C
330
1F
100
AcDbEntity
  8
0
  6
Continuous
 62
     7
370
    15
100
AcDbLine
 10
282.6918035227
 20
35.5661471156
 30
0.0
 11
284.1060173169
 21
34.7497388699
 31
0.0
  0
LWPOLYLINE
  5
25D
330
1F
100
AcDbEntity
  8
0
  6
Continuous
 62
     7
370
    15
100
AcDbPolyline
 90
        9
 70
   128
 43
0.0
 10
280.6318848628
 20
22.3051523822
 10
279.8680588443
 20
21.4321951646
 10
279.0621457403
 20
20.6530468
 10
278.227773306
 20
19.9808824549
 10
277.3790497052
 20
19.4270679198
 10
276.5303261044
 20
19.0009670435
 10
275.6959536701
 20
18.7097854814
 10
274.8900405661
 20
18.5584463821
 10
274.1262145476
 20
18.5495088504
  0
LINE
  5
25E
330
1F
100
AcDbEntity
  8
0
  6
Continuous
 62
     7
370
    15
100
AcDbLine
 10
282.3287973263
 20
23.2847590959
 30
0.0
 11
280.6318848628
 21
22.3051523822
 31
0.0
  0
ARC
  5
25F
330
1F
100
AcDbEntity
  8
0
  6
Continuous
 62
     7
370
    15
100
AcDbCircle
 10
280.7400606604
 20
25.9693609952
 30
0.0
 40
3.119482577508105
100
AcDbArc
 50
300.6168768957
 51
316.0575441067
  0
LINE
  5
260
330
1F
100
AcDbEntity
  8
0
  6
Continuous
 62
     7
370
    15
100
AcDbLine
 10
274.1262145476
 20
18.5495088504
 30
0.0
 11
272.4293020841
 21
17.5699021367
 31
0.0
  0
LINE
  5
261
330
1F
100
AcDbEntity
  8
0
  6
Continuous
 62
     7
370
    15
100
AcDbLine
 10
272.7120007534
 20
19.365917096
 30
0.0
 11
274.1262145476
 21
18.5495088504
 31
0.0
  0
LINE
  5
262
330
1F
100
AcDbEntity
  8
0
  6
Continuous
 62
     7
370
    15
100
AcDbLine
 10
280.6318848628
 20
22.3051523822
 30
0.0
 11
279.2176710686
 21
23.1215606279
 31
0.0
  0
ARC
  5
263
330
1F
100
AcDbEntity
  8
0
  6
Continuous
 62
     7
370
    15
100
AcDbCircle
 10
281.9854791441
 20
26.4591307397
 30
0.0
 40
2.182904335876917
100
AcDbArc
 50
353.7588441556
 51
13.7288526261
  0
LWPOLYLINE
  5
264
330
1F
100
AcDbEntity
  8
0
  6
Continuous
 62
     7
370
    15
100
AcDbPolyline
 90
        9
 70
   128
 43
0.0
 10
284.1060173169
 20
34.7497388699
 10
284.4502464337
 20
34.0235131784
 10
284.6994811639
 20
33.2026661093
 10
284.8503741255
 20
32.2982254491
 10
284.9008983187
 20
31.3223413038
 10
284.8503741255
 20
30.2881231666
 10
284.6994811639
 20
29.2094652013
 10
284.4502464337
 20
28.100857838
 10
284.1060173169
 20
26.9771936678
  0
LINE
  5
265
330
1F
100
AcDbEntity
  8
0
  6
Continuous
 62
     7
370
    15
100
AcDbLine
 10
282.6918035227
 20
27.7936019134
 30
0.0
 11
284.1060173169
 21
26.9771936678
 31
0.0
  0
SPLINE
  5
266
330
1F
100
AcDbEntity
  8
0
  6
Continuous
 62
     7
370
    15
100
AcDbSpline
210
0.0
220
0.0
230
1.0
 70
     8
 71
     3
 72
    12
 73
     8
 74
     0
 42
0.000000001
 43
0.00000001
 40
0.0
 40
0.0
 40
0.0
 40
0.0
 40
0.4999999999999998
 40
0.4999999999999998
 40
0.7499999999999999
 40
0.7499999999999999
 40
1.0
 40
1.0
 40
1.0
 40
1.0
 10
234.178498794079
 20
38.98790412334039
 30
0.0
 10
234.4317876301434
 20
38.8670262917714
 30
0.0
 10
234.6613533571748
 20
38.78701882262409
 30
0.0
 10
234.9761338187039
 20
38.72791827922818
 30
0.0
 10
235.0762323256476
 20
38.71873027544957
 30
0.0
 10
235.2615501826897
 20
38.72222113053157
 30
0.0
 10
235.3476236547087
 20
38.73467420873178
 30
0.0
 10
235.4278374469386
 20
38.75806327569324
 30
0.0
  0
SPLINE
  5
267
330
1F
100
AcDbEntity
  8
0
  6
Continuous
 62
     7
370
    15
100
AcDbSpline
210
0.0
220
0.0
230
1.0
 70
     8
 71
     3
 72
    28
 73
    24
 74
     0
 42
0.000000001
 43
0.00000001
 40
0.0
 40
0.0
 40
0.0
 40
0.0
 40
0.1249999999999998
 40
0.1249999999999998
 40
0.2499999999999996
 40
0.2499999999999996
 40
0.3749999999999994
 40
0.3749999999999994
 40
0.4374999999999993
 40
0.4374999999999993
 40
0.4999999999999992
 40
0.4999999999999992
 40
0.6249999999999991
 40
0.6249999999999991
 40
0.749999999999999
 40
0.749999999999999
 40
0.8124999999999993
 40
0.8124999999999993
 40
0.8749999999999996
 40
0.8749999999999996
 40
0.9374999999999998
 40
0.9374999999999998
 40
1.0
 40
1.0
 40
1.0
 40
1.0
 10
235.4278374469386
 20
38.75806327569324
 30
0.0
 10
235.5575048937915
 20
38.79587224236662
 30
0.0
 10
235.6725252680536
 20
38.86338581010646
 30
0.0
 10
235.8665269925733
 20
39.05366046496616
 30
0.0
 10
235.9470550720267
 20
39.17631792003336
 30
0.0
 10
236.0781665887941
 20
39.48259840201522
 30
0.0
 10
236.1262701720708
 20
39.66051472267905
 30
0.0
 10
236.1749503671439
 20
39.96449024021063
 30
0.0
 10
236.1872222288163
 20
40.07207500570689
 30
0.0
 10
236.2036970787691
 20
40.30046665799723
 30
0.0
 10
236.2077518538626
 20
40.41956089640176
 30
0.0
 10
236.2077656611885
 20
40.78820170120226
 30
0.0
 10
236.1918701239068
 20
41.05033066908729
 30
0.0
 10
236.1262627198411
 20
41.60711244751344
 30
0.0
 10
236.0778223524627
 20
41.89097863965932
 30
0.0
 10
235.9806383068545
 20
42.32365878497752
 30
0.0
 10
235.9439269710806
 20
42.46966898762506
 30
0.0
 10
235.8622242276727
 20
42.76096869144196
 30
0.0
 10
235.8176155850733
 20
42.90502296964608
 30
0.0
 10
235.7205388690452
 20
43.18984563436885
 30
0.0
 10
235.6680716161244
 20
43.33061424050476
 30
0.0
 10
235.5545767097052
 20
43.60862416047198
 30
0.0
 10
235.4932050191146
 20
43.74656244539946
 30
0.0
 10
235.4278374469386
 20
43.88084015982724
 30
0.0
  0
SPLINE
  5
268
330
1F
100
AcDbEntity
  8
0
  6
Continuous
 62
     7
370
    15
100
AcDbSpline
210
0.0
220
0.0
230
1.0
 70
     8
 71
     3
 72
    12
 73
     8
 74
     0
 42
0.000000001
 43
0.00000001
 40
0.0
 40
0.0
 40
0.0
 40
0.0
 40
0.4999999999999991
 40
0.4999999999999991
 40
0.7499999999999996
 40
0.7499999999999996
 40
1.0
 40
1.0
 40
1.0
 40
1.0
 10
235.4278374469386
 20
43.88084015982724
 30
0.0
 10
235.2663901861673
 20
44.21248425269098
 30
0.0
 10
235.0835100234846
 20
44.51765321686829
 30
0.0
 10
234.7692155010481
 20
44.93253049865132
 30
0.0
 10
234.6576299410469
 20
45.06336982886614
 30
0.0
 10
234.4258270948632
 20
45.30243032171812
 30
0.0
 10
234.3049001243596
 20
45.41166266382894
 30
0.0
 10
234.178498794079
 20
45.51014365483194
 30
0.0
  0
LWPOLYLINE
  5
269
330
1F
100
AcDbEntity
  8
0
  6
Continuous
 62
     7
370
    15
100
AcDbPolyline
 90
        3
 70
   128
 43
0.0
 10
248.571856555
 20
58.0339083769
 10
248.7182766824
 20
57.9576236319
 10
248.8035318544
 20
57.9097315653
  0
SPLINE
  5
26A
330
1F
100
AcDbEntity
  8
0
  6
Continuous
 62
     7
370
    15
100
AcDbSpline
210
0.0
220
0.0
230
1.0
 70
     8
 71
     3
 72
    12
 73
     8
 74
     0
 42
0.000000001
 43
0.00000001
 40
0.0
 40
0.0
 40
0.0
 40
0.0
 40
0.249999999999999
 40
0.249999999999999
 40
0.499999999999998
 40
0.499999999999998
 40
1.0
 40
1.0
 40
1.0
 40
1.0
 10
231.223328109473
 20
44.87005981710903
 30
0.0
 10
231.2571072757454
 20
44.85055951949551
 30
0.0
 10
231.2954319722209
 20
44.82371977091834
 30
0.0
 10
231.3696550963334
 20
44.76531926759569
 30
0.0
 10
231.4050384608282
 20
44.7343296091148
 30
0.0
 10
231.5008484192132
 20
44.64359025609404
 30
0.0
 10
231.5498521773674
 20
44.58769612737651
 30
0.0
 10
231.5836612349822
 20
44.54043626360986
 30
0.0
  0
SPLINE
  5
26B
330
1F
100
AcDbEntity
  8
0
  6
Continuous
 62
     7
370
    15
100
AcDbSpline
210
0.0
220
0.0
230
1.0
 70
     8
 71
     3
 72
    12
 73
     8
 74
     0
 42
0.000000001
 43
0.00000001
 40
0.0
 40
0.0
 40
0.0
 40
0.0
 40
0.4999999999999971
 40
0.4999999999999971
 40
0.7499999999999986
 40
0.7499999999999986
 40
1.0
 40
1.0
 40
1.0
 40
1.0
 10
248.6881911481732
 20
61.31023778793138
 30
0.0
 10
248.6881911481732
 20
61.38165681965605
 30
0.0
 10
248.6706266175122
 20
61.46418657884925
 30
0.0
 10
248.6155010830223
 20
61.58313129488212
 30
0.0
 10
248.5922086092654
 20
61.62176418210672
 30
0.0
 10
248.5382402202081
 20
61.68832669338376
 30
0.0
 10
248.5073927194549
 20
61.71624773163642
 30
0.0
 10
248.4760591138172
 20
61.73433623714637
 30
0.0
  0
ARC
  5
26C
330
1F
100
AcDbEntity
  8
0
  6
Continuous
 62
     7
370
    15
100
AcDbCircle
 10
256.4530882343
 20
39.0328869372
 30
0.0
 40
25.47903054885489
100
AcDbArc
 50
131.0454117101
 51
165.2587727865
  0
LWPOLYLINE
  5
26D
330
1F
100
AcDbEntity
  8
0
  6
Continuous
 62
     7
370
    15
100
AcDbPolyline
 90
       10
 70
   128
 43
0.0
 10
237.18703459
 20
58.5375999557
 10
238.3054074714
 20
59.5276334792
 10
239.4485473885
 20
60.397146805
 10
240.6043004421
 20
61.1368954799
 10
241.7603788321
 20
61.7390147987
 10
242.9044910079
 20
62.1971025424
 10
244.0244730429
 20
62.5062887356
 10
245.1084168881
 20
62.663285351
 10
246.1447986734
 20
62.6664246341
 10
247.1225989734
 20
62.5156722575
  0
LINE
  5
26E
330
1F
100
AcDbEntity
  8
0
  6
Continuous
 62
     7
370
    15
100
AcDbLine
 10
248.476058744
 20
61.7343365631
 30
0.0
 11
247.1225989734
 21
62.5156722575
 31
0.0
  0
LINE
  5
26F
330
1F
100
AcDbEntity
  8
0
  6
Continuous
 62
     7
370
    15
100
AcDbLine
 10
229.869868195
 20
45.6513957011
 30
0.0
 11
231.2233279656
 21
44.8700600067
 31
0.0
  0
ARC
  5
270
330
1F
100
AcDbEntity
  8
0
  6
Continuous
 62
     7
370
    15
100
AcDbCircle
 10
255.5229759403
 20
39.6198159391
 30
0.0
 40
26.35264486573447
100
AcDbArc
 50
136.493814506
 51
166.7688887241
  0
SPLINE
  5
271
330
1F
100
AcDbEntity
  8
0
  6
Continuous
 62
     7
370
    15
100
AcDbSpline
210
0.0
220
0.0
230
1.0
 70
     8
 71
     3
 72
    12
 73
     8
 74
     0
 42
0.000000001
 43
0.00000001
 40
0.0
 40
0.0
 40
0.0
 40
0.0
 40
0.2500000000000001
 40
0.2500000000000001
 40
0.5000000000000002
 40
0.5000000000000002
 40
1.0
 40
1.0
 40
1.0
 40
1.0
 10
236.409400985154
 20
57.76184318024352
 30
0.0
 10
236.5087156678739
 20
57.79519126453933
 30
0.0
 10
236.6025408075654
 20
57.83907346604386
 30
0.0
 10
236.779533912471
 20
57.94720373483958
 30
0.0
 10
236.859345480392
 20
58.00960922502076
 30
0.0
 10
237.0675293416123
 20
58.21700680281053
 30
0.0
 10
237.1592391751984
 20
58.37841734060431
 30
0.0
 10
237.1870345013722
 20
58.53760034814341
 30
0.0
  0
LINE
  5
272
330
1F
100
AcDbEntity
  8
0
  6
Continuous
 62
     7
370
    15
100
AcDbLine
 10
231.6315564133
 20
44.4734861974
 30
0.0
 11
233.4597951641
 21
45.5289059629
 31
0.0
  0
LINE
  5
273
330
1F
100
AcDbEntity
  8
0
  6
Continuous
 62
     7
370
    15
100
AcDbLine
 10
231.5836611298
 20
44.540436141
 30
0.0
 11
231.6315564133
 21
44.4734861974
 31
0.0
  0
LINE
  5
274
330
1F
100
AcDbEntity
  8
0
  6
Continuous
 62
     7
370
    15
100
AcDbLine
 10
248.6881910765
 20
58.5536265085
 30
0.0
 11
248.6881910765
 21
61.3102375684
 31
0.0
  0
SPLINE
  5
275
330
1F
100
AcDbEntity
  8
0
  6
Continuous
 62
     7
370
    15
100
AcDbSpline
210
0.0
220
0.0
230
1.0
 70
     8
 71
     3
 72
     8
 73
     4
 74
     0
 42
0.000000001
 43
0.00000001
 40
0.0
 40
0.0
 40
0.0
 40
0.0
 40
1.0
 40
1.0
 40
1.0
 40
1.0
 10
228.8797166892355
 20
46.90977490597868
 30
0.0
 10
228.4990188232351
 20
46.84680806830809
 30
0.0
 10
228.1181808509952
 20
46.78410794617305
 30
0.0
 10
227.7372402002555
 20
46.72162706750002
 30
0.0
  0
SPLINE
  5
276
330
1F
100
AcDbEntity
  8
0
  6
Continuous
 62
     7
370
    15
100
AcDbSpline
210
0.0
220
0.0
230
1.0
 70
     8
 71
     3
 72
     8
 73
     4
 74
     0
 42
0.000000001
 43
0.00000001
 40
0.0
 40
0.0
 40
0.0
 40
0.0
 40
0.0011901715795577
 40
0.0011901715795577
 40
0.0011901715795577
 40
0.0011901715795577
 10
227.3795534026977
 20
47.08902372335564
 30
0.0
 10
227.4991999101925
 20
46.96640881360016
 30
0.0
 10
227.6184430843406
 20
46.84393677310445
 30
0.0
 10
227.7372402002555
 20
46.72162706750002
 30
0.0
  0
LWPOLYLINE
  5
277
330
1F
100
AcDbEntity
  8
0
  6
Continuous
 62
     7
370
    15
100
AcDbPolyline
 90
       20
 70
   128
 43
0.0
 10
227.3795534913
 20
47.0890237787
 10
227.7508777634
 20
48.5258459262
 10
228.2260136747
 20
49.9736922691
 10
228.8002170704
 20
51.4181026703
 10
229.4677526866
 20
52.8446505464
 10
230.2219514429
 20
54.2390858287
 10
231.0552822244
 20
55.5874821066
 10
231.9594210284
 20
56.8763716028
 10
232.9253375635
 20
58.0928810982
 10
233.9433834941
 20
59.2248596815
 10
235.0033915514
 20
60.2610006037
 10
236.0947734922
 20
61.1909556237
 10
237.2066290056
 20
62.0054366628
 10
238.3278527673
 20
62.6963072632
 10
239.4472460223
 20
63.2566675367
 10
240.5536282076
 20
63.6809216441
 10
241.6359489053
 20
63.9648310181
 10
242.683397531
 20
64.1055601939
 10
243.6855126113
 20
64.1017041524
 10
244.6322842698
 20
63.9533003351
  0
SPLINE
  5
278
330
1F
100
AcDbEntity
  8
0
  6
Continuous
 62
     7
370
    15
100
AcDbSpline
210
0.0
220
0.0
230
1.0
 70
     8
 71
     3
 72
     9
 73
     5
 74
     0
 42
0.000000001
 43
0.00000001
 40
0.0
 40
0.0
 40
0.0
 40
0.0
 40
0.0103417766200055
 40
1.0
 40
1.0
 40
1.0
 40
1.0
 10
245.0694419192262
 20
62.60923536215085
 30
0.0
 10
245.0679686009363
 20
62.61386700441906
 30
0.0
 10
244.9255058168264
 20
63.06172450883061
 30
0.0
 10
244.7781329948906
 20
63.50982952293641
 30
0.0
 10
244.6322842697591
 20
63.95330033508401
 30
0.0
  0
LWPOLYLINE
  5
279
330
1F
100
AcDbEntity
  8
0
  6
Continuous
 62
     7
370
    15
100
AcDbPolyline
 90
       19
 70
   128
 43
0.0
 10
228.8797165634
 20
46.9097750916
 10
229.2281926338
 20
48.2718135612
 10
229.6791164977
 20
49.6449638073
 10
230.2276175598
 20
51.0143953594
 10
230.8677735295
 20
52.365319291
 10
231.5926696894
 20
53.6831467703
 10
232.3944785795
 20
54.9536449479
 10
233.2645400102
 20
56.1630934142
 10
234.1934581977
 20
57.29843077
 10
235.1712015336
 20
58.3473951122
 10
236.1872102567
 20
59.2986591962
 10
237.2305121923
 20
60.1419489622
 10
238.2898399319
 20
60.8681575696
 10
239.3537533228
 20
61.4694427254
 10
240.4107625742
 20
61.9393099186
 10
241.4494522287
 20
62.2726847486
 10
242.4586050096
 20
62.4659676899
 10
243.4273226637
 20
62.5170703935
 10
243.9284947906
 20
62.4854421036
  0
SPLINE
  5
27A
330
1F
100
AcDbEntity
  8
0
  6
Continuous
 62
     7
370
    15
100
AcDbSpline
210
0.0
220
0.0
230
1.0
 70
     8
 71
     3
 72
    10
 73
     6
 74
     0
 42
0.000000001
 43
0.00000001
 40
0.0
 40
0.0
 40
0.0
 40
0.0
 40
0.5
 40
0.5
 40
1.0
 40
1.0
 40
1.0
 40
1.0
 10
234.178498794079
 20
45.51014365483194
 30
0.0
 10
234.1184122129679
 20
45.55695792522511
 30
0.0
 10
234.0397792561138
 20
45.59003849114488
 30
0.0
 10
233.8683336141718
 20
45.62255542479778
 30
0.0
 10
233.7758748998333
 20
45.62200521145525
 30
0.0
 10
233.6911640696779
 20
45.60814679936344
 30
0.0
  0
SPLINE
  5
27B
330
1F
100
AcDbEntity
  8
0
  6
Continuous
 62
     7
370
    15
100
AcDbSpline
210
0.0
220
0.0
230
1.0
 70
     8
 71
     3
 72
    10
 73
     6
 74
     0
 42
0.000000001
 43
0.00000001
 40
0.0
 40
0.0
 40
0.0
 40
0.0
 40
0.5
 40
0.5
 40
1.0
 40
1.0
 40
1.0
 40
1.0
 10
233.6911640696779
 20
45.60814679936344
 30
0.0
 10
233.6477736430915
 20
45.60104826885239
 30
0.0
 10
233.6056293699241
 20
45.59042111977489
 30
0.0
 10
233.5277764031702
 20
45.5636100191944
 30
0.0
 10
233.4921231445664
 20
45.54756848449929
 30
0.0
 10
233.4597949535636
 20
45.52890581707938
 30
0.0
  0
SPLINE
  5
27C
330
1F
100
AcDbEntity
  8
0
  6
Continuous
 62
     7
370
    15
100
AcDbSpline
210
0.0
220
0.0
230
1.0
 70
     8
 71
     3
 72
     9
 73
     5
 74
     0
 42
0.000000001
 43
0.00000001
 40
0.0
 40
0.0
 40
0.0
 40
0.0
 40
0.5
 40
1.0
 40
1.0
 40
1.0
 40
1.0
 10
248.6886189904885
 20
58.5250100454648
 30
0.0
 10
248.6884763554769
 20
58.52982292157755
 30
0.0
 10
248.6882624664544
 20
58.53940516895556
 30
0.0
 10
248.6881911481732
 20
58.54890052320663
 30
0.0
 10
248.6881911481732
 20
58.55362646702136
 30
0.0
  0
SPLINE
  5
27D
330
1F
100
AcDbEntity
  8
0
  6
Continuous
 62
     7
370
    15
100
AcDbSpline
210
0.0
220
0.0
230
1.0
 70
     8
 71
     3
 72
     8
 73
     4
 74
     0
 42
0.000000001
 43
0.00000001
 40
0.0
 40
0.0
 40
0.0
 40
0.0
 40
1.0
 40
1.0
 40
1.0
 40
1.0
 10
248.7127584997346
 20
58.53943942638426
 30
0.0
 10
248.7045776845443
 20
58.53471674230003
 30
0.0
 10
248.6965310009318
 20
58.52990704081952
 30
0.0
 10
248.6886189904882
 20
58.52501004546496
 30
0.0
  0
LINE
  5
27E
330
1F
100
AcDbEntity
  8
0
  6
Continuous
 62
     7
370
    15
100
AcDbLine
 10
226.043771031
 20
47.8601545791
 30
0.0
 11
227.3795534913
 21
47.0890237787
 31
0.0
  0
LINE
  5
27F
330
1F
100
AcDbEntity
  8
0
  6
Continuous
 62
     7
370
    15
100
AcDbLine
 10
244.6322842698
 20
63.9533003351
 30
0.0
 11
243.2965018094
 21
64.7244311355
 31
0.0
  0
LINE
  5
280
330
1F
100
AcDbEntity
  8
0
  6
Continuous
 62
     7
370
    15
100
AcDbLine
 10
230.106258673
 20
46.6094902983
 30
0.0
 11
229.5157480689
 21
46.9503848139
 31
0.0
  0
SPLINE
  5
281
330
1F
100
AcDbEntity
  8
0
  6
Continuous
 62
     7
370
    15
100
AcDbSpline
210
0.0
220
0.0
230
1.0
 70
     8
 71
     3
 72
    14
 73
    10
 74
     0
 42
0.000000001
 43
0.00000001
 40
0.0
 40
0.0
 40
0.0
 40
0.0
 40
0.1134875903227499
 40
0.2884507601050068
 40
0.4634438893900288
 40
0.6380744063983101
 40
0.8124676993590939
 40
0.9871167959912229
 40
0.9999999999999999
 40
0.9999999999999999
 40
0.9999999999999999
 40
0.9999999999999999
 10
236.9004834352893
 20
58.06215067811517
 30
0.0
 10
236.83093297288
 20
58.06550070753784
 30
0.0
 10
236.6541569598325
 20
58.07401545818673
 30
0.0
 10
236.3593214374439
 20
57.98886941164567
 30
0.0
 10
236.0666753281408
 20
57.82543379937847
 30
0.0
 10
235.8411329683162
 20
57.59474610675365
 30
0.0
 10
235.7220414676175
 20
57.33201243847022
 30
0.0
 10
235.6879744892291
 20
57.13705466457862
 30
0.0
 10
235.7196367605338
 20
57.05127557636446
 30
0.0
 10
235.7218119138232
 20
57.0453826742384
 30
0.0
  0
SPLINE
  5
282
330
1F
100
AcDbEntity
  8
0
  6
Continuous
 62
     7
370
    15
100
AcDbSpline
210
0.0
220
0.0
230
1.0
 70
     8
 71
     3
 72
    12
 73
     8
 74
     0
 42
0.000000001
 43
0.00000001
 40
0.0
 40
0.0
 40
0.0
 40
0.0
 40
0.2500000000000015
 40
0.2500000000000015
 40
0.500000000000003
 40
0.500000000000003
 40
1.0
 40
1.0
 40
1.0
 40
1.0
 10
229.5157481384729
 20
46.95038480139432
 30
0.0
 10
229.4781294035136
 20
46.97210163483052
 30
0.0
 10
229.4321369951263
 20
46.98935736881316
 30
0.0
 10
229.3325358651504
 20
47.01165115664099
 30
0.0
 10
229.2777851398963
 20
47.01685694122042
 30
0.0
 10
229.118279241077
 20
47.0138550417933
 30
0.0
 10
229.0132764358594
 20
46.98687730653409
 30
0.0
 10
228.9379635396675
 20
46.9434000970008
 30
0.0
  0
SPLINE
  5
283
330
1F
100
AcDbEntity
  8
0
  6
Continuous
 62
     7
370
    15
100
AcDbSpline
210
0.0
220
0.0
230
1.0
 70
     8
 71
     3
 72
    10
 73
     6
 74
     0
 42
0.000000001
 43
0.00000001
 40
0.0
 40
0.0
 40
0.0
 40
0.0
 40
0.5
 40
0.5
 40
1.0
 40
1.0
 40
1.0
 40
1.0
 10
225.9421268266842
 20
47.89087657795347
 30
0.0
 10
225.9493895083328
 20
47.8948731834413
 30
0.0
 10
225.9611831722985
 20
47.89505496182647
 30
0.0
 10
225.9952421830658
 20
47.88533333231672
 30
0.0
 10
226.017414670618
 20
47.87536967554102
 30
0.0
 10
226.0437709372816
 20
47.86015452665971
 30
0.0
  0
LINE
  5
284
330
1F
100
AcDbEntity
  8
0
  6
Continuous
 62
     7
370
    15
100
AcDbLine
 10
228.9379635081
 20
46.9434003371
 30
0.0
 11
228.8797165634
 21
46.9097750916
 31
0.0
  0
LINE
  5
285
330
1F
100
AcDbEntity
  8
0
  6
Continuous
 62
     7
370
    15
100
AcDbLine
 10
231.6315564133
 20
44.4734861974
 30
0.0
 11
229.9043736223
 21
45.4705675992
 31
0.0
  0
SPLINE
  5
286
330
1F
100
AcDbEntity
  8
0
  6
Continuous
 62
     7
370
    15
100
AcDbSpline
210
0.0
220
0.0
230
1.0
 70
     8
 71
     3
 72
     8
 73
     4
 74
     0
 42
0.000000001
 43
0.00000001
 40
0.0
 40
0.0
 40
0.0
 40
0.0
 40
0.0011901715795577
 40
0.0011901715795577
 40
0.0011901715795577
 40
0.0011901715795577
 10
229.9043737119444
 20
45.47056752075324
 30
0.0
 10
229.8922122451258
 20
45.53131777646408
 30
0.0
 10
229.8807287981698
 20
45.59158145059413
 30
0.0
 10
229.8698679745272
 20
45.65139572181087
 30
0.0
  0
LINE
  5
287
330
1F
100
AcDbEntity
  8
0
  6
Continuous
 62
     7
370
    15
100
AcDbLine
 10
235.656830693
 20
38.8631072822
 30
0.0
 11
235.4278376455
 21
38.7580632082
 31
0.0
  0
LINE
  5
288
330
1F
100
AcDbEntity
  8
0
  6
Continuous
 62
     7
370
    15
100
AcDbLine
 10
228.6063582779
 20
46.864633001
 30
0.0
 11
228.6063582779
 21
44.6053052608
 31
0.0
  0
LINE
  5
289
330
1F
100
AcDbEntity
  8
0
  6
Continuous
 62
     7
370
    15
100
AcDbLine
 10
228.6063582779
 20
44.6053052608
 30
0.0
 11
228.6063582779
 21
43.1394973535
 31
0.0
  0
ARC
  5
28A
330
1F
100
AcDbEntity
  8
0
  6
Continuous
 62
     7
370
    15
100
AcDbCircle
 10
238.8812778726
 20
45.8952623688
 30
0.0
 40
10.35557637305854
100
AcDbArc
 50
174.7183165866
 51
187.1557179601
  0
LINE
  5
28B
330
1F
100
AcDbEntity
  8
0
  6
Continuous
 62
     7
370
    15
100
AcDbLine
 10
226.3812884268
 20
47.5044013912
 30
0.0
 11
225.9421267441
 21
47.8908765104
 31
0.0
  0
LINE
  5
28C
330
1F
100
AcDbEntity
  8
0
  6
Continuous
 62
     7
370
    15
100
AcDbLine
 10
227.7372399652
 20
46.7216272299
 30
0.0
 11
226.3812884268
 21
47.5044013912
 31
0.0
  0
LINE
  5
28D
330
1F
100
AcDbEntity
  8
0
  6
Continuous
 62
     7
370
    15
100
AcDbLine
 10
227.6075702467
 20
46.6401989027
 30
0.0
 11
227.6087161141
 21
46.7958223571
 31
0.0
  0
ARC
  5
28E
330
1F
100
AcDbEntity
  8
0
  6
Continuous
 62
     7
370
    15
100
AcDbCircle
 10
234.4793380258
 20
46.3637690591
 30
0.0
 40
6.87732548808384
100
AcDbArc
 50
177.6964110269
 51
210.8929471081
  0
LINE
  5
28F
330
1F
100
AcDbEntity
  8
0
  6
Continuous
 62
     7
370
    15
100
AcDbLine
 10
214.3519030183
 20
70.4725157846
 30
0.0
 11
214.4005618842
 21
70.4556405397
 31
0.0
  0
SPLINE
  5
290
330
1F
100
AcDbEntity
  8
0
  6
Continuous
 62
     7
370
    15
100
AcDbSpline
210
0.0
220
0.0
230
1.0
 70
     8
 71
     3
 72
     8
 73
     4
 74
     0
 42
0.000000001
 43
0.00000001
 40
0.0
 40
0.0
 40
0.0
 40
0.0
 40
1.0
 40
1.0
 40
1.0
 40
1.0
 10
233.4597949535635
 20
38.95575228139909
 30
0.0
 10
233.5236899834176
 20
38.99263809699719
 30
0.0
 10
233.6038185233352
 20
39.02042133783827
 30
0.0
 10
233.6911640696702
 20
39.03587703735338
 30
0.0
  0
SPLINE
  5
291
330
1F
100
AcDbEntity
  8
0
  6
Continuous
 62
     7
370
    15
100
AcDbSpline
210
0.0
220
0.0
230
1.0
 70
     8
 71
     3
 72
    14
 73
    10
 74
     0
 42
0.000000001
 43
0.00000001
 40
0.0
 40
0.0
 40
0.0
 40
0.0
 40
0.25
 40
0.25
 40
0.5
 40
0.5
 40
0.75
 40
0.75
 40
1.0
 40
1.0
 40
1.0
 40
1.0
 10
233.6911640696702
 20
39.03587703735338
 30
0.0
 10
233.7338551175739
 20
39.04343117189222
 30
0.0
 10
233.7773366336218
 20
39.04799336321695
 30
0.0
 10
233.86594493034
 20
39.05127891622545
 30
0.0
 10
233.9107093254032
 20
39.04987951943742
 30
0.0
 10
233.9960969925527
 20
39.04133685900635
 30
0.0
 10
234.0380224876792
 20
39.0340230481133
 30
0.0
 10
234.1137737551352
 20
39.01454262934534
 30
0.0
 10
234.1483985450976
 20
39.0022689602716
 30
0.0
 10
234.178498794079
 20
38.98790412334039
 30
0.0
  0
LINE
  5
292
330
1F
100
AcDbEntity
  8
0
  6
Continuous
 62
     7
370
    15
100
AcDbLine
 10
231.6315564133
 20
37.9003324208
 30
0.0
 11
231.5836611298
 21
37.7780837599
 31
0.0
  0
LINE
  5
293
330
1F
100
AcDbEntity
  8
0
  6
Continuous
 62
     7
370
    15
100
AcDbLine
 10
231.6315564133
 20
37.9003324208
 30
0.0
 11
233.4597951641
 21
38.9557521863
 31
0.0
  0
LINE
  5
294
330
1F
100
AcDbEntity
  8
0
  6
Continuous
 62
     7
370
    15
100
AcDbLine
 10
229.9043736223
 20
38.8974138226
 30
0.0
 11
231.6315564133
 21
37.9003324208
 31
0.0
  0
SPLINE
  5
295
330
1F
100
AcDbEntity
  8
0
  6
Continuous
 62
     7
370
    15
100
AcDbSpline
210
0.0
220
0.0
230
1.0
 70
     8
 71
     3
 72
    14
 73
    10
 74
     0
 42
0.000000001
 43
0.00000001
 40
0.0
 40
0.0
 40
0.0
 40
0.0
 40
0.25
 40
0.25
 40
0.5
 40
0.5
 40
0.75
 40
0.75
 40
1.0
 40
1.0
 40
1.0
 40
1.0
 10
231.5836612349821
 20
37.77808395093586
 30
0.0
 10
231.5667530374441
 20
37.73492710138672
 30
0.0
 10
231.5462298465631
 20
37.69491112889771
 30
0.0
 10
231.4974464110008
 20
37.62160150191279
 30
0.0
 10
231.4689894326249
 20
37.58831434330672
 30
0.0
 10
231.4056268101168
 20
37.53539149697639
 30
0.0
 10
231.3703077493758
 20
37.51532783055113
 30
0.0
 10
231.2954896723247
 20
37.49856884006909
 30
0.0
 10
231.25712019826
 20
37.50276573568027
 30
0.0
 10
231.223328109473
 20
37.52227349330271
 30
0.0
  0
LINE
  5
296
330
1F
100
AcDbEntity
  8
0
  6
Continuous
 62
     7
370
    15
100
AcDbLine
 10
231.2233279656
 20
37.5222736339
 30
0.0
 11
229.869868195
 21
38.3036093282
 31
0.0
  0
SPLINE
  5
297
330
1F
100
AcDbEntity
  8
0
  6
Continuous
 62
     7
370
    15
100
AcDbSpline
210
0.0
220
0.0
230
1.0
 70
     8
 71
     3
 72
     8
 73
     4
 74
     0
 42
0.000000001
 43
0.00000001
 40
0.0
 40
0.0
 40
0.0
 40
0.0
 40
0.0011901715795577
 40
0.0011901715795577
 40
0.0011901715795577
 40
0.0011901715795577
 10
229.8698679745272
 20
38.30360939800456
 30
0.0
 10
229.8807287981698
 20
38.50156458636273
 30
0.0
 10
229.8922122451258
 20
38.69950349886432
 30
0.0
 10
229.9043737119444
 20
38.89741398507294
 30
0.0
  0
ARC
  5
298
330
1F
100
AcDbEntity
  8
0
  6
Continuous
 62
     7
370
    15
100
AcDbCircle
 10
236.9905010228
 20
38.7536232045
 30
0.0
 40
5.844702020444076
100
AcDbArc
 50
201.581461597
 51
278.3389720643
  0
SPLINE
  5
299
330
1F
100
AcDbEntity
  8
0
  6
Continuous
 62
     7
370
    15
100
AcDbSpline
210
0.0
220
0.0
230
1.0
 70
     8
 71
     3
 72
     8
 73
     4
 74
     0
 42
0.000000001
 43
0.00000001
 40
0.0
 40
0.0
 40
0.0
 40
0.0
 40
1.0
 40
1.0
 40
1.0
 40
1.0
 10
230.2302906413018
 20
39.55695162350771
 30
0.0
 10
230.1212170609148
 20
39.33717942344848
 30
0.0
 10
230.0126054954468
 20
39.11732634177883
 30
0.0
 10
229.9043737119444
 20
38.89741398507294
 30
0.0
  0
LINE
  5
29A
330
1F
100
AcDbEntity
  8
0
  6
Continuous
 62
     7
370
    15
100
AcDbLine
 10
230.2885375366
 20
39.5905767695
 30
0.0
 11
230.230290592
 21
39.5569515241
 31
0.0
  0
SPLINE
  5
29B
330
1F
100
AcDbEntity
  8
0
  6
Continuous
 62
     7
370
    15
100
AcDbSpline
210
0.0
220
0.0
230
1.0
 70
     8
 71
     3
 72
    12
 73
     8
 74
     0
 42
0.000000001
 43
0.00000001
 40
0.0
 40
0.0
 40
0.0
 40
0.0
 40
0.2499999999999986
 40
0.2499999999999986
 40
0.4999999999999971
 40
0.4999999999999971
 40
1.0
 40
1.0
 40
1.0
 40
1.0
 10
230.30063666559
 20
39.92412476365243
 30
0.0
 10
230.3386742731426
 20
39.90216612021518
 30
0.0
 10
230.3681476770542
 20
39.87590918361052
 30
0.0
 10
230.4069413870972
 20
39.81804117431121
 30
0.0
 10
230.4157635900437
 20
39.78725903950208
 30
0.0
 10
230.410654317357
 20
39.69427905611533
 30
0.0
 10
230.3640305755876
 20
39.63415804418602
 30
0.0
 10
230.2885374917343
 20
39.59057681453009
 30
0.0
  0
LINE
  5
29C
330
1F
100
AcDbEntity
  8
0
  6
Continuous
 62
     7
370
    15
100
AcDbLine
 10
229.5157480689
 20
40.3772310373
 30
0.0
 11
230.3006366456
 21
39.9241245066
 31
0.0
  0
SPLINE
  5
29D
330
1F
100
AcDbEntity
  8
0
  6
Continuous
 62
     7
370
    15
100
AcDbSpline
210
0.0
220
0.0
230
1.0
 70
     8
 71
     3
 72
    12
 73
     8
 74
     0
 42
0.000000001
 43
0.00000001
 40
0.0
 40
0.0
 40
0.0
 40
0.0
 40
0.4999999999999984
 40
0.4999999999999984
 40
0.7499999999999992
 40
0.7499999999999992
 40
1.0
 40
1.0
 40
1.0
 40
1.0
 10
228.937963539668
 20
40.37024656132078
 30
0.0
 10
229.0138943474193
 20
40.41408048360433
 30
0.0
 10
229.1177843068435
 20
40.44073782611353
 30
0.0
 10
229.2784863866758
 20
40.44369368888726
 30
0.0
 10
229.3322711870987
 20
40.43854041725131
 30
0.0
 10
229.4320400725412
 20
40.41624191464796
 30
0.0
 10
229.4775922983686
 20
40.39925816335054
 30
0.0
 10
229.5157481384729
 20
40.37723126571403
 30
0.0
  0
LINE
  5
29E
330
1F
100
AcDbEntity
  8
0
  6
Continuous
 62
     7
370
    15
100
AcDbLine
 10
228.8797165634
 20
40.3366213151
 30
0.0
 11
228.9379635081
 21
40.3702465605
 31
0.0
  0
SPLINE
  5
29F
330
1F
100
AcDbEntity
  8
0
  6
Continuous
 62
     7
370
    15
100
AcDbSpline
210
0.0
220
0.0
230
1.0
 70
     8
 71
     3
 72
     8
 73
     4
 74
     0
 42
0.000000001
 43
0.00000001
 40
0.0
 40
0.0
 40
0.0
 40
0.0
 40
1.0
 40
1.0
 40
1.0
 40
1.0
 10
227.7372402002555
 20
40.14847353181973
 30
0.0
 10
228.1181808509952
 20
40.21095441049276
 30
0.0
 10
228.4990188232351
 20
40.27365453262779
 30
0.0
 10
228.8797166892355
 20
40.3366213702984
 30
0.0
  0
LINE
  5
2A0
330
1F
100
AcDbEntity
  8
0
  6
Continuous
 62
     7
370
    15
100
AcDbLine
 10
226.3812884268
 20
40.9312476146
 30
0.0
 11
227.7372399652
 21
40.1484734533
 31
0.0
  0
LINE
  5
2A1
330
1F
100
AcDbEntity
  8
0
  6
Continuous
 62
     7
370
    15
100
AcDbLine
 10
226.3812884268
 20
40.9312476146
 30
0.0
 11
228.3942265215
 21
42.0932920418
 31
0.0
  0
ARC
  5
2A2
330
1F
100
AcDbEntity
  8
0
  6
Continuous
 62
     7
370
    15
100
AcDbCircle
 10
236.1417425726
 20
39.9326839836
 30
0.0
 40
6.479991700685878
100
AcDbArc
 50
194.5604157604
 51
237.8974471475
  0
ELLIPSE
  5
2A3
330
1F
100
AcDbEntity
  8
0
  6
Continuous
 62
     7
370
    15
100
AcDbEllipse
 10
228.1599119531
 20
42.8817916794
 30
0.0
 11
-6.005970382716441E-5
 21
0.8534489614827194
 31
0.0
210
0.0
220
0.0
230
1.0
 40
0.7174342186
 41
3.534193645557511
 42
5.104989972352364
  0
ARC
  5
2A4
330
1F
100
AcDbEntity
  8
0
  6
Continuous
 62
     7
370
    15
100
AcDbCircle
 10
235.4696156573
 20
42.1674397942
 30
0.0
 40
6.839493136999791
100
AcDbArc
 50
195.5264594472
 51
215.5387589459
  0
ARC
  5
2A5
330
1F
100
AcDbEntity
  8
0
  6
Continuous
 62
     7
370
    15
100
AcDbCircle
 10
233.3150683056
 20
41.1795032107
 30
0.0
 40
6.107286192387909
100
AcDbArc
 50
193.6210969842
 51
253.2123696418
  0
SPLINE
  5
2A6
330
1F
100
AcDbEntity
  8
0
  6
Continuous
 62
     7
370
    15
100
AcDbSpline
210
0.0
220
0.0
230
1.0
 70
     8
 71
     3
 72
     8
 73
     4
 74
     0
 42
0.000000001
 43
0.00000001
 40
0.0
 40
0.0
 40
0.0
 40
0.0
 40
0.0011901715795577
 40
0.0011901715795577
 40
0.0011901715795577
 40
0.0011901715795577
 10
227.7372402002555
 20
40.14847353181973
 30
0.0
 10
227.6184430843406
 20
40.01212249550468
 30
0.0
 10
227.4991999101925
 20
39.87639194936876
 30
0.0
 10
227.3795534026977
 20
39.74123739954933
 30
0.0
  0
LINE
  5
2A7
330
1F
100
AcDbEntity
  8
0
  6
Continuous
 62
     7
370
    15
100
AcDbLine
 10
225.9421267441
 20
40.6776730577
 30
0.0
 11
226.3812884268
 21
40.9312476146
 31
0.0
  0
LINE
  5
2A8
330
1F
100
AcDbEntity
  8
0
  6
Continuous
 62
     7
370
    15
100
AcDbLine
 10
227.3795534913
 20
39.7412374059
 30
0.0
 11
226.043771031
 21
40.5123682063
 31
0.0
  0
SPLINE
  5
2A9
330
1F
100
AcDbEntity
  8
0
  6
Continuous
 62
     7
370
    15
100
AcDbSpline
210
0.0
220
0.0
230
1.0
 70
     8
 71
     3
 72
    10
 73
     6
 74
     0
 42
0.000000001
 43
0.00000001
 40
0.0
 40
0.0
 40
0.0
 40
0.0
 40
0.5
 40
0.5
 40
1.0
 40
1.0
 40
1.0
 40
1.0
 10
226.0437709372816
 20
40.51236820285339
 30
0.0
 10
226.0174666849047
 20
40.52755332452617
 30
0.0
 10
225.9952685707862
 20
40.55118297546004
 30
0.0
 10
225.9612566843544
 20
40.60862536826995
 30
0.0
 10
225.9493858039483
 20
40.64226364642057
 30
0.0
 10
225.9421268266842
 20
40.6776730696637
 30
0.0
  0
ARC
  5
2AA
330
1F
100
AcDbEntity
  8
0
  6
Continuous
 62
     7
370
    15
100
AcDbCircle
 10
232.0355470834
 20
41.8657334942
 30
0.0
 40
6.098259614372222
100
AcDbArc
 50
201.9750892815
 51
238.7501029912
  0
ELLIPSE
  5
2AB
330
1F
100
AcDbEntity
  8
0
  6
Continuous
 62
     7
370
    15
100
AcDbEllipse
 10
228.0406731375
 20
42.8129341993
 30
0.0
 11
0.26000757892092
 21
0.9705436209909237
 31
0.0
210
0.0
220
0.0
230
1.0
 40
0.5176380889
 41
3.619174351347694
 42
5.189970678142645
  0
SPLINE
  5
2AC
330
1F
100
AcDbEntity
  8
0
  6
Continuous
 62
     7
370
    15
100
AcDbSpline
210
0.0
220
0.0
230
1.0
 70
     8
 71
     3
 72
    12
 73
     8
 74
     0
 42
0.000000001
 43
0.00000001
 40
0.0
 40
0.0
 40
0.0
 40
0.0
 40
0.5000000000000003
 40
0.5000000000000003
 40
0.7500000000000001
 40
0.7500000000000001
 40
1.0
 40
1.0
 40
1.0
 40
1.0
 10
245.4961033743981
 20
63.15253823470543
 30
0.0
 10
245.5585467002227
 20
63.18858599940575
 30
0.0
 10
245.6378833054448
 20
63.21424499946355
 30
0.0
 10
245.7687566687859
 20
63.22602875947002
 30
0.0
 10
245.8135289811569
 20
63.22521848726649
 30
0.0
 10
245.8987908971602
 20
63.21167000687915
 30
0.0
 10
245.9382071042785
 20
63.19890539586974
 30
0.0
 10
245.9694467645284
 20
63.18087112387777
 30
0.0
  0
LINE
  5
2AD
330
1F
100
AcDbEntity
  8
0
  6
Continuous
 62
     7
370
    15
100
AcDbLine
 10
245.9694470394
 20
63.1808710776
 30
0.0
 11
247.1211103335
 21
62.5160300094
 31
0.0
  0
SPLINE
  5
2AE
330
1F
100
AcDbEntity
  8
0
  6
Continuous
 62
     7
370
    15
100
AcDbSpline
210
0.0
220
0.0
230
1.0
 70
     8
 71
     3
 72
     9
 73
     5
 74
     0
 42
0.000000001
 43
0.00000001
 40
0.0
 40
0.0
 40
0.0
 40
0.0
 40
0.8664443272572582
 40
1.0
 40
1.0
 40
1.0
 40
1.0
 10
248.6881910765236
 20
60.73571586666695
 30
0.0
 10
249.0073677746495
 20
60.80500585790286
 30
0.0
 10
249.3757430851975
 20
60.88497636386168
 30
0.0
 10
249.7460831825616
 20
60.96184584435279
 30
0.0
 10
249.7955442034087
 20
60.97211219953317
 30
0.0
  0
LINE
  5
2AF
330
1F
100
AcDbEntity
  8
0
  6
Continuous
 62
     7
370
    15
100
AcDbLine
 10
249.7955442034
 20
60.9721121995
 30
0.0
 11
251.149003974
 21
60.1907765052
 31
0.0
  0
SPLINE
  5
2B0
330
1F
100
AcDbEntity
  8
0
  6
Continuous
 62
     7
370
    15
100
AcDbSpline
210
0.0
220
0.0
230
1.0
 70
     8
 71
     3
 72
    14
 73
    10
 74
     0
 42
0.000000001
 43
0.00000001
 40
0.0
 40
0.0
 40
0.0
 40
0.0
 40
0.25
 40
0.25
 40
0.5
 40
0.5
 40
0.75
 40
0.75
 40
1.0
 40
1.0
 40
1.0
 40
1.0
 10
251.1490039367199
 20
60.1907764143271
 30
0.0
 10
251.1802660248779
 20
60.17272919497931
 30
0.0
 10
251.2025333969741
 20
60.149639879539
 30
0.0
 10
251.2256867949623
 20
60.10102852627029
 30
0.0
 10
251.2272069649584
 20
60.07502874470518
 30
0.0
 10
251.2137617941874
 20
60.02489581531776
 30
0.0
 10
251.1990622885393
 20
60.00070550020636
 30
0.0
 10
251.1574172935637
 20
59.95575505743377
 30
0.0
 10
251.1311050100461
 20
59.93552115035201
 30
0.0
 10
251.0999246153015
 20
59.91752109160795
 30
0.0
  0
LINE
  5
2B1
330
1F
100
AcDbEntity
  8
0
  6
Continuous
 62
     7
370
    15
100
AcDbLine
 10
251.0999246275
 20
59.9175208237
 30
0.0
 11
248.7127587379
 21
58.5394392889
 31
0.0
  0
LINE
  5
2B2
330
1F
100
AcDbEntity
  8
0
  6
Continuous
 62
     7
370
    15
100
AcDbLine
 10
245.4961032747
 20
63.1525380313
 30
0.0
 11
244.9881823837
 21
62.8593215422
 31
0.0
  0
LINE
  5
2B3
330
1F
100
AcDbEntity
  8
0
  6
Continuous
 62
     7
370
    15
100
AcDbLine
 10
252.7054548208
 20
56.6391887938
 30
0.0
 11
252.8108186494
 21
56.8216839174
 31
0.0
  0
LINE
  5
2B4
330
1F
100
AcDbEntity
  8
0
  6
Continuous
 62
     7
370
    15
100
AcDbLine
 10
252.7054548208
 20
56.6391887938
 30
0.0
 11
252.0416610546
 21
56.2559888092
 31
0.0
  0
SPLINE
  5
2B5
330
1F
100
AcDbEntity
  8
0
  6
Continuous
 62
     7
370
    15
100
AcDbSpline
210
0.0
220
0.0
230
1.0
 70
     8
 71
     3
 72
    10
 73
     6
 74
     0
 42
0.000000001
 43
0.00000001
 40
0.0
 40
0.0
 40
0.0
 40
0.0
 40
0.4056208998877063
 40
0.81236039500671
 40
1.0
 40
1.0
 40
1.0
 40
1.0
 10
252.8108186493866
 20
56.82168391735133
 30
0.0
 10
252.8291363621744
 20
56.86060958846853
 30
0.0
 10
252.8658223031602
 20
56.93856827741534
 30
0.0
 10
252.8798470465586
 20
57.04602485940612
 30
0.0
 10
252.8617955545699
 20
57.09909674035045
 30
0.0
 10
252.8560968770329
 20
57.11585100841734
 30
0.0
  0
LWPOLYLINE
  5
2B6
330
1F
100
AcDbEntity
  8
0
  6
Continuous
 62
     7
370
    15
100
AcDbPolyline
 90
       28
 70
   128
 43
0.0
 10
273.430973717
 20
39.5864540483
 10
272.8133491891
 20
39.4929509421
 10
272.1750164822
 20
39.4841962528
 10
271.5503940958
 20
39.5606585394
 10
270.973155633
 20
39.718215765
 10
270.4744160049
 20
39.9483764602
 10
270.0810640775
 20
40.2387314123
 10
269.8143087708
 20
40.5736259004
 10
269.6885256173
 20
40.9350084239
 10
269.7105014945
 20
41.3033937199
 10
269.8790462478
 20
41.6589250522
 10
270.185077787
 20
41.9824330672
 10
270.612093141
 20
42.2564802322
 10
271.1370767865
 20
42.4662897034
 10
271.7317241614
 20
42.6005520098
 10
272.3639778439
 20
42.6520290241
 10
272.9997535872
 20
42.6179451515
 10
273.604776372
 20
42.5001378945
 10
274.1464277481
 20
42.3049594603
 10
274.5955101569
 20
42.0429297134
 10
274.9278087521
 20
41.7281779441
 10
275.1254157331
 20
41.3776684628
 10
275.1776731331
 20
41.0103002157
 10
275.0817627933
 20
40.6458787585
 10
274.8428609969
 20
40.3040467683
 10
274.4738406325
 20
40.0032361944
 10
273.9946008468
 20
39.7596608388
 10
273.430973717
 20
39.5864540483
  0
LWPOLYLINE
  5
2B7
330
1F
100
AcDbEntity
  8
0
  6
Continuous
 62
     7
370
    15
100
AcDbPolyline
 90
       14
 70
   128
 43
0.0
 10
273.5220354406
 20
39.247911447
 10
272.8729362718
 20
39.1479780563
 10
272.2015902349
 20
39.1339334013
 10
271.5416604785
 20
39.2064821265
 10
270.9262432272
 20
39.3619839649
 10
270.3861944191
 20
39.5926434426
 10
269.9485965327
 20
39.8868930428
 10
269.6353912829
 20
40.2299785712
 10
269.4622849565
 20
40.6046958303
 10
269.4379556882
 20
40.9922559807
 10
269.5636252427
 20
41.3732244645
 10
269.8329915962
 20
41.7284978993
 10
270.2325483813
 20
42.0402609946
 10
270.3076360161
 20
42.0852140001
  0
LWPOLYLINE
  5
2B8
330
1F
100
AcDbEntity
  8
0
  6
Continuous
 62
     7
370
    15
100
AcDbPolyline
 90
       10
 70
   128
 43
0.0
 10
274.5509655478
 20
42.085214363
 10
274.9100063184
 20
41.8347082236
 10
275.2232115682
 20
41.4916226952
 10
275.3963178946
 20
41.116905436
 10
275.4206471629
 20
40.7293452857
 10
275.2949776084
 20
40.3483768019
 10
275.025611255
 20
39.9931033671
 10
274.6260544698
 20
39.6813402718
 10
274.1163431712
 20
39.4287203
 10
273.5220354406
 20
39.247911447
  0
LWPOLYLINE
  5
2B9
330
1F
100
AcDbEntity
  8
0
  6
Continuous
 62
     7
370
    15
100
AcDbPolyline
 90
       22
 70
   128
 43
0.0
 10
273.0667294981
 20
40.1240835314
 10
272.5580249803
 20
40.0574185257
 10
272.0378827379
 20
40.0802757983
 10
271.5525189719
 20
40.1906249821
 10
271.1450605273
 20
40.3786607889
 10
270.8517129464
 20
40.6276748099
 10
270.6985428201
 20
40.9155404587
 10
270.6991560074
 20
41.2166816317
 10
270.8535018825
 20
41.5043386149
 10
271.147863797
 20
41.7529530836
 10
271.5560870484
 20
41.9404341694
 10
272.0418982542
 20
42.0501239251
 10
272.5621333102
 20
42.0722745337
 10
273.0705644086
 20
42.0049194012
 10
273.5220174129
 20
41.8540420415
 10
273.876378731
 20
41.6330485672
 10
274.1021589868
 20
41.3615767843
 10
274.1792995734
 20
41.0637465563
 10
274.1009442192
 20
40.7660225382
 10
273.8740566619
 20
40.4948578611
 10
273.5187983959
 20
40.2743458657
 10
273.0667294981
 20
40.1240835314
  0
LINE
  5
2BA
330
1F
100
AcDbEntity
  8
0
  6
Continuous
 62
     7
370
    15
100
AcDbLine
 10
273.7822014951
 20
40.4259367683
 30
0.0
 11
273.5873680459
 21
40.3051852094
 31
0.0
  0
SPLINE
  5
2BB
330
1F
100
AcDbEntity
  8
0
  6
Continuous
 62
     7
370
    15
100
AcDbSpline
210
0.0
220
0.0
230
1.0
 70
     8
 71
     3
 72
    10
 73
     6
 74
     0
 42
0.000000001
 43
0.00000001
 40
0.0
 40
0.0
 40
0.0
 40
0.0
 40
0.4391276446487588
 40
0.7513755419014747
 40
1.0
 40
1.0
 40
1.0
 40
1.0
 10
274.0423648741923
 20
41.41448513156454
 30
0.0
 10
274.0051193241054
 20
41.18907410917843
 30
0.0
 10
273.9413898009906
 20
40.80338140419879
 30
0.0
 10
273.8487479112617
 20
40.51518339118701
 30
0.0
 10
273.8026402001812
 20
40.45334749169982
 30
0.0
 10
273.7822014950602
 20
40.42593676828948
 30
0.0
  0
SPLINE
  5
2BC
330
1F
100
AcDbEntity
  8
0
  6
Continuous
 62
     7
370
    15
100
AcDbSpline
210
0.0
220
0.0
230
1.0
 70
     8
 71
     3
 72
    10
 73
     6
 74
     0
 42
0.000000001
 43
0.00000001
 40
0.0
 40
0.0
 40
0.0
 40
0.0
 40
0.4391277436609441
 40
0.7513768806870773
 40
0.9999999999999999
 40
0.9999999999999999
 40
0.9999999999999999
 40
0.9999999999999999
 10
272.6894661011983
 20
42.0388266791283
 30
0.0
 10
272.8831493880149
 20
41.86555622034239
 30
0.0
 10
273.2145544199
 20
41.56907889975137
 30
0.0
 10
273.6963015102827
 20
41.41056824668576
 30
0.0
 10
273.9360772342588
 20
41.41328212514123
 30
0.0
 10
274.0423648741923
 20
41.41448513156454
 30
0.0
  0
SPLINE
  5
2BD
330
1F
100
AcDbEntity
  8
0
  6
Continuous
 62
     7
370
    15
100
AcDbSpline
210
0.0
220
0.0
230
1.0
 70
     8
 71
     3
 72
    11
 73
     7
 74
     0
 42
0.000000001
 43
0.00000001
 40
0.0
 40
0.0
 40
0.0
 40
0.0
 40
0.1843647713898579
 40
0.5174527904331849
 40
0.86633512998388
 40
1.0
 40
1.0
 40
1.0
 40
1.0
 10
271.076401356053
 20
41.6746214078562
 30
0.0
 10
271.1700058337034
 20
41.65764946807501
 30
0.0
 10
271.4327235849967
 20
41.61001467574113
 30
0.0
 10
271.9221871887506
 20
41.64094645143545
 30
0.0
 10
272.3779308400511
 20
41.83928122300232
 30
0.0
 10
272.6218898209429
 20
41.99554252690356
 30
0.0
 10
272.6894661011983
 20
42.0388266791283
 30
0.0
  0
SPLINE
  5
2BE
330
1F
100
AcDbEntity
  8
0
  6
Continuous
 62
     7
370
    15
100
AcDbSpline
210
0.0
220
0.0
230
1.0
 70
     8
 71
     3
 72
    10
 73
     6
 74
     0
 42
0.000000001
 43
0.00000001
 40
0.0
 40
0.0
 40
0.0
 40
0.0
 40
0.4391276446487588
 40
0.7513755419014747
 40
1.0
 40
1.0
 40
1.0
 40
1.0
 10
270.8162379769208
 20
40.68607304458115
 30
0.0
 10
270.8534835270077
 20
40.74370641728228
 30
0.0
 10
270.9172130501225
 20
40.84232081146271
 30
0.0
 10
271.0098549398515
 20
41.25813702022579
 30
0.0
 10
271.055962650932
 20
41.54670465332344
 30
0.0
 10
271.076401356053
 20
41.6746214078562
 30
0.0
  0
SPLINE
  5
2BF
330
1F
100
AcDbEntity
  8
0
  6
Continuous
 62
     7
370
    15
100
AcDbSpline
210
0.0
220
0.0
230
1.0
 70
     8
 71
     3
 72
     9
 73
     5
 74
     0
 42
0.000000001
 43
0.00000001
 40
0.0
 40
0.0
 40
0.0
 40
0.0
 40
0.2576013592959067
 40
1.0
 40
1.0
 40
1.0
 40
1.0
 10
271.2616942750053
 20
40.33096629571823
 30
0.0
 10
271.2211499529125
 20
40.35293350811515
 30
0.0
 10
271.0637582287247
 20
40.43820950377356
 30
0.0
 10
270.9217010404203
 20
40.58046371300976
 30
0.0
 10
270.8162379769208
 20
40.68607304458115
 30
0.0
  0
LINE
  5
2C0
330
1F
100
AcDbEntity
  8
0
  6
Continuous
 62
     7
370
    15
100
AcDbLine
 10
271.0764013561
 20
40.4574784971
 30
0.0
 11
271.0764013561
 21
41.6746214079
 31
0.0
  0
LINE
  5
2C1
330
1F
100
AcDbEntity
  8
0
  6
Continuous
 62
     7
370
    15
100
AcDbLine
 10
272.6894661012
 20
40.0659083704
 30
0.0
 11
272.6894661012
 21
42.0388266791
 31
0.0
  0
LWPOLYLINE
  5
2C2
330
1F
100
AcDbEntity
  8
0
  6
Continuous
 62
     7
370
    15
100
AcDbPolyline
 90
        3
 70
   128
 43
0.0
 10
235.9180265671
 20
57.231694856
 10
236.0325978357
 20
57.3889417625
 10
236.2085016592
 20
57.5489741177
  0
LWPOLYLINE
  5
2C3
330
1F
100
AcDbEntity
  8
0
  6
Continuous
 62
     7
370
    15
100
AcDbPolyline
 90
        3
 70
   128
 43
0.0
 10
235.9759946181
 20
57.295926139
 10
236.058100301
 20
57.4022862184
 10
236.1827930694
 20
57.521351094
  0
LINE
  5
2C4
330
1F
100
AcDbEntity
  8
0
  6
Continuous
 62
     7
370
     0
100
AcDbLine
 10
271.0150882899
 20
18.3863103824
 30
0.0
 11
272.4293020841
 21
17.5699021367
 31
0.0
  0
LINE
  5
2C5
330
1F
100
AcDbEntity
  8
0
  6
Continuous
 62
     7
370
     0
100
AcDbLine
 10
280.9145835321
 20
24.1011673415
 30
0.0
 11
282.3287973263
 21
23.2847590959
 31
0.0
  0
ARC
  5
2C6
330
1F
100
AcDbEntity
  8
0
  6
Continuous
 62
     7
370
     0
100
AcDbCircle
 10
238.8573318954
 20
40.4397241631
 30
0.0
 40
4.898903765324574
100
AcDbArc
 50
197.2388719005
 51
238.594412334
  0
LWPOLYLINE
  5
2C7
330
1F
100
AcDbEntity
  8
0
  6
Continuous
 62
     7
370
     0
100
AcDbPolyline
 90
       19
 70
   128
 43
0.0
 10
234.1784990299
 20
45.5101434948
 10
234.5468914619
 20
46.7840511917
 10
235.0157553952
 20
48.0617236385
 10
235.5792080519
 20
49.3271296885
 10
236.230179298
 20
50.5643915402
 10
236.9605005476
 20
51.7579832088
 10
237.7610081537
 20
52.8929282376
 10
238.621657337
 20
53.9549860004
 10
239.5316492846
 20
54.9308296377
 10
240.4795653288
 20
55.8082155328
 10
241.4535114971
 20
56.5761329188
 10
242.4412667057
 20
57.224947224
 10
243.430437003
 20
57.7465172521
 10
244.4086104508
 20
58.1342982814
 10
245.3635133229
 20
58.3834238714
 10
246.2831634843
 20
58.4907685506
 10
247.1560217535
 20
58.454986527
 10
247.9711352183
 20
58.2765244597
 10
248.571856555
 20
58.0339083769
  0
LWPOLYLINE
  5
2C8
330
1F
100
AcDbEntity
  8
0
  6
Continuous
 62
     7
370
     0
100
AcDbPolyline
 90
       20
 70
   128
 43
0.0
 10
231.2233279656
 20
44.8700600067
 10
231.5946522377
 20
46.3068821542
 10
232.0697881489
 20
47.7547284971
 10
232.6439915447
 20
49.1991388983
 10
233.3115271608
 20
50.6256867744
 10
234.0657259171
 20
52.0201220567
 10
234.8990566986
 20
53.3685183346
 10
235.8031955027
 20
54.6574078308
 10
236.7691120378
 20
55.8739173262
 10
237.7871579683
 20
57.0058959095
 10
238.8471660256
 20
58.0420368317
 10
239.9385479664
 20
58.9719918518
 10
241.0504034798
 20
59.7864728908
 10
242.1716272415
 20
60.4773434912
 10
243.2910204965
 20
61.0377037647
 10
244.3974026818
 20
61.4619578721
 10
245.4797233795
 20
61.7458672461
 10
246.5271720052
 20
61.886596422
 10
247.5292870856
 20
61.8827403805
 10
248.476058744
 20
61.7343365631
  0
LINE
  5
2C9
330
1F
100
AcDbEntity
  8
0
  6
Continuous
 62
     7
370
     0
100
AcDbLine
 10
231.5836611298
 20
44.540436141
 30
0.0
 11
231.8127022511
 21
45.516125041
 31
0.0
  0
LWPOLYLINE
  5
2CA
330
1F
100
AcDbEntity
  8
0
  6
Continuous
 62
     7
370
     0
100
AcDbPolyline
 90
       10
 70
   128
 43
0.0
 10
239.7221046369
 20
58.2489007166
 10
240.1921024192
 20
58.6331754539
 10
241.3014497835
 20
59.4443979071
 10
242.4200813289
 20
60.1300868497
 10
243.5364451351
 20
60.6831620898
 10
244.6390129483
 20
61.0979107215
 10
245.716398678
 20
61.3700509694
 10
246.7574765442
 20
61.4967722561
 10
247.7514958076
 20
61.476765693
 10
248.6881910765
 20
61.3102375684
  0
LWPOLYLINE
  5
2CB
330
1F
100
AcDbEntity
  8
0
  6
Continuous
 62
     7
370
     0
100
AcDbPolyline
 90
       20
 70
   128
 43
0.0
 10
233.4597951641
 20
45.5289059629
 10
233.8150272426
 20
46.7964391739
 10
234.2667874579
 20
48.0696333386
 10
234.8098766013
 20
49.3338325437
 10
235.4380424512
 20
50.5744840172
 10
236.1440541887
 20
51.7773061841
 10
236.9197837285
 20
52.9284515876
 10
237.7563018654
 20
54.01467038
 10
238.6439790324
 20
55.0234574625
 10
239.572596759
 20
55.9432012404
 10
240.5314653861
 20
56.7633139364
 10
241.5095468023
 20
57.4743541561
 10
242.4955819544
 20
58.0681370008
 10
243.4782201693
 20
58.5378277346
 10
244.4461497927
 20
58.8780194821
 10
245.3882284983
 20
59.0847955266
 10
246.2936116222
 20
59.155776019
 10
247.1518772037
 20
59.0901437741
 10
247.9531447701
 20
58.888653528
 10
248.6881910765
 20
58.5536265085
  0
ARC
  5
2CC
330
1F
100
AcDbEntity
  8
0
  6
Continuous
 62
     7
370
     0
100
AcDbCircle
 10
246.3246990108
 20
54.5183178396
 30
0.0
 40
4.676777413013569
100
AcDbArc
 50
33.2576477117
 51
59.294811611
  0
LWPOLYLINE
  5
2CD
330
1F
100
AcDbEntity
  8
0
  6
Continuous
 62
     7
370
     0
100
AcDbPolyline
 90
       20
 70
   128
 43
0.0
 10
226.043771031
 20
47.8601545791
 10
226.4150953031
 20
49.2969767266
 10
226.8902312143
 20
50.7448230695
 10
227.4644346101
 20
52.1892334707
 10
228.1319702262
 20
53.6157813468
 10
228.8861689825
 20
55.0102166291
 10
229.719499764
 20
56.358612907
 10
230.6236385681
 20
57.6475024032
 10
231.5895551032
 20
58.8640118986
 10
232.6076010337
 20
59.9959904819
 10
233.667609091
 20
61.0321314041
 10
234.7589910318
 20
61.9620864241
 10
235.8708465452
 20
62.7765674631
 10
236.9920703069
 20
63.4674380636
 10
238.1114635619
 20
64.0277983371
 10
239.2178457472
 20
64.4520524445
 10
240.3001664449
 20
64.7359618185
 10
241.3476150706
 20
64.8766909943
 10
242.349730151
 20
64.8728349528
 10
243.2965018094
 20
64.7244311355
  0
LWPOLYLINE
  5
2CE
330
1F
100
AcDbEntity
  8
0
  6
Continuous
 62
     7
370
     0
100
AcDbPolyline
 90
       16
 70
   128
 43
0.0
 10
229.5157480689
 20
46.9503848139
 10
229.8660252585
 20
48.2813760762
 10
230.3167647299
 20
49.6217849901
 10
230.8630076429
 20
50.9568643639
 10
231.4987441204
 20
52.271926421
 10
232.2169804197
 20
53.5525021097
 10
233.0098133481
 20
54.7845019352
 10
233.8685214715
 20
55.9543724152
 10
234.7836559932
 20
57.049242081
 10
235.7451494141
 20
58.0570655748
 10
236.7424227106
 20
58.9667539638
 10
237.7645043665
 20
59.7682989698
 10
238.8001491787
 20
60.4528826193
 10
239.8379629484
 20
61.0129728004
 10
240.866527728
 20
61.4424077338
 10
241.6257697828
 20
61.6760256926
  0
LWPOLYLINE
  5
2CF
330
1F
100
AcDbEntity
  8
0
  6
Continuous
 62
     7
370
     0
100
AcDbPolyline
 90
       19
 70
   128
 43
0.0
 10
228.9379635081
 20
46.9434003371
 10
229.2867155086
 20
48.3002896865
 10
229.7375840547
 20
49.6680151757
 10
230.2856853804
 20
51.031761925
 10
230.9250827068
 20
52.3767581196
 10
231.6488501214
 20
53.6884350809
 10
232.4491489689
 20
54.9525869571
 10
233.3173098401
 20
56.1555199557
 10
234.2439297073
 20
57.2842049978
 10
235.2189720229
 20
58.3264161126
 10
236.2318757087
 20
59.2708648393
 10
237.2716692484
 20
60.1073223655
 10
238.3270901728
 20
60.826727288
 10
239.3867068077
 20
61.4212878359
 10
240.4390419571
 20
61.8845646784
 10
241.4726970388
 20
62.2115387844
 10
242.4764762611
 20
62.3986694198
 10
243.4395073835
 20
62.4439288799
 10
243.6988820527
 20
62.4311837088
  0
ARC
  5
2D0
330
1F
100
AcDbEntity
  8
0
  6
Continuous
 62
     7
370
     0
100
AcDbCircle
 10
234.9581824116
 20
39.3950136786
 30
0.0
 40
0.79137977007198
100
AcDbArc
 50
306.4031961401
 51
30.6408161238
  0
LWPOLYLINE
  5
2D1
330
1F
100
AcDbEntity
  8
0
  6
Continuous
 62
     7
370
     0
100
AcDbPolyline
 90
        3
 70
   128
 43
0.0
 10
235.6390690891
 20
39.7983439066
 10
235.9973113746
 20
40.0081059626
 10
236.201489148
 20
40.2426644245
  0
LINE
  5
2D2
330
1F
100
AcDbEntity
  8
0
  6
Continuous
 62
     7
370
     0
100
AcDbLine
 10
234.7745529325
 20
44.919261531
 30
0.0
 11
234.489639578
 21
45.1621431843
 31
0.0
  0
LINE
  5
2D3
330
1F
100
AcDbEntity
  8
0
  6
Continuous
 62
     7
370
     0
100
AcDbLine
 10
234.2101796306
 20
45.3088610143
 30
0.0
 11
233.6916449777
 21
45.6082046977
 31
0.0
  0
ARC
  5
2D4
330
1F
100
AcDbEntity
  8
0
  6
Continuous
 62
     7
370
     0
100
AcDbCircle
 10
232.6707951927
 20
42.6424908338
 30
0.0
 40
3.078836531342838
100
AcDbArc
 50
59.1938981408
 51
60.0007269052
  0
SPLINE
  5
2D5
330
1F
100
AcDbEntity
  8
0
  6
Continuous
 62
     7
370
     0
100
AcDbSpline
210
0.0
220
0.0
230
1.0
 70
     8
 71
     3
 72
    12
 73
     8
 74
     0
 42
0.000000001
 43
0.00000001
 40
0.0
 40
0.0
 40
0.0
 40
0.0
 40
0.25
 40
0.25
 40
0.5
 40
0.5
 40
1.0
 40
1.0
 40
1.0
 40
1.0
 10
234.4896398140795
 20
45.16214330905835
 30
0.0
 10
234.4695716819191
 20
45.17696206035886
 30
0.0
 10
234.4492724804865
 20
45.18759907065982
 30
0.0
 10
234.4089791984552
 20
45.20667366816561
 30
0.0
 10
234.3888836055109
 20
45.21534426960982
 30
0.0
 10
234.3285159178052
 20
45.2427297497842
 30
0.0
 10
234.2881689341035
 20
45.26271609756588
 30
0.0
 10
234.2475735311492
 20
45.28692012275663
 30
0.0
  0
SPLINE
  5
2D6
330
1F
100
AcDbEntity
  8
0
  6
Continuous
 62
     7
370
     0
100
AcDbSpline
210
0.0
220
0.0
230
1.0
 70
     8
 71
     3
 72
    12
 73
     8
 74
     0
 42
0.000000001
 43
0.00000001
 40
0.0
 40
0.0
 40
0.0
 40
0.0
 40
0.5000000000000013
 40
0.5000000000000013
 40
0.7500000000000007
 40
0.7500000000000007
 40
1.0
 40
1.0
 40
1.0
 40
1.0
 10
234.4896398140795
 20
39.86623303529311
 30
0.0
 10
234.7018197488731
 20
39.77793363961323
 30
0.0
 10
234.903944943417
 20
39.73240819947088
 30
0.0
 10
235.1939647495587
 20
39.71792871343371
 30
0.0
 10
235.2884077445142
 20
39.72230610107007
 30
0.0
 10
235.4690136677973
 20
39.74791684268562
 30
0.0
 10
235.5557589842956
 20
39.76909070510455
 30
0.0
 10
235.6390695911927
 20
39.79834388328796
 30
0.0
  0
SPLINE
  5
2D7
330
1F
100
AcDbEntity
  8
0
  6
Continuous
 62
     7
370
     0
100
AcDbSpline
210
0.0
220
0.0
230
1.0
 70
     8
 71
     3
 72
    12
 73
     8
 74
     0
 42
0.000000001
 43
0.00000001
 40
0.0
 40
0.0
 40
0.0
 40
0.0
 40
0.4999999999999998
 40
0.4999999999999998
 40
0.7499999999999999
 40
0.7499999999999999
 40
1.0
 40
1.0
 40
1.0
 40
1.0
 10
234.2475735311471
 20
40.02094000288781
 30
0.0
 10
234.2879895003491
 20
39.99837376026772
 30
0.0
 10
234.3283521082072
 20
39.97178701303854
 30
0.0
 10
234.3886825543348
 20
39.9295056713942
 30
0.0
 10
234.4087684500671
 20
39.91498255767391
 30
0.0
 10
234.4490309162159
 20
39.88754147956717
 30
0.0
 10
234.4692136958922
 20
39.87473343328566
 30
0.0
 10
234.4896398140794
 20
39.8662330352922
 30
0.0
  0
ARC
  5
2D8
330
1F
100
AcDbEntity
  8
0
  6
Continuous
 62
     7
370
     0
100
AcDbCircle
 10
235.7121217963
 20
42.6437507448
 30
0.0
 40
3.004003848047724
100
AcDbArc
 50
240.0013160934
 51
240.821489213
  0
LINE
  5
2D9
330
1F
100
AcDbEntity
  8
0
  6
Continuous
 62
     7
370
     0
100
AcDbLine
 10
228.7255971453
 20
43.2083546734
 30
0.0
 11
234.2101796306
 21
40.0421725987
 31
0.0
  0
LINE
  5
2DA
330
1F
100
AcDbEntity
  8
0
  6
Continuous
 62
     7
370
     0
100
AcDbLine
 10
228.6063582779
 20
43.1394973535
 30
0.0
 11
228.7255971453
 21
43.2083546734
 31
0.0
  0
ARC
  5
2DB
330
1F
100
AcDbEntity
  8
0
  6
Continuous
 62
     7
370
     0
100
AcDbCircle
 10
233.76666099
 20
45.3152859434
 30
0.0
 40
0.4817479495838278
100
AcDbArc
 50
356.6244020389
 51
29.3435807983
  0
LWPOLYLINE
  5
2DC
330
1F
100
AcDbEntity
  8
0
  6
Continuous
 62
     7
370
     0
100
AcDbPolyline
 90
        3
 70
   128
 43
0.0
 10
234.1754776277
 20
45.5141012275
 10
234.1993103535
 20
45.430025636
 10
234.2101796306
 20
45.3088610143
  0
LWPOLYLINE
  5
2DD
330
1F
100
AcDbEntity
  8
0
  6
Continuous
 62
     7
370
     0
100
AcDbPolyline
 90
        3
 70
   128
 43
0.0
 10
228.5275150245
 20
45.9882955302
 10
228.5268090647
 20
46.1095336286
 10
228.55145641
 20
46.8418909682
  0
LWPOLYLINE
  5
2DE
330
1F
100
AcDbEntity
  8
0
  6
Continuous
 62
     7
370
     0
100
AcDbPolyline
 90
       16
 70
   128
 43
0.0
 10
207.2549255894
 20
62.401497409
 10
207.3088860679
 20
63.224392805
 10
207.4694392189
 20
64.0893275193
 10
207.7326311413
 20
64.9750034962
 10
208.0919817572
 20
65.8596130266
 10
208.5386422039
 20
66.7213734812
 10
209.0616142943
 20
67.5390658406
 10
209.6480210137
 20
68.2925560617
 10
210.2834227859
 20
68.9632900148
 10
210.9521741164
 20
69.5347527932
 10
211.6378079762
 20
69.9928723643
 10
212.323441836
 20
70.3263687977
 10
212.9921931665
 20
70.5270298703
 10
213.6275949387
 20
70.5899151879
 10
214.2140016581
 20
70.5134757536
 10
214.3519030183
 20
70.4725157846
  0
ARC
  5
2DF
330
1F
100
AcDbEntity
  8
0
  6
Continuous
 62
     7
370
     0
100
AcDbCircle
 10
210.5714865759
 20
62.1452512006
 30
0.0
 40
3.326445384595697
100
AcDbArc
 50
175.5819549054
 51
225.3992040287
  0
ARC
  5
2E0
330
1F
100
AcDbEntity
  8
0
  6
Continuous
 62
     7
370
     0
100
AcDbCircle
 10
233.3487310351
 20
39.7761163576
 30
0.0
 40
1.144462006329259
100
AcDbArc
 50
316.4712495032
 51
4.5162221875
  0
ARC
  5
2E1
330
1F
100
AcDbEntity
  8
0
  6
Continuous
 62
     7
370
     0
100
AcDbCircle
 10
238.11424702
 20
40.2474263849
 30
0.0
 40
4.83035654113614
100
AcDbArc
 50
195.5100638339
 51
265.5146925039
  0
LWPOLYLINE
  5
2E2
330
1F
100
AcDbEntity
  8
0
  6
Continuous
 62
     7
370
     0
100
AcDbPolyline
 90
       12
 70
   128
 43
0.0
 10
239.7820628094
 20
33.4848919552
 10
238.9328166536
 20
33.2568995058
 10
237.8987071761
 20
33.0975307032
 10
236.9076190943
 20
33.0800792509
 10
235.969463503
 20
33.2047198857
 10
235.0936230149
 20
33.4702058989
 10
234.2888559429
 20
33.8738815028
 10
233.563211018
 20
34.4117109258
 10
232.9239454004
 20
35.0783154935
 10
232.3774522405
 20
35.8670280081
 10
231.929196799
 20
36.7699608159
 10
231.5836611298
 20
37.7780837599
  0
LINE
  5
2E3
330
1F
100
AcDbEntity
  8
0
  6
Continuous
 62
     7
370
     0
100
AcDbLine
 10
231.5555386451
 20
36.6038032907
 30
0.0
 11
231.2233279656
 21
37.5222736339
 31
0.0
  0
LINE
  5
2E4
330
1F
100
AcDbEntity
  8
0
  6
Continuous
 62
     7
370
     0
100
AcDbLine
 10
233.644494508
 20
39.0623768481
 30
0.0
 11
228.3942265215
 21
42.0932920418
 31
0.0
  0
LINE
  5
2E5
330
1F
100
AcDbEntity
  8
0
  6
Continuous
 62
     7
370
     0
100
AcDbLine
 10
233.4597951641
 20
38.9557521863
 30
0.0
 11
233.644494508
 21
39.0623768481
 31
0.0
  0
ARC
  5
2E6
330
1F
100
AcDbEntity
  8
0
  6
Continuous
 62
     7
370
     0
100
AcDbCircle
 10
233.0357877638
 20
40.0557377207
 30
0.0
 40
1.212284865380528
100
AcDbArc
 50
302.7253511183
 51
358.35514161
  0
ARC
  5
2E7
330
1F
100
AcDbEntity
  8
0
  6
Continuous
 62
     7
370
     0
100
AcDbCircle
 10
235.5216983039
 20
42.3140119454
 30
0.0
 40
3.754600497718192
100
AcDbArc
 50
240.001699574
 51
240.8206971994
  0
ARC
  5
2E8
330
1F
100
AcDbEntity
  8
0
  6
Continuous
 62
     7
370
     0
100
AcDbCircle
 10
232.9820066803
 20
40.0980612677
 30
0.0
 40
1.229443914554978
100
AcDbArc
 50
302.6054968531
 51
357.3945222572
  0
LINE
  5
2E9
330
1F
100
AcDbEntity
  8
0
  6
Continuous
 62
     7
370
     0
100
AcDbLine
 10
230.3791568829
 20
39.6812716796
 30
0.0
 11
230.3006366456
 21
39.9241245066
 31
0.0
  0
LWPOLYLINE
  5
2EA
330
1F
100
AcDbEntity
  8
0
  6
Continuous
 62
     7
370
     0
100
AcDbPolyline
 90
        3
 70
   128
 43
0.0
 10
230.0141161133
 20
39.1481203468
 10
229.8723835057
 20
39.4368376792
 10
229.5157480689
 20
40.3772310373
  0
ARC
  5
2EB
330
1F
100
AcDbEntity
  8
0
  6
Continuous
 62
     7
370
     0
100
AcDbCircle
 10
235.5523502614
 20
42.2310311192
 30
0.0
 40
6.871144831598052
100
AcDbArc
 50
195.7125573694
 51
213.7059894423
  0
LINE
  5
2EC
330
1F
100
AcDbEntity
  8
0
  6
Continuous
 62
     7
370
     0
100
AcDbLine
 10
226.3803465436
 20
39.583743753
 30
0.0
 11
226.043771031
 21
40.5123682063
 31
0.0
  0
LINE
  5
2ED
330
1F
100
AcDbEntity
  8
0
  6
Continuous
 62
     7
370
     0
100
AcDbLine
 10
248.7127587379
 20
58.5394392889
 30
0.0
 11
248.6881910765
 21
58.5252566799
 31
0.0
  0
ARC
  5
2EE
330
1F
100
AcDbEntity
  8
0
  6
Continuous
 62
     7
370
     0
100
AcDbCircle
 10
246.0120609261
 20
55.08507057
 30
0.0
 40
7.017045852610352
100
AcDbArc
 50
14.3287351339
 51
43.52515955
  0
OLE2FRAME
  5
2EF
330
1F
100
AcDbEntity
  8
0
100
AcDbOle2Frame
 70
     2
  3
Paintbrush-Bild
 10
13.8511154363
 20
38.264191557
 30
0.0
 11
51.6290888628
 21
31.9806341108
 31
0.0
 71
     2
 72
     0
 73
     1
 90
    12928
310
80552BED0767C5B32B40DDAF6807D121434000000000000000006FFBDDFB85D0
310
4940DDAF6807D121434000000000000000006FFBDDFB85D04940416F4BD60AFB
310
3F4000000000000000002BED0767C5B32B40416F4BD60AFB3F40000000000000
310
0000000000000100000000010000010000000100000000000100000000320000
310
D0CF11E0A1B11AE1000000000000000000000000000000003E000300FEFF0900
310
0600000000000000000000000100000001000000000000000010000002000000
310
01000000FEFFFFFF0000000000000000FFFFFFFFFFFFFFFFFFFFFFFFFFFFFFFF
310
FFFFFFFFFFFFFFFFFFFFFFFFFFFFFFFFFFFFFFFFFFFFFFFFFFFFFFFFFFFFFFFF
310
FFFFFFFFFFFFFFFFFFFFFFFFFFFFFFFFFFFFFFFFFFFFFFFFFFFFFFFFFFFFFFFF
310
FFFFFFFFFFFFFFFFFFFFFFFFFFFFFFFFFFFFFFFFFFFFFFFFFFFFFFFFFFFFFFFF
310
FFFFFFFFFFFFFFFFFFFFFFFFFFFFFFFFFFFFFFFFFFFFFFFFFFFFFFFFFFFFFFFF
310
FFFFFFFFFFFFFFFFFFFFFFFFFFFFFFFFFFFFFFFFFFFFFFFFFFFFFFFFFFFFFFFF
310
FFFFFFFFFFFFFFFFFFFFFFFFFFFFFFFFFFFFFFFFFFFFFFFFFFFFFFFFFFFFFFFF
310
FFFFFFFFFFFFFFFFFFFFFFFFFFFFFFFFFFFFFFFFFFFFFFFFFFFFFFFFFFFFFFFF
310
FFFFFFFFFFFFFFFFFFFFFFFFFFFFFFFFFFFFFFFFFFFFFFFFFFFFFFFFFFFFFFFF
310
FFFFFFFFFFFFFFFFFFFFFFFFFFFFFFFFFFFFFFFFFFFFFFFFFFFFFFFFFFFFFFFF
310
FFFFFFFFFFFFFFFFFFFFFFFFFFFFFFFFFFFFFFFFFFFFFFFFFFFFFFFFFFFFFFFF
310
FFFFFFFFFFFFFFFFFFFFFFFFFFFFFFFFFFFFFFFFFFFFFFFFFFFFFFFFFFFFFFFF
310
FFFFFFFFFFFFFFFFFFFFFFFFFFFFFFFFFFFFFFFFFFFFFFFFFFFFFFFFFFFFFFFF
310
FFFFFFFFFFFFFFFFFFFFFFFFFFFFFFFFFFFFFFFFFFFFFFFFFFFFFFFFFFFFFFFF
310
FDFFFFFFFEFFFFFFFEFFFFFFFEFFFFFF05000000060000000700000008000000
310
090000000A0000000B0000000C0000000D0000000E0000000F00000010000000
310
11000000120000001300000014000000150000001600000017000000FEFFFFFF
310
FFFFFFFFFFFFFFFFFFFFFFFFFFFFFFFFFFFFFFFFFFFFFFFFFFFFFFFFFFFFFFFF
310
FFFFFFFFFFFFFFFFFFFFFFFFFFFFFFFFFFFFFFFFFFFFFFFFFFFFFFFFFFFFFFFF
310
FFFFFFFFFFFFFFFFFFFFFFFFFFFFFFFFFFFFFFFFFFFFFFFFFFFFFFFFFFFFFFFF
310
FFFFFFFFFFFFFFFFFFFFFFFFFFFFFFFFFFFFFFFFFFFFFFFFFFFFFFFFFFFFFFFF
310
FFFFFFFFFFFFFFFFFFFFFFFFFFFFFFFFFFFFFFFFFFFFFFFFFFFFFFFFFFFFFFFF
310
FFFFFFFFFFFFFFFFFFFFFFFFFFFFFFFFFFFFFFFFFFFFFFFFFFFFFFFFFFFFFFFF
310
FFFFFFFFFFFFFFFFFFFFFFFFFFFFFFFFFFFFFFFFFFFFFFFFFFFFFFFFFFFFFFFF
310
FFFFFFFFFFFFFFFFFFFFFFFFFFFFFFFFFFFFFFFFFFFFFFFFFFFFFFFFFFFFFFFF
310
FFFFFFFFFFFFFFFFFFFFFFFFFFFFFFFFFFFFFFFFFFFFFFFFFFFFFFFFFFFFFFFF
310
FFFFFFFFFFFFFFFFFFFFFFFFFFFFFFFFFFFFFFFFFFFFFFFFFFFFFFFFFFFFFFFF
310
FFFFFFFFFFFFFFFFFFFFFFFFFFFFFFFFFFFFFFFFFFFFFFFFFFFFFFFFFFFFFFFF
310
FFFFFFFFFFFFFFFFFFFFFFFFFFFFFFFFFFFFFFFFFFFFFFFFFFFFFFFFFFFFFFFF
310
FFFFFFFFFFFFFFFFFFFFFFFFFFFFFFFFFFFFFFFFFFFFFFFFFFFFFFFFFFFFFFFF
310
52006F006F007400200045006E00740072007900000000000000000000000000
310
0000000000000000000000000000000000000000000000000000000000000000
310
16000500FFFFFFFFFFFFFFFF020000000A00030000000000C000000000000046
310
000000000000000000000000006CF28B97FFD10103000000C000000000000000
310
01004F006C006500000000000000000000000000000000000000000000000000
310
0000000000000000000000000000000000000000000000000000000000000000
310
0A000200FFFFFFFFFFFFFFFFFFFFFFFF00000000000000000000000000000000
310
0000000000000000000000000000000000000000000000001400000000000000
310
010043006F006D0070004F0062006A0000000000000000000000000000000000
310
0000000000000000000000000000000000000000000000000000000000000000
310
120002010100000003000000FFFFFFFF00000000000000000000000000000000
310
0000000000000000000000000000000000000000010000004D00000000000000
310
01004F006C006500310030004E00610074006900760065000000000000000000
310
0000000000000000000000000000000000000000000000000000000000000000
310
1A000200FFFFFFFFFFFFFFFFFFFFFFFF00000000000000000000000000000000
310
0000000000000000000000000000000000000000040000002426000000000000
310
FEFFFFFF02000000FEFFFFFFFFFFFFFFFFFFFFFFFFFFFFFFFFFFFFFFFFFFFFFF
310
FFFFFFFFFFFFFFFFFFFFFFFFFFFFFFFFFFFFFFFFFFFFFFFFFFFFFFFFFFFFFFFF
310
FFFFFFFFFFFFFFFFFFFFFFFFFFFFFFFFFFFFFFFFFFFFFFFFFFFFFFFFFFFFFFFF
310
FFFFFFFFFFFFFFFFFFFFFFFFFFFFFFFFFFFFFFFFFFFFFFFFFFFFFFFFFFFFFFFF
310
FFFFFFFFFFFFFFFFFFFFFFFFFFFFFFFFFFFFFFFFFFFFFFFFFFFFFFFFFFFFFFFF
310
FFFFFFFFFFFFFFFFFFFFFFFFFFFFFFFFFFFFFFFFFFFFFFFFFFFFFFFFFFFFFFFF
310
FFFFFFFFFFFFFFFFFFFFFFFFFFFFFFFFFFFFFFFFFFFFFFFFFFFFFFFFFFFFFFFF
310
FFFFFFFFFFFFFFFFFFFFFFFFFFFFFFFFFFFFFFFFFFFFFFFFFFFFFFFFFFFFFFFF
310
FFFFFFFFFFFFFFFFFFFFFFFFFFFFFFFFFFFFFFFFFFFFFFFFFFFFFFFFFFFFFFFF
310
FFFFFFFFFFFFFFFFFFFFFFFFFFFFFFFFFFFFFFFFFFFFFFFFFFFFFFFFFFFFFFFF
310
FFFFFFFFFFFFFFFFFFFFFFFFFFFFFFFFFFFFFFFFFFFFFFFFFFFFFFFFFFFFFFFF
310
FFFFFFFFFFFFFFFFFFFFFFFFFFFFFFFFFFFFFFFFFFFFFFFFFFFFFFFFFFFFFFFF
310
FFFFFFFFFFFFFFFFFFFFFFFFFFFFFFFFFFFFFFFFFFFFFFFFFFFFFFFFFFFFFFFF
310
FFFFFFFFFFFFFFFFFFFFFFFFFFFFFFFFFFFFFFFFFFFFFFFFFFFFFFFFFFFFFFFF
310
FFFFFFFFFFFFFFFFFFFFFFFFFFFFFFFFFFFFFFFFFFFFFFFFFFFFFFFFFFFFFFFF
310
FFFFFFFFFFFFFFFFFFFFFFFFFFFFFFFFFFFFFFFFFFFFFFFFFFFFFFFFFFFFFFFF
310
0100000200000000000000000000000000000000000000000000000000000000
310
0000000000000000000000000000000000000000000000000000000000000000
310
0100FEFF030A0000FFFFFFFF0A00030000000000C00000000000004607000000
310
5042727573680007000000504272757368000700000050427275736800F439B2
310
7100000000000000000000000000000000000000000000000000000000000000
310
0000000000000000000000000000000000000000000000000000000000000000
310
0000000000000000000000000000000000000000000000000000000000000000
310
0000000000000000000000000000000000000000000000000000000000000000
310
0000000000000000000000000000000000000000000000000000000000000000
310
0000000000000000000000000000000000000000000000000000000000000000
310
0000000000000000000000000000000000000000000000000000000000000000
310
0000000000000000000000000000000000000000000000000000000000000000
310
0000000000000000000000000000000000000000000000000000000000000000
310
0000000000000000000000000000000000000000000000000000000000000000
310
0000000000000000000000000000000000000000000000000000000000000000
310
0000000000000000000000000000000000000000000000000000000000000000
310
20260000424D0E260000000000003E00000028000000B40200006E0000000100
310
01000000000000000000130B0000130B00000200000002000000000000FFFFFF
310
FFFFFFFFFFFFFFFFFFFFFFFFFFFFFFFFFFFFFFFFFFFFFFFFFFFFFFFFFFFFFFFF
310
FFFFFFFFFFFFFFFFFFFFFFFFFFFFFFFFFFFFFFFFFFFFFFFFFFFFFFFFFFFFFFFF
310
FFFFFFFFFFFFFFFFFFFFFFFFFFFFFFFFFFFFFFFFFFFFFFFFF000FFFFFFFFFFFF
310
FFFFFFFFFFFFFFFFFFFFFFFFFFFFFFFFFFFFFFFFFFFFFFFFFFFFFFFFFFFFFFFF
310
FFFFFFFFFFFFFFFFFFFFFFFFFFFFFFFFFFFFFFFFFFFFFFFFFFFFFFFFFFFFFFFF
310
FFFFFFFFFFFFFFFFFFFFFFFFFFFFFFFFF000FFFFFFFFFFFFFFFFFFFFFFFFFFFF
310
FFFFFFFFFFFFFFFFFFFFFFFFFFFFFFFFFFFFFFFFFFFFFFFFFFFFFFFFFFFFFFFF
310
FFFFFFFFFFFFFFFFFFFFFFFFFFFFFFFFFFFFFFFFFFFFFFFFFFFFFFFFFFFFFFFF
310
FFFFFFFFFFFFFFFFF000FFFFFFFFFFFFFFFFFFFFFFFFFFFFFFFFFFFFFFFFFFFF
310
FFFFFFFFFFFFFFFFFFFFFFFFFFFFFFFFFFFFFFFFFFFFFFFFFFFFFFFFFFFFFFFF
310
FFFFFFFFFFFFFFFFFFFFFFFFFFFFFFFFFFFFFFFFFFFFFFFFFFFFFFFFFFFFFFFF
310
F000FFFFFFFFFFFFFFFFFFFFFFFFFFFFFFFFFFFFFFFFFFFFFFFFFFFFFFFFFFFF
310
FFFFFFFFFFFFFFFFFFFFFFFFFFFFFFFFFFFFFFFFFFFFFFFFFFFFFFFFFFFFFFFF
310
FFFFFFFFFFFFFFFFFFFFFFFFFFFFFFFFFFFFFFFFFFFFFFFFF000FFFFFFFFFFFF
310
FFFFFFFFFFFFFFFFFFFFFFFFFFFFFFFFFFFFFFFFFFFFFFFFFFFFFFFFFFFFFFFF
310
FFFFFFFFFFFFFFFFFFFFFFFFFFFFFFFFFFFFFFFFFFFFFFFFFFFFFFFFFFFFFFFF
310
FFFFFFFFFFFFFFFFFFFFFFFFFFFFFFFFF000FFFFFFFFFFFFFFFFFFFFFFFFFFFF
310
FFFFFFFFFFFFFFFFFFFFFFFFFFFFFFFFFFFFFFFFFFFFFFFFFFFFFFFFFFFFFFFF
310
FFFFFFFFFFFFFFFFFFFFFFFFFFFFFFFFFFFFFFFFFFFFFFFFFFFFFFFFFFFFFFFF
310
FFFFFFFFFFFFFFFFF000FFFFFFFFFFFFFFFFFFFFFFFFFFFFFFFFFFFFFFFFFFFF
310
FFFFFFFFFFFFFFFFFFFFFFFFFFFFFFFFFFFFFFFFFFFFFFFFFFFFFFFFFFFFFFFF
310
FFFFFFFFFFFFFFFFFFFFFFFFFFFFFFFFFFFFFFFFFFFFFFFFFFFFFFFFFFFFFFFF
310
F000FFFFFFFFFFFFFFFFFFFFFFFFFFFFFFFFFFFFFFFFFFFFFFFFFFFFFFFFFFFF
310
FFFFFFFFFFFFFFFFFFFFFFFFFFFFFFFFFFFFFFFFFFFFFFFFFFFFFFFFFFFFFFFF
310
FFFFFFFFFFFFFFFFFFFFFFFFFFFFFFFFFFFFFFFFFFFFFFFFF000FFFFFFFFFFFF
310
FFFFFFFFFFFFFFFFFFFFFFFFFFFFFFFFFFFFFFFFFFFFFFFFFFFFFFFFFFFFFFFF
310
FFFFFFFFFFFFFFFFFFFFFFFFFFFFFFFFFFFFFFFFFFFFFFFFFFFFFFFFFFFFFFFF
310
FFFFFFFFFFFFFFFFFFFFFFFFFFFFFFFFF000FFFFFFFFFFFFFFFFFFFFFFFFFFFF
310
FFFFFFFFFFFFFFFFFFFFFFFFFFFFFFFFFFFFFFFFFFFFFFFFFFFFFFFFFFFFFFFF
310
FFFFFFFFFFFFFFFFFFFFFFFFFFFFFFFFFFFFFFFFFFFFFFFFFFFFFFFFFFFFFFFF
310
FFFFFFFFFFFFFFFFF000FFFFFFFFFFFFFFFFFFFFFFFFFFFFFFFFFFFFFFFFFFFF
310
FFFFFFFFFFFFFFFFFFFFFFFFFFFFFFFFFFFFFFFFFFFFFFFFFFFFFFFFFFFFFFFF
310
FFFFFFFFFFFFFFFFFFFFFFFFFFFFFFFFFFFFFFFFFFFFFFFFFFFFFFFFFFFFFFFF
310
F000FFFFFFFFFFFFFFFFFFFFFFFFFFFFFFFFFFFFFFFFFFFFFFFFFFFFFFFFFFFF
310
FFFFFFFFFFFFFFFFFFFFFFFFFFFFFFFFFFFFFFFFFFFFFFFFFFFFFFFFFFFFFFFF
310
FFFFFFFFFFFFFFFFFFFFFFFFFFFFFFFFFFFFFFFFFFFFFFFFF000FFFFFFFFFFFF
310
FFFFFFFFFFFFFFFFFFFFFFFFFFFFFFFFFFFFFFFFFFFFFFFFFFFFFFFFFFFFFFFF
310
FFFFFFFFFFFFFFFFFFFFFFFFFFFFFFFFFFFFFFFFFFFFFFFFFFFFFFFFFFFFFFFF
310
FFFFFFFFFFFFFFFFFFFFFFFFFFFFFFFFF000FFFFFFFFFFFFFFFFFFFFFFFFFFFF
310
FFFFFFFFFFFFFFFFFFFFFFFFFFFFFFFFFFFFFFFFFFFFFFFFFFFFFFFFFFFFFFFF
310
FFFFFFFFFFFFFFFFFFFFFFFFFFFFFFFFFFFFFFFFFFFFFFFFFFFFFFFFFFFFFFFF
310
FFFFFFFFFFFFFFFFF000FFFFFFFFFFFFFFFFFFFFFFFFFFFFFFFFFFFFFFFFFFFF
310
FFFFFFFFFFFFFFFFFFFFFFFFFFFFFFFFFFFFFFFFFFFFFFFFFFFFFFFFFFFFFFFF
310
FFFFFFFFFFFFFFFFFFFFFFFFFFFFFFFFFFFFFFFFFFFFFFFFFFFFFFFFFFFFFFFF
310
F000FFFFFFFFFFFFFFFFFFFFFFFFFFFFFFFFFFFFFFFFFFFFFFFFFFFFFFFFFFFF
310
FFFFFFFFFFFFFFFFFFFFFFFFFFFFFFFFFFFFFFFFFFFFFFFFFFFFFFFFFFFFFFFF
310
FFFFFFFFFFFFFFFFFFFFFFFFFFFFFFFFFFFFFFFFFFFFFFFFF000FFFFFFFFFFFF
310
FFFFFFFFFFFFFFFFFFFFFFFFFFFFFFFFFFFFFFFFFFFFFFFFFFFFFFFFFFFFFFFF
310
FFFFFFFFFFFFFFFFFFFFFFFFFFFFFFFFFFFFFFFFFFFFFFFFFFFFFFFFFFFFFFFF
310
FFFFFFFFFFFFFFFFFFFFFFFFFFFFFFFFF000FFFFFFFFFFFFFFFFFFFFFFFFFFFF
310
FFFFFFFFFFFFFFFFFFFFFFFFFFFFFFFFFFFFFFFFFFFFFFFFFFFFFFFFFFFFFFFF
310
FFFFFFFFFFFFFFFFFFFFFFFFFFFFFFFFFFFFFFFFFFFFFFFFFFFFFFFFFFFFFFFF
310
FFFFFFFFFFFFFFFFF000FFFFF80003FFFFFFFFFFFFFFFFFFFFFFFFFFFFFFFFFF
310
FFFFF00007FFFFFFFFFF00007FFFFFF800000000000000007FFFFFFFFFFFFFFF
310
FFFFFFFC001FFFFFFFFFFFFFFC001FFFFFFFFFFFFFFFFFFFFFFFFFFE0007FFFF
310
F000FFFF8000007FFFFFFFF8000FFFFFC0007FFFFF80007FFFFF0000007FFFFF
310
FFF8000007FFFFF800000000000000007FFFFFF0001FFFFFFFFFFFC00001FFFF
310
FFFFFFFFC00001FFFFFFFF000000000003FFFFE000007FFFF000FFFE0000000F
310
FFFFFFF0000FFFFF80007FFFFF80007FFFFC0000001FFFFFFFC0000001FFFFF8
310
00000000000000007FFFFFF0001FFFFFFFFFFE0000003FFFFFFFFFFE0000003F
310
FFFFFF000000000003FFFF0000000FFFF000FFF800000003FFFFFFF00007FFFF
310
80007FFFFF80007FFFF000000007FFFFFF000000003FFFF80000000000000000
310
7FFFFFF0001FFFFFFFFFF80000000FFFFFFFFFF80000000FFFFFFF0000000000
310
03FFFC00000003FFF000FFE000000000FFFFFFF00007FFFF80003FFFFF80007F
310
FFC000000001FFFFFC000000001FFFF800000000000000007FFFFFF0001FFFFF
310
FFFFE000000003FFFFFFFFE000000003FFFFFF000000000003FFF000000000FF
310
F000FF80000000007FFFFFF00007FFFF80003FFFFF80007FFF8000000000FFFF
310
F80000000007FFF800000000000000007FFFFFF0001FFFFFFFFFC000000001FF
310
FFFFFFC000000001FFFFFF000000000003FFC0000000007FF000FF0000000000
310
3FFFFFE00007FFFF00003FFFFF80007FFE00000000003FFFF00000000003FFF8
310
00000000000000007FFFFFF0001FFFFFFFFF8000000000FFFFFFFF8000000000
310
FFFFFF000000000003FF80000000003FF000FE00000000001FFFFFE00003FFFF
310
00003FFFFF80007FFC00000000001FFFE00000000001FFF8000001FFFE000000
310
7FFFFFF0001FFFFFFFFE00000000003FFFFFFE00000000003FFFFF0000000000
310
03FF00000000001FF000FC00000000000FFFFFE00003FFFF00001FFFFF80007F
310
F800000000001FFFC00000000000FFF8000001FFFE0000007FFFFFF0001FFFFF
310
FFFC00000000001FFFFFFC00000000001FFFFF000000000003FE00000000000F
310
F000F8000000000007FFFFE00003FFFF00001FFFFF80007FF800000000000FFF
310
800000000000FFF8000001FFFE0000007FFFFFF0001FFFFFFFF800000000000F
310
FFFFF800000000000FFFFF000000000003FC000000000007F000F80000000000
310
03FFFFC00003FFFE00001FFFFF80007FF0000000000007FF0000000000007FF8
310
000001FFFE0000007FFFFFF0001FFFFFFFF0000000000007FFFFF00000000000
310
07FFFF000000000003F8000000000003F000F0000000000003FFFFC00001FFFE
310
00001FFFFF80007FE0000000000007FE0000000000003FF8000001FFFE000000
310
7FFFFFF0001FFFFFFFF0000000000007FFFFF0000000000007FFFF0000000000
310
03F800001F800003F000E00001FFF00001FFFFC00001FFFE00000FFFFF80007F
310
E00001FFE00003FE00001FFF00003FF8000001FFFE0000007FFFFFF0001FFFFF
310
FFE000003E000003FFFFE000003E000003FFFF000000000003F00001FFF80001
310
F000E00007FFFC0001FFFFC00001FFFE00000FFFFF80007FC0000FFFFC0003FC
310
0000FFFFC0001FF8000001FFFE0000007FFFFFF0001FFFFFFFC00003FFE00001
310
FFFFC00003FFE00001FFFF0001FFFFFFFFF00007FFFE0001F000E0000FFFFF00
310
00FFFF800001FFFC00000FFFFF80007FC0001FFFFE0001FC0001FFFFE0001FF8
310
000001FFFE0000007FFFFFF0001FFFFFFF80000FFFF80000FFFF80000FFFF800
310
00FFFF0003FFFFFFFFE0000FFFFF8000F000C0003FFFFF8000FFFF800000FFFC
310
000007FFFF80007F80003FFFFF0001FC0003FFFFF0001FF8000001FFFE000000
310
7FFFFFF0001FFFFFFF80003FFFFE0000FFFF80003FFFFE0000FFFF0003FFFFFF
310
FFE0003FFFFF8000F000C0003FFFFF8000FFFF800000FFFC000007FFFF80007F
310
80007FFFFF8001F80007FFFFF8000FF8000001FFFE0000007FFFFFF0001FFFFF
310
FF00007FFFFF00007FFF00007FFFFF00007FFF0003FFFFFFFFE0003FFFFFC000
310
F000C0007FFFFFC000FFFF000000FFFC000007FFFF80007F8000FFFFFF8000F8
310
000FFFFFF8000FF8000001FFFE0000007FFFFFF0001FFFFFFF0000FFFFFF8000
310
7FFF0000FFFFFF80007FFF0003FFFFFFFFC0007FFFFFC00070008000FFFFFFC0
310
00FFFF000000FFF8000007FFFF80007F8000FFFFFF8000F8000FFFFFF8000FF8
310
000001FFFE0000007FFFFFF0001FFFFFFE0001FFFFFFC0003FFE0001FFFFFFC0
310
003FFF0003FFFFFFFFC0007FFFFFE00070008000FFFFFFC0007FFF0000007FF8
310
000003FFFF80007F0001FFFFFF8000F8000FFFFFF8000FF8000001FFFE000000
310
7FFFFFF0001FFFFFFE0001FFFFFFC0003FFE0001FFFFFFC0003FFF0003FFFFFF
310
FFC000FFFFFFE00070008000FFFFFFC0007FFF0000007FF8000003FFFF80007F
310
0001FFFFFF8000F8001FFFFFF8000FF8000001FFFE0000007FFFFFF0001FFFFF
310
FE0003FFFFFFE0003FFE0003FFFFFFE0003FFF0003FFFFFFFFC000FFFFFFE000
310
70008000FFFFFFC0007FFE0000007FF8000003FFFF80007F0001FFFFFF8000F0
310
001FFFFFF8000FF8000001FFFE0000007FFFFFF0001FFFFFFC0003FFFFFFE000
310
1FFC0003FFFFFFE0001FFF0003FFFFFFFFC000FFFFFFC00070008000FFFFFF80
310
007FFE0000007FF0000003FFFF80007F0001FFFFFF0000F0001FFFFFF8000FF8
310
000001FFFE0000007FFFFFF0001FFFFFFC0007FFFFFFF0001FFC0007FFFFFFF0
310
001FFF0003FFFFFFFFC000FFFFFFC00070008001FFFFFF0000FFFE0000003FF0
310
000001FFFF80007F0001FFFFFF0000F8001FFFFFF0000FF8000001FFFE000000
310
7FFFFFF0001FFFFFFC0007FFFFFFF0001FFC0007FFFFFFF0001FFF0003FFFFFF
310
FFC001FFFFFF80007000FFFFFFFFFE0000FFFE0008003FF0008001FFFF80007F
310
FFFFFFFFFC0000FFFFFFFFFFE0000FF8000001FFFE0000007FFFFFF0001FFFFF
310
F8000FFFFFFFF8000FF8000FFFFFFFF8000FFF0003FFFFFFFFFFFFFFFFFF0000
310
7000FFFFFFFFFC0000FFFC0008003FF0008001FFFF80007FFFFFFFFFF80001FF
310
FFFFFFFF80000FF8000001FFFE0000007FFFFFF0001FFFFFF8000FFFFFFFF800
310
0FF8000FFFFFFFF8000FFF0003FFFFFFFFFFFFFFFFFE0000F000FFFFFFFFE000
310
00FFFC000C003FE000C001FFFF80007FFFFFFFFFC00001FFFFFFFFFE00001FF8
310
000001FFFE0000007FFFFFF0001FFFFFF8000FFFFFFFF8000FF8000FFFFFFFF8
310
000FFF0003FFFFFFFFFFFFFFFFF00000F000FFFFFFFE000001FFFC000C001FE0
310
00C000FFFF80007FFFFFFFFE000001FFFFFFFFE000001FF80FFFFFFFFFFFFFC0
310
7FFFFFF0001FFFFFF8000FFFFFFFF8000FF8000FFFFFFFF8000FFF0003FFFFFF
310
FFFFFFFFFF800000F000FFFFFFC0000001FFFC001C001FE001C000FFFF80007F
310
FFFFFF80000003FFFFFFF80000001FF80FFFFFFFFFFFFFC07FFFFFF0001FFFFF
310
F8001FFFFFFFFC000FF8001FFFFFFFFC000FFF0003FFFFFFFFFFFFFFF0000001
310
F000FFFFF800000001FFF8001C001FE001C000FFFF80007FFFFFF800000003FF
310
FFFF800000003FF80FFFFFFFFFFFFFC07FFFFFF0001FFFFFF8001FFFFFFFFC00
310
0FF8001FFFFFFFFC000FFF0003FFFFFFFFFFFFFE00000001F000FFFFC0000000
310
03FFF8001E001FC001E000FFFF80007FFFFF8000000007FFFFFC000000003FF8
310
0FFFFFFFFFFFFFC07FFFFFF0001FFFFFF8001FFFFFFFFC000FF8001FFFFFFFFC
310
000FFF0003FFFFFFFFFFFFE000000003F000FFFE0000000007FFF8001E000FC0
310
01E0007FFF80007FFFFE0000000007FFFFE0000000007FF80FFFFFFFFFFFFFC0
310
7FFFFFF0001FFFFFF0001FFFFFFFFC0007F0001FFFFFFFFC0007FF0003FFFFFF
310
FFFFFF0000000003F000FFF80000000007FFF8001E000FC003E0007FFF80007F
310
FFF0000000000FFFFF8000000000FFF80FFFFFFFFFFFFFC07FFFFFF0001FFFFF
310
F0001FFFFFFFFC0007F0001FFFFFFFFC0007FF0003FFFFFFFFFFFC0000000007
310
F000FFE0000000000FFFF0003E000FC003E0007FFF80007FFFC0000000001FFF
310
FE0000000001FFF80FFFFFFFFFFFFFC07FFFFFF0001FFFFFF0001FFFFFFFFC00
310
07F0001FFFFFFFFC0007FF0003FFFFFFFFFFF0000000000FF000FFC000000000
310
1FFFF0003F000F8003F0003FFF80007FFF80000000003FFFF80000000003FFF8
310
0FFFFFFFFFFFFFC07FFFFFF0001FFFFFF0001FFFFFFFFC0007F0001FFFFFFFFC
310
0007FF0003FFFFFFFFFFE0000000001FF000FF00000000007FFFF0003F000780
310
03F0003FFF80007FFF00000000007FFFF00000000007FFF80FFFFFFFFFFFFFC0
310
7FFFFFF0001FFFFFF0001FFFFFFFFC0007F0001FFFFFFFFC0007FF0003FFFFFF
310
FFFF80000000007FF000FE0000000000FFFFE0003F00078007F0003FFF80007F
310
FE0000000001FFFFE0000000001FFFF80FFFFFFFFFFFFFC07FFFFFF0001FFFFF
310
F0001FFFFFFFFC0007F0001FFFFFFFFC0007FF0003FFFFFFFFFF0000000000FF
310
F000FC0000000003FFFFE0007F00078007F0003FFF80007FFC0000000007FFFF
310
C0000000007FFFF80FFFFFFFFFFFFFC07FFFFFF0001FFFFFF8001FFFFFFFFC00
310
0FF8001FFFFFFFFC000FFF0003FFFFFFFFFE0000000003FFF000FC000000000F
310
FFFFE0007F80070007F8001FFF80007FF8000000001FFFFF8000000001FFFFF8
310
0FFFFFFFFFFFFFC07FFFFFF0001FFFFFF8001FFFFFFFFC000FF8001FFFFFFFFC
310
000FFF0003FFFFFFFFFC000000000FFFF000F8000000007FFFFFE0007F800700
310
07F8001FFF80007FF000000000FFFFFF800000000FFFFFF80FFFFFFFFFFFFFC0
310
7FFFFFF0001FFFFFF8000FFFFFFFF8000FF8000FFFFFFFF8000FFF0003FFFFFF
310
FFFC000000007FFFF000F800000007FFFFFFC0007F8003000FF8001FFF80007F
310
F000000007FFFFFF000000007FFFFFF80FFFFFFFFFFFFFC07FFFFFF0001FFFFF
310
F8000FFFFFFFF8000FF8000FFFFFFFF8000FFF0003FFFFFFFFF80000000FFFFF
310
F000F0000000FFFFFFFFC000FF8003000FF8001FFF80007FE0000000FFFFFFFF
310
0000000FFFFFFFF8000001FFFE0000007FFFFFF0001FFFFFF8000FFFFFFFF800
310
0FF8000FFFFFFFF8000FFF0003FFFFFFFFF8000000FFFFFFF000F000000FFFFF
310
FFFFC000FFC002000FF8000FFF80007FE000001FFFFFFFFE000001FFFFFFFFF8
310
000001FFFE0000007FFFFFF0001FFFFFF8000FFFFFFFF8000FF8000FFFFFFFF8
310
000FFF0003FFFFFFFFF000001FFFFFFFF000E00000FFFFFFFFFFC000FFC00200
310
0FFC000FFF80007FE00001FFFFFFFFFE00001FFFFFFFFFF8000001FFFE000000
310
7FFFFFF0001FFFFFFC000FFFFFFFF8001FFC000FFFFFFFF8001FFF0003FFFFFF
310
FFF00001FFFFFFFFF000E00007FFFFFFFFFF8000FFC000001FFC000FFF80007F
310
C0000FFFFFFFFFFE0000FFFFFFFFFFF8000001FFFE0000007FFFFFF0001FFFFF
310
FC0007FFFFFFF0001FFC0007FFFFFFF0001FFF0003FFFFFFFFF00007FFFFFFFF
310
F000E0001FFFFFFFFFFF8000FFC000001FFC000FFF80007FC0003FFFFFFFFFFE
310
0001FFFFFFFFFFF8000001FFFE0000007FFFFFF0001FFFFFFC0007FFFFFFF000
310
1FFC0007FFFFFFF0001FFF0003FFFFFFFFF0001FFFFFFFFFF000E0003FFFFF00
310
03FF8001FFE000001FFC0007FF80007FC0007FFFFF0007FC0003FFFFF0003FF8
310
000001FFFE0000007FFFFFF0001FFFFFFC0003FFFFFFE0001FFC0003FFFFFFE0
310
001FFF0003FFFFFFFFF0003FFFFFFFFFF000E0003FFFFF0001FF8001FFE00000
310
1FFE0007FF80007FC0007FFFFE0003FC0007FFFFE0003FF8000001FFFE000000
310
7FFFFFF0001FFFFFFE0003FFFFFFE0003FFE0003FFFFFFE0003FFF0003FFFFFF
310
FFF0003FFFFF8001F000E0003FFFFF0001FF0001FFE000001FFE0007FF80007F
310
C0007FFFFE0003FC0007FFFFE0003FF8000001FFFE0000007FFFFFF0001FFFFF
310
FE0001FFFFFFC0003FFE0001FFFFFFC0003FFF0003FFFFFFFFF0003FFFFF0001
310
F000E0003FFFFF0003FF0001FFE000003FFE0007FF80007FC0007FFFFE0003FC
310
0007FFFFE0003FF8000001FFFE0000007FFFFFF0001FFFFFFF0001FFFFFFC000
310
7FFF0001FFFFFFC0007FFF0003FFFFFFFFF0003FFFFF0001F000E0003FFFFE00
310
03FF0003FFF000003FFE0003FF80007FC0007FFFFC0003FE0007FFFFE0003FF8
310
000001FFFE0000007FFFFFF0001FFFFFFF0000FFFFFF80007FFF0000FFFFFF80
310
007FFF0003FFFFFFFFF0003FFFFF0001F000E0003FFFFE0003FF0003FFF00000
310
3FFF0003FF80007FC0007FFFFC0007FE0007FFFFC0003FF8000001FFFE000000
310
7FFFFFF0001FFFFFFF80007FFFFF0000FFFF80007FFFFF0000FFFF0003FFFFFF
310
FFF0003FFFFF0003F000E0003FFFFC0003FE0003FFF000003FFF0003FF80007F
310
E0003FFFF80007FE0003FFFFC0007FF8000001FFFE0000007FFFFFF0001FFFFF
310
FF80003FFFFE0000FFFF80003FFFFE0000FFFF0003FFFFFFFFF0001FFFFE0003
310
F000F0001FFFF80003FE0003FFF000007FFF0001FF80007FE0003FFFF00007FE
310
0001FFFF80007FF8000001FFFE0000007FFFFFF0001FFFFFFFC0000FFFF80001
310
FFFFC0000FFFF80001FFFF0003FFFFFFFFF0001FFFFC0003F000F0000FFFF000
310
07FE0007FFF800007FFF0001FF80007FE0001FFFE00007FF0000FFFE00007FF8
310
000001FFFE0000007FFFFFF0001FFFFFFFC00003FFE00001FFFFC00003FFE000
310
01FFFF0003FFFFFFFFF8000FFFF80003F000F00003FFC00007FC0007FFF80000
310
7FFF8001FF80007FF00007FF80000FFF00007FF80000FFF8000001FFFE000000
310
7F80000000000001FFE000003E000003FFFFE000003E000003FFFF0003FFFFFF
310
FFF80003FFE00007F000F800000000000FFC0007FFF800007FFF8001FF80007F
310
F000000000000FFF000000000000FFF8000001FFFE0000007F80000000000001
310
FFF0000000000007FFFFF0000000000007FFFF0003FFFFFFFFFC00007E000007
310
F000F800000000000FFC0007FFF80000FFFF8000FF80007FF800000000001FFF
310
800000000001FFF8000001FFFE0000007F80000000000001FFF800000000000F
310
FFFFF800000000000FFFFF0003FFFFFFFFFC00000000000FF000FC0000000000
310
1FFC0007FFFC0000FFFF8000FF80007FF800000000003FFFC00000000001FFF8
310
000001FFFE0000007F80000000000001FFF800000000000FFFFFF80000000000
310
0FFFFF0003FFFFFFFFFE00000000001FF000FE00000000003FF8000FFFFC0000
310
FFFF8000FF80007FFC00000000003FFFC00000000003FFF8000001FFFE000000
310
7F80000000000001FFFC00000000001FFFFFFC00000000001FFFFF0003FFFFFF
310
FFFF00000000001FF000FF00000000003FF8000FFFFC0000FFFFC000FF80007F
310
FE00000000007FFFE00000000007FFF8000001FFFE0000007F80000000000001
310
FFFE00000000003FFFFFFE00000000003FFFFF0003FFFFFFFFFF80000000003F
310
F000FF80000000007FF8000FFFFC0001FFFFC0007F80007FFF0000000000FFFF
310
F0000000000FFFF800000000000000007F80000000000001FFFF8000000000FF
310
FFFFFF8000000000FFFFFF0003FFFFFFFFFFC0000000007FF000FFC000000000
310
FFF8000FFFFE0001FFFFC0007F80007FFF8000000001FFFFF8000000001FFFF8
310
00000000000000007F80000000000001FFFFC000000001FFFFFFFFC000000001
310
FFFFFF0003FFFFFFFFFFE000000000FFF000FFE000000003FFF0001FFFFE0001
310
FFFFC0007F80007FFFC000000007FFFFFE000000003FFFF80000000000000000
310
7F80000000000001FFFFE000000003FFFFFFFFE000000003FFFFFF0003FFFFFF
310
FFFFF000000003FFF000FFF80000000FFFF0001FFFFE0001FFFFE0007F80007F
310
FFF00000000FFFFFFF00000000FFFFF800000000000000007F80000000000001
310
FFFFF80000000FFFFFFFFFF80000000FFFFFFF0003FFFFFFFFFFFC0000000FFF
310
F000FFFE0000003FFFF0001FFFFE0003FFFFE0003F80007FFFFC0000003FFFFF
310
FFC0000003FFFFF800000000000000007F80000000000001FFFFFE0000003FFF
310
FFFFFFFE0000003FFFFFFF0003FFFFFFFFFFFF0000003FFFF000FFFF800000FF
310
FFF0001FFFFF0003FFFFE0003F80007FFFFF000001FFFFFFFFF800001FFFFFF8
310
00000000000000007F80000000000001FFFFFFC00001FFFFFFFFFFFFC00001FF
310
FFFFFF0003FFFFFFFFFFFFC00000FFFFF000FFFFF8000FFFFFFFFFFFFFFFFFFF
310
FFFFFFFFFFFFFFFFFFFFF0001FFFFFFFFFFF0000FFFFFFF80000000000000000
310
7FFFFFFFFFFFFFFFFFFFFFFC001FFFFFFFFFFFFFFC001FFFFFFFFFFFFFFFFFFF
310
FFFFFFFC001FFFFFF000FFFFFFFFFFFFFFFFFFFFFFFFFFFFFFFFFFFFFFFFFFFF
310
FFFFFFFFFFFFFFFFFFFFFFFFFFFFFFFFFFFFFFFFFFFFFFFFFFFFFFFFFFFFFFFF
310
FFFFFFFFFFFFFFFFFFFFFFFFFFFFFFFFFFFFFFFFFFFFFFFFFFFFFFFFFFFFFFFF
310
F000FFFFFFFFFFFFFFFFFFFFFFFFFFFFFFFFFFFFFFFFFFFFFFFFFFFFFFFFFFFF
310
FFFFFFFFFFFFFFFFFFFFFFFFFFFFFFFFFFFFFFFFFFFFFFFFFFFFFFFFFFFFFFFF
310
FFFFFFFFFFFFFFFFFFFFFFFFFFFFFFFFFFFFFFFFFFFFFFFFF000FFFFFFFFFFFF
310
FFFFFFFFFFFFFFFFFFFFFFFFFFFFFFFFFFFFFFFFFFFFFFFFFFFFFFFFFFFFFFFF
310
FFFFFFFFFFFFFFFFFFFFFFFFFFFFFFFFFFFFFFFFFFFFFFFFFFFFFFFFFFFFFFFF
310
FFFFFFFFFFFFFFFFFFFFFFFFFFFFFFFFF000FFFFFFFFFFFFFFFFFFFFFFFFFFFF
310
FFFFFFFFFFFFFFFFFFFFFFFFFFFFFFFFFFFFFFFFFFFFFFFFFFFFFFFFFFFFFFFF
310
FFFFFFFFFFFFFFFFFFFFFFFFFFFFFFFFFFFFFFFFFFFFFFFFFFFFFFFFFFFFFFFF
310
FFFFFFFFFFFFFFFFF000FFFFFFFFFFFFFFFFFFFFFFFFFFFFFFFFFFFFFFFFFFFF
310
FFFFFFFFFFFFFFFFFFFFFFFFFFFFFFFFFFFFFFFFFFFFFFFFFFFFFFFFFFFFFFFF
310
FFFFFFFFFFFFFFFFFFFFFFFFFFFFFFFFFFFFFFFFFFFFFFFFFFFFFFFFFFFFFFFF
310
F000FFFFFFFFFFFFFFFFFFFFFFFFFFFFFFFFFFFFFFFFFFFFFFFFFFFFFFFFFFFF
310
FFFFFFFFFFFFFFFFFFFFFFFFFFFFFFFFFFFFFFFFFFFFFFFFFFFFFFFFFFFFFFFF
310
FFFFFFFFFFFFFFFFFFFFFFFFFFFFFFFFFFFFFFFFFFFFFFFFF000FFFFFFFFFFFF
310
FFFFFFFFFFFFFFFFFFFFFFFFFFFFFFFFFFFFFFFFFFFFFFFFFFFFFFFFFFFFFFFF
310
FFFFFFFFFFFFFFFFFFFFFFFFFFFFFFFFFFFFFFFFFFFFFFFFFFFFFFFFFFFFFFFF
310
FFFFFFFFFFFFFFFFFFFFFFFFFFFFFFFFF000FFFFFFFFFFFFFFFFFFFFFFFFFFFF
310
FFFFFFFFFFFFFFFFFFFFFFFFFFFFFFFFFFFFFFFFFFFFFFFFFFFFFFFFFFFFFFFF
310
FFFFFFFFFFFFFFFFFFFFFFFFFFFFFFFFFFFFFFFFFFFFFFFFFFFFFFFFFFFFFFFF
310
FFFFFFFFFFFFFFFFF000FFFFFFFFFFFFFFFFFFFFFFFFFFFFFFFFFFFFFFFFFFFF
310
FFFFFFFFFFFFFFFFFFFFFFFFFFFFFFFFFFFFFFFFFFFFFFFFFFFFFFFFFFFFFFFF
310
FFFFFFFFFFFFFFFFFFFFFFFFFFFFFFFFFFFFFFFFFFFFFFFFFFFFFFFFFFFFFFFF
310
F000FFFFFFFFFFFFFFFFFFFFFFFFFFFFFFFFFFFFFFFFFFFFFFFFFFFFFFFFFFFF
310
FFFFFFFFFFFFFFFFFFFFFFFFFFFFFFFFFFFFFFFFFFFFFFFFFFFFFFFFFFFFFFFF
310
FFFFFFFFFFFFFFFFFFFFFFFFFFFFFFFFFFFFFFFFFFFFFFFFF000FFFFFFFFFFFF
310
FFFFFFFFFFFFFFFFFFFFFFFFFFFFFFFFFFFFFFFFFFFFFFFFFFFFFFFFFFFFFFFF
310
FFFFFFFFFFFFFFFFFFFFFFFFFFFFFFFFFFFFFFFFFFFFFFFFFFFFFFFFFFFFFFFF
310
FFFFFFFFFFFFFFFFFFFFFFFFFFFFFFFFF000FFFFFFFFFFFFFFFFFFFFFFFFFFFF
310
FFFFFFFFFFFFFFFFFFFFFFFFFFFFFFFFFFFFFFFFFFFFFFFFFFFFFFFFFFFFFFFF
310
FFFFFFFFFFFFFFFFFFFFFFFFFFFFFFFFFFFFFFFFFFFFFFFFFFFFFFFFFFFFFFFF
310
FFFFFFFFFFFFFFFFF000FFFFFFFFFFFFFFFFFFFFFFFFFFFFFFFFFFFFFFFFFFFF
310
FFFFFFFFFFFFFFFFFFFFFFFFFFFFFFFFFFFFFFFFFFFFFFFFFFFFFFFFFFFFFFFF
310
FFFFFFFFFFFFFFFFFFFFFFFFFFFFFFFFFFFFFFFFFFFFFFFFFFFFFFFFFFFFFFFF
310
F000FFFFFFFFFFFFFFFFFFFFFFFFFFFFFFFFFFFFFFFFFFFFFFFFFFFFFFFFFFFF
310
FFFFFFFFFFFFFFFFFFFFFFFFFFFFFFFFFFFFFFFFFFFFFFFFFFFFFFFFFFFFFFFF
310
FFFFFFFFFFFFFFFFFFFFFFFFFFFFFFFFFFFFFFFFFFFFFFFFF000FFFFFFFFFFFF
310
FFFFFFFFFFFFFFFFFFFFFFFFFFFFFFFFFFFFFFFFFFFFFFFFFFFFFFFFFFFFFFFF
310
FFFFFFFFFFFFFFFFFFFFFFFFFFFFFFFFFFFFFFFFFFFFFFFFFFFFFFFFFFFFFFFF
310
FFFFFFFFFFFFFFFFFFFFFFFFFFFFFFFFF000FFFFFFFFFFFFFFFFFFFFFFFFFFFF
310
FFFFFFFFFFFFFFFFFFFFFFFFFFFFFFFFFFFFFFFFFFFFFFFFFFFFFFFFFFFFFFFF
310
FFFFFFFFFFFFFFFFFFFFFFFFFFFFFFFFFFFFFFFFFFFFFFFFFFFFFFFFFFFFFFFF
310
FFFFFFFFFFFFFFFFF000FFFFFFFFFFFFFFFFFFFFFFFFFFFFFFFFFFFFFFFFFFFF
310
FFFFFFFFFFFFFFFFFFFFFFFFFFFFFFFFFFFFFFFFFFFFFFFFFFFFFFFFFFFFFFFF
310
FFFFFFFFFFFFFFFFFFFFFFFFFFFFFFFFFFFFFFFFFFFFFFFFFFFFFFFFFFFFFFFF
310
F000FFFFFFFFFFFFFFFFFFFFFFFFFFFFFFFFFFFFFFFFFFFFFFFFFFFFFFFFFFFF
310
FFFFFFFFFFFFFFFFFFFFFFFFFFFFFFFFFFFFFFFFFFFFFFFFFFFFFFFFFFFFFFFF
310
FFFFFFFFFFFFFFFFFFFFFFFFFFFFFFFFFFFFFFFFFFFFFFFFF000FFFFFFFFFFFF
310
FFFFFFFFFFFFFFFFFFFFFFFFFFFFFFFFFFFFFFFFFFFFFFFFFFFFFFFFFFFFFFFF
310
FFFFFFFFFFFFFFFFFFFFFFFFFFFFFFFFFFFFFFFFFFFFFFFFFFFFFFFFFFFFFFFF
310
FFFFFFFFFFFFFFFFFFFFFFFFFFFFFFFFF000FFFFFFFFFFFFFFFFFFFFFFFFFFFF
310
FFFFFFFFFFFFFFFFFFFFFFFFFFFFFFFFFFFFFFFFFFFFFFFFFFFFFFFFFFFFFFFF
310
FFFFFFFFFFFFFFFFFFFFFFFFFFFFFFFFFFFFFFFFFFFFFFFFFFFFFFFFFFFFFFFF
310
FFFFFFFFFFFFFFFFF000FFFFFFFFFFFFFFFFFFFFFFFFFFFFFFFFFFFFFFFFFFFF
310
FFFFFFFFFFFFFFFFFFFFFFFFFFFFFFFFFFFFFFFFFFFFFFFFFFFFFFFFFFFFFFFF
310
FFFFFFFFFFFFFFFFFFFFFFFFFFFFFFFFFFFFFFFFFFFFFFFFFFFFFFFFFFFFFFFF
310
F000FFFFFFFFFFFFFFFFFFFFFFFFFFFFFFFFFFFFFFFFFFFFFFFFFFFFFFFFFFFF
310
FFFFFFFFFFFFFFFFFFFFFFFFFFFFFFFFFFFFFFFFFFFFFFFFFFFFFFFFFFFFFFFF
310
FFFFFFFFFFFFFFFFFFFFFFFFFFFFFFFFFFFFFFFFFFFFFFFFF000FFFFFFFFFFFF
310
FFFFFFFFFFFFFFFFFFFFFFFFFFFFFFFFFFFFFFFFFFFFFFFFFFFFFFFFFFFFFFFF
310
FFFFFFFFFFFFFFFFFFFFFFFFFFFFFFFFFFFFFFFFFFFFFFFFFFFFFFFFFFFFFFFF
310
FFFFFFFFFFFFFFFFFFFFFFFFFFFFFFFFF0000000000000000000000000000000
310
0000000000000000000000000000000000000000000000000000000000000000
310
0000000000000000000000000000000000000000000000000000000000000000
310
0000000000000000000000000000000000000000000000000000000000000000
310
0000000000000000000000000000000000000000000000000000000000000000
310
0000000000000000000000000000000000000000000000000000000000000000
310
0000000000000000000000000000000000000000000000000000000000000000
310
0000000000000000000000000000000000000000000000000000000000000000
310
0000000000000000000000000000000000000000000000000000000000000000
310
0000000000000000000000000000000000000000000000000000000000000000
310
0000000000000000000000000000000000000000000000000000000000000000
310
0000000000000000000000000000000000000000000000000000000000000000
310
0000000000000000000000000000000000000000000000000000000000000000
310
0000000000000000000000000000000000000000000000000000000000000000
310
0000000000000000000000000000000000000000000000000000000000000000
310
0000000000000000000000000000000000000000000000000000000000000000
  1
OLE
  0
ENDSEC
  0
SECTION
  2
OBJECTS
  0
DICTIONARY
  5
C
330
0
100
AcDbDictionary
281
     1
  3
ACAD_GROUP
350
D
  3
ACAD_LAYOUT
350
1A
  3
ACAD_MLINESTYLE
350
17
  3
ACAD_PLOTSETTINGS
350
19
  3
ACAD_PLOTSTYLENAME
350
E
  3
ACAD_SCALELIST
350
47
  0
DICTIONARY
  5
D
102
{ACAD_REACTORS
330
C
102
}
330
C
100
AcDbDictionary
281
     1
  0
DICTIONARY
  5
1A
102
{ACAD_REACTORS
330
C
102
}
330
C
100
AcDbDictionary
281
     1
  3
Layout1
350
1E
  3
Layout2
350
26
  3
Model
350
22
  0
DICTIONARY
  5
17
102
{ACAD_REACTORS
330
C
102
}
330
C
100
AcDbDictionary
281
     1
  3
Standard
350
18
  0
DICTIONARY
  5
19
102
{ACAD_REACTORS
330
C
102
}
330
C
100
AcDbDictionary
281
     1
  0
ACDBDICTIONARYWDFLT
  5
E
102
{ACAD_REACTORS
330
C
102
}
330
C
100
AcDbDictionary
281
     1
  3
Normal
350
F
100
AcDbDictionaryWithDefault
340
F
  0
DICTIONARY
  5
47
102
{ACAD_REACTORS
330
C
102
}
330
C
100
AcDbDictionary
281
     1
  3
A0
350
48
  3
A1
350
49
  3
A2
350
4A
  3
A3
350
4B
  3
A4
350
4C
  3
A5
350
4D
  3
A6
350
4E
  3
A7
350
4F
  3
A8
350
50
  3
A9
350
51
  3
B0
350
52
  3
B1
350
53
  3
B2
350
54
  3
B3
350
55
  3
B4
350
56
  3
B5
350
57
  3
B6
350
58
  3
B7
350
59
  3
B8
350
5A
  3
B9
350
5B
  3
C0
350
5C
  3
C1
350
5D
  3
C2
350
5E
  3
C3
350
5F
  3
C4
350
60
  3
C5
350
61
  3
C6
350
62
  3
C7
350
63
  3
C8
350
64
  3
C9
350
65
  3
D0
350
66
  3
D1
350
67
  3
D2
350
68
  0
LAYOUT
  5
1E
102
{ACAD_REACTORS
330
1A
102
}
330
1A
100
AcDbPlotSettings
  1

  2
none_device
  4

  6

 40
0.0
 41
0.0
 42
0.0
 43
0.0
 44
0.0
 45
0.0
 46
0.0
 47
0.0
 48
0.0
 49
0.0
140
0.0
141
0.0
142
1.0
143
1.0
 70
   688
 72
     1
 73
     0
 74
     5
  7

 75
    16
147
1.0
148
0.0
149
0.0
100
AcDbLayout
  1
Layout1
 70
     1
 71
     1
 10
0.0
 20
0.0
 11
420.0
 21
297.0
 12
0.0
 22
0.0
 32
0.0
 14
1.0000000000E+20
 24
1.0000000000E+20
 34
1.0000000000E+20
 15
-1.0000000000E+20
 25
-1.0000000000E+20
 35
-1.0000000000E+20
146
0.0
 13
0.0
 23
0.0
 33
0.0
 16
1.0
 26
0.0
 36
0.0
 17
0.0
 27
1.0
 37
0.0
 76
     0
330
1B
  0
LAYOUT
  5
26
102
{ACAD_REACTORS
330
1A
102
}
330
1A
100
AcDbPlotSettings
  1

  2
none_device
  4

  6

 40
0.0
 41
0.0
 42
0.0
 43
0.0
 44
0.0
 45
0.0
 46
0.0
 47
0.0
 48
0.0
 49
0.0
140
0.0
141
0.0
142
1.0
143
1.0
 70
   688
 72
     1
 73
     0
 74
     5
  7

 75
    16
147
1.0
148
0.0
149
0.0
100
AcDbLayout
  1
Layout2
 70
     1
 71
     2
 10
0.0
 20
0.0
 11
0.0
 21
0.0
 12
0.0
 22
0.0
 32
0.0
 14
0.0
 24
0.0
 34
0.0
 15
0.0
 25
0.0
 35
0.0
146
0.0
 13
0.0
 23
0.0
 33
0.0
 16
1.0
 26
0.0
 36
0.0
 17
0.0
 27
1.0
 37
0.0
 76
     0
330
23
  0
LAYOUT
  5
22
102
{ACAD_REACTORS
330
1A
102
}
330
1A
100
AcDbPlotSettings
  1

  2
none_device
  4
Letter_(8.50_x_11.00_Inches)
  6

 40
6.35
 41
6.35
 42
6.35000508
 43
6.35000508
 44
215.9
 45
279.4
 46
0.0
 47
0.0
 48
0.0
 49
0.0
140
0.0
141
0.0
142
1.0
143
1.0
 70
  1712
 72
     1
 73
     0
 74
     0
  7

 75
     0
147
1.0
148
0.0
149
0.0
100
AcDbLayout
  1
Model
 70
     1
 71
     0
 10
0.0
 20
0.0
 11
297.0
 21
210.0
 12
0.0
 22
0.0
 32
0.0
 14
0.0
 24
0.0
 34
0.0
 15
297.0
 25
210.0
 35
0.0
146
0.0
 13
0.0
 23
0.0
 33
0.0
 16
1.0
 26
0.0
 36
0.0
 17
0.0
 27
1.0
 37
0.0
 76
     0
330
1F
331
29
  0
MLINESTYLE
  5
18
102
{ACAD_REACTORS
330
17
102
}
330
17
100
AcDbMlineStyle
  2
Standard
 70
     0
  3

 62
   256
 51
90.0
 52
90.0
 71
     2
 49
0.5
 62
   256
  6
BYLAYER
 49
-0.5
 62
   256
  6
BYLAYER
  0
ACDBPLACEHOLDER
  5
F
102
{ACAD_REACTORS
330
E
102
}
330
E
  0
SCALE
  5
48
102
{ACAD_REACTORS
330
47
102
}
330
47
100
AcDbScale
 70
     0
300
1:1
140
1.0
141
1.0
290
     1
  0
SCALE
  5
49
102
{ACAD_REACTORS
330
47
102
}
330
47
100
AcDbScale
 70
     0
300
1:2
140
1.0
141
2.0
290
     0
  0
SCALE
  5
4A
102
{ACAD_REACTORS
330
47
102
}
330
47
100
AcDbScale
 70
     0
300
1:4
140
1.0
141
4.0
290
     0
  0
SCALE
  5
4B
102
{ACAD_REACTORS
330
47
102
}
330
47
100
AcDbScale
 70
     0
300
1:5
140
1.0
141
5.0
290
     0
  0
SCALE
  5
4C
102
{ACAD_REACTORS
330
47
102
}
330
47
100
AcDbScale
 70
     0
300
1:8
140
1.0
141
8.0
290
     0
  0
SCALE
  5
4D
102
{ACAD_REACTORS
330
47
102
}
330
47
100
AcDbScale
 70
     0
300
1:10
140
1.0
141
10.0
290
     0
  0
SCALE
  5
4E
102
{ACAD_REACTORS
330
47
102
}
330
47
100
AcDbScale
 70
     0
300
1:16
140
1.0
141
16.0
290
     0
  0
SCALE
  5
4F
102
{ACAD_REACTORS
330
47
102
}
330
47
100
AcDbScale
 70
     0
300
1:20
140
1.0
141
20.0
290
     0
  0
SCALE
  5
50
102
{ACAD_REACTORS
330
47
102
}
330
47
100
AcDbScale
 70
     0
300
1:30
140
1.0
141
30.0
290
     0
  0
SCALE
  5
51
102
{ACAD_REACTORS
330
47
102
}
330
47
100
AcDbScale
 70
     0
300
1:40
140
1.0
141
40.0
290
     0
  0
SCALE
  5
52
102
{ACAD_REACTORS
330
47
102
}
330
47
100
AcDbScale
 70
     0
300
1:50
140
1.0
141
50.0
290
     0
  0
SCALE
  5
53
102
{ACAD_REACTORS
330
47
102
}
330
47
100
AcDbScale
 70
     0
300
1:100
140
1.0
141
100.0
290
     0
  0
SCALE
  5
54
102
{ACAD_REACTORS
330
47
102
}
330
47
100
AcDbScale
 70
     0
300
2:1
140
2.0
141
1.0
290
     0
  0
SCALE
  5
55
102
{ACAD_REACTORS
330
47
102
}
330
47
100
AcDbScale
 70
     0
300
4:1
140
4.0
141
1.0
290
     0
  0
SCALE
  5
56
102
{ACAD_REACTORS
330
47
102
}
330
47
100
AcDbScale
 70
     0
300
8:1
140
8.0
141
1.0
290
     0
  0
SCALE
  5
57
102
{ACAD_REACTORS
330
47
102
}
330
47
100
AcDbScale
 70
     0
300
10:1
140
10.0
141
1.0
290
     0
  0
SCALE
  5
58
102
{ACAD_REACTORS
330
47
102
}
330
47
100
AcDbScale
 70
     0
300
100:1
140
100.0
141
1.0
290
     0
  0
SCALE
  5
59
102
{ACAD_REACTORS
330
47
102
}
330
47
100
AcDbScale
 70
     0
300
1/128" = 1'-0"
140
0.0078125
141
12.0
290
     0
  0
SCALE
  5
5A
102
{ACAD_REACTORS
330
47
102
}
330
47
100
AcDbScale
 70
     0
300
1/64" = 1'-0"
140
0.015625
141
12.0
290
     0
  0
SCALE
  5
5B
102
{ACAD_REACTORS
330
47
102
}
330
47
100
AcDbScale
 70
     0
300
1/32" = 1'-0"
140
0.03125
141
12.0
290
     0
  0
SCALE
  5
5C
102
{ACAD_REACTORS
330
47
102
}
330
47
100
AcDbScale
 70
     0
300
1/16" = 1'-0"
140
0.0625
141
12.0
290
     0
  0
SCALE
  5
5D
102
{ACAD_REACTORS
330
47
102
}
330
47
100
AcDbScale
 70
     0
300
3/32" = 1'-0"
140
0.09375
141
12.0
290
     0
  0
SCALE
  5
5E
102
{ACAD_REACTORS
330
47
102
}
330
47
100
AcDbScale
 70
     0
300
1/8" = 1'-0"
140
0.125
141
12.0
290
     0
  0
SCALE
  5
5F
102
{ACAD_REACTORS
330
47
102
}
330
47
100
AcDbScale
 70
     0
300
3/16" = 1'-0"
140
0.1875
141
12.0
290
     0
  0
SCALE
  5
60
102
{ACAD_REACTORS
330
47
102
}
330
47
100
AcDbScale
 70
     0
300
1/4" = 1'-0"
140
0.25
141
12.0
290
     0
  0
SCALE
  5
61
102
{ACAD_REACTORS
330
47
102
}
330
47
100
AcDbScale
 70
     0
300
3/8" = 1'-0"
140
0.375
141
12.0
290
     0
  0
SCALE
  5
62
102
{ACAD_REACTORS
330
47
102
}
330
47
100
AcDbScale
 70
     0
300
1/2" = 1'-0"
140
0.5
141
12.0
290
     0
  0
SCALE
  5
63
102
{ACAD_REACTORS
330
47
102
}
330
47
100
AcDbScale
 70
     0
300
3/4" = 1'-0"
140
0.75
141
12.0
290
     0
  0
SCALE
  5
64
102
{ACAD_REACTORS
330
47
102
}
330
47
100
AcDbScale
 70
     0
300
1" = 1'-0"
140
1.0
141
12.0
290
     0
  0
SCALE
  5
65
102
{ACAD_REACTORS
330
47
102
}
330
47
100
AcDbScale
 70
     0
300
1-1/2" = 1'-0"
140
1.5
141
12.0
290
     0
  0
SCALE
  5
66
102
{ACAD_REACTORS
330
47
102
}
330
47
100
AcDbScale
 70
     0
300
3" = 1'-0"
140
3.0
141
12.0
290
     0
  0
SCALE
  5
67
102
{ACAD_REACTORS
330
47
102
}
330
47
100
AcDbScale
 70
     0
300
6" = 1'-0"
140
6.0
141
12.0
290
     0
  0
SCALE
  5
68
102
{ACAD_REACTORS
330
47
102
}
330
47
100
AcDbScale
 70
     0
300
1'-0" = 1'-0"
140
12.0
141
12.0
290
     0
  0
ENDSEC
  0
EOF
