  0
SECTION
  2
HEADER
  9
$ACADVER
  1
AC1015
  9
$ACADMAINTVER
 70
     6
  9
$DWGCODEPAGE
  3
ANSI_1252
  9
$INSBASE
 10
0.0
 20
0.0
 30
0.0
  9
$EXTMIN
 10
0.0
 20
0.0
 30
0.0
  9
$EXTMAX
 10
297.0
 20
210.0
 30
0.0
  9
$LIMMIN
 10
0.0
 20
0.0
  9
$LIMMAX
 10
297.0
 20
210.0
  9
$ORTHOMODE
 70
     0
  9
$REGENMODE
 70
     1
  9
$FILLMODE
 70
     1
  9
$QTEXTMODE
 70
     0
  9
$MIRRTEXT
 70
     1
  9
$LTSCALE
 40
1.0
  9
$ATTMODE
 70
     1
  9
$TEXTSIZE
 40
2.0
  9
$TRACEWID
 40
1.0
  9
$TEXTSTYLE
  7
Standard
  9
$CLAYER
  8
0
  9
$CELTYPE
  6
ByLayer
  9
$CECOLOR
 62
   256
  9
$CELTSCALE
 40
1.0
  9
$DISPSILH
 70
     0
  9
$DIMSCALE
 40
1.0
  9
$DIMASZ
 40
3.0
  9
$DIMEXO
 40
0.0
  9
$DIMDLI
 40
3.75
  9
$DIMRND
 40
0.0
  9
$DIMDLE
 40
0.0
  9
$DIMEXE
 40
1.0
  9
$DIMTP
 40
0.0
  9
$DIMTM
 40
0.0
  9
$DIMTXT
 40
2.0
  9
$DIMCEN
 40
2.5
  9
$DIMTSZ
 40
0.0
  9
$DIMTOL
 70
     0
  9
$DIMLIM
 70
     0
  9
$DIMTIH
 70
     1
  9
$DIMTOH
 70
     1
  9
$DIMSE1
 70
     0
  9
$DIMSE2
 70
     0
  9
$DIMTAD
 70
     1
  9
$DIMZIN
 70
     0
  9
$DIMBLK
  1

  9
$DIMASO
 70
     1
  9
$DIMSHO
 70
     1
  9
$DIMPOST
  1

  9
$DIMAPOST
  1

  9
$DIMALT
 70
     0
  9
$DIMALTD
 70
     3
  9
$DIMALTF
 40
0.0393700787
  9
$DIMLFAC
 40
1.0
  9
$DIMTOFL
 70
     1
  9
$DIMTVP
 40
0.0
  9
$DIMTIX
 70
     0
  9
$DIMSOXD
 70
     0
  9
$DIMSAH
 70
     0
  9
$DIMBLK1
  1

  9
$DIMBLK2
  1

  9
$DIMSTYLE
  2
ISO-25
  9
$DIMCLRD
 70
     0
  9
$DIMCLRE
 70
     0
  9
$DIMCLRT
 70
     0
  9
$DIMTFAC
 40
1.0
  9
$DIMGAP
 40
1.524
  9
$DIMJUST
 70
     0
  9
$DIMSD1
 70
     0
  9
$DIMSD2
 70
     0
  9
$DIMTOLJ
 70
     0
  9
$DIMTZIN
 70
     0
  9
$DIMALTZ
 70
     0
  9
$DIMALTTZ
 70
     0
  9
$DIMUPT
 70
     0
  9
$DIMDEC
 70
     2
  9
$DIMTDEC
 70
     3
  9
$DIMALTU
 70
     2
  9
$DIMALTTD
 70
     3
  9
$DIMTXSTY
  7
Standard
  9
$DIMAUNIT
 70
     0
  9
$DIMADEC
 70
     2
  9
$DIMALTRND
 40
0.0
  9
$DIMAZIN
 70
     0
  9
$DIMDSEP
 70
    44
  9
$DIMATFIT
 70
     3
  9
$DIMFRAC
 70
     0
  9
$DIMLDRBLK
  1

  9
$DIMLUNIT
 70
     2
  9
$DIMLWD
 70
    -2
  9
$DIMLWE
 70
    -2
  9
$DIMTMOVE
 70
     0
  9
$LUNITS
 70
     2
  9
$LUPREC
 70
     2
  9
$SKETCHINC
 40
1.0
  9
$FILLETRAD
 40
10.0
  9
$AUNITS
 70
     0
  9
$AUPREC
 70
     2
  9
$MENU
  1
.
  9
$ELEVATION
 40
0.0
  9
$PELEVATION
 40
0.0
  9
$THICKNESS
 40
0.0
  9
$LIMCHECK
 70
     0
  9
$CHAMFERA
 40
0.0
  9
$CHAMFERB
 40
0.0
  9
$CHAMFERC
 40
0.0
  9
$CHAMFERD
 40
0.0
  9
$SKPOLY
 70
     0
  9
$TDCREATE
 40
2457627.614970787
  9
$TDUCREATE
 40
2457627.531637453
  9
$TDUPDATE
 40
2457627.614972199
  9
$TDUUPDATE
 40
2457627.531638866
  9
$TDINDWG
 40
0.0000000116
  9
$TDUSRTIMER
 40
0.0000000116
  9
$USRTIMER
 70
     1
  9
$ANGBASE
 50
0.0
  9
$ANGDIR
 70
     0
  9
$PDMODE
 70
     0
  9
$PDSIZE
 40
-1.0
  9
$PLINEWID
 40
0.0
  9
$SPLFRAME
 70
     0
  9
$SPLINETYPE
 70
     6
  9
$SPLINESEGS
 70
     8
  9
$HANDSEED
  5
2E3
  9
$SURFTAB1
 70
     6
  9
$SURFTAB2
 70
     6
  9
$SURFTYPE
 70
     6
  9
$SURFU
 70
     6
  9
$SURFV
 70
     6
  9
$UCSBASE
  2

  9
$UCSNAME
  2

  9
$UCSORG
 10
0.0
 20
0.0
 30
0.0
  9
$UCSXDIR
 10
1.0
 20
0.0
 30
0.0
  9
$UCSYDIR
 10
0.0
 20
1.0
 30
0.0
  9
$UCSORTHOREF
  2

  9
$UCSORTHOVIEW
 70
     0
  9
$UCSORGTOP
 10
0.0
 20
0.0
 30
0.0
  9
$UCSORGBOTTOM
 10
0.0
 20
0.0
 30
0.0
  9
$UCSORGLEFT
 10
0.0
 20
0.0
 30
0.0
  9
$UCSORGRIGHT
 10
0.0
 20
0.0
 30
0.0
  9
$UCSORGFRONT
 10
0.0
 20
0.0
 30
0.0
  9
$UCSORGBACK
 10
0.0
 20
0.0
 30
0.0
  9
$PUCSBASE
  2

  9
$PUCSNAME
  2

  9
$PUCSORG
 10
0.0
 20
0.0
 30
0.0
  9
$PUCSXDIR
 10
1.0
 20
0.0
 30
0.0
  9
$PUCSYDIR
 10
0.0
 20
1.0
 30
0.0
  9
$PUCSORTHOREF
  2

  9
$PUCSORTHOVIEW
 70
     0
  9
$PUCSORGTOP
 10
0.0
 20
0.0
 30
0.0
  9
$PUCSORGBOTTOM
 10
0.0
 20
0.0
 30
0.0
  9
$PUCSORGLEFT
 10
0.0
 20
0.0
 30
0.0
  9
$PUCSORGRIGHT
 10
0.0
 20
0.0
 30
0.0
  9
$PUCSORGFRONT
 10
0.0
 20
0.0
 30
0.0
  9
$PUCSORGBACK
 10
0.0
 20
0.0
 30
0.0
  9
$USERI1
 70
     0
  9
$USERI2
 70
     0
  9
$USERI3
 70
     0
  9
$USERI4
 70
     0
  9
$USERI5
 70
     0
  9
$USERR1
 40
0.0
  9
$USERR2
 40
0.0
  9
$USERR3
 40
0.0
  9
$USERR4
 40
0.0
  9
$USERR5
 40
0.0
  9
$WORLDVIEW
 70
     1
  9
$SHADEDGE
 70
     3
  9
$SHADEDIF
 70
    70
  9
$TILEMODE
 70
     1
  9
$MAXACTVP
 70
    64
  9
$PINSBASE
 10
0.0
 20
0.0
 30
0.0
  9
$PLIMCHECK
 70
     0
  9
$PEXTMIN
 10
1.0000000000E+20
 20
1.0000000000E+20
 30
1.0000000000E+20
  9
$PEXTMAX
 10
-1.0000000000E+20
 20
-1.0000000000E+20
 30
-1.0000000000E+20
  9
$PLIMMIN
 10
0.0
 20
0.0
  9
$PLIMMAX
 10
420.0
 20
297.0
  9
$UNITMODE
 70
     0
  9
$VISRETAIN
 70
     1
  9
$PLINEGEN
 70
     0
  9
$PSLTSCALE
 70
     1
  9
$TREEDEPTH
 70
  3020
  9
$CMLSTYLE
  2
Standard
  9
$CMLJUST
 70
     0
  9
$CMLSCALE
 40
20.0
  9
$PROXYGRAPHICS
 70
     1
  9
$MEASUREMENT
 70
     1
  9
$CELWEIGHT
370
    -1
  9
$ENDCAPS
280
     0
  9
$JOINSTYLE
280
     0
  9
$LWDISPLAY
290
     1
  9
$INSUNITS
 70
     4
  9
$HYPERLINKBASE
  1

  9
$STYLESHEET
  1

  9
$XEDIT
290
     1
  9
$CEPSNTYPE
380
     0
  9
$PSTYLEMODE
290
     1
  9
$FINGERPRINTGUID
  2
{03789F13-B446-459F-AF43-FD71108824FA}
  9
$VERSIONGUID
  2
{FAEB1C32-E019-11D5-929B-00C0DF256EC4}
  9
$EXTNAMES
290
     1
  9
$PSVPSCALE
 40
0.0
  9
$OLESTARTUP
290
     0
  0
ENDSEC
  0
SECTION
  2
CLASSES
  0
CLASS
  1
ACDBDICTIONARYWDFLT
  2
AcDbDictionaryWithDefault
  3
ObjectDBX Classes
 90
        0
280
     0
281
     0
  0
CLASS
  1
VISUALSTYLE
  2
AcDbVisualStyle
  3
ObjectDBX Classes
 90
     4095
280
     0
281
     0
  0
CLASS
  1
MATERIAL
  2
AcDbMaterial
  3
ObjectDBX Classes
 90
     1153
280
     0
281
     0
  0
CLASS
  1
SCALE
  2
AcDbScale
  3
ObjectDBX Classes
 90
     1153
280
     0
281
     0
  0
CLASS
  1
TABLESTYLE
  2
AcDbTableStyle
  3
ObjectDBX Classes
 90
     4095
280
     0
281
     0
  0
CLASS
  1
MLEADERSTYLE
  2
AcDbMLeaderStyle
  3
ACDB_MLEADERSTYLE_CLASS
 90
     4095
280
     0
281
     0
  0
CLASS
  1
SUN
  2
AcDbSun
  3
SCENEOE
 90
     1153
280
     0
281
     0
  0
CLASS
  1
ACDBPLACEHOLDER
  2
AcDbPlaceHolder
  3
ObjectDBX Classes
 90
        0
280
     0
281
     0
  0
CLASS
  1
LAYOUT
  2
AcDbLayout
  3
ObjectDBX Classes
 90
        0
280
     0
281
     0
  0
ENDSEC
  0
SECTION
  2
TABLES
  0
TABLE
  2
VPORT
  5
8
330
0
100
AcDbSymbolTable
 70
     1
  0
VPORT
  5
29
330
8
100
AcDbSymbolTableRecord
100
AcDbViewportTableRecord
  2
*Active
 70
     0
 10
0.0
 20
0.0
 11
1.0
 21
1.0
 12
148.5
 22
105.0
 13
0.0
 23
0.0
 14
10.0
 24
10.0
 15
10.0
 25
10.0
 16
0.0
 26
0.0
 36
1.0
 17
0.0
 27
0.0
 37
0.0
 40
210.0
 41
1.4142857143
 42
50.0
 43
0.0
 44
0.0
 50
0.0
 51
0.0
 71
     0
 72
  2000
 73
     1
 74
     3
 75
     0
 76
     0
 77
     0
 78
     0
281
     0
 65
     1
110
0.0
120
0.0
130
0.0
111
1.0
121
0.0
131
0.0
112
0.0
122
1.0
132
0.0
 79
     0
146
0.0
  0
ENDTAB
  0
TABLE
  2
LTYPE
  5
5
330
0
100
AcDbSymbolTable
 70
     6
  0
LTYPE
  5
14
330
5
100
AcDbSymbolTableRecord
100
AcDbLinetypeTableRecord
  2
ByBlock
 70
     0
  3

 72
    65
 73
     0
 40
0.0
  0
LTYPE
  5
15
330
5
100
AcDbSymbolTableRecord
100
AcDbLinetypeTableRecord
  2
ByLayer
 70
     0
  3

 72
    65
 73
     0
 40
0.0
  0
LTYPE
  5
16
330
5
100
AcDbSymbolTableRecord
100
AcDbLinetypeTableRecord
  2
Continuous
 70
     0
  3
Solid line
 72
    65
 73
     0
 40
0.0
  0
LTYPE
  5
6E
330
5
100
AcDbSymbolTableRecord
100
AcDbLinetypeTableRecord
  2
HIDDEN
 70
     0
  3
Hidden __ __ __ __ __ __ __ __ __ __ __ __ __ __
 72
    65
 73
     2
 40
1.905
 49
1.27
 74
     0
 49
-0.635
 74
     0
  0
LTYPE
  5
6F
330
5
100
AcDbSymbolTableRecord
100
AcDbLinetypeTableRecord
  2
PHANTOM
 70
     0
  3
Phantom ______  __  __  ______  __  __  ______
 72
    65
 73
     6
 40
12.7
 49
6.35
 74
     0
 49
-1.27
 74
     0
 49
1.27
 74
     0
 49
-1.27
 74
     0
 49
1.27
 74
     0
 49
-1.27
 74
     0
  0
LTYPE
  5
70
330
5
100
AcDbSymbolTableRecord
100
AcDbLinetypeTableRecord
  2
CENTER
 70
     0
  3
Center ____ _ ____ _ ____ _ ____ _ ____ _ ____
 72
    65
 73
     4
 40
10.16
 49
6.35
 74
     0
 49
-1.27
 74
     0
 49
1.27
 74
     0
 49
-1.27
 74
     0
  0
LTYPE
  5
71
330
5
100
AcDbSymbolTableRecord
100
AcDbLinetypeTableRecord
  2
CENTERX2
 70
     0
  3
Center (2x) ________  __  ________  __  _____
 72
    65
 73
     4
 40
20.32
 49
12.7
 74
     0
 49
-2.54
 74
     0
 49
2.54
 74
     0
 49
-2.54
 74
     0
  0
LTYPE
  5
72
330
5
100
AcDbSymbolTableRecord
100
AcDbLinetypeTableRecord
  2
DOT2
 70
     0
  3
Dot (.5x) ........................................
 72
    65
 73
     2
 40
0.635
 49
0.0
 74
     0
 49
-0.635
 74
     0
  0
ENDTAB
  0
TABLE
  2
LAYER
  5
2
330
0
100
AcDbSymbolTable
 70
     5
  0
LAYER
  5
10
330
2
100
AcDbSymbolTableRecord
100
AcDbLayerTableRecord
  2
0
 70
     0
 62
     7
  6
Continuous
370
    -3
390
F
  0
LAYER
  5
73
330
2
100
AcDbSymbolTableRecord
100
AcDbLayerTableRecord
  2
FORMAT
 70
     0
 62
     7
  6
Continuous
370
    -3
390
F
  0
LAYER
  5
74
330
2
100
AcDbSymbolTableRecord
100
AcDbLayerTableRecord
  2
VERMASSUNG
 70
     0
 62
     7
  6
Continuous
370
    -3
390
F
  0
LAYER
  5
75
330
2
100
AcDbSymbolTableRecord
100
AcDbLayerTableRecord
  2
KOPF_DÜNN
 70
     0
 62
     7
  6
Continuous
370
    -3
390
F
  0
LAYER
  5
76
330
2
100
AcDbSymbolTableRecord
100
AcDbLayerTableRecord
  2
KOPF_DICK
 70
     0
 62
     7
  6
Continuous
370
    15
390
F
  0
ENDTAB
  0
TABLE
  2
STYLE
  5
3
330
0
100
AcDbSymbolTable
 70
     2
  0
STYLE
  5
11
330
3
100
AcDbSymbolTableRecord
100
AcDbTextStyleTableRecord
  2
Standard
 70
     0
 40
0.0
 41
1.0
 50
0.0
 71
     0
 42
2.0
  3
txt
  4

  0
STYLE
  5
77
330
3
100
AcDbSymbolTableRecord
100
AcDbTextStyleTableRecord
  2
SLDTEXTSTYLE0
 70
     0
 40
0.0
 41
0.7
 50
0.0
 71
     0
 42
2.0
  3
TXT
  4

  0
ENDTAB
  0
TABLE
  2
VIEW
  5
6
330
0
100
AcDbSymbolTable
 70
     0
  0
ENDTAB
  0
TABLE
  2
UCS
  5
7
330
0
100
AcDbSymbolTable
 70
     0
  0
ENDTAB
  0
TABLE
  2
APPID
  5
9
330
0
100
AcDbSymbolTable
 70
     1
  0
APPID
  5
12
330
9
100
AcDbSymbolTableRecord
100
AcDbRegAppTableRecord
  2
ACAD
 70
     0
  0
ENDTAB
  0
TABLE
  2
DIMSTYLE
  5
A
330
0
100
AcDbSymbolTable
 70
     2
100
AcDbDimStyleTable
  0
DIMSTYLE
105
27
330
A
100
AcDbSymbolTableRecord
100
AcDbDimStyleTableRecord
  2
ISO-25
 70
     0
 41
2.5
 42
0.625
 43
3.75
 44
1.25
 73
     0
 74
     0
 77
     1
 78
     8
140
2.5
141
2.5
143
0.0393700787
147
0.625
171
     3
172
     1
178
     0
271
     2
272
     2
274
     3
278
    44
283
     0
284
     8
340
11
  0
DIMSTYLE
105
1DE
102
{ACAD_REACTORS
330
1DD
330
1EA
330
1F6
330
200
330
20A
102
}
330
A
100
AcDbSymbolTableRecord
100
AcDbDimStyleTableRecord
  2
SLDDIMSTYLE0
 70
     0
 41
3.0
 44
0.0
 45
0.000000001
 73
     0
 74
     0
 77
     1
 78
    12
 79
     3
140
2.0
147
0.5
173
     1
178
     0
271
     2
272
     3
276
     2
284
    12
340
77
  0
ENDTAB
  0
TABLE
  2
BLOCK_RECORD
  5
1
330
0
100
AcDbSymbolTable
 70
     6
  0
BLOCK_RECORD
  5
1F
330
1
100
AcDbSymbolTableRecord
100
AcDbBlockTableRecord
  2
*Model_Space
340
22
  0
BLOCK_RECORD
  5
1B
330
1
100
AcDbSymbolTableRecord
100
AcDbBlockTableRecord
  2
*Paper_Space
340
1E
  0
BLOCK_RECORD
  5
23
330
1
100
AcDbSymbolTableRecord
100
AcDbBlockTableRecord
  2
*Paper_Space0
340
26
  0
BLOCK_RECORD
  5
1DF
330
1
100
AcDbSymbolTableRecord
100
AcDbBlockTableRecord
  2
_D
340
0
  0
BLOCK_RECORD
  5
1EB
330
1
100
AcDbSymbolTableRecord
100
AcDbBlockTableRecord
  2
_D_1
340
0
  0
BLOCK_RECORD
  5
1F7
330
1
100
AcDbSymbolTableRecord
100
AcDbBlockTableRecord
  2
_D_2
340
0
  0
BLOCK_RECORD
  5
201
330
1
100
AcDbSymbolTableRecord
100
AcDbBlockTableRecord
  2
_D_3
340
0
  0
BLOCK_RECORD
  5
20B
330
1
100
AcDbSymbolTableRecord
100
AcDbBlockTableRecord
  2
_D_4
340
0
  0
ENDTAB
  0
ENDSEC
  0
SECTION
  2
BLOCKS
  0
BLOCK
  5
20
330
1F
100
AcDbEntity
  8
0
100
AcDbBlockBegin
  2
*Model_Space
 70
     0
 10
0.0
 20
0.0
 30
0.0
  3
*Model_Space
  1

  0
ENDBLK
  5
21
330
1F
100
AcDbEntity
  8
0
100
AcDbBlockEnd
  0
BLOCK
  5
1C
330
1B
100
AcDbEntity
 67
     1
  8
0
100
AcDbBlockBegin
  2
*Paper_Space
 70
     0
 10
0.0
 20
0.0
 30
0.0
  3
*Paper_Space
  1

  0
ENDBLK
  5
1D
330
1B
100
AcDbEntity
 67
     1
  8
0
100
AcDbBlockEnd
  0
BLOCK
  5
24
330
23
100
AcDbEntity
  8
0
100
AcDbBlockBegin
  2
*Paper_Space0
 70
     0
 10
0.0
 20
0.0
 30
0.0
  3
*Paper_Space0
  1

  0
ENDBLK
  5
25
330
23
100
AcDbEntity
  8
0
100
AcDbBlockEnd
  0
BLOCK
  5
1E0
330
1DF
100
AcDbEntity
  8
0
100
AcDbBlockBegin
  2
_D
 70
     0
 10
0.0
 20
0.0
 30
0.0
  3
_D
  1

  0
SOLID
  5
1E2
330
1DF
100
AcDbEntity
  8
VERMASSUNG
100
AcDbTrace
 10
70.1171258214
 20
85.6756643581
 30
0.0
 11
70.5671258214
 21
88.6756643581
 31
0.0
 12
69.6671258214
 22
88.6756643581
 32
0.0
 13
69.6671258214
 23
88.6756643581
 33
0.0
  0
SOLID
  5
1E3
330
1DF
100
AcDbEntity
  8
VERMASSUNG
100
AcDbTrace
 10
70.1171258214
 20
149.1756643581
 30
0.0
 11
69.6671258214
 21
146.1756643581
 31
0.0
 12
70.5671258214
 22
146.1756643581
 32
0.0
 13
70.5671258214
 23
146.1756643581
 33
0.0
  0
LINE
  5
1E4
330
1DF
100
AcDbEntity
  8
VERMASSUNG
100
AcDbLine
 10
163.1272792608
 20
85.6756643581
 30
0.0
 11
69.1171258214
 21
85.6756643581
 31
0.0
  0
LINE
  5
1E5
330
1DF
100
AcDbEntity
  8
VERMASSUNG
100
AcDbLine
 10
163.1272792608
 20
149.1756643581
 30
0.0
 11
69.1171258214
 21
149.1756643581
 31
0.0
  0
LINE
  5
1E6
330
1DF
100
AcDbEntity
  8
VERMASSUNG
100
AcDbLine
 10
70.1171258214
 20
85.6756643581
 30
0.0
 11
70.1171258214
 21
149.1756643581
 31
0.0
  0
MTEXT
  5
1E7
330
1DF
100
AcDbEntity
  8
VERMASSUNG
100
AcDbMText
 10
67.3389905652
 20
108.6227282098
 30
0.0
 40
2.0
 41
0.0
 71
     1
 72
     1
  1
ISO 40
  7
SLDTEXTSTYLE0
 11
3.391901413832837E-15
 21
1.0
 31
0.0
 73
     1
 44
1.0
  0
MTEXT
  5
1E8
330
1DF
100
AcDbEntity
  8
VERMASSUNG
100
AcDbMText
 10
67.5389905165
 20
117.822728414
 30
0.0
 40
2.0
 41
0.0
 71
     1
 72
     1
  1
%%c
  7
SLDTEXTSTYLE0
 11
3.391901413832837E-15
 21
1.0
 31
0.0
 73
     1
 44
1.0
  0
MTEXT
  5
1E9
330
1DF
100
AcDbEntity
  8
VERMASSUNG
100
AcDbMText
 10
67.5389902254
 20
121.4306087453
 30
0.0
 40
2.0
 41
0.0
 71
     1
 72
     1
  1
63.5
  7
SLDTEXTSTYLE0
 11
3.391901413832837E-15
 21
1.0
 31
0.0
 73
     1
 44
1.0
  0
ENDBLK
  5
1E1
330
1DF
100
AcDbEntity
  8
0
100
AcDbBlockEnd
  0
BLOCK
  5
1EC
330
1EB
100
AcDbEntity
  8
0
100
AcDbBlockBegin
  2
_D_1
 70
     0
 10
0.0
 20
0.0
 30
0.0
  3
_D_1
  1

  0
ARC
  5
1EE
330
1EB
100
AcDbEntity
  8
VERMASSUNG
100
AcDbCircle
 10
138.7144198375
 20
169.8271791383
 30
0.0
 40
4.247059938537323
100
AcDbArc
 50
153.4349488229
 51
206.5650511771
  0
ARC
  5
1EF
330
1EB
100
AcDbEntity
  8
VERMASSUNG
100
AcDbCircle
 10
141.4901386841
 20
169.8271791383
 30
0.0
 40
4.247059938537297
100
AcDbArc
 50
333.4349488229
 51
26.5650511771
  0
SOLID
  5
1F0
330
1EB
100
AcDbEntity
  8
VERMASSUNG
100
AcDbTrace
 10
76.4272792608
 20
167.9278361929
 30
0.0
 11
79.4272792608
 21
167.4778361929
 31
0.0
 12
79.4272792608
 22
168.3778361929
 32
0.0
 13
79.4272792608
 23
168.3778361929
 33
0.0
  0
SOLID
  5
1F1
330
1EB
100
AcDbEntity
  8
VERMASSUNG
100
AcDbTrace
 10
203.7772792608
 20
167.9278361929
 30
0.0
 11
200.7772792608
 21
168.3778361929
 31
0.0
 12
200.7772792608
 22
167.4778361929
 32
0.0
 13
200.7772792608
 23
167.4778361929
 33
0.0
  0
LINE
  5
1F2
330
1EB
100
AcDbEntity
  8
VERMASSUNG
100
AcDbLine
 10
76.4272792608
 20
128.8327949551
 30
0.0
 11
76.4272792608
 21
168.9278361929
 31
0.0
  0
LINE
  5
1F3
330
1EB
100
AcDbEntity
  8
VERMASSUNG
100
AcDbLine
 10
203.7772792608
 20
144.4256643581
 30
0.0
 11
203.7772792608
 21
168.9278361929
 31
0.0
  0
LINE
  5
1F4
330
1EB
100
AcDbEntity
  8
VERMASSUNG
100
AcDbLine
 10
76.4272792608
 20
167.9278361929
 30
0.0
 11
203.7772792608
 21
167.9278361929
 31
0.0
  0
MTEXT
  5
1F5
330
1EB
100
AcDbEntity
  8
VERMASSUNG
100
AcDbMText
 10
136.5032339467
 20
170.5059717888
 30
0.0
 40
2.0
 41
0.0
 71
     1
 72
     1
  1
127.35
  7
SLDTEXTSTYLE0
 73
     1
 44
1.0
  0
ENDBLK
  5
1ED
330
1EB
100
AcDbEntity
  8
0
100
AcDbBlockEnd
  0
BLOCK
  5
1F8
330
1F7
100
AcDbEntity
  8
0
100
AcDbBlockBegin
  2
_D_2
 70
     0
 10
0.0
 20
0.0
 30
0.0
  3
_D_2
  1

  0
SOLID
  5
1FA
330
1F7
100
AcDbEntity
  8
VERMASSUNG
100
AcDbTrace
 10
144.6772792608
 20
161.9278361929
 30
0.0
 11
147.6772792608
 21
161.4778361929
 31
0.0
 12
147.6772792608
 22
162.3778361929
 32
0.0
 13
147.6772792608
 23
162.3778361929
 33
0.0
  0
SOLID
  5
1FB
330
1F7
100
AcDbEntity
  8
VERMASSUNG
100
AcDbTrace
 10
203.7772792608
 20
161.9278361929
 30
0.0
 11
200.7772792608
 21
162.3778361929
 31
0.0
 12
200.7772792608
 22
161.4778361929
 32
0.0
 13
200.7772792608
 23
161.4778361929
 33
0.0
  0
LINE
  5
1FC
330
1F7
100
AcDbEntity
  8
VERMASSUNG
100
AcDbLine
 10
144.6772792608
 20
139.6506643581
 30
0.0
 11
144.6772792608
 21
162.9278361929
 31
0.0
  0
LINE
  5
1FD
330
1F7
100
AcDbEntity
  8
VERMASSUNG
100
AcDbLine
 10
203.7772792608
 20
144.4256643581
 30
0.0
 11
203.7772792608
 21
162.9278361929
 31
0.0
  0
LINE
  5
1FE
330
1F7
100
AcDbEntity
  8
VERMASSUNG
100
AcDbLine
 10
144.6772792608
 20
161.9278361929
 30
0.0
 11
203.7772792608
 21
161.9278361929
 31
0.0
  0
MTEXT
  5
1FF
330
1F7
100
AcDbEntity
  8
VERMASSUNG
100
AcDbMText
 10
172.027923957
 20
164.5059717888
 30
0.0
 40
2.0
 41
0.0
 71
     1
 72
     1
  1
59.1
  7
SLDTEXTSTYLE0
 73
     1
 44
1.0
  0
ENDBLK
  5
1F9
330
1F7
100
AcDbEntity
  8
0
100
AcDbBlockEnd
  0
BLOCK
  5
202
330
201
100
AcDbEntity
  8
0
100
AcDbBlockBegin
  2
_D_3
 70
     0
 10
0.0
 20
0.0
 30
0.0
  3
_D_3
  1

  0
SOLID
  5
204
330
201
100
AcDbEntity
  8
VERMASSUNG
100
AcDbTrace
 10
163.7272792608
 20
155.9278361929
 30
0.0
 11
166.7272792608
 21
155.4778361929
 31
0.0
 12
166.7272792608
 22
156.3778361929
 32
0.0
 13
166.7272792608
 23
156.3778361929
 33
0.0
  0
SOLID
  5
205
330
201
100
AcDbEntity
  8
VERMASSUNG
100
AcDbTrace
 10
203.7772792608
 20
155.9278361929
 30
0.0
 11
200.7772792608
 21
156.3778361929
 31
0.0
 12
200.7772792608
 22
155.4778361929
 32
0.0
 13
200.7772792608
 23
155.4778361929
 33
0.0
  0
LINE
  5
206
330
201
100
AcDbEntity
  8
VERMASSUNG
100
AcDbLine
 10
163.7272792608
 20
142.5970767142
 30
0.0
 11
163.7272792608
 21
156.9278361929
 31
0.0
  0
LINE
  5
207
330
201
100
AcDbEntity
  8
VERMASSUNG
100
AcDbLine
 10
203.7772792608
 20
144.4256643581
 30
0.0
 11
203.7772792608
 21
156.9278361929
 31
0.0
  0
LINE
  5
208
330
201
100
AcDbEntity
  8
VERMASSUNG
100
AcDbLine
 10
163.7272792608
 20
155.9278361929
 30
0.0
 11
203.7772792608
 21
155.9278361929
 31
0.0
  0
MTEXT
  5
209
330
201
100
AcDbEntity
  8
VERMASSUNG
100
AcDbMText
 10
180.5525151001
 20
158.5059717888
 30
0.0
 40
2.0
 41
0.0
 71
     1
 72
     1
  1
40.05
  7
SLDTEXTSTYLE0
 73
     1
 44
1.0
  0
ENDBLK
  5
203
330
201
100
AcDbEntity
  8
0
100
AcDbBlockEnd
  0
BLOCK
  5
20C
330
20B
100
AcDbEntity
  8
0
100
AcDbBlockBegin
  2
_D_4
 70
     0
 10
0.0
 20
0.0
 30
0.0
  3
_D_4
  1

  0
SOLID
  5
20E
330
20B
100
AcDbEntity
  8
VERMASSUNG
100
AcDbTrace
 10
211.8336821943
 20
144.9256643581
 30
0.0
 11
211.3836821943
 21
141.9256643581
 31
0.0
 12
212.2836821943
 22
141.9256643581
 32
0.0
 13
212.2836821943
 23
141.9256643581
 33
0.0
  0
SOLID
  5
20F
330
20B
100
AcDbEntity
  8
VERMASSUNG
100
AcDbTrace
 10
211.8336821943
 20
89.9256643581
 30
0.0
 11
212.2836821943
 21
92.9256643581
 31
0.0
 12
211.3836821943
 22
92.9256643581
 32
0.0
 13
211.3836821943
 23
92.9256643581
 33
0.0
  0
LINE
  5
210
330
20B
100
AcDbEntity
  8
VERMASSUNG
100
AcDbLine
 10
203.2772792608
 20
144.9256643581
 30
0.0
 11
212.8336821943
 21
144.9256643581
 31
0.0
  0
LINE
  5
211
330
20B
100
AcDbEntity
  8
VERMASSUNG
100
AcDbLine
 10
203.2772792608
 20
89.9256643581
 30
0.0
 11
212.8336821943
 21
89.9256643581
 31
0.0
  0
LINE
  5
212
330
20B
100
AcDbEntity
  8
VERMASSUNG
100
AcDbLine
 10
211.8336821943
 20
144.9256643581
 30
0.0
 11
211.8336821943
 21
89.9256643581
 31
0.0
  0
MTEXT
  5
213
330
20B
100
AcDbEntity
  8
VERMASSUNG
100
AcDbMText
 10
209.055546938
 20
111.0206647145
 30
0.0
 40
2.0
 41
0.0
 71
     1
 72
     1
  1
MBM
  7
SLDTEXTSTYLE0
 11
-7.044195017643634E-15
 21
1.0
 31
0.0
 73
     1
 44
1.0
  0
MTEXT
  5
214
330
20B
100
AcDbEntity
  8
VERMASSUNG
100
AcDbMText
 10
209.2555468893
 20
117.4206645529
 30
0.0
 40
2.0
 41
0.0
 71
     1
 72
     1
  1
%%c
  7
SLDTEXTSTYLE0
 11
-7.044195017643634E-15
 21
1.0
 31
0.0
 73
     1
 44
1.0
  0
MTEXT
  5
215
330
20B
100
AcDbEntity
  8
VERMASSUNG
100
AcDbMText
 10
209.055546938
 20
121.0306650328
 30
0.0
 40
2.0
 41
0.0
 71
     1
 72
     1
  1
55
  7
SLDTEXTSTYLE0
 11
-7.044195017643634E-15
 21
1.0
 31
0.0
 73
     1
 44
1.0
  0
ENDBLK
  5
20D
330
20B
100
AcDbEntity
  8
0
100
AcDbBlockEnd
  0
ENDSEC
  0
SECTION
  2
ENTITIES
  0
MTEXT
  5
78
330
1F
100
AcDbEntity
  8
KOPF_DÜNN
100
AcDbMText
 10
13.8892156294
 20
23.8442973028
 30
0.0
 40
3.0
 41
0.0
 71
     1
 72
     1
  1
102.425.551
  7
SLDTEXTSTYLE0
 73
     1
 44
1.0
  0
MTEXT
  5
79
330
1F
100
AcDbEntity
  8
VERMASSUNG
100
AcDbMText
 10
13.9329988022
 20
28.8834360957
 30
0.0
 40
3.0
 41
0.0
 71
     1
 72
     1
  1
Aufnahme_Master shank MBM 55
  7
SLDTEXTSTYLE0
 73
     1
 44
1.0
  0
MTEXT
  5
7A
330
1F
100
AcDbEntity
  8
VERMASSUNG
100
AcDbMText
 10
98.8601118557
 20
13.8365368761
 30
0.0
 40
2.0
 41
0.0
 71
     1
 72
     1
  1
Datum: 01.11.2007
  7
SLDTEXTSTYLE0
 73
     1
 44
1.0
  0
MTEXT
  5
7B
330
1F
100
AcDbEntity
  8
VERMASSUNG
100
AcDbMText
 10
13.933048693
 20
18.0482802738
 30
0.0
 40
2.0
 41
0.0
 71
     1
 72
     1
  1
DIN 69871 B 40
  7
SLDTEXTSTYLE0
 73
     1
 44
1.0
  0
MTEXT
  5
7C
330
1F
100
AcDbEntity
  8
VERMASSUNG
100
AcDbMText
 10
13.9808475933
 20
13.9090974274
 30
0.0
 40
2.0
 41
0.0
 71
     1
 72
     1
  1
Gewicht: 1302g
  7
SLDTEXTSTYLE0
 73
     1
 44
1.0
  0
LINE
  5
7D
330
1F
100
AcDbEntity
  8
0
  6
Continuous
 62
     7
370
    15
100
AcDbLine
 10
181.1206543118
 20
144.9256642091
 30
0.0
 11
179.6772794098
 21
142.4256647306
 31
0.0
  0
LINE
  5
7E
330
1F
100
AcDbEntity
  8
0
  6
Continuous
 62
     7
370
    15
100
AcDbLine
 10
179.6772794098
 20
92.4256639856
 30
0.0
 11
181.1206543118
 21
89.9256645071
 31
0.0
  0
LINE
  5
7F
330
1F
100
AcDbEntity
  8
0
  6
Continuous
 62
     7
370
    15
100
AcDbLine
 10
203.2772802979
 20
89.9256645071
 30
0.0
 11
203.7772775859
 21
90.4256636578
 31
0.0
  0
LINE
  5
80
330
1F
100
AcDbEntity
  8
0
  6
Continuous
 62
     7
370
    15
100
AcDbLine
 10
203.7772775859
 20
144.4256650585
 30
0.0
 11
203.2772802979
 21
144.9256642091
 31
0.0
  0
LINE
  5
81
330
1F
100
AcDbEntity
  8
0
  6
Continuous
 62
     7
370
    15
100
AcDbLine
 10
181.1206543118
 20
89.9256645071
 30
0.0
 11
203.2772802979
 21
89.9256645071
 31
0.0
  0
LINE
  5
82
330
1F
100
AcDbEntity
  8
0
  6
Continuous
 62
     7
370
    15
100
AcDbLine
 10
203.2772802979
 20
144.9256642091
 30
0.0
 11
181.1206543118
 21
144.9256642091
 31
0.0
  0
LINE
  5
83
330
1F
100
AcDbEntity
  8
0
  6
Continuous
 62
     7
370
    15
100
AcDbLine
 10
171.7532833338
 20
92.4256639856
 30
0.0
 11
179.6772794098
 21
92.4256639856
 31
0.0
  0
LINE
  5
84
330
1F
100
AcDbEntity
  8
0
  6
Continuous
 62
     7
370
    15
100
AcDbLine
 10
179.6772794098
 20
142.4256647306
 30
0.0
 11
171.7515175462
 21
142.4256647306
 31
0.0
  0
ARC
  5
85
330
1F
100
AcDbEntity
  8
0
  6
Continuous
 62
     7
370
    15
100
AcDbCircle
 10
147.2772792608
 20
94.6006643581
 30
0.0
 40
0.6000000000000085
100
AcDbArc
 50
0.0
 51
90.0
  0
ARC
  5
86
330
1F
100
AcDbEntity
  8
0
  6
Continuous
 62
     7
370
    15
100
AcDbCircle
 10
147.2772792608
 20
140.2506643581
 30
0.0
 40
0.6000000000000227
100
AcDbArc
 50
270.0
 51
0.0
  0
LINE
  5
87
330
1F
100
AcDbEntity
  8
0
  6
Continuous
 62
     7
370
    15
100
AcDbLine
 10
144.6772792608
 20
139.6506643224
 30
0.0
 11
77.2829705149
 21
129.8223277855
 31
0.0
  0
LINE
  5
88
330
1F
100
AcDbEntity
  8
0
  6
Continuous
 62
     7
370
    15
100
AcDbLine
 10
77.2829705149
 20
105.0290009308
 30
0.0
 11
144.6772792608
 21
95.2006643939
 31
0.0
  0
LINE
  5
89
330
1F
100
AcDbEntity
  8
0
  6
Continuous
 62
     7
370
    15
100
AcDbLine
 10
144.6772792608
 20
95.2006643939
 30
0.0
 11
147.2772792679
 21
95.2006643939
 31
0.0
  0
LINE
  5
8A
330
1F
100
AcDbEntity
  8
0
  6
Continuous
 62
     7
370
    15
100
AcDbLine
 10
147.2772792679
 20
139.6506643224
 30
0.0
 11
144.6772792608
 21
139.6506643224
 31
0.0
  0
ARC
  5
8B
330
1F
100
AcDbEntity
  8
0
  6
Continuous
 62
     7
370
    15
100
AcDbCircle
 10
77.4272792608
 20
106.0185337611
 30
0.0
 40
0.9999999999999938
100
AcDbArc
 50
180.0
 51
261.7028550302
  0
ARC
  5
8C
330
1F
100
AcDbEntity
  8
0
  6
Continuous
 62
     7
370
    15
100
AcDbCircle
 10
77.4272792608
 20
128.8327949551
 30
0.0
 40
1.000000000000008
100
AcDbArc
 50
98.2971449698
 51
180.0
  0
ARC
  5
8D
330
1F
100
AcDbEntity
  8
0
  6
Continuous
 62
     7
370
    15
100
AcDbCircle
 10
157.6772792608
 20
108.6786076088
 30
0.0
 40
1.500000000000014
100
AcDbArc
 50
191.5274417168
 51
337.3512168965
  0
SPLINE
  5
8E
330
1F
100
AcDbEntity
  8
0
  6
Continuous
 62
     7
370
    15
100
AcDbSpline
210
0.0
220
0.0
230
1.0
 70
     8
 71
     3
 72
    11
 73
     7
 74
     0
 42
0.000000001
 43
0.00000001
 40
0.0
 40
0.0
 40
0.0
 40
0.0
 40
0.1336650816451006
 40
0.4825477528966186
 40
0.8156360009535298
 40
1.0
 40
1.0
 40
1.0
 40
1.0
 10
187.6689211696643
 20
114.3318778204666
 30
0.0
 10
187.5893188480659
 20
114.4532198427266
 30
0.0
 10
187.3019444572385
 20
114.8912798016388
 30
0.0
 10
186.7650983524578
 20
115.7096301317079
 30
0.0
 10
186.1885300206868
 20
116.5885284418315
 30
0.0
 10
185.8790636569802
 20
117.0602720020763
 30
0.0
 10
185.7688033253211
 20
117.2283503702311
 30
0.0
  0
SPLINE
  5
8F
330
1F
100
AcDbEntity
  8
0
  6
Continuous
 62
     7
370
    15
100
AcDbSpline
210
0.0
220
0.0
230
1.0
 70
     8
 71
     3
 72
    11
 73
     7
 74
     0
 42
0.000000001
 43
0.00000001
 40
0.0
 40
0.0
 40
0.0
 40
0.0
 40
0.2164560516108436
 40
0.4403118602983388
 40
0.7519007518447485
 40
1.0
 40
1.0
 40
1.0
 40
1.0
 10
191.1273987263698
 20
114.5291920120762
 30
0.0
 10
190.8904887398425
 20
114.5156757777383
 30
0.0
 10
190.4085697723904
 20
114.4881812436687
 30
0.0
 10
189.514258947616
 20
114.4371587493135
 30
0.0
 10
188.5549509343605
 20
114.3824280502892
 30
0.0
 10
187.9410513387766
 20
114.3474035320605
 30
0.0
 10
187.6689211696643
 20
114.3318778204666
 30
0.0
  0
SPLINE
  5
90
330
1F
100
AcDbEntity
  8
0
  6
Continuous
 62
     7
370
    15
100
AcDbSpline
210
0.0
220
0.0
230
1.0
 70
     8
 71
     3
 72
    11
 73
     7
 74
     0
 42
0.000000001
 43
0.00000001
 40
0.0
 40
0.0
 40
0.0
 40
0.0
 40
0.2164556764472283
 40
0.4403116458734358
 40
0.7519009753238196
 40
0.9999999999999999
 40
0.9999999999999999
 40
0.9999999999999999
 40
0.9999999999999999
 10
192.6857584387321
 20
117.6229783459967
 30
0.0
 10
192.5790082055403
 20
117.4110510434406
 30
0.0
 10
192.3618581097538
 20
116.97995096362
 30
0.0
 10
191.9588900170685
 20
116.1799431134285
 30
0.0
 10
191.5266326345381
 20
115.321792852656
 30
0.0
 10
191.2500170611363
 20
114.7726267334714
 30
0.0
 10
191.1273987263698
 20
114.5291920120762
 30
0.0
  0
SPLINE
  5
91
330
1F
100
AcDbEntity
  8
0
  6
Continuous
 62
     7
370
    15
100
AcDbSpline
210
0.0
220
0.0
230
1.0
 70
     8
 71
     3
 72
    11
 73
     7
 74
     0
 42
0.000000001
 43
0.00000001
 40
0.0
 40
0.0
 40
0.0
 40
0.0
 40
0.1843640047135409
 40
0.5174522784113567
 40
0.8663349618384713
 40
1.0
 40
1.0
 40
1.0
 40
1.0
 10
190.7856405943889
 20
120.5194508957611
 30
0.0
 10
190.8959009266904
 20
120.3513725178402
 30
0.0
 10
191.2053673014117
 20
119.8796289161433
 30
0.0
 10
191.7819356237377
 20
119.0007305429439
 30
0.0
 10
192.3187816297113
 20
118.1823801100177
 30
0.0
 10
192.6061561124154
 20
117.7443202964065
 30
0.0
 10
192.6857584387321
 20
117.6229783459967
 30
0.0
  0
SPLINE
  5
92
330
1F
100
AcDbEntity
  8
0
  6
Continuous
 62
     7
370
    15
100
AcDbSpline
210
0.0
220
0.0
230
1.0
 70
     8
 71
     3
 72
    11
 73
     7
 74
     0
 42
0.000000001
 43
0.00000001
 40
0.0
 40
0.0
 40
0.0
 40
0.0
 40
0.2164552469485373
 40
0.4403112158865388
 40
0.7519005446573795
 40
1.0
 40
1.0
 40
1.0
 40
1.0
 10
185.7688033253211
 20
117.2283503702311
 30
0.0
 10
185.8755520383451
 20
117.4402777987441
 30
0.0
 10
186.0926992606395
 20
117.8713785691981
 30
0.0
 10
186.495668575647
 20
118.671385380339
 30
0.0
 10
186.9279244903004
 20
119.5295367996623
 30
0.0
 10
187.2045431958494
 20
120.0787021070586
 30
0.0
 10
187.3271630376834
 20
120.3221367041515
 30
0.0
  0
CIRCLE
  5
93
330
1F
100
AcDbEntity
  8
0
  6
Continuous
 62
     7
370
    15
100
AcDbCircle
 10
189.2272792608
 20
117.4256643581
 30
0.0
 40
3.50000000000002
  0
SPLINE
  5
94
330
1F
100
AcDbEntity
  8
0
  6
Continuous
 62
     7
370
    15
100
AcDbSpline
210
0.0
220
0.0
230
1.0
 70
     8
 71
     3
 72
    11
 73
     7
 74
     0
 42
0.000000001
 43
0.00000001
 40
0.0
 40
0.0
 40
0.0
 40
0.0
 40
0.2164550984225504
 40
0.4403109060255751
 40
0.7518997960624909
 40
1.0
 40
1.0
 40
1.0
 40
1.0
 10
187.3271630376834
 20
120.3221367041515
 30
0.0
 10
187.5640717530856
 20
120.3356529563176
 30
0.0
 10
188.0459892125693
 20
120.3631475881405
 30
0.0
 10
188.9402992052487
 20
120.4141699354268
 30
0.0
 10
189.8996080413313
 20
120.4689007984347
 30
0.0
 10
190.5135091639812
 20
120.5039252017613
 30
0.0
 10
190.7856405943889
 20
120.5194508957611
 30
0.0
  0
CIRCLE
  5
95
330
1F
100
AcDbEntity
  8
0
  6
Continuous
 62
     7
370
    15
100
AcDbCircle
 10
189.2272792608
 20
117.4256643581
 30
0.0
 40
5.500000000000011
  0
CIRCLE
  5
96
330
1F
100
AcDbEntity
  8
0
  6
Continuous
 62
     7
370
    15
100
AcDbCircle
 10
189.2272792608
 20
117.4256643581
 30
0.0
 40
6.000000000000004
  0
ARC
  5
97
330
1F
100
AcDbEntity
  8
0
  6
Continuous
 62
     7
370
    15
100
AcDbCircle
 10
189.2272792608
 20
117.4256643581
 30
0.0
 40
3.000000000000024
100
AcDbArc
 50
333.2653143622
 51
33.2653143622
  0
ARC
  5
98
330
1F
100
AcDbEntity
  8
0
  6
Continuous
 62
     7
370
    15
100
AcDbCircle
 10
189.2272792608
 20
117.4256643581
 30
0.0
 40
2.999999999999999
100
AcDbArc
 50
33.2653143622
 51
93.2653143622
  0
ARC
  5
99
330
1F
100
AcDbEntity
  8
0
  6
Continuous
 62
     7
370
    15
100
AcDbCircle
 10
189.2272792608
 20
117.4256643581
 30
0.0
 40
3.000000000000018
100
AcDbArc
 50
153.2653143622
 51
213.2653143622
  0
ARC
  5
9A
330
1F
100
AcDbEntity
  8
0
  6
Continuous
 62
     7
370
    15
100
AcDbCircle
 10
189.2272792608
 20
117.4256643581
 30
0.0
 40
2.999999999999999
100
AcDbArc
 50
93.2653143622
 51
153.2653143622
  0
ARC
  5
9B
330
1F
100
AcDbEntity
  8
0
  6
Continuous
 62
     7
370
    15
100
AcDbCircle
 10
189.2272792608
 20
117.4256643581
 30
0.0
 40
3.000000000000024
100
AcDbArc
 50
273.2653143622
 51
333.2653143622
  0
ARC
  5
9C
330
1F
100
AcDbEntity
  8
0
  6
Continuous
 62
     7
370
    15
100
AcDbCircle
 10
189.2272792608
 20
117.4256643581
 30
0.0
 40
3.000000000000018
100
AcDbArc
 50
213.2653143622
 51
273.2653143622
  0
SPLINE
  5
9D
330
1F
100
AcDbEntity
  8
0
  6
Continuous
 62
     7
370
    15
100
AcDbSpline
210
0.0
220
0.0
230
1.0
 70
     8
 71
     3
 72
    12
 73
     8
 74
     0
 42
0.000000001
 43
0.00000001
 40
0.0
 40
0.0
 40
0.0
 40
0.0
 40
0.249999999999999
 40
0.249999999999999
 40
0.499999999999998
 40
0.499999999999998
 40
1.0
 40
1.0
 40
1.0
 40
1.0
 10
163.1272792607803
 20
86.97757200947719
 30
0.0
 10
163.2228211709163
 20
86.9775720094772
 30
0.0
 10
163.314966112779
 20
86.99382567867339
 30
0.0
 10
163.471292389389
 20
87.04743409958688
 30
0.0
 10
163.5349605320089
 20
87.08384522486855
 30
0.0
 10
163.6838283774393
 20
87.20596886455505
 30
0.0
 10
163.7272792607803
 20
87.30112153999208
 30
0.0
 10
163.7272792607803
 20
87.39674799561176
 30
0.0
  0
SPLINE
  5
9E
330
1F
100
AcDbEntity
  8
0
  6
Continuous
 62
     7
370
    15
100
AcDbSpline
210
0.0
220
0.0
230
1.0
 70
    24
 71
     3
 72
    12
 73
     8
 74
     0
 42
0.000000001
 43
0.00000001
 40
0.0
 40
0.0
 40
0.0
 40
0.0
 40
0.4999999999999971
 40
0.4999999999999971
 40
0.7499999999999986
 40
0.7499999999999986
 40
1.0
 40
1.0
 40
1.0
 40
1.0
 10
163.7272792607803
 20
135.7756643581139
 30
0.0
 10
163.7272792607803
 20
135.7756643581139
 30
0.0
 10
163.6775992658253
 20
135.7756643581139
 30
0.0
 10
163.5216807088077
 20
135.7756643581139
 30
0.0
 10
163.4557996442316
 20
135.7756643581139
 30
0.0
 10
163.3031539887428
 20
135.7756643581139
 30
0.0
 10
163.2159040808819
 20
135.7756643581139
 30
0.0
 10
163.1272792607802
 20
135.7756643581139
 30
0.0
  0
LINE
  5
9F
330
1F
100
AcDbEntity
  8
0
  6
Continuous
 62
     7
370
    15
100
AcDbLine
 10
163.7272794962
 20
87.3967474627
 30
0.0
 11
163.7272794962
 21
135.77566392
 31
0.0
  0
SPLINE
  5
A0
330
1F
100
AcDbEntity
  8
0
  6
Continuous
 62
     7
370
    15
100
AcDbSpline
210
0.0
220
0.0
230
1.0
 70
     8
 71
     3
 72
     8
 73
     4
 74
     0
 42
0.000000001
 43
0.00000001
 40
0.0
 40
0.0
 40
0.0
 40
0.0
 40
1.0
 40
1.0
 40
1.0
 40
1.0
 10
153.8672792607803
 20
89.6088378986124
 30
0.0
 10
153.4831445121959
 20
88.9161964766682
 30
0.0
 10
153.098158235703
 20
88.22401030234451
 30
0.0
 10
152.7124896570766
 20
87.53221601150035
 30
0.0
  0
SPLINE
  5
A1
330
1F
100
AcDbEntity
  8
0
  6
Continuous
 62
     7
370
    15
100
AcDbSpline
210
0.0
220
0.0
230
1.0
 70
     8
 71
     3
 72
     8
 73
     4
 74
     0
 42
0.000000001
 43
0.00000001
 40
0.0
 40
0.0
 40
0.0
 40
0.0
 40
0.0011901715795577
 40
0.0011901715795577
 40
0.0011901715795577
 40
0.0011901715795577
 10
152.2554426187236
 20
86.97757200947719
 30
0.0
 10
152.4092888082195
 20
87.16213724716079
 30
0.0
 10
152.5616840758921
 20
87.34701260768941
 30
0.0
 10
152.7124896570766
 20
87.53221601150035
 30
0.0
  0
LINE
  5
A2
330
1F
100
AcDbEntity
  8
0
  6
Continuous
 62
     7
370
    15
100
AcDbLine
 10
152.2554426685
 20
86.9775722104
 30
0.0
 11
152.2554426685
 21
135.77566392
 31
0.0
  0
SPLINE
  5
A3
330
1F
100
AcDbEntity
  8
0
  6
Continuous
 62
     7
370
    15
100
AcDbSpline
210
0.0
220
0.0
230
1.0
 70
    24
 71
     3
 72
     8
 73
     4
 74
     0
 42
0.000000001
 43
0.00000001
 40
0.0
 40
0.0
 40
0.0
 40
0.0
 40
1.0
 40
1.0
 40
1.0
 40
1.0
 10
153.8672792607803
 20
135.7756643581139
 30
0.0
 10
153.3425467724184
 20
135.7756643581139
 30
0.0
 10
152.8038712881996
 20
135.7756643581139
 30
0.0
 10
152.2554426187236
 20
135.7756643581139
 30
0.0
  0
LINE
  5
A4
330
1F
100
AcDbEntity
  8
0
  6
Continuous
 62
     7
370
    15
100
AcDbLine
 10
153.8672789231
 20
89.6088378805
 30
0.0
 11
153.8672789231
 21
135.77566392
 31
0.0
  0
LINE
  5
A5
330
1F
100
AcDbEntity
  8
0
  6
Continuous
 62
     7
370
    15
100
AcDbLine
 10
159.2991163254
 20
107.6736441183
 30
0.0
 11
159.2991163254
 21
135.77566392
 31
0.0
  0
LINE
  5
A6
330
1F
100
AcDbEntity
  8
0
  6
Continuous
 62
     7
370
    15
100
AcDbLine
 10
163.1272786528
 20
135.77566392
 30
0.0
 11
159.2991163254
 21
135.77566392
 31
0.0
  0
LINE
  5
A7
330
1F
100
AcDbEntity
  8
0
  6
Continuous
 62
     7
370
    15
100
AcDbLine
 10
159.2991163254
 20
86.9775722104
 30
0.0
 11
163.1272786528
 21
86.9775722104
 31
0.0
  0
LINE
  5
A8
330
1F
100
AcDbEntity
  8
0
  6
Continuous
 62
     7
370
    15
100
AcDbLine
 10
159.2991163254
 20
86.9775722104
 30
0.0
 11
159.2991163254
 21
105.4741647395
 31
0.0
  0
SPLINE
  5
A9
330
1F
100
AcDbEntity
  8
0
  6
Continuous
 62
     7
370
    15
100
AcDbSpline
210
0.0
220
0.0
230
1.0
 70
     8
 71
     3
 72
    12
 73
     8
 74
     0
 42
0.000000001
 43
0.00000001
 40
0.0
 40
0.0
 40
0.0
 40
0.0
 40
0.2500000000000008
 40
0.2500000000000008
 40
0.5000000000000017
 40
0.5000000000000017
 40
1.0
 40
1.0
 40
1.0
 40
1.0
 10
159.299115902837
 20
105.4741645599068
 30
0.0
 10
159.4220633966326
 20
105.6321214086019
 30
0.0
 10
159.5156075997414
 20
105.8039547755794
 30
0.0
 10
159.6445469889036
 20
106.1756274852253
 30
0.0
 10
159.6770997462888
 20
106.3688159314165
 30
0.0
 10
159.6776360880226
 20
106.9571124696927
 30
0.0
 10
159.5450124310546
 20
107.3491307075815
 30
0.0
 10
159.299115902837
 20
107.6736442902902
 30
0.0
  0
LINE
  5
AA
330
1F
100
AcDbEntity
  8
0
  6
Continuous
 62
     7
370
    15
100
AcDbLine
 10
148.4772793249
 20
86.9775722104
 30
0.0
 11
152.2554426685
 21
86.9775722104
 31
0.0
  0
LINE
  5
AB
330
1F
100
AcDbEntity
  8
0
  6
Continuous
 62
     7
370
    15
100
AcDbLine
 10
152.2554426685
 20
135.77566392
 30
0.0
 11
148.4772793249
 21
135.77566392
 31
0.0
  0
LINE
  5
AC
330
1F
100
AcDbEntity
  8
0
  6
Continuous
 62
     7
370
    15
100
AcDbLine
 10
157.6872791395
 20
109.4243815469
 30
0.0
 11
157.6872791395
 21
135.77566392
 31
0.0
  0
SPLINE
  5
AD
330
1F
100
AcDbEntity
  8
0
  6
Continuous
 62
     7
370
    15
100
AcDbSpline
210
0.0
220
0.0
230
1.0
 70
    24
 71
     3
 72
     8
 73
     4
 74
     0
 42
0.000000001
 43
0.00000001
 40
0.0
 40
0.0
 40
0.0
 40
0.0
 40
1.0
 40
1.0
 40
1.0
 40
1.0
 10
159.299115902837
 20
135.7756643581139
 30
0.0
 10
158.750687233361
 20
135.7756643581139
 30
0.0
 10
158.2120117491422
 20
135.7756643581139
 30
0.0
 10
157.6872792607803
 20
135.7756643581139
 30
0.0
  0
SPLINE
  5
AE
330
1F
100
AcDbEntity
  8
0
  6
Continuous
 62
     7
370
    15
100
AcDbSpline
210
0.0
220
0.0
230
1.0
 70
     8
 71
     3
 72
    12
 73
     8
 74
     0
 42
0.000000001
 43
0.00000001
 40
0.0
 40
0.0
 40
0.0
 40
0.0
 40
0.2499999999999997
 40
0.2499999999999997
 40
0.4999999999999993
 40
0.4999999999999993
 40
1.0
 40
1.0
 40
1.0
 40
1.0
 10
159.299115902837
 20
107.6736442902902
 30
0.0
 10
159.1842198515764
 20
107.8933847253467
 30
0.0
 10
159.0574538351037
 20
108.0903530769685
 30
0.0
 10
158.7972389014851
 20
108.4440706498074
 30
0.0
 10
158.6637314435229
 20
108.6008959436796
 30
0.0
 10
158.2553331749347
 20
109.0274385145873
 30
0.0
 10
157.9716800399972
 20
109.2541306935425
 30
0.0
 10
157.6872792607804
 20
109.424381837938
 30
0.0
  0
SPLINE
  5
AF
330
1F
100
AcDbEntity
  8
0
  6
Continuous
 62
     7
370
    15
100
AcDbSpline
210
0.0
220
0.0
230
1.0
 70
     8
 71
     3
 72
    10
 73
     6
 74
     0
 42
0.000000001
 43
0.00000001
 40
0.0
 40
0.0
 40
0.0
 40
0.0
 40
0.5
 40
0.5
 40
1.0
 40
1.0
 40
1.0
 40
1.0
 10
148.0934238021275
 20
87.07393450864566
 30
0.0
 10
148.1421937751088
 20
87.04570650143764
 30
0.0
 10
148.1996458984112
 20
87.02161189719604
 30
0.0
 10
148.3302428013999
 20
86.98734842410349
 30
0.0
 10
148.4027324812421
 20
86.97757200947719
 30
0.0
 10
148.4772792607803
 20
86.97757200947719
 30
0.0
  0
SPLINE
  5
B0
330
1F
100
AcDbEntity
  8
0
  6
Continuous
 62
     7
370
    15
100
AcDbSpline
210
0.0
220
0.0
230
1.0
 70
     8
 71
     3
 72
    10
 73
     6
 74
     0
 42
0.000000001
 43
0.00000001
 40
0.0
 40
0.0
 40
0.0
 40
0.0
 40
0.5
 40
0.5
 40
1.0
 40
1.0
 40
1.0
 40
1.0
 10
148.0934238021275
 20
87.07393450864566
 30
0.0
 10
148.0353011420514
 20
87.14123966850747
 30
0.0
 10
147.9828979760479
 20
87.2213250555411
 30
0.0
 10
147.9039949545015
 20
87.40534449722986
 30
0.0
 10
147.8772792607803
 20
87.5105558546503
 30
0.0
 10
147.8772792607803
 20
87.61928920111094
 30
0.0
  0
LINE
  5
B1
330
1F
100
AcDbEntity
  8
0
  6
Continuous
 62
     7
370
    15
100
AcDbLine
 10
147.8772791799
 20
87.6192888546
 30
0.0
 11
147.8772791799
 21
135.77566392
 31
0.0
  0
SPLINE
  5
B2
330
1F
100
AcDbEntity
  8
0
  6
Continuous
 62
     7
370
    15
100
AcDbSpline
210
0.0
220
0.0
230
1.0
 70
    24
 71
     3
 72
    12
 73
     8
 74
     0
 42
0.000000001
 43
0.00000001
 40
0.0
 40
0.0
 40
0.0
 40
0.0
 40
0.25
 40
0.25
 40
0.5
 40
0.5
 40
1.0
 40
1.0
 40
1.0
 40
1.0
 10
148.4772792607803
 20
135.7756643581139
 30
0.0
 10
148.3888638834698
 20
135.7756643581139
 30
0.0
 10
148.3015934462992
 20
135.7756643581139
 30
0.0
 10
148.1491297215274
 20
135.7756643581139
 30
0.0
 10
148.083491109305
 20
135.7756643581139
 30
0.0
 10
147.926832708021
 20
135.7756643581139
 30
0.0
 10
147.8772792607803
 20
135.7756643581139
 30
0.0
 10
147.8772792607803
 20
135.7756643581139
 30
0.0
  0
SPLINE
  5
B3
330
1F
100
AcDbEntity
  8
0
  6
Continuous
 62
     7
370
    15
100
AcDbSpline
210
0.0
220
0.0
230
1.0
 70
     8
 71
     3
 72
    14
 73
    10
 74
     0
 42
0.000000001
 43
0.00000001
 40
0.0
 40
0.0
 40
0.0
 40
0.0
 40
0.2499999999999995
 40
0.2499999999999995
 40
0.4999999999999997
 40
0.4999999999999997
 40
0.7499999999999998
 40
0.7499999999999998
 40
1.0
 40
1.0
 40
1.0
 40
1.0
 10
157.6872792607803
 20
109.4786254877842
 30
0.0
 10
157.6872792607803
 20
109.515276355948
 30
0.0
 10
157.6659514720685
 20
109.5517431531969
 30
0.0
 10
157.5834930694119
 20
109.6168820077378
 30
0.0
 10
157.5223768775567
 20
109.6449531383287
 30
0.0
 10
157.3710737844945
 20
109.6787810200556
 30
0.0
 10
157.279695761104
 20
109.6842441614521
 30
0.0
 10
157.0873220480511
 20
109.6633182434395
 30
0.0
 10
156.9851417085721
 20
109.6367828180642
 30
0.0
 10
156.8872792607803
 20
109.5962966447829
 30
0.0
  0
SPLINE
  5
B4
330
1F
100
AcDbEntity
  8
0
  6
Continuous
 62
     7
370
    15
100
AcDbSpline
210
0.0
220
0.0
230
1.0
 70
     8
 71
     3
 72
    12
 73
     8
 74
     0
 42
0.000000001
 43
0.00000001
 40
0.0
 40
0.0
 40
0.0
 40
0.0
 40
0.5000000000000009
 40
0.5000000000000009
 40
0.7500000000000004
 40
0.7500000000000004
 40
1.0
 40
1.0
 40
1.0
 40
1.0
 10
157.6872792607803
 20
105.6656583397169
 30
0.0
 10
157.9714857953456
 20
105.4981941774232
 30
0.0
 10
158.2501815294494
 20
105.3865570779116
 30
0.0
 10
158.6595275726386
 20
105.3192438122722
 30
0.0
 10
158.7956669099582
 20
105.3140927722582
 30
0.0
 10
159.0569869589542
 20
105.3518587098776
 30
0.0
 10
159.182408141386
 20
105.3934084682219
 30
0.0
 10
159.2991159028374
 20
105.4741645599047
 30
0.0
  0
LINE
  5
B5
330
1F
100
AcDbEntity
  8
0
  6
Continuous
 62
     7
370
    15
100
AcDbLine
 10
157.6872791395
 20
105.7199016514
 30
0.0
 11
157.6872791395
 21
105.6656586307
 31
0.0
  0
SPLINE
  5
B6
330
1F
100
AcDbEntity
  8
0
  6
Continuous
 62
     7
370
    15
100
AcDbSpline
210
0.0
220
0.0
230
1.0
 70
     8
 71
     3
 72
    14
 73
    10
 74
     0
 42
0.000000001
 43
0.00000001
 40
0.0
 40
0.0
 40
0.0
 40
0.0
 40
0.25
 40
0.25
 40
0.5
 40
0.5
 40
0.75
 40
0.75
 40
1.0
 40
1.0
 40
1.0
 40
1.0
 10
156.8872792607767
 20
106.1431851680071
 30
0.0
 10
156.9846886807605
 20
106.1047704486129
 30
0.0
 10
157.0870129237742
 20
106.0670700438301
 30
0.0
 10
157.2790146093116
 20
105.996025258236
 30
0.0
 10
157.3704492389661
 20
105.961823796878
 30
0.0
 10
157.5222281062611
 20
105.8948273714726
 30
0.0
 10
157.5832049961757
 20
105.8616859031631
 30
0.0
 10
157.66622293474
 20
105.792008335513
 30
0.0
 10
157.6872792607803
 20
105.7562746243458
 30
0.0
 10
157.6872792607803
 20
105.719901989565
 30
0.0
  0
SPLINE
  5
B7
330
1F
100
AcDbEntity
  8
0
  6
Continuous
 62
     7
370
    15
100
AcDbSpline
210
0.0
220
0.0
230
1.0
 70
     8
 71
     3
 72
    22
 73
    18
 74
     0
 42
0.000000001
 43
0.00000001
 40
0.0
 40
0.0
 40
0.0
 40
0.0
 40
0.125
 40
0.125
 40
0.25
 40
0.25
 40
0.375
 40
0.375
 40
0.5
 40
0.5
 40
0.625
 40
0.625
 40
0.75
 40
0.75
 40
0.875
 40
0.875
 40
1.0
 40
1.0
 40
1.0
 40
1.0
 10
156.8872792607803
 20
109.5962966447829
 30
0.0
 10
156.707262566211
 20
109.5218228578064
 30
0.0
 10
156.5428307443408
 20
109.4243735958224
 30
0.0
 10
156.2444345105823
 20
109.1850041622583
 30
0.0
 10
156.1141307832175
 20
109.0451075501879
 30
0.0
 10
155.9009119995985
 20
108.7368559601279
 30
0.0
 10
155.817284142487
 20
108.5666927420088
 30
0.0
 10
155.7061532655687
 20
108.2161980072185
 30
0.0
 10
155.6773172707149
 20
108.0310730460673
 30
0.0
 10
155.677241328055
 20
107.6678661714502
 30
0.0
 10
155.7058999534821
 20
107.4844961577428
 30
0.0
 10
155.8170510465944
 20
107.1386050452495
 30
0.0
 10
155.9001181672382
 20
106.9730855179821
 30
0.0
 10
156.1138041253565
 20
106.6725457805783
 30
0.0
 10
156.2428111152806
 20
106.5386738592942
 30
0.0
 10
156.5424203947697
 20
106.3074270898899
 30
0.0
 10
156.7072630930309
 20
106.21417697323
 30
0.0
 10
156.8872792607803
 20
106.1431851680057
 30
0.0
  0
SPLINE
  5
B8
330
1F
100
AcDbEntity
  8
0
  6
Continuous
 62
     7
370
    15
100
AcDbSpline
210
0.0
220
0.0
230
1.0
 70
     8
 71
     3
 72
     8
 73
     4
 74
     0
 42
0.000000001
 43
0.00000001
 40
0.0
 40
0.0
 40
0.0
 40
0.0
 40
0.0011901715795577
 40
0.0011901715795577
 40
0.0011901715795577
 40
0.0011901715795577
 10
158.8420688644839
 20
87.53221601150035
 30
0.0
 10
158.9928744456685
 20
87.34701260768941
 30
0.0
 10
159.1452697133411
 20
87.16213724716079
 30
0.0
 10
159.299115902837
 20
86.97757200947719
 30
0.0
  0
SPLINE
  5
B9
330
1F
100
AcDbEntity
  8
0
  6
Continuous
 62
     7
370
    15
100
AcDbSpline
210
0.0
220
0.0
230
1.0
 70
     8
 71
     3
 72
     8
 73
     4
 74
     0
 42
0.000000001
 43
0.00000001
 40
0.0
 40
0.0
 40
0.0
 40
0.0
 40
1.0
 40
1.0
 40
1.0
 40
1.0
 10
158.8420688644839
 20
87.53221601150035
 30
0.0
 10
158.4564002858576
 20
88.22401030234451
 30
0.0
 10
158.0714140093646
 20
88.9161964766682
 30
0.0
 10
157.6872792607803
 20
89.60883789861239
 30
0.0
  0
LINE
  5
BA
330
1F
100
AcDbEntity
  8
0
  6
Continuous
 62
     7
370
    15
100
AcDbLine
 10
157.6872791395
 20
89.6088378805
 30
0.0
 11
157.6872791395
 21
105.6656586307
 31
0.0
  0
SPLINE
  5
BB
330
1F
100
AcDbEntity
  8
0
  6
Continuous
 62
     7
370
    15
100
AcDbSpline
210
0.0
220
0.0
230
1.0
 70
     8
 71
     3
 72
    12
 73
     8
 74
     0
 42
0.000000001
 43
0.00000001
 40
0.0
 40
0.0
 40
0.0
 40
0.0
 40
0.2500000000000015
 40
0.2500000000000015
 40
0.500000000000003
 40
0.500000000000003
 40
1.0
 40
1.0
 40
1.0
 40
1.0
 10
154.6672792607803
 20
90.60780650182713
 30
0.0
 10
154.5608774104228
 20
90.60780650182713
 30
0.0
 10
154.4535619990263
 20
90.58503573780862
 30
0.0
 10
154.258090407999
 20
90.49879279115652
 30
0.0
 10
154.1679082920615
 20
90.43411647068598
 30
0.0
 10
153.9496868053407
 20
90.20118714662918
 30
0.0
 10
153.86727926078
 20
89.98660190873817
 30
0.0
 10
153.8672792607803
 20
89.77358487030544
 30
0.0
  0
SPLINE
  5
BC
330
1F
100
AcDbEntity
  8
0
  6
Continuous
 62
     7
370
    15
100
AcDbSpline
210
0.0
220
0.0
230
1.0
 70
    24
 71
     3
 72
    14
 73
    10
 74
     0
 42
0.000000001
 43
0.00000001
 40
0.0
 40
0.0
 40
0.0
 40
0.0
 40
0.1250000000000007
 40
0.1250000000000007
 40
0.2500000000000014
 40
0.2500000000000014
 40
0.499999999999999
 40
0.499999999999999
 40
1.0
 40
1.0
 40
1.0
 40
1.0
 10
154.6672792607803
 20
135.7756643581139
 30
0.0
 10
154.6066619373627
 20
135.7756643581139
 30
0.0
 10
154.5445367892277
 20
135.7756643581139
 30
0.0
 10
154.4283191262062
 20
135.7756643581139
 30
0.0
 10
154.3737024865138
 20
135.7756643581139
 30
0.0
 10
154.2190261480057
 20
135.7756643581139
 30
0.0
 10
154.1329093992216
 20
135.7756643581139
 30
0.0
 10
153.931601818681
 20
135.7756643581139
 30
0.0
 10
153.8672792607803
 20
135.7756643581139
 30
0.0
 10
153.8672792607803
 20
135.7756643581139
 30
0.0
  0
SPLINE
  5
BD
330
1F
100
AcDbEntity
  8
0
  6
Continuous
 62
     7
370
    15
100
AcDbSpline
210
0.0
220
0.0
230
1.0
 70
    24
 71
     3
 72
    14
 73
    10
 74
     0
 42
0.000000001
 43
0.00000001
 40
0.0
 40
0.0
 40
0.0
 40
0.0
 40
0.25
 40
0.25
 40
0.5
 40
0.5
 40
0.75
 40
0.75
 40
1.0
 40
1.0
 40
1.0
 40
1.0
 10
157.6872792607803
 20
135.7756643581139
 30
0.0
 10
157.6872792607803
 20
135.7756643581139
 30
0.0
 10
157.6711976593205
 20
135.7756643581139
 30
0.0
 10
157.6057061460536
 20
135.7756643581139
 30
0.0
 10
157.5563981729263
 20
135.7756643581139
 30
0.0
 10
157.4218286512293
 20
135.7756643581139
 30
0.0
 10
157.336305575144
 20
135.7756643581139
 30
0.0
 10
157.129310079589
 20
135.7756643581139
 30
0.0
 10
157.0086164456454
 20
135.7756643581139
 30
0.0
 10
156.8872792607803
 20
135.7756643581139
 30
0.0
  0
LINE
  5
BE
330
1F
100
AcDbEntity
  8
0
  6
Continuous
 62
     7
370
    15
100
AcDbLine
 10
156.8872795671
 20
90.607806139
 30
0.0
 11
154.6672794268
 21
90.607806139
 31
0.0
  0
LINE
  5
BF
330
1F
100
AcDbEntity
  8
0
  6
Continuous
 62
     7
370
    15
100
AcDbLine
 10
156.8872795671
 20
135.77566392
 30
0.0
 11
154.6672794268
 21
135.77566392
 31
0.0
  0
LINE
  5
C0
330
1F
100
AcDbEntity
  8
0
  6
Continuous
 62
     7
370
    15
100
AcDbLine
 10
181.1206543118
 20
89.9256645071
 30
0.0
 11
181.1206543118
 21
144.9256642091
 31
0.0
  0
LINE
  5
C1
330
1F
100
AcDbEntity
  8
0
  6
Continuous
 62
     7
370
    15
100
AcDbLine
 10
179.6772794098
 20
92.4256639856
 30
0.0
 11
179.6772794098
 21
142.4256647306
 31
0.0
  0
LINE
  5
C2
330
1F
100
AcDbEntity
  8
0
  6
Continuous
 62
     7
370
    15
100
AcDbLine
 10
203.7772775859
 20
90.4256636578
 30
0.0
 11
203.7772775859
 21
144.4256650585
 31
0.0
  0
LINE
  5
C3
330
1F
100
AcDbEntity
  8
0
  6
Continuous
 62
     7
370
    15
100
AcDbLine
 10
203.2772802979
 20
89.9256645071
 30
0.0
 11
203.2772802979
 21
144.9256642091
 31
0.0
  0
SPLINE
  5
C4
330
1F
100
AcDbEntity
  8
0
  6
Continuous
 62
     7
370
    15
100
AcDbSpline
210
0.0
220
0.0
230
1.0
 70
     8
 71
     3
 72
    48
 73
    44
 74
     0
 42
0.000000001
 43
0.00000001
 40
0.0
 40
0.0
 40
0.0
 40
0.0
 40
0.0312500000000004
 40
0.0312500000000004
 40
0.0625000000000009
 40
0.0625000000000009
 40
0.1250000000000017
 40
0.1250000000000017
 40
0.1562500000000024
 40
0.1562500000000024
 40
0.1875000000000031
 40
0.1875000000000031
 40
0.2187500000000037
 40
0.2187500000000037
 40
0.2500000000000044
 40
0.2500000000000044
 40
0.312500000000005
 40
0.312500000000005
 40
0.3437500000000048
 40
0.3437500000000048
 40
0.3750000000000046
 40
0.3750000000000046
 40
0.4375000000000043
 40
0.4375000000000043
 40
0.5000000000000039
 40
0.5000000000000039
 40
0.5625000000000037
 40
0.5625000000000037
 40
0.6250000000000033
 40
0.6250000000000033
 40
0.687500000000003
 40
0.687500000000003
 40
0.7500000000000026
 40
0.7500000000000026
 40
0.8125000000000022
 40
0.8125000000000022
 40
0.8750000000000019
 40
0.8750000000000019
 40
0.9062500000000014
 40
0.9062500000000014
 40
0.937500000000001
 40
0.937500000000001
 40
1.0
 40
1.0
 40
1.0
 40
1.0
 10
196.4772792607803
 20
117.4256643581139
 30
0.0
 10
196.4772792607803
 20
117.201366499017
 30
0.0
 10
196.4641611939555
 20
116.9772258574566
 30
0.0
 10
196.4113817582892
 20
116.5292624950482
 30
0.0
 10
196.3712894626323
 20
116.3040199960987
 30
0.0
 10
196.2136832520666
 20
115.6442703426157
 30
0.0
 10
196.059663498739
 20
115.2228087217862
 30
0.0
 10
195.7592642383409
 20
114.6164632168131
 30
0.0
 10
195.6471136748081
 20
114.4184166710805
 30
0.0
 10
195.4050566484269
 20
114.0394684887735
 30
0.0
 10
195.2746349408411
 20
113.8573938107765
 30
0.0
 10
194.995856328739
 20
113.5072857413045
 30
0.0
 10
194.8474965608528
 20
113.3392547571908
 30
0.0
 10
194.5330800218516
 20
113.0169545660685
 30
0.0
 10
194.3669175233824
 20
112.8627826312972
 30
0.0
 10
193.8521981824303
 20
112.4291129121579
 30
0.0
 10
193.4845190940322
 20
112.174860514228
 30
0.0
 10
192.8977460793929
 20
111.8428483489276
 30
0.0
 10
192.6952775915207
 20
111.7400851110124
 30
0.0
 10
192.2846864916986
 20
111.5541487269291
 30
0.0
 10
192.0763161998891
 20
111.4707164735833
 30
0.0
 10
191.4422706828114
 20
111.2479655818092
 30
0.0
 10
191.0077339212671
 20
111.1359580486128
 30
0.0
 10
190.1146278320231
 20
110.985391305674
 30
0.0
 10
189.6630191230707
 20
110.9484806881247
 30
0.0
 10
188.7661852309504
 20
110.9498937377108
 30
0.0
 10
188.3183923854243
 20
110.9877601154603
 30
0.0
 10
187.4241063676134
 20
111.1411143828733
 30
0.0
 10
186.9884053545159
 20
111.2549550439098
 30
0.0
 10
186.1462047207166
 20
111.5537121595307
 30
0.0
 10
185.7385018527532
 20
111.7387823316839
 30
0.0
 10
184.9518373973137
 20
112.1864734128776
 30
0.0
 10
184.5854860978434
 20
112.4419319611874
 30
0.0
 10
183.9065912035794
 20
113.0167770380747
 30
0.0
 10
183.5925086936723
 20
113.3379435331202
 30
0.0
 10
183.031257066527
 20
114.045432998914
 30
0.0
 10
182.7915092113534
 20
114.4217339167262
 30
0.0
 10
182.4948498114964
 20
115.0213176753779
 30
0.0
 10
182.4065356396891
 20
115.2270769829075
 30
0.0
 10
182.2524216179948
 20
115.6512087665289
 30
0.0
 10
182.1866116941869
 20
115.8704524902523
 30
0.0
 10
182.0300774575089
 20
116.5286593121127
 30
0.0
 10
181.9772792607803
 20
116.9738724095915
 30
0.0
 10
181.9772792607803
 20
117.4256643581139
 30
0.0
  0
SPLINE
  5
C5
330
1F
100
AcDbEntity
  8
0
  6
Continuous
 62
     7
370
    15
100
AcDbSpline
210
0.0
220
0.0
230
1.0
 70
     8
 71
     3
 72
    52
 73
    48
 74
     0
 42
0.000000001
 43
0.00000001
 40
0.0
 40
0.0
 40
0.0
 40
0.0
 40
0.0312500000000007
 40
0.0312500000000007
 40
0.0625000000000013
 40
0.0625000000000013
 40
0.093750000000002
 40
0.093750000000002
 40
0.1250000000000026
 40
0.1250000000000026
 40
0.187500000000004
 40
0.187500000000004
 40
0.2500000000000054
 40
0.2500000000000054
 40
0.3125000000000069
 40
0.3125000000000069
 40
0.3750000000000083
 40
0.3750000000000083
 40
0.4375000000000097
 40
0.4375000000000097
 40
0.4687500000000099
 40
0.4687500000000099
 40
0.5000000000000101
 40
0.5000000000000101
 40
0.5625000000000097
 40
0.5625000000000097
 40
0.5937500000000094
 40
0.5937500000000094
 40
0.6250000000000092
 40
0.6250000000000092
 40
0.6875000000000079
 40
0.6875000000000079
 40
0.7187500000000072
 40
0.7187500000000072
 40
0.7500000000000064
 40
0.7500000000000064
 40
0.8125000000000051
 40
0.8125000000000051
 40
0.8437500000000041
 40
0.8437500000000041
 40
0.8750000000000031
 40
0.8750000000000031
 40
0.9375000000000016
 40
0.9375000000000016
 40
0.9687500000000008
 40
0.9687500000000008
 40
1.0
 40
1.0
 40
1.0
 40
1.0
 10
181.9772792607803
 20
117.4256643581139
 30
0.0
 10
181.9772792607803
 20
117.6516039952616
 30
0.0
 10
181.9908766412883
 20
117.8806126623031
 30
0.0
 10
182.0444377281589
 20
118.3302458747144
 30
0.0
 10
182.0842338551352
 20
118.5519032058744
 30
0.0
 10
182.1889498348343
 20
118.9891309718688
 30
0.0
 10
182.2538719626259
 20
119.2047008366279
 30
0.0
 10
182.4087672803008
 20
119.6297897102476
 30
0.0
 10
182.4990218844456
 20
119.8394605564067
 30
0.0
 10
182.8000544782329
 20
120.4447429926518
 30
0.0
 10
183.0424638122114
 20
120.8221782476266
 30
0.0
 10
183.6061337158154
 20
121.5283071865828
 30
0.0
 10
183.923578645425
 20
121.8514848798518
 30
0.0
 10
184.6164606126539
 20
122.4328914964855
 30
0.0
 10
184.9859202519985
 20
122.686474012963
 30
0.0
 10
185.7628374692294
 20
123.1239997680801
 30
0.0
 10
186.17231343387
 20
123.3088884811745
 30
0.0
 10
187.0261586206921
 20
123.6075994125687
 30
0.0
 10
187.4607415504724
 20
123.7182463807395
 30
0.0
 10
188.1235977909288
 20
123.829193173804
 30
0.0
 10
188.3463923310503
 20
123.8569401794073
 30
0.0
 10
188.7957202787618
 20
123.8937342486522
 30
0.0
 10
189.0233252605741
 20
123.9027388306459
 30
0.0
 10
189.7011430722718
 20
123.9008866978844
 30
0.0
 10
190.1476536392586
 20
123.8619204425931
 30
0.0
 10
190.809542451367
 20
123.7479324914171
 30
0.0
 10
191.0288514331235
 20
123.7006220479781
 30
0.0
 10
191.4647598169481
 20
123.5868202245967
 30
0.0
 10
191.6821618598835
 20
123.5199682708122
 30
0.0
 10
192.318046746858
 20
123.293726851039
 30
0.0
 10
192.7237190422015
 20
123.1083182108376
 30
0.0
 10
193.304738483409
 20
122.7774606356226
 30
0.0
 10
193.4938003939295
 20
122.6583256283499
 30
0.0
 10
193.8622773034858
 20
122.4014086251571
 30
0.0
 10
194.042011067182
 20
122.2631919865767
 30
0.0
 10
194.5542407764073
 20
121.8287737197345
 30
0.0
 10
194.8641749785638
 20
121.5104304915039
 30
0.0
 10
195.27957406823
 20
120.9872089704034
 30
0.0
 10
195.4097302444813
 20
120.8051292795042
 30
0.0
 10
195.6521779813932
 20
120.4243740101109
 30
0.0
 10
195.7634696070661
 20
120.2269650333176
 30
0.0
 10
196.0609440294624
 20
119.6247302682962
 30
0.0
 10
196.2139298922212
 20
119.2057591182273
 30
0.0
 10
196.3708856179492
 20
118.5491322842942
 30
0.0
 10
196.4111319117118
 20
118.3238217770126
 30
0.0
 10
196.4641567241142
 20
117.8745040555889
 30
0.0
 10
196.4772792607803
 20
117.6500055712015
 30
0.0
 10
196.4772792607803
 20
117.4256643581138
 30
0.0
  0
SPLINE
  5
C6
330
1F
100
AcDbEntity
  8
0
  6
Continuous
 62
     7
370
    15
100
AcDbSpline
210
0.0
220
0.0
230
1.0
 70
     8
 71
     3
 72
    12
 73
     8
 74
     0
 42
0.000000001
 43
0.00000001
 40
0.0
 40
0.0
 40
0.0
 40
0.0
 40
0.5000000000000013
 40
0.5000000000000013
 40
0.7500000000000007
 40
0.7500000000000007
 40
1.0
 40
1.0
 40
1.0
 40
1.0
 10
157.6872792607803
 20
89.7735848703068
 30
0.0
 10
157.6872792607803
 20
89.98640742923969
 30
0.0
 10
157.6053539029605
 20
90.20066393587766
 30
0.0
 10
157.3864320994922
 20
90.43435356432752
 30
0.0
 10
157.2963848080011
 20
90.49883838917151
 30
0.0
 10
157.1009713399813
 20
90.58503800032709
 30
0.0
 10
156.9936883729975
 20
90.60780650182713
 30
0.0
 10
156.8872792607803
 20
90.60780650182713
 30
0.0
  0
SPLINE
  5
C7
330
1F
100
AcDbEntity
  8
0
  6
Continuous
 62
     7
370
    15
100
AcDbSpline
210
0.0
220
0.0
230
1.0
 70
    24
 71
     3
 72
    18
 73
    14
 74
     0
 42
0.000000001
 43
0.00000001
 40
0.0
 40
0.0
 40
0.0
 40
0.0
 40
0.0312499999999996
 40
0.0312499999999996
 40
0.0624999999999992
 40
0.0624999999999992
 40
0.1249999999999985
 40
0.1249999999999985
 40
0.2499999999999982
 40
0.2499999999999982
 40
0.4999999999999988
 40
0.4999999999999988
 40
1.0
 40
1.0
 40
1.0
 40
1.0
 10
164.7272792607803
 20
142.2256643581138
 30
0.0
 10
164.6904251550217
 20
142.2256643581138
 30
0.0
 10
164.6550226670617
 20
142.2256643581138
 30
0.0
 10
164.5970052734337
 20
142.2256643581138
 30
0.0
 10
164.5729312696453
 20
142.2256643581138
 30
0.0
 10
164.5079121444966
 20
142.2256643581139
 30
0.0
 10
164.4734876350844
 20
142.2256643581138
 30
0.0
 10
164.380909338098
 20
142.2256643581138
 30
0.0
 10
164.3326996577172
 20
142.2256643581138
 30
0.0
 10
164.2003248339506
 20
142.2256643581138
 30
0.0
 10
164.1314272046201
 20
142.2256643581138
 30
0.0
 10
163.948117527783
 20
142.2256643581138
 30
0.0
 10
163.8593586881617
 20
142.2256643581138
 30
0.0
 10
163.8002396512348
 20
142.2256643581138
 30
0.0
  0
SPLINE
  5
C8
330
1F
100
AcDbEntity
  8
0
  6
Continuous
 62
     7
370
    15
100
AcDbSpline
210
0.0
220
0.0
230
1.0
 70
     8
 71
     3
 72
    10
 73
     6
 74
     0
 42
0.000000001
 43
0.00000001
 40
0.0
 40
0.0
 40
0.0
 40
0.0
 40
0.5
 40
0.5
 40
1.0
 40
1.0
 40
1.0
 40
1.0
 10
164.7272792607803
 20
93.73605693207152
 30
0.0
 10
164.549838508867
 20
93.74354716813674
 30
0.0
 10
164.3732193453544
 20
93.69775874358427
 30
0.0
 10
164.06976812104
 20
93.51628846381041
 30
0.0
 10
163.9437451383194
 20
93.38079871097682
 30
0.0
 10
163.859281081411
 20
93.22566435811405
 30
0.0
  0
SPLINE
  5
C9
330
1F
100
AcDbEntity
  8
0
  6
Continuous
 62
     7
370
    15
100
AcDbSpline
210
0.0
220
0.0
230
1.0
 70
     8
 71
     3
 72
     8
 73
     4
 74
     0
 42
0.000000001
 43
0.00000001
 40
0.0
 40
0.0
 40
0.0
 40
0.0
 40
1.0
 40
1.0
 40
1.0
 40
1.0
 10
163.7272792607803
 20
135.8451513216533
 30
0.0
 10
163.7272792607803
 20
135.8220124820664
 30
0.0
 10
163.7276820921989
 20
135.7988501924541
 30
0.0
 10
163.7284893815892
 20
135.7756643581139
 30
0.0
  0
SPLINE
  5
CA
330
1F
100
AcDbEntity
  8
0
  6
Continuous
 62
     7
370
    15
100
AcDbSpline
210
0.0
220
0.0
230
1.0
 70
     8
 71
     3
 72
    14
 73
    10
 74
     0
 42
0.000000001
 43
0.00000001
 40
0.0
 40
0.0
 40
0.0
 40
0.0
 40
0.0632946074895864
 40
0.2483034408601601
 40
0.4246496233424851
 40
0.6058174355269424
 40
0.7878172561839285
 40
0.9747088455670364
 40
1.0
 40
1.0
 40
1.0
 40
1.0
 10
171.7532833338041
 20
92.4333771991478
 30
0.0
 10
171.7597275893656
 20
92.43130607302577
 30
0.0
 10
171.7850082711354
 20
92.42318108792908
 30
0.0
 10
171.6075758378936
 20
92.48031103296401
 30
0.0
 10
171.2282743459356
 20
92.59831842565663
 30
0.0
 10
170.6465688763926
 20
92.76938006607918
 30
0.0
 10
169.8771312165359
 20
92.97577121797069
 30
0.0
 10
169.2095686387604
 20
93.13353484276915
 30
0.0
 10
168.8180077576522
 20
93.21585261040588
 30
0.0
 10
168.7713355988521
 20
93.22566448924408
 30
0.0
  0
SPLINE
  5
CB
330
1F
100
AcDbEntity
  8
0
  6
Continuous
 62
     7
370
    15
100
AcDbSpline
210
0.0
220
0.0
230
1.0
 70
     8
 71
     3
 72
    12
 73
     8
 74
     0
 42
0.000000001
 43
0.00000001
 40
0.0
 40
0.0
 40
0.0
 40
0.0
 40
0.4999999999999991
 40
0.4999999999999991
 40
0.7499999999999996
 40
0.7499999999999996
 40
1.0
 40
1.0
 40
1.0
 40
1.0
 10
168.77133516848
 20
93.22566435811386
 30
0.0
 10
168.194452515919
 20
93.34590519909318
 30
0.0
 10
167.5655716197051
 20
93.45752288259746
 30
0.0
 10
166.5412507244823
 20
93.59288462540167
 30
0.0
 10
166.1860228217177
 20
93.63250090352889
 30
0.0
 10
165.4668514623971
 20
93.69603480511022
 30
0.0
 10
165.1005530712226
 20
93.72030007279864
 30
0.0
 10
164.7272792607803
 20
93.73605693207153
 30
0.0
  0
LINE
  5
CC
330
1F
100
AcDbEntity
  8
0
  6
Continuous
 62
     7
370
    15
100
AcDbLine
 10
171.1328511358
 20
142.2256650704
 30
0.0
 11
164.7272796601
 21
142.2256650704
 31
0.0
  0
SPLINE
  5
CD
330
1F
100
AcDbEntity
  8
0
  6
Continuous
 62
     7
370
    15
100
AcDbSpline
210
0.0
220
0.0
230
1.0
 70
     8
 71
     3
 72
    10
 73
     6
 74
     0
 42
0.000000001
 43
0.00000001
 40
0.0
 40
0.0
 40
0.0
 40
0.0
 40
0.2002212969593108
 40
0.6082979763038335
 40
1.0
 40
1.0
 40
1.0
 40
1.0
 10
171.7515175462026
 20
142.4173815476643
 30
0.0
 10
171.7560929014579
 20
142.4188669263511
 30
0.0
 10
171.7699934174617
 20
142.4233796972851
 30
0.0
 10
171.5764277362145
 20
142.3605531293576
 30
0.0
 10
171.2786779612894
 20
142.270009829381
 30
0.0
 10
171.1328511357564
 20
142.2256650703894
 30
0.0
  0
LINE
  5
CE
330
1F
100
AcDbEntity
  8
0
  6
Continuous
 62
     7
370
    15
100
AcDbLine
 10
144.6772792608
 20
95.2006643939
 30
0.0
 11
144.6772792608
 21
139.6506643224
 31
0.0
  0
SPLINE
  5
CF
330
1F
100
AcDbEntity
  8
0
  6
Continuous
 62
     7
370
    15
100
AcDbSpline
210
0.0
220
0.0
230
1.0
 70
     8
 71
     3
 72
    12
 73
     8
 74
     0
 42
0.000000001
 43
0.00000001
 40
0.0
 40
0.0
 40
0.0
 40
0.0
 40
0.5000000000000003
 40
0.5000000000000003
 40
0.7500000000000001
 40
0.7500000000000001
 40
1.0
 40
1.0
 40
1.0
 40
1.0
 10
147.8772792607803
 20
142.5970767141975
 30
0.0
 10
147.8772792607803
 20
142.7736931107192
 30
0.0
 10
147.9266198956021
 20
142.948750282093
 30
0.0
 10
148.0828354538902
 20
143.1627004945856
 30
0.0
 10
148.148138033791
 20
143.2240331374325
 30
0.0
 10
148.3019070517513
 20
143.3114212354038
 30
0.0
 10
148.3889201583618
 20
143.3358939981614
 30
0.0
 10
148.4772792607803
 20
143.3358939981614
 30
0.0
  0
LINE
  5
D0
330
1F
100
AcDbEntity
  8
0
  6
Continuous
 62
     7
370
    15
100
AcDbLine
 10
148.4772793249
 20
143.3358947116
 30
0.0
 11
152.2554426685
 21
143.3358947116
 31
0.0
  0
SPLINE
  5
D1
330
1F
100
AcDbEntity
  8
0
  6
Continuous
 62
     7
370
    15
100
AcDbSpline
210
0.0
220
0.0
230
1.0
 70
     8
 71
     3
 72
     8
 73
     4
 74
     0
 42
0.000000001
 43
0.00000001
 40
0.0
 40
0.0
 40
0.0
 40
0.0
 40
1.0
 40
1.0
 40
1.0
 40
1.0
 10
152.2554426187236
 20
143.3358939981614
 30
0.0
 10
152.8043873969204
 20
142.1707978858477
 30
0.0
 10
153.3429977714372
 20
141.0016395690233
 30
0.0
 10
153.8672792607803
 20
139.8278034139724
 30
0.0
  0
SPLINE
  5
D2
330
1F
100
AcDbEntity
  8
0
  6
Continuous
 62
     7
370
    15
100
AcDbSpline
210
0.0
220
0.0
230
1.0
 70
     8
 71
     3
 72
    14
 73
    10
 74
     0
 42
0.000000001
 43
0.00000001
 40
0.0
 40
0.0
 40
0.0
 40
0.0
 40
0.25
 40
0.25
 40
0.5
 40
0.5
 40
0.75
 40
0.75
 40
1.0
 40
1.0
 40
1.0
 40
1.0
 10
153.8672792607803
 20
139.6229051776392
 30
0.0
 10
153.8672792607803
 20
139.5009698424576
 30
0.0
 10
153.8833236283203
 20
139.3814156019562
 30
0.0
 10
153.9490529704996
 20
139.1472996188129
 30
0.0
 10
153.9982603407479
 20
139.0353670786782
 30
0.0
 10
154.1332733216468
 20
138.8329672694414
 30
0.0
 10
154.2191933902531
 20
138.7431020758784
 30
0.0
 10
154.4257081922585
 20
138.6127675662682
 30
0.0
 10
154.5458469046295
 20
138.5746005015704
 30
0.0
 10
154.6672792607803
 20
138.5746005015704
 30
0.0
  0
LINE
  5
D3
330
1F
100
AcDbEntity
  8
0
  6
Continuous
 62
     7
370
    15
100
AcDbLine
 10
154.6672794268
 20
138.5746011811
 30
0.0
 11
156.8872795671
 21
138.5746011811
 31
0.0
  0
SPLINE
  5
D4
330
1F
100
AcDbEntity
  8
0
  6
Continuous
 62
     7
370
    15
100
AcDbSpline
210
0.0
220
0.0
230
1.0
 70
     8
 71
     3
 72
    12
 73
     8
 74
     0
 42
0.000000001
 43
0.00000001
 40
0.0
 40
0.0
 40
0.0
 40
0.0
 40
0.2500000000000015
 40
0.2500000000000015
 40
0.500000000000003
 40
0.500000000000003
 40
1.0
 40
1.0
 40
1.0
 40
1.0
 10
156.8872792607803
 20
138.5746005015703
 30
0.0
 10
157.0093612582686
 20
138.5746005015703
 30
0.0
 10
157.1299518007543
 20
138.6133268577441
 30
0.0
 10
157.3354470844541
 20
138.7432904454903
 30
0.0
 10
157.4209635674066
 20
138.8324966820371
 30
0.0
 10
157.6243579189508
 20
139.1373732195827
 30
0.0
 10
157.6872792607803
 20
139.3801438336848
 30
0.0
 10
157.6872792607803
 20
139.6229051776392
 30
0.0
  0
LINE
  5
D5
330
1F
100
AcDbEntity
  8
0
  6
Continuous
 62
     7
370
    15
100
AcDbLine
 10
157.6872791395
 20
139.6229053217
 30
0.0
 11
157.6872791395
 21
139.8278037387
 31
0.0
  0
SPLINE
  5
D6
330
1F
100
AcDbEntity
  8
0
  6
Continuous
 62
     7
370
    15
100
AcDbSpline
210
0.0
220
0.0
230
1.0
 70
     8
 71
     3
 72
     8
 73
     4
 74
     0
 42
0.000000001
 43
0.00000001
 40
0.0
 40
0.0
 40
0.0
 40
0.0
 40
1.0
 40
1.0
 40
1.0
 40
1.0
 10
157.6872792607803
 20
139.8278034139724
 30
0.0
 10
158.2120703802762
 20
141.0027806016771
 30
0.0
 10
158.750586631459
 20
142.1716797694152
 30
0.0
 10
159.299115902837
 20
143.3358939981614
 30
0.0
  0
LINE
  5
D7
330
1F
100
AcDbEntity
  8
0
  6
Continuous
 62
     7
370
    15
100
AcDbLine
 10
159.2991163254
 20
143.3358947116
 30
0.0
 11
163.1272786528
 21
143.3358947116
 31
0.0
  0
SPLINE
  5
D8
330
1F
100
AcDbEntity
  8
0
  6
Continuous
 62
     7
370
    15
100
AcDbSpline
210
0.0
220
0.0
230
1.0
 70
     8
 71
     3
 72
    14
 73
    10
 74
     0
 42
0.000000001
 43
0.00000001
 40
0.0
 40
0.0
 40
0.0
 40
0.0
 40
0.25
 40
0.25
 40
0.5
 40
0.5
 40
0.75
 40
0.75
 40
1.0
 40
1.0
 40
1.0
 40
1.0
 10
163.1272792607803
 20
143.3358939981614
 30
0.0
 10
163.2157017989028
 20
143.3358939981614
 30
0.0
 10
163.3037557885958
 20
143.310821647702
 30
0.0
 10
163.4555855524672
 20
143.2244795827307
 30
0.0
 10
163.521428497031
 20
143.1629363282178
 30
0.0
 10
163.6252275575765
 20
143.0211085819669
 30
0.0
 10
163.6636996670512
 20
142.9410599919969
 30
0.0
 10
163.7149223303257
 20
142.7720474953232
 30
0.0
 10
163.7272792607803
 20
142.6852681884535
 30
0.0
 10
163.7272792607803
 20
142.5970767141975
 30
0.0
  0
LINE
  5
D9
330
1F
100
AcDbEntity
  8
0
  6
Continuous
 62
     7
370
    15
100
AcDbLine
 10
163.7272794962
 20
142.5970765131
 30
0.0
 11
163.7272794962
 21
135.84515176
 31
0.0
  0
LINE
  5
DA
330
1F
100
AcDbEntity
  8
0
  6
Continuous
 62
     7
370
    15
100
AcDbLine
 10
153.8672789231
 20
139.8278037387
 30
0.0
 11
153.8672789231
 21
139.6229053217
 31
0.0
  0
LINE
  5
DB
330
1F
100
AcDbEntity
  8
0
  6
Continuous
 62
     7
370
    15
100
AcDbLine
 10
147.8772791799
 20
142.5970765131
 30
0.0
 11
147.8772791799
 21
135.77566392
 31
0.0
  0
SPLINE
  5
DC
330
1F
100
AcDbEntity
  8
0
  6
Continuous
 62
     7
370
    15
100
AcDbSpline
210
0.0
220
0.0
230
1.0
 70
     8
 71
     3
 72
    12
 73
     8
 74
     0
 42
0.000000001
 43
0.00000001
 40
0.0
 40
0.0
 40
0.0
 40
0.0
 40
0.5
 40
0.5
 40
0.75
 40
0.75
 40
1.0
 40
1.0
 40
1.0
 40
1.0
 10
157.6872792607803
 20
145.0777438459209
 30
0.0
 10
157.6872792607803
 20
144.8646064442694
 30
0.0
 10
157.6046368456323
 20
144.6496269195317
 30
0.0
 10
157.386053434822
 20
144.416707850646
 30
0.0
 10
157.2969634818412
 20
144.3528409408254
 30
0.0
 10
157.1015581639437
 20
144.2664547864437
 30
0.0
 10
156.9950341170004
 20
144.2435222144006
 30
0.0
 10
156.8872792607803
 20
144.2435222144006
 30
0.0
  0
SPLINE
  5
DD
330
1F
100
AcDbEntity
  8
0
  6
Continuous
 62
     7
370
    15
100
AcDbSpline
210
0.0
220
0.0
230
1.0
 70
     8
 71
     3
 72
    12
 73
     8
 74
     0
 42
0.000000001
 43
0.00000001
 40
0.0
 40
0.0
 40
0.0
 40
0.0
 40
0.4999999999999986
 40
0.4999999999999986
 40
0.7499999999999992
 40
0.7499999999999992
 40
1.0
 40
1.0
 40
1.0
 40
1.0
 10
163.7272792607803
 20
147.4362154915551
 30
0.0
 10
163.7272792607803
 20
147.5565425246081
 30
0.0
 10
163.6734844491873
 20
147.67464009809
 30
0.0
 10
163.512560879221
 20
147.814282840529
 30
0.0
 10
163.4478094181185
 20
147.8525587939234
 30
0.0
 10
163.2955892348008
 20
147.9073986235579
 30
0.0
 10
163.2127817192758
 20
147.9220004373294
 30
0.0
 10
163.1272792607803
 20
147.9220004373294
 30
0.0
  0
LINE
  5
DE
330
1F
100
AcDbEntity
  8
0
  6
Continuous
 62
     7
370
    15
100
AcDbLine
 10
163.7272794962
 20
142.5970765131
 30
0.0
 11
163.7272794962
 21
147.4362155723
 31
0.0
  0
LINE
  5
DF
330
1F
100
AcDbEntity
  8
0
  6
Continuous
 62
     7
370
    15
100
AcDbLine
 10
163.1272786528
 20
147.9220008778
 30
0.0
 11
159.2991163254
 21
147.9220008778
 31
0.0
  0
LINE
  5
E0
330
1F
100
AcDbEntity
  8
0
  6
Continuous
 62
     7
370
    15
100
AcDbLine
 10
159.2991163254
 20
143.3358947116
 30
0.0
 11
159.2991163254
 21
147.9220008778
 31
0.0
  0
LINE
  5
E1
330
1F
100
AcDbEntity
  8
0
  6
Continuous
 62
     7
370
    15
100
AcDbLine
 10
156.8872795671
 20
144.2435225773
 30
0.0
 11
154.6672794268
 21
144.2435225773
 31
0.0
  0
SPLINE
  5
E2
330
1F
100
AcDbEntity
  8
0
  6
Continuous
 62
     7
370
    15
100
AcDbSpline
210
0.0
220
0.0
230
1.0
 70
     8
 71
     3
 72
     8
 73
     4
 74
     0
 42
0.000000001
 43
0.00000001
 40
0.0
 40
0.0
 40
0.0
 40
0.0
 40
0.0012409313617635
 40
0.0012409313617635
 40
0.0012409313617635
 40
0.0012409313617635
 10
152.8133245744843
 20
147.1382025143783
 30
0.0
 10
152.6281007349283
 20
147.3997300578555
 30
0.0
 10
152.4421155469558
 20
147.6609885596309
 30
0.0
 10
152.2554426187235
 20
147.9220004373294
 30
0.0
  0
SPLINE
  5
E3
330
1F
100
AcDbEntity
  8
0
  6
Continuous
 62
     7
370
    15
100
AcDbSpline
210
0.0
220
0.0
230
1.0
 70
     8
 71
     3
 72
     8
 73
     4
 74
     0
 42
0.000000001
 43
0.00000001
 40
0.0
 40
0.0
 40
0.0
 40
0.0
 40
1.0
 40
1.0
 40
1.0
 40
1.0
 10
153.8672792607803
 20
145.2424908176153
 30
0.0
 10
153.5166270204527
 20
145.8747592266657
 30
0.0
 10
153.1652685973926
 20
146.5066411263645
 30
0.0
 10
152.8133245744843
 20
147.1382025143783
 30
0.0
  0
LINE
  5
E4
330
1F
100
AcDbEntity
  8
0
  6
Continuous
 62
     7
370
    15
100
AcDbLine
 10
152.2554426685
 20
143.3358947116
 30
0.0
 11
152.2554426685
 21
147.9220008778
 31
0.0
  0
LINE
  5
E5
330
1F
100
AcDbEntity
  8
0
  6
Continuous
 62
     7
370
    15
100
AcDbLine
 10
153.8672789231
 20
139.8278037387
 30
0.0
 11
153.8672789231
 21
145.2424908358
 31
0.0
  0
SPLINE
  5
E6
330
1F
100
AcDbEntity
  8
0
  6
Continuous
 62
     7
370
    15
100
AcDbSpline
210
0.0
220
0.0
230
1.0
 70
     8
 71
     3
 72
     8
 73
     4
 74
     0
 42
0.000000001
 43
0.00000001
 40
0.0
 40
0.0
 40
0.0
 40
0.0
 40
1.0
 40
1.0
 40
1.0
 40
1.0
 10
158.7412339470763
 20
147.1382025143783
 30
0.0
 10
158.3892899241681
 20
146.5066411263645
 30
0.0
 10
158.0379315011078
 20
145.8747592266657
 30
0.0
 10
157.6872792607803
 20
145.2424908176153
 30
0.0
  0
SPLINE
  5
E7
330
1F
100
AcDbEntity
  8
0
  6
Continuous
 62
     7
370
    15
100
AcDbSpline
210
0.0
220
0.0
230
1.0
 70
     8
 71
     3
 72
     8
 73
     4
 74
     0
 42
0.000000001
 43
0.00000001
 40
0.0
 40
0.0
 40
0.0
 40
0.0
 40
0.0012409313617635
 40
0.0012409313617635
 40
0.0012409313617635
 40
0.0012409313617635
 10
159.299115902837
 20
147.9220004373294
 30
0.0
 10
159.1124429746048
 20
147.6609885596309
 30
0.0
 10
158.9264577866323
 20
147.3997300578555
 30
0.0
 10
158.7412339470763
 20
147.1382025143783
 30
0.0
  0
LINE
  5
E8
330
1F
100
AcDbEntity
  8
0
  6
Continuous
 62
     7
370
    15
100
AcDbLine
 10
157.6872791395
 20
139.8278037387
 30
0.0
 11
157.6872791395
 21
145.2424908358
 31
0.0
  0
SPLINE
  5
E9
330
1F
100
AcDbEntity
  8
0
  6
Continuous
 62
     7
370
    15
100
AcDbSpline
210
0.0
220
0.0
230
1.0
 70
     8
 71
     3
 72
    10
 73
     6
 74
     0
 42
0.000000001
 43
0.00000001
 40
0.0
 40
0.0
 40
0.0
 40
0.0
 40
0.5
 40
0.5
 40
1.0
 40
1.0
 40
1.0
 40
1.0
 10
148.1645208620878
 20
147.8509609130708
 30
0.0
 10
148.0886812680843
 20
147.7809117267422
 30
0.0
 10
148.0213577503583
 20
147.6956929531685
 30
0.0
 10
147.9147141120532
 20
147.4854668265067
 30
0.0
 10
147.8772792607803
 20
147.3619576356394
 30
0.0
 10
147.8772792607803
 20
147.2320395151168
 30
0.0
  0
SPLINE
  5
EA
330
1F
100
AcDbEntity
  8
0
  6
Continuous
 62
     7
370
    15
100
AcDbSpline
210
0.0
220
0.0
230
1.0
 70
     8
 71
     3
 72
     8
 73
     4
 74
     0
 42
0.000000001
 43
0.00000001
 40
0.0
 40
0.0
 40
0.0
 40
0.0
 40
1.0
 40
1.0
 40
1.0
 40
1.0
 10
148.4772792607803
 20
147.9220004373294
 30
0.0
 10
148.3651010066006
 20
147.9220004373294
 30
0.0
 10
148.2564314938722
 20
147.8963193720685
 30
0.0
 10
148.1645208620878
 20
147.8509609130708
 30
0.0
  0
LINE
  5
EB
330
1F
100
AcDbEntity
  8
0
  6
Continuous
 62
     7
370
    15
100
AcDbLine
 10
147.8772791799
 20
142.5970765131
 30
0.0
 11
147.8772791799
 21
147.2320398617
 31
0.0
  0
SPLINE
  5
EC
330
1F
100
AcDbEntity
  8
0
  6
Continuous
 62
     7
370
    15
100
AcDbSpline
210
0.0
220
0.0
230
1.0
 70
     8
 71
     3
 72
    14
 73
    10
 74
     0
 42
0.000000001
 43
0.00000001
 40
0.0
 40
0.0
 40
0.0
 40
0.0
 40
0.25
 40
0.25
 40
0.5
 40
0.5
 40
0.75
 40
0.75
 40
1.0
 40
1.0
 40
1.0
 40
1.0
 10
154.6672792607803
 20
144.2435222144006
 30
0.0
 10
154.5599102162659
 20
144.2435222144006
 30
0.0
 10
154.4531047245031
 20
144.2664472098056
 30
0.0
 10
154.2579633559863
 20
144.3526396436798
 30
0.0
 10
154.1687536383964
 20
144.4164836403437
 30
0.0
 10
154.02282684558
 20
144.5718997482851
 30
0.0
 10
153.9648371017819
 20
144.6645543264928
 30
0.0
 10
153.8872432602593
 20
144.8637876665424
 30
0.0
 10
153.8672792607803
 20
144.9703927615976
 30
0.0
 10
153.8672792607803
 20
145.0777438459209
 30
0.0
  0
LINE
  5
ED
330
1F
100
AcDbEntity
  8
0
  6
Continuous
 62
     7
370
    15
100
AcDbLine
 10
152.2554426685
 20
147.9220008778
 30
0.0
 11
148.4772793249
 21
147.9220008778
 31
0.0
  0
LINE
  5
EE
330
1F
100
AcDbEntity
  8
0
  6
Continuous
 62
     7
370
    15
100
AcDbLine
 10
76.4272787839
 20
106.0185339603
 30
0.0
 11
76.4272787839
 21
128.832794756
 31
0.0
  0
ARC
  5
EF
330
1F
100
AcDbEntity
  8
0
  6
Continuous
 62
     7
370
    15
100
AcDbCircle
 10
157.5599057169
 20
108.163124888
 30
0.0
 40
1.884986933110289
100
AcDbArc
 50
185.4233950941
 51
252.5050902365
  0
ARC
  5
F0
330
1F
100
AcDbEntity
  8
0
  6
Continuous
 62
     7
370
    15
100
AcDbCircle
 10
157.6854667237
 20
108.2795020354
 30
0.0
 40
2.035493012333815
100
AcDbArc
 50
250.1183317542
 51
332.6967760759
  0
ARC
  5
F1
330
1F
100
AcDbEntity
  8
0
  6
Continuous
 62
     7
370
    15
100
AcDbCircle
 10
157.5413583353
 20
108.1002423138
 30
0.0
 40
1.757622721131821
100
AcDbArc
 50
159.3627781412
 51
252.9986922653
  0
ARC
  5
F2
330
1F
100
AcDbEntity
  8
0
  6
Continuous
 62
     7
370
    15
100
AcDbCircle
 10
157.6872658576
 20
108.2277284287
 30
0.0
 40
1.9249177634475
100
AcDbArc
 50
249.9536078249
 51
336.1583654134
  0
ARC
  5
F3
330
1F
100
AcDbEntity
  8
0
  6
Continuous
 62
     7
370
    15
100
AcDbCircle
 10
157.6032352794
 20
108.1053790374
 30
0.0
 40
1.403175863381561
100
AcDbArc
 50
87.0619362558
 51
251.7688279784
  0
ARC
  5
F4
330
1F
100
AcDbEntity
  8
0
  6
Continuous
 62
     7
370
    15
100
AcDbCircle
 10
157.6912664092
 20
108.1720436644
 30
0.0
 40
1.49535218027743
100
AcDbArc
 50
249.363568361
 51
350.465397178
  0
CIRCLE
  5
F5
330
1F
100
AcDbEntity
  8
0
  6
HIDDEN
 62
     7
370
     0
100
AcDbCircle
 10
189.2272792608
 20
117.4256643581
 30
0.0
 40
5.258613578496401
  0
CIRCLE
  5
F6
330
1F
100
AcDbEntity
  8
0
  6
HIDDEN
 62
     7
370
     0
100
AcDbCircle
 10
189.2272792608
 20
117.4256643581
 30
0.0
 40
4.094716599621
  0
CIRCLE
  5
F7
330
1F
100
AcDbEntity
  8
0
  6
HIDDEN
 62
     7
370
     0
100
AcDbCircle
 10
189.2272792608
 20
117.4256643581
 30
0.0
 40
3.694716599621019
  0
SPLINE
  5
F8
330
1F
100
AcDbEntity
  8
0
  6
HIDDEN
 62
     7
370
     0
100
AcDbSpline
210
0.0
220
0.0
230
1.0
 70
     8
 71
     3
 72
     9
 73
     5
 74
     0
 42
0.000000001
 43
0.00000001
 40
0.0
 40
0.0
 40
0.0
 40
0.0
 40
0.8693823546431924
 40
1.0
 40
1.0
 40
1.0
 40
1.0
 10
155.6786938801665
 20
109.371153667842
 30
0.0
 10
155.6813351178152
 20
109.4596736816383
 30
0.0
 10
155.6843731799918
 20
109.5614931093316
 30
0.0
 10
155.6994226255252
 20
109.6655355065226
 30
0.0
 10
155.7013883486647
 20
109.679125279461
 30
0.0
  0
LWPOLYLINE
  5
F9
330
1F
100
AcDbEntity
  8
0
  6
HIDDEN
 62
     7
370
     0
100
AcDbPolyline
 90
       22
 70
   128
 43
0.0
 10
155.7013883487
 20
109.0972563553
 10
155.8676266343
 20
108.5879849571
 10
156.1792480991
 20
108.1429999622
 10
156.6112178609
 20
107.7980511191
 10
157.128832978
 20
107.5808499309
 10
157.6905089662
 20
107.5088465887
 10
158.2511213839
 20
107.5878264683
 10
158.7656333342
 20
107.8114426064
 10
159.1927099273
 20
108.1617316532
 10
159.4980393768
 20
108.6105518344
 10
159.6570925087
 20
109.1218451339
 10
159.6570925087
 20
109.6545365008
 10
159.4980393768
 20
110.165830266
 10
159.1927099273
 20
110.6146504472
 10
158.7656333342
 20
110.964939494
 10
158.2511213839
 20
111.1885560977
 10
157.6905089662
 20
111.267535046
 10
157.128832978
 20
111.1955321695
 10
156.6112178609
 20
110.9783309813
 10
156.1792480991
 20
110.6333821381
 10
155.8676266343
 20
110.1883971433
 10
155.7013883487
 20
109.6791252795
  0
LWPOLYLINE
  5
FA
330
1F
100
AcDbEntity
  8
0
  6
HIDDEN
 62
     7
370
     0
100
AcDbPolyline
 90
       24
 70
   128
 43
0.0
 10
147.9517083846
 20
108.4853820804
 10
148.0873636667
 20
107.9298183623
 10
148.2985671375
 20
107.4154582175
 10
148.5696546499
 20
106.9804486188
 10
148.8805210449
 20
106.6570543053
 10
149.2081109666
 20
106.4692577648
 10
149.5281278387
 20
106.4309878576
 10
149.8168383025
 20
106.5450841862
 10
150.0528293893
 20
106.8030819598
 10
150.2185992196
 20
107.18584995
 10
150.3018534042
 20
107.6649967882
 10
150.2964168087
 20
108.2049887928
 10
150.2026931614
 20
108.7657762992
 10
150.0276333884
 20
109.3057683038
 10
149.784220592
 20
109.7849156077
 10
149.4905079946
 20
110.1676826666
 10
149.1682787657
 20
110.4256813715
 10
148.8414311081
 20
110.5397767688
 10
148.5342057187
 20
110.5015073272
 10
148.2693885684
 20
110.3137112523
 10
148.0666193877
 20
109.9903160076
 10
147.9409367077
 20
109.5553068745
 10
147.9016621363
 20
109.0409467298
 10
147.9517083846
 20
108.4853820804
  0
LWPOLYLINE
  5
FB
330
1F
100
AcDbEntity
  8
0
  6
HIDDEN
 62
     7
370
     0
100
AcDbPolyline
 90
       21
 70
   128
 43
0.0
 10
148.3332244445
 20
108.5175136405
 10
148.4611730322
 20
108.0175424295
 10
148.6653757513
 20
107.5665131512
 10
148.925843858
 20
107.2085732895
 10
149.2170805343
 20
106.9787619936
 10
149.5105775304
 20
106.8995744291
 10
149.7776058734
 20
106.9787619936
 10
149.9920261324
 20
107.2085732895
 10
150.1328504876
 20
107.5665131512
 10
150.1862925709
 20
108.0175424295
 10
150.1471225404
 20
108.5175136405
 10
150.0191737198
 20
109.0174839201
 10
149.8149710007
 20
109.4685141298
 10
149.5545033597
 20
109.8264530602
 10
149.2632666834
 20
110.0562643561
 10
148.9697692216
 20
110.1354519206
 10
148.7027413443
 20
110.0562643561
 10
148.4883206196
 20
109.8264530602
 10
148.3474967301
 20
109.4685141298
 10
148.2940541812
 20
109.0174839201
 10
148.3332244445
 20
108.5175136405
  0
ELLIPSE
  5
FC
330
1F
100
AcDbEntity
  8
0
  6
HIDDEN
 62
     7
370
     0
100
AcDbEllipse
 10
157.6772792608
 20
110.5380742976
 30
0.0
 11
1.383467579512114
 21
-1.091267719176613
 31
0.0
210
0.0
220
0.0
230
1.0
 40
0.8239737799
 41
2.147131942757439
 42
5.288724596347245
  0
ELLIPSE
  5
FD
330
1F
100
AcDbEntity
  8
0
  6
HIDDEN
 62
     7
370
     0
100
AcDbEllipse
 10
157.6772792608
 20
110.5380742976
 30
0.0
 11
1.383467579512114
 21
1.753907414218489
 31
0.0
210
0.0
220
0.0
230
1.0
 40
0.5126701559
 41
0.9944607108323539
 42
4.13605336442216
  0
SPLINE
  5
FE
330
1F
100
AcDbEntity
  8
0
  6
HIDDEN
 62
     7
370
     0
100
AcDbSpline
210
0.0
220
0.0
230
1.0
 70
     8
 71
     3
 72
    14
 73
    10
 74
     0
 42
0.000000001
 43
0.00000001
 40
0.0
 40
0.0
 40
0.0
 40
0.0
 40
0.25
 40
0.25
 40
0.5
 40
0.5
 40
0.75
 40
0.75
 40
1.0
 40
1.0
 40
1.0
 40
1.0
 10
155.7013884981399
 20
109.6791251886452
 30
0.0
 10
155.7377523261702
 20
109.6442236468206
 30
0.0
 10
155.7702300533803
 20
109.6053816623867
 30
0.0
 10
155.8189836827961
 20
109.5143026670803
 30
0.0
 10
155.8338874604706
 20
109.4621596330175
 30
0.0
 10
155.8338978941282
 20
109.3532751422487
 30
0.0
 10
155.8190075983201
 20
109.2966529148348
 30
0.0
 10
155.7701186674425
 20
109.190929489416
 30
0.0
 10
155.7377464891721
 20
109.1427441240336
 30
0.0
 10
155.7013884981399
 20
109.097256791276
 30
0.0
  0
LINE
  5
FF
330
1F
100
AcDbEntity
  8
0
  6
HIDDEN
 62
     7
370
     0
100
AcDbLine
 10
203.2272794515
 20
136.5922065752
 30
0.0
 11
203.2272794515
 21
139.7461863535
 31
0.0
  0
LINE
  5
100
330
1F
100
AcDbEntity
  8
0
  6
HIDDEN
 62
     7
370
     0
100
AcDbLine
 10
203.2272794515
 20
101.5662374276
 30
0.0
 11
203.2272794515
 21
133.2850912887
 31
0.0
  0
LINE
  5
101
330
1F
100
AcDbEntity
  8
0
  6
HIDDEN
 62
     7
370
     0
100
AcDbLine
 10
203.2272794515
 20
95.1051423627
 30
0.0
 11
203.2272794515
 21
98.259122141
 31
0.0
  0
LWPOLYLINE
  5
102
330
1F
100
AcDbEntity
  8
0
  6
HIDDEN
 62
     7
370
     0
100
AcDbPolyline
 90
       21
 70
   128
 43
0.0
 10
157.677279529
 20
107.8812675851
 10
158.1871572182
 20
107.9571545425
 10
158.6471253306
 20
108.177385323
 10
159.0121572137
 20
108.5204035344
 10
159.246522677
 20
108.952632204
 10
159.3272795201
 20
109.4317604157
 10
159.246522677
 20
109.9108895588
 10
159.0121572137
 20
110.3431177626
 10
158.6471253306
 20
110.6861359741
 10
158.1871572182
 20
110.9063672203
 10
157.677279529
 20
110.9822537119
 10
157.1674009085
 20
110.9063672203
 10
156.7074337274
 20
110.6861359741
 10
156.342400913
 20
110.3431177626
 10
156.108036381
 20
109.9108895588
 10
156.0272795379
 20
109.4317604157
 10
156.108036381
 20
108.952632204
 10
156.342400913
 20
108.5204035344
 10
156.7074337274
 20
108.177385323
 10
157.1674009085
 20
107.9571545425
 10
157.677279529
 20
107.8812675851
  0
SPLINE
  5
103
330
1F
100
AcDbEntity
  8
0
  6
HIDDEN
 62
     7
370
     0
100
AcDbSpline
210
0.0
220
0.0
230
1.0
 70
    11
 71
     3
 72
    60
 73
    56
 74
     0
 42
0.000000001
 43
0.00000001
 40
0.0
 40
0.0
 40
0.0
 40
0.0
 40
0.0312499999999996
 40
0.0312499999999996
 40
0.0624999999999993
 40
0.0624999999999993
 40
0.1249999999999989
 40
0.1249999999999989
 40
0.1874999999999986
 40
0.1874999999999986
 40
0.2187499999999984
 40
0.2187499999999984
 40
0.2499999999999982
 40
0.2499999999999982
 40
0.281249999999998
 40
0.281249999999998
 40
0.3124999999999978
 40
0.3124999999999978
 40
0.3437499999999976
 40
0.3437499999999976
 40
0.3749999999999973
 40
0.3749999999999973
 40
0.4062499999999971
 40
0.4062499999999971
 40
0.4374999999999968
 40
0.4374999999999968
 40
0.4999999999999969
 40
0.4999999999999969
 40
0.5312499999999972
 40
0.5312499999999972
 40
0.5624999999999974
 40
0.5624999999999974
 40
0.5937499999999978
 40
0.5937499999999978
 40
0.624999999999998
 40
0.624999999999998
 40
0.6562499999999983
 40
0.6562499999999983
 40
0.6874999999999986
 40
0.6874999999999986
 40
0.7187499999999987
 40
0.7187499999999987
 40
0.7499999999999989
 40
0.7499999999999989
 40
0.8124999999999993
 40
0.8124999999999993
 40
0.8437499999999996
 40
0.8437499999999996
 40
0.8749999999999997
 40
0.8749999999999997
 40
0.9062499999999999
 40
0.9062499999999999
 40
0.9375000000000001
 40
0.9375000000000001
 40
1.0
 40
1.0
 40
1.0
 40
1.0
 10
157.6772792607803
 20
114.5356047675537
 30
0.0
 10
157.56708634981
 20
114.5356047675537
 30
0.0
 10
157.4589771465226
 20
114.5442800366444
 30
0.0
 10
157.2466719920361
 20
114.5782963341877
 30
0.0
 10
157.1413633285772
 20
114.6041003792848
 30
0.0
 10
156.8425653679686
 20
114.7049179313973
 30
0.0
 10
156.6611431635826
 20
114.8047539482032
 30
0.0
 10
156.3599372629257
 20
115.0583898633225
 30
0.0
 10
156.2373827841335
 20
115.2150986657153
 30
0.0
 10
156.1132493335143
 20
115.4791417400419
 30
0.0
 10
156.0809462166783
 20
115.5737644986909
 30
0.0
 10
156.0380965548464
 20
115.7688522949392
 30
0.0
 10
156.0273513873339
 20
115.8687431186589
 30
0.0
 10
156.0272078509808
 20
116.0733706534386
 30
0.0
 10
156.0381909720172
 20
116.1786646917861
 30
0.0
 10
156.0808626315444
 20
116.384068128515
 30
0.0
 10
156.1124255256518
 20
116.4854091158643
 30
0.0
 10
156.1963906211396
 20
116.6850067971823
 30
0.0
 10
156.2474251741403
 20
116.7800183472061
 30
0.0
 10
156.366658504919
 20
116.9605032581515
 30
0.0
 10
156.4357175622536
 20
117.0467626663207
 30
0.0
 10
156.587016086108
 20
117.2035026044606
 30
0.0
 10
156.669248790863
 20
117.2743929646536
 30
0.0
 10
156.8473613080111
 20
117.4005458293097
 30
0.0
 10
156.9434961922154
 20
117.4555914274274
 30
0.0
 10
157.2407428773343
 20
117.5882562009849
 30
0.0
 10
157.4598006181133
 20
117.6365177167537
 30
0.0
 10
157.7852542930011
 20
117.6366266379497
 30
0.0
 10
157.8950908941942
 20
117.6248629129898
 30
0.0
 10
158.1090231911766
 20
117.5784568507615
 30
0.0
 10
158.2122628521201
 20
117.5443178078506
 30
0.0
 10
158.4116919086826
 20
117.455310657817
 30
0.0
 10
158.507784415956
 20
117.4001587871012
 30
0.0
 10
158.685328465522
 20
117.2743507372609
 30
0.0
 10
158.7680250326353
 20
117.2031393414243
 30
0.0
 10
158.9204995910004
 20
117.0449057594123
 30
0.0
 10
158.9881765120422
 20
116.9601144767502
 30
0.0
 10
159.1071541763109
 20
116.7799569908548
 30
0.0
 10
159.1588984595111
 20
116.6834105324945
 30
0.0
 10
159.2420751661673
 20
116.4854050622341
 30
0.0
 10
159.2735862031163
 20
116.3844718062187
 30
0.0
 10
159.3163218105681
 20
116.1790087173814
 30
0.0
 10
159.3273275149882
 20
116.0735963267847
 30
0.0
 10
159.3271822619847
 20
115.7669731850443
 30
0.0
 10
159.2828293734003
 20
115.5673287123904
 30
0.0
 10
159.1582441651188
 20
115.302520220219
 30
0.0
 10
159.1064603514527
 20
115.2184200481054
 30
0.0
 10
158.9865026731225
 20
115.0643344754619
 30
0.0
 10
158.9186516111267
 20
114.9942881372855
 30
0.0
 10
158.7671258723716
 20
114.8669552853228
 30
0.0
 10
158.6831565991087
 20
114.8097912905676
 30
0.0
 10
158.5056653307697
 20
114.7121107133504
 30
0.0
 10
158.4113837958154
 20
114.670862704875
 30
0.0
 10
158.110498688586
 20
114.5696694579427
 30
0.0
 10
157.8976650827209
 20
114.5356047675537
 30
0.0
 10
157.6772792607803
 20
114.5356047675537
 30
0.0
  0
LINE
  5
104
330
1F
100
AcDbEntity
  8
0
  6
HIDDEN
 62
     7
370
     0
100
AcDbLine
 10
199.2272787959
 20
108.225257166
 30
0.0
 11
199.2272787959
 21
126.6260715502
 31
0.0
  0
LINE
  5
105
330
1F
100
AcDbEntity
  8
0
  6
HIDDEN
 62
     7
370
     0
100
AcDbLine
 10
199.2272787959
 20
126.6260715502
 30
0.0
 11
203.2272794515
 21
126.6260715502
 31
0.0
  0
LINE
  5
106
330
1F
100
AcDbEntity
  8
0
  6
HIDDEN
 62
     7
370
     0
100
AcDbLine
 10
199.2272787959
 20
131.4256647902
 30
0.0
 11
199.2272787959
 21
126.6260715502
 31
0.0
  0
LINE
  5
107
330
1F
100
AcDbEntity
  8
0
  6
HIDDEN
 62
     7
370
     0
100
AcDbLine
 10
203.2272794515
 20
136.5922065752
 30
0.0
 11
203.2272794515
 21
136.4524020183
 31
0.0
  0
LINE
  5
108
330
1F
100
AcDbEntity
  8
0
  6
HIDDEN
 62
     7
370
     0
100
AcDbLine
 10
199.2272787959
 20
136.4524020183
 30
0.0
 11
203.2272794515
 21
136.4524020183
 31
0.0
  0
LINE
  5
109
330
1F
100
AcDbEntity
  8
0
  6
HIDDEN
 62
     7
370
     0
100
AcDbLine
 10
199.2272787959
 20
136.6256652701
 30
0.0
 11
199.2272787959
 21
131.4256647902
 31
0.0
  0
LINE
  5
10A
330
1F
100
AcDbEntity
  8
0
  6
HIDDEN
 62
     7
370
     0
100
AcDbLine
 10
199.2272787959
 20
98.3989266979
 30
0.0
 11
203.2272794515
 21
98.3989266979
 31
0.0
  0
LINE
  5
10B
330
1F
100
AcDbEntity
  8
0
  6
HIDDEN
 62
     7
370
     0
100
AcDbLine
 10
203.2272794515
 20
98.3989266979
 30
0.0
 11
203.2272794515
 21
98.259122141
 31
0.0
  0
LINE
  5
10C
330
1F
100
AcDbEntity
  8
0
  6
HIDDEN
 62
     7
370
     0
100
AcDbLine
 10
199.2272787959
 20
103.425663926
 30
0.0
 11
199.2272787959
 21
98.2256634462
 31
0.0
  0
LINE
  5
10D
330
1F
100
AcDbEntity
  8
0
  6
HIDDEN
 62
     7
370
     0
100
AcDbLine
 10
203.2272794515
 20
108.225257166
 30
0.0
 11
199.2272787959
 21
108.225257166
 31
0.0
  0
LINE
  5
10E
330
1F
100
AcDbEntity
  8
0
  6
HIDDEN
 62
     7
370
     0
100
AcDbLine
 10
199.2272787959
 20
108.225257166
 30
0.0
 11
199.2272787959
 21
103.425663926
 31
0.0
  0
LINE
  5
10F
330
1F
100
AcDbEntity
  8
0
  6
HIDDEN
 62
     7
370
     0
100
AcDbLine
 10
198.0272808343
 20
102.4256646934
 30
0.0
 11
198.0272808343
 21
132.4256640228
 31
0.0
  0
LINE
  5
110
330
1F
100
AcDbEntity
  8
0
  6
HIDDEN
 62
     7
370
     0
100
AcDbLine
 10
172.7772799552
 20
102.7256641838
 30
0.0
 11
172.7772799552
 21
132.1256645325
 31
0.0
  0
LINE
  5
111
330
1F
100
AcDbEntity
  8
0
  6
HIDDEN
 62
     7
370
     0
100
AcDbLine
 10
175.2772794336
 20
102.4256646934
 30
0.0
 11
175.2772794336
 21
132.4256640228
 31
0.0
  0
LINE
  5
112
330
1F
100
AcDbEntity
  8
0
  6
HIDDEN
 62
     7
370
     0
100
AcDbLine
 10
199.2272787959
 20
138.7006650048
 30
0.0
 11
199.2272787959
 21
136.6256652701
 31
0.0
  0
LINE
  5
113
330
1F
100
AcDbEntity
  8
0
  6
HIDDEN
 62
     7
370
     0
100
AcDbLine
 10
199.2272787959
 20
98.2256634462
 30
0.0
 11
199.2272787959
 21
96.1506637114
 31
0.0
  0
LINE
  5
114
330
1F
100
AcDbEntity
  8
0
  6
HIDDEN
 62
     7
370
     0
100
AcDbLine
 10
147.8772791799
 20
142.2256650704
 30
0.0
 11
148.2145376269
 21
142.2256650704
 31
0.0
  0
ELLIPSE
  5
115
330
1F
100
AcDbEntity
  8
0
  6
HIDDEN
 62
     7
370
     0
100
AcDbEllipse
 10
148.214537561
 20
143.8256643581
 30
0.0
 11
0.0
 21
1.599999999999994
 31
0.0
210
0.0
220
0.0
230
1.0
 40
0.4142135624
 41
3.141592653589793
 42
4.712388980384695
  0
ELLIPSE
  5
116
330
1F
100
AcDbEntity
  8
0
  6
HIDDEN
 62
     7
370
     0
100
AcDbEllipse
 10
148.214537561
 20
93.2256643581
 30
0.0
 11
0.0
 21
1.599999999999994
 31
0.0
210
0.0
220
0.0
230
1.0
 40
0.4142135624
 41
4.712388980384695
 42
6.283185307179586
  0
LINE
  5
117
330
1F
100
AcDbEntity
  8
0
  6
HIDDEN
 62
     7
370
     0
100
AcDbLine
 10
148.2145376269
 20
94.8256636339
 30
0.0
 11
147.8772791799
 21
94.8256636339
 31
0.0
  0
LINE
  5
118
330
1F
100
AcDbEntity
  8
0
  6
HIDDEN
 62
     7
370
     0
100
AcDbLine
 10
148.877279111
 20
87.5322157818
 30
0.0
 11
148.0934237827
 21
87.0739342946
 31
0.0
  0
LINE
  5
119
330
1F
100
AcDbEntity
  8
0
  6
HIDDEN
 62
     7
370
     0
100
AcDbLine
 10
148.164520948
 20
147.8509614545
 30
0.0
 11
148.877279111
 21
147.1382016617
 31
0.0
  0
LINE
  5
11A
330
1F
100
AcDbEntity
  8
0
  6
HIDDEN
 62
     7
370
     0
100
AcDbLine
 10
83.4272780687
 20
108.9256638962
 30
0.0
 11
83.4272780687
 21
125.92566482
 31
0.0
  0
LINE
  5
11B
330
1F
100
AcDbEntity
  8
0
  6
HIDDEN
 62
     7
370
     0
100
AcDbLine
 10
86.4232086808
 20
110.425664142
 30
0.0
 11
86.4232086808
 21
124.4256645742
 31
0.0
  0
LINE
  5
11C
330
1F
100
AcDbEntity
  8
0
  6
HIDDEN
 62
     7
370
     0
100
AcDbLine
 10
152.712489222
 20
87.5322157818
 30
0.0
 11
148.877279111
 21
87.5322157818
 31
0.0
  0
LINE
  5
11D
330
1F
100
AcDbEntity
  8
0
  6
HIDDEN
 62
     7
370
     0
100
AcDbLine
 10
163.7272794962
 20
87.5322157818
 30
0.0
 11
158.8420688406
 21
87.5322157818
 31
0.0
  0
LINE
  5
11E
330
1F
100
AcDbEntity
  8
0
  6
HIDDEN
 62
     7
370
     0
100
AcDbLine
 10
148.877279111
 20
87.5322157818
 30
0.0
 11
148.877279111
 21
93.2256644892
 31
0.0
  0
LINE
  5
11F
330
1F
100
AcDbEntity
  8
0
  6
HIDDEN
 62
     7
370
     0
100
AcDbLine
 10
163.7272794962
 20
94.8256636339
 30
0.0
 11
148.2145376269
 21
94.8256636339
 31
0.0
  0
LINE
  5
120
330
1F
100
AcDbEntity
  8
0
  6
HIDDEN
 62
     7
370
     0
100
AcDbLine
 10
163.8330442131
 20
94.8256636339
 30
0.0
 11
163.7272794962
 21
94.8256636339
 31
0.0
  0
SPLINE
  5
121
330
1F
100
AcDbEntity
  8
0
  6
HIDDEN
 62
     7
370
     0
100
AcDbSpline
210
0.0
220
0.0
230
1.0
 70
    24
 71
     3
 72
    12
 73
     8
 74
     0
 42
0.000000001
 43
0.00000001
 40
0.0
 40
0.0
 40
0.0
 40
0.0
 40
0.25
 40
0.25
 40
0.5
 40
0.5
 40
1.0
 40
1.0
 40
1.0
 40
1.0
 10
164.5177115353285
 20
94.82566435811385
 30
0.0
 10
164.460950285983
 20
94.82566435811387
 30
0.0
 10
164.4035354740404
 20
94.82566435811385
 30
0.0
 10
164.2895688621979
 20
94.82566435811387
 30
0.0
 10
164.2327299420266
 20
94.82566435811385
 30
0.0
 10
164.0619843366616
 20
94.82566435811385
 30
0.0
 10
163.947865833558
 20
94.82566435811385
 30
0.0
 10
163.8330446947021
 20
94.82566435811385
 30
0.0
  0
LINE
  5
122
330
1F
100
AcDbEntity
  8
0
  6
HIDDEN
 62
     7
370
     0
100
AcDbLine
 10
148.2145376269
 20
142.2256650704
 30
0.0
 11
163.8002393067
 21
142.2256650704
 31
0.0
  0
LINE
  5
123
330
1F
100
AcDbEntity
  8
0
  6
HIDDEN
 62
     7
370
     0
100
AcDbLine
 10
148.877279111
 20
147.1382016617
 30
0.0
 11
152.8133244485
 21
147.1382016617
 31
0.0
  0
LINE
  5
124
330
1F
100
AcDbEntity
  8
0
  6
HIDDEN
 62
     7
370
     0
100
AcDbLine
 10
158.7412336141
 20
147.1382016617
 30
0.0
 11
163.7272794962
 21
147.1382016617
 31
0.0
  0
LINE
  5
125
330
1F
100
AcDbEntity
  8
0
  6
HIDDEN
 62
     7
370
     0
100
AcDbLine
 10
148.877279111
 20
147.1382016617
 30
0.0
 11
148.877279111
 21
143.8256642151
 31
0.0
  0
LINE
  5
126
330
1F
100
AcDbEntity
  8
0
  6
HIDDEN
 62
     7
370
     0
100
AcDbLine
 10
119.4272783816
 20
110.425664142
 30
0.0
 11
119.4272783816
 21
124.4256645742
 31
0.0
  0
LINE
  5
127
330
1F
100
AcDbEntity
  8
0
  6
HIDDEN
 62
     7
370
     0
100
AcDbLine
 10
121.0796457947
 20
113.1756641271
 30
0.0
 11
121.0796457947
 21
121.6756645891
 31
0.0
  0
SPLINE
  5
128
330
1F
100
AcDbEntity
  8
0
  6
HIDDEN
 62
     7
370
     0
100
AcDbSpline
210
0.0
220
0.0
230
1.0
 70
    24
 71
     3
 72
    12
 73
     8
 74
     0
 42
0.000000001
 43
0.00000001
 40
0.0
 40
0.0
 40
0.0
 40
0.0
 40
0.5000000000000013
 40
0.5000000000000013
 40
0.7500000000000007
 40
0.7500000000000007
 40
1.0
 40
1.0
 40
1.0
 40
1.0
 10
167.7687898948999
 20
94.82566435811385
 30
0.0
 10
167.2971987583152
 20
94.82566435811385
 30
0.0
 10
166.7912733010676
 20
94.82566435811385
 30
0.0
 10
165.9756742853113
 20
94.82566435811385
 30
0.0
 10
165.6923413034838
 20
94.82566435811385
 30
0.0
 10
165.1129095473181
 20
94.82566435811385
 30
0.0
 10
164.8180716321659
 20
94.82566435811385
 30
0.0
 10
164.5177115353285
 20
94.82566435811385
 30
0.0
  0
LINE
  5
129
330
1F
100
AcDbEntity
  8
0
  6
HIDDEN
 62
     7
370
     0
100
AcDbLine
 10
170.1772787839
 20
94.8256636339
 30
0.0
 11
167.768789199
 21
94.8256636339
 31
0.0
  0
SPLINE
  5
12A
330
1F
100
AcDbEntity
  8
0
  6
HIDDEN
 62
     7
370
     0
100
AcDbSpline
210
0.0
220
0.0
230
1.0
 70
    11
 71
     3
 72
    60
 73
    56
 74
     0
 42
0.000000001
 43
0.00000001
 40
0.0
 40
0.0
 40
0.0
 40
0.0
 40
0.0312499999999996
 40
0.0312499999999996
 40
0.0624999999999992
 40
0.0624999999999992
 40
0.1249999999999988
 40
0.1249999999999988
 40
0.1874999999999984
 40
0.1874999999999984
 40
0.2187499999999984
 40
0.2187499999999984
 40
0.2499999999999983
 40
0.2499999999999983
 40
0.2812499999999983
 40
0.2812499999999983
 40
0.3124999999999982
 40
0.3124999999999982
 40
0.3437499999999982
 40
0.3437499999999982
 40
0.3749999999999981
 40
0.3749999999999981
 40
0.406249999999998
 40
0.406249999999998
 40
0.4374999999999979
 40
0.4374999999999979
 40
0.4999999999999978
 40
0.4999999999999978
 40
0.5312499999999979
 40
0.5312499999999979
 40
0.5624999999999981
 40
0.5624999999999981
 40
0.5937499999999982
 40
0.5937499999999982
 40
0.6249999999999983
 40
0.6249999999999983
 40
0.6562499999999986
 40
0.6562499999999986
 40
0.6874999999999987
 40
0.6874999999999987
 40
0.7187499999999988
 40
0.7187499999999988
 40
0.749999999999999
 40
0.749999999999999
 40
0.8124999999999996
 40
0.8124999999999996
 40
0.8437499999999997
 40
0.8437499999999997
 40
0.8749999999999999
 40
0.8749999999999999
 40
0.90625
 40
0.90625
 40
0.9375000000000001
 40
0.9375000000000001
 40
1.0
 40
1.0
 40
1.0
 40
1.0
 10
157.6772792607803
 20
117.2147383000805
 30
0.0
 10
157.7874721717506
 20
117.2147383000805
 30
0.0
 10
157.895581375038
 20
117.2265959223852
 30
0.0
 10
158.1078865295244
 20
117.2726016492755
 30
0.0
 10
158.2131951929834
 20
117.3073615015891
 30
0.0
 10
158.511993153592
 20
117.4409153397535
 30
0.0
 10
158.693415357978
 20
117.570823752897
 30
0.0
 10
158.9946212586349
 20
117.8832822400074
 30
0.0
 10
159.1171757374271
 20
118.0690597228349
 30
0.0
 10
159.2413091880463
 20
118.3638704713386
 30
0.0
 10
159.2736123048823
 20
118.4668495577597
 30
0.0
 10
159.3164619667142
 20
118.6731271974647
 30
0.0
 10
159.3272071342267
 20
118.7758951823841
 30
0.0
 10
159.3273506705798
 20
118.9805608359024
 30
0.0
 10
159.3163675495434
 20
119.0829149220966
 30
0.0
 10
159.2736958900161
 20
119.2771750311038
 30
0.0
 10
159.2421329959087
 20
119.3703433398474
 30
0.0
 10
159.158167900421
 20
119.5491268604895
 30
0.0
 10
159.1071333474203
 20
119.6318442522012
 30
0.0
 10
158.9879000166415
 20
119.7853958676152
 30
0.0
 10
158.918840959307
 20
119.8568463283685
 30
0.0
 10
158.7675424354526
 20
119.9840583707558
 30
0.0
 10
158.6853097306977
 20
120.040201254603
 30
0.0
 10
158.5071972135495
 20
120.138523067447
 30
0.0
 10
158.4110623293452
 20
120.1805173615983
 30
0.0
 10
158.1138156442263
 20
120.2806564718748
 30
0.0
 10
157.8947579034473
 20
120.3156705797756
 30
0.0
 10
157.5693042285595
 20
120.3157505392356
 30
0.0
 10
157.4594676273664
 20
120.3071451348128
 30
0.0
 10
157.245535330384
 20
120.2728323393386
 30
0.0
 10
157.1422956694405
 20
120.2474905261439
 30
0.0
 10
156.942866612878
 20
120.1803054369592
 30
0.0
 10
156.8467741056046
 20
120.1382234519005
 30
0.0
 10
156.6692300560385
 20
120.0401662963366
 30
0.0
 10
156.5865334889253
 20
119.9837768320128
 30
0.0
 10
156.4340589305602
 20
119.8553257623632
 30
0.0
 10
156.3663820095184
 20
119.7850682457301
 30
0.0
 10
156.2474043452497
 20
119.631788901362
 30
0.0
 10
156.1956600620495
 20
119.5477097246026
 30
0.0
 10
156.1124833553933
 20
119.3703269367183
 30
0.0
 10
156.0809723184443
 20
119.2775502944433
 30
0.0
 10
156.0382367109925
 20
119.0832467747917
 30
0.0
 10
156.0272310065724
 20
118.9807803598534
 30
0.0
 10
156.0273762595759
 20
118.674118643482
 30
0.0
 10
156.0717291481603
 20
118.4623467590835
 30
0.0
 10
156.1963143564418
 20
118.1666614180091
 30
0.0
 10
156.2480981701079
 20
118.0700848901701
 30
0.0
 10
156.3680558484381
 20
117.8889206418545
 30
0.0
 10
156.4359069104339
 20
117.804331323155
 30
0.0
 10
156.587432649189
 20
117.6474332903621
 30
0.0
 10
156.671401922452
 20
117.575237059409
 30
0.0
 10
156.8488931907909
 20
117.44987521618
 30
0.0
 10
156.9431747257452
 20
117.3958088630691
 30
0.0
 10
157.2440598329746
 20
117.2617368810531
 30
0.0
 10
157.4568934388397
 20
117.2147383000805
 30
0.0
 10
157.6772792607803
 20
117.2147383000805
 30
0.0
  0
LINE
  5
12B
330
1F
100
AcDbEntity
  8
0
  6
HIDDEN
 62
     7
370
     0
100
AcDbLine
 10
171.7772797913
 20
142.2256650704
 30
0.0
 11
171.1328511358
 21
142.2256650704
 31
0.0
  0
LINE
  5
12C
330
1F
100
AcDbEntity
  8
0
  6
HIDDEN
 62
     7
370
     0
100
AcDbLine
 10
163.7272794962
 20
135.84515176
 30
0.0
 11
163.7272794962
 21
135.77566392
 31
0.0
  0
ELLIPSE
  5
12D
330
1F
100
AcDbEntity
  8
0
  6
HIDDEN
 62
     7
370
     0
100
AcDbEllipse
 10
157.6772792608
 20
124.3132544187
 30
0.0
 11
-1.383467579512114
 21
1.753907414218517
 31
0.0
210
0.0
220
0.0
230
1.0
 40
0.5126701559
 41
5.288724596347198
 42
8.430317249936994
  0
ELLIPSE
  5
12E
330
1F
100
AcDbEntity
  8
0
  6
HIDDEN
 62
     7
370
     0
100
AcDbEllipse
 10
157.6772792608
 20
124.3132544187
 30
0.0
 11
1.383467579512114
 21
1.091267719176613
 31
0.0
210
0.0
220
0.0
230
1.0
 40
0.8239737799
 41
0.9944607108323202
 42
4.136053364422143
  0
LWPOLYLINE
  5
12F
330
1F
100
AcDbEntity
  8
0
  6
HIDDEN
 62
     7
370
     0
100
AcDbPolyline
 90
       21
 70
   128
 43
0.0
 10
157.677279529
 20
123.8690750043
 10
158.1871572182
 20
123.944961496
 10
158.6471253306
 20
124.1651927422
 10
159.0121572137
 20
124.5082109536
 10
159.246522677
 20
124.9404391575
 10
159.3272795201
 20
125.4195683005
 10
159.246522677
 20
125.8986965123
 10
159.0121572137
 20
126.3309251818
 10
158.6471253306
 20
126.6739433932
 10
158.1871572182
 20
126.8941741737
 10
157.677279529
 20
126.9700611311
 10
157.1674009085
 20
126.8941741737
 10
156.7074337274
 20
126.6739433932
 10
156.342400913
 20
126.3309251818
 10
156.108036381
 20
125.8986965123
 10
156.0272795379
 20
125.4195683005
 10
156.108036381
 20
124.9404391575
 10
156.342400913
 20
124.5082109536
 10
156.7074337274
 20
124.1651927422
 10
157.1674009085
 20
123.944961496
 10
157.677279529
 20
123.8690750043
  0
LINE
  5
130
330
1F
100
AcDbEntity
  8
0
  6
HIDDEN
 62
     7
370
     0
100
AcDbLine
 10
153.8672789231
 20
139.6229053217
 30
0.0
 11
153.8672789231
 21
135.77566392
 31
0.0
  0
LINE
  5
131
330
1F
100
AcDbEntity
  8
0
  6
HIDDEN
 62
     7
370
     0
100
AcDbLine
 10
157.6872791395
 20
139.6229053217
 30
0.0
 11
157.6872791395
 21
135.77566392
 31
0.0
  0
SPLINE
  5
132
330
1F
100
AcDbEntity
  8
0
  6
HIDDEN
 62
     7
370
     0
100
AcDbSpline
210
0.0
220
0.0
230
1.0
 70
     8
 71
     3
 72
    14
 73
    10
 74
     0
 42
0.000000001
 43
0.00000001
 40
0.0
 40
0.0
 40
0.0
 40
0.0
 40
0.25
 40
0.25
 40
0.5
 40
0.5
 40
0.75
 40
0.75
 40
1.0
 40
1.0
 40
1.0
 40
1.0
 10
156.8872792607802
 20
128.708143548222
 30
0.0
 10
156.9849615118942
 20
128.7466658622544
 30
0.0
 10
157.0870750209315
 20
128.7842812217131
 30
0.0
 10
157.2792471921004
 20
128.8553899473001
 30
0.0
 10
157.3706658654272
 20
128.8895959978042
 30
0.0
 10
157.5221818544414
 20
128.9564854761611
 30
0.0
 10
157.5833290569803
 20
128.989755938722
 30
0.0
 10
157.6660357586688
 20
129.0591542888158
 30
0.0
 10
157.6872792607803
 20
129.0949313944118
 30
0.0
 10
157.6872792607803
 20
129.1314267266625
 30
0.0
  0
LINE
  5
133
330
1F
100
AcDbEntity
  8
0
  6
HIDDEN
 62
     7
370
     0
100
AcDbLine
 10
157.6872791395
 20
109.4243815469
 30
0.0
 11
157.6872791395
 21
105.6656586307
 31
0.0
  0
SPLINE
  5
134
330
1F
100
AcDbEntity
  8
0
  6
HIDDEN
 62
     7
370
     0
100
AcDbSpline
210
0.0
220
0.0
230
1.0
 70
     8
 71
     3
 72
    14
 73
    10
 74
     0
 42
0.000000001
 43
0.00000001
 40
0.0
 40
0.0
 40
0.0
 40
0.0
 40
0.2500000000000005
 40
0.2500000000000005
 40
0.5000000000000003
 40
0.5000000000000003
 40
0.7500000000000001
 40
0.7500000000000001
 40
1.0
 40
1.0
 40
1.0
 40
1.0
 10
157.6872792607803
 20
125.3727032284435
 30
0.0
 10
157.6872792607803
 20
125.3362142975362
 30
0.0
 10
157.666109884608
 20
125.2997155058025
 30
0.0
 10
157.5833642667557
 20
125.2343401580656
 30
0.0
 10
157.5225106419279
 20
125.2064033237192
 30
0.0
 10
157.3709057752368
 20
125.1725122944725
 30
0.0
 10
157.2796834647696
 20
125.167086841886
 30
0.0
 10
157.0873529150663
 20
125.1880061656986
 30
0.0
 10
156.9851020305893
 20
125.2145623131391
 30
0.0
 10
156.8872792607802
 20
125.2550320714448
 30
0.0
  0
LINE
  5
135
330
1F
100
AcDbEntity
  8
0
  6
HIDDEN
 62
     7
370
     0
100
AcDbLine
 10
159.2991163254
 20
107.6736441183
 30
0.0
 11
159.2991163254
 21
105.4741647395
 31
0.0
  0
LINE
  5
136
330
1F
100
AcDbEntity
  8
0
  6
HIDDEN
 62
     7
370
     0
100
AcDbLine
 10
159.2991163254
 20
143.3358947116
 30
0.0
 11
159.2991163254
 21
135.77566392
 31
0.0
  0
LINE
  5
137
330
1F
100
AcDbEntity
  8
0
  6
HIDDEN
 62
     7
370
     0
100
AcDbLine
 10
152.2554426685
 20
143.3358947116
 30
0.0
 11
152.2554426685
 21
135.77566392
 31
0.0
  0
LWPOLYLINE
  5
138
330
1F
100
AcDbEntity
  8
0
  6
HIDDEN
 62
     7
370
     0
100
AcDbPolyline
 90
       21
 70
   128
 43
0.0
 10
148.3332244445
 20
125.4478069323
 10
148.4611730322
 20
125.0728308524
 10
148.6653757513
 20
124.8212890069
 10
148.925843858
 20
124.7178032364
 10
149.2170805343
 20
124.7725044678
 10
149.5105775304
 20
124.9800371307
 10
149.7776058734
 20
125.3200872171
 10
149.9920261324
 20
125.7593687924
 10
150.1328504876
 20
126.2548808309
 10
150.1862925709
 20
126.7581191215
 10
150.1471225404
 20
127.2198241505
 10
150.0191737198
 20
127.5947997647
 10
149.8149710007
 20
127.8463416102
 10
149.5545033597
 20
127.9498273808
 10
149.2632666834
 20
127.8951261493
 10
148.9697692216
 20
127.6875930208
 10
148.7027413443
 20
127.3475429344
 10
148.4883206196
 20
126.9082622903
 10
148.3474967301
 20
126.4127502519
 10
148.2940541812
 20
125.9095119613
 10
148.3332244445
 20
125.4478069323
  0
SPLINE
  5
139
330
1F
100
AcDbEntity
  8
0
  6
HIDDEN
 62
     7
370
     0
100
AcDbSpline
210
0.0
220
0.0
230
1.0
 70
     8
 71
     3
 72
    10
 73
     6
 74
     0
 42
0.000000001
 43
0.00000001
 40
0.0
 40
0.0
 40
0.0
 40
0.0
 40
0.5
 40
0.5
 40
1.0
 40
1.0
 40
1.0
 40
1.0
 10
155.7013884981399
 20
125.7540719249517
 30
0.0
 10
155.6857824471587
 20
125.6721626760242
 30
0.0
 10
155.6772779841301
 20
125.5808841947312
 30
0.0
 10
155.6772805377198
 20
125.381367114957
 30
0.0
 10
155.6857781253202
 20
125.277504881591
 30
0.0
 10
155.7013884981399
 20
125.1722035275827
 30
0.0
  0
SPLINE
  5
13A
330
1F
100
AcDbEntity
  8
0
  6
HIDDEN
 62
     7
370
     0
100
AcDbSpline
210
0.0
220
0.0
230
1.0
 70
     8
 71
     3
 72
    14
 73
    10
 74
     0
 42
0.000000001
 43
0.00000001
 40
0.0
 40
0.0
 40
0.0
 40
0.0
 40
0.25
 40
0.25
 40
0.5
 40
0.5
 40
0.75
 40
0.75
 40
1.0
 40
1.0
 40
1.0
 40
1.0
 10
155.7013884981399
 20
125.1722035275827
 30
0.0
 10
155.7377523261701
 20
125.2071050694073
 30
0.0
 10
155.7702300533803
 20
125.2459470538412
 30
0.0
 10
155.818983682796
 20
125.3370260491476
 30
0.0
 10
155.8338874604705
 20
125.3891690832104
 30
0.0
 10
155.8338978941281
 20
125.4980535739792
 30
0.0
 10
155.81900759832
 20
125.5546758013931
 30
0.0
 10
155.7701186674424
 20
125.6603992268119
 30
0.0
 10
155.737746489172
 20
125.7085845921941
 30
0.0
 10
155.7013884981399
 20
125.7540719249517
 30
0.0
  0
LWPOLYLINE
  5
13B
330
1F
100
AcDbEntity
  8
0
  6
HIDDEN
 62
     7
370
     0
100
AcDbPolyline
 90
       22
 70
   128
 43
0.0
 10
155.7013883487
 20
125.1722034368
 10
155.8676266343
 20
124.6629315729
 10
156.1792480991
 20
124.2179465781
 10
156.6112178609
 20
123.872997735
 10
157.128832978
 20
123.6557965468
 10
157.6905089662
 20
123.5837936702
 10
158.2511213839
 20
123.6627726185
 10
158.7656333342
 20
123.8863892223
 10
159.1927099273
 20
124.236678269
 10
159.4980393768
 20
124.6854984502
 10
159.6570925087
 20
125.1967922154
 10
159.6570925087
 20
125.7294835824
 10
159.4980393768
 20
126.2407768818
 10
159.1927099273
 20
126.689597063
 10
158.7656333342
 20
127.0398861098
 10
158.2511213839
 20
127.2635022479
 10
157.6905089662
 20
127.3424821275
 10
157.128832978
 20
127.2704787853
 10
156.6112178609
 20
127.0532775971
 10
156.1792480991
 20
126.708328754
 10
155.8676266343
 20
126.2633437592
 10
155.7013883487
 20
125.754072361
  0
SPLINE
  5
13C
330
1F
100
AcDbEntity
  8
0
  6
HIDDEN
 62
     7
370
     0
100
AcDbSpline
210
0.0
220
0.0
230
1.0
 70
     8
 71
     3
 72
    12
 73
     8
 74
     0
 42
0.000000001
 43
0.00000001
 40
0.0
 40
0.0
 40
0.0
 40
0.0
 40
0.2500000000000001
 40
0.2500000000000001
 40
0.5000000000000002
 40
0.5000000000000002
 40
1.0
 40
1.0
 40
1.0
 40
1.0
 10
159.299115902837
 20
129.3771641563209
 30
0.0
 10
159.4220633966326
 20
129.2192073076258
 30
0.0
 10
159.5156075997414
 20
129.0473739406483
 30
0.0
 10
159.6445469889036
 20
128.6757012310024
 30
0.0
 10
159.6770997462888
 20
128.4825127848112
 30
0.0
 10
159.6776360880226
 20
127.894216246535
 30
0.0
 10
159.5450124310546
 20
127.5021980086463
 30
0.0
 10
159.299115902837
 20
127.1776844259376
 30
0.0
  0
SPLINE
  5
13D
330
1F
100
AcDbEntity
  8
0
  6
HIDDEN
 62
     7
370
     0
100
AcDbSpline
210
0.0
220
0.0
230
1.0
 70
     8
 71
     3
 72
    12
 73
     8
 74
     0
 42
0.000000001
 43
0.00000001
 40
0.0
 40
0.0
 40
0.0
 40
0.0
 40
0.2499999999999998
 40
0.2499999999999998
 40
0.4999999999999996
 40
0.4999999999999996
 40
1.0
 40
1.0
 40
1.0
 40
1.0
 10
159.299115902837
 20
127.1776844259376
 30
0.0
 10
159.1842198515764
 20
126.957943990881
 30
0.0
 10
159.0574538351037
 20
126.7609756392593
 30
0.0
 10
158.7972389014852
 20
126.4072580664204
 30
0.0
 10
158.6637314435229
 20
126.2504327725481
 30
0.0
 10
158.2553331749347
 20
125.8238902016404
 30
0.0
 10
157.9716800399972
 20
125.5971980226852
 30
0.0
 10
157.6872792607804
 20
125.4269468782897
 30
0.0
  0
SPLINE
  5
13E
330
1F
100
AcDbEntity
  8
0
  6
HIDDEN
 62
     7
370
     0
100
AcDbSpline
210
0.0
220
0.0
230
1.0
 70
     8
 71
     3
 72
    12
 73
     8
 74
     0
 42
0.000000001
 43
0.00000001
 40
0.0
 40
0.0
 40
0.0
 40
0.0
 40
0.5000000000000013
 40
0.5000000000000013
 40
0.7500000000000007
 40
0.7500000000000007
 40
1.0
 40
1.0
 40
1.0
 40
1.0
 10
157.6872792607803
 20
129.1856703765108
 30
0.0
 10
157.9714857953456
 20
129.3531345388045
 30
0.0
 10
158.2501815294494
 20
129.4647716383161
 30
0.0
 10
158.6595275726387
 20
129.5320849039555
 30
0.0
 10
158.7956669099582
 20
129.5372359439694
 30
0.0
 10
159.0569869589542
 20
129.4994700063501
 30
0.0
 10
159.182408141386
 20
129.4579202480058
 30
0.0
 10
159.2991159028374
 20
129.377164156323
 30
0.0
  0
SPLINE
  5
13F
330
1F
100
AcDbEntity
  8
0
  6
HIDDEN
 62
     7
370
     0
100
AcDbSpline
210
0.0
220
0.0
230
1.0
 70
     8
 71
     3
 72
    22
 73
    18
 74
     0
 42
0.000000001
 43
0.00000001
 40
0.0
 40
0.0
 40
0.0
 40
0.0
 40
0.125
 40
0.125
 40
0.25
 40
0.25
 40
0.375
 40
0.375
 40
0.5
 40
0.5
 40
0.625
 40
0.625
 40
0.75
 40
0.75
 40
0.875
 40
0.875
 40
1.0
 40
1.0
 40
1.0
 40
1.0
 10
156.8872792607803
 20
125.2550320714448
 30
0.0
 10
156.7072625662109
 20
125.3295058584214
 30
0.0
 10
156.5428307443406
 20
125.4269551204054
 30
0.0
 10
156.244434510582
 20
125.6663245539697
 30
0.0
 10
156.1141307832171
 20
125.8062211660402
 30
0.0
 10
155.9009119995981
 20
126.1144727561004
 30
0.0
 10
155.8172841424867
 20
126.2846359742197
 30
0.0
 10
155.7061532655685
 20
126.6351307090102
 30
0.0
 10
155.6773172707148
 20
126.8202556701615
 30
0.0
 10
155.6772413280551
 20
127.1834625447787
 30
0.0
 10
155.7058999534824
 20
127.3668325584863
 30
0.0
 10
155.8170510465951
 20
127.7127236709796
 30
0.0
 10
155.900118167239
 20
127.8782431982471
 30
0.0
 10
156.1138041253577
 20
128.1787829356508
 30
0.0
 10
156.2428111152821
 20
128.3126548569348
 30
0.0
 10
156.5424203947715
 20
128.5439016263389
 30
0.0
 10
156.7072630930308
 20
128.6371517429977
 30
0.0
 10
156.8872792607803
 20
128.708143548222
 30
0.0
  0
LWPOLYLINE
  5
140
330
1F
100
AcDbEntity
  8
0
  6
HIDDEN
 62
     7
370
     0
100
AcDbPolyline
 90
       24
 70
   128
 43
0.0
 10
147.9517083846
 20
125.2382993999
 10
148.0873636667
 20
124.8152582276
 10
148.2985671375
 20
124.507224683
 10
148.5696546499
 20
124.3370441089
 10
148.8805210449
 20
124.3173377889
 10
149.2081109666
 20
124.4495674337
 10
149.5281278387
 20
124.723925751
 10
149.8168383025
 20
125.1200656707
 10
150.0528293893
 20
125.6086072254
 10
150.2185992196
 20
126.1533163789
 10
150.3018534042
 20
126.7137956175
 10
150.2964168087
 20
127.2484762895
 10
150.2026931614
 20
127.7177036109
 10
150.0276333884
 20
128.0866777825
 10
149.784220592
 20
128.3280328217
 10
149.4905079946
 20
128.4238696399
 10
149.1682787657
 20
128.3670785206
 10
148.8414311081
 20
128.1618727672
 10
148.5342057187
 20
127.8234720531
 10
148.2693885684
 20
127.3769727278
 10
148.0666193877
 20
126.8554907593
 10
147.9409367077
 20
126.2977011803
 10
147.9016621363
 20
125.7449724081
 10
147.9517083846
 20
125.2382993999
  0
LWPOLYLINE
  5
141
330
1F
100
AcDbEntity
  8
0
  6
HIDDEN
 62
     7
370
     0
100
AcDbPolyline
 90
       20
 70
   128
 43
0.0
 10
157.5765644431
 20
123.9981912377
 10
158.0615879268
 20
124.0426609593
 10
158.5049654588
 20
124.2327099035
 10
158.858651039
 20
124.5477441999
 10
159.0843160868
 20
124.9536248225
 10
159.1575068653
 20
125.4063677343
 10
159.0702913001
 20
125.8569117936
 10
158.8321223155
 20
126.2564333457
 10
158.4688077912
 20
126.5616379979
 10
158.0197193891
 20
126.7394516918
 10
157.5335215077
 20
126.7706072259
 10
157.062901859
 20
126.6517257619
 10
156.6588605985
 20
126.3956921476
 10
156.3651801318
 20
126.0302504825
 10
156.2136856139
 20
125.5950024652
 10
156.2207953304
 20
125.1371144618
 10
156.3857362837
 20
124.706204545
 10
156.6906363935
 20
124.3489692288
 10
157.1024551288
 20
124.104120333
 10
157.5765644431
 20
123.9981912377
  0
LWPOLYLINE
  5
142
330
1F
100
AcDbEntity
  8
0
  6
HIDDEN
 62
     7
370
     0
100
AcDbPolyline
 90
       23
 70
   128
 43
0.0
 10
157.5412142322
 20
123.6136500093
 10
158.1088851437
 20
123.6535795334
 10
158.6415904805
 20
123.8421784083
 10
159.0961727545
 20
124.1641668904
 10
159.435804677
 20
124.5934595655
 10
159.632971254
 20
125.0952780547
 10
159.671699372
 20
125.6289668682
 10
159.5488514051
 20
126.1512916836
 10
159.2743803978
 20
126.6199350658
 10
158.8705207452
 20
126.9969307187
 10
158.3699926034
 20
127.2517377811
 10
157.8133448258
 20
127.3637116256
 10
157.2456739143
 20
127.3237821015
 10
156.7129685775
 20
127.1351836923
 10
156.2583863035
 20
126.8131947446
 10
155.918754381
 20
126.3839025351
 10
155.7215868727
 20
125.8820835802
 10
155.6828587547
 20
125.3483947667
 10
155.8057067216
 20
124.8260699513
 10
156.0801786602
 20
124.3574265691
 10
156.4840373814
 20
123.9804304506
 10
156.9845655233
 20
123.7256243194
 10
157.5412142322
 20
123.6136500093
  0
LWPOLYLINE
  5
143
330
1F
100
AcDbEntity
  8
0
  6
HIDDEN
 62
     7
370
     0
100
AcDbPolyline
 90
       23
 70
   128
 43
0.0
 10
157.5412142322
 20
123.9385688978
 10
158.1088851437
 20
123.9784988875
 10
158.6415904805
 20
124.1670972968
 10
159.0961727545
 20
124.4890857789
 10
159.435804677
 20
124.9183789196
 10
159.632971254
 20
125.4201969433
 10
159.671699372
 20
125.953886688
 10
159.5488514051
 20
126.4762105721
 10
159.2743803978
 20
126.9448539543
 10
158.8705207452
 20
127.3218505385
 10
158.3699926034
 20
127.5766566697
 10
157.8133448258
 20
127.6886305141
 10
157.2456739143
 20
127.6487009901
 10
156.7129685775
 20
127.4601025808
 10
156.2583863035
 20
127.1381136331
 10
155.918754381
 20
126.7088214236
 10
155.7215868727
 20
126.2070034
 10
155.6828587547
 20
125.6733136552
 10
155.8057067216
 20
125.1509893055
 10
156.0801786602
 20
124.6823459233
 10
156.4840373814
 20
124.3053498047
 10
156.9845655233
 20
124.0505432079
 10
157.5412142322
 20
123.9385688978
  0
LWPOLYLINE
  5
144
330
1F
100
AcDbEntity
  8
0
  6
HIDDEN
 62
     7
370
     0
100
AcDbPolyline
 90
       20
 70
   128
 43
0.0
 10
157.5752298579
 20
125.3478825393
 10
158.0666803986
 20
125.3929408568
 10
158.5159327135
 20
125.5855085629
 10
158.8743037775
 20
125.9047165814
 10
159.1029593021
 20
126.3159755918
 10
159.1771195874
 20
126.7747171524
 10
159.0887491822
 20
127.2312309894
 10
158.8474239454
 20
127.6360461789
 10
158.4792954147
 20
127.9452946338
 10
158.0242567927
 20
128.1254645738
 10
157.531616953
 20
128.1570326838
 10
157.0547620997
 20
128.0365763533
 10
156.6453666657
 20
127.7771499309
 10
156.347794202
 20
127.4068663198
 10
156.1942936152
 20
126.9658515531
 10
156.201496464
 20
126.5018964487
 10
156.3686232314
 20
126.0652765932
 10
156.6775634185
 20
125.7033078301
 10
157.0948387727
 20
125.4552146721
 10
157.5752298579
 20
125.3478825393
  0
LWPOLYLINE
  5
145
330
1F
100
AcDbEntity
  8
0
  6
HIDDEN
 62
     7
370
     0
100
AcDbPolyline
 90
       20
 70
   128
 43
0.0
 10
157.5752298579
 20
124.3444038856
 10
158.0666803986
 20
124.3894626687
 10
158.5159327135
 20
124.5820299092
 10
158.8743037775
 20
124.9012383933
 10
159.1029593021
 20
125.3124969381
 10
159.1771195874
 20
125.7712384987
 10
159.0887491822
 20
126.2277523356
 10
158.8474239454
 20
126.6325675252
 10
158.4792954147
 20
126.9418159801
 10
158.0242567927
 20
127.1219868514
 10
157.531616953
 20
127.15355403
 10
157.0547620997
 20
127.0330976996
 10
156.6453666657
 20
126.7736722085
 10
156.347794202
 20
126.4033885973
 10
156.1942936152
 20
125.9623728993
 10
156.201496464
 20
125.498417795
 10
156.3686232314
 20
125.0617984052
 10
156.6775634185
 20
124.699829642
 10
157.0948387727
 20
124.451736484
 10
157.5752298579
 20
124.3444038856
  0
LWPOLYLINE
  5
146
330
1F
100
AcDbEntity
  8
0
  6
HIDDEN
 62
     7
370
     0
100
AcDbPolyline
 90
       23
 70
   128
 43
0.0
 10
157.5412142322
 20
124.1309554617
 10
158.1088851437
 20
124.1708849857
 10
158.6415904805
 20
124.3594838607
 10
159.0961727545
 20
124.6814723427
 10
159.435804677
 20
125.1107650178
 10
159.632971254
 20
125.6125830415
 10
159.671699372
 20
126.1462727862
 10
159.5488514051
 20
126.6685966703
 10
159.2743803978
 20
127.1372400525
 10
158.8705207452
 20
127.5142366367
 10
158.3699926034
 20
127.7690427679
 10
157.8133448258
 20
127.8810175436
 10
157.2456739143
 20
127.8410870883
 10
156.7129685775
 20
127.652488679
 10
156.2583863035
 20
127.3305006626
 10
155.918754381
 20
126.9012075218
 10
155.7215868727
 20
126.3993894982
 10
155.6828587547
 20
125.8656997534
 10
155.8057067216
 20
125.3433758694
 10
156.0801786602
 20
124.8747320215
 10
156.4840373814
 20
124.4977359029
 10
156.9845655233
 20
124.2429297718
 10
157.5412142322
 20
124.1309554617
  0
LWPOLYLINE
  5
147
330
1F
100
AcDbEntity
  8
0
  6
HIDDEN
 62
     7
370
     0
100
AcDbPolyline
 90
       22
 70
   128
 43
0.0
 10
157.5520985991
 20
124.1366681944
 10
158.0987532854
 20
124.1786340552
 10
158.6079576284
 20
124.3701475042
 10
159.0344679773
 20
124.6941914151
 10
159.3403850913
 20
125.121973485
 10
159.4985283211
 20
125.61548318
 10
159.4948458717
 20
126.1308696422
 10
159.3296637059
 20
126.6223397407
 10
159.0176613301
 20
127.0462228286
 10
158.5865595609
 20
127.3648552897
 10
158.0746636957
 20
127.5499258491
 10
157.5274585977
 20
127.584990144
 10
156.993566756
 20
127.4669319692
 10
156.5204250857
 20
127.2062408107
 10
156.1500744194
 20
126.8260823863
 10
155.9154230401
 20
126.3602329719
 10
155.8373204664
 20
125.8500870618
 10
155.922706914
 20
125.3409721258
 10
156.1639939666
 20
124.8781266923
 10
156.5397435099
 20
124.5026751722
 10
157.0165676296
 20
124.2479784715
 10
157.5520985991
 20
124.1366681944
  0
LWPOLYLINE
  5
148
330
1F
100
AcDbEntity
  8
0
  6
HIDDEN
 62
     7
370
     0
100
AcDbPolyline
 90
       23
 70
   128
 43
0.0
 10
157.5412142322
 20
124.3233415599
 10
158.1088851437
 20
124.3632715496
 10
158.6415904805
 20
124.5518699589
 10
159.0961727545
 20
124.8738584409
 10
159.435804677
 20
125.303151116
 10
159.632971254
 20
125.804970071
 10
159.671699372
 20
126.3386588844
 10
159.5488514051
 20
126.8609836998
 10
159.2743803978
 20
127.329627082
 10
158.8705207452
 20
127.7066227349
 10
158.3699926034
 20
127.9614288661
 10
157.8133448258
 20
128.0734036419
 10
157.2456739143
 20
128.0334741178
 10
156.7129685775
 20
127.8448747772
 10
156.2583863035
 20
127.5228867608
 10
155.918754381
 20
127.09359362
 10
155.7215868727
 20
126.5917755964
 10
155.6828587547
 20
126.0580858516
 10
155.8057067216
 20
125.5357619676
 10
156.0801786602
 20
125.0671185854
 10
156.4840373814
 20
124.6901224668
 10
156.9845655233
 20
124.43531587
 10
157.5412142322
 20
124.3233415599
  0
LWPOLYLINE
  5
149
330
1F
100
AcDbEntity
  8
0
  6
HIDDEN
 62
     7
370
     0
100
AcDbPolyline
 90
       22
 70
   128
 43
0.0
 10
157.5520985991
 20
124.3290542926
 10
158.0987532854
 20
124.3710201534
 10
158.6079576284
 20
124.5625336024
 10
159.0344679773
 20
124.8865775133
 10
159.3403850913
 20
125.3143595832
 10
159.4985283211
 20
125.8078692782
 10
159.4948458717
 20
126.3232557404
 10
159.3296637059
 20
126.8147258389
 10
159.0176613301
 20
127.2386089268
 10
158.5865595609
 20
127.5572413879
 10
158.0746636957
 20
127.7423119473
 10
157.5274585977
 20
127.7773762423
 10
156.993566756
 20
127.6593180674
 10
156.5204250857
 20
127.3986278403
 10
156.1500744194
 20
127.0184684846
 10
155.9154230401
 20
126.5526190701
 10
155.8373204664
 20
126.04247316
 10
155.922706914
 20
125.5333591553
 10
156.1639939666
 20
125.0705127905
 10
156.5397435099
 20
124.6950612704
 10
157.0165676296
 20
124.4403650354
 10
157.5520985991
 20
124.3290542926
  0
LWPOLYLINE
  5
14A
330
1F
100
AcDbEntity
  8
0
  6
HIDDEN
 62
     7
370
     0
100
AcDbPolyline
 90
       23
 70
   128
 43
0.0
 10
157.5412142322
 20
124.5157281238
 10
158.1088851437
 20
124.5556576478
 10
158.6415904805
 20
124.7442565228
 10
159.0961727545
 20
125.0662450048
 10
159.435804677
 20
125.4955381456
 10
159.632971254
 20
125.9973561692
 10
159.671699372
 20
126.5310449826
 10
159.5488514051
 20
127.053369798
 10
159.2743803978
 20
127.5220131802
 10
158.8705207452
 20
127.8990088331
 10
158.3699926034
 20
128.1538158956
 10
157.8133448258
 20
128.2657897401
 10
157.2456739143
 20
128.225860216
 10
156.7129685775
 20
128.0372618067
 10
156.2583863035
 20
127.715272859
 10
155.918754381
 20
127.2859806496
 10
155.7215868727
 20
126.7841616946
 10
155.6828587547
 20
126.2504728812
 10
155.8057067216
 20
125.7281480658
 10
156.0801786602
 20
125.2595046836
 10
156.4840373814
 20
124.882508565
 10
156.9845655233
 20
124.6277024339
 10
157.5412142322
 20
124.5157281238
  0
LWPOLYLINE
  5
14B
330
1F
100
AcDbEntity
  8
0
  6
HIDDEN
 62
     7
370
     0
100
AcDbPolyline
 90
       22
 70
   128
 43
0.0
 10
157.5520985991
 20
124.5214408564
 10
158.0987532854
 20
124.5634067173
 10
158.6079576284
 20
124.7549201663
 10
159.0344679773
 20
125.0789640772
 10
159.3403850913
 20
125.5067456814
 10
159.4985283211
 20
126.0002553764
 10
159.4948458717
 20
126.5156427699
 10
159.3296637059
 20
127.0071119371
 10
159.0176613301
 20
127.430995025
 10
158.5865595609
 20
127.7496274861
 10
158.0746636957
 20
127.9346980455
 10
157.5274585977
 20
127.9697623405
 10
156.993566756
 20
127.8517041656
 10
156.5204250857
 20
127.5910139385
 10
156.1500744194
 20
127.2108545828
 10
155.9154230401
 20
126.7450060996
 10
155.8373204664
 20
126.2348592582
 10
155.922706914
 20
125.7257452535
 10
156.1639939666
 20
125.2628993544
 10
156.5397435099
 20
124.8874478343
 10
157.0165676296
 20
124.6327511336
 10
157.5520985991
 20
124.5214408564
  0
LWPOLYLINE
  5
14C
330
1F
100
AcDbEntity
  8
0
  6
HIDDEN
 62
     7
370
     0
100
AcDbPolyline
 90
       23
 70
   128
 43
0.0
 10
157.5412142322
 20
124.708114222
 10
158.1088851437
 20
124.7480442117
 10
158.6415904805
 20
124.936642621
 10
159.0961727545
 20
125.258631103
 10
159.435804677
 20
125.6879242438
 10
159.632971254
 20
126.1897422674
 10
159.671699372
 20
126.7234320122
 10
159.5488514051
 20
127.2457558962
 10
159.2743803978
 20
127.7143992784
 10
158.8705207452
 20
128.0913958627
 10
158.3699926034
 20
128.3462019938
 10
157.8133448258
 20
128.4581758383
 10
157.2456739143
 20
128.4182463142
 10
156.7129685775
 20
128.2296479049
 10
156.2583863035
 20
127.9076589572
 10
155.918754381
 20
127.4783667478
 10
155.7215868727
 20
126.9765487241
 10
155.6828587547
 20
126.4428589794
 10
155.8057067216
 20
125.920534164
 10
156.0801786602
 20
125.4518907818
 10
156.4840373814
 20
125.0748951289
 10
156.9845655233
 20
124.8200885321
 10
157.5412142322
 20
124.708114222
  0
LWPOLYLINE
  5
14D
330
1F
100
AcDbEntity
  8
0
  6
HIDDEN
 62
     7
370
     0
100
AcDbPolyline
 90
       22
 70
   128
 43
0.0
 10
157.5520985991
 20
124.7138269546
 10
158.0987532854
 20
124.7557928155
 10
158.6079576284
 20
124.9473062645
 10
159.0344679773
 20
125.2713501754
 10
159.3403850913
 20
125.699132711
 10
159.4985283211
 20
126.1926424059
 10
159.4948458717
 20
126.7080288681
 10
159.3296637059
 20
127.1994980353
 10
159.0176613301
 20
127.6233811232
 10
158.5865595609
 20
127.9420145157
 10
158.0746636957
 20
128.1270850751
 10
157.5274585977
 20
128.1621484387
 10
156.993566756
 20
128.0440902638
 10
156.5204250857
 20
127.7834000367
 10
156.1500744194
 20
127.403240681
 10
155.9154230401
 20
126.9373921978
 10
155.8373204664
 20
126.4272462877
 10
155.922706914
 20
125.9181313517
 10
156.1639939666
 20
125.4552854526
 10
156.5397435099
 20
125.0798339325
 10
157.0165676296
 20
124.8251376974
 10
157.5520985991
 20
124.7138269546
  0
LWPOLYLINE
  5
14E
330
1F
100
AcDbEntity
  8
0
  6
HIDDEN
 62
     7
370
     0
100
AcDbPolyline
 90
       23
 70
   128
 43
0.0
 10
157.5412142322
 20
124.8449222485
 10
158.1088851437
 20
124.8848522383
 10
158.6415904805
 20
125.0734506476
 10
159.0961727545
 20
125.3954395953
 10
159.435804677
 20
125.8247318047
 10
159.632971254
 20
126.3265507596
 10
159.671699372
 20
126.8602395731
 10
159.5488514051
 20
127.3825643885
 10
159.2743803978
 20
127.8512077707
 10
158.8705207452
 20
128.2282034236
 10
158.3699926034
 20
128.483010486
 10
157.8133448258
 20
128.5949843305
 10
157.2456739143
 20
128.5550548064
 10
156.7129685775
 20
128.3664554658
 10
156.2583863035
 20
128.0444674495
 10
155.918754381
 20
127.6151743087
 10
155.7215868727
 20
127.1133562851
 10
155.6828587547
 20
126.5796665403
 10
155.8057067216
 20
126.0573426562
 10
156.0801786602
 20
125.588699274
 10
156.4840373814
 20
125.2117031555
 10
156.9845655233
 20
124.9568965587
 10
157.5412142322
 20
124.8449222485
  0
LWPOLYLINE
  5
14F
330
1F
100
AcDbEntity
  8
0
  6
HIDDEN
 62
     7
370
     0
100
AcDbPolyline
 90
       22
 70
   128
 43
0.0
 10
157.5480175436
 20
124.9728761914
 10
158.1124968127
 20
125.0162101651
 10
158.6383057058
 20
125.2139685976
 10
159.0787234947
 20
125.5485797602
 10
159.3946169362
 20
125.9903107139
 10
159.5579168991
 20
126.4999127316
 10
159.554114309
 20
127.032105841
 10
159.3835463047
 20
127.5396021384
 10
159.0613692299
 20
127.9773069846
 10
158.6162091464
 20
128.3063302117
 10
158.087622118
 20
128.4974357414
 10
157.5225738108
 20
128.5336427691
 10
156.9712718249
 20
128.4117354381
 10
156.4827009335
 20
128.1425440985
 10
156.1002747387
 20
127.749987908
 10
155.8579716131
 20
127.2689486223
 10
155.7773218721
 20
126.7421674284
 10
155.8654920429
 20
126.2164507362
 10
156.11464784
 20
125.7385127547
 10
156.5026498631
 20
125.3508180681
 10
156.9950224132
 20
125.0878162983
 10
157.5480175436
 20
124.9728761914
  0
ARC
  5
150
330
1F
100
AcDbEntity
  8
0
  6
HIDDEN
 62
     7
370
     0
100
AcDbCircle
 10
157.659304779
 20
108.0859348562
 30
0.0
 40
1.978525801671988
100
AcDbArc
 50
338.0329861772
 51
182.9252186933
  0
ARC
  5
151
330
1F
100
AcDbEntity
  8
0
  6
HIDDEN
 62
     7
370
     0
100
AcDbCircle
 10
157.6577195143
 20
108.0441340616
 30
0.0
 40
1.886327460978892
100
AcDbArc
 50
341.6301098551
 51
159.0135824246
  0
ARC
  5
152
330
1F
100
AcDbEntity
  8
0
  6
HIDDEN
 62
     7
370
     0
100
AcDbCircle
 10
157.7275392715
 20
108.0626086111
 30
0.0
 40
1.445051575212622
100
AcDbArc
 50
354.5096454634
 51
92.0773917244
  0
LWPOLYLINE
  5
153
330
1F
100
AcDbEntity
  8
0
  6
HIDDEN
 62
     7
370
     0
100
AcDbPolyline
 90
       23
 70
   128
 43
0.0
 10
156.9932389304
 20
106.5021390396
 10
156.4914637476
 20
106.7547705325
 10
156.0857554198
 20
107.1300097111
 10
155.8089831144
 20
107.5974563437
 10
155.6835693538
 20
108.1192419234
 10
155.7196739361
 20
108.6530937183
 10
155.9143725083
 20
109.1557629707
 10
156.2518912599
 20
109.5865248072
 10
156.7048856288
 20
109.9104830365
 10
157.2366577804
 20
110.1013915914
 10
157.8041275263
 20
110.1437849293
 10
158.3613191962
 20
110.034227867
 10
158.8630953104
 20
109.781596374
 10
159.2688027069
 20
109.4063576612
 10
159.5455750123
 20
108.9389100972
 10
159.6709887728
 20
108.4171245175
 10
159.6348841906
 20
107.8832727226
 10
159.4401856184
 20
107.3806044015
 10
159.1026677981
 20
106.9498416337
 10
158.6496724978
 20
106.6258838701
 10
158.1179003462
 20
106.4349748495
 10
157.5504315317
 20
106.3925819772
 10
156.9932389304
 20
106.5021390396
  0
LWPOLYLINE
  5
154
330
1F
100
AcDbEntity
  8
0
  6
HIDDEN
 62
     7
370
     0
100
AcDbPolyline
 90
       20
 70
   128
 43
0.0
 10
157.1642493129
 20
107.7761184725
 10
156.7343694389
 20
108.0044200945
 10
156.4066696212
 20
108.3515147048
 10
156.2166593269
 20
108.7797908413
 10
156.1849300981
 20
109.2428369748
 10
156.3149203778
 20
109.690474842
 10
156.5925429806
 20
110.0741965066
 10
156.9877133936
 20
110.3524193468
 10
157.4576094046
 20
110.4949941228
 10
157.9513100207
 20
110.4864697273
 10
158.4153144852
 20
110.3277704979
 10
158.7993425548
 20
110.0360942374
 10
159.0617762178
 20
109.6430481712
 10
159.174179402
 20
109.1912249404
 10
159.1243694768
 20
108.7295869666
 10
158.917745319
 20
108.308158845
 10
158.5766968549
 20
107.9726107719
 10
158.1381826893
 20
107.7593025121
 10
157.6497226253
 20
107.6913504231
 10
157.1642493129
 20
107.7761184725
  0
LWPOLYLINE
  5
155
330
1F
100
AcDbEntity
  8
0
  6
HIDDEN
 62
     7
370
     0
100
AcDbPolyline
 90
       23
 70
   128
 43
0.0
 10
156.9932389304
 20
106.6945251378
 10
156.4914637476
 20
106.9471566307
 10
156.0857554198
 20
107.3223958093
 10
155.8089831144
 20
107.7898433733
 10
155.6835693538
 20
108.3116289529
 10
155.7196739361
 20
108.8454807478
 10
155.9143725083
 20
109.3481490689
 10
156.2518912599
 20
109.7789113711
 10
156.7048856288
 20
110.1028696003
 10
157.2366577804
 20
110.2937781553
 10
157.8041275263
 20
110.3361710275
 10
158.3613191962
 20
110.2266144308
 10
158.8630953104
 20
109.9739829379
 10
159.2688027069
 20
109.5987437594
 10
159.5455750123
 20
109.1312961954
 10
159.6709887728
 20
108.6095106157
 10
159.6348841906
 20
108.0756588208
 10
159.4401856184
 20
107.5729904997
 10
159.1026677981
 20
107.1422286632
 10
158.6496724978
 20
106.8182699683
 10
158.1179003462
 20
106.627361879
 10
157.5504315317
 20
106.5849680754
 10
156.9932389304
 20
106.6945251378
  0
LWPOLYLINE
  5
156
330
1F
100
AcDbEntity
  8
0
  6
HIDDEN
 62
     7
370
     0
100
AcDbPolyline
 90
       22
 70
   128
 43
0.0
 10
157.0479625136
 20
106.7877123433
 10
156.5662787527
 20
107.0342036265
 10
156.1833133221
 20
107.4031601029
 10
155.9330930233
 20
107.861799218
 10
155.8378513202
 20
108.3693672272
 10
155.9060502097
 20
108.8807657662
 10
156.1316314385
 20
109.3505546751
 10
156.4945501507
 20
109.7369902137
 10
156.9625593022
 20
110.0057373124
 10
157.4940744087
 20
110.1329154636
 10
158.0418681026
 20
110.1072249304
 10
158.557266672
 20
109.9309483844
 10
158.994474192
 20
109.6197488087
 10
159.3146433354
 20
109.2012767049
 10
159.4893259228
 20
108.7127169895
 10
159.5029996008
 20
108.1974786076
 10
159.3544499249
 20
107.7013435143
 10
159.0568765298
 20
107.2683958637
 10
158.6367196635
 20
106.9371039349
 10
158.131313254
 20
106.7369049716
 10
157.5855628819
 20
106.6855881664
 10
157.0479625136
 20
106.7877123433
  0
LWPOLYLINE
  5
157
330
1F
100
AcDbEntity
  8
0
  6
HIDDEN
 62
     7
370
     0
100
AcDbPolyline
 90
       23
 70
   128
 43
0.0
 10
156.9932389304
 20
106.886911236
 10
156.4914637476
 20
107.1395427289
 10
156.0857554198
 20
107.5147819075
 10
155.8089831144
 20
107.9822294715
 10
155.6835693538
 20
108.5040150511
 10
155.7196739361
 20
109.037866846
 10
155.9143725083
 20
109.5405351671
 10
156.2518912599
 20
109.9712974693
 10
156.7048856288
 20
110.2952556985
 10
157.2366577804
 20
110.4861642535
 10
157.8041275263
 20
110.5285575914
 10
158.3613191962
 20
110.419000529
 10
158.8630953104
 20
110.1663690361
 10
159.2688027069
 20
109.7911298576
 10
159.5455750123
 20
109.3236832249
 10
159.6709887728
 20
108.8018976453
 10
159.6348841906
 20
108.2680458504
 10
159.4401856184
 20
107.7653765979
 10
159.1026677981
 20
107.3346147614
 10
158.6496724978
 20
107.0106560665
 10
158.1179003462
 20
106.8197479772
 10
157.5504315317
 20
106.777355105
 10
156.9932389304
 20
106.886911236
  0
LWPOLYLINE
  5
158
330
1F
100
AcDbEntity
  8
0
  6
HIDDEN
 62
     7
370
     0
100
AcDbPolyline
 90
       22
 70
   128
 43
0.0
 10
157.0479625136
 20
106.9800984415
 10
156.5662787527
 20
107.2265897247
 10
156.1833133221
 20
107.5955462011
 10
155.9330930233
 20
108.0541853162
 10
155.8378513202
 20
108.5617533254
 10
155.9060502097
 20
109.0731518644
 10
156.1316314385
 20
109.5429407733
 10
156.4945501507
 20
109.9293767775
 10
156.9625593022
 20
110.1981234106
 10
157.4940744087
 20
110.3253020274
 10
158.0418681026
 20
110.2996114942
 10
158.557266672
 20
110.1233349482
 10
158.994474192
 20
109.8121349069
 10
159.3146433354
 20
109.3936637345
 10
159.4893259228
 20
108.9051030877
 10
159.5029996008
 20
108.3898647058
 10
159.3544499249
 20
107.8937296125
 10
159.0568765298
 20
107.460781962
 10
158.6367196635
 20
107.1294900331
 10
158.131313254
 20
106.9292910698
 10
157.5855628819
 20
106.8779742646
 10
157.0479625136
 20
106.9800984415
  0
LWPOLYLINE
  5
159
330
1F
100
AcDbEntity
  8
0
  6
HIDDEN
 62
     7
370
     0
100
AcDbPolyline
 90
       23
 70
   128
 43
0.0
 10
156.9932389304
 20
107.0792982656
 10
156.4914637476
 20
107.3319297585
 10
156.0857554198
 20
107.707168937
 10
155.8089831144
 20
108.1746155697
 10
155.6835693538
 20
108.6964011493
 10
155.7196739361
 20
109.2302529442
 10
155.9143725083
 20
109.732921731
 10
156.2518912599
 20
110.1636840331
 10
156.7048856288
 20
110.4876422624
 10
157.2366577804
 20
110.6785508173
 10
157.8041275263
 20
110.7209436896
 10
158.3613191962
 20
110.6113870929
 10
158.8630953104
 20
110.3587556
 10
159.2688027069
 20
109.9835164214
 10
159.5455750123
 20
109.5160693231
 10
159.6709887728
 20
108.9942837435
 10
159.6348841906
 20
108.4604319486
 10
159.4401856184
 20
107.9577626961
 10
159.1026677981
 20
107.5270008597
 10
158.6496724978
 20
107.203043096
 10
158.1179003462
 20
107.0121340754
 10
157.5504315317
 20
106.9697412032
 10
156.9932389304
 20
107.0792982656
  0
LWPOLYLINE
  5
15A
330
1F
100
AcDbEntity
  8
0
  6
HIDDEN
 62
     7
370
     0
100
AcDbPolyline
 90
       22
 70
   128
 43
0.0
 10
157.0479625136
 20
107.1724845397
 10
156.5662787527
 20
107.4189767542
 10
156.1833133221
 20
107.7879332307
 10
155.9330930233
 20
108.2465714144
 10
155.8378513202
 20
108.7541394236
 10
155.9060502097
 20
109.2655379626
 10
156.1316314385
 20
109.7353268715
 10
156.4945501507
 20
110.1217628757
 10
156.9625593022
 20
110.3905099745
 10
157.4940744087
 20
110.5176881256
 10
158.0418681026
 20
110.4919975924
 10
158.557266672
 20
110.3157210465
 10
158.994474192
 20
110.0045214708
 10
159.3146433354
 20
109.5860498327
 10
159.4893259228
 20
109.0974891859
 10
159.5029996008
 20
108.5822517353
 10
159.3544499249
 20
108.086116642
 10
159.0568765298
 20
107.6531680602
 10
158.6367196635
 20
107.3218761313
 10
158.131313254
 20
107.1216780993
 10
157.5855628819
 20
107.0703603628
 10
157.0479625136
 20
107.1724845397
  0
LWPOLYLINE
  5
15B
330
1F
100
AcDbEntity
  8
0
  6
HIDDEN
 62
     7
370
     0
100
AcDbPolyline
 90
       23
 70
   128
 43
0.0
 10
156.9932389304
 20
107.2716843638
 10
156.4914637476
 20
107.5243158567
 10
156.0857554198
 20
107.8995550352
 10
155.8089831144
 20
108.3670016679
 10
155.6835693538
 20
108.8887872475
 10
155.7196739361
 20
109.4226390424
 10
155.9143725083
 20
109.9253078292
 10
156.2518912599
 20
110.3560701313
 10
156.7048856288
 20
110.6800283606
 10
157.2366577804
 20
110.8709369156
 10
157.8041275263
 20
110.9133302535
 10
158.3613191962
 20
110.8037731911
 10
158.8630953104
 20
110.5511416982
 10
159.2688027069
 20
110.1759025196
 10
159.5455750123
 20
109.7084554213
 10
159.6709887728
 20
109.1866698417
 10
159.6348841906
 20
108.6528180468
 10
159.4401856184
 20
108.1501497257
 10
159.1026677981
 20
107.7193869579
 10
158.6496724978
 20
107.3954291942
 10
158.1179003462
 20
107.2045201736
 10
157.5504315317
 20
107.1621273014
 10
156.9932389304
 20
107.2716843638
  0
LWPOLYLINE
  5
15C
330
1F
100
AcDbEntity
  8
0
  6
HIDDEN
 62
     7
370
     0
100
AcDbPolyline
 90
       22
 70
   128
 43
0.0
 10
157.0479625136
 20
107.3648715693
 10
156.5662787527
 20
107.6113628524
 10
156.1833133221
 20
107.9803193289
 10
155.9330930233
 20
108.4389575127
 10
155.8378513202
 20
108.9465264532
 10
155.9060502097
 20
109.4579249921
 10
156.1316314385
 20
109.9277134354
 10
156.4945501507
 20
110.3141494396
 10
156.9625593022
 20
110.5828960727
 10
157.4940744087
 20
110.7100746895
 10
158.0418681026
 20
110.6843841563
 10
158.557266672
 20
110.5081076103
 10
158.994474192
 20
110.196907569
 10
159.3146433354
 20
109.7784359309
 10
159.4893259228
 20
109.2898762154
 10
159.5029996008
 20
108.7746378335
 10
159.3544499249
 20
108.2785027402
 10
159.0568765298
 20
107.8455541584
 10
158.6367196635
 20
107.5142631608
 10
158.131313254
 20
107.3140641975
 10
157.5855628819
 20
107.2627473923
 10
157.0479625136
 20
107.3648715693
  0
LWPOLYLINE
  5
15D
330
1F
100
AcDbEntity
  8
0
  6
HIDDEN
 62
     7
370
     0
100
AcDbPolyline
 90
       23
 70
   128
 43
0.0
 10
156.9932389304
 20
107.5966032523
 10
156.4914637476
 20
107.8492347452
 10
156.0857554198
 20
108.2244739237
 10
155.8089831144
 20
108.6919214877
 10
155.6835693538
 20
109.2137070673
 10
155.7196739361
 20
109.7475583966
 10
155.9143725083
 20
110.2502271834
 10
156.2518912599
 20
110.6809894855
 10
156.7048856288
 20
111.0049477148
 10
157.2366577804
 20
111.1958562697
 10
157.8041275263
 20
111.238249142
 10
158.3613191962
 20
111.1286925453
 10
158.8630953104
 20
110.8760610524
 10
159.2688027069
 20
110.5008218738
 10
159.5455750123
 20
110.0333747755
 10
159.6709887728
 20
109.5115887302
 10
159.6348841906
 20
108.9777369353
 10
159.4401856184
 20
108.4750686142
 10
159.1026677981
 20
108.0443067777
 10
158.6496724978
 20
107.7203480828
 10
158.1179003462
 20
107.5294399935
 10
157.5504315317
 20
107.4870461899
 10
156.9932389304
 20
107.5966032523
  0
LWPOLYLINE
  5
15E
330
1F
100
AcDbEntity
  8
0
  6
HIDDEN
 62
     7
370
     0
100
AcDbPolyline
 90
       20
 70
   128
 43
0.0
 10
157.1709576294
 20
108.1580417531
 10
156.7467001498
 20
108.3833575549
 10
156.4232853472
 20
108.7259138304
 10
156.2357598216
 20
109.1485889929
 10
156.2044459626
 20
109.6055796671
 10
156.3327356473
 20
110.0473641719
 10
156.6067279548
 20
110.4260678704
 10
156.9967313901
 20
110.700652499
 10
157.4604825348
 20
110.8413623015
 10
157.9477262914
 20
110.8329496647
 10
158.4056641206
 20
110.6763258877
 10
158.7846695677
 20
110.3884638588
 10
159.0436722383
 20
110.0005572963
 10
159.1546048641
 20
109.5546428415
 10
159.1054459334
 20
109.0990417006
 10
158.9015235424
 20
108.6831242147
 10
158.5649351821
 20
108.3519636023
 10
158.1321561009
 20
108.1414455849
 10
157.6500830472
 20
108.0743819776
 10
157.1709576294
 20
108.1580417531
  0
LWPOLYLINE
  5
15F
330
1F
100
AcDbEntity
  8
0
  6
HIDDEN
 62
     7
370
     0
100
AcDbPolyline
 90
       21
 70
   128
 43
0.0
 10
148.7043641739
 20
107.1112277287
 10
148.9914196775
 20
106.9173096049
 10
149.27455571
 20
106.8732599097
 10
149.5260565773
 20
106.9833906668
 10
149.7213036984
 20
107.2369227487
 10
149.8411849372
 20
107.60903734
 10
149.8739656292
 20
108.0633104148
 10
149.8164369025
 20
108.555273183
 10
149.6742299989
 20
109.036769748
 10
149.4612649314
 20
109.4606677371
 10
149.1983888902
 20
109.7854734699
 10
148.911332921
 20
109.9793920594
 10
148.6281968884
 20
110.0234417546
 10
148.3766960211
 20
109.9133105318
 10
148.1814489
 20
109.6597789156
 10
148.0615674284
 20
109.2876643243
 10
148.0287869692
 20
108.8333912495
 10
148.086315696
 20
108.3414284813
 10
148.2285225995
 20
107.8599319163
 10
148.441487667
 20
107.4360329959
 10
148.7043641739
 20
107.1112277287
  0
LWPOLYLINE
  5
160
330
1F
100
AcDbEntity
  8
0
  6
HIDDEN
 62
     7
370
     0
100
AcDbPolyline
 90
       23
 70
   128
 43
0.0
 10
148.828974203
 20
106.8315003368
 10
149.1528178796
 20
106.6050418022
 10
149.4752841302
 20
106.5314961898
 10
149.7702493564
 20
106.6168211701
 10
150.0138167523
 20
106.8541035357
 10
150.1862548523
 20
107.2241217199
 10
150.2735924207
 20
107.6968983116
 10
150.2687551312
 20
108.2341308075
 10
150.1721341394
 20
108.7922975722
 10
149.9915572115
 20
109.3261782381
 10
149.741654028
 20
109.7925203222
 10
149.4426696793
 20
110.1535447243
 10
149.1188264683
 20
110.3800032589
 10
148.7963597521
 20
110.4535493369
 10
148.5013947588
 20
110.3682243566
 10
148.25782713
 20
110.1309415254
 10
148.0853892628
 20
109.7609233412
 10
147.9980514616
 20
109.2881476807
 10
148.0028889839
 20
108.7509142536
 10
148.0995097429
 20
108.1927484202
 10
148.2800866708
 20
107.6588677543
 10
148.5299900871
 20
107.1925247389
 10
148.828974203
 20
106.8315003368
  0
LWPOLYLINE
  5
161
330
1F
100
AcDbEntity
  8
0
  6
HIDDEN
 62
     7
370
     0
100
AcDbPolyline
 90
       23
 70
   128
 43
0.0
 10
152.1259250351
 20
107.6210709589
 10
152.449768246
 20
107.3946124243
 10
152.7722344965
 20
107.321066812
 10
153.0672001884
 20
107.4063917923
 10
153.3107671187
 20
107.6436741578
 10
153.4832052186
 20
108.013692342
 10
153.570542787
 20
108.4864689338
 10
153.5657054976
 20
109.0237014296
 10
153.4690845058
 20
109.5818681943
 10
153.2885075778
 20
110.1157483946
 10
153.03860486
 20
110.5820909443
 10
152.7396205113
 20
110.9431153464
 10
152.4157768347
 20
111.169573881
 10
152.0933105842
 20
111.2431194934
 10
151.798345358
 20
111.1577949787
 10
151.5547774963
 20
110.9205121475
 10
151.382339862
 20
110.5504939633
 10
151.295001828
 20
110.0777178372
 10
151.2998395831
 20
109.5404848757
 10
151.3964605749
 20
108.982318111
 10
151.5770370372
 20
108.4484383765
 10
151.8269406863
 20
107.982095361
 10
152.1259250351
 20
107.6210709589
  0
LINE
  5
162
330
1F
100
AcDbEntity
  8
0
  6
HIDDEN
 62
     7
370
     0
100
AcDbLine
 10
149.5926317059
 20
108.4065335172
 30
0.0
 11
149.1285350405
 21
109.4073420691
 31
0.0
  0
LINE
  5
163
330
1F
100
AcDbEntity
  8
0
  6
HIDDEN
 62
     7
370
     0
100
AcDbLine
 10
148.487279401
 20
109.449159384
 30
0.0
 11
149.1285350405
 21
109.4073420691
 31
0.0
  0
LINE
  5
164
330
1F
100
AcDbEntity
  8
0
  6
HIDDEN
 62
     7
370
     0
100
AcDbLine
 10
148.3101208926
 20
108.4901672157
 30
0.0
 11
148.487279401
 21
109.449159384
 31
0.0
  0
LINE
  5
165
330
1F
100
AcDbEntity
  8
0
  6
HIDDEN
 62
     7
370
     0
100
AcDbLine
 10
148.3101208926
 20
108.4901672157
 30
0.0
 11
148.7742175579
 21
107.4893586638
 31
0.0
  0
LINE
  5
166
330
1F
100
AcDbEntity
  8
0
  6
HIDDEN
 62
     7
370
     0
100
AcDbLine
 10
149.4154731974
 20
107.4475422802
 30
0.0
 11
148.7742175579
 21
107.4893586638
 31
0.0
  0
LINE
  5
167
330
1F
100
AcDbEntity
  8
0
  6
HIDDEN
 62
     7
370
     0
100
AcDbLine
 10
149.4154731974
 20
107.4475422802
 30
0.0
 11
149.5926317059
 21
108.4065335172
 31
0.0
  0
LINE
  5
168
330
1F
100
AcDbEntity
  8
0
  6
HIDDEN
 62
     7
370
     0
100
AcDbLine
 10
151.6405117929
 20
108.896970779
 30
0.0
 11
149.5926317059
 21
108.4065335172
 31
0.0
  0
LINE
  5
169
330
1F
100
AcDbEntity
  8
0
  6
HIDDEN
 62
     7
370
     0
100
AcDbLine
 10
151.1764151275
 20
109.8977788652
 30
0.0
 11
149.1285350405
 21
109.4073420691
 31
0.0
  0
LINE
  5
16A
330
1F
100
AcDbEntity
  8
0
  6
HIDDEN
 62
     7
370
     0
100
AcDbLine
 10
150.8220981106
 20
107.9797959256
 30
0.0
 11
148.7742175579
 21
107.4893586638
 31
0.0
  0
LINE
  5
16B
330
1F
100
AcDbEntity
  8
0
  6
HIDDEN
 62
     7
370
     0
100
AcDbLine
 10
151.4633532845
 20
107.9379786107
 30
0.0
 11
150.8220981106
 21
107.9797959256
 31
0.0
  0
LINE
  5
16C
330
1F
100
AcDbEntity
  8
0
  6
HIDDEN
 62
     7
370
     0
100
AcDbLine
 10
151.4633532845
 20
107.9379786107
 30
0.0
 11
149.4154731974
 21
107.4475422802
 31
0.0
  0
LWPOLYLINE
  5
16D
330
1F
100
AcDbEntity
  8
0
  6
HIDDEN
 62
     7
370
     0
100
AcDbPolyline
 90
       18
 70
   128
 43
0.0
 10
152.8553568989
 20
108.3910856697
 10
153.1178697244
 20
108.2257889512
 10
153.3708290428
 20
108.2230229231
 10
153.5800720796
 20
108.3831610459
 10
153.7173397139
 20
108.6845761466
 10
153.7640921071
 20
109.0865591842
 10
153.7140158236
 20
109.5348224345
 10
153.5738741279
 20
109.9688229452
 10
153.3625933573
 20
110.3299479301
 10
153.1087083042
 20
110.569425423
 10
152.8465074718
 20
110.6549124534
 10
152.6114034698
 20
110.5748629498
 10
152.4351469472
 20
110.3400891016
 10
152.3415429749
 20
109.9822977859
 10
152.343233791
 20
109.54981114
 10
152.4399902903
 20
109.1010375249
 10
152.6187450856
 20
108.6965883451
 10
152.8553568989
 20
108.3910856697
  0
LINE
  5
16E
330
1F
100
AcDbEntity
  8
0
  6
HIDDEN
 62
     7
370
     0
100
AcDbLine
 10
150.3580009796
 20
108.9806044775
 30
0.0
 11
150.8220981106
 21
107.9797959256
 31
0.0
  0
LINE
  5
16F
330
1F
100
AcDbEntity
  8
0
  6
HIDDEN
 62
     7
370
     0
100
AcDbLine
 10
150.3580009796
 20
108.9806044775
 30
0.0
 11
150.535159488
 21
109.9395957145
 31
0.0
  0
LINE
  5
170
330
1F
100
AcDbEntity
  8
0
  6
HIDDEN
 62
     7
370
     0
100
AcDbLine
 10
150.535159488
 20
109.9395957145
 30
0.0
 11
151.1764151275
 21
109.8977788652
 31
0.0
  0
LINE
  5
171
330
1F
100
AcDbEntity
  8
0
  6
HIDDEN
 62
     7
370
     0
100
AcDbLine
 10
151.4633532845
 20
107.9379786107
 30
0.0
 11
151.6405117929
 21
108.896970779
 31
0.0
  0
LINE
  5
172
330
1F
100
AcDbEntity
  8
0
  6
HIDDEN
 62
     7
370
     0
100
AcDbLine
 10
151.6405117929
 20
108.896970779
 30
0.0
 11
151.1764151275
 21
109.8977788652
 31
0.0
  0
LINE
  5
173
330
1F
100
AcDbEntity
  8
0
  6
HIDDEN
 62
     7
370
     0
100
AcDbLine
 10
150.3580009796
 20
108.9806044775
 30
0.0
 11
148.3101208926
 21
108.4901672157
 31
0.0
  0
LINE
  5
174
330
1F
100
AcDbEntity
  8
0
  6
HIDDEN
 62
     7
370
     0
100
AcDbLine
 10
150.535159488
 20
109.9395957145
 30
0.0
 11
148.487279401
 21
109.449159384
 31
0.0
  0
LWPOLYLINE
  5
175
330
1F
100
AcDbEntity
  8
0
  6
HIDDEN
 62
     7
370
     0
100
AcDbPolyline
 90
       23
 70
   128
 43
0.0
 10
152.7396205113
 20
123.9082133698
 10
152.4157768347
 20
123.6817548352
 10
152.0933105842
 20
123.6082092228
 10
151.798345358
 20
123.6935337375
 10
151.5547774963
 20
123.9308165687
 10
151.382339862
 20
124.3008347529
 10
151.295001828
 20
124.773610879
 10
151.2998395831
 20
125.3108438405
 10
151.3964605749
 20
125.8690106052
 10
151.5770370372
 20
126.4028903398
 10
151.8269406863
 20
126.8692333552
 10
152.1259250351
 20
127.2302577573
 10
152.449768246
 20
127.4567162919
 10
152.7722344965
 20
127.5302619043
 10
153.0672001884
 20
127.444936924
 10
153.3107671187
 20
127.2076545584
 10
153.4832052186
 20
126.8376363742
 10
153.570542787
 20
126.3648597824
 10
153.5657054976
 20
125.8276272866
 10
153.4690845058
 20
125.2694605219
 10
153.2885075778
 20
124.7355803217
 10
153.03860486
 20
124.2692377719
 10
152.7396205113
 20
123.9082133698
  0
LWPOLYLINE
  5
176
330
1F
100
AcDbEntity
  8
0
  6
HIDDEN
 62
     7
370
     0
100
AcDbPolyline
 90
       18
 70
   128
 43
0.0
 10
153.2389165133
 20
124.3839655372
 10
152.9764036879
 20
124.2186692844
 10
152.7234443695
 20
124.2159032564
 10
152.5142004013
 20
124.3760413791
 10
152.3769332327
 20
124.6774560141
 10
152.3301808395
 20
125.079439983
 10
152.380257123
 20
125.527702302
 10
152.5203992844
 20
125.9617032784
 10
152.731680055
 20
126.3228282633
 10
152.9855651081
 20
126.5623057562
 10
153.2477650091
 20
126.6477927866
 10
153.4828699425
 20
126.5677437487
 10
153.659126465
 20
126.3329694348
 10
153.7527299717
 20
125.9751776534
 10
153.7510396213
 20
125.5426910075
 10
153.6542826563
 20
125.0939183238
 10
153.4755283267
 20
124.6894686784
 10
153.2389165133
 20
124.3839655372
  0
LWPOLYLINE
  5
177
330
1F
100
AcDbEntity
  8
0
  6
HIDDEN
 62
     7
370
     0
100
AcDbPolyline
 90
       23
 70
   128
 43
0.0
 10
149.4426696793
 20
124.697783992
 10
149.1188264683
 20
124.4713254574
 10
148.7963597521
 20
124.3977793793
 10
148.5013947588
 20
124.4831043596
 10
148.25782713
 20
124.7203871909
 10
148.0853892628
 20
125.090405375
 10
147.9980514616
 20
125.5631810355
 10
148.0028889839
 20
126.1004144627
 10
148.0995097429
 20
126.658580296
 10
148.2800866708
 20
127.1924609619
 10
148.5299900871
 20
127.6588039773
 10
148.828974203
 20
128.0198283794
 10
149.1528178796
 20
128.246286914
 10
149.4752841302
 20
128.3198325264
 10
149.7702493564
 20
128.2345075461
 10
150.0138167523
 20
127.9972251805
 10
150.1862548523
 20
127.6272069964
 10
150.2735924207
 20
127.1544304046
 10
150.2687551312
 20
126.6171979087
 10
150.1721341394
 20
126.0590311441
 10
149.9915572115
 20
125.5251504782
 10
149.741654028
 20
125.058808394
 10
149.4426696793
 20
124.697783992
  0
LINE
  5
178
330
1F
100
AcDbEntity
  8
0
  6
HIDDEN
 62
     7
370
     0
100
AcDbLine
 10
150.3580009796
 20
125.8707242387
 30
0.0
 11
150.8220981106
 21
126.8715327906
 31
0.0
  0
LINE
  5
179
330
1F
100
AcDbEntity
  8
0
  6
HIDDEN
 62
     7
370
     0
100
AcDbLine
 10
150.3580009796
 20
125.8707242387
 30
0.0
 11
148.3101208926
 21
126.3611615005
 31
0.0
  0
LINE
  5
17A
330
1F
100
AcDbEntity
  8
0
  6
HIDDEN
 62
     7
370
     0
100
AcDbLine
 10
150.535159488
 20
124.9117330017
 30
0.0
 11
150.3580009796
 21
125.8707242387
 31
0.0
  0
LINE
  5
17B
330
1F
100
AcDbEntity
  8
0
  6
HIDDEN
 62
     7
370
     0
100
AcDbLine
 10
150.8220981106
 20
126.8715327906
 30
0.0
 11
148.7742175579
 21
127.3619700524
 31
0.0
  0
LINE
  5
17C
330
1F
100
AcDbEntity
  8
0
  6
HIDDEN
 62
     7
370
     0
100
AcDbLine
 10
151.4633532845
 20
126.9133501056
 30
0.0
 11
150.8220981106
 21
126.8715327906
 31
0.0
  0
LINE
  5
17D
330
1F
100
AcDbEntity
  8
0
  6
HIDDEN
 62
     7
370
     0
100
AcDbLine
 10
149.4154731974
 20
127.403786436
 30
0.0
 11
148.7742175579
 21
127.3619700524
 31
0.0
  0
LINE
  5
17E
330
1F
100
AcDbEntity
  8
0
  6
HIDDEN
 62
     7
370
     0
100
AcDbLine
 10
148.487279401
 20
125.4021693322
 30
0.0
 11
148.3101208926
 21
126.3611615005
 31
0.0
  0
LWPOLYLINE
  5
17F
330
1F
100
AcDbEntity
  8
0
  6
HIDDEN
 62
     7
370
     0
100
AcDbPolyline
 90
       21
 70
   128
 43
0.0
 10
149.1983888902
 20
125.0658552463
 10
148.911332921
 20
124.8719366568
 10
148.6281968884
 20
124.8278869617
 10
148.3766960211
 20
124.9380181844
 10
148.1814489
 20
125.1915498006
 10
148.0615674284
 20
125.5636643919
 10
148.0287869692
 20
126.0179374668
 10
148.086315696
 20
126.5099002349
 10
148.2285225995
 20
126.9913968
 10
148.441487667
 20
127.4152957204
 10
148.7043641739
 20
127.7401009875
 10
148.9914196775
 20
127.9340191114
 10
149.27455571
 20
127.9780688065
 10
149.5260565773
 20
127.8679380494
 10
149.7213036984
 20
127.6144059676
 10
149.8411849372
 20
127.2422913763
 10
149.8739656292
 20
126.7880183014
 10
149.8164369025
 20
126.2960555333
 10
149.6742299989
 20
125.8145589682
 10
149.4612649314
 20
125.3906609791
 10
149.1983888902
 20
125.0658552463
  0
LINE
  5
180
330
1F
100
AcDbEntity
  8
0
  6
HIDDEN
 62
     7
370
     0
100
AcDbLine
 10
148.3101208926
 20
126.3611615005
 30
0.0
 11
148.7742175579
 21
127.3619700524
 31
0.0
  0
LINE
  5
181
330
1F
100
AcDbEntity
  8
0
  6
HIDDEN
 62
     7
370
     0
100
AcDbLine
 10
151.1764151275
 20
124.953549851
 30
0.0
 11
149.1285350405
 21
125.4439866471
 31
0.0
  0
LINE
  5
182
330
1F
100
AcDbEntity
  8
0
  6
HIDDEN
 62
     7
370
     0
100
AcDbLine
 10
148.487279401
 20
125.4021693322
 30
0.0
 11
149.1285350405
 21
125.4439866471
 31
0.0
  0
LINE
  5
183
330
1F
100
AcDbEntity
  8
0
  6
HIDDEN
 62
     7
370
     0
100
AcDbLine
 10
150.535159488
 20
124.9117330017
 30
0.0
 11
148.487279401
 21
125.4021693322
 31
0.0
  0
LINE
  5
184
330
1F
100
AcDbEntity
  8
0
  6
HIDDEN
 62
     7
370
     0
100
AcDbLine
 10
150.535159488
 20
124.9117330017
 30
0.0
 11
151.1764151275
 21
124.953549851
 31
0.0
  0
LINE
  5
185
330
1F
100
AcDbEntity
  8
0
  6
HIDDEN
 62
     7
370
     0
100
AcDbLine
 10
151.6405117929
 20
125.9543579373
 30
0.0
 11
149.5926317059
 21
126.444795199
 31
0.0
  0
LINE
  5
186
330
1F
100
AcDbEntity
  8
0
  6
HIDDEN
 62
     7
370
     0
100
AcDbLine
 10
149.5926317059
 20
126.444795199
 30
0.0
 11
149.1285350405
 21
125.4439866471
 31
0.0
  0
LINE
  5
187
330
1F
100
AcDbEntity
  8
0
  6
HIDDEN
 62
     7
370
     0
100
AcDbLine
 10
151.6405117929
 20
125.9543579373
 30
0.0
 11
151.1764151275
 21
124.953549851
 31
0.0
  0
LINE
  5
188
330
1F
100
AcDbEntity
  8
0
  6
HIDDEN
 62
     7
370
     0
100
AcDbLine
 10
149.5926317059
 20
126.444795199
 30
0.0
 11
149.4154731974
 21
127.403786436
 31
0.0
  0
LINE
  5
189
330
1F
100
AcDbEntity
  8
0
  6
HIDDEN
 62
     7
370
     0
100
AcDbLine
 10
151.4633532845
 20
126.9133501056
 30
0.0
 11
149.4154731974
 21
127.403786436
 31
0.0
  0
LINE
  5
18A
330
1F
100
AcDbEntity
  8
0
  6
HIDDEN
 62
     7
370
     0
100
AcDbLine
 10
151.6405117929
 20
125.9543579373
 30
0.0
 11
151.4633532845
 21
126.9133501056
 31
0.0
  0
LINE
  5
18B
330
1F
100
AcDbEntity
  8
0
  6
HIDDEN
 62
     7
370
     0
100
AcDbLine
 10
159.6772789255
 20
106.5668212551
 30
0.0
 11
159.6772789255
 21
109.388191283
 31
0.0
  0
LINE
  5
18C
330
1F
100
AcDbEntity
  8
0
  6
HIDDEN
 62
     7
370
     0
100
AcDbLine
 10
155.6772792012
 20
109.3712365556
 30
0.0
 11
155.6772792012
 21
107.8497805002
 31
0.0
  0
LINE
  5
18D
330
1F
100
AcDbEntity
  8
0
  6
HIDDEN
 62
     7
370
     0
100
AcDbLine
 10
147.8772791799
 20
106.031739183
 30
0.0
 11
149.5950959854
 21
106.4431304413
 31
0.0
  0
LINE
  5
18E
330
1F
100
AcDbEntity
  8
0
  6
HIDDEN
 62
     7
370
     0
100
AcDbLine
 10
148.6169185721
 20
110.5276341851
 30
0.0
 11
147.8772791799
 21
110.3505017537
 31
0.0
  0
LINE
  5
18F
330
1F
100
AcDbEntity
  8
0
  6
HIDDEN
 62
     7
370
     0
100
AcDbLine
 10
149.6244573266
 20
106.912886754
 30
0.0
 11
157.0073000387
 21
108.6809672716
 31
0.0
  0
LINE
  5
190
330
1F
100
AcDbEntity
  8
0
  6
HIDDEN
 62
     7
370
     0
100
AcDbLine
 10
157.0073000387
 20
112.0742811191
 30
0.0
 11
148.8558894255
 21
110.1221395957
 31
0.0
  0
LINE
  5
191
330
1F
100
AcDbEntity
  8
0
  6
HIDDEN
 62
     7
370
     0
100
AcDbLine
 10
203.7772775859
 20
140.9256635535
 30
0.0
 11
203.2272794515
 21
139.7461863535
 31
0.0
  0
LINE
  5
192
330
1F
100
AcDbEntity
  8
0
  6
HIDDEN
 62
     7
370
     0
100
AcDbLine
 10
203.2272794515
 20
95.1051423627
 30
0.0
 11
203.7772775859
 21
93.9256651628
 31
0.0
  0
LINE
  5
193
330
1F
100
AcDbEntity
  8
0
  6
HIDDEN
 62
     7
370
     0
100
AcDbLine
 10
159.3272795201
 20
109.4317604157
 30
0.0
 11
159.3272795201
 21
115.9745739142
 31
0.0
  0
LINE
  5
194
330
1F
100
AcDbEntity
  8
0
  6
HIDDEN
 62
     7
370
     0
100
AcDbLine
 10
156.0272795379
 20
109.4540003988
 30
0.0
 11
156.0272795379
 21
109.4317604157
 31
0.0
  0
LINE
  5
195
330
1F
100
AcDbEntity
  8
0
  6
HIDDEN
 62
     7
370
     0
100
AcDbLine
 10
156.0272795379
 20
115.9742818282
 30
0.0
 11
156.0272795379
 21
110.8318474444
 31
0.0
  0
LINE
  5
196
330
1F
100
AcDbEntity
  8
0
  6
HIDDEN
 62
     7
370
     0
100
AcDbLine
 10
203.2272794515
 20
136.6256652701
 30
0.0
 11
199.2272787959
 21
136.6256652701
 31
0.0
  0
LINE
  5
197
330
1F
100
AcDbEntity
  8
0
  6
HIDDEN
 62
     7
370
     0
100
AcDbLine
 10
199.2272787959
 20
98.2256634462
 30
0.0
 11
203.2272794515
 21
98.2256634462
 31
0.0
  0
LINE
  5
198
330
1F
100
AcDbEntity
  8
0
  6
HIDDEN
 62
     7
370
     0
100
AcDbLine
 10
199.2272787959
 20
133.1184851306
 30
0.0
 11
198.0272808343
 21
132.4256640228
 31
0.0
  0
LINE
  5
199
330
1F
100
AcDbEntity
  8
0
  6
HIDDEN
 62
     7
370
     0
100
AcDbLine
 10
198.0272808343
 20
102.4256646934
 30
0.0
 11
199.2272787959
 21
101.7328435856
 31
0.0
  0
ARC
  5
19A
330
1F
100
AcDbEntity
  8
0
  6
HIDDEN
 62
     7
370
     0
100
AcDbCircle
 10
174.07867252
 20
102.7256643581
 30
0.0
 40
0.5999999999999943
100
AcDbArc
 50
270.0
 51
285.0
  0
ARC
  5
19B
330
1F
100
AcDbEntity
  8
0
  6
HIDDEN
 62
     7
370
     0
100
AcDbCircle
 10
174.07867252
 20
132.1256643581
 30
0.0
 40
0.6000000000000227
100
AcDbArc
 50
75.0
 51
90.0
  0
LINE
  5
19C
330
1F
100
AcDbEntity
  8
0
  6
HIDDEN
 62
     7
370
     0
100
AcDbLine
 10
173.3772789359
 20
102.1256642717
 30
0.0
 11
174.078672868
 21
102.1256642717
 31
0.0
  0
LINE
  5
19D
330
1F
100
AcDbEntity
  8
0
  6
HIDDEN
 62
     7
370
     0
100
AcDbLine
 10
174.078672868
 20
132.7256644445
 30
0.0
 11
173.3772789359
 21
132.7256644445
 31
0.0
  0
ARC
  5
19E
330
1F
100
AcDbEntity
  8
0
  6
HIDDEN
 62
     7
370
     0
100
AcDbCircle
 10
173.3772792608
 20
102.7256643581
 30
0.0
 40
0.5999999999999943
100
AcDbArc
 50
180.0
 51
270.0
  0
ARC
  5
19F
330
1F
100
AcDbEntity
  8
0
  6
HIDDEN
 62
     7
370
     0
100
AcDbCircle
 10
173.3772792608
 20
132.1256643581
 30
0.0
 40
0.6000000000000227
100
AcDbArc
 50
90.0
 51
180.0
  0
LINE
  5
1A0
330
1F
100
AcDbEntity
  8
0
  6
HIDDEN
 62
     7
370
     0
100
AcDbLine
 10
174.2339634568
 20
102.1461086648
 30
0.0
 11
175.2772794336
 21
102.4256646934
 31
0.0
  0
LINE
  5
1A1
330
1F
100
AcDbEntity
  8
0
  6
HIDDEN
 62
     7
370
     0
100
AcDbLine
 10
175.2772794336
 20
132.4256640228
 30
0.0
 11
174.2339634568
 21
132.7052200514
 31
0.0
  0
LINE
  5
1A2
330
1F
100
AcDbEntity
  8
0
  6
HIDDEN
 62
     7
370
     0
100
AcDbLine
 10
175.2772794336
 20
102.4256646934
 30
0.0
 11
198.0272808343
 21
102.4256646934
 31
0.0
  0
LINE
  5
1A3
330
1F
100
AcDbEntity
  8
0
  6
HIDDEN
 62
     7
370
     0
100
AcDbLine
 10
198.0272808343
 20
132.4256640228
 30
0.0
 11
175.2772794336
 21
132.4256640228
 31
0.0
  0
LINE
  5
1A4
330
1F
100
AcDbEntity
  8
0
  6
HIDDEN
 62
     7
370
     0
100
AcDbLine
 10
203.2272794515
 20
138.7006650048
 30
0.0
 11
199.2272787959
 21
138.7006650048
 31
0.0
  0
LINE
  5
1A5
330
1F
100
AcDbEntity
  8
0
  6
HIDDEN
 62
     7
370
     0
100
AcDbLine
 10
199.2272787959
 20
96.1506637114
 30
0.0
 11
203.2272794515
 21
96.1506637114
 31
0.0
  0
ARC
  5
1A6
330
1F
100
AcDbEntity
  8
0
  6
HIDDEN
 62
     7
370
     0
100
AcDbCircle
 10
77.2272792608
 20
108.1256643581
 30
0.0
 40
0.7999999999999972
100
AcDbArc
 50
90.0
 51
180.0
  0
ARC
  5
1A7
330
1F
100
AcDbEntity
  8
0
  6
HIDDEN
 62
     7
370
     0
100
AcDbCircle
 10
77.2272792608
 20
126.7256643581
 30
0.0
 40
0.7999999999999972
100
AcDbArc
 50
180.0
 51
270.0
  0
ARC
  5
1A8
330
1F
100
AcDbEntity
  8
0
  6
HIDDEN
 62
     7
370
     0
100
AcDbCircle
 10
85.1963391531
 20
109.1006643581
 30
0.0
 40
0.4000000000000199
100
AcDbArc
 50
270.0
 51
330.0
  0
ARC
  5
1A9
330
1F
100
AcDbEntity
  8
0
  6
HIDDEN
 62
     7
370
     0
100
AcDbCircle
 10
85.1963391531
 20
125.7506643581
 30
0.0
 40
0.4000000000000199
100
AcDbArc
 50
30.0
 51
90.0
  0
LINE
  5
1AA
330
1F
100
AcDbEntity
  8
0
  6
HIDDEN
 62
     7
370
     0
100
AcDbLine
 10
84.3196527332
 20
108.7006647441
 30
0.0
 11
85.1963402003
 21
108.7006647441
 31
0.0
  0
LINE
  5
1AB
330
1F
100
AcDbEntity
  8
0
  6
HIDDEN
 62
     7
370
     0
100
AcDbLine
 10
85.1963402003
 20
126.1506639722
 30
0.0
 11
84.3196527332
 21
126.1506639722
 31
0.0
  0
ARC
  5
1AC
330
1F
100
AcDbEntity
  8
0
  6
HIDDEN
 62
     7
370
     0
100
AcDbCircle
 10
84.3196516915
 20
109.1006643581
 30
0.0
 40
0.4000000000000057
100
AcDbArc
 50
255.0
 51
270.0
  0
ARC
  5
1AD
330
1F
100
AcDbEntity
  8
0
  6
HIDDEN
 62
     7
370
     0
100
AcDbCircle
 10
84.3196516915
 20
125.7506643581
 30
0.0
 40
0.3999999999999915
100
AcDbArc
 50
90.0
 51
105.0
  0
LINE
  5
1AE
330
1F
100
AcDbEntity
  8
0
  6
HIDDEN
 62
     7
370
     0
100
AcDbLine
 10
84.2161231905
 20
126.1370349976
 30
0.0
 11
83.4272780687
 21
125.92566482
 31
0.0
  0
LINE
  5
1AF
330
1F
100
AcDbEntity
  8
0
  6
HIDDEN
 62
     7
370
     0
100
AcDbLine
 10
83.4272780687
 20
108.9256638962
 30
0.0
 11
84.2161231905
 21
108.7142937186
 31
0.0
  0
LINE
  5
1B0
330
1F
100
AcDbEntity
  8
0
  6
HIDDEN
 62
     7
370
     0
100
AcDbLine
 10
85.5427474946
 20
108.9006644043
 30
0.0
 11
86.4232086808
 21
110.425664142
 31
0.0
  0
LINE
  5
1B1
330
1F
100
AcDbEntity
  8
0
  6
HIDDEN
 62
     7
370
     0
100
AcDbLine
 10
86.4232086808
 20
124.4256645742
 30
0.0
 11
85.5427474946
 21
125.9506643119
 31
0.0
  0
LINE
  5
1B2
330
1F
100
AcDbEntity
  8
0
  6
HIDDEN
 62
     7
370
     0
100
AcDbLine
 10
77.227277425
 20
108.9256638962
 30
0.0
 11
83.4272780687
 21
108.9256638962
 31
0.0
  0
LINE
  5
1B3
330
1F
100
AcDbEntity
  8
0
  6
HIDDEN
 62
     7
370
     0
100
AcDbLine
 10
83.4272780687
 20
125.92566482
 30
0.0
 11
77.227277425
 21
125.92566482
 31
0.0
  0
LINE
  5
1B4
330
1F
100
AcDbEntity
  8
0
  6
HIDDEN
 62
     7
370
     0
100
AcDbLine
 10
119.4272783816
 20
110.425664142
 30
0.0
 11
121.0796457947
 21
113.1756641271
 31
0.0
  0
LINE
  5
1B5
330
1F
100
AcDbEntity
  8
0
  6
HIDDEN
 62
     7
370
     0
100
AcDbLine
 10
121.0796457947
 20
121.6756645891
 30
0.0
 11
119.4272783816
 21
124.4256645742
 31
0.0
  0
LINE
  5
1B6
330
1F
100
AcDbEntity
  8
0
  6
HIDDEN
 62
     7
370
     0
100
AcDbLine
 10
86.4232086808
 20
110.425664142
 30
0.0
 11
119.4272783816
 21
110.425664142
 31
0.0
  0
LINE
  5
1B7
330
1F
100
AcDbEntity
  8
0
  6
HIDDEN
 62
     7
370
     0
100
AcDbLine
 10
119.4272783816
 20
124.4256645742
 30
0.0
 11
86.4232086808
 21
124.4256645742
 31
0.0
  0
ARC
  5
1B8
330
1F
100
AcDbEntity
  8
0
  6
HIDDEN
 62
     7
370
     0
100
AcDbCircle
 10
170.1772792608
 20
93.2256643581
 30
0.0
 40
1.599999999999994
100
AcDbArc
 50
0.0
 51
90.0
  0
LINE
  5
1B9
330
1F
100
AcDbEntity
  8
0
  6
HIDDEN
 62
     7
370
     0
100
AcDbLine
 10
171.7772797913
 20
92.4256639856
 30
0.0
 11
171.7772797913
 21
93.2256644892
 31
0.0
  0
LINE
  5
1BA
330
1F
100
AcDbEntity
  8
0
  6
HIDDEN
 62
     7
370
     0
100
AcDbLine
 10
121.0796457947
 20
113.1756641271
 30
0.0
 11
172.7772799552
 21
113.1756641271
 31
0.0
  0
LINE
  5
1BB
330
1F
100
AcDbEntity
  8
0
  6
HIDDEN
 62
     7
370
     0
100
AcDbLine
 10
172.7772799552
 20
121.6756645891
 30
0.0
 11
121.0796457947
 21
121.6756645891
 31
0.0
  0
LINE
  5
1BC
330
1F
100
AcDbEntity
  8
0
  6
HIDDEN
 62
     7
370
     0
100
AcDbLine
 10
171.7772797913
 20
142.2256650704
 30
0.0
 11
171.7772797913
 21
142.4256647306
 31
0.0
  0
LINE
  5
1BD
330
1F
100
AcDbEntity
  8
0
  6
HIDDEN
 62
     7
370
     0
100
AcDbLine
 10
159.3272795201
 20
118.877046888
 30
0.0
 11
159.3272795201
 21
125.4195683005
 31
0.0
  0
LINE
  5
1BE
330
1F
100
AcDbEntity
  8
0
  6
HIDDEN
 62
     7
370
     0
100
AcDbLine
 10
156.0272795379
 20
124.0194812718
 30
0.0
 11
156.0272795379
 21
118.876754802
 31
0.0
  0
LINE
  5
1BF
330
1F
100
AcDbEntity
  8
0
  6
HIDDEN
 62
     7
370
     0
100
AcDbLine
 10
156.0272795379
 20
125.4195683005
 30
0.0
 11
156.0272795379
 21
125.3973283174
 31
0.0
  0
LINE
  5
1C0
330
1F
100
AcDbEntity
  8
0
  6
HIDDEN
 62
     7
370
     0
100
AcDbLine
 10
148.8558894255
 20
124.7291891205
 30
0.0
 11
157.0073000387
 21
122.7770475971
 31
0.0
  0
LINE
  5
1C1
330
1F
100
AcDbEntity
  8
0
  6
HIDDEN
 62
     7
370
     0
100
AcDbLine
 10
157.0073000387
 20
126.1703614446
 30
0.0
 11
149.6244573266
 21
127.9384419623
 31
0.0
  0
LINE
  5
1C2
330
1F
100
AcDbEntity
  8
0
  6
HIDDEN
 62
     7
370
     0
100
AcDbLine
 10
159.6772789255
 20
125.4631374332
 30
0.0
 11
159.6772789255
 21
128.2845074612
 31
0.0
  0
LINE
  5
1C3
330
1F
100
AcDbEntity
  8
0
  6
HIDDEN
 62
     7
370
     0
100
AcDbLine
 10
155.6772792012
 20
127.001548216
 30
0.0
 11
155.6772792012
 21
125.4800921607
 31
0.0
  0
LINE
  5
1C4
330
1F
100
AcDbEntity
  8
0
  6
HIDDEN
 62
     7
370
     0
100
AcDbLine
 10
147.8772791799
 20
124.5008269626
 30
0.0
 11
148.6169185721
 21
124.3236945311
 31
0.0
  0
LINE
  5
1C5
330
1F
100
AcDbEntity
  8
0
  6
HIDDEN
 62
     7
370
     0
100
AcDbLine
 10
149.5950959854
 20
128.4081982749
 30
0.0
 11
147.8772791799
 21
128.8195895332
 31
0.0
  0
LINE
  5
1C6
330
1F
100
AcDbEntity
  8
0
  6
HIDDEN
 62
     7
370
     0
100
AcDbLine
 10
159.6772789255
 20
125.4886808175
 30
0.0
 11
159.6772789255
 21
125.813599706
 31
0.0
  0
LINE
  5
1C7
330
1F
100
AcDbEntity
  8
0
  6
HIDDEN
 62
     7
370
     0
100
AcDbLine
 10
155.6772792012
 20
125.813599706
 30
0.0
 11
155.6772792012
 21
125.4886808175
 31
0.0
  0
LINE
  5
1C8
330
1F
100
AcDbEntity
  8
0
  6
HIDDEN
 62
     7
370
     0
100
AcDbLine
 10
159.1772788435
 20
125.7506767589
 30
0.0
 11
159.1772788435
 21
126.7541554126
 31
0.0
  0
LINE
  5
1C9
330
1F
100
AcDbEntity
  8
0
  6
HIDDEN
 62
     7
370
     0
100
AcDbLine
 10
156.1772792831
 20
126.7541554126
 30
0.0
 11
156.1772792831
 21
125.7506767589
 31
0.0
  0
LINE
  5
1CA
330
1F
100
AcDbEntity
  8
0
  6
HIDDEN
 62
     7
370
     0
100
AcDbLine
 10
159.6772789255
 20
126.5831450301
 30
0.0
 11
159.6772789255
 21
126.7199535224
 31
0.0
  0
LINE
  5
1CB
330
1F
100
AcDbEntity
  8
0
  6
HIDDEN
 62
     7
370
     0
100
AcDbLine
 10
155.6772792012
 20
126.7199535224
 30
0.0
 11
155.6772792012
 21
126.5831450301
 31
0.0
  0
LINE
  5
1CC
330
1F
100
AcDbEntity
  8
0
  6
HIDDEN
 62
     7
370
     0
100
AcDbLine
 10
155.6772792012
 20
108.2681836861
 30
0.0
 11
155.6772792012
 21
108.1313751939
 31
0.0
  0
LINE
  5
1CD
330
1F
100
AcDbEntity
  8
0
  6
HIDDEN
 62
     7
370
     0
100
AcDbLine
 10
159.6772789255
 20
108.1313751939
 30
0.0
 11
159.6772789255
 21
108.2681836861
 31
0.0
  0
LINE
  5
1CE
330
1F
100
AcDbEntity
  8
0
  6
HIDDEN
 62
     7
370
     0
100
AcDbLine
 10
156.1772792831
 20
109.1006519574
 30
0.0
 11
156.1772792831
 21
108.0971733036
 31
0.0
  0
LINE
  5
1CF
330
1F
100
AcDbEntity
  8
0
  6
HIDDEN
 62
     7
370
     0
100
AcDbLine
 10
159.1772788435
 20
108.0971733036
 30
0.0
 11
159.1772788435
 21
109.1006519574
 31
0.0
  0
LINE
  5
1D0
330
1F
100
AcDbEntity
  8
0
  6
HIDDEN
 62
     7
370
     0
100
AcDbLine
 10
155.6772792012
 20
109.3626478988
 30
0.0
 11
155.6772792012
 21
109.0377290103
 31
0.0
  0
LINE
  5
1D1
330
1F
100
AcDbEntity
  8
0
  6
HIDDEN
 62
     7
370
     0
100
AcDbLine
 10
159.6772789255
 20
109.0377290103
 30
0.0
 11
159.6772789255
 21
109.3626478988
 31
0.0
  0
CIRCLE
  5
1D2
330
1F
100
AcDbEntity
  8
0
  6
HIDDEN
 62
     7
370
     0
100
AcDbCircle
 10
157.6772792608
 20
126.1727211075
 30
0.0
 40
1.500000000000006
  0
ARC
  5
1D3
330
1F
100
AcDbEntity
  8
0
  6
HIDDEN
 62
     7
370
     0
100
AcDbCircle
 10
157.6772792608
 20
108.6786076088
 30
0.0
 40
1.500000000000014
100
AcDbArc
 50
71.1182787691
 51
191.5274417168
  0
ARC
  5
1D4
330
1F
100
AcDbEntity
  8
0
  6
HIDDEN
 62
     7
370
     0
100
AcDbCircle
 10
157.6772792608
 20
108.6786076088
 30
0.0
 40
1.500000000000014
100
AcDbArc
 50
337.3512168965
 51
71.1182787691
  0
LINE
  5
1D5
330
1F
100
AcDbEntity
  8
0
  6
HIDDEN
 62
     7
370
     0
100
AcDbLine
 10
149.6016208314
 20
106.5475214573
 30
0.0
 11
152.8985711977
 21
107.3370911482
 31
0.0
  0
LINE
  5
1D6
330
1F
100
AcDbEntity
  8
0
  6
HIDDEN
 62
     7
370
     0
100
AcDbLine
 10
151.9669734173
 20
111.2270946915
 30
0.0
 11
148.6700230509
 21
110.437524535
 31
0.0
  0
LINE
  5
1D7
330
1F
100
AcDbEntity
  8
0
  6
HIDDEN
 62
     7
370
     0
100
AcDbLine
 10
153.461535205
 20
107.9480666968
 30
0.0
 11
153.6901134298
 21
108.5954578894
 31
0.0
  0
LINE
  5
1D8
330
1F
100
AcDbEntity
  8
0
  6
HIDDEN
 62
     7
370
     0
100
AcDbLine
 10
153.2426725373
 20
110.4638018015
 30
0.0
 11
152.7456303358
 21
110.9374175149
 31
0.0
  0
LINE
  5
1D9
330
1F
100
AcDbEntity
  8
0
  6
HIDDEN
 62
     7
370
     0
100
AcDbLine
 10
152.7456303358
 20
123.9139112013
 30
0.0
 11
153.2426725373
 21
124.3875269148
 31
0.0
  0
LINE
  5
1DA
330
1F
100
AcDbEntity
  8
0
  6
HIDDEN
 62
     7
370
     0
100
AcDbLine
 10
153.6901134298
 20
126.2558708268
 30
0.0
 11
153.461535205
 21
126.9032620194
 31
0.0
  0
LINE
  5
1DB
330
1F
100
AcDbEntity
  8
0
  6
HIDDEN
 62
     7
370
     0
100
AcDbLine
 10
148.6700230509
 20
124.4138041812
 30
0.0
 11
151.9669734173
 21
123.6242340247
 31
0.0
  0
LINE
  5
1DC
330
1F
100
AcDbEntity
  8
0
  6
HIDDEN
 62
     7
370
     0
100
AcDbLine
 10
152.8985711977
 20
127.5142375681
 30
0.0
 11
149.6016208314
 21
128.3038072589
 31
0.0
  0
DIMENSION
  5
1DD
330
1F
100
AcDbEntity
  8
VERMASSUNG
100
AcDbDimension
  2
_D
 10
70.1171258214
 20
149.1756643581
 30
0.0
 11
70.1171258214
 21
117.4256643581
 31
0.0
 70
   160
  1
ISO 40 %%c<>
 71
     2
 42
-1.0
  3
SLDDIMSTYLE0
100
AcDbAlignedDimension
 13
163.1272792608
 23
85.6756643581
 33
0.0
 14
163.1272792608
 24
149.1756643581
 34
0.0
 50
90.0
100
AcDbRotatedDimension
  0
DIMENSION
  5
1EA
330
1F
100
AcDbEntity
  8
VERMASSUNG
100
AcDbDimension
  2
_D_1
 10
203.7772792608
 20
167.9278361929
 30
0.0
 11
140.1022792608
 21
167.9278361929
 31
0.0
 70
   160
  1
(<>)
 71
     2
 42
-1.0
  3
SLDDIMSTYLE0
100
AcDbAlignedDimension
 13
76.4272792608
 23
128.8327949551
 33
0.0
 14
203.7772792608
 24
144.4256643581
 34
0.0
100
AcDbRotatedDimension
  0
DIMENSION
  5
1F6
330
1F
100
AcDbEntity
  8
VERMASSUNG
100
AcDbDimension
  2
_D_2
 10
203.7772792608
 20
161.9278361929
 30
0.0
 11
174.2272792608
 21
161.9278361929
 31
0.0
 70
   160
  1
<>
 71
     2
 42
-1.0
  3
SLDDIMSTYLE0
100
AcDbAlignedDimension
 13
144.6772792608
 23
139.6506643581
 33
0.0
 14
203.7772792608
 24
144.4256643581
 34
0.0
100
AcDbRotatedDimension
  0
DIMENSION
  5
200
330
1F
100
AcDbEntity
  8
VERMASSUNG
100
AcDbDimension
  2
_D_3
 10
203.7772792608
 20
155.9278361929
 30
0.0
 11
183.7522792608
 21
155.9278361929
 31
0.0
 70
   160
  1
<>
 71
     2
 42
-1.0
  3
SLDDIMSTYLE0
100
AcDbAlignedDimension
 13
163.7272792608
 23
142.5970767142
 33
0.0
 14
203.7772792608
 24
144.4256643581
 34
0.0
100
AcDbRotatedDimension
  0
DIMENSION
  5
20A
330
1F
100
AcDbEntity
  8
VERMASSUNG
100
AcDbDimension
  2
_D_4
 10
211.8336821943
 20
89.9256643581
 30
0.0
 11
211.8336821943
 21
117.4256643581
 31
0.0
 70
   160
  1
MBM %%c<>
 71
     2
 42
-1.0
  3
SLDDIMSTYLE0
100
AcDbAlignedDimension
 13
203.2772792608
 23
144.9256643581
 33
0.0
 14
203.2772792608
 24
89.9256643581
 34
0.0
 50
90.0
100
AcDbRotatedDimension
  0
LINE
  5
216
330
1F
100
AcDbEntity
  8
VERMASSUNG
  6
CENTERX2
 62
     7
370
     0
100
AcDbLine
 10
74.4272792608
 20
117.4256643581
 30
0.0
 11
205.7772792608
 21
117.4256643581
 31
0.0
  0
LINE
  5
217
330
1F
100
AcDbEntity
  8
VERMASSUNG
  6
CENTERX2
370
     0
100
AcDbLine
 10
147.2951718137
 20
126.7996142779
 30
0.0
 11
158.9523020663
 21
124.0079054768
 31
0.0
  0
LINE
  5
218
330
1F
100
AcDbEntity
  8
VERMASSUNG
  6
CENTERX2
370
     0
100
AcDbLine
 10
147.2951718137
 20
108.0517144383
 30
0.0
 11
158.9523020663
 21
110.8434232394
 31
0.0
  0
LINE
  5
219
330
1F
100
AcDbEntity
  8
0
  6
Continuous
 62
     7
370
    15
100
AcDbLine
 10
276.2978143556
 20
41.1491606128
 30
0.0
 11
276.1210086554
 21
41.2512611658
 31
0.0
  0
LINE
  5
21A
330
1F
100
AcDbEntity
  8
0
  6
Continuous
 62
     7
370
    15
100
AcDbLine
 10
272.231290604
 20
41.2512604687
 30
0.0
 11
272.0544848239
 21
41.1491602499
 31
0.0
  0
LINE
  5
21B
330
1F
100
AcDbEntity
  8
0
  6
Continuous
 62
     7
370
    15
100
AcDbLine
 10
277.1761499042
 20
39.618543553
 30
0.0
 11
277.1761499042
 21
39.924746978
 31
0.0
  0
LINE
  5
21C
330
1F
100
AcDbEntity
  8
0
  6
Continuous
 62
     7
370
    15
100
AcDbLine
 10
271.1761492456
 20
39.9247475483
 30
0.0
 11
271.1761492456
 21
39.6185441233
 31
0.0
  0
LINE
  5
21D
330
1F
100
AcDbEntity
  8
0
  6
Continuous
 62
     7
370
    15
100
AcDbLine
 10
279.1451553799
 20
14.8072883992
 30
0.0
 11
279.3219023851
 21
14.9093569693
 31
0.0
  0
LINE
  5
21E
330
1F
100
AcDbEntity
  8
0
  6
Continuous
 62
     7
370
    15
100
AcDbLine
 10
288.8662926948
 20
31.4425167003
 30
0.0
 11
288.8662933534
 21
31.6466180014
 31
0.0
  0
LINE
  5
21F
330
1F
100
AcDbEntity
  8
0
  6
Continuous
 62
     7
370
    15
100
AcDbLine
 10
264.435583513
 20
18.6478522927
 30
0.0
 11
272.2691337545
 21
14.1256399962
 31
0.0
  0
LINE
  5
220
330
1F
100
AcDbEntity
  8
0
  6
Continuous
 62
     7
370
    15
100
AcDbLine
 10
286.018016575
 20
37.9419845298
 30
0.0
 11
278.1844663335
 21
42.4641968263
 31
0.0
  0
LINE
  5
221
330
1F
100
AcDbEntity
  8
0
  6
Continuous
 62
     7
370
    15
100
AcDbLine
 10
259.2645998401
 20
23.0763347303
 30
0.0
 11
262.1961904012
 21
21.3839635225
 31
0.0
  0
LINE
  5
222
330
1F
100
AcDbEntity
  8
0
  6
Continuous
 62
     7
370
    15
100
AcDbLine
 10
274.6951741848
 20
43.0351852036
 30
0.0
 11
271.7635836237
 21
44.7275564115
 31
0.0
  0
SPLINE
  5
223
330
1F
100
AcDbEntity
  8
0
  6
Continuous
 62
     7
370
    15
100
AcDbSpline
210
0.0
220
0.0
230
1.0
 70
     8
 71
     3
 72
    32
 73
    28
 74
     0
 42
0.000000001
 43
0.00000001
 40
0.0
 40
0.0
 40
0.0
 40
0.0
 40
0.0098498295183582
 40
0.0523789881414409
 40
0.0950226536002058
 40
0.1378392457622555
 40
0.1808120032730414
 40
0.2239047442762433
 40
0.2670769424487287
 40
0.3102934416285723
 40
0.3535282131658392
 40
0.3967610641091772
 40
0.439983161191637
 40
0.4831909821593363
 40
0.5263838318583778
 40
0.5695627868404384
 40
0.61272990591811
 40
0.6558878108079227
 40
0.6990394624671294
 40
0.7421879486189134
 40
0.7853364355045357
 40
0.8284874571322534
 40
0.8716438648172132
 40
0.9148089214675407
 40
0.9579858491038866
 40
0.9989098756167869
 40
1.0
 40
1.0
 40
1.0
 40
1.0
 10
266.2069481373914
 20
51.55877322493101
 30
0.0
 10
266.1483420562378
 20
51.57371282318402
 30
0.0
 10
265.836689227726
 20
51.65315795858191
 30
0.0
 10
265.2429861974421
 20
51.7294584507474
 30
0.0
 10
264.4153514993318
 20
51.74818405504908
 30
0.0
 10
263.5549449796655
 20
51.66563526755938
 30
0.0
 10
262.6691308020073
 20
51.48668518274168
 30
0.0
 10
261.7634369796808
 20
51.21108064686609
 30
0.0
 10
260.8443586205465
 20
50.84100748919289
 30
0.0
 10
259.9182874076047
 20
50.37900134095536
 30
0.0
 10
258.9916444023809
 20
49.82843642180051
 30
0.0
 10
258.0707230084539
 20
49.19325081889114
 30
0.0
 10
257.1616755633069
 20
48.47793813930205
 30
0.0
 10
256.2704849617443
 20
47.68743581215225
 30
0.0
 10
255.402983318258
 20
46.82713968748672
 30
0.0
 10
254.5648417924474
 20
45.90286141299127
 30
0.0
 10
253.7615424562757
 20
44.92080752439124
 30
0.0
 10
252.9983491074217
 20
43.88754175687399
 30
0.0
 10
252.2802752447845
 20
42.8099478032956
 30
0.0
 10
251.6120528335519
 20
41.69518475270792
 30
0.0
 10
250.9981104753709
 20
40.55065430000005
 30
0.0
 10
250.4425077084468
 20
39.38393646468101
 30
0.0
 10
249.9490464268348
 20
38.20277853452912
 30
0.0
 10
249.5207154193117
 20
37.01488174268189
 30
0.0
 10
249.1679521820273
 20
35.84919971049594
 30
0.0
 10
248.9748679117409
 20
35.07422639843426
 30
0.0
 10
248.893344960494
 20
34.69533958611788
 30
0.0
 10
248.891229717057
 20
34.685508761413
 30
0.0
  0
LINE
  5
224
330
1F
100
AcDbEntity
  8
0
  6
Continuous
 62
     7
370
    15
100
AcDbLine
 10
258.6724451796
 20
49.5935256582
 30
0.0
 11
237.3606136535
 21
57.2734653859
 31
0.0
  0
LINE
  5
225
330
1F
100
AcDbEntity
  8
0
  6
Continuous
 62
     7
370
    15
100
AcDbLine
 10
231.1958316589
 20
46.5945927406
 30
0.0
 11
251.4920697565
 21
29.456617653
 31
0.0
  0
SPLINE
  5
226
330
1F
100
AcDbEntity
  8
0
  6
Continuous
 62
     7
370
    15
100
AcDbSpline
210
0.0
220
0.0
230
1.0
 70
     8
 71
     3
 72
    12
 73
     8
 74
     0
 42
0.000000001
 43
0.00000001
 40
0.0
 40
0.0
 40
0.0
 40
0.0
 40
0.0602601793682976
 40
0.3523728290449443
 40
0.6456110131994907
 40
0.9397595265429736
 40
1.0
 40
1.0
 40
1.0
 40
1.0
 10
259.8561101147595
 20
19.72028049267783
 30
0.0
 10
259.9122692583205
 20
19.71643067051613
 30
0.0
 10
260.2406611831505
 20
19.69391874405561
 30
0.0
 10
260.8729054109666
 20
19.74698158330005
 30
0.0
 10
261.7493623838492
 20
19.89331033881408
 30
0.0
 10
262.4082716353736
 20
20.05598668427874
 30
0.0
 10
262.7751514140063
 20
20.19438772654207
 30
0.0
 10
262.8375151227834
 20
20.2179136955293
 30
0.0
  0
LINE
  5
227
330
1F
100
AcDbEntity
  8
0
  6
Continuous
 62
     7
370
    15
100
AcDbLine
 10
255.6580913788
 20
21.2613192409
 30
0.0
 11
257.0115511494
 21
20.4799835465
 31
0.0
  0
LINE
  5
228
330
1F
100
AcDbEntity
  8
0
  6
Continuous
 62
     7
370
    15
100
AcDbLine
 10
251.8319942148
 20
23.4700781189
 30
0.0
 11
253.1677766752
 21
22.6989473185
 31
0.0
  0
SPLINE
  5
229
330
1F
100
AcDbEntity
  8
0
  6
Continuous
 62
     7
370
    15
100
AcDbSpline
210
0.0
220
0.0
230
1.0
 70
     8
 71
     3
 72
    11
 73
     7
 74
     0
 42
0.000000001
 43
0.00000001
 40
0.0
 40
0.0
 40
0.0
 40
0.0
 40
0.1381916165307793
 40
0.557830019088012
 40
0.9767980999145361
 40
1.0
 40
1.0
 40
1.0
 40
1.0
 10
248.9121053310058
 20
27.46735425415433
 30
0.0
 10
248.9406837765766
 20
27.37014647890336
 30
0.0
 10
249.0560447169757
 20
26.97775353579257
 30
0.0
 10
249.3173039188939
 20
26.34406098983199
 30
0.0
 10
249.5712461282756
 20
25.80582085234458
 30
0.0
 10
249.7356177092676
 20
25.56761981215947
 30
0.0
 10
249.7442427475192
 20
25.55512073494209
 30
0.0
  0
SPLINE
  5
22A
330
1F
100
AcDbEntity
  8
0
  6
Continuous
 62
     7
370
    15
100
AcDbSpline
210
0.0
220
0.0
230
1.0
 70
     8
 71
     3
 72
    12
 73
     8
 74
     0
 42
0.000000001
 43
0.00000001
 40
0.0
 40
0.0
 40
0.0
 40
0.0
 40
0.0968784998736802
 40
0.3404652143982856
 40
0.5836590609333624
 40
0.8260489004922238
 40
1.0
 40
1.0
 40
1.0
 40
1.0
 10
275.8189955342325
 20
43.93473169473584
 30
0.0
 10
275.7843300192432
 20
44.05197384808805
 30
0.0
 10
275.6625031741902
 20
44.46400412239684
 30
0.0
 10
275.3994971336574
 20
45.12300438852082
 30
0.0
 10
275.0027336957047
 20
45.87731160849366
 30
0.0
 10
274.5851544133907
 20
46.49706138970441
 30
0.0
 10
274.2757585175038
 20
46.83102441319924
 30
0.0
 10
274.1464900473088
 20
46.97055725679156
 30
0.0
  0
SPLINE
  5
22B
330
1F
100
AcDbEntity
  8
0
  6
Continuous
 62
     7
370
    15
100
AcDbSpline
210
0.0
220
0.0
230
1.0
 70
     8
 71
     3
 72
    25
 73
    21
 74
     0
 42
0.000000001
 43
0.00000001
 40
0.0
 40
0.0
 40
0.0
 40
0.0
 40
0.0405298481409225
 40
0.0969172502333782
 40
0.1543528183011441
 40
0.2130415651960634
 40
0.2727284088917363
 40
0.3329659435457391
 40
0.3933654983020219
 40
0.4536965496227425
 40
0.5139128227197254
 40
0.5740256728025422
 40
0.6340719913993055
 40
0.6940988341746154
 40
0.7541534480505232
 40
0.8142756244831836
 40
0.874519197246648
 40
0.9349353661022257
 40
0.9923232448399701
 40
1.0
 40
1.0
 40
1.0
 40
1.0
 10
237.2808113946767
 20
57.28981864947387
 30
0.0
 10
237.1636939072952
 20
57.32657621150958
 30
0.0
 10
236.8836359906753
 20
57.41447295924465
 30
0.0
 10
236.3998085595359
 20
57.44018823709006
 30
0.0
 10
235.8452677365549
 20
57.38451960376551
 30
0.0
 10
235.2679086252106
 20
57.22818024332485
 30
0.0
 10
234.6780871843647
 20
56.9765659209258
 30
0.0
 10
234.0862841864328
 20
56.63228127770462
 30
0.0
 10
233.5042029480337
 20
56.20256094988049
 30
0.0
 10
232.9424902804274
 20
55.69608871079255
 30
0.0
 10
232.4105919771491
 20
55.1225838861188
 30
0.0
 10
231.9169653715942
 20
54.49218781057665
 30
0.0
 10
231.4694009046416
 20
53.815640512374
 30
0.0
 10
231.075088002658
 20
53.10418636111894
 30
0.0
 10
230.7405372154281
 20
52.36949743417778
 30
0.0
 10
230.4715004602328
 20
51.6234966140576
 30
0.0
 10
230.272782536653
 20
50.87797899535571
 30
0.0
 10
230.1511833593744
 20
50.15802794884667
 30
0.0
 10
230.1171635038424
 20
49.66753778968477
 30
0.0
 10
230.1159906344237
 20
49.42092996833966
 30
0.0
 10
230.1158522515447
 20
49.39183354910845
 30
0.0
  0
SPLINE
  5
22C
330
1F
100
AcDbEntity
  8
0
  6
Continuous
 62
     7
370
    15
100
AcDbSpline
210
0.0
220
0.0
230
1.0
 70
     8
 71
     3
 72
    13
 73
     9
 74
     0
 42
0.000000001
 43
0.00000001
 40
0.0
 40
0.0
 40
0.0
 40
0.0
 40
0.1024771702649087
 40
0.2962477948149015
 40
0.490030423962235
 40
0.682107529866152
 40
0.8706551899652861
 40
1.0
 40
1.0
 40
1.0
 40
1.0
 10
230.1158522515447
 20
49.39183354910845
 30
0.0
 10
230.1181296610467
 20
49.27116677793722
 30
0.0
 10
230.1247133473555
 20
48.9223352794239
 30
0.0
 10
230.1985749426398
 20
48.37767620985864
 30
0.0
 10
230.3644250976099
 20
47.78395033179897
 30
0.0
 10
230.6158264460427
 20
47.26211200199406
 30
0.0
 10
230.9032132759793
 20
46.85269036578169
 30
0.0
 10
231.1350640201359
 20
46.66007084070016
 30
0.0
 10
231.2293999773441
 20
46.58169737098522
 30
0.0
  0
LWPOLYLINE
  5
22D
330
1F
100
AcDbEntity
  8
0
  6
Continuous
 62
     7
370
    15
100
AcDbPolyline
 90
       31
 70
   128
 43
0.0
 10
271.4836246642
 20
40.4517564984
 10
271.6587472893
 20
40.7678705106
 10
271.9438924514
 20
41.0560577354
 10
272.3265970311
 20
41.3037234373
 10
272.7901358501
 20
41.5000429745
 10
273.314250721
 20
41.6364358941
 10
273.8760350375
 20
41.7069412549
 10
274.4509355026
 20
41.7084780908
 10
275.0138264208
 20
41.640978969
 10
275.5401070388
 20
41.5073939111
 10
276.006776208
 20
41.3135610874
 10
276.3934379816
 20
41.0679524835
 10
276.6831932846
 20
40.7813020945
 10
276.8633796231
 20
40.4661372709
 10
276.9261199815
 20
40.1362333649
 10
276.8686744856
 20
39.8060077403
 10
276.6935518605
 20
39.4898937281
 10
276.4084080154
 20
39.201705743
 10
276.0257021186
 20
38.9540408014
 10
275.5621632996
 20
38.7577212643
 10
275.0380484287
 20
38.6213283446
 10
274.4762641122
 20
38.5508229838
 10
273.9013636471
 20
38.549286148
 10
273.3384727289
 20
38.6167852697
 10
272.8121921109
 20
38.7503703276
 10
272.3455229418
 20
38.9442031513
 10
271.9588611681
 20
39.1898117552
 10
271.6691058651
 20
39.4764621442
 10
271.4889195266
 20
39.7916269678
 10
271.4261791682
 20
40.1215308738
 10
271.4836246642
 20
40.4517564984
  0
ARC
  5
22E
330
1F
100
AcDbEntity
  8
0
  6
Continuous
 62
     7
370
    15
100
AcDbCircle
 10
272.8626851318
 20
39.5758962572
 30
0.0
 40
1.768713467029599
100
AcDbArc
 50
117.189986255
 51
156.6481301591
  0
LWPOLYLINE
  5
22F
330
1F
100
AcDbEntity
  8
0
  6
Continuous
 62
     7
370
    15
100
AcDbPolyline
 90
       23
 70
   128
 43
0.0
 10
276.2978143556
 20
41.1491606128
 10
276.4565728083
 20
41.0500392645
 10
276.802277888
 20
40.7620034423
 10
277.0404704731
 20
40.4396893382
 10
277.1613955437
 20
40.0962945419
 10
277.1601055374
 20
39.7458758735
 10
277.0366519028
 20
39.4027802231
 10
276.7960892571
 20
39.0810538852
 10
276.4482658764
 20
38.793868449
 10
276.007421561
 20
38.552981475
 10
275.4916040422
 20
38.3682551282
 10
274.9219329555
 20
38.2472510484
 10
274.3217279177
 20
38.1949246875
 10
273.7155646984
 20
38.2134165196
 10
273.1282570901
 20
38.3019706722
 10
272.5838500346
 20
38.4569619427
 10
272.1046314766
 20
38.6720446343
 10
271.71022275
 20
38.9384121169
 10
271.4167682379
 20
39.2451608398
 10
271.2362832495
 20
39.5797319936
 10
271.1761561603
 20
39.9284285409
 10
271.2388506676
 20
40.276973258
 10
271.2388506676
 20
40.276973258
  0
LWPOLYLINE
  5
230
330
1F
100
AcDbEntity
  8
0
  6
Continuous
 62
     7
370
    15
100
AcDbPolyline
 90
       25
 70
   128
 43
0.0
 10
272.4627245194
 20
40.3343477067
 10
272.6132260175
 20
40.5833544808
 10
272.8702380914
 20
40.8013897214
 10
273.2162458392
 20
40.9735947322
 10
273.6276683514
 20
41.088234582
 10
274.076469644
 20
41.1374957775
 10
274.5320648933
 20
41.1180210168
 10
274.9634040551
 20
41.0311388027
 10
275.3410940653
 20
40.8827686144
 10
275.639393901
 20
40.6830230596
 10
275.8379770919
 20
40.4455130673
 10
275.9233084081
 20
40.186425786
 10
275.8895746303
 20
39.923416532
 10
275.7390731322
 20
39.6744097579
 10
275.4820610583
 20
39.4563745173
 10
275.1360533105
 20
39.2841695065
 10
274.7246307984
 20
39.1695296567
 10
274.2758295058
 20
39.1202684612
 10
273.8202342564
 20
39.1397432219
 10
273.3888950947
 20
39.226625436
 10
273.0112064015
 20
39.374994864
 10
272.7129052487
 20
39.5747411791
 10
272.5143220579
 20
39.8122511715
 10
272.4289907416
 20
40.0713384527
 10
272.4627245194
 20
40.3343477067
  0
SPLINE
  5
231
330
1F
100
AcDbEntity
  8
0
  6
Continuous
 62
     7
370
    15
100
AcDbSpline
210
0.0
220
0.0
230
1.0
 70
     8
 71
     3
 72
    11
 73
     7
 74
     0
 42
0.000000001
 43
0.00000001
 40
0.0
 40
0.0
 40
0.0
 40
0.0
 40
0.1336650816451006
 40
0.4825477528966186
 40
0.8156360009535298
 40
1.0
 40
1.0
 40
1.0
 40
1.0
 10
272.5313681531771
 20
39.80084160906379
 30
0.0
 10
272.5461253658684
 20
39.813828154692
 30
0.0
 10
272.5994007593782
 20
39.86071121744597
 30
0.0
 10
272.6989275326953
 20
40.04187565577183
 30
0.0
 10
272.8058173216198
 20
40.41852204673484
 30
0.0
 10
272.8631909746719
 20
40.68492001927033
 30
0.0
 10
272.8836327375124
 20
40.77983543577387
 30
0.0
  0
SPLINE
  5
232
330
1F
100
AcDbEntity
  8
0
  6
Continuous
 62
     7
370
    15
100
AcDbSpline
210
0.0
220
0.0
230
1.0
 70
     8
 71
     3
 72
     9
 73
     5
 74
     0
 42
0.000000001
 43
0.00000001
 40
0.0
 40
0.0
 40
0.0
 40
0.0
 40
0.4505663741493842
 40
0.9999999999999999
 40
0.9999999999999999
 40
0.9999999999999999
 40
0.9999999999999999
 10
273.114049321657
 20
39.33212565640265
 30
0.0
 10
273.0219306955897
 20
39.38475272896924
 30
0.0
 10
272.8174799612418
 20
39.50155477099011
 30
0.0
 10
272.6328242242736
 20
39.69471363438407
 30
0.0
 10
272.5313681531771
 20
39.80084160906379
 30
0.0
  0
LINE
  5
233
330
1F
100
AcDbEntity
  8
0
  6
Continuous
 62
     7
370
    15
100
AcDbLine
 10
275.4686677293
 20
39.44861524
 30
0.0
 11
275.3657328851
 21
39.4023417563
 31
0.0
  0
SPLINE
  5
234
330
1F
100
AcDbEntity
  8
0
  6
Continuous
 62
     7
370
    15
100
AcDbSpline
210
0.0
220
0.0
230
1.0
 70
     8
 71
     3
 72
    11
 73
     7
 74
     0
 42
0.000000001
 43
0.00000001
 40
0.0
 40
0.0
 40
0.0
 40
0.0
 40
0.1843640047135409
 40
0.5174522784113567
 40
0.8663349618384713
 40
1.0
 40
1.0
 40
1.0
 40
1.0
 10
275.8209323136304
 20
40.4276090667002
 30
0.0
 10
275.8004905475642
 20
40.33269364771509
 30
0.0
 10
275.7431168837509
 20
40.06629566028517
 30
0.0
 10
275.6362270691864
 20
39.68964927224124
 30
0.0
 10
275.5367002245703
 20
39.50848479355519
 30
0.0
 10
275.4834249149154
 20
39.4616017710792
 30
0.0
 10
275.4686677292952
 20
39.44861523999011
 30
0.0
  0
SPLINE
  5
235
330
1F
100
AcDbEntity
  8
0
  6
Continuous
 62
     7
370
    15
100
AcDbSpline
210
0.0
220
0.0
230
1.0
 70
     8
 71
     3
 72
    10
 73
     6
 74
     0
 42
0.000000001
 43
0.00000001
 40
0.0
 40
0.0
 40
0.0
 40
0.0
 40
0.4391275420834374
 40
0.7513752319097542
 40
1.0
 40
1.0
 40
1.0
 40
1.0
 10
274.5284147457107
 20
41.09321912301102
 30
0.0
 10
274.7134536458708
 20
40.91404048298632
 30
0.0
 10
275.0300670057627
 20
40.60745440195146
 30
0.0
 10
275.4903131229905
 20
40.43424991044881
 30
0.0
 10
275.7193876548494
 20
40.42964870091249
 30
0.0
 10
275.8209323136304
 20
40.4276090667002
 30
0.0
  0
SPLINE
  5
236
330
1F
100
AcDbEntity
  8
0
  6
Continuous
 62
     7
370
    15
100
AcDbSpline
210
0.0
220
0.0
230
1.0
 70
     8
 71
     3
 72
    10
 73
     6
 74
     0
 42
0.000000001
 43
0.00000001
 40
0.0
 40
0.0
 40
0.0
 40
0.0
 40
0.4391278534609514
 40
0.7513759824692589
 40
1.0
 40
1.0
 40
1.0
 40
1.0
 10
272.8836327375124
 20
40.77983543577387
 30
0.0
 10
273.1191025005995
 20
40.74081126831165
 30
0.0
 10
273.5220064001972
 20
40.67403840948278
 30
0.0
 10
274.1076887648114
 20
40.84943852022933
 30
0.0
 10
274.3991953765603
 20
41.01834574429736
 30
0.0
 10
274.5284147457107
 20
41.09321912301102
 30
0.0
  0
LINE
  5
237
330
1F
100
AcDbEntity
  8
0
  6
Continuous
 62
     7
370
    15
100
AcDbLine
 10
272.8836327375
 20
39.4788195518
 30
0.0
 11
272.8836327375
 21
40.7798354358
 31
0.0
  0
LINE
  5
238
330
1F
100
AcDbEntity
  8
0
  6
Continuous
 62
     7
370
    15
100
AcDbLine
 10
274.5284147457
 20
39.1393070633
 30
0.0
 11
274.5284147457
 21
41.093219123
 31
0.0
  0
LWPOLYLINE
  5
239
330
1F
100
AcDbEntity
  8
0
  6
Continuous
 62
     7
370
    15
100
AcDbPolyline
 90
       68
 70
   128
 43
0.0
 10
269.7744091075
 20
20.4210069048
 10
269.8163544414
 20
21.4774597857
 10
269.9418209996
 20
22.5730570713
 10
270.1497063787
 20
23.6981707396
 10
270.438183776
 20
24.8429131382
 10
270.8047177954
 20
25.9972245315
 10
271.2460874955
 20
27.1509604568
 10
271.7584140493
 20
28.2939820263
 10
272.3371956465
 20
29.416244708
 10
272.9773450307
 20
30.5078857756
 10
273.6732369148
 20
31.5593109966
 10
274.4187563838
 20
32.5612815109
 10
275.2073509197
 20
33.5049917729
 10
276.0320903296
 20
34.3821474939
 10
276.8857274956
 20
35.1850417772
 10
277.7607601141
 20
35.9066173758
 10
278.6494985256
 20
36.5405339864
 10
279.5441323304
 20
37.0812196341
 10
280.4367995979
 20
37.5239235539
 10
281.3196554782
 20
37.8647557991
 10
282.1849411441
 20
38.1007201968
 10
283.0250529584
 20
38.2297428702
 10
283.8326076493
 20
38.2506908519
 10
284.6005084119
 20
38.1633798253
 10
285.3220074699
 20
37.96857678
 10
285.9907627105
 20
37.6679931626
 10
286.6008989288
 20
37.264272323
 10
287.1470535969
 20
36.7609604225
 10
287.6244265838
 20
36.1624807638
 10
288.0288229611
 20
35.4740934821
 10
288.356688564
 20
34.7018476327
 10
288.6051429189
 20
33.8525300469
 10
288.7720022922
 20
32.9336044926
 10
288.8558001052
 20
31.9531465104
 10
288.8558001052
 20
30.9197724041
 10
288.7720022922
 20
29.8425635264
 10
288.6051429189
 20
28.7309862404
 10
288.356688564
 20
27.5948093625
 10
288.0288229611
 20
26.4440179455
 10
287.6244265838
 20
25.288724545
 10
287.1470535969
 20
24.1390817674
 10
286.6008989288
 20
23.0051931094
 10
285.9907627105
 20
21.8970239867
 10
285.3220074699
 20
20.8243120037
 10
284.6005084119
 20
19.7964838775
 10
283.8326076493
 20
18.8225735022
 10
283.0250529584
 20
17.9111386841
 10
282.1849411441
 20
17.0701889032
 10
281.3196554782
 20
16.3071157361
 10
280.4367995979
 20
15.6286242788
 10
279.5441323304
 20
15.0406765096
 10
278.6494985256
 20
14.5484399527
 10
277.7607601141
 20
14.1562410349
 10
276.8857274956
 20
13.8675254768
 10
276.0320903296
 20
13.6848312671
 10
275.2073509197
 20
13.6097631341
 10
274.4187563838
 20
13.6429815253
 10
273.6732369148
 20
13.7841935824
 10
272.9773450307
 20
14.0321591362
 10
272.3371956465
 20
14.3846994569
 10
271.7584140493
 20
14.8387151306
 10
271.2460874955
 20
15.3902170519
 10
270.8047177954
 20
16.0343583684
 10
270.438183776
 20
16.7654785909
 10
270.1497063787
 20
17.5771520761
 10
269.9418209996
 20
18.4622463947
 10
269.8163544414
 20
19.4129830757
 10
269.7744091075
 20
20.4210069048
  0
LWPOLYLINE
  5
23A
330
1F
100
AcDbEntity
  8
0
  6
Continuous
 62
     7
370
    15
100
AcDbPolyline
 90
       35
 70
   128
 43
0.0
 10
269.4208569761
 20
20.4210065247
 10
269.463578734
 20
21.4970230961
 10
269.5913686372
 20
22.6129092186
 10
269.8031038674
 20
23.7588582582
 10
270.0969233778
 20
24.9247997697
 10
270.4702450154
 20
26.100487138
 10
270.91978857
 20
27.2755890222
 10
271.4416027745
 20
28.4397775662
 10
272.0311021835
 20
29.5828230732
 10
272.6831060274
 20
30.6946787938
 10
273.391884969
 20
31.7655755986
 10
274.1512101651
 20
32.7861008724
 10
274.9544082548
 20
33.7472865322
 10
275.7944209581
 20
34.6406867789
 10
276.6638661558
 20
35.4584491
 10
277.5551030851
 20
36.1933868875
 10
278.460299594
 20
36.8390425977
 10
279.3715007117
 20
37.3897417852
 10
280.2806987839
 20
37.840644237
 10
281.1799037725
 20
38.1877875982
 10
282.0612134727
 20
38.4281218231
 10
282.9168827424
 20
38.559533932
 10
283.7393923205
 20
38.5808702477
 10
284.521513364
 20
38.491941713
 10
285.256372973
 20
38.2935312991
 10
285.9375134601
 20
37.9873818323
 10
286.5589483266
 20
37.576184202
 10
287.1152162626
 20
37.0635514996
 10
287.601429551
 20
36.4539887857
 10
288.0133148965
 20
35.7528535421
 10
288.3472529383
 20
34.9663073787
 10
288.6003078851
 20
34.1012614677
 10
288.7702571492
 20
33.1653187453
 10
288.8556071516
 20
32.1667043283
 10
288.8662933534
 20
31.6466180014
  0
LWPOLYLINE
  5
23B
330
1F
100
AcDbEntity
  8
0
  6
Continuous
 62
     7
370
    15
100
AcDbPolyline
 90
       18
 70
   128
 43
0.0
 10
279.1451553799
 20
14.8072883992
 10
278.460299594
 20
14.4396887464
 10
277.5551030851
 20
14.0402268135
 10
276.6638661558
 20
13.7461643453
 10
275.7944209581
 20
13.5600866085
 10
274.9544082548
 20
13.4836288319
 10
274.1512101651
 20
13.5174617166
 10
273.391884969
 20
13.6612887801
 10
272.6831060274
 20
13.9138468378
 10
272.0311021835
 20
14.2729149437
 10
271.4416027745
 20
14.7353389205
 10
270.91978857
 20
15.297053608
 10
270.4702450154
 20
15.9531235519
 10
270.0969233778
 20
16.6977829322
 10
269.8031038674
 20
17.5244876578
 10
269.5913686372
 20
18.4259724042
 10
269.463578734
 20
19.394315445
 10
269.4208569761
 20
20.4210065247
  0
LWPOLYLINE
  5
23C
330
1F
100
AcDbEntity
  8
0
  6
Continuous
 62
     7
370
    15
100
AcDbPolyline
 90
       27
 70
   128
 43
0.0
 10
261.5873067346
 20
24.9432188211
 10
261.6300284925
 20
26.0192353925
 10
261.7578183957
 20
27.135121515
 10
261.9695536259
 20
28.2810705546
 10
262.2633731363
 20
29.4470120661
 10
262.6366947739
 20
30.6226994344
 10
263.0862383285
 20
31.7978013186
 10
263.608052533
 20
32.9619898626
 10
264.197551942
 20
34.1050353697
 10
264.8495557859
 20
35.2168910902
 10
265.5583347275
 20
36.287787895
 10
266.3176599236
 20
37.3083131688
 10
267.1208580133
 20
38.2694988286
 10
267.9608707166
 20
39.1628990753
 10
268.8303159143
 20
39.9806613964
 10
269.7215528436
 20
40.7155991839
 10
270.6267493525
 20
41.3612548942
 10
271.5379504702
 20
41.9119540816
 10
272.4471485424
 20
42.3628565335
 10
273.346353531
 20
42.7099998946
 10
274.2276632312
 20
42.9503341195
 10
275.0833325009
 20
43.0817462284
 10
275.905842079
 20
43.1030825441
 10
276.6879631225
 20
43.0141540094
 10
277.4228227315
 20
42.8157435955
 10
278.1039632186
 20
42.5095941287
 10
278.1844663335
 20
42.4641968263
  0
LWPOLYLINE
  5
23D
330
1F
100
AcDbEntity
  8
0
  6
Continuous
 62
     7
370
    15
100
AcDbPolyline
 90
       10
 70
   128
 43
0.0
 10
264.435583513
 20
18.6478522927
 10
264.197551942
 20
18.7951272401
 10
263.608052533
 20
19.2575512169
 10
263.0862383285
 20
19.8192659044
 10
262.6366947739
 20
20.4753358483
 10
262.2633731363
 20
21.2199952286
 10
261.9695536259
 20
22.0466999542
 10
261.7578183957
 20
22.9481847006
 10
261.6300284925
 20
23.9165277414
 10
261.5873067346
 20
24.9432188211
  0
SPLINE
  5
23E
330
1F
100
AcDbEntity
  8
0
  6
Continuous
 62
     7
370
    15
100
AcDbSpline
210
0.0
220
0.0
230
1.0
 70
     8
 71
     3
 72
    48
 73
    44
 74
     0
 42
0.000000001
 43
0.00000001
 40
0.0
 40
0.0
 40
0.0
 40
0.0
 40
0.0312500000000004
 40
0.0312500000000004
 40
0.0625000000000009
 40
0.0625000000000009
 40
0.1250000000000017
 40
0.1250000000000017
 40
0.1562500000000024
 40
0.1562500000000024
 40
0.1875000000000031
 40
0.1875000000000031
 40
0.2187500000000037
 40
0.2187500000000037
 40
0.2500000000000044
 40
0.2500000000000044
 40
0.312500000000005
 40
0.312500000000005
 40
0.3437500000000048
 40
0.3437500000000048
 40
0.3750000000000046
 40
0.3750000000000046
 40
0.4375000000000043
 40
0.4375000000000043
 40
0.5000000000000039
 40
0.5000000000000039
 40
0.5625000000000037
 40
0.5625000000000037
 40
0.6250000000000033
 40
0.6250000000000033
 40
0.687500000000003
 40
0.687500000000003
 40
0.7500000000000026
 40
0.7500000000000026
 40
0.8125000000000022
 40
0.8125000000000022
 40
0.8750000000000019
 40
0.8750000000000019
 40
0.9062500000000014
 40
0.9062500000000014
 40
0.937500000000001
 40
0.937500000000001
 40
1.0
 40
1.0
 40
1.0
 40
1.0
 10
276.7394117420079
 20
38.6491424282422
 30
0.0
 10
276.6601104734214
 20
38.60336278033441
 30
0.0
 10
276.576226852624
 20
38.55917244879451
 30
0.0
 10
276.3991875385495
 20
38.4740413049968
 30
0.0
 10
276.3053775222741
 20
38.4328626440211
 30
0.0
 10
276.0163985852184
 20
38.31721820019362
 30
0.0
 10
275.8129351941618
 20
38.24992008307462
 30
0.0
 10
275.4923525079622
 20
38.16390086214397
 30
0.0
 10
275.3826812682291
 20
38.13773434538552
 30
0.0
 10
275.1631227711213
 20
38.0916872643698
 30
0.0
 10
275.0526386144504
 20
38.07163084503052
 30
0.0
 10
274.8302935958809
 20
38.03743260360666
 30
0.0
 10
274.718432572759
 20
38.0232912513432
 30
0.0
 10
274.4933192139763
 20
38.00111103476655
 30
0.0
 10
274.3800638889804
 20
37.99311348977775
 30
0.0
 10
274.0447577211835
 20
37.97889371148523
 30
0.0
 10
273.8248717354756
 20
37.98209492652688
 30
0.0
 10
273.500032119881
 20
38.00656887630127
 30
0.0
 10
273.3921164083122
 20
38.01810875970882
 30
0.0
 10
273.1812120937954
 20
38.04764559385928
 30
0.0
 10
273.0780443145721
 20
38.0656211509517
 30
0.0
 10
272.7751210391743
 20
38.12913143913194
 30
0.0
 10
272.5818884506593
 20
38.18418649424385
 30
0.0
 10
272.212894382171
 20
38.32111521062699
 30
0.0
 10
272.040176717916
 20
38.40206909518227
 30
0.0
 10
271.7235976430302
 20
38.58554291599599
 30
0.0
 10
271.5786667504538
 20
38.68844861512825
 30
0.0
 10
271.3167078179024
 20
38.91716065045887
 30
0.0
 10
271.2029129991337
 20
39.04026046989028
 30
0.0
 10
271.0107767006858
 20
39.30050349147245
 30
0.0
 10
270.9320641562252
 20
39.43794966112818
 30
0.0
 10
270.8122189704397
 20
39.72693265779088
 30
0.0
 10
270.7730124622747
 20
39.87382283433905
 30
0.0
 10
270.7362252965506
 20
40.17039079211034
 30
0.0
 10
270.7387298635152
 20
40.32086625034277
 30
0.0
 10
270.7904327472024
 20
40.61940541718534
 30
0.0
 10
270.8387115454942
 20
40.76334740744468
 30
0.0
 10
270.9458114796394
 20
40.96955855815087
 30
0.0
 10
270.9873346055826
 20
41.03667105625671
 30
0.0
 10
271.0828003008324
 20
41.16723357923212
 30
0.0
 10
271.1370473410241
 20
41.23086499793564
 30
0.0
 10
271.314415384483
 20
41.41022408222397
 30
0.0
 10
271.4531550031626
 20
41.51641018069207
 30
0.0
 10
271.6128875784054
 20
41.60862183359954
 30
0.0
  0
SPLINE
  5
23F
330
1F
100
AcDbEntity
  8
0
  6
Continuous
 62
     7
370
    15
100
AcDbSpline
210
0.0
220
0.0
230
1.0
 70
     8
 71
     3
 72
    52
 73
    48
 74
     0
 42
0.000000001
 43
0.00000001
 40
0.0
 40
0.0
 40
0.0
 40
0.0
 40
0.0312500000000007
 40
0.0312500000000007
 40
0.0625000000000013
 40
0.0625000000000013
 40
0.093750000000002
 40
0.093750000000002
 40
0.1250000000000026
 40
0.1250000000000026
 40
0.187500000000004
 40
0.187500000000004
 40
0.2500000000000054
 40
0.2500000000000054
 40
0.3125000000000069
 40
0.3125000000000069
 40
0.3750000000000083
 40
0.3750000000000083
 40
0.4375000000000097
 40
0.4375000000000097
 40
0.4687500000000099
 40
0.4687500000000099
 40
0.5000000000000101
 40
0.5000000000000101
 40
0.5625000000000097
 40
0.5625000000000097
 40
0.5937500000000094
 40
0.5937500000000094
 40
0.6250000000000092
 40
0.6250000000000092
 40
0.6875000000000079
 40
0.6875000000000079
 40
0.7187500000000072
 40
0.7187500000000072
 40
0.7500000000000064
 40
0.7500000000000064
 40
0.8125000000000051
 40
0.8125000000000051
 40
0.8437500000000041
 40
0.8437500000000041
 40
0.8750000000000031
 40
0.8750000000000031
 40
0.9375000000000016
 40
0.9375000000000016
 40
0.9687500000000008
 40
0.9687500000000008
 40
1.0
 40
1.0
 40
1.0
 40
1.0
 10
271.6128875784054
 20
41.60862183359954
 30
0.0
 10
271.6927693031884
 20
41.65473657173697
 30
0.0
 10
271.778543493878
 20
41.69754138576614
 30
0.0
 10
271.9564495445163
 20
41.77384145890181
 30
0.0
 10
272.0488873011227
 20
41.80759621243288
 30
0.0
 10
272.2404933499234
 20
41.86672241790043
 30
0.0
 10
272.339662244924
 20
41.89209294357578
 30
0.0
 10
272.5447176222468
 20
41.93463813207338
 30
0.0
 10
272.6507572821269
 20
41.95176626081652
 30
0.0
 10
272.9711880339405
 20
41.9902534680204
 30
0.0
 10
273.1903361900058
 20
41.99943672910737
 30
0.0
 10
273.6392778761644
 20
41.9888342832219
 30
0.0
 10
273.8657721765739
 20
41.96899523059434
 30
0.0
 10
274.3163012259928
 20
41.90491905501697
 30
0.0
 10
274.5365798926663
 20
41.86131354834825
 30
0.0
 10
274.9659503232221
 20
41.75572164259668
 30
0.0
 10
275.1760899702842
 20
41.69342311932975
 30
0.0
 10
275.5835800937285
 20
41.55269838399956
 30
0.0
 10
275.776347972802
 20
41.47592790445638
 30
0.0
 10
276.0499286589547
 20
41.35250263490868
 30
0.0
 10
276.1385084719302
 20
41.30996611199333
 30
0.0
 10
276.3103785592671
 20
41.22214287715957
 30
0.0
 10
276.3940326727976
 20
41.17663307085806
 30
0.0
 10
276.6330226305101
 20
41.03809429483915
 30
0.0
 10
276.7771113037271
 20
40.9428960782552
 30
0.0
 10
276.9708235108187
 20
40.79560141755825
 30
0.0
 10
277.0316341772179
 20
40.74574307169092
 30
0.0
 10
277.1455160437949
 20
40.64433097314264
 30
0.0
 10
277.1987435382683
 20
40.5925722485791
 30
0.0
 10
277.3435743750318
 20
40.43732925712471
 30
0.0
 10
277.4214493371317
 20
40.33315121053678
 30
0.0
 10
277.5098949130505
 20
40.17441029269707
 30
0.0
 10
277.5346178067875
 20
40.12107877037574
 30
0.0
 10
277.5740601899365
 20
40.01324753020909
 30
0.0
 10
277.588738710289
 20
39.95861967953416
 30
0.0
 10
277.6162492095704
 20
39.79612294504155
 30
0.0
 10
277.6132761698904
 20
39.68847223942462
 30
0.0
 10
277.5751551836747
 20
39.52618974469237
 30
0.0
 10
277.5567974490194
 20
39.47196166756981
 30
0.0
 10
277.507898351966
 20
39.3629142932642
 30
0.0
 10
277.4774512704885
 20
39.30848391577888
 30
0.0
 10
277.3697022180351
 20
39.14820741063973
 30
0.0
 10
277.2756622178587
 20
39.04409574128506
 30
0.0
 10
277.0990018033712
 20
38.89114322484726
 30
0.0
 10
277.0335717232041
 20
38.84034434856327
 30
0.0
 10
276.8934610215516
 20
38.7423092460127
 30
0.0
 10
276.8187283385448
 20
38.69493092478742
 30
0.0
 10
276.7394117420079
 20
38.6491424282422
 30
0.0
  0
LWPOLYLINE
  5
240
330
1F
100
AcDbEntity
  8
0
  6
Continuous
 62
     7
370
    15
100
AcDbPolyline
 90
       63
 70
   128
 43
0.0
 10
271.0118465067
 20
21.1353643099
 10
271.0544747513
 20
22.1306178298
 10
271.1819215528
 20
23.1648758978
 10
271.392880359
 20
24.2275263767
 10
271.6851858756
 20
25.3076648121
 10
272.0558377738
 20
26.3942067883
 10
272.5010342761
 20
27.4760040859
 10
273.0162057421
 20
28.5419547558
 10
273.5960660352
 20
29.5811215561
 10
274.2346655349
 20
30.5828412642
 10
274.9254510649
 20
31.5368341774
 10
275.6613340521
 20
32.433311522
 10
276.4347636252
 20
33.2630739264
 10
277.2378031703
 20
34.0176073276
 10
278.0622124847
 20
34.6891691802
 10
278.8995320291
 20
35.2708682742
 10
279.7411697733
 20
35.756735402
 10
280.5784893177
 20
36.1417848761
 10
281.4028986321
 20
36.4220657573
 10
282.2059381772
 20
36.5947020796
 10
282.9793677502
 20
36.6579224525
 10
283.7152507374
 20
36.61107752
 10
284.4060362674
 20
36.4546486032
 10
285.0446357672
 20
36.1902401833
 10
285.6244960602
 20
35.8205658268
 10
286.1396675263
 20
35.3494194709
 10
286.5848640286
 20
34.7816351137
 10
286.9555159267
 20
34.1230387101
 10
287.2478214433
 20
33.3803890405
 10
287.4587802495
 20
32.5613064148
 10
287.5862270511
 20
31.6741952917
 10
287.6288552956
 20
30.7281592953
 10
287.5862270511
 20
29.7329057753
 10
287.4587802495
 20
28.6986477074
 10
287.2478214433
 20
27.6359972285
 10
286.9555159267
 20
26.5558587931
 10
286.5848640286
 20
25.4693168169
 10
286.1396675263
 20
24.3875195193
 10
285.6244960602
 20
23.3215688494
 10
285.0446357672
 20
22.282402049
 10
284.4060362674
 20
21.2806823409
 10
283.7152507374
 20
20.3266894278
 10
282.9793677502
 20
19.4302120832
 10
282.2059381772
 20
18.6004496787
 10
281.4028986321
 20
17.8459162776
 10
280.5784893177
 20
17.174354425
 10
279.7411697733
 20
16.5926553309
 10
278.8995320291
 20
16.1067882032
 10
278.0622124847
 20
15.7217387291
 10
277.2378031703
 20
15.4414578478
 10
276.4347636252
 20
15.2688215255
 10
275.6613340521
 20
15.2056011526
 10
274.9254510649
 20
15.2524460851
 10
274.2346655349
 20
15.408875002
 10
273.5960660352
 20
15.6732834218
 10
273.0162057421
 20
16.0429577783
 10
272.5010342761
 20
16.5141041343
 10
272.0558377738
 20
17.0818884914
 10
271.6851858756
 20
17.7404848951
 10
271.392880359
 20
18.4831345647
 10
271.1819215528
 20
19.3022171904
 10
271.0544747513
 20
20.1893283134
 10
271.0118465067
 20
21.1353643099
  0
SPLINE
  5
241
330
1F
100
AcDbEntity
  8
0
  6
Continuous
 62
     7
370
    15
100
AcDbSpline
210
0.0
220
0.0
230
1.0
 70
     8
 71
     3
 72
    18
 73
    14
 74
     0
 42
0.000000001
 43
0.00000001
 40
0.0
 40
0.0
 40
0.0
 40
0.0
 40
0.2500000000000006
 40
0.2500000000000006
 40
0.3750000000000006
 40
0.3750000000000006
 40
0.5000000000000007
 40
0.5000000000000007
 40
0.6250000000000007
 40
0.6250000000000007
 40
0.7500000000000008
 40
0.7500000000000008
 40
1.0
 40
1.0
 40
1.0
 40
1.0
 10
273.5187429530632
 20
16.39470590322849
 30
0.0
 10
273.395135293592
 20
16.35519947895127
 30
0.0
 10
273.2738926027685
 20
16.34914895791895
 30
0.0
 10
273.0964080900483
 20
16.39082622515551
 30
0.0
 10
273.03795839378
 20
16.41349922308112
 30
0.0
 10
272.9264345545914
 20
16.47481665816715
 30
0.0
 10
272.8728556958468
 20
16.51352879796919
 30
0.0
 10
272.7700929424086
 20
16.60707762168603
 30
0.0
 10
272.7205351678084
 20
16.66246374078115
 30
0.0
 10
272.6281564715646
 20
16.78730709103167
 30
0.0
 10
272.585369883844
 20
16.85648206772625
 30
0.0
 10
272.4667976700244
 20
17.0836441741163
 30
0.0
 10
272.4003911226976
 20
17.26310501326322
 30
0.0
 10
272.3495014650431
 20
17.46190672635312
 30
0.0
  0
LWPOLYLINE
  5
242
330
1F
100
AcDbEntity
  8
0
  6
Continuous
 62
     7
370
    15
100
AcDbPolyline
 90
       16
 70
   128
 43
0.0
 10
284.7330513601
 20
22.8685881075
 10
284.1179358868
 20
21.8680694382
 10
283.4474486742
 20
20.9138696756
 10
282.7290273239
 20
20.0165737653
 10
281.9706398952
 20
19.1861337078
 10
281.1806991296
 20
18.4317604858
 10
280.3679663856
 20
17.7618229794
 10
279.5414567258
 20
17.183750588
 10
278.7103376661
 20
16.7039557675
 10
277.8838280063
 20
16.3277604179
 10
277.0710952622
 20
16.0593366716
 10
276.2811544967
 20
15.9016636991
 10
275.522767068
 20
15.8564882695
 10
274.8043457177
 20
15.9243125446
 10
274.1338585051
 20
16.1043842492
 10
273.5187430318
 20
16.39470571
  0
SPLINE
  5
243
330
1F
100
AcDbEntity
  8
0
  6
Continuous
 62
     7
370
    15
100
AcDbSpline
210
0.0
220
0.0
230
1.0
 70
     8
 71
     3
 72
    18
 73
    14
 74
     0
 42
0.000000001
 43
0.00000001
 40
0.0
 40
0.0
 40
0.0
 40
0.0
 40
0.2500000000000011
 40
0.2500000000000011
 40
0.3750000000000006
 40
0.3750000000000006
 40
0.5000000000000002
 40
0.5000000000000002
 40
0.6249999999999999
 40
0.6249999999999999
 40
0.7499999999999994
 40
0.7499999999999994
 40
1.0
 40
1.0
 40
1.0
 40
1.0
 10
285.9022927919818
 20
25.28576662385427
 30
0.0
 10
285.9154285244324
 20
25.06520971655001
 30
0.0
 10
285.8988404953668
 20
24.84236748042509
 30
0.0
 10
285.8292180847877
 20
24.50433530789416
 30
0.0
 10
285.7982606461479
 20
24.39093204925642
 30
0.0
 10
285.7230079995961
 20
24.17019975609588
 30
0.0
 10
285.6785603151456
 20
24.06192203645646
 30
0.0
 10
285.5760177610172
 20
23.84953996846845
 30
0.0
 10
285.5173624759287
 20
23.74461190055003
 30
0.0
 10
285.388665132377
 20
23.54380238818486
 30
0.0
 10
285.3188822220361
 20
23.44805323383924
 30
0.0
 10
285.0936857579849
 20
23.17437301994721
 30
0.0
 10
284.9207081388133
 20
23.0087765973955
 30
0.0
 10
284.7330513039617
 20
22.86858831374046
 30
0.0
  0
LWPOLYLINE
  5
244
330
1F
100
AcDbEntity
  8
0
  6
Continuous
 62
     7
370
    15
100
AcDbPolyline
 90
       11
 70
   128
 43
0.0
 10
285.9022931828
 20
34.626128616
 10
286.297478498
 20
33.9867677203
 10
286.6096891809
 20
33.2555101984
 10
286.8353137733
 20
32.4408167291
 10
286.9717411463
 20
31.5521129245
 10
287.0173934272
 20
30.5996813415
 10
286.9717411463
 20
29.5945407569
 10
286.8353137733
 20
28.5483212602
 10
286.6096891809
 20
27.4731271814
 10
286.297478498
 20
26.3813988779
 10
285.9022931828
 20
25.2857667292
  0
SPLINE
  5
245
330
1F
100
AcDbEntity
  8
0
  6
Continuous
 62
     7
370
    15
100
AcDbSpline
210
0.0
220
0.0
230
1.0
 70
     8
 71
     3
 72
    18
 73
    14
 74
     0
 42
0.000000001
 43
0.00000001
 40
0.0
 40
0.0
 40
0.0
 40
0.0
 40
0.2499999999999994
 40
0.2499999999999994
 40
0.3749999999999996
 40
0.3749999999999996
 40
0.4999999999999999
 40
0.4999999999999999
 40
0.6250000000000001
 40
0.6250000000000001
 40
0.7500000000000003
 40
0.7500000000000003
 40
1.0
 40
1.0
 40
1.0
 40
1.0
 10
284.7330513039617
 20
35.69332924899614
 30
0.0
 10
284.9206755032821
 20
35.69587971144819
 30
0.0
 10
285.0901307110698
 20
35.6740977388684
 30
0.0
 10
285.3171337338337
 20
35.60383404426281
 30
0.0
 10
285.3881531251238
 20
35.57390471585643
 30
0.0
 10
285.5162462553355
 20
35.50302203266475
 30
0.0
 10
285.5739861199623
 20
35.46190779529707
 30
0.0
 10
285.6768492977704
 20
35.36830099782551
 30
0.0
 10
285.7222614947028
 20
35.31530806977749
 30
0.0
 10
285.7980494530819
 20
35.20004234863062
 30
0.0
 10
285.8284932493228
 20
35.13799271379013
 30
0.0
 10
285.8981185779064
 20
34.93908704279167
 30
0.0
 10
285.9154308092742
 20
34.78796774898119
 30
0.0
 10
285.9022927919818
 20
34.62612842587153
 30
0.0
  0
LWPOLYLINE
  5
246
330
1F
100
AcDbEntity
  8
0
  6
Continuous
 62
     7
370
    15
100
AcDbPolyline
 90
       16
 70
   128
 43
0.0
 10
273.5187430318
 20
29.2194469669
 10
274.1338585051
 20
30.2199656362
 10
274.8043457177
 20
31.1741653987
 10
275.522767068
 20
32.0714613091
 10
276.2811544967
 20
32.9019013666
 10
277.0710952622
 20
33.6562745885
 10
277.8838280063
 20
34.3262120949
 10
278.7103376661
 20
34.9042844864
 10
279.5414567258
 20
35.3840793069
 10
280.3679663856
 20
35.7602746564
 10
281.1806991296
 20
36.0286984027
 10
281.9706398952
 20
36.1863713753
 10
282.7290273239
 20
36.2315468049
 10
283.4474486742
 20
36.1637225298
 10
284.1179358868
 20
35.9836508251
 10
284.7330513601
 20
35.6933293644
  0
SPLINE
  5
247
330
1F
100
AcDbEntity
  8
0
  6
Continuous
 62
     7
370
    15
100
AcDbSpline
210
0.0
220
0.0
230
1.0
 70
     8
 71
     3
 72
    18
 73
    14
 74
     0
 42
0.000000001
 43
0.00000001
 40
0.0
 40
0.0
 40
0.0
 40
0.0
 40
0.2500000000000003
 40
0.2500000000000003
 40
0.3750000000000002
 40
0.3750000000000002
 40
0.5000000000000002
 40
0.5000000000000002
 40
0.6250000000000002
 40
0.6250000000000002
 40
0.7500000000000001
 40
0.7500000000000001
 40
1.0
 40
1.0
 40
1.0
 40
1.0
 10
272.3495014650431
 20
26.80226852837037
 30
0.0
 10
272.4003822724417
 20
26.98586947384945
 30
0.0
 10
272.4651828184715
 20
27.18087921636227
 30
0.0
 10
272.5843237390943
 20
27.49032496152416
 30
0.0
 10
272.6278508727559
 20
27.59647188968113
 30
0.0
 10
272.719672810331
 20
27.80763893473603
 30
0.0
 10
272.7682815006635
 20
27.9135145568098
 30
0.0
 10
272.8709244791618
 20
28.12583865104309
 30
0.0
 10
272.9254341865824
 20
28.23315991000862
 30
0.0
 10
273.0375407922696
 20
28.44354705147743
 30
0.0
 10
273.0949809111308
 20
28.54642154767713
 30
0.0
 10
273.2712304899459
 20
28.84835819696076
 30
0.0
 10
273.3951137931584
 20
29.04229616484891
 30
0.0
 10
273.5187429530632
 20
29.21944683848417
 30
0.0
  0
LWPOLYLINE
  5
248
330
1F
100
AcDbEntity
  8
0
  6
Continuous
 62
     7
370
    15
100
AcDbPolyline
 90
       11
 70
   128
 43
0.0
 10
272.3495012091
 20
17.4619064583
 10
271.9543158939
 20
18.1012673541
 10
271.642105211
 20
18.8325248759
 10
271.4164806186
 20
19.6472183453
 10
271.2800532456
 20
20.5359221499
 10
271.2344009647
 20
21.4883537329
 10
271.2800532456
 20
22.4934943175
 10
271.4164806186
 20
23.5397138142
 10
271.642105211
 20
24.614907893
 10
271.9543158939
 20
25.7066361965
 10
272.3495012091
 20
26.8022683452
  0
ARC
  5
249
330
1F
100
AcDbEntity
  8
0
  6
Continuous
 62
     7
370
    15
100
AcDbCircle
 10
285.0156095885
 20
33.8933966256
 30
0.0
 40
1.821976129509896
100
AcDbArc
 50
98.9216324289
 51
121.0578987032
  0
LINE
  5
24A
330
1F
100
AcDbEntity
  8
0
  6
Continuous
 62
     7
370
    15
100
AcDbLine
 10
282.3787323536
 20
34.4745792139
 30
0.0
 11
284.075644817
 21
35.4541859275
 31
0.0
  0
LWPOLYLINE
  5
24B
330
1F
100
AcDbEntity
  8
0
  6
Continuous
 62
     7
370
    15
100
AcDbPolyline
 90
       10
 70
   128
 43
0.0
 10
275.8730620383
 20
30.718935682
 10
276.5496969286
 20
31.4992729936
 10
277.260760855
 20
32.2067054896
 10
277.9967508557
 20
32.8317791317
 10
278.7478309098
 20
33.3661388764
 10
279.5039634821
 20
33.802644919
 10
280.2550435362
 20
34.1354637464
 10
280.9910335369
 20
34.3601460716
 10
281.7020974633
 20
34.47369051
 10
282.3787323536
 20
34.4745792139
  0
LINE
  5
24C
330
1F
100
AcDbEntity
  8
0
  6
Continuous
 62
     7
370
    15
100
AcDbLine
 10
274.1761495749
 20
29.7393289683
 30
0.0
 11
275.8730620383
 21
30.718935682
 31
0.0
  0
ARC
  5
24D
330
1F
100
AcDbEntity
  8
0
  6
Continuous
 62
     7
370
    15
100
AcDbCircle
 10
275.7648862408
 20
27.054727069
 30
0.0
 40
3.119482577507617
100
AcDbArc
 50
120.6168768957
 51
136.0575441067
  0
ARC
  5
24E
330
1F
100
AcDbEntity
  8
0
  6
Continuous
 62
     7
370
    15
100
AcDbCircle
 10
283.8975616955
 20
23.1661858687
 30
0.0
 40
11.74440912219354
100
AcDbArc
 50
146.0298376095
 51
177.6024484476
  0
LWPOLYLINE
  5
24F
330
1F
100
AcDbEntity
  8
0
  6
Continuous
 62
     7
370
    15
100
AcDbPolyline
 90
       37
 70
   128
 43
0.0
 10
279.9566315011
 20
34.0154253998
 10
280.4858083978
 20
34.0104446189
 10
281.0552508461
 20
33.903453944
 10
281.5740084162
 20
33.6896986549
 10
282.0342170991
 20
33.372418491
 10
282.4289006034
 20
32.9564230841
 10
282.7520757231
 20
32.4480183738
 10
282.9988435455
 20
31.8549115408
 10
283.1654638671
 20
31.1860936036
 10
283.2494098526
 20
30.4517026489
 10
283.2494098526
 20
29.6628717827
 10
283.1654638671
 20
28.8315588562
 10
282.9988435455
 20
27.9703651905
 10
282.7520757231
 20
27.0923462942
 10
282.4289006034
 20
26.2108115331
 10
282.0342170991
 20
25.3391242518
 10
281.5740084162
 20
24.4904984526
 10
281.0552508461
 20
23.6777984219
 10
280.4858083978
 20
22.9133434908
 10
279.874312779
 20
22.2087223989
 10
279.2300339914
 20
21.5746166888
 10
278.5627386617
 20
21.0206383128
 10
277.8825420849
 20
20.5551849037
 10
277.1997554732
 20
20.1853128093
 10
276.5247292014
 20
19.9166283495
 10
275.8676958884
 20
19.7532048331
 10
275.2386156495
 20
19.6975198405
 10
274.6470243739
 20
19.7504170659
 10
274.1018904498
 20
19.9110947103
 10
273.6114772938
 20
20.1771169962
 10
273.1832188855
 20
20.5444514418
 10
272.823607486
 20
21.007529899
 10
272.5380945268
 20
21.5593322135
 10
272.331007633
 20
22.1914935527
 10
272.2054864156
 20
22.8944312194
 10
272.1634334097
 20
23.6574892388
 10
272.1634334097
 20
23.6574892388
  0
LINE
  5
250
330
1F
100
AcDbEntity
  8
0
  6
Continuous
 62
     7
370
    15
100
AcDbLine
 10
272.7619357807
 20
17.4502573925
 30
0.0
 11
274.4588482442
 21
18.4298641062
 31
0.0
  0
LINE
  5
251
330
1F
100
AcDbEntity
  8
0
  6
Continuous
 62
     7
370
    15
100
AcDbLine
 10
272.40174124
 20
17.2834655945
 30
0.0
 11
272.7619357807
 21
17.4502573925
 31
0.0
  0
ARC
  5
252
330
1F
100
AcDbEntity
  8
0
  6
Continuous
 62
     7
370
    15
100
AcDbCircle
 10
282.1101745243
 20
35.1780041744
 30
0.0
 40
2.392071943272082
100
AcDbArc
 50
346.7587053596
 51
10.8660999188
  0
LWPOLYLINE
  5
253
330
1F
100
AcDbEntity
  8
0
  6
Continuous
 62
     7
370
    15
100
AcDbPolyline
 90
        9
 70
   128
 43
0.0
 10
284.4386510134
 20
26.8575489236
 10
284.7828801303
 20
27.9812130938
 10
285.0321148604
 20
29.0898204571
 10
285.1830078221
 20
30.1684784224
 10
285.2335320153
 20
31.2026965596
 10
285.1830078221
 20
32.1785807049
 10
285.0321148604
 20
33.0830213651
 10
284.7828801303
 20
33.9038684341
 10
284.4386510134
 20
34.6300941257
  0
ARC
  5
254
330
1F
100
AcDbEntity
  8
0
  6
Continuous
 62
     7
370
    15
100
AcDbCircle
 10
280.6982472857
 20
26.3839395286
 30
0.0
 40
3.770268678167486
100
AcDbArc
 50
301.3793039235
 51
7.2163813133
  0
LINE
  5
255
330
1F
100
AcDbEntity
  8
0
  6
Continuous
 62
     7
370
    15
100
AcDbLine
 10
280.9645185594
 20
22.185507638
 30
0.0
 11
282.6614310229
 21
23.1651143517
 31
0.0
  0
LWPOLYLINE
  5
256
330
1F
100
AcDbEntity
  8
0
  6
Continuous
 62
     7
370
    15
100
AcDbPolyline
 90
       10
 70
   128
 43
0.0
 10
280.9645185594
 20
22.185507638
 10
280.2878836691
 20
21.4051703264
 10
279.5768197427
 20
20.6977378304
 10
278.8408297421
 20
20.0726641883
 10
278.0897496879
 20
19.5383044437
 10
277.3336171156
 20
19.101798401
 10
276.5825370615
 20
18.7689795736
 10
275.8465470608
 20
18.5442972484
 10
275.1354831344
 20
18.43075281
 10
274.4588482442
 20
18.4298641062
  0
ARC
  5
257
330
1F
100
AcDbEntity
  8
0
  6
Continuous
 62
     7
370
    15
100
AcDbCircle
 10
275.047504153
 20
17.7054870473
 30
0.0
 40
2.708976077529821
100
AcDbArc
 50
167.8781416141
 51
185.1587809378
  0
LWPOLYLINE
  5
258
330
1F
100
AcDbEntity
  8
0
  6
Continuous
 62
     7
370
    15
100
AcDbPolyline
 90
        9
 70
   128
 43
0.0
 10
272.3989295843
 20
18.2743491943
 10
272.0547004674
 20
19.0005748859
 10
271.8054657373
 20
19.821421955
 10
271.6545727756
 20
20.7258626151
 10
271.6040485824
 20
21.7017467604
 10
271.6545727756
 20
22.7359648976
 10
271.8054657373
 20
23.8146228629
 10
272.0547004674
 20
24.9232302263
 10
272.3989295843
 20
26.0468943964
  0
ARC
  5
259
330
1F
100
AcDbEntity
  8
0
  6
Continuous
 62
     7
370
    15
100
AcDbCircle
 10
274.519467757
 20
26.5649573245
 30
0.0
 40
2.182904335878321
100
AcDbArc
 50
173.7588441556
 51
193.7288526261
  0
LWPOLYLINE
  5
25A
330
1F
100
AcDbEntity
  8
0
  6
Continuous
 62
     7
370
    15
100
AcDbPolyline
 90
       32
 70
   128
 43
0.0
 10
279.8059731459
 20
33.9486807242
 10
280.1290708866
 20
33.9165094429
 10
280.6678712589
 20
33.7755068985
 10
281.1533601483
 20
33.5293124336
 10
281.5778806579
 20
33.1818077888
 10
281.9347380243
 20
32.7384738683
 10
282.218304326
 20
32.2063021355
 10
282.4241080458
 20
31.5936854783
 10
282.5489028886
 20
30.9102849319
 10
282.5907207941
 20
30.1668781512
 10
282.5489028886
 20
29.3751894445
 10
282.4241080458
 20
28.5477038395
 10
282.218304326
 20
27.6974712653
 10
281.9347380243
 20
26.8379008494
 10
281.5778806579
 20
25.9825481837
 10
281.1533601483
 20
25.1449025915
 10
280.6678712589
 20
24.3381745861
 10
280.1290708866
 20
23.5750863734
 10
279.5454557373
 20
22.867672337
 10
278.9262301231
 20
22.2270894098
 10
278.2811595181
 20
21.6634389973
 10
277.6204170767
 20
21.1856110731
 10
276.9544230309
 20
20.8011408942
 10
276.2936805894
 20
20.5160918338
 10
275.6486099844
 20
20.3349595788
 10
275.0293843702
 20
20.2605998298
 10
274.445769221
 20
20.2941861578
 10
273.9069688487
 20
20.4351887021
 10
273.4214799592
 20
20.681383167
 10
272.9969594496
 20
21.0288878118
 10
272.6401020833
 20
21.4722217323
 10
272.4363859495
 20
21.8302428222
  0
LINE
  5
25B
330
1F
100
AcDbEntity
  8
0
  6
Continuous
 62
     7
370
    15
100
AcDbLine
 10
259.2645998401
 20
23.0763347303
 30
0.0
 11
259.0628540715
 21
23.2005733729
 31
0.0
  0
SPLINE
  5
25C
330
1F
100
AcDbEntity
  8
0
  6
Continuous
 62
     7
370
    15
100
AcDbSpline
210
0.0
220
0.0
230
1.0
 70
     8
 71
     3
 72
    12
 73
     8
 74
     0
 42
0.000000001
 43
0.00000001
 40
0.0
 40
0.0
 40
0.0
 40
0.0
 40
0.4999999999999998
 40
0.4999999999999998
 40
0.7499999999999999
 40
0.7499999999999999
 40
1.0
 40
1.0
 40
1.0
 40
1.0
 10
257.1385505633706
 20
25.80572896953102
 30
0.0
 10
257.3918393994349
 20
25.68485113796204
 30
0.0
 10
257.6214051264664
 20
25.60484366881473
 30
0.0
 10
257.9361855879955
 20
25.54574312541882
 30
0.0
 10
258.0362840949391
 20
25.53655512164021
 30
0.0
 10
258.2216019519813
 20
25.54004597672221
 30
0.0
 10
258.3076754240003
 20
25.55249905492241
 30
0.0
 10
258.3878892162302
 20
25.57588812188389
 30
0.0
  0
SPLINE
  5
25D
330
1F
100
AcDbEntity
  8
0
  6
Continuous
 62
     7
370
    15
100
AcDbSpline
210
0.0
220
0.0
230
1.0
 70
     8
 71
     3
 72
    28
 73
    24
 74
     0
 42
0.000000001
 43
0.00000001
 40
0.0
 40
0.0
 40
0.0
 40
0.0
 40
0.1249999999999998
 40
0.1249999999999998
 40
0.2499999999999996
 40
0.2499999999999996
 40
0.3749999999999994
 40
0.3749999999999994
 40
0.4374999999999993
 40
0.4374999999999993
 40
0.4999999999999992
 40
0.4999999999999992
 40
0.6249999999999991
 40
0.6249999999999991
 40
0.749999999999999
 40
0.749999999999999
 40
0.8124999999999993
 40
0.8124999999999993
 40
0.8749999999999996
 40
0.8749999999999996
 40
0.9374999999999998
 40
0.9374999999999998
 40
1.0
 40
1.0
 40
1.0
 40
1.0
 10
258.3878892162302
 20
25.57588812188389
 30
0.0
 10
258.517556663083
 20
25.61369708855726
 30
0.0
 10
258.6325770373451
 20
25.6812106562971
 30
0.0
 10
258.8265787618648
 20
25.87148531115681
 30
0.0
 10
258.9071068413182
 20
25.99414276622399
 30
0.0
 10
259.0382183580857
 20
26.30042324820586
 30
0.0
 10
259.0863219413624
 20
26.47833956886969
 30
0.0
 10
259.1350021364354
 20
26.78231508640127
 30
0.0
 10
259.1472739981078
 20
26.88989985189753
 30
0.0
 10
259.1637488480607
 20
27.11829150418787
 30
0.0
 10
259.1678036231542
 20
27.23738574259241
 30
0.0
 10
259.16781743048
 20
27.6060265473929
 30
0.0
 10
259.1519218931983
 20
27.86815551527794
 30
0.0
 10
259.0863144891326
 20
28.42493729370408
 30
0.0
 10
259.0378741217543
 20
28.70880348584996
 30
0.0
 10
258.940690076146
 20
29.14148363116816
 30
0.0
 10
258.9039787403721
 20
29.28749383381569
 30
0.0
 10
258.8222759969642
 20
29.5787935376326
 30
0.0
 10
258.7776673543648
 20
29.72284781583671
 30
0.0
 10
258.6805906383367
 20
30.0076704805595
 30
0.0
 10
258.6281233854159
 20
30.1484390866954
 30
0.0
 10
258.5146284789967
 20
30.42644900666262
 30
0.0
 10
258.4532567884061
 20
30.56438729159009
 30
0.0
 10
258.3878892162302
 20
30.69866500601788
 30
0.0
  0
SPLINE
  5
25E
330
1F
100
AcDbEntity
  8
0
  6
Continuous
 62
     7
370
    15
100
AcDbSpline
210
0.0
220
0.0
230
1.0
 70
     8
 71
     3
 72
    12
 73
     8
 74
     0
 42
0.000000001
 43
0.00000001
 40
0.0
 40
0.0
 40
0.0
 40
0.0
 40
0.4999999999999991
 40
0.4999999999999991
 40
0.7499999999999996
 40
0.7499999999999996
 40
1.0
 40
1.0
 40
1.0
 40
1.0
 10
258.3878892162302
 20
30.69866500601788
 30
0.0
 10
258.2264419554588
 20
31.03030909888162
 30
0.0
 10
258.0435617927761
 20
31.33547806305893
 30
0.0
 10
257.7292672703397
 20
31.75035534484197
 30
0.0
 10
257.6176817103385
 20
31.88119467505678
 30
0.0
 10
257.3858788641547
 20
32.12025516790877
 30
0.0
 10
257.2649518936511
 20
32.22948751001958
 30
0.0
 10
257.1385505633706
 20
32.32796850102258
 30
0.0
  0
SPLINE
  5
25F
330
1F
100
AcDbEntity
  8
0
  6
Continuous
 62
     7
370
    15
100
AcDbSpline
210
0.0
220
0.0
230
1.0
 70
     8
 71
     3
 72
    12
 73
     8
 74
     0
 42
0.000000001
 43
0.00000001
 40
0.0
 40
0.0
 40
0.0
 40
0.0
 40
0.249999999999999
 40
0.249999999999999
 40
0.499999999999998
 40
0.499999999999998
 40
1.0
 40
1.0
 40
1.0
 40
1.0
 10
254.1833798787646
 20
31.68788466329967
 30
0.0
 10
254.2171590450369
 20
31.66838436568615
 30
0.0
 10
254.2554837415124
 20
31.64154461710899
 30
0.0
 10
254.329706865625
 20
31.58314411378634
 30
0.0
 10
254.3650902301197
 20
31.55215445530544
 30
0.0
 10
254.4609001885047
 20
31.46141510228469
 30
0.0
 10
254.509903946659
 20
31.40552097356715
 30
0.0
 10
254.5437130042737
 20
31.35826110980049
 30
0.0
  0
SPLINE
  5
260
330
1F
100
AcDbEntity
  8
0
  6
Continuous
 62
     7
370
    15
100
AcDbSpline
210
0.0
220
0.0
230
1.0
 70
     8
 71
     3
 72
    12
 73
     8
 74
     0
 42
0.000000001
 43
0.00000001
 40
0.0
 40
0.0
 40
0.0
 40
0.0
 40
0.4999999999999971
 40
0.4999999999999971
 40
0.7499999999999986
 40
0.7499999999999986
 40
1.0
 40
1.0
 40
1.0
 40
1.0
 10
271.6482429174648
 20
48.12806263412202
 30
0.0
 10
271.6482429174648
 20
48.19948166584669
 30
0.0
 10
271.6306783868038
 20
48.28201142503989
 30
0.0
 10
271.5755528523138
 20
48.40095614107276
 30
0.0
 10
271.552260378557
 20
48.43958902829736
 30
0.0
 10
271.4982919894996
 20
48.5061515395744
 30
0.0
 10
271.4674444887464
 20
48.53407257782706
 30
0.0
 10
271.4361108831088
 20
48.55216108333701
 30
0.0
  0
LWPOLYLINE
  5
261
330
1F
100
AcDbEntity
  8
0
  6
Continuous
 62
     7
370
    15
100
AcDbPolyline
 90
       11
 70
   128
 43
0.0
 10
260.1470863593
 20
45.3554248019
 10
261.1523087818
 20
46.2517141345
 10
262.1785703844
 20
47.0511732738
 10
263.217031812
 20
47.7469160836
 10
264.2587483017
 20
48.3329507179
 10
265.2947471845
 20
48.8042281649
 10
266.3161051
 20
49.1566898633
 10
267.3140249225
 20
49.3872999439
 10
268.2799108353
 20
49.4940718387
 10
269.2054431163
 20
49.4760855978
 10
270.0826507427
 20
49.3334971036
  0
LINE
  5
262
330
1F
100
AcDbEntity
  8
0
  6
Continuous
 62
     7
370
    15
100
AcDbLine
 10
271.4361105133
 20
48.5521614093
 30
0.0
 11
270.0826507427
 21
49.3334971036
 31
0.0
  0
LINE
  5
263
330
1F
100
AcDbEntity
  8
0
  6
Continuous
 62
     7
370
    15
100
AcDbLine
 10
252.8299199643
 20
32.4692205473
 30
0.0
 11
254.1833797349
 21
31.6878848529
 31
0.0
  0
ARC
  5
264
330
1F
100
AcDbEntity
  8
0
  6
Continuous
 62
     7
370
    15
100
AcDbCircle
 10
278.44586737
 20
26.4577070354
 30
0.0
 40
26.31188051429305
100
AcDbArc
 50
136.4697995832
 51
166.7929036469
  0
SPLINE
  5
265
330
1F
100
AcDbEntity
  8
0
  6
Continuous
 62
     7
370
    15
100
AcDbSpline
210
0.0
220
0.0
230
1.0
 70
     8
 71
     3
 72
    12
 73
     8
 74
     0
 42
0.000000001
 43
0.00000001
 40
0.0
 40
0.0
 40
0.0
 40
0.0
 40
0.2500000000000008
 40
0.2500000000000008
 40
0.5000000000000017
 40
0.5000000000000017
 40
1.0
 40
1.0
 40
1.0
 40
1.0
 10
259.3694527544455
 20
44.57966802643416
 30
0.0
 10
259.4687674371655
 20
44.61301611072997
 30
0.0
 10
259.5625925768569
 20
44.6568983122345
 30
0.0
 10
259.7395856817625
 20
44.76502858103022
 30
0.0
 10
259.8193972496835
 20
44.82743407121141
 30
0.0
 10
260.0275811109039
 20
45.03483164900117
 30
0.0
 10
260.1192909444899
 20
45.19624218679495
 30
0.0
 10
260.1470862706637
 20
45.35542519433405
 30
0.0
  0
LINE
  5
266
330
1F
100
AcDbEntity
  8
0
  6
Continuous
 62
     7
370
    15
100
AcDbLine
 10
254.5916081826
 20
31.2913110436
 30
0.0
 11
256.4198469333
 21
32.3467308091
 31
0.0
  0
LINE
  5
267
330
1F
100
AcDbEntity
  8
0
  6
Continuous
 62
     7
370
    15
100
AcDbLine
 10
254.5437128991
 20
31.3582609872
 30
0.0
 11
254.5916081826
 21
31.2913110436
 31
0.0
  0
LINE
  5
268
330
1F
100
AcDbEntity
  8
0
  6
Continuous
 62
     7
370
    15
100
AcDbLine
 10
271.6482428458
 20
45.3714513547
 30
0.0
 11
271.6482428458
 21
48.1280624146
 31
0.0
  0
SPLINE
  5
269
330
1F
100
AcDbEntity
  8
0
  6
Continuous
 62
     7
370
    15
100
AcDbSpline
210
0.0
220
0.0
230
1.0
 70
     8
 71
     3
 72
     8
 73
     4
 74
     0
 42
0.000000001
 43
0.00000001
 40
0.0
 40
0.0
 40
0.0
 40
0.0
 40
1.0
 40
1.0
 40
1.0
 40
1.0
 10
251.8397684585271
 20
33.72759975216933
 30
0.0
 10
251.4590705925266
 20
33.66463291449872
 30
0.0
 10
251.0782326202868
 20
33.60193279236369
 30
0.0
 10
250.6972919695471
 20
33.53945191369066
 30
0.0
  0
SPLINE
  5
26A
330
1F
100
AcDbEntity
  8
0
  6
Continuous
 62
     7
370
    15
100
AcDbSpline
210
0.0
220
0.0
230
1.0
 70
     8
 71
     3
 72
     8
 73
     4
 74
     0
 42
0.000000001
 43
0.00000001
 40
0.0
 40
0.0
 40
0.0
 40
0.0
 40
0.0011901715795577
 40
0.0011901715795577
 40
0.0011901715795577
 40
0.0011901715795577
 10
250.3396051719892
 20
33.90684856954629
 30
0.0
 10
250.4592516794841
 20
33.7842336597908
 30
0.0
 10
250.5784948536322
 20
33.66176161929508
 30
0.0
 10
250.6972919695471
 20
33.53945191369066
 30
0.0
  0
LWPOLYLINE
  5
26B
330
1F
100
AcDbEntity
  8
0
  6
Continuous
 62
     7
370
    15
100
AcDbPolyline
 90
       23
 70
   128
 43
0.0
 10
250.3396052606
 20
33.9068486249
 10
250.6540872635
 20
35.1467690695
 10
251.0464401788
 20
36.3963815311
 10
251.5137394104
 20
37.6463747963
 10
252.052503892
 20
38.8874346621
 10
252.6587184778
 20
40.110313516
 10
253.3278662109
 20
41.3058995352
 10
254.0549612509
 20
42.4652839845
 10
254.8345850936
 20
43.5798269931
 10
255.6609297056
 20
44.6412258017
 10
256.5278370374
 20
45.6415695124
 10
257.4288470965
 20
46.5734048644
 10
258.3572470095
 20
47.4297896513
 10
259.3061182725
 20
48.2043405314
 10
260.2683909985
 20
48.8912886789
 10
261.2368947594
 20
49.4855121755
 10
262.204412988
 20
49.9825864283
 10
263.1637363401
 20
50.3788050887
 10
264.1077169222
 20
50.6712182019
 10
265.0293203267
 20
50.8576447548
 10
265.9216794158
 20
50.9366968817
 10
266.7781451952
 20
50.9077848971
 10
267.5923360391
 20
50.7711251813
  0
LINE
  5
26C
330
1F
100
AcDbEntity
  8
0
  6
Continuous
 62
     7
370
    15
100
AcDbLine
 10
268.02280123
 20
49.4479390396
 30
0.0
 11
267.5923360391
 21
50.7711251813
 31
0.0
  0
LWPOLYLINE
  5
26D
330
1F
100
AcDbEntity
  8
0
  6
Continuous
 62
     7
370
    15
100
AcDbPolyline
 90
       21
 70
   128
 43
0.0
 10
251.8397683327
 20
33.7275999378
 10
252.1505749987
 20
34.9592092481
 10
252.545591068
 20
36.2010685406
 10
253.0213242791
 20
37.4421981997
 10
253.5735678497
 20
38.6716236196
 10
254.1974393308
 20
39.8784740613
 10
254.8874227536
 20
41.0520796071
 10
255.6374167032
 20
42.1820624124
 10
256.4407899658
 20
43.2584315676
 10
257.2904394802
 20
44.271670546
 10
258.1788522414
 20
45.2128193283
 10
259.0981736245
 20
46.0735571913
 10
260.0402743913
 20
46.8462733296
 10
260.9968249006
 20
47.5241347913
 10
261.9593673829
 20
48.1011487344
 10
262.9193911383
 20
48.5722134415
 10
263.8684076103
 20
48.9331631804
 10
264.798025666
 20
49.1808063391
 10
265.7000261761
 20
49.3129540309
 10
266.566433014
 20
49.3284375075
 10
266.8885465599
 20
49.3032669498
  0
SPLINE
  5
26E
330
1F
100
AcDbEntity
  8
0
  6
Continuous
 62
     7
370
    15
100
AcDbSpline
210
0.0
220
0.0
230
1.0
 70
     8
 71
     3
 72
    10
 73
     6
 74
     0
 42
0.000000001
 43
0.00000001
 40
0.0
 40
0.0
 40
0.0
 40
0.0
 40
0.5
 40
0.5
 40
1.0
 40
1.0
 40
1.0
 40
1.0
 10
257.1385505633706
 20
32.32796850102258
 30
0.0
 10
257.0784639822594
 20
32.37478277141575
 30
0.0
 10
256.9998310254053
 20
32.40786333733552
 30
0.0
 10
256.8283853834633
 20
32.44038027098843
 30
0.0
 10
256.7359266691249
 20
32.43983005764589
 30
0.0
 10
256.6512158389695
 20
32.42597164555408
 30
0.0
  0
SPLINE
  5
26F
330
1F
100
AcDbEntity
  8
0
  6
Continuous
 62
     7
370
    15
100
AcDbSpline
210
0.0
220
0.0
230
1.0
 70
     8
 71
     3
 72
    10
 73
     6
 74
     0
 42
0.000000001
 43
0.00000001
 40
0.0
 40
0.0
 40
0.0
 40
0.0
 40
0.5
 40
0.5
 40
1.0
 40
1.0
 40
1.0
 40
1.0
 10
256.6512158389695
 20
32.42597164555408
 30
0.0
 10
256.607825412383
 20
32.41887311504303
 30
0.0
 10
256.5656811392157
 20
32.40824596596553
 30
0.0
 10
256.4878281724617
 20
32.38143486538504
 30
0.0
 10
256.452174913858
 20
32.36539333068993
 30
0.0
 10
256.4198467228551
 20
32.34673066327002
 30
0.0
  0
SPLINE
  5
270
330
1F
100
AcDbEntity
  8
0
  6
Continuous
 62
     7
370
    15
100
AcDbSpline
210
0.0
220
0.0
230
1.0
 70
     8
 71
     3
 72
     9
 73
     5
 74
     0
 42
0.000000001
 43
0.00000001
 40
0.0
 40
0.0
 40
0.0
 40
0.0
 40
0.5
 40
1.0
 40
1.0
 40
1.0
 40
1.0
 10
271.64867075978
 20
45.34283489165544
 30
0.0
 10
271.6485281247684
 20
45.34764776776819
 30
0.0
 10
271.648314235746
 20
45.3572300151462
 30
0.0
 10
271.6482429174648
 20
45.36672536939727
 30
0.0
 10
271.6482429174648
 20
45.371451313212
 30
0.0
  0
SPLINE
  5
271
330
1F
100
AcDbEntity
  8
0
  6
Continuous
 62
     7
370
    15
100
AcDbSpline
210
0.0
220
0.0
230
1.0
 70
     8
 71
     3
 72
     8
 73
     4
 74
     0
 42
0.000000001
 43
0.00000001
 40
0.0
 40
0.0
 40
0.0
 40
0.0
 40
1.0
 40
1.0
 40
1.0
 40
1.0
 10
271.6728102690262
 20
45.35726427257489
 30
0.0
 10
271.6646294538359
 20
45.35254158849067
 30
0.0
 10
271.6565827702233
 20
45.34773188701016
 30
0.0
 10
271.6486707597797
 20
45.3428348916556
 30
0.0
  0
LINE
  5
272
330
1F
100
AcDbEntity
  8
0
  6
Continuous
 62
     7
370
    15
100
AcDbLine
 10
249.0038228003
 20
34.6779794253
 30
0.0
 11
250.3396052606
 21
33.9068486249
 31
0.0
  0
LINE
  5
273
330
1F
100
AcDbEntity
  8
0
  6
Continuous
 62
     7
370
    15
100
AcDbLine
 10
267.5923360391
 20
50.7711251813
 30
0.0
 11
266.2565535787
 21
51.5422559817
 31
0.0
  0
ARC
  5
274
330
1F
100
AcDbEntity
  8
0
  6
Continuous
 62
     7
370
    15
100
AcDbCircle
 10
273.2361848034
 20
18.1946384488
 30
0.0
 40
1.821976129509375
100
AcDbArc
 50
278.9216324289
 51
301.0578987032
  0
LINE
  5
275
330
1F
100
AcDbEntity
  8
0
  6
Continuous
 62
     7
370
    15
100
AcDbLine
 10
253.0663104423
 20
33.4273151445
 30
0.0
 11
252.4757998382
 21
33.7682096601
 31
0.0
  0
SPLINE
  5
276
330
1F
100
AcDbEntity
  8
0
  6
Continuous
 62
     7
370
    15
100
AcDbSpline
210
0.0
220
0.0
230
1.0
 70
     8
 71
     3
 72
    14
 73
    10
 74
     0
 42
0.000000001
 43
0.00000001
 40
0.0
 40
0.0
 40
0.0
 40
0.0
 40
0.1134875903227499
 40
0.2884507601050068
 40
0.4634438893900288
 40
0.6380744063983101
 40
0.8124676993590939
 40
0.9871167959912229
 40
0.9999999999999999
 40
0.9999999999999999
 40
0.9999999999999999
 40
0.9999999999999999
 10
259.8605352045809
 20
44.87997552430581
 30
0.0
 10
259.7909847421715
 20
44.88332555372848
 30
0.0
 10
259.6142087291241
 20
44.89184030437737
 30
0.0
 10
259.3193732067355
 20
44.80669425783631
 30
0.0
 10
259.0267270974323
 20
44.64325864556912
 30
0.0
 10
258.8011847376078
 20
44.41257095294429
 30
0.0
 10
258.6820932369091
 20
44.14983728466085
 30
0.0
 10
258.6480262585206
 20
43.95487951076926
 30
0.0
 10
258.6796885298253
 20
43.8691004225551
 30
0.0
 10
258.6818636831147
 20
43.86320752042905
 30
0.0
  0
SPLINE
  5
277
330
1F
100
AcDbEntity
  8
0
  6
Continuous
 62
     7
370
    15
100
AcDbSpline
210
0.0
220
0.0
230
1.0
 70
     8
 71
     3
 72
    12
 73
     8
 74
     0
 42
0.000000001
 43
0.00000001
 40
0.0
 40
0.0
 40
0.0
 40
0.0
 40
0.2500000000000015
 40
0.2500000000000015
 40
0.500000000000003
 40
0.500000000000003
 40
1.0
 40
1.0
 40
1.0
 40
1.0
 10
252.4757999077645
 20
33.76820964758497
 30
0.0
 10
252.4381811728052
 20
33.78992648102115
 30
0.0
 10
252.3921887644179
 20
33.80718221500381
 30
0.0
 10
252.292587634442
 20
33.82947600283163
 30
0.0
 10
252.2378369091879
 20
33.83468178741106
 30
0.0
 10
252.0783310103686
 20
33.83167988798394
 30
0.0
 10
251.973328205151
 20
33.80470215272474
 30
0.0
 10
251.8980153089591
 20
33.76122494319144
 30
0.0
  0
SPLINE
  5
278
330
1F
100
AcDbEntity
  8
0
  6
Continuous
 62
     7
370
    15
100
AcDbSpline
210
0.0
220
0.0
230
1.0
 70
     8
 71
     3
 72
    10
 73
     6
 74
     0
 42
0.000000001
 43
0.00000001
 40
0.0
 40
0.0
 40
0.0
 40
0.0
 40
0.5
 40
0.5
 40
1.0
 40
1.0
 40
1.0
 40
1.0
 10
248.9021785959758
 20
34.70870142414411
 30
0.0
 10
248.9094412776244
 20
34.71269802963194
 30
0.0
 10
248.9212349415901
 20
34.71287980801711
 30
0.0
 10
248.9552939523573
 20
34.70315817850736
 30
0.0
 10
248.9774664399096
 20
34.69319452173166
 30
0.0
 10
249.0038227065731
 20
34.67797937285035
 30
0.0
  0
LINE
  5
279
330
1F
100
AcDbEntity
  8
0
  6
Continuous
 62
     7
370
    15
100
AcDbLine
 10
251.8980152774
 20
33.7612251832
 30
0.0
 11
251.8397683327
 21
33.7275999378
 31
0.0
  0
ARC
  5
27A
330
1F
100
AcDbEntity
  8
0
  6
Continuous
 62
     7
370
    15
100
AcDbCircle
 10
283.2042902389
 20
34.3825480271
 30
0.0
 40
2.708976077523628
100
AcDbArc
 50
347.878141614
 51
5.1587809378
  0
LINE
  5
27B
330
1F
100
AcDbEntity
  8
0
  6
Continuous
 62
     7
370
    15
100
AcDbLine
 10
284.4386510134
 20
34.6300941257
 30
0.0
 11
285.8528648076
 21
33.8136858801
 31
0.0
  0
LWPOLYLINE
  5
27C
330
1F
100
AcDbEntity
  8
0
  6
Continuous
 62
     7
370
    15
100
AcDbPolyline
 90
       10
 70
   128
 43
0.0
 10
282.3787323536
 20
21.3690993924
 10
281.7020974633
 20
20.5887620808
 10
280.9910335369
 20
19.8813295847
 10
280.2550435362
 20
19.2562559427
 10
279.5039634821
 20
18.721896198
 10
278.7478309098
 20
18.2853901553
 10
277.9967508557
 20
17.9525713279
 10
277.260760855
 20
17.7278890027
 10
276.5496969286
 20
17.6143445644
 10
275.8730620383
 20
17.6134558605
  0
LINE
  5
27D
330
1F
100
AcDbEntity
  8
0
  6
Continuous
 62
     7
370
    15
100
AcDbLine
 10
284.075644817
 20
22.348706106
 30
0.0
 11
282.3787323536
 21
21.3690993924
 31
0.0
  0
ARC
  5
27E
330
1F
100
AcDbEntity
  8
0
  6
Continuous
 62
     7
370
    15
100
AcDbCircle
 10
282.4869081511
 20
25.0333080053
 30
0.0
 40
3.119482577504883
100
AcDbArc
 50
300.6168768957
 51
316.0575441067
  0
LINE
  5
27F
330
1F
100
AcDbEntity
  8
0
  6
Continuous
 62
     7
370
    15
100
AcDbLine
 10
275.8730620383
 20
17.6134558605
 30
0.0
 11
274.1761495749
 21
16.6338491469
 31
0.0
  0
LINE
  5
280
330
1F
100
AcDbEntity
  8
0
  6
Continuous
 62
     7
370
    15
100
AcDbLine
 10
254.5916081826
 20
31.2913110436
 30
0.0
 11
252.8644253916
 21
32.2883924454
 31
0.0
  0
SPLINE
  5
281
330
1F
100
AcDbEntity
  8
0
  6
Continuous
 62
     7
370
    15
100
AcDbSpline
210
0.0
220
0.0
230
1.0
 70
     8
 71
     3
 72
     8
 73
     4
 74
     0
 42
0.000000001
 43
0.00000001
 40
0.0
 40
0.0
 40
0.0
 40
0.0
 40
0.0011901715795577
 40
0.0011901715795577
 40
0.0011901715795577
 40
0.0011901715795577
 10
252.8644254812359
 20
32.28839236694387
 30
0.0
 10
252.8522640144174
 20
32.34914262265472
 30
0.0
 10
252.8407805674613
 20
32.40940629678477
 30
0.0
 10
252.8299197438188
 20
32.46922056800151
 30
0.0
  0
LINE
  5
282
330
1F
100
AcDbEntity
  8
0
  6
Continuous
 62
     7
370
    15
100
AcDbLine
 10
258.6168824623
 20
25.6809321284
 30
0.0
 11
258.3878894148
 21
25.5758880543
 31
0.0
  0
LINE
  5
283
330
1F
100
AcDbEntity
  8
0
  6
Continuous
 62
     7
370
    15
100
AcDbLine
 10
274.4588482442
 20
18.4298641062
 30
0.0
 11
275.8730620383
 21
17.6134558605
 31
0.0
  0
LINE
  5
284
330
1F
100
AcDbEntity
  8
0
  6
Continuous
 62
     7
370
    15
100
AcDbLine
 10
251.5664100471
 20
33.6824578472
 30
0.0
 11
251.5664100471
 21
31.423130107
 31
0.0
  0
LINE
  5
285
330
1F
100
AcDbEntity
  8
0
  6
Continuous
 62
     7
370
    15
100
AcDbLine
 10
251.5664100471
 20
31.423130107
 30
0.0
 11
251.5664100471
 21
29.9573221997
 31
0.0
  0
LINE
  5
286
330
1F
100
AcDbEntity
  8
0
  6
Continuous
 62
     7
370
    15
100
AcDbLine
 10
282.3787323536
 20
21.3690993924
 30
0.0
 11
280.9645185594
 21
22.185507638
 31
0.0
  0
ARC
  5
287
330
1F
100
AcDbEntity
  8
0
  6
Continuous
 62
     7
370
    15
100
AcDbCircle
 10
283.7323266349
 20
25.5230777499
 30
0.0
 40
2.182904335874057
100
AcDbArc
 50
353.7588441556
 51
13.7288526262
  0
LWPOLYLINE
  5
288
330
1F
100
AcDbEntity
  8
0
  6
Continuous
 62
     7
370
    15
100
AcDbPolyline
 90
        9
 70
   128
 43
0.0
 10
285.8528648076
 20
33.8136858801
 10
286.1970939245
 20
33.0874601885
 10
286.4463286546
 20
32.2666131194
 10
286.5972216163
 20
31.3621724593
 10
286.6477458095
 20
30.3862883139
 10
286.5972216163
 20
29.3520701768
 10
286.4463286546
 20
28.2734122115
 10
286.1970939245
 20
27.1648048481
 10
285.8528648076
 20
26.0411406779
  0
LINE
  5
289
330
1F
100
AcDbEntity
  8
0
  6
Continuous
 62
     7
370
    15
100
AcDbLine
 10
284.4386510134
 20
26.8575489236
 30
0.0
 11
285.8528648076
 21
26.0411406779
 31
0.0
  0
ARC
  5
28A
330
1F
100
AcDbEntity
  8
0
  6
Continuous
 62
     7
370
    15
100
AcDbCircle
 10
261.8421488527
 20
32.7131525676
 30
0.0
 40
10.35639734414064
100
AcDbArc
 50
174.7104312064
 51
187.1555121404
  0
LINE
  5
28B
330
1F
100
AcDbEntity
  8
0
  6
Continuous
 62
     7
370
    15
100
AcDbLine
 10
249.3413401961
 20
34.3222262373
 30
0.0
 11
248.9021785134
 21
34.7087013566
 31
0.0
  0
LINE
  5
28C
330
1F
100
AcDbEntity
  8
0
  6
Continuous
 62
     7
370
    15
100
AcDbLine
 10
250.6972917345
 20
33.5394520761
 30
0.0
 11
249.3413401961
 21
34.3222262373
 31
0.0
  0
LINE
  5
28D
330
1F
100
AcDbEntity
  8
0
  6
Continuous
 62
     7
370
    15
100
AcDbLine
 10
250.567622016
 20
33.4580237489
 30
0.0
 11
250.5683128292
 21
33.5787522537
 31
0.0
  0
ARC
  5
28E
330
1F
100
AcDbEntity
  8
0
  6
Continuous
 62
     7
370
    15
100
AcDbCircle
 10
257.5536454344
 20
33.2107060028
 30
0.0
 40
6.990399793315889
100
AcDbArc
 50
177.9724734874
 51
210.6168846476
  0
LWPOLYLINE
  5
28F
330
1F
100
AcDbEntity
  8
0
  6
Continuous
 62
     7
370
    15
100
AcDbPolyline
 90
        3
 70
   128
 43
0.0
 10
237.2951460976
 20
57.2958684918
 10
237.2962315436
 20
57.2955160105
 10
237.3606136535
 20
57.2734653859
  0
SPLINE
  5
290
330
1F
100
AcDbEntity
  8
0
  6
Continuous
 62
     7
370
    15
100
AcDbSpline
210
0.0
220
0.0
230
1.0
 70
     8
 71
     3
 72
     8
 73
     4
 74
     0
 42
0.000000001
 43
0.00000001
 40
0.0
 40
0.0
 40
0.0
 40
0.0
 40
1.0
 40
1.0
 40
1.0
 40
1.0
 10
256.4198467228551
 20
25.77357712758974
 30
0.0
 10
256.4837417527091
 20
25.81046294318783
 30
0.0
 10
256.5638702926267
 20
25.83824618402891
 30
0.0
 10
256.6512158389618
 20
25.85370188354402
 30
0.0
  0
SPLINE
  5
291
330
1F
100
AcDbEntity
  8
0
  6
Continuous
 62
     7
370
    15
100
AcDbSpline
210
0.0
220
0.0
230
1.0
 70
     8
 71
     3
 72
    14
 73
    10
 74
     0
 42
0.000000001
 43
0.00000001
 40
0.0
 40
0.0
 40
0.0
 40
0.0
 40
0.25
 40
0.25
 40
0.5
 40
0.5
 40
0.75
 40
0.75
 40
1.0
 40
1.0
 40
1.0
 40
1.0
 10
256.6512158389618
 20
25.85370188354402
 30
0.0
 10
256.6939068868654
 20
25.86125601808287
 30
0.0
 10
256.7373884029134
 20
25.86581820940759
 30
0.0
 10
256.8259966996315
 20
25.86910376241609
 30
0.0
 10
256.8707610946948
 20
25.86770436562806
 30
0.0
 10
256.9561487618442
 20
25.85916170519699
 30
0.0
 10
256.9980742569708
 20
25.85184789430395
 30
0.0
 10
257.0738255244267
 20
25.83236747553597
 30
0.0
 10
257.1084503143892
 20
25.82009380646224
 30
0.0
 10
257.1385505633706
 20
25.80572896953103
 30
0.0
  0
LINE
  5
292
330
1F
100
AcDbEntity
  8
0
  6
Continuous
 62
     7
370
    15
100
AcDbLine
 10
254.5916081826
 20
24.718157267
 30
0.0
 11
254.5437128991
 21
24.5959086061
 31
0.0
  0
LINE
  5
293
330
1F
100
AcDbEntity
  8
0
  6
Continuous
 62
     7
370
    15
100
AcDbLine
 10
254.5916081826
 20
24.718157267
 30
0.0
 11
256.4198469333
 21
25.7735770325
 31
0.0
  0
LINE
  5
294
330
1F
100
AcDbEntity
  8
0
  6
Continuous
 62
     7
370
    15
100
AcDbLine
 10
252.8644253916
 20
25.7152386688
 30
0.0
 11
254.5916081826
 21
24.718157267
 31
0.0
  0
SPLINE
  5
295
330
1F
100
AcDbEntity
  8
0
  6
Continuous
 62
     7
370
    15
100
AcDbSpline
210
0.0
220
0.0
230
1.0
 70
     8
 71
     3
 72
    14
 73
    10
 74
     0
 42
0.000000001
 43
0.00000001
 40
0.0
 40
0.0
 40
0.0
 40
0.0
 40
0.25
 40
0.25
 40
0.5
 40
0.5
 40
0.75
 40
0.75
 40
1.0
 40
1.0
 40
1.0
 40
1.0
 10
254.5437130042737
 20
24.5959087971265
 30
0.0
 10
254.5268048067357
 20
24.55275194757736
 30
0.0
 10
254.5062816158546
 20
24.51273597508835
 30
0.0
 10
254.4574981802923
 20
24.43942634810344
 30
0.0
 10
254.4290412019165
 20
24.40613918949736
 30
0.0
 10
254.3656785794083
 20
24.35321634316703
 30
0.0
 10
254.3303595186673
 20
24.33315267674177
 30
0.0
 10
254.2555414416162
 20
24.31639368625974
 30
0.0
 10
254.2171719675516
 20
24.32059058187092
 30
0.0
 10
254.1833798787646
 20
24.34009833949336
 30
0.0
  0
LINE
  5
296
330
1F
100
AcDbEntity
  8
0
  6
Continuous
 62
     7
370
    15
100
AcDbLine
 10
254.1833797349
 20
24.3400984801
 30
0.0
 11
252.8299199643
 21
25.1214341744
 31
0.0
  0
SPLINE
  5
297
330
1F
100
AcDbEntity
  8
0
  6
Continuous
 62
     7
370
    15
100
AcDbSpline
210
0.0
220
0.0
230
1.0
 70
     8
 71
     3
 72
     8
 73
     4
 74
     0
 42
0.000000001
 43
0.00000001
 40
0.0
 40
0.0
 40
0.0
 40
0.0
 40
0.0011901715795577
 40
0.0011901715795577
 40
0.0011901715795577
 40
0.0011901715795577
 10
252.8299197438188
 20
25.1214342441952
 30
0.0
 10
252.8407805674613
 20
25.31938943255337
 30
0.0
 10
252.8522640144174
 20
25.51732834505496
 30
0.0
 10
252.864425481236
 20
25.71523883126359
 30
0.0
  0
ARC
  5
298
330
1F
100
AcDbEntity
  8
0
  6
Continuous
 62
     7
370
    15
100
AcDbCircle
 10
259.8093293052
 20
25.3271946853
 30
0.0
 40
5.589011170025709
100
AcDbArc
 50
210.2458260763
 51
269.5181612873
  0
SPLINE
  5
299
330
1F
100
AcDbEntity
  8
0
  6
Continuous
 62
     7
370
    15
100
AcDbSpline
210
0.0
220
0.0
230
1.0
 70
     8
 71
     3
 72
     8
 73
     4
 74
     0
 42
0.000000001
 43
0.00000001
 40
0.0
 40
0.0
 40
0.0
 40
0.0
 40
1.0
 40
1.0
 40
1.0
 40
1.0
 10
253.1903424105934
 20
26.37477646969835
 30
0.0
 10
253.0812688302063
 20
26.15500426963913
 30
0.0
 10
252.9726572647384
 20
25.93515118796947
 30
0.0
 10
252.864425481236
 20
25.71523883126359
 30
0.0
  0
LINE
  5
29A
330
1F
100
AcDbEntity
  8
0
  6
Continuous
 62
     7
370
    15
100
AcDbLine
 10
253.2485893059
 20
26.4084016157
 30
0.0
 11
253.1903423613
 21
26.3747763703
 31
0.0
  0
SPLINE
  5
29B
330
1F
100
AcDbEntity
  8
0
  6
Continuous
 62
     7
370
    15
100
AcDbSpline
210
0.0
220
0.0
230
1.0
 70
     8
 71
     3
 72
    12
 73
     8
 74
     0
 42
0.000000001
 43
0.00000001
 40
0.0
 40
0.0
 40
0.0
 40
0.0
 40
0.2499999999999986
 40
0.2499999999999986
 40
0.4999999999999971
 40
0.4999999999999971
 40
1.0
 40
1.0
 40
1.0
 40
1.0
 10
253.2606884348815
 20
26.74194960984307
 30
0.0
 10
253.2987260424341
 20
26.71999096640583
 30
0.0
 10
253.3281994463458
 20
26.69373402980117
 30
0.0
 10
253.3669931563887
 20
26.63586602050185
 30
0.0
 10
253.3758153593353
 20
26.60508388569272
 30
0.0
 10
253.3707060866485
 20
26.51210390230597
 30
0.0
 10
253.3240823448791
 20
26.45198289037666
 30
0.0
 10
253.2485892610259
 20
26.40840166072073
 30
0.0
  0
LINE
  5
29C
330
1F
100
AcDbEntity
  8
0
  6
Continuous
 62
     7
370
    15
100
AcDbLine
 10
252.4757998382
 20
27.1950558835
 30
0.0
 11
253.2606884149
 21
26.7419493528
 31
0.0
  0
SPLINE
  5
29D
330
1F
100
AcDbEntity
  8
0
  6
Continuous
 62
     7
370
    15
100
AcDbSpline
210
0.0
220
0.0
230
1.0
 70
     8
 71
     3
 72
    12
 73
     8
 74
     0
 42
0.000000001
 43
0.00000001
 40
0.0
 40
0.0
 40
0.0
 40
0.0
 40
0.4999999999999984
 40
0.4999999999999984
 40
0.7499999999999992
 40
0.7499999999999992
 40
1.0
 40
1.0
 40
1.0
 40
1.0
 10
251.8980153089595
 20
27.18807140751142
 30
0.0
 10
251.9739461167109
 20
27.23190532979497
 30
0.0
 10
252.077836076135
 20
27.25856267230417
 30
0.0
 10
252.2385381559674
 20
27.2615185350779
 30
0.0
 10
252.2923229563902
 20
27.25636526344195
 30
0.0
 10
252.3920918418328
 20
27.23406676083859
 30
0.0
 10
252.4376440676602
 20
27.21708300954118
 30
0.0
 10
252.4757999077645
 20
27.19505611190468
 30
0.0
  0
LINE
  5
29E
330
1F
100
AcDbEntity
  8
0
  6
Continuous
 62
     7
370
    15
100
AcDbLine
 10
251.8397683327
 20
27.1544461612
 30
0.0
 11
251.8980152774
 21
27.1880714067
 31
0.0
  0
SPLINE
  5
29F
330
1F
100
AcDbEntity
  8
0
  6
Continuous
 62
     7
370
    15
100
AcDbSpline
210
0.0
220
0.0
230
1.0
 70
     8
 71
     3
 72
     8
 73
     4
 74
     0
 42
0.000000001
 43
0.00000001
 40
0.0
 40
0.0
 40
0.0
 40
0.0
 40
1.0
 40
1.0
 40
1.0
 40
1.0
 10
250.6972919695471
 20
26.96629837801037
 30
0.0
 10
251.0782326202868
 20
27.0287792566834
 30
0.0
 10
251.4590705925266
 20
27.09147937881844
 30
0.0
 10
251.8397684585271
 20
27.15444621648904
 30
0.0
  0
LINE
  5
2A0
330
1F
100
AcDbEntity
  8
0
  6
Continuous
 62
     7
370
    15
100
AcDbLine
 10
249.3413401961
 20
27.7490724608
 30
0.0
 11
250.6972917345
 21
26.9662982995
 31
0.0
  0
LINE
  5
2A1
330
1F
100
AcDbEntity
  8
0
  6
Continuous
 62
     7
370
    15
100
AcDbLine
 10
249.3413401961
 20
27.7490724608
 30
0.0
 11
251.3542782908
 21
28.911116888
 31
0.0
  0
ARC
  5
2A2
330
1F
100
AcDbEntity
  8
0
  6
Continuous
 62
     7
370
    15
100
AcDbCircle
 10
259.0412613248
 20
26.7061584021
 30
0.0
 40
6.41031297014293
100
AcDbArc
 50
194.3127592883
 51
238.1451036195
  0
ELLIPSE
  5
2A3
330
1F
100
AcDbEntity
  8
0
  6
Continuous
 62
     7
370
    15
100
AcDbEllipse
 10
251.1199637224
 20
29.6996165256
 30
0.0
 11
-6.005970382716441E-5
 21
0.853448961482723
 31
0.0
210
0.0
220
0.0
230
1.0
 40
0.7174342186
 41
3.534193645557488
 42
5.104989972352385
  0
ARC
  5
2A4
330
1F
100
AcDbEntity
  8
0
  6
Continuous
 62
     7
370
    15
100
AcDbCircle
 10
258.4831983628
 20
29.0108349951
 30
0.0
 40
6.897923025542447
100
AcDbArc
 50
195.6120791138
 51
215.4531392794
  0
ARC
  5
2A5
330
1F
100
AcDbEntity
  8
0
  6
Continuous
 62
     7
370
    15
100
AcDbCircle
 10
256.1895543002
 20
27.9163651763
 30
0.0
 40
6.005345534937738
100
AcDbArc
 50
193.0626175373
 51
253.7708490886
  0
SPLINE
  5
2A6
330
1F
100
AcDbEntity
  8
0
  6
Continuous
 62
     7
370
    15
100
AcDbSpline
210
0.0
220
0.0
230
1.0
 70
     8
 71
     3
 72
     8
 73
     4
 74
     0
 42
0.000000001
 43
0.00000001
 40
0.0
 40
0.0
 40
0.0
 40
0.0
 40
0.0011901715795577
 40
0.0011901715795577
 40
0.0011901715795577
 40
0.0011901715795577
 10
250.6972919695471
 20
26.96629837801037
 30
0.0
 10
250.5784948536322
 20
26.82994734169532
 30
0.0
 10
250.4592516794841
 20
26.6942167955594
 30
0.0
 10
250.3396051719892
 20
26.55906224573998
 30
0.0
  0
LINE
  5
2A7
330
1F
100
AcDbEntity
  8
0
  6
Continuous
 62
     7
370
    15
100
AcDbLine
 10
248.9021785134
 20
27.4954979039
 30
0.0
 11
249.3413401961
 21
27.7490724608
 31
0.0
  0
LINE
  5
2A8
330
1F
100
AcDbEntity
  8
0
  6
Continuous
 62
     7
370
    15
100
AcDbLine
 10
250.3396052606
 20
26.5590622521
 30
0.0
 11
249.0038228003
 21
27.3301930525
 31
0.0
  0
SPLINE
  5
2A9
330
1F
100
AcDbEntity
  8
0
  6
Continuous
 62
     7
370
    15
100
AcDbSpline
210
0.0
220
0.0
230
1.0
 70
     8
 71
     3
 72
    10
 73
     6
 74
     0
 42
0.000000001
 43
0.00000001
 40
0.0
 40
0.0
 40
0.0
 40
0.0
 40
0.5
 40
0.5
 40
1.0
 40
1.0
 40
1.0
 40
1.0
 10
249.0038227065731
 20
27.33019304904403
 30
0.0
 10
248.9775184541963
 20
27.34537817071681
 30
0.0
 10
248.9553203400777
 20
27.36900782165069
 30
0.0
 10
248.9213084536459
 20
27.42645021446059
 30
0.0
 10
248.9094375732398
 20
27.46008849261121
 30
0.0
 10
248.9021785959758
 20
27.49549791585434
 30
0.0
  0
ARC
  5
2AA
330
1F
100
AcDbEntity
  8
0
  6
Continuous
 62
     7
370
    15
100
AcDbCircle
 10
254.7320542135
 20
28.397688802
 30
0.0
 40
5.717665173879947
100
AcDbArc
 50
210.6020872124
 51
239.5217972964
  0
ELLIPSE
  5
2AB
330
1F
100
AcDbEntity
  8
0
  6
Continuous
 62
     7
370
    15
100
AcDbEllipse
 10
251.0007249068
 20
29.6307590455
 30
0.0
 11
0.2600075789209199
 21
0.9705436209909308
 31
0.0
210
0.0
220
0.0
230
1.0
 40
0.5176380889
 41
3.619174351347694
 42
5.189970678142627
  0
SPLINE
  5
2AC
330
1F
100
AcDbEntity
  8
0
  6
Continuous
 62
     7
370
    15
100
AcDbSpline
210
0.0
220
0.0
230
1.0
 70
     8
 71
     3
 72
    12
 73
     8
 74
     0
 42
0.000000001
 43
0.00000001
 40
0.0
 40
0.0
 40
0.0
 40
0.0
 40
0.5000000000000003
 40
0.5000000000000003
 40
0.7500000000000001
 40
0.7500000000000001
 40
1.0
 40
1.0
 40
1.0
 40
1.0
 10
268.4561551436896
 20
49.97036308089608
 30
0.0
 10
268.5185984695142
 20
50.00641084559639
 30
0.0
 10
268.5979350747363
 20
50.03206984565419
 30
0.0
 10
268.7288084380775
 20
50.04385360566066
 30
0.0
 10
268.7735807504484
 20
50.04304333345713
 30
0.0
 10
268.8588426664518
 20
50.02949485306979
 30
0.0
 10
268.8982588735701
 20
50.01673024206038
 30
0.0
 10
268.9294985338199
 20
49.99869597006842
 30
0.0
  0
LINE
  5
2AD
330
1F
100
AcDbEntity
  8
0
  6
Continuous
 62
     7
370
    15
100
AcDbLine
 10
268.9294988087
 20
49.9986959237
 30
0.0
 11
270.0811621028
 21
49.3338548556
 31
0.0
  0
SPLINE
  5
2AE
330
1F
100
AcDbEntity
  8
0
  6
Continuous
 62
     7
370
    15
100
AcDbSpline
210
0.0
220
0.0
230
1.0
 70
     8
 71
     3
 72
     9
 73
     5
 74
     0
 42
0.000000001
 43
0.00000001
 40
0.0
 40
0.0
 40
0.0
 40
0.0
 40
0.8664443272572582
 40
1.0
 40
1.0
 40
1.0
 40
1.0
 10
271.6482428458151
 20
47.55354071285759
 30
0.0
 10
271.967419543941
 20
47.6228307040935
 30
0.0
 10
272.335794854489
 20
47.70280121005233
 30
0.0
 10
272.7061349518531
 20
47.77967069054343
 30
0.0
 10
272.7555959727002
 20
47.78993704572381
 30
0.0
  0
LINE
  5
2AF
330
1F
100
AcDbEntity
  8
0
  6
Continuous
 62
     7
370
    15
100
AcDbLine
 10
272.7555959727
 20
47.7899370457
 30
0.0
 11
274.1090557433
 21
47.0086013514
 31
0.0
  0
SPLINE
  5
2B0
330
1F
100
AcDbEntity
  8
0
  6
Continuous
 62
     7
370
    15
100
AcDbSpline
210
0.0
220
0.0
230
1.0
 70
     8
 71
     3
 72
    14
 73
    10
 74
     0
 42
0.000000001
 43
0.00000001
 40
0.0
 40
0.0
 40
0.0
 40
0.0
 40
0.25
 40
0.25
 40
0.5
 40
0.5
 40
0.75
 40
0.75
 40
1.0
 40
1.0
 40
1.0
 40
1.0
 10
274.1090557060114
 20
47.00860126051774
 30
0.0
 10
274.1403177941694
 20
46.99055404116995
 30
0.0
 10
274.1625851662656
 20
46.96746472572963
 30
0.0
 10
274.1857385642539
 20
46.91885337246093
 30
0.0
 10
274.1872587342499
 20
46.89285359089583
 30
0.0
 10
274.1738135634789
 20
46.84272066150839
 30
0.0
 10
274.1591140578309
 20
46.818530346397
 30
0.0
 10
274.1174690628552
 20
46.77357990362442
 30
0.0
 10
274.0911567793376
 20
46.75334599654265
 30
0.0
 10
274.059976384593
 20
46.73534593779859
 30
0.0
  0
LINE
  5
2B1
330
1F
100
AcDbEntity
  8
0
  6
Continuous
 62
     7
370
    15
100
AcDbLine
 10
274.0599763968
 20
46.7353456698
 30
0.0
 11
271.6728105072
 21
45.3572641351
 31
0.0
  0
LINE
  5
2B2
330
1F
100
AcDbEntity
  8
0
  6
Continuous
 62
     7
370
    15
100
AcDbLine
 10
268.456155044
 20
49.9703628775
 30
0.0
 11
267.948234153
 21
49.6771463884
 31
0.0
  0
LINE
  5
2B3
330
1F
100
AcDbEntity
  8
0
  6
Continuous
 62
     7
370
    15
100
AcDbLine
 10
275.6655065901
 20
43.45701364
 30
0.0
 11
275.7708704187
 21
43.6395087635
 31
0.0
  0
LINE
  5
2B4
330
1F
100
AcDbEntity
  8
0
  6
Continuous
 62
     7
370
    15
100
AcDbLine
 10
275.6655065901
 20
43.45701364
 30
0.0
 11
275.0017128239
 21
43.0738136554
 31
0.0
  0
SPLINE
  5
2B5
330
1F
100
AcDbEntity
  8
0
  6
Continuous
 62
     7
370
    15
100
AcDbSpline
210
0.0
220
0.0
230
1.0
 70
     8
 71
     3
 72
    10
 73
     6
 74
     0
 42
0.000000001
 43
0.00000001
 40
0.0
 40
0.0
 40
0.0
 40
0.0
 40
0.4053031434998045
 40
0.8117240059427754
 40
1.0
 40
1.0
 40
1.0
 40
1.0
 10
275.7708704186782
 20
43.63950876354198
 30
0.0
 10
275.7891895990988
 20
43.67843503417249
 30
0.0
 10
275.8258784793978
 20
43.75639492379923
 30
0.0
 10
275.8398960828202
 20
43.86392834331116
 30
0.0
 10
275.8218130085681
 20
43.91706702710219
 30
0.0
 10
275.8160880602297
 20
43.93389028487511
 30
0.0
  0
ARC
  5
2B6
330
1F
100
AcDbEntity
  8
0
  6
Continuous
 62
     7
370
    15
100
AcDbCircle
 10
259.7984584841
 20
43.5226763342
 30
0.0
 40
1.078461385738806
100
AcDbArc
 50
120.8943853408
 51
154.0654745508
  0
LWPOLYLINE
  5
2B7
330
1F
100
AcDbEntity
  8
0
  6
Continuous
 62
     7
370
    15
100
AcDbPolyline
 90
        3
 70
   128
 43
0.0
 10
258.8737204181
 20
44.0446723282
 10
258.9848119375
 20
44.2151564686
 10
259.2317322129
 20
44.4343123984
  0
ARC
  5
2B8
330
1F
100
AcDbEntity
  8
0
  6
Continuous
 62
     7
370
     0
100
AcDbCircle
 10
261.9011753333
 20
27.3103778424
 30
0.0
 40
4.994653177439798
100
AcDbArc
 50
197.5328107422
 51
235.3701892723
  0
LWPOLYLINE
  5
2B9
330
1F
100
AcDbEntity
  8
0
  6
Continuous
 62
     7
370
     0
100
AcDbPolyline
 90
       22
 70
   128
 43
0.0
 10
257.1385507992
 20
32.327968341
 10
257.4609531169
 20
33.4598509805
 10
257.8632144929
 20
34.5961177999
 10
258.3413454646
 20
35.7255010144
 10
258.8906045114
 20
36.8368013519
 10
259.5055448119
 20
37.9189975544
 10
260.1800685731
 20
38.9613594925
 10
260.9074872877
 20
39.953549871
 10
261.6805866007
 20
40.8857293574
 10
262.4917010539
 20
41.7486544839
 10
263.3327868555
 20
42.5337690869
 10
264.1955033747
 20
43.2332855731
 10
265.0712955832
 20
43.8402690149
 10
265.9514788018
 20
44.3486997611
 10
266.8273247228
 20
44.7535352648
 10
267.6901480085
 20
45.0507615959
 10
268.5313925193
 20
45.2374310524
 10
269.3427160604
 20
45.3116928326
 10
270.1160735228
 20
45.2728113732
 10
270.8437951679
 20
45.1211704771
 10
271.5186656528
 20
44.8582748267
 10
271.7635836237
 20
44.7275564115
  0
LWPOLYLINE
  5
2BA
330
1F
100
AcDbEntity
  8
0
  6
Continuous
 62
     7
370
     0
100
AcDbPolyline
 90
       23
 70
   128
 43
0.0
 10
254.1833797349
 20
31.6878848529
 10
254.4978617377
 20
32.9278052975
 10
254.8902146531
 20
34.1774177591
 10
255.3575138847
 20
35.4274110243
 10
255.8962783663
 20
36.6684708901
 10
256.502492952
 20
37.891349744
 10
257.1716406851
 20
39.0869357632
 10
257.8987357251
 20
40.2463202125
 10
258.6783595678
 20
41.3608632211
 10
259.5047041799
 20
42.4222620297
 10
260.3716115116
 20
43.4226057404
 10
261.2726215707
 20
44.3544410924
 10
262.2010214837
 20
45.2108258793
 10
263.1498927467
 20
45.9853767594
 10
264.1121654727
 20
46.6723249069
 10
265.0806692337
 20
47.2665484035
 10
266.0481874622
 20
47.7636226563
 10
267.0075108143
 20
48.1598413167
 10
267.9514913965
 20
48.4522544299
 10
268.8730948009
 20
48.6386809828
 10
269.7654538901
 20
48.7177331097
 10
270.6219196694
 20
48.6888211251
 10
271.4361105133
 20
48.5521614093
  0
LWPOLYLINE
  5
2BB
330
1F
100
AcDbEntity
  8
0
  6
Continuous
 62
     7
370
     0
100
AcDbPolyline
 90
       23
 70
   128
 43
0.0
 10
254.5437128991
 20
31.3582609872
 10
254.8413625044
 20
32.5921160383
 10
255.2185116026
 20
33.8376344536
 10
255.6722546955
 20
35.0852206049
 10
256.1990962288
 20
36.3252637098
 10
256.7949769342
 20
37.5482089332
 10
257.4553060978
 20
38.7446364716
 10
258.1749971218
 20
39.9053277107
 10
258.9485050617
 20
41.0213408877
 10
259.7698710773
 20
42.0840778176
 10
260.6327668852
 20
43.085352141
 10
261.5305451371
 20
44.0174495856
 10
262.4562888108
 20
44.8731884184
 10
263.4028663633
 20
45.645977141
 10
264.3629849079
 20
46.3298611579
 10
265.3292479711
 20
46.9195728483
 10
266.2942112939
 20
47.4105675825
 10
267.2504406393
 20
47.7990639376
 10
268.1905693946
 20
48.0820685851
 10
269.1073545582
 20
48.2574010069
 10
269.9937330754
 20
48.3237108084
 10
270.8428764983
 20
48.2804872191
 10
271.6482428458
 20
48.1280624146
  0
LWPOLYLINE
  5
2BC
330
1F
100
AcDbEntity
  8
0
  6
Continuous
 62
     7
370
     0
100
AcDbPolyline
 90
       22
 70
   128
 43
0.0
 10
256.4198469333
 20
32.3467308091
 10
256.7370157978
 20
33.4930722405
 10
257.1335748369
 20
34.6451906834
 10
257.6057868105
 20
35.7922282191
 10
258.1492012749
 20
36.9233737644
 10
258.7586960709
 20
38.0279657298
 10
259.4285280317
 20
39.095595058
 10
260.1523827035
 20
40.1161981855
 10
260.9234385528
 20
41.0801564672
 10
261.7344285411
 20
41.9783849544
 10
262.5777092716
 20
42.802417941
 10
263.4453326059
 20
43.54448909
 10
264.3291214791
 20
44.1976040982
 10
265.2207463581
 20
44.7556076487
 10
266.1118037671
 20
45.2132409101
 10
266.9938957359
 20
45.5661912032
 10
267.8587084022
 20
45.8111305333
 10
268.6980912077
 20
45.9457514226
 10
269.5041335511
 20
45.9687853058
 10
270.2692378045
 20
45.8800142628
 10
270.986193564
 20
45.6802758595
 10
271.6482428458
 20
45.3714513547
  0
ARC
  5
2BD
330
1F
100
AcDbEntity
  8
0
  6
Continuous
 62
     7
370
     0
100
AcDbCircle
 10
269.2847507801
 20
41.3361426858
 30
0.0
 40
4.676777413009469
100
AcDbArc
 50
33.2576477117
 51
59.294811611
  0
LWPOLYLINE
  5
2BE
330
1F
100
AcDbEntity
  8
0
  6
Continuous
 62
     7
370
     0
100
AcDbPolyline
 90
       23
 70
   128
 43
0.0
 10
249.0038228003
 20
34.6779794253
 10
249.3183048032
 20
35.9178998698
 10
249.7106577185
 20
37.1675123315
 10
250.1779569501
 20
38.4175055967
 10
250.7167214317
 20
39.6585654625
 10
251.3229360174
 20
40.8814443164
 10
251.9920837505
 20
42.0770303356
 10
252.7191787905
 20
43.2364147849
 10
253.4988026332
 20
44.3509577935
 10
254.3251472453
 20
45.4123566021
 10
255.192054577
 20
46.4127003128
 10
256.0930646361
 20
47.3445356648
 10
257.0214645492
 20
48.2009204517
 10
257.9703358121
 20
48.9754713318
 10
258.9326085381
 20
49.6624194793
 10
259.9011122991
 20
50.2566429759
 10
260.8686305276
 20
50.7537172286
 10
261.8279538797
 20
51.1499358891
 10
262.7719344619
 20
51.4423490023
 10
263.6935378663
 20
51.6287755552
 10
264.5858969555
 20
51.7078276821
 10
265.4423627348
 20
51.6789156975
 10
266.2565535787
 20
51.5422559817
  0
LINE
  5
2BF
330
1F
100
AcDbEntity
  8
0
  6
Continuous
 62
     7
370
     0
100
AcDbLine
 10
272.7619357807
 20
17.4502573925
 30
0.0
 11
274.1761495749
 21
16.6338491469
 31
0.0
  0
LWPOLYLINE
  5
2C0
330
1F
100
AcDbEntity
  8
0
  6
Continuous
 62
     7
370
     0
100
AcDbPolyline
 90
       18
 70
   128
 43
0.0
 10
252.4757998382
 20
33.7682096601
 10
252.788320037
 20
34.9718025962
 10
253.1834315952
 20
36.1842532588
 10
253.657576397
 20
37.3946413546
 10
254.206482464
 20
38.5920633871
 10
254.8252061027
 20
39.7657334147
 10
255.5081740508
 20
40.9050788645
 10
256.2492341857
 20
41.9998378669
 10
257.0417118293
 20
43.0401487953
 10
257.8784673715
 20
44.016640565
 10
258.7519644289
 20
44.9205176088
 10
259.6543347117
 20
45.7436376286
 10
260.5774496404
 20
46.4785863984
 10
261.5129942674
 20
47.1187440135
 10
262.4525415279
 20
47.6583429636
 10
263.3876281373
 20
48.092524875
 10
264.3098313111
 20
48.4173764355
 10
264.5858215521
 20
48.4938505388
  0
LWPOLYLINE
  5
2C1
330
1F
100
AcDbEntity
  8
0
  6
Continuous
 62
     7
370
     0
100
AcDbPolyline
 90
       21
 70
   128
 43
0.0
 10
251.8980152774
 20
33.7612251832
 10
252.2090853612
 20
34.9881876603
 10
252.6040955036
 20
36.2251742874
 10
253.0795422478
 20
37.4612145755
 10
253.631209592
 20
38.6853479882
 10
254.2542045503
 20
39.8867174758
 10
254.9430032516
 20
41.0546709924
 10
255.6914976953
 20
42.1788504658
 10
256.4930490945
 20
43.2492857099
 10
257.3405497782
 20
44.2564849134
 10
258.2264844364
 20
45.1915163845
 10
259.1429959747
 20
46.0460883929
 10
260.0819571306
 20
46.8126216921
 10
261.0350411028
 20
47.4843191907
 10
261.99379574
 20
48.0552239897
 10
262.9497188416
 20
48.5202727388
 10
263.8943333551
 20
48.8753428491
 10
264.8192624093
 20
49.117284402
 10
265.7163034207
 20
49.2439522834
 10
266.5775015008
 20
49.2542234657
 10
266.658933822
 20
49.249008555
  0
ARC
  5
2C2
330
1F
100
AcDbEntity
  8
0
  6
Continuous
 62
     7
370
     0
100
AcDbCircle
 10
257.9182341809
 20
26.2128385248
 30
0.0
 40
0.7913797700720842
100
AcDbArc
 50
306.4031961401
 51
30.6408161238
  0
LWPOLYLINE
  5
2C3
330
1F
100
AcDbEntity
  8
0
  6
Continuous
 62
     7
370
     0
100
AcDbPolyline
 90
        3
 70
   128
 43
0.0
 10
258.5991208584
 20
26.6161687528
 10
258.921654885
 20
26.7958264357
 10
259.1570904735
 20
27.0538923128
  0
LINE
  5
2C4
330
1F
100
AcDbEntity
  8
0
  6
Continuous
 62
     7
370
     0
100
AcDbLine
 10
257.7346047018
 20
31.7370863772
 30
0.0
 11
257.4496913473
 21
31.9799680304
 31
0.0
  0
LINE
  5
2C5
330
1F
100
AcDbEntity
  8
0
  6
Continuous
 62
     7
370
     0
100
AcDbLine
 10
257.1702313999
 20
32.1266858605
 30
0.0
 11
256.651696747
 21
32.4260295439
 31
0.0
  0
ARC
  5
2C6
330
1F
100
AcDbEntity
  8
0
  6
Continuous
 62
     7
370
     0
100
AcDbCircle
 10
255.630846962
 20
29.46031568
 30
0.0
 40
3.078836531348099
100
AcDbArc
 50
59.1938981408
 51
60.0007269052
  0
SPLINE
  5
2C7
330
1F
100
AcDbEntity
  8
0
  6
Continuous
 62
     7
370
     0
100
AcDbSpline
210
0.0
220
0.0
230
1.0
 70
     8
 71
     3
 72
    12
 73
     8
 74
     0
 42
0.000000001
 43
0.00000001
 40
0.0
 40
0.0
 40
0.0
 40
0.0
 40
0.25
 40
0.25
 40
0.5
 40
0.5
 40
1.0
 40
1.0
 40
1.0
 40
1.0
 10
257.4496915833711
 20
31.97996815524899
 30
0.0
 10
257.4296234512106
 20
31.9947869065495
 30
0.0
 10
257.409324249778
 20
32.00542391685046
 30
0.0
 10
257.3690309677467
 20
32.02449851435626
 30
0.0
 10
257.3489353748025
 20
32.03316911580047
 30
0.0
 10
257.2885676870968
 20
32.06055459597484
 30
0.0
 10
257.2482207033951
 20
32.08054094375652
 30
0.0
 10
257.2076253004408
 20
32.10474496894727
 30
0.0
  0
SPLINE
  5
2C8
330
1F
100
AcDbEntity
  8
0
  6
Continuous
 62
     7
370
     0
100
AcDbSpline
210
0.0
220
0.0
230
1.0
 70
     8
 71
     3
 72
    12
 73
     8
 74
     0
 42
0.000000001
 43
0.00000001
 40
0.0
 40
0.0
 40
0.0
 40
0.0
 40
0.5000000000000013
 40
0.5000000000000013
 40
0.7500000000000007
 40
0.7500000000000007
 40
1.0
 40
1.0
 40
1.0
 40
1.0
 10
257.4496915833711
 20
26.68405788148376
 30
0.0
 10
257.6618715181647
 20
26.59575848580387
 30
0.0
 10
257.8639967127086
 20
26.55023304566152
 30
0.0
 10
258.1540165188503
 20
26.53575355962436
 30
0.0
 10
258.2484595138058
 20
26.54013094726072
 30
0.0
 10
258.4290654370889
 20
26.56574168887626
 30
0.0
 10
258.5158107535871
 20
26.58691555129518
 30
0.0
 10
258.5991213604842
 20
26.6161687294786
 30
0.0
  0
SPLINE
  5
2C9
330
1F
100
AcDbEntity
  8
0
  6
Continuous
 62
     7
370
     0
100
AcDbSpline
210
0.0
220
0.0
230
1.0
 70
     8
 71
     3
 72
    12
 73
     8
 74
     0
 42
0.000000001
 43
0.00000001
 40
0.0
 40
0.0
 40
0.0
 40
0.0
 40
0.4999999999999998
 40
0.4999999999999998
 40
0.7499999999999999
 40
0.7499999999999999
 40
1.0
 40
1.0
 40
1.0
 40
1.0
 10
257.2076253004386
 20
26.83876484907844
 30
0.0
 10
257.2480412696407
 20
26.81619860645836
 30
0.0
 10
257.2884038774988
 20
26.78961185922919
 30
0.0
 10
257.3487343236264
 20
26.74733051758483
 30
0.0
 10
257.3688202193587
 20
26.73280740386456
 30
0.0
 10
257.4090826855074
 20
26.70536632575781
 30
0.0
 10
257.4292654651837
 20
26.6925582794763
 30
0.0
 10
257.449691583371
 20
26.68405788148284
 30
0.0
  0
ARC
  5
2CA
330
1F
100
AcDbEntity
  8
0
  6
Continuous
 62
     7
370
     0
100
AcDbCircle
 10
258.6721735656
 20
29.461575591
 30
0.0
 40
3.00400384805289
100
AcDbArc
 50
240.0013160934
 51
240.821489213
  0
LINE
  5
2CB
330
1F
100
AcDbEntity
  8
0
  6
Continuous
 62
     7
370
     0
100
AcDbLine
 10
251.6856489146
 20
30.0261795196
 30
0.0
 11
257.1702313999
 21
26.8599974449
 31
0.0
  0
LINE
  5
2CC
330
1F
100
AcDbEntity
  8
0
  6
Continuous
 62
     7
370
     0
100
AcDbLine
 10
251.5664100471
 20
29.9573221997
 30
0.0
 11
251.6856489146
 21
30.0261795196
 31
0.0
  0
ARC
  5
2CD
330
1F
100
AcDbEntity
  8
0
  6
Continuous
 62
     7
370
     0
100
AcDbCircle
 10
256.7267127593
 20
32.1331107896
 30
0.0
 40
0.4817479495848442
100
AcDbArc
 50
356.624402039
 51
29.3435807983
  0
LWPOLYLINE
  5
2CE
330
1F
100
AcDbEntity
  8
0
  6
Continuous
 62
     7
370
     0
100
AcDbPolyline
 90
        3
 70
   128
 43
0.0
 10
257.135529397
 20
32.3319260737
 10
257.1593621228
 20
32.2478504822
 10
257.1702313999
 20
32.1266858605
  0
LWPOLYLINE
  5
2CF
330
1F
100
AcDbEntity
  8
0
  6
Continuous
 62
     7
370
     0
100
AcDbPolyline
 90
        3
 70
   128
 43
0.0
 10
251.4875667937
 20
32.8061203763
 10
251.486860834
 20
32.9273584748
 10
251.5116300101
 20
33.6615510851
  0
LWPOLYLINE
  5
2D0
330
1F
100
AcDbEntity
  8
0
  6
Continuous
 62
     7
370
     0
100
AcDbPolyline
 90
       17
 70
   128
 43
0.0
 10
230.2149773587
 20
49.2193222552
 10
230.2576312865
 20
49.9483274483
 10
230.3847626452
 20
50.7123905141
 10
230.5938972832
 20
51.4966397871
 10
230.8809647367
 20
52.2858111631
 10
231.2403769265
 20
53.0645437207
 10
231.6651391219
 20
53.8176805701
 10
232.1469829675
 20
54.5305628537
 10
232.6765306248
 20
55.18931481
 10
233.2434745552
 20
55.781114861
 10
233.8367801869
 20
56.2944445502
 10
234.4448993554
 20
56.7193121402
 10
235.0559957007
 20
57.0474477513
 10
235.6581750138
 20
57.272465235
 10
236.2397164064
 20
57.389984599
 10
236.7893009389
 20
57.3977183637
 10
237.2951460976
 20
57.2958684918
  0
ARC
  5
2D1
330
1F
100
AcDbEntity
  8
0
  6
Continuous
 62
     7
370
     0
100
AcDbCircle
 10
233.5956593045
 20
48.9870378754
 30
0.0
 40
3.388652601187486
100
AcDbArc
 50
176.0694231871
 51
224.9117357469
  0
ARC
  5
2D2
330
1F
100
AcDbEntity
  8
0
  6
Continuous
 62
     7
370
     0
100
AcDbCircle
 10
256.3087828044
 20
26.5939412038
 30
0.0
 40
1.144462006329537
100
AcDbArc
 50
316.4712495032
 51
4.5162221875
  0
ARC
  5
2D3
330
1F
100
AcDbEntity
  8
0
  6
Continuous
 62
     7
370
     0
100
AcDbCircle
 10
261.0314527741
 20
27.0132519741
 30
0.0
 40
4.775322228996801
100
AcDbArc
 50
195.0463449294
 51
265.9784114085
  0
LWPOLYLINE
  5
2D4
330
1F
100
AcDbEntity
  8
0
  6
Continuous
 62
     7
370
     0
100
AcDbPolyline
 90
       14
 70
   128
 43
0.0
 10
262.7421145787
 20
20.3027168014
 10
262.6997321359
 20
20.2893671449
 10
261.7480525099
 20
20.0443487027
 10
260.8238093298
 20
19.9123865596
 10
259.934433118
 20
19.8945398185
 10
259.08707468
 20
19.9909532469
 10
258.2885466586
 20
20.2008516742
 10
257.5452692044
 20
20.5225474109
 10
256.8632179502
 20
20.953453562
 10
256.2478772547
 20
21.490106465
 10
255.7041934456
 20
22.1281911695
 10
255.2365386
 20
22.8625768024
 10
254.8486723484
 20
23.6873599177
 10
254.5437128991
 20
24.5959086061
  0
ARC
  5
2D5
330
1F
100
AcDbEntity
  8
0
  6
Continuous
 62
     7
370
     0
100
AcDbCircle
 10
261.6377355831
 20
26.5048531609
 30
0.0
 40
7.762318206596203
100
AcDbArc
 50
196.1933662163
 51
210.9570887825
  0
LINE
  5
2D6
330
1F
100
AcDbEntity
  8
0
  6
Continuous
 62
     7
370
     0
100
AcDbLine
 10
256.6045462773
 20
25.8802016942
 30
0.0
 11
251.3542782908
 21
28.911116888
 31
0.0
  0
LINE
  5
2D7
330
1F
100
AcDbEntity
  8
0
  6
Continuous
 62
     7
370
     0
100
AcDbLine
 10
256.4198469333
 20
25.7735770325
 30
0.0
 11
256.6045462773
 21
25.8802016942
 31
0.0
  0
ARC
  5
2D8
330
1F
100
AcDbEntity
  8
0
  6
Continuous
 62
     7
370
     0
100
AcDbCircle
 10
255.995839533
 20
26.8735625669
 30
0.0
 40
1.212284865380784
100
AcDbArc
 50
302.7253511183
 51
358.35514161
  0
ARC
  5
2D9
330
1F
100
AcDbEntity
  8
0
  6
Continuous
 62
     7
370
     0
100
AcDbCircle
 10
258.4817500731
 20
29.1318367913
 30
0.0
 40
3.754600497377091
100
AcDbArc
 50
240.0016995741
 51
240.8206971994
  0
ARC
  5
2DA
330
1F
100
AcDbEntity
  8
0
  6
Continuous
 62
     7
370
     0
100
AcDbCircle
 10
255.9420584496
 20
26.9158861139
 30
0.0
 40
1.22944391455481
100
AcDbArc
 50
302.6054968531
 51
357.3945222572
  0
LINE
  5
2DB
330
1F
100
AcDbEntity
  8
0
  6
Continuous
 62
     7
370
     0
100
AcDbLine
 10
282.6614310229
 20
23.1651143517
 30
0.0
 11
284.075644817
 21
22.348706106
 31
0.0
  0
LINE
  5
2DC
330
1F
100
AcDbEntity
  8
0
  6
Continuous
 62
     7
370
     0
100
AcDbLine
 10
253.3531039413
 20
26.4587431598
 30
0.0
 11
253.2606884149
 21
26.7419493528
 31
0.0
  0
LWPOLYLINE
  5
2DD
330
1F
100
AcDbEntity
  8
0
  6
Continuous
 62
     7
370
     0
100
AcDbPolyline
 90
        3
 70
   128
 43
0.0
 10
252.9765300817
 20
25.961423259
 10
252.7876094674
 20
26.353897633
 10
252.4757998382
 20
27.1950558835
  0
ARC
  5
2DE
330
1F
100
AcDbEntity
  8
0
  6
Continuous
 62
     7
370
     0
100
AcDbCircle
 10
258.5466537076
 20
29.0660482566
 30
0.0
 40
6.9087763044145
100
AcDbArc
 50
195.7728829514
 51
214.1079880037
  0
ARC
  5
2DF
330
1F
100
AcDbEntity
  8
0
  6
Continuous
 62
     7
370
     0
100
AcDbCircle
 10
256.4514263309
 20
29.4923050435
 30
0.0
 40
7.755096815086304
100
AcDbArc
 50
196.1885287697
 51
211.0961856907
  0
LINE
  5
2E0
330
1F
100
AcDbEntity
  8
0
  6
Continuous
 62
     7
370
     0
100
AcDbLine
 10
271.6728105072
 20
45.3572641351
 30
0.0
 11
271.6482428458
 21
45.3430815261
 31
0.0
  0
ARC
  5
2E1
330
1F
100
AcDbEntity
  8
0
  6
Continuous
 62
     7
370
     0
100
AcDbCircle
 10
268.9721126954
 20
41.9028954161
 30
0.0
 40
7.017045852610732
100
AcDbArc
 50
14.3287351339
 51
43.52515955
  0
OLE2FRAME
  5
2E2
330
1F
100
AcDbEntity
  8
0
100
AcDbOle2Frame
 70
     2
  3
Paintbrush-Bild
 10
13.8511154363
 20
38.264191557
 30
0.0
 11
51.6290888628
 21
31.9806341108
 31
0.0
 71
     2
 72
     0
 73
     1
 90
    12928
310
80552BED0767C5B32B40DDAF6807D121434000000000000000006FFBDDFB85D0
310
4940DDAF6807D121434000000000000000006FFBDDFB85D04940416F4BD60AFB
310
3F4000000000000000002BED0767C5B32B40416F4BD60AFB3F40000000000000
310
0000000000000100000000010000010000000100000000000100000000320000
310
D0CF11E0A1B11AE1000000000000000000000000000000003E000300FEFF0900
310
0600000000000000000000000100000001000000000000000010000002000000
310
01000000FEFFFFFF0000000000000000FFFFFFFFFFFFFFFFFFFFFFFFFFFFFFFF
310
FFFFFFFFFFFFFFFFFFFFFFFFFFFFFFFFFFFFFFFFFFFFFFFFFFFFFFFFFFFFFFFF
310
FFFFFFFFFFFFFFFFFFFFFFFFFFFFFFFFFFFFFFFFFFFFFFFFFFFFFFFFFFFFFFFF
310
FFFFFFFFFFFFFFFFFFFFFFFFFFFFFFFFFFFFFFFFFFFFFFFFFFFFFFFFFFFFFFFF
310
FFFFFFFFFFFFFFFFFFFFFFFFFFFFFFFFFFFFFFFFFFFFFFFFFFFFFFFFFFFFFFFF
310
FFFFFFFFFFFFFFFFFFFFFFFFFFFFFFFFFFFFFFFFFFFFFFFFFFFFFFFFFFFFFFFF
310
FFFFFFFFFFFFFFFFFFFFFFFFFFFFFFFFFFFFFFFFFFFFFFFFFFFFFFFFFFFFFFFF
310
FFFFFFFFFFFFFFFFFFFFFFFFFFFFFFFFFFFFFFFFFFFFFFFFFFFFFFFFFFFFFFFF
310
FFFFFFFFFFFFFFFFFFFFFFFFFFFFFFFFFFFFFFFFFFFFFFFFFFFFFFFFFFFFFFFF
310
FFFFFFFFFFFFFFFFFFFFFFFFFFFFFFFFFFFFFFFFFFFFFFFFFFFFFFFFFFFFFFFF
310
FFFFFFFFFFFFFFFFFFFFFFFFFFFFFFFFFFFFFFFFFFFFFFFFFFFFFFFFFFFFFFFF
310
FFFFFFFFFFFFFFFFFFFFFFFFFFFFFFFFFFFFFFFFFFFFFFFFFFFFFFFFFFFFFFFF
310
FFFFFFFFFFFFFFFFFFFFFFFFFFFFFFFFFFFFFFFFFFFFFFFFFFFFFFFFFFFFFFFF
310
FFFFFFFFFFFFFFFFFFFFFFFFFFFFFFFFFFFFFFFFFFFFFFFFFFFFFFFFFFFFFFFF
310
FDFFFFFFFEFFFFFFFEFFFFFFFEFFFFFF05000000060000000700000008000000
310
090000000A0000000B0000000C0000000D0000000E0000000F00000010000000
310
11000000120000001300000014000000150000001600000017000000FEFFFFFF
310
FFFFFFFFFFFFFFFFFFFFFFFFFFFFFFFFFFFFFFFFFFFFFFFFFFFFFFFFFFFFFFFF
310
FFFFFFFFFFFFFFFFFFFFFFFFFFFFFFFFFFFFFFFFFFFFFFFFFFFFFFFFFFFFFFFF
310
FFFFFFFFFFFFFFFFFFFFFFFFFFFFFFFFFFFFFFFFFFFFFFFFFFFFFFFFFFFFFFFF
310
FFFFFFFFFFFFFFFFFFFFFFFFFFFFFFFFFFFFFFFFFFFFFFFFFFFFFFFFFFFFFFFF
310
FFFFFFFFFFFFFFFFFFFFFFFFFFFFFFFFFFFFFFFFFFFFFFFFFFFFFFFFFFFFFFFF
310
FFFFFFFFFFFFFFFFFFFFFFFFFFFFFFFFFFFFFFFFFFFFFFFFFFFFFFFFFFFFFFFF
310
FFFFFFFFFFFFFFFFFFFFFFFFFFFFFFFFFFFFFFFFFFFFFFFFFFFFFFFFFFFFFFFF
310
FFFFFFFFFFFFFFFFFFFFFFFFFFFFFFFFFFFFFFFFFFFFFFFFFFFFFFFFFFFFFFFF
310
FFFFFFFFFFFFFFFFFFFFFFFFFFFFFFFFFFFFFFFFFFFFFFFFFFFFFFFFFFFFFFFF
310
FFFFFFFFFFFFFFFFFFFFFFFFFFFFFFFFFFFFFFFFFFFFFFFFFFFFFFFFFFFFFFFF
310
FFFFFFFFFFFFFFFFFFFFFFFFFFFFFFFFFFFFFFFFFFFFFFFFFFFFFFFFFFFFFFFF
310
FFFFFFFFFFFFFFFFFFFFFFFFFFFFFFFFFFFFFFFFFFFFFFFFFFFFFFFFFFFFFFFF
310
FFFFFFFFFFFFFFFFFFFFFFFFFFFFFFFFFFFFFFFFFFFFFFFFFFFFFFFFFFFFFFFF
310
52006F006F007400200045006E00740072007900000000000000000000000000
310
0000000000000000000000000000000000000000000000000000000000000000
310
16000500FFFFFFFFFFFFFFFF020000000A00030000000000C000000000000046
310
000000000000000000000000D06C5FBC97FFD10103000000C000000000000000
310
01004F006C006500000000000000000000000000000000000000000000000000
310
0000000000000000000000000000000000000000000000000000000000000000
310
0A000200FFFFFFFFFFFFFFFFFFFFFFFF00000000000000000000000000000000
310
0000000000000000000000000000000000000000000000001400000000000000
310
010043006F006D0070004F0062006A0000000000000000000000000000000000
310
0000000000000000000000000000000000000000000000000000000000000000
310
120002010100000003000000FFFFFFFF00000000000000000000000000000000
310
0000000000000000000000000000000000000000010000004D00000000000000
310
01004F006C006500310030004E00610074006900760065000000000000000000
310
0000000000000000000000000000000000000000000000000000000000000000
310
1A000200FFFFFFFFFFFFFFFFFFFFFFFF00000000000000000000000000000000
310
0000000000000000000000000000000000000000040000002426000000000000
310
FEFFFFFF02000000FEFFFFFFFFFFFFFFFFFFFFFFFFFFFFFFFFFFFFFFFFFFFFFF
310
FFFFFFFFFFFFFFFFFFFFFFFFFFFFFFFFFFFFFFFFFFFFFFFFFFFFFFFFFFFFFFFF
310
FFFFFFFFFFFFFFFFFFFFFFFFFFFFFFFFFFFFFFFFFFFFFFFFFFFFFFFFFFFFFFFF
310
FFFFFFFFFFFFFFFFFFFFFFFFFFFFFFFFFFFFFFFFFFFFFFFFFFFFFFFFFFFFFFFF
310
FFFFFFFFFFFFFFFFFFFFFFFFFFFFFFFFFFFFFFFFFFFFFFFFFFFFFFFFFFFFFFFF
310
FFFFFFFFFFFFFFFFFFFFFFFFFFFFFFFFFFFFFFFFFFFFFFFFFFFFFFFFFFFFFFFF
310
FFFFFFFFFFFFFFFFFFFFFFFFFFFFFFFFFFFFFFFFFFFFFFFFFFFFFFFFFFFFFFFF
310
FFFFFFFFFFFFFFFFFFFFFFFFFFFFFFFFFFFFFFFFFFFFFFFFFFFFFFFFFFFFFFFF
310
FFFFFFFFFFFFFFFFFFFFFFFFFFFFFFFFFFFFFFFFFFFFFFFFFFFFFFFFFFFFFFFF
310
FFFFFFFFFFFFFFFFFFFFFFFFFFFFFFFFFFFFFFFFFFFFFFFFFFFFFFFFFFFFFFFF
310
FFFFFFFFFFFFFFFFFFFFFFFFFFFFFFFFFFFFFFFFFFFFFFFFFFFFFFFFFFFFFFFF
310
FFFFFFFFFFFFFFFFFFFFFFFFFFFFFFFFFFFFFFFFFFFFFFFFFFFFFFFFFFFFFFFF
310
FFFFFFFFFFFFFFFFFFFFFFFFFFFFFFFFFFFFFFFFFFFFFFFFFFFFFFFFFFFFFFFF
310
FFFFFFFFFFFFFFFFFFFFFFFFFFFFFFFFFFFFFFFFFFFFFFFFFFFFFFFFFFFFFFFF
310
FFFFFFFFFFFFFFFFFFFFFFFFFFFFFFFFFFFFFFFFFFFFFFFFFFFFFFFFFFFFFFFF
310
FFFFFFFFFFFFFFFFFFFFFFFFFFFFFFFFFFFFFFFFFFFFFFFFFFFFFFFFFFFFFFFF
310
0100000200000000000000000000000000000000000000000000000000000000
310
0000000000000000000000000000000000000000000000000000000000000000
310
0100FEFF030A0000FFFFFFFF0A00030000000000C00000000000004607000000
310
5042727573680007000000504272757368000700000050427275736800F439B2
310
7100000000000000000000000000000000000000000000000000000000000000
310
0000000000000000000000000000000000000000000000000000000000000000
310
0000000000000000000000000000000000000000000000000000000000000000
310
0000000000000000000000000000000000000000000000000000000000000000
310
0000000000000000000000000000000000000000000000000000000000000000
310
0000000000000000000000000000000000000000000000000000000000000000
310
0000000000000000000000000000000000000000000000000000000000000000
310
0000000000000000000000000000000000000000000000000000000000000000
310
0000000000000000000000000000000000000000000000000000000000000000
310
0000000000000000000000000000000000000000000000000000000000000000
310
0000000000000000000000000000000000000000000000000000000000000000
310
0000000000000000000000000000000000000000000000000000000000000000
310
20260000424D0E260000000000003E00000028000000B40200006E0000000100
310
01000000000000000000130B0000130B00000200000002000000000000FFFFFF
310
FFFFFFFFFFFFFFFFFFFFFFFFFFFFFFFFFFFFFFFFFFFFFFFFFFFFFFFFFFFFFFFF
310
FFFFFFFFFFFFFFFFFFFFFFFFFFFFFFFFFFFFFFFFFFFFFFFFFFFFFFFFFFFFFFFF
310
FFFFFFFFFFFFFFFFFFFFFFFFFFFFFFFFFFFFFFFFFFFFFFFFF000FFFFFFFFFFFF
310
FFFFFFFFFFFFFFFFFFFFFFFFFFFFFFFFFFFFFFFFFFFFFFFFFFFFFFFFFFFFFFFF
310
FFFFFFFFFFFFFFFFFFFFFFFFFFFFFFFFFFFFFFFFFFFFFFFFFFFFFFFFFFFFFFFF
310
FFFFFFFFFFFFFFFFFFFFFFFFFFFFFFFFF000FFFFFFFFFFFFFFFFFFFFFFFFFFFF
310
FFFFFFFFFFFFFFFFFFFFFFFFFFFFFFFFFFFFFFFFFFFFFFFFFFFFFFFFFFFFFFFF
310
FFFFFFFFFFFFFFFFFFFFFFFFFFFFFFFFFFFFFFFFFFFFFFFFFFFFFFFFFFFFFFFF
310
FFFFFFFFFFFFFFFFF000FFFFFFFFFFFFFFFFFFFFFFFFFFFFFFFFFFFFFFFFFFFF
310
FFFFFFFFFFFFFFFFFFFFFFFFFFFFFFFFFFFFFFFFFFFFFFFFFFFFFFFFFFFFFFFF
310
FFFFFFFFFFFFFFFFFFFFFFFFFFFFFFFFFFFFFFFFFFFFFFFFFFFFFFFFFFFFFFFF
310
F000FFFFFFFFFFFFFFFFFFFFFFFFFFFFFFFFFFFFFFFFFFFFFFFFFFFFFFFFFFFF
310
FFFFFFFFFFFFFFFFFFFFFFFFFFFFFFFFFFFFFFFFFFFFFFFFFFFFFFFFFFFFFFFF
310
FFFFFFFFFFFFFFFFFFFFFFFFFFFFFFFFFFFFFFFFFFFFFFFFF000FFFFFFFFFFFF
310
FFFFFFFFFFFFFFFFFFFFFFFFFFFFFFFFFFFFFFFFFFFFFFFFFFFFFFFFFFFFFFFF
310
FFFFFFFFFFFFFFFFFFFFFFFFFFFFFFFFFFFFFFFFFFFFFFFFFFFFFFFFFFFFFFFF
310
FFFFFFFFFFFFFFFFFFFFFFFFFFFFFFFFF000FFFFFFFFFFFFFFFFFFFFFFFFFFFF
310
FFFFFFFFFFFFFFFFFFFFFFFFFFFFFFFFFFFFFFFFFFFFFFFFFFFFFFFFFFFFFFFF
310
FFFFFFFFFFFFFFFFFFFFFFFFFFFFFFFFFFFFFFFFFFFFFFFFFFFFFFFFFFFFFFFF
310
FFFFFFFFFFFFFFFFF000FFFFFFFFFFFFFFFFFFFFFFFFFFFFFFFFFFFFFFFFFFFF
310
FFFFFFFFFFFFFFFFFFFFFFFFFFFFFFFFFFFFFFFFFFFFFFFFFFFFFFFFFFFFFFFF
310
FFFFFFFFFFFFFFFFFFFFFFFFFFFFFFFFFFFFFFFFFFFFFFFFFFFFFFFFFFFFFFFF
310
F000FFFFFFFFFFFFFFFFFFFFFFFFFFFFFFFFFFFFFFFFFFFFFFFFFFFFFFFFFFFF
310
FFFFFFFFFFFFFFFFFFFFFFFFFFFFFFFFFFFFFFFFFFFFFFFFFFFFFFFFFFFFFFFF
310
FFFFFFFFFFFFFFFFFFFFFFFFFFFFFFFFFFFFFFFFFFFFFFFFF000FFFFFFFFFFFF
310
FFFFFFFFFFFFFFFFFFFFFFFFFFFFFFFFFFFFFFFFFFFFFFFFFFFFFFFFFFFFFFFF
310
FFFFFFFFFFFFFFFFFFFFFFFFFFFFFFFFFFFFFFFFFFFFFFFFFFFFFFFFFFFFFFFF
310
FFFFFFFFFFFFFFFFFFFFFFFFFFFFFFFFF000FFFFFFFFFFFFFFFFFFFFFFFFFFFF
310
FFFFFFFFFFFFFFFFFFFFFFFFFFFFFFFFFFFFFFFFFFFFFFFFFFFFFFFFFFFFFFFF
310
FFFFFFFFFFFFFFFFFFFFFFFFFFFFFFFFFFFFFFFFFFFFFFFFFFFFFFFFFFFFFFFF
310
FFFFFFFFFFFFFFFFF000FFFFFFFFFFFFFFFFFFFFFFFFFFFFFFFFFFFFFFFFFFFF
310
FFFFFFFFFFFFFFFFFFFFFFFFFFFFFFFFFFFFFFFFFFFFFFFFFFFFFFFFFFFFFFFF
310
FFFFFFFFFFFFFFFFFFFFFFFFFFFFFFFFFFFFFFFFFFFFFFFFFFFFFFFFFFFFFFFF
310
F000FFFFFFFFFFFFFFFFFFFFFFFFFFFFFFFFFFFFFFFFFFFFFFFFFFFFFFFFFFFF
310
FFFFFFFFFFFFFFFFFFFFFFFFFFFFFFFFFFFFFFFFFFFFFFFFFFFFFFFFFFFFFFFF
310
FFFFFFFFFFFFFFFFFFFFFFFFFFFFFFFFFFFFFFFFFFFFFFFFF000FFFFFFFFFFFF
310
FFFFFFFFFFFFFFFFFFFFFFFFFFFFFFFFFFFFFFFFFFFFFFFFFFFFFFFFFFFFFFFF
310
FFFFFFFFFFFFFFFFFFFFFFFFFFFFFFFFFFFFFFFFFFFFFFFFFFFFFFFFFFFFFFFF
310
FFFFFFFFFFFFFFFFFFFFFFFFFFFFFFFFF000FFFFFFFFFFFFFFFFFFFFFFFFFFFF
310
FFFFFFFFFFFFFFFFFFFFFFFFFFFFFFFFFFFFFFFFFFFFFFFFFFFFFFFFFFFFFFFF
310
FFFFFFFFFFFFFFFFFFFFFFFFFFFFFFFFFFFFFFFFFFFFFFFFFFFFFFFFFFFFFFFF
310
FFFFFFFFFFFFFFFFF000FFFFFFFFFFFFFFFFFFFFFFFFFFFFFFFFFFFFFFFFFFFF
310
FFFFFFFFFFFFFFFFFFFFFFFFFFFFFFFFFFFFFFFFFFFFFFFFFFFFFFFFFFFFFFFF
310
FFFFFFFFFFFFFFFFFFFFFFFFFFFFFFFFFFFFFFFFFFFFFFFFFFFFFFFFFFFFFFFF
310
F000FFFFFFFFFFFFFFFFFFFFFFFFFFFFFFFFFFFFFFFFFFFFFFFFFFFFFFFFFFFF
310
FFFFFFFFFFFFFFFFFFFFFFFFFFFFFFFFFFFFFFFFFFFFFFFFFFFFFFFFFFFFFFFF
310
FFFFFFFFFFFFFFFFFFFFFFFFFFFFFFFFFFFFFFFFFFFFFFFFF000FFFFFFFFFFFF
310
FFFFFFFFFFFFFFFFFFFFFFFFFFFFFFFFFFFFFFFFFFFFFFFFFFFFFFFFFFFFFFFF
310
FFFFFFFFFFFFFFFFFFFFFFFFFFFFFFFFFFFFFFFFFFFFFFFFFFFFFFFFFFFFFFFF
310
FFFFFFFFFFFFFFFFFFFFFFFFFFFFFFFFF000FFFFFFFFFFFFFFFFFFFFFFFFFFFF
310
FFFFFFFFFFFFFFFFFFFFFFFFFFFFFFFFFFFFFFFFFFFFFFFFFFFFFFFFFFFFFFFF
310
FFFFFFFFFFFFFFFFFFFFFFFFFFFFFFFFFFFFFFFFFFFFFFFFFFFFFFFFFFFFFFFF
310
FFFFFFFFFFFFFFFFF000FFFFF80003FFFFFFFFFFFFFFFFFFFFFFFFFFFFFFFFFF
310
FFFFF00007FFFFFFFFFF00007FFFFFF800000000000000007FFFFFFFFFFFFFFF
310
FFFFFFFC001FFFFFFFFFFFFFFC001FFFFFFFFFFFFFFFFFFFFFFFFFFE0007FFFF
310
F000FFFF8000007FFFFFFFF8000FFFFFC0007FFFFF80007FFFFF0000007FFFFF
310
FFF8000007FFFFF800000000000000007FFFFFF0001FFFFFFFFFFFC00001FFFF
310
FFFFFFFFC00001FFFFFFFF000000000003FFFFE000007FFFF000FFFE0000000F
310
FFFFFFF0000FFFFF80007FFFFF80007FFFFC0000001FFFFFFFC0000001FFFFF8
310
00000000000000007FFFFFF0001FFFFFFFFFFE0000003FFFFFFFFFFE0000003F
310
FFFFFF000000000003FFFF0000000FFFF000FFF800000003FFFFFFF00007FFFF
310
80007FFFFF80007FFFF000000007FFFFFF000000003FFFF80000000000000000
310
7FFFFFF0001FFFFFFFFFF80000000FFFFFFFFFF80000000FFFFFFF0000000000
310
03FFFC00000003FFF000FFE000000000FFFFFFF00007FFFF80003FFFFF80007F
310
FFC000000001FFFFFC000000001FFFF800000000000000007FFFFFF0001FFFFF
310
FFFFE000000003FFFFFFFFE000000003FFFFFF000000000003FFF000000000FF
310
F000FF80000000007FFFFFF00007FFFF80003FFFFF80007FFF8000000000FFFF
310
F80000000007FFF800000000000000007FFFFFF0001FFFFFFFFFC000000001FF
310
FFFFFFC000000001FFFFFF000000000003FFC0000000007FF000FF0000000000
310
3FFFFFE00007FFFF00003FFFFF80007FFE00000000003FFFF00000000003FFF8
310
00000000000000007FFFFFF0001FFFFFFFFF8000000000FFFFFFFF8000000000
310
FFFFFF000000000003FF80000000003FF000FE00000000001FFFFFE00003FFFF
310
00003FFFFF80007FFC00000000001FFFE00000000001FFF8000001FFFE000000
310
7FFFFFF0001FFFFFFFFE00000000003FFFFFFE00000000003FFFFF0000000000
310
03FF00000000001FF000FC00000000000FFFFFE00003FFFF00001FFFFF80007F
310
F800000000001FFFC00000000000FFF8000001FFFE0000007FFFFFF0001FFFFF
310
FFFC00000000001FFFFFFC00000000001FFFFF000000000003FE00000000000F
310
F000F8000000000007FFFFE00003FFFF00001FFFFF80007FF800000000000FFF
310
800000000000FFF8000001FFFE0000007FFFFFF0001FFFFFFFF800000000000F
310
FFFFF800000000000FFFFF000000000003FC000000000007F000F80000000000
310
03FFFFC00003FFFE00001FFFFF80007FF0000000000007FF0000000000007FF8
310
000001FFFE0000007FFFFFF0001FFFFFFFF0000000000007FFFFF00000000000
310
07FFFF000000000003F8000000000003F000F0000000000003FFFFC00001FFFE
310
00001FFFFF80007FE0000000000007FE0000000000003FF8000001FFFE000000
310
7FFFFFF0001FFFFFFFF0000000000007FFFFF0000000000007FFFF0000000000
310
03F800001F800003F000E00001FFF00001FFFFC00001FFFE00000FFFFF80007F
310
E00001FFE00003FE00001FFF00003FF8000001FFFE0000007FFFFFF0001FFFFF
310
FFE000003E000003FFFFE000003E000003FFFF000000000003F00001FFF80001
310
F000E00007FFFC0001FFFFC00001FFFE00000FFFFF80007FC0000FFFFC0003FC
310
0000FFFFC0001FF8000001FFFE0000007FFFFFF0001FFFFFFFC00003FFE00001
310
FFFFC00003FFE00001FFFF0001FFFFFFFFF00007FFFE0001F000E0000FFFFF00
310
00FFFF800001FFFC00000FFFFF80007FC0001FFFFE0001FC0001FFFFE0001FF8
310
000001FFFE0000007FFFFFF0001FFFFFFF80000FFFF80000FFFF80000FFFF800
310
00FFFF0003FFFFFFFFE0000FFFFF8000F000C0003FFFFF8000FFFF800000FFFC
310
000007FFFF80007F80003FFFFF0001FC0003FFFFF0001FF8000001FFFE000000
310
7FFFFFF0001FFFFFFF80003FFFFE0000FFFF80003FFFFE0000FFFF0003FFFFFF
310
FFE0003FFFFF8000F000C0003FFFFF8000FFFF800000FFFC000007FFFF80007F
310
80007FFFFF8001F80007FFFFF8000FF8000001FFFE0000007FFFFFF0001FFFFF
310
FF00007FFFFF00007FFF00007FFFFF00007FFF0003FFFFFFFFE0003FFFFFC000
310
F000C0007FFFFFC000FFFF000000FFFC000007FFFF80007F8000FFFFFF8000F8
310
000FFFFFF8000FF8000001FFFE0000007FFFFFF0001FFFFFFF0000FFFFFF8000
310
7FFF0000FFFFFF80007FFF0003FFFFFFFFC0007FFFFFC00070008000FFFFFFC0
310
00FFFF000000FFF8000007FFFF80007F8000FFFFFF8000F8000FFFFFF8000FF8
310
000001FFFE0000007FFFFFF0001FFFFFFE0001FFFFFFC0003FFE0001FFFFFFC0
310
003FFF0003FFFFFFFFC0007FFFFFE00070008000FFFFFFC0007FFF0000007FF8
310
000003FFFF80007F0001FFFFFF8000F8000FFFFFF8000FF8000001FFFE000000
310
7FFFFFF0001FFFFFFE0001FFFFFFC0003FFE0001FFFFFFC0003FFF0003FFFFFF
310
FFC000FFFFFFE00070008000FFFFFFC0007FFF0000007FF8000003FFFF80007F
310
0001FFFFFF8000F8001FFFFFF8000FF8000001FFFE0000007FFFFFF0001FFFFF
310
FE0003FFFFFFE0003FFE0003FFFFFFE0003FFF0003FFFFFFFFC000FFFFFFE000
310
70008000FFFFFFC0007FFE0000007FF8000003FFFF80007F0001FFFFFF8000F0
310
001FFFFFF8000FF8000001FFFE0000007FFFFFF0001FFFFFFC0003FFFFFFE000
310
1FFC0003FFFFFFE0001FFF0003FFFFFFFFC000FFFFFFC00070008000FFFFFF80
310
007FFE0000007FF0000003FFFF80007F0001FFFFFF0000F0001FFFFFF8000FF8
310
000001FFFE0000007FFFFFF0001FFFFFFC0007FFFFFFF0001FFC0007FFFFFFF0
310
001FFF0003FFFFFFFFC000FFFFFFC00070008001FFFFFF0000FFFE0000003FF0
310
000001FFFF80007F0001FFFFFF0000F8001FFFFFF0000FF8000001FFFE000000
310
7FFFFFF0001FFFFFFC0007FFFFFFF0001FFC0007FFFFFFF0001FFF0003FFFFFF
310
FFC001FFFFFF80007000FFFFFFFFFE0000FFFE0008003FF0008001FFFF80007F
310
FFFFFFFFFC0000FFFFFFFFFFE0000FF8000001FFFE0000007FFFFFF0001FFFFF
310
F8000FFFFFFFF8000FF8000FFFFFFFF8000FFF0003FFFFFFFFFFFFFFFFFF0000
310
7000FFFFFFFFFC0000FFFC0008003FF0008001FFFF80007FFFFFFFFFF80001FF
310
FFFFFFFF80000FF8000001FFFE0000007FFFFFF0001FFFFFF8000FFFFFFFF800
310
0FF8000FFFFFFFF8000FFF0003FFFFFFFFFFFFFFFFFE0000F000FFFFFFFFE000
310
00FFFC000C003FE000C001FFFF80007FFFFFFFFFC00001FFFFFFFFFE00001FF8
310
000001FFFE0000007FFFFFF0001FFFFFF8000FFFFFFFF8000FF8000FFFFFFFF8
310
000FFF0003FFFFFFFFFFFFFFFFF00000F000FFFFFFFE000001FFFC000C001FE0
310
00C000FFFF80007FFFFFFFFE000001FFFFFFFFE000001FF80FFFFFFFFFFFFFC0
310
7FFFFFF0001FFFFFF8000FFFFFFFF8000FF8000FFFFFFFF8000FFF0003FFFFFF
310
FFFFFFFFFF800000F000FFFFFFC0000001FFFC001C001FE001C000FFFF80007F
310
FFFFFF80000003FFFFFFF80000001FF80FFFFFFFFFFFFFC07FFFFFF0001FFFFF
310
F8001FFFFFFFFC000FF8001FFFFFFFFC000FFF0003FFFFFFFFFFFFFFF0000001
310
F000FFFFF800000001FFF8001C001FE001C000FFFF80007FFFFFF800000003FF
310
FFFF800000003FF80FFFFFFFFFFFFFC07FFFFFF0001FFFFFF8001FFFFFFFFC00
310
0FF8001FFFFFFFFC000FFF0003FFFFFFFFFFFFFE00000001F000FFFFC0000000
310
03FFF8001E001FC001E000FFFF80007FFFFF8000000007FFFFFC000000003FF8
310
0FFFFFFFFFFFFFC07FFFFFF0001FFFFFF8001FFFFFFFFC000FF8001FFFFFFFFC
310
000FFF0003FFFFFFFFFFFFE000000003F000FFFE0000000007FFF8001E000FC0
310
01E0007FFF80007FFFFE0000000007FFFFE0000000007FF80FFFFFFFFFFFFFC0
310
7FFFFFF0001FFFFFF0001FFFFFFFFC0007F0001FFFFFFFFC0007FF0003FFFFFF
310
FFFFFF0000000003F000FFF80000000007FFF8001E000FC003E0007FFF80007F
310
FFF0000000000FFFFF8000000000FFF80FFFFFFFFFFFFFC07FFFFFF0001FFFFF
310
F0001FFFFFFFFC0007F0001FFFFFFFFC0007FF0003FFFFFFFFFFFC0000000007
310
F000FFE0000000000FFFF0003E000FC003E0007FFF80007FFFC0000000001FFF
310
FE0000000001FFF80FFFFFFFFFFFFFC07FFFFFF0001FFFFFF0001FFFFFFFFC00
310
07F0001FFFFFFFFC0007FF0003FFFFFFFFFFF0000000000FF000FFC000000000
310
1FFFF0003F000F8003F0003FFF80007FFF80000000003FFFF80000000003FFF8
310
0FFFFFFFFFFFFFC07FFFFFF0001FFFFFF0001FFFFFFFFC0007F0001FFFFFFFFC
310
0007FF0003FFFFFFFFFFE0000000001FF000FF00000000007FFFF0003F000780
310
03F0003FFF80007FFF00000000007FFFF00000000007FFF80FFFFFFFFFFFFFC0
310
7FFFFFF0001FFFFFF0001FFFFFFFFC0007F0001FFFFFFFFC0007FF0003FFFFFF
310
FFFF80000000007FF000FE0000000000FFFFE0003F00078007F0003FFF80007F
310
FE0000000001FFFFE0000000001FFFF80FFFFFFFFFFFFFC07FFFFFF0001FFFFF
310
F0001FFFFFFFFC0007F0001FFFFFFFFC0007FF0003FFFFFFFFFF0000000000FF
310
F000FC0000000003FFFFE0007F00078007F0003FFF80007FFC0000000007FFFF
310
C0000000007FFFF80FFFFFFFFFFFFFC07FFFFFF0001FFFFFF8001FFFFFFFFC00
310
0FF8001FFFFFFFFC000FFF0003FFFFFFFFFE0000000003FFF000FC000000000F
310
FFFFE0007F80070007F8001FFF80007FF8000000001FFFFF8000000001FFFFF8
310
0FFFFFFFFFFFFFC07FFFFFF0001FFFFFF8001FFFFFFFFC000FF8001FFFFFFFFC
310
000FFF0003FFFFFFFFFC000000000FFFF000F8000000007FFFFFE0007F800700
310
07F8001FFF80007FF000000000FFFFFF800000000FFFFFF80FFFFFFFFFFFFFC0
310
7FFFFFF0001FFFFFF8000FFFFFFFF8000FF8000FFFFFFFF8000FFF0003FFFFFF
310
FFFC000000007FFFF000F800000007FFFFFFC0007F8003000FF8001FFF80007F
310
F000000007FFFFFF000000007FFFFFF80FFFFFFFFFFFFFC07FFFFFF0001FFFFF
310
F8000FFFFFFFF8000FF8000FFFFFFFF8000FFF0003FFFFFFFFF80000000FFFFF
310
F000F0000000FFFFFFFFC000FF8003000FF8001FFF80007FE0000000FFFFFFFF
310
0000000FFFFFFFF8000001FFFE0000007FFFFFF0001FFFFFF8000FFFFFFFF800
310
0FF8000FFFFFFFF8000FFF0003FFFFFFFFF8000000FFFFFFF000F000000FFFFF
310
FFFFC000FFC002000FF8000FFF80007FE000001FFFFFFFFE000001FFFFFFFFF8
310
000001FFFE0000007FFFFFF0001FFFFFF8000FFFFFFFF8000FF8000FFFFFFFF8
310
000FFF0003FFFFFFFFF000001FFFFFFFF000E00000FFFFFFFFFFC000FFC00200
310
0FFC000FFF80007FE00001FFFFFFFFFE00001FFFFFFFFFF8000001FFFE000000
310
7FFFFFF0001FFFFFFC000FFFFFFFF8001FFC000FFFFFFFF8001FFF0003FFFFFF
310
FFF00001FFFFFFFFF000E00007FFFFFFFFFF8000FFC000001FFC000FFF80007F
310
C0000FFFFFFFFFFE0000FFFFFFFFFFF8000001FFFE0000007FFFFFF0001FFFFF
310
FC0007FFFFFFF0001FFC0007FFFFFFF0001FFF0003FFFFFFFFF00007FFFFFFFF
310
F000E0001FFFFFFFFFFF8000FFC000001FFC000FFF80007FC0003FFFFFFFFFFE
310
0001FFFFFFFFFFF8000001FFFE0000007FFFFFF0001FFFFFFC0007FFFFFFF000
310
1FFC0007FFFFFFF0001FFF0003FFFFFFFFF0001FFFFFFFFFF000E0003FFFFF00
310
03FF8001FFE000001FFC0007FF80007FC0007FFFFF0007FC0003FFFFF0003FF8
310
000001FFFE0000007FFFFFF0001FFFFFFC0003FFFFFFE0001FFC0003FFFFFFE0
310
001FFF0003FFFFFFFFF0003FFFFFFFFFF000E0003FFFFF0001FF8001FFE00000
310
1FFE0007FF80007FC0007FFFFE0003FC0007FFFFE0003FF8000001FFFE000000
310
7FFFFFF0001FFFFFFE0003FFFFFFE0003FFE0003FFFFFFE0003FFF0003FFFFFF
310
FFF0003FFFFF8001F000E0003FFFFF0001FF0001FFE000001FFE0007FF80007F
310
C0007FFFFE0003FC0007FFFFE0003FF8000001FFFE0000007FFFFFF0001FFFFF
310
FE0001FFFFFFC0003FFE0001FFFFFFC0003FFF0003FFFFFFFFF0003FFFFF0001
310
F000E0003FFFFF0003FF0001FFE000003FFE0007FF80007FC0007FFFFE0003FC
310
0007FFFFE0003FF8000001FFFE0000007FFFFFF0001FFFFFFF0001FFFFFFC000
310
7FFF0001FFFFFFC0007FFF0003FFFFFFFFF0003FFFFF0001F000E0003FFFFE00
310
03FF0003FFF000003FFE0003FF80007FC0007FFFFC0003FE0007FFFFE0003FF8
310
000001FFFE0000007FFFFFF0001FFFFFFF0000FFFFFF80007FFF0000FFFFFF80
310
007FFF0003FFFFFFFFF0003FFFFF0001F000E0003FFFFE0003FF0003FFF00000
310
3FFF0003FF80007FC0007FFFFC0007FE0007FFFFC0003FF8000001FFFE000000
310
7FFFFFF0001FFFFFFF80007FFFFF0000FFFF80007FFFFF0000FFFF0003FFFFFF
310
FFF0003FFFFF0003F000E0003FFFFC0003FE0003FFF000003FFF0003FF80007F
310
E0003FFFF80007FE0003FFFFC0007FF8000001FFFE0000007FFFFFF0001FFFFF
310
FF80003FFFFE0000FFFF80003FFFFE0000FFFF0003FFFFFFFFF0001FFFFE0003
310
F000F0001FFFF80003FE0003FFF000007FFF0001FF80007FE0003FFFF00007FE
310
0001FFFF80007FF8000001FFFE0000007FFFFFF0001FFFFFFFC0000FFFF80001
310
FFFFC0000FFFF80001FFFF0003FFFFFFFFF0001FFFFC0003F000F0000FFFF000
310
07FE0007FFF800007FFF0001FF80007FE0001FFFE00007FF0000FFFE00007FF8
310
000001FFFE0000007FFFFFF0001FFFFFFFC00003FFE00001FFFFC00003FFE000
310
01FFFF0003FFFFFFFFF8000FFFF80003F000F00003FFC00007FC0007FFF80000
310
7FFF8001FF80007FF00007FF80000FFF00007FF80000FFF8000001FFFE000000
310
7F80000000000001FFE000003E000003FFFFE000003E000003FFFF0003FFFFFF
310
FFF80003FFE00007F000F800000000000FFC0007FFF800007FFF8001FF80007F
310
F000000000000FFF000000000000FFF8000001FFFE0000007F80000000000001
310
FFF0000000000007FFFFF0000000000007FFFF0003FFFFFFFFFC00007E000007
310
F000F800000000000FFC0007FFF80000FFFF8000FF80007FF800000000001FFF
310
800000000001FFF8000001FFFE0000007F80000000000001FFF800000000000F
310
FFFFF800000000000FFFFF0003FFFFFFFFFC00000000000FF000FC0000000000
310
1FFC0007FFFC0000FFFF8000FF80007FF800000000003FFFC00000000001FFF8
310
000001FFFE0000007F80000000000001FFF800000000000FFFFFF80000000000
310
0FFFFF0003FFFFFFFFFE00000000001FF000FE00000000003FF8000FFFFC0000
310
FFFF8000FF80007FFC00000000003FFFC00000000003FFF8000001FFFE000000
310
7F80000000000001FFFC00000000001FFFFFFC00000000001FFFFF0003FFFFFF
310
FFFF00000000001FF000FF00000000003FF8000FFFFC0000FFFFC000FF80007F
310
FE00000000007FFFE00000000007FFF8000001FFFE0000007F80000000000001
310
FFFE00000000003FFFFFFE00000000003FFFFF0003FFFFFFFFFF80000000003F
310
F000FF80000000007FF8000FFFFC0001FFFFC0007F80007FFF0000000000FFFF
310
F0000000000FFFF800000000000000007F80000000000001FFFF8000000000FF
310
FFFFFF8000000000FFFFFF0003FFFFFFFFFFC0000000007FF000FFC000000000
310
FFF8000FFFFE0001FFFFC0007F80007FFF8000000001FFFFF8000000001FFFF8
310
00000000000000007F80000000000001FFFFC000000001FFFFFFFFC000000001
310
FFFFFF0003FFFFFFFFFFE000000000FFF000FFE000000003FFF0001FFFFE0001
310
FFFFC0007F80007FFFC000000007FFFFFE000000003FFFF80000000000000000
310
7F80000000000001FFFFE000000003FFFFFFFFE000000003FFFFFF0003FFFFFF
310
FFFFF000000003FFF000FFF80000000FFFF0001FFFFE0001FFFFE0007F80007F
310
FFF00000000FFFFFFF00000000FFFFF800000000000000007F80000000000001
310
FFFFF80000000FFFFFFFFFF80000000FFFFFFF0003FFFFFFFFFFFC0000000FFF
310
F000FFFE0000003FFFF0001FFFFE0003FFFFE0003F80007FFFFC0000003FFFFF
310
FFC0000003FFFFF800000000000000007F80000000000001FFFFFE0000003FFF
310
FFFFFFFE0000003FFFFFFF0003FFFFFFFFFFFF0000003FFFF000FFFF800000FF
310
FFF0001FFFFF0003FFFFE0003F80007FFFFF000001FFFFFFFFF800001FFFFFF8
310
00000000000000007F80000000000001FFFFFFC00001FFFFFFFFFFFFC00001FF
310
FFFFFF0003FFFFFFFFFFFFC00000FFFFF000FFFFF8000FFFFFFFFFFFFFFFFFFF
310
FFFFFFFFFFFFFFFFFFFFF0001FFFFFFFFFFF0000FFFFFFF80000000000000000
310
7FFFFFFFFFFFFFFFFFFFFFFC001FFFFFFFFFFFFFFC001FFFFFFFFFFFFFFFFFFF
310
FFFFFFFC001FFFFFF000FFFFFFFFFFFFFFFFFFFFFFFFFFFFFFFFFFFFFFFFFFFF
310
FFFFFFFFFFFFFFFFFFFFFFFFFFFFFFFFFFFFFFFFFFFFFFFFFFFFFFFFFFFFFFFF
310
FFFFFFFFFFFFFFFFFFFFFFFFFFFFFFFFFFFFFFFFFFFFFFFFFFFFFFFFFFFFFFFF
310
F000FFFFFFFFFFFFFFFFFFFFFFFFFFFFFFFFFFFFFFFFFFFFFFFFFFFFFFFFFFFF
310
FFFFFFFFFFFFFFFFFFFFFFFFFFFFFFFFFFFFFFFFFFFFFFFFFFFFFFFFFFFFFFFF
310
FFFFFFFFFFFFFFFFFFFFFFFFFFFFFFFFFFFFFFFFFFFFFFFFF000FFFFFFFFFFFF
310
FFFFFFFFFFFFFFFFFFFFFFFFFFFFFFFFFFFFFFFFFFFFFFFFFFFFFFFFFFFFFFFF
310
FFFFFFFFFFFFFFFFFFFFFFFFFFFFFFFFFFFFFFFFFFFFFFFFFFFFFFFFFFFFFFFF
310
FFFFFFFFFFFFFFFFFFFFFFFFFFFFFFFFF000FFFFFFFFFFFFFFFFFFFFFFFFFFFF
310
FFFFFFFFFFFFFFFFFFFFFFFFFFFFFFFFFFFFFFFFFFFFFFFFFFFFFFFFFFFFFFFF
310
FFFFFFFFFFFFFFFFFFFFFFFFFFFFFFFFFFFFFFFFFFFFFFFFFFFFFFFFFFFFFFFF
310
FFFFFFFFFFFFFFFFF000FFFFFFFFFFFFFFFFFFFFFFFFFFFFFFFFFFFFFFFFFFFF
310
FFFFFFFFFFFFFFFFFFFFFFFFFFFFFFFFFFFFFFFFFFFFFFFFFFFFFFFFFFFFFFFF
310
FFFFFFFFFFFFFFFFFFFFFFFFFFFFFFFFFFFFFFFFFFFFFFFFFFFFFFFFFFFFFFFF
310
F000FFFFFFFFFFFFFFFFFFFFFFFFFFFFFFFFFFFFFFFFFFFFFFFFFFFFFFFFFFFF
310
FFFFFFFFFFFFFFFFFFFFFFFFFFFFFFFFFFFFFFFFFFFFFFFFFFFFFFFFFFFFFFFF
310
FFFFFFFFFFFFFFFFFFFFFFFFFFFFFFFFFFFFFFFFFFFFFFFFF000FFFFFFFFFFFF
310
FFFFFFFFFFFFFFFFFFFFFFFFFFFFFFFFFFFFFFFFFFFFFFFFFFFFFFFFFFFFFFFF
310
FFFFFFFFFFFFFFFFFFFFFFFFFFFFFFFFFFFFFFFFFFFFFFFFFFFFFFFFFFFFFFFF
310
FFFFFFFFFFFFFFFFFFFFFFFFFFFFFFFFF000FFFFFFFFFFFFFFFFFFFFFFFFFFFF
310
FFFFFFFFFFFFFFFFFFFFFFFFFFFFFFFFFFFFFFFFFFFFFFFFFFFFFFFFFFFFFFFF
310
FFFFFFFFFFFFFFFFFFFFFFFFFFFFFFFFFFFFFFFFFFFFFFFFFFFFFFFFFFFFFFFF
310
FFFFFFFFFFFFFFFFF000FFFFFFFFFFFFFFFFFFFFFFFFFFFFFFFFFFFFFFFFFFFF
310
FFFFFFFFFFFFFFFFFFFFFFFFFFFFFFFFFFFFFFFFFFFFFFFFFFFFFFFFFFFFFFFF
310
FFFFFFFFFFFFFFFFFFFFFFFFFFFFFFFFFFFFFFFFFFFFFFFFFFFFFFFFFFFFFFFF
310
F000FFFFFFFFFFFFFFFFFFFFFFFFFFFFFFFFFFFFFFFFFFFFFFFFFFFFFFFFFFFF
310
FFFFFFFFFFFFFFFFFFFFFFFFFFFFFFFFFFFFFFFFFFFFFFFFFFFFFFFFFFFFFFFF
310
FFFFFFFFFFFFFFFFFFFFFFFFFFFFFFFFFFFFFFFFFFFFFFFFF000FFFFFFFFFFFF
310
FFFFFFFFFFFFFFFFFFFFFFFFFFFFFFFFFFFFFFFFFFFFFFFFFFFFFFFFFFFFFFFF
310
FFFFFFFFFFFFFFFFFFFFFFFFFFFFFFFFFFFFFFFFFFFFFFFFFFFFFFFFFFFFFFFF
310
FFFFFFFFFFFFFFFFFFFFFFFFFFFFFFFFF000FFFFFFFFFFFFFFFFFFFFFFFFFFFF
310
FFFFFFFFFFFFFFFFFFFFFFFFFFFFFFFFFFFFFFFFFFFFFFFFFFFFFFFFFFFFFFFF
310
FFFFFFFFFFFFFFFFFFFFFFFFFFFFFFFFFFFFFFFFFFFFFFFFFFFFFFFFFFFFFFFF
310
FFFFFFFFFFFFFFFFF000FFFFFFFFFFFFFFFFFFFFFFFFFFFFFFFFFFFFFFFFFFFF
310
FFFFFFFFFFFFFFFFFFFFFFFFFFFFFFFFFFFFFFFFFFFFFFFFFFFFFFFFFFFFFFFF
310
FFFFFFFFFFFFFFFFFFFFFFFFFFFFFFFFFFFFFFFFFFFFFFFFFFFFFFFFFFFFFFFF
310
F000FFFFFFFFFFFFFFFFFFFFFFFFFFFFFFFFFFFFFFFFFFFFFFFFFFFFFFFFFFFF
310
FFFFFFFFFFFFFFFFFFFFFFFFFFFFFFFFFFFFFFFFFFFFFFFFFFFFFFFFFFFFFFFF
310
FFFFFFFFFFFFFFFFFFFFFFFFFFFFFFFFFFFFFFFFFFFFFFFFF000FFFFFFFFFFFF
310
FFFFFFFFFFFFFFFFFFFFFFFFFFFFFFFFFFFFFFFFFFFFFFFFFFFFFFFFFFFFFFFF
310
FFFFFFFFFFFFFFFFFFFFFFFFFFFFFFFFFFFFFFFFFFFFFFFFFFFFFFFFFFFFFFFF
310
FFFFFFFFFFFFFFFFFFFFFFFFFFFFFFFFF000FFFFFFFFFFFFFFFFFFFFFFFFFFFF
310
FFFFFFFFFFFFFFFFFFFFFFFFFFFFFFFFFFFFFFFFFFFFFFFFFFFFFFFFFFFFFFFF
310
FFFFFFFFFFFFFFFFFFFFFFFFFFFFFFFFFFFFFFFFFFFFFFFFFFFFFFFFFFFFFFFF
310
FFFFFFFFFFFFFFFFF000FFFFFFFFFFFFFFFFFFFFFFFFFFFFFFFFFFFFFFFFFFFF
310
FFFFFFFFFFFFFFFFFFFFFFFFFFFFFFFFFFFFFFFFFFFFFFFFFFFFFFFFFFFFFFFF
310
FFFFFFFFFFFFFFFFFFFFFFFFFFFFFFFFFFFFFFFFFFFFFFFFFFFFFFFFFFFFFFFF
310
F000FFFFFFFFFFFFFFFFFFFFFFFFFFFFFFFFFFFFFFFFFFFFFFFFFFFFFFFFFFFF
310
FFFFFFFFFFFFFFFFFFFFFFFFFFFFFFFFFFFFFFFFFFFFFFFFFFFFFFFFFFFFFFFF
310
FFFFFFFFFFFFFFFFFFFFFFFFFFFFFFFFFFFFFFFFFFFFFFFFF000FFFFFFFFFFFF
310
FFFFFFFFFFFFFFFFFFFFFFFFFFFFFFFFFFFFFFFFFFFFFFFFFFFFFFFFFFFFFFFF
310
FFFFFFFFFFFFFFFFFFFFFFFFFFFFFFFFFFFFFFFFFFFFFFFFFFFFFFFFFFFFFFFF
310
FFFFFFFFFFFFFFFFFFFFFFFFFFFFFFFFF000FFFFFFFFFFFFFFFFFFFFFFFFFFFF
310
FFFFFFFFFFFFFFFFFFFFFFFFFFFFFFFFFFFFFFFFFFFFFFFFFFFFFFFFFFFFFFFF
310
FFFFFFFFFFFFFFFFFFFFFFFFFFFFFFFFFFFFFFFFFFFFFFFFFFFFFFFFFFFFFFFF
310
FFFFFFFFFFFFFFFFF000FFFFFFFFFFFFFFFFFFFFFFFFFFFFFFFFFFFFFFFFFFFF
310
FFFFFFFFFFFFFFFFFFFFFFFFFFFFFFFFFFFFFFFFFFFFFFFFFFFFFFFFFFFFFFFF
310
FFFFFFFFFFFFFFFFFFFFFFFFFFFFFFFFFFFFFFFFFFFFFFFFFFFFFFFFFFFFFFFF
310
F000FFFFFFFFFFFFFFFFFFFFFFFFFFFFFFFFFFFFFFFFFFFFFFFFFFFFFFFFFFFF
310
FFFFFFFFFFFFFFFFFFFFFFFFFFFFFFFFFFFFFFFFFFFFFFFFFFFFFFFFFFFFFFFF
310
FFFFFFFFFFFFFFFFFFFFFFFFFFFFFFFFFFFFFFFFFFFFFFFFF000FFFFFFFFFFFF
310
FFFFFFFFFFFFFFFFFFFFFFFFFFFFFFFFFFFFFFFFFFFFFFFFFFFFFFFFFFFFFFFF
310
FFFFFFFFFFFFFFFFFFFFFFFFFFFFFFFFFFFFFFFFFFFFFFFFFFFFFFFFFFFFFFFF
310
FFFFFFFFFFFFFFFFFFFFFFFFFFFFFFFFF0000000000000000000000000000000
310
0000000000000000000000000000000000000000000000000000000000000000
310
0000000000000000000000000000000000000000000000000000000000000000
310
0000000000000000000000000000000000000000000000000000000000000000
310
0000000000000000000000000000000000000000000000000000000000000000
310
0000000000000000000000000000000000000000000000000000000000000000
310
0000000000000000000000000000000000000000000000000000000000000000
310
0000000000000000000000000000000000000000000000000000000000000000
310
0000000000000000000000000000000000000000000000000000000000000000
310
0000000000000000000000000000000000000000000000000000000000000000
310
0000000000000000000000000000000000000000000000000000000000000000
310
0000000000000000000000000000000000000000000000000000000000000000
310
0000000000000000000000000000000000000000000000000000000000000000
310
0000000000000000000000000000000000000000000000000000000000000000
310
0000000000000000000000000000000000000000000000000000000000000000
310
0000000000000000000000000000000000000000000000000000000000000000
  1
OLE
  0
ENDSEC
  0
SECTION
  2
OBJECTS
  0
DICTIONARY
  5
C
330
0
100
AcDbDictionary
281
     1
  3
ACAD_GROUP
350
D
  3
ACAD_LAYOUT
350
1A
  3
ACAD_MLINESTYLE
350
17
  3
ACAD_PLOTSETTINGS
350
19
  3
ACAD_PLOTSTYLENAME
350
E
  3
ACAD_SCALELIST
350
47
  0
DICTIONARY
  5
D
102
{ACAD_REACTORS
330
C
102
}
330
C
100
AcDbDictionary
281
     1
  0
DICTIONARY
  5
1A
102
{ACAD_REACTORS
330
C
102
}
330
C
100
AcDbDictionary
281
     1
  3
Layout1
350
1E
  3
Layout2
350
26
  3
Model
350
22
  0
DICTIONARY
  5
17
102
{ACAD_REACTORS
330
C
102
}
330
C
100
AcDbDictionary
281
     1
  3
Standard
350
18
  0
DICTIONARY
  5
19
102
{ACAD_REACTORS
330
C
102
}
330
C
100
AcDbDictionary
281
     1
  0
ACDBDICTIONARYWDFLT
  5
E
102
{ACAD_REACTORS
330
C
102
}
330
C
100
AcDbDictionary
281
     1
  3
Normal
350
F
100
AcDbDictionaryWithDefault
340
F
  0
DICTIONARY
  5
47
102
{ACAD_REACTORS
330
C
102
}
330
C
100
AcDbDictionary
281
     1
  3
A0
350
48
  3
A1
350
49
  3
A2
350
4A
  3
A3
350
4B
  3
A4
350
4C
  3
A5
350
4D
  3
A6
350
4E
  3
A7
350
4F
  3
A8
350
50
  3
A9
350
51
  3
B0
350
52
  3
B1
350
53
  3
B2
350
54
  3
B3
350
55
  3
B4
350
56
  3
B5
350
57
  3
B6
350
58
  3
B7
350
59
  3
B8
350
5A
  3
B9
350
5B
  3
C0
350
5C
  3
C1
350
5D
  3
C2
350
5E
  3
C3
350
5F
  3
C4
350
60
  3
C5
350
61
  3
C6
350
62
  3
C7
350
63
  3
C8
350
64
  3
C9
350
65
  3
D0
350
66
  3
D1
350
67
  3
D2
350
68
  0
LAYOUT
  5
1E
102
{ACAD_REACTORS
330
1A
102
}
330
1A
100
AcDbPlotSettings
  1

  2
none_device
  4

  6

 40
0.0
 41
0.0
 42
0.0
 43
0.0
 44
0.0
 45
0.0
 46
0.0
 47
0.0
 48
0.0
 49
0.0
140
0.0
141
0.0
142
1.0
143
1.0
 70
   688
 72
     1
 73
     0
 74
     5
  7

 75
    16
147
1.0
148
0.0
149
0.0
100
AcDbLayout
  1
Layout1
 70
     1
 71
     1
 10
0.0
 20
0.0
 11
420.0
 21
297.0
 12
0.0
 22
0.0
 32
0.0
 14
1.0000000000E+20
 24
1.0000000000E+20
 34
1.0000000000E+20
 15
-1.0000000000E+20
 25
-1.0000000000E+20
 35
-1.0000000000E+20
146
0.0
 13
0.0
 23
0.0
 33
0.0
 16
1.0
 26
0.0
 36
0.0
 17
0.0
 27
1.0
 37
0.0
 76
     0
330
1B
  0
LAYOUT
  5
26
102
{ACAD_REACTORS
330
1A
102
}
330
1A
100
AcDbPlotSettings
  1

  2
none_device
  4

  6

 40
0.0
 41
0.0
 42
0.0
 43
0.0
 44
0.0
 45
0.0
 46
0.0
 47
0.0
 48
0.0
 49
0.0
140
0.0
141
0.0
142
1.0
143
1.0
 70
   688
 72
     1
 73
     0
 74
     5
  7

 75
    16
147
1.0
148
0.0
149
0.0
100
AcDbLayout
  1
Layout2
 70
     1
 71
     2
 10
0.0
 20
0.0
 11
0.0
 21
0.0
 12
0.0
 22
0.0
 32
0.0
 14
0.0
 24
0.0
 34
0.0
 15
0.0
 25
0.0
 35
0.0
146
0.0
 13
0.0
 23
0.0
 33
0.0
 16
1.0
 26
0.0
 36
0.0
 17
0.0
 27
1.0
 37
0.0
 76
     0
330
23
  0
LAYOUT
  5
22
102
{ACAD_REACTORS
330
1A
102
}
330
1A
100
AcDbPlotSettings
  1

  2
none_device
  4
Letter_(8.50_x_11.00_Inches)
  6

 40
6.35
 41
6.35
 42
6.35000508
 43
6.35000508
 44
215.9
 45
279.4
 46
0.0
 47
0.0
 48
0.0
 49
0.0
140
0.0
141
0.0
142
1.0
143
1.0
 70
  1712
 72
     1
 73
     0
 74
     0
  7

 75
     0
147
1.0
148
0.0
149
0.0
100
AcDbLayout
  1
Model
 70
     1
 71
     0
 10
0.0
 20
0.0
 11
297.0
 21
210.0
 12
0.0
 22
0.0
 32
0.0
 14
0.0
 24
0.0
 34
0.0
 15
297.0
 25
210.0
 35
0.0
146
0.0
 13
0.0
 23
0.0
 33
0.0
 16
1.0
 26
0.0
 36
0.0
 17
0.0
 27
1.0
 37
0.0
 76
     0
330
1F
331
29
  0
MLINESTYLE
  5
18
102
{ACAD_REACTORS
330
17
102
}
330
17
100
AcDbMlineStyle
  2
Standard
 70
     0
  3

 62
   256
 51
90.0
 52
90.0
 71
     2
 49
0.5
 62
   256
  6
BYLAYER
 49
-0.5
 62
   256
  6
BYLAYER
  0
ACDBPLACEHOLDER
  5
F
102
{ACAD_REACTORS
330
E
102
}
330
E
  0
SCALE
  5
48
102
{ACAD_REACTORS
330
47
102
}
330
47
100
AcDbScale
 70
     0
300
1:1
140
1.0
141
1.0
290
     1
  0
SCALE
  5
49
102
{ACAD_REACTORS
330
47
102
}
330
47
100
AcDbScale
 70
     0
300
1:2
140
1.0
141
2.0
290
     0
  0
SCALE
  5
4A
102
{ACAD_REACTORS
330
47
102
}
330
47
100
AcDbScale
 70
     0
300
1:4
140
1.0
141
4.0
290
     0
  0
SCALE
  5
4B
102
{ACAD_REACTORS
330
47
102
}
330
47
100
AcDbScale
 70
     0
300
1:5
140
1.0
141
5.0
290
     0
  0
SCALE
  5
4C
102
{ACAD_REACTORS
330
47
102
}
330
47
100
AcDbScale
 70
     0
300
1:8
140
1.0
141
8.0
290
     0
  0
SCALE
  5
4D
102
{ACAD_REACTORS
330
47
102
}
330
47
100
AcDbScale
 70
     0
300
1:10
140
1.0
141
10.0
290
     0
  0
SCALE
  5
4E
102
{ACAD_REACTORS
330
47
102
}
330
47
100
AcDbScale
 70
     0
300
1:16
140
1.0
141
16.0
290
     0
  0
SCALE
  5
4F
102
{ACAD_REACTORS
330
47
102
}
330
47
100
AcDbScale
 70
     0
300
1:20
140
1.0
141
20.0
290
     0
  0
SCALE
  5
50
102
{ACAD_REACTORS
330
47
102
}
330
47
100
AcDbScale
 70
     0
300
1:30
140
1.0
141
30.0
290
     0
  0
SCALE
  5
51
102
{ACAD_REACTORS
330
47
102
}
330
47
100
AcDbScale
 70
     0
300
1:40
140
1.0
141
40.0
290
     0
  0
SCALE
  5
52
102
{ACAD_REACTORS
330
47
102
}
330
47
100
AcDbScale
 70
     0
300
1:50
140
1.0
141
50.0
290
     0
  0
SCALE
  5
53
102
{ACAD_REACTORS
330
47
102
}
330
47
100
AcDbScale
 70
     0
300
1:100
140
1.0
141
100.0
290
     0
  0
SCALE
  5
54
102
{ACAD_REACTORS
330
47
102
}
330
47
100
AcDbScale
 70
     0
300
2:1
140
2.0
141
1.0
290
     0
  0
SCALE
  5
55
102
{ACAD_REACTORS
330
47
102
}
330
47
100
AcDbScale
 70
     0
300
4:1
140
4.0
141
1.0
290
     0
  0
SCALE
  5
56
102
{ACAD_REACTORS
330
47
102
}
330
47
100
AcDbScale
 70
     0
300
8:1
140
8.0
141
1.0
290
     0
  0
SCALE
  5
57
102
{ACAD_REACTORS
330
47
102
}
330
47
100
AcDbScale
 70
     0
300
10:1
140
10.0
141
1.0
290
     0
  0
SCALE
  5
58
102
{ACAD_REACTORS
330
47
102
}
330
47
100
AcDbScale
 70
     0
300
100:1
140
100.0
141
1.0
290
     0
  0
SCALE
  5
59
102
{ACAD_REACTORS
330
47
102
}
330
47
100
AcDbScale
 70
     0
300
1/128" = 1'-0"
140
0.0078125
141
12.0
290
     0
  0
SCALE
  5
5A
102
{ACAD_REACTORS
330
47
102
}
330
47
100
AcDbScale
 70
     0
300
1/64" = 1'-0"
140
0.015625
141
12.0
290
     0
  0
SCALE
  5
5B
102
{ACAD_REACTORS
330
47
102
}
330
47
100
AcDbScale
 70
     0
300
1/32" = 1'-0"
140
0.03125
141
12.0
290
     0
  0
SCALE
  5
5C
102
{ACAD_REACTORS
330
47
102
}
330
47
100
AcDbScale
 70
     0
300
1/16" = 1'-0"
140
0.0625
141
12.0
290
     0
  0
SCALE
  5
5D
102
{ACAD_REACTORS
330
47
102
}
330
47
100
AcDbScale
 70
     0
300
3/32" = 1'-0"
140
0.09375
141
12.0
290
     0
  0
SCALE
  5
5E
102
{ACAD_REACTORS
330
47
102
}
330
47
100
AcDbScale
 70
     0
300
1/8" = 1'-0"
140
0.125
141
12.0
290
     0
  0
SCALE
  5
5F
102
{ACAD_REACTORS
330
47
102
}
330
47
100
AcDbScale
 70
     0
300
3/16" = 1'-0"
140
0.1875
141
12.0
290
     0
  0
SCALE
  5
60
102
{ACAD_REACTORS
330
47
102
}
330
47
100
AcDbScale
 70
     0
300
1/4" = 1'-0"
140
0.25
141
12.0
290
     0
  0
SCALE
  5
61
102
{ACAD_REACTORS
330
47
102
}
330
47
100
AcDbScale
 70
     0
300
3/8" = 1'-0"
140
0.375
141
12.0
290
     0
  0
SCALE
  5
62
102
{ACAD_REACTORS
330
47
102
}
330
47
100
AcDbScale
 70
     0
300
1/2" = 1'-0"
140
0.5
141
12.0
290
     0
  0
SCALE
  5
63
102
{ACAD_REACTORS
330
47
102
}
330
47
100
AcDbScale
 70
     0
300
3/4" = 1'-0"
140
0.75
141
12.0
290
     0
  0
SCALE
  5
64
102
{ACAD_REACTORS
330
47
102
}
330
47
100
AcDbScale
 70
     0
300
1" = 1'-0"
140
1.0
141
12.0
290
     0
  0
SCALE
  5
65
102
{ACAD_REACTORS
330
47
102
}
330
47
100
AcDbScale
 70
     0
300
1-1/2" = 1'-0"
140
1.5
141
12.0
290
     0
  0
SCALE
  5
66
102
{ACAD_REACTORS
330
47
102
}
330
47
100
AcDbScale
 70
     0
300
3" = 1'-0"
140
3.0
141
12.0
290
     0
  0
SCALE
  5
67
102
{ACAD_REACTORS
330
47
102
}
330
47
100
AcDbScale
 70
     0
300
6" = 1'-0"
140
6.0
141
12.0
290
     0
  0
SCALE
  5
68
102
{ACAD_REACTORS
330
47
102
}
330
47
100
AcDbScale
 70
     0
300
1'-0" = 1'-0"
140
12.0
141
12.0
290
     0
  0
ENDSEC
  0
EOF
