  0
SECTION
  2
HEADER
  9
$ACADVER
  1
AC1015
  9
$ACADMAINTVER
 70
     6
  9
$DWGCODEPAGE
  3
ANSI_1252
  9
$INSBASE
 10
0.0
 20
0.0
 30
0.0
  9
$EXTMIN
 10
0.0
 20
0.0
 30
0.0
  9
$EXTMAX
 10
297.0
 20
210.0
 30
0.0
  9
$LIMMIN
 10
0.0
 20
0.0
  9
$LIMMAX
 10
297.0
 20
210.0
  9
$ORTHOMODE
 70
     0
  9
$REGENMODE
 70
     1
  9
$FILLMODE
 70
     1
  9
$QTEXTMODE
 70
     0
  9
$MIRRTEXT
 70
     1
  9
$LTSCALE
 40
1.0
  9
$ATTMODE
 70
     1
  9
$TEXTSIZE
 40
2.0
  9
$TRACEWID
 40
1.0
  9
$TEXTSTYLE
  7
Standard
  9
$CLAYER
  8
0
  9
$CELTYPE
  6
ByLayer
  9
$CECOLOR
 62
   256
  9
$CELTSCALE
 40
1.0
  9
$DISPSILH
 70
     0
  9
$DIMSCALE
 40
1.0
  9
$DIMASZ
 40
3.0
  9
$DIMEXO
 40
0.0
  9
$DIMDLI
 40
3.75
  9
$DIMRND
 40
0.0
  9
$DIMDLE
 40
0.0
  9
$DIMEXE
 40
1.0
  9
$DIMTP
 40
0.0
  9
$DIMTM
 40
0.0
  9
$DIMTXT
 40
2.0
  9
$DIMCEN
 40
2.5
  9
$DIMTSZ
 40
0.0
  9
$DIMTOL
 70
     0
  9
$DIMLIM
 70
     0
  9
$DIMTIH
 70
     1
  9
$DIMTOH
 70
     1
  9
$DIMSE1
 70
     0
  9
$DIMSE2
 70
     0
  9
$DIMTAD
 70
     1
  9
$DIMZIN
 70
     0
  9
$DIMBLK
  1

  9
$DIMASO
 70
     1
  9
$DIMSHO
 70
     1
  9
$DIMPOST
  1

  9
$DIMAPOST
  1

  9
$DIMALT
 70
     0
  9
$DIMALTD
 70
     3
  9
$DIMALTF
 40
0.0393700787
  9
$DIMLFAC
 40
1.0
  9
$DIMTOFL
 70
     1
  9
$DIMTVP
 40
0.0
  9
$DIMTIX
 70
     0
  9
$DIMSOXD
 70
     0
  9
$DIMSAH
 70
     0
  9
$DIMBLK1
  1

  9
$DIMBLK2
  1

  9
$DIMSTYLE
  2
ISO-25
  9
$DIMCLRD
 70
     0
  9
$DIMCLRE
 70
     0
  9
$DIMCLRT
 70
     0
  9
$DIMTFAC
 40
1.0
  9
$DIMGAP
 40
1.524
  9
$DIMJUST
 70
     0
  9
$DIMSD1
 70
     0
  9
$DIMSD2
 70
     0
  9
$DIMTOLJ
 70
     0
  9
$DIMTZIN
 70
     0
  9
$DIMALTZ
 70
     0
  9
$DIMALTTZ
 70
     0
  9
$DIMUPT
 70
     0
  9
$DIMDEC
 70
     2
  9
$DIMTDEC
 70
     3
  9
$DIMALTU
 70
     2
  9
$DIMALTTD
 70
     3
  9
$DIMTXSTY
  7
Standard
  9
$DIMAUNIT
 70
     0
  9
$DIMADEC
 70
     2
  9
$DIMALTRND
 40
0.0
  9
$DIMAZIN
 70
     0
  9
$DIMDSEP
 70
    44
  9
$DIMATFIT
 70
     3
  9
$DIMFRAC
 70
     0
  9
$DIMLDRBLK
  1

  9
$DIMLUNIT
 70
     2
  9
$DIMLWD
 70
    -2
  9
$DIMLWE
 70
    -2
  9
$DIMTMOVE
 70
     0
  9
$LUNITS
 70
     2
  9
$LUPREC
 70
     2
  9
$SKETCHINC
 40
1.0
  9
$FILLETRAD
 40
10.0
  9
$AUNITS
 70
     0
  9
$AUPREC
 70
     2
  9
$MENU
  1
.
  9
$ELEVATION
 40
0.0
  9
$PELEVATION
 40
0.0
  9
$THICKNESS
 40
0.0
  9
$LIMCHECK
 70
     0
  9
$CHAMFERA
 40
0.0
  9
$CHAMFERB
 40
0.0
  9
$CHAMFERC
 40
0.0
  9
$CHAMFERD
 40
0.0
  9
$SKPOLY
 70
     0
  9
$TDCREATE
 40
2457627.622732905
  9
$TDUCREATE
 40
2457627.539399572
  9
$TDUPDATE
 40
2457627.62273419
  9
$TDUUPDATE
 40
2457627.539400856
  9
$TDINDWG
 40
0.0000000116
  9
$TDUSRTIMER
 40
0.0000000116
  9
$USRTIMER
 70
     1
  9
$ANGBASE
 50
0.0
  9
$ANGDIR
 70
     0
  9
$PDMODE
 70
     0
  9
$PDSIZE
 40
-1.0
  9
$PLINEWID
 40
0.0
  9
$SPLFRAME
 70
     0
  9
$SPLINETYPE
 70
     6
  9
$SPLINESEGS
 70
     8
  9
$HANDSEED
  5
2CD
  9
$SURFTAB1
 70
     6
  9
$SURFTAB2
 70
     6
  9
$SURFTYPE
 70
     6
  9
$SURFU
 70
     6
  9
$SURFV
 70
     6
  9
$UCSBASE
  2

  9
$UCSNAME
  2

  9
$UCSORG
 10
0.0
 20
0.0
 30
0.0
  9
$UCSXDIR
 10
1.0
 20
0.0
 30
0.0
  9
$UCSYDIR
 10
0.0
 20
1.0
 30
0.0
  9
$UCSORTHOREF
  2

  9
$UCSORTHOVIEW
 70
     0
  9
$UCSORGTOP
 10
0.0
 20
0.0
 30
0.0
  9
$UCSORGBOTTOM
 10
0.0
 20
0.0
 30
0.0
  9
$UCSORGLEFT
 10
0.0
 20
0.0
 30
0.0
  9
$UCSORGRIGHT
 10
0.0
 20
0.0
 30
0.0
  9
$UCSORGFRONT
 10
0.0
 20
0.0
 30
0.0
  9
$UCSORGBACK
 10
0.0
 20
0.0
 30
0.0
  9
$PUCSBASE
  2

  9
$PUCSNAME
  2

  9
$PUCSORG
 10
0.0
 20
0.0
 30
0.0
  9
$PUCSXDIR
 10
1.0
 20
0.0
 30
0.0
  9
$PUCSYDIR
 10
0.0
 20
1.0
 30
0.0
  9
$PUCSORTHOREF
  2

  9
$PUCSORTHOVIEW
 70
     0
  9
$PUCSORGTOP
 10
0.0
 20
0.0
 30
0.0
  9
$PUCSORGBOTTOM
 10
0.0
 20
0.0
 30
0.0
  9
$PUCSORGLEFT
 10
0.0
 20
0.0
 30
0.0
  9
$PUCSORGRIGHT
 10
0.0
 20
0.0
 30
0.0
  9
$PUCSORGFRONT
 10
0.0
 20
0.0
 30
0.0
  9
$PUCSORGBACK
 10
0.0
 20
0.0
 30
0.0
  9
$USERI1
 70
     0
  9
$USERI2
 70
     0
  9
$USERI3
 70
     0
  9
$USERI4
 70
     0
  9
$USERI5
 70
     0
  9
$USERR1
 40
0.0
  9
$USERR2
 40
0.0
  9
$USERR3
 40
0.0
  9
$USERR4
 40
0.0
  9
$USERR5
 40
0.0
  9
$WORLDVIEW
 70
     1
  9
$SHADEDGE
 70
     3
  9
$SHADEDIF
 70
    70
  9
$TILEMODE
 70
     1
  9
$MAXACTVP
 70
    64
  9
$PINSBASE
 10
0.0
 20
0.0
 30
0.0
  9
$PLIMCHECK
 70
     0
  9
$PEXTMIN
 10
1.0000000000E+20
 20
1.0000000000E+20
 30
1.0000000000E+20
  9
$PEXTMAX
 10
-1.0000000000E+20
 20
-1.0000000000E+20
 30
-1.0000000000E+20
  9
$PLIMMIN
 10
0.0
 20
0.0
  9
$PLIMMAX
 10
420.0
 20
297.0
  9
$UNITMODE
 70
     0
  9
$VISRETAIN
 70
     1
  9
$PLINEGEN
 70
     0
  9
$PSLTSCALE
 70
     1
  9
$TREEDEPTH
 70
  3020
  9
$CMLSTYLE
  2
Standard
  9
$CMLJUST
 70
     0
  9
$CMLSCALE
 40
20.0
  9
$PROXYGRAPHICS
 70
     1
  9
$MEASUREMENT
 70
     1
  9
$CELWEIGHT
370
    -1
  9
$ENDCAPS
280
     0
  9
$JOINSTYLE
280
     0
  9
$LWDISPLAY
290
     1
  9
$INSUNITS
 70
     4
  9
$HYPERLINKBASE
  1

  9
$STYLESHEET
  1

  9
$XEDIT
290
     1
  9
$CEPSNTYPE
380
     0
  9
$PSTYLEMODE
290
     1
  9
$FINGERPRINTGUID
  2
{027FC13A-1C52-46E3-B346-ADDB9077947B}
  9
$VERSIONGUID
  2
{FAEB1C32-E019-11D5-929B-00C0DF256EC4}
  9
$EXTNAMES
290
     1
  9
$PSVPSCALE
 40
0.0
  9
$OLESTARTUP
290
     0
  0
ENDSEC
  0
SECTION
  2
CLASSES
  0
CLASS
  1
ACDBDICTIONARYWDFLT
  2
AcDbDictionaryWithDefault
  3
ObjectDBX Classes
 90
        0
280
     0
281
     0
  0
CLASS
  1
VISUALSTYLE
  2
AcDbVisualStyle
  3
ObjectDBX Classes
 90
     4095
280
     0
281
     0
  0
CLASS
  1
MATERIAL
  2
AcDbMaterial
  3
ObjectDBX Classes
 90
     1153
280
     0
281
     0
  0
CLASS
  1
SCALE
  2
AcDbScale
  3
ObjectDBX Classes
 90
     1153
280
     0
281
     0
  0
CLASS
  1
TABLESTYLE
  2
AcDbTableStyle
  3
ObjectDBX Classes
 90
     4095
280
     0
281
     0
  0
CLASS
  1
MLEADERSTYLE
  2
AcDbMLeaderStyle
  3
ACDB_MLEADERSTYLE_CLASS
 90
     4095
280
     0
281
     0
  0
CLASS
  1
SUN
  2
AcDbSun
  3
SCENEOE
 90
     1153
280
     0
281
     0
  0
CLASS
  1
ACDBPLACEHOLDER
  2
AcDbPlaceHolder
  3
ObjectDBX Classes
 90
        0
280
     0
281
     0
  0
CLASS
  1
LAYOUT
  2
AcDbLayout
  3
ObjectDBX Classes
 90
        0
280
     0
281
     0
  0
ENDSEC
  0
SECTION
  2
TABLES
  0
TABLE
  2
VPORT
  5
8
330
0
100
AcDbSymbolTable
 70
     1
  0
VPORT
  5
29
330
8
100
AcDbSymbolTableRecord
100
AcDbViewportTableRecord
  2
*Active
 70
     0
 10
0.0
 20
0.0
 11
1.0
 21
1.0
 12
148.5
 22
105.0
 13
0.0
 23
0.0
 14
10.0
 24
10.0
 15
10.0
 25
10.0
 16
0.0
 26
0.0
 36
1.0
 17
0.0
 27
0.0
 37
0.0
 40
210.0
 41
1.4142857143
 42
50.0
 43
0.0
 44
0.0
 50
0.0
 51
0.0
 71
     0
 72
  2000
 73
     1
 74
     3
 75
     0
 76
     0
 77
     0
 78
     0
281
     0
 65
     1
110
0.0
120
0.0
130
0.0
111
1.0
121
0.0
131
0.0
112
0.0
122
1.0
132
0.0
 79
     0
146
0.0
  0
ENDTAB
  0
TABLE
  2
LTYPE
  5
5
330
0
100
AcDbSymbolTable
 70
     6
  0
LTYPE
  5
14
330
5
100
AcDbSymbolTableRecord
100
AcDbLinetypeTableRecord
  2
ByBlock
 70
     0
  3

 72
    65
 73
     0
 40
0.0
  0
LTYPE
  5
15
330
5
100
AcDbSymbolTableRecord
100
AcDbLinetypeTableRecord
  2
ByLayer
 70
     0
  3

 72
    65
 73
     0
 40
0.0
  0
LTYPE
  5
16
330
5
100
AcDbSymbolTableRecord
100
AcDbLinetypeTableRecord
  2
Continuous
 70
     0
  3
Solid line
 72
    65
 73
     0
 40
0.0
  0
LTYPE
  5
6E
330
5
100
AcDbSymbolTableRecord
100
AcDbLinetypeTableRecord
  2
HIDDEN
 70
     0
  3
Hidden __ __ __ __ __ __ __ __ __ __ __ __ __ __
 72
    65
 73
     2
 40
1.905
 49
1.27
 74
     0
 49
-0.635
 74
     0
  0
LTYPE
  5
6F
330
5
100
AcDbSymbolTableRecord
100
AcDbLinetypeTableRecord
  2
PHANTOM
 70
     0
  3
Phantom ______  __  __  ______  __  __  ______
 72
    65
 73
     6
 40
12.7
 49
6.35
 74
     0
 49
-1.27
 74
     0
 49
1.27
 74
     0
 49
-1.27
 74
     0
 49
1.27
 74
     0
 49
-1.27
 74
     0
  0
LTYPE
  5
70
330
5
100
AcDbSymbolTableRecord
100
AcDbLinetypeTableRecord
  2
CENTER
 70
     0
  3
Center ____ _ ____ _ ____ _ ____ _ ____ _ ____
 72
    65
 73
     4
 40
10.16
 49
6.35
 74
     0
 49
-1.27
 74
     0
 49
1.27
 74
     0
 49
-1.27
 74
     0
  0
LTYPE
  5
71
330
5
100
AcDbSymbolTableRecord
100
AcDbLinetypeTableRecord
  2
CENTERX2
 70
     0
  3
Center (2x) ________  __  ________  __  _____
 72
    65
 73
     4
 40
20.32
 49
12.7
 74
     0
 49
-2.54
 74
     0
 49
2.54
 74
     0
 49
-2.54
 74
     0
  0
LTYPE
  5
72
330
5
100
AcDbSymbolTableRecord
100
AcDbLinetypeTableRecord
  2
DOT2
 70
     0
  3
Dot (.5x) ........................................
 72
    65
 73
     2
 40
0.635
 49
0.0
 74
     0
 49
-0.635
 74
     0
  0
ENDTAB
  0
TABLE
  2
LAYER
  5
2
330
0
100
AcDbSymbolTable
 70
     5
  0
LAYER
  5
10
330
2
100
AcDbSymbolTableRecord
100
AcDbLayerTableRecord
  2
0
 70
     0
 62
     7
  6
Continuous
370
    -3
390
F
  0
LAYER
  5
73
330
2
100
AcDbSymbolTableRecord
100
AcDbLayerTableRecord
  2
FORMAT
 70
     0
 62
     7
  6
Continuous
370
    -3
390
F
  0
LAYER
  5
74
330
2
100
AcDbSymbolTableRecord
100
AcDbLayerTableRecord
  2
VERMASSUNG
 70
     0
 62
     7
  6
Continuous
370
    -3
390
F
  0
LAYER
  5
75
330
2
100
AcDbSymbolTableRecord
100
AcDbLayerTableRecord
  2
KOPF_DÜNN
 70
     0
 62
     7
  6
Continuous
370
    -3
390
F
  0
LAYER
  5
76
330
2
100
AcDbSymbolTableRecord
100
AcDbLayerTableRecord
  2
KOPF_DICK
 70
     0
 62
     7
  6
Continuous
370
    15
390
F
  0
ENDTAB
  0
TABLE
  2
STYLE
  5
3
330
0
100
AcDbSymbolTable
 70
     2
  0
STYLE
  5
11
330
3
100
AcDbSymbolTableRecord
100
AcDbTextStyleTableRecord
  2
Standard
 70
     0
 40
0.0
 41
1.0
 50
0.0
 71
     0
 42
2.0
  3
txt
  4

  0
STYLE
  5
77
330
3
100
AcDbSymbolTableRecord
100
AcDbTextStyleTableRecord
  2
SLDTEXTSTYLE0
 70
     0
 40
0.0
 41
0.7
 50
0.0
 71
     0
 42
2.0
  3
TXT
  4

  0
ENDTAB
  0
TABLE
  2
VIEW
  5
6
330
0
100
AcDbSymbolTable
 70
     0
  0
ENDTAB
  0
TABLE
  2
UCS
  5
7
330
0
100
AcDbSymbolTable
 70
     0
  0
ENDTAB
  0
TABLE
  2
APPID
  5
9
330
0
100
AcDbSymbolTable
 70
     1
  0
APPID
  5
12
330
9
100
AcDbSymbolTableRecord
100
AcDbRegAppTableRecord
  2
ACAD
 70
     0
  0
ENDTAB
  0
TABLE
  2
DIMSTYLE
  5
A
330
0
100
AcDbSymbolTable
 70
     2
100
AcDbDimStyleTable
  0
DIMSTYLE
105
27
330
A
100
AcDbSymbolTableRecord
100
AcDbDimStyleTableRecord
  2
ISO-25
 70
     0
 41
2.5
 42
0.625
 43
3.75
 44
1.25
 73
     0
 74
     0
 77
     1
 78
     8
140
2.5
141
2.5
143
0.0393700787
147
0.625
171
     3
172
     1
178
     0
271
     2
272
     2
274
     3
278
    44
283
     0
284
     8
340
11
  0
DIMSTYLE
105
1DE
102
{ACAD_REACTORS
330
1DD
330
1EA
330
1F6
330
200
330
20A
102
}
330
A
100
AcDbSymbolTableRecord
100
AcDbDimStyleTableRecord
  2
SLDDIMSTYLE0
 70
     0
 41
3.0
 44
0.0
 45
0.000000001
 73
     0
 74
     0
 77
     1
 78
    12
 79
     3
140
2.0
147
0.5
173
     1
178
     0
271
     2
272
     3
276
     2
284
    12
340
77
  0
ENDTAB
  0
TABLE
  2
BLOCK_RECORD
  5
1
330
0
100
AcDbSymbolTable
 70
     6
  0
BLOCK_RECORD
  5
1F
330
1
100
AcDbSymbolTableRecord
100
AcDbBlockTableRecord
  2
*Model_Space
340
22
  0
BLOCK_RECORD
  5
1B
330
1
100
AcDbSymbolTableRecord
100
AcDbBlockTableRecord
  2
*Paper_Space
340
1E
  0
BLOCK_RECORD
  5
23
330
1
100
AcDbSymbolTableRecord
100
AcDbBlockTableRecord
  2
*Paper_Space0
340
26
  0
BLOCK_RECORD
  5
1DF
330
1
100
AcDbSymbolTableRecord
100
AcDbBlockTableRecord
  2
_D
340
0
  0
BLOCK_RECORD
  5
1EB
330
1
100
AcDbSymbolTableRecord
100
AcDbBlockTableRecord
  2
_D_1
340
0
  0
BLOCK_RECORD
  5
1F7
330
1
100
AcDbSymbolTableRecord
100
AcDbBlockTableRecord
  2
_D_2
340
0
  0
BLOCK_RECORD
  5
201
330
1
100
AcDbSymbolTableRecord
100
AcDbBlockTableRecord
  2
_D_3
340
0
  0
BLOCK_RECORD
  5
20B
330
1
100
AcDbSymbolTableRecord
100
AcDbBlockTableRecord
  2
_D_4
340
0
  0
ENDTAB
  0
ENDSEC
  0
SECTION
  2
BLOCKS
  0
BLOCK
  5
20
330
1F
100
AcDbEntity
  8
0
100
AcDbBlockBegin
  2
*Model_Space
 70
     0
 10
0.0
 20
0.0
 30
0.0
  3
*Model_Space
  1

  0
ENDBLK
  5
21
330
1F
100
AcDbEntity
  8
0
100
AcDbBlockEnd
  0
BLOCK
  5
1C
330
1B
100
AcDbEntity
 67
     1
  8
0
100
AcDbBlockBegin
  2
*Paper_Space
 70
     0
 10
0.0
 20
0.0
 30
0.0
  3
*Paper_Space
  1

  0
ENDBLK
  5
1D
330
1B
100
AcDbEntity
 67
     1
  8
0
100
AcDbBlockEnd
  0
BLOCK
  5
24
330
23
100
AcDbEntity
  8
0
100
AcDbBlockBegin
  2
*Paper_Space0
 70
     0
 10
0.0
 20
0.0
 30
0.0
  3
*Paper_Space0
  1

  0
ENDBLK
  5
25
330
23
100
AcDbEntity
  8
0
100
AcDbBlockEnd
  0
BLOCK
  5
1E0
330
1DF
100
AcDbEntity
  8
0
100
AcDbBlockBegin
  2
_D
 70
     0
 10
0.0
 20
0.0
 30
0.0
  3
_D
  1

  0
SOLID
  5
1E2
330
1DF
100
AcDbEntity
  8
VERMASSUNG
100
AcDbTrace
 10
59.5608068994
 20
83.8095041938
 30
0.0
 11
60.0108068994
 21
86.8095041938
 31
0.0
 12
59.1108068994
 22
86.8095041938
 32
0.0
 13
59.1108068994
 23
86.8095041938
 33
0.0
  0
SOLID
  5
1E3
330
1DF
100
AcDbEntity
  8
VERMASSUNG
100
AcDbTrace
 10
59.5608068994
 20
147.3095041938
 30
0.0
 11
59.1108068994
 21
144.3095041938
 31
0.0
 12
60.0108068994
 22
144.3095041938
 32
0.0
 13
60.0108068994
 23
144.3095041938
 33
0.0
  0
LINE
  5
1E4
330
1DF
100
AcDbEntity
  8
VERMASSUNG
100
AcDbLine
 10
153.7375462012
 20
83.8095041938
 30
0.0
 11
58.5608068994
 21
83.8095041938
 31
0.0
  0
LINE
  5
1E5
330
1DF
100
AcDbEntity
  8
VERMASSUNG
100
AcDbLine
 10
153.7375462012
 20
147.3095041938
 30
0.0
 11
58.5608068994
 21
147.3095041938
 31
0.0
  0
LINE
  5
1E6
330
1DF
100
AcDbEntity
  8
VERMASSUNG
100
AcDbLine
 10
59.5608068994
 20
83.8095041938
 30
0.0
 11
59.5608068994
 21
147.3095041938
 31
0.0
  0
MTEXT
  5
1E7
330
1DF
100
AcDbEntity
  8
VERMASSUNG
100
AcDbMText
 10
56.7826716432
 20
106.7565680455
 30
0.0
 40
2.0
 41
0.0
 71
     1
 72
     1
  1
ISO 40
  7
SLDTEXTSTYLE0
 11
3.391901413832837E-15
 21
1.0
 31
0.0
 73
     1
 44
1.0
  0
MTEXT
  5
1E8
330
1DF
100
AcDbEntity
  8
VERMASSUNG
100
AcDbMText
 10
56.9826715945
 20
115.9565682497
 30
0.0
 40
2.0
 41
0.0
 71
     1
 72
     1
  1
%%c
  7
SLDTEXTSTYLE0
 11
3.391901413832837E-15
 21
1.0
 31
0.0
 73
     1
 44
1.0
  0
MTEXT
  5
1E9
330
1DF
100
AcDbEntity
  8
VERMASSUNG
100
AcDbMText
 10
56.9826713034
 20
119.5644485811
 30
0.0
 40
2.0
 41
0.0
 71
     1
 72
     1
  1
63.5
  7
SLDTEXTSTYLE0
 11
3.391901413832837E-15
 21
1.0
 31
0.0
 73
     1
 44
1.0
  0
ENDBLK
  5
1E1
330
1DF
100
AcDbEntity
  8
0
100
AcDbBlockEnd
  0
BLOCK
  5
1EC
330
1EB
100
AcDbEntity
  8
0
100
AcDbBlockBegin
  2
_D_1
 70
     0
 10
0.0
 20
0.0
 30
0.0
  3
_D_1
  1

  0
ARC
  5
1EE
330
1EB
100
AcDbEntity
  8
VERMASSUNG
100
AcDbCircle
 10
141.824686778
 20
166.0122011116
 30
0.0
 40
4.247059938537272
100
AcDbArc
 50
153.4349488229
 51
206.5650511771
  0
ARC
  5
1EF
330
1EB
100
AcDbEntity
  8
VERMASSUNG
100
AcDbCircle
 10
144.6004056245
 20
166.0122011116
 30
0.0
 40
4.247059938537272
100
AcDbArc
 50
333.4349488229
 51
26.5650511771
  0
SOLID
  5
1F0
330
1EB
100
AcDbEntity
  8
VERMASSUNG
100
AcDbTrace
 10
67.0375462012
 20
164.1128581662
 30
0.0
 11
70.0375462012
 21
163.6628581662
 31
0.0
 12
70.0375462012
 22
164.5628581662
 32
0.0
 13
70.0375462012
 23
164.5628581662
 33
0.0
  0
SOLID
  5
1F1
330
1EB
100
AcDbEntity
  8
VERMASSUNG
100
AcDbTrace
 10
219.3875462012
 20
164.1128581662
 30
0.0
 11
216.3875462012
 21
164.5628581662
 31
0.0
 12
216.3875462012
 22
163.6628581662
 32
0.0
 13
216.3875462012
 23
163.6628581662
 33
0.0
  0
LINE
  5
1F2
330
1EB
100
AcDbEntity
  8
VERMASSUNG
100
AcDbLine
 10
67.0375462012
 20
126.9666347909
 30
0.0
 11
67.0375462012
 21
165.1128581662
 31
0.0
  0
LINE
  5
1F3
330
1EB
100
AcDbEntity
  8
VERMASSUNG
100
AcDbLine
 10
219.3875462012
 20
131.2595041938
 30
0.0
 11
219.3875462012
 21
165.1128581662
 31
0.0
  0
LINE
  5
1F4
330
1EB
100
AcDbEntity
  8
VERMASSUNG
100
AcDbLine
 10
67.0375462012
 20
164.1128581662
 30
0.0
 11
219.3875462012
 21
164.1128581662
 31
0.0
  0
MTEXT
  5
1F5
330
1EB
100
AcDbEntity
  8
VERMASSUNG
100
AcDbMText
 10
139.6135008871
 20
166.6909937621
 30
0.0
 40
2.0
 41
0.0
 71
     1
 72
     1
  1
152.35
  7
SLDTEXTSTYLE0
 73
     1
 44
1.0
  0
ENDBLK
  5
1ED
330
1EB
100
AcDbEntity
  8
0
100
AcDbBlockEnd
  0
BLOCK
  5
1F8
330
1F7
100
AcDbEntity
  8
0
100
AcDbBlockBegin
  2
_D_2
 70
     0
 10
0.0
 20
0.0
 30
0.0
  3
_D_2
  1

  0
SOLID
  5
1FA
330
1F7
100
AcDbEntity
  8
VERMASSUNG
100
AcDbTrace
 10
135.2875462012
 20
158.1128581662
 30
0.0
 11
138.2875462012
 21
157.6628581662
 31
0.0
 12
138.2875462012
 22
158.5628581662
 32
0.0
 13
138.2875462012
 23
158.5628581662
 33
0.0
  0
SOLID
  5
1FB
330
1F7
100
AcDbEntity
  8
VERMASSUNG
100
AcDbTrace
 10
219.3875462012
 20
158.1128581662
 30
0.0
 11
216.3875462012
 21
158.5628581662
 31
0.0
 12
216.3875462012
 22
157.6628581662
 32
0.0
 13
216.3875462012
 23
157.6628581662
 33
0.0
  0
LINE
  5
1FC
330
1F7
100
AcDbEntity
  8
VERMASSUNG
100
AcDbLine
 10
135.2875462012
 20
137.7845041938
 30
0.0
 11
135.2875462012
 21
159.1128581662
 31
0.0
  0
LINE
  5
1FD
330
1F7
100
AcDbEntity
  8
VERMASSUNG
100
AcDbLine
 10
219.3875462012
 20
131.2595041938
 30
0.0
 11
219.3875462012
 21
159.1128581662
 31
0.0
  0
LINE
  5
1FE
330
1F7
100
AcDbEntity
  8
VERMASSUNG
100
AcDbLine
 10
135.2875462012
 20
158.1128581662
 30
0.0
 11
219.3875462012
 21
158.1128581662
 31
0.0
  0
MTEXT
  5
1FF
330
1F7
100
AcDbEntity
  8
VERMASSUNG
100
AcDbMText
 10
175.0378191158
 20
160.6909937621
 30
0.0
 40
2.0
 41
0.0
 71
     1
 72
     1
  1
84.1
  7
SLDTEXTSTYLE0
 73
     1
 44
1.0
  0
ENDBLK
  5
1F9
330
1F7
100
AcDbEntity
  8
0
100
AcDbBlockEnd
  0
BLOCK
  5
202
330
201
100
AcDbEntity
  8
0
100
AcDbBlockBegin
  2
_D_3
 70
     0
 10
0.0
 20
0.0
 30
0.0
  3
_D_3
  1

  0
SOLID
  5
204
330
201
100
AcDbEntity
  8
VERMASSUNG
100
AcDbTrace
 10
154.3375462012
 20
152.1128581662
 30
0.0
 11
157.3375462012
 21
151.6628581662
 31
0.0
 12
157.3375462012
 22
152.5628581662
 32
0.0
 13
157.3375462012
 23
152.5628581662
 33
0.0
  0
SOLID
  5
205
330
201
100
AcDbEntity
  8
VERMASSUNG
100
AcDbTrace
 10
219.3875462012
 20
152.1128581662
 30
0.0
 11
216.3875462012
 21
152.5628581662
 31
0.0
 12
216.3875462012
 22
151.6628581662
 32
0.0
 13
216.3875462012
 23
151.6628581662
 33
0.0
  0
LINE
  5
206
330
201
100
AcDbEntity
  8
VERMASSUNG
100
AcDbLine
 10
154.3375462012
 20
145.5700553273
 30
0.0
 11
154.3375462012
 21
153.1128581662
 31
0.0
  0
LINE
  5
207
330
201
100
AcDbEntity
  8
VERMASSUNG
100
AcDbLine
 10
219.3875462012
 20
131.2595041938
 30
0.0
 11
219.3875462012
 21
153.1128581662
 31
0.0
  0
LINE
  5
208
330
201
100
AcDbEntity
  8
VERMASSUNG
100
AcDbLine
 10
154.3375462012
 20
152.1128581662
 30
0.0
 11
219.3875462012
 21
152.1128581662
 31
0.0
  0
MTEXT
  5
209
330
201
100
AcDbEntity
  8
VERMASSUNG
100
AcDbMText
 10
183.7631538222
 20
154.6909937621
 30
0.0
 40
2.0
 41
0.0
 71
     1
 72
     1
  1
65.05
  7
SLDTEXTSTYLE0
 73
     1
 44
1.0
  0
ENDBLK
  5
203
330
201
100
AcDbEntity
  8
0
100
AcDbBlockEnd
  0
BLOCK
  5
20C
330
20B
100
AcDbEntity
  8
0
100
AcDbBlockBegin
  2
_D_4
 70
     0
 10
0.0
 20
0.0
 30
0.0
  3
_D_4
  1

  0
SOLID
  5
20E
330
20B
100
AcDbEntity
  8
VERMASSUNG
100
AcDbTrace
 10
228.6798934883
 20
131.5595041938
 30
0.0
 11
228.2298934883
 21
128.5595041938
 31
0.0
 12
229.1298934883
 22
128.5595041938
 32
0.0
 13
229.1298934883
 23
128.5595041938
 33
0.0
  0
SOLID
  5
20F
330
20B
100
AcDbEntity
  8
VERMASSUNG
100
AcDbTrace
 10
228.6798934883
 20
99.5595041938
 30
0.0
 11
229.1298934883
 21
102.5595041938
 31
0.0
 12
228.2298934883
 22
102.5595041938
 32
0.0
 13
228.2298934883
 23
102.5595041938
 33
0.0
  0
LINE
  5
210
330
20B
100
AcDbEntity
  8
VERMASSUNG
100
AcDbLine
 10
219.0875462012
 20
131.5595041938
 30
0.0
 11
229.6798934883
 21
131.5595041938
 31
0.0
  0
LINE
  5
211
330
20B
100
AcDbEntity
  8
VERMASSUNG
100
AcDbLine
 10
219.0875462012
 20
99.5595041938
 30
0.0
 11
229.6798934883
 21
99.5595041938
 31
0.0
  0
LINE
  5
212
330
20B
100
AcDbEntity
  8
VERMASSUNG
100
AcDbLine
 10
228.6798934883
 20
131.5595041938
 30
0.0
 11
228.6798934883
 21
99.5595041938
 31
0.0
  0
MTEXT
  5
213
330
20B
100
AcDbEntity
  8
VERMASSUNG
100
AcDbMText
 10
225.9017582321
 20
109.1545045503
 30
0.0
 40
2.0
 41
0.0
 71
     1
 72
     1
  1
MBM
  7
SLDTEXTSTYLE0
 11
-7.044195017643634E-15
 21
1.0
 31
0.0
 73
     1
 44
1.0
  0
MTEXT
  5
214
330
20B
100
AcDbEntity
  8
VERMASSUNG
100
AcDbMText
 10
226.1017581834
 20
115.5545043886
 30
0.0
 40
2.0
 41
0.0
 71
     1
 72
     1
  1
%%c
  7
SLDTEXTSTYLE0
 11
-7.044195017643634E-15
 21
1.0
 31
0.0
 73
     1
 44
1.0
  0
MTEXT
  5
215
330
20B
100
AcDbEntity
  8
VERMASSUNG
100
AcDbMText
 10
225.9017582321
 20
119.1645048686
 30
0.0
 40
2.0
 41
0.0
 71
     1
 72
     1
  1
32
  7
SLDTEXTSTYLE0
 11
-7.044195017643634E-15
 21
1.0
 31
0.0
 73
     1
 44
1.0
  0
ENDBLK
  5
20D
330
20B
100
AcDbEntity
  8
0
100
AcDbBlockEnd
  0
ENDSEC
  0
SECTION
  2
ENTITIES
  0
MTEXT
  5
78
330
1F
100
AcDbEntity
  8
KOPF_DÜNN
100
AcDbMText
 10
13.8892156294
 20
23.8442973028
 30
0.0
 40
3.0
 41
0.0
 71
     1
 72
     1
  1
102.425.322
  7
SLDTEXTSTYLE0
 73
     1
 44
1.0
  0
MTEXT
  5
79
330
1F
100
AcDbEntity
  8
VERMASSUNG
100
AcDbMText
 10
13.9329988022
 20
28.8834360957
 30
0.0
 40
3.0
 41
0.0
 71
     1
 72
     1
  1
Aufnahme_Master shank MBM 32
  7
SLDTEXTSTYLE0
 73
     1
 44
1.0
  0
MTEXT
  5
7A
330
1F
100
AcDbEntity
  8
VERMASSUNG
100
AcDbMText
 10
98.8601118557
 20
13.8365368761
 30
0.0
 40
2.0
 41
0.0
 71
     1
 72
     1
  1
Datum: 01.11.2007
  7
SLDTEXTSTYLE0
 73
     1
 44
1.0
  0
MTEXT
  5
7B
330
1F
100
AcDbEntity
  8
VERMASSUNG
100
AcDbMText
 10
13.933048693
 20
18.0482802738
 30
0.0
 40
2.0
 41
0.0
 71
     1
 72
     1
  1
DIN 69871 B 40
  7
SLDTEXTSTYLE0
 73
     1
 44
1.0
  0
MTEXT
  5
7C
330
1F
100
AcDbEntity
  8
VERMASSUNG
100
AcDbMText
 10
13.9808475933
 20
13.9090974274
 30
0.0
 40
2.0
 41
0.0
 71
     1
 72
     1
  1
Gewicht: 1159g
  7
SLDTEXTSTYLE0
 73
     1
 44
1.0
  0
ARC
  5
7D
330
1F
100
AcDbEntity
  8
0
  6
Continuous
 62
     7
370
    15
100
AcDbCircle
 10
137.8875462012
 20
92.7345041938
 30
0.0
 40
0.5999999999999943
100
AcDbArc
 50
0.0
 51
90.0
  0
ARC
  5
7E
330
1F
100
AcDbEntity
  8
0
  6
Continuous
 62
     7
370
    15
100
AcDbCircle
 10
137.8875462012
 20
138.3845041938
 30
0.0
 40
0.5999999999999943
100
AcDbArc
 50
270.0
 51
0.0
  0
LINE
  5
7F
330
1F
100
AcDbEntity
  8
0
  6
Continuous
 62
     7
370
    15
100
AcDbLine
 10
135.2875462012
 20
93.3345041938
 30
0.0
 11
137.8875462012
 21
93.3345041938
 31
0.0
  0
LINE
  5
80
330
1F
100
AcDbEntity
  8
0
  6
Continuous
 62
     7
370
    15
100
AcDbLine
 10
137.8875462012
 20
137.7845041938
 30
0.0
 11
135.2875462012
 21
137.7845041938
 31
0.0
  0
LINE
  5
81
330
1F
100
AcDbEntity
  8
0
  6
Continuous
 62
     7
370
    15
100
AcDbLine
 10
135.2875462012
 20
137.7845041938
 30
0.0
 11
67.8932393082
 21
127.9561677719
 31
0.0
  0
LINE
  5
82
330
1F
100
AcDbEntity
  8
0
  6
Continuous
 62
     7
370
    15
100
AcDbLine
 10
67.8932393082
 20
103.1628406157
 30
0.0
 11
135.2875462012
 21
93.3345041938
 31
0.0
  0
ARC
  5
83
330
1F
100
AcDbEntity
  8
0
  6
Continuous
 62
     7
370
    15
100
AcDbCircle
 10
158.3375462012
 20
95.5595041938
 30
0.0
 40
4.0
100
AcDbArc
 50
90.0
 51
180.0
  0
ARC
  5
84
330
1F
100
AcDbEntity
  8
0
  6
Continuous
 62
     7
370
    15
100
AcDbCircle
 10
158.3375462012
 20
135.5595041938
 30
0.0
 40
4.0
100
AcDbArc
 50
180.0
 51
270.0
  0
LINE
  5
85
330
1F
100
AcDbEntity
  8
0
  6
Continuous
 62
     7
370
    15
100
AcDbLine
 10
219.0875462012
 20
99.5595041938
 30
0.0
 11
219.3875462012
 21
99.8595041938
 31
0.0
  0
LINE
  5
86
330
1F
100
AcDbEntity
  8
0
  6
Continuous
 62
     7
370
    15
100
AcDbLine
 10
219.3875462012
 20
131.2595041938
 30
0.0
 11
219.0875462012
 21
131.5595041938
 31
0.0
  0
LINE
  5
87
330
1F
100
AcDbEntity
  8
0
  6
Continuous
 62
     7
370
    15
100
AcDbLine
 10
158.3375462012
 20
99.5595041938
 30
0.0
 11
219.0875462012
 21
99.5595041938
 31
0.0
  0
LINE
  5
88
330
1F
100
AcDbEntity
  8
0
  6
Continuous
 62
     7
370
    15
100
AcDbLine
 10
219.0875462012
 20
131.5595041938
 30
0.0
 11
158.3375462012
 21
131.5595041938
 31
0.0
  0
ARC
  5
89
330
1F
100
AcDbEntity
  8
0
  6
Continuous
 62
     7
370
    15
100
AcDbCircle
 10
68.0375462012
 20
104.1523735968
 30
0.0
 40
0.9999999999999938
100
AcDbArc
 50
180.0
 51
261.7028550302
  0
ARC
  5
8A
330
1F
100
AcDbEntity
  8
0
  6
Continuous
 62
     7
370
    15
100
AcDbCircle
 10
68.0375462012
 20
126.9666347909
 30
0.0
 40
0.9999999999999858
100
AcDbArc
 50
98.2971449698
 51
180.0
  0
ARC
  5
8B
330
1F
100
AcDbEntity
  8
0
  6
Continuous
 62
     7
370
    15
100
AcDbCircle
 10
148.2875462012
 20
106.837990539
 30
0.0
 40
1.500000000000011
100
AcDbArc
 50
191.5274417163
 51
336.6722113243
  0
LINE
  5
8C
330
1F
100
AcDbEntity
  8
0
  6
Continuous
 62
     7
370
    15
100
AcDbLine
 10
149.9093828433
 20
105.807484126
 30
0.0
 11
149.9093828433
 21
133.9095041938
 31
0.0
  0
LINE
  5
8D
330
1F
100
AcDbEntity
  8
0
  6
Continuous
 62
     7
370
    15
100
AcDbLine
 10
153.7375462012
 20
133.9095041938
 30
0.0
 11
149.9093828433
 21
133.9095041938
 31
0.0
  0
LINE
  5
8E
330
1F
100
AcDbEntity
  8
0
  6
Continuous
 62
     7
370
    15
100
AcDbLine
 10
149.9093828433
 20
85.1114118452
 30
0.0
 11
153.7375462012
 21
85.1114118452
 31
0.0
  0
LINE
  5
8F
330
1F
100
AcDbEntity
  8
0
  6
Continuous
 62
     7
370
    15
100
AcDbLine
 10
149.9093828433
 20
85.1114118452
 30
0.0
 11
149.9093828433
 21
103.6080043956
 31
0.0
  0
SPLINE
  5
90
330
1F
100
AcDbEntity
  8
0
  6
Continuous
 62
     7
370
    15
100
AcDbSpline
210
0.0
220
0.0
230
1.0
 70
     8
 71
     3
 72
    12
 73
     8
 74
     0
 42
0.000000001
 43
0.00000001
 40
0.0
 40
0.0
 40
0.0
 40
0.0
 40
0.2499999999999997
 40
0.2499999999999997
 40
0.4999999999999993
 40
0.4999999999999993
 40
1.0
 40
1.0
 40
1.0
 40
1.0
 10
149.9093828432887
 20
103.6080043956358
 30
0.0
 10
150.0323303370843
 20
103.7659612443309
 30
0.0
 10
150.1258745401932
 20
103.9377946113084
 30
0.0
 10
150.2548139293554
 20
104.3094673209542
 30
0.0
 10
150.2873666867405
 20
104.5026557671455
 30
0.0
 10
150.2879030284743
 20
105.0909523054217
 30
0.0
 10
150.1552793715063
 20
105.4829705433104
 30
0.0
 10
149.9093828432887
 20
105.8074841260191
 30
0.0
  0
SPLINE
  5
91
330
1F
100
AcDbEntity
  8
0
  6
Continuous
 62
     7
370
    15
100
AcDbSpline
210
0.0
220
0.0
230
1.0
 70
     8
 71
     3
 72
    12
 73
     8
 74
     0
 42
0.000000001
 43
0.00000001
 40
0.0
 40
0.0
 40
0.0
 40
0.0
 40
0.2499999999999992
 40
0.2499999999999992
 40
0.4999999999999983
 40
0.4999999999999983
 40
1.0
 40
1.0
 40
1.0
 40
1.0
 10
153.737546201232
 20
85.11141184520615
 30
0.0
 10
153.833088111368
 20
85.11141184520615
 30
0.0
 10
153.9252330532308
 20
85.12766551440235
 30
0.0
 10
154.0815593298407
 20
85.18127393531583
 30
0.0
 10
154.1452274724607
 20
85.21768506059752
 30
0.0
 10
154.294095317891
 20
85.339808700284
 30
0.0
 10
154.337546201232
 20
85.43496137572104
 30
0.0
 10
154.337546201232
 20
85.53058783134072
 30
0.0
  0
SPLINE
  5
92
330
1F
100
AcDbEntity
  8
0
  6
Continuous
 62
     7
370
    15
100
AcDbSpline
210
0.0
220
0.0
230
1.0
 70
    24
 71
     3
 72
    12
 73
     8
 74
     0
 42
0.000000001
 43
0.00000001
 40
0.0
 40
0.0
 40
0.0
 40
0.0
 40
0.4999999999999971
 40
0.4999999999999971
 40
0.7499999999999986
 40
0.7499999999999986
 40
1.0
 40
1.0
 40
1.0
 40
1.0
 10
154.337546201232
 20
133.9095041938428
 30
0.0
 10
154.337546201232
 20
133.9095041938428
 30
0.0
 10
154.287866206277
 20
133.9095041938428
 30
0.0
 10
154.1319476492594
 20
133.9095041938428
 30
0.0
 10
154.0660665846833
 20
133.9095041938428
 30
0.0
 10
153.9134209291946
 20
133.9095041938428
 30
0.0
 10
153.8261710213336
 20
133.9095041938428
 30
0.0
 10
153.7375462012319
 20
133.9095041938428
 30
0.0
  0
LINE
  5
93
330
1F
100
AcDbEntity
  8
0
  6
Continuous
 62
     7
370
    15
100
AcDbLine
 10
154.3375462012
 20
85.5305878313
 30
0.0
 11
154.3375462012
 21
133.9095041938
 31
0.0
  0
LINE
  5
94
330
1F
100
AcDbEntity
  8
0
  6
Continuous
 62
     7
370
    15
100
AcDbLine
 10
139.0875462012
 20
85.1114118452
 30
0.0
 11
142.8657095592
 21
85.1114118452
 31
0.0
  0
LINE
  5
95
330
1F
100
AcDbEntity
  8
0
  6
Continuous
 62
     7
370
    15
100
AcDbLine
 10
142.8657095592
 20
133.9095041938
 30
0.0
 11
139.0875462012
 21
133.9095041938
 31
0.0
  0
LINE
  5
96
330
1F
100
AcDbEntity
  8
0
  6
Continuous
 62
     7
370
    15
100
AcDbLine
 10
142.8657095592
 20
85.1114118452
 30
0.0
 11
142.8657095592
 21
133.9095041938
 31
0.0
  0
SPLINE
  5
97
330
1F
100
AcDbEntity
  8
0
  6
Continuous
 62
     7
370
    15
100
AcDbSpline
210
0.0
220
0.0
230
1.0
 70
     8
 71
     3
 72
     8
 73
     4
 74
     0
 42
0.000000001
 43
0.00000001
 40
0.0
 40
0.0
 40
0.0
 40
0.0
 40
1.0
 40
1.0
 40
1.0
 40
1.0
 10
144.477546201232
 20
87.74267773434136
 30
0.0
 10
144.0934114526477
 20
87.05003631239717
 30
0.0
 10
143.7084251761547
 20
86.35785013807349
 30
0.0
 10
143.3227565975284
 20
85.6660558472293
 30
0.0
  0
SPLINE
  5
98
330
1F
100
AcDbEntity
  8
0
  6
Continuous
 62
     7
370
    15
100
AcDbSpline
210
0.0
220
0.0
230
1.0
 70
     8
 71
     3
 72
     8
 73
     4
 74
     0
 42
0.000000001
 43
0.00000001
 40
0.0
 40
0.0
 40
0.0
 40
0.0
 40
0.0011901715795577
 40
0.0011901715795577
 40
0.0011901715795577
 40
0.0011901715795577
 10
142.8657095591753
 20
85.11141184520615
 30
0.0
 10
143.0195557486712
 20
85.29597708288973
 30
0.0
 10
143.1719510163439
 20
85.48085244341837
 30
0.0
 10
143.3227565975284
 20
85.6660558472293
 30
0.0
  0
SPLINE
  5
99
330
1F
100
AcDbEntity
  8
0
  6
Continuous
 62
     7
370
    15
100
AcDbSpline
210
0.0
220
0.0
230
1.0
 70
    24
 71
     3
 72
     8
 73
     4
 74
     0
 42
0.000000001
 43
0.00000001
 40
0.0
 40
0.0
 40
0.0
 40
0.0
 40
1.0
 40
1.0
 40
1.0
 40
1.0
 10
144.477546201232
 20
133.9095041938428
 30
0.0
 10
143.9528137128701
 20
133.9095041938428
 30
0.0
 10
143.4141382286513
 20
133.9095041938428
 30
0.0
 10
142.8657095591753
 20
133.9095041938428
 30
0.0
  0
LINE
  5
9A
330
1F
100
AcDbEntity
  8
0
  6
Continuous
 62
     7
370
    15
100
AcDbLine
 10
144.4775462012
 20
87.7426777343
 30
0.0
 11
144.4775462012
 21
133.9095041938
 31
0.0
  0
LINE
  5
9B
330
1F
100
AcDbEntity
  8
0
  6
Continuous
 62
     7
370
    15
100
AcDbLine
 10
148.2975462012
 20
107.5582216737
 30
0.0
 11
148.2975462012
 21
133.9095041938
 31
0.0
  0
SPLINE
  5
9C
330
1F
100
AcDbEntity
  8
0
  6
Continuous
 62
     7
370
    15
100
AcDbSpline
210
0.0
220
0.0
230
1.0
 70
    24
 71
     3
 72
     8
 73
     4
 74
     0
 42
0.000000001
 43
0.00000001
 40
0.0
 40
0.0
 40
0.0
 40
0.0
 40
1.0
 40
1.0
 40
1.0
 40
1.0
 10
149.9093828432887
 20
133.9095041938428
 30
0.0
 10
149.3609541738127
 20
133.9095041938428
 30
0.0
 10
148.8222786895939
 20
133.9095041938428
 30
0.0
 10
148.297546201232
 20
133.9095041938428
 30
0.0
  0
SPLINE
  5
9D
330
1F
100
AcDbEntity
  8
0
  6
Continuous
 62
     7
370
    15
100
AcDbSpline
210
0.0
220
0.0
230
1.0
 70
     8
 71
     3
 72
    12
 73
     8
 74
     0
 42
0.000000001
 43
0.00000001
 40
0.0
 40
0.0
 40
0.0
 40
0.0
 40
0.2499999999999997
 40
0.2499999999999997
 40
0.4999999999999993
 40
0.4999999999999993
 40
1.0
 40
1.0
 40
1.0
 40
1.0
 10
149.9093828432887
 20
105.8074841260191
 30
0.0
 10
149.7944867920281
 20
106.0272245610757
 30
0.0
 10
149.6677207755554
 20
106.2241929126974
 30
0.0
 10
149.4075058419369
 20
106.5779104855363
 30
0.0
 10
149.2739983839747
 20
106.7347357794086
 30
0.0
 10
148.8656001153865
 20
107.1612783503163
 30
0.0
 10
148.5819469804489
 20
107.3879705292715
 30
0.0
 10
148.2975462012321
 20
107.5582216736669
 30
0.0
  0
SPLINE
  5
9E
330
1F
100
AcDbEntity
  8
0
  6
Continuous
 62
     7
370
    15
100
AcDbSpline
210
0.0
220
0.0
230
1.0
 70
     8
 71
     3
 72
    10
 73
     6
 74
     0
 42
0.000000001
 43
0.00000001
 40
0.0
 40
0.0
 40
0.0
 40
0.0
 40
0.5
 40
0.5
 40
1.0
 40
1.0
 40
1.0
 40
1.0
 10
138.7036907425792
 20
85.20777434437461
 30
0.0
 10
138.7524607155606
 20
85.1795463371666
 30
0.0
 10
138.8099128388629
 20
85.155451732925
 30
0.0
 10
138.9405097418516
 20
85.12118825983245
 30
0.0
 10
139.0129994216938
 20
85.11141184520613
 30
0.0
 10
139.087546201232
 20
85.11141184520613
 30
0.0
  0
SPLINE
  5
9F
330
1F
100
AcDbEntity
  8
0
  6
Continuous
 62
     7
370
    15
100
AcDbSpline
210
0.0
220
0.0
230
1.0
 70
     8
 71
     3
 72
    10
 73
     6
 74
     0
 42
0.000000001
 43
0.00000001
 40
0.0
 40
0.0
 40
0.0
 40
0.0
 40
0.5
 40
0.5
 40
1.0
 40
1.0
 40
1.0
 40
1.0
 10
138.7036907425792
 20
85.20777434437461
 30
0.0
 10
138.6455680825031
 20
85.27507950423642
 30
0.0
 10
138.5931649164996
 20
85.35516489127006
 30
0.0
 10
138.5142618949533
 20
85.53918433295881
 30
0.0
 10
138.487546201232
 20
85.64439569037928
 30
0.0
 10
138.487546201232
 20
85.75312903683992
 30
0.0
  0
LINE
  5
A0
330
1F
100
AcDbEntity
  8
0
  6
Continuous
 62
     7
370
    15
100
AcDbLine
 10
138.4875462012
 20
85.7531290368
 30
0.0
 11
138.4875462012
 21
133.9095041938
 31
0.0
  0
SPLINE
  5
A1
330
1F
100
AcDbEntity
  8
0
  6
Continuous
 62
     7
370
    15
100
AcDbSpline
210
0.0
220
0.0
230
1.0
 70
    24
 71
     3
 72
    12
 73
     8
 74
     0
 42
0.000000001
 43
0.00000001
 40
0.0
 40
0.0
 40
0.0
 40
0.0
 40
0.25
 40
0.25
 40
0.5
 40
0.5
 40
1.0
 40
1.0
 40
1.0
 40
1.0
 10
139.087546201232
 20
133.9095041938428
 30
0.0
 10
138.9991308239215
 20
133.9095041938428
 30
0.0
 10
138.911860386751
 20
133.9095041938428
 30
0.0
 10
138.7593966619791
 20
133.9095041938428
 30
0.0
 10
138.6937580497567
 20
133.9095041938428
 30
0.0
 10
138.5370996484728
 20
133.9095041938428
 30
0.0
 10
138.487546201232
 20
133.9095041938428
 30
0.0
 10
138.487546201232
 20
133.9095041938428
 30
0.0
  0
SPLINE
  5
A2
330
1F
100
AcDbEntity
  8
0
  6
Continuous
 62
     7
370
    15
100
AcDbSpline
210
0.0
220
0.0
230
1.0
 70
     8
 71
     3
 72
    14
 73
    10
 74
     0
 42
0.000000001
 43
0.00000001
 40
0.0
 40
0.0
 40
0.0
 40
0.0
 40
0.2499999999999995
 40
0.2499999999999995
 40
0.4999999999999997
 40
0.4999999999999997
 40
0.7499999999999998
 40
0.7499999999999998
 40
1.0
 40
1.0
 40
1.0
 40
1.0
 10
148.297546201232
 20
107.6124653235132
 30
0.0
 10
148.297546201232
 20
107.649116191677
 30
0.0
 10
148.2762184125202
 20
107.6855829889259
 30
0.0
 10
148.1937600098636
 20
107.7507218434668
 30
0.0
 10
148.1326438180084
 20
107.7787929740577
 30
0.0
 10
147.9813407249463
 20
107.8126208557845
 30
0.0
 10
147.8899627015557
 20
107.818083997181
 30
0.0
 10
147.6975889885028
 20
107.7971580791685
 30
0.0
 10
147.5954086490239
 20
107.7706226537932
 30
0.0
 10
147.497546201232
 20
107.7301364805119
 30
0.0
  0
SPLINE
  5
A3
330
1F
100
AcDbEntity
  8
0
  6
Continuous
 62
     7
370
    15
100
AcDbSpline
210
0.0
220
0.0
230
1.0
 70
     8
 71
     3
 72
    12
 73
     8
 74
     0
 42
0.000000001
 43
0.00000001
 40
0.0
 40
0.0
 40
0.0
 40
0.0
 40
0.4999999999999982
 40
0.4999999999999982
 40
0.7499999999999991
 40
0.7499999999999991
 40
1.0
 40
1.0
 40
1.0
 40
1.0
 10
148.297546201232
 20
103.7994981754459
 30
0.0
 10
148.5817527357973
 20
103.6320340131522
 30
0.0
 10
148.8604484699011
 20
103.5203969136406
 30
0.0
 10
149.2697945130903
 20
103.4530836480012
 30
0.0
 10
149.4059338504099
 20
103.4479326079872
 30
0.0
 10
149.667253899406
 20
103.4856985456066
 30
0.0
 10
149.7926750818378
 20
103.5272483039509
 30
0.0
 10
149.9093828432891
 20
103.6080043956337
 30
0.0
  0
LINE
  5
A4
330
1F
100
AcDbEntity
  8
0
  6
Continuous
 62
     7
370
    15
100
AcDbLine
 10
148.2975462012
 20
103.8537418253
 30
0.0
 11
148.2975462012
 21
103.7994981754
 31
0.0
  0
SPLINE
  5
A5
330
1F
100
AcDbEntity
  8
0
  6
Continuous
 62
     7
370
    15
100
AcDbSpline
210
0.0
220
0.0
230
1.0
 70
     8
 71
     3
 72
    14
 73
    10
 74
     0
 42
0.000000001
 43
0.00000001
 40
0.0
 40
0.0
 40
0.0
 40
0.0
 40
0.25
 40
0.25
 40
0.5
 40
0.5
 40
0.75
 40
0.75
 40
1.0
 40
1.0
 40
1.0
 40
1.0
 10
147.4975462012285
 20
104.2770250037361
 30
0.0
 10
147.5949556212123
 20
104.2386102843419
 30
0.0
 10
147.6972798642259
 20
104.2009098795591
 30
0.0
 10
147.8892815497634
 20
104.129865093965
 30
0.0
 10
147.9807161794178
 20
104.0956636326069
 30
0.0
 10
148.1324950467128
 20
104.0286672072015
 30
0.0
 10
148.1934719366274
 20
103.9955257388921
 30
0.0
 10
148.2764898751917
 20
103.925848171242
 30
0.0
 10
148.297546201232
 20
103.8901144600748
 30
0.0
 10
148.297546201232
 20
103.853741825294
 30
0.0
  0
SPLINE
  5
A6
330
1F
100
AcDbEntity
  8
0
  6
Continuous
 62
     7
370
    15
100
AcDbSpline
210
0.0
220
0.0
230
1.0
 70
     8
 71
     3
 72
    22
 73
    18
 74
     0
 42
0.000000001
 43
0.00000001
 40
0.0
 40
0.0
 40
0.0
 40
0.0
 40
0.125
 40
0.125
 40
0.25
 40
0.25
 40
0.375
 40
0.375
 40
0.5
 40
0.5
 40
0.625
 40
0.625
 40
0.75
 40
0.75
 40
0.875
 40
0.875
 40
1.0
 40
1.0
 40
1.0
 40
1.0
 10
147.497546201232
 20
107.7301364805119
 30
0.0
 10
147.3175295066627
 20
107.6556626935353
 30
0.0
 10
147.1530976847925
 20
107.5582134315514
 30
0.0
 10
146.8547014510341
 20
107.3188439979872
 30
0.0
 10
146.7243977236693
 20
107.1789473859169
 30
0.0
 10
146.5111789400502
 20
106.8706957958569
 30
0.0
 10
146.4275510829387
 20
106.7005325777377
 30
0.0
 10
146.3164202060204
 20
106.3500378429475
 30
0.0
 10
146.2875842111666
 20
106.1649128817962
 30
0.0
 10
146.2875082685067
 20
105.8017060071792
 30
0.0
 10
146.3161668939339
 20
105.6183359934717
 30
0.0
 10
146.4273179870462
 20
105.2724448809785
 30
0.0
 10
146.5103851076899
 20
105.1069253537111
 30
0.0
 10
146.7240710658082
 20
104.8063856163072
 30
0.0
 10
146.8530780557323
 20
104.6725136950232
 30
0.0
 10
147.1526873352215
 20
104.4412669256189
 30
0.0
 10
147.3175300334826
 20
104.3480168089589
 30
0.0
 10
147.497546201232
 20
104.2770250037347
 30
0.0
  0
SPLINE
  5
A7
330
1F
100
AcDbEntity
  8
0
  6
Continuous
 62
     7
370
    15
100
AcDbSpline
210
0.0
220
0.0
230
1.0
 70
     8
 71
     3
 72
     8
 73
     4
 74
     0
 42
0.000000001
 43
0.00000001
 40
0.0
 40
0.0
 40
0.0
 40
0.0
 40
0.0011901715795577
 40
0.0011901715795577
 40
0.0011901715795577
 40
0.0011901715795577
 10
149.4523358049357
 20
85.6660558472293
 30
0.0
 10
149.6031413861202
 20
85.48085244341837
 30
0.0
 10
149.7555366537928
 20
85.29597708288973
 30
0.0
 10
149.9093828432887
 20
85.11141184520615
 30
0.0
  0
SPLINE
  5
A8
330
1F
100
AcDbEntity
  8
0
  6
Continuous
 62
     7
370
    15
100
AcDbSpline
210
0.0
220
0.0
230
1.0
 70
     8
 71
     3
 72
     8
 73
     4
 74
     0
 42
0.000000001
 43
0.00000001
 40
0.0
 40
0.0
 40
0.0
 40
0.0
 40
1.0
 40
1.0
 40
1.0
 40
1.0
 10
149.4523358049357
 20
85.6660558472293
 30
0.0
 10
149.0666672263093
 20
86.35785013807347
 30
0.0
 10
148.6816809498164
 20
87.05003631239717
 30
0.0
 10
148.297546201232
 20
87.74267773434136
 30
0.0
  0
LINE
  5
A9
330
1F
100
AcDbEntity
  8
0
  6
Continuous
 62
     7
370
    15
100
AcDbLine
 10
148.2975462012
 20
87.7426777343
 30
0.0
 11
148.2975462012
 21
103.7994981754
 31
0.0
  0
SPLINE
  5
AA
330
1F
100
AcDbEntity
  8
0
  6
Continuous
 62
     7
370
    15
100
AcDbSpline
210
0.0
220
0.0
230
1.0
 70
     8
 71
     3
 72
    12
 73
     8
 74
     0
 42
0.000000001
 43
0.00000001
 40
0.0
 40
0.0
 40
0.0
 40
0.0
 40
0.2500000000000015
 40
0.2500000000000015
 40
0.500000000000003
 40
0.500000000000003
 40
1.0
 40
1.0
 40
1.0
 40
1.0
 10
145.277546201232
 20
88.74164633755609
 30
0.0
 10
145.1711443508746
 20
88.7416463375561
 30
0.0
 10
145.063828939478
 20
88.71887557353759
 30
0.0
 10
144.8683573484508
 20
88.63263262688548
 30
0.0
 10
144.7781752325132
 20
88.56795630641496
 30
0.0
 10
144.5599537457925
 20
88.33502698235814
 30
0.0
 10
144.4775462012317
 20
88.12044174446713
 30
0.0
 10
144.477546201232
 20
87.9074247060344
 30
0.0
  0
SPLINE
  5
AB
330
1F
100
AcDbEntity
  8
0
  6
Continuous
 62
     7
370
    15
100
AcDbSpline
210
0.0
220
0.0
230
1.0
 70
    24
 71
     3
 72
    14
 73
    10
 74
     0
 42
0.000000001
 43
0.00000001
 40
0.0
 40
0.0
 40
0.0
 40
0.0
 40
0.1250000000000007
 40
0.1250000000000007
 40
0.2500000000000014
 40
0.2500000000000014
 40
0.499999999999999
 40
0.499999999999999
 40
1.0
 40
1.0
 40
1.0
 40
1.0
 10
145.277546201232
 20
133.9095041938428
 30
0.0
 10
145.2169288778144
 20
133.9095041938428
 30
0.0
 10
145.1548037296794
 20
133.9095041938428
 30
0.0
 10
145.038586066658
 20
133.9095041938428
 30
0.0
 10
144.9839694269656
 20
133.9095041938428
 30
0.0
 10
144.8292930884574
 20
133.9095041938428
 30
0.0
 10
144.7431763396734
 20
133.9095041938428
 30
0.0
 10
144.5418687591328
 20
133.9095041938428
 30
0.0
 10
144.477546201232
 20
133.9095041938428
 30
0.0
 10
144.477546201232
 20
133.9095041938428
 30
0.0
  0
SPLINE
  5
AC
330
1F
100
AcDbEntity
  8
0
  6
Continuous
 62
     7
370
    15
100
AcDbSpline
210
0.0
220
0.0
230
1.0
 70
    24
 71
     3
 72
    14
 73
    10
 74
     0
 42
0.000000001
 43
0.00000001
 40
0.0
 40
0.0
 40
0.0
 40
0.0
 40
0.25
 40
0.25
 40
0.5
 40
0.5
 40
0.75
 40
0.75
 40
1.0
 40
1.0
 40
1.0
 40
1.0
 10
148.297546201232
 20
133.9095041938428
 30
0.0
 10
148.297546201232
 20
133.9095041938428
 30
0.0
 10
148.2814645997722
 20
133.9095041938428
 30
0.0
 10
148.2159730865053
 20
133.9095041938428
 30
0.0
 10
148.166665113378
 20
133.9095041938428
 30
0.0
 10
148.032095591681
 20
133.9095041938428
 30
0.0
 10
147.9465725155958
 20
133.9095041938428
 30
0.0
 10
147.7395770200407
 20
133.9095041938428
 30
0.0
 10
147.6188833860971
 20
133.9095041938428
 30
0.0
 10
147.4975462012321
 20
133.9095041938428
 30
0.0
  0
LINE
  5
AD
330
1F
100
AcDbEntity
  8
0
  6
Continuous
 62
     7
370
    15
100
AcDbLine
 10
147.4975462012
 20
88.7416463376
 30
0.0
 11
145.2775462012
 21
88.7416463376
 31
0.0
  0
LINE
  5
AE
330
1F
100
AcDbEntity
  8
0
  6
Continuous
 62
     7
370
    15
100
AcDbLine
 10
147.4975462012
 20
133.9095041938
 30
0.0
 11
145.2775462012
 21
133.9095041938
 31
0.0
  0
SPLINE
  5
AF
330
1F
100
AcDbEntity
  8
0
  6
Continuous
 62
     7
370
    15
100
AcDbSpline
210
0.0
220
0.0
230
1.0
 70
     8
 71
     3
 72
    12
 73
     8
 74
     0
 42
0.000000001
 43
0.00000001
 40
0.0
 40
0.0
 40
0.0
 40
0.0
 40
0.5000000000000013
 40
0.5000000000000013
 40
0.7500000000000007
 40
0.7500000000000007
 40
1.0
 40
1.0
 40
1.0
 40
1.0
 10
148.297546201232
 20
87.90742470603577
 30
0.0
 10
148.297546201232
 20
88.12024726496864
 30
0.0
 10
148.2156208434123
 20
88.33450377160662
 30
0.0
 10
147.9966990399439
 20
88.5681934000565
 30
0.0
 10
147.9066517484528
 20
88.63267822490047
 30
0.0
 10
147.711238280433
 20
88.71887783605607
 30
0.0
 10
147.6039553134492
 20
88.7416463375561
 30
0.0
 10
147.497546201232
 20
88.7416463375561
 30
0.0
  0
LINE
  5
B0
330
1F
100
AcDbEntity
  8
0
  6
Continuous
 62
     7
370
    15
100
AcDbLine
 10
135.2875462012
 20
93.3345041938
 30
0.0
 11
135.2875462012
 21
137.7845041938
 31
0.0
  0
SPLINE
  5
B1
330
1F
100
AcDbEntity
  8
0
  6
Continuous
 62
     7
370
    15
100
AcDbSpline
210
0.0
220
0.0
230
1.0
 70
     8
 71
     3
 72
    12
 73
     8
 74
     0
 42
0.000000001
 43
0.00000001
 40
0.0
 40
0.0
 40
0.0
 40
0.0
 40
0.5
 40
0.5
 40
0.75
 40
0.75
 40
1.0
 40
1.0
 40
1.0
 40
1.0
 10
148.297546201232
 20
143.2115836816499
 30
0.0
 10
148.297546201232
 20
142.9984462799984
 30
0.0
 10
148.2149037860841
 20
142.7834667552607
 30
0.0
 10
147.9963203752737
 20
142.5505476863749
 30
0.0
 10
147.907230422293
 20
142.4866807765544
 30
0.0
 10
147.7118251043954
 20
142.4002946221727
 30
0.0
 10
147.6053010574522
 20
142.3773620501296
 30
0.0
 10
147.497546201232
 20
142.3773620501296
 30
0.0
  0
SPLINE
  5
B2
330
1F
100
AcDbEntity
  8
0
  6
Continuous
 62
     7
370
    15
100
AcDbSpline
210
0.0
220
0.0
230
1.0
 70
     8
 71
     3
 72
    12
 73
     8
 74
     0
 42
0.000000001
 43
0.00000001
 40
0.0
 40
0.0
 40
0.0
 40
0.0
 40
0.2500000000000015
 40
0.2500000000000015
 40
0.500000000000003
 40
0.500000000000003
 40
1.0
 40
1.0
 40
1.0
 40
1.0
 10
147.497546201232
 20
136.7084403372993
 30
0.0
 10
147.6196281987203
 20
136.7084403372993
 30
0.0
 10
147.740218741206
 20
136.747166693473
 30
0.0
 10
147.9457140249059
 20
136.8771302812193
 30
0.0
 10
148.0312305078583
 20
136.9663365177661
 30
0.0
 10
148.2346248594025
 20
137.2712130553117
 30
0.0
 10
148.297546201232
 20
137.5139836694138
 30
0.0
 10
148.297546201232
 20
137.7567450133681
 30
0.0
  0
LINE
  5
B3
330
1F
100
AcDbEntity
  8
0
  6
Continuous
 62
     7
370
    15
100
AcDbLine
 10
153.7375462012
 20
146.0558402731
 30
0.0
 11
149.9093828433
 21
146.0558402731
 31
0.0
  0
LINE
  5
B4
330
1F
100
AcDbEntity
  8
0
  6
Continuous
 62
     7
370
    15
100
AcDbLine
 10
149.9093828433
 20
141.4697338339
 30
0.0
 11
153.7375462012
 21
141.4697338339
 31
0.0
  0
LINE
  5
B5
330
1F
100
AcDbEntity
  8
0
  6
Continuous
 62
     7
370
    15
100
AcDbLine
 10
149.9093828433
 20
141.4697338339
 30
0.0
 11
149.9093828433
 21
146.0558402731
 31
0.0
  0
LINE
  5
B6
330
1F
100
AcDbEntity
  8
0
  6
Continuous
 62
     7
370
    15
100
AcDbLine
 10
147.4975462012
 20
142.3773620501
 30
0.0
 11
145.2775462012
 21
142.3773620501
 31
0.0
  0
LINE
  5
B7
330
1F
100
AcDbEntity
  8
0
  6
Continuous
 62
     7
370
    15
100
AcDbLine
 10
145.2775462012
 20
136.7084403373
 30
0.0
 11
147.4975462012
 21
136.7084403373
 31
0.0
  0
SPLINE
  5
B8
330
1F
100
AcDbEntity
  8
0
  6
Continuous
 62
     7
370
    15
100
AcDbSpline
210
0.0
220
0.0
230
1.0
 70
     8
 71
     3
 72
     8
 73
     4
 74
     0
 42
0.000000001
 43
0.00000001
 40
0.0
 40
0.0
 40
0.0
 40
0.0
 40
1.0
 40
1.0
 40
1.0
 40
1.0
 10
149.3515008875281
 20
145.2720423501073
 30
0.0
 10
148.9995568646198
 20
144.6404809620935
 30
0.0
 10
148.6481984415596
 20
144.0085990623947
 30
0.0
 10
148.297546201232
 20
143.3763306533443
 30
0.0
  0
SPLINE
  5
B9
330
1F
100
AcDbEntity
  8
0
  6
Continuous
 62
     7
370
    15
100
AcDbSpline
210
0.0
220
0.0
230
1.0
 70
     8
 71
     3
 72
     8
 73
     4
 74
     0
 42
0.000000001
 43
0.00000001
 40
0.0
 40
0.0
 40
0.0
 40
0.0
 40
0.0012409313617635
 40
0.0012409313617635
 40
0.0012409313617635
 40
0.0012409313617635
 10
149.9093828432887
 20
146.0558402730584
 30
0.0
 10
149.7227099150565
 20
145.7948283953598
 30
0.0
 10
149.536724727084
 20
145.5335698935845
 30
0.0
 10
149.3515008875281
 20
145.2720423501073
 30
0.0
  0
SPLINE
  5
BA
330
1F
100
AcDbEntity
  8
0
  6
Continuous
 62
     7
370
    15
100
AcDbSpline
210
0.0
220
0.0
230
1.0
 70
     8
 71
     3
 72
     8
 73
     4
 74
     0
 42
0.000000001
 43
0.00000001
 40
0.0
 40
0.0
 40
0.0
 40
0.0
 40
1.0
 40
1.0
 40
1.0
 40
1.0
 10
148.297546201232
 20
137.9616432497013
 30
0.0
 10
148.822337320728
 20
139.136620437406
 30
0.0
 10
149.3608535719108
 20
140.3055196051442
 30
0.0
 10
149.9093828432887
 20
141.4697338338904
 30
0.0
  0
LINE
  5
BB
330
1F
100
AcDbEntity
  8
0
  6
Continuous
 62
     7
370
    15
100
AcDbLine
 10
148.2975462012
 20
137.9616432497
 30
0.0
 11
148.2975462012
 21
143.3763306533
 31
0.0
  0
SPLINE
  5
BC
330
1F
100
AcDbEntity
  8
0
  6
Continuous
 62
     7
370
    15
100
AcDbSpline
210
0.0
220
0.0
230
1.0
 70
     8
 71
     3
 72
     8
 73
     4
 74
     0
 42
0.000000001
 43
0.00000001
 40
0.0
 40
0.0
 40
0.0
 40
0.0
 40
0.0012409313617635
 40
0.0012409313617635
 40
0.0012409313617635
 40
0.0012409313617635
 10
143.423591514936
 20
145.2720423501073
 30
0.0
 10
143.23836767538
 20
145.5335698935845
 30
0.0
 10
143.0523824874075
 20
145.7948283953598
 30
0.0
 10
142.8657095591753
 20
146.0558402730584
 30
0.0
  0
SPLINE
  5
BD
330
1F
100
AcDbEntity
  8
0
  6
Continuous
 62
     7
370
    15
100
AcDbSpline
210
0.0
220
0.0
230
1.0
 70
     8
 71
     3
 72
     8
 73
     4
 74
     0
 42
0.000000001
 43
0.00000001
 40
0.0
 40
0.0
 40
0.0
 40
0.0
 40
1.0
 40
1.0
 40
1.0
 40
1.0
 10
144.477546201232
 20
143.3763306533443
 30
0.0
 10
144.1268939609045
 20
144.0085990623947
 30
0.0
 10
143.7755355378443
 20
144.6404809620935
 30
0.0
 10
143.423591514936
 20
145.2720423501073
 30
0.0
  0
LINE
  5
BE
330
1F
100
AcDbEntity
  8
0
  6
Continuous
 62
     7
370
    15
100
AcDbLine
 10
144.4775462012
 20
137.9616432497
 30
0.0
 11
144.4775462012
 21
143.3763306533
 31
0.0
  0
SPLINE
  5
BF
330
1F
100
AcDbEntity
  8
0
  6
Continuous
 62
     7
370
    15
100
AcDbSpline
210
0.0
220
0.0
230
1.0
 70
     8
 71
     3
 72
     8
 73
     4
 74
     0
 42
0.000000001
 43
0.00000001
 40
0.0
 40
0.0
 40
0.0
 40
0.0
 40
1.0
 40
1.0
 40
1.0
 40
1.0
 10
142.8657095591753
 20
141.4697338338904
 30
0.0
 10
143.4146543373722
 20
140.3046377215767
 30
0.0
 10
143.9532647118889
 20
139.1354794047522
 30
0.0
 10
144.477546201232
 20
137.9616432497013
 30
0.0
  0
LINE
  5
C0
330
1F
100
AcDbEntity
  8
0
  6
Continuous
 62
     7
370
    15
100
AcDbLine
 10
142.8657095592
 20
141.4697338339
 30
0.0
 11
142.8657095592
 21
146.0558402731
 31
0.0
  0
SPLINE
  5
C1
330
1F
100
AcDbEntity
  8
0
  6
Continuous
 62
     7
370
    15
100
AcDbSpline
210
0.0
220
0.0
230
1.0
 70
     8
 71
     3
 72
    12
 73
     8
 74
     0
 42
0.000000001
 43
0.00000001
 40
0.0
 40
0.0
 40
0.0
 40
0.0
 40
0.5000000000000003
 40
0.5000000000000003
 40
0.7500000000000001
 40
0.7500000000000001
 40
1.0
 40
1.0
 40
1.0
 40
1.0
 10
138.487546201232
 20
140.7309165499265
 30
0.0
 10
138.487546201232
 20
140.9075329464482
 30
0.0
 10
138.5368868360539
 20
141.0825901178219
 30
0.0
 10
138.693102394342
 20
141.2965403303145
 30
0.0
 10
138.7584049742427
 20
141.3578729731615
 30
0.0
 10
138.912173992203
 20
141.4452610711328
 30
0.0
 10
138.9991870988135
 20
141.4697338338904
 30
0.0
 10
139.087546201232
 20
141.4697338338904
 30
0.0
  0
LINE
  5
C2
330
1F
100
AcDbEntity
  8
0
  6
Continuous
 62
     7
370
    15
100
AcDbLine
 10
139.0875462012
 20
141.4697338339
 30
0.0
 11
142.8657095592
 21
141.4697338339
 31
0.0
  0
LINE
  5
C3
330
1F
100
AcDbEntity
  8
0
  6
Continuous
 62
     7
370
    15
100
AcDbLine
 10
144.4775462012
 20
137.9616432497
 30
0.0
 11
144.4775462012
 21
137.7567450134
 31
0.0
  0
SPLINE
  5
C4
330
1F
100
AcDbEntity
  8
0
  6
Continuous
 62
     7
370
    15
100
AcDbSpline
210
0.0
220
0.0
230
1.0
 70
     8
 71
     3
 72
    14
 73
    10
 74
     0
 42
0.000000001
 43
0.00000001
 40
0.0
 40
0.0
 40
0.0
 40
0.0
 40
0.25
 40
0.25
 40
0.5
 40
0.5
 40
0.75
 40
0.75
 40
1.0
 40
1.0
 40
1.0
 40
1.0
 10
144.477546201232
 20
137.7567450133681
 30
0.0
 10
144.477546201232
 20
137.6348096781866
 30
0.0
 10
144.493590568772
 20
137.5152554376851
 30
0.0
 10
144.5593199109513
 20
137.2811394545419
 30
0.0
 10
144.6085272811996
 20
137.1692069144072
 30
0.0
 10
144.7435402620985
 20
136.9668071051703
 30
0.0
 10
144.8294603307048
 20
136.8769419116074
 30
0.0
 10
145.0359751327102
 20
136.7466074019972
 30
0.0
 10
145.1561138450813
 20
136.7084403372994
 30
0.0
 10
145.277546201232
 20
136.7084403372994
 30
0.0
  0
SPLINE
  5
C5
330
1F
100
AcDbEntity
  8
0
  6
Continuous
 62
     7
370
    15
100
AcDbSpline
210
0.0
220
0.0
230
1.0
 70
     8
 71
     3
 72
    14
 73
    10
 74
     0
 42
0.000000001
 43
0.00000001
 40
0.0
 40
0.0
 40
0.0
 40
0.0
 40
0.25
 40
0.25
 40
0.5
 40
0.5
 40
0.75
 40
0.75
 40
1.0
 40
1.0
 40
1.0
 40
1.0
 10
153.737546201232
 20
141.4697338338904
 30
0.0
 10
153.8259687393545
 20
141.4697338338904
 30
0.0
 10
153.9140227290476
 20
141.444661483431
 30
0.0
 10
154.0658524929189
 20
141.3583194184597
 30
0.0
 10
154.1316954374827
 20
141.2967761639468
 30
0.0
 10
154.2354944980282
 20
141.1549484176959
 30
0.0
 10
154.2739666075029
 20
141.0748998277258
 30
0.0
 10
154.3251892707775
 20
140.9058873310521
 30
0.0
 10
154.337546201232
 20
140.8191080241825
 30
0.0
 10
154.337546201232
 20
140.7309165499265
 30
0.0
  0
LINE
  5
C6
330
1F
100
AcDbEntity
  8
0
  6
Continuous
 62
     7
370
    15
100
AcDbLine
 10
148.2975462012
 20
137.7567450134
 30
0.0
 11
148.2975462012
 21
137.9616432497
 31
0.0
  0
LINE
  5
C7
330
1F
100
AcDbEntity
  8
0
  6
Continuous
 62
     7
370
    15
100
AcDbLine
 10
138.4875462012
 20
140.7309165499
 30
0.0
 11
138.4875462012
 21
133.9095041938
 31
0.0
  0
LINE
  5
C8
330
1F
100
AcDbEntity
  8
0
  6
Continuous
 62
     7
370
    15
100
AcDbLine
 10
154.3375462012
 20
140.7309165499
 30
0.0
 11
154.3375462012
 21
133.9095041938
 31
0.0
  0
SPLINE
  5
C9
330
1F
100
AcDbEntity
  8
0
  6
Continuous
 62
     7
370
    15
100
AcDbSpline
210
0.0
220
0.0
230
1.0
 70
     8
 71
     3
 72
    12
 73
     8
 74
     0
 42
0.000000001
 43
0.00000001
 40
0.0
 40
0.0
 40
0.0
 40
0.0
 40
0.4999999999999971
 40
0.4999999999999971
 40
0.7499999999999986
 40
0.7499999999999986
 40
1.0
 40
1.0
 40
1.0
 40
1.0
 10
154.337546201232
 20
145.570055327284
 30
0.0
 10
154.337546201232
 20
145.6903823603371
 30
0.0
 10
154.283751389639
 20
145.8084799338189
 30
0.0
 10
154.1228278196728
 20
145.948122676258
 30
0.0
 10
154.0580763585702
 20
145.9863986296524
 30
0.0
 10
153.9058561752526
 20
146.0412384592868
 30
0.0
 10
153.8230486597276
 20
146.0558402730584
 30
0.0
 10
153.737546201232
 20
146.0558402730584
 30
0.0
  0
LINE
  5
CA
330
1F
100
AcDbEntity
  8
0
  6
Continuous
 62
     7
370
    15
100
AcDbLine
 10
154.3375462012
 20
140.7309165499
 30
0.0
 11
154.3375462012
 21
145.5700553273
 31
0.0
  0
LINE
  5
CB
330
1F
100
AcDbEntity
  8
0
  6
Continuous
 62
     7
370
    15
100
AcDbLine
 10
142.8657095592
 20
146.0558402731
 30
0.0
 11
139.0875462012
 21
146.0558402731
 31
0.0
  0
SPLINE
  5
CC
330
1F
100
AcDbEntity
  8
0
  6
Continuous
 62
     7
370
    15
100
AcDbSpline
210
0.0
220
0.0
230
1.0
 70
     8
 71
     3
 72
    10
 73
     6
 74
     0
 42
0.000000001
 43
0.00000001
 40
0.0
 40
0.0
 40
0.0
 40
0.0
 40
0.5
 40
0.5
 40
1.0
 40
1.0
 40
1.0
 40
1.0
 10
138.7747878025396
 20
145.9848007487998
 30
0.0
 10
138.6989482085361
 20
145.9147515624712
 30
0.0
 10
138.6316246908101
 20
145.8295327888975
 30
0.0
 10
138.524981052505
 20
145.6193066622357
 30
0.0
 10
138.487546201232
 20
145.4957974713684
 30
0.0
 10
138.487546201232
 20
145.3658793508457
 30
0.0
  0
SPLINE
  5
CD
330
1F
100
AcDbEntity
  8
0
  6
Continuous
 62
     7
370
    15
100
AcDbSpline
210
0.0
220
0.0
230
1.0
 70
     8
 71
     3
 72
     8
 73
     4
 74
     0
 42
0.000000001
 43
0.00000001
 40
0.0
 40
0.0
 40
0.0
 40
0.0
 40
1.0
 40
1.0
 40
1.0
 40
1.0
 10
139.087546201232
 20
146.0558402730584
 30
0.0
 10
138.9753679470524
 20
146.0558402730584
 30
0.0
 10
138.8666984343239
 20
146.0301592077974
 30
0.0
 10
138.7747878025396
 20
145.9848007487998
 30
0.0
  0
LINE
  5
CE
330
1F
100
AcDbEntity
  8
0
  6
Continuous
 62
     7
370
    15
100
AcDbLine
 10
138.4875462012
 20
140.7309165499
 30
0.0
 11
138.4875462012
 21
145.3658793508
 31
0.0
  0
SPLINE
  5
CF
330
1F
100
AcDbEntity
  8
0
  6
Continuous
 62
     7
370
    15
100
AcDbSpline
210
0.0
220
0.0
230
1.0
 70
     8
 71
     3
 72
    14
 73
    10
 74
     0
 42
0.000000001
 43
0.00000001
 40
0.0
 40
0.0
 40
0.0
 40
0.0
 40
0.25
 40
0.25
 40
0.5
 40
0.5
 40
0.75
 40
0.75
 40
1.0
 40
1.0
 40
1.0
 40
1.0
 10
145.277546201232
 20
142.3773620501296
 30
0.0
 10
145.1701771567177
 20
142.3773620501296
 30
0.0
 10
145.0633716649548
 20
142.4002870455345
 30
0.0
 10
144.868230296438
 20
142.4864794794087
 30
0.0
 10
144.7790205788481
 20
142.5503234760727
 30
0.0
 10
144.6330937860317
 20
142.7057395840141
 30
0.0
 10
144.5751040422336
 20
142.7983941622218
 30
0.0
 10
144.4975102007111
 20
142.9976275022714
 30
0.0
 10
144.477546201232
 20
143.1042325973266
 30
0.0
 10
144.477546201232
 20
143.2115836816499
 30
0.0
  0
SPLINE
  5
D0
330
1F
100
AcDbEntity
  8
0
  6
Continuous
 62
     7
370
    15
100
AcDbSpline
210
0.0
220
0.0
230
1.0
 70
     8
 71
     3
 72
    42
 73
    38
 74
     0
 42
0.000000001
 43
0.00000001
 40
0.0
 40
0.0
 40
0.0
 40
0.0
 40
0.0312499999999997
 40
0.0312499999999997
 40
0.0624999999999995
 40
0.0624999999999995
 40
0.1249999999999995
 40
0.1249999999999995
 40
0.1874999999999996
 40
0.1874999999999996
 40
0.2499999999999997
 40
0.2499999999999997
 40
0.3124999999999996
 40
0.3124999999999996
 40
0.3749999999999996
 40
0.3749999999999996
 40
0.4374999999999997
 40
0.4374999999999997
 40
0.4999999999999997
 40
0.4999999999999997
 40
0.5624999999999997
 40
0.5624999999999997
 40
0.6249999999999997
 40
0.6249999999999997
 40
0.6874999999999997
 40
0.6874999999999997
 40
0.7499999999999997
 40
0.7499999999999997
 40
0.7812499999999998
 40
0.7812499999999998
 40
0.8124999999999999
 40
0.8124999999999999
 40
0.8749999999999999
 40
0.8749999999999999
 40
0.9374999999999999
 40
0.9374999999999999
 40
1.0
 40
1.0
 40
1.0
 40
1.0
 10
215.337546201232
 20
115.5595041938428
 30
0.0
 10
215.337546201232
 20
115.3985714228356
 30
0.0
 10
215.3277455474768
 20
115.2375000429556
 30
0.0
 10
215.288117004478
 20
114.9150742808627
 30
0.0
 10
215.258129401754
 20
114.7539046807838
 30
0.0
 10
215.1410701491976
 20
114.2835116698002
 30
0.0
 10
215.0267030350944
 20
113.9824418426945
 30
0.0
 10
214.7289219285835
 20
113.4048153243445
 30
0.0
 10
214.5506544913437
 20
113.1380411162972
 30
0.0
 10
214.1417136126993
 20
112.6431687493881
 30
0.0
 10
213.9096938206793
 20
112.4149129782922
 30
0.0
 10
213.4131296511838
 20
112.0110106912894
 30
0.0
 10
213.1465967536066
 20
111.8327334257511
 30
0.0
 10
212.578385029533
 20
111.5220776089241
 30
0.0
 10
212.2841378214784
 20
111.3937402205212
 30
0.0
 10
211.6765336567108
 20
111.1869703779921
 30
0.0
 10
211.3606960050705
 20
111.1082214305837
 30
0.0
 10
210.7208966529863
 20
111.0040305918723
 30
0.0
 10
210.4000264100598
 20
110.9786373410148
 30
0.0
 10
209.7563949352618
 20
110.9796473880876
 30
0.0
 10
209.4307709506209
 20
111.0066040922909
 30
0.0
 10
208.7921821182198
 20
111.1131721762766
 30
0.0
 10
208.4810888962509
 20
111.1919024847645
 30
0.0
 10
207.8750829698611
 20
111.4002115995631
 30
0.0
 10
207.5774011569241
 20
111.5313830258956
 30
0.0
 10
207.0142168381273
 20
111.8418665263626
 30
0.0
 10
206.7499200378021
 20
112.0197550424105
 30
0.0
 10
206.3800887778737
 20
112.3221838698791
 30
0.0
 10
206.2612784641994
 20
112.4289680987223
 30
0.0
 10
206.0331512279205
 20
112.6553700408569
 30
0.0
 10
205.9235596148794
 20
112.7754757699359
 30
0.0
 10
205.6179233901167
 20
113.1471666928002
 30
0.0
 10
205.4419394533971
 20
113.4124561506275
 30
0.0
 10
205.1493937972577
 20
113.9810661324785
 30
0.0
 10
205.0321673578312
 20
114.2893333934982
 30
0.0
 10
204.8773917065701
 20
114.9145762124328
 30
0.0
 10
204.837546201232
 20
115.2336203169691
 30
0.0
 10
204.837546201232
 20
115.5595041938428
 30
0.0
  0
SPLINE
  5
D1
330
1F
100
AcDbEntity
  8
0
  6
Continuous
 62
     7
370
    15
100
AcDbSpline
210
0.0
220
0.0
230
1.0
 70
     8
 71
     3
 72
    42
 73
    38
 74
     0
 42
0.000000001
 43
0.00000001
 40
0.0
 40
0.0
 40
0.0
 40
0.0
 40
0.0312499999999998
 40
0.0312499999999998
 40
0.0624999999999995
 40
0.0624999999999995
 40
0.1249999999999996
 40
0.1249999999999996
 40
0.1874999999999997
 40
0.1874999999999997
 40
0.2499999999999998
 40
0.2499999999999998
 40
0.3124999999999999
 40
0.3124999999999999
 40
0.375
 40
0.375
 40
0.5000000000000001
 40
0.5000000000000001
 40
0.5625000000000001
 40
0.5625000000000001
 40
0.6250000000000002
 40
0.6250000000000002
 40
0.6875000000000002
 40
0.6875000000000002
 40
0.7500000000000003
 40
0.7500000000000003
 40
0.8125000000000003
 40
0.8125000000000003
 40
0.8437500000000004
 40
0.8437500000000004
 40
0.8750000000000006
 40
0.8750000000000006
 40
0.9375000000000006
 40
0.9375000000000006
 40
0.9687500000000003
 40
0.9687500000000003
 40
1.0
 40
1.0
 40
1.0
 40
1.0
 10
204.837546201232
 20
115.5595041938428
 30
0.0
 10
204.837546201232
 20
115.7224486241957
 30
0.0
 10
204.8477631065701
 20
115.8862846520061
 30
0.0
 10
204.8875934510637
 20
116.2075363900173
 30
0.0
 10
204.9171838834641
 20
116.3661400538045
 30
0.0
 10
205.0342356134628
 20
116.8360553401598
 30
0.0
 10
205.1516711464189
 20
117.1437324241945
 30
0.0
 10
205.4474339012417
 20
117.7158314301296
 30
0.0
 10
205.6276481918412
 20
117.9856914374945
 30
0.0
 10
206.0401909963076
 20
118.4832233381983
 30
0.0
 10
206.2696575294763
 20
118.7082894116566
 30
0.0
 10
206.7717599426342
 20
119.1152161343259
 30
0.0
 10
207.0395168286016
 20
119.2928280899984
 30
0.0
 10
207.5997585425627
 20
119.5980579356372
 30
0.0
 10
207.8932297104516
 20
119.7263861520277
 30
0.0
 10
208.8142893041351
 20
120.0387854225748
 30
0.0
 10
209.4514150467563
 20
120.1413783916001
 30
0.0
 10
210.4264951557355
 20
120.1390963896581
 30
0.0
 10
210.7471073278195
 20
120.1119304533717
 30
0.0
 10
211.379805175507
 20
120.0063633226787
 30
0.0
 10
211.6933066892374
 20
119.9274864832379
 30
0.0
 10
212.3051847450997
 20
119.7168757289178
 30
0.0
 10
212.5976073685902
 20
119.5874721034091
 30
0.0
 10
213.1557507819382
 20
119.2801648000268
 30
0.0
 10
213.4230147716918
 20
119.1010655268808
 30
0.0
 10
213.9213447719002
 20
118.6934613777169
 30
0.0
 10
214.1473519168308
 20
118.469555365864
 30
0.0
 10
214.4504780135
 20
118.1019180538864
 30
0.0
 10
214.545494608196
 20
117.9740370443916
 30
0.0
 10
214.7226449041003
 20
117.706767505246
 30
0.0
 10
214.8052549311857
 20
117.5663631254642
 30
0.0
 10
215.0269766369885
 20
117.1355523458362
 30
0.0
 10
215.1411663076757
 20
116.8353709895905
 30
0.0
 10
215.2583667955201
 20
116.3640189445773
 30
0.0
 10
215.2883213624791
 20
116.2025491823719
 30
0.0
 10
215.3277446991119
 20
115.8812360376413
 30
0.0
 10
215.337546201232
 20
115.7204394260393
 30
0.0
 10
215.337546201232
 20
115.5595041938428
 30
0.0
  0
LINE
  5
D2
330
1F
100
AcDbEntity
  8
0
  6
Continuous
 62
     7
370
    15
100
AcDbLine
 10
219.3875462012
 20
99.8595041938
 30
0.0
 11
219.3875462012
 21
131.2595041938
 31
0.0
  0
LINE
  5
D3
330
1F
100
AcDbEntity
  8
0
  6
Continuous
 62
     7
370
    15
100
AcDbLine
 10
219.0875462012
 20
99.5595041938
 30
0.0
 11
219.0875462012
 21
131.5595041938
 31
0.0
  0
LINE
  5
D4
330
1F
100
AcDbEntity
  8
0
  6
Continuous
 62
     7
370
    15
100
AcDbLine
 10
67.0375462012
 20
104.1523735968
 30
0.0
 11
67.0375462012
 21
126.9666347909
 31
0.0
  0
SPLINE
  5
D5
330
1F
100
AcDbEntity
  8
0
  6
Continuous
 62
     7
370
    15
100
AcDbSpline
210
0.0
220
0.0
230
1.0
 70
    24
 71
     3
 72
    11
 73
     7
 74
     0
 42
0.000000001
 43
0.00000001
 40
0.0
 40
0.0
 40
0.0
 40
0.0
 40
0.1323877169514958
 40
0.4819434960836159
 40
0.815486644148086
 40
1.0
 40
1.0
 40
1.0
 40
1.0
 10
212.3499004338064
 20
116.0232785567461
 30
0.0
 10
212.3196335047255
 20
115.9323726720009
 30
0.0
 10
212.2094499472714
 20
115.6014394032845
 30
0.0
 10
212.0034182712297
 20
114.9826289601752
 30
0.0
 10
211.7816875514437
 20
114.3166668731896
 30
0.0
 10
211.6627315919
 20
113.9593859373161
 30
0.0
 10
211.6203636974174
 20
113.8321351375258
 30
0.0
  0
SPLINE
  5
D6
330
1F
100
AcDbEntity
  8
0
  6
Continuous
 62
     7
370
    15
100
AcDbSpline
210
0.0
220
0.0
230
1.0
 70
    24
 71
     3
 72
    10
 73
     6
 74
     0
 42
0.000000001
 43
0.00000001
 40
0.0
 40
0.0
 40
0.0
 40
0.0
 40
0.4391222274230469
 40
0.7513714712594597
 40
1.0
 40
1.0
 40
1.0
 40
1.0
 10
210.817082937621
 20
117.7506476130631
 30
0.0
 10
211.0365206687579
 20
117.5033579340911
 30
0.0
 10
211.4119952874347
 20
117.0802265180231
 30
0.0
 10
211.9578094645172
 20
116.4651353396293
 30
0.0
 10
212.2294751811948
 20
116.1589886823665
 30
0.0
 10
212.3499004338064
 20
116.0232785567461
 30
0.0
  0
SPLINE
  5
D7
330
1F
100
AcDbEntity
  8
0
  6
Continuous
 62
     7
370
    15
100
AcDbSpline
210
0.0
220
0.0
230
1.0
 70
    24
 71
     3
 72
    10
 73
     6
 74
     0
 42
0.000000001
 43
0.00000001
 40
0.0
 40
0.0
 40
0.0
 40
0.0
 40
0.439122227423048
 40
0.751371471259462
 40
1.0
 40
1.0
 40
1.0
 40
1.0
 10
208.5547287050467
 20
117.2868732501598
 30
0.0
 10
208.8786067146986
 20
117.3532670603872
 30
0.0
 10
209.4327865794912
 20
117.4668719106036
 30
0.0
 10
210.2383782541651
 20
117.6320152645057
 30
0.0
 10
210.6393418949772
 20
117.7142113478545
 30
0.0
 10
210.8170829376211
 20
117.7506476130631
 30
0.0
  0
SPLINE
  5
D8
330
1F
100
AcDbEntity
  8
0
  6
Continuous
 62
     7
370
    15
100
AcDbSpline
210
0.0
220
0.0
230
1.0
 70
    24
 71
     3
 72
    11
 73
     7
 74
     0
 42
0.000000001
 43
0.00000001
 40
0.0
 40
0.0
 40
0.0
 40
0.0
 40
0.1845133558519156
 40
0.5180565039163909
 40
0.8676122830485042
 40
1.0
 40
1.0
 40
1.0
 40
1.0
 10
207.8251919686577
 20
115.0957298309396
 30
0.0
 10
207.8675598631404
 20
115.2229806307299
 30
0.0
 10
207.986515822684
 20
115.5802615666033
 30
0.0
 10
208.2082465424701
 20
116.2462236535889
 30
0.0
 10
208.4142782185118
 20
116.8650340966982
 30
0.0
 10
208.5244617759658
 20
117.1959673654147
 30
0.0
 10
208.5547287050467
 20
117.2868732501598
 30
0.0
  0
SPLINE
  5
D9
330
1F
100
AcDbEntity
  8
0
  6
Continuous
 62
     7
370
    15
100
AcDbSpline
210
0.0
220
0.0
230
1.0
 70
    24
 71
     3
 72
    10
 73
     6
 74
     0
 42
0.000000001
 43
0.00000001
 40
0.0
 40
0.0
 40
0.0
 40
0.0
 40
0.4391222274230474
 40
0.7513714712594606
 40
1.0
 40
1.0
 40
1.0
 40
1.0
 10
209.358009464843
 20
113.3683607746226
 30
0.0
 10
209.1385717337062
 20
113.6156504535946
 30
0.0
 10
208.7630971150293
 20
114.0387818696626
 30
0.0
 10
208.2172829379469
 20
114.6538730480564
 30
0.0
 10
207.9456172212693
 20
114.9600197053192
 30
0.0
 10
207.8251919686577
 20
115.0957298309396
 30
0.0
  0
SPLINE
  5
DA
330
1F
100
AcDbEntity
  8
0
  6
Continuous
 62
     7
370
    15
100
AcDbSpline
210
0.0
220
0.0
230
1.0
 70
    24
 71
     3
 72
    10
 73
     6
 74
     0
 42
0.000000001
 43
0.00000001
 40
0.0
 40
0.0
 40
0.0
 40
0.0
 40
0.4391222274230477
 40
0.7513714712594629
 40
1.0
 40
1.0
 40
1.0
 40
1.0
 10
211.6203636974174
 20
113.8321351375258
 30
0.0
 10
211.2964856877655
 20
113.7657413272984
 30
0.0
 10
210.7423058229728
 20
113.6521364770821
 30
0.0
 10
209.936714148299
 20
113.4869931231799
 30
0.0
 10
209.5357505074869
 20
113.4047970398312
 30
0.0
 10
209.358009464843
 20
113.3683607746226
 30
0.0
  0
CIRCLE
  5
DB
330
1F
100
AcDbEntity
  8
0
  6
Continuous
 62
     7
370
    15
100
AcDbCircle
 10
210.0875462012
 20
115.5595041938
 30
0.0
 40
2.349999999999988
  0
CIRCLE
  5
DC
330
1F
100
AcDbEntity
  8
0
  6
Continuous
 62
     7
370
    15
100
AcDbCircle
 10
210.0875462012
 20
115.5595041938
 30
0.0
 40
3.499999999999972
  0
CIRCLE
  5
DD
330
1F
100
AcDbEntity
  8
0
  6
Continuous
 62
     7
370
    15
100
AcDbCircle
 10
210.0875462012
 20
115.5595041938
 30
0.0
 40
3.999999999999975
  0
ARC
  5
DE
330
1F
100
AcDbEntity
  8
0
  6
Continuous
 62
     7
370
    15
100
AcDbCircle
 10
210.0875462012
 20
115.5595041938
 30
0.0
 40
2.000000000000005
100
AcDbArc
 50
221.5849255978
 51
281.5849255978
  0
ARC
  5
DF
330
1F
100
AcDbEntity
  8
0
  6
Continuous
 62
     7
370
    15
100
AcDbCircle
 10
210.0875462012
 20
115.5595041938
 30
0.0
 40
2.000000000000025
100
AcDbArc
 50
161.5849255978
 51
221.5849255978
  0
ARC
  5
E0
330
1F
100
AcDbEntity
  8
0
  6
Continuous
 62
     7
370
    15
100
AcDbCircle
 10
210.0875462012
 20
115.5595041938
 30
0.0
 40
2.000000000000003
100
AcDbArc
 50
281.5849255978
 51
341.5849255978
  0
ARC
  5
E1
330
1F
100
AcDbEntity
  8
0
  6
Continuous
 62
     7
370
    15
100
AcDbCircle
 10
210.0875462012
 20
115.5595041938
 30
0.0
 40
2.000000000000025
100
AcDbArc
 50
101.5849255978
 51
161.5849255978
  0
ARC
  5
E2
330
1F
100
AcDbEntity
  8
0
  6
Continuous
 62
     7
370
    15
100
AcDbCircle
 10
210.0875462012
 20
115.5595041938
 30
0.0
 40
1.999999999999992
100
AcDbArc
 50
41.5849255978
 51
101.5849255978
  0
ARC
  5
E3
330
1F
100
AcDbEntity
  8
0
  6
Continuous
 62
     7
370
    15
100
AcDbCircle
 10
210.0875462012
 20
115.5595041938
 30
0.0
 40
2.000000000000003
100
AcDbArc
 50
341.5849255978
 51
41.5849255978
  0
ARC
  5
E4
330
1F
100
AcDbEntity
  8
0
  6
Continuous
 62
     7
370
    15
100
AcDbCircle
 10
148.1826654612
 20
106.332571492
 30
0.0
 40
1.898361128509226
100
AcDbArc
 50
185.6273960531
 51
252.2367842804
  0
ARC
  5
E5
330
1F
100
AcDbEntity
  8
0
  6
Continuous
 62
     7
370
    15
100
AcDbCircle
 10
148.2896992244
 20
106.455294601
 30
0.0
 40
2.048902933347345
100
AcDbArc
 50
250.433076427
 51
331.8513020274
  0
ARC
  5
E6
330
1F
100
AcDbEntity
  8
0
  6
Continuous
 62
     7
370
    15
100
AcDbCircle
 10
148.1533239493
 20
106.2612529095
 30
0.0
 40
1.759676195915538
100
AcDbArc
 50
161.3531172159
 51
252.9613005726
  0
ARC
  5
E7
330
1F
100
AcDbEntity
  8
0
  6
Continuous
 62
     7
370
    15
100
AcDbCircle
 10
148.2909121505
 20
106.4036798046
 30
0.0
 40
1.938249387525049
100
AcDbArc
 50
250.3053519602
 51
335.246514553
  0
ARC
  5
E8
330
1F
100
AcDbEntity
  8
0
  6
Continuous
 62
     7
370
    15
100
AcDbCircle
 10
148.2034064719
 20
106.2662664922
 30
0.0
 40
1.401482373669633
100
AcDbArc
 50
87.1599884964
 51
252.1800799041
  0
ARC
  5
E9
330
1F
100
AcDbEntity
  8
0
  6
Continuous
 62
     7
370
    15
100
AcDbCircle
 10
148.3036169743
 20
106.3285977626
 30
0.0
 40
1.493442006368244
100
AcDbArc
 50
249.250497669
 51
349.8549695379
  0
SPLINE
  5
EA
330
1F
100
AcDbEntity
  8
0
  6
HIDDEN
 62
     7
370
     0
100
AcDbSpline
210
0.0
220
0.0
230
1.0
 70
     8
 71
     3
 72
     9
 73
     5
 74
     0
 42
0.000000001
 43
0.00000001
 40
0.0
 40
0.0
 40
0.0
 40
0.0
 40
0.9333108121103909
 40
1.0
 40
1.0
 40
1.0
 40
1.0
 10
146.3116554385917
 20
107.8129650243742
 30
0.0
 10
146.2970797552713
 20
107.7119955705511
 30
0.0
 10
146.281462574873
 20
107.6038114024123
 30
0.0
 10
146.2884921921409
 20
107.5113276999133
 30
0.0
 10
146.2889609916077
 20
107.5051600369006
 30
0.0
  0
LWPOLYLINE
  5
EB
330
1F
100
AcDbEntity
  8
0
  6
HIDDEN
 62
     7
370
     0
100
AcDbPolyline
 90
       21
 70
   128
 43
0.0
 10
146.3116554386
 20
107.231096627
 10
146.4901850421
 20
106.6977254831
 10
146.8278011159
 20
106.237314538
 10
147.2946208794
 20
105.8906152856
 10
147.8493255869
 20
105.688314469
 10
148.4428176969
 20
105.6483179624
 10
149.0225665511
 20
105.7741659021
 10
149.5372579222
 20
106.0547193443
 10
149.9413358946
 20
106.4651461863
 10
150.1990350695
 20
106.969119084
 10
150.2875462012
 20
107.5220308257
 10
150.1990350695
 20
108.0749425674
 10
149.9413358946
 20
108.578915465
 10
149.5372579222
 20
108.9893423071
 10
149.0225665511
 20
109.2698957493
 10
148.4428176969
 20
109.3957436889
 10
147.8493255869
 20
109.3557471824
 10
147.2946208794
 20
109.1534463658
 10
146.8278011159
 20
108.8067471133
 10
146.4901850421
 20
108.3463361683
 10
146.3116554386
 20
107.8129650244
  0
LWPOLYLINE
  5
EC
330
1F
100
AcDbEntity
  8
0
  6
HIDDEN
 62
     7
370
     0
100
AcDbPolyline
 90
       22
 70
   128
 43
0.0
 10
138.7377578484
 20
106.661319641
 10
138.8904803082
 20
106.0543613127
 10
139.1321972273
 20
105.5013338955
 10
139.4414309967
 20
105.0513763022
 10
139.7907048389
 20
104.7444692397
 10
140.1489842403
 20
104.6078827474
 10
140.4844345039
 20
104.6537531344
 10
140.7672494015
 20
104.8780046156
 10
140.9722995884
 20
105.2607114627
 10
141.0813654557
 20
105.767868493
 10
141.0847560224
 20
106.3544125786
 10
140.9821700218
 20
106.9682267035
 10
140.7827226702
 20
107.5547707891
 10
140.5041357401
 20
108.0619278194
 10
140.1711629028
 20
108.4446346665
 10
139.8133902561
 20
108.6688861477
 10
139.4626074698
 20
108.7147565347
 10
139.1499831337
 20
108.5781700423
 10
138.903295292
 20
108.2712629798
 10
138.7444632422
 20
107.8213053866
 10
138.6875999087
 20
107.2682779693
 10
138.7377578484
 20
106.661319641
  0
LWPOLYLINE
  5
ED
330
1F
100
AcDbEntity
  8
0
  6
HIDDEN
 62
     7
370
     0
100
AcDbPolyline
 90
       20
 70
   128
 43
0.0
 10
139.1192737387
 20
106.6934504284
 10
139.2562148181
 20
106.168106563
 10
139.4765982156
 20
105.699691857
 10
139.7565419705
 20
105.3389663119
 10
140.0657098334
 20
105.1250201379
 10
140.3705986688
 20
105.0810377225
 10
140.6381690409
 20
105.211785243
 10
140.8394255478
 20
105.5030941767
 10
140.9525589243
 20
105.9233966806
 10
140.9653094136
 20
106.4271464566
 10
140.8762953023
 20
106.9597544002
 10
140.6951626506
 20
107.4635041762
 10
140.4415399919
 20
107.8838066801
 10
140.1429112766
 20
108.1751156138
 10
139.8316375596
 20
108.3058631343
 10
139.5414501782
 20
108.2618807189
 10
139.3037954378
 20
108.0479345449
 10
139.1444269172
 20
107.6872089998
 10
139.0806146684
 20
107.2187942938
 10
139.1192737387
 20
106.6934504284
  0
ELLIPSE
  5
EE
330
1F
100
AcDbEntity
  8
0
  6
HIDDEN
 62
     7
370
     0
100
AcDbEllipse
 10
148.2875462012
 20
108.6719141333
 30
0.0
 11
1.383467579512114
 21
-1.091267719176599
 31
0.0
210
0.0
220
0.0
230
1.0
 40
0.8239737799
 41
2.147131942757433
 42
5.288724596347239
  0
ELLIPSE
  5
EF
330
1F
100
AcDbEntity
  8
0
  6
HIDDEN
 62
     7
370
     0
100
AcDbEllipse
 10
148.2875462012
 20
108.6719141333
 30
0.0
 11
1.383467579512114
 21
1.753907414218489
 31
0.0
210
0.0
220
0.0
230
1.0
 40
0.5126701559
 41
0.9944607108323698
 42
4.136053364422176
  0
SPLINE
  5
F0
330
1F
100
AcDbEntity
  8
0
  6
HIDDEN
 62
     7
370
     0
100
AcDbSpline
210
0.0
220
0.0
230
1.0
 70
     8
 71
     3
 72
    14
 73
    10
 74
     0
 42
0.000000001
 43
0.00000001
 40
0.0
 40
0.0
 40
0.0
 40
0.0
 40
0.25
 40
0.25
 40
0.5
 40
0.5
 40
0.75
 40
0.75
 40
1.0
 40
1.0
 40
1.0
 40
1.0
 10
146.3116554385916
 20
107.231096627005
 30
0.0
 10
146.3480192666219
 20
107.2765912624069
 30
0.0
 10
146.3804969938321
 20
107.3249830686231
 30
0.0
 10
146.4292506232478
 20
107.4304682125527
 30
0.0
 10
146.4441544009223
 20
107.4870527207956
 30
0.0
 10
146.4441648345799
 20
107.5959403147461
 30
0.0
 10
146.4292745387718
 20
107.6481249805087
 30
0.0
 10
146.3803856078942
 20
107.7394023794522
 30
0.0
 10
146.3480134296238
 20
107.7780690848264
 30
0.0
 10
146.3116554385917
 20
107.8129650243742
 30
0.0
  0
LWPOLYLINE
  5
F1
330
1F
100
AcDbEntity
  8
0
  6
HIDDEN
 62
     7
370
     0
100
AcDbPolyline
 90
       20
 70
   128
 43
0.0
 10
148.2875462012
 20
106.0151078045
 10
148.8233003254
 20
106.0991177824
 10
149.3009971772
 20
106.3420439316
 10
149.6688708904
 20
106.7175614343
 10
149.88705664
 20
107.1849771425
 10
149.9319106147
 20
107.6936393114
 10
149.7985721902
 20
108.1884265023
 10
149.5014906538
 20
108.6157208456
 10
149.0728593997
 20
108.9292183692
 10
148.5591272752
 20
109.0949467519
 10
148.0159651273
 20
109.0949467519
 10
147.5022330027
 20
108.9292183692
 10
147.0736017486
 20
108.6157208456
 10
146.7765202123
 20
108.1884265023
 10
146.6431817878
 20
107.6936393114
 10
146.6880357624
 20
107.1849771425
 10
146.9062215121
 20
106.7175614343
 10
147.2740952253
 20
106.3420439316
 10
147.751792077
 20
106.0991177824
 10
148.2875462012
 20
106.0151078045
  0
SPLINE
  5
F2
330
1F
100
AcDbEntity
  8
0
  6
HIDDEN
 62
     7
370
     0
100
AcDbSpline
210
0.0
220
0.0
230
1.0
 70
    11
 71
     3
 72
    60
 73
    56
 74
     0
 42
0.000000001
 43
0.00000001
 40
0.0
 40
0.0
 40
0.0
 40
0.0
 40
0.0312500000000003
 40
0.0312500000000003
 40
0.0625000000000006
 40
0.0625000000000006
 40
0.1250000000000007
 40
0.1250000000000007
 40
0.1875000000000009
 40
0.1875000000000009
 40
0.218750000000001
 40
0.218750000000001
 40
0.2500000000000011
 40
0.2500000000000011
 40
0.2812500000000012
 40
0.2812500000000012
 40
0.3125000000000014
 40
0.3125000000000014
 40
0.3437500000000015
 40
0.3437500000000015
 40
0.3750000000000017
 40
0.3750000000000017
 40
0.4062500000000018
 40
0.4062500000000018
 40
0.4375000000000019
 40
0.4375000000000019
 40
0.5000000000000017
 40
0.5000000000000017
 40
0.5312500000000017
 40
0.5312500000000017
 40
0.5625000000000014
 40
0.5625000000000014
 40
0.5937500000000013
 40
0.5937500000000013
 40
0.6250000000000012
 40
0.6250000000000012
 40
0.6562500000000011
 40
0.6562500000000011
 40
0.6875000000000009
 40
0.6875000000000009
 40
0.7187500000000008
 40
0.7187500000000008
 40
0.7500000000000007
 40
0.7500000000000007
 40
0.8125000000000004
 40
0.8125000000000004
 40
0.8437500000000004
 40
0.8437500000000004
 40
0.8750000000000004
 40
0.8750000000000004
 40
0.9062500000000004
 40
0.9062500000000004
 40
0.9375000000000003
 40
0.9375000000000003
 40
1.0
 40
1.0
 40
1.0
 40
1.0
 10
148.287546201232
 20
112.6694446032827
 30
0.0
 10
148.1773532902617
 20
112.6694446032827
 30
0.0
 10
148.0692440869743
 20
112.6781198723733
 30
0.0
 10
147.8569389324879
 20
112.7121361699167
 30
0.0
 10
147.7516302690289
 20
112.7379402150138
 30
0.0
 10
147.4528323084203
 20
112.8387577671263
 30
0.0
 10
147.2714101040343
 20
112.9385937839321
 30
0.0
 10
146.9702042033774
 20
113.1922296990515
 30
0.0
 10
146.8476497245852
 20
113.3489385014443
 30
0.0
 10
146.723516273966
 20
113.6129815757708
 30
0.0
 10
146.6912131571301
 20
113.7076043344198
 30
0.0
 10
146.6483634952981
 20
113.9026921306682
 30
0.0
 10
146.6376183277856
 20
114.0025829543879
 30
0.0
 10
146.6374747914326
 20
114.2072104891675
 30
0.0
 10
146.648457912469
 20
114.312504527515
 30
0.0
 10
146.6911295719962
 20
114.517907964244
 30
0.0
 10
146.7226924661036
 20
114.6192489515932
 30
0.0
 10
146.8066575615913
 20
114.8188466329113
 30
0.0
 10
146.857692114592
 20
114.9138581829351
 30
0.0
 10
146.9769254453708
 20
115.0943430938804
 30
0.0
 10
147.0459845027053
 20
115.1806025020497
 30
0.0
 10
147.1972830265597
 20
115.3373424401895
 30
0.0
 10
147.2795157313147
 20
115.4082328003825
 30
0.0
 10
147.4576282484628
 20
115.5343856650387
 30
0.0
 10
147.5537631326672
 20
115.5894312631564
 30
0.0
 10
147.851009817786
 20
115.7220960367139
 30
0.0
 10
148.070067558565
 20
115.7703575524827
 30
0.0
 10
148.3955212334529
 20
115.7704664736787
 30
0.0
 10
148.5053578346459
 20
115.7587027487188
 30
0.0
 10
148.7192901316283
 20
115.7122966864904
 30
0.0
 10
148.8225297925718
 20
115.6781576435795
 30
0.0
 10
149.0219588491343
 20
115.589150493546
 30
0.0
 10
149.1180513564078
 20
115.5339986228302
 30
0.0
 10
149.2955954059738
 20
115.4081905729899
 30
0.0
 10
149.378291973087
 20
115.3369791771532
 30
0.0
 10
149.5307665314521
 20
115.1787455951413
 30
0.0
 10
149.5984434524939
 20
115.0939543124792
 30
0.0
 10
149.7174211167626
 20
114.9137968265837
 30
0.0
 10
149.7691653999628
 20
114.8172503682235
 30
0.0
 10
149.852342106619
 20
114.6192448979631
 30
0.0
 10
149.883853143568
 20
114.5183116419477
 30
0.0
 10
149.9265887510198
 20
114.3128485531104
 30
0.0
 10
149.93759445544
 20
114.2074361625137
 30
0.0
 10
149.9374492024364
 20
113.9008130207732
 30
0.0
 10
149.8930963138521
 20
113.7011685481193
 30
0.0
 10
149.7685111055705
 20
113.4363600559479
 30
0.0
 10
149.7167272919044
 20
113.3522598838344
 30
0.0
 10
149.5967696135742
 20
113.1981743111909
 30
0.0
 10
149.5289185515785
 20
113.1281279730144
 30
0.0
 10
149.3773928128233
 20
113.0007951210518
 30
0.0
 10
149.2934235395604
 20
112.9436311262966
 30
0.0
 10
149.1159322712214
 20
112.8459505490794
 30
0.0
 10
149.0216507362672
 20
112.804702540604
 30
0.0
 10
148.7207656290377
 20
112.7035092936716
 30
0.0
 10
148.5079320231726
 20
112.6694446032827
 30
0.0
 10
148.287546201232
 20
112.6694446032826
 30
0.0
  0
ELLIPSE
  5
F3
330
1F
100
AcDbEntity
  8
0
  6
HIDDEN
 62
     7
370
     0
100
AcDbEllipse
 10
148.2875462012
 20
108.6719141333
 30
0.0
 11
1.383467579512114
 21
-1.091267719176599
 31
0.0
210
0.0
220
0.0
230
1.0
 40
0.8239737799
 41
5.288724596347236
 42
5.331125843580063
  0
SPLINE
  5
F4
330
1F
100
AcDbEntity
  8
0
  6
HIDDEN
 62
     7
370
     0
100
AcDbSpline
210
0.0
220
0.0
230
1.0
 70
     8
 71
     3
 72
     8
 73
     4
 74
     0
 42
0.000000001
 43
0.00000001
 40
0.0
 40
0.0
 40
0.0
 40
0.0
 40
1.0
 40
1.0
 40
1.0
 40
1.0
 10
148.3574872973372
 20
107.1103622674946
 30
0.0
 10
148.3405025712681
 20
107.1174779775319
 30
0.0
 10
148.3234984267603
 20
107.1253531070382
 30
0.0
 10
148.3064995427142
 20
107.133976226474
 30
0.0
  0
ELLIPSE
  5
F5
330
1F
100
AcDbEntity
  8
0
  6
HIDDEN
 62
     7
370
     0
100
AcDbEllipse
 10
148.2875462012
 20
108.6719141333
 30
0.0
 11
1.383467579512114
 21
1.753907414218489
 31
0.0
210
0.0
220
0.0
230
1.0
 40
0.5126701559
 41
4.136053364422173
 42
4.147540490633556
  0
ELLIPSE
  5
F6
330
1F
100
AcDbEntity
  8
0
  6
HIDDEN
 62
     7
370
     0
100
AcDbEllipse
 10
148.2875462012
 20
108.6719141333
 30
0.0
 11
1.383467579512114
 21
1.753907414218489
 31
0.0
210
0.0
220
0.0
230
1.0
 40
0.5126701559
 41
0.9829735846209307
 42
0.9944607108323662
  0
SPLINE
  5
F7
330
1F
100
AcDbEntity
  8
0
  6
HIDDEN
 62
     7
370
     0
100
AcDbSpline
210
0.0
220
0.0
230
1.0
 70
     8
 71
     3
 72
     8
 73
     4
 74
     0
 42
0.000000001
 43
0.00000001
 40
0.0
 40
0.0
 40
0.0
 40
0.0
 40
1.0
 40
1.0
 40
1.0
 40
1.0
 10
148.306499542714
 20
110.2347572834824
 30
0.0
 10
148.3234984267602
 20
110.2267740099831
 30
0.0
 10
148.3405025712682
 20
110.2180376075524
 30
0.0
 10
148.3574872973374
 20
110.2085607557348
 30
0.0
  0
ELLIPSE
  5
F8
330
1F
100
AcDbEntity
  8
0
  6
HIDDEN
 62
     7
370
     0
100
AcDbEllipse
 10
148.2875462012
 20
108.6719141333
 30
0.0
 11
1.383467579512114
 21
-1.091267719176599
 31
0.0
210
0.0
220
0.0
230
1.0
 40
0.8239737799
 41
2.104730695524568
 42
2.147131942757429
  0
LINE
  5
F9
330
1F
100
AcDbEntity
  8
0
  6
HIDDEN
 62
     7
370
     0
100
AcDbLine
 10
218.9375462012
 20
126.3594783242
 30
0.0
 11
218.9375462012
 21
128.0944760796
 31
0.0
  0
LINE
  5
FA
330
1F
100
AcDbEntity
  8
0
  6
HIDDEN
 62
     7
370
     0
100
AcDbLine
 10
218.9375462012
 20
107.3779377503
 30
0.0
 11
218.9375462012
 21
123.7410706374
 31
0.0
  0
LINE
  5
FB
330
1F
100
AcDbEntity
  8
0
  6
HIDDEN
 62
     7
370
     0
100
AcDbLine
 10
218.9375462012
 20
103.0245323081
 30
0.0
 11
218.9375462012
 21
104.7595300634
 31
0.0
  0
LINE
  5
FC
330
1F
100
AcDbEntity
  8
0
  6
HIDDEN
 62
     7
370
     0
100
AcDbLine
 10
216.0375462012
 20
111.1951600278
 30
0.0
 11
216.0375462012
 21
119.9238483599
 31
0.0
  0
LINE
  5
FD
330
1F
100
AcDbEntity
  8
0
  6
HIDDEN
 62
     7
370
     0
100
AcDbLine
 10
217.2054953937
 20
111.1951600278
 30
0.0
 11
217.2054953937
 21
119.9238483599
 31
0.0
  0
LINE
  5
FE
330
1F
100
AcDbEntity
  8
0
  6
HIDDEN
 62
     7
370
     0
100
AcDbLine
 10
218.9375462012
 20
126.3594783242
 30
0.0
 11
218.9375462012
 21
126.2996675205
 31
0.0
  0
LINE
  5
FF
330
1F
100
AcDbEntity
  8
0
  6
HIDDEN
 62
     7
370
     0
100
AcDbLine
 10
216.0375462012
 20
126.2996675205
 30
0.0
 11
218.9375462012
 21
126.2996675205
 31
0.0
  0
LINE
  5
100
330
1F
100
AcDbEntity
  8
0
  6
HIDDEN
 62
     7
370
     0
100
AcDbLine
 10
216.0375462012
 20
126.3595041938
 30
0.0
 11
216.0375462012
 21
123.1595041938
 31
0.0
  0
LINE
  5
101
330
1F
100
AcDbEntity
  8
0
  6
HIDDEN
 62
     7
370
     0
100
AcDbLine
 10
216.0375462012
 20
119.9238483599
 30
0.0
 11
217.2054953937
 21
119.9238483599
 31
0.0
  0
LINE
  5
102
330
1F
100
AcDbEntity
  8
0
  6
HIDDEN
 62
     7
370
     0
100
AcDbLine
 10
216.0375462012
 20
123.1595041938
 30
0.0
 11
216.0375462012
 21
119.9238483599
 31
0.0
  0
SPLINE
  5
103
330
1F
100
AcDbEntity
  8
0
  6
HIDDEN
 62
     7
370
     0
100
AcDbSpline
210
0.0
220
0.0
230
1.0
 70
     8
 71
     3
 72
     8
 73
     4
 74
     0
 42
0.000000001
 43
0.00000001
 40
0.0
 40
0.0
 40
0.0
 40
0.0
 40
1.0
 40
1.0
 40
1.0
 40
1.0
 10
217.2054953936631
 20
119.9238483599233
 30
0.0
 10
217.7322422871202
 20
120.6555123204574
 30
0.0
 10
218.3197675821832
 20
121.3261201791036
 30
0.0
 10
218.937546201232
 20
121.9663364844526
 30
0.0
  0
LINE
  5
104
330
1F
100
AcDbEntity
  8
0
  6
HIDDEN
 62
     7
370
     0
100
AcDbLine
 10
217.2054953937
 20
111.1951600278
 30
0.0
 11
216.0375462012
 21
111.1951600278
 31
0.0
  0
LINE
  5
105
330
1F
100
AcDbEntity
  8
0
  6
HIDDEN
 62
     7
370
     0
100
AcDbLine
 10
216.0375462012
 20
111.1951600278
 30
0.0
 11
216.0375462012
 21
107.9595041938
 31
0.0
  0
SPLINE
  5
106
330
1F
100
AcDbEntity
  8
0
  6
HIDDEN
 62
     7
370
     0
100
AcDbSpline
210
0.0
220
0.0
230
1.0
 70
     8
 71
     3
 72
     8
 73
     4
 74
     0
 42
0.000000001
 43
0.00000001
 40
0.0
 40
0.0
 40
0.0
 40
0.0
 40
1.0
 40
1.0
 40
1.0
 40
1.0
 10
218.937546201232
 20
109.1526719032331
 30
0.0
 10
218.3144041123976
 20
109.7984464793026
 30
0.0
 10
217.7266279251205
 20
110.4712945495499
 30
0.0
 10
217.2054953936631
 20
111.1951600277624
 30
0.0
  0
LINE
  5
107
330
1F
100
AcDbEntity
  8
0
  6
HIDDEN
 62
     7
370
     0
100
AcDbLine
 10
216.0375462012
 20
104.8193408671
 30
0.0
 11
218.9375462012
 21
104.8193408671
 31
0.0
  0
LINE
  5
108
330
1F
100
AcDbEntity
  8
0
  6
HIDDEN
 62
     7
370
     0
100
AcDbLine
 10
218.9375462012
 20
104.8193408671
 30
0.0
 11
218.9375462012
 21
104.7595300634
 31
0.0
  0
LINE
  5
109
330
1F
100
AcDbEntity
  8
0
  6
HIDDEN
 62
     7
370
     0
100
AcDbLine
 10
216.0375462012
 20
107.9595041938
 30
0.0
 11
216.0375462012
 21
104.7595041938
 31
0.0
  0
LINE
  5
10A
330
1F
100
AcDbEntity
  8
0
  6
HIDDEN
 62
     7
370
     0
100
AcDbLine
 10
215.2375462012
 20
106.5595041938
 30
0.0
 11
215.2375462012
 21
124.5595041938
 31
0.0
  0
LINE
  5
10B
330
1F
100
AcDbEntity
  8
0
  6
HIDDEN
 62
     7
370
     0
100
AcDbLine
 10
200.3875462012
 20
106.9595041938
 30
0.0
 11
200.3875462012
 21
124.1595041825
 31
0.0
  0
LINE
  5
10C
330
1F
100
AcDbEntity
  8
0
  6
HIDDEN
 62
     7
370
     0
100
AcDbLine
 10
202.3875462012
 20
106.5595041938
 30
0.0
 11
202.3875462012
 21
124.5595041938
 31
0.0
  0
LINE
  5
10D
330
1F
100
AcDbEntity
  8
0
  6
HIDDEN
 62
     7
370
     0
100
AcDbLine
 10
138.4875462012
 20
140.3595041938
 30
0.0
 11
138.8248045014
 21
140.3595041938
 31
0.0
  0
ELLIPSE
  5
10E
330
1F
100
AcDbEntity
  8
0
  6
HIDDEN
 62
     7
370
     0
100
AcDbEllipse
 10
138.8248045014
 20
141.9595041938
 30
0.0
 11
0.0
 21
1.600000000000023
 31
0.0
210
0.0
220
0.0
230
1.0
 40
0.4142135624
 41
3.141592653589793
 42
4.712388980384695
  0
LINE
  5
10F
330
1F
100
AcDbEntity
  8
0
  6
HIDDEN
 62
     7
370
     0
100
AcDbLine
 10
138.8248045014
 20
92.9595041938
 30
0.0
 11
138.4875462012
 21
92.9595041938
 31
0.0
  0
ELLIPSE
  5
110
330
1F
100
AcDbEntity
  8
0
  6
HIDDEN
 62
     7
370
     0
100
AcDbEllipse
 10
138.8248045014
 20
91.3595041938
 30
0.0
 11
0.0
 21
1.600000000000009
 31
0.0
210
0.0
220
0.0
230
1.0
 40
0.4142135624
 41
4.712388980384695
 42
6.283185307179586
  0
LINE
  5
111
330
1F
100
AcDbEntity
  8
0
  6
HIDDEN
 62
     7
370
     0
100
AcDbLine
 10
139.4875462012
 20
85.6660558472
 30
0.0
 11
138.7036907426
 21
85.2077743444
 31
0.0
  0
LINE
  5
112
330
1F
100
AcDbEntity
  8
0
  6
HIDDEN
 62
     7
370
     0
100
AcDbLine
 10
138.7747878025
 20
145.9848007488
 30
0.0
 11
139.4875462012
 21
145.2720423501
 31
0.0
  0
LINE
  5
113
330
1F
100
AcDbEntity
  8
0
  6
HIDDEN
 62
     7
370
     0
100
AcDbLine
 10
74.0375462012
 20
107.0595041938
 30
0.0
 11
74.0375462012
 21
124.0595041938
 31
0.0
  0
LINE
  5
114
330
1F
100
AcDbEntity
  8
0
  6
HIDDEN
 62
     7
370
     0
100
AcDbLine
 10
77.0334754156
 20
108.5595041938
 30
0.0
 11
77.0334754156
 21
122.5595041938
 31
0.0
  0
LINE
  5
115
330
1F
100
AcDbEntity
  8
0
  6
HIDDEN
 62
     7
370
     0
100
AcDbLine
 10
143.3227565975
 20
85.6660558472
 30
0.0
 11
139.4875462012
 21
85.6660558472
 31
0.0
  0
LINE
  5
116
330
1F
100
AcDbEntity
  8
0
  6
HIDDEN
 62
     7
370
     0
100
AcDbLine
 10
154.3375462012
 20
85.6660558472
 30
0.0
 11
149.4523358049
 21
85.6660558472
 31
0.0
  0
LINE
  5
117
330
1F
100
AcDbEntity
  8
0
  6
HIDDEN
 62
     7
370
     0
100
AcDbLine
 10
139.4875462012
 20
85.6660558472
 30
0.0
 11
139.4875462012
 21
91.3595041938
 31
0.0
  0
LINE
  5
118
330
1F
100
AcDbEntity
  8
0
  6
HIDDEN
 62
     7
370
     0
100
AcDbLine
 10
154.3375462012
 20
92.9595041938
 30
0.0
 11
138.8248045014
 21
92.9595041938
 31
0.0
  0
LINE
  5
119
330
1F
100
AcDbEntity
  8
0
  6
HIDDEN
 62
     7
370
     0
100
AcDbLine
 10
138.8248045014
 20
140.3595041938
 30
0.0
 11
154.3375462012
 21
140.3595041938
 31
0.0
  0
LINE
  5
11A
330
1F
100
AcDbEntity
  8
0
  6
HIDDEN
 62
     7
370
     0
100
AcDbLine
 10
139.4875462012
 20
145.2720423501
 30
0.0
 11
143.4235915149
 21
145.2720423501
 31
0.0
  0
LINE
  5
11B
330
1F
100
AcDbEntity
  8
0
  6
HIDDEN
 62
     7
370
     0
100
AcDbLine
 10
149.3515008875
 20
145.2720423501
 30
0.0
 11
154.3375462012
 21
145.2720423501
 31
0.0
  0
LINE
  5
11C
330
1F
100
AcDbEntity
  8
0
  6
HIDDEN
 62
     7
370
     0
100
AcDbLine
 10
139.4875462012
 20
145.2720423501
 30
0.0
 11
139.4875462012
 21
141.9595041938
 31
0.0
  0
LINE
  5
11D
330
1F
100
AcDbEntity
  8
0
  6
HIDDEN
 62
     7
370
     0
100
AcDbLine
 10
110.0375462012
 20
108.5595041938
 30
0.0
 11
110.0375462012
 21
122.5595041938
 31
0.0
  0
LINE
  5
11E
330
1F
100
AcDbEntity
  8
0
  6
HIDDEN
 62
     7
370
     0
100
AcDbLine
 10
111.6899129036
 20
111.3095041938
 30
0.0
 11
111.6899129036
 21
119.8095041938
 31
0.0
  0
LINE
  5
11F
330
1F
100
AcDbEntity
  8
0
  6
HIDDEN
 62
     7
370
     0
100
AcDbLine
 10
216.0375462012
 20
127.7345041938
 30
0.0
 11
216.0375462012
 21
126.3595041938
 31
0.0
  0
LINE
  5
120
330
1F
100
AcDbEntity
  8
0
  6
HIDDEN
 62
     7
370
     0
100
AcDbLine
 10
216.0375462012
 20
104.7595041938
 30
0.0
 11
216.0375462012
 21
103.3845041938
 31
0.0
  0
SPLINE
  5
121
330
1F
100
AcDbEntity
  8
0
  6
HIDDEN
 62
     7
370
     0
100
AcDbSpline
210
0.0
220
0.0
230
1.0
 70
    11
 71
     3
 72
    60
 73
    56
 74
     0
 42
0.000000001
 43
0.00000001
 40
0.0
 40
0.0
 40
0.0
 40
0.0
 40
0.0312499999999996
 40
0.0312499999999996
 40
0.0624999999999993
 40
0.0624999999999993
 40
0.124999999999999
 40
0.124999999999999
 40
0.1874999999999988
 40
0.1874999999999988
 40
0.2187499999999986
 40
0.2187499999999986
 40
0.2499999999999984
 40
0.2499999999999984
 40
0.2812499999999983
 40
0.2812499999999983
 40
0.3124999999999981
 40
0.3124999999999981
 40
0.3437499999999978
 40
0.3437499999999978
 40
0.3749999999999976
 40
0.3749999999999976
 40
0.4062499999999973
 40
0.4062499999999973
 40
0.4374999999999971
 40
0.4374999999999971
 40
0.4999999999999971
 40
0.4999999999999971
 40
0.5312499999999973
 40
0.5312499999999973
 40
0.5624999999999976
 40
0.5624999999999976
 40
0.5937499999999977
 40
0.5937499999999977
 40
0.6249999999999979
 40
0.6249999999999979
 40
0.6562499999999981
 40
0.6562499999999981
 40
0.6874999999999983
 40
0.6874999999999983
 40
0.7187499999999986
 40
0.7187499999999986
 40
0.7499999999999987
 40
0.7499999999999987
 40
0.812499999999999
 40
0.812499999999999
 40
0.8437499999999991
 40
0.8437499999999991
 40
0.8749999999999992
 40
0.8749999999999992
 40
0.9062499999999993
 40
0.9062499999999993
 40
0.9374999999999993
 40
0.9374999999999993
 40
1.0
 40
1.0
 40
1.0
 40
1.0
 10
148.2875462012321
 20
115.3485781358095
 30
0.0
 10
148.3977391122023
 20
115.3485781358095
 30
0.0
 10
148.5058483154897
 20
115.3604357581142
 30
0.0
 10
148.7181534699762
 20
115.4064414850044
 30
0.0
 10
148.8234621334352
 20
115.4412013373181
 30
0.0
 10
149.1222600940437
 20
115.5747551754825
 30
0.0
 10
149.3036822984297
 20
115.704663588626
 30
0.0
 10
149.6048881990866
 20
116.0171220757363
 30
0.0
 10
149.7274426778788
 20
116.2028995585639
 30
0.0
 10
149.8515761284981
 20
116.4977103070675
 30
0.0
 10
149.883879245334
 20
116.6006893934887
 30
0.0
 10
149.926728907166
 20
116.8069670331936
 30
0.0
 10
149.9374740746784
 20
116.909735018113
 30
0.0
 10
149.9376176110315
 20
117.1144006716314
 30
0.0
 10
149.9266344899951
 20
117.2167547578255
 30
0.0
 10
149.8839628304679
 20
117.4110148668328
 30
0.0
 10
149.8523999363605
 20
117.5041831755763
 30
0.0
 10
149.7684348408727
 20
117.6829666962185
 30
0.0
 10
149.717400287872
 20
117.7656840879302
 30
0.0
 10
149.5981669570933
 20
117.9192357033442
 30
0.0
 10
149.5291078997587
 20
117.9906861640974
 30
0.0
 10
149.3778093759044
 20
118.1178982064848
 30
0.0
 10
149.2955766711494
 20
118.174041090332
 30
0.0
 10
149.1174641540012
 20
118.2723629031759
 30
0.0
 10
149.0213292697969
 20
118.3143571973272
 30
0.0
 10
148.724082584678
 20
118.4144963076038
 30
0.0
 10
148.505024843899
 20
118.4495104155046
 30
0.0
 10
148.1795711690112
 20
118.4495903749646
 30
0.0
 10
148.0697345678181
 20
118.4409849705418
 30
0.0
 10
147.8558022708357
 20
118.4066721750676
 30
0.0
 10
147.7525626098923
 20
118.3813303618729
 30
0.0
 10
147.5531335533298
 20
118.3141452726882
 30
0.0
 10
147.4570410460563
 20
118.2720632876295
 30
0.0
 10
147.2794969964903
 20
118.1740061320656
 30
0.0
 10
147.196800429377
 20
118.1176166677417
 30
0.0
 10
147.0443258710119
 20
117.9891655980921
 30
0.0
 10
146.9766489499702
 20
117.9189080814591
 30
0.0
 10
146.8576712857014
 20
117.765628737091
 30
0.0
 10
146.8059270025013
 20
117.6815495603315
 30
0.0
 10
146.7227502958451
 20
117.5041667724472
 30
0.0
 10
146.691239258896
 20
117.4113901301723
 30
0.0
 10
146.6485036514443
 20
117.2170866105207
 30
0.0
 10
146.6374979470241
 20
117.1146201955823
 30
0.0
 10
146.6376432000276
 20
116.807958479211
 30
0.0
 10
146.681996088612
 20
116.5961865948125
 30
0.0
 10
146.8065812968936
 20
116.3005012537381
 30
0.0
 10
146.8583651105596
 20
116.203924725899
 30
0.0
 10
146.9783227888898
 20
116.0227604775835
 30
0.0
 10
147.0461738508856
 20
115.938171158884
 30
0.0
 10
147.1976995896407
 20
115.7812731260911
 30
0.0
 10
147.2816688629037
 20
115.709076895138
 30
0.0
 10
147.4591601312426
 20
115.5837150519089
 30
0.0
 10
147.5534416661969
 20
115.529648698798
 30
0.0
 10
147.8543267734263
 20
115.395576716782
 30
0.0
 10
148.0671603792914
 20
115.3485781358095
 30
0.0
 10
148.287546201232
 20
115.3485781358095
 30
0.0
  0
ELLIPSE
  5
122
330
1F
100
AcDbEntity
  8
0
  6
HIDDEN
 62
     7
370
     0
100
AcDbEllipse
 10
148.2875462012
 20
122.4470942544
 30
0.0
 11
-1.383467579512114
 21
1.753907414218489
 31
0.0
210
0.0
220
0.0
230
1.0
 40
0.5126701559
 41
5.277237470121965
 42
5.288724596347233
  0
ELLIPSE
  5
123
330
1F
100
AcDbEntity
  8
0
  6
HIDDEN
 62
     7
370
     0
100
AcDbEllipse
 10
148.2875462012
 20
122.4470942544
 30
0.0
 11
1.383467579512114
 21
1.091267719176585
 31
0.0
210
0.0
220
0.0
230
1.0
 40
0.8239737799
 41
0.9944607108323675
 42
4.136053364422173
  0
ELLIPSE
  5
124
330
1F
100
AcDbEntity
  8
0
  6
HIDDEN
 62
     7
370
     0
100
AcDbEllipse
 10
148.2875462012
 20
122.4470942544
 30
0.0
 11
-1.383467579512114
 21
1.753907414218489
 31
0.0
210
0.0
220
0.0
230
1.0
 40
0.5126701559
 41
2.147131942757427
 42
2.158619068977756
  0
SPLINE
  5
125
330
1F
100
AcDbEntity
  8
0
  6
HIDDEN
 62
     7
370
     0
100
AcDbSpline
210
0.0
220
0.0
230
1.0
 70
     8
 71
     3
 72
     8
 73
     4
 74
     0
 42
0.000000001
 43
0.00000001
 40
0.0
 40
0.0
 40
0.0
 40
0.0
 40
1.0
 40
1.0
 40
1.0
 40
1.0
 10
148.3064995426609
 20
120.8842511041785
 30
0.0
 10
148.3234984267425
 20
120.8922343776928
 30
0.0
 10
148.3405025712859
 20
120.9009707801417
 30
0.0
 10
148.3574872973905
 20
120.9104476319806
 30
0.0
  0
ELLIPSE
  5
126
330
1F
100
AcDbEntity
  8
0
  6
HIDDEN
 62
     7
370
     0
100
AcDbEllipse
 10
148.2875462012
 20
122.4470942544
 30
0.0
 11
1.383467579512114
 21
1.091267719176585
 31
0.0
210
0.0
220
0.0
230
1.0
 40
0.8239737799
 41
4.136053364422173
 42
4.178454611698251
  0
ELLIPSE
  5
127
330
1F
100
AcDbEntity
  8
0
  6
HIDDEN
 62
     7
370
     0
100
AcDbEllipse
 10
148.2875462012
 20
122.4470942544
 30
0.0
 11
-1.383467579512114
 21
1.753907414218489
 31
0.0
210
0.0
220
0.0
230
1.0
 40
0.5126701559
 41
5.288724596347242
 42
8.430317249937021
  0
ELLIPSE
  5
128
330
1F
100
AcDbEntity
  8
0
  6
HIDDEN
 62
     7
370
     0
100
AcDbEllipse
 10
148.2875462012
 20
122.4470942544
 30
0.0
 11
1.383467579512114
 21
1.091267719176585
 31
0.0
210
0.0
220
0.0
230
1.0
 40
0.8239737799
 41
0.9520594635508006
 42
0.9944607108323675
  0
SPLINE
  5
129
330
1F
100
AcDbEntity
  8
0
  6
HIDDEN
 62
     7
370
     0
100
AcDbSpline
210
0.0
220
0.0
230
1.0
 70
     8
 71
     3
 72
     8
 73
     4
 74
     0
 42
0.000000001
 43
0.00000001
 40
0.0
 40
0.0
 40
0.0
 40
0.0
 40
1.0
 40
1.0
 40
1.0
 40
1.0
 10
148.3574872973994
 20
124.0086461202172
 30
0.0
 10
148.3405025712889
 20
124.0015304101644
 30
0.0
 10
148.3234984267395
 20
123.9936552806389
 30
0.0
 10
148.3064995426519
 20
123.9850321611801
 30
0.0
  0
LWPOLYLINE
  5
12A
330
1F
100
AcDbEntity
  8
0
  6
HIDDEN
 62
     7
370
     0
100
AcDbPolyline
 90
       20
 70
   128
 43
0.0
 10
148.2875462012
 20
122.0029149346
 10
148.8233003254
 20
122.0869249126
 10
149.3009971772
 20
122.3298510617
 10
149.6688708904
 20
122.7053685645
 10
149.88705664
 20
123.1727842726
 10
149.9319106147
 20
123.6814464415
 10
149.7985721902
 20
124.1762336324
 10
149.5014906538
 20
124.6035279757
 10
149.0728593997
 20
124.9170254993
 10
148.5591272752
 20
125.082753882
 10
148.0159651273
 20
125.082753882
 10
147.5022330027
 20
124.9170254993
 10
147.0736017486
 20
124.6035279757
 10
146.7765202123
 20
124.1762336324
 10
146.6431817878
 20
123.6814464415
 10
146.6880357624
 20
123.1727842726
 10
146.9062215121
 20
122.7053685645
 10
147.2740952253
 20
122.3298510617
 10
147.751792077
 20
122.0869249126
 10
148.2875462012
 20
122.0029149346
  0
LINE
  5
12B
330
1F
100
AcDbEntity
  8
0
  6
HIDDEN
 62
     7
370
     0
100
AcDbLine
 10
144.4775462012
 20
137.7567450134
 30
0.0
 11
144.4775462012
 21
133.9095041938
 31
0.0
  0
SPLINE
  5
12C
330
1F
100
AcDbEntity
  8
0
  6
HIDDEN
 62
     7
370
     0
100
AcDbSpline
210
0.0
220
0.0
230
1.0
 70
     8
 71
     3
 72
    14
 73
    10
 74
     0
 42
0.000000001
 43
0.00000001
 40
0.0
 40
0.0
 40
0.0
 40
0.0
 40
0.25
 40
0.25
 40
0.5
 40
0.5
 40
0.75
 40
0.75
 40
1.0
 40
1.0
 40
1.0
 40
1.0
 10
147.4975462012319
 20
126.8419833839509
 30
0.0
 10
147.5952284523459
 20
126.8805056979833
 30
0.0
 10
147.6973419613833
 20
126.9181210574421
 30
0.0
 10
147.8895141325521
 20
126.989229783029
 30
0.0
 10
147.980932805879
 20
127.0234358335331
 30
0.0
 10
148.1324487948932
 20
127.09032531189
 30
0.0
 10
148.1935959974321
 20
127.1235957744509
 30
0.0
 10
148.2763026991205
 20
127.1929941245448
 30
0.0
 10
148.297546201232
 20
127.2287712301408
 30
0.0
 10
148.297546201232
 20
127.2652665623914
 30
0.0
  0
LINE
  5
12D
330
1F
100
AcDbEntity
  8
0
  6
HIDDEN
 62
     7
370
     0
100
AcDbLine
 10
148.2975462012
 20
137.7567450134
 30
0.0
 11
148.2975462012
 21
133.9095041938
 31
0.0
  0
LINE
  5
12E
330
1F
100
AcDbEntity
  8
0
  6
HIDDEN
 62
     7
370
     0
100
AcDbLine
 10
148.2975462012
 20
107.5582216737
 30
0.0
 11
148.2975462012
 21
103.7994981754
 31
0.0
  0
SPLINE
  5
12F
330
1F
100
AcDbEntity
  8
0
  6
HIDDEN
 62
     7
370
     0
100
AcDbSpline
210
0.0
220
0.0
230
1.0
 70
     8
 71
     3
 72
    14
 73
    10
 74
     0
 42
0.000000001
 43
0.00000001
 40
0.0
 40
0.0
 40
0.0
 40
0.0
 40
0.2500000000000005
 40
0.2500000000000005
 40
0.5000000000000003
 40
0.5000000000000003
 40
0.7500000000000001
 40
0.7500000000000001
 40
1.0
 40
1.0
 40
1.0
 40
1.0
 10
148.297546201232
 20
123.5065430641725
 30
0.0
 10
148.297546201232
 20
123.4700541332652
 30
0.0
 10
148.2763768250597
 20
123.4335553415314
 30
0.0
 10
148.1936312072074
 20
123.3681799937945
 30
0.0
 10
148.1327775823796
 20
123.3402431594482
 30
0.0
 10
147.9811727156885
 20
123.3063521302014
 30
0.0
 10
147.8899504052213
 20
123.300926677615
 30
0.0
 10
147.697619855518
 20
123.3218460014276
 30
0.0
 10
147.5953689710411
 20
123.348402148868
 30
0.0
 10
147.497546201232
 20
123.3888719071738
 30
0.0
  0
LINE
  5
130
330
1F
100
AcDbEntity
  8
0
  6
HIDDEN
 62
     7
370
     0
100
AcDbLine
 10
142.8657095592
 20
141.4697338339
 30
0.0
 11
142.8657095592
 21
133.9095041938
 31
0.0
  0
LINE
  5
131
330
1F
100
AcDbEntity
  8
0
  6
HIDDEN
 62
     7
370
     0
100
AcDbLine
 10
149.9093828433
 20
105.807484126
 30
0.0
 11
149.9093828433
 21
103.6080043956
 31
0.0
  0
LINE
  5
132
330
1F
100
AcDbEntity
  8
0
  6
HIDDEN
 62
     7
370
     0
100
AcDbLine
 10
149.9093828433
 20
141.4697338339
 30
0.0
 11
149.9093828433
 21
133.9095041938
 31
0.0
  0
SPLINE
  5
133
330
1F
100
AcDbEntity
  8
0
  6
HIDDEN
 62
     7
370
     0
100
AcDbSpline
210
0.0
220
0.0
230
1.0
 70
     8
 71
     3
 72
    10
 73
     6
 74
     0
 42
0.000000001
 43
0.00000001
 40
0.0
 40
0.0
 40
0.0
 40
0.0
 40
0.5
 40
0.5
 40
1.0
 40
1.0
 40
1.0
 40
1.0
 10
146.3116554385916
 20
123.3060433633117
 30
0.0
 10
146.2960493876104
 20
123.4113155639202
 30
0.0
 10
146.2875449245819
 20
123.5152540617111
 30
0.0
 10
146.2875474781715
 20
123.7147673336671
 30
0.0
 10
146.296045065772
 20
123.8059798283375
 30
0.0
 10
146.3116554385917
 20
123.8879117606806
 30
0.0
  0
SPLINE
  5
134
330
1F
100
AcDbEntity
  8
0
  6
HIDDEN
 62
     7
370
     0
100
AcDbSpline
210
0.0
220
0.0
230
1.0
 70
     8
 71
     3
 72
    14
 73
    10
 74
     0
 42
0.000000001
 43
0.00000001
 40
0.0
 40
0.0
 40
0.0
 40
0.0
 40
0.25
 40
0.25
 40
0.5
 40
0.5
 40
0.75
 40
0.75
 40
1.0
 40
1.0
 40
1.0
 40
1.0
 10
146.3116554385917
 20
123.8879117606806
 30
0.0
 10
146.3480192666219
 20
123.8424171252788
 30
0.0
 10
146.380496993832
 20
123.7940253190625
 30
0.0
 10
146.4292506232477
 20
123.688540175133
 30
0.0
 10
146.4441544009222
 20
123.6319556668901
 30
0.0
 10
146.4441648345798
 20
123.5230680729397
 30
0.0
 10
146.4292745387717
 20
123.4708834071771
 30
0.0
 10
146.3803856078941
 20
123.3796060082335
 30
0.0
 10
146.3480134296237
 20
123.3409393028594
 30
0.0
 10
146.3116554385916
 20
123.3060433633117
 30
0.0
  0
LWPOLYLINE
  5
135
330
1F
100
AcDbEntity
  8
0
  6
HIDDEN
 62
     7
370
     0
100
AcDbPolyline
 90
       20
 70
   128
 43
0.0
 10
139.1192737387
 20
123.5395496027
 10
139.2562148181
 20
123.1479849528
 10
139.4765982156
 20
122.8948651618
 10
139.7565419705
 20
122.8076196865
 10
140.0657098334
 20
122.8957029279
 10
140.3705986688
 20
123.1495697002
 10
140.6381690409
 20
123.5417095993
 10
140.8394255478
 20
124.0296281826
 10
140.9525589243
 20
124.5604519006
 10
140.9653094136
 20
125.076657767
 10
140.8762953023
 20
125.5223068664
 10
140.6951626506
 20
125.8491062039
 10
140.4415399919
 20
126.0216420005
 10
140.1429112766
 20
126.0212173254
 10
139.8316375596
 20
125.8478781987
 10
139.5414501782
 20
125.5204086046
 10
139.3037954378
 20
125.0742949547
 10
139.1444269172
 20
124.5578805851
 10
139.0806146684
 20
124.0271270059
 10
139.1192737387
 20
123.5395496027
  0
LWPOLYLINE
  5
136
330
1F
100
AcDbEntity
  8
0
  6
HIDDEN
 62
     7
370
     0
100
AcDbPolyline
 90
       21
 70
   128
 43
0.0
 10
146.3116554386
 20
123.3060433633
 10
146.4901850421
 20
122.7726722194
 10
146.8278011159
 20
122.3122612743
 10
147.2946208794
 20
121.9655620219
 10
147.8493255869
 20
121.7632612053
 10
148.4428176969
 20
121.7232646987
 10
149.0225665511
 20
121.8491126384
 10
149.5372579222
 20
122.1296660806
 10
149.9413358946
 20
122.5400929226
 10
150.1990350695
 20
123.0440658203
 10
150.2875462012
 20
123.596977562
 10
150.1990350695
 20
124.1498893037
 10
149.9413358946
 20
124.6538622014
 10
149.5372579222
 20
125.0642890434
 10
149.0225665511
 20
125.3448424856
 10
148.4428176969
 20
125.4706904252
 10
147.8493255869
 20
125.4306939187
 10
147.2946208794
 20
125.2283931021
 10
146.8278011159
 20
124.8816938496
 10
146.4901850421
 20
124.4212829046
 10
146.3116554386
 20
123.8879117607
  0
SPLINE
  5
137
330
1F
100
AcDbEntity
  8
0
  6
HIDDEN
 62
     7
370
     0
100
AcDbSpline
210
0.0
220
0.0
230
1.0
 70
     8
 71
     3
 72
    12
 73
     8
 74
     0
 42
0.000000001
 43
0.00000001
 40
0.0
 40
0.0
 40
0.0
 40
0.0
 40
0.2499999999999996
 40
0.2499999999999996
 40
0.4999999999999991
 40
0.4999999999999991
 40
1.0
 40
1.0
 40
1.0
 40
1.0
 10
149.9093828432887
 20
127.5110039920498
 30
0.0
 10
150.0323303370843
 20
127.3530471433548
 30
0.0
 10
150.1258745401932
 20
127.1812137763772
 30
0.0
 10
150.2548139293554
 20
126.8095410667314
 30
0.0
 10
150.2873666867405
 20
126.6163526205402
 30
0.0
 10
150.2879030284743
 20
126.0280560822639
 30
0.0
 10
150.1552793715063
 20
125.6360378443752
 30
0.0
 10
149.9093828432887
 20
125.3115242616665
 30
0.0
  0
SPLINE
  5
138
330
1F
100
AcDbEntity
  8
0
  6
HIDDEN
 62
     7
370
     0
100
AcDbSpline
210
0.0
220
0.0
230
1.0
 70
     8
 71
     3
 72
    12
 73
     8
 74
     0
 42
0.000000001
 43
0.00000001
 40
0.0
 40
0.0
 40
0.0
 40
0.0
 40
0.2500000000000002
 40
0.2500000000000002
 40
0.5000000000000004
 40
0.5000000000000004
 40
1.0
 40
1.0
 40
1.0
 40
1.0
 10
149.9093828432887
 20
125.3115242616665
 30
0.0
 10
149.7944867920281
 20
125.09178382661
 30
0.0
 10
149.6677207755554
 20
124.8948154749882
 30
0.0
 10
149.4075058419369
 20
124.5410979021493
 30
0.0
 10
149.2739983839747
 20
124.3842726082771
 30
0.0
 10
148.8656001153865
 20
123.9577300373694
 30
0.0
 10
148.5819469804489
 20
123.7310378584142
 30
0.0
 10
148.2975462012321
 20
123.5607867140187
 30
0.0
  0
SPLINE
  5
139
330
1F
100
AcDbEntity
  8
0
  6
HIDDEN
 62
     7
370
     0
100
AcDbSpline
210
0.0
220
0.0
230
1.0
 70
     8
 71
     3
 72
    12
 73
     8
 74
     0
 42
0.000000001
 43
0.00000001
 40
0.0
 40
0.0
 40
0.0
 40
0.0
 40
0.5000000000000013
 40
0.5000000000000013
 40
0.7500000000000007
 40
0.7500000000000007
 40
1.0
 40
1.0
 40
1.0
 40
1.0
 10
148.297546201232
 20
127.3195102122397
 30
0.0
 10
148.5817527357973
 20
127.4869743745335
 30
0.0
 10
148.8604484699011
 20
127.5986114740451
 30
0.0
 10
149.2697945130904
 20
127.6659247396845
 30
0.0
 10
149.4059338504099
 20
127.6710757796984
 30
0.0
 10
149.667253899406
 20
127.633309842079
 30
0.0
 10
149.7926750818378
 20
127.5917600837348
 30
0.0
 10
149.9093828432892
 20
127.511003992052
 30
0.0
  0
SPLINE
  5
13A
330
1F
100
AcDbEntity
  8
0
  6
HIDDEN
 62
     7
370
     0
100
AcDbSpline
210
0.0
220
0.0
230
1.0
 70
     8
 71
     3
 72
    22
 73
    18
 74
     0
 42
0.000000001
 43
0.00000001
 40
0.0
 40
0.0
 40
0.0
 40
0.0
 40
0.125
 40
0.125
 40
0.25
 40
0.25
 40
0.375
 40
0.375
 40
0.5
 40
0.5
 40
0.625
 40
0.625
 40
0.75
 40
0.75
 40
0.875
 40
0.875
 40
1.0
 40
1.0
 40
1.0
 40
1.0
 10
147.497546201232
 20
123.3888719071738
 30
0.0
 10
147.3175295066626
 20
123.4633456941503
 30
0.0
 10
147.1530976847923
 20
123.5607949561344
 30
0.0
 10
146.8547014510337
 20
123.8001643896987
 30
0.0
 10
146.7243977236689
 20
123.9400610017692
 30
0.0
 10
146.5111789400499
 20
124.2483125918294
 30
0.0
 10
146.4275510829384
 20
124.4184758099486
 30
0.0
 10
146.3164202060202
 20
124.7689705447391
 30
0.0
 10
146.2875842111665
 20
124.9540955058905
 30
0.0
 10
146.2875082685069
 20
125.3173023805077
 30
0.0
 10
146.3161668939341
 20
125.5006723942153
 30
0.0
 10
146.4273179870468
 20
125.8465635067085
 30
0.0
 10
146.5103851076908
 20
126.012083033976
 30
0.0
 10
146.7240710658095
 20
126.3126227713798
 30
0.0
 10
146.8530780557338
 20
126.4464946926638
 30
0.0
 10
147.1526873352233
 20
126.6777414620679
 30
0.0
 10
147.3175300334825
 20
126.7709915787267
 30
0.0
 10
147.497546201232
 20
126.841983383951
 30
0.0
  0
LWPOLYLINE
  5
13B
330
1F
100
AcDbEntity
  8
0
  6
HIDDEN
 62
     7
370
     0
100
AcDbPolyline
 90
       22
 70
   128
 43
0.0
 10
138.7377578484
 20
123.3300417474
 10
138.8904803082
 20
122.8722796351
 10
139.1321972273
 20
122.5553880799
 10
139.4414309967
 20
122.407524287
 10
139.7907048389
 20
122.4418266034
 10
140.1489842403
 20
122.6552471176
 10
140.4844345039
 20
123.0288224805
 10
140.7672494015
 20
123.5293588816
 10
140.9722995884
 20
124.1123814651
 10
141.0813654557
 20
124.726086116
 10
141.0847560224
 20
125.3159424827
 10
140.9821700218
 20
125.8295392386
 10
140.7827226702
 20
126.221241058
 10
140.5041357401
 20
126.4562435154
 10
140.1711629028
 20
126.513665611
 10
139.8133902561
 20
126.3884051397
 10
139.4626074698
 20
126.0915920441
 10
139.1499831337
 20
125.6495994703
 10
138.903295292
 20
125.101700398
 10
138.7444632422
 20
124.4965780643
 10
138.6875999087
 20
123.8880002441
 10
138.7377578484
 20
123.3300417474
  0
CIRCLE
  5
13C
330
1F
100
AcDbEntity
  8
0
  6
HIDDEN
 62
     7
370
     0
100
AcDbCircle
 10
210.0875462012
 20
115.5595041938
 30
0.0
 40
3.508270759903322
  0
CIRCLE
  5
13D
330
1F
100
AcDbEntity
  8
0
  6
HIDDEN
 62
     7
370
     0
100
AcDbCircle
 10
210.0875462012
 20
115.5595041938
 30
0.0
 40
2.499560044877977
  0
ARC
  5
13E
330
1F
100
AcDbEntity
  8
0
  6
HIDDEN
 62
     7
370
     0
100
AcDbCircle
 10
210.0875462012
 20
115.5595041938
 30
0.0
 40
2.199560044878007
100
AcDbArc
 50
303.779124749
 51
341.5849255978
  0
LINE
  5
13F
330
1F
100
AcDbEntity
  8
0
  6
HIDDEN
 62
     7
370
     0
100
AcDbLine
 10
209.6923306284
 20
113.3957414892
 30
0.0
 11
209.1297664571
 21
113.5794227933
 31
0.0
  0
LWPOLYLINE
  5
140
330
1F
100
AcDbEntity
  8
0
  6
HIDDEN
 62
     7
370
     0
100
AcDbPolyline
 90
        3
 70
   128
 43
0.0
 10
208.0046301006
 20
114.8527334326
 10
207.9562536306
 20
115.0157612678
 10
207.8956288645
 20
115.3763027202
  0
LWPOLYLINE
  5
141
330
1F
100
AcDbEntity
  8
0
  6
HIDDEN
 62
     7
370
     0
100
AcDbPolyline
 90
        3
 70
   128
 43
0.0
 10
208.4444291797
 20
117.0217732678
 10
208.7075693076
 20
117.2723171328
 10
208.8739716608
 20
117.3939799298
  0
ARC
  5
142
330
1F
100
AcDbEntity
  8
0
  6
HIDDEN
 62
     7
370
     0
100
AcDbCircle
 10
210.0875462012
 20
115.5595041938
 30
0.0
 40
2.199560044878007
100
AcDbArc
 50
341.5849255978
 51
79.5698937328
  0
LWPOLYLINE
  5
143
330
1F
100
AcDbEntity
  8
0
  6
HIDDEN
 62
     7
370
     0
100
AcDbPolyline
 90
       15
 70
   128
 43
0.0
 10
146.2934532434
 20
106.1464205577
 10
146.2881678372
 20
106.2439039356
 10
146.3622977073
 20
106.7997718884
 10
146.6074943549
 20
107.3104117509
 10
147.0019709819
 20
107.7304509305
 10
147.5106766087
 20
108.0225671028
 10
148.088410508
 20
108.1608044638
 10
148.6838384876
 20
108.1328800176
 10
149.2440541585
 20
107.9412749735
 10
149.7192798998
 20
107.6030142808
 10
150.0672898189
 20
107.1481538862
 10
150.2571617073
 20
106.6171101321
 10
150.2720246144
 20
106.0570685863
 10
150.1105579059
 20
105.517791398
 10
150.096270654
 20
105.4887011497
  0
ARC
  5
144
330
1F
100
AcDbEntity
  8
0
  6
HIDDEN
 62
     7
370
     0
100
AcDbCircle
 10
148.2651887345
 20
106.1982817542
 30
0.0
 40
1.885954364887736
100
AcDbArc
 50
341.2514166702
 51
160.6270533488
  0
ARC
  5
145
330
1F
100
AcDbEntity
  8
0
  6
HIDDEN
 62
     7
370
     0
100
AcDbCircle
 10
148.329233977
 20
106.2149420622
 30
0.0
 40
1.452180654244555
100
AcDbArc
 50
354.0949834584
 51
92.2253436607
  0
LWPOLYLINE
  5
146
330
1F
100
AcDbEntity
  8
0
  6
HIDDEN
 62
     7
370
     0
100
AcDbPolyline
 90
       22
 70
   128
 43
0.0
 10
147.6035059146
 20
104.6615219239
 10
147.0799373806
 20
104.9294472974
 10
146.6636701898
 20
105.3304871246
 10
146.3916915089
 20
105.8290072569
 10
146.2881678372
 20
106.3807119929
 10
146.3622977073
 20
106.9365799457
 10
146.6074943549
 20
107.4472198082
 10
147.0019709819
 20
107.8672589878
 10
147.5106766087
 20
108.1593751601
 10
148.088410508
 20
108.2976125212
 10
148.6838384876
 20
108.2696880749
 10
149.2440541585
 20
108.0780830309
 10
149.7192798998
 20
107.7398223381
 10
150.0672898189
 20
107.2849619435
 10
150.2571617073
 20
106.7539181894
 10
150.2720246144
 20
106.1938766437
 10
150.1105579059
 20
105.6545994554
 10
149.7871086072
 20
105.1840037693
 10
149.330416608
 20
104.8239040773
 10
148.7810609966
 20
104.6062968174
 10
148.1878544299
 20
104.5505173494
 10
147.6035059146
 20
104.6615219239
  0
LWPOLYLINE
  5
147
330
1F
100
AcDbEntity
  8
0
  6
HIDDEN
 62
     7
370
     0
100
AcDbPolyline
 90
       19
 70
   128
 43
0.0
 10
147.7745159862
 20
105.935501375
 10
147.3233647867
 20
106.1802652417
 10
146.9885080956
 20
106.5552652417
 10
146.8103345717
 20
107.0152708405
 10
146.8103345717
 20
107.504798574
 10
146.9885080956
 20
107.9648041729
 10
147.3233647867
 20
108.3398041729
 10
147.7745159862
 20
108.5845680396
 10
148.2875462012
 20
108.6695736385
 10
148.8005764162
 20
108.5845680396
 10
149.2517276158
 20
108.3398041729
 10
149.5865843069
 20
107.9648041729
 10
149.7647578308
 20
107.504798574
 10
149.7647578308
 20
107.0152708405
 10
149.5865843069
 20
106.5552652417
 10
149.2517276158
 20
106.1802652417
 10
148.8005764162
 20
105.935501375
 10
148.2875462012
 20
105.8504957761
 10
147.7745159862
 20
105.935501375
  0
LWPOLYLINE
  5
148
330
1F
100
AcDbEntity
  8
0
  6
HIDDEN
 62
     7
370
     0
100
AcDbPolyline
 90
       22
 70
   128
 43
0.0
 10
147.6035059146
 20
104.8539082545
 10
147.0799373806
 20
105.121833628
 10
146.6636701898
 20
105.5228734552
 10
146.3916915089
 20
106.0213935875
 10
146.2881678372
 20
106.5730983236
 10
146.3622977073
 20
107.1289662763
 10
146.6074943549
 20
107.6396061388
 10
147.0019709819
 20
108.0596453185
 10
147.5106766087
 20
108.3517614907
 10
148.088410508
 20
108.4899988518
 10
148.6838384876
 20
108.4620744055
 10
149.2440541585
 20
108.2704693615
 10
149.7192798998
 20
107.9322086687
 10
150.0672898189
 20
107.4773482741
 10
150.2571617073
 20
106.94630452
 10
150.2720246144
 20
106.3862629743
 10
150.1105579059
 20
105.846985786
 10
149.7871086072
 20
105.3763900999
 10
149.330416608
 20
105.016290408
 10
148.7810609966
 20
104.798683148
 10
148.1878544299
 20
104.74290368
 10
147.6035059146
 20
104.8539082545
  0
LWPOLYLINE
  5
149
330
1F
100
AcDbEntity
  8
0
  6
HIDDEN
 62
     7
370
     0
100
AcDbPolyline
 90
       21
 70
   128
 43
0.0
 10
147.6582291375
 20
104.9470952273
 10
147.1547290866
 20
105.2093583969
 10
146.7621170677
 20
105.6049923362
 10
146.5188246807
 20
106.0952696387
 10
146.4486670795
 20
106.6321985461
 10
146.558511779
 20
107.1632207159
 10
146.8376064146
 20
107.6363559983
 10
147.2586312588
 20
108.0052906153
 10
147.7803734665
 20
108.2339106761
 10
148.3517612752
 20
108.2998372562
 10
148.916863265
 20
108.1966170027
 10
149.4203633158
 20
107.9343538331
 10
149.8129753347
 20
107.5387198938
 10
150.0562677218
 20
107.0484425913
 10
150.1264253229
 20
106.5115136839
 10
150.0165806235
 20
105.9804915141
 10
149.7374859879
 20
105.5073562317
 10
149.3164611436
 20
105.1384216147
 10
148.7947189359
 20
104.9098015539
 10
148.2233311273
 20
104.8438749738
 10
147.6582291375
 20
104.9470952273
  0
LWPOLYLINE
  5
14A
330
1F
100
AcDbEntity
  8
0
  6
HIDDEN
 62
     7
370
     0
100
AcDbPolyline
 90
       22
 70
   128
 43
0.0
 10
147.6035059146
 20
105.0462945852
 10
147.0799373806
 20
105.3142199586
 10
146.6636701898
 20
105.7152597858
 10
146.3916915089
 20
106.2137799182
 10
146.2881678372
 20
106.7654846542
 10
146.3622977073
 20
107.3213526069
 10
146.6074943549
 20
107.8319924695
 10
147.0019709819
 20
108.2520316491
 10
147.5106766087
 20
108.5441478213
 10
148.088410508
 20
108.6823851824
 10
148.6838384876
 20
108.6544607361
 10
149.2440541585
 20
108.4628556921
 10
149.7192798998
 20
108.1245949993
 10
150.0672898189
 20
107.6697346048
 10
150.2571617073
 20
107.1386908506
 10
150.2720246144
 20
106.5786493049
 10
150.1105579059
 20
106.0393721166
 10
149.7871086072
 20
105.5687764306
 10
149.330416608
 20
105.2086767386
 10
148.7810609966
 20
104.9910694786
 10
148.1878544299
 20
104.9352900106
 10
147.6035059146
 20
105.0462945852
  0
LWPOLYLINE
  5
14B
330
1F
100
AcDbEntity
  8
0
  6
HIDDEN
 62
     7
370
     0
100
AcDbPolyline
 90
       21
 70
   128
 43
0.0
 10
147.6582291375
 20
105.139481558
 10
147.1547290866
 20
105.4017447275
 10
146.7621170677
 20
105.7973786669
 10
146.5188246807
 20
106.2876559694
 10
146.4486670795
 20
106.8245848768
 10
146.558511779
 20
107.3556070465
 10
146.8376064146
 20
107.8287423289
 10
147.2586312588
 20
108.1976769459
 10
147.7803734665
 20
108.4262970067
 10
148.3517612752
 20
108.4922235868
 10
148.916863265
 20
108.3890033333
 10
149.4203633158
 20
108.1267401637
 10
149.8129753347
 20
107.7311062244
 10
150.0562677218
 20
107.2408289219
 10
150.1264253229
 20
106.7039000145
 10
150.0165806235
 20
106.1728778447
 10
149.7374859879
 20
105.6997425623
 10
149.3164611436
 20
105.3308079454
 10
148.7947189359
 20
105.1021878846
 10
148.2233311273
 20
105.0362613044
 10
147.6582291375
 20
105.139481558
  0
LWPOLYLINE
  5
14C
330
1F
100
AcDbEntity
  8
0
  6
HIDDEN
 62
     7
370
     0
100
AcDbPolyline
 90
       22
 70
   128
 43
0.0
 10
147.6035059146
 20
105.2386809158
 10
147.0799373806
 20
105.5066062893
 10
146.6636701898
 20
105.9076461165
 10
146.3916915089
 20
106.4061662488
 10
146.2881678372
 20
106.9578709848
 10
146.3622977073
 20
107.5137389376
 10
146.6074943549
 20
108.0243788001
 10
147.0019709819
 20
108.4444179797
 10
147.5106766087
 20
108.736534152
 10
148.088410508
 20
108.874771513
 10
148.6838384876
 20
108.8468470668
 10
149.2440541585
 20
108.6552420227
 10
149.7192798998
 20
108.3169813299
 10
150.0672898189
 20
107.8621209354
 10
150.2571617073
 20
107.3310771812
 10
150.2720246144
 20
106.7710356355
 10
150.1105579059
 20
106.2317584472
 10
149.7871086072
 20
105.7611627612
 10
149.330416608
 20
105.4010630692
 10
148.7810609966
 20
105.1834558092
 10
148.1878544299
 20
105.1276763413
 10
147.6035059146
 20
105.2386809158
  0
LWPOLYLINE
  5
14D
330
1F
100
AcDbEntity
  8
0
  6
HIDDEN
 62
     7
370
     0
100
AcDbPolyline
 90
       21
 70
   128
 43
0.0
 10
147.6582291375
 20
105.3318678886
 10
147.1547290866
 20
105.5941310582
 10
146.7621170677
 20
105.9897649975
 10
146.5188246807
 20
106.4800423
 10
146.4486670795
 20
107.0169712074
 10
146.558511779
 20
107.5479933772
 10
146.8376064146
 20
108.0211286595
 10
147.2586312588
 20
108.3900632765
 10
147.7803734665
 20
108.6186833373
 10
148.3517612752
 20
108.6846099174
 10
148.916863265
 20
108.5813896639
 10
149.4203633158
 20
108.3191264943
 10
149.8129753347
 20
107.923492555
 10
150.0562677218
 20
107.4332152525
 10
150.1264253229
 20
106.8962863451
 10
150.0165806235
 20
106.3652641753
 10
149.7374859879
 20
105.892128893
 10
149.3164611436
 20
105.523194276
 10
148.7947189359
 20
105.2945742152
 10
148.2233311273
 20
105.2286476351
 10
147.6582291375
 20
105.3318678886
  0
LWPOLYLINE
  5
14E
330
1F
100
AcDbEntity
  8
0
  6
HIDDEN
 62
     7
370
     0
100
AcDbPolyline
 90
       22
 70
   128
 43
0.0
 10
147.6035059146
 20
105.4310672464
 10
147.0799373806
 20
105.6989926199
 10
146.6636701898
 20
106.1000324471
 10
146.3916915089
 20
106.5985525794
 10
146.2881678372
 20
107.1502573154
 10
146.3622977073
 20
107.7061252682
 10
146.6074943549
 20
108.2167651307
 10
147.0019709819
 20
108.6368043103
 10
147.5106766087
 20
108.9289204826
 10
148.088410508
 20
109.0671578437
 10
148.6838384876
 20
109.0392333974
 10
149.2440541585
 20
108.8476283534
 10
149.7192798998
 20
108.5093676606
 10
150.0672898189
 20
108.054507266
 10
150.2571617073
 20
107.5234635119
 10
150.2720246144
 20
106.9634219661
 10
150.1105579059
 20
106.4241447779
 10
149.7871086072
 20
105.9535490918
 10
149.330416608
 20
105.5934493998
 10
148.7810609966
 20
105.3758421398
 10
148.1878544299
 20
105.3200626719
 10
147.6035059146
 20
105.4310672464
  0
LWPOLYLINE
  5
14F
330
1F
100
AcDbEntity
  8
0
  6
HIDDEN
 62
     7
370
     0
100
AcDbPolyline
 90
       21
 70
   128
 43
0.0
 10
147.6582291375
 20
105.5242542192
 10
147.1547290866
 20
105.7865173888
 10
146.7621170677
 20
106.1821513281
 10
146.5188246807
 20
106.6724286306
 10
146.4486670795
 20
107.209357538
 10
146.558511779
 20
107.7403797078
 10
146.8376064146
 20
108.2135149902
 10
147.2586312588
 20
108.5824496072
 10
147.7803734665
 20
108.8110696679
 10
148.3517612752
 20
108.8769962481
 10
148.916863265
 20
108.7737759945
 10
149.4203633158
 20
108.511512825
 10
149.8129753347
 20
108.1158788857
 10
150.0562677218
 20
107.6256015831
 10
150.1264253229
 20
107.0886726758
 10
150.0165806235
 20
106.557650506
 10
149.7374859879
 20
106.0845152236
 10
149.3164611436
 20
105.7155806066
 10
148.7947189359
 20
105.4869605458
 10
148.2233311273
 20
105.4210339657
 10
147.6582291375
 20
105.5242542192
  0
LWPOLYLINE
  5
150
330
1F
100
AcDbEntity
  8
0
  6
HIDDEN
 62
     7
370
     0
100
AcDbPolyline
 90
       22
 70
   128
 43
0.0
 10
147.6035059146
 20
105.7559863826
 10
147.0799373806
 20
106.023911756
 10
146.6636701898
 20
106.4249515832
 10
146.3916915089
 20
106.9234717156
 10
146.2881678372
 20
107.4751764516
 10
146.3622977073
 20
108.0310444043
 10
146.6074943549
 20
108.5416842669
 10
147.0019709819
 20
108.9617234465
 10
147.5106766087
 20
109.2538396187
 10
148.088410508
 20
109.3920769798
 10
148.6838384876
 20
109.3641525335
 10
149.2440541585
 20
109.1725474895
 10
149.7192798998
 20
108.8342867967
 10
150.0672898189
 20
108.3794264022
 10
150.2571617073
 20
107.848382648
 10
150.2720246144
 20
107.2883411023
 10
150.1105579059
 20
106.749063914
 10
149.7871086072
 20
106.278468228
 10
149.330416608
 20
105.918368536
 10
148.7810609966
 20
105.700761276
 10
148.1878544299
 20
105.644981808
 10
147.6035059146
 20
105.7559863826
  0
LWPOLYLINE
  5
151
330
1F
100
AcDbEntity
  8
0
  6
HIDDEN
 62
     7
370
     0
100
AcDbPolyline
 90
       19
 70
   128
 43
0.0
 10
147.7812247942
 20
106.3174242312
 10
147.3359732214
 20
106.5589873629
 10
147.0054953937
 20
106.9290835523
 10
146.8296518144
 20
107.383073737
 10
146.8296518144
 20
107.8662000004
 10
147.0054953937
 20
108.3201901851
 10
147.3359732214
 20
108.6902863745
 10
147.7812247942
 20
108.9318495062
 10
148.2875462012
 20
109.0157435014
 10
148.7938676082
 20
108.9318495062
 10
149.2391191811
 20
108.6902863745
 10
149.5695970088
 20
108.3201901851
 10
149.7454405881
 20
107.8662000004
 10
149.7454405881
 20
107.383073737
 10
149.5695970088
 20
106.9290835523
 10
149.2391191811
 20
106.5589873629
 10
148.7938676082
 20
106.3174242312
 10
148.2875462012
 20
106.2335302359
 10
147.7812247942
 20
106.3174242312
  0
LWPOLYLINE
  5
152
330
1F
100
AcDbEntity
  8
0
  6
HIDDEN
 62
     7
370
     0
100
AcDbPolyline
 90
       19
 70
   128
 43
0.0
 10
148.1868315905
 20
122.106487955
 10
148.6980537307
 20
122.1578185235
 10
149.1597626043
 20
122.3703571086
 10
149.5162693072
 20
122.7184684203
 10
149.7245738695
 20
123.1601650969
 10
149.7595516867
 20
123.6421720003
 10
149.6169839179
 20
124.1063519843
 10
149.31406634
 20
124.4967180924
 10
148.8873352836
 20
124.7661864106
 10
148.3882608119
 20
124.882255083
 10
147.8770386718
 20
124.8309245145
 10
147.4153297982
 20
124.6183859294
 10
147.0588230953
 20
124.2702746177
 10
146.850518533
 20
123.8285779411
 10
146.8155407158
 20
123.3465710377
 10
146.9581084846
 20
122.8823910537
 10
147.2610260624
 20
122.4920249456
 10
147.6877571188
 20
122.2225566274
 10
148.1868315905
 20
122.106487955
  0
LWPOLYLINE
  5
153
330
1F
100
AcDbEntity
  8
0
  6
HIDDEN
 62
     7
370
     0
100
AcDbPolyline
 90
       22
 70
   128
 43
0.0
 10
148.1514807491
 20
121.7219466868
 10
148.7456702618
 20
121.7675617391
 10
149.2991534413
 20
121.9757284155
 10
149.7627508781
 20
122.3279501933
 10
150.0952699056
 20
122.7929306219
 10
150.2671647488
 20
123.3293541495
 10
150.2631617967
 20
123.8895571919
 10
150.0836167291
 20
124.4237632501
 10
149.7444829132
 20
124.8845057717
 10
149.2758938768
 20
125.2308457616
 10
148.719485812
 20
125.4320093919
 10
148.1246980174
 20
125.4701223912
 10
147.5443799985
 20
125.3417982522
 10
147.030095558
 20
125.0584391379
 10
146.6275411255
 20
124.6452227491
 10
146.3724854287
 20
124.1388651752
 10
146.2875912857
 20
123.5843585089
 10
146.3804019136
 20
123.0309731008
 10
146.6426706808
 20
122.527879673
 10
147.0510938564
 20
122.1197802842
 10
147.5693812489
 20
121.8429363562
 10
148.1514807491
 20
121.7219466868
  0
LWPOLYLINE
  5
154
330
1F
100
AcDbEntity
  8
0
  6
HIDDEN
 62
     7
370
     0
100
AcDbPolyline
 90
       22
 70
   128
 43
0.0
 10
148.1514807491
 20
122.0468658229
 10
148.7456702618
 20
122.0924808752
 10
149.2991534413
 20
122.3006475516
 10
149.7627508781
 20
122.6528693295
 10
150.0952699056
 20
123.117849758
 10
150.2671647488
 20
123.6542732857
 10
150.2631617967
 20
124.214476328
 10
150.0836167291
 20
124.7486823863
 10
149.7444829132
 20
125.2094249079
 10
149.2758938768
 20
125.5557648978
 10
148.719485812
 20
125.7569285281
 10
148.1246980174
 20
125.7950415273
 10
147.5443799985
 20
125.6667173884
 10
147.030095558
 20
125.3833582741
 10
146.6275411255
 20
124.9701418852
 10
146.3724854287
 20
124.4637843114
 10
146.2875912857
 20
123.909277645
 10
146.3804019136
 20
123.355892237
 10
146.6426706808
 20
122.8527988091
 10
147.0510938564
 20
122.4446994204
 10
147.5693812489
 20
122.1678554924
 10
148.1514807491
 20
122.0468658229
  0
LWPOLYLINE
  5
155
330
1F
100
AcDbEntity
  8
0
  6
HIDDEN
 62
     7
370
     0
100
AcDbPolyline
 90
       19
 70
   128
 43
0.0
 10
148.1854971121
 20
123.4561789359
 10
148.7034929954
 20
123.5081896394
 10
149.1713195566
 20
123.7235443815
 10
149.532550008
 20
124.076268202
 10
149.7436146261
 20
124.5238174025
 10
149.7790559028
 20
125.0122109443
 10
149.6345990972
 20
125.4825413584
 10
149.3276678319
 20
125.8780798554
 10
148.8952825474
 20
126.1511186552
 10
148.3895952903
 20
126.2687252487
 10
147.871599407
 20
126.2167145452
 10
147.4037728458
 20
126.0013598031
 10
147.0425423944
 20
125.6486359826
 10
146.8314777764
 20
125.2010867821
 10
146.7960364997
 20
124.7126932403
 10
146.9404933053
 20
124.2423628262
 10
147.2474245706
 20
123.8468243292
 10
147.6798098551
 20
123.5737855294
 10
148.1854971121
 20
123.4561789359
  0
LWPOLYLINE
  5
156
330
1F
100
AcDbEntity
  8
0
  6
HIDDEN
 62
     7
370
     0
100
AcDbPolyline
 90
       19
 70
   128
 43
0.0
 10
148.1854971121
 20
122.452700524
 10
148.7034929954
 20
122.5047112275
 10
149.1713195566
 20
122.7200659696
 10
149.532550008
 20
123.0727897901
 10
149.7436146261
 20
123.5203389906
 10
149.7790559028
 20
124.0087325324
 10
149.6345990972
 20
124.4790629465
 10
149.3276678319
 20
124.8746014435
 10
148.8952825474
 20
125.1476402432
 10
148.3895952903
 20
125.2652468368
 10
147.871599407
 20
125.2132361333
 10
147.4037728458
 20
124.9978813912
 10
147.0425423944
 20
124.6451575707
 10
146.8314777764
 20
124.1976083702
 10
146.7960364997
 20
123.7092148284
 10
146.9404933053
 20
123.2388844143
 10
147.2474245706
 20
122.8433459173
 10
147.6798098551
 20
122.5703071175
 10
148.1854971121
 20
122.452700524
  0
LWPOLYLINE
  5
157
330
1F
100
AcDbEntity
  8
0
  6
HIDDEN
 62
     7
370
     0
100
AcDbPolyline
 90
       22
 70
   128
 43
0.0
 10
148.1514807491
 20
122.2392521536
 10
148.7456702618
 20
122.2848672058
 10
149.2991534413
 20
122.4930338823
 10
149.7627508781
 20
122.8452556601
 10
150.0952699056
 20
123.3102360886
 10
150.2671647488
 20
123.8466596163
 10
150.2631617967
 20
124.4068626587
 10
150.0836167291
 20
124.9410687169
 10
149.7444829132
 20
125.4018112385
 10
149.2758938768
 20
125.7481512284
 10
148.719485812
 20
125.9493148587
 10
148.1246980174
 20
125.987427858
 10
147.5443799985
 20
125.859103719
 10
147.030095558
 20
125.5757446047
 10
146.6275411255
 20
125.1625282159
 10
146.3724854287
 20
124.656170642
 10
146.2875912857
 20
124.1016639757
 10
146.3804019136
 20
123.5482785676
 10
146.6426706808
 20
123.0451851397
 10
147.0510938564
 20
122.637085751
 10
147.5693812489
 20
122.360241823
 10
148.1514807491
 20
122.2392521536
  0
LWPOLYLINE
  5
158
330
1F
100
AcDbEntity
  8
0
  6
HIDDEN
 62
     7
370
     0
100
AcDbPolyline
 90
       21
 70
   128
 43
0.0
 10
148.1623659853
 20
122.2449648756
 10
148.735766636
 20
122.2930438203
 10
149.2652923477
 20
122.5052742622
 10
149.6991094541
 20
122.8608816069
 10
149.9947529145
 20
123.3250565299
 10
150.1232830869
 20
123.8523623556
 10
150.0721185427
 20
124.3911827158
 10
149.8462676238
 20
124.8887741196
 10
149.4678381918
 20
125.2964288533
 10
148.9738735562
 20
125.5742428314
 10
148.4127264172
 20
125.695021686
 10
147.8393257665
 20
125.6469427413
 10
147.3098000548
 20
125.4347122995
 10
146.8759829483
 20
125.0791049547
 10
146.580339488
 20
124.6149300317
 10
146.4518093155
 20
124.087624206
 10
146.5029738598
 20
123.5488038458
 10
146.7288247787
 20
123.051212442
 10
147.1072542106
 20
122.6435577083
 10
147.6012188462
 20
122.3657437302
 10
148.1623659853
 20
122.2449648756
  0
LWPOLYLINE
  5
159
330
1F
100
AcDbEntity
  8
0
  6
HIDDEN
 62
     7
370
     0
100
AcDbPolyline
 90
       22
 70
   128
 43
0.0
 10
148.1514807491
 20
122.4316384842
 10
148.7456702618
 20
122.4772535365
 10
149.2991534413
 20
122.6854202129
 10
149.7627508781
 20
123.0376419907
 10
150.0952699056
 20
123.5026224193
 10
150.2671647488
 20
124.0390459469
 10
150.2631617967
 20
124.5992489893
 10
150.0836167291
 20
125.1334550475
 10
149.7444829132
 20
125.5941975691
 10
149.2758938768
 20
125.940537559
 10
148.719485812
 20
126.1417011893
 10
148.1246980174
 20
126.1798141886
 10
147.5443799985
 20
126.0514900496
 10
147.030095558
 20
125.7681309353
 10
146.6275411255
 20
125.3549145465
 10
146.3724854287
 20
124.8485569726
 10
146.2875912857
 20
124.2940503063
 10
146.3804019136
 20
123.7406648982
 10
146.6426706808
 20
123.2375714704
 10
147.0510938564
 20
122.8294720816
 10
147.5693812489
 20
122.5526281536
 10
148.1514807491
 20
122.4316384842
  0
LWPOLYLINE
  5
15A
330
1F
100
AcDbEntity
  8
0
  6
HIDDEN
 62
     7
370
     0
100
AcDbPolyline
 90
       21
 70
   128
 43
0.0
 10
148.1623659853
 20
122.4373512062
 10
148.735766636
 20
122.4854301509
 10
149.2652923477
 20
122.6976605928
 10
149.6991094541
 20
123.0532679375
 10
149.9947529145
 20
123.5174428605
 10
150.1232830869
 20
124.0447486862
 10
150.0721185427
 20
124.5835690465
 10
149.8462676238
 20
125.0811604502
 10
149.4678381918
 20
125.488815184
 10
148.9738735562
 20
125.766629162
 10
148.4127264172
 20
125.8874080166
 10
147.8393257665
 20
125.8393290719
 10
147.3098000548
 20
125.6270986301
 10
146.8759829483
 20
125.2714912854
 10
146.580339488
 20
124.8073163624
 10
146.4518093155
 20
124.2800105367
 10
146.5029738598
 20
123.7411901764
 10
146.7288247787
 20
123.2435987726
 10
147.1072542106
 20
122.8359440389
 10
147.6012188462
 20
122.5581300608
 10
148.1623659853
 20
122.4373512062
  0
LWPOLYLINE
  5
15B
330
1F
100
AcDbEntity
  8
0
  6
HIDDEN
 62
     7
370
     0
100
AcDbPolyline
 90
       22
 70
   128
 43
0.0
 10
148.1514807491
 20
122.6240248148
 10
148.7456702618
 20
122.6696398671
 10
149.2991534413
 20
122.8778065435
 10
149.7627508781
 20
123.2300283213
 10
150.0952699056
 20
123.6950087499
 10
150.2671647488
 20
124.2314322776
 10
150.2631617967
 20
124.7916353199
 10
150.0836167291
 20
125.3258413782
 10
149.7444829132
 20
125.7865838997
 10
149.2758938768
 20
126.1329238896
 10
148.719485812
 20
126.3340875199
 10
148.1246980174
 20
126.3722005192
 10
147.5443799985
 20
126.2438763802
 10
147.030095558
 20
125.9605172659
 10
146.6275411255
 20
125.5473008771
 10
146.3724854287
 20
125.0409433032
 10
146.2875912857
 20
124.4864366369
 10
146.3804019136
 20
123.9330512288
 10
146.6426706808
 20
123.429957801
 10
147.0510938564
 20
123.0218584122
 10
147.5693812489
 20
122.7450144842
 10
148.1514807491
 20
122.6240248148
  0
LWPOLYLINE
  5
15C
330
1F
100
AcDbEntity
  8
0
  6
HIDDEN
 62
     7
370
     0
100
AcDbPolyline
 90
       21
 70
   128
 43
0.0
 10
148.1623659853
 20
122.6297375369
 10
148.735766636
 20
122.6778164815
 10
149.2652923477
 20
122.8900469234
 10
149.6991094541
 20
123.2456542681
 10
149.9947529145
 20
123.7098291911
 10
150.1232830869
 20
124.2371350168
 10
150.0721185427
 20
124.7759553771
 10
149.8462676238
 20
125.2735467808
 10
149.4678381918
 20
125.6812015146
 10
148.9738735562
 20
125.9590154927
 10
148.4127264172
 20
126.0797943473
 10
147.8393257665
 20
126.0317154026
 10
147.3098000548
 20
125.8194849607
 10
146.8759829483
 20
125.463877616
 10
146.580339488
 20
124.999702693
 10
146.4518093155
 20
124.4723968673
 10
146.5029738598
 20
123.933576507
 10
146.7288247787
 20
123.4359851033
 10
147.1072542106
 20
123.0283303695
 10
147.6012188462
 20
122.7505163915
 10
148.1623659853
 20
122.6297375369
  0
LWPOLYLINE
  5
15D
330
1F
100
AcDbEntity
  8
0
  6
HIDDEN
 62
     7
370
     0
100
AcDbPolyline
 90
       22
 70
   128
 43
0.0
 10
148.1514807491
 20
122.8164111454
 10
148.7456702618
 20
122.8620261977
 10
149.2991534413
 20
123.0701928741
 10
149.7627508781
 20
123.4224146519
 10
150.0952699056
 20
123.8873950805
 10
150.2671647488
 20
124.4238186082
 10
150.2631617967
 20
124.9840216505
 10
150.0836167291
 20
125.5182277088
 10
149.7444829132
 20
125.9789702304
 10
149.2758938768
 20
126.3253102203
 10
148.719485812
 20
126.5264738505
 10
148.1246980174
 20
126.5645868498
 10
147.5443799985
 20
126.4362627109
 10
147.030095558
 20
126.1529035966
 10
146.6275411255
 20
125.7396872077
 10
146.3724854287
 20
125.2333296339
 10
146.2875912857
 20
124.6788229675
 10
146.3804019136
 20
124.1254375594
 10
146.6426706808
 20
123.6223441316
 10
147.0510938564
 20
123.2142447429
 10
147.5693812489
 20
122.9374008148
 10
148.1514807491
 20
122.8164111454
  0
LWPOLYLINE
  5
15E
330
1F
100
AcDbEntity
  8
0
  6
HIDDEN
 62
     7
370
     0
100
AcDbPolyline
 90
       21
 70
   128
 43
0.0
 10
148.1623659853
 20
122.8221238675
 10
148.735766636
 20
122.8702028122
 10
149.2652923477
 20
123.082433254
 10
149.6991094541
 20
123.4380405987
 10
149.9947529145
 20
123.9022155217
 10
150.1232830869
 20
124.4295213475
 10
150.0721185427
 20
124.9683417077
 10
149.8462676238
 20
125.4659331115
 10
149.4678381918
 20
125.8735878452
 10
148.9738735562
 20
126.1514018233
 10
148.4127264172
 20
126.2721806779
 10
147.8393257665
 20
126.2241017332
 10
147.3098000548
 20
126.0118712913
 10
146.8759829483
 20
125.6562639466
 10
146.580339488
 20
125.1920890236
 10
146.4518093155
 20
124.6647831979
 10
146.5029738598
 20
124.1259628376
 10
146.7288247787
 20
123.6283714339
 10
147.1072542106
 20
123.2207167001
 10
147.6012188462
 20
122.9429027221
 10
148.1623659853
 20
122.8221238675
  0
LWPOLYLINE
  5
15F
330
1F
100
AcDbEntity
  8
0
  6
HIDDEN
 62
     7
370
     0
100
AcDbPolyline
 90
       22
 70
   128
 43
0.0
 10
148.1514807491
 20
122.9532192028
 10
148.7456702618
 20
122.998834255
 10
149.2991534413
 20
123.2070009314
 10
149.7627508781
 20
123.5592227093
 10
150.0952699056
 20
124.0242031378
 10
150.2671647488
 20
124.5606266655
 10
150.2631617967
 20
125.1208297079
 10
150.0836167291
 20
125.6550357661
 10
149.7444829132
 20
126.1157782877
 10
149.2758938768
 20
126.4621182776
 10
148.719485812
 20
126.6632819079
 10
148.1246980174
 20
126.7013949071
 10
147.5443799985
 20
126.5730707682
 10
147.030095558
 20
126.2897116539
 10
146.6275411255
 20
125.876495265
 10
146.3724854287
 20
125.3701376912
 10
146.2875912857
 20
124.8156310249
 10
146.3804019136
 20
124.2622456168
 10
146.6426706808
 20
123.7591521889
 10
147.0510938564
 20
123.3510528002
 10
147.5693812489
 20
123.0742088722
 10
148.1514807491
 20
122.9532192028
  0
LWPOLYLINE
  5
160
330
1F
100
AcDbEntity
  8
0
  6
HIDDEN
 62
     7
370
     0
100
AcDbPolyline
 90
       21
 70
   128
 43
0.0
 10
148.1582840217
 20
123.0811727608
 10
148.7503825197
 20
123.1308194972
 10
149.2971753742
 20
123.349970497
 10
149.7451386906
 20
123.7171737334
 10
150.0504226986
 20
124.1964847951
 10
150.1831440723
 20
124.740985376
 10
150.130311119
 20
125.2973759654
 10
149.8970954963
 20
125.8111931758
 10
149.5063259741
 20
126.2321409987
 10
148.9962537961
 20
126.5190141282
 10
148.4168083808
 20
126.6437314238
 10
147.8247098827
 20
126.5940846874
 10
147.2779170283
 20
126.3749336876
 10
146.8299537118
 20
126.0077304513
 10
146.5246697038
 20
125.5284193895
 10
146.3919483301
 20
124.9839188086
 10
146.4447812834
 20
124.4275282192
 10
146.6779969062
 20
123.9137110088
 10
147.0687664283
 20
123.4927631859
 10
147.5788386064
 20
123.2058900564
 10
148.1582840217
 20
123.0811727608
  0
LWPOLYLINE
  5
161
330
1F
100
AcDbEntity
  8
0
  6
HIDDEN
 62
     7
370
     0
100
AcDbPolyline
 90
       19
 70
   128
 43
0.0
 10
140.2078979765
 20
105.0853795003
 10
140.4856441182
 20
105.2124261184
 10
140.691794859
 20
105.5142306787
 10
140.8014853771
 20
105.9543910972
 10
140.8014853771
 20
106.4798175311
 10
140.691794859
 20
107.0271357982
 10
140.4856441182
 20
107.5303312379
 10
140.2078979765
 20
107.9287110537
 10
139.8920567176
 20
108.1742247605
 10
139.5762154587
 20
108.2372597818
 10
139.2984693169
 20
108.1102131637
 10
139.0923185761
 20
107.8084086033
 10
138.982628058
 20
107.3682481849
 10
138.982628058
 20
106.842821751
 10
139.0923185761
 20
106.2955034839
 10
139.2984693169
 20
105.7923080442
 10
139.5762154587
 20
105.3939282283
 10
139.8920567176
 20
105.1484145216
 10
140.2078979765
 20
105.0853795003
  0
LWPOLYLINE
  5
162
330
1F
100
AcDbEntity
  8
0
  6
HIDDEN
 62
     7
370
     0
100
AcDbPolyline
 90
       22
 70
   128
 43
0.0
 10
140.4688517923
 20
104.7478020153
 10
140.7691583662
 20
104.8690410253
 10
141.0079194181
 20
105.1534567307
 10
141.1639199806
 20
105.5757775481
 10
141.2232987193
 20
106.0984784194
 10
141.1807795726
 20
106.6751150783
 10
141.0401405532
 20
107.2544508273
 10
140.8138780553
 20
107.7850091427
 10
140.5220964948
 20
108.2196475897
 10
140.1907219436
 20
108.5197466351
 10
139.849198485
 20
108.6586411616
 10
139.5278719769
 20
108.6239897811
 10
139.2552936897
 20
108.4188714208
 10
139.0556834005
 20
108.0615117471
 10
138.9467773594
 20
107.5836637353
 10
138.9382523461
 20
107.0277862782
 10
139.0308658454
 20
106.4432715274
 10
139.2163887415
 20
105.8820561835
 10
139.4783365109
 20
105.3940066928
 10
139.7934339447
 20
105.0224883941
 10
140.1336832533
 20
104.8005123188
 10
140.4688517923
 20
104.7478020153
  0
LWPOLYLINE
  5
163
330
1F
100
AcDbEntity
  8
0
  6
HIDDEN
 62
     7
370
     0
100
AcDbPolyline
 90
       22
 70
   128
 43
0.0
 10
143.7658022957
 20
105.5373724788
 10
144.0661088697
 20
105.6586114888
 10
144.3048699215
 20
105.9430271943
 10
144.4608704841
 20
106.3653480116
 10
144.5202492227
 20
106.8880488829
 10
144.477730076
 20
107.4646855419
 10
144.3370910567
 20
108.0440212909
 10
144.1108285588
 20
108.5745796063
 10
143.8190469982
 20
109.0092180533
 10
143.487672447
 20
109.3093170987
 10
143.1461489884
 20
109.4482116252
 10
142.8248224803
 20
109.4135602447
 10
142.5522441932
 20
109.2084418843
 10
142.352633904
 20
108.8510822107
 10
142.2437278629
 20
108.3732341989
 10
142.2352028495
 20
107.8173567418
 10
142.3278163488
 20
107.232841991
 10
142.5133392449
 20
106.6716266471
 10
142.7752870143
 20
106.1835771563
 10
143.0903844482
 20
105.8120588577
 10
143.4306337567
 20
105.5900827824
 10
143.7658022957
 20
105.5373724788
  0
LINE
  5
164
330
1F
100
AcDbEntity
  8
0
  6
HIDDEN
 62
     7
370
     0
100
AcDbLine
 10
140.3177807493
 20
107.284579367
 30
0.0
 11
139.6655336917
 21
107.7915922677
 31
0.0
  0
LINE
  5
165
330
1F
100
AcDbEntity
  8
0
  6
HIDDEN
 62
     7
370
     0
100
AcDbLine
 10
139.2398096599
 20
107.1683325418
 30
0.0
 11
139.6655336917
 21
107.7915922677
 31
0.0
  0
LINE
  5
166
330
1F
100
AcDbEntity
  8
0
  6
HIDDEN
 62
     7
370
     0
100
AcDbLine
 10
139.4663326858
 20
106.0380599151
 30
0.0
 11
139.2398096599
 21
107.1683325418
 31
0.0
  0
LINE
  5
167
330
1F
100
AcDbEntity
  8
0
  6
HIDDEN
 62
     7
370
     0
100
AcDbLine
 10
139.4663326858
 20
106.0380599151
 30
0.0
 11
140.1185797435
 21
105.5310470144
 31
0.0
  0
LINE
  5
168
330
1F
100
AcDbEntity
  8
0
  6
HIDDEN
 62
     7
370
     0
100
AcDbLine
 10
140.5443037752
 20
106.1543067403
 30
0.0
 11
140.1185797435
 21
105.5310470144
 31
0.0
  0
LINE
  5
169
330
1F
100
AcDbEntity
  8
0
  6
HIDDEN
 62
     7
370
     0
100
AcDbLine
 10
140.5443037752
 20
106.1543067403
 30
0.0
 11
140.3177807493
 21
107.284579367
 31
0.0
  0
LINE
  5
16A
330
1F
100
AcDbEntity
  8
0
  6
HIDDEN
 62
     7
370
     0
100
AcDbLine
 10
142.36566086
 20
107.7750161044
 30
0.0
 11
140.3177807493
 21
107.284579367
 31
0.0
  0
LINE
  5
16B
330
1F
100
AcDbEntity
  8
0
  6
HIDDEN
 62
     7
370
     0
100
AcDbLine
 10
142.5921838859
 20
106.6447434777
 30
0.0
 11
140.5443037752
 21
106.1543067403
 31
0.0
  0
LINE
  5
16C
330
1F
100
AcDbEntity
  8
0
  6
HIDDEN
 62
     7
370
     0
100
AcDbLine
 10
141.2876897706
 20
107.6587692792
 30
0.0
 11
141.7134138024
 21
108.2820290051
 31
0.0
  0
LINE
  5
16D
330
1F
100
AcDbEntity
  8
0
  6
HIDDEN
 62
     7
370
     0
100
AcDbLine
 10
141.2876897706
 20
107.6587692792
 30
0.0
 11
139.2398096599
 21
107.1683325418
 31
0.0
  0
LINE
  5
16E
330
1F
100
AcDbEntity
  8
0
  6
HIDDEN
 62
     7
370
     0
100
AcDbLine
 10
141.7134138024
 20
108.2820290051
 30
0.0
 11
139.6655336917
 21
107.7915922677
 31
0.0
  0
LINE
  5
16F
330
1F
100
AcDbEntity
  8
0
  6
HIDDEN
 62
     7
370
     0
100
AcDbLine
 10
141.5142127965
 20
106.5284966525
 30
0.0
 11
139.4663326858
 21
106.0380599151
 31
0.0
  0
LINE
  5
170
330
1F
100
AcDbEntity
  8
0
  6
HIDDEN
 62
     7
370
     0
100
AcDbLine
 10
141.5142127965
 20
106.5284966525
 30
0.0
 11
142.1664598542
 21
106.0214837518
 31
0.0
  0
LINE
  5
171
330
1F
100
AcDbEntity
  8
0
  6
HIDDEN
 62
     7
370
     0
100
AcDbLine
 10
142.1664598542
 20
106.0214837518
 30
0.0
 11
140.1185797435
 21
105.5310470144
 31
0.0
  0
LINE
  5
172
330
1F
100
AcDbEntity
  8
0
  6
HIDDEN
 62
     7
370
     0
100
AcDbLine
 10
141.5142127965
 20
106.5284966525
 30
0.0
 11
141.2876897706
 21
107.6587692792
 31
0.0
  0
LINE
  5
173
330
1F
100
AcDbEntity
  8
0
  6
HIDDEN
 62
     7
370
     0
100
AcDbLine
 10
142.5921838859
 20
106.6447434777
 30
0.0
 11
142.1664598542
 21
106.0214837518
 31
0.0
  0
LINE
  5
174
330
1F
100
AcDbEntity
  8
0
  6
HIDDEN
 62
     7
370
     0
100
AcDbLine
 10
142.5921838859
 20
106.6447434777
 30
0.0
 11
142.36566086
 21
107.7750161044
 31
0.0
  0
LINE
  5
175
330
1F
100
AcDbEntity
  8
0
  6
HIDDEN
 62
     7
370
     0
100
AcDbLine
 10
142.36566086
 20
107.7750161044
 30
0.0
 11
141.7134138024
 21
108.2820290051
 31
0.0
  0
LWPOLYLINE
  5
176
330
1F
100
AcDbEntity
  8
0
  6
HIDDEN
 62
     7
370
     0
100
AcDbPolyline
 90
       17
 70
   128
 43
0.0
 10
144.2330353077
 20
106.418637106
 10
144.4721952187
 20
106.5395783453
 10
144.6376129274
 20
106.8283826881
 10
144.7041050874
 20
107.2410822914
 10
144.6615488699
 20
107.7148473816
 10
144.5164230733
 20
108.1775515185
 10
144.2908217846
 20
108.5587521916
 10
144.019090755
 20
108.8004150541
 10
143.7425985703
 20
108.8657491258
 10
143.5034386594
 20
108.7448078865
 10
143.3380209506
 20
108.4560035436
 10
143.2715287907
 20
108.0433039404
 10
143.3140850081
 20
107.5695388501
 10
143.4592108047
 20
107.1068347133
 10
143.6848120934
 20
106.7256340402
 10
143.9565431231
 20
106.4839711777
 10
144.2330353077
 20
106.418637106
  0
LWPOLYLINE
  5
177
330
1F
100
AcDbEntity
  8
0
  6
HIDDEN
 62
     7
370
     0
100
AcDbPolyline
 90
       22
 70
   128
 43
0.0
 10
142.9811035159
 20
121.6662566772
 10
142.6807969419
 20
121.7874956872
 10
142.4420358901
 20
122.0719113927
 10
142.2860353275
 20
122.49423221
 10
142.2266565889
 20
123.0169330813
 10
142.2691757356
 20
123.5935697403
 10
142.4098147549
 20
124.1729054893
 10
142.6360772528
 20
124.7034638046
 10
142.9278588134
 20
125.1381022517
 10
143.2592333645
 20
125.4382012971
 10
143.6007568232
 20
125.5770958236
 10
143.9220833313
 20
125.5424444431
 10
144.1946616184
 20
125.3373260827
 10
144.3942719076
 20
124.979966409
 10
144.5031779487
 20
124.5021183972
 10
144.5117029621
 20
123.9462409402
 10
144.4190894628
 20
123.3617261894
 10
144.2335665667
 20
122.8005108455
 10
143.9716187973
 20
122.3124613547
 10
143.6565213634
 20
121.9409430561
 10
143.3162720549
 20
121.7189669808
 10
142.9811035159
 20
121.6662566772
  0
LWPOLYLINE
  5
178
330
1F
100
AcDbEntity
  8
0
  6
HIDDEN
 62
     7
370
     0
100
AcDbPolyline
 90
       17
 70
   128
 43
0.0
 10
143.7425985703
 20
122.2532592619
 10
143.5034386594
 20
122.3742005012
 10
143.3380209506
 20
122.663004844
 10
143.2715287907
 20
123.0757044473
 10
143.3140850081
 20
123.5494695375
 10
143.4592108047
 20
124.0121736744
 10
143.6848120934
 20
124.3933743475
 10
143.9565431231
 20
124.63503721
 10
144.2330353077
 20
124.7003712817
 10
144.4721952187
 20
124.5794300424
 10
144.6376129274
 20
124.2906256996
 10
144.7041050874
 20
123.8779260963
 10
144.6615488699
 20
123.4041610061
 10
144.5164230733
 20
122.9414568692
 10
144.2908217846
 20
122.5602561961
 10
144.019090755
 20
122.3185933336
 10
143.7425985703
 20
122.2532592619
  0
LWPOLYLINE
  5
179
330
1F
100
AcDbEntity
  8
0
  6
HIDDEN
 62
     7
370
     0
100
AcDbPolyline
 90
       22
 70
   128
 43
0.0
 10
139.6841530124
 20
122.4558271408
 10
139.3838464385
 20
122.5770661508
 10
139.1450853866
 20
122.8614818562
 10
138.9890848241
 20
123.2838026736
 10
138.9297060854
 20
123.8065035449
 10
138.9722252321
 20
124.3831402039
 10
139.1128642515
 20
124.9624759529
 10
139.3391267494
 20
125.4930342682
 10
139.6309083099
 20
125.9276727153
 10
139.9622828611
 20
126.2277717606
 10
140.3038063197
 20
126.3666662872
 10
140.6251328278
 20
126.3320149066
 10
140.8977111149
 20
126.1268965463
 10
141.0973214042
 20
125.7695368726
 10
141.2062274453
 20
125.2916888608
 10
141.2147524586
 20
124.7358114037
 10
141.1221389593
 20
124.1512966529
 10
140.9366160632
 20
123.5900813091
 10
140.6746682938
 20
123.1020318183
 10
140.35957086
 20
122.7305135196
 10
140.0193215514
 20
122.5085374443
 10
139.6841530124
 20
122.4558271408
  0
LINE
  5
17A
330
1F
100
AcDbEntity
  8
0
  6
HIDDEN
 62
     7
370
     0
100
AcDbLine
 10
141.5142127965
 20
124.5905117352
 30
0.0
 11
142.1664598542
 21
125.0975246359
 31
0.0
  0
LINE
  5
17B
330
1F
100
AcDbEntity
  8
0
  6
HIDDEN
 62
     7
370
     0
100
AcDbLine
 10
141.5142127965
 20
124.5905117352
 30
0.0
 11
139.4663326858
 21
125.0809484726
 31
0.0
  0
LINE
  5
17C
330
1F
100
AcDbEntity
  8
0
  6
HIDDEN
 62
     7
370
     0
100
AcDbLine
 10
141.2876897706
 20
123.4602391085
 30
0.0
 11
141.5142127965
 21
124.5905117352
 31
0.0
  0
LINE
  5
17D
330
1F
100
AcDbEntity
  8
0
  6
HIDDEN
 62
     7
370
     0
100
AcDbLine
 10
141.2876897706
 20
123.4602391085
 30
0.0
 11
139.2398096599
 21
123.9506758459
 31
0.0
  0
LINE
  5
17E
330
1F
100
AcDbEntity
  8
0
  6
HIDDEN
 62
     7
370
     0
100
AcDbLine
 10
141.2876897706
 20
123.4602391085
 30
0.0
 11
141.7134138024
 21
122.8369793826
 31
0.0
  0
LWPOLYLINE
  5
17F
330
1F
100
AcDbEntity
  8
0
  6
HIDDEN
 62
     7
370
     0
100
AcDbPolyline
 90
       19
 70
   128
 43
0.0
 10
139.5762154587
 20
122.8817486059
 10
139.2984693169
 20
123.008795224
 10
139.0923185761
 20
123.3105997844
 10
138.982628058
 20
123.7507602028
 10
138.982628058
 20
124.2761866367
 10
139.0923185761
 20
124.8235049038
 10
139.2984693169
 20
125.3267003435
 10
139.5762154587
 20
125.7250801593
 10
139.8920567176
 20
125.9705938661
 10
140.2078979765
 20
126.0336288874
 10
140.4856441182
 20
125.9065822693
 10
140.691794859
 20
125.6047777089
 10
140.8014853771
 20
125.1646172905
 10
140.8014853771
 20
124.6391908566
 10
140.691794859
 20
124.0918725895
 10
140.4856441182
 20
123.5886771498
 10
140.2078979765
 20
123.190297334
 10
139.8920567176
 20
122.9447836272
 10
139.5762154587
 20
122.8817486059
  0
LINE
  5
180
330
1F
100
AcDbEntity
  8
0
  6
HIDDEN
 62
     7
370
     0
100
AcDbLine
 10
139.2398096599
 20
123.9506758459
 30
0.0
 11
139.6655336917
 21
123.32741612
 31
0.0
  0
LINE
  5
181
330
1F
100
AcDbEntity
  8
0
  6
HIDDEN
 62
     7
370
     0
100
AcDbLine
 10
139.2398096599
 20
123.9506758459
 30
0.0
 11
139.4663326858
 21
125.0809484726
 31
0.0
  0
LINE
  5
182
330
1F
100
AcDbEntity
  8
0
  6
HIDDEN
 62
     7
370
     0
100
AcDbLine
 10
139.4663326858
 20
125.0809484726
 30
0.0
 11
140.1185797435
 21
125.5879613733
 31
0.0
  0
LINE
  5
183
330
1F
100
AcDbEntity
  8
0
  6
HIDDEN
 62
     7
370
     0
100
AcDbLine
 10
142.5921838859
 20
124.47426491
 30
0.0
 11
140.5443037752
 21
124.9647016474
 31
0.0
  0
LINE
  5
184
330
1F
100
AcDbEntity
  8
0
  6
HIDDEN
 62
     7
370
     0
100
AcDbLine
 10
140.5443037752
 20
124.9647016474
 30
0.0
 11
140.1185797435
 21
125.5879613733
 31
0.0
  0
LINE
  5
185
330
1F
100
AcDbEntity
  8
0
  6
HIDDEN
 62
     7
370
     0
100
AcDbLine
 10
142.1664598542
 20
125.0975246359
 30
0.0
 11
140.1185797435
 21
125.5879613733
 31
0.0
  0
LINE
  5
186
330
1F
100
AcDbEntity
  8
0
  6
HIDDEN
 62
     7
370
     0
100
AcDbLine
 10
142.5921838859
 20
124.47426491
 30
0.0
 11
142.1664598542
 21
125.0975246359
 31
0.0
  0
LINE
  5
187
330
1F
100
AcDbEntity
  8
0
  6
HIDDEN
 62
     7
370
     0
100
AcDbLine
 10
142.36566086
 20
123.3439922833
 30
0.0
 11
140.3177807493
 21
123.8344290207
 31
0.0
  0
LINE
  5
188
330
1F
100
AcDbEntity
  8
0
  6
HIDDEN
 62
     7
370
     0
100
AcDbLine
 10
140.3177807493
 20
123.8344290207
 30
0.0
 11
139.6655336917
 21
123.32741612
 31
0.0
  0
LINE
  5
189
330
1F
100
AcDbEntity
  8
0
  6
HIDDEN
 62
     7
370
     0
100
AcDbLine
 10
141.7134138024
 20
122.8369793826
 30
0.0
 11
139.6655336917
 21
123.32741612
 31
0.0
  0
LINE
  5
18A
330
1F
100
AcDbEntity
  8
0
  6
HIDDEN
 62
     7
370
     0
100
AcDbLine
 10
142.36566086
 20
123.3439922833
 30
0.0
 11
141.7134138024
 21
122.8369793826
 31
0.0
  0
LINE
  5
18B
330
1F
100
AcDbEntity
  8
0
  6
HIDDEN
 62
     7
370
     0
100
AcDbLine
 10
140.3177807493
 20
123.8344290207
 30
0.0
 11
140.5443037752
 21
124.9647016474
 31
0.0
  0
LINE
  5
18C
330
1F
100
AcDbEntity
  8
0
  6
HIDDEN
 62
     7
370
     0
100
AcDbLine
 10
142.36566086
 20
123.3439922833
 30
0.0
 11
142.5921838859
 21
124.47426491
 31
0.0
  0
LINE
  5
18D
330
1F
100
AcDbEntity
  8
0
  6
HIDDEN
 62
     7
370
     0
100
AcDbLine
 10
150.2875462012
 20
104.7006611243
 30
0.0
 11
150.2875462012
 21
107.5220308257
 31
0.0
  0
LINE
  5
18E
330
1F
100
AcDbEntity
  8
0
  6
HIDDEN
 62
     7
370
     0
100
AcDbLine
 10
146.2875462012
 20
107.5050765914
 30
0.0
 11
146.2875462012
 21
105.9836205951
 31
0.0
  0
LINE
  5
18F
330
1F
100
AcDbEntity
  8
0
  6
HIDDEN
 62
     7
370
     0
100
AcDbLine
 10
138.4875462012
 20
104.1655791182
 30
0.0
 11
140.3811455414
 21
104.6190679126
 31
0.0
  0
LINE
  5
190
330
1F
100
AcDbEntity
  8
0
  6
HIDDEN
 62
     7
370
     0
100
AcDbLine
 10
139.4029678937
 20
108.7035713695
 30
0.0
 11
138.4875462012
 21
108.4843415299
 31
0.0
  0
LINE
  5
191
330
1F
100
AcDbEntity
  8
0
  6
HIDDEN
 62
     7
370
     0
100
AcDbLine
 10
140.4105069261
 20
105.0888240703
 30
0.0
 11
147.6175673606
 21
106.8148075336
 31
0.0
  0
LINE
  5
192
330
1F
100
AcDbEntity
  8
0
  6
HIDDEN
 62
     7
370
     0
100
AcDbLine
 10
147.6175673606
 20
110.208120857
 30
0.0
 11
139.6419387744
 21
108.2980767865
 31
0.0
  0
LINE
  5
193
330
1F
100
AcDbEntity
  8
0
  6
HIDDEN
 62
     7
370
     0
100
AcDbLine
 10
149.9375462012
 20
107.5656006288
 30
0.0
 11
149.9375462012
 21
114.1065453492
 31
0.0
  0
LINE
  5
194
330
1F
100
AcDbEntity
  8
0
  6
HIDDEN
 62
     7
370
     0
100
AcDbLine
 10
146.6375462012
 20
107.5878400723
 30
0.0
 11
146.6375462012
 21
107.5656006288
 31
0.0
  0
LINE
  5
195
330
1F
100
AcDbEntity
  8
0
  6
HIDDEN
 62
     7
370
     0
100
AcDbLine
 10
146.6375462012
 20
114.1067041864
 30
0.0
 11
146.6375462012
 21
108.9656874217
 31
0.0
  0
LINE
  5
196
330
1F
100
AcDbEntity
  8
0
  6
HIDDEN
 62
     7
370
     0
100
AcDbLine
 10
219.3875462012
 20
129.0595041938
 30
0.0
 11
218.9375462012
 21
128.0944760796
 31
0.0
  0
LINE
  5
197
330
1F
100
AcDbEntity
  8
0
  6
HIDDEN
 62
     7
370
     0
100
AcDbLine
 10
218.9375462012
 20
103.0245323081
 30
0.0
 11
219.3875462012
 21
102.0595041938
 31
0.0
  0
LINE
  5
198
330
1F
100
AcDbEntity
  8
0
  6
HIDDEN
 62
     7
370
     0
100
AcDbLine
 10
218.934724641
 20
126.3595041938
 30
0.0
 11
216.0375462012
 21
126.3595041938
 31
0.0
  0
LINE
  5
199
330
1F
100
AcDbEntity
  8
0
  6
HIDDEN
 62
     7
370
     0
100
AcDbLine
 10
216.0375462012
 20
104.7595041938
 30
0.0
 11
218.9375462012
 21
104.7595041938
 31
0.0
  0
LINE
  5
19A
330
1F
100
AcDbEntity
  8
0
  6
HIDDEN
 62
     7
370
     0
100
AcDbLine
 10
216.0375462012
 20
125.0213844092
 30
0.0
 11
215.2375462012
 21
124.5595041938
 31
0.0
  0
LINE
  5
19B
330
1F
100
AcDbEntity
  8
0
  6
HIDDEN
 62
     7
370
     0
100
AcDbLine
 10
215.2375462012
 20
106.5595041938
 30
0.0
 11
216.0375462012
 21
106.0976239785
 31
0.0
  0
ARC
  5
19C
330
1F
100
AcDbEntity
  8
0
  6
HIDDEN
 62
     7
370
     0
100
AcDbCircle
 10
67.8375462012
 20
106.2595041938
 30
0.0
 40
0.7999999999999972
100
AcDbArc
 50
90.0
 51
180.0
  0
ARC
  5
19D
330
1F
100
AcDbEntity
  8
0
  6
HIDDEN
 62
     7
370
     0
100
AcDbCircle
 10
67.8375462012
 20
124.8595041938
 30
0.0
 40
0.7999999999999972
100
AcDbArc
 50
180.0
 51
270.0
  0
LINE
  5
19E
330
1F
100
AcDbEntity
  8
0
  6
HIDDEN
 62
     7
370
     0
100
AcDbLine
 10
200.9875462012
 20
106.3595041938
 30
0.0
 11
201.5621445412
 21
106.3595041938
 31
0.0
  0
LINE
  5
19F
330
1F
100
AcDbEntity
  8
0
  6
HIDDEN
 62
     7
370
     0
100
AcDbLine
 10
201.5621445412
 20
124.7595041938
 30
0.0
 11
200.9875462012
 21
124.7595041938
 31
0.0
  0
ARC
  5
1A0
330
1F
100
AcDbEntity
  8
0
  6
HIDDEN
 62
     7
370
     0
100
AcDbCircle
 10
201.5621445412
 20
106.9595041938
 30
0.0
 40
0.6000000000000218
100
AcDbArc
 50
270.0
 51
285.0
  0
ARC
  5
1A1
330
1F
100
AcDbEntity
  8
0
  6
HIDDEN
 62
     7
370
     0
100
AcDbCircle
 10
201.5621445412
 20
124.1595041938
 30
0.0
 40
0.6000000000000218
100
AcDbArc
 50
75.0
 51
90.0
  0
ARC
  5
1A2
330
1F
100
AcDbEntity
  8
0
  6
HIDDEN
 62
     7
370
     0
100
AcDbCircle
 10
200.9875462012
 20
106.9595041938
 30
0.0
 40
0.6000000000000085
100
AcDbArc
 50
180.0
 51
270.0
  0
ARC
  5
1A3
330
1F
100
AcDbEntity
  8
0
  6
HIDDEN
 62
     7
370
     0
100
AcDbCircle
 10
200.9875462012
 20
124.1595041938
 30
0.0
 40
0.6000000000000085
100
AcDbArc
 50
90.0
 51
180.0
  0
LINE
  5
1A4
330
1F
100
AcDbEntity
  8
0
  6
HIDDEN
 62
     7
370
     0
100
AcDbLine
 10
201.7174359682
 20
106.3799486981
 30
0.0
 11
202.3875462012
 21
106.5595041938
 31
0.0
  0
LINE
  5
1A5
330
1F
100
AcDbEntity
  8
0
  6
HIDDEN
 62
     7
370
     0
100
AcDbLine
 10
202.3875462012
 20
124.5595041938
 30
0.0
 11
201.7174359682
 21
124.7390596896
 31
0.0
  0
LINE
  5
1A6
330
1F
100
AcDbEntity
  8
0
  6
HIDDEN
 62
     7
370
     0
100
AcDbLine
 10
202.3875462012
 20
106.5595041938
 30
0.0
 11
215.2375462012
 21
106.5595041938
 31
0.0
  0
LINE
  5
1A7
330
1F
100
AcDbEntity
  8
0
  6
HIDDEN
 62
     7
370
     0
100
AcDbLine
 10
215.2375462012
 20
124.5595041938
 30
0.0
 11
202.3875462012
 21
124.5595041938
 31
0.0
  0
ARC
  5
1A8
330
1F
100
AcDbEntity
  8
0
  6
HIDDEN
 62
     7
370
     0
100
AcDbCircle
 10
75.8066060936
 20
107.2345041938
 30
0.0
 40
0.4000000000000173
100
AcDbArc
 50
270.0
 51
330.0
  0
ARC
  5
1A9
330
1F
100
AcDbEntity
  8
0
  6
HIDDEN
 62
     7
370
     0
100
AcDbCircle
 10
75.8066060936
 20
123.8845041938
 30
0.0
 40
0.4000000000000173
100
AcDbArc
 50
30.0
 51
90.0
  0
LINE
  5
1AA
330
1F
100
AcDbEntity
  8
0
  6
HIDDEN
 62
     7
370
     0
100
AcDbLine
 10
74.929918632
 20
106.8345041938
 30
0.0
 11
75.8066060936
 21
106.8345041938
 31
0.0
  0
LINE
  5
1AB
330
1F
100
AcDbEntity
  8
0
  6
HIDDEN
 62
     7
370
     0
100
AcDbLine
 10
75.8066060936
 20
124.2845041938
 30
0.0
 11
74.929918632
 21
124.2845041938
 31
0.0
  0
ARC
  5
1AC
330
1F
100
AcDbEntity
  8
0
  6
HIDDEN
 62
     7
370
     0
100
AcDbCircle
 10
74.929918632
 20
107.2345041938
 30
0.0
 40
0.3999999999999915
100
AcDbArc
 50
255.0
 51
270.0
  0
ARC
  5
1AD
330
1F
100
AcDbEntity
  8
0
  6
HIDDEN
 62
     7
370
     0
100
AcDbCircle
 10
74.929918632
 20
123.8845041938
 30
0.0
 40
0.3999999999999915
100
AcDbArc
 50
90.0
 51
105.0
  0
LINE
  5
1AE
330
1F
100
AcDbEntity
  8
0
  6
HIDDEN
 62
     7
370
     0
100
AcDbLine
 10
74.8263910139
 20
124.2708745244
 30
0.0
 11
74.0375462012
 21
124.0595041938
 31
0.0
  0
LINE
  5
1AF
330
1F
100
AcDbEntity
  8
0
  6
HIDDEN
 62
     7
370
     0
100
AcDbLine
 10
74.0375462012
 20
107.0595041938
 30
0.0
 11
74.8263910139
 21
106.8481338633
 31
0.0
  0
LINE
  5
1B0
330
1F
100
AcDbEntity
  8
0
  6
HIDDEN
 62
     7
370
     0
100
AcDbLine
 10
76.1530162551
 20
107.0345041938
 30
0.0
 11
77.0334754156
 21
108.5595041938
 31
0.0
  0
LINE
  5
1B1
330
1F
100
AcDbEntity
  8
0
  6
HIDDEN
 62
     7
370
     0
100
AcDbLine
 10
77.0334754156
 20
122.5595041938
 30
0.0
 11
76.1530162551
 21
124.0845041938
 31
0.0
  0
LINE
  5
1B2
330
1F
100
AcDbEntity
  8
0
  6
HIDDEN
 62
     7
370
     0
100
AcDbLine
 10
67.8375462012
 20
107.0595041938
 30
0.0
 11
74.0375462012
 21
107.0595041938
 31
0.0
  0
LINE
  5
1B3
330
1F
100
AcDbEntity
  8
0
  6
HIDDEN
 62
     7
370
     0
100
AcDbLine
 10
74.0375462012
 20
124.0595041938
 30
0.0
 11
67.8375462012
 21
124.0595041938
 31
0.0
  0
LINE
  5
1B4
330
1F
100
AcDbEntity
  8
0
  6
HIDDEN
 62
     7
370
     0
100
AcDbLine
 10
110.0375462012
 20
108.5595041938
 30
0.0
 11
111.6899129036
 21
111.3095041938
 31
0.0
  0
LINE
  5
1B5
330
1F
100
AcDbEntity
  8
0
  6
HIDDEN
 62
     7
370
     0
100
AcDbLine
 10
111.6899129036
 20
119.8095041938
 30
0.0
 11
110.0375462012
 21
122.5595041938
 31
0.0
  0
LINE
  5
1B6
330
1F
100
AcDbEntity
  8
0
  6
HIDDEN
 62
     7
370
     0
100
AcDbLine
 10
77.0334754156
 20
108.5595041938
 30
0.0
 11
110.0375462012
 21
108.5595041938
 31
0.0
  0
LINE
  5
1B7
330
1F
100
AcDbEntity
  8
0
  6
HIDDEN
 62
     7
370
     0
100
AcDbLine
 10
110.0375462012
 20
122.5595041938
 30
0.0
 11
77.0334754156
 21
122.5595041938
 31
0.0
  0
LINE
  5
1B8
330
1F
100
AcDbEntity
  8
0
  6
HIDDEN
 62
     7
370
     0
100
AcDbLine
 10
218.9375462012
 20
127.7345041938
 30
0.0
 11
216.0375462012
 21
127.7345041938
 31
0.0
  0
LINE
  5
1B9
330
1F
100
AcDbEntity
  8
0
  6
HIDDEN
 62
     7
370
     0
100
AcDbLine
 10
216.0375462012
 20
103.3845041938
 30
0.0
 11
218.9375462012
 21
103.3845041938
 31
0.0
  0
LINE
  5
1BA
330
1F
100
AcDbEntity
  8
0
  6
HIDDEN
 62
     7
370
     0
100
AcDbLine
 10
111.6899129036
 20
111.3095041938
 30
0.0
 11
200.3875462012
 21
111.3095041938
 31
0.0
  0
LINE
  5
1BB
330
1F
100
AcDbEntity
  8
0
  6
HIDDEN
 62
     7
370
     0
100
AcDbLine
 10
200.3875462012
 20
119.8095041938
 30
0.0
 11
111.6899129036
 21
119.8095041938
 31
0.0
  0
LINE
  5
1BC
330
1F
100
AcDbEntity
  8
0
  6
HIDDEN
 62
     7
370
     0
100
AcDbLine
 10
149.9375462012
 20
117.0123042013
 30
0.0
 11
149.9375462012
 21
123.5534077589
 31
0.0
  0
LINE
  5
1BD
330
1F
100
AcDbEntity
  8
0
  6
HIDDEN
 62
     7
370
     0
100
AcDbLine
 10
146.6375462012
 20
122.1533209659
 30
0.0
 11
146.6375462012
 21
117.0124630385
 31
0.0
  0
LINE
  5
1BE
330
1F
100
AcDbEntity
  8
0
  6
HIDDEN
 62
     7
370
     0
100
AcDbLine
 10
146.6375462012
 20
123.5534077589
 30
0.0
 11
146.6375462012
 21
123.5311683153
 31
0.0
  0
LINE
  5
1BF
330
1F
100
AcDbEntity
  8
0
  6
HIDDEN
 62
     7
370
     0
100
AcDbLine
 10
218.9348526707
 20
126.3595041938
 30
0.0
 11
218.934724641
 21
126.3595041938
 31
0.0
  0
LINE
  5
1C0
330
1F
100
AcDbEntity
  8
0
  6
HIDDEN
 62
     7
370
     0
100
AcDbLine
 10
139.6419387744
 20
122.8209316012
 30
0.0
 11
147.6175673606
 21
120.9108875307
 31
0.0
  0
LINE
  5
1C1
330
1F
100
AcDbEntity
  8
0
  6
HIDDEN
 62
     7
370
     0
100
AcDbLine
 10
147.6175673606
 20
124.3042008541
 30
0.0
 11
140.4105069261
 21
126.0301843174
 31
0.0
  0
LINE
  5
1C2
330
1F
100
AcDbEntity
  8
0
  6
HIDDEN
 62
     7
370
     0
100
AcDbLine
 10
150.2875462012
 20
123.596977562
 30
0.0
 11
150.2875462012
 21
126.4183472633
 31
0.0
  0
LINE
  5
1C3
330
1F
100
AcDbEntity
  8
0
  6
HIDDEN
 62
     7
370
     0
100
AcDbLine
 10
146.2875462012
 20
125.1360168918
 30
0.0
 11
146.2875462012
 21
123.6145025875
 31
0.0
  0
LINE
  5
1C4
330
1F
100
AcDbEntity
  8
0
  6
HIDDEN
 62
     7
370
     0
100
AcDbLine
 10
138.4875462012
 20
122.6346668578
 30
0.0
 11
139.4029678937
 21
122.4154370182
 31
0.0
  0
LINE
  5
1C5
330
1F
100
AcDbEntity
  8
0
  6
HIDDEN
 62
     7
370
     0
100
AcDbLine
 10
140.3811455414
 20
126.4999404751
 30
0.0
 11
138.4875462012
 21
126.9534292695
 31
0.0
  0
LINE
  5
1C6
330
1F
100
AcDbEntity
  8
0
  6
HIDDEN
 62
     7
370
     0
100
AcDbLine
 10
146.2875462012
 20
106.427566367
 30
0.0
 11
146.2875462012
 21
106.2907583097
 31
0.0
  0
LINE
  5
1C7
330
1F
100
AcDbEntity
  8
0
  6
HIDDEN
 62
     7
370
     0
100
AcDbLine
 10
150.2875462012
 20
106.2907583097
 30
0.0
 11
150.2875462012
 21
106.427566367
 31
0.0
  0
LINE
  5
1C8
330
1F
100
AcDbEntity
  8
0
  6
HIDDEN
 62
     7
370
     0
100
AcDbLine
 10
146.7875462012
 20
107.2600347073
 30
0.0
 11
146.7875462012
 21
106.2565562954
 31
0.0
  0
LINE
  5
1C9
330
1F
100
AcDbEntity
  8
0
  6
HIDDEN
 62
     7
370
     0
100
AcDbLine
 10
149.7875462012
 20
106.2565562954
 30
0.0
 11
149.7875462012
 21
107.2600347073
 31
0.0
  0
LINE
  5
1CA
330
1F
100
AcDbEntity
  8
0
  6
HIDDEN
 62
     7
370
     0
100
AcDbLine
 10
146.2875462012
 20
107.5220308257
 30
0.0
 11
146.2875462012
 21
107.1971116895
 31
0.0
  0
LINE
  5
1CB
330
1F
100
AcDbEntity
  8
0
  6
HIDDEN
 62
     7
370
     0
100
AcDbLine
 10
150.2875462012
 20
107.1971116895
 30
0.0
 11
150.2875462012
 21
107.5220308257
 31
0.0
  0
LINE
  5
1CC
330
1F
100
AcDbEntity
  8
0
  6
HIDDEN
 62
     7
370
     0
100
AcDbLine
 10
150.2875462012
 20
123.596977562
 30
0.0
 11
150.2875462012
 21
123.9218966982
 31
0.0
  0
LINE
  5
1CD
330
1F
100
AcDbEntity
  8
0
  6
HIDDEN
 62
     7
370
     0
100
AcDbLine
 10
146.2875462012
 20
123.9218966982
 30
0.0
 11
146.2875462012
 21
123.596977562
 31
0.0
  0
LINE
  5
1CE
330
1F
100
AcDbEntity
  8
0
  6
HIDDEN
 62
     7
370
     0
100
AcDbLine
 10
149.7875462012
 20
123.8589736804
 30
0.0
 11
149.7875462012
 21
124.8624520923
 31
0.0
  0
LINE
  5
1CF
330
1F
100
AcDbEntity
  8
0
  6
HIDDEN
 62
     7
370
     0
100
AcDbLine
 10
146.7875462012
 20
124.8624520923
 30
0.0
 11
146.7875462012
 21
123.8589736804
 31
0.0
  0
LINE
  5
1D0
330
1F
100
AcDbEntity
  8
0
  6
HIDDEN
 62
     7
370
     0
100
AcDbLine
 10
150.2875462012
 20
124.6914420206
 30
0.0
 11
150.2875462012
 21
124.828250078
 31
0.0
  0
LINE
  5
1D1
330
1F
100
AcDbEntity
  8
0
  6
HIDDEN
 62
     7
370
     0
100
AcDbLine
 10
146.2875462012
 20
124.828250078
 30
0.0
 11
146.2875462012
 21
124.6914420206
 31
0.0
  0
CIRCLE
  5
1D2
330
1F
100
AcDbEntity
  8
0
  6
HIDDEN
 62
     7
370
     0
100
AcDbCircle
 10
148.2875462012
 20
124.2810178486
 30
0.0
 40
1.500000000000008
  0
ARC
  5
1D3
330
1F
100
AcDbEntity
  8
0
  6
HIDDEN
 62
     7
370
     0
100
AcDbCircle
 10
148.2875462012
 20
106.837990539
 30
0.0
 40
1.500000000000011
100
AcDbArc
 50
71.1182787691
 51
191.5274417163
  0
ARC
  5
1D4
330
1F
100
AcDbEntity
  8
0
  6
HIDDEN
 62
     7
370
     0
100
AcDbCircle
 10
148.2875462012
 20
106.837990539
 30
0.0
 40
1.499999999999998
100
AcDbArc
 50
336.6722113243
 51
71.1182787691
  0
LINE
  5
1D5
330
1F
100
AcDbEntity
  8
0
  6
HIDDEN
 62
     7
370
     0
100
AcDbLine
 10
140.5423012822
 20
104.7604899849
 30
0.0
 11
143.8392517856
 21
105.5500604485
 31
0.0
  0
LINE
  5
1D6
330
1F
100
AcDbEntity
  8
0
  6
HIDDEN
 62
     7
370
     0
100
AcDbLine
 10
142.907654026
 20
109.4400637408
 30
0.0
 11
139.6107035225
 21
108.6504932772
 31
0.0
  0
LINE
  5
1D7
330
1F
100
AcDbEntity
  8
0
  6
HIDDEN
 62
     7
370
     0
100
AcDbLine
 10
144.402215533
 20
106.1610359378
 30
0.0
 11
144.630793581
 21
106.8084267678
 31
0.0
  0
LINE
  5
1D8
330
1F
100
AcDbEntity
  8
0
  6
HIDDEN
 62
     7
370
     0
100
AcDbLine
 10
144.183353065
 20
108.6767707634
 30
0.0
 11
143.6863107073
 21
109.1503863307
 31
0.0
  0
LINE
  5
1D9
330
1F
100
AcDbEntity
  8
0
  6
HIDDEN
 62
     7
370
     0
100
AcDbLine
 10
143.6863107073
 20
121.968622057
 30
0.0
 11
144.183353065
 21
122.4422376243
 31
0.0
  0
LINE
  5
1DA
330
1F
100
AcDbEntity
  8
0
  6
HIDDEN
 62
     7
370
     0
100
AcDbLine
 10
144.630793581
 20
124.3105816199
 30
0.0
 11
144.402215533
 21
124.9579724499
 31
0.0
  0
LINE
  5
1DB
330
1F
100
AcDbEntity
  8
0
  6
HIDDEN
 62
     7
370
     0
100
AcDbLine
 10
139.6107035225
 20
122.4685151104
 30
0.0
 11
142.907654026
 21
121.6789446469
 31
0.0
  0
LINE
  5
1DC
330
1F
100
AcDbEntity
  8
0
  6
HIDDEN
 62
     7
370
     0
100
AcDbLine
 10
143.8392517856
 20
125.5689479392
 30
0.0
 11
140.5423012822
 21
126.3585184028
 31
0.0
  0
DIMENSION
  5
1DD
330
1F
100
AcDbEntity
  8
VERMASSUNG
100
AcDbDimension
  2
_D
 10
59.5608068994
 20
147.3095041938
 30
0.0
 11
59.5608068994
 21
115.5595041938
 31
0.0
 70
   160
  1
ISO 40 %%c<>
 71
     2
 42
-1.0
  3
SLDDIMSTYLE0
100
AcDbAlignedDimension
 13
153.7375462012
 23
83.8095041938
 33
0.0
 14
153.7375462012
 24
147.3095041938
 34
0.0
 50
90.0
100
AcDbRotatedDimension
  0
DIMENSION
  5
1EA
330
1F
100
AcDbEntity
  8
VERMASSUNG
100
AcDbDimension
  2
_D_1
 10
219.3875462012
 20
164.1128581662
 30
0.0
 11
143.2125462012
 21
164.1128581662
 31
0.0
 70
   160
  1
(<>)
 71
     2
 42
-1.0
  3
SLDDIMSTYLE0
100
AcDbAlignedDimension
 13
67.0375462012
 23
126.9666347909
 33
0.0
 14
219.3875462012
 24
131.2595041938
 34
0.0
100
AcDbRotatedDimension
  0
DIMENSION
  5
1F6
330
1F
100
AcDbEntity
  8
VERMASSUNG
100
AcDbDimension
  2
_D_2
 10
219.3875462012
 20
158.1128581662
 30
0.0
 11
177.3375462012
 21
158.1128581662
 31
0.0
 70
   160
  1
<>
 71
     2
 42
-1.0
  3
SLDDIMSTYLE0
100
AcDbAlignedDimension
 13
135.2875462012
 23
137.7845041938
 33
0.0
 14
219.3875462012
 24
131.2595041938
 34
0.0
100
AcDbRotatedDimension
  0
DIMENSION
  5
200
330
1F
100
AcDbEntity
  8
VERMASSUNG
100
AcDbDimension
  2
_D_3
 10
219.3875462012
 20
152.1128581662
 30
0.0
 11
186.8625462012
 21
152.1128581662
 31
0.0
 70
   160
  1
<>
 71
     2
 42
-1.0
  3
SLDDIMSTYLE0
100
AcDbAlignedDimension
 13
154.3375462012
 23
145.5700553273
 33
0.0
 14
219.3875462012
 24
131.2595041938
 34
0.0
100
AcDbRotatedDimension
  0
DIMENSION
  5
20A
330
1F
100
AcDbEntity
  8
VERMASSUNG
100
AcDbDimension
  2
_D_4
 10
228.6798934883
 20
99.5595041938
 30
0.0
 11
228.6798934883
 21
115.5595041938
 31
0.0
 70
   160
  1
MBM %%c<>
 71
     2
 42
-1.0
  3
SLDDIMSTYLE0
100
AcDbAlignedDimension
 13
219.0875462012
 23
131.5595041938
 33
0.0
 14
219.0875462012
 24
99.5595041938
 34
0.0
 50
90.0
100
AcDbRotatedDimension
  0
LINE
  5
216
330
1F
100
AcDbEntity
  8
VERMASSUNG
  6
CENTERX2
 62
     7
370
     0
100
AcDbLine
 10
65.0375462012
 20
115.5595041938
 30
0.0
 11
221.3875462012
 21
115.5595041938
 31
0.0
  0
LINE
  5
217
330
1F
100
AcDbEntity
  8
VERMASSUNG
  6
CENTERX2
370
     0
100
AcDbLine
 10
138.0812212041
 20
124.8913568391
 30
0.0
 11
149.5625690067
 21
122.1417453125
 31
0.0
  0
LINE
  5
218
330
1F
100
AcDbEntity
  8
VERMASSUNG
  6
CENTERX2
370
     0
100
AcDbLine
 10
138.0812212041
 20
106.2276515486
 30
0.0
 11
149.5625690067
 21
108.9772630752
 31
0.0
  0
LINE
  5
219
330
1F
100
AcDbEntity
  8
0
  6
Continuous
 62
     7
370
    15
100
AcDbLine
 10
278.3402875569
 20
19.7776860239
 30
0.0
 11
278.4463354967
 21
19.8389268617
 31
0.0
  0
LINE
  5
21A
330
1F
100
AcDbEntity
  8
0
  6
Continuous
 62
     7
370
    15
100
AcDbLine
 10
283.9962213601
 20
29.4526529053
 30
0.0
 11
283.9962226772
 21
29.5751139141
 31
0.0
  0
LINE
  5
21B
330
1F
100
AcDbEntity
  8
0
  6
Continuous
 62
     7
370
    15
100
AcDbLine
 10
252.8613239504
 20
31.7802890419
 30
0.0
 11
274.3396931507
 21
19.381090427
 31
0.0
  0
LINE
  5
21C
330
1F
100
AcDbEntity
  8
0
  6
Continuous
 62
     7
370
    15
100
AcDbLine
 10
282.3390431674
 20
33.2378721964
 30
0.0
 11
260.860673967
 21
45.6370708113
 31
0.0
  0
SPLINE
  5
21D
330
1F
100
AcDbEntity
  8
0
  6
Continuous
 62
     7
370
    15
100
AcDbSpline
210
0.0
220
0.0
230
1.0
 70
     8
 71
     3
 72
    29
 73
    25
 74
     0
 42
0.000000001
 43
0.00000001
 40
0.0
 40
0.0
 40
0.0
 40
0.0
 40
0.0072500244816286
 40
0.0544466571777558
 40
0.1018437147843846
 40
0.1494179604037109
 40
0.1971237055548989
 40
0.2449122013560087
 40
0.2927431295962636
 40
0.3405871305401626
 40
0.388423758585714
 40
0.4362457672983803
 40
0.4840506475176615
 40
0.531838766434576
 40
0.5796122035408778
 40
0.6273739268055255
 40
0.675127477732339
 40
0.7228765141423252
 40
0.7706249369445648
 40
0.8183760237518188
 40
0.8661330460487884
 40
0.9139000430021689
 40
0.9616809161322271
 40
0.9999999999999999
 40
0.9999999999999999
 40
0.9999999999999999
 40
0.9999999999999999
 10
255.5904231883164
 20
57.12171933033201
 30
0.0
 10
255.5477275752102
 20
57.12787647237069
 30
0.0
 10
255.2270895669274
 20
57.17411573716547
 30
0.0
 10
254.5904145798739
 20
57.1568736325524
 30
0.0
 10
253.6851870945007
 20
57.06326128294965
 30
0.0
 10
252.7488319226386
 20
56.85201576837634
 30
0.0
 10
251.7932169233157
 20
56.53751857561512
 30
0.0
 10
250.8244495717831
 20
56.11861653185127
 30
0.0
 10
249.8503444314619
 20
55.59955420052177
 30
0.0
 10
248.878219920164
 20
54.98421746454249
 30
0.0
 10
247.915352494078
 20
54.27751687638629
 30
0.0
 10
246.9688002196064
 20
53.48489384918417
 30
0.0
 10
246.0454227113737
 20
52.61235913479147
 30
0.0
 10
245.1518893435664
 20
51.66644739040623
 30
0.0
 10
244.2946523600231
 20
50.65419000064372
 30
0.0
 10
243.4799127135659
 20
49.58306661265492
 30
0.0
 10
242.713572274669
 20
48.46096412265786
 30
0.0
 10
242.0012172810519
 20
47.29612302257745
 30
0.0
 10
241.3479993440248
 20
46.09707129836985
 30
0.0
 10
240.7588985562142
 20
44.87262927863269
 30
0.0
 10
240.2375640812138
 20
43.63158939639445
 30
0.0
 10
239.7904680035971
 20
42.38358319189923
 30
0.0
 10
239.4363350205758
 20
41.21804429948559
 30
0.0
 10
239.266535109614
 20
40.47790736789353
 30
0.0
 10
239.1909650715354
 20
40.14850686475476
 30
0.0
  0
SPLINE
  5
21E
330
1F
100
AcDbEntity
  8
0
  6
Continuous
 62
     7
370
    15
100
AcDbSpline
210
0.0
220
0.0
230
1.0
 70
     8
 71
     3
 72
     9
 73
     5
 74
     0
 42
0.000000001
 43
0.00000001
 40
0.0
 40
0.0
 40
0.0
 40
0.0
 40
0.2255618005959714
 40
1.0
 40
1.0
 40
1.0
 40
1.0
 10
256.493026266591
 20
56.97740702972354
 30
0.0
 10
256.4275625180587
 20
56.99426458283286
 30
0.0
 10
256.1373371857578
 20
57.06900043378275
 30
0.0
 10
255.8291190705115
 20
57.09871062406549
 30
0.0
 10
255.5904231883164
 20
57.12171933033201
 30
0.0
  0
LINE
  5
21F
330
1F
100
AcDbEntity
  8
0
  6
Continuous
 62
     7
370
    15
100
AcDbLine
 10
248.9522732275
 20
55.0148790254
 30
0.0
 11
227.6468605347
 21
62.6925059258
 31
0.0
  0
LINE
  5
220
330
1F
100
AcDbEntity
  8
0
  6
Continuous
 62
     7
370
    15
100
AcDbLine
 10
221.4820785401
 20
52.0136332806
 30
0.0
 11
241.7783166377
 21
34.875658193
 31
0.0
  0
SPLINE
  5
221
330
1F
100
AcDbEntity
  8
0
  6
Continuous
 62
     7
370
    15
100
AcDbSpline
210
0.0
220
0.0
230
1.0
 70
     8
 71
     3
 72
    16
 73
    12
 74
     0
 42
0.000000001
 43
0.00000001
 40
0.0
 40
0.0
 40
0.0
 40
0.0
 40
0.0344339315740147
 40
0.1575119856137389
 40
0.2810431431367147
 40
0.404906683176296
 40
0.5289769483186314
 40
0.6531513050458122
 40
0.7773547150717306
 40
0.9015371890853329
 40
1.0
 40
1.0
 40
1.0
 40
1.0
 10
250.5161946031971
 20
25.14299409503978
 30
0.0
 10
250.597914735969
 20
25.14213941678163
 30
0.0
 10
250.9717291622961
 20
25.13822984086774
 30
0.0
 10
251.6703161830112
 20
25.23974866853755
 30
0.0
 10
252.6055175416252
 20
25.44963931106642
 30
0.0
 10
253.5630151099354
 20
25.77366215010553
 30
0.0
 10
254.5321557159373
 20
26.1990966392159
 30
0.0
 10
255.506550644574
 20
26.72456067944784
 30
0.0
 10
256.4777378904078
 20
27.34826716632366
 30
0.0
 10
257.3751849643255
 20
28.00509818654179
 30
0.0
 10
257.9375316773357
 20
28.49128009084686
 30
0.0
 10
258.1862242920903
 20
28.70628952582836
 30
0.0
  0
LINE
  5
222
330
1F
100
AcDbEntity
  8
0
  6
Continuous
 62
     7
370
    15
100
AcDbLine
 10
245.94433826
 20
26.6803597808
 30
0.0
 11
247.2977980306
 21
25.8990240865
 31
0.0
  0
LINE
  5
223
330
1F
100
AcDbEntity
  8
0
  6
Continuous
 62
     7
370
    15
100
AcDbLine
 10
242.118241096
 20
28.8891186589
 30
0.0
 11
243.4540235564
 21
28.1179878585
 31
0.0
  0
SPLINE
  5
224
330
1F
100
AcDbEntity
  8
0
  6
Continuous
 62
     7
370
    15
100
AcDbSpline
210
0.0
220
0.0
230
1.0
 70
     8
 71
     3
 72
    10
 73
     6
 74
     0
 42
0.000000001
 43
0.00000001
 40
0.0
 40
0.0
 40
0.0
 40
0.0
 40
0.1875921473639008
 40
0.7409828676347866
 40
1.0
 40
1.0
 40
1.0
 40
1.0
 10
239.1985333942934
 20
32.88662781247602
 30
0.0
 10
239.229735220891
 20
32.78178055392637
 30
0.0
 10
239.3529814189467
 20
32.36763730008823
 30
0.0
 10
239.5557753762174
 20
31.83907473261314
 30
0.0
 10
239.7682066246219
 20
31.45892735006814
 30
0.0
 10
239.8359353308473
 20
31.33772629990172
 30
0.0
  0
SPLINE
  5
225
330
1F
100
AcDbEntity
  8
0
  6
Continuous
 62
     7
370
    15
100
AcDbSpline
210
0.0
220
0.0
230
1.0
 70
     8
 71
     3
 72
    10
 73
     6
 74
     0
 42
0.000000001
 43
0.00000001
 40
0.0
 40
0.0
 40
0.0
 40
0.0
 40
0.0323019120460239
 40
0.6720753533562092
 40
1.0
 40
1.0
 40
1.0
 40
1.0
 10
265.2429797981132
 20
51.33760101821042
 30
0.0
 10
265.235891442799
 20
51.3507910213277
 30
0.0
 10
265.0884107334301
 20
51.62522294948054
 30
0.0
 10
264.8167996569377
 20
51.97786577564567
 30
0.0
 10
264.5307929158485
 20
52.28644400115739
 30
0.0
 10
264.4338735763594
 20
52.39101215812962
 30
0.0
  0
SPLINE
  5
226
330
1F
100
AcDbEntity
  8
0
  6
Continuous
 62
     7
370
    15
100
AcDbSpline
210
0.0
220
0.0
230
1.0
 70
     8
 71
     3
 72
    10
 73
     6
 74
     0
 42
0.000000001
 43
0.00000001
 40
0.0
 40
0.0
 40
0.0
 40
0.0
 40
0.1717808104520833
 40
0.5969327282657416
 40
1.0
 40
1.0
 40
1.0
 40
1.0
 10
266.1051172920058
 20
49.35363802400594
 30
0.0
 10
266.0679547655744
 20
49.47864390887992
 30
0.0
 10
265.9388161951276
 20
49.91303529235704
 30
0.0
 10
265.6682053958924
 20
50.59407314853519
 30
0.0
 10
265.3821793483056
 20
51.09420375907359
 30
0.0
 10
265.2429797981132
 20
51.33760101821042
 30
0.0
  0
SPLINE
  5
227
330
1F
100
AcDbEntity
  8
0
  6
Continuous
 62
     7
370
    15
100
AcDbSpline
210
0.0
220
0.0
230
1.0
 70
     8
 71
     3
 72
    29
 73
    25
 74
     0
 42
0.000000001
 43
0.00000001
 40
0.0
 40
0.0
 40
0.0
 40
0.0
 40
0.0435751068026465
 40
0.0895638712542058
 40
0.1365904615849474
 40
0.1845859299006033
 40
0.233187371455117
 40
0.2820243070674115
 40
0.330830562186294
 40
0.3795442281880718
 40
0.4281690166680772
 40
0.4767358826652855
 40
0.5252863812798977
 40
0.5738623925610726
 40
0.622499861343253
 40
0.6712470288695234
 40
0.7201490092368753
 40
0.7580226754191762
 40
0.7840476036330236
 40
0.8332761362418007
 40
0.8825000009519065
 40
0.9312271913589074
 40
0.9789498009278084
 40
1.0
 40
1.0
 40
1.0
 40
1.0
 10
227.4382319882576
 20
62.75528667976178
 30
0.0
 10
227.2687619584464
 20
62.79053484195385
 30
0.0
 10
226.9204348275411
 20
62.86298358831755
 30
0.0
 10
226.3532944733587
 20
62.83775176706052
 30
0.0
 10
225.7557825583153
 20
62.71410705671235
 30
0.0
 10
225.1395965537317
 20
62.48141080614381
 30
0.0
 10
224.5175468131963
 20
62.14579187797472
 30
0.0
 10
223.9027432393931
 20
61.71337213227981
 30
0.0
 10
223.3080363616883
 20
61.19413917640105
 30
0.0
 10
222.7447527198337
 20
60.59920777201893
 30
0.0
 10
222.2228584954059
 20
59.94033495476634
 30
0.0
 10
221.7514842600169
 20
59.22994379238069
 30
0.0
 10
221.3389776511441
 20
58.48109775213963
 30
0.0
 10
220.992887458639
 20
57.70736388615233
 30
0.0
 10
220.7197727250438
 20
56.92255812677151
 30
0.0
 10
220.5252241415269
 20
56.14048006736745
 30
0.0
 10
220.4223558947482
 20
55.4330542678844
 30
0.0
 10
220.3960334621242
 20
54.86623877910925
 30
0.0
 10
220.4141363066447
 20
54.31881928457621
 30
0.0
 10
220.4927872196306
 20
53.74732861636551
 30
0.0
 10
220.676665500902
 20
53.12977780468168
 30
0.0
 10
220.9549960078355
 20
52.59500508785538
 30
0.0
 10
221.2391617465225
 20
52.21320817766244
 30
0.0
 10
221.4540648742471
 20
52.0513674720089
 30
0.0
 10
221.5198431041788
 20
52.00183075627332
 30
0.0
  0
LINE
  5
228
330
1F
100
AcDbEntity
  8
0
  6
Continuous
 62
     7
370
    15
100
AcDbLine
 10
276.571829102
 20
35.2908671897
 30
0.0
 11
276.3950234841
 21
35.3929685507
 31
0.0
  0
LINE
  5
229
330
1F
100
AcDbEntity
  8
0
  6
Continuous
 62
     7
370
    15
100
AcDbLine
 10
273.9197486373
 20
35.3929679905
 30
0.0
 11
273.7429428573
 21
35.2908670111
 31
0.0
  0
LINE
  5
22A
330
1F
100
AcDbEntity
  8
0
  6
Continuous
 62
     7
370
    15
100
AcDbLine
 10
277.157386299
 20
34.1683888637
 30
0.0
 11
277.157386299
 21
34.4745915283
 31
0.0
  0
LINE
  5
22B
330
1F
100
AcDbEntity
  8
0
  6
Continuous
 62
     7
370
    15
100
AcDbLine
 10
273.1573866282
 20
34.4745913382
 30
0.0
 11
273.1573866282
 21
34.1683886736
 31
0.0
  0
LWPOLYLINE
  5
22C
330
1F
100
AcDbEntity
  8
0
  6
Continuous
 62
     7
370
    15
100
AcDbPolyline
 90
       49
 70
   128
 43
0.0
 10
272.8946453149
 20
23.0438494696
 10
272.9421329593
 20
23.9079162209
 10
273.0837835781
 20
24.8120267665
 10
273.3171737274
 20
25.7407116175
 10
273.6383096639
 20
26.6780803258
 10
274.0416968218
 20
27.6080948645
 10
274.5204333251
 20
28.5148420545
 10
275.0663275388
 20
29.3828073203
 10
275.6700393262
 20
30.1971393177
 10
276.3212385934
 20
30.9439045794
 10
277.0087835905
 20
31.6103261877
 10
277.7209100784
 20
32.185000965
 10
278.4454333375
 20
32.6580963186
 10
279.1699565965
 20
33.0215177141
 10
279.8820830845
 20
33.2690466788
 10
280.5696280816
 20
33.3964476271
 10
281.2208273488
 20
33.4015410356
 10
281.8245391361
 20
33.2842398311
 10
282.3704333499
 20
33.0465506087
 10
282.8491698532
 20
32.6925408201
 10
283.252557011
 20
32.2282671803
 10
283.5736929476
 20
31.6616741321
 10
283.8070830969
 20
31.0024558118
 10
283.9487337157
 20
30.2618915894
 10
283.9962213601
 20
29.4526529053
 10
283.9487337157
 20
28.588586154
 10
283.8070830969
 20
27.6844756084
 10
283.5736929476
 20
26.7557907574
 10
283.252557011
 20
25.8184220491
 10
282.8491698532
 20
24.8884075104
 10
282.3704333499
 20
23.9816603204
 10
281.8245391361
 20
23.1136950547
 10
281.2208273488
 20
22.2993630572
 10
280.5696280816
 20
21.5525977956
 10
279.8820830845
 20
20.8861761872
 10
279.1699565965
 20
20.3115014099
 10
278.4454333375
 20
19.8384060563
 10
277.7209100784
 20
19.4749846608
 10
277.0087835905
 20
19.2274556961
 10
276.3212385934
 20
19.1000547478
 10
275.6700393262
 20
19.0949613393
 10
275.0663275388
 20
19.2122625439
 10
274.5204333251
 20
19.4499517663
 10
274.0416968218
 20
19.8039615548
 10
273.6383096639
 20
20.2682351947
 10
273.3171737274
 20
20.8348282428
 10
273.0837835781
 20
21.4940465632
 10
272.9421329593
 20
22.2346107855
 10
272.8946453149
 20
23.0438494696
  0
LWPOLYLINE
  5
22D
330
1F
100
AcDbEntity
  8
0
  6
Continuous
 62
     7
370
    15
100
AcDbPolyline
 90
       26
 70
   128
 43
0.0
 10
272.6825136409
 20
23.0438487093
 10
272.7289568337
 20
23.9059951997
 10
272.8675221715
 20
24.8076063933
 10
273.0959350414
 20
25.7338783823
 10
273.4104453617
 20
26.6696018805
 10
273.8058881678
 20
27.59941241
 10
274.2757705402
 20
28.508041816
 10
274.8123773008
 20
29.380571491
 10
275.4068967946
 20
30.20267343
 10
276.0495677457
 20
30.9608493821
 10
276.7298371431
 20
31.642650134
 10
277.4365348371
 20
32.2368804862
 10
278.1580570471
 20
32.7337827569
 10
278.8825564134
 20
33.1251982076
 10
279.598136638
 20
33.4047003203
 10
280.2930479494
 20
33.567698891
 10
280.9558799114
 20
33.6115174955
 10
281.5757485943
 20
33.5354369017
 10
282.1424761928
 20
33.3407063645
 10
282.6467569791
 20
33.0305234577
 10
283.0803104144
 20
32.609981018
 10
283.4360176328
 20
32.0859847165
 10
283.7080383322
 20
31.4671384078
 10
283.8919052759
 20
30.763603341
 10
283.9846000252
 20
29.9869318962
 10
283.9962226772
 20
29.5751139141
  0
LWPOLYLINE
  5
22E
330
1F
100
AcDbEntity
  8
0
  6
Continuous
 62
     7
370
    15
100
AcDbPolyline
 90
       14
 70
   128
 43
0.0
 10
278.3402875569
 20
19.7776860239
 10
278.1580570471
 20
19.6758425125
 10
277.4365348371
 20
19.3396929715
 10
276.7298371431
 20
19.117987534
 10
276.0495677457
 20
19.0143659578
 10
275.4068967946
 20
19.0305298238
 10
274.8123773008
 20
19.1662141661
 10
274.2757705402
 20
19.419190863
 10
273.8058881678
 20
19.7853056295
 10
273.4104453617
 20
20.2585476133
 10
273.0959350414
 20
20.8311452251
 10
272.8675221715
 20
21.493697328
 10
272.7289568337
 20
22.235324388
 10
272.6825136409
 20
23.0438487093
  0
SPLINE
  5
22F
330
1F
100
AcDbEntity
  8
0
  6
Continuous
 62
     7
370
    15
100
AcDbSpline
210
0.0
220
0.0
230
1.0
 70
     8
 71
     3
 72
    42
 73
    38
 74
     0
 42
0.000000001
 43
0.00000001
 40
0.0
 40
0.0
 40
0.0
 40
0.0
 40
0.0312499999999997
 40
0.0312499999999997
 40
0.0624999999999995
 40
0.0624999999999995
 40
0.1249999999999995
 40
0.1249999999999995
 40
0.1874999999999996
 40
0.1874999999999996
 40
0.2499999999999997
 40
0.2499999999999997
 40
0.3124999999999996
 40
0.3124999999999996
 40
0.3749999999999996
 40
0.3749999999999996
 40
0.4374999999999997
 40
0.4374999999999997
 40
0.4999999999999997
 40
0.4999999999999997
 40
0.5624999999999997
 40
0.5624999999999997
 40
0.6249999999999997
 40
0.6249999999999997
 40
0.6874999999999997
 40
0.6874999999999997
 40
0.7499999999999997
 40
0.7499999999999997
 40
0.7812499999999998
 40
0.7812499999999998
 40
0.8124999999999999
 40
0.8124999999999999
 40
0.8749999999999999
 40
0.8749999999999999
 40
0.9374999999999999
 40
0.9374999999999999
 40
1.0
 40
1.0
 40
1.0
 40
1.0
 10
277.0135419074977
 20
33.60719101012245
 30
0.0
 10
276.9566435806505
 20
33.57434430519535
 30
0.0
 10
276.8962311938012
 20
33.54247857643298
 30
0.0
 10
276.7682256666571
 20
33.48078170179559
 30
0.0
 10
276.7006413894699
 20
33.45100548143089
 30
0.0
 10
276.4929456498836
 20
33.36731676495934
 30
0.0
 10
276.3460665107415
 20
33.31802787307279
 30
0.0
 10
276.0365631768207
 20
33.2332203374691
 30
0.0
 10
275.8792171941743
 20
33.19914218033154
 30
0.0
 10
275.5596709567457
 20
33.14742269149719
 30
0.0
 10
275.3969389707988
 20
33.12995232001254
 30
0.0
 10
275.0785760019883
 20
33.113594084068
 30
0.0
 10
274.9213118606485
 20
33.11439234871437
 30
0.0
 10
274.6105852616807
 20
33.13523886570922
 30
0.0
 10
274.4611790447907
 20
33.15501918439005
 30
0.0
 10
274.1732543532999
 20
33.21345838984205
 30
0.0
 10
274.0337469233236
 20
33.25251218146149
 30
0.0
 10
273.7707066687997
 20
33.34935373984282
 30
0.0
 10
273.6482840365337
 20
33.40653343079395
 30
0.0
 10
273.4210830518935
 20
33.53822928006512
 30
0.0
 10
273.3154882222356
 20
33.61351003883652
 30
0.0
 10
273.1273904827673
 20
33.77834840831291
 30
0.0
 10
273.045237786858
 20
33.86723575421143
 30
0.0
 10
272.9046307306918
 20
34.05695113483166
 30
0.0
 10
272.8457604189387
 20
34.1588380528561
 30
0.0
 10
272.7564171878126
 20
34.36877901541817
 30
0.0
 10
272.7258672459309
 20
34.4761623276042
 30
0.0
 10
272.7020368874006
 20
34.63971211968143
 30
0.0
 10
272.697785024333
 20
34.69464354068116
 30
0.0
 10
272.6971750407385
 20
34.80516372415472
 30
0.0
 10
272.7008923421128
 20
34.86093501955332
 30
0.0
 10
272.7242462045912
 20
35.02476471277456
 30
0.0
 10
272.7558204743775
 20
35.13066116013932
 30
0.0
 10
272.8534239527547
 20
35.3336366606225
 30
0.0
 10
272.9209670829707
 20
35.43193435614388
 30
0.0
 10
273.0873023452644
 20
35.60644213055294
 30
0.0
 10
273.1860139566599
 20
35.68374874350908
 30
0.0
 10
273.3012313062683
 20
35.75026230365706
 30
0.0
  0
SPLINE
  5
230
330
1F
100
AcDbEntity
  8
0
  6
Continuous
 62
     7
370
    15
100
AcDbSpline
210
0.0
220
0.0
230
1.0
 70
     8
 71
     3
 72
    42
 73
    38
 74
     0
 42
0.000000001
 43
0.00000001
 40
0.0
 40
0.0
 40
0.0
 40
0.0
 40
0.0312499999999998
 40
0.0312499999999998
 40
0.0624999999999995
 40
0.0624999999999995
 40
0.1249999999999996
 40
0.1249999999999996
 40
0.1874999999999997
 40
0.1874999999999997
 40
0.2499999999999998
 40
0.2499999999999998
 40
0.3124999999999999
 40
0.3124999999999999
 40
0.375
 40
0.375
 40
0.5000000000000001
 40
0.5000000000000001
 40
0.5625000000000001
 40
0.5625000000000001
 40
0.6250000000000002
 40
0.6250000000000002
 40
0.6875000000000002
 40
0.6875000000000002
 40
0.7500000000000003
 40
0.7500000000000003
 40
0.8125000000000003
 40
0.8125000000000003
 40
0.8437500000000004
 40
0.8437500000000004
 40
0.8750000000000006
 40
0.8750000000000006
 40
0.9375000000000006
 40
0.9375000000000006
 40
0.9687500000000003
 40
0.9687500000000003
 40
1.0
 40
1.0
 40
1.0
 40
1.0
 10
273.3012313062683
 20
35.75026230365706
 30
0.0
 10
273.3588408620978
 20
35.78351959233616
 30
0.0
 10
273.4203778667552
 20
35.8138405503294
 30
0.0
 10
273.5480396613073
 20
35.86728193273496
 30
0.0
 10
273.6145763221041
 20
35.89065196071285
 30
0.0
 10
273.8221005009024
 20
35.9511007267101
 30
0.0
 10
273.9724005080234
 20
35.97845675270999
 30
0.0
 10
274.2792359761057
 20
36.00736640298452
 30
0.0
 10
274.4383612701699
 20
36.00947443241032
 30
0.0
 10
274.7601212678759
 20
35.99237629980784
 30
0.0
 10
274.9208228120842
 20
35.9734551135148
 30
0.0
 10
275.2422131452039
 20
35.91843136942391
 30
0.0
 10
275.3996748092303
 20
35.8828272288098
 30
0.0
 10
275.7056652135889
 20
35.79957890919649
 30
0.0
 10
275.854793816051
 20
35.75180148789099
 30
0.0
 10
276.2908873796571
 20
35.59224451898613
 30
0.0
 10
276.552417438245
 20
35.47015808649716
 30
0.0
 10
276.8963535073507
 20
35.27095485970602
 30
0.0
 10
277.0001024189738
 20
35.20331534246952
 30
0.0
 10
277.1864712712531
 20
35.0652646171015
 30
0.0
 10
277.269423620365
 20
34.99452534440748
 30
0.0
 10
277.4112930353594
 20
34.8504209048419
 30
0.0
 10
277.468928954827
 20
34.77847732427605
 30
0.0
 10
277.5576129119887
 20
34.63314948079767
 30
0.0
 10
277.588783846476
 20
34.55932421638722
 30
0.0
 10
277.6208602787272
 20
34.40991752438035
 30
0.0
 10
277.6216031414509
 20
34.33590877466481
 30
0.0
 10
277.5987949825474
 20
34.22435865735122
 30
0.0
 10
277.5871756572653
 20
34.18708692088566
 30
0.0
 10
277.5553136932597
 20
34.11209591754251
 30
0.0
 10
277.5348803039067
 20
34.07411741151628
 30
0.0
 10
277.4609561529198
 20
33.9615572072032
 30
0.0
 10
277.3951981618684
 20
33.88814605478605
 30
0.0
 10
277.2699866780475
 20
33.77960821106456
 30
0.0
 10
277.2234890348536
 20
33.74353670719105
 30
0.0
 10
277.1238259374269
 20
33.67386652041068
 30
0.0
 10
277.0704411045066
 20
33.64003821738326
 30
0.0
 10
277.0135419074977
 20
33.60719101012245
 30
0.0
  0
LWPOLYLINE
  5
231
330
1F
100
AcDbEntity
  8
0
  6
Continuous
 62
     7
370
    15
100
AcDbPolyline
 90
       46
 70
   128
 43
0.0
 10
273.6724624407
 20
23.4928737386
 10
273.7189128775
 20
24.2867625051
 10
273.857359348
 20
25.1188291883
 10
274.0851074172
 20
25.9728788432
 10
274.397724422
 20
26.8322883569
 10
274.7891257405
 20
27.6803303031
 10
275.2516926713
 20
28.5004985991
 10
275.7764219231
 20
29.2768289318
 10
276.353100623
 20
29.9942117667
 10
276.9705042092
 20
30.6386839671
 10
277.6166156438
 20
31.1977009716
 10
278.2788590626
 20
31.6603827047
 10
278.9443446399
 20
32.0177237564
 10
279.6001195155
 20
32.2627682769
 10
280.2334197076
 20
32.3907470388
 10
280.8319187859
 20
32.3991692806
 10
281.383967592
 20
32.2878705995
 10
281.8788213136
 20
32.0590181824
 10
282.3068479142
 20
31.7170653482
 10
282.6597164764
 20
31.2686682598
 10
282.9305587104
 20
30.7225544437
 10
283.1141032966
 20
30.0893535744
 10
283.2067773017
 20
29.3813898586
 10
283.2067773017
 20
28.6124432434
 10
283.1141032966
 20
27.7974803989
 10
282.9305587104
 20
26.9523634611
 10
282.6597164764
 20
26.0935418578
 10
282.3068479142
 20
25.2377313995
 10
281.8788213136
 20
24.4015895714
 10
281.383967592
 20
23.6013912087
 10
280.8319187859
 20
22.8527105432
 10
280.2334197076
 20
22.1701204578
 10
279.6001195155
 20
21.5669063818
 10
278.9443446399
 20
21.0548093472
 10
278.2788590626
 20
20.6437971061
 10
277.6166156438
 20
20.3418688631
 10
276.9705042092
 20
20.1549014839
 10
276.353100623
 20
20.0865346769
 10
275.7764219231
 20
20.1380984573
 10
275.2516926713
 20
20.3085892915
 10
274.7891257405
 20
20.5946891772
 10
274.397724422
 20
20.9908287801
 10
274.0851074172
 20
21.4892983828
 10
273.857359348
 20
22.0803957141
 10
273.7189128775
 20
22.752615505
 10
273.6724624407
 20
23.4928737386
  0
SPLINE
  5
232
330
1F
100
AcDbEntity
  8
0
  6
Continuous
 62
     7
370
    15
100
AcDbSpline
210
0.0
220
0.0
230
1.0
 70
     8
 71
     3
 72
    22
 73
    18
 74
     0
 42
0.000000001
 43
0.00000001
 40
0.0
 40
0.0
 40
0.0
 40
0.0
 40
0.1249999999999998
 40
0.1249999999999998
 40
0.2499999999999997
 40
0.2499999999999997
 40
0.3749999999999995
 40
0.3749999999999995
 40
0.4999999999999993
 40
0.4999999999999993
 40
0.6249999999999991
 40
0.6249999999999991
 40
0.7499999999999994
 40
0.7499999999999994
 40
0.8749999999999997
 40
0.8749999999999997
 40
1.0
 40
1.0
 40
1.0
 40
1.0
 10
275.3937135571493
 20
20.79299748206699
 30
0.0
 10
275.3453362551504
 20
20.76109003002253
 30
0.0
 10
275.2966444506256
 20
20.73727541418732
 30
0.0
 10
275.1988689692373
 20
20.70559697879674
 30
0.0
 10
275.1494789366605
 20
20.69773718295657
 30
0.0
 10
275.051816486937
 20
20.69914061662306
 30
0.0
 10
275.0043912101878
 20
20.70828259575526
 30
0.0
 10
274.9124114902413
 20
20.7431214769325
 30
0.0
 10
274.8674407398178
 20
20.76918094031517
 30
0.0
 10
274.7827549442998
 20
20.83726675694859
 30
0.0
 10
274.7432864743448
 20
20.87886785488112
 30
0.0
 10
274.6699286227577
 20
20.97684335695063
 30
0.0
 10
274.635765699514
 20
21.03391413781386
 30
0.0
 10
274.5753042371853
 20
21.1592186237516
 30
0.0
 10
274.5487905610848
 20
21.22750171363674
 30
0.0
 10
274.5028541027803
 20
21.37509462500125
 30
0.0
 10
274.4834285480883
 20
21.45473163789542
 30
0.0
 10
274.4679666415095
 20
21.53803021925629
 30
0.0
  0
LWPOLYLINE
  5
233
330
1F
100
AcDbEntity
  8
0
  6
Continuous
 62
     7
370
    15
100
AcDbPolyline
 90
       10
 70
   128
 43
0.0
 10
281.1789547841
 20
24.1327460485
 10
280.6145100301
 20
23.3295363189
 10
279.9920424013
 20
22.6013559755
 10
279.3270649836
 20
21.9663522472
 10
278.6361505435
 20
21.4403513785
 10
277.9365179619
 20
21.0364620862
 10
277.2456035218
 20
20.7647501222
 10
276.5806261042
 20
20.6319872663
 10
275.9581584753
 20
20.6414817831
 10
275.3937137214
 20
20.7929974716
  0
SPLINE
  5
234
330
1F
100
AcDbEntity
  8
0
  6
Continuous
 62
     7
370
    15
100
AcDbSpline
210
0.0
220
0.0
230
1.0
 70
     8
 71
     3
 72
    22
 73
    18
 74
     0
 42
0.000000001
 43
0.00000001
 40
0.0
 40
0.0
 40
0.0
 40
0.0
 40
0.125
 40
0.125
 40
0.25
 40
0.25
 40
0.375
 40
0.375
 40
0.5
 40
0.5
 40
0.625
 40
0.625
 40
0.75
 40
0.75
 40
0.875
 40
0.875
 40
1.0
 40
1.0
 40
1.0
 40
1.0
 10
282.1047015857575
 20
25.94662346302493
 30
0.0
 10
282.1196405180629
 20
25.86304108306672
 30
0.0
 10
282.1272245088999
 20
25.77801376388988
 30
0.0
 10
282.1280012594121
 20
25.60502232395198
 30
0.0
 10
282.1211038659844
 20
25.51650324559197
 30
0.0
 10
282.092326503783
 20
25.33870661651354
 30
0.0
 10
282.0707938311132
 20
25.25098627129139
 30
0.0
 10
282.0137679132555
 20
25.07781686940205
 30
0.0
 10
281.9778337537228
 20
24.99154787623473
 30
0.0
 10
281.8932090927271
 20
24.82562981226357
 30
0.0
 10
281.8449674639193
 20
24.74650496564299
 30
0.0
 10
281.7368769229278
 20
24.59576115982093
 30
0.0
 10
281.6763295498556
 20
24.52352194883652
 30
0.0
 10
281.5474728072106
 20
24.39159101138225
 30
0.0
 10
281.479058840013
 20
24.33149819860378
 30
0.0
 10
281.3343417304362
 20
24.22285548038218
 30
0.0
 10
281.2577452454024
 20
24.17425030733748
 30
0.0
 10
281.1789546701177
 20
24.13274608803574
 30
0.0
  0
LWPOLYLINE
  5
235
330
1F
100
AcDbEntity
  8
0
  6
Continuous
 62
     7
370
    15
100
AcDbPolyline
 90
        9
 70
   128
 43
0.0
 10
282.1047017505
 20
31.1421640949
 10
282.3694728627
 20
30.6868797757
 10
282.5620131669
 20
30.1547008045
 10
282.6789170001
 20
29.5550417462
 10
282.7181162034
 20
28.8985103969
 10
282.6789170001
 20
28.1967206107
 10
282.5620131669
 20
27.4620872597
 10
282.3694728627
 20
26.7076059851
 10
282.1047017505
 20
25.9466234468
  0
SPLINE
  5
236
330
1F
100
AcDbEntity
  8
0
  6
Continuous
 62
     7
370
    15
100
AcDbSpline
210
0.0
220
0.0
230
1.0
 70
     8
 71
     3
 72
    22
 73
    18
 74
     0
 42
0.000000001
 43
0.00000001
 40
0.0
 40
0.0
 40
0.0
 40
0.0
 40
0.1249999999999998
 40
0.1249999999999998
 40
0.2499999999999997
 40
0.2499999999999997
 40
0.3749999999999995
 40
0.3749999999999995
 40
0.4999999999999993
 40
0.4999999999999993
 40
0.6249999999999991
 40
0.6249999999999991
 40
0.7499999999999994
 40
0.7499999999999994
 40
0.8749999999999997
 40
0.8749999999999997
 40
1.0
 40
1.0
 40
1.0
 40
1.0
 10
281.1789546701177
 20
31.88719694672502
 30
0.0
 10
281.2577297751001
 20
31.90155612063268
 30
0.0
 10
281.3331102172144
 20
31.90996371393519
 30
0.0
 10
281.4772984846308
 20
31.91484861826808
 30
0.0
 10
281.5465109133476
 20
31.91126518839255
 30
0.0
 10
281.676166340649
 20
31.89139260189727
 30
0.0
 10
281.7355334096579
 20
31.87535677283321
 30
0.0
 10
281.8436114690269
 20
31.83122451812247
 30
0.0
 10
281.892726860497
 20
31.80277240439257
 30
0.0
 10
281.9774407326051
 20
31.73467037948868
 30
0.0
 10
282.0128855907903
 20
31.695392063189
 30
0.0
 10
282.0702476827148
 20
31.60665071661824
 30
0.0
 10
282.092241612482
 20
31.55660494615747
 30
0.0
 10
282.1209386147152
 20
31.44963769271392
 30
0.0
 10
282.1279091987322
 20
31.39263658974468
 30
0.0
 10
282.1273306098272
 20
31.27189624356131
 30
0.0
 10
282.1196434518553
 20
31.20791106652932
 30
0.0
 10
282.1047015857575
 20
31.14216420953573
 30
0.0
  0
LWPOLYLINE
  5
237
330
1F
100
AcDbEntity
  8
0
  6
Continuous
 62
     7
370
    15
100
AcDbPolyline
 90
       10
 70
   128
 43
0.0
 10
275.3937137214
 20
28.5474482197
 10
275.9581584753
 20
29.3506579494
 10
276.5806261042
 20
30.0788382928
 10
277.2456035218
 20
30.713842021
 10
277.9365179619
 20
31.2398428897
 10
278.6361505435
 20
31.643732182
 10
279.3270649836
 20
31.915444146
 10
279.9920424013
 20
32.0482070019
 10
280.6145100301
 20
32.0387124851
 10
281.1789547841
 20
31.8871967966
  0
SPLINE
  5
238
330
1F
100
AcDbEntity
  8
0
  6
Continuous
 62
     7
370
    15
100
AcDbSpline
210
0.0
220
0.0
230
1.0
 70
     8
 71
     3
 72
    22
 73
    18
 74
     0
 42
0.000000001
 43
0.00000001
 40
0.0
 40
0.0
 40
0.0
 40
0.0
 40
0.125
 40
0.125
 40
0.25
 40
0.25
 40
0.375
 40
0.375
 40
0.5
 40
0.5
 40
0.625
 40
0.625
 40
0.75
 40
0.75
 40
0.875
 40
0.875
 40
1.0
 40
1.0
 40
1.0
 40
1.0
 10
274.4679666415095
 20
26.73357096576708
 30
0.0
 10
274.4834255121876
 20
26.79960506758849
 30
0.0
 10
274.5025301589401
 20
26.86922536423262
 30
0.0
 10
274.548166194456
 20
27.01542327311284
 30
0.0
 10
274.5748859840236
 20
27.09249912575715
 30
0.0
 10
274.635656323803
 20
27.2518266020068
 30
0.0
 10
274.6691307887326
 20
27.33265309729708
 30
0.0
 10
274.7422550460127
 20
27.49652912565292
 30
0.0
 10
274.7823338465919
 20
27.58040546847301
 30
0.0
 10
274.8669865841779
 20
27.74630732417369
 30
0.0
 10
274.9112046012159
 20
27.82775495242713
 30
0.0
 10
275.0032993825447
 20
27.98773291374794
 30
0.0
 10
275.0516777621404
 20
28.06699713513481
 30
0.0
 10
275.1487700446897
 20
28.21726530508326
 30
0.0
 10
275.197640919804
 20
28.28864010477765
 30
0.0
 10
275.2958429821713
 20
28.42413538818037
 30
0.0
 10
275.3453267545412
 20
28.48839239708726
 30
0.0
 10
275.3937135571493
 20
28.54744834075627
 30
0.0
  0
LWPOLYLINE
  5
239
330
1F
100
AcDbEntity
  8
0
  6
Continuous
 62
     7
370
    15
100
AcDbPolyline
 90
        9
 70
   128
 43
0.0
 10
274.4679667549
 20
21.5380301733
 10
274.2031956427
 20
21.9933144925
 10
274.0106553386
 20
22.5254934637
 10
273.8937515053
 20
23.125152522
 10
273.854552302
 20
23.7816838713
 10
273.8937515053
 20
24.4834736575
 10
274.0106553386
 20
25.2181070085
 10
274.2031956427
 20
25.9725882831
 10
274.4679667549
 20
26.7335708214
  0
ARC
  5
23A
330
1F
100
AcDbEntity
  8
0
  6
Continuous
 62
     7
370
    15
100
AcDbCircle
 10
281.6311786121
 20
30.6615005144
 30
0.0
 40
1.306460013515336
100
AcDbArc
 50
110.2516703451
 51
120.2336532865
  0
LINE
  5
23B
330
1F
100
AcDbEntity
  8
0
  6
Continuous
 62
     7
370
    15
100
AcDbLine
 10
280.5514916012
 20
31.5467268547
 30
0.0
 11
280.9733400665
 21
31.7902547901
 31
0.0
  0
LWPOLYLINE
  5
23C
330
1F
100
AcDbEntity
  8
0
  6
Continuous
 62
     7
370
    15
100
AcDbPolyline
 90
        9
 70
   128
 43
0.0
 10
276.0211769042
 20
28.9314318482
 10
276.542827625
 20
29.5751165436
 10
277.1024581717
 20
30.1483302845
 10
277.6878779387
 20
30.6385868674
 10
278.2863342527
 20
31.0352068116
 10
278.8847905668
 20
31.3295498201
 10
279.4702103337
 20
31.5152045129
 10
280.0298408804
 20
31.5881264478
 10
280.5514916012
 20
31.5467268547
  0
LINE
  5
23D
330
1F
100
AcDbEntity
  8
0
  6
Continuous
 62
     7
370
    15
100
AcDbLine
 10
275.5993284389
 20
28.6879039128
 30
0.0
 11
276.0211769042
 21
28.9314318482
 31
0.0
  0
ARC
  5
23E
330
1F
100
AcDbEntity
  8
0
  6
Continuous
 62
     7
370
    15
100
AcDbCircle
 10
276.4620580766
 20
27.2042152637
 30
0.0
 40
1.716285068153621
100
AcDbArc
 50
120.1769820595
 51
128.4970899924
  0
LWPOLYLINE
  5
23F
330
1F
100
AcDbEntity
  8
0
  6
Continuous
 62
     7
370
    15
100
AcDbPolyline
 90
       26
 70
   128
 43
0.0
 10
278.7009344479
 20
31.250075274
 10
278.7670880425
 20
31.2507984455
 10
279.2502448612
 20
31.1861868632
 10
279.6761756439
 20
30.9991897566
 10
280.0326270176
 20
30.6951867444
 10
280.3093447857
 20
30.2829236367
 10
280.4983681329
 20
29.7742603142
 10
280.5942587987
 20
29.1838299002
 10
280.5942587987
 20
28.5286183527
 10
280.4983681329
 20
27.8274749325
 10
280.3093447857
 20
27.1005698987
 10
280.0326270176
 20
26.3688152566
 10
279.6761756439
 20
25.6532622485
 10
279.2502448612
 20
24.9744959278
 10
278.7670880425
 20
24.3520433565
 10
278.2406045928
 20
23.8038110859
 10
277.6859406654
 20
23.345570812
 10
277.1190528039
 20
22.9905055689
 10
276.5562494206
 20
22.7488296293
 10
276.0137212749
 20
22.6274954022
 10
275.5070759022
 20
22.6299942469
 10
275.0508886214
 20
22.7562531697
 10
274.6582831542
 20
23.002640822
 10
274.3405538684
 20
23.36206882
 10
274.1068416909
 20
23.8241970525
 10
273.9930208337
 20
24.2199284766
  0
LINE
  5
240
330
1F
100
AcDbEntity
  8
0
  6
Continuous
 62
     7
370
    15
100
AcDbLine
 10
274.5740246894
 20
21.4818347339
 30
0.0
 11
275.7180017812
 21
22.1422386519
 31
0.0
  0
LWPOLYLINE
  5
241
330
1F
100
AcDbEntity
  8
0
  6
Continuous
 62
     7
370
    15
100
AcDbPolyline
 90
        3
 70
   128
 43
0.0
 10
281.0582518076
 20
31.465131238
 10
281.0789985938
 20
31.7636792276
 10
281.0748293485
 20
31.843575181
  0
ARC
  5
242
330
1F
100
AcDbEntity
  8
0
  6
Continuous
 62
     7
370
    15
100
AcDbCircle
 10
275.9946936133
 20
29.124081589
 30
0.0
 40
5.578542376499369
100
AcDbArc
 50
335.1873452281
 51
24.8126547719
  0
ARC
  5
243
330
1F
100
AcDbEntity
  8
0
  6
Continuous
 62
     7
370
    15
100
AcDbCircle
 10
278.703353712
 20
26.5923376396
 30
0.0
 40
2.362606475190133
100
AcDbArc
 50
301.7912526661
 51
4.6295804276
  0
LINE
  5
244
330
1F
100
AcDbEntity
  8
0
  6
Continuous
 62
     7
370
    15
100
AcDbLine
 10
278.8040592251
 20
23.9237816931
 30
0.0
 11
279.948036317
 21
24.5841856111
 31
0.0
  0
ARC
  5
245
330
1F
100
AcDbEntity
  8
0
  6
Continuous
 62
     7
370
    15
100
AcDbCircle
 10
275.0105772495
 20
26.9313319393
 30
0.0
 40
4.841060212683476
100
AcDbArc
 50
278.4027252788
 51
321.5918981885
  0
ARC
  5
246
330
1F
100
AcDbEntity
  8
0
  6
Continuous
 62
     7
370
    15
100
AcDbCircle
 10
276.1923669029
 20
21.5377336129
 30
0.0
 40
1.724400173474381
100
AcDbArc
 50
171.017860925
 51
179.9901463351
  0
ARC
  5
247
330
1F
100
AcDbEntity
  8
0
  6
Continuous
 62
     7
370
    15
100
AcDbCircle
 10
279.5526711426
 20
24.148007935
 30
0.0
 40
5.578542376498956
100
AcDbArc
 50
155.187345228
 51
204.812654772
  0
ARC
  5
248
330
1F
100
AcDbEntity
  8
0
  6
Continuous
 62
     7
370
    15
100
AcDbCircle
 10
275.7673444873
 20
26.7227736575
 30
0.0
 40
1.299422591042054
100
AcDbArc
 50
179.5239123517
 51
190.3616916501
  0
LINE
  5
249
330
1F
100
AcDbEntity
  8
0
  6
Continuous
 62
     7
370
    15
100
AcDbLine
 10
279.4453399888
 20
31.4942073677
 30
0.0
 11
280.5514916012
 21
31.5467268547
 31
0.0
  0
LWPOLYLINE
  5
24A
330
1F
100
AcDbEntity
  8
0
  6
Continuous
 62
     7
370
    15
100
AcDbPolyline
 90
       23
 70
   128
 43
0.0
 10
278.5840895544
 20
31.1944914194
 10
279.0235232983
 20
31.0908029913
 10
279.4157240898
 20
30.8643166908
 10
279.7338616733
 20
30.5233099174
 10
279.9682691092
 20
30.0781440297
 10
280.1118245679
 20
29.5423451937
 10
280.1601660154
 20
28.9321934281
 10
280.1118245679
 20
28.2662278153
 10
279.9682691092
 20
27.5646833746
 10
279.7338616733
 20
26.8488764221
 10
279.4157240898
 20
26.1405558134
 10
279.0235232983
 20
25.4612441177
 10
278.5691758262
 20
24.831581366
 10
278.0664870713
 20
24.2707002697
 10
277.5307307387
 20
23.795642177
 10
276.978185637
 20
23.4208417602
 10
276.4256405353
 20
23.1576871819
 10
275.8898842027
 20
23.0141741796
 10
275.3871954478
 20
22.9946631935
 10
274.9328479757
 20
23.0997475198
 10
274.5406471841
 20
23.3262338203
 10
274.2225096007
 20
23.6672405936
 10
274.074824574
 20
23.9155701103
  0
ARC
  5
24B
330
1F
100
AcDbEntity
  8
0
  6
Continuous
 62
     7
370
    15
100
AcDbCircle
 10
274.9414898933
 20
22.0186937538
 30
0.0
 40
1.306460013514914
100
AcDbArc
 50
290.2516703451
 51
300.2336532865
  0
ARC
  5
24C
330
1F
100
AcDbEntity
  8
0
  6
Continuous
 62
     7
370
    15
100
AcDbCircle
 10
280.3803016026
 20
31.1424606553
 30
0.0
 40
1.724400173482512
100
AcDbArc
 50
351.017860925
 51
359.9901463351
  0
LINE
  5
24D
330
1F
100
AcDbEntity
  8
0
  6
Continuous
 62
     7
370
    15
100
AcDbLine
 10
281.0582518076
 20
31.465131238
 30
0.0
 11
282.0835555571
 21
30.8732359823
 31
0.0
  0
LWPOLYLINE
  5
24E
330
1F
100
AcDbEntity
  8
0
  6
Continuous
 62
     7
370
    15
100
AcDbPolyline
 90
        9
 70
   128
 43
0.0
 10
280.5514916012
 20
23.74876242
 10
280.0298408804
 20
23.1050777246
 10
279.4702103337
 20
22.5318639837
 10
278.8847905668
 20
22.0416074008
 10
278.2863342527
 20
21.6449874566
 10
277.6878779387
 20
21.3506444481
 10
277.1024581717
 20
21.1649897553
 10
276.542827625
 20
21.0920678204
 10
276.0211769042
 20
21.1334674135
  0
LINE
  5
24F
330
1F
100
AcDbEntity
  8
0
  6
Continuous
 62
     7
370
    15
100
AcDbLine
 10
280.9733400665
 20
23.9922903554
 30
0.0
 11
280.5514916012
 21
23.74876242
 31
0.0
  0
ARC
  5
250
330
1F
100
AcDbEntity
  8
0
  6
Continuous
 62
     7
370
    15
100
AcDbCircle
 10
280.1106104289
 20
25.4759790045
 30
0.0
 40
1.716285068154437
100
AcDbArc
 50
300.1769820595
 51
308.4970899924
  0
LINE
  5
251
330
1F
100
AcDbEntity
  8
0
  6
Continuous
 62
     7
370
    15
100
AcDbLine
 10
276.0211769042
 20
21.1334674135
 30
0.0
 11
275.5993284389
 21
20.8899394781
 31
0.0
  0
LINE
  5
252
330
1F
100
AcDbEntity
  8
0
  6
Continuous
 62
     7
370
    15
100
AcDbLine
 10
275.7180017812
 20
22.1422386519
 30
0.0
 11
276.1309328953
 21
21.9038585938
 31
0.0
  0
SPLINE
  5
253
330
1F
100
AcDbEntity
  8
0
  6
Continuous
 62
     7
370
    15
100
AcDbSpline
210
0.0
220
0.0
230
1.0
 70
     8
 71
     3
 72
     8
 73
     4
 74
     0
 42
0.000000001
 43
0.00000001
 40
0.0
 40
0.0
 40
0.0
 40
0.0
 40
1.0
 40
1.0
 40
1.0
 40
1.0
 10
276.1309330003039
 20
21.90385842499511
 30
0.0
 10
276.0584838764484
 20
21.64701421769405
 30
0.0
 10
276.0291097543944
 20
21.39022668958372
 30
0.0
 10
276.0211768343259
 20
21.13346737435619
 30
0.0
  0
SPLINE
  5
254
330
1F
100
AcDbEntity
  8
0
  6
Continuous
 62
     7
370
    15
100
AcDbSpline
210
0.0
220
0.0
230
1.0
 70
     8
 71
     3
 72
    12
 73
     8
 74
     0
 42
0.000000001
 43
0.00000001
 40
0.0
 40
0.0
 40
0.0
 40
0.0
 40
0.2499999999999992
 40
0.2499999999999992
 40
0.4999999999999983
 40
0.4999999999999983
 40
1.0
 40
1.0
 40
1.0
 40
1.0
 10
244.4696267599944
 20
37.10692520327085
 30
0.0
 10
244.5034059262668
 20
37.08742490565734
 30
0.0
 10
244.5417306227423
 20
37.06058515708018
 30
0.0
 10
244.6159537468548
 20
37.00218465375752
 30
0.0
 10
244.6513371113496
 20
36.97119499527663
 30
0.0
 10
244.7471470697345
 20
36.88045564225588
 30
0.0
 10
244.7961508278888
 20
36.82456151353834
 30
0.0
 10
244.8299598855035
 20
36.77730164977168
 30
0.0
  0
SPLINE
  5
255
330
1F
100
AcDbEntity
  8
0
  6
Continuous
 62
     7
370
    15
100
AcDbSpline
210
0.0
220
0.0
230
1.0
 70
     8
 71
     3
 72
    12
 73
     8
 74
     0
 42
0.000000001
 43
0.00000001
 40
0.0
 40
0.0
 40
0.0
 40
0.0
 40
0.4999999999999971
 40
0.4999999999999971
 40
0.7499999999999986
 40
0.7499999999999986
 40
1.0
 40
1.0
 40
1.0
 40
1.0
 10
261.9344897986946
 20
53.54710317409322
 30
0.0
 10
261.9344897986946
 20
53.61852220581789
 30
0.0
 10
261.9169252680335
 20
53.70105196501109
 30
0.0
 10
261.8617997335436
 20
53.81999668104396
 30
0.0
 10
261.8385072597869
 20
53.85862956826855
 30
0.0
 10
261.7845388707294
 20
53.9251920795456
 30
0.0
 10
261.7536913699763
 20
53.95311311779826
 30
0.0
 10
261.7223577643386
 20
53.97120162330821
 30
0.0
  0
ARC
  5
256
330
1F
100
AcDbEntity
  8
0
  6
Continuous
 62
     7
370
    15
100
AcDbCircle
 10
270.6250149825
 20
30.7580329396
 30
0.0
 40
26.5223650942329
100
AcDbArc
 50
139.8655938166
 51
157.614299948
  0
LWPOLYLINE
  5
257
330
1F
100
AcDbEntity
  8
0
  6
Continuous
 62
     7
370
    15
100
AcDbPolyline
 90
       11
 70
   128
 43
0.0
 10
250.4333332405
 20
50.7744653419
 10
251.4385556631
 20
51.6707546744
 10
252.4648172656
 20
52.4702138138
 10
253.5032786933
 20
53.1659566236
 10
254.5449951829
 20
53.7519912579
 10
255.5809940657
 20
54.2232687048
 10
256.6023519812
 20
54.5757304032
 10
257.6002718038
 20
54.8063404839
 10
258.5661577165
 20
54.9131123787
 10
259.4916899975
 20
54.8951261378
 10
260.3688976239
 20
54.7525376436
  0
LINE
  5
258
330
1F
100
AcDbEntity
  8
0
  6
Continuous
 62
     7
370
    15
100
AcDbLine
 10
261.7223573945
 20
53.9712019493
 30
0.0
 11
260.3688976239
 21
54.7525376436
 31
0.0
  0
LINE
  5
259
330
1F
100
AcDbEntity
  8
0
  6
Continuous
 62
     7
370
    15
100
AcDbLine
 10
243.1161668455
 20
37.8882610873
 30
0.0
 11
244.4696266161
 21
37.1069253929
 31
0.0
  0
ARC
  5
25A
330
1F
100
AcDbEntity
  8
0
  6
Continuous
 62
     7
370
    15
100
AcDbCircle
 10
268.7692745908
 20
31.8566813253
 30
0.0
 40
26.35264486573523
100
AcDbArc
 50
136.493814506
 51
166.7688887241
  0
SPLINE
  5
25B
330
1F
100
AcDbEntity
  8
0
  6
Continuous
 62
     7
370
    15
100
AcDbSpline
210
0.0
220
0.0
230
1.0
 70
     8
 71
     3
 72
    12
 73
     8
 74
     0
 42
0.000000001
 43
0.00000001
 40
0.0
 40
0.0
 40
0.0
 40
0.0
 40
0.2499999999999997
 40
0.2499999999999997
 40
0.4999999999999993
 40
0.4999999999999993
 40
1.0
 40
1.0
 40
1.0
 40
1.0
 10
249.6556996356753
 20
49.99870856640536
 30
0.0
 10
249.7550143183953
 20
50.03205665070118
 30
0.0
 10
249.8488394580867
 20
50.0759388522057
 30
0.0
 10
250.0258325629923
 20
50.18406912100143
 30
0.0
 10
250.1056441309134
 20
50.24647461118261
 30
0.0
 10
250.3138279921337
 20
50.45387218897237
 30
0.0
 10
250.4055378257198
 20
50.61528272676615
 30
0.0
 10
250.4333331518935
 20
50.77446573430525
 30
0.0
  0
ARC
  5
25C
330
1F
100
AcDbEntity
  8
0
  6
Continuous
 62
     7
370
    15
100
AcDbCircle
 10
275.4235083636
 20
26.6929518812
 30
0.0
 40
4.84106021268382
100
AcDbArc
 50
278.4027252788
 51
321.5918981885
  0
SPLINE
  5
25D
330
1F
100
AcDbEntity
  8
0
  6
Continuous
 62
     7
370
    15
100
AcDbSpline
210
0.0
220
0.0
230
1.0
 70
     8
 71
     3
 72
     8
 73
     4
 74
     0
 42
0.000000001
 43
0.00000001
 40
0.0
 40
0.0
 40
0.0
 40
0.0
 40
1.0
 40
1.0
 40
1.0
 40
1.0
 10
280.551491392941
 20
23.74876230092692
 30
0.0
 10
280.1028616036839
 20
23.74414296438455
 30
0.0
 10
279.657163623172
 20
23.72677962054835
 30
0.0
 10
279.2169903555713
 20
23.68540141498218
 30
0.0
  0
LINE
  5
25E
330
1F
100
AcDbEntity
  8
0
  6
Continuous
 62
     7
370
    15
100
AcDbLine
 10
265.9517534714
 20
48.8760541799
 30
0.0
 11
266.0571172999
 21
49.0585493035
 31
0.0
  0
LINE
  5
25F
330
1F
100
AcDbEntity
  8
0
  6
Continuous
 62
     7
370
    15
100
AcDbLine
 10
264.7805946256
 20
48.1999585694
 30
0.0
 11
265.9517534714
 21
48.8760541799
 31
0.0
  0
ARC
  5
260
330
1F
100
AcDbEntity
  8
0
  6
Continuous
 62
     7
370
    15
100
AcDbCircle
 10
265.4430824533
 20
47.1642741497
 30
0.0
 40
1.229443914554872
100
AcDbArc
 50
122.6054968531
 51
177.3945222572
  0
LINE
  5
261
330
1F
100
AcDbEntity
  8
0
  6
Continuous
 62
     7
370
    15
100
AcDbLine
 10
264.2149095031
 20
43.7007121359
 30
0.0
 11
264.2149095031
 21
47.2201628187
 31
0.0
  0
LINE
  5
262
330
1F
100
AcDbEntity
  8
0
  6
Continuous
 62
     7
370
    15
100
AcDbLine
 10
244.8778550639
 20
30.137197807
 30
0.0
 11
244.8299597803
 21
30.014949146
 31
0.0
  0
LINE
  5
263
330
1F
100
AcDbEntity
  8
0
  6
Continuous
 62
     7
370
    15
100
AcDbLine
 10
244.8778550639
 20
30.137197807
 30
0.0
 11
246.8907931586
 21
31.2992422342
 31
0.0
  0
ARC
  5
264
330
1F
100
AcDbEntity
  8
0
  6
Continuous
 62
     7
370
    15
100
AcDbCircle
 10
246.2283053309
 20
32.3349266539
 30
0.0
 40
1.229443914554765
100
AcDbArc
 50
302.6054968531
 51
357.3945222572
  0
LINE
  5
265
330
1F
100
AcDbEntity
  8
0
  6
Continuous
 62
     7
370
    15
100
AcDbLine
 10
247.4564782811
 20
37.5457264004
 30
0.0
 11
247.4564782811
 21
32.2790379849
 31
0.0
  0
ARC
  5
266
330
1F
100
AcDbEntity
  8
0
  6
Continuous
 62
     7
370
    15
100
AcDbCircle
 10
247.111618838
 20
37.601668212
 30
0.0
 40
0.3493673163990063
100
AcDbArc
 50
350.7859529282
 51
129.2032375553
  0
LINE
  5
267
330
1F
100
AcDbEntity
  8
0
  6
Continuous
 62
     7
370
    15
100
AcDbLine
 10
246.8907931586
 20
37.8723960108
 30
0.0
 11
244.8778550639
 21
36.7103515836
 31
0.0
  0
LINE
  5
268
330
1F
100
AcDbEntity
  8
0
  6
Continuous
 62
     7
370
    15
100
AcDbLine
 10
244.8299597803
 20
36.7773015272
 30
0.0
 11
244.8778550639
 21
36.7103515836
 31
0.0
  0
LINE
  5
269
330
1F
100
AcDbEntity
  8
0
  6
Continuous
 62
     7
370
    15
100
AcDbLine
 10
261.934489727
 20
50.762122066
 30
0.0
 11
261.934489727
 21
53.5471029545
 31
0.0
  0
LINE
  5
26A
330
1F
100
AcDbEntity
  8
0
  6
Continuous
 62
     7
370
    15
100
AcDbLine
 10
264.346223278
 20
52.1543862098
 30
0.0
 11
261.934489727
 21
50.762122066
 31
0.0
  0
ARC
  5
26B
330
1F
100
AcDbEntity
  8
0
  6
Continuous
 62
     7
370
    15
100
AcDbCircle
 10
280.8053240182
 20
25.9574206107
 30
0.0
 40
1.29942259104762
100
AcDbArc
 50
359.5239123517
 51
10.3616916501
  0
ARC
  5
26C
330
1F
100
AcDbEntity
  8
0
  6
Continuous
 62
     7
370
    15
100
AcDbCircle
 10
277.0199973628
 20
28.5321863332
 30
0.0
 40
5.578542376499421
100
AcDbArc
 50
335.1873452281
 51
24.8126547719
  0
LINE
  5
26D
330
1F
100
AcDbEntity
  8
0
  6
Continuous
 62
     7
370
    15
100
AcDbLine
 10
281.0582518076
 20
26.7830319399
 30
0.0
 11
282.0835555571
 21
26.1911366842
 31
0.0
  0
LINE
  5
26E
330
1F
100
AcDbEntity
  8
0
  6
Continuous
 62
     7
370
    15
100
AcDbLine
 10
279.2169903392
 20
23.685401635
 30
0.0
 11
278.8040592251
 21
23.9237816931
 31
0.0
  0
SPLINE
  5
26F
330
1F
100
AcDbEntity
  8
0
  6
Continuous
 62
     7
370
    15
100
AcDbSpline
210
0.0
220
0.0
230
1.0
 70
     8
 71
     3
 72
     8
 73
     4
 74
     0
 42
0.000000001
 43
0.00000001
 40
0.0
 40
0.0
 40
0.0
 40
0.0
 40
1.0
 40
1.0
 40
1.0
 40
1.0
 10
242.1260153397569
 20
39.14664029214053
 30
0.0
 10
241.7453174737565
 20
39.08367345446992
 30
0.0
 10
241.3644795015166
 20
39.02097333233489
 30
0.0
 10
240.9835388507769
 20
38.95849245366185
 30
0.0
  0
SPLINE
  5
270
330
1F
100
AcDbEntity
  8
0
  6
Continuous
 62
     7
370
    15
100
AcDbSpline
210
0.0
220
0.0
230
1.0
 70
     8
 71
     3
 72
     8
 73
     4
 74
     0
 42
0.000000001
 43
0.00000001
 40
0.0
 40
0.0
 40
0.0
 40
0.0
 40
0.0011901715795577
 40
0.0011901715795577
 40
0.0011901715795577
 40
0.0011901715795577
 10
240.6258520532191
 20
39.32588910951748
 30
0.0
 10
240.7454985607139
 20
39.20327419976199
 30
0.0
 10
240.864741734862
 20
39.08080215926628
 30
0.0
 10
240.9835388507769
 20
38.95849245366186
 30
0.0
  0
LWPOLYLINE
  5
271
330
1F
100
AcDbEntity
  8
0
  6
Continuous
 62
     7
370
    15
100
AcDbPolyline
 90
       21
 70
   128
 43
0.0
 10
240.6258521419
 20
39.3258891649
 10
240.9761095751
 20
40.6904883261
 10
241.4202550404
 20
42.0656890359
 10
241.954284587
 20
43.4390938437
 10
242.5733849131
 20
44.798322865
 10
243.271973537
 20
46.1311210039
 10
244.0437541146
 20
47.4254746782
 10
244.8817678061
 20
48.669714097
 10
245.7784611059
 20
49.8526239019
 10
246.7257497218
 20
50.9635393594
 10
247.7150939777
 20
51.9924454043
 10
248.7375753702
 20
52.9300672224
 10
249.7839759223
 20
53.7679518026
 10
250.8448626838
 20
54.4985463761
 10
251.9106716538
 20
55.1152651147
 10
252.9717947916
 20
55.6125462051
 10
254.0186660384
 20
55.9859075926
 10
255.0418481222
 20
56.2319841636
 10
256.0321166454
 20
56.3485565174
 10
256.9805448725
 20
56.3345755775
 10
257.8785829203
 20
56.1901657212
  0
LINE
  5
272
330
1F
100
AcDbEntity
  8
0
  6
Continuous
 62
     7
370
    15
100
AcDbLine
 10
258.3024103118
 20
54.8873835069
 30
0.0
 11
257.8785829203
 21
56.1901657212
 31
0.0
  0
LWPOLYLINE
  5
273
330
1F
100
AcDbEntity
  8
0
  6
Continuous
 62
     7
370
    15
100
AcDbPolyline
 90
       20
 70
   128
 43
0.0
 10
242.126015214
 20
39.1466404778
 10
242.4545986304
 20
40.4401901039
 10
242.8758425518
 20
41.7444364517
 10
243.3856416118
 20
43.0466653471
 10
243.9790264334
 20
44.3341847506
 10
244.6502130203
 20
45.594444145
 10
245.3926587328
 20
46.8151584862
 10
246.1991268253
 20
47.9844291099
 10
247.0617559226
 20
49.0908583658
 10
247.9721377286
 20
50.123662158
 10
248.9213986853
 20
51.0727733609
 10
249.9002857484
 20
51.9289400056
 10
250.8992569372
 20
52.6838163367
 10
251.9085749767
 20
53.3300450084
 10
252.9184016493
 20
53.8613260006
 10
253.918893582
 20
54.2724810421
 10
254.90029859
 20
54.5595023838
 10
255.8530501619
 20
54.7195928952
 10
256.7678619968
 20
54.7511917419
 10
257.1747934411
 20
54.7223074897
  0
LINE
  5
274
330
1F
100
AcDbEntity
  8
0
  6
Continuous
 62
     7
370
    15
100
AcDbLine
 10
239.2900696815
 20
40.0970199653
 30
0.0
 11
240.6258521419
 21
39.3258891649
 31
0.0
  0
LINE
  5
275
330
1F
100
AcDbEntity
  8
0
  6
Continuous
 62
     7
370
    15
100
AcDbLine
 10
257.8785829203
 20
56.1901657212
 30
0.0
 11
256.5428004599
 21
56.9612965216
 31
0.0
  0
LINE
  5
276
330
1F
100
AcDbEntity
  8
0
  6
Continuous
 62
     7
370
    15
100
AcDbLine
 10
243.3525573235
 20
38.8463556844
 30
0.0
 11
242.7620467194
 21
39.1872502001
 31
0.0
  0
SPLINE
  5
277
330
1F
100
AcDbEntity
  8
0
  6
Continuous
 62
     7
370
    15
100
AcDbSpline
210
0.0
220
0.0
230
1.0
 70
     8
 71
     3
 72
    14
 73
    10
 74
     0
 42
0.000000001
 43
0.00000001
 40
0.0
 40
0.0
 40
0.0
 40
0.0
 40
0.1134875903227499
 40
0.2884507601050068
 40
0.4634438893900288
 40
0.6380744063983101
 40
0.8124676993590939
 40
0.9871167959912229
 40
0.9999999999999999
 40
0.9999999999999999
 40
0.9999999999999999
 40
0.9999999999999999
 10
250.1467820858107
 20
50.29901606427702
 30
0.0
 10
250.0772316234013
 20
50.30236609369968
 30
0.0
 10
249.9004556103539
 20
50.31088084434857
 30
0.0
 10
249.6056200879653
 20
50.22573479780751
 30
0.0
 10
249.3129739786621
 20
50.06229918554032
 30
0.0
 10
249.0874316188376
 20
49.83161149291549
 30
0.0
 10
248.9683401181389
 20
49.56887782463205
 30
0.0
 10
248.9342731397505
 20
49.37392005074046
 30
0.0
 10
248.9659354110553
 20
49.28814096252631
 30
0.0
 10
248.9681105643446
 20
49.28224806040026
 30
0.0
  0
SPLINE
  5
278
330
1F
100
AcDbEntity
  8
0
  6
Continuous
 62
     7
370
    15
100
AcDbSpline
210
0.0
220
0.0
230
1.0
 70
     8
 71
     3
 72
    12
 73
     8
 74
     0
 42
0.000000001
 43
0.00000001
 40
0.0
 40
0.0
 40
0.0
 40
0.0
 40
0.2500000000000015
 40
0.2500000000000015
 40
0.500000000000003
 40
0.500000000000003
 40
1.0
 40
1.0
 40
1.0
 40
1.0
 10
242.7620467889943
 20
39.18725018755617
 30
0.0
 10
242.724428054035
 20
39.20896702099236
 30
0.0
 10
242.6784356456477
 20
39.22622275497501
 30
0.0
 10
242.5788345156718
 20
39.24851654280283
 30
0.0
 10
242.5240837904177
 20
39.25372232738226
 30
0.0
 10
242.3645778915984
 20
39.25072042795514
 30
0.0
 10
242.2595750863809
 20
39.22374269269594
 30
0.0
 10
242.1842621901889
 20
39.18026548316264
 30
0.0
  0
SPLINE
  5
279
330
1F
100
AcDbEntity
  8
0
  6
Continuous
 62
     7
370
    15
100
AcDbSpline
210
0.0
220
0.0
230
1.0
 70
     8
 71
     3
 72
    10
 73
     6
 74
     0
 42
0.000000001
 43
0.00000001
 40
0.0
 40
0.0
 40
0.0
 40
0.0
 40
0.5
 40
0.5
 40
1.0
 40
1.0
 40
1.0
 40
1.0
 10
239.1884254772056
 20
40.1277419641153
 30
0.0
 10
239.1956881588542
 20
40.13173856960313
 30
0.0
 10
239.2074818228199
 20
40.1319203479883
 30
0.0
 10
239.2415408335872
 20
40.12219871847855
 30
0.0
 10
239.2637133211394
 20
40.11223506170285
 30
0.0
 10
239.290069587803
 20
40.09701991282154
 30
0.0
  0
LINE
  5
27A
330
1F
100
AcDbEntity
  8
0
  6
Continuous
 62
     7
370
    15
100
AcDbLine
 10
242.1842621586
 20
39.1802657232
 30
0.0
 11
242.126015214
 21
39.1466404778
 31
0.0
  0
LINE
  5
27B
330
1F
100
AcDbEntity
  8
0
  6
Continuous
 62
     7
370
    15
100
AcDbLine
 10
244.8778550639
 20
36.7103515836
 30
0.0
 11
243.1506722728
 21
37.7074329854
 31
0.0
  0
SPLINE
  5
27C
330
1F
100
AcDbEntity
  8
0
  6
Continuous
 62
     7
370
    15
100
AcDbSpline
210
0.0
220
0.0
230
1.0
 70
     8
 71
     3
 72
     8
 73
     4
 74
     0
 42
0.000000001
 43
0.00000001
 40
0.0
 40
0.0
 40
0.0
 40
0.0
 40
0.0011901715795577
 40
0.0011901715795577
 40
0.0011901715795577
 40
0.0011901715795577
 10
243.1506723624658
 20
37.70743290691507
 30
0.0
 10
243.1385108956472
 20
37.76818316262591
 30
0.0
 10
243.1270274486912
 20
37.82844683675596
 30
0.0
 10
243.1161666250486
 20
37.8882611079727
 30
0.0
  0
ARC
  5
27D
330
1F
100
AcDbEntity
  8
0
  6
Continuous
 62
     7
370
    15
100
AcDbCircle
 10
252.1280231732
 20
38.1321637281
 30
0.0
 40
10.35602402537176
100
AcDbArc
 50
174.7137416526
 51
187.1556076144
  0
LINE
  5
27E
330
1F
100
AcDbEntity
  8
0
  6
Continuous
 62
     7
370
    15
100
AcDbLine
 10
241.8526569284
 20
39.1014983872
 30
0.0
 11
241.8526569284
 21
36.842170647
 31
0.0
  0
LINE
  5
27F
330
1F
100
AcDbEntity
  8
0
  6
Continuous
 62
     7
370
    15
100
AcDbLine
 10
241.8526569284
 20
36.842170647
 30
0.0
 11
241.8526569284
 21
35.3763627396
 31
0.0
  0
LINE
  5
280
330
1F
100
AcDbEntity
  8
0
  6
Continuous
 62
     7
370
    15
100
AcDbLine
 10
239.6275870774
 20
39.7412667773
 30
0.0
 11
239.1884253946
 21
40.1277418966
 31
0.0
  0
LINE
  5
281
330
1F
100
AcDbEntity
  8
0
  6
Continuous
 62
     7
370
    15
100
AcDbLine
 10
240.9835386157
 20
38.958492616
 30
0.0
 11
239.6275870774
 21
39.7412667773
 31
0.0
  0
LINE
  5
282
330
1F
100
AcDbEntity
  8
0
  6
Continuous
 62
     7
370
    15
100
AcDbLine
 10
240.8538688972
 20
38.8770642889
 30
0.0
 11
240.8550147647
 21
39.0326877433
 31
0.0
  0
ARC
  5
283
330
1F
100
AcDbEntity
  8
0
  6
Continuous
 62
     7
370
    15
100
AcDbCircle
 10
247.7939094643
 20
38.6180302086
 30
0.0
 40
6.944873053391259
100
AcDbArc
 50
177.8624515061
 51
210.7269066289
  0
LINE
  5
284
330
1F
100
AcDbEntity
  8
0
  6
Continuous
 62
     7
370
    15
100
AcDbLine
 10
227.4663289543
 20
62.7487544386
 30
0.0
 11
227.6468605347
 21
62.6925059258
 31
0.0
  0
LINE
  5
285
330
1F
100
AcDbEntity
  8
0
  6
Continuous
 62
     7
370
    15
100
AcDbLine
 10
243.1506722728
 20
31.1342792088
 30
0.0
 11
244.8778550639
 21
30.137197807
 31
0.0
  0
SPLINE
  5
286
330
1F
100
AcDbEntity
  8
0
  6
Continuous
 62
     7
370
    15
100
AcDbSpline
210
0.0
220
0.0
230
1.0
 70
     8
 71
     3
 72
    14
 73
    10
 74
     0
 42
0.000000001
 43
0.00000001
 40
0.0
 40
0.0
 40
0.0
 40
0.0
 40
0.25
 40
0.25
 40
0.5
 40
0.5
 40
0.75
 40
0.75
 40
1.0
 40
1.0
 40
1.0
 40
1.0
 10
244.8299598855035
 20
30.01494933709771
 30
0.0
 10
244.8130516879655
 20
29.97179248754857
 30
0.0
 10
244.7925284970845
 20
29.93177651505956
 30
0.0
 10
244.7437450615221
 20
29.85846688807464
 30
0.0
 10
244.7152880831463
 20
29.82517972946857
 30
0.0
 10
244.6519254606381
 20
29.77225688313824
 30
0.0
 10
244.6166063998972
 20
29.75219321671299
 30
0.0
 10
244.5417883228461
 20
29.73543422623094
 30
0.0
 10
244.5034188487814
 20
29.73963112184213
 30
0.0
 10
244.4696267599944
 20
29.75913887946457
 30
0.0
  0
LINE
  5
287
330
1F
100
AcDbEntity
  8
0
  6
Continuous
 62
     7
370
    15
100
AcDbLine
 10
244.4696266161
 20
29.75913902
 30
0.0
 11
243.1161668455
 21
30.5404747144
 31
0.0
  0
SPLINE
  5
288
330
1F
100
AcDbEntity
  8
0
  6
Continuous
 62
     7
370
    15
100
AcDbSpline
210
0.0
220
0.0
230
1.0
 70
     8
 71
     3
 72
     8
 73
     4
 74
     0
 42
0.000000001
 43
0.00000001
 40
0.0
 40
0.0
 40
0.0
 40
0.0
 40
0.0011901715795577
 40
0.0011901715795577
 40
0.0011901715795577
 40
0.0011901715795577
 10
243.1161666250486
 20
30.54047478416641
 30
0.0
 10
243.1270274486912
 20
30.73842997252458
 30
0.0
 10
243.1385108956472
 20
30.93636888502616
 30
0.0
 10
243.1506723624658
 20
31.13427937123479
 30
0.0
  0
ARC
  5
289
330
1F
100
AcDbEntity
  8
0
  6
Continuous
 62
     7
370
    15
100
AcDbCircle
 10
250.1444550951
 20
30.8314382501
 30
0.0
 40
5.679605943643725
100
AcDbArc
 50
206.9358530981
 51
272.7156443787
  0
SPLINE
  5
28A
330
1F
100
AcDbEntity
  8
0
  6
Continuous
 62
     7
370
    15
100
AcDbSpline
210
0.0
220
0.0
230
1.0
 70
     8
 71
     3
 72
     8
 73
     4
 74
     0
 42
0.000000001
 43
0.00000001
 40
0.0
 40
0.0
 40
0.0
 40
0.0
 40
1.0
 40
1.0
 40
1.0
 40
1.0
 10
243.4765892918232
 20
31.79381700966955
 30
0.0
 10
243.3675157114362
 20
31.57404480961032
 30
0.0
 10
243.2589041459682
 20
31.35419172794066
 30
0.0
 10
243.1506723624658
 20
31.13427937123479
 30
0.0
  0
LINE
  5
28B
330
1F
100
AcDbEntity
  8
0
  6
Continuous
 62
     7
370
    15
100
AcDbLine
 10
243.5348361872
 20
31.8274421557
 30
0.0
 11
243.4765892425
 21
31.7938169103
 31
0.0
  0
SPLINE
  5
28C
330
1F
100
AcDbEntity
  8
0
  6
Continuous
 62
     7
370
    15
100
AcDbSpline
210
0.0
220
0.0
230
1.0
 70
     8
 71
     3
 72
    12
 73
     8
 74
     0
 42
0.000000001
 43
0.00000001
 40
0.0
 40
0.0
 40
0.0
 40
0.0
 40
0.2499999999999986
 40
0.2499999999999986
 40
0.4999999999999971
 40
0.4999999999999971
 40
1.0
 40
1.0
 40
1.0
 40
1.0
 10
243.5469353161114
 20
32.16099014981427
 30
0.0
 10
243.584972923664
 20
32.13903150637702
 30
0.0
 10
243.6144463275756
 20
32.11277456977236
 30
0.0
 10
243.6532400376186
 20
32.05490656047305
 30
0.0
 10
243.6620622405651
 20
32.02412442566392
 30
0.0
 10
243.6569529678783
 20
31.93114444227717
 30
0.0
 10
243.610329226109
 20
31.87102343034786
 30
0.0
 10
243.5348361422557
 20
31.82744220069193
 30
0.0
  0
LINE
  5
28D
330
1F
100
AcDbEntity
  8
0
  6
Continuous
 62
     7
370
    15
100
AcDbLine
 10
242.7620467194
 20
32.6140964235
 30
0.0
 11
243.5469352961
 21
32.1609898928
 31
0.0
  0
SPLINE
  5
28E
330
1F
100
AcDbEntity
  8
0
  6
Continuous
 62
     7
370
    15
100
AcDbSpline
210
0.0
220
0.0
230
1.0
 70
     8
 71
     3
 72
    12
 73
     8
 74
     0
 42
0.000000001
 43
0.00000001
 40
0.0
 40
0.0
 40
0.0
 40
0.0
 40
0.4999999999999984
 40
0.4999999999999984
 40
0.7499999999999992
 40
0.7499999999999992
 40
1.0
 40
1.0
 40
1.0
 40
1.0
 10
242.1842621901894
 20
32.60711194748262
 30
0.0
 10
242.2601929979407
 20
32.65094586976617
 30
0.0
 10
242.3640829573649
 20
32.67760321227537
 30
0.0
 10
242.5247850371972
 20
32.6805590750491
 30
0.0
 10
242.5785698376201
 20
32.67540580341316
 30
0.0
 10
242.6783387230626
 20
32.65310730080979
 30
0.0
 10
242.72389094889
 20
32.63612354951238
 30
0.0
 10
242.7620467889943
 20
32.61409665187588
 30
0.0
  0
LINE
  5
28F
330
1F
100
AcDbEntity
  8
0
  6
Continuous
 62
     7
370
    15
100
AcDbLine
 10
242.126015214
 20
32.5734867012
 30
0.0
 11
242.1842621586
 21
32.6071119466
 31
0.0
  0
SPLINE
  5
290
330
1F
100
AcDbEntity
  8
0
  6
Continuous
 62
     7
370
    15
100
AcDbSpline
210
0.0
220
0.0
230
1.0
 70
     8
 71
     3
 72
     8
 73
     4
 74
     0
 42
0.000000001
 43
0.00000001
 40
0.0
 40
0.0
 40
0.0
 40
0.0
 40
1.0
 40
1.0
 40
1.0
 40
1.0
 10
240.9835388507769
 20
32.38533891798157
 30
0.0
 10
241.3644795015166
 20
32.4478197966546
 30
0.0
 10
241.7453174737565
 20
32.51051991878963
 30
0.0
 10
242.1260153397569
 20
32.57348675646024
 30
0.0
  0
LINE
  5
291
330
1F
100
AcDbEntity
  8
0
  6
Continuous
 62
     7
370
    15
100
AcDbLine
 10
239.6275870774
 20
33.1681130007
 30
0.0
 11
240.9835386157
 21
32.3853388394
 31
0.0
  0
LINE
  5
292
330
1F
100
AcDbEntity
  8
0
  6
Continuous
 62
     7
370
    15
100
AcDbLine
 10
239.6275870774
 20
33.1681130007
 30
0.0
 11
241.6405251721
 21
34.330157428
 31
0.0
  0
ARC
  5
293
330
1F
100
AcDbEntity
  8
0
  6
Continuous
 62
     7
370
    15
100
AcDbCircle
 10
249.3006961893
 20
32.1055547137
 30
0.0
 40
6.379488898678715
100
AcDbArc
 50
194.2013364212
 51
238.2565264866
  0
ELLIPSE
  5
294
330
1F
100
AcDbEntity
  8
0
  6
Continuous
 62
     7
370
    15
100
AcDbEllipse
 10
241.4062106036
 20
35.1186570656
 30
0.0
 11
-6.005970382716441E-5
 21
0.8534489614827194
 31
0.0
210
0.0
220
0.0
230
1.0
 40
0.7174342186
 41
3.534193645557511
 42
5.104989972352381
  0
ARC
  5
295
330
1F
100
AcDbEntity
  8
0
  6
Continuous
 62
     7
370
    15
100
AcDbCircle
 10
248.7527987376
 20
34.4219239261
 30
0.0
 40
6.879751452168832
100
AcDbArc
 50
195.5856097917
 51
215.4796086014
  0
ARC
  5
296
330
1F
100
AcDbEntity
  8
0
  6
Continuous
 62
     7
370
    15
100
AcDbCircle
 10
246.4636750038
 20
33.3239318498
 30
0.0
 40
5.990945803431476
100
AcDbArc
 50
192.9819354392
 51
253.8515311867
  0
SPLINE
  5
297
330
1F
100
AcDbEntity
  8
0
  6
Continuous
 62
     7
370
    15
100
AcDbSpline
210
0.0
220
0.0
230
1.0
 70
     8
 71
     3
 72
     8
 73
     4
 74
     0
 42
0.000000001
 43
0.00000001
 40
0.0
 40
0.0
 40
0.0
 40
0.0
 40
0.0011901715795577
 40
0.0011901715795577
 40
0.0011901715795577
 40
0.0011901715795577
 10
240.9835388507769
 20
32.38533891798157
 30
0.0
 10
240.864741734862
 20
32.24898788166652
 30
0.0
 10
240.7454985607139
 20
32.11325733553061
 30
0.0
 10
240.6258520532191
 20
31.97810278571119
 30
0.0
  0
LINE
  5
298
330
1F
100
AcDbEntity
  8
0
  6
Continuous
 62
     7
370
    15
100
AcDbLine
 10
239.1884253946
 20
32.9145384439
 30
0.0
 11
239.6275870774
 21
33.1681130007
 31
0.0
  0
LINE
  5
299
330
1F
100
AcDbEntity
  8
0
  6
Continuous
 62
     7
370
    15
100
AcDbLine
 10
240.6258521419
 20
31.978102792
 30
0.0
 11
239.2900696815
 21
32.7492335924
 31
0.0
  0
SPLINE
  5
29A
330
1F
100
AcDbEntity
  8
0
  6
Continuous
 62
     7
370
    15
100
AcDbSpline
210
0.0
220
0.0
230
1.0
 70
     8
 71
     3
 72
    10
 73
     6
 74
     0
 42
0.000000001
 43
0.00000001
 40
0.0
 40
0.0
 40
0.0
 40
0.0
 40
0.5
 40
0.5
 40
1.0
 40
1.0
 40
1.0
 40
1.0
 10
239.290069587803
 20
32.74923358901524
 30
0.0
 10
239.2637653354261
 20
32.76441871068801
 30
0.0
 10
239.2415672213075
 20
32.78804836162189
 30
0.0
 10
239.2075553348758
 20
32.84549075443179
 30
0.0
 10
239.1956844544697
 20
32.87912903258241
 30
0.0
 10
239.1884254772056
 20
32.91453845582554
 30
0.0
  0
ARC
  5
29B
330
1F
100
AcDbEntity
  8
0
  6
Continuous
 62
     7
370
    15
100
AcDbCircle
 10
245.1468980387
 20
33.9557974233
 30
0.0
 40
5.902880362867596
100
AcDbArc
 50
207.2423252658
 51
239.1307142143
  0
ELLIPSE
  5
29C
330
1F
100
AcDbEntity
  8
0
  6
Continuous
 62
     7
370
    15
100
AcDbEllipse
 10
241.286971788
 20
35.0497995854
 30
0.0
 11
0.2600075789209484
 21
0.9705436209909378
 31
0.0
210
0.0
220
0.0
230
1.0
 40
0.5176380889
 41
3.619174351347741
 42
5.189970678142646
  0
SPLINE
  5
29D
330
1F
100
AcDbEntity
  8
0
  6
Continuous
 62
     7
370
    15
100
AcDbSpline
210
0.0
220
0.0
230
1.0
 70
     8
 71
     3
 72
    12
 73
     8
 74
     0
 42
0.000000001
 43
0.00000001
 40
0.0
 40
0.0
 40
0.0
 40
0.0
 40
0.5000000000000003
 40
0.5000000000000003
 40
0.7500000000000001
 40
0.7500000000000001
 40
1.0
 40
1.0
 40
1.0
 40
1.0
 10
258.7424020249194
 20
55.38940362086728
 30
0.0
 10
258.8048453507441
 20
55.42545138556759
 30
0.0
 10
258.8841819559662
 20
55.45111038562539
 30
0.0
 10
259.0150553193073
 20
55.46289414563186
 30
0.0
 10
259.0598276316783
 20
55.46208387342833
 30
0.0
 10
259.1450895476816
 20
55.44853539304098
 30
0.0
 10
259.1845057547999
 20
55.43577078203158
 30
0.0
 10
259.2157454150498
 20
55.41773651003962
 30
0.0
  0
LINE
  5
29E
330
1F
100
AcDbEntity
  8
0
  6
Continuous
 62
     7
370
    15
100
AcDbLine
 10
259.2157456899
 20
55.4177364637
 30
0.0
 11
260.367408984
 21
54.7528953956
 31
0.0
  0
SPLINE
  5
29F
330
1F
100
AcDbEntity
  8
0
  6
Continuous
 62
     7
370
    15
100
AcDbSpline
210
0.0
220
0.0
230
1.0
 70
     8
 71
     3
 72
     9
 73
     5
 74
     0
 42
0.000000001
 43
0.00000001
 40
0.0
 40
0.0
 40
0.0
 40
0.0
 40
0.8664443272572582
 40
1.0
 40
1.0
 40
1.0
 40
1.0
 10
261.934489727045
 20
52.97258125282879
 30
0.0
 10
262.2536664251709
 20
53.0418712440647
 30
0.0
 10
262.6220417357188
 20
53.12184175002353
 30
0.0
 10
262.992381833083
 20
53.19871123051463
 30
0.0
 10
263.0418428539301
 20
53.20897758569501
 30
0.0
  0
LINE
  5
2A0
330
1F
100
AcDbEntity
  8
0
  6
Continuous
 62
     7
370
    15
100
AcDbLine
 10
263.0418428539
 20
53.2089775857
 30
0.0
 11
264.3953026245
 21
52.4276418913
 31
0.0
  0
SPLINE
  5
2A1
330
1F
100
AcDbEntity
  8
0
  6
Continuous
 62
     7
370
    15
100
AcDbSpline
210
0.0
220
0.0
230
1.0
 70
     8
 71
     3
 72
    14
 73
    10
 74
     0
 42
0.000000001
 43
0.00000001
 40
0.0
 40
0.0
 40
0.0
 40
0.0
 40
0.25
 40
0.25
 40
0.5
 40
0.5
 40
0.75
 40
0.75
 40
1.0
 40
1.0
 40
1.0
 40
1.0
 10
264.3953025872412
 20
52.42764180048894
 30
0.0
 10
264.4265646753993
 20
52.40959458114115
 30
0.0
 10
264.4488320474955
 20
52.38650526570083
 30
0.0
 10
264.4719854454837
 20
52.33789391243214
 30
0.0
 10
264.4735056154797
 20
52.31189413086702
 30
0.0
 10
264.4600604447087
 20
52.26176120147959
 30
0.0
 10
264.4453609390607
 20
52.2375708863682
 30
0.0
 10
264.403715944085
 20
52.19262044359562
 30
0.0
 10
264.3774036605674
 20
52.17238653651385
 30
0.0
 10
264.3462232658228
 20
52.15438647776979
 30
0.0
  0
LINE
  5
2A2
330
1F
100
AcDbEntity
  8
0
  6
Continuous
 62
     7
370
    15
100
AcDbLine
 10
258.7424019253
 20
55.3894034175
 30
0.0
 11
258.2344810342
 21
55.0961869284
 31
0.0
  0
SPLINE
  5
2A3
330
1F
100
AcDbEntity
  8
0
  6
Continuous
 62
     7
370
    15
100
AcDbSpline
210
0.0
220
0.0
230
1.0
 70
     8
 71
     3
 72
    10
 73
     6
 74
     0
 42
0.000000001
 43
0.00000001
 40
0.0
 40
0.0
 40
0.0
 40
0.0
 40
0.4054391893260961
 40
0.811996472773789
 40
1.0
 40
1.0
 40
1.0
 40
1.0
 10
266.057117299908
 20
49.05854930351317
 30
0.0
 10
266.0754358784
 20
49.09747530689037
 30
0.0
 10
266.1121235531817
 20
49.17543466127349
 30
0.0
 10
266.1261438884237
 20
49.28293529906213
 30
0.0
 10
266.1080748245357
 20
49.33604517204138
 30
0.0
 10
266.1023612832399
 20
49.35283881748754
 30
0.0
  0
LWPOLYLINE
  5
2A4
330
1F
100
AcDbEntity
  8
0
  6
Continuous
 62
     7
370
    15
100
AcDbPolyline
 90
       23
 70
   128
 43
0.0
 10
275.9405533992
 20
33.7752854965
 10
275.4679238672
 20
33.6845070425
 10
274.97013847
 20
33.6742731606
 10
274.4875220694
 20
33.7454146403
 10
274.0591747577
 20
33.8921671592
 10
273.7197959857
 20
34.10264324
 10
273.4968845967
 20
34.3597888524
 10
273.4084954937
 20
34.6427738831
 10
273.4617916242
 20
34.9286714174
 10
273.6524550765
 20
35.194319714
 10
273.9650387631
 20
35.418197975
 10
274.374219528
 20
35.5821686033
 10
274.84684906
 20
35.6729470573
 10
275.3446344571
 20
35.6831809392
 10
275.8272508578
 20
35.6120394595
 10
276.2556008037
 20
35.4652854199
 10
276.5949769414
 20
35.2548108597
 10
276.8178883305
 20
34.9976652474
 10
276.9062774335
 20
34.7146802166
 10
276.852981303
 20
34.4287826824
 10
276.6623178507
 20
34.1631343857
 10
276.3497341641
 20
33.9392561247
 10
275.9405533992
 20
33.7752854965
  0
LWPOLYLINE
  5
2A5
330
1F
100
AcDbEntity
  8
0
  6
Continuous
 62
     7
370
    15
100
AcDbPolyline
 90
       12
 70
   128
 43
0.0
 10
276.0524332375
 20
33.4420874389
 10
275.5590274906
 20
33.3435365352
 10
275.0382483535
 20
33.322066359
 10
274.5255903872
 20
33.3791377124
 10
274.055987073
 20
33.5108631704
 10
273.6614405459
 20
33.7082658822
 10
273.368841977
 20
33.9578917388
 10
273.198130283
 20
34.2427293838
 10
273.1609375825
 20
34.5433686378
 10
273.2597996423
 20
34.8393208515
 10
273.487980046
 20
35.1104167892
 10
273.7429428573
 20
35.2908670111
  0
LWPOLYLINE
  5
2A6
330
1F
100
AcDbEntity
  8
0
  6
Continuous
 62
     7
370
    15
100
AcDbPolyline
 90
        9
 70
   128
 43
0.0
 10
276.571829102
 20
35.2908671897
 10
276.6533323813
 20
35.2409169842
 10
276.9459309502
 20
34.9912911277
 10
277.1166426442
 20
34.7064534826
 10
277.1538353447
 20
34.4058142286
 10
277.0549732849
 20
34.1098620149
 10
276.8267928812
 20
33.8387660772
 10
276.4848465883
 20
33.6109997737
 10
276.0524332375
 20
33.4420874389
  0
LWPOLYLINE
  5
2A7
330
1F
100
AcDbEntity
  8
0
  6
Continuous
 62
     7
370
    15
100
AcDbPolyline
 90
       19
 70
   128
 43
0.0
 10
275.6832260214
 20
34.0721312039
 10
275.2921318316
 20
34.0048880789
 10
274.8847830346
 20
34.0189211862
 10
274.5103134717
 20
34.1125371552
 10
274.2138926281
 20
34.2744426187
 10
274.0312702512
 20
34.485111303
 10
273.9844739138
 20
34.7191330012
 10
274.0791472807
 20
34.9482816016
 10
274.3038736416
 20
35.1449171444
 10
274.6315469058
 20
35.2853228959
 10
275.0226437298
 20
35.3525645002
 10
275.4299898925
 20
35.3385329135
 10
275.8044594555
 20
35.2449169445
 10
276.100880299
 20
35.083011481
 10
276.283502676
 20
34.8723427967
 10
276.3302990133
 20
34.6383210986
 10
276.2356256465
 20
34.4091724981
 10
276.0108992856
 20
34.2125369553
 10
275.6832260214
 20
34.0721312039
  0
SPLINE
  5
2A8
330
1F
100
AcDbEntity
  8
0
  6
Continuous
 62
     7
370
    15
100
AcDbSpline
210
0.0
220
0.0
230
1.0
 70
     8
 71
     3
 72
     9
 73
     5
 74
     0
 42
0.000000001
 43
0.00000001
 40
0.0
 40
0.0
 40
0.0
 40
0.0
 40
0.6125059650513972
 40
1.0
 40
1.0
 40
1.0
 40
1.0
 10
276.121218355453
 20
34.29505751123536
 30
0.0
 10
276.0789131388701
 20
34.26244183030144
 30
0.0
 10
276.0098440701641
 20
34.20919225757088
 30
0.0
 10
275.9331961283522
 20
34.17475186663894
 30
0.0
 10
275.903495508109
 20
34.16140642059152
 30
0.0
  0
SPLINE
  5
2A9
330
1F
100
AcDbEntity
  8
0
  6
Continuous
 62
     7
370
    15
100
AcDbSpline
210
0.0
220
0.0
230
1.0
 70
     8
 71
     3
 72
    10
 73
     6
 74
     0
 42
0.000000001
 43
0.00000001
 40
0.0
 40
0.0
 40
0.0
 40
0.0
 40
0.4391224531998679
 40
0.751370886010511
 40
1.0
 40
1.0
 40
1.0
 40
1.0
 10
276.1900034322094
 20
34.96046775275298
 30
0.0
 10
276.1801565542373
 20
34.8092822657086
 30
0.0
 10
276.1633078201941
 20
34.55059275319405
 30
0.0
 10
276.1388117866884
 20
34.35618813622816
 30
0.0
 10
276.1266219418989
 20
34.31383296283542
 30
0.0
 10
276.121218355453
 20
34.29505751123535
 30
0.0
  0
SPLINE
  5
2AA
330
1F
100
AcDbEntity
  8
0
  6
Continuous
 62
     7
370
    15
100
AcDbSpline
210
0.0
220
0.0
230
1.0
 70
     8
 71
     3
 72
    10
 73
     6
 74
     0
 42
0.000000001
 43
0.00000001
 40
0.0
 40
0.0
 40
0.0
 40
0.0
 40
0.4391225614723039
 40
0.7513709187521433
 40
1.0
 40
1.0
 40
1.0
 40
1.0
 10
275.2261715609196
 20
35.32756149364189
 30
0.0
 10
275.3641535277412
 20
35.21908289111171
 30
0.0
 10
275.6002507959718
 20
35.03346804368788
 30
0.0
 10
275.9434574396131
 20
34.94528973924994
 30
0.0
 10
276.1142801339689
 20
34.95580602927053
 30
0.0
 10
276.1900034322094
 20
34.96046775275298
 30
0.0
  0
SPLINE
  5
2AB
330
1F
100
AcDbEntity
  8
0
  6
Continuous
 62
     7
370
    15
100
AcDbSpline
210
0.0
220
0.0
230
1.0
 70
     8
 71
     3
 72
    11
 73
     7
 74
     0
 42
0.000000001
 43
0.00000001
 40
0.0
 40
0.0
 40
0.0
 40
0.0
 40
0.1845129871502521
 40
0.518056682016868
 40
0.8676116578877009
 40
1.0
 40
1.0
 40
1.0
 40
1.0
 10
274.1935545717144
 20
35.02924496925256
 30
0.0
 10
274.2535233573125
 20
35.02114669483248
 30
0.0
 10
274.4218975762297
 20
34.9984091887039
 30
0.0
 10
274.7357473624431
 20
35.0360570172838
 30
0.0
 10
275.0273698827535
 20
35.18422574688652
 30
0.0
 10
275.1833298415502
 20
35.29667267069659
 30
0.0
 10
275.2261715609196
 20
35.32756149364189
 30
0.0
  0
SPLINE
  5
2AC
330
1F
100
AcDbEntity
  8
0
  6
Continuous
 62
     7
370
    15
100
AcDbSpline
210
0.0
220
0.0
230
1.0
 70
     8
 71
     3
 72
    10
 73
     6
 74
     0
 42
0.000000001
 43
0.00000001
 40
0.0
 40
0.0
 40
0.0
 40
0.0
 40
0.4391224531998679
 40
0.751370886010511
 40
1.0
 40
1.0
 40
1.0
 40
1.0
 10
274.124769494958
 20
34.36383472773494
 30
0.0
 10
274.1346163729301
 20
34.40316924789738
 30
0.0
 10
274.1514651069733
 20
34.47047351132068
 30
0.0
 10
274.1759611404789
 20
34.74995429240209
 30
0.0
 10
274.1881509852685
 20
34.9434645836247
 30
0.0
 10
274.1935545717144
 20
35.02924496925256
 30
0.0
  0
SPLINE
  5
2AD
330
1F
100
AcDbEntity
  8
0
  6
Continuous
 62
     7
370
    15
100
AcDbSpline
210
0.0
220
0.0
230
1.0
 70
     8
 71
     3
 72
     9
 73
     5
 74
     0
 42
0.000000001
 43
0.00000001
 40
0.0
 40
0.0
 40
0.0
 40
0.0
 40
0.2412495235762192
 40
1.0
 40
1.0
 40
1.0
 40
1.0
 10
274.4349403362231
 20
34.14679063377413
 30
0.0
 10
274.4084856504126
 20
34.15891075697235
 30
0.0
 10
274.2988287051122
 20
34.20914970881998
 30
0.0
 10
274.1998611639586
 20
34.29710136597006
 30
0.0
 10
274.124769494958
 20
34.36383472773494
 30
0.0
  0
LINE
  5
2AE
330
1F
100
AcDbEntity
  8
0
  6
Continuous
 62
     7
370
    15
100
AcDbLine
 10
274.1935545717
 20
34.3107847249
 30
0.0
 11
274.1935545717
 21
35.0292449693
 31
0.0
  0
LINE
  5
2AF
330
1F
100
AcDbEntity
  8
0
  6
Continuous
 62
     7
370
    15
100
AcDbLine
 10
275.2261715609
 20
34.0015765711
 30
0.0
 11
275.2261715609
 21
35.3275614936
 31
0.0
  0
LWPOLYLINE
  5
2B0
330
1F
100
AcDbEntity
  8
0
  6
Continuous
 62
     7
370
    15
100
AcDbPolyline
 90
        3
 70
   128
 43
0.0
 10
249.1643252176
 20
49.4685602422
 10
249.2533077515
 20
49.5959191249
 10
249.4548003097
 20
49.7858395038
  0
LWPOLYLINE
  5
2B1
330
1F
100
AcDbEntity
  8
0
  6
Continuous
 62
     7
370
    15
100
AcDbPolyline
 90
        3
 70
   128
 43
0.0
 10
249.2222932686
 20
49.5327915252
 10
249.3200518959
 20
49.6563561798
 10
249.4290917199
 20
49.7582164802
  0
LWPOLYLINE
  5
2B2
330
1F
100
AcDbEntity
  8
0
  6
Continuous
 62
     7
370
     0
100
AcDbPolyline
 90
        8
 70
   128
 43
0.0
 10
251.2041444406
 20
35.4430473242
 10
251.2505876334
 20
34.6345230029
 10
251.3891529712
 20
33.8928959429
 10
251.617565841
 20
33.2303438401
 10
251.9320761613
 20
32.6577462283
 10
252.3275189675
 20
32.1845042445
 10
252.7974013399
 20
31.8183894779
 10
252.8613239504
 20
31.7802890419
  0
LWPOLYLINE
  5
2B3
330
1F
100
AcDbEntity
  8
0
  6
Continuous
 62
     7
370
     0
100
AcDbPolyline
 90
       20
 70
   128
 43
0.0
 10
260.860673967
 20
45.6370708113
 10
260.6641069925
 20
45.7399049794
 10
260.097379394
 20
45.9346355167
 10
259.4775107111
 20
46.0107161105
 10
258.8146787491
 20
45.966897506
 10
258.1197674377
 20
45.8038989353
 10
257.4041872131
 20
45.5243968226
 10
256.6796878468
 20
45.1329813718
 10
255.9581656368
 20
44.6360791012
 10
255.2514679428
 20
44.0418487489
 10
254.5711985454
 20
43.3600479971
 10
253.9285275943
 20
42.601872045
 10
253.3340081005
 20
41.779770106
 10
252.7974013399
 20
40.9072404309
 10
252.3275189675
 20
39.998611025
 10
251.9320761613
 20
39.0688004955
 10
251.617565841
 20
38.1330769972
 10
251.3891529712
 20
37.2068050082
 10
251.2505876334
 20
36.3051938146
 10
251.2041444406
 20
35.4430473242
  0
LINE
  5
2B4
330
1F
100
AcDbEntity
  8
0
  6
Continuous
 62
     7
370
     0
100
AcDbLine
 10
274.5740246894
 20
21.4818347339
 30
0.0
 11
275.5993284389
 21
20.8899394781
 31
0.0
  0
LWPOLYLINE
  5
2B5
330
1F
100
AcDbEntity
  8
0
  6
Continuous
 62
     7
370
     0
100
AcDbPolyline
 90
       21
 70
   128
 43
0.0
 10
244.4696266161
 20
37.1069253929
 10
244.8198840494
 20
38.4715245541
 10
245.2640295146
 20
39.8467252639
 10
245.7980590612
 20
41.2201300717
 10
246.4171593873
 20
42.579359093
 10
247.1157480112
 20
43.9121572319
 10
247.8875285888
 20
45.2065109062
 10
248.7255422803
 20
46.450750325
 10
249.6222355801
 20
47.6336601299
 10
250.569524196
 20
48.7445755874
 10
251.558868452
 20
49.7734816323
 10
252.5813498444
 20
50.7111034504
 10
253.6277503965
 20
51.5489880306
 10
254.688637158
 20
52.2795826041
 10
255.7544461281
 20
52.8963013427
 10
256.8155692658
 20
53.3935824332
 10
257.8624405127
 20
53.7669438206
 10
258.8856225964
 20
54.0130203916
 10
259.8758911196
 20
54.1295927454
 10
260.8243193468
 20
54.1156118055
 10
261.7223573945
 20
53.9712019493
  0
ARC
  5
2B6
330
1F
100
AcDbEntity
  8
0
  6
Continuous
 62
     7
370
     0
100
AcDbCircle
 10
267.9217797271
 20
31.822971902
 30
0.0
 40
23.61731420992661
100
AcDbArc
 50
157.5055838742
 51
167.8908142995
  0
LWPOLYLINE
  5
2B7
330
1F
100
AcDbEntity
  8
0
  6
Continuous
 62
     7
370
     0
100
AcDbPolyline
 90
       14
 70
   128
 43
0.0
 10
250.3477527475
 20
47.8538946156
 10
250.421226229
 20
47.9402236437
 10
251.3425958501
 20
48.9573300706
 10
252.2986651692
 20
49.8946893918
 10
253.281350717
 20
50.7443765361
 10
254.2823447076
 20
51.4992084281
 10
255.2931836299
 20
52.1528018351
 10
256.3053212432
 20
52.6996322379
 10
257.3102000702
 20
53.135075102
 10
258.2993243723
 20
53.4554495267
 10
259.2643311281
 20
53.6580470526
 10
260.1970619591
 20
53.7411541719
 10
261.0896304654
 20
53.7040683864
 10
261.934489727
 20
53.5471029545
  0
LWPOLYLINE
  5
2B8
330
1F
100
AcDbEntity
  8
0
  6
Continuous
 62
     7
370
     0
100
AcDbPolyline
 90
       18
 70
   128
 43
0.0
 10
258.1293563396
 20
28.7391186481
 10
257.4693133136
 20
28.1913410239
 10
256.456321136
 20
27.4438011007
 10
255.4346226269
 20
26.8004512789
 10
254.4130290786
 20
26.2668398101
 10
253.4003506974
 20
25.8475683034
 10
252.4053207328
 20
25.5462524884
 10
251.4365210898
 20
25.3654922004
 10
250.5023058995
 20
25.3068447488
 10
249.6107321247
 20
25.3708160361
 10
248.7694895895
 20
25.5568559063
 10
247.9858321617
 20
25.8633579614
 10
247.2665184836
 20
26.2876800992
 10
246.6177520445
 20
26.8261631507
 10
246.0451278384
 20
27.4741616837
 10
245.5535842908
 20
28.2260892544
 10
245.1473604525
 20
29.0754598575
 10
244.8299597803
 20
30.014949146
  0
ARC
  5
2B9
330
1F
100
AcDbEntity
  8
0
  6
Continuous
 62
     7
370
     0
100
AcDbCircle
 10
259.2583595767
 20
47.3219359561
 30
0.0
 40
7.017045852609613
100
AcDbArc
 50
14.3287351339
 51
43.52515955
  0
LWPOLYLINE
  5
2BA
330
1F
100
AcDbEntity
  8
0
  6
Continuous
 62
     7
370
     0
100
AcDbPolyline
 90
       28
 70
   128
 43
0.0
 10
248.3757175107
 20
35.4430477044
 10
248.4218083823
 20
36.4004418248
 10
248.559481063
 20
37.398570672
 10
248.7869397018
 20
38.424421754
 10
249.1012201901
 20
39.4646218483
 10
249.4982244053
 20
40.5056100048
 10
249.9727771754
 20
41.5338156785
 10
250.5186924625
 20
42.5358345803
 10
251.1288527177
 20
43.4986041465
 10
251.795303711
 20
44.4095723527
 10
252.5093575941
 20
45.256863675
 10
253.2617050172
 20
46.0294331683
 10
254.0425384415
 20
46.7172076158
 10
254.8416784565
 20
47.3112230897
 10
255.6487069291
 20
47.8037329951
 10
256.4531030759
 20
48.1883193235
 10
257.2443801929
 20
48.4599662613
 10
258.0122230036
 20
48.6151341562
 10
258.7466213022
 20
48.6517986448
 10
259.4380014979
 20
48.5694832448
 10
260.0773497628
 20
48.3692601042
 10
260.6563315575
 20
48.053739153
 10
261.1673993034
 20
47.6270348237
 10
261.6038898473
 20
47.0947090064
 10
261.9601130353
 20
46.4637016491
 10
262.2314248115
 20
45.7422385444
 10
262.4142887919
 20
44.9397257143
 10
262.4467036697
 20
44.7214750511
  0
LWPOLYLINE
  5
2BB
330
1F
100
AcDbEntity
  8
0
  6
Continuous
 62
     7
370
     0
100
AcDbPolyline
 90
       14
 70
   128
 43
0.0
 10
254.4473539824
 20
30.8646934718
 10
254.0425384415
 20
30.7116599728
 10
253.2617050172
 20
30.4979033383
 10
252.5093575941
 20
30.4018309865
 10
251.795303711
 20
30.4246932438
 10
251.1288527177
 20
30.5661935117
 10
250.5186924625
 20
30.8244870425
 10
249.9727771754
 20
31.19620557
 10
249.4982244053
 20
31.6765042779
 10
249.1012201901
 20
32.2591211243
 10
248.7869397018
 20
32.9364606906
 10
248.559481063
 20
33.699693618
 10
248.4218083823
 20
34.5388689716
 10
248.3757175107
 20
35.4430477044
  0
LINE
  5
2BC
330
1F
100
AcDbEntity
  8
0
  6
Continuous
 62
     7
370
     0
100
AcDbLine
 10
279.948036317
 20
24.5841856111
 30
0.0
 11
280.9733400665
 21
23.9922903554
 31
0.0
  0
LWPOLYLINE
  5
2BD
330
1F
100
AcDbEntity
  8
0
  6
Continuous
 62
     7
370
     0
100
AcDbPolyline
 90
       21
 70
   128
 43
0.0
 10
239.2900696815
 20
40.0970199653
 10
239.6403271148
 20
41.4616191265
 10
240.08447258
 20
42.8368198363
 10
240.6185021266
 20
44.2102246441
 10
241.2376024527
 20
45.5694536654
 10
241.9361910766
 20
46.9022518043
 10
242.7079716542
 20
48.1966054786
 10
243.5459853457
 20
49.4408448973
 10
244.4426786455
 20
50.6237547023
 10
245.3899672614
 20
51.7346701598
 10
246.3793115174
 20
52.7635762047
 10
247.4017929098
 20
53.7011980228
 10
248.4481934619
 20
54.539082603
 10
249.5090802234
 20
55.2696771765
 10
250.5748891935
 20
55.8863959151
 10
251.6360123313
 20
56.3836770055
 10
252.6828835781
 20
56.757038393
 10
253.7060656619
 20
57.003114964
 10
254.696334185
 20
57.1196873178
 10
255.6447624122
 20
57.1057063778
 10
256.5428004599
 20
56.9612965216
  0
LWPOLYLINE
  5
2BE
330
1F
100
AcDbEntity
  8
0
  6
Continuous
 62
     7
370
     0
100
AcDbPolyline
 90
       17
 70
   128
 43
0.0
 10
242.7620467194
 20
39.1872502001
 10
243.0923871326
 20
40.4513454126
 10
243.5136014195
 20
41.7246059422
 10
244.0215065055
 20
42.9943872045
 10
244.6110585981
 20
44.2480800572
 10
245.2764032366
 20
45.4732351317
 10
246.0109339027
 20
46.6576864018
 10
246.8073558987
 20
47.789671332
 10
247.6577614221
 20
48.8579510226
 10
248.5537049691
 20
49.8519145769
 10
249.4862900971
 20
50.7616938273
 10
250.4462558594
 20
51.5782535377
 10
251.4240694126
 20
52.2934851689
 10
252.4100211559
 20
52.9002861361
 10
253.3943201584
 20
53.3926308679
 10
254.3671921582
 20
53.765630422
 10
254.8720684333
 20
53.9128910788
  0
LWPOLYLINE
  5
2BF
330
1F
100
AcDbEntity
  8
0
  6
Continuous
 62
     7
370
     0
100
AcDbPolyline
 90
       20
 70
   128
 43
0.0
 10
242.1842621586
 20
39.1802657232
 10
242.5131155783
 20
40.4689304906
 10
242.9343311823
 20
41.7680425758
 10
243.4437924089
 20
43.064901114
 10
244.0365167104
 20
44.3468277551
 10
244.7067108708
 20
45.6012898539
 10
245.4478230306
 20
46.8160236597
 10
246.2526065662
 20
47.9791529432
 10
247.1131948342
 20
49.0793081915
 10
248.0211739405
 20
50.1057324959
 10
248.9676673639
 20
51.0483920012
 10
249.94342206
 20
51.8980704802
 10
250.9388986824
 20
52.6464617216
 10
251.9443651459
 20
53.2862486381
 10
252.9499917824
 20
53.8111772103
 10
253.945947249
 20
54.2161156557
 10
254.922495162
 20
54.4971048912
 10
255.8700880254
 20
54.6513975471
 10
256.779461929
 20
54.6774852592
 10
256.9451807032
 20
54.668049095
  0
LINE
  5
2C0
330
1F
100
AcDbEntity
  8
0
  6
Continuous
 62
     7
370
     0
100
AcDbLine
 10
247.4564782811
 20
37.5457264004
 30
0.0
 11
246.8907009623
 21
37.8723426943
 31
0.0
  0
LWPOLYLINE
  5
2C1
330
1F
100
AcDbEntity
  8
0
  6
Continuous
 62
     7
370
     0
100
AcDbPolyline
 90
        3
 70
   128
 43
0.0
 10
241.773813675
 20
38.2251609163
 10
241.7731077153
 20
38.3463990147
 10
241.7978235492
 20
39.0797842561
  0
LINE
  5
2C2
330
1F
100
AcDbEntity
  8
0
  6
Continuous
 62
     7
370
     0
100
AcDbLine
 10
241.9718957958
 20
35.4452200596
 30
0.0
 11
247.4564782811
 21
32.2790379849
 31
0.0
  0
LINE
  5
2C3
330
1F
100
AcDbEntity
  8
0
  6
Continuous
 62
     7
370
     0
100
AcDbLine
 10
241.8526569284
 20
35.3763627396
 30
0.0
 11
241.9718957958
 21
35.4452200596
 31
0.0
  0
LWPOLYLINE
  5
2C4
330
1F
100
AcDbEntity
  8
0
  6
Continuous
 62
     7
370
     0
100
AcDbPolyline
 90
       17
 70
   128
 43
0.0
 10
220.5012242399
 20
54.6383627952
 10
220.5479308506
 20
55.402241248
 10
220.6870556219
 20
56.203765539
 10
220.9156334572
 20
57.0258524805
 10
221.2287921149
 20
57.8509806565
 10
221.6198575757
 20
58.6615639432
 10
222.080494971
 20
59.4403263566
 10
222.6008863902
 20
60.1706696238
 10
223.1699406264
 20
60.8370277301
 10
223.7755293479
 20
61.4251986956
 10
224.4047454939
 20
61.9226462174
 10
225.0441783611
 20
62.3187687405
 10
225.6801995974
 20
62.6051231143
 10
226.2992534138
 20
62.7756061969
 10
226.8881459741
 20
62.8265846533
 10
227.4343258315
 20
62.7569716766
 10
227.4663289543
 20
62.7487544386
  0
ARC
  5
2C5
330
1F
100
AcDbEntity
  8
0
  6
Continuous
 62
     7
370
     0
100
AcDbCircle
 10
223.8576224886
 20
54.3970036636
 30
0.0
 40
3.365065145620869
100
AcDbArc
 50
175.8869312949
 51
225.0942276391
  0
LWPOLYLINE
  5
2C6
330
1F
100
AcDbEntity
  8
0
  6
Continuous
 62
     7
370
     0
100
AcDbPolyline
 90
        3
 70
   128
 43
0.0
 10
245.0810055079
 20
28.2586184055
 10
244.8068863564
 20
28.8289270363
 10
244.4696266161
 20
29.75913902
  0
LINE
  5
2C7
330
1F
100
AcDbEntity
  8
0
  6
Continuous
 62
     7
370
     0
100
AcDbLine
 10
246.8907931586
 20
31.2992422342
 30
0.0
 11
241.6405251721
 21
34.330157428
 31
0.0
  0
LINE
  5
2C8
330
1F
100
AcDbEntity
  8
0
  6
Continuous
 62
     7
370
     0
100
AcDbLine
 10
243.6272915555
 20
31.9127649836
 30
0.0
 11
243.5469352961
 21
32.1609898928
 31
0.0
  0
LWPOLYLINE
  5
2C9
330
1F
100
AcDbEntity
  8
0
  6
Continuous
 62
     7
370
     0
100
AcDbPolyline
 90
        3
 70
   128
 43
0.0
 10
243.2580321498
 20
31.389557099
 10
243.0875119276
 20
31.7422601989
 10
242.7620467194
 20
32.6140964235
  0
ARC
  5
2CA
330
1F
100
AcDbEntity
  8
0
  6
Continuous
 62
     7
370
     0
100
AcDbCircle
 10
248.8320277019
 20
34.4835307575
 30
0.0
 40
6.907512886191424
100
AcDbArc
 50
195.7624141921
 51
213.7503151101
  0
LWPOLYLINE
  5
2CB
330
1F
100
AcDbEntity
  8
0
  6
Continuous
 62
     7
370
     0
100
AcDbPolyline
 90
        3
 70
   128
 43
0.0
 10
239.898774224
 20
31.2537254398
 10
239.6273294218
 20
31.8190216087
 10
239.2900696815
 20
32.7492335924
  0
OLE2FRAME
  5
2CC
330
1F
100
AcDbEntity
  8
0
100
AcDbOle2Frame
 70
     2
  3
Paintbrush-Bild
 10
13.8511154363
 20
38.264191557
 30
0.0
 11
51.6290888628
 21
31.9806341108
 31
0.0
 71
     2
 72
     0
 73
     1
 90
    12928
310
80552BED0767C5B32B40DDAF6807D121434000000000000000006FFBDDFB85D0
310
4940DDAF6807D121434000000000000000006FFBDDFB85D04940416F4BD60AFB
310
3F4000000000000000002BED0767C5B32B40416F4BD60AFB3F40000000000000
310
0000000000000100000000010000010000000100000000000100000000320000
310
D0CF11E0A1B11AE1000000000000000000000000000000003E000300FEFF0900
310
0600000000000000000000000100000001000000000000000010000002000000
310
01000000FEFFFFFF0000000000000000FFFFFFFFFFFFFFFFFFFFFFFFFFFFFFFF
310
FFFFFFFFFFFFFFFFFFFFFFFFFFFFFFFFFFFFFFFFFFFFFFFFFFFFFFFFFFFFFFFF
310
FFFFFFFFFFFFFFFFFFFFFFFFFFFFFFFFFFFFFFFFFFFFFFFFFFFFFFFFFFFFFFFF
310
FFFFFFFFFFFFFFFFFFFFFFFFFFFFFFFFFFFFFFFFFFFFFFFFFFFFFFFFFFFFFFFF
310
FFFFFFFFFFFFFFFFFFFFFFFFFFFFFFFFFFFFFFFFFFFFFFFFFFFFFFFFFFFFFFFF
310
FFFFFFFFFFFFFFFFFFFFFFFFFFFFFFFFFFFFFFFFFFFFFFFFFFFFFFFFFFFFFFFF
310
FFFFFFFFFFFFFFFFFFFFFFFFFFFFFFFFFFFFFFFFFFFFFFFFFFFFFFFFFFFFFFFF
310
FFFFFFFFFFFFFFFFFFFFFFFFFFFFFFFFFFFFFFFFFFFFFFFFFFFFFFFFFFFFFFFF
310
FFFFFFFFFFFFFFFFFFFFFFFFFFFFFFFFFFFFFFFFFFFFFFFFFFFFFFFFFFFFFFFF
310
FFFFFFFFFFFFFFFFFFFFFFFFFFFFFFFFFFFFFFFFFFFFFFFFFFFFFFFFFFFFFFFF
310
FFFFFFFFFFFFFFFFFFFFFFFFFFFFFFFFFFFFFFFFFFFFFFFFFFFFFFFFFFFFFFFF
310
FFFFFFFFFFFFFFFFFFFFFFFFFFFFFFFFFFFFFFFFFFFFFFFFFFFFFFFFFFFFFFFF
310
FFFFFFFFFFFFFFFFFFFFFFFFFFFFFFFFFFFFFFFFFFFFFFFFFFFFFFFFFFFFFFFF
310
FFFFFFFFFFFFFFFFFFFFFFFFFFFFFFFFFFFFFFFFFFFFFFFFFFFFFFFFFFFFFFFF
310
FDFFFFFFFEFFFFFFFEFFFFFFFEFFFFFF05000000060000000700000008000000
310
090000000A0000000B0000000C0000000D0000000E0000000F00000010000000
310
11000000120000001300000014000000150000001600000017000000FEFFFFFF
310
FFFFFFFFFFFFFFFFFFFFFFFFFFFFFFFFFFFFFFFFFFFFFFFFFFFFFFFFFFFFFFFF
310
FFFFFFFFFFFFFFFFFFFFFFFFFFFFFFFFFFFFFFFFFFFFFFFFFFFFFFFFFFFFFFFF
310
FFFFFFFFFFFFFFFFFFFFFFFFFFFFFFFFFFFFFFFFFFFFFFFFFFFFFFFFFFFFFFFF
310
FFFFFFFFFFFFFFFFFFFFFFFFFFFFFFFFFFFFFFFFFFFFFFFFFFFFFFFFFFFFFFFF
310
FFFFFFFFFFFFFFFFFFFFFFFFFFFFFFFFFFFFFFFFFFFFFFFFFFFFFFFFFFFFFFFF
310
FFFFFFFFFFFFFFFFFFFFFFFFFFFFFFFFFFFFFFFFFFFFFFFFFFFFFFFFFFFFFFFF
310
FFFFFFFFFFFFFFFFFFFFFFFFFFFFFFFFFFFFFFFFFFFFFFFFFFFFFFFFFFFFFFFF
310
FFFFFFFFFFFFFFFFFFFFFFFFFFFFFFFFFFFFFFFFFFFFFFFFFFFFFFFFFFFFFFFF
310
FFFFFFFFFFFFFFFFFFFFFFFFFFFFFFFFFFFFFFFFFFFFFFFFFFFFFFFFFFFFFFFF
310
FFFFFFFFFFFFFFFFFFFFFFFFFFFFFFFFFFFFFFFFFFFFFFFFFFFFFFFFFFFFFFFF
310
FFFFFFFFFFFFFFFFFFFFFFFFFFFFFFFFFFFFFFFFFFFFFFFFFFFFFFFFFFFFFFFF
310
FFFFFFFFFFFFFFFFFFFFFFFFFFFFFFFFFFFFFFFFFFFFFFFFFFFFFFFFFFFFFFFF
310
FFFFFFFFFFFFFFFFFFFFFFFFFFFFFFFFFFFFFFFFFFFFFFFFFFFFFFFFFFFFFFFF
310
52006F006F007400200045006E00740072007900000000000000000000000000
310
0000000000000000000000000000000000000000000000000000000000000000
310
16000500FFFFFFFFFFFFFFFF020000000A00030000000000C000000000000046
310
00000000000000000000000080341A4C99FFD10103000000C000000000000000
310
01004F006C006500000000000000000000000000000000000000000000000000
310
0000000000000000000000000000000000000000000000000000000000000000
310
0A000200FFFFFFFFFFFFFFFFFFFFFFFF00000000000000000000000000000000
310
0000000000000000000000000000000000000000000000001400000000000000
310
010043006F006D0070004F0062006A0000000000000000000000000000000000
310
0000000000000000000000000000000000000000000000000000000000000000
310
120002010100000003000000FFFFFFFF00000000000000000000000000000000
310
0000000000000000000000000000000000000000010000004D00000000000000
310
01004F006C006500310030004E00610074006900760065000000000000000000
310
0000000000000000000000000000000000000000000000000000000000000000
310
1A000200FFFFFFFFFFFFFFFFFFFFFFFF00000000000000000000000000000000
310
0000000000000000000000000000000000000000040000002426000000000000
310
FEFFFFFF02000000FEFFFFFFFFFFFFFFFFFFFFFFFFFFFFFFFFFFFFFFFFFFFFFF
310
FFFFFFFFFFFFFFFFFFFFFFFFFFFFFFFFFFFFFFFFFFFFFFFFFFFFFFFFFFFFFFFF
310
FFFFFFFFFFFFFFFFFFFFFFFFFFFFFFFFFFFFFFFFFFFFFFFFFFFFFFFFFFFFFFFF
310
FFFFFFFFFFFFFFFFFFFFFFFFFFFFFFFFFFFFFFFFFFFFFFFFFFFFFFFFFFFFFFFF
310
FFFFFFFFFFFFFFFFFFFFFFFFFFFFFFFFFFFFFFFFFFFFFFFFFFFFFFFFFFFFFFFF
310
FFFFFFFFFFFFFFFFFFFFFFFFFFFFFFFFFFFFFFFFFFFFFFFFFFFFFFFFFFFFFFFF
310
FFFFFFFFFFFFFFFFFFFFFFFFFFFFFFFFFFFFFFFFFFFFFFFFFFFFFFFFFFFFFFFF
310
FFFFFFFFFFFFFFFFFFFFFFFFFFFFFFFFFFFFFFFFFFFFFFFFFFFFFFFFFFFFFFFF
310
FFFFFFFFFFFFFFFFFFFFFFFFFFFFFFFFFFFFFFFFFFFFFFFFFFFFFFFFFFFFFFFF
310
FFFFFFFFFFFFFFFFFFFFFFFFFFFFFFFFFFFFFFFFFFFFFFFFFFFFFFFFFFFFFFFF
310
FFFFFFFFFFFFFFFFFFFFFFFFFFFFFFFFFFFFFFFFFFFFFFFFFFFFFFFFFFFFFFFF
310
FFFFFFFFFFFFFFFFFFFFFFFFFFFFFFFFFFFFFFFFFFFFFFFFFFFFFFFFFFFFFFFF
310
FFFFFFFFFFFFFFFFFFFFFFFFFFFFFFFFFFFFFFFFFFFFFFFFFFFFFFFFFFFFFFFF
310
FFFFFFFFFFFFFFFFFFFFFFFFFFFFFFFFFFFFFFFFFFFFFFFFFFFFFFFFFFFFFFFF
310
FFFFFFFFFFFFFFFFFFFFFFFFFFFFFFFFFFFFFFFFFFFFFFFFFFFFFFFFFFFFFFFF
310
FFFFFFFFFFFFFFFFFFFFFFFFFFFFFFFFFFFFFFFFFFFFFFFFFFFFFFFFFFFFFFFF
310
0100000200000000000000000000000000000000000000000000000000000000
310
0000000000000000000000000000000000000000000000000000000000000000
310
0100FEFF030A0000FFFFFFFF0A00030000000000C00000000000004607000000
310
5042727573680007000000504272757368000700000050427275736800F439B2
310
7100000000000000000000000000000000000000000000000000000000000000
310
0000000000000000000000000000000000000000000000000000000000000000
310
0000000000000000000000000000000000000000000000000000000000000000
310
0000000000000000000000000000000000000000000000000000000000000000
310
0000000000000000000000000000000000000000000000000000000000000000
310
0000000000000000000000000000000000000000000000000000000000000000
310
0000000000000000000000000000000000000000000000000000000000000000
310
0000000000000000000000000000000000000000000000000000000000000000
310
0000000000000000000000000000000000000000000000000000000000000000
310
0000000000000000000000000000000000000000000000000000000000000000
310
0000000000000000000000000000000000000000000000000000000000000000
310
0000000000000000000000000000000000000000000000000000000000000000
310
20260000424D0E260000000000003E00000028000000B40200006E0000000100
310
01000000000000000000130B0000130B00000200000002000000000000FFFFFF
310
FFFFFFFFFFFFFFFFFFFFFFFFFFFFFFFFFFFFFFFFFFFFFFFFFFFFFFFFFFFFFFFF
310
FFFFFFFFFFFFFFFFFFFFFFFFFFFFFFFFFFFFFFFFFFFFFFFFFFFFFFFFFFFFFFFF
310
FFFFFFFFFFFFFFFFFFFFFFFFFFFFFFFFFFFFFFFFFFFFFFFFF000FFFFFFFFFFFF
310
FFFFFFFFFFFFFFFFFFFFFFFFFFFFFFFFFFFFFFFFFFFFFFFFFFFFFFFFFFFFFFFF
310
FFFFFFFFFFFFFFFFFFFFFFFFFFFFFFFFFFFFFFFFFFFFFFFFFFFFFFFFFFFFFFFF
310
FFFFFFFFFFFFFFFFFFFFFFFFFFFFFFFFF000FFFFFFFFFFFFFFFFFFFFFFFFFFFF
310
FFFFFFFFFFFFFFFFFFFFFFFFFFFFFFFFFFFFFFFFFFFFFFFFFFFFFFFFFFFFFFFF
310
FFFFFFFFFFFFFFFFFFFFFFFFFFFFFFFFFFFFFFFFFFFFFFFFFFFFFFFFFFFFFFFF
310
FFFFFFFFFFFFFFFFF000FFFFFFFFFFFFFFFFFFFFFFFFFFFFFFFFFFFFFFFFFFFF
310
FFFFFFFFFFFFFFFFFFFFFFFFFFFFFFFFFFFFFFFFFFFFFFFFFFFFFFFFFFFFFFFF
310
FFFFFFFFFFFFFFFFFFFFFFFFFFFFFFFFFFFFFFFFFFFFFFFFFFFFFFFFFFFFFFFF
310
F000FFFFFFFFFFFFFFFFFFFFFFFFFFFFFFFFFFFFFFFFFFFFFFFFFFFFFFFFFFFF
310
FFFFFFFFFFFFFFFFFFFFFFFFFFFFFFFFFFFFFFFFFFFFFFFFFFFFFFFFFFFFFFFF
310
FFFFFFFFFFFFFFFFFFFFFFFFFFFFFFFFFFFFFFFFFFFFFFFFF000FFFFFFFFFFFF
310
FFFFFFFFFFFFFFFFFFFFFFFFFFFFFFFFFFFFFFFFFFFFFFFFFFFFFFFFFFFFFFFF
310
FFFFFFFFFFFFFFFFFFFFFFFFFFFFFFFFFFFFFFFFFFFFFFFFFFFFFFFFFFFFFFFF
310
FFFFFFFFFFFFFFFFFFFFFFFFFFFFFFFFF000FFFFFFFFFFFFFFFFFFFFFFFFFFFF
310
FFFFFFFFFFFFFFFFFFFFFFFFFFFFFFFFFFFFFFFFFFFFFFFFFFFFFFFFFFFFFFFF
310
FFFFFFFFFFFFFFFFFFFFFFFFFFFFFFFFFFFFFFFFFFFFFFFFFFFFFFFFFFFFFFFF
310
FFFFFFFFFFFFFFFFF000FFFFFFFFFFFFFFFFFFFFFFFFFFFFFFFFFFFFFFFFFFFF
310
FFFFFFFFFFFFFFFFFFFFFFFFFFFFFFFFFFFFFFFFFFFFFFFFFFFFFFFFFFFFFFFF
310
FFFFFFFFFFFFFFFFFFFFFFFFFFFFFFFFFFFFFFFFFFFFFFFFFFFFFFFFFFFFFFFF
310
F000FFFFFFFFFFFFFFFFFFFFFFFFFFFFFFFFFFFFFFFFFFFFFFFFFFFFFFFFFFFF
310
FFFFFFFFFFFFFFFFFFFFFFFFFFFFFFFFFFFFFFFFFFFFFFFFFFFFFFFFFFFFFFFF
310
FFFFFFFFFFFFFFFFFFFFFFFFFFFFFFFFFFFFFFFFFFFFFFFFF000FFFFFFFFFFFF
310
FFFFFFFFFFFFFFFFFFFFFFFFFFFFFFFFFFFFFFFFFFFFFFFFFFFFFFFFFFFFFFFF
310
FFFFFFFFFFFFFFFFFFFFFFFFFFFFFFFFFFFFFFFFFFFFFFFFFFFFFFFFFFFFFFFF
310
FFFFFFFFFFFFFFFFFFFFFFFFFFFFFFFFF000FFFFFFFFFFFFFFFFFFFFFFFFFFFF
310
FFFFFFFFFFFFFFFFFFFFFFFFFFFFFFFFFFFFFFFFFFFFFFFFFFFFFFFFFFFFFFFF
310
FFFFFFFFFFFFFFFFFFFFFFFFFFFFFFFFFFFFFFFFFFFFFFFFFFFFFFFFFFFFFFFF
310
FFFFFFFFFFFFFFFFF000FFFFFFFFFFFFFFFFFFFFFFFFFFFFFFFFFFFFFFFFFFFF
310
FFFFFFFFFFFFFFFFFFFFFFFFFFFFFFFFFFFFFFFFFFFFFFFFFFFFFFFFFFFFFFFF
310
FFFFFFFFFFFFFFFFFFFFFFFFFFFFFFFFFFFFFFFFFFFFFFFFFFFFFFFFFFFFFFFF
310
F000FFFFFFFFFFFFFFFFFFFFFFFFFFFFFFFFFFFFFFFFFFFFFFFFFFFFFFFFFFFF
310
FFFFFFFFFFFFFFFFFFFFFFFFFFFFFFFFFFFFFFFFFFFFFFFFFFFFFFFFFFFFFFFF
310
FFFFFFFFFFFFFFFFFFFFFFFFFFFFFFFFFFFFFFFFFFFFFFFFF000FFFFFFFFFFFF
310
FFFFFFFFFFFFFFFFFFFFFFFFFFFFFFFFFFFFFFFFFFFFFFFFFFFFFFFFFFFFFFFF
310
FFFFFFFFFFFFFFFFFFFFFFFFFFFFFFFFFFFFFFFFFFFFFFFFFFFFFFFFFFFFFFFF
310
FFFFFFFFFFFFFFFFFFFFFFFFFFFFFFFFF000FFFFFFFFFFFFFFFFFFFFFFFFFFFF
310
FFFFFFFFFFFFFFFFFFFFFFFFFFFFFFFFFFFFFFFFFFFFFFFFFFFFFFFFFFFFFFFF
310
FFFFFFFFFFFFFFFFFFFFFFFFFFFFFFFFFFFFFFFFFFFFFFFFFFFFFFFFFFFFFFFF
310
FFFFFFFFFFFFFFFFF000FFFFFFFFFFFFFFFFFFFFFFFFFFFFFFFFFFFFFFFFFFFF
310
FFFFFFFFFFFFFFFFFFFFFFFFFFFFFFFFFFFFFFFFFFFFFFFFFFFFFFFFFFFFFFFF
310
FFFFFFFFFFFFFFFFFFFFFFFFFFFFFFFFFFFFFFFFFFFFFFFFFFFFFFFFFFFFFFFF
310
F000FFFFFFFFFFFFFFFFFFFFFFFFFFFFFFFFFFFFFFFFFFFFFFFFFFFFFFFFFFFF
310
FFFFFFFFFFFFFFFFFFFFFFFFFFFFFFFFFFFFFFFFFFFFFFFFFFFFFFFFFFFFFFFF
310
FFFFFFFFFFFFFFFFFFFFFFFFFFFFFFFFFFFFFFFFFFFFFFFFF000FFFFFFFFFFFF
310
FFFFFFFFFFFFFFFFFFFFFFFFFFFFFFFFFFFFFFFFFFFFFFFFFFFFFFFFFFFFFFFF
310
FFFFFFFFFFFFFFFFFFFFFFFFFFFFFFFFFFFFFFFFFFFFFFFFFFFFFFFFFFFFFFFF
310
FFFFFFFFFFFFFFFFFFFFFFFFFFFFFFFFF000FFFFFFFFFFFFFFFFFFFFFFFFFFFF
310
FFFFFFFFFFFFFFFFFFFFFFFFFFFFFFFFFFFFFFFFFFFFFFFFFFFFFFFFFFFFFFFF
310
FFFFFFFFFFFFFFFFFFFFFFFFFFFFFFFFFFFFFFFFFFFFFFFFFFFFFFFFFFFFFFFF
310
FFFFFFFFFFFFFFFFF000FFFFF80003FFFFFFFFFFFFFFFFFFFFFFFFFFFFFFFFFF
310
FFFFF00007FFFFFFFFFF00007FFFFFF800000000000000007FFFFFFFFFFFFFFF
310
FFFFFFFC001FFFFFFFFFFFFFFC001FFFFFFFFFFFFFFFFFFFFFFFFFFE0007FFFF
310
F000FFFF8000007FFFFFFFF8000FFFFFC0007FFFFF80007FFFFF0000007FFFFF
310
FFF8000007FFFFF800000000000000007FFFFFF0001FFFFFFFFFFFC00001FFFF
310
FFFFFFFFC00001FFFFFFFF000000000003FFFFE000007FFFF000FFFE0000000F
310
FFFFFFF0000FFFFF80007FFFFF80007FFFFC0000001FFFFFFFC0000001FFFFF8
310
00000000000000007FFFFFF0001FFFFFFFFFFE0000003FFFFFFFFFFE0000003F
310
FFFFFF000000000003FFFF0000000FFFF000FFF800000003FFFFFFF00007FFFF
310
80007FFFFF80007FFFF000000007FFFFFF000000003FFFF80000000000000000
310
7FFFFFF0001FFFFFFFFFF80000000FFFFFFFFFF80000000FFFFFFF0000000000
310
03FFFC00000003FFF000FFE000000000FFFFFFF00007FFFF80003FFFFF80007F
310
FFC000000001FFFFFC000000001FFFF800000000000000007FFFFFF0001FFFFF
310
FFFFE000000003FFFFFFFFE000000003FFFFFF000000000003FFF000000000FF
310
F000FF80000000007FFFFFF00007FFFF80003FFFFF80007FFF8000000000FFFF
310
F80000000007FFF800000000000000007FFFFFF0001FFFFFFFFFC000000001FF
310
FFFFFFC000000001FFFFFF000000000003FFC0000000007FF000FF0000000000
310
3FFFFFE00007FFFF00003FFFFF80007FFE00000000003FFFF00000000003FFF8
310
00000000000000007FFFFFF0001FFFFFFFFF8000000000FFFFFFFF8000000000
310
FFFFFF000000000003FF80000000003FF000FE00000000001FFFFFE00003FFFF
310
00003FFFFF80007FFC00000000001FFFE00000000001FFF8000001FFFE000000
310
7FFFFFF0001FFFFFFFFE00000000003FFFFFFE00000000003FFFFF0000000000
310
03FF00000000001FF000FC00000000000FFFFFE00003FFFF00001FFFFF80007F
310
F800000000001FFFC00000000000FFF8000001FFFE0000007FFFFFF0001FFFFF
310
FFFC00000000001FFFFFFC00000000001FFFFF000000000003FE00000000000F
310
F000F8000000000007FFFFE00003FFFF00001FFFFF80007FF800000000000FFF
310
800000000000FFF8000001FFFE0000007FFFFFF0001FFFFFFFF800000000000F
310
FFFFF800000000000FFFFF000000000003FC000000000007F000F80000000000
310
03FFFFC00003FFFE00001FFFFF80007FF0000000000007FF0000000000007FF8
310
000001FFFE0000007FFFFFF0001FFFFFFFF0000000000007FFFFF00000000000
310
07FFFF000000000003F8000000000003F000F0000000000003FFFFC00001FFFE
310
00001FFFFF80007FE0000000000007FE0000000000003FF8000001FFFE000000
310
7FFFFFF0001FFFFFFFF0000000000007FFFFF0000000000007FFFF0000000000
310
03F800001F800003F000E00001FFF00001FFFFC00001FFFE00000FFFFF80007F
310
E00001FFE00003FE00001FFF00003FF8000001FFFE0000007FFFFFF0001FFFFF
310
FFE000003E000003FFFFE000003E000003FFFF000000000003F00001FFF80001
310
F000E00007FFFC0001FFFFC00001FFFE00000FFFFF80007FC0000FFFFC0003FC
310
0000FFFFC0001FF8000001FFFE0000007FFFFFF0001FFFFFFFC00003FFE00001
310
FFFFC00003FFE00001FFFF0001FFFFFFFFF00007FFFE0001F000E0000FFFFF00
310
00FFFF800001FFFC00000FFFFF80007FC0001FFFFE0001FC0001FFFFE0001FF8
310
000001FFFE0000007FFFFFF0001FFFFFFF80000FFFF80000FFFF80000FFFF800
310
00FFFF0003FFFFFFFFE0000FFFFF8000F000C0003FFFFF8000FFFF800000FFFC
310
000007FFFF80007F80003FFFFF0001FC0003FFFFF0001FF8000001FFFE000000
310
7FFFFFF0001FFFFFFF80003FFFFE0000FFFF80003FFFFE0000FFFF0003FFFFFF
310
FFE0003FFFFF8000F000C0003FFFFF8000FFFF800000FFFC000007FFFF80007F
310
80007FFFFF8001F80007FFFFF8000FF8000001FFFE0000007FFFFFF0001FFFFF
310
FF00007FFFFF00007FFF00007FFFFF00007FFF0003FFFFFFFFE0003FFFFFC000
310
F000C0007FFFFFC000FFFF000000FFFC000007FFFF80007F8000FFFFFF8000F8
310
000FFFFFF8000FF8000001FFFE0000007FFFFFF0001FFFFFFF0000FFFFFF8000
310
7FFF0000FFFFFF80007FFF0003FFFFFFFFC0007FFFFFC00070008000FFFFFFC0
310
00FFFF000000FFF8000007FFFF80007F8000FFFFFF8000F8000FFFFFF8000FF8
310
000001FFFE0000007FFFFFF0001FFFFFFE0001FFFFFFC0003FFE0001FFFFFFC0
310
003FFF0003FFFFFFFFC0007FFFFFE00070008000FFFFFFC0007FFF0000007FF8
310
000003FFFF80007F0001FFFFFF8000F8000FFFFFF8000FF8000001FFFE000000
310
7FFFFFF0001FFFFFFE0001FFFFFFC0003FFE0001FFFFFFC0003FFF0003FFFFFF
310
FFC000FFFFFFE00070008000FFFFFFC0007FFF0000007FF8000003FFFF80007F
310
0001FFFFFF8000F8001FFFFFF8000FF8000001FFFE0000007FFFFFF0001FFFFF
310
FE0003FFFFFFE0003FFE0003FFFFFFE0003FFF0003FFFFFFFFC000FFFFFFE000
310
70008000FFFFFFC0007FFE0000007FF8000003FFFF80007F0001FFFFFF8000F0
310
001FFFFFF8000FF8000001FFFE0000007FFFFFF0001FFFFFFC0003FFFFFFE000
310
1FFC0003FFFFFFE0001FFF0003FFFFFFFFC000FFFFFFC00070008000FFFFFF80
310
007FFE0000007FF0000003FFFF80007F0001FFFFFF0000F0001FFFFFF8000FF8
310
000001FFFE0000007FFFFFF0001FFFFFFC0007FFFFFFF0001FFC0007FFFFFFF0
310
001FFF0003FFFFFFFFC000FFFFFFC00070008001FFFFFF0000FFFE0000003FF0
310
000001FFFF80007F0001FFFFFF0000F8001FFFFFF0000FF8000001FFFE000000
310
7FFFFFF0001FFFFFFC0007FFFFFFF0001FFC0007FFFFFFF0001FFF0003FFFFFF
310
FFC001FFFFFF80007000FFFFFFFFFE0000FFFE0008003FF0008001FFFF80007F
310
FFFFFFFFFC0000FFFFFFFFFFE0000FF8000001FFFE0000007FFFFFF0001FFFFF
310
F8000FFFFFFFF8000FF8000FFFFFFFF8000FFF0003FFFFFFFFFFFFFFFFFF0000
310
7000FFFFFFFFFC0000FFFC0008003FF0008001FFFF80007FFFFFFFFFF80001FF
310
FFFFFFFF80000FF8000001FFFE0000007FFFFFF0001FFFFFF8000FFFFFFFF800
310
0FF8000FFFFFFFF8000FFF0003FFFFFFFFFFFFFFFFFE0000F000FFFFFFFFE000
310
00FFFC000C003FE000C001FFFF80007FFFFFFFFFC00001FFFFFFFFFE00001FF8
310
000001FFFE0000007FFFFFF0001FFFFFF8000FFFFFFFF8000FF8000FFFFFFFF8
310
000FFF0003FFFFFFFFFFFFFFFFF00000F000FFFFFFFE000001FFFC000C001FE0
310
00C000FFFF80007FFFFFFFFE000001FFFFFFFFE000001FF80FFFFFFFFFFFFFC0
310
7FFFFFF0001FFFFFF8000FFFFFFFF8000FF8000FFFFFFFF8000FFF0003FFFFFF
310
FFFFFFFFFF800000F000FFFFFFC0000001FFFC001C001FE001C000FFFF80007F
310
FFFFFF80000003FFFFFFF80000001FF80FFFFFFFFFFFFFC07FFFFFF0001FFFFF
310
F8001FFFFFFFFC000FF8001FFFFFFFFC000FFF0003FFFFFFFFFFFFFFF0000001
310
F000FFFFF800000001FFF8001C001FE001C000FFFF80007FFFFFF800000003FF
310
FFFF800000003FF80FFFFFFFFFFFFFC07FFFFFF0001FFFFFF8001FFFFFFFFC00
310
0FF8001FFFFFFFFC000FFF0003FFFFFFFFFFFFFE00000001F000FFFFC0000000
310
03FFF8001E001FC001E000FFFF80007FFFFF8000000007FFFFFC000000003FF8
310
0FFFFFFFFFFFFFC07FFFFFF0001FFFFFF8001FFFFFFFFC000FF8001FFFFFFFFC
310
000FFF0003FFFFFFFFFFFFE000000003F000FFFE0000000007FFF8001E000FC0
310
01E0007FFF80007FFFFE0000000007FFFFE0000000007FF80FFFFFFFFFFFFFC0
310
7FFFFFF0001FFFFFF0001FFFFFFFFC0007F0001FFFFFFFFC0007FF0003FFFFFF
310
FFFFFF0000000003F000FFF80000000007FFF8001E000FC003E0007FFF80007F
310
FFF0000000000FFFFF8000000000FFF80FFFFFFFFFFFFFC07FFFFFF0001FFFFF
310
F0001FFFFFFFFC0007F0001FFFFFFFFC0007FF0003FFFFFFFFFFFC0000000007
310
F000FFE0000000000FFFF0003E000FC003E0007FFF80007FFFC0000000001FFF
310
FE0000000001FFF80FFFFFFFFFFFFFC07FFFFFF0001FFFFFF0001FFFFFFFFC00
310
07F0001FFFFFFFFC0007FF0003FFFFFFFFFFF0000000000FF000FFC000000000
310
1FFFF0003F000F8003F0003FFF80007FFF80000000003FFFF80000000003FFF8
310
0FFFFFFFFFFFFFC07FFFFFF0001FFFFFF0001FFFFFFFFC0007F0001FFFFFFFFC
310
0007FF0003FFFFFFFFFFE0000000001FF000FF00000000007FFFF0003F000780
310
03F0003FFF80007FFF00000000007FFFF00000000007FFF80FFFFFFFFFFFFFC0
310
7FFFFFF0001FFFFFF0001FFFFFFFFC0007F0001FFFFFFFFC0007FF0003FFFFFF
310
FFFF80000000007FF000FE0000000000FFFFE0003F00078007F0003FFF80007F
310
FE0000000001FFFFE0000000001FFFF80FFFFFFFFFFFFFC07FFFFFF0001FFFFF
310
F0001FFFFFFFFC0007F0001FFFFFFFFC0007FF0003FFFFFFFFFF0000000000FF
310
F000FC0000000003FFFFE0007F00078007F0003FFF80007FFC0000000007FFFF
310
C0000000007FFFF80FFFFFFFFFFFFFC07FFFFFF0001FFFFFF8001FFFFFFFFC00
310
0FF8001FFFFFFFFC000FFF0003FFFFFFFFFE0000000003FFF000FC000000000F
310
FFFFE0007F80070007F8001FFF80007FF8000000001FFFFF8000000001FFFFF8
310
0FFFFFFFFFFFFFC07FFFFFF0001FFFFFF8001FFFFFFFFC000FF8001FFFFFFFFC
310
000FFF0003FFFFFFFFFC000000000FFFF000F8000000007FFFFFE0007F800700
310
07F8001FFF80007FF000000000FFFFFF800000000FFFFFF80FFFFFFFFFFFFFC0
310
7FFFFFF0001FFFFFF8000FFFFFFFF8000FF8000FFFFFFFF8000FFF0003FFFFFF
310
FFFC000000007FFFF000F800000007FFFFFFC0007F8003000FF8001FFF80007F
310
F000000007FFFFFF000000007FFFFFF80FFFFFFFFFFFFFC07FFFFFF0001FFFFF
310
F8000FFFFFFFF8000FF8000FFFFFFFF8000FFF0003FFFFFFFFF80000000FFFFF
310
F000F0000000FFFFFFFFC000FF8003000FF8001FFF80007FE0000000FFFFFFFF
310
0000000FFFFFFFF8000001FFFE0000007FFFFFF0001FFFFFF8000FFFFFFFF800
310
0FF8000FFFFFFFF8000FFF0003FFFFFFFFF8000000FFFFFFF000F000000FFFFF
310
FFFFC000FFC002000FF8000FFF80007FE000001FFFFFFFFE000001FFFFFFFFF8
310
000001FFFE0000007FFFFFF0001FFFFFF8000FFFFFFFF8000FF8000FFFFFFFF8
310
000FFF0003FFFFFFFFF000001FFFFFFFF000E00000FFFFFFFFFFC000FFC00200
310
0FFC000FFF80007FE00001FFFFFFFFFE00001FFFFFFFFFF8000001FFFE000000
310
7FFFFFF0001FFFFFFC000FFFFFFFF8001FFC000FFFFFFFF8001FFF0003FFFFFF
310
FFF00001FFFFFFFFF000E00007FFFFFFFFFF8000FFC000001FFC000FFF80007F
310
C0000FFFFFFFFFFE0000FFFFFFFFFFF8000001FFFE0000007FFFFFF0001FFFFF
310
FC0007FFFFFFF0001FFC0007FFFFFFF0001FFF0003FFFFFFFFF00007FFFFFFFF
310
F000E0001FFFFFFFFFFF8000FFC000001FFC000FFF80007FC0003FFFFFFFFFFE
310
0001FFFFFFFFFFF8000001FFFE0000007FFFFFF0001FFFFFFC0007FFFFFFF000
310
1FFC0007FFFFFFF0001FFF0003FFFFFFFFF0001FFFFFFFFFF000E0003FFFFF00
310
03FF8001FFE000001FFC0007FF80007FC0007FFFFF0007FC0003FFFFF0003FF8
310
000001FFFE0000007FFFFFF0001FFFFFFC0003FFFFFFE0001FFC0003FFFFFFE0
310
001FFF0003FFFFFFFFF0003FFFFFFFFFF000E0003FFFFF0001FF8001FFE00000
310
1FFE0007FF80007FC0007FFFFE0003FC0007FFFFE0003FF8000001FFFE000000
310
7FFFFFF0001FFFFFFE0003FFFFFFE0003FFE0003FFFFFFE0003FFF0003FFFFFF
310
FFF0003FFFFF8001F000E0003FFFFF0001FF0001FFE000001FFE0007FF80007F
310
C0007FFFFE0003FC0007FFFFE0003FF8000001FFFE0000007FFFFFF0001FFFFF
310
FE0001FFFFFFC0003FFE0001FFFFFFC0003FFF0003FFFFFFFFF0003FFFFF0001
310
F000E0003FFFFF0003FF0001FFE000003FFE0007FF80007FC0007FFFFE0003FC
310
0007FFFFE0003FF8000001FFFE0000007FFFFFF0001FFFFFFF0001FFFFFFC000
310
7FFF0001FFFFFFC0007FFF0003FFFFFFFFF0003FFFFF0001F000E0003FFFFE00
310
03FF0003FFF000003FFE0003FF80007FC0007FFFFC0003FE0007FFFFE0003FF8
310
000001FFFE0000007FFFFFF0001FFFFFFF0000FFFFFF80007FFF0000FFFFFF80
310
007FFF0003FFFFFFFFF0003FFFFF0001F000E0003FFFFE0003FF0003FFF00000
310
3FFF0003FF80007FC0007FFFFC0007FE0007FFFFC0003FF8000001FFFE000000
310
7FFFFFF0001FFFFFFF80007FFFFF0000FFFF80007FFFFF0000FFFF0003FFFFFF
310
FFF0003FFFFF0003F000E0003FFFFC0003FE0003FFF000003FFF0003FF80007F
310
E0003FFFF80007FE0003FFFFC0007FF8000001FFFE0000007FFFFFF0001FFFFF
310
FF80003FFFFE0000FFFF80003FFFFE0000FFFF0003FFFFFFFFF0001FFFFE0003
310
F000F0001FFFF80003FE0003FFF000007FFF0001FF80007FE0003FFFF00007FE
310
0001FFFF80007FF8000001FFFE0000007FFFFFF0001FFFFFFFC0000FFFF80001
310
FFFFC0000FFFF80001FFFF0003FFFFFFFFF0001FFFFC0003F000F0000FFFF000
310
07FE0007FFF800007FFF0001FF80007FE0001FFFE00007FF0000FFFE00007FF8
310
000001FFFE0000007FFFFFF0001FFFFFFFC00003FFE00001FFFFC00003FFE000
310
01FFFF0003FFFFFFFFF8000FFFF80003F000F00003FFC00007FC0007FFF80000
310
7FFF8001FF80007FF00007FF80000FFF00007FF80000FFF8000001FFFE000000
310
7F80000000000001FFE000003E000003FFFFE000003E000003FFFF0003FFFFFF
310
FFF80003FFE00007F000F800000000000FFC0007FFF800007FFF8001FF80007F
310
F000000000000FFF000000000000FFF8000001FFFE0000007F80000000000001
310
FFF0000000000007FFFFF0000000000007FFFF0003FFFFFFFFFC00007E000007
310
F000F800000000000FFC0007FFF80000FFFF8000FF80007FF800000000001FFF
310
800000000001FFF8000001FFFE0000007F80000000000001FFF800000000000F
310
FFFFF800000000000FFFFF0003FFFFFFFFFC00000000000FF000FC0000000000
310
1FFC0007FFFC0000FFFF8000FF80007FF800000000003FFFC00000000001FFF8
310
000001FFFE0000007F80000000000001FFF800000000000FFFFFF80000000000
310
0FFFFF0003FFFFFFFFFE00000000001FF000FE00000000003FF8000FFFFC0000
310
FFFF8000FF80007FFC00000000003FFFC00000000003FFF8000001FFFE000000
310
7F80000000000001FFFC00000000001FFFFFFC00000000001FFFFF0003FFFFFF
310
FFFF00000000001FF000FF00000000003FF8000FFFFC0000FFFFC000FF80007F
310
FE00000000007FFFE00000000007FFF8000001FFFE0000007F80000000000001
310
FFFE00000000003FFFFFFE00000000003FFFFF0003FFFFFFFFFF80000000003F
310
F000FF80000000007FF8000FFFFC0001FFFFC0007F80007FFF0000000000FFFF
310
F0000000000FFFF800000000000000007F80000000000001FFFF8000000000FF
310
FFFFFF8000000000FFFFFF0003FFFFFFFFFFC0000000007FF000FFC000000000
310
FFF8000FFFFE0001FFFFC0007F80007FFF8000000001FFFFF8000000001FFFF8
310
00000000000000007F80000000000001FFFFC000000001FFFFFFFFC000000001
310
FFFFFF0003FFFFFFFFFFE000000000FFF000FFE000000003FFF0001FFFFE0001
310
FFFFC0007F80007FFFC000000007FFFFFE000000003FFFF80000000000000000
310
7F80000000000001FFFFE000000003FFFFFFFFE000000003FFFFFF0003FFFFFF
310
FFFFF000000003FFF000FFF80000000FFFF0001FFFFE0001FFFFE0007F80007F
310
FFF00000000FFFFFFF00000000FFFFF800000000000000007F80000000000001
310
FFFFF80000000FFFFFFFFFF80000000FFFFFFF0003FFFFFFFFFFFC0000000FFF
310
F000FFFE0000003FFFF0001FFFFE0003FFFFE0003F80007FFFFC0000003FFFFF
310
FFC0000003FFFFF800000000000000007F80000000000001FFFFFE0000003FFF
310
FFFFFFFE0000003FFFFFFF0003FFFFFFFFFFFF0000003FFFF000FFFF800000FF
310
FFF0001FFFFF0003FFFFE0003F80007FFFFF000001FFFFFFFFF800001FFFFFF8
310
00000000000000007F80000000000001FFFFFFC00001FFFFFFFFFFFFC00001FF
310
FFFFFF0003FFFFFFFFFFFFC00000FFFFF000FFFFF8000FFFFFFFFFFFFFFFFFFF
310
FFFFFFFFFFFFFFFFFFFFF0001FFFFFFFFFFF0000FFFFFFF80000000000000000
310
7FFFFFFFFFFFFFFFFFFFFFFC001FFFFFFFFFFFFFFC001FFFFFFFFFFFFFFFFFFF
310
FFFFFFFC001FFFFFF000FFFFFFFFFFFFFFFFFFFFFFFFFFFFFFFFFFFFFFFFFFFF
310
FFFFFFFFFFFFFFFFFFFFFFFFFFFFFFFFFFFFFFFFFFFFFFFFFFFFFFFFFFFFFFFF
310
FFFFFFFFFFFFFFFFFFFFFFFFFFFFFFFFFFFFFFFFFFFFFFFFFFFFFFFFFFFFFFFF
310
F000FFFFFFFFFFFFFFFFFFFFFFFFFFFFFFFFFFFFFFFFFFFFFFFFFFFFFFFFFFFF
310
FFFFFFFFFFFFFFFFFFFFFFFFFFFFFFFFFFFFFFFFFFFFFFFFFFFFFFFFFFFFFFFF
310
FFFFFFFFFFFFFFFFFFFFFFFFFFFFFFFFFFFFFFFFFFFFFFFFF000FFFFFFFFFFFF
310
FFFFFFFFFFFFFFFFFFFFFFFFFFFFFFFFFFFFFFFFFFFFFFFFFFFFFFFFFFFFFFFF
310
FFFFFFFFFFFFFFFFFFFFFFFFFFFFFFFFFFFFFFFFFFFFFFFFFFFFFFFFFFFFFFFF
310
FFFFFFFFFFFFFFFFFFFFFFFFFFFFFFFFF000FFFFFFFFFFFFFFFFFFFFFFFFFFFF
310
FFFFFFFFFFFFFFFFFFFFFFFFFFFFFFFFFFFFFFFFFFFFFFFFFFFFFFFFFFFFFFFF
310
FFFFFFFFFFFFFFFFFFFFFFFFFFFFFFFFFFFFFFFFFFFFFFFFFFFFFFFFFFFFFFFF
310
FFFFFFFFFFFFFFFFF000FFFFFFFFFFFFFFFFFFFFFFFFFFFFFFFFFFFFFFFFFFFF
310
FFFFFFFFFFFFFFFFFFFFFFFFFFFFFFFFFFFFFFFFFFFFFFFFFFFFFFFFFFFFFFFF
310
FFFFFFFFFFFFFFFFFFFFFFFFFFFFFFFFFFFFFFFFFFFFFFFFFFFFFFFFFFFFFFFF
310
F000FFFFFFFFFFFFFFFFFFFFFFFFFFFFFFFFFFFFFFFFFFFFFFFFFFFFFFFFFFFF
310
FFFFFFFFFFFFFFFFFFFFFFFFFFFFFFFFFFFFFFFFFFFFFFFFFFFFFFFFFFFFFFFF
310
FFFFFFFFFFFFFFFFFFFFFFFFFFFFFFFFFFFFFFFFFFFFFFFFF000FFFFFFFFFFFF
310
FFFFFFFFFFFFFFFFFFFFFFFFFFFFFFFFFFFFFFFFFFFFFFFFFFFFFFFFFFFFFFFF
310
FFFFFFFFFFFFFFFFFFFFFFFFFFFFFFFFFFFFFFFFFFFFFFFFFFFFFFFFFFFFFFFF
310
FFFFFFFFFFFFFFFFFFFFFFFFFFFFFFFFF000FFFFFFFFFFFFFFFFFFFFFFFFFFFF
310
FFFFFFFFFFFFFFFFFFFFFFFFFFFFFFFFFFFFFFFFFFFFFFFFFFFFFFFFFFFFFFFF
310
FFFFFFFFFFFFFFFFFFFFFFFFFFFFFFFFFFFFFFFFFFFFFFFFFFFFFFFFFFFFFFFF
310
FFFFFFFFFFFFFFFFF000FFFFFFFFFFFFFFFFFFFFFFFFFFFFFFFFFFFFFFFFFFFF
310
FFFFFFFFFFFFFFFFFFFFFFFFFFFFFFFFFFFFFFFFFFFFFFFFFFFFFFFFFFFFFFFF
310
FFFFFFFFFFFFFFFFFFFFFFFFFFFFFFFFFFFFFFFFFFFFFFFFFFFFFFFFFFFFFFFF
310
F000FFFFFFFFFFFFFFFFFFFFFFFFFFFFFFFFFFFFFFFFFFFFFFFFFFFFFFFFFFFF
310
FFFFFFFFFFFFFFFFFFFFFFFFFFFFFFFFFFFFFFFFFFFFFFFFFFFFFFFFFFFFFFFF
310
FFFFFFFFFFFFFFFFFFFFFFFFFFFFFFFFFFFFFFFFFFFFFFFFF000FFFFFFFFFFFF
310
FFFFFFFFFFFFFFFFFFFFFFFFFFFFFFFFFFFFFFFFFFFFFFFFFFFFFFFFFFFFFFFF
310
FFFFFFFFFFFFFFFFFFFFFFFFFFFFFFFFFFFFFFFFFFFFFFFFFFFFFFFFFFFFFFFF
310
FFFFFFFFFFFFFFFFFFFFFFFFFFFFFFFFF000FFFFFFFFFFFFFFFFFFFFFFFFFFFF
310
FFFFFFFFFFFFFFFFFFFFFFFFFFFFFFFFFFFFFFFFFFFFFFFFFFFFFFFFFFFFFFFF
310
FFFFFFFFFFFFFFFFFFFFFFFFFFFFFFFFFFFFFFFFFFFFFFFFFFFFFFFFFFFFFFFF
310
FFFFFFFFFFFFFFFFF000FFFFFFFFFFFFFFFFFFFFFFFFFFFFFFFFFFFFFFFFFFFF
310
FFFFFFFFFFFFFFFFFFFFFFFFFFFFFFFFFFFFFFFFFFFFFFFFFFFFFFFFFFFFFFFF
310
FFFFFFFFFFFFFFFFFFFFFFFFFFFFFFFFFFFFFFFFFFFFFFFFFFFFFFFFFFFFFFFF
310
F000FFFFFFFFFFFFFFFFFFFFFFFFFFFFFFFFFFFFFFFFFFFFFFFFFFFFFFFFFFFF
310
FFFFFFFFFFFFFFFFFFFFFFFFFFFFFFFFFFFFFFFFFFFFFFFFFFFFFFFFFFFFFFFF
310
FFFFFFFFFFFFFFFFFFFFFFFFFFFFFFFFFFFFFFFFFFFFFFFFF000FFFFFFFFFFFF
310
FFFFFFFFFFFFFFFFFFFFFFFFFFFFFFFFFFFFFFFFFFFFFFFFFFFFFFFFFFFFFFFF
310
FFFFFFFFFFFFFFFFFFFFFFFFFFFFFFFFFFFFFFFFFFFFFFFFFFFFFFFFFFFFFFFF
310
FFFFFFFFFFFFFFFFFFFFFFFFFFFFFFFFF000FFFFFFFFFFFFFFFFFFFFFFFFFFFF
310
FFFFFFFFFFFFFFFFFFFFFFFFFFFFFFFFFFFFFFFFFFFFFFFFFFFFFFFFFFFFFFFF
310
FFFFFFFFFFFFFFFFFFFFFFFFFFFFFFFFFFFFFFFFFFFFFFFFFFFFFFFFFFFFFFFF
310
FFFFFFFFFFFFFFFFF000FFFFFFFFFFFFFFFFFFFFFFFFFFFFFFFFFFFFFFFFFFFF
310
FFFFFFFFFFFFFFFFFFFFFFFFFFFFFFFFFFFFFFFFFFFFFFFFFFFFFFFFFFFFFFFF
310
FFFFFFFFFFFFFFFFFFFFFFFFFFFFFFFFFFFFFFFFFFFFFFFFFFFFFFFFFFFFFFFF
310
F000FFFFFFFFFFFFFFFFFFFFFFFFFFFFFFFFFFFFFFFFFFFFFFFFFFFFFFFFFFFF
310
FFFFFFFFFFFFFFFFFFFFFFFFFFFFFFFFFFFFFFFFFFFFFFFFFFFFFFFFFFFFFFFF
310
FFFFFFFFFFFFFFFFFFFFFFFFFFFFFFFFFFFFFFFFFFFFFFFFF000FFFFFFFFFFFF
310
FFFFFFFFFFFFFFFFFFFFFFFFFFFFFFFFFFFFFFFFFFFFFFFFFFFFFFFFFFFFFFFF
310
FFFFFFFFFFFFFFFFFFFFFFFFFFFFFFFFFFFFFFFFFFFFFFFFFFFFFFFFFFFFFFFF
310
FFFFFFFFFFFFFFFFFFFFFFFFFFFFFFFFF000FFFFFFFFFFFFFFFFFFFFFFFFFFFF
310
FFFFFFFFFFFFFFFFFFFFFFFFFFFFFFFFFFFFFFFFFFFFFFFFFFFFFFFFFFFFFFFF
310
FFFFFFFFFFFFFFFFFFFFFFFFFFFFFFFFFFFFFFFFFFFFFFFFFFFFFFFFFFFFFFFF
310
FFFFFFFFFFFFFFFFF000FFFFFFFFFFFFFFFFFFFFFFFFFFFFFFFFFFFFFFFFFFFF
310
FFFFFFFFFFFFFFFFFFFFFFFFFFFFFFFFFFFFFFFFFFFFFFFFFFFFFFFFFFFFFFFF
310
FFFFFFFFFFFFFFFFFFFFFFFFFFFFFFFFFFFFFFFFFFFFFFFFFFFFFFFFFFFFFFFF
310
F000FFFFFFFFFFFFFFFFFFFFFFFFFFFFFFFFFFFFFFFFFFFFFFFFFFFFFFFFFFFF
310
FFFFFFFFFFFFFFFFFFFFFFFFFFFFFFFFFFFFFFFFFFFFFFFFFFFFFFFFFFFFFFFF
310
FFFFFFFFFFFFFFFFFFFFFFFFFFFFFFFFFFFFFFFFFFFFFFFFF000FFFFFFFFFFFF
310
FFFFFFFFFFFFFFFFFFFFFFFFFFFFFFFFFFFFFFFFFFFFFFFFFFFFFFFFFFFFFFFF
310
FFFFFFFFFFFFFFFFFFFFFFFFFFFFFFFFFFFFFFFFFFFFFFFFFFFFFFFFFFFFFFFF
310
FFFFFFFFFFFFFFFFFFFFFFFFFFFFFFFFF0000000000000000000000000000000
310
0000000000000000000000000000000000000000000000000000000000000000
310
0000000000000000000000000000000000000000000000000000000000000000
310
0000000000000000000000000000000000000000000000000000000000000000
310
0000000000000000000000000000000000000000000000000000000000000000
310
0000000000000000000000000000000000000000000000000000000000000000
310
0000000000000000000000000000000000000000000000000000000000000000
310
0000000000000000000000000000000000000000000000000000000000000000
310
0000000000000000000000000000000000000000000000000000000000000000
310
0000000000000000000000000000000000000000000000000000000000000000
310
0000000000000000000000000000000000000000000000000000000000000000
310
0000000000000000000000000000000000000000000000000000000000000000
310
0000000000000000000000000000000000000000000000000000000000000000
310
0000000000000000000000000000000000000000000000000000000000000000
310
0000000000000000000000000000000000000000000000000000000000000000
310
0000000000000000000000000000000000000000000000000000000000000000
  1
OLE
  0
ENDSEC
  0
SECTION
  2
OBJECTS
  0
DICTIONARY
  5
C
330
0
100
AcDbDictionary
281
     1
  3
ACAD_GROUP
350
D
  3
ACAD_LAYOUT
350
1A
  3
ACAD_MLINESTYLE
350
17
  3
ACAD_PLOTSETTINGS
350
19
  3
ACAD_PLOTSTYLENAME
350
E
  3
ACAD_SCALELIST
350
47
  0
DICTIONARY
  5
D
102
{ACAD_REACTORS
330
C
102
}
330
C
100
AcDbDictionary
281
     1
  0
DICTIONARY
  5
1A
102
{ACAD_REACTORS
330
C
102
}
330
C
100
AcDbDictionary
281
     1
  3
Layout1
350
1E
  3
Layout2
350
26
  3
Model
350
22
  0
DICTIONARY
  5
17
102
{ACAD_REACTORS
330
C
102
}
330
C
100
AcDbDictionary
281
     1
  3
Standard
350
18
  0
DICTIONARY
  5
19
102
{ACAD_REACTORS
330
C
102
}
330
C
100
AcDbDictionary
281
     1
  0
ACDBDICTIONARYWDFLT
  5
E
102
{ACAD_REACTORS
330
C
102
}
330
C
100
AcDbDictionary
281
     1
  3
Normal
350
F
100
AcDbDictionaryWithDefault
340
F
  0
DICTIONARY
  5
47
102
{ACAD_REACTORS
330
C
102
}
330
C
100
AcDbDictionary
281
     1
  3
A0
350
48
  3
A1
350
49
  3
A2
350
4A
  3
A3
350
4B
  3
A4
350
4C
  3
A5
350
4D
  3
A6
350
4E
  3
A7
350
4F
  3
A8
350
50
  3
A9
350
51
  3
B0
350
52
  3
B1
350
53
  3
B2
350
54
  3
B3
350
55
  3
B4
350
56
  3
B5
350
57
  3
B6
350
58
  3
B7
350
59
  3
B8
350
5A
  3
B9
350
5B
  3
C0
350
5C
  3
C1
350
5D
  3
C2
350
5E
  3
C3
350
5F
  3
C4
350
60
  3
C5
350
61
  3
C6
350
62
  3
C7
350
63
  3
C8
350
64
  3
C9
350
65
  3
D0
350
66
  3
D1
350
67
  3
D2
350
68
  0
LAYOUT
  5
1E
102
{ACAD_REACTORS
330
1A
102
}
330
1A
100
AcDbPlotSettings
  1

  2
none_device
  4

  6

 40
0.0
 41
0.0
 42
0.0
 43
0.0
 44
0.0
 45
0.0
 46
0.0
 47
0.0
 48
0.0
 49
0.0
140
0.0
141
0.0
142
1.0
143
1.0
 70
   688
 72
     1
 73
     0
 74
     5
  7

 75
    16
147
1.0
148
0.0
149
0.0
100
AcDbLayout
  1
Layout1
 70
     1
 71
     1
 10
0.0
 20
0.0
 11
420.0
 21
297.0
 12
0.0
 22
0.0
 32
0.0
 14
1.0000000000E+20
 24
1.0000000000E+20
 34
1.0000000000E+20
 15
-1.0000000000E+20
 25
-1.0000000000E+20
 35
-1.0000000000E+20
146
0.0
 13
0.0
 23
0.0
 33
0.0
 16
1.0
 26
0.0
 36
0.0
 17
0.0
 27
1.0
 37
0.0
 76
     0
330
1B
  0
LAYOUT
  5
26
102
{ACAD_REACTORS
330
1A
102
}
330
1A
100
AcDbPlotSettings
  1

  2
none_device
  4

  6

 40
0.0
 41
0.0
 42
0.0
 43
0.0
 44
0.0
 45
0.0
 46
0.0
 47
0.0
 48
0.0
 49
0.0
140
0.0
141
0.0
142
1.0
143
1.0
 70
   688
 72
     1
 73
     0
 74
     5
  7

 75
    16
147
1.0
148
0.0
149
0.0
100
AcDbLayout
  1
Layout2
 70
     1
 71
     2
 10
0.0
 20
0.0
 11
0.0
 21
0.0
 12
0.0
 22
0.0
 32
0.0
 14
0.0
 24
0.0
 34
0.0
 15
0.0
 25
0.0
 35
0.0
146
0.0
 13
0.0
 23
0.0
 33
0.0
 16
1.0
 26
0.0
 36
0.0
 17
0.0
 27
1.0
 37
0.0
 76
     0
330
23
  0
LAYOUT
  5
22
102
{ACAD_REACTORS
330
1A
102
}
330
1A
100
AcDbPlotSettings
  1

  2
none_device
  4
Letter_(8.50_x_11.00_Inches)
  6

 40
6.35
 41
6.35
 42
6.35000508
 43
6.35000508
 44
215.9
 45
279.4
 46
0.0
 47
0.0
 48
0.0
 49
0.0
140
0.0
141
0.0
142
1.0
143
1.0
 70
  1712
 72
     1
 73
     0
 74
     0
  7

 75
     0
147
1.0
148
0.0
149
0.0
100
AcDbLayout
  1
Model
 70
     1
 71
     0
 10
0.0
 20
0.0
 11
297.0
 21
210.0
 12
0.0
 22
0.0
 32
0.0
 14
0.0
 24
0.0
 34
0.0
 15
297.0
 25
210.0
 35
0.0
146
0.0
 13
0.0
 23
0.0
 33
0.0
 16
1.0
 26
0.0
 36
0.0
 17
0.0
 27
1.0
 37
0.0
 76
     0
330
1F
331
29
  0
MLINESTYLE
  5
18
102
{ACAD_REACTORS
330
17
102
}
330
17
100
AcDbMlineStyle
  2
Standard
 70
     0
  3

 62
   256
 51
90.0
 52
90.0
 71
     2
 49
0.5
 62
   256
  6
BYLAYER
 49
-0.5
 62
   256
  6
BYLAYER
  0
ACDBPLACEHOLDER
  5
F
102
{ACAD_REACTORS
330
E
102
}
330
E
  0
SCALE
  5
48
102
{ACAD_REACTORS
330
47
102
}
330
47
100
AcDbScale
 70
     0
300
1:1
140
1.0
141
1.0
290
     1
  0
SCALE
  5
49
102
{ACAD_REACTORS
330
47
102
}
330
47
100
AcDbScale
 70
     0
300
1:2
140
1.0
141
2.0
290
     0
  0
SCALE
  5
4A
102
{ACAD_REACTORS
330
47
102
}
330
47
100
AcDbScale
 70
     0
300
1:4
140
1.0
141
4.0
290
     0
  0
SCALE
  5
4B
102
{ACAD_REACTORS
330
47
102
}
330
47
100
AcDbScale
 70
     0
300
1:5
140
1.0
141
5.0
290
     0
  0
SCALE
  5
4C
102
{ACAD_REACTORS
330
47
102
}
330
47
100
AcDbScale
 70
     0
300
1:8
140
1.0
141
8.0
290
     0
  0
SCALE
  5
4D
102
{ACAD_REACTORS
330
47
102
}
330
47
100
AcDbScale
 70
     0
300
1:10
140
1.0
141
10.0
290
     0
  0
SCALE
  5
4E
102
{ACAD_REACTORS
330
47
102
}
330
47
100
AcDbScale
 70
     0
300
1:16
140
1.0
141
16.0
290
     0
  0
SCALE
  5
4F
102
{ACAD_REACTORS
330
47
102
}
330
47
100
AcDbScale
 70
     0
300
1:20
140
1.0
141
20.0
290
     0
  0
SCALE
  5
50
102
{ACAD_REACTORS
330
47
102
}
330
47
100
AcDbScale
 70
     0
300
1:30
140
1.0
141
30.0
290
     0
  0
SCALE
  5
51
102
{ACAD_REACTORS
330
47
102
}
330
47
100
AcDbScale
 70
     0
300
1:40
140
1.0
141
40.0
290
     0
  0
SCALE
  5
52
102
{ACAD_REACTORS
330
47
102
}
330
47
100
AcDbScale
 70
     0
300
1:50
140
1.0
141
50.0
290
     0
  0
SCALE
  5
53
102
{ACAD_REACTORS
330
47
102
}
330
47
100
AcDbScale
 70
     0
300
1:100
140
1.0
141
100.0
290
     0
  0
SCALE
  5
54
102
{ACAD_REACTORS
330
47
102
}
330
47
100
AcDbScale
 70
     0
300
2:1
140
2.0
141
1.0
290
     0
  0
SCALE
  5
55
102
{ACAD_REACTORS
330
47
102
}
330
47
100
AcDbScale
 70
     0
300
4:1
140
4.0
141
1.0
290
     0
  0
SCALE
  5
56
102
{ACAD_REACTORS
330
47
102
}
330
47
100
AcDbScale
 70
     0
300
8:1
140
8.0
141
1.0
290
     0
  0
SCALE
  5
57
102
{ACAD_REACTORS
330
47
102
}
330
47
100
AcDbScale
 70
     0
300
10:1
140
10.0
141
1.0
290
     0
  0
SCALE
  5
58
102
{ACAD_REACTORS
330
47
102
}
330
47
100
AcDbScale
 70
     0
300
100:1
140
100.0
141
1.0
290
     0
  0
SCALE
  5
59
102
{ACAD_REACTORS
330
47
102
}
330
47
100
AcDbScale
 70
     0
300
1/128" = 1'-0"
140
0.0078125
141
12.0
290
     0
  0
SCALE
  5
5A
102
{ACAD_REACTORS
330
47
102
}
330
47
100
AcDbScale
 70
     0
300
1/64" = 1'-0"
140
0.015625
141
12.0
290
     0
  0
SCALE
  5
5B
102
{ACAD_REACTORS
330
47
102
}
330
47
100
AcDbScale
 70
     0
300
1/32" = 1'-0"
140
0.03125
141
12.0
290
     0
  0
SCALE
  5
5C
102
{ACAD_REACTORS
330
47
102
}
330
47
100
AcDbScale
 70
     0
300
1/16" = 1'-0"
140
0.0625
141
12.0
290
     0
  0
SCALE
  5
5D
102
{ACAD_REACTORS
330
47
102
}
330
47
100
AcDbScale
 70
     0
300
3/32" = 1'-0"
140
0.09375
141
12.0
290
     0
  0
SCALE
  5
5E
102
{ACAD_REACTORS
330
47
102
}
330
47
100
AcDbScale
 70
     0
300
1/8" = 1'-0"
140
0.125
141
12.0
290
     0
  0
SCALE
  5
5F
102
{ACAD_REACTORS
330
47
102
}
330
47
100
AcDbScale
 70
     0
300
3/16" = 1'-0"
140
0.1875
141
12.0
290
     0
  0
SCALE
  5
60
102
{ACAD_REACTORS
330
47
102
}
330
47
100
AcDbScale
 70
     0
300
1/4" = 1'-0"
140
0.25
141
12.0
290
     0
  0
SCALE
  5
61
102
{ACAD_REACTORS
330
47
102
}
330
47
100
AcDbScale
 70
     0
300
3/8" = 1'-0"
140
0.375
141
12.0
290
     0
  0
SCALE
  5
62
102
{ACAD_REACTORS
330
47
102
}
330
47
100
AcDbScale
 70
     0
300
1/2" = 1'-0"
140
0.5
141
12.0
290
     0
  0
SCALE
  5
63
102
{ACAD_REACTORS
330
47
102
}
330
47
100
AcDbScale
 70
     0
300
3/4" = 1'-0"
140
0.75
141
12.0
290
     0
  0
SCALE
  5
64
102
{ACAD_REACTORS
330
47
102
}
330
47
100
AcDbScale
 70
     0
300
1" = 1'-0"
140
1.0
141
12.0
290
     0
  0
SCALE
  5
65
102
{ACAD_REACTORS
330
47
102
}
330
47
100
AcDbScale
 70
     0
300
1-1/2" = 1'-0"
140
1.5
141
12.0
290
     0
  0
SCALE
  5
66
102
{ACAD_REACTORS
330
47
102
}
330
47
100
AcDbScale
 70
     0
300
3" = 1'-0"
140
3.0
141
12.0
290
     0
  0
SCALE
  5
67
102
{ACAD_REACTORS
330
47
102
}
330
47
100
AcDbScale
 70
     0
300
6" = 1'-0"
140
6.0
141
12.0
290
     0
  0
SCALE
  5
68
102
{ACAD_REACTORS
330
47
102
}
330
47
100
AcDbScale
 70
     0
300
1'-0" = 1'-0"
140
12.0
141
12.0
290
     0
  0
ENDSEC
  0
EOF
