  0
SECTION
  2
HEADER
  9
$ACADVER
  1
AC1015
  9
$ACADMAINTVER
 70
     6
  9
$DWGCODEPAGE
  3
ANSI_1252
  9
$INSBASE
 10
0.0
 20
0.0
 30
0.0
  9
$EXTMIN
 10
0.0
 20
0.0
 30
0.0
  9
$EXTMAX
 10
297.0
 20
210.0
 30
0.0
  9
$LIMMIN
 10
0.0
 20
0.0
  9
$LIMMAX
 10
297.0
 20
210.0
  9
$ORTHOMODE
 70
     0
  9
$REGENMODE
 70
     1
  9
$FILLMODE
 70
     1
  9
$QTEXTMODE
 70
     0
  9
$MIRRTEXT
 70
     1
  9
$LTSCALE
 40
1.0
  9
$ATTMODE
 70
     1
  9
$TEXTSIZE
 40
2.0
  9
$TRACEWID
 40
1.0
  9
$TEXTSTYLE
  7
Standard
  9
$CLAYER
  8
0
  9
$CELTYPE
  6
ByLayer
  9
$CECOLOR
 62
   256
  9
$CELTSCALE
 40
1.0
  9
$DISPSILH
 70
     0
  9
$DIMSCALE
 40
1.0
  9
$DIMASZ
 40
3.0
  9
$DIMEXO
 40
0.0
  9
$DIMDLI
 40
3.75
  9
$DIMRND
 40
0.0
  9
$DIMDLE
 40
0.0
  9
$DIMEXE
 40
1.0
  9
$DIMTP
 40
0.0
  9
$DIMTM
 40
0.0
  9
$DIMTXT
 40
2.0
  9
$DIMCEN
 40
2.5
  9
$DIMTSZ
 40
0.0
  9
$DIMTOL
 70
     0
  9
$DIMLIM
 70
     0
  9
$DIMTIH
 70
     1
  9
$DIMTOH
 70
     1
  9
$DIMSE1
 70
     0
  9
$DIMSE2
 70
     0
  9
$DIMTAD
 70
     1
  9
$DIMZIN
 70
     0
  9
$DIMBLK
  1

  9
$DIMASO
 70
     1
  9
$DIMSHO
 70
     1
  9
$DIMPOST
  1

  9
$DIMAPOST
  1

  9
$DIMALT
 70
     0
  9
$DIMALTD
 70
     3
  9
$DIMALTF
 40
0.0393700787
  9
$DIMLFAC
 40
1.0
  9
$DIMTOFL
 70
     1
  9
$DIMTVP
 40
0.0
  9
$DIMTIX
 70
     0
  9
$DIMSOXD
 70
     0
  9
$DIMSAH
 70
     0
  9
$DIMBLK1
  1

  9
$DIMBLK2
  1

  9
$DIMSTYLE
  2
ISO-25
  9
$DIMCLRD
 70
     0
  9
$DIMCLRE
 70
     0
  9
$DIMCLRT
 70
     0
  9
$DIMTFAC
 40
1.0
  9
$DIMGAP
 40
1.524
  9
$DIMJUST
 70
     0
  9
$DIMSD1
 70
     0
  9
$DIMSD2
 70
     0
  9
$DIMTOLJ
 70
     0
  9
$DIMTZIN
 70
     0
  9
$DIMALTZ
 70
     0
  9
$DIMALTTZ
 70
     0
  9
$DIMUPT
 70
     0
  9
$DIMDEC
 70
     2
  9
$DIMTDEC
 70
     3
  9
$DIMALTU
 70
     2
  9
$DIMALTTD
 70
     3
  9
$DIMTXSTY
  7
Standard
  9
$DIMAUNIT
 70
     0
  9
$DIMADEC
 70
     2
  9
$DIMALTRND
 40
0.0
  9
$DIMAZIN
 70
     0
  9
$DIMDSEP
 70
    44
  9
$DIMATFIT
 70
     3
  9
$DIMFRAC
 70
     0
  9
$DIMLDRBLK
  1

  9
$DIMLUNIT
 70
     2
  9
$DIMLWD
 70
    -2
  9
$DIMLWE
 70
    -2
  9
$DIMTMOVE
 70
     0
  9
$LUNITS
 70
     2
  9
$LUPREC
 70
     2
  9
$SKETCHINC
 40
1.0
  9
$FILLETRAD
 40
10.0
  9
$AUNITS
 70
     0
  9
$AUPREC
 70
     2
  9
$MENU
  1
.
  9
$ELEVATION
 40
0.0
  9
$PELEVATION
 40
0.0
  9
$THICKNESS
 40
0.0
  9
$LIMCHECK
 70
     0
  9
$CHAMFERA
 40
0.0
  9
$CHAMFERB
 40
0.0
  9
$CHAMFERC
 40
0.0
  9
$CHAMFERD
 40
0.0
  9
$SKPOLY
 70
     0
  9
$TDCREATE
 40
2457627.62377353
  9
$TDUCREATE
 40
2457627.540440197
  9
$TDUPDATE
 40
2457627.623774838
  9
$TDUUPDATE
 40
2457627.540441505
  9
$TDINDWG
 40
0.0000000116
  9
$TDUSRTIMER
 40
0.0000000116
  9
$USRTIMER
 70
     1
  9
$ANGBASE
 50
0.0
  9
$ANGDIR
 70
     0
  9
$PDMODE
 70
     0
  9
$PDSIZE
 40
-1.0
  9
$PLINEWID
 40
0.0
  9
$SPLFRAME
 70
     0
  9
$SPLINETYPE
 70
     6
  9
$SPLINESEGS
 70
     8
  9
$HANDSEED
  5
2D0
  9
$SURFTAB1
 70
     6
  9
$SURFTAB2
 70
     6
  9
$SURFTYPE
 70
     6
  9
$SURFU
 70
     6
  9
$SURFV
 70
     6
  9
$UCSBASE
  2

  9
$UCSNAME
  2

  9
$UCSORG
 10
0.0
 20
0.0
 30
0.0
  9
$UCSXDIR
 10
1.0
 20
0.0
 30
0.0
  9
$UCSYDIR
 10
0.0
 20
1.0
 30
0.0
  9
$UCSORTHOREF
  2

  9
$UCSORTHOVIEW
 70
     0
  9
$UCSORGTOP
 10
0.0
 20
0.0
 30
0.0
  9
$UCSORGBOTTOM
 10
0.0
 20
0.0
 30
0.0
  9
$UCSORGLEFT
 10
0.0
 20
0.0
 30
0.0
  9
$UCSORGRIGHT
 10
0.0
 20
0.0
 30
0.0
  9
$UCSORGFRONT
 10
0.0
 20
0.0
 30
0.0
  9
$UCSORGBACK
 10
0.0
 20
0.0
 30
0.0
  9
$PUCSBASE
  2

  9
$PUCSNAME
  2

  9
$PUCSORG
 10
0.0
 20
0.0
 30
0.0
  9
$PUCSXDIR
 10
1.0
 20
0.0
 30
0.0
  9
$PUCSYDIR
 10
0.0
 20
1.0
 30
0.0
  9
$PUCSORTHOREF
  2

  9
$PUCSORTHOVIEW
 70
     0
  9
$PUCSORGTOP
 10
0.0
 20
0.0
 30
0.0
  9
$PUCSORGBOTTOM
 10
0.0
 20
0.0
 30
0.0
  9
$PUCSORGLEFT
 10
0.0
 20
0.0
 30
0.0
  9
$PUCSORGRIGHT
 10
0.0
 20
0.0
 30
0.0
  9
$PUCSORGFRONT
 10
0.0
 20
0.0
 30
0.0
  9
$PUCSORGBACK
 10
0.0
 20
0.0
 30
0.0
  9
$USERI1
 70
     0
  9
$USERI2
 70
     0
  9
$USERI3
 70
     0
  9
$USERI4
 70
     0
  9
$USERI5
 70
     0
  9
$USERR1
 40
0.0
  9
$USERR2
 40
0.0
  9
$USERR3
 40
0.0
  9
$USERR4
 40
0.0
  9
$USERR5
 40
0.0
  9
$WORLDVIEW
 70
     1
  9
$SHADEDGE
 70
     3
  9
$SHADEDIF
 70
    70
  9
$TILEMODE
 70
     1
  9
$MAXACTVP
 70
    64
  9
$PINSBASE
 10
0.0
 20
0.0
 30
0.0
  9
$PLIMCHECK
 70
     0
  9
$PEXTMIN
 10
1.0000000000E+20
 20
1.0000000000E+20
 30
1.0000000000E+20
  9
$PEXTMAX
 10
-1.0000000000E+20
 20
-1.0000000000E+20
 30
-1.0000000000E+20
  9
$PLIMMIN
 10
0.0
 20
0.0
  9
$PLIMMAX
 10
420.0
 20
297.0
  9
$UNITMODE
 70
     0
  9
$VISRETAIN
 70
     1
  9
$PLINEGEN
 70
     0
  9
$PSLTSCALE
 70
     1
  9
$TREEDEPTH
 70
  3020
  9
$CMLSTYLE
  2
Standard
  9
$CMLJUST
 70
     0
  9
$CMLSCALE
 40
20.0
  9
$PROXYGRAPHICS
 70
     1
  9
$MEASUREMENT
 70
     1
  9
$CELWEIGHT
370
    -1
  9
$ENDCAPS
280
     0
  9
$JOINSTYLE
280
     0
  9
$LWDISPLAY
290
     1
  9
$INSUNITS
 70
     4
  9
$HYPERLINKBASE
  1

  9
$STYLESHEET
  1

  9
$XEDIT
290
     1
  9
$CEPSNTYPE
380
     0
  9
$PSTYLEMODE
290
     1
  9
$FINGERPRINTGUID
  2
{000B0209-C9A2-47CF-B481-EDFA79B96464}
  9
$VERSIONGUID
  2
{FAEB1C32-E019-11D5-929B-00C0DF256EC4}
  9
$EXTNAMES
290
     1
  9
$PSVPSCALE
 40
0.0
  9
$OLESTARTUP
290
     0
  0
ENDSEC
  0
SECTION
  2
CLASSES
  0
CLASS
  1
ACDBDICTIONARYWDFLT
  2
AcDbDictionaryWithDefault
  3
ObjectDBX Classes
 90
        0
280
     0
281
     0
  0
CLASS
  1
VISUALSTYLE
  2
AcDbVisualStyle
  3
ObjectDBX Classes
 90
     4095
280
     0
281
     0
  0
CLASS
  1
MATERIAL
  2
AcDbMaterial
  3
ObjectDBX Classes
 90
     1153
280
     0
281
     0
  0
CLASS
  1
SCALE
  2
AcDbScale
  3
ObjectDBX Classes
 90
     1153
280
     0
281
     0
  0
CLASS
  1
TABLESTYLE
  2
AcDbTableStyle
  3
ObjectDBX Classes
 90
     4095
280
     0
281
     0
  0
CLASS
  1
MLEADERSTYLE
  2
AcDbMLeaderStyle
  3
ACDB_MLEADERSTYLE_CLASS
 90
     4095
280
     0
281
     0
  0
CLASS
  1
SUN
  2
AcDbSun
  3
SCENEOE
 90
     1153
280
     0
281
     0
  0
CLASS
  1
ACDBPLACEHOLDER
  2
AcDbPlaceHolder
  3
ObjectDBX Classes
 90
        0
280
     0
281
     0
  0
CLASS
  1
LAYOUT
  2
AcDbLayout
  3
ObjectDBX Classes
 90
        0
280
     0
281
     0
  0
ENDSEC
  0
SECTION
  2
TABLES
  0
TABLE
  2
VPORT
  5
8
330
0
100
AcDbSymbolTable
 70
     1
  0
VPORT
  5
29
330
8
100
AcDbSymbolTableRecord
100
AcDbViewportTableRecord
  2
*Active
 70
     0
 10
0.0
 20
0.0
 11
1.0
 21
1.0
 12
148.5
 22
105.0
 13
0.0
 23
0.0
 14
10.0
 24
10.0
 15
10.0
 25
10.0
 16
0.0
 26
0.0
 36
1.0
 17
0.0
 27
0.0
 37
0.0
 40
210.0
 41
1.4142857143
 42
50.0
 43
0.0
 44
0.0
 50
0.0
 51
0.0
 71
     0
 72
  2000
 73
     1
 74
     3
 75
     0
 76
     0
 77
     0
 78
     0
281
     0
 65
     1
110
0.0
120
0.0
130
0.0
111
1.0
121
0.0
131
0.0
112
0.0
122
1.0
132
0.0
 79
     0
146
0.0
  0
ENDTAB
  0
TABLE
  2
LTYPE
  5
5
330
0
100
AcDbSymbolTable
 70
     6
  0
LTYPE
  5
14
330
5
100
AcDbSymbolTableRecord
100
AcDbLinetypeTableRecord
  2
ByBlock
 70
     0
  3

 72
    65
 73
     0
 40
0.0
  0
LTYPE
  5
15
330
5
100
AcDbSymbolTableRecord
100
AcDbLinetypeTableRecord
  2
ByLayer
 70
     0
  3

 72
    65
 73
     0
 40
0.0
  0
LTYPE
  5
16
330
5
100
AcDbSymbolTableRecord
100
AcDbLinetypeTableRecord
  2
Continuous
 70
     0
  3
Solid line
 72
    65
 73
     0
 40
0.0
  0
LTYPE
  5
6E
330
5
100
AcDbSymbolTableRecord
100
AcDbLinetypeTableRecord
  2
HIDDEN
 70
     0
  3
Hidden __ __ __ __ __ __ __ __ __ __ __ __ __ __
 72
    65
 73
     2
 40
1.905
 49
1.27
 74
     0
 49
-0.635
 74
     0
  0
LTYPE
  5
6F
330
5
100
AcDbSymbolTableRecord
100
AcDbLinetypeTableRecord
  2
PHANTOM
 70
     0
  3
Phantom ______  __  __  ______  __  __  ______
 72
    65
 73
     6
 40
12.7
 49
6.35
 74
     0
 49
-1.27
 74
     0
 49
1.27
 74
     0
 49
-1.27
 74
     0
 49
1.27
 74
     0
 49
-1.27
 74
     0
  0
LTYPE
  5
70
330
5
100
AcDbSymbolTableRecord
100
AcDbLinetypeTableRecord
  2
CENTER
 70
     0
  3
Center ____ _ ____ _ ____ _ ____ _ ____ _ ____
 72
    65
 73
     4
 40
10.16
 49
6.35
 74
     0
 49
-1.27
 74
     0
 49
1.27
 74
     0
 49
-1.27
 74
     0
  0
LTYPE
  5
71
330
5
100
AcDbSymbolTableRecord
100
AcDbLinetypeTableRecord
  2
CENTERX2
 70
     0
  3
Center (2x) ________  __  ________  __  _____
 72
    65
 73
     4
 40
20.32
 49
12.7
 74
     0
 49
-2.54
 74
     0
 49
2.54
 74
     0
 49
-2.54
 74
     0
  0
LTYPE
  5
72
330
5
100
AcDbSymbolTableRecord
100
AcDbLinetypeTableRecord
  2
DOT2
 70
     0
  3
Dot (.5x) ........................................
 72
    65
 73
     2
 40
0.635
 49
0.0
 74
     0
 49
-0.635
 74
     0
  0
ENDTAB
  0
TABLE
  2
LAYER
  5
2
330
0
100
AcDbSymbolTable
 70
     5
  0
LAYER
  5
10
330
2
100
AcDbSymbolTableRecord
100
AcDbLayerTableRecord
  2
0
 70
     0
 62
     7
  6
Continuous
370
    -3
390
F
  0
LAYER
  5
73
330
2
100
AcDbSymbolTableRecord
100
AcDbLayerTableRecord
  2
FORMAT
 70
     0
 62
     7
  6
Continuous
370
    -3
390
F
  0
LAYER
  5
74
330
2
100
AcDbSymbolTableRecord
100
AcDbLayerTableRecord
  2
VERMASSUNG
 70
     0
 62
     7
  6
Continuous
370
    -3
390
F
  0
LAYER
  5
75
330
2
100
AcDbSymbolTableRecord
100
AcDbLayerTableRecord
  2
KOPF_DÜNN
 70
     0
 62
     7
  6
Continuous
370
    -3
390
F
  0
LAYER
  5
76
330
2
100
AcDbSymbolTableRecord
100
AcDbLayerTableRecord
  2
KOPF_DICK
 70
     0
 62
     7
  6
Continuous
370
    15
390
F
  0
ENDTAB
  0
TABLE
  2
STYLE
  5
3
330
0
100
AcDbSymbolTable
 70
     2
  0
STYLE
  5
11
330
3
100
AcDbSymbolTableRecord
100
AcDbTextStyleTableRecord
  2
Standard
 70
     0
 40
0.0
 41
1.0
 50
0.0
 71
     0
 42
2.0
  3
txt
  4

  0
STYLE
  5
77
330
3
100
AcDbSymbolTableRecord
100
AcDbTextStyleTableRecord
  2
SLDTEXTSTYLE0
 70
     0
 40
0.0
 41
0.7
 50
0.0
 71
     0
 42
2.0
  3
TXT
  4

  0
ENDTAB
  0
TABLE
  2
VIEW
  5
6
330
0
100
AcDbSymbolTable
 70
     0
  0
ENDTAB
  0
TABLE
  2
UCS
  5
7
330
0
100
AcDbSymbolTable
 70
     0
  0
ENDTAB
  0
TABLE
  2
APPID
  5
9
330
0
100
AcDbSymbolTable
 70
     1
  0
APPID
  5
12
330
9
100
AcDbSymbolTableRecord
100
AcDbRegAppTableRecord
  2
ACAD
 70
     0
  0
ENDTAB
  0
TABLE
  2
DIMSTYLE
  5
A
330
0
100
AcDbSymbolTable
 70
     2
100
AcDbDimStyleTable
  0
DIMSTYLE
105
27
330
A
100
AcDbSymbolTableRecord
100
AcDbDimStyleTableRecord
  2
ISO-25
 70
     0
 41
2.5
 42
0.625
 43
3.75
 44
1.25
 73
     0
 74
     0
 77
     1
 78
     8
140
2.5
141
2.5
143
0.0393700787
147
0.625
171
     3
172
     1
178
     0
271
     2
272
     2
274
     3
278
    44
283
     0
284
     8
340
11
  0
DIMSTYLE
105
1E2
102
{ACAD_REACTORS
330
1E1
330
1EE
330
1FA
330
204
330
20E
102
}
330
A
100
AcDbSymbolTableRecord
100
AcDbDimStyleTableRecord
  2
SLDDIMSTYLE0
 70
     0
 41
3.0
 44
0.0
 45
0.000000001
 73
     0
 74
     0
 77
     1
 78
    12
 79
     3
140
2.0
147
0.5
173
     1
178
     0
271
     2
272
     3
276
     2
284
    12
340
77
  0
ENDTAB
  0
TABLE
  2
BLOCK_RECORD
  5
1
330
0
100
AcDbSymbolTable
 70
     6
  0
BLOCK_RECORD
  5
1F
330
1
100
AcDbSymbolTableRecord
100
AcDbBlockTableRecord
  2
*Model_Space
340
22
  0
BLOCK_RECORD
  5
1B
330
1
100
AcDbSymbolTableRecord
100
AcDbBlockTableRecord
  2
*Paper_Space
340
1E
  0
BLOCK_RECORD
  5
23
330
1
100
AcDbSymbolTableRecord
100
AcDbBlockTableRecord
  2
*Paper_Space0
340
26
  0
BLOCK_RECORD
  5
1E3
330
1
100
AcDbSymbolTableRecord
100
AcDbBlockTableRecord
  2
_D
340
0
  0
BLOCK_RECORD
  5
1EF
330
1
100
AcDbSymbolTableRecord
100
AcDbBlockTableRecord
  2
_D_1
340
0
  0
BLOCK_RECORD
  5
1FB
330
1
100
AcDbSymbolTableRecord
100
AcDbBlockTableRecord
  2
_D_2
340
0
  0
BLOCK_RECORD
  5
205
330
1
100
AcDbSymbolTableRecord
100
AcDbBlockTableRecord
  2
_D_3
340
0
  0
BLOCK_RECORD
  5
20F
330
1
100
AcDbSymbolTableRecord
100
AcDbBlockTableRecord
  2
_D_4
340
0
  0
ENDTAB
  0
ENDSEC
  0
SECTION
  2
BLOCKS
  0
BLOCK
  5
20
330
1F
100
AcDbEntity
  8
0
100
AcDbBlockBegin
  2
*Model_Space
 70
     0
 10
0.0
 20
0.0
 30
0.0
  3
*Model_Space
  1

  0
ENDBLK
  5
21
330
1F
100
AcDbEntity
  8
0
100
AcDbBlockEnd
  0
BLOCK
  5
1C
330
1B
100
AcDbEntity
 67
     1
  8
0
100
AcDbBlockBegin
  2
*Paper_Space
 70
     0
 10
0.0
 20
0.0
 30
0.0
  3
*Paper_Space
  1

  0
ENDBLK
  5
1D
330
1B
100
AcDbEntity
 67
     1
  8
0
100
AcDbBlockEnd
  0
BLOCK
  5
24
330
23
100
AcDbEntity
  8
0
100
AcDbBlockBegin
  2
*Paper_Space0
 70
     0
 10
0.0
 20
0.0
 30
0.0
  3
*Paper_Space0
  1

  0
ENDBLK
  5
25
330
23
100
AcDbEntity
  8
0
100
AcDbBlockEnd
  0
BLOCK
  5
1E4
330
1E3
100
AcDbEntity
  8
0
100
AcDbBlockBegin
  2
_D
 70
     0
 10
0.0
 20
0.0
 30
0.0
  3
_D
  1

  0
SOLID
  5
1E6
330
1E3
100
AcDbEntity
  8
VERMASSUNG
100
AcDbTrace
 10
72.4993978979
 20
78.8330770891
 30
0.0
 11
72.9493978979
 21
81.8330770891
 31
0.0
 12
72.0493978979
 22
81.8330770891
 32
0.0
 13
72.0493978979
 23
81.8330770891
 33
0.0
  0
SOLID
  5
1E7
330
1E3
100
AcDbEntity
  8
VERMASSUNG
100
AcDbTrace
 10
72.4993978979
 20
142.3330770891
 30
0.0
 11
72.0493978979
 21
139.3330770891
 31
0.0
 12
72.9493978979
 22
139.3330770891
 32
0.0
 13
72.9493978979
 23
139.3330770891
 33
0.0
  0
LINE
  5
1E8
330
1E3
100
AcDbEntity
  8
VERMASSUNG
100
AcDbLine
 10
166.8242402464
 20
78.8330770891
 30
0.0
 11
71.4993978979
 21
78.8330770891
 31
0.0
  0
LINE
  5
1E9
330
1E3
100
AcDbEntity
  8
VERMASSUNG
100
AcDbLine
 10
166.8242402464
 20
142.3330770891
 30
0.0
 11
71.4993978979
 21
142.3330770891
 31
0.0
  0
LINE
  5
1EA
330
1E3
100
AcDbEntity
  8
VERMASSUNG
100
AcDbLine
 10
72.4993978979
 20
78.8330770891
 30
0.0
 11
72.4993978979
 21
142.3330770891
 31
0.0
  0
MTEXT
  5
1EB
330
1E3
100
AcDbEntity
  8
VERMASSUNG
100
AcDbMText
 10
69.7212626417
 20
101.7801409408
 30
0.0
 40
2.0
 41
0.0
 71
     1
 72
     1
  1
ISO 40
  7
SLDTEXTSTYLE0
 11
3.391901413832837E-15
 21
1.0
 31
0.0
 73
     1
 44
1.0
  0
MTEXT
  5
1EC
330
1E3
100
AcDbEntity
  8
VERMASSUNG
100
AcDbMText
 10
69.9212625929
 20
110.980141145
 30
0.0
 40
2.0
 41
0.0
 71
     1
 72
     1
  1
%%c
  7
SLDTEXTSTYLE0
 11
3.391901413832837E-15
 21
1.0
 31
0.0
 73
     1
 44
1.0
  0
MTEXT
  5
1ED
330
1E3
100
AcDbEntity
  8
VERMASSUNG
100
AcDbMText
 10
69.9212623019
 20
114.5880214763
 30
0.0
 40
2.0
 41
0.0
 71
     1
 72
     1
  1
63.5
  7
SLDTEXTSTYLE0
 11
3.391901413832837E-15
 21
1.0
 31
0.0
 73
     1
 44
1.0
  0
ENDBLK
  5
1E5
330
1E3
100
AcDbEntity
  8
0
100
AcDbBlockEnd
  0
BLOCK
  5
1F0
330
1EF
100
AcDbEntity
  8
0
100
AcDbBlockBegin
  2
_D_1
 70
     0
 10
0.0
 20
0.0
 30
0.0
  3
_D_1
  1

  0
ARC
  5
1F2
330
1EF
100
AcDbEntity
  8
VERMASSUNG
100
AcDbCircle
 10
149.8110090415
 20
162.6988135814
 30
0.0
 40
4.247059938537386
100
AcDbArc
 50
153.4349488229
 51
206.5650511771
  0
ARC
  5
1F3
330
1EF
100
AcDbEntity
  8
VERMASSUNG
100
AcDbCircle
 10
152.7874714513
 20
162.6988135814
 30
0.0
 40
4.247059938537386
100
AcDbArc
 50
333.4349488229
 51
26.5650511771
  0
SOLID
  5
1F4
330
1EF
100
AcDbEntity
  8
VERMASSUNG
100
AcDbTrace
 10
80.1242402464
 20
160.799470636
 30
0.0
 11
83.1242402464
 21
160.349470636
 31
0.0
 12
83.1242402464
 22
161.249470636
 32
0.0
 13
83.1242402464
 23
161.249470636
 33
0.0
  0
SOLID
  5
1F5
330
1EF
100
AcDbEntity
  8
VERMASSUNG
100
AcDbTrace
 10
222.4742402464
 20
160.799470636
 30
0.0
 11
219.4742402464
 21
161.249470636
 31
0.0
 12
219.4742402464
 22
160.349470636
 32
0.0
 13
219.4742402464
 23
160.349470636
 33
0.0
  0
LINE
  5
1F6
330
1EF
100
AcDbEntity
  8
VERMASSUNG
100
AcDbLine
 10
80.1242402464
 20
121.9902076862
 30
0.0
 11
80.1242402464
 21
161.799470636
 31
0.0
  0
LINE
  5
1F7
330
1EF
100
AcDbEntity
  8
VERMASSUNG
100
AcDbLine
 10
222.4742402464
 20
122.8830770891
 30
0.0
 11
222.4742402464
 21
161.799470636
 31
0.0
  0
LINE
  5
1F8
330
1EF
100
AcDbEntity
  8
VERMASSUNG
100
AcDbLine
 10
80.1242402464
 20
160.799470636
 30
0.0
 11
222.4742402464
 21
160.799470636
 31
0.0
  0
MTEXT
  5
1F9
330
1EF
100
AcDbEntity
  8
VERMASSUNG
100
AcDbMText
 10
147.5998231506
 20
163.377606232
 30
0.0
 40
2.0
 41
0.0
 71
     1
 72
     1
  1
142.35
  7
SLDTEXTSTYLE0
 73
     1
 44
1.0
  0
ENDBLK
  5
1F1
330
1EF
100
AcDbEntity
  8
0
100
AcDbBlockEnd
  0
BLOCK
  5
1FC
330
1FB
100
AcDbEntity
  8
0
100
AcDbBlockBegin
  2
_D_2
 70
     0
 10
0.0
 20
0.0
 30
0.0
  3
_D_2
  1

  0
SOLID
  5
1FE
330
1FB
100
AcDbEntity
  8
VERMASSUNG
100
AcDbTrace
 10
148.3742402464
 20
154.799470636
 30
0.0
 11
151.3742402464
 21
154.349470636
 31
0.0
 12
151.3742402464
 22
155.249470636
 32
0.0
 13
151.3742402464
 23
155.249470636
 33
0.0
  0
SOLID
  5
1FF
330
1FB
100
AcDbEntity
  8
VERMASSUNG
100
AcDbTrace
 10
222.4742402464
 20
154.799470636
 30
0.0
 11
219.4742402464
 21
155.249470636
 31
0.0
 12
219.4742402464
 22
154.349470636
 32
0.0
 13
219.4742402464
 23
154.349470636
 33
0.0
  0
LINE
  5
200
330
1FB
100
AcDbEntity
  8
VERMASSUNG
100
AcDbLine
 10
148.3742402464
 20
132.8080770891
 30
0.0
 11
148.3742402464
 21
155.799470636
 31
0.0
  0
LINE
  5
201
330
1FB
100
AcDbEntity
  8
VERMASSUNG
100
AcDbLine
 10
222.4742402464
 20
122.8830770891
 30
0.0
 11
222.4742402464
 21
155.799470636
 31
0.0
  0
LINE
  5
202
330
1FB
100
AcDbEntity
  8
VERMASSUNG
100
AcDbLine
 10
148.3742402464
 20
154.799470636
 30
0.0
 11
222.4742402464
 21
154.799470636
 31
0.0
  0
MTEXT
  5
203
330
1FB
100
AcDbEntity
  8
VERMASSUNG
100
AcDbMText
 10
183.1245131609
 20
157.377606232
 30
0.0
 40
2.0
 41
0.0
 71
     1
 72
     1
  1
74.1
  7
SLDTEXTSTYLE0
 73
     1
 44
1.0
  0
ENDBLK
  5
1FD
330
1FB
100
AcDbEntity
  8
0
100
AcDbBlockEnd
  0
BLOCK
  5
206
330
205
100
AcDbEntity
  8
0
100
AcDbBlockBegin
  2
_D_3
 70
     0
 10
0.0
 20
0.0
 30
0.0
  3
_D_3
  1

  0
SOLID
  5
208
330
205
100
AcDbEntity
  8
VERMASSUNG
100
AcDbTrace
 10
167.4242402464
 20
148.799470636
 30
0.0
 11
170.4242402464
 21
148.349470636
 31
0.0
 12
170.4242402464
 22
149.249470636
 32
0.0
 13
170.4242402464
 23
149.249470636
 33
0.0
  0
SOLID
  5
209
330
205
100
AcDbEntity
  8
VERMASSUNG
100
AcDbTrace
 10
222.4742402464
 20
148.799470636
 30
0.0
 11
219.4742402464
 21
149.249470636
 31
0.0
 12
219.4742402464
 22
148.349470636
 32
0.0
 13
219.4742402464
 23
148.349470636
 33
0.0
  0
LINE
  5
20A
330
205
100
AcDbEntity
  8
VERMASSUNG
100
AcDbLine
 10
167.4242402464
 20
135.7544894452
 30
0.0
 11
167.4242402464
 21
149.799470636
 31
0.0
  0
LINE
  5
20B
330
205
100
AcDbEntity
  8
VERMASSUNG
100
AcDbLine
 10
222.4742402464
 20
122.8830770891
 30
0.0
 11
222.4742402464
 21
149.799470636
 31
0.0
  0
LINE
  5
20C
330
205
100
AcDbEntity
  8
VERMASSUNG
100
AcDbLine
 10
167.4242402464
 20
148.799470636
 30
0.0
 11
222.4742402464
 21
148.799470636
 31
0.0
  0
MTEXT
  5
20D
330
205
100
AcDbEntity
  8
VERMASSUNG
100
AcDbMText
 10
191.8498478674
 20
151.377606232
 30
0.0
 40
2.0
 41
0.0
 71
     1
 72
     1
  1
55.05
  7
SLDTEXTSTYLE0
 73
     1
 44
1.0
  0
ENDBLK
  5
207
330
205
100
AcDbEntity
  8
0
100
AcDbBlockEnd
  0
BLOCK
  5
210
330
20F
100
AcDbEntity
  8
0
100
AcDbBlockBegin
  2
_D_4
 70
     0
 10
0.0
 20
0.0
 30
0.0
  3
_D_4
  1

  0
SOLID
  5
212
330
20F
100
AcDbEntity
  8
VERMASSUNG
100
AcDbTrace
 10
229.2158980111
 20
123.0830770891
 30
0.0
 11
228.7658980111
 21
120.0830770891
 31
0.0
 12
229.6658980111
 22
120.0830770891
 32
0.0
 13
229.6658980111
 23
120.0830770891
 33
0.0
  0
SOLID
  5
213
330
20F
100
AcDbEntity
  8
VERMASSUNG
100
AcDbTrace
 10
229.2158980111
 20
98.0830770891
 30
0.0
 11
229.6658980111
 21
101.0830770891
 31
0.0
 12
228.7658980111
 22
101.0830770891
 32
0.0
 13
228.7658980111
 23
101.0830770891
 33
0.0
  0
LINE
  5
214
330
20F
100
AcDbEntity
  8
VERMASSUNG
100
AcDbLine
 10
222.2742402464
 20
123.0830770891
 30
0.0
 11
230.2158980111
 21
123.0830770891
 31
0.0
  0
LINE
  5
215
330
20F
100
AcDbEntity
  8
VERMASSUNG
100
AcDbLine
 10
222.2742402464
 20
98.0830770891
 30
0.0
 11
230.2158980111
 21
98.0830770891
 31
0.0
  0
LINE
  5
216
330
20F
100
AcDbEntity
  8
VERMASSUNG
100
AcDbLine
 10
229.2158980111
 20
123.0830770891
 30
0.0
 11
229.2158980111
 21
98.0830770891
 31
0.0
  0
MTEXT
  5
217
330
20F
100
AcDbEntity
  8
VERMASSUNG
100
AcDbMText
 10
226.4377627549
 20
104.1780774456
 30
0.0
 40
2.0
 41
0.0
 71
     1
 72
     1
  1
MBM
  7
SLDTEXTSTYLE0
 11
-7.044195017643634E-15
 21
1.0
 31
0.0
 73
     1
 44
1.0
  0
MTEXT
  5
218
330
20F
100
AcDbEntity
  8
VERMASSUNG
100
AcDbMText
 10
226.6377627062
 20
110.5780772839
 30
0.0
 40
2.0
 41
0.0
 71
     1
 72
     1
  1
%%c
  7
SLDTEXTSTYLE0
 11
-7.044195017643634E-15
 21
1.0
 31
0.0
 73
     1
 44
1.0
  0
MTEXT
  5
219
330
20F
100
AcDbEntity
  8
VERMASSUNG
100
AcDbMText
 10
226.4377627549
 20
114.1880777638
 30
0.0
 40
2.0
 41
0.0
 71
     1
 72
     1
  1
25
  7
SLDTEXTSTYLE0
 11
-7.044195017643634E-15
 21
1.0
 31
0.0
 73
     1
 44
1.0
  0
ENDBLK
  5
211
330
20F
100
AcDbEntity
  8
0
100
AcDbBlockEnd
  0
ENDSEC
  0
SECTION
  2
ENTITIES
  0
MTEXT
  5
78
330
1F
100
AcDbEntity
  8
KOPF_DÜNN
100
AcDbMText
 10
13.8892156294
 20
23.8442973028
 30
0.0
 40
3.0
 41
0.0
 71
     1
 72
     1
  1
102.425.252
  7
SLDTEXTSTYLE0
 73
     1
 44
1.0
  0
MTEXT
  5
79
330
1F
100
AcDbEntity
  8
VERMASSUNG
100
AcDbMText
 10
13.9329988022
 20
28.8834360957
 30
0.0
 40
3.0
 41
0.0
 71
     1
 72
     1
  1
Aufnahme_Master shank MBM 25
  7
SLDTEXTSTYLE0
 73
     1
 44
1.0
  0
MTEXT
  5
7A
330
1F
100
AcDbEntity
  8
VERMASSUNG
100
AcDbMText
 10
98.8601118557
 20
13.8365368761
 30
0.0
 40
2.0
 41
0.0
 71
     1
 72
     1
  1
Datum: 01.11.2007
  7
SLDTEXTSTYLE0
 73
     1
 44
1.0
  0
MTEXT
  5
7B
330
1F
100
AcDbEntity
  8
VERMASSUNG
100
AcDbMText
 10
13.933048693
 20
18.0482802738
 30
0.0
 40
2.0
 41
0.0
 71
     1
 72
     1
  1
DIN 69871 B 40
  7
SLDTEXTSTYLE0
 73
     1
 44
1.0
  0
MTEXT
  5
7C
330
1F
100
AcDbEntity
  8
VERMASSUNG
100
AcDbMText
 10
13.9808475933
 20
13.9090974274
 30
0.0
 40
2.0
 41
0.0
 71
     1
 72
     1
  1
Gewicht: 985g
  7
SLDTEXTSTYLE0
 73
     1
 44
1.0
  0
ARC
  5
7D
330
1F
100
AcDbEntity
  8
0
  6
Continuous
 62
     7
370
    15
100
AcDbCircle
 10
150.9742402464
 20
87.7580770891
 30
0.0
 40
0.6000000000000227
100
AcDbArc
 50
0.0
 51
90.0
  0
ARC
  5
7E
330
1F
100
AcDbEntity
  8
0
  6
Continuous
 62
     7
370
    15
100
AcDbCircle
 10
150.9742402464
 20
133.4080770891
 30
0.0
 40
0.6000000000000227
100
AcDbArc
 50
270.0
 51
0.0
  0
LINE
  5
7F
330
1F
100
AcDbEntity
  8
0
  6
Continuous
 62
     7
370
    15
100
AcDbLine
 10
148.3742402464
 20
88.3580771249
 30
0.0
 11
150.9742402535
 21
88.3580771249
 31
0.0
  0
LINE
  5
80
330
1F
100
AcDbEntity
  8
0
  6
Continuous
 62
     7
370
    15
100
AcDbLine
 10
150.9742402535
 20
132.8080770534
 30
0.0
 11
148.3742402464
 21
132.8080770534
 31
0.0
  0
LINE
  5
81
330
1F
100
AcDbEntity
  8
0
  6
Continuous
 62
     7
370
    15
100
AcDbLine
 10
148.3742402464
 20
132.8080770534
 30
0.0
 11
80.9799315005
 21
122.9797405165
 31
0.0
  0
LINE
  5
82
330
1F
100
AcDbEntity
  8
0
  6
Continuous
 62
     7
370
    15
100
AcDbLine
 10
80.9799315005
 20
98.1864136618
 30
0.0
 11
148.3742402464
 21
88.3580771249
 31
0.0
  0
ARC
  5
83
330
1F
100
AcDbEntity
  8
0
  6
Continuous
 62
     7
370
    15
100
AcDbCircle
 10
171.4242402464
 20
94.0830770891
 30
0.0
 40
4.0
100
AcDbArc
 50
90.0
 51
180.0
  0
ARC
  5
84
330
1F
100
AcDbEntity
  8
0
  6
Continuous
 62
     7
370
    15
100
AcDbCircle
 10
171.4242402464
 20
127.0830770891
 30
0.0
 40
4.000000000000014
100
AcDbArc
 50
180.0
 51
270.0
  0
LINE
  5
85
330
1F
100
AcDbEntity
  8
0
  6
Continuous
 62
     7
370
    15
100
AcDbLine
 10
171.4242411375
 20
98.0830769029
 30
0.0
 11
222.2742395073
 21
98.0830769029
 31
0.0
  0
LINE
  5
86
330
1F
100
AcDbEntity
  8
0
  6
Continuous
 62
     7
370
    15
100
AcDbLine
 10
222.2742395073
 20
123.0830772754
 30
0.0
 11
171.4242411375
 21
123.0830772754
 31
0.0
  0
LINE
  5
87
330
1F
100
AcDbEntity
  8
0
  6
Continuous
 62
     7
370
    15
100
AcDbLine
 10
222.2742395073
 20
98.0830769029
 30
0.0
 11
222.4742428929
 21
98.2830774944
 31
0.0
  0
LINE
  5
88
330
1F
100
AcDbEntity
  8
0
  6
Continuous
 62
     7
370
    15
100
AcDbLine
 10
222.4742428929
 20
122.8830766838
 30
0.0
 11
222.2742395073
 21
123.0830772754
 31
0.0
  0
ARC
  5
89
330
1F
100
AcDbEntity
  8
0
  6
Continuous
 62
     7
370
    15
100
AcDbCircle
 10
81.1242402464
 20
99.1759464921
 30
0.0
 40
0.9999999999999938
100
AcDbArc
 50
180.0
 51
261.7028550302
  0
ARC
  5
8A
330
1F
100
AcDbEntity
  8
0
  6
Continuous
 62
     7
370
    15
100
AcDbCircle
 10
81.1242402464
 20
121.9902076862
 30
0.0
 40
0.9999999999999938
100
AcDbArc
 50
98.2971449698
 51
180.0
  0
ARC
  5
8B
330
1F
100
AcDbEntity
  8
0
  6
Continuous
 62
     7
370
    15
100
AcDbCircle
 10
161.3742402464
 20
101.8615634343
 30
0.0
 40
1.50000000000001
100
AcDbArc
 50
191.5274417163
 51
336.6722113243
  0
SPLINE
  5
8C
330
1F
100
AcDbEntity
  8
0
  6
Continuous
 62
     7
370
    15
100
AcDbSpline
210
0.0
220
0.0
230
1.0
 70
     8
 71
     3
 72
    12
 73
     8
 74
     0
 42
0.000000001
 43
0.00000001
 40
0.0
 40
0.0
 40
0.0
 40
0.0
 40
0.2499999999999992
 40
0.2499999999999992
 40
0.4999999999999983
 40
0.4999999999999983
 40
1.0
 40
1.0
 40
1.0
 40
1.0
 10
166.8242402464066
 20
80.13498474048336
 30
0.0
 10
166.9197821565425
 20
80.13498474048336
 30
0.0
 10
167.0119270984053
 20
80.15123840967956
 30
0.0
 10
167.1682533750152
 20
80.20484683059304
 30
0.0
 10
167.2319215176352
 20
80.24125795587473
 30
0.0
 10
167.3807893630656
 20
80.36338159556121
 30
0.0
 10
167.4242402464066
 20
80.45853427099826
 30
0.0
 10
167.4242402464066
 20
80.55416072661794
 30
0.0
  0
SPLINE
  5
8D
330
1F
100
AcDbEntity
  8
0
  6
Continuous
 62
     7
370
    15
100
AcDbSpline
210
0.0
220
0.0
230
1.0
 70
    24
 71
     3
 72
    12
 73
     8
 74
     0
 42
0.000000001
 43
0.00000001
 40
0.0
 40
0.0
 40
0.0
 40
0.0
 40
0.4999999999999971
 40
0.4999999999999971
 40
0.7499999999999986
 40
0.7499999999999986
 40
1.0
 40
1.0
 40
1.0
 40
1.0
 10
167.4242402464066
 20
128.93307708912
 30
0.0
 10
167.4242402464066
 20
128.93307708912
 30
0.0
 10
167.3745602514515
 20
128.93307708912
 30
0.0
 10
167.218641694434
 20
128.93307708912
 30
0.0
 10
167.1527606298579
 20
128.93307708912
 30
0.0
 10
167.0001149743691
 20
128.93307708912
 30
0.0
 10
166.9128650665081
 20
128.93307708912
 30
0.0
 10
166.8242402464064
 20
128.93307708912
 30
0.0
  0
LINE
  5
8E
330
1F
100
AcDbEntity
  8
0
  6
Continuous
 62
     7
370
    15
100
AcDbLine
 10
167.4242404818
 20
80.5541601937
 30
0.0
 11
167.4242404818
 21
128.933076651
 31
0.0
  0
LINE
  5
8F
330
1F
100
AcDbEntity
  8
0
  6
Continuous
 62
     7
370
    15
100
AcDbLine
 10
152.1742403105
 20
80.1349849414
 30
0.0
 11
155.9524036541
 21
80.1349849414
 31
0.0
  0
LINE
  5
90
330
1F
100
AcDbEntity
  8
0
  6
Continuous
 62
     7
370
    15
100
AcDbLine
 10
155.9524036541
 20
128.933076651
 30
0.0
 11
152.1742403105
 21
128.933076651
 31
0.0
  0
LINE
  5
91
330
1F
100
AcDbEntity
  8
0
  6
Continuous
 62
     7
370
    15
100
AcDbLine
 10
155.9524036541
 20
80.1349849414
 30
0.0
 11
155.9524036541
 21
128.933076651
 31
0.0
  0
SPLINE
  5
92
330
1F
100
AcDbEntity
  8
0
  6
Continuous
 62
     7
370
    15
100
AcDbSpline
210
0.0
220
0.0
230
1.0
 70
     8
 71
     3
 72
     8
 73
     4
 74
     0
 42
0.000000001
 43
0.00000001
 40
0.0
 40
0.0
 40
0.0
 40
0.0
 40
1.0
 40
1.0
 40
1.0
 40
1.0
 10
157.5642402464066
 20
82.76625062961857
 30
0.0
 10
157.1801054978222
 20
82.07360920767438
 30
0.0
 10
156.7951192213293
 20
81.38142303335069
 30
0.0
 10
156.4094506427029
 20
80.68962874250651
 30
0.0
  0
SPLINE
  5
93
330
1F
100
AcDbEntity
  8
0
  6
Continuous
 62
     7
370
    15
100
AcDbSpline
210
0.0
220
0.0
230
1.0
 70
     8
 71
     3
 72
     8
 73
     4
 74
     0
 42
0.000000001
 43
0.00000001
 40
0.0
 40
0.0
 40
0.0
 40
0.0
 40
0.0011901715795577
 40
0.0011901715795577
 40
0.0011901715795577
 40
0.0011901715795577
 10
155.9524036043498
 20
80.13498474048336
 30
0.0
 10
156.1062497938458
 20
80.31954997816695
 30
0.0
 10
156.2586450615184
 20
80.50442533869558
 30
0.0
 10
156.4094506427029
 20
80.68962874250651
 30
0.0
  0
SPLINE
  5
94
330
1F
100
AcDbEntity
  8
0
  6
Continuous
 62
     7
370
    15
100
AcDbSpline
210
0.0
220
0.0
230
1.0
 70
    24
 71
     3
 72
     8
 73
     4
 74
     0
 42
0.000000001
 43
0.00000001
 40
0.0
 40
0.0
 40
0.0
 40
0.0
 40
1.0
 40
1.0
 40
1.0
 40
1.0
 10
157.5642402464066
 20
128.93307708912
 30
0.0
 10
157.0395077580447
 20
128.93307708912
 30
0.0
 10
156.5008322738259
 20
128.93307708912
 30
0.0
 10
155.9524036043498
 20
128.93307708912
 30
0.0
  0
LINE
  5
95
330
1F
100
AcDbEntity
  8
0
  6
Continuous
 62
     7
370
    15
100
AcDbLine
 10
157.5642399087
 20
82.7662506115
 30
0.0
 11
157.5642399087
 21
128.933076651
 31
0.0
  0
LINE
  5
96
330
1F
100
AcDbEntity
  8
0
  6
Continuous
 62
     7
370
    15
100
AcDbLine
 10
162.996077311
 20
100.8310568493
 30
0.0
 11
162.996077311
 21
128.933076651
 31
0.0
  0
LINE
  5
97
330
1F
100
AcDbEntity
  8
0
  6
Continuous
 62
     7
370
    15
100
AcDbLine
 10
166.8242396384
 20
128.933076651
 30
0.0
 11
162.996077311
 21
128.933076651
 31
0.0
  0
LINE
  5
98
330
1F
100
AcDbEntity
  8
0
  6
Continuous
 62
     7
370
    15
100
AcDbLine
 10
162.996077311
 20
80.1349849414
 30
0.0
 11
166.8242396384
 21
80.1349849414
 31
0.0
  0
LINE
  5
99
330
1F
100
AcDbEntity
  8
0
  6
Continuous
 62
     7
370
    15
100
AcDbLine
 10
162.996077311
 20
80.1349849414
 30
0.0
 11
162.996077311
 21
98.6315774705
 31
0.0
  0
SPLINE
  5
9A
330
1F
100
AcDbEntity
  8
0
  6
Continuous
 62
     7
370
    15
100
AcDbSpline
210
0.0
220
0.0
230
1.0
 70
     8
 71
     3
 72
    12
 73
     8
 74
     0
 42
0.000000001
 43
0.00000001
 40
0.0
 40
0.0
 40
0.0
 40
0.0
 40
0.2500000000000008
 40
0.2500000000000008
 40
0.5000000000000017
 40
0.5000000000000017
 40
1.0
 40
1.0
 40
1.0
 40
1.0
 10
162.9960768884633
 20
98.63157729091299
 30
0.0
 10
163.1190243822588
 20
98.78953413960808
 30
0.0
 10
163.2125685853677
 20
98.9613675065856
 30
0.0
 10
163.3415079745299
 20
99.33304021623145
 30
0.0
 10
163.374060731915
 20
99.52622866242268
 30
0.0
 10
163.3745970736489
 20
100.1145252006989
 30
0.0
 10
163.2419734166808
 20
100.5065434385876
 30
0.0
 10
162.9960768884633
 20
100.8310570212963
 30
0.0
  0
SPLINE
  5
9B
330
1F
100
AcDbEntity
  8
0
  6
Continuous
 62
     7
370
    15
100
AcDbSpline
210
0.0
220
0.0
230
1.0
 70
     8
 71
     3
 72
    10
 73
     6
 74
     0
 42
0.000000001
 43
0.00000001
 40
0.0
 40
0.0
 40
0.0
 40
0.0
 40
0.5
 40
0.5
 40
1.0
 40
1.0
 40
1.0
 40
1.0
 10
151.7903847877537
 20
80.23134723965183
 30
0.0
 10
151.8391547607351
 20
80.2031192324438
 30
0.0
 10
151.8966068840374
 20
80.17902462820221
 30
0.0
 10
152.0272037870262
 20
80.14476115510966
 30
0.0
 10
152.0996934668684
 20
80.13498474048335
 30
0.0
 10
152.1742402464066
 20
80.13498474048335
 30
0.0
  0
SPLINE
  5
9C
330
1F
100
AcDbEntity
  8
0
  6
Continuous
 62
     7
370
    15
100
AcDbSpline
210
0.0
220
0.0
230
1.0
 70
     8
 71
     3
 72
    10
 73
     6
 74
     0
 42
0.000000001
 43
0.00000001
 40
0.0
 40
0.0
 40
0.0
 40
0.0
 40
0.5
 40
0.5
 40
1.0
 40
1.0
 40
1.0
 40
1.0
 10
151.7903847877537
 20
80.23134723965183
 30
0.0
 10
151.7322621276776
 20
80.29865239951363
 30
0.0
 10
151.6798589616742
 20
80.37873778654728
 30
0.0
 10
151.6009559401278
 20
80.56275722823602
 30
0.0
 10
151.5742402464066
 20
80.66796858565648
 30
0.0
 10
151.5742402464066
 20
80.77670193211712
 30
0.0
  0
LINE
  5
9D
330
1F
100
AcDbEntity
  8
0
  6
Continuous
 62
     7
370
    15
100
AcDbLine
 10
151.5742401656
 20
80.7767015856
 30
0.0
 11
151.5742401656
 21
128.933076651
 31
0.0
  0
SPLINE
  5
9E
330
1F
100
AcDbEntity
  8
0
  6
Continuous
 62
     7
370
    15
100
AcDbSpline
210
0.0
220
0.0
230
1.0
 70
    24
 71
     3
 72
    12
 73
     8
 74
     0
 42
0.000000001
 43
0.00000001
 40
0.0
 40
0.0
 40
0.0
 40
0.0
 40
0.25
 40
0.25
 40
0.5
 40
0.5
 40
1.0
 40
1.0
 40
1.0
 40
1.0
 10
152.1742402464066
 20
128.93307708912
 30
0.0
 10
152.0858248690961
 20
128.93307708912
 30
0.0
 10
151.9985544319255
 20
128.93307708912
 30
0.0
 10
151.8460907071536
 20
128.93307708912
 30
0.0
 10
151.7804520949312
 20
128.93307708912
 30
0.0
 10
151.6237936936473
 20
128.93307708912
 30
0.0
 10
151.5742402464065
 20
128.93307708912
 30
0.0
 10
151.5742402464066
 20
128.93307708912
 30
0.0
  0
LINE
  5
9F
330
1F
100
AcDbEntity
  8
0
  6
Continuous
 62
     7
370
    15
100
AcDbLine
 10
161.3842401251
 20
102.581794278
 30
0.0
 11
161.3842401251
 21
128.933076651
 31
0.0
  0
SPLINE
  5
A0
330
1F
100
AcDbEntity
  8
0
  6
Continuous
 62
     7
370
    15
100
AcDbSpline
210
0.0
220
0.0
230
1.0
 70
    24
 71
     3
 72
     8
 73
     4
 74
     0
 42
0.000000001
 43
0.00000001
 40
0.0
 40
0.0
 40
0.0
 40
0.0
 40
1.0
 40
1.0
 40
1.0
 40
1.0
 10
162.9960768884633
 20
128.93307708912
 30
0.0
 10
162.4476482189873
 20
128.93307708912
 30
0.0
 10
161.9089727347684
 20
128.93307708912
 30
0.0
 10
161.3842402464066
 20
128.93307708912
 30
0.0
  0
SPLINE
  5
A1
330
1F
100
AcDbEntity
  8
0
  6
Continuous
 62
     7
370
    15
100
AcDbSpline
210
0.0
220
0.0
230
1.0
 70
     8
 71
     3
 72
    12
 73
     8
 74
     0
 42
0.000000001
 43
0.00000001
 40
0.0
 40
0.0
 40
0.0
 40
0.0
 40
0.2499999999999997
 40
0.2499999999999997
 40
0.4999999999999993
 40
0.4999999999999993
 40
1.0
 40
1.0
 40
1.0
 40
1.0
 10
162.9960768884633
 20
100.8310570212963
 30
0.0
 10
162.8811808372026
 20
101.0507974563529
 30
0.0
 10
162.75441482073
 20
101.2477658079746
 30
0.0
 10
162.4941998871114
 20
101.6014833808135
 30
0.0
 10
162.3606924291492
 20
101.7583086746858
 30
0.0
 10
161.952294160561
 20
102.1848512455934
 30
0.0
 10
161.6686410256234
 20
102.4115434245487
 30
0.0
 10
161.3842402464067
 20
102.5817945689442
 30
0.0
  0
SPLINE
  5
A2
330
1F
100
AcDbEntity
  8
0
  6
Continuous
 62
     7
370
    15
100
AcDbSpline
210
0.0
220
0.0
230
1.0
 70
     8
 71
     3
 72
    14
 73
    10
 74
     0
 42
0.000000001
 43
0.00000001
 40
0.0
 40
0.0
 40
0.0
 40
0.0
 40
0.2499999999999995
 40
0.2499999999999995
 40
0.4999999999999997
 40
0.4999999999999997
 40
0.7499999999999998
 40
0.7499999999999998
 40
1.0
 40
1.0
 40
1.0
 40
1.0
 10
161.3842402464065
 20
102.6360382187904
 30
0.0
 10
161.3842402464065
 20
102.6726890869542
 30
0.0
 10
161.3629124576947
 20
102.7091558842031
 30
0.0
 10
161.2804540550381
 20
102.774294738744
 30
0.0
 10
161.219337863183
 20
102.8023658693349
 30
0.0
 10
161.0680347701208
 20
102.8361937510618
 30
0.0
 10
160.9766567467303
 20
102.8416568924583
 30
0.0
 10
160.7842830336774
 20
102.8207309744457
 30
0.0
 10
160.6821026941984
 20
102.7941955490704
 30
0.0
 10
160.5842402464065
 20
102.7537093757891
 30
0.0
  0
SPLINE
  5
A3
330
1F
100
AcDbEntity
  8
0
  6
Continuous
 62
     7
370
    15
100
AcDbSpline
210
0.0
220
0.0
230
1.0
 70
     8
 71
     3
 72
    12
 73
     8
 74
     0
 42
0.000000001
 43
0.00000001
 40
0.0
 40
0.0
 40
0.0
 40
0.0
 40
0.5000000000000009
 40
0.5000000000000009
 40
0.7500000000000004
 40
0.7500000000000004
 40
1.0
 40
1.0
 40
1.0
 40
1.0
 10
161.3842402464065
 20
98.82307107072309
 30
0.0
 10
161.6684467809719
 20
98.65560690842935
 30
0.0
 10
161.9471425150757
 20
98.54396980891775
 30
0.0
 10
162.3564885582649
 20
98.4766565432784
 30
0.0
 10
162.4926278955844
 20
98.47150550326441
 30
0.0
 10
162.7539479445805
 20
98.5092714408838
 30
0.0
 10
162.8793691270123
 20
98.55082119922807
 30
0.0
 10
162.9960768884637
 20
98.6315772909109
 30
0.0
  0
LINE
  5
A4
330
1F
100
AcDbEntity
  8
0
  6
Continuous
 62
     7
370
    15
100
AcDbLine
 10
161.3842401251
 20
98.8773143824
 30
0.0
 11
161.3842401251
 21
98.8230713617
 31
0.0
  0
SPLINE
  5
A5
330
1F
100
AcDbEntity
  8
0
  6
Continuous
 62
     7
370
    15
100
AcDbSpline
210
0.0
220
0.0
230
1.0
 70
     8
 71
     3
 72
    14
 73
    10
 74
     0
 42
0.000000001
 43
0.00000001
 40
0.0
 40
0.0
 40
0.0
 40
0.0
 40
0.25
 40
0.25
 40
0.5
 40
0.5
 40
0.75
 40
0.75
 40
1.0
 40
1.0
 40
1.0
 40
1.0
 10
160.584240246403
 20
99.30059789901325
 30
0.0
 10
160.6816496663868
 20
99.26218317961907
 30
0.0
 10
160.7839739094004
 20
99.22448277483632
 30
0.0
 10
160.9759755949379
 20
99.15343798924218
 30
0.0
 10
161.0674102245924
 20
99.11923652788414
 30
0.0
 10
161.2191890918874
 20
99.05224010247875
 30
0.0
 10
161.2801659818019
 20
99.01909863416925
 30
0.0
 10
161.3631839203663
 20
98.94942106651918
 30
0.0
 10
161.3842402464066
 20
98.91368735535197
 30
0.0
 10
161.3842402464066
 20
98.87731472057119
 30
0.0
  0
SPLINE
  5
A6
330
1F
100
AcDbEntity
  8
0
  6
Continuous
 62
     7
370
    15
100
AcDbSpline
210
0.0
220
0.0
230
1.0
 70
     8
 71
     3
 72
    22
 73
    18
 74
     0
 42
0.000000001
 43
0.00000001
 40
0.0
 40
0.0
 40
0.0
 40
0.0
 40
0.125
 40
0.125
 40
0.25
 40
0.25
 40
0.375
 40
0.375
 40
0.5
 40
0.5
 40
0.625
 40
0.625
 40
0.75
 40
0.75
 40
0.875
 40
0.875
 40
1.0
 40
1.0
 40
1.0
 40
1.0
 10
160.5842402464066
 20
102.7537093757891
 30
0.0
 10
160.4042235518372
 20
102.6792355888126
 30
0.0
 10
160.239791729967
 20
102.5817863268286
 30
0.0
 10
159.9413954962086
 20
102.3424168932645
 30
0.0
 10
159.8110917688438
 20
102.2025202811941
 30
0.0
 10
159.5978729852247
 20
101.8942686911341
 30
0.0
 10
159.5142451281132
 20
101.724105473015
 30
0.0
 10
159.4031142511949
 20
101.3736107382247
 30
0.0
 10
159.3742782563411
 20
101.1884857770735
 30
0.0
 10
159.3742023136813
 20
100.8252789024564
 30
0.0
 10
159.4028609391084
 20
100.6419088887489
 30
0.0
 10
159.5140120322207
 20
100.2960177762557
 30
0.0
 10
159.5970791528644
 20
100.1304982489883
 30
0.0
 10
159.8107651109827
 20
99.82995851158444
 30
0.0
 10
159.9397721009069
 20
99.69608659030042
 30
0.0
 10
160.239381380396
 20
99.4648398208961
 30
0.0
 10
160.4042240786571
 20
99.37158970423613
 30
0.0
 10
160.5842402464066
 20
99.30059789901186
 30
0.0
  0
SPLINE
  5
A7
330
1F
100
AcDbEntity
  8
0
  6
Continuous
 62
     7
370
    15
100
AcDbSpline
210
0.0
220
0.0
230
1.0
 70
     8
 71
     3
 72
     8
 73
     4
 74
     0
 42
0.000000001
 43
0.00000001
 40
0.0
 40
0.0
 40
0.0
 40
0.0
 40
0.0011901715795577
 40
0.0011901715795577
 40
0.0011901715795577
 40
0.0011901715795577
 10
162.5390298501102
 20
80.68962874250651
 30
0.0
 10
162.6898354312947
 20
80.50442533869558
 30
0.0
 10
162.8422306989673
 20
80.31954997816695
 30
0.0
 10
162.9960768884633
 20
80.13498474048336
 30
0.0
  0
SPLINE
  5
A8
330
1F
100
AcDbEntity
  8
0
  6
Continuous
 62
     7
370
    15
100
AcDbSpline
210
0.0
220
0.0
230
1.0
 70
     8
 71
     3
 72
     8
 73
     4
 74
     0
 42
0.000000001
 43
0.00000001
 40
0.0
 40
0.0
 40
0.0
 40
0.0
 40
1.0
 40
1.0
 40
1.0
 40
1.0
 10
162.5390298501102
 20
80.68962874250651
 30
0.0
 10
162.1533612714838
 20
81.38142303335067
 30
0.0
 10
161.7683749949909
 20
82.07360920767438
 30
0.0
 10
161.3842402464066
 20
82.76625062961857
 30
0.0
  0
LINE
  5
A9
330
1F
100
AcDbEntity
  8
0
  6
Continuous
 62
     7
370
    15
100
AcDbLine
 10
161.3842401251
 20
82.7662506115
 30
0.0
 11
161.3842401251
 21
98.8230713617
 31
0.0
  0
SPLINE
  5
AA
330
1F
100
AcDbEntity
  8
0
  6
Continuous
 62
     7
370
    15
100
AcDbSpline
210
0.0
220
0.0
230
1.0
 70
     8
 71
     3
 72
    12
 73
     8
 74
     0
 42
0.000000001
 43
0.00000001
 40
0.0
 40
0.0
 40
0.0
 40
0.0
 40
0.2500000000000015
 40
0.2500000000000015
 40
0.500000000000003
 40
0.500000000000003
 40
1.0
 40
1.0
 40
1.0
 40
1.0
 10
158.3642402464066
 20
83.7652192328333
 30
0.0
 10
158.2578383960491
 20
83.76521923283332
 30
0.0
 10
158.1505229846526
 20
83.74244846881479
 30
0.0
 10
157.9550513936253
 20
83.65620552216268
 30
0.0
 10
157.8648692776878
 20
83.59152920169215
 30
0.0
 10
157.646647790967
 20
83.35859987763536
 30
0.0
 10
157.5642402464062
 20
83.14401463974434
 30
0.0
 10
157.5642402464065
 20
82.93099760131162
 30
0.0
  0
SPLINE
  5
AB
330
1F
100
AcDbEntity
  8
0
  6
Continuous
 62
     7
370
    15
100
AcDbSpline
210
0.0
220
0.0
230
1.0
 70
    24
 71
     3
 72
    14
 73
    10
 74
     0
 42
0.000000001
 43
0.00000001
 40
0.0
 40
0.0
 40
0.0
 40
0.0
 40
0.1250000000000007
 40
0.1250000000000007
 40
0.2500000000000014
 40
0.2500000000000014
 40
0.499999999999999
 40
0.499999999999999
 40
1.0
 40
1.0
 40
1.0
 40
1.0
 10
158.3642402464066
 20
128.93307708912
 30
0.0
 10
158.303622922989
 20
128.93307708912
 30
0.0
 10
158.2414977748539
 20
128.93307708912
 30
0.0
 10
158.1252801118325
 20
128.93307708912
 30
0.0
 10
158.0706634721401
 20
128.93307708912
 30
0.0
 10
157.9159871336319
 20
128.93307708912
 30
0.0
 10
157.8298703848479
 20
128.93307708912
 30
0.0
 10
157.6285628043073
 20
128.93307708912
 30
0.0
 10
157.5642402464066
 20
128.93307708912
 30
0.0
 10
157.5642402464065
 20
128.93307708912
 30
0.0
  0
SPLINE
  5
AC
330
1F
100
AcDbEntity
  8
0
  6
Continuous
 62
     7
370
    15
100
AcDbSpline
210
0.0
220
0.0
230
1.0
 70
    24
 71
     3
 72
    14
 73
    10
 74
     0
 42
0.000000001
 43
0.00000001
 40
0.0
 40
0.0
 40
0.0
 40
0.0
 40
0.25
 40
0.25
 40
0.5
 40
0.5
 40
0.75
 40
0.75
 40
1.0
 40
1.0
 40
1.0
 40
1.0
 10
161.3842402464065
 20
128.93307708912
 30
0.0
 10
161.3842402464065
 20
128.93307708912
 30
0.0
 10
161.3681586449468
 20
128.93307708912
 30
0.0
 10
161.3026671316799
 20
128.93307708912
 30
0.0
 10
161.2533591585525
 20
128.93307708912
 30
0.0
 10
161.1187896368556
 20
128.93307708912
 30
0.0
 10
161.0332665607703
 20
128.93307708912
 30
0.0
 10
160.8262710652153
 20
128.93307708912
 30
0.0
 10
160.7055774312717
 20
128.93307708912
 30
0.0
 10
160.5842402464066
 20
128.93307708912
 30
0.0
  0
LINE
  5
AD
330
1F
100
AcDbEntity
  8
0
  6
Continuous
 62
     7
370
    15
100
AcDbLine
 10
160.5842405528
 20
83.76521887
 30
0.0
 11
158.3642404124
 21
83.76521887
 31
0.0
  0
LINE
  5
AE
330
1F
100
AcDbEntity
  8
0
  6
Continuous
 62
     7
370
    15
100
AcDbLine
 10
160.5842405528
 20
128.933076651
 30
0.0
 11
158.3642404124
 21
128.933076651
 31
0.0
  0
SPLINE
  5
AF
330
1F
100
AcDbEntity
  8
0
  6
Continuous
 62
     7
370
    15
100
AcDbSpline
210
0.0
220
0.0
230
1.0
 70
     8
 71
     3
 72
    12
 73
     8
 74
     0
 42
0.000000001
 43
0.00000001
 40
0.0
 40
0.0
 40
0.0
 40
0.0
 40
0.5000000000000013
 40
0.5000000000000013
 40
0.7500000000000007
 40
0.7500000000000007
 40
1.0
 40
1.0
 40
1.0
 40
1.0
 10
161.3842402464065
 20
82.93099760131298
 30
0.0
 10
161.3842402464065
 20
83.14382016024585
 30
0.0
 10
161.3023148885868
 20
83.35807666688383
 30
0.0
 10
161.0833930851184
 20
83.59176629533371
 30
0.0
 10
160.9933457936274
 20
83.65625112017769
 30
0.0
 10
160.7979323256075
 20
83.74245073133326
 30
0.0
 10
160.6906493586238
 20
83.76521923283332
 30
0.0
 10
160.5842402464066
 20
83.76521923283332
 30
0.0
  0
LINE
  5
B0
330
1F
100
AcDbEntity
  8
0
  6
Continuous
 62
     7
370
    15
100
AcDbLine
 10
148.3742402464
 20
88.3580771249
 30
0.0
 11
148.3742402464
 21
132.8080770534
 31
0.0
  0
SPLINE
  5
B1
330
1F
100
AcDbEntity
  8
0
  6
Continuous
 62
     7
370
    15
100
AcDbSpline
210
0.0
220
0.0
230
1.0
 70
     8
 71
     3
 72
    12
 73
     8
 74
     0
 42
0.000000001
 43
0.00000001
 40
0.0
 40
0.0
 40
0.0
 40
0.0
 40
0.5
 40
0.5
 40
0.75
 40
0.75
 40
1.0
 40
1.0
 40
1.0
 40
1.0
 10
161.3842402464066
 20
138.2351565769271
 30
0.0
 10
161.3842402464066
 20
138.0220191752756
 30
0.0
 10
161.3015978312586
 20
137.8070396505379
 30
0.0
 10
161.0830144204483
 20
137.5741205816521
 30
0.0
 10
160.9939244674675
 20
137.5102536718316
 30
0.0
 10
160.79851914957
 20
137.4238675174499
 30
0.0
 10
160.6919951026267
 20
137.4009349454068
 30
0.0
 10
160.5842402464066
 20
137.4009349454068
 30
0.0
  0
SPLINE
  5
B2
330
1F
100
AcDbEntity
  8
0
  6
Continuous
 62
     7
370
    15
100
AcDbSpline
210
0.0
220
0.0
230
1.0
 70
     8
 71
     3
 72
    12
 73
     8
 74
     0
 42
0.000000001
 43
0.00000001
 40
0.0
 40
0.0
 40
0.0
 40
0.0
 40
0.2500000000000015
 40
0.2500000000000015
 40
0.500000000000003
 40
0.500000000000003
 40
1.0
 40
1.0
 40
1.0
 40
1.0
 10
160.5842402464066
 20
131.7320132325765
 30
0.0
 10
160.7063222438949
 20
131.7320132325765
 30
0.0
 10
160.8269127863805
 20
131.7707395887502
 30
0.0
 10
161.0324080700804
 20
131.9007031764965
 30
0.0
 10
161.1179245530329
 20
131.9899094130433
 30
0.0
 10
161.3213189045771
 20
132.2947859505889
 30
0.0
 10
161.3842402464065
 20
132.537556564691
 30
0.0
 10
161.3842402464065
 20
132.7803179086453
 30
0.0
  0
SPLINE
  5
B3
330
1F
100
AcDbEntity
  8
0
  6
Continuous
 62
     7
370
    15
100
AcDbSpline
210
0.0
220
0.0
230
1.0
 70
     8
 71
     3
 72
     8
 73
     4
 74
     0
 42
0.000000001
 43
0.00000001
 40
0.0
 40
0.0
 40
0.0
 40
0.0
 40
0.0012409313617635
 40
0.0012409313617635
 40
0.0012409313617635
 40
0.0012409313617635
 10
156.5102855601105
 20
140.2956152453845
 30
0.0
 10
156.3250617205545
 20
140.5571427888617
 30
0.0
 10
156.139076532582
 20
140.818401290637
 30
0.0
 10
155.9524036043498
 20
141.0794131683356
 30
0.0
  0
SPLINE
  5
B4
330
1F
100
AcDbEntity
  8
0
  6
Continuous
 62
     7
370
    15
100
AcDbSpline
210
0.0
220
0.0
230
1.0
 70
     8
 71
     3
 72
     8
 73
     4
 74
     0
 42
0.000000001
 43
0.00000001
 40
0.0
 40
0.0
 40
0.0
 40
0.0
 40
1.0
 40
1.0
 40
1.0
 40
1.0
 10
157.5642402464066
 20
138.3999035486215
 30
0.0
 10
157.213588006079
 20
139.0321719576719
 30
0.0
 10
156.8622295830188
 20
139.6640538573707
 30
0.0
 10
156.5102855601105
 20
140.2956152453845
 30
0.0
  0
LINE
  5
B5
330
1F
100
AcDbEntity
  8
0
  6
Continuous
 62
     7
370
    15
100
AcDbLine
 10
157.5642399087
 20
132.9852164697
 30
0.0
 11
157.5642399087
 21
138.3999035668
 31
0.0
  0
SPLINE
  5
B6
330
1F
100
AcDbEntity
  8
0
  6
Continuous
 62
     7
370
    15
100
AcDbSpline
210
0.0
220
0.0
230
1.0
 70
     8
 71
     3
 72
     8
 73
     4
 74
     0
 42
0.000000001
 43
0.00000001
 40
0.0
 40
0.0
 40
0.0
 40
0.0
 40
1.0
 40
1.0
 40
1.0
 40
1.0
 10
155.9524036043498
 20
136.4933067291676
 30
0.0
 10
156.5013483825467
 20
135.3282106168539
 30
0.0
 10
157.0399587570635
 20
134.1590523000294
 30
0.0
 10
157.5642402464066
 20
132.9852161449785
 30
0.0
  0
LINE
  5
B7
330
1F
100
AcDbEntity
  8
0
  6
Continuous
 62
     7
370
    15
100
AcDbLine
 10
155.9524036541
 20
136.4933074426
 30
0.0
 11
155.9524036541
 21
141.0794136088
 31
0.0
  0
SPLINE
  5
B8
330
1F
100
AcDbEntity
  8
0
  6
Continuous
 62
     7
370
    15
100
AcDbSpline
210
0.0
220
0.0
230
1.0
 70
     8
 71
     3
 72
    12
 73
     8
 74
     0
 42
0.000000001
 43
0.00000001
 40
0.0
 40
0.0
 40
0.0
 40
0.0
 40
0.5000000000000003
 40
0.5000000000000003
 40
0.7500000000000001
 40
0.7500000000000001
 40
1.0
 40
1.0
 40
1.0
 40
1.0
 10
151.5742402464066
 20
135.7544894452037
 30
0.0
 10
151.5742402464066
 20
135.9311058417254
 30
0.0
 10
151.6235808812284
 20
136.1061630130991
 30
0.0
 10
151.7797964395165
 20
136.3201132255918
 30
0.0
 10
151.8450990194172
 20
136.3814458684387
 30
0.0
 10
151.9988680373776
 20
136.46883396641
 30
0.0
 10
152.085881143988
 20
136.4933067291676
 30
0.0
 10
152.1742402464066
 20
136.4933067291676
 30
0.0
  0
LINE
  5
B9
330
1F
100
AcDbEntity
  8
0
  6
Continuous
 62
     7
370
    15
100
AcDbLine
 10
152.1742403105
 20
136.4933074426
 30
0.0
 11
155.9524036541
 21
136.4933074426
 31
0.0
  0
LINE
  5
BA
330
1F
100
AcDbEntity
  8
0
  6
Continuous
 62
     7
370
    15
100
AcDbLine
 10
157.5642399087
 20
132.9852164697
 30
0.0
 11
157.5642399087
 21
132.7803180527
 31
0.0
  0
SPLINE
  5
BB
330
1F
100
AcDbEntity
  8
0
  6
Continuous
 62
     7
370
    15
100
AcDbSpline
210
0.0
220
0.0
230
1.0
 70
     8
 71
     3
 72
    14
 73
    10
 74
     0
 42
0.000000001
 43
0.00000001
 40
0.0
 40
0.0
 40
0.0
 40
0.0
 40
0.25
 40
0.25
 40
0.5
 40
0.5
 40
0.75
 40
0.75
 40
1.0
 40
1.0
 40
1.0
 40
1.0
 10
157.5642402464066
 20
132.7803179086453
 30
0.0
 10
157.5642402464066
 20
132.6583825734638
 30
0.0
 10
157.5802846139465
 20
132.5388283329623
 30
0.0
 10
157.6460139561258
 20
132.3047123498191
 30
0.0
 10
157.6952213263742
 20
132.1927798096844
 30
0.0
 10
157.830234307273
 20
131.9903800004475
 30
0.0
 10
157.9161543758793
 20
131.9005148068846
 30
0.0
 10
158.1226691778847
 20
131.7701802972744
 30
0.0
 10
158.2428078902558
 20
131.7320132325765
 30
0.0
 10
158.3642402464066
 20
131.7320132325765
 30
0.0
  0
LINE
  5
BC
330
1F
100
AcDbEntity
  8
0
  6
Continuous
 62
     7
370
    15
100
AcDbLine
 10
158.3642404124
 20
131.7320139121
 30
0.0
 11
160.5842405528
 21
131.7320139121
 31
0.0
  0
SPLINE
  5
BD
330
1F
100
AcDbEntity
  8
0
  6
Continuous
 62
     7
370
    15
100
AcDbSpline
210
0.0
220
0.0
230
1.0
 70
     8
 71
     3
 72
     8
 73
     4
 74
     0
 42
0.000000001
 43
0.00000001
 40
0.0
 40
0.0
 40
0.0
 40
0.0
 40
1.0
 40
1.0
 40
1.0
 40
1.0
 10
161.3842402464066
 20
132.9852161449786
 30
0.0
 10
161.9090313659025
 20
134.1601933326833
 30
0.0
 10
162.4475476170853
 20
135.3290925004214
 30
0.0
 10
162.9960768884633
 20
136.4933067291676
 30
0.0
  0
LINE
  5
BE
330
1F
100
AcDbEntity
  8
0
  6
Continuous
 62
     7
370
    15
100
AcDbLine
 10
162.996077311
 20
136.4933074426
 30
0.0
 11
166.8242396384
 21
136.4933074426
 31
0.0
  0
SPLINE
  5
BF
330
1F
100
AcDbEntity
  8
0
  6
Continuous
 62
     7
370
    15
100
AcDbSpline
210
0.0
220
0.0
230
1.0
 70
     8
 71
     3
 72
    14
 73
    10
 74
     0
 42
0.000000001
 43
0.00000001
 40
0.0
 40
0.0
 40
0.0
 40
0.0
 40
0.25
 40
0.25
 40
0.5
 40
0.5
 40
0.75
 40
0.75
 40
1.0
 40
1.0
 40
1.0
 40
1.0
 10
166.8242402464066
 20
136.4933067291676
 30
0.0
 10
166.912662784529
 20
136.4933067291676
 30
0.0
 10
167.0007167742221
 20
136.4682343787082
 30
0.0
 10
167.1525465380934
 20
136.3818923137369
 30
0.0
 10
167.2183894826572
 20
136.320349059224
 30
0.0
 10
167.3221885432027
 20
136.1785213129731
 30
0.0
 10
167.3606606526774
 20
136.0984727230031
 30
0.0
 10
167.411883315952
 20
135.9294602263294
 30
0.0
 10
167.4242402464066
 20
135.8426809194597
 30
0.0
 10
167.4242402464066
 20
135.7544894452037
 30
0.0
  0
LINE
  5
C0
330
1F
100
AcDbEntity
  8
0
  6
Continuous
 62
     7
370
    15
100
AcDbLine
 10
161.3842401251
 20
132.7803180527
 30
0.0
 11
161.3842401251
 21
132.9852164697
 31
0.0
  0
LINE
  5
C1
330
1F
100
AcDbEntity
  8
0
  6
Continuous
 62
     7
370
    15
100
AcDbLine
 10
151.5742401656
 20
135.7544892442
 30
0.0
 11
151.5742401656
 21
128.933076651
 31
0.0
  0
LINE
  5
C2
330
1F
100
AcDbEntity
  8
0
  6
Continuous
 62
     7
370
    15
100
AcDbLine
 10
167.4242404818
 20
135.7544892442
 30
0.0
 11
167.4242404818
 21
128.933076651
 31
0.0
  0
LINE
  5
C3
330
1F
100
AcDbEntity
  8
0
  6
Continuous
 62
     7
370
    15
100
AcDbLine
 10
166.8242396384
 20
141.0794136088
 30
0.0
 11
162.996077311
 21
141.0794136088
 31
0.0
  0
LINE
  5
C4
330
1F
100
AcDbEntity
  8
0
  6
Continuous
 62
     7
370
    15
100
AcDbLine
 10
162.996077311
 20
136.4933074426
 30
0.0
 11
162.996077311
 21
141.0794136088
 31
0.0
  0
LINE
  5
C5
330
1F
100
AcDbEntity
  8
0
  6
Continuous
 62
     7
370
    15
100
AcDbLine
 10
160.5842405528
 20
137.4009353083
 30
0.0
 11
158.3642404124
 21
137.4009353083
 31
0.0
  0
SPLINE
  5
C6
330
1F
100
AcDbEntity
  8
0
  6
Continuous
 62
     7
370
    15
100
AcDbSpline
210
0.0
220
0.0
230
1.0
 70
     8
 71
     3
 72
     8
 73
     4
 74
     0
 42
0.000000001
 43
0.00000001
 40
0.0
 40
0.0
 40
0.0
 40
0.0
 40
1.0
 40
1.0
 40
1.0
 40
1.0
 10
162.4381949327026
 20
140.2956152453845
 30
0.0
 10
162.0862509097943
 20
139.6640538573707
 30
0.0
 10
161.7348924867341
 20
139.0321719576719
 30
0.0
 10
161.3842402464066
 20
138.3999035486215
 30
0.0
  0
SPLINE
  5
C7
330
1F
100
AcDbEntity
  8
0
  6
Continuous
 62
     7
370
    15
100
AcDbSpline
210
0.0
220
0.0
230
1.0
 70
     8
 71
     3
 72
     8
 73
     4
 74
     0
 42
0.000000001
 43
0.00000001
 40
0.0
 40
0.0
 40
0.0
 40
0.0
 40
0.0012409313617635
 40
0.0012409313617635
 40
0.0012409313617635
 40
0.0012409313617635
 10
162.9960768884633
 20
141.0794131683356
 30
0.0
 10
162.8094039602311
 20
140.818401290637
 30
0.0
 10
162.6234187722586
 20
140.5571427888617
 30
0.0
 10
162.4381949327026
 20
140.2956152453845
 30
0.0
  0
LINE
  5
C8
330
1F
100
AcDbEntity
  8
0
  6
Continuous
 62
     7
370
    15
100
AcDbLine
 10
161.3842401251
 20
132.9852164697
 30
0.0
 11
161.3842401251
 21
138.3999035668
 31
0.0
  0
SPLINE
  5
C9
330
1F
100
AcDbEntity
  8
0
  6
Continuous
 62
     7
370
    15
100
AcDbSpline
210
0.0
220
0.0
230
1.0
 70
     8
 71
     3
 72
    12
 73
     8
 74
     0
 42
0.000000001
 43
0.00000001
 40
0.0
 40
0.0
 40
0.0
 40
0.0
 40
0.4999999999999971
 40
0.4999999999999971
 40
0.7499999999999986
 40
0.7499999999999986
 40
1.0
 40
1.0
 40
1.0
 40
1.0
 10
167.4242402464066
 20
140.5936282225613
 30
0.0
 10
167.4242402464066
 20
140.7139552556143
 30
0.0
 10
167.3704454348136
 20
140.8320528290962
 30
0.0
 10
167.2095218648473
 20
140.9716955715352
 30
0.0
 10
167.1447704037448
 20
141.0099715249296
 30
0.0
 10
166.9925502204271
 20
141.064811354564
 30
0.0
 10
166.9097427049021
 20
141.0794131683356
 30
0.0
 10
166.8242402464066
 20
141.0794131683356
 30
0.0
  0
LINE
  5
CA
330
1F
100
AcDbEntity
  8
0
  6
Continuous
 62
     7
370
    15
100
AcDbLine
 10
167.4242404818
 20
135.7544892442
 30
0.0
 11
167.4242404818
 21
140.5936283033
 31
0.0
  0
SPLINE
  5
CB
330
1F
100
AcDbEntity
  8
0
  6
Continuous
 62
     7
370
    15
100
AcDbSpline
210
0.0
220
0.0
230
1.0
 70
     8
 71
     3
 72
    10
 73
     6
 74
     0
 42
0.000000001
 43
0.00000001
 40
0.0
 40
0.0
 40
0.0
 40
0.0
 40
0.5
 40
0.5
 40
1.0
 40
1.0
 40
1.0
 40
1.0
 10
151.8614818477141
 20
141.008373644077
 30
0.0
 10
151.7856422537106
 20
140.9383244577484
 30
0.0
 10
151.7183187359846
 20
140.8531056841747
 30
0.0
 10
151.6116750976795
 20
140.6428795575129
 30
0.0
 10
151.5742402464066
 20
140.5193703666456
 30
0.0
 10
151.5742402464066
 20
140.3894522461229
 30
0.0
  0
SPLINE
  5
CC
330
1F
100
AcDbEntity
  8
0
  6
Continuous
 62
     7
370
    15
100
AcDbSpline
210
0.0
220
0.0
230
1.0
 70
     8
 71
     3
 72
     8
 73
     4
 74
     0
 42
0.000000001
 43
0.00000001
 40
0.0
 40
0.0
 40
0.0
 40
0.0
 40
1.0
 40
1.0
 40
1.0
 40
1.0
 10
152.1742402464066
 20
141.0794131683356
 30
0.0
 10
152.0620619922269
 20
141.0794131683356
 30
0.0
 10
151.9533924794985
 20
141.0537321030747
 30
0.0
 10
151.8614818477141
 20
141.008373644077
 30
0.0
  0
LINE
  5
CD
330
1F
100
AcDbEntity
  8
0
  6
Continuous
 62
     7
370
    15
100
AcDbLine
 10
151.5742401656
 20
135.7544892442
 30
0.0
 11
151.5742401656
 21
140.3894525927
 31
0.0
  0
LINE
  5
CE
330
1F
100
AcDbEntity
  8
0
  6
Continuous
 62
     7
370
    15
100
AcDbLine
 10
155.9524036541
 20
141.0794136088
 30
0.0
 11
152.1742403105
 21
141.0794136088
 31
0.0
  0
SPLINE
  5
CF
330
1F
100
AcDbEntity
  8
0
  6
Continuous
 62
     7
370
    15
100
AcDbSpline
210
0.0
220
0.0
230
1.0
 70
     8
 71
     3
 72
    14
 73
    10
 74
     0
 42
0.000000001
 43
0.00000001
 40
0.0
 40
0.0
 40
0.0
 40
0.0
 40
0.25
 40
0.25
 40
0.5
 40
0.5
 40
0.75
 40
0.75
 40
1.0
 40
1.0
 40
1.0
 40
1.0
 10
158.3642402464066
 20
137.4009349454068
 30
0.0
 10
158.2568712018922
 20
137.4009349454068
 30
0.0
 10
158.1500657101294
 20
137.4238599408118
 30
0.0
 10
157.9549243416125
 20
137.510052374686
 30
0.0
 10
157.8657146240226
 20
137.5738963713499
 30
0.0
 10
157.7197878312062
 20
137.7293124792913
 30
0.0
 10
157.6617980874082
 20
137.821967057499
 30
0.0
 10
157.5842042458856
 20
138.0212003975486
 30
0.0
 10
157.5642402464066
 20
138.1278054926038
 30
0.0
 10
157.5642402464066
 20
138.2351565769271
 30
0.0
  0
LINE
  5
D0
330
1F
100
AcDbEntity
  8
0
  6
Continuous
 62
     7
370
    15
100
AcDbLine
 10
222.2742395073
 20
98.0830769029
 30
0.0
 11
222.2742395073
 21
123.0830772754
 31
0.0
  0
SPLINE
  5
D1
330
1F
100
AcDbEntity
  8
0
  6
Continuous
 62
     7
370
    15
100
AcDbSpline
210
0.0
220
0.0
230
1.0
 70
     8
 71
     3
 72
    38
 73
    34
 74
     0
 42
0.000000001
 43
0.00000001
 40
0.0
 40
0.0
 40
0.0
 40
0.0
 40
0.0625
 40
0.0625
 40
0.125
 40
0.125
 40
0.1875000000000001
 40
0.1875000000000001
 40
0.25
 40
0.25
 40
0.3125
 40
0.3125
 40
0.3749999999999999
 40
0.3749999999999999
 40
0.4374999999999999
 40
0.4374999999999999
 40
0.4999999999999999
 40
0.4999999999999999
 40
0.5624999999999999
 40
0.5624999999999999
 40
0.6249999999999999
 40
0.6249999999999999
 40
0.6874999999999999
 40
0.6874999999999999
 40
0.7499999999999999
 40
0.7499999999999999
 40
0.8125
 40
0.8125
 40
0.875
 40
0.875
 40
0.9375
 40
0.9375
 40
1.0
 40
1.0
 40
1.0
 40
1.0
 10
219.0992402464066
 20
110.58307708912
 30
0.0
 10
219.0992402464066
 20
110.3446913726008
 30
0.0
 10
219.0702773430444
 20
110.1058019279862
 30
0.0
 10
218.9554407635785
 20
109.6383064617611
 30
0.0
 10
218.8714773937673
 20
109.4154636558323
 30
0.0
 10
218.6546024781096
 20
108.9896993999819
 30
0.0
 10
218.5218662699393
 20
108.7885292470922
 30
0.0
 10
218.2215430932212
 20
108.4212935023402
 30
0.0
 10
218.0509628362681
 20
108.2515526066524
 30
0.0
 10
217.6833896538615
 20
107.9495965653497
 30
0.0
 10
217.4869677415858
 20
107.8171445389445
 30
0.0
 10
217.0700452162368
 20
107.5868613152049
 30
0.0
 10
216.84933024972
 20
107.4895043048544
 30
0.0
 10
216.3997311250076
 20
107.3351861600218
 30
0.0
 10
216.1689448796086
 20
107.2770757917104
 30
0.0
 10
215.6952466578195
 20
107.1989993877024
 30
0.0
 10
215.4549079124673
 20
107.1797839378423
 30
0.0
 10
214.9787965965473
 20
107.1805896656779
 30
0.0
 10
214.7412930606498
 20
107.2002987779238
 30
0.0
 10
214.2674268637769
 20
107.2797751306398
 30
0.0
 10
214.0348080087949
 20
107.3391718739623
 30
0.0
 10
213.5869585665845
 20
107.494536380246
 30
0.0
 10
213.3702648902857
 20
107.5907087661946
 30
0.0
 10
212.9522233370227
 20
107.822969203204
 30
0.0
 10
212.7550651520151
 20
107.9570219175998
 30
0.0
 10
212.391782537911
 20
108.2571104275353
 30
0.0
 10
212.224424353587
 20
108.4237453736669
 30
0.0
 10
211.9218235019281
 20
108.7950235924594
 30
0.0
 10
211.7914963804798
 20
108.9940251963861
 30
0.0
 10
211.5774161693246
 20
109.4150057315517
 30
0.0
 10
211.4923705600407
 20
109.6403920695353
 30
0.0
 10
211.3779551919387
 20
110.1074550427115
 30
0.0
 10
211.3492402464066
 20
110.3438291876227
 30
0.0
 10
211.3492402464066
 20
110.58307708912
 30
0.0
  0
SPLINE
  5
D2
330
1F
100
AcDbEntity
  8
0
  6
Continuous
 62
     7
370
    15
100
AcDbSpline
210
0.0
220
0.0
230
1.0
 70
     8
 71
     3
 72
    34
 73
    30
 74
     0
 42
0.000000001
 43
0.00000001
 40
0.0
 40
0.0
 40
0.0
 40
0.0
 40
0.0625000000000007
 40
0.0625000000000007
 40
0.1250000000000014
 40
0.1250000000000014
 40
0.2500000000000012
 40
0.2500000000000012
 40
0.3750000000000009
 40
0.3750000000000009
 40
0.4375000000000008
 40
0.4375000000000008
 40
0.5000000000000007
 40
0.5000000000000007
 40
0.5625000000000006
 40
0.5625000000000006
 40
0.6250000000000004
 40
0.6250000000000004
 40
0.6875000000000004
 40
0.6875000000000004
 40
0.7500000000000003
 40
0.7500000000000003
 40
0.8125000000000002
 40
0.8125000000000002
 40
0.8750000000000001
 40
0.8750000000000001
 40
0.9375000000000001
 40
0.9375000000000001
 40
1.0
 40
1.0
 40
1.0
 40
1.0
 10
211.3492402464066
 20
110.58307708912
 30
0.0
 10
211.3492402464066
 20
110.8224112147816
 30
0.0
 10
211.3791581519693
 20
111.0652669316908
 30
0.0
 10
211.493578686707
 20
111.5290013645585
 30
0.0
 10
211.5792114525782
 20
111.7560252692714
 30
0.0
 10
211.9063181914021
 20
112.3951570864108
 30
0.0
 10
212.2174202109893
 20
112.7681677359168
 30
0.0
 10
212.9595259349391
 20
113.3747400572853
 30
0.0
 10
213.3755285403525
 20
113.6006711314808
 30
0.0
 10
214.0573495045036
 20
113.8335239619853
 30
0.0
 10
214.2884191184399
 20
113.8909084086092
 30
0.0
 10
214.7575047631813
 20
113.9674825168375
 30
0.0
 10
214.996765609508
 20
113.9866633274453
 30
0.0
 10
215.4774593982393
 20
113.9852459737739
 30
0.0
 10
215.7146344826094
 20
113.9648643508691
 30
0.0
 10
216.1828378031876
 20
113.8858167094081
 30
0.0
 10
216.4152918140948
 20
113.8266534284265
 30
0.0
 10
216.8672666355922
 20
113.6693881726629
 30
0.0
 10
217.0833175181158
 20
113.5727850268549
 30
0.0
 10
217.4957031730805
 20
113.3433166349129
 30
0.0
 10
217.6935571957274
 20
113.2092207173442
 30
0.0
 10
218.0604311557315
 20
112.9057521330284
 30
0.0
 10
218.2268155071403
 20
112.7390522625716
 30
0.0
 10
218.5242403765737
 20
112.3740665503321
 30
0.0
 10
218.6567430874259
 20
112.1728469282482
 30
0.0
 10
218.8726599883417
 20
111.7477651179506
 30
0.0
 10
218.9557097911127
 20
111.5263125452553
 30
0.0
 10
219.0693723062386
 20
111.0644741344407
 30
0.0
 10
219.0992402464066
 20
110.8215487190748
 30
0.0
 10
219.0992402464066
 20
110.58307708912
 30
0.0
  0
LINE
  5
D3
330
1F
100
AcDbEntity
  8
0
  6
Continuous
 62
     7
370
    15
100
AcDbLine
 10
222.4742428929
 20
98.2830774944
 30
0.0
 11
222.4742428929
 21
122.8830766838
 31
0.0
  0
LINE
  5
D4
330
1F
100
AcDbEntity
  8
0
  6
Continuous
 62
     7
370
    15
100
AcDbLine
 10
80.1242397696
 20
99.1759466913
 30
0.0
 11
80.1242397696
 21
121.990207487
 31
0.0
  0
SPLINE
  5
D5
330
1F
100
AcDbEntity
  8
0
  6
Continuous
 62
     7
370
    15
100
AcDbSpline
210
0.0
220
0.0
230
1.0
 70
     8
 71
     3
 72
    11
 73
     7
 74
     0
 42
0.000000001
 43
0.00000001
 40
0.0
 40
0.0
 40
0.0
 40
0.0
 40
0.1336631620177682
 40
0.4825474586225851
 40
0.8156339738206084
 40
1.0
 40
1.0
 40
1.0
 40
1.0
 10
216.278615739933
 20
109.208926229928
 30
0.0
 10
216.2066764862886
 20
109.1994566088435
 30
0.0
 10
215.9469631629069
 20
109.1652696158122
 30
0.0
 10
215.4617856672741
 20
109.1014070502261
 30
0.0
 10
214.9407104733508
 20
109.0328161824412
 30
0.0
 10
214.6610263307494
 20
108.9960018324925
 30
0.0
 10
214.5613761216316
 20
108.9828850442584
 30
0.0
  0
SPLINE
  5
D6
330
1F
100
AcDbEntity
  8
0
  6
Continuous
 62
     7
370
    15
100
AcDbSpline
210
0.0
220
0.0
230
1.0
 70
     8
 71
     3
 72
    10
 73
     6
 74
     0
 42
0.000000001
 43
0.00000001
 40
0.0
 40
0.0
 40
0.0
 40
0.0
 40
0.4391165744807027
 40
0.7513666286987799
 40
0.9999999999999999
 40
0.9999999999999999
 40
0.9999999999999999
 40
0.9999999999999999
 10
216.9414789944801
 20
110.8091182747896
 30
0.0
 10
216.846584575592
 20
110.5800385838236
 30
0.0
 10
216.6842119762735
 20
110.1880633200612
 30
0.0
 10
216.4481793966074
 20
109.6182561143602
 30
0.0
 10
216.3306951826014
 20
109.3346469926601
 30
0.0
 10
216.278615739933
 20
109.208926229928
 30
0.0
  0
SPLINE
  5
D7
330
1F
100
AcDbEntity
  8
0
  6
Continuous
 62
     7
370
    15
100
AcDbSpline
210
0.0
220
0.0
230
1.0
 70
     8
 71
     3
 72
    10
 73
     6
 74
     0
 42
0.000000001
 43
0.00000001
 40
0.0
 40
0.0
 40
0.0
 40
0.0
 40
0.4391153844704505
 40
0.7513656546158795
 40
1.0
 40
1.0
 40
1.0
 40
1.0
 10
215.8871026307258
 20
112.1832691339817
 30
0.0
 10
216.0380435101247
 20
111.986548790625
 30
0.0
 10
216.2963168402531
 20
111.6499427076004
 30
0.0
 10
216.6717639062962
 20
111.160626066283
 30
0.0
 10
216.8586391381843
 20
110.917079809794
 30
0.0
 10
216.9414789944801
 20
110.8091182747896
 30
0.0
  0
SPLINE
  5
D8
330
1F
100
AcDbEntity
  8
0
  6
Continuous
 62
     7
370
    15
100
AcDbSpline
210
0.0
220
0.0
230
1.0
 70
     8
 71
     3
 72
    11
 73
     7
 74
     0
 42
0.000000001
 43
0.00000001
 40
0.0
 40
0.0
 40
0.0
 40
0.0
 40
0.1843660832311639
 40
0.5174526791974392
 40
0.8663330724643808
 40
1.0
 40
1.0
 40
1.0
 40
1.0
 10
214.1698630124245
 20
111.9572279483121
 30
0.0
 10
214.2695132004445
 20
111.9703448088394
 30
0.0
 10
214.5491972717757
 20
112.0071593601037
 30
0.0
 10
215.0702707729362
 20
112.0757489229694
 30
0.0
 10
215.5554457942057
 20
112.1396140376111
 30
0.0
 10
215.8151608500004
 20
112.1737996310955
 30
0.0
 10
215.8871026307258
 20
112.1832691339817
 30
0.0
  0
SPLINE
  5
D9
330
1F
100
AcDbEntity
  8
0
  6
Continuous
 62
     7
370
    15
100
AcDbSpline
210
0.0
220
0.0
230
1.0
 70
     8
 71
     3
 72
    10
 73
     6
 74
     0
 42
0.000000001
 43
0.00000001
 40
0.0
 40
0.0
 40
0.0
 40
0.0
 40
0.4391165744807027
 40
0.7513666286987799
 40
0.9999999999999999
 40
0.9999999999999999
 40
0.9999999999999999
 40
0.9999999999999999
 10
213.5069997578773
 20
110.3570359034504
 30
0.0
 10
213.6018941767655
 20
110.5861155944165
 30
0.0
 10
213.764266776084
 20
110.9780908581788
 30
0.0
 10
214.0002993557501
 20
111.5478980638799
 30
0.0
 10
214.1177835697561
 20
111.83150718558
 30
0.0
 10
214.1698630124245
 20
111.9572279483121
 30
0.0
  0
CIRCLE
  5
DA
330
1F
100
AcDbEntity
  8
0
  6
Continuous
 62
     7
370
    15
100
AcDbCircle
 10
215.2242402464
 20
110.5830770891
 30
0.0
 40
1.749999999999994
  0
SPLINE
  5
DB
330
1F
100
AcDbEntity
  8
0
  6
Continuous
 62
     7
370
    15
100
AcDbSpline
210
0.0
220
0.0
230
1.0
 70
     8
 71
     3
 72
    10
 73
     6
 74
     0
 42
0.000000001
 43
0.00000001
 40
0.0
 40
0.0
 40
0.0
 40
0.0
 40
0.4391153844704505
 40
0.7513656546158795
 40
1.0
 40
1.0
 40
1.0
 40
1.0
 10
214.5613761216316
 20
108.9828850442584
 30
0.0
 10
214.4104352422328
 20
109.1796053876151
 30
0.0
 10
214.1521619121044
 20
109.5162114706397
 30
0.0
 10
213.7767148460613
 20
110.0055281119571
 30
0.0
 10
213.5898396141732
 20
110.2490743684461
 30
0.0
 10
213.5069997578773
 20
110.3570359034504
 30
0.0
  0
CIRCLE
  5
DC
330
1F
100
AcDbEntity
  8
0
  6
Continuous
 62
     7
370
    15
100
AcDbCircle
 10
215.2242402464
 20
110.5830770891
 30
0.0
 40
2.599999999999997
  0
CIRCLE
  5
DD
330
1F
100
AcDbEntity
  8
0
  6
Continuous
 62
     7
370
    15
100
AcDbCircle
 10
215.2242402464
 20
110.5830770891
 30
0.0
 40
3.000000000000002
  0
ARC
  5
DE
330
1F
100
AcDbEntity
  8
0
  6
Continuous
 62
     7
370
    15
100
AcDbCircle
 10
215.2242402464
 20
110.5830770891
 30
0.0
 40
1.500000000000004
100
AcDbArc
 50
277.4987717191
 51
337.4987717191
  0
ARC
  5
DF
330
1F
100
AcDbEntity
  8
0
  6
Continuous
 62
     7
370
    15
100
AcDbCircle
 10
215.2242402464
 20
110.5830770891
 30
0.0
 40
1.500000000000004
100
AcDbArc
 50
337.4987717191
 51
37.4987717191
  0
ARC
  5
E0
330
1F
100
AcDbEntity
  8
0
  6
Continuous
 62
     7
370
    15
100
AcDbCircle
 10
215.2242402464
 20
110.5830770891
 30
0.0
 40
1.500000000000009
100
AcDbArc
 50
97.4987717191
 51
157.4987717191
  0
ARC
  5
E1
330
1F
100
AcDbEntity
  8
0
  6
Continuous
 62
     7
370
    15
100
AcDbCircle
 10
215.2242402464
 20
110.5830770891
 30
0.0
 40
1.499999999999996
100
AcDbArc
 50
217.4987717191
 51
277.4987717191
  0
ARC
  5
E2
330
1F
100
AcDbEntity
  8
0
  6
Continuous
 62
     7
370
    15
100
AcDbCircle
 10
215.2242402464
 20
110.5830770891
 30
0.0
 40
1.499999999999992
100
AcDbArc
 50
37.4987717191
 51
97.4987717191
  0
ARC
  5
E3
330
1F
100
AcDbEntity
  8
0
  6
Continuous
 62
     7
370
    15
100
AcDbCircle
 10
215.2242402464
 20
110.5830770891
 30
0.0
 40
1.500000000000009
100
AcDbArc
 50
157.4987717191
 51
217.4987717191
  0
ARC
  5
E4
330
1F
100
AcDbEntity
  8
0
  6
Continuous
 62
     7
370
    15
100
AcDbCircle
 10
161.2693594009
 20
101.3561438963
 30
0.0
 40
1.898360736635477
100
AcDbArc
 50
185.6273938271
 51
252.2367824487
  0
ARC
  5
E5
330
1F
100
AcDbEntity
  8
0
  6
Continuous
 62
     7
370
    15
100
AcDbCircle
 10
161.3763928618
 20
101.4788682598
 30
0.0
 40
2.048903624400285
100
AcDbArc
 50
250.4330940998
 51
331.8513008449
  0
ARC
  5
E6
330
1F
100
AcDbEntity
  8
0
  6
Continuous
 62
     7
370
    15
100
AcDbCircle
 10
161.2392157919
 20
101.2844143722
 30
0.0
 40
1.75904771915095
100
AcDbArc
 50
161.3320521925
 51
252.9823489314
  0
ARC
  5
E7
330
1F
100
AcDbEntity
  8
0
  6
Continuous
 62
     7
370
    15
100
AcDbCircle
 10
161.3841064103
 20
101.4117720737
 30
0.0
 40
1.925898184858402
100
AcDbArc
 50
249.9680640539
 51
335.5837713922
  0
ARC
  5
E8
330
1F
100
AcDbEntity
  8
0
  6
Continuous
 62
     7
370
    15
100
AcDbCircle
 10
161.290100582
 20
101.2898394752
 30
0.0
 40
1.401482323253009
100
AcDbArc
 50
87.159974872
 51
252.1800879249
  0
ARC
  5
E9
330
1F
100
AcDbEntity
  8
0
  6
Continuous
 62
     7
370
    15
100
AcDbCircle
 10
161.3903126506
 20
101.3521680428
 30
0.0
 40
1.493439973361717
100
AcDbArc
 50
249.2504121589
 51
349.8550577589
  0
SPLINE
  5
EA
330
1F
100
AcDbEntity
  8
0
  6
HIDDEN
 62
     7
370
     0
100
AcDbSpline
210
0.0
220
0.0
230
1.0
 70
     8
 71
     3
 72
     9
 73
     5
 74
     0
 42
0.000000001
 43
0.00000001
 40
0.0
 40
0.0
 40
0.0
 40
0.0
 40
0.9333113421934416
 40
1.0
 40
1.0
 40
1.0
 40
1.0
 10
159.398349334291
 20
102.8365380104672
 30
0.0
 10
159.3837735157422
 20
102.7355679224075
 30
0.0
 10
159.3681561993229
 20
102.6273831361578
 30
0.0
 10
159.375186054206
 20
102.5349006391829
 30
0.0
 10
159.3756548657927
 20
102.528733105589
 30
0.0
  0
LWPOLYLINE
  5
EB
330
1F
100
AcDbEntity
  8
0
  6
HIDDEN
 62
     7
370
     0
100
AcDbPolyline
 90
       21
 70
   128
 43
0.0
 10
159.3983493343
 20
102.2546690863
 10
159.5768792152
 20
101.7212987851
 10
159.9144948244
 20
101.2608873632
 10
160.381314677
 20
100.9141885649
 10
160.9360197157
 20
100.7118876066
 10
161.5295115456
 20
100.6718910273
 10
162.1092607796
 20
100.7977387842
 10
162.6239515439
 20
101.0782922592
 10
163.0280300572
 20
101.4887186673
 10
163.2857288763
 20
101.9926917713
 10
163.3742399111
 20
102.545604014
 10
163.2857288763
 20
103.0985153254
 10
163.0280300572
 20
103.6024884295
 10
162.6239515439
 20
104.0129153032
 10
162.1092607796
 20
104.2934687782
 10
161.5295115456
 20
104.4193165351
 10
160.9360197157
 20
104.3793199558
 10
160.381314677
 20
104.1770194631
 10
159.9144948244
 20
103.8303201992
 10
159.5768792152
 20
103.3699092429
 10
159.3983493343
 20
102.8365380105
  0
LWPOLYLINE
  5
EC
330
1F
100
AcDbEntity
  8
0
  6
HIDDEN
 62
     7
370
     0
100
AcDbPolyline
 90
       23
 70
   128
 43
0.0
 10
151.8244518496
 20
101.6848924544
 10
151.9681674957
 20
101.1047502022
 10
152.193754778
 20
100.5716080751
 10
152.4829374224
 20
100.1286570888
 10
152.8122880094
 20
99.8117829647
 10
153.1551246129
 20
99.6466576096
 10
153.4836723998
 20
99.6466576096
 10
153.7713141709
 20
99.8117829647
 10
153.9947473042
 20
100.1286570888
 10
154.1358706139
 20
100.5716080751
 10
154.1832507186
 20
101.1047502022
 10
154.1330496378
 20
101.6848924544
 10
153.9893339917
 20
102.2650347065
 10
153.7637467094
 20
102.7981772993
 10
153.474564065
 20
103.2411282856
 10
153.145213478
 20
103.5580019441
 10
152.8023768745
 20
103.7231277648
 10
152.4738290876
 20
103.7231277648
 10
152.1861870836
 20
103.5580019441
 10
151.9627539504
 20
103.2411282856
 10
151.8216308735
 20
102.7981772993
 10
151.774250536
 20
102.2650347065
 10
151.8244518496
 20
101.6848924544
  0
LWPOLYLINE
  5
ED
330
1F
100
AcDbEntity
  8
0
  6
HIDDEN
 62
     7
370
     0
100
AcDbPolyline
 90
       20
 70
   128
 43
0.0
 10
152.2059676766
 20
101.7170230832
 10
152.3429088823
 20
101.1916798513
 10
152.5632923998
 20
100.7232646432
 10
152.8432358585
 20
100.3625391956
 10
153.152403754
 20
100.1485929798
 10
153.4572926879
 20
100.1046103399
 10
153.7248630606
 20
100.2353577849
 10
153.9261195406
 20
100.5266671043
 10
154.0392528817
 20
100.9469692569
 10
154.0520036191
 20
101.4507197749
 10
153.9629892044
 20
101.9833273228
 10
153.7818567425
 20
102.4870769095
 10
153.5282338567
 20
102.9073795278
 10
153.2296052731
 20
103.1986883815
 10
152.9183316573
 20
103.3294358265
 10
152.6281441159
 20
103.2854536522
 10
152.390489687
 20
103.0715074364
 10
152.2311210696
 20
102.7107815232
 10
152.1673087094
 20
102.2423672464
 10
152.2059676766
 20
101.7170230832
  0
ELLIPSE
  5
EE
330
1F
100
AcDbEntity
  8
0
  6
HIDDEN
 62
     7
370
     0
100
AcDbEllipse
 10
161.3742402464
 20
103.6954870286
 30
0.0
 11
1.383467579512086
 21
-1.091267719176599
 31
0.0
210
0.0
220
0.0
230
1.0
 40
0.8239737799
 41
2.147131942757453
 42
5.28872459634726
  0
ELLIPSE
  5
EF
330
1F
100
AcDbEntity
  8
0
  6
HIDDEN
 62
     7
370
     0
100
AcDbEllipse
 10
161.3742402464
 20
103.6954870286
 30
0.0
 11
1.383467579512086
 21
1.753907414218489
 31
0.0
210
0.0
220
0.0
230
1.0
 40
0.5126701559
 41
0.9944607108323444
 42
4.13605336442215
  0
SPLINE
  5
F0
330
1F
100
AcDbEntity
  8
0
  6
HIDDEN
 62
     7
370
     0
100
AcDbSpline
210
0.0
220
0.0
230
1.0
 70
     8
 71
     3
 72
    14
 73
    10
 74
     0
 42
0.000000001
 43
0.00000001
 40
0.0
 40
0.0
 40
0.0
 40
0.0
 40
0.25
 40
0.25
 40
0.5
 40
0.5
 40
0.75
 40
0.75
 40
1.0
 40
1.0
 40
1.0
 40
1.0
 10
159.3983494837662
 20
102.2546695222822
 30
0.0
 10
159.4347133117964
 20
102.3001641576841
 30
0.0
 10
159.4671910390066
 20
102.3485559639003
 30
0.0
 10
159.5159446684223
 20
102.4540411078299
 30
0.0
 10
159.5308484460968
 20
102.5106256160728
 30
0.0
 10
159.5308588797544
 20
102.6195132100233
 30
0.0
 10
159.5159685839463
 20
102.6716978757859
 30
0.0
 10
159.4670796530687
 20
102.7629752747294
 30
0.0
 10
159.4347074747983
 20
102.8016419801036
 30
0.0
 10
159.3983494837662
 20
102.8365379196514
 30
0.0
  0
LWPOLYLINE
  5
F1
330
1F
100
AcDbEntity
  8
0
  6
HIDDEN
 62
     7
370
     0
100
AcDbPolyline
 90
       20
 70
   128
 43
0.0
 10
161.3742405146
 20
101.0386803161
 10
161.9099940702
 20
101.122690269
 10
162.3876908392
 20
101.3656164493
 10
162.7555651188
 20
101.7411340933
 10
162.9737507149
 20
102.2085499924
 10
163.0186050728
 20
102.7172123056
 10
162.8852666885
 20
103.2119993094
 10
162.5881850317
 20
103.639293832
 10
162.15955313
 20
103.9527914461
 10
161.645821628
 20
104.1185198326
 10
161.1026594013
 20
104.1185198326
 10
160.588926968
 20
103.9527914461
 10
160.1602959976
 20
103.639293832
 10
159.8632143408
 20
103.2119993094
 10
159.7298759565
 20
102.7172123056
 10
159.774729383
 20
102.2085499924
 10
159.9929159105
 20
101.7411340933
 10
160.3607892588
 20
101.3656164493
 10
160.8384860277
 20
101.122690269
 10
161.3742405146
 20
101.0386803161
  0
SPLINE
  5
F2
330
1F
100
AcDbEntity
  8
0
  6
HIDDEN
 62
     7
370
     0
100
AcDbSpline
210
0.0
220
0.0
230
1.0
 70
    11
 71
     3
 72
    60
 73
    56
 74
     0
 42
0.000000001
 43
0.00000001
 40
0.0
 40
0.0
 40
0.0
 40
0.0
 40
0.0312500000000002
 40
0.0312500000000002
 40
0.0625000000000004
 40
0.0625000000000004
 40
0.1250000000000003
 40
0.1250000000000003
 40
0.1875000000000002
 40
0.1875000000000002
 40
0.2187500000000001
 40
0.2187500000000001
 40
0.2499999999999999
 40
0.2499999999999999
 40
0.2812499999999997
 40
0.2812499999999997
 40
0.3124999999999996
 40
0.3124999999999996
 40
0.3437499999999994
 40
0.3437499999999994
 40
0.3749999999999993
 40
0.3749999999999993
 40
0.4062499999999991
 40
0.4062499999999991
 40
0.4374999999999989
 40
0.4374999999999989
 40
0.4999999999999987
 40
0.4999999999999987
 40
0.5312499999999988
 40
0.5312499999999988
 40
0.5624999999999988
 40
0.5624999999999988
 40
0.5937499999999989
 40
0.5937499999999989
 40
0.6249999999999989
 40
0.6249999999999989
 40
0.656249999999999
 40
0.656249999999999
 40
0.6874999999999991
 40
0.6874999999999991
 40
0.7187499999999991
 40
0.7187499999999991
 40
0.7499999999999992
 40
0.7499999999999992
 40
0.8124999999999994
 40
0.8124999999999994
 40
0.8437499999999997
 40
0.8437499999999997
 40
0.8749999999999998
 40
0.8749999999999998
 40
0.90625
 40
0.90625
 40
0.9375000000000002
 40
0.9375000000000002
 40
1.0
 40
1.0
 40
1.0
 40
1.0
 10
161.3742402464066
 20
107.6930174985599
 30
0.0
 10
161.2640473354363
 20
107.6930174985599
 30
0.0
 10
161.1559381321488
 20
107.7016927676505
 30
0.0
 10
160.9436329776624
 20
107.7357090651939
 30
0.0
 10
160.8383243142034
 20
107.761513110291
 30
0.0
 10
160.5395263535949
 20
107.8623306624035
 30
0.0
 10
160.3581041492089
 20
107.9621666792093
 30
0.0
 10
160.0568982485519
 20
108.2158025943287
 30
0.0
 10
159.9343437697598
 20
108.3725113967215
 30
0.0
 10
159.8102103191405
 20
108.6365544710481
 30
0.0
 10
159.7779072023046
 20
108.731177229697
 30
0.0
 10
159.7350575404726
 20
108.9262650259454
 30
0.0
 10
159.7243123729601
 20
109.0261558496651
 30
0.0
 10
159.7241688366071
 20
109.2307833844447
 30
0.0
 10
159.7351519576435
 20
109.3360774227922
 30
0.0
 10
159.7778236171707
 20
109.5414808595212
 30
0.0
 10
159.8093865112781
 20
109.6428218468704
 30
0.0
 10
159.8933516067659
 20
109.8424195281885
 30
0.0
 10
159.9443861597666
 20
109.9374310782123
 30
0.0
 10
160.0636194905453
 20
110.1179159891577
 30
0.0
 10
160.1326785478799
 20
110.2041753973268
 30
0.0
 10
160.2839770717342
 20
110.3609153354667
 30
0.0
 10
160.3662097764892
 20
110.4318056956598
 30
0.0
 10
160.5443222936374
 20
110.5579585603159
 30
0.0
 10
160.6404571778417
 20
110.6130041584336
 30
0.0
 10
160.9377038629606
 20
110.7456689319911
 30
0.0
 10
161.1567616037396
 20
110.7939304477599
 30
0.0
 10
161.4822152786274
 20
110.7940393689559
 30
0.0
 10
161.5920518798204
 20
110.782275643996
 30
0.0
 10
161.8059841768029
 20
110.7358695817676
 30
0.0
 10
161.9092238377463
 20
110.7017305388567
 30
0.0
 10
162.1086528943088
 20
110.6127233888232
 30
0.0
 10
162.2047454015823
 20
110.5575715181074
 30
0.0
 10
162.3822894511483
 20
110.4317634682671
 30
0.0
 10
162.4649860182616
 20
110.3605520724305
 30
0.0
 10
162.6174605766267
 20
110.2023184904185
 30
0.0
 10
162.6851374976684
 20
110.1175272077564
 30
0.0
 10
162.8041151619371
 20
109.9373697218609
 30
0.0
 10
162.8558594451374
 20
109.8408232635007
 30
0.0
 10
162.9390361517935
 20
109.6428177932403
 30
0.0
 10
162.9705471887425
 20
109.5418845372249
 30
0.0
 10
163.0132827961943
 20
109.3364214483876
 30
0.0
 10
163.0242885006145
 20
109.2310090577909
 30
0.0
 10
163.0241432476109
 20
108.9243859160504
 30
0.0
 10
162.9797903590266
 20
108.7247414433966
 30
0.0
 10
162.855205150745
 20
108.4599329512251
 30
0.0
 10
162.803421337079
 20
108.3758327791116
 30
0.0
 10
162.6834636587488
 20
108.2217472064681
 30
0.0
 10
162.615612596753
 20
108.1517008682916
 30
0.0
 10
162.4640868579978
 20
108.024368016329
 30
0.0
 10
162.3801175847349
 20
107.9672040215737
 30
0.0
 10
162.202626316396
 20
107.8695234443566
 30
0.0
 10
162.1083447814417
 20
107.8282754358812
 30
0.0
 10
161.8074596742123
 20
107.7270821889488
 30
0.0
 10
161.5946260683472
 20
107.6930174985599
 30
0.0
 10
161.3742402464066
 20
107.6930174985598
 30
0.0
  0
ELLIPSE
  5
F3
330
1F
100
AcDbEntity
  8
0
  6
HIDDEN
 62
     7
370
     0
100
AcDbEllipse
 10
161.3742402464
 20
103.6954870286
 30
0.0
 11
1.383467579512086
 21
-1.091267719176599
 31
0.0
210
0.0
220
0.0
230
1.0
 40
0.8239737799
 41
5.288724596347254
 42
5.331125843625743
  0
SPLINE
  5
F4
330
1F
100
AcDbEntity
  8
0
  6
HIDDEN
 62
     7
370
     0
100
AcDbSpline
210
0.0
220
0.0
230
1.0
 70
     8
 71
     3
 72
     8
 73
     4
 74
     0
 42
0.000000001
 43
0.00000001
 40
0.0
 40
0.0
 40
0.0
 40
0.0
 40
1.0
 40
1.0
 40
1.0
 40
1.0
 10
161.4441813425689
 20
102.1339351627479
 30
0.0
 10
161.4271966164617
 20
102.1410508727995
 30
0.0
 10
161.4101924719158
 20
102.1489260023234
 30
0.0
 10
161.3931935878315
 20
102.1575491217803
 30
0.0
  0
ELLIPSE
  5
F5
330
1F
100
AcDbEntity
  8
0
  6
HIDDEN
 62
     7
370
     0
100
AcDbEllipse
 10
161.3742402464
 20
103.6954870286
 30
0.0
 11
1.383467579512086
 21
1.753907414218489
 31
0.0
210
0.0
220
0.0
230
1.0
 40
0.5126701559
 41
4.13605336442216
 42
4.147540490640238
  0
ELLIPSE
  5
F6
330
1F
100
AcDbEntity
  8
0
  6
HIDDEN
 62
     7
370
     0
100
AcDbEllipse
 10
161.3742402464
 20
103.6954870286
 30
0.0
 11
1.383467579512086
 21
1.753907414218489
 31
0.0
210
0.0
220
0.0
230
1.0
 40
0.5126701559
 41
0.9829735846145041
 42
0.9944607108323534
  0
SPLINE
  5
F7
330
1F
100
AcDbEntity
  8
0
  6
HIDDEN
 62
     7
370
     0
100
AcDbSpline
210
0.0
220
0.0
230
1.0
 70
     8
 71
     3
 72
     8
 73
     4
 74
     0
 42
0.000000001
 43
0.00000001
 40
0.0
 40
0.0
 40
0.0
 40
0.0
 40
1.0
 40
1.0
 40
1.0
 40
1.0
 10
161.3931935878314
 20
105.2583301787864
 30
0.0
 10
161.4101924719157
 20
105.2503469052709
 30
0.0
 10
161.4271966164618
 20
105.2416105028206
 30
0.0
 10
161.444181342569
 20
105.2321336509801
 30
0.0
  0
ELLIPSE
  5
F8
330
1F
100
AcDbEntity
  8
0
  6
HIDDEN
 62
     7
370
     0
100
AcDbEllipse
 10
161.3742402464
 20
103.6954870286
 30
0.0
 11
1.383467579512086
 21
-1.091267719176599
 31
0.0
210
0.0
220
0.0
230
1.0
 40
0.8239737799
 41
2.104730695478903
 42
2.147131942757448
  0
CIRCLE
  5
F9
330
1F
100
AcDbEntity
  8
0
  6
HIDDEN
 62
     7
370
     0
100
AcDbCircle
 10
215.2242402464
 20
110.5830770891
 30
0.0
 40
2.625000000000014
  0
LINE
  5
FA
330
1F
100
AcDbEntity
  8
0
  6
HIDDEN
 62
     7
370
     0
100
AcDbLine
 10
222.1361653477
 20
101.0580769714
 30
0.0
 11
222.1361653477
 21
102.3899287891
 31
0.0
  0
LINE
  5
FB
330
1F
100
AcDbEntity
  8
0
  6
HIDDEN
 62
     7
370
     0
100
AcDbLine
 10
222.1361653477
 20
118.7762253892
 30
0.0
 11
222.1361653477
 21
120.1080772068
 31
0.0
  0
LINE
  5
FC
330
1F
100
AcDbEntity
  8
0
  6
HIDDEN
 62
     7
370
     0
100
AcDbLine
 10
222.1770839363
 20
118.7573782142
 30
0.0
 11
222.1361653477
 21
118.7762253892
 31
0.0
  0
SPLINE
  5
FD
330
1F
100
AcDbEntity
  8
0
  6
HIDDEN
 62
     7
370
     0
100
AcDbSpline
210
0.0
220
0.0
230
1.0
 70
     8
 71
     3
 72
     8
 73
     4
 74
     0
 42
0.000000001
 43
0.00000001
 40
0.0
 40
0.0
 40
0.0
 40
0.0
 40
1.0
 40
1.0
 40
1.0
 40
1.0
 10
222.0242402464065
 20
115.6966084442163
 30
0.0
 10
222.0573901923417
 20
115.8256917105504
 30
0.0
 10
222.0913455605004
 20
115.9545075978528
 30
0.0
 10
222.1260431440869
 20
116.08307708912
 30
0.0
  0
LINE
  5
FE
330
1F
100
AcDbEntity
  8
0
  6
HIDDEN
 62
     7
370
     0
100
AcDbLine
 10
222.024242726
 20
105.4695457194
 30
0.0
 11
222.024242726
 21
115.6966084588
 31
0.0
  0
SPLINE
  5
FF
330
1F
100
AcDbEntity
  8
0
  6
HIDDEN
 62
     7
370
     0
100
AcDbSpline
210
0.0
220
0.0
230
1.0
 70
     8
 71
     3
 72
     8
 73
     4
 74
     0
 42
0.000000001
 43
0.00000001
 40
0.0
 40
0.0
 40
0.0
 40
0.0
 40
1.0
 40
1.0
 40
1.0
 40
1.0
 10
222.1260431440869
 20
105.08307708912
 30
0.0
 10
222.0913408855016
 20
105.211663903271
 30
0.0
 10
222.0573856038303
 20
105.3404803349901
 30
0.0
 10
222.0242402464065
 20
105.4695457340238
 30
0.0
  0
LINE
  5
100
330
1F
100
AcDbEntity
  8
0
  6
HIDDEN
 62
     7
370
     0
100
AcDbLine
 10
222.1361653477
 20
102.3899287891
 30
0.0
 11
222.1775458723
 21
102.4074134391
 31
0.0
  0
LINE
  5
101
330
1F
100
AcDbEntity
  8
0
  6
HIDDEN
 62
     7
370
     0
100
AcDbLine
 10
151.5742401656
 20
135.3830778014
 30
0.0
 11
151.9114986125
 21
135.3830778014
 31
0.0
  0
ELLIPSE
  5
102
330
1F
100
AcDbEntity
  8
0
  6
HIDDEN
 62
     7
370
     0
100
AcDbEllipse
 10
151.9114985466
 20
136.9830770891
 30
0.0
 11
0.0
 21
1.600000000000023
 31
0.0
210
0.0
220
0.0
230
1.0
 40
0.4142135624
 41
3.141592653589793
 42
4.712388980384695
  0
LINE
  5
103
330
1F
100
AcDbEntity
  8
0
  6
HIDDEN
 62
     7
370
     0
100
AcDbLine
 10
151.9114986125
 20
87.9830763649
 30
0.0
 11
151.5742401656
 21
87.9830763649
 31
0.0
  0
ELLIPSE
  5
104
330
1F
100
AcDbEntity
  8
0
  6
HIDDEN
 62
     7
370
     0
100
AcDbEllipse
 10
151.9114985466
 20
86.3830770891
 30
0.0
 11
0.0
 21
1.600000000000009
 31
0.0
210
0.0
220
0.0
230
1.0
 40
0.4142135624
 41
4.712388980384695
 42
6.283185307179586
  0
LINE
  5
105
330
1F
100
AcDbEntity
  8
0
  6
HIDDEN
 62
     7
370
     0
100
AcDbLine
 10
152.5742400966
 20
80.6896285128
 30
0.0
 11
151.7903847683
 21
80.2313470256
 31
0.0
  0
LINE
  5
106
330
1F
100
AcDbEntity
  8
0
  6
HIDDEN
 62
     7
370
     0
100
AcDbLine
 10
151.8614819337
 20
141.0083741855
 30
0.0
 11
152.5742400966
 21
140.2956143927
 31
0.0
  0
LINE
  5
107
330
1F
100
AcDbEntity
  8
0
  6
HIDDEN
 62
     7
370
     0
100
AcDbLine
 10
87.1242390543
 20
102.0830766272
 30
0.0
 11
87.1242390543
 21
119.0830775511
 31
0.0
  0
LINE
  5
108
330
1F
100
AcDbEntity
  8
0
  6
HIDDEN
 62
     7
370
     0
100
AcDbLine
 10
90.1201696664
 20
103.5830768731
 30
0.0
 11
90.1201696664
 21
117.5830773052
 31
0.0
  0
LINE
  5
109
330
1F
100
AcDbEntity
  8
0
  6
HIDDEN
 62
     7
370
     0
100
AcDbLine
 10
156.4094502076
 20
80.6896285128
 30
0.0
 11
152.5742400966
 21
80.6896285128
 31
0.0
  0
LINE
  5
10A
330
1F
100
AcDbEntity
  8
0
  6
HIDDEN
 62
     7
370
     0
100
AcDbLine
 10
167.4242404818
 20
80.6896285128
 30
0.0
 11
162.5390298262
 21
80.6896285128
 31
0.0
  0
LINE
  5
10B
330
1F
100
AcDbEntity
  8
0
  6
HIDDEN
 62
     7
370
     0
100
AcDbLine
 10
152.5742400966
 20
80.6896285128
 30
0.0
 11
152.5742400966
 21
86.3830772203
 31
0.0
  0
LINE
  5
10C
330
1F
100
AcDbEntity
  8
0
  6
HIDDEN
 62
     7
370
     0
100
AcDbLine
 10
167.4242404818
 20
87.9830763649
 30
0.0
 11
151.9114986125
 21
87.9830763649
 31
0.0
  0
LINE
  5
10D
330
1F
100
AcDbEntity
  8
0
  6
HIDDEN
 62
     7
370
     0
100
AcDbLine
 10
152.5742400966
 20
140.2956143927
 30
0.0
 11
156.5102854341
 21
140.2956143927
 31
0.0
  0
LINE
  5
10E
330
1F
100
AcDbEntity
  8
0
  6
HIDDEN
 62
     7
370
     0
100
AcDbLine
 10
162.4381945997
 20
140.2956143927
 30
0.0
 11
167.4242404818
 21
140.2956143927
 31
0.0
  0
LINE
  5
10F
330
1F
100
AcDbEntity
  8
0
  6
HIDDEN
 62
     7
370
     0
100
AcDbLine
 10
152.5742400966
 20
140.2956143927
 30
0.0
 11
152.5742400966
 21
136.9830769461
 31
0.0
  0
LINE
  5
110
330
1F
100
AcDbEntity
  8
0
  6
HIDDEN
 62
     7
370
     0
100
AcDbLine
 10
151.9114986125
 20
135.3830778014
 30
0.0
 11
167.4242404818
 21
135.3830778014
 31
0.0
  0
LINE
  5
111
330
1F
100
AcDbEntity
  8
0
  6
HIDDEN
 62
     7
370
     0
100
AcDbLine
 10
219.6242393523
 20
108.5987634931
 30
0.0
 11
219.6242393523
 21
112.5673906852
 31
0.0
  0
LINE
  5
112
330
1F
100
AcDbEntity
  8
0
  6
HIDDEN
 62
     7
370
     0
100
AcDbLine
 10
220.2921913534
 20
108.5987634931
 30
0.0
 11
220.2921913534
 21
112.5673906852
 31
0.0
  0
LINE
  5
113
330
1F
100
AcDbEntity
  8
0
  6
HIDDEN
 62
     7
370
     0
100
AcDbLine
 10
219.6242393523
 20
118.7762253892
 30
0.0
 11
222.1361653477
 21
118.7762253892
 31
0.0
  0
LINE
  5
114
330
1F
100
AcDbEntity
  8
0
  6
HIDDEN
 62
     7
370
     0
100
AcDbLine
 10
219.6242393523
 20
118.7830771294
 30
0.0
 11
219.6242393523
 21
116.0830770593
 31
0.0
  0
LINE
  5
115
330
1F
100
AcDbEntity
  8
0
  6
HIDDEN
 62
     7
370
     0
100
AcDbLine
 10
219.6242393523
 20
112.5673906852
 30
0.0
 11
220.2921913534
 21
112.5673906852
 31
0.0
  0
LINE
  5
116
330
1F
100
AcDbEntity
  8
0
  6
HIDDEN
 62
     7
370
     0
100
AcDbLine
 10
219.6242393523
 20
116.0830770593
 30
0.0
 11
219.6242393523
 21
112.5673906852
 31
0.0
  0
SPLINE
  5
117
330
1F
100
AcDbEntity
  8
0
  6
HIDDEN
 62
     7
370
     0
100
AcDbSpline
210
0.0
220
0.0
230
1.0
 70
     8
 71
     3
 72
    10
 73
     6
 74
     0
 42
0.000000001
 43
0.00000001
 40
0.0
 40
0.0
 40
0.0
 40
0.0
 40
0.5
 40
0.5
 40
1.0
 40
1.0
 40
1.0
 40
1.0
 10
220.2921894388377
 20
112.5673905724185
 30
0.0
 10
220.4981557390907
 20
113.046809575095
 30
0.0
 10
220.7606044675722
 20
113.4978541648458
 30
0.0
 10
221.35595084076
 20
114.3645527511695
 30
0.0
 10
221.6818454335113
 20
114.7700101387595
 30
0.0
 10
222.0242402464065
 20
115.1588283935508
 30
0.0
  0
LINE
  5
118
330
1F
100
AcDbEntity
  8
0
  6
HIDDEN
 62
     7
370
     0
100
AcDbLine
 10
219.6242393523
 20
102.3899287891
 30
0.0
 11
222.1361653477
 21
102.3899287891
 31
0.0
  0
LINE
  5
119
330
1F
100
AcDbEntity
  8
0
  6
HIDDEN
 62
     7
370
     0
100
AcDbLine
 10
219.6242393523
 20
105.0830771189
 30
0.0
 11
219.6242393523
 21
102.3830770489
 31
0.0
  0
LINE
  5
11A
330
1F
100
AcDbEntity
  8
0
  6
HIDDEN
 62
     7
370
     0
100
AcDbLine
 10
220.2921913534
 20
108.5987634931
 30
0.0
 11
219.6242393523
 21
108.5987634931
 31
0.0
  0
LINE
  5
11B
330
1F
100
AcDbEntity
  8
0
  6
HIDDEN
 62
     7
370
     0
100
AcDbLine
 10
219.6242393523
 20
108.5987634931
 30
0.0
 11
219.6242393523
 21
105.0830771189
 31
0.0
  0
SPLINE
  5
11C
330
1F
100
AcDbEntity
  8
0
  6
HIDDEN
 62
     7
370
     0
100
AcDbSpline
210
0.0
220
0.0
230
1.0
 70
     8
 71
     3
 72
    10
 73
     6
 74
     0
 42
0.000000001
 43
0.00000001
 40
0.0
 40
0.0
 40
0.0
 40
0.0
 40
0.5
 40
0.5
 40
1.0
 40
1.0
 40
1.0
 40
1.0
 10
222.0242402464065
 20
106.0073257846893
 30
0.0
 10
221.6809921674818
 20
106.3971129951889
 30
0.0
 10
221.3530404830119
 20
106.8056989150481
 30
0.0
 10
220.7617456383563
 20
107.6667785055676
 30
0.0
 10
220.4993085197314
 20
108.1166613246456
 30
0.0
 10
220.2921894388377
 20
108.5987636058216
 30
0.0
  0
LINE
  5
11D
330
1F
100
AcDbEntity
  8
0
  6
HIDDEN
 62
     7
370
     0
100
AcDbLine
 10
219.0242366463
 20
103.5830768731
 30
0.0
 11
219.0242366463
 21
117.5830773052
 31
0.0
  0
LINE
  5
11E
330
1F
100
AcDbEntity
  8
0
  6
HIDDEN
 62
     7
370
     0
100
AcDbLine
 10
207.4742385715
 20
103.9830771249
 30
0.0
 11
207.4742385715
 21
117.1830770534
 31
0.0
  0
LINE
  5
11F
330
1F
100
AcDbEntity
  8
0
  6
HIDDEN
 62
     7
370
     0
100
AcDbLine
 10
209.4742388993
 20
103.5830768731
 30
0.0
 11
209.4742388993
 21
117.5830773052
 31
0.0
  0
LINE
  5
120
330
1F
100
AcDbEntity
  8
0
  6
HIDDEN
 62
     7
370
     0
100
AcDbLine
 10
123.1242393672
 20
103.5830768731
 30
0.0
 11
123.1242393672
 21
117.5830773052
 31
0.0
  0
LINE
  5
121
330
1F
100
AcDbEntity
  8
0
  6
HIDDEN
 62
     7
370
     0
100
AcDbLine
 10
124.7766067803
 20
106.3330768582
 30
0.0
 11
124.7766067803
 21
114.8330773201
 31
0.0
  0
LINE
  5
122
330
1F
100
AcDbEntity
  8
0
  6
HIDDEN
 62
     7
370
     0
100
AcDbLine
 10
219.6242393523
 20
120.1080772068
 30
0.0
 11
219.6242393523
 21
118.7762253892
 31
0.0
  0
LINE
  5
123
330
1F
100
AcDbEntity
  8
0
  6
HIDDEN
 62
     7
370
     0
100
AcDbLine
 10
219.6242393523
 20
102.3899287891
 30
0.0
 11
219.6242393523
 21
101.0580769714
 31
0.0
  0
SPLINE
  5
124
330
1F
100
AcDbEntity
  8
0
  6
HIDDEN
 62
     7
370
     0
100
AcDbSpline
210
0.0
220
0.0
230
1.0
 70
    11
 71
     3
 72
    60
 73
    56
 74
     0
 42
0.000000001
 43
0.00000001
 40
0.0
 40
0.0
 40
0.0
 40
0.0
 40
0.0312499999999997
 40
0.0312499999999997
 40
0.0624999999999995
 40
0.0624999999999995
 40
0.1249999999999989
 40
0.1249999999999989
 40
0.1874999999999984
 40
0.1874999999999984
 40
0.2187499999999983
 40
0.2187499999999983
 40
0.2499999999999981
 40
0.2499999999999981
 40
0.2812499999999979
 40
0.2812499999999979
 40
0.3124999999999977
 40
0.3124999999999977
 40
0.3437499999999977
 40
0.3437499999999977
 40
0.3749999999999976
 40
0.3749999999999976
 40
0.4062499999999974
 40
0.4062499999999974
 40
0.4374999999999973
 40
0.4374999999999973
 40
0.4999999999999971
 40
0.4999999999999971
 40
0.5312499999999973
 40
0.5312499999999973
 40
0.5624999999999974
 40
0.5624999999999974
 40
0.5937499999999977
 40
0.5937499999999977
 40
0.6249999999999978
 40
0.6249999999999978
 40
0.656249999999998
 40
0.656249999999998
 40
0.6874999999999982
 40
0.6874999999999982
 40
0.7187499999999983
 40
0.7187499999999983
 40
0.7499999999999986
 40
0.7499999999999986
 40
0.8124999999999989
 40
0.8124999999999989
 40
0.8437499999999991
 40
0.8437499999999991
 40
0.8749999999999992
 40
0.8749999999999992
 40
0.9062499999999994
 40
0.9062499999999994
 40
0.9374999999999997
 40
0.9374999999999997
 40
1.0
 40
1.0
 40
1.0
 40
1.0
 10
161.3742402464066
 20
110.3721510310867
 30
0.0
 10
161.4844331573769
 20
110.3721510310867
 30
0.0
 10
161.5925423606643
 20
110.3840086533914
 30
0.0
 10
161.8048475151507
 20
110.4300143802816
 30
0.0
 10
161.9101561786097
 20
110.4647742325953
 30
0.0
 10
162.2089541392182
 20
110.5983280707597
 30
0.0
 10
162.3903763436043
 20
110.7282364839032
 30
0.0
 10
162.6915822442612
 20
111.0406949710135
 30
0.0
 10
162.8141367230533
 20
111.2264724538411
 30
0.0
 10
162.9382701736726
 20
111.5212832023447
 30
0.0
 10
162.9705732905086
 20
111.6242622887659
 30
0.0
 10
163.0134229523405
 20
111.8305399284708
 30
0.0
 10
163.024168119853
 20
111.9333079133902
 30
0.0
 10
163.024311656206
 20
112.1379735669086
 30
0.0
 10
163.0133285351697
 20
112.2403276531027
 30
0.0
 10
162.9706568756424
 20
112.43458776211
 30
0.0
 10
162.939093981535
 20
112.5277560708536
 30
0.0
 10
162.8551288860473
 20
112.7065395914957
 30
0.0
 10
162.8040943330466
 20
112.7892569832074
 30
0.0
 10
162.6848610022678
 20
112.9428085986214
 30
0.0
 10
162.6158019449333
 20
113.0142590593746
 30
0.0
 10
162.4645034210789
 20
113.141471101762
 30
0.0
 10
162.3822707163239
 20
113.1976139856092
 30
0.0
 10
162.2041581991757
 20
113.2959357984532
 30
0.0
 10
162.1080233149714
 20
113.3379300926045
 30
0.0
 10
161.8107766298525
 20
113.438069202881
 30
0.0
 10
161.5917188890735
 20
113.4730833107818
 30
0.0
 10
161.2662652141857
 20
113.4731632702418
 30
0.0
 10
161.1564286129927
 20
113.464557865819
 30
0.0
 10
160.9424963160103
 20
113.4302450703448
 30
0.0
 10
160.8392566550668
 20
113.4049032571501
 30
0.0
 10
160.6398275985043
 20
113.3377181679654
 30
0.0
 10
160.5437350912308
 20
113.2956361829067
 30
0.0
 10
160.3661910416648
 20
113.1975790273428
 30
0.0
 10
160.2834944745516
 20
113.141189563019
 30
0.0
 10
160.1310199161864
 20
113.0127384933693
 30
0.0
 10
160.0633429951447
 20
112.9424809767363
 30
0.0
 10
159.944365330876
 20
112.7892016323682
 30
0.0
 10
159.8926210476758
 20
112.7051224556087
 30
0.0
 10
159.8094443410196
 20
112.5277396677245
 30
0.0
 10
159.7779333040706
 20
112.4349630254495
 30
0.0
 10
159.7351976966188
 20
112.2406595057979
 30
0.0
 10
159.7241919921986
 20
112.1381930908596
 30
0.0
 10
159.7243372452022
 20
111.8315313744882
 30
0.0
 10
159.7686901337865
 20
111.6197594900897
 30
0.0
 10
159.8932753420681
 20
111.3240741490153
 30
0.0
 10
159.9450591557342
 20
111.2274976211762
 30
0.0
 10
160.0650168340644
 20
111.0463333728607
 30
0.0
 10
160.1328678960601
 20
110.9617440541612
 30
0.0
 10
160.2843936348153
 20
110.8048460213683
 30
0.0
 10
160.3683629080782
 20
110.7326497904152
 30
0.0
 10
160.5458541764172
 20
110.6072879471862
 30
0.0
 10
160.6401357113714
 20
110.5532215940752
 30
0.0
 10
160.9410208186008
 20
110.4191496120592
 30
0.0
 10
161.1538544244659
 20
110.3721510310867
 30
0.0
 10
161.3742402464065
 20
110.3721510310867
 30
0.0
  0
ELLIPSE
  5
125
330
1F
100
AcDbEntity
  8
0
  6
HIDDEN
 62
     7
370
     0
100
AcDbEllipse
 10
161.3742402464
 20
117.4706671497
 30
0.0
 11
-1.383467579512143
 21
1.753907414218517
 31
0.0
210
0.0
220
0.0
230
1.0
 40
0.5126701559
 41
5.277237470118855
 42
5.288724596347228
  0
ELLIPSE
  5
126
330
1F
100
AcDbEntity
  8
0
  6
HIDDEN
 62
     7
370
     0
100
AcDbEllipse
 10
161.3742402464
 20
117.4706671497
 30
0.0
 11
1.383467579512086
 21
1.091267719176599
 31
0.0
210
0.0
220
0.0
230
1.0
 40
0.8239737799
 41
0.9944607108323362
 42
4.136053364422125
  0
ELLIPSE
  5
127
330
1F
100
AcDbEntity
  8
0
  6
HIDDEN
 62
     7
370
     0
100
AcDbEllipse
 10
161.3742402464
 20
117.4706671497
 30
0.0
 11
-1.383467579512143
 21
1.753907414218517
 31
0.0
210
0.0
220
0.0
230
1.0
 40
0.5126701559
 41
2.147131942757405
 42
2.158619068975731
  0
SPLINE
  5
128
330
1F
100
AcDbEntity
  8
0
  6
HIDDEN
 62
     7
370
     0
100
AcDbSpline
210
0.0
220
0.0
230
1.0
 70
     8
 71
     3
 72
     8
 73
     4
 74
     0
 42
0.000000001
 43
0.00000001
 40
0.0
 40
0.0
 40
0.0
 40
0.0
 40
1.0
 40
1.0
 40
1.0
 40
1.0
 10
161.3931935878575
 20
115.9078239994661
 30
0.0
 10
161.4101924719244
 20
115.9158072729741
 30
0.0
 10
161.427196616453
 20
115.9245436754154
 30
0.0
 10
161.4441813425429
 20
115.9340205272455
 30
0.0
  0
ELLIPSE
  5
129
330
1F
100
AcDbEntity
  8
0
  6
HIDDEN
 62
     7
370
     0
100
AcDbEllipse
 10
161.3742402464
 20
117.4706671497
 30
0.0
 11
1.383467579512086
 21
1.091267719176599
 31
0.0
210
0.0
220
0.0
230
1.0
 40
0.8239737799
 41
4.136053364422137
 42
4.178454611684751
  0
ELLIPSE
  5
12A
330
1F
100
AcDbEntity
  8
0
  6
HIDDEN
 62
     7
370
     0
100
AcDbEllipse
 10
161.3742402464
 20
117.4706671497
 30
0.0
 11
-1.383467579512143
 21
1.753907414218517
 31
0.0
210
0.0
220
0.0
230
1.0
 40
0.5126701559
 41
5.288724596347226
 42
8.430317249936989
  0
ELLIPSE
  5
12B
330
1F
100
AcDbEntity
  8
0
  6
HIDDEN
 62
     7
370
     0
100
AcDbEllipse
 10
161.3742402464
 20
117.4706671497
 30
0.0
 11
1.383467579512086
 21
1.091267719176599
 31
0.0
210
0.0
220
0.0
230
1.0
 40
0.8239737799
 41
0.9520594635638849
 42
0.9944607108323489
  0
SPLINE
  5
12C
330
1F
100
AcDbEntity
  8
0
  6
HIDDEN
 62
     7
370
     0
100
AcDbSpline
210
0.0
220
0.0
230
1.0
 70
     8
 71
     3
 72
     8
 73
     4
 74
     0
 42
0.000000001
 43
0.00000001
 40
0.0
 40
0.0
 40
0.0
 40
0.0
 40
1.0
 40
1.0
 40
1.0
 40
1.0
 10
161.4441813425519
 20
119.0322190154852
 30
0.0
 10
161.4271966164561
 20
119.0251033054379
 30
0.0
 10
161.4101924719214
 20
119.0172281759192
 30
0.0
 10
161.3931935878485
 20
119.0086050564685
 30
0.0
  0
LWPOLYLINE
  5
12D
330
1F
100
AcDbEntity
  8
0
  6
HIDDEN
 62
     7
370
     0
100
AcDbPolyline
 90
       20
 70
   128
 43
0.0
 10
161.3742405146
 20
117.0264877353
 10
161.9099940702
 20
117.1104976881
 10
162.3876908392
 20
117.3534238685
 10
162.7555651188
 20
117.7289415125
 10
162.9737507149
 20
118.1963569459
 10
163.0186050728
 20
118.7050192591
 10
162.8852666885
 20
119.1998067286
 10
162.5881850317
 20
119.6271012511
 10
162.15955313
 20
119.9405983996
 10
161.645821628
 20
120.1063263204
 10
161.1026594013
 20
120.1063263204
 10
160.588926968
 20
119.9405983996
 10
160.1602959976
 20
119.6271012511
 10
159.8632143408
 20
119.1998067286
 10
159.7298759565
 20
118.7050192591
 10
159.774729383
 20
118.1963569459
 10
159.9929159105
 20
117.7289415125
 10
160.3607892588
 20
117.3534238685
 10
160.8384860277
 20
117.1104976881
 10
161.3742405146
 20
117.0264877353
  0
LINE
  5
12E
330
1F
100
AcDbEntity
  8
0
  6
HIDDEN
 62
     7
370
     0
100
AcDbLine
 10
157.5642399087
 20
132.7803180527
 30
0.0
 11
157.5642399087
 21
128.933076651
 31
0.0
  0
SPLINE
  5
12F
330
1F
100
AcDbEntity
  8
0
  6
HIDDEN
 62
     7
370
     0
100
AcDbSpline
210
0.0
220
0.0
230
1.0
 70
     8
 71
     3
 72
    14
 73
    10
 74
     0
 42
0.000000001
 43
0.00000001
 40
0.0
 40
0.0
 40
0.0
 40
0.0
 40
0.25
 40
0.25
 40
0.5
 40
0.5
 40
0.75
 40
0.75
 40
1.0
 40
1.0
 40
1.0
 40
1.0
 10
160.5842402464065
 20
121.8655562792282
 30
0.0
 10
160.6819224975204
 20
121.9040785932606
 30
0.0
 10
160.7840360065578
 20
121.9416939527193
 30
0.0
 10
160.9762081777266
 20
122.0128026783062
 30
0.0
 10
161.0676268510535
 20
122.0470087288103
 30
0.0
 10
161.2191428400677
 20
122.1138982071673
 30
0.0
 10
161.2802900426066
 20
122.1471686697282
 30
0.0
 10
161.3629967442951
 20
122.216567019822
 30
0.0
 10
161.3842402464065
 20
122.252344125418
 30
0.0
 10
161.3842402464065
 20
122.2888394576686
 30
0.0
  0
LINE
  5
130
330
1F
100
AcDbEntity
  8
0
  6
HIDDEN
 62
     7
370
     0
100
AcDbLine
 10
161.3842401251
 20
132.7803180527
 30
0.0
 11
161.3842401251
 21
128.933076651
 31
0.0
  0
LINE
  5
131
330
1F
100
AcDbEntity
  8
0
  6
HIDDEN
 62
     7
370
     0
100
AcDbLine
 10
161.3842401251
 20
102.581794278
 30
0.0
 11
161.3842401251
 21
98.8230713617
 31
0.0
  0
SPLINE
  5
132
330
1F
100
AcDbEntity
  8
0
  6
HIDDEN
 62
     7
370
     0
100
AcDbSpline
210
0.0
220
0.0
230
1.0
 70
     8
 71
     3
 72
    14
 73
    10
 74
     0
 42
0.000000001
 43
0.00000001
 40
0.0
 40
0.0
 40
0.0
 40
0.0
 40
0.2500000000000005
 40
0.2500000000000005
 40
0.5000000000000003
 40
0.5000000000000003
 40
0.7500000000000001
 40
0.7500000000000001
 40
1.0
 40
1.0
 40
1.0
 40
1.0
 10
161.3842402464065
 20
118.5301159594497
 30
0.0
 10
161.3842402464065
 20
118.4936270285424
 30
0.0
 10
161.3630708702343
 20
118.4571282368086
 30
0.0
 10
161.2803252523819
 20
118.3917528890717
 30
0.0
 10
161.2194716275541
 20
118.3638160547254
 30
0.0
 10
161.0678667608631
 20
118.3299250254786
 30
0.0
 10
160.9766444503958
 20
118.3244995728922
 30
0.0
 10
160.7843139006926
 20
118.3454188967048
 30
0.0
 10
160.6820630162156
 20
118.3719750441452
 30
0.0
 10
160.5842402464065
 20
118.412444802451
 30
0.0
  0
LINE
  5
133
330
1F
100
AcDbEntity
  8
0
  6
HIDDEN
 62
     7
370
     0
100
AcDbLine
 10
162.996077311
 20
100.8310568493
 30
0.0
 11
162.996077311
 21
98.6315774705
 31
0.0
  0
LINE
  5
134
330
1F
100
AcDbEntity
  8
0
  6
HIDDEN
 62
     7
370
     0
100
AcDbLine
 10
162.996077311
 20
136.4933074426
 30
0.0
 11
162.996077311
 21
128.933076651
 31
0.0
  0
LINE
  5
135
330
1F
100
AcDbEntity
  8
0
  6
HIDDEN
 62
     7
370
     0
100
AcDbLine
 10
155.9524036541
 20
136.4933074426
 30
0.0
 11
155.9524036541
 21
128.933076651
 31
0.0
  0
SPLINE
  5
136
330
1F
100
AcDbEntity
  8
0
  6
HIDDEN
 62
     7
370
     0
100
AcDbSpline
210
0.0
220
0.0
230
1.0
 70
     8
 71
     3
 72
    10
 73
     6
 74
     0
 42
0.000000001
 43
0.00000001
 40
0.0
 40
0.0
 40
0.0
 40
0.0
 40
0.5
 40
0.5
 40
1.0
 40
1.0
 40
1.0
 40
1.0
 10
159.3983494837661
 20
118.3296162585889
 30
0.0
 10
159.3827434327849
 20
118.4348884591975
 30
0.0
 10
159.3742389697564
 20
118.5388269569883
 30
0.0
 10
159.3742415233461
 20
118.7383402289443
 30
0.0
 10
159.3827391109465
 20
118.8295527236147
 30
0.0
 10
159.3983494837662
 20
118.9114846559578
 30
0.0
  0
SPLINE
  5
137
330
1F
100
AcDbEntity
  8
0
  6
HIDDEN
 62
     7
370
     0
100
AcDbSpline
210
0.0
220
0.0
230
1.0
 70
     8
 71
     3
 72
    14
 73
    10
 74
     0
 42
0.000000001
 43
0.00000001
 40
0.0
 40
0.0
 40
0.0
 40
0.0
 40
0.25
 40
0.25
 40
0.5
 40
0.5
 40
0.75
 40
0.75
 40
1.0
 40
1.0
 40
1.0
 40
1.0
 10
159.3983494837662
 20
118.9114846559578
 30
0.0
 10
159.4347133117964
 20
118.865990020556
 30
0.0
 10
159.4671910390066
 20
118.8175982143397
 30
0.0
 10
159.5159446684222
 20
118.7121130704102
 30
0.0
 10
159.5308484460967
 20
118.6555285621673
 30
0.0
 10
159.5308588797544
 20
118.5466409682169
 30
0.0
 10
159.5159685839462
 20
118.4944563024543
 30
0.0
 10
159.4670796530686
 20
118.4031789035107
 30
0.0
 10
159.4347074747982
 20
118.3645121981366
 30
0.0
 10
159.3983494837661
 20
118.3296162585889
 30
0.0
  0
LWPOLYLINE
  5
138
330
1F
100
AcDbEntity
  8
0
  6
HIDDEN
 62
     7
370
     0
100
AcDbPolyline
 90
       20
 70
   128
 43
0.0
 10
152.2059676766
 20
118.5631229516
 10
152.3429088823
 20
118.1715576883
 10
152.5632923998
 20
117.9184381824
 10
152.8432358585
 20
117.8311923493
 10
153.152403754
 20
117.9192759071
 10
153.4572926879
 20
118.1731427994
 10
153.7248630606
 20
118.5652826887
 10
153.9261195406
 20
119.0532007229
 10
154.0392528817
 20
119.5840247881
 10
154.0520036191
 20
120.1002308141
 10
153.9629892044
 20
120.545879842
 10
153.7818567425
 20
120.8726790708
 10
153.5282338567
 20
121.0452149596
 10
153.2296052731
 20
121.0447902765
 10
152.9183316573
 20
120.8714506563
 10
152.6281441159
 20
120.5439818066
 10
152.390489687
 20
120.0978680488
 10
152.2311210696
 20
119.5814534064
 10
152.1673087094
 20
119.0507001217
 10
152.2059676766
 20
118.5631229516
  0
LWPOLYLINE
  5
139
330
1F
100
AcDbEntity
  8
0
  6
HIDDEN
 62
     7
370
     0
100
AcDbPolyline
 90
       21
 70
   128
 43
0.0
 10
159.3983493343
 20
118.3296161678
 10
159.5768792152
 20
117.7962449353
 10
159.9144948244
 20
117.335833979
 10
160.381314677
 20
116.9891347151
 10
160.9360197157
 20
116.7868342225
 10
161.5295115456
 20
116.7468376432
 10
162.1092607796
 20
116.8726854
 10
162.6239515439
 20
117.1532388751
 10
163.0280300572
 20
117.5636657488
 10
163.2857288763
 20
118.0676388528
 10
163.3742399111
 20
118.6205501642
 10
163.2857288763
 20
119.1734624069
 10
163.0280300572
 20
119.677435511
 10
162.6239515439
 20
120.087861919
 10
162.1092607796
 20
120.3684153941
 10
161.5295115456
 20
120.4942631509
 10
160.9360197157
 20
120.4542665716
 10
160.381314677
 20
120.2519656133
 10
159.9144948244
 20
119.9052668151
 10
159.5768792152
 20
119.4448553931
 10
159.3983493343
 20
118.911485092
  0
SPLINE
  5
13A
330
1F
100
AcDbEntity
  8
0
  6
HIDDEN
 62
     7
370
     0
100
AcDbSpline
210
0.0
220
0.0
230
1.0
 70
     8
 71
     3
 72
    12
 73
     8
 74
     0
 42
0.000000001
 43
0.00000001
 40
0.0
 40
0.0
 40
0.0
 40
0.0
 40
0.2500000000000001
 40
0.2500000000000001
 40
0.5000000000000002
 40
0.5000000000000002
 40
1.0
 40
1.0
 40
1.0
 40
1.0
 10
162.9960768884633
 20
122.5345768873271
 30
0.0
 10
163.1190243822588
 20
122.376620038632
 30
0.0
 10
163.2125685853677
 20
122.2047866716544
 30
0.0
 10
163.3415079745299
 20
121.8331139620086
 30
0.0
 10
163.374060731915
 20
121.6399255158174
 30
0.0
 10
163.3745970736489
 20
121.0516289775411
 30
0.0
 10
163.2419734166808
 20
120.6596107396524
 30
0.0
 10
162.9960768884633
 20
120.3350971569437
 30
0.0
  0
SPLINE
  5
13B
330
1F
100
AcDbEntity
  8
0
  6
HIDDEN
 62
     7
370
     0
100
AcDbSpline
210
0.0
220
0.0
230
1.0
 70
     8
 71
     3
 72
    12
 73
     8
 74
     0
 42
0.000000001
 43
0.00000001
 40
0.0
 40
0.0
 40
0.0
 40
0.0
 40
0.2499999999999998
 40
0.2499999999999998
 40
0.4999999999999996
 40
0.4999999999999996
 40
1.0
 40
1.0
 40
1.0
 40
1.0
 10
162.9960768884633
 20
120.3350971569437
 30
0.0
 10
162.8811808372026
 20
120.1153567218872
 30
0.0
 10
162.75441482073
 20
119.9183883702654
 30
0.0
 10
162.4941998871114
 20
119.5646707974265
 30
0.0
 10
162.3606924291492
 20
119.4078455035543
 30
0.0
 10
161.952294160561
 20
118.9813029326466
 30
0.0
 10
161.6686410256234
 20
118.7546107536914
 30
0.0
 10
161.3842402464067
 20
118.5843596092959
 30
0.0
  0
SPLINE
  5
13C
330
1F
100
AcDbEntity
  8
0
  6
HIDDEN
 62
     7
370
     0
100
AcDbSpline
210
0.0
220
0.0
230
1.0
 70
     8
 71
     3
 72
    12
 73
     8
 74
     0
 42
0.000000001
 43
0.00000001
 40
0.0
 40
0.0
 40
0.0
 40
0.0
 40
0.5000000000000013
 40
0.5000000000000013
 40
0.7500000000000007
 40
0.7500000000000007
 40
1.0
 40
1.0
 40
1.0
 40
1.0
 10
161.3842402464066
 20
122.343083107517
 30
0.0
 10
161.6684467809719
 20
122.5105472698107
 30
0.0
 10
161.9471425150756
 20
122.6221843693223
 30
0.0
 10
162.3564885582649
 20
122.6894976349617
 30
0.0
 10
162.4926278955844
 20
122.6946486749756
 30
0.0
 10
162.7539479445805
 20
122.6568827373563
 30
0.0
 10
162.8793691270123
 20
122.615332979012
 30
0.0
 10
162.9960768884637
 20
122.5345768873292
 30
0.0
  0
SPLINE
  5
13D
330
1F
100
AcDbEntity
  8
0
  6
HIDDEN
 62
     7
370
     0
100
AcDbSpline
210
0.0
220
0.0
230
1.0
 70
     8
 71
     3
 72
    22
 73
    18
 74
     0
 42
0.000000001
 43
0.00000001
 40
0.0
 40
0.0
 40
0.0
 40
0.0
 40
0.125
 40
0.125
 40
0.25
 40
0.25
 40
0.375
 40
0.375
 40
0.5
 40
0.5
 40
0.625
 40
0.625
 40
0.75
 40
0.75
 40
0.875
 40
0.875
 40
1.0
 40
1.0
 40
1.0
 40
1.0
 10
160.5842402464066
 20
118.412444802451
 30
0.0
 10
160.4042235518372
 20
118.4869185894275
 30
0.0
 10
160.2397917299668
 20
118.5843678514116
 30
0.0
 10
159.9413954962083
 20
118.8237372849759
 30
0.0
 10
159.8110917688434
 20
118.9636338970464
 30
0.0
 10
159.5978729852244
 20
119.2718854871066
 30
0.0
 10
159.5142451281129
 20
119.4420487052258
 30
0.0
 10
159.4031142511948
 20
119.7925434400163
 30
0.0
 10
159.374278256341
 20
119.9776684011677
 30
0.0
 10
159.3742023136814
 20
120.3408752757849
 30
0.0
 10
159.4028609391086
 20
120.5242452894925
 30
0.0
 10
159.5140120322213
 20
120.8701364019857
 30
0.0
 10
159.5970791528653
 20
121.0356559292532
 30
0.0
 10
159.810765110984
 20
121.336195666657
 30
0.0
 10
159.9397721009083
 20
121.470067587941
 30
0.0
 10
160.2393813803978
 20
121.7013143573451
 30
0.0
 10
160.404224078657
 20
121.7945644740039
 30
0.0
 10
160.5842402464066
 20
121.8655562792282
 30
0.0
  0
LWPOLYLINE
  5
13E
330
1F
100
AcDbEntity
  8
0
  6
HIDDEN
 62
     7
370
     0
100
AcDbPolyline
 90
       23
 70
   128
 43
0.0
 10
151.8244518496
 20
118.3536144879
 10
151.9681674957
 20
117.9138695795
 10
152.193754778
 20
117.6011058476
 10
152.4829374224
 20
117.4406608541
 10
152.8122880094
 20
117.4455330681
 10
153.1551246129
 20
117.6153280746
 10
153.4836723998
 20
117.9362897735
 10
153.7713141709
 20
118.3824161042
 10
153.9947473042
 20
118.9175638344
 10
154.1358706139
 20
119.4983794328
 10
154.1832507186
 20
120.0778082918
 10
154.1330496378
 20
120.6089089599
 10
153.9893339917
 20
121.0486534026
 10
153.7637467094
 20
121.3614176001
 10
153.474564065
 20
121.521862128
 10
153.145213478
 20
121.5169903796
 10
152.8023768745
 20
121.3471953731
 10
152.4738290876
 20
121.0262336742
 10
152.1861870836
 20
120.5801068779
 10
151.9627539504
 20
120.044958682
 10
151.8216308735
 20
119.4641430836
 10
151.774250536
 20
118.8847151559
 10
151.8244518496
 20
118.3536144879
  0
CIRCLE
  5
13F
330
1F
100
AcDbEntity
  8
0
  6
HIDDEN
 62
     7
370
     0
100
AcDbCircle
 10
215.2242402464
 20
110.5830770891
 30
0.0
 40
2.477364010367807
  0
CIRCLE
  5
140
330
1F
100
AcDbEntity
  8
0
  6
HIDDEN
 62
     7
370
     0
100
AcDbCircle
 10
215.2242402464
 20
110.5830770891
 30
0.0
 40
1.845534221835427
  0
ARC
  5
141
330
1F
100
AcDbEntity
  8
0
  6
HIDDEN
 62
     7
370
     0
100
AcDbCircle
 10
215.2242402464
 20
110.5830770891
 30
0.0
 40
1.545534221835438
100
AcDbArc
 50
230.8130088206
 51
277.4987717191
  0
ARC
  5
142
330
1F
100
AcDbEntity
  8
0
  6
HIDDEN
 62
     7
370
     0
100
AcDbCircle
 10
215.2242402464
 20
110.5830770891
 30
0.0
 40
1.545534221835449
100
AcDbArc
 50
167.7992357485
 51
205.7254364213
  0
ARC
  5
143
330
1F
100
AcDbEntity
  8
0
  6
HIDDEN
 62
     7
370
     0
100
AcDbCircle
 10
215.2242402464
 20
110.5830770891
 30
0.0
 40
1.545534221835446
100
AcDbArc
 50
105.4663601635
 51
149.3252100714
  0
ARC
  5
144
330
1F
100
AcDbEntity
  8
0
  6
HIDDEN
 62
     7
370
     0
100
AcDbCircle
 10
215.2242402464
 20
110.5830770891
 30
0.0
 40
1.545534221835441
100
AcDbArc
 50
49.930295805
 51
87.7843462977
  0
ARC
  5
145
330
1F
100
AcDbEntity
  8
0
  6
HIDDEN
 62
     7
370
     0
100
AcDbCircle
 10
215.2242402464
 20
110.5830770891
 30
0.0
 40
1.545534221835458
100
AcDbArc
 50
346.4976239172
 51
24.1713940431
  0
ARC
  5
146
330
1F
100
AcDbEntity
  8
0
  6
HIDDEN
 62
     7
370
     0
100
AcDbCircle
 10
215.2242402464
 20
110.5830770891
 30
0.0
 40
1.545534221835446
100
AcDbArc
 50
277.4987717191
 51
329.3173719683
  0
LWPOLYLINE
  5
147
330
1F
100
AcDbEntity
  8
0
  6
HIDDEN
 62
     7
370
     0
100
AcDbPolyline
 90
       19
 70
   128
 43
0.0
 10
161.8805614829
 20
119.8251572412
 10
161.3742405146
 20
119.9090507787
 10
160.867918615
 20
119.8251572412
 10
160.4226672619
 20
119.5835935857
 10
160.092189309
 20
119.2134981018
 10
159.9163462937
 20
118.7595072176
 10
159.9163462937
 20
118.2763813037
 10
160.092189309
 20
117.8223908853
 10
160.4226672619
 20
117.4522949357
 10
160.867918615
 20
117.2107317459
 10
161.3742405146
 20
117.1268377427
 10
161.8805614829
 20
117.2107317459
 10
162.325812836
 20
117.4522949357
 10
162.6562907889
 20
117.8223908853
 10
162.8321347356
 20
118.2763813037
 10
162.8321347356
 20
118.7595072176
 10
162.6562907889
 20
119.2134981018
 10
162.325812836
 20
119.5835935857
 10
161.8805614829
 20
119.8251572412
  0
LWPOLYLINE
  5
148
330
1F
100
AcDbEntity
  8
0
  6
HIDDEN
 62
     7
370
     0
100
AcDbPolyline
 90
       22
 70
   128
 43
0.0
 10
162.0582801819
 20
120.3865948107
 10
161.473932077
 20
120.4975991484
 10
160.8807252318
 20
120.4418203767
 10
160.33136971
 20
120.2242131319
 10
159.8746779904
 20
119.8641126018
 10
159.5512287289
 20
119.3935171675
 10
159.3897616088
 20
118.8542404186
 10
159.4046245858
 20
118.2941984359
 10
159.5944970444
 20
117.7631550442
 10
159.9425062135
 20
117.3082943048
 10
160.4177321836
 20
116.9700337548
 10
160.977947858
 20
116.7784285706
 10
161.5733759075
 20
116.7505042601
 10
162.1511097595
 20
116.8887418669
 10
162.6598158449
 20
117.1808577117
 10
163.0542924225
 20
117.6008972313
 10
163.2994891673
 20
118.1115367424
 10
163.373618719
 20
118.6674050029
 10
163.2700947642
 20
119.2191093203
 10
162.9981159761
 20
119.7176295307
 10
162.5818492442
 20
120.1186691385
 10
162.0582801819
 20
120.3865948107
  0
LWPOLYLINE
  5
149
330
1F
100
AcDbEntity
  8
0
  6
HIDDEN
 62
     7
370
     0
100
AcDbPolyline
 90
       22
 70
   128
 43
0.0
 10
162.0582801819
 20
120.7115136992
 10
161.473932077
 20
120.8225189682
 10
160.8807252318
 20
120.7667392653
 10
160.33136971
 20
120.5491320204
 10
159.8746779904
 20
120.1890324216
 10
159.5512287289
 20
119.718436056
 10
159.3897616088
 20
119.1791593071
 10
159.4046245858
 20
118.6191177901
 10
159.5944970444
 20
118.0880739328
 10
159.9425062135
 20
117.633213659
 10
160.4177321836
 20
117.294953109
 10
160.977947858
 20
117.1033479247
 10
161.5733759075
 20
117.0754236143
 10
162.1511097595
 20
117.2136607554
 10
162.6598158449
 20
117.5057770658
 10
163.0542924225
 20
117.9258161198
 10
163.2994891673
 20
118.4364556309
 10
163.373618719
 20
118.9923238915
 10
163.2700947642
 20
119.5440291401
 10
162.9981159761
 20
120.0425484192
 10
162.5818492442
 20
120.4435889583
 10
162.0582801819
 20
120.7115136992
  0
LWPOLYLINE
  5
14A
330
1F
100
AcDbEntity
  8
0
  6
HIDDEN
 62
     7
370
     0
100
AcDbPolyline
 90
       19
 70
   128
 43
0.0
 10
161.8872707307
 20
121.2105582442
 10
161.3742405146
 20
121.2955637809
 10
160.8612102985
 20
121.2105582442
 10
160.4100590169
 20
120.9657945644
 10
160.0752019852
 20
120.5907947358
 10
159.8970288008
 20
120.1307884391
 10
159.8970288008
 20
119.6412610795
 10
160.0752019852
 20
119.1812557142
 10
160.4100590169
 20
118.8062558856
 10
160.8612102985
 20
118.5614912745
 10
161.3742405146
 20
118.4764857378
 10
161.8872707307
 20
118.5614912745
 10
162.3384220123
 20
118.8062558856
 10
162.6732781127
 20
119.1812557142
 10
162.8514522284
 20
119.6412610795
 10
162.8514522284
 20
120.1307884391
 10
162.6732781127
 20
120.5907947358
 10
162.3384220123
 20
120.9657945644
 10
161.8872707307
 20
121.2105582442
  0
LWPOLYLINE
  5
14B
330
1F
100
AcDbEntity
  8
0
  6
HIDDEN
 62
     7
370
     0
100
AcDbPolyline
 90
       19
 70
   128
 43
0.0
 10
161.8872707307
 20
120.2070795905
 10
161.3742405146
 20
120.2920851272
 10
160.8612102985
 20
120.2070795905
 10
160.4100590169
 20
119.9623159107
 10
160.0752019852
 20
119.587316082
 10
159.8970288008
 20
119.1273107167
 10
159.8970288008
 20
118.6377824258
 10
160.0752019852
 20
118.1777770605
 10
160.4100590169
 20
117.8027772319
 10
160.8612102985
 20
117.5580130864
 10
161.3742405146
 20
117.4730075497
 10
161.8872707307
 20
117.5580130864
 10
162.3384220123
 20
117.8027772319
 10
162.6732781127
 20
118.1777770605
 10
162.8514522284
 20
118.6377824258
 10
162.8514522284
 20
119.1273107167
 10
162.6732781127
 20
119.587316082
 10
162.3384220123
 20
119.9623159107
 10
161.8872707307
 20
120.2070795905
  0
LWPOLYLINE
  5
14C
330
1F
100
AcDbEntity
  8
0
  6
HIDDEN
 62
     7
370
     0
100
AcDbPolyline
 90
       22
 70
   128
 43
0.0
 10
162.0582801819
 20
120.9039007288
 10
161.473932077
 20
121.0149050664
 10
160.8807252318
 20
120.9591253635
 10
160.33136971
 20
120.7415181186
 10
159.8746779904
 20
120.3814185198
 10
159.5512287289
 20
119.9108230855
 10
159.3897616088
 20
119.3715454053
 10
159.4046245858
 20
118.8115038883
 10
159.5944970444
 20
118.2804604966
 10
159.9425062135
 20
117.8255997572
 10
160.4177321836
 20
117.4873392072
 10
160.977947858
 20
117.2957340229
 10
161.5733759075
 20
117.2678097125
 10
162.1511097595
 20
117.4060473193
 10
162.6598158449
 20
117.698163164
 10
163.0542924225
 20
118.1182026837
 10
163.2994891673
 20
118.6288426604
 10
163.373618719
 20
119.1847099897
 10
163.2700947642
 20
119.7364152383
 10
162.9981159761
 20
120.2349354487
 10
162.5818492442
 20
120.6359750565
 10
162.0582801819
 20
120.9039007288
  0
LWPOLYLINE
  5
14D
330
1F
100
AcDbEntity
  8
0
  6
HIDDEN
 62
     7
370
     0
100
AcDbPolyline
 90
       21
 70
   128
 43
0.0
 10
162.00355753
 20
120.6183274251
 10
161.4384552061
 20
120.7215477686
 10
160.8670673862
 20
120.6556203749
 10
160.3453255787
 20
120.4270002406
 10
159.9243007198
 20
120.0580661159
 10
159.6452056959
 20
119.5849309649
 10
159.5353608549
 20
119.053908528
 10
159.6055183157
 20
118.5169796433
 10
159.8488114372
 20
118.0267025691
 10
160.241423507
 20
117.6310683575
 10
160.7449234992
 20
117.3688051265
 10
161.3100248918
 20
117.2655852485
 10
161.8814127117
 20
117.331511711
 10
162.4031554505
 20
117.5601318453
 10
162.8241803095
 20
117.9290664356
 10
163.103274402
 20
118.4022015866
 10
163.2131192431
 20
118.9332240235
 10
163.1429617822
 20
119.4701529082
 10
162.8996695921
 20
119.9604299825
 10
162.5070575222
 20
120.3560641941
 10
162.00355753
 20
120.6183274251
  0
LWPOLYLINE
  5
14E
330
1F
100
AcDbEntity
  8
0
  6
HIDDEN
 62
     7
370
     0
100
AcDbPolyline
 90
       22
 70
   128
 43
0.0
 10
162.0582801819
 20
121.096286827
 10
161.473932077
 20
121.2072911646
 10
160.8807252318
 20
121.1515114617
 10
160.33136971
 20
120.9339042168
 10
159.8746779904
 20
120.573804618
 10
159.5512287289
 20
120.1032091837
 10
159.3897616088
 20
119.5639324348
 10
159.4046245858
 20
119.0038899865
 10
159.5944970444
 20
118.4728470605
 10
159.9425062135
 20
118.0179863211
 10
160.4177321836
 20
117.679725771
 10
160.977947858
 20
117.4881205868
 10
161.5733759075
 20
117.4601962764
 10
162.1511097595
 20
117.5984334175
 10
162.6598158449
 20
117.8905497279
 10
163.0542924225
 20
118.3105887819
 10
163.2994891673
 20
118.8212287586
 10
163.373618719
 20
119.3770970192
 10
163.2700947642
 20
119.9288013365
 10
162.9981159761
 20
120.4273215469
 10
162.5818492442
 20
120.8283611547
 10
162.0582801819
 20
121.096286827
  0
LWPOLYLINE
  5
14F
330
1F
100
AcDbEntity
  8
0
  6
HIDDEN
 62
     7
370
     0
100
AcDbPolyline
 90
       21
 70
   128
 43
0.0
 10
162.00355753
 20
120.8107135233
 10
161.4384552061
 20
120.9139338668
 10
160.8670673862
 20
120.8480074044
 10
160.3453255787
 20
120.6193872701
 10
159.9243007198
 20
120.2504522141
 10
159.6452056959
 20
119.7773170631
 10
159.5353608549
 20
119.2462946262
 10
159.6055183157
 20
118.7093657415
 10
159.8488114372
 20
118.2190886673
 10
160.241423507
 20
117.8234549213
 10
160.7449234992
 20
117.5611916903
 10
161.3100248918
 20
117.4579713468
 10
161.8814127117
 20
117.5238978092
 10
162.4031554505
 20
117.7525179435
 10
162.8241803095
 20
118.1214525338
 10
163.103274402
 20
118.5945876848
 10
163.2131192431
 20
119.1256101217
 10
163.1429617822
 20
119.6625390064
 10
162.8996695921
 20
120.1528160807
 10
162.5070575222
 20
120.5484502923
 10
162.00355753
 20
120.8107135233
  0
LWPOLYLINE
  5
150
330
1F
100
AcDbEntity
  8
0
  6
HIDDEN
 62
     7
370
     0
100
AcDbPolyline
 90
       22
 70
   128
 43
0.0
 10
162.0582801819
 20
121.2886729252
 10
161.473932077
 20
121.3996772628
 10
160.8807252318
 20
121.3438984912
 10
160.33136971
 20
121.1262912463
 10
159.8746779904
 20
120.7661916476
 10
159.5512287289
 20
120.2955952819
 10
159.3897616088
 20
119.7563185331
 10
159.4046245858
 20
119.196277016
 10
159.5944970444
 20
118.6652331587
 10
159.9425062135
 20
118.2103724193
 10
160.4177321836
 20
117.8721118692
 10
160.977947858
 20
117.680506685
 10
161.5733759075
 20
117.6525823746
 10
162.1511097595
 20
117.7908199813
 10
162.6598158449
 20
118.0829358261
 10
163.0542924225
 20
118.5029753458
 10
163.2994891673
 20
119.0136148568
 10
163.373618719
 20
119.5694831174
 10
163.2700947642
 20
120.1211874347
 10
162.9981159761
 20
120.6197076451
 10
162.5818492442
 20
121.0207472529
 10
162.0582801819
 20
121.2886729252
  0
LWPOLYLINE
  5
151
330
1F
100
AcDbEntity
  8
0
  6
HIDDEN
 62
     7
370
     0
100
AcDbPolyline
 90
       21
 70
   128
 43
0.0
 10
162.00355753
 20
121.0030996215
 10
161.4384552061
 20
121.1063199651
 10
160.8670673862
 20
121.0403935026
 10
160.3453255787
 20
120.8117733683
 10
159.9243007198
 20
120.4428383123
 10
159.6452056959
 20
119.9697031613
 10
159.5353608549
 20
119.4386816558
 10
159.6055183157
 20
118.9017527711
 10
159.8488114372
 20
118.4114747655
 10
160.241423507
 20
118.0158410195
 10
160.7449234992
 20
117.7535777886
 10
161.3100248918
 20
117.6503579106
 10
161.8814127117
 20
117.716284373
 10
162.4031554505
 20
117.9449045073
 10
162.8241803095
 20
118.3138390977
 10
163.103274402
 20
118.786973783
 10
163.2131192431
 20
119.3179962199
 10
163.1429617822
 20
119.8549251046
 10
162.8996695921
 20
120.3452021789
 10
162.5070575222
 20
120.7408363905
 10
162.00355753
 20
121.0030996215
  0
LWPOLYLINE
  5
152
330
1F
100
AcDbEntity
  8
0
  6
HIDDEN
 62
     7
370
     0
100
AcDbPolyline
 90
       22
 70
   128
 43
0.0
 10
162.0582801819
 20
121.4810590234
 10
161.473932077
 20
121.5920642924
 10
160.8807252318
 20
121.5362845894
 10
160.33136971
 20
121.3186773445
 10
159.8746779904
 20
120.9585777458
 10
159.5512287289
 20
120.4879813802
 10
159.3897616088
 20
119.9487046313
 10
159.4046245858
 20
119.3886631142
 10
159.5944970444
 20
118.8576192569
 10
159.9425062135
 20
118.4027585175
 10
160.4177321836
 20
118.0644984331
 10
160.977947858
 20
117.8728932489
 10
161.5733759075
 20
117.8449689385
 10
162.1511097595
 20
117.9832060795
 10
162.6598158449
 20
118.27532239
 10
163.0542924225
 20
118.695361444
 10
163.2994891673
 20
119.206000955
 10
163.373618719
 20
119.7618692156
 10
163.2700947642
 20
120.3135744643
 10
162.9981159761
 20
120.8120937433
 10
162.5818492442
 20
121.2131342825
 10
162.0582801819
 20
121.4810590234
  0
LWPOLYLINE
  5
153
330
1F
100
AcDbEntity
  8
0
  6
HIDDEN
 62
     7
370
     0
100
AcDbPolyline
 90
       21
 70
   128
 43
0.0
 10
162.00355753
 20
121.1954857197
 10
161.4384552061
 20
121.2987060633
 10
160.8670673862
 20
121.2327796008
 10
160.3453255787
 20
121.0041594666
 10
159.9243007198
 20
120.6352253418
 10
159.6452056959
 20
120.1620901909
 10
159.5353608549
 20
119.631067754
 10
159.6055183157
 20
119.0941388693
 10
159.8488114372
 20
118.603861795
 10
160.241423507
 20
118.2082275834
 10
160.7449234992
 20
117.9459643524
 10
161.3100248918
 20
117.8427440088
 10
161.8814127117
 20
117.9086704712
 10
162.4031554505
 20
118.1372906055
 10
162.8241803095
 20
118.5062256616
 10
163.103274402
 20
118.9793608125
 10
163.2131192431
 20
119.5103823181
 10
163.1429617822
 20
120.0473112028
 10
162.8996695921
 20
120.5375892084
 10
162.5070575222
 20
120.9332224887
 10
162.00355753
 20
121.1954857197
  0
LWPOLYLINE
  5
154
330
1F
100
AcDbEntity
  8
0
  6
HIDDEN
 62
     7
370
     0
100
AcDbPolyline
 90
       22
 70
   128
 43
0.0
 10
162.0582801819
 20
121.6178675156
 10
161.473932077
 20
121.7288718533
 10
160.8807252318
 20
121.6730921503
 10
160.33136971
 20
121.4554849055
 10
159.8746779904
 20
121.0953853067
 10
159.5512287289
 20
120.6247898724
 10
159.3897616088
 20
120.0855131235
 10
159.4046245858
 20
119.5254716065
 10
159.5944970444
 20
118.9944277491
 10
159.9425062135
 20
118.5395670097
 10
160.4177321836
 20
118.2013064597
 10
160.977947858
 20
118.0097012755
 10
161.5733759075
 20
117.981776965
 10
162.1511097595
 20
118.1200141061
 10
162.6598158449
 20
118.4121304166
 10
163.0542924225
 20
118.8321699362
 10
163.2994891673
 20
119.3428094473
 10
163.373618719
 20
119.8986777078
 10
163.2700947642
 20
120.4503820252
 10
162.9981159761
 20
120.9489022356
 10
162.5818492442
 20
121.3499418434
 10
162.0582801819
 20
121.6178675156
  0
LWPOLYLINE
  5
155
330
1F
100
AcDbEntity
  8
0
  6
HIDDEN
 62
     7
370
     0
100
AcDbPolyline
 90
       22
 70
   128
 43
0.0
 10
162.0240782916
 20
121.5637669873
 10
161.4689476386
 20
121.6692215737
 10
160.9054015547
 20
121.6162311818
 10
160.3835135296
 20
121.4095045786
 10
159.9496559769
 20
121.0674093079
 10
159.6423791319
 20
120.6203437384
 10
159.4889856473
 20
120.1080306407
 10
159.5031054288
 20
119.5759911995
 10
159.6834839851
 20
119.0714993488
 10
160.0140932545
 20
118.6393815067
 10
160.4655574605
 20
118.3180342402
 10
160.9977626771
 20
118.1360095713
 10
161.5634191379
 20
118.1094813135
 10
162.1122661576
 20
118.240806644
 10
162.5955368921
 20
118.5183170226
 10
162.9702899203
 20
118.9173542868
 10
163.2032267347
 20
119.4024625208
 10
163.2736496225
 20
119.9305363905
 10
163.1753019586
 20
120.4546558645
 10
162.9169223428
 20
120.9282501575
 10
162.5214688077
 20
121.3092383903
 10
162.0240782916
 20
121.5637669873
  0
LWPOLYLINE
  5
156
330
1F
100
AcDbEntity
  8
0
  6
HIDDEN
 62
     7
370
     0
100
AcDbPolyline
 90
       15
 70
   128
 43
0.0
 10
159.3801475659
 20
101.1699930739
 10
159.3748623103
 20
101.2674764704
 10
159.4489918619
 20
101.823344731
 10
159.6941886067
 20
102.333984242
 10
160.0886651844
 20
102.7540237617
 10
160.5973703384
 20
103.0461400721
 10
161.1751041904
 20
103.1843772132
 10
161.77053224
 20
103.1564529028
 10
162.3307479143
 20
102.9648477186
 10
162.8059738845
 20
102.6265871685
 10
163.1539839849
 20
102.1717264291
 10
163.3438555121
 20
101.6406825718
 10
163.3587184891
 20
101.0806410547
 10
163.1972523004
 20
100.5413643058
 10
163.1829648808
 20
100.5122744452
  0
ARC
  5
157
330
1F
100
AcDbEntity
  8
0
  6
HIDDEN
 62
     7
370
     0
100
AcDbCircle
 10
161.3541931101
 20
101.228540702
 30
0.0
 40
1.885929231981615
100
AcDbArc
 50
341.0364988894
 51
160.8419503386
  0
ARC
  5
158
330
1F
100
AcDbEntity
  8
0
  6
HIDDEN
 62
     7
370
     0
100
AcDbCircle
 10
161.4159385141
 20
101.2385247704
 30
0.0
 40
1.452171261649856
100
AcDbArc
 50
354.094556152
 51
92.2257567299
  0
LWPOLYLINE
  5
159
330
1F
100
AcDbEntity
  8
0
  6
HIDDEN
 62
     7
370
     0
100
AcDbPolyline
 90
       22
 70
   128
 43
0.0
 10
160.6901999161
 20
99.6850951549
 10
160.166631785
 20
99.9530198958
 10
159.7503641218
 20
100.3540604349
 10
159.4783853337
 20
100.852579714
 10
159.3748623103
 20
101.4042849626
 10
159.4489918619
 20
101.9601532232
 10
159.6941886067
 20
102.4707927343
 10
160.0886651844
 20
102.8908317883
 10
160.5973703384
 20
103.1829480987
 10
161.1751041904
 20
103.3211852398
 10
161.77053224
 20
103.2932609294
 10
162.3307479143
 20
103.1016557451
 10
162.8059738845
 20
102.7633956607
 10
163.1539839849
 20
102.3085349213
 10
163.3438555121
 20
101.777491064
 10
163.3587184891
 20
101.217449547
 10
163.1972523004
 20
100.6781727981
 10
162.8738030389
 20
100.2075764325
 10
162.417110388
 20
99.8474768337
 10
161.8677548662
 20
99.6298695888
 10
161.274548021
 20
99.5740898859
 10
160.6901999161
 20
99.6850951549
  0
LWPOLYLINE
  5
15A
330
1F
100
AcDbEntity
  8
0
  6
HIDDEN
 62
     7
370
     0
100
AcDbPolyline
 90
       19
 70
   128
 43
0.0
 10
160.8612102985
 20
100.9590745878
 10
160.4100590169
 20
101.2038382676
 10
160.0752019852
 20
101.5788380962
 10
159.8970288008
 20
102.0388434615
 10
159.8970288008
 20
102.5283717524
 10
160.0752019852
 20
102.9883771177
 10
160.4100590169
 20
103.3633769464
 10
160.8612102985
 20
103.6081410918
 10
161.3742405146
 20
103.6931466285
 10
161.8872707307
 20
103.6081410918
 10
162.3384220123
 20
103.3633769464
 10
162.6732781127
 20
102.9883771177
 10
162.8514522284
 20
102.5283717524
 10
162.8514522284
 20
102.0388434615
 10
162.6732781127
 20
101.5788380962
 10
162.3384220123
 20
101.2038382676
 10
161.8872707307
 20
100.9590745878
 10
161.3742405146
 20
100.8740690511
 10
160.8612102985
 20
100.9590745878
  0
LWPOLYLINE
  5
15B
330
1F
100
AcDbEntity
  8
0
  6
HIDDEN
 62
     7
370
     0
100
AcDbPolyline
 90
       22
 70
   128
 43
0.0
 10
160.6901999161
 20
99.8774812531
 10
160.166631785
 20
100.1454069253
 10
159.7503641218
 20
100.5464465331
 10
159.4783853337
 20
101.0449667435
 10
159.3748623103
 20
101.5966710608
 10
159.4489918619
 20
102.1525393214
 10
159.6941886067
 20
102.6631788325
 10
160.0886651844
 20
103.0832183521
 10
160.5973703384
 20
103.3753341969
 10
161.1751041904
 20
103.5135718036
 10
161.77053224
 20
103.4856474932
 10
162.3307479143
 20
103.294042309
 10
162.8059738845
 20
102.955781759
 10
163.1539839849
 20
102.5009210195
 10
163.3438555121
 20
101.9698771622
 10
163.3587184891
 20
101.4098356452
 10
163.1972523004
 20
100.8705588963
 10
162.8738030389
 20
100.3999625307
 10
162.417110388
 20
100.0398629319
 10
161.8677548662
 20
99.822255687
 10
161.274548021
 20
99.7664769154
 10
160.6901999161
 20
99.8774812531
  0
LWPOLYLINE
  5
15C
330
1F
100
AcDbEntity
  8
0
  6
HIDDEN
 62
     7
370
     0
100
AcDbPolyline
 90
       21
 70
   128
 43
0.0
 10
160.7449234992
 20
99.9706684586
 10
160.241423507
 20
100.2329316895
 10
159.8488114372
 20
100.6285649698
 10
159.6055183157
 20
101.1188429754
 10
159.5353608549
 20
101.6557718601
 10
159.6452056959
 20
102.1867933657
 10
159.9243007198
 20
102.6599285167
 10
160.3453255787
 20
103.0288635727
 10
160.8670673862
 20
103.257483707
 10
161.4384552061
 20
103.3234101694
 10
162.00355753
 20
103.2201898258
 10
162.5070575222
 20
102.9579265948
 10
162.8996695921
 20
102.5622923832
 10
163.1429617822
 20
102.072015309
 10
163.2131192431
 20
101.5350864243
 10
163.103274402
 20
101.0040639874
 10
162.8241803095
 20
100.5309288364
 10
162.4031554505
 20
100.1619947117
 10
161.8814127117
 20
99.9333745774
 10
161.3100248918
 20
99.867448115
 10
160.7449234992
 20
99.9706684586
  0
LWPOLYLINE
  5
15D
330
1F
100
AcDbEntity
  8
0
  6
HIDDEN
 62
     7
370
     0
100
AcDbPolyline
 90
       22
 70
   128
 43
0.0
 10
160.6901999161
 20
100.0698673513
 10
160.166631785
 20
100.3377930235
 10
159.7503641218
 20
100.7388326313
 10
159.4783853337
 20
101.2373528417
 10
159.3748623103
 20
101.7890571591
 10
159.4489918619
 20
102.3449254196
 10
159.6941886067
 20
102.8555653963
 10
160.0886651844
 20
103.2756044503
 10
160.5973703384
 20
103.5677207608
 10
161.1751041904
 20
103.7059579019
 10
161.77053224
 20
103.6780335914
 10
162.3307479143
 20
103.4864284072
 10
162.8059738845
 20
103.1481678572
 10
163.1539839849
 20
102.6933071177
 10
163.3438555121
 20
102.1622641917
 10
163.3587184891
 20
101.6022217434
 10
163.1972523004
 20
101.0629449945
 10
162.8738030389
 20
100.5923495602
 10
162.417110388
 20
100.2322499614
 10
161.8677548662
 20
100.0146427166
 10
161.274548021
 20
99.9588630136
 10
160.6901999161
 20
100.0698673513
  0
LWPOLYLINE
  5
15E
330
1F
100
AcDbEntity
  8
0
  6
HIDDEN
 62
     7
370
     0
100
AcDbPolyline
 90
       21
 70
   128
 43
0.0
 10
160.7449234992
 20
100.1630545568
 10
160.241423507
 20
100.4253177878
 10
159.8488114372
 20
100.8209519994
 10
159.6055183157
 20
101.3112290736
 10
159.5353608549
 20
101.8481579583
 10
159.6452056959
 20
102.3791803952
 10
159.9243007198
 20
102.8523150805
 10
160.3453255787
 20
103.2212496709
 10
160.8670673862
 20
103.4498698052
 10
161.4384552061
 20
103.5157962676
 10
162.00355753
 20
103.4125763897
 10
162.5070575222
 20
103.1503131587
 10
162.8996695921
 20
102.7546794128
 10
163.1429617822
 20
102.2644014072
 10
163.2131192431
 20
101.7274725225
 10
163.103274402
 20
101.1964510169
 10
162.8241803095
 20
100.7233158659
 10
162.4031554505
 20
100.3543808099
 10
161.8814127117
 20
100.1257606756
 10
161.3100248918
 20
100.0598342132
 10
160.7449234992
 20
100.1630545568
  0
LWPOLYLINE
  5
15F
330
1F
100
AcDbEntity
  8
0
  6
HIDDEN
 62
     7
370
     0
100
AcDbPolyline
 90
       22
 70
   128
 43
0.0
 10
160.6901999161
 20
100.2622534495
 10
160.166631785
 20
100.5301791217
 10
159.7503641218
 20
100.9312187295
 10
159.4783853337
 20
101.4297389399
 10
159.3748623103
 20
101.9814441886
 10
159.4489918619
 20
102.5373115178
 10
159.6941886067
 20
103.0479514945
 10
160.0886651844
 20
103.4679910142
 10
160.5973703384
 20
103.760106859
 10
161.1751041904
 20
103.8983444657
 10
161.77053224
 20
103.8704201553
 10
162.3307479143
 20
103.6788149711
 10
162.8059738845
 20
103.340554421
 10
163.1539839849
 20
102.8856936816
 10
163.3438555121
 20
102.3546502899
 10
163.3587184891
 20
101.7946087729
 10
163.1972523004
 20
101.2553310927
 10
162.8738030389
 20
100.7847356584
 10
162.417110388
 20
100.4246360596
 10
161.8677548662
 20
100.2070288148
 10
161.274548021
 20
100.1512491118
 10
160.6901999161
 20
100.2622534495
  0
LWPOLYLINE
  5
160
330
1F
100
AcDbEntity
  8
0
  6
HIDDEN
 62
     7
370
     0
100
AcDbPolyline
 90
       21
 70
   128
 43
0.0
 10
160.7449234992
 20
100.355440655
 10
160.241423507
 20
100.617703886
 10
159.8488114372
 20
101.0133380976
 10
159.6055183157
 20
101.5036151718
 10
159.5353608549
 20
102.0405440565
 10
159.6452056959
 20
102.5715664934
 10
159.9243007198
 20
103.0447016444
 10
160.3453255787
 20
103.4136362348
 10
160.8670673862
 20
103.6422563691
 10
161.4384552061
 20
103.7081828315
 10
162.00355753
 20
103.6049624879
 10
162.5070575222
 20
103.3426992569
 10
162.8996695921
 20
102.947065511
 10
163.1429617822
 20
102.4567884367
 10
163.2131192431
 20
101.919859552
 10
163.103274402
 20
101.3888371151
 10
162.8241803095
 20
100.9157019641
 10
162.4031554505
 20
100.5467669081
 10
161.8814127117
 20
100.3181467738
 10
161.3100248918
 20
100.2522203114
 10
160.7449234992
 20
100.355440655
  0
LWPOLYLINE
  5
161
330
1F
100
AcDbEntity
  8
0
  6
HIDDEN
 62
     7
370
     0
100
AcDbPolyline
 90
       22
 70
   128
 43
0.0
 10
160.6901999161
 20
100.454640479
 10
160.166631785
 20
100.7225652199
 10
159.7503641218
 20
101.1236057591
 10
159.4783853337
 20
101.6221250381
 10
159.3748623103
 20
102.1738302868
 10
159.4489918619
 20
102.7296985474
 10
159.6941886067
 20
103.2403380584
 10
160.0886651844
 20
103.6603771124
 10
160.5973703384
 20
103.9524934229
 10
161.1751041904
 20
104.0907305639
 10
161.77053224
 20
104.0628062535
 10
162.3307479143
 20
103.8712010693
 10
162.8059738845
 20
103.5329405192
 10
163.1539839849
 20
103.0780802455
 10
163.3438555121
 20
102.5470363881
 10
163.3587184891
 20
101.9869948711
 10
163.1972523004
 20
101.4477181222
 10
162.8738030389
 20
100.9771217566
 10
162.417110388
 20
100.6170221578
 10
161.8677548662
 20
100.399414913
 10
161.274548021
 20
100.34363521
 10
160.6901999161
 20
100.454640479
  0
LWPOLYLINE
  5
162
330
1F
100
AcDbEntity
  8
0
  6
HIDDEN
 62
     7
370
     0
100
AcDbPolyline
 90
       21
 70
   128
 43
0.0
 10
160.7449234992
 20
100.5478267532
 10
160.241423507
 20
100.8100899842
 10
159.8488114372
 20
101.2057241958
 10
159.6055183157
 20
101.69600127
 10
159.5353608549
 20
102.2329301547
 10
159.6452056959
 20
102.7639525916
 10
159.9243007198
 20
103.2370877426
 10
160.3453255787
 20
103.606022333
 10
160.8670673862
 20
103.8346424673
 10
161.4384552061
 20
103.9005689297
 10
162.00355753
 20
103.7973490518
 10
162.5070575222
 20
103.5350858208
 10
162.8996695921
 20
103.1394516092
 10
163.1429617822
 20
102.6491745349
 10
163.2131192431
 20
102.1122456502
 10
163.103274402
 20
101.5812232133
 10
162.8241803095
 20
101.1080880623
 10
162.4031554505
 20
100.7391539376
 10
161.8814127117
 20
100.5105338033
 10
161.3100248918
 20
100.4446064096
 10
160.7449234992
 20
100.5478267532
  0
LWPOLYLINE
  5
163
330
1F
100
AcDbEntity
  8
0
  6
HIDDEN
 62
     7
370
     0
100
AcDbPolyline
 90
       22
 70
   128
 43
0.0
 10
160.6901999161
 20
100.7795593675
 10
160.166631785
 20
101.0474850398
 10
159.7503641218
 20
101.4485246476
 10
159.4783853337
 20
101.947044858
 10
159.3748623103
 20
102.4987491753
 10
159.4489918619
 20
103.0546174359
 10
159.6941886067
 20
103.5652569469
 10
160.0886651844
 20
103.9852964666
 10
160.5973703384
 20
104.2774123114
 10
161.1751041904
 20
104.4156499181
 10
161.77053224
 20
104.3877256077
 10
162.3307479143
 20
104.1961204235
 10
162.8059738845
 20
103.8578598734
 10
163.1539839849
 20
103.402999134
 10
163.3438555121
 20
102.8719557423
 10
163.3587184891
 20
102.3119137596
 10
163.1972523004
 20
101.7726370107
 10
162.8738030389
 20
101.3020415764
 10
162.417110388
 20
100.9419410463
 10
161.8677548662
 20
100.7243338015
 10
161.274548021
 20
100.6685550299
 10
160.6901999161
 20
100.7795593675
  0
LWPOLYLINE
  5
164
330
1F
100
AcDbEntity
  8
0
  6
HIDDEN
 62
     7
370
     0
100
AcDbPolyline
 90
       19
 70
   128
 43
0.0
 10
160.867918615
 20
101.3409969371
 10
160.4226672619
 20
101.5825605925
 10
160.092189309
 20
101.9526560765
 10
159.9163462937
 20
102.4066469606
 10
159.9163462937
 20
102.8897728745
 10
160.092189309
 20
103.343763293
 10
160.4226672619
 20
103.7138592426
 10
160.867918615
 20
103.9554224324
 10
161.3742405146
 20
104.0393164355
 10
161.8805614829
 20
103.9554224324
 10
162.325812836
 20
103.7138592426
 10
162.6562907889
 20
103.343763293
 10
162.8321347356
 20
102.8897728745
 10
162.8321347356
 20
102.4066469606
 10
162.6562907889
 20
101.9526560765
 10
162.325812836
 20
101.5825605925
 10
161.8805614829
 20
101.3409969371
 10
161.3742405146
 20
101.2571033996
 10
160.867918615
 20
101.3409969371
  0
LWPOLYLINE
  5
165
330
1F
100
AcDbEntity
  8
0
  6
HIDDEN
 62
     7
370
     0
100
AcDbPolyline
 90
       20
 70
   128
 43
0.0
 10
153.2945920311
 20
100.1089521658
 10
153.5592422418
 20
100.2247258063
 10
153.7609872006
 20
100.4987311523
 10
153.8779645756
 20
100.9012757774
 10
153.8974986009
 20
101.3887374636
 10
153.8174714491
 20
101.9082915943
 10
153.6465565272
 20
102.403636926
 10
153.4032741159
 20
102.8210957509
 10
153.1139880948
 20
103.1154290747
 10
152.8100467816
 20
103.2547414277
 10
152.5243873306
 20
103.2239365365
 10
152.2879655071
 20
103.0263517957
 10
152.1264005981
 20
102.6833997082
 10
152.0572012354
 20
102.23224377
 10
152.0878659625
 20
101.7217737597
 10
152.2150718205
 20
101.2073065128
 10
152.425034304
 20
100.7445937928
 10
152.6950005039
 20
100.3837770756
 10
152.9957152501
 20
100.163956077
 10
153.2945920311
 20
100.1089521658
  0
LWPOLYLINE
  5
166
330
1F
100
AcDbEntity
  8
0
  6
HIDDEN
 62
     7
370
     0
100
AcDbPolyline
 90
       22
 70
   128
 43
0.0
 10
153.5555458225
 20
99.7713747408
 10
153.8558521837
 20
99.8926143136
 10
154.0946134895
 20
100.1770299833
 10
154.2506142117
 20
100.599350312
 10
154.3099925451
 20
101.1220513817
 10
154.2674734786
 20
101.6986881357
 10
154.1268344566
 20
102.2780238625
 10
153.9005719654
 20
102.8085820351
 10
153.6087904654
 20
103.2432205018
 10
153.2774161145
 20
103.5433196437
 10
152.9358926758
 20
103.6822138328
 10
152.6145658985
 20
103.6475625794
 10
152.3419878043
 20
103.4424443703
 10
152.1423774369
 20
103.0850847226
 10
152.033471369
 20
102.6072370794
 10
152.024946275
 20
102.0513595056
 10
152.1175597858
 20
101.4668446939
 10
152.3030827351
 20
100.9056287792
 10
152.5650307134
 20
100.4175794285
 10
152.880127874
 20
100.0460608836
 10
153.2203772634
 20
99.8240848046
 10
153.5555458225
 20
99.7713747408
  0
LWPOLYLINE
  5
167
330
1F
100
AcDbEntity
  8
0
  6
HIDDEN
 62
     7
370
     0
100
AcDbPolyline
 90
       22
 70
   128
 43
0.0
 10
156.8524961889
 20
100.560945363
 10
157.1528030157
 20
100.6821840044
 10
157.3915643215
 20
100.9665996742
 10
157.547564578
 20
101.3889209341
 10
157.6069429114
 20
101.9116220038
 10
157.5644243106
 20
102.4882587578
 10
157.4237852886
 20
103.067594019
 10
157.1975223318
 20
103.5981526572
 10
156.9057408318
 20
104.0327911239
 10
156.5743669465
 20
104.3328898002
 10
156.2328425765
 20
104.471784455
 10
155.9115167305
 20
104.4371332016
 10
155.6389381707
 20
104.2320149925
 10
155.4393278032
 20
103.8746548791
 10
155.3304217353
 20
103.3968072359
 10
155.3218968742
 20
102.8409296621
 10
155.4145103849
 20
102.2564153161
 10
155.6000331014
 20
101.6951994013
 10
155.8619810797
 20
101.2071500506
 10
156.177078706
 20
100.8356315058
 10
156.5173280954
 20
100.6136554267
 10
156.8524961889
 20
100.560945363
  0
LINE
  5
168
330
1F
100
AcDbEntity
  8
0
  6
HIDDEN
 62
     7
370
     0
100
AcDbLine
 10
153.4044745907
 20
102.3081521478
 30
0.0
 11
152.7522279479
 21
102.8151650887
 31
0.0
  0
LINE
  5
169
330
1F
100
AcDbEntity
  8
0
  6
HIDDEN
 62
     7
370
     0
100
AcDbLine
 10
152.3265036352
 20
102.1919053953
 30
0.0
 11
152.7522279479
 21
102.8151650887
 31
0.0
  0
LINE
  5
16A
330
1F
100
AcDbEntity
  8
0
  6
HIDDEN
 62
     7
370
     0
100
AcDbLine
 10
152.5530268967
 20
101.061632761
 30
0.0
 11
152.3265036352
 21
102.1919053953
 31
0.0
  0
LINE
  5
16B
330
1F
100
AcDbEntity
  8
0
  6
HIDDEN
 62
     7
370
     0
100
AcDbLine
 10
152.5530268967
 20
101.061632761
 30
0.0
 11
153.2052740052
 21
100.55461982
 31
0.0
  0
LINE
  5
16C
330
1F
100
AcDbEntity
  8
0
  6
HIDDEN
 62
     7
370
     0
100
AcDbLine
 10
153.6309978522
 20
101.1778795134
 30
0.0
 11
153.2052740052
 21
100.55461982
 31
0.0
  0
LINE
  5
16D
330
1F
100
AcDbEntity
  8
0
  6
HIDDEN
 62
     7
370
     0
100
AcDbLine
 10
153.6309978522
 20
101.1778795134
 30
0.0
 11
153.4044745907
 21
102.3081521478
 31
0.0
  0
LINE
  5
16E
330
1F
100
AcDbEntity
  8
0
  6
HIDDEN
 62
     7
370
     0
100
AcDbLine
 10
155.4523546778
 20
102.7985889439
 30
0.0
 11
153.4044745907
 21
102.3081521478
 31
0.0
  0
LINE
  5
16F
330
1F
100
AcDbEntity
  8
0
  6
HIDDEN
 62
     7
370
     0
100
AcDbLine
 10
155.6788779393
 20
101.6683167752
 30
0.0
 11
153.6309978522
 21
101.1778795134
 31
0.0
  0
LINE
  5
170
330
1F
100
AcDbEntity
  8
0
  6
HIDDEN
 62
     7
370
     0
100
AcDbLine
 10
154.3743837222
 20
102.6823417258
 30
0.0
 11
154.8001080349
 21
103.3056018848
 31
0.0
  0
LINE
  5
171
330
1F
100
AcDbEntity
  8
0
  6
HIDDEN
 62
     7
370
     0
100
AcDbLine
 10
154.3743837222
 20
102.6823417258
 30
0.0
 11
152.3265036352
 21
102.1919053953
 31
0.0
  0
LINE
  5
172
330
1F
100
AcDbEntity
  8
0
  6
HIDDEN
 62
     7
370
     0
100
AcDbLine
 10
154.8001080349
 20
103.3056018848
 30
0.0
 11
152.7522279479
 21
102.8151650887
 31
0.0
  0
LINE
  5
173
330
1F
100
AcDbEntity
  8
0
  6
HIDDEN
 62
     7
370
     0
100
AcDbLine
 10
154.6009069838
 20
101.5520690914
 30
0.0
 11
152.5530268967
 21
101.061632761
 31
0.0
  0
LINE
  5
174
330
1F
100
AcDbEntity
  8
0
  6
HIDDEN
 62
     7
370
     0
100
AcDbLine
 10
154.6009069838
 20
101.5520690914
 30
0.0
 11
155.2531540923
 21
101.0450570818
 31
0.0
  0
LINE
  5
175
330
1F
100
AcDbEntity
  8
0
  6
HIDDEN
 62
     7
370
     0
100
AcDbLine
 10
155.2531540923
 20
101.0450570818
 30
0.0
 11
153.2052740052
 21
100.55461982
 31
0.0
  0
LINE
  5
176
330
1F
100
AcDbEntity
  8
0
  6
HIDDEN
 62
     7
370
     0
100
AcDbLine
 10
154.6009069838
 20
101.5520690914
 30
0.0
 11
154.3743837222
 21
102.6823417258
 31
0.0
  0
LINE
  5
177
330
1F
100
AcDbEntity
  8
0
  6
HIDDEN
 62
     7
370
     0
100
AcDbLine
 10
155.6788779393
 20
101.6683167752
 30
0.0
 11
155.2531540923
 21
101.0450570818
 31
0.0
  0
LINE
  5
178
330
1F
100
AcDbEntity
  8
0
  6
HIDDEN
 62
     7
370
     0
100
AcDbLine
 10
155.6788779393
 20
101.6683167752
 30
0.0
 11
155.4523546778
 21
102.7985889439
 31
0.0
  0
LINE
  5
179
330
1F
100
AcDbEntity
  8
0
  6
HIDDEN
 62
     7
370
     0
100
AcDbLine
 10
155.4523546778
 20
102.7985889439
 30
0.0
 11
154.8001080349
 21
103.3056018848
 31
0.0
  0
LWPOLYLINE
  5
17A
330
1F
100
AcDbEntity
  8
0
  6
HIDDEN
 62
     7
370
     0
100
AcDbPolyline
 90
       18
 70
   128
 43
0.0
 10
157.3197295487
 20
101.4422102805
 10
157.5465503678
 20
101.5510800269
 10
157.7096193626
 20
101.8104943421
 10
157.7869144797
 20
102.1854178023
 10
157.7679946616
 20
102.625214399
 10
157.6554163888
 20
103.0704885695
 10
157.4643835023
 20
103.4611024868
 10
157.2206964314
 20
103.7443018492
 10
156.9572662532
 20
103.8818386357
 10
156.7096704215
 20
103.8551385488
 10
156.5113480732
 20
103.6678067382
 10
156.3890840456
 20
103.3451439787
 10
156.3593906879
 20
102.9307273191
 10
156.4262792066
 20
102.4805259865
 10
156.5807139099
 20
102.0553427722
 10
156.8018396914
 20
101.7126002323
 10
157.0597899675
 20
101.4985878926
 10
157.3197295487
 20
101.4422102805
  0
LWPOLYLINE
  5
17B
330
1F
100
AcDbEntity
  8
0
  6
HIDDEN
 62
     7
370
     0
100
AcDbPolyline
 90
       22
 70
   128
 43
0.0
 10
156.0677977808
 20
120.2219183531
 10
156.4029663399
 20
120.4966380235
 10
156.7432157293
 20
120.6070546966
 10
157.0583128899
 20
120.5433587518
 10
157.3202604026
 20
120.3112089049
 10
157.5057835847
 20
119.9312330198
 10
157.5983970955
 20
119.4371934023
 10
157.5898717686
 20
118.872987942
 10
157.4809657007
 20
118.2887483362
 10
157.2813553333
 20
117.7363869708
 10
157.0087777048
 20
117.2649840798
 10
156.6874509275
 20
116.9164254304
 10
156.3459274888
 20
116.7216816891
 10
156.0145526722
 20
116.6980577607
 10
155.7227711722
 20
116.8476514492
 10
155.496508681
 20
117.1571713846
 10
155.355869659
 20
117.5991156112
 10
155.3133505925
 20
118.1342149127
 10
155.3727293916
 20
118.7149229433
 10
155.5287301138
 20
119.2896430355
 10
155.7674909539
 20
119.8073065814
 10
156.0677977808
 20
120.2219183531
  0
LWPOLYLINE
  5
17C
330
1F
100
AcDbEntity
  8
0
  6
HIDDEN
 62
     7
370
     0
100
AcDbPolyline
 90
       18
 70
   128
 43
0.0
 10
156.8292922869
 20
119.4843881737
 10
157.0892318681
 20
119.6819468375
 10
157.3471830755
 20
119.7199298974
 10
157.5683079258
 20
119.5932066973
 10
157.722742629
 20
119.3188930836
 10
157.7896311477
 20
118.9340352055
 10
157.75993779
 20
118.4906111073
 10
157.6376737624
 20
118.0485076245
 10
157.4393523455
 20
117.6674327787
 10
157.1917565137
 20
117.398853318
 10
156.9283254042
 20
117.2790423941
 10
156.6846383333
 20
117.3241808053
 10
156.4936054468
 20
117.5281725798
 10
156.381027174
 20
117.8634673331
 10
156.3621073559
 20
118.284782299
 10
156.439402473
 20
118.7352155309
 10
156.6024714678
 20
119.1539344352
 10
156.8292922869
 20
119.4843881737
  0
LWPOLYLINE
  5
17D
330
1F
100
AcDbEntity
  8
0
  6
HIDDEN
 62
     7
370
     0
100
AcDbPolyline
 90
       22
 70
   128
 43
0.0
 10
152.7708469488
 20
121.0114889752
 10
153.1060155079
 20
121.2862086456
 10
153.4462648973
 20
121.3966253188
 10
153.7613625236
 20
121.3329293739
 10
154.0233100362
 20
121.1007795271
 10
154.2088332184
 20
120.7208036419
 10
154.3014467291
 20
120.2267640244
 10
154.2929214023
 20
119.6625585642
 10
154.1840153344
 20
119.0783184927
 10
153.984404967
 20
118.525957593
 10
153.7118268728
 20
118.054554702
 10
153.3905005611
 20
117.7059955869
 10
153.0489771224
 20
117.5112523112
 10
152.7176023059
 20
117.4876279172
 10
152.4258208059
 20
117.6372220714
 10
152.1995583147
 20
117.9467420068
 10
152.0589192927
 20
118.3886857677
 10
152.0164002262
 20
118.9237850692
 10
152.0757787924
 20
119.5044935655
 10
152.2317795146
 20
120.0792136576
 10
152.4705405876
 20
120.5968772035
 10
152.7708469488
 20
121.0114889752
  0
LINE
  5
17E
330
1F
100
AcDbEntity
  8
0
  6
HIDDEN
 62
     7
370
     0
100
AcDbLine
 10
154.3743837222
 20
118.8606507119
 30
0.0
 11
154.8001080349
 21
119.8998046082
 31
0.0
  0
LINE
  5
17F
330
1F
100
AcDbEntity
  8
0
  6
HIDDEN
 62
     7
370
     0
100
AcDbLine
 10
154.3743837222
 20
118.8606507119
 30
0.0
 11
154.6009069838
 21
117.9516705658
 31
0.0
  0
LINE
  5
180
330
1F
100
AcDbEntity
  8
0
  6
HIDDEN
 62
     7
370
     0
100
AcDbLine
 10
154.3743837222
 20
118.8606507119
 30
0.0
 11
152.3265036352
 21
119.3510870423
 31
0.0
  0
LINE
  5
181
330
1F
100
AcDbEntity
  8
0
  6
HIDDEN
 62
     7
370
     0
100
AcDbLine
 10
155.4523546778
 20
120.0299792897
 30
0.0
 11
154.8001080349
 21
119.8998046082
 31
0.0
  0
LINE
  5
182
330
1F
100
AcDbEntity
  8
0
  6
HIDDEN
 62
     7
370
     0
100
AcDbLine
 10
154.8001080349
 20
119.8998046082
 30
0.0
 11
152.7522279479
 21
120.3902418699
 31
0.0
  0
LINE
  5
183
330
1F
100
AcDbEntity
  8
0
  6
HIDDEN
 62
     7
370
     0
100
AcDbLine
 10
153.4044745907
 20
120.5204156201
 30
0.0
 11
152.7522279479
 21
120.3902418699
 31
0.0
  0
LINE
  5
184
330
1F
100
AcDbEntity
  8
0
  6
HIDDEN
 62
     7
370
     0
100
AcDbLine
 10
152.3265036352
 20
119.3510870423
 30
0.0
 11
152.5530268967
 21
118.4421078276
 31
0.0
  0
LWPOLYLINE
  5
185
330
1F
100
AcDbEntity
  8
0
  6
HIDDEN
 62
     7
370
     0
100
AcDbPolyline
 90
       20
 70
   128
 43
0.0
 10
152.6629094563
 20
120.7486529809
 10
152.9617862374
 20
120.985625216
 10
153.2625009835
 20
121.0595759537
 10
153.5324671835
 20
120.9624920946
 10
153.742429667
 20
120.704892927
 10
153.8696357578
 20
120.3146957766
 10
153.9003004849
 20
119.8341826882
 10
153.8311008893
 20
119.3154248383
 10
153.6695359804
 20
118.8146377888
 10
153.4331141569
 20
118.3860901717
 10
153.1474547058
 20
118.076221456
 10
152.8435133926
 20
117.9186104771
 10
152.5542273715
 20
117.9303372253
 10
152.3109449603
 20
118.1101304453
 10
152.1400298055
 20
118.4385073345
 10
152.0600031193
 20
118.879882523
 10
152.079536679
 20
119.3864260774
 10
152.1965142868
 20
119.9032477077
 10
152.3982592456
 20
120.374339537
 10
152.6629094563
 20
120.7486529809
  0
LINE
  5
186
330
1F
100
AcDbEntity
  8
0
  6
HIDDEN
 62
     7
370
     0
100
AcDbLine
 10
152.3265036352
 20
119.3510870423
 30
0.0
 11
152.7522279479
 21
120.3902418699
 31
0.0
  0
LINE
  5
187
330
1F
100
AcDbEntity
  8
0
  6
HIDDEN
 62
     7
370
     0
100
AcDbLine
 10
155.2531540923
 20
118.0818452474
 30
0.0
 11
153.2052740052
 21
118.5722815778
 31
0.0
  0
LINE
  5
188
330
1F
100
AcDbEntity
  8
0
  6
HIDDEN
 62
     7
370
     0
100
AcDbLine
 10
152.5530268967
 20
118.4421078276
 30
0.0
 11
153.2052740052
 21
118.5722815778
 31
0.0
  0
LINE
  5
189
330
1F
100
AcDbEntity
  8
0
  6
HIDDEN
 62
     7
370
     0
100
AcDbLine
 10
154.6009069838
 20
117.9516705658
 30
0.0
 11
152.5530268967
 21
118.4421078276
 31
0.0
  0
LINE
  5
18A
330
1F
100
AcDbEntity
  8
0
  6
HIDDEN
 62
     7
370
     0
100
AcDbLine
 10
154.6009069838
 20
117.9516705658
 30
0.0
 11
155.2531540923
 21
118.0818452474
 31
0.0
  0
LINE
  5
18B
330
1F
100
AcDbEntity
  8
0
  6
HIDDEN
 62
     7
370
     0
100
AcDbLine
 10
155.6788779393
 20
119.1209991436
 30
0.0
 11
153.6309978522
 21
119.6114354741
 31
0.0
  0
LINE
  5
18C
330
1F
100
AcDbEntity
  8
0
  6
HIDDEN
 62
     7
370
     0
100
AcDbLine
 10
153.4044745907
 20
120.5204156201
 30
0.0
 11
153.6309978522
 21
119.6114354741
 31
0.0
  0
LINE
  5
18D
330
1F
100
AcDbEntity
  8
0
  6
HIDDEN
 62
     7
370
     0
100
AcDbLine
 10
155.4523546778
 20
120.0299792897
 30
0.0
 11
153.4044745907
 21
120.5204156201
 31
0.0
  0
LINE
  5
18E
330
1F
100
AcDbEntity
  8
0
  6
HIDDEN
 62
     7
370
     0
100
AcDbLine
 10
155.4523546778
 20
120.0299792897
 30
0.0
 11
155.6788779393
 21
119.1209991436
 31
0.0
  0
LINE
  5
18F
330
1F
100
AcDbEntity
  8
0
  6
HIDDEN
 62
     7
370
     0
100
AcDbLine
 10
153.6309978522
 20
119.6114354741
 30
0.0
 11
153.2052740052
 21
118.5722815778
 31
0.0
  0
LINE
  5
190
330
1F
100
AcDbEntity
  8
0
  6
HIDDEN
 62
     7
370
     0
100
AcDbLine
 10
155.6788779393
 20
119.1209991436
 30
0.0
 11
155.2531540923
 21
118.0818452474
 31
0.0
  0
LINE
  5
191
330
1F
100
AcDbEntity
  8
0
  6
HIDDEN
 62
     7
370
     0
100
AcDbLine
 10
163.3742399111
 20
99.7242339861
 30
0.0
 11
163.3742399111
 21
102.545604014
 31
0.0
  0
LINE
  5
192
330
1F
100
AcDbEntity
  8
0
  6
HIDDEN
 62
     7
370
     0
100
AcDbLine
 10
159.3742401868
 20
102.5286492866
 30
0.0
 11
159.3742401868
 21
101.0071932312
 31
0.0
  0
LINE
  5
193
330
1F
100
AcDbEntity
  8
0
  6
HIDDEN
 62
     7
370
     0
100
AcDbLine
 10
151.5742401656
 20
99.189151914
 30
0.0
 11
153.4678394504
 21
99.6426408153
 31
0.0
  0
LINE
  5
194
330
1F
100
AcDbEntity
  8
0
  6
HIDDEN
 62
     7
370
     0
100
AcDbLine
 10
152.489662037
 20
103.7271440934
 30
0.0
 11
151.5742401656
 21
103.5079144847
 31
0.0
  0
LINE
  5
195
330
1F
100
AcDbEntity
  8
0
  6
HIDDEN
 62
     7
370
     0
100
AcDbLine
 10
153.4972007915
 20
100.112397128
 30
0.0
 11
160.7042610243
 21
101.8383800026
 31
0.0
  0
LINE
  5
196
330
1F
100
AcDbEntity
  8
0
  6
HIDDEN
 62
     7
370
     0
100
AcDbLine
 10
160.7042610243
 20
105.2316938501
 30
0.0
 11
152.7286328904
 21
103.3216495041
 31
0.0
  0
LINE
  5
197
330
1F
100
AcDbEntity
  8
0
  6
HIDDEN
 62
     7
370
     0
100
AcDbLine
 10
163.0242405057
 20
102.5891731467
 30
0.0
 11
163.0242405057
 21
109.1319866452
 31
0.0
  0
LINE
  5
198
330
1F
100
AcDbEntity
  8
0
  6
HIDDEN
 62
     7
370
     0
100
AcDbLine
 10
159.7242405236
 20
102.6114131298
 30
0.0
 11
159.7242405236
 21
102.5891731467
 31
0.0
  0
LINE
  5
199
330
1F
100
AcDbEntity
  8
0
  6
HIDDEN
 62
     7
370
     0
100
AcDbLine
 10
159.7242405236
 20
109.1316945592
 30
0.0
 11
159.7242405236
 21
103.9892601755
 31
0.0
  0
LINE
  5
19A
330
1F
100
AcDbEntity
  8
0
  6
HIDDEN
 62
     7
370
     0
100
AcDbLine
 10
222.4742428929
 20
120.8330773722
 30
0.0
 11
222.1361653477
 21
120.1080772068
 31
0.0
  0
LINE
  5
19B
330
1F
100
AcDbEntity
  8
0
  6
HIDDEN
 62
     7
370
     0
100
AcDbLine
 10
222.1361653477
 20
101.0580769714
 30
0.0
 11
222.4742428929
 21
100.333076806
 31
0.0
  0
ARC
  5
19C
330
1F
100
AcDbEntity
  8
0
  6
HIDDEN
 62
     7
370
     0
100
AcDbCircle
 10
80.9242402464
 20
101.2830770891
 30
0.0
 40
0.7999999999999972
100
AcDbArc
 50
90.0
 51
180.0
  0
ARC
  5
19D
330
1F
100
AcDbEntity
  8
0
  6
HIDDEN
 62
     7
370
     0
100
AcDbCircle
 10
80.9242402464
 20
119.8830770891
 30
0.0
 40
0.7999999999999972
100
AcDbArc
 50
180.0
 51
270.0
  0
ARC
  5
19E
330
1F
100
AcDbEntity
  8
0
  6
HIDDEN
 62
     7
370
     0
100
AcDbCircle
 10
88.8933001387
 20
102.2580770891
 30
0.0
 40
0.4000000000000199
100
AcDbArc
 50
270.0
 51
330.0
  0
ARC
  5
19F
330
1F
100
AcDbEntity
  8
0
  6
HIDDEN
 62
     7
370
     0
100
AcDbCircle
 10
88.8933001387
 20
118.9080770891
 30
0.0
 40
0.4000000000000199
100
AcDbArc
 50
30.0
 51
90.0
  0
LINE
  5
1A0
330
1F
100
AcDbEntity
  8
0
  6
HIDDEN
 62
     7
370
     0
100
AcDbLine
 10
88.0166137189
 20
101.8580774751
 30
0.0
 11
88.893301186
 21
101.8580774751
 31
0.0
  0
LINE
  5
1A1
330
1F
100
AcDbEntity
  8
0
  6
HIDDEN
 62
     7
370
     0
100
AcDbLine
 10
88.893301186
 20
119.3080767032
 30
0.0
 11
88.0166137189
 21
119.3080767032
 31
0.0
  0
ARC
  5
1A2
330
1F
100
AcDbEntity
  8
0
  6
HIDDEN
 62
     7
370
     0
100
AcDbCircle
 10
88.0166126771
 20
102.2580770891
 30
0.0
 40
0.4000000000000057
100
AcDbArc
 50
255.0
 51
270.0
  0
ARC
  5
1A3
330
1F
100
AcDbEntity
  8
0
  6
HIDDEN
 62
     7
370
     0
100
AcDbCircle
 10
88.0166126771
 20
118.9080770891
 30
0.0
 40
0.4000000000000057
100
AcDbArc
 50
90.0
 51
105.0
  0
LINE
  5
1A4
330
1F
100
AcDbEntity
  8
0
  6
HIDDEN
 62
     7
370
     0
100
AcDbLine
 10
87.9130841762
 20
119.2944477286
 30
0.0
 11
87.1242390543
 21
119.0830775511
 31
0.0
  0
LINE
  5
1A5
330
1F
100
AcDbEntity
  8
0
  6
HIDDEN
 62
     7
370
     0
100
AcDbLine
 10
87.1242390543
 20
102.0830766272
 30
0.0
 11
87.9130841762
 21
101.8717064496
 31
0.0
  0
LINE
  5
1A6
330
1F
100
AcDbEntity
  8
0
  6
HIDDEN
 62
     7
370
     0
100
AcDbLine
 10
89.2397084802
 20
102.0580771353
 30
0.0
 11
90.1201696664
 21
103.5830768731
 31
0.0
  0
LINE
  5
1A7
330
1F
100
AcDbEntity
  8
0
  6
HIDDEN
 62
     7
370
     0
100
AcDbLine
 10
90.1201696664
 20
117.5830773052
 30
0.0
 11
89.2397084802
 21
119.1080770429
 31
0.0
  0
LINE
  5
1A8
330
1F
100
AcDbEntity
  8
0
  6
HIDDEN
 62
     7
370
     0
100
AcDbLine
 10
80.9242384106
 20
102.0830766272
 30
0.0
 11
87.1242390543
 21
102.0830766272
 31
0.0
  0
LINE
  5
1A9
330
1F
100
AcDbEntity
  8
0
  6
HIDDEN
 62
     7
370
     0
100
AcDbLine
 10
87.1242390543
 20
119.0830775511
 30
0.0
 11
80.9242384106
 21
119.0830775511
 31
0.0
  0
LINE
  5
1AA
330
1F
100
AcDbEntity
  8
0
  6
HIDDEN
 62
     7
370
     0
100
AcDbLine
 10
222.1770839363
 20
118.7830771294
 30
0.0
 11
219.6242393523
 21
118.7830771294
 31
0.0
  0
LINE
  5
1AB
330
1F
100
AcDbEntity
  8
0
  6
HIDDEN
 62
     7
370
     0
100
AcDbLine
 10
219.6242393523
 20
102.3830770489
 30
0.0
 11
222.1775458723
 21
102.3830770489
 31
0.0
  0
LINE
  5
1AC
330
1F
100
AcDbEntity
  8
0
  6
HIDDEN
 62
     7
370
     0
100
AcDbLine
 10
219.6242393523
 20
117.9294873934
 30
0.0
 11
219.0242366463
 21
117.5830773052
 31
0.0
  0
LINE
  5
1AD
330
1F
100
AcDbEntity
  8
0
  6
HIDDEN
 62
     7
370
     0
100
AcDbLine
 10
219.0242366463
 20
103.5830768731
 30
0.0
 11
219.6242393523
 21
103.2366667848
 31
0.0
  0
LINE
  5
1AE
330
1F
100
AcDbEntity
  8
0
  6
HIDDEN
 62
     7
370
     0
100
AcDbLine
 10
208.0742412776
 20
103.3830772128
 30
0.0
 11
208.6488375038
 21
103.3830772128
 31
0.0
  0
LINE
  5
1AF
330
1F
100
AcDbEntity
  8
0
  6
HIDDEN
 62
     7
370
     0
100
AcDbLine
 10
208.6488375038
 20
117.7830769654
 30
0.0
 11
208.0742412776
 21
117.7830769654
 31
0.0
  0
ARC
  5
1B0
330
1F
100
AcDbEntity
  8
0
  6
HIDDEN
 62
     7
370
     0
100
AcDbCircle
 10
208.6488385863
 20
103.9830770891
 30
0.0
 40
0.6000000000000085
100
AcDbArc
 50
270.0
 51
285.0
  0
ARC
  5
1B1
330
1F
100
AcDbEntity
  8
0
  6
HIDDEN
 62
     7
370
     0
100
AcDbCircle
 10
208.6488385863
 20
117.1830770891
 30
0.0
 40
0.5999999999999943
100
AcDbArc
 50
75.0
 51
90.0
  0
ARC
  5
1B2
330
1F
100
AcDbEntity
  8
0
  6
HIDDEN
 62
     7
370
     0
100
AcDbCircle
 10
208.0742402464
 20
103.9830770891
 30
0.0
 40
0.6000000000000085
100
AcDbArc
 50
180.0
 51
270.0
  0
ARC
  5
1B3
330
1F
100
AcDbEntity
  8
0
  6
HIDDEN
 62
     7
370
     0
100
AcDbCircle
 10
208.0742402464
 20
117.1830770891
 30
0.0
 40
0.5999999999999943
100
AcDbArc
 50
90.0
 51
180.0
  0
LINE
  5
1B4
330
1F
100
AcDbEntity
  8
0
  6
HIDDEN
 62
     7
370
     0
100
AcDbLine
 10
208.8041299552
 20
103.403521606
 30
0.0
 11
209.4742388993
 21
103.5830768731
 31
0.0
  0
LINE
  5
1B5
330
1F
100
AcDbEntity
  8
0
  6
HIDDEN
 62
     7
370
     0
100
AcDbLine
 10
209.4742388993
 20
117.5830773052
 30
0.0
 11
208.8041299552
 21
117.7626325723
 31
0.0
  0
LINE
  5
1B6
330
1F
100
AcDbEntity
  8
0
  6
HIDDEN
 62
     7
370
     0
100
AcDbLine
 10
123.1242393672
 20
103.5830768731
 30
0.0
 11
124.7766067803
 21
106.3330768582
 31
0.0
  0
LINE
  5
1B7
330
1F
100
AcDbEntity
  8
0
  6
HIDDEN
 62
     7
370
     0
100
AcDbLine
 10
124.7766067803
 20
114.8330773201
 30
0.0
 11
123.1242393672
 21
117.5830773052
 31
0.0
  0
LINE
  5
1B8
330
1F
100
AcDbEntity
  8
0
  6
HIDDEN
 62
     7
370
     0
100
AcDbLine
 10
90.1201696664
 20
103.5830768731
 30
0.0
 11
123.1242393672
 21
103.5830768731
 31
0.0
  0
LINE
  5
1B9
330
1F
100
AcDbEntity
  8
0
  6
HIDDEN
 62
     7
370
     0
100
AcDbLine
 10
123.1242393672
 20
117.5830773052
 30
0.0
 11
90.1201696664
 21
117.5830773052
 31
0.0
  0
LINE
  5
1BA
330
1F
100
AcDbEntity
  8
0
  6
HIDDEN
 62
     7
370
     0
100
AcDbLine
 10
209.4742388993
 20
103.5830768731
 30
0.0
 11
219.0242366463
 21
103.5830768731
 31
0.0
  0
LINE
  5
1BB
330
1F
100
AcDbEntity
  8
0
  6
HIDDEN
 62
     7
370
     0
100
AcDbLine
 10
219.0242366463
 20
117.5830773052
 30
0.0
 11
209.4742388993
 21
117.5830773052
 31
0.0
  0
LINE
  5
1BC
330
1F
100
AcDbEntity
  8
0
  6
HIDDEN
 62
     7
370
     0
100
AcDbLine
 10
222.1361653477
 20
120.1080772068
 30
0.0
 11
219.6242393523
 21
120.1080772068
 31
0.0
  0
LINE
  5
1BD
330
1F
100
AcDbEntity
  8
0
  6
HIDDEN
 62
     7
370
     0
100
AcDbLine
 10
219.6242393523
 20
101.0580769714
 30
0.0
 11
222.1361653477
 21
101.0580769714
 31
0.0
  0
LINE
  5
1BE
330
1F
100
AcDbEntity
  8
0
  6
HIDDEN
 62
     7
370
     0
100
AcDbLine
 10
124.7766067803
 20
106.3330768582
 30
0.0
 11
207.4742385715
 21
106.3330768582
 31
0.0
  0
LINE
  5
1BF
330
1F
100
AcDbEntity
  8
0
  6
HIDDEN
 62
     7
370
     0
100
AcDbLine
 10
207.4742385715
 20
114.8330773201
 30
0.0
 11
124.7766067803
 21
114.8330773201
 31
0.0
  0
LINE
  5
1C0
330
1F
100
AcDbEntity
  8
0
  6
HIDDEN
 62
     7
370
     0
100
AcDbLine
 10
163.0242405057
 20
112.034459619
 30
0.0
 11
163.0242405057
 21
118.5769810315
 31
0.0
  0
LINE
  5
1C1
330
1F
100
AcDbEntity
  8
0
  6
HIDDEN
 62
     7
370
     0
100
AcDbLine
 10
159.7242405236
 20
117.1768940028
 30
0.0
 11
159.7242405236
 21
112.034167533
 31
0.0
  0
LINE
  5
1C2
330
1F
100
AcDbEntity
  8
0
  6
HIDDEN
 62
     7
370
     0
100
AcDbLine
 10
159.7242405236
 20
118.5769810315
 30
0.0
 11
159.7242405236
 21
118.5547410484
 31
0.0
  0
LINE
  5
1C3
330
1F
100
AcDbEntity
  8
0
  6
HIDDEN
 62
     7
370
     0
100
AcDbLine
 10
222.1775458723
 20
118.7830771294
 30
0.0
 11
222.1770839363
 21
118.7830771294
 31
0.0
  0
LINE
  5
1C4
330
1F
100
AcDbEntity
  8
0
  6
HIDDEN
 62
     7
370
     0
100
AcDbLine
 10
152.7286328904
 20
117.8445046742
 30
0.0
 11
160.7042610243
 21
115.9344603282
 31
0.0
  0
LINE
  5
1C5
330
1F
100
AcDbEntity
  8
0
  6
HIDDEN
 62
     7
370
     0
100
AcDbLine
 10
160.7042610243
 20
119.3277741756
 30
0.0
 11
153.4972007915
 21
121.0537570503
 31
0.0
  0
LINE
  5
1C6
330
1F
100
AcDbEntity
  8
0
  6
HIDDEN
 62
     7
370
     0
100
AcDbLine
 10
163.3742399111
 20
118.6205501642
 30
0.0
 11
163.3742399111
 21
121.4419201922
 31
0.0
  0
LINE
  5
1C7
330
1F
100
AcDbEntity
  8
0
  6
HIDDEN
 62
     7
370
     0
100
AcDbLine
 10
159.3742401868
 20
120.158960947
 30
0.0
 11
159.3742401868
 21
118.6375048917
 31
0.0
  0
LINE
  5
1C8
330
1F
100
AcDbEntity
  8
0
  6
HIDDEN
 62
     7
370
     0
100
AcDbLine
 10
151.5742401656
 20
117.6582396936
 30
0.0
 11
152.489662037
 21
117.4390100848
 31
0.0
  0
LINE
  5
1C9
330
1F
100
AcDbEntity
  8
0
  6
HIDDEN
 62
     7
370
     0
100
AcDbLine
 10
153.4678394504
 20
121.5235133629
 30
0.0
 11
151.5742401656
 21
121.9770022642
 31
0.0
  0
LINE
  5
1CA
330
1F
100
AcDbEntity
  8
0
  6
HIDDEN
 62
     7
370
     0
100
AcDbLine
 10
163.3742399111
 20
118.6205501642
 30
0.0
 11
163.3742399111
 21
118.945469984
 31
0.0
  0
LINE
  5
1CB
330
1F
100
AcDbEntity
  8
0
  6
HIDDEN
 62
     7
370
     0
100
AcDbLine
 10
159.3742401868
 20
118.945469984
 30
0.0
 11
159.3742401868
 21
118.6205501642
 31
0.0
  0
LINE
  5
1CC
330
1F
100
AcDbEntity
  8
0
  6
HIDDEN
 62
     7
370
     0
100
AcDbLine
 10
162.8742398292
 20
118.8825470369
 30
0.0
 11
162.8742398292
 21
119.8860247593
 31
0.0
  0
LINE
  5
1CD
330
1F
100
AcDbEntity
  8
0
  6
HIDDEN
 62
     7
370
     0
100
AcDbLine
 10
159.8742402688
 20
119.8860247593
 30
0.0
 11
159.8742402688
 21
118.8825470369
 31
0.0
  0
LINE
  5
1CE
330
1F
100
AcDbEntity
  8
0
  6
HIDDEN
 62
     7
370
     0
100
AcDbLine
 10
163.3742399111
 20
119.7150153082
 30
0.0
 11
163.3742399111
 21
119.8518228691
 31
0.0
  0
LINE
  5
1CF
330
1F
100
AcDbEntity
  8
0
  6
HIDDEN
 62
     7
370
     0
100
AcDbLine
 10
159.3742401868
 20
119.8518228691
 30
0.0
 11
159.3742401868
 21
119.7150153082
 31
0.0
  0
LINE
  5
1D0
330
1F
100
AcDbEntity
  8
0
  6
HIDDEN
 62
     7
370
     0
100
AcDbLine
 10
159.3742401868
 20
101.45113887
 30
0.0
 11
159.3742401868
 21
101.3143313091
 31
0.0
  0
LINE
  5
1D1
330
1F
100
AcDbEntity
  8
0
  6
HIDDEN
 62
     7
370
     0
100
AcDbLine
 10
163.3742399111
 20
101.3143313091
 30
0.0
 11
163.3742399111
 21
101.45113887
 31
0.0
  0
LINE
  5
1D2
330
1F
100
AcDbEntity
  8
0
  6
HIDDEN
 62
     7
370
     0
100
AcDbLine
 10
159.8742402688
 20
102.2836071413
 30
0.0
 11
159.8742402688
 21
101.2801294189
 31
0.0
  0
LINE
  5
1D3
330
1F
100
AcDbEntity
  8
0
  6
HIDDEN
 62
     7
370
     0
100
AcDbLine
 10
162.8742398292
 20
101.2801294189
 30
0.0
 11
162.8742398292
 21
102.2836071413
 31
0.0
  0
LINE
  5
1D4
330
1F
100
AcDbEntity
  8
0
  6
HIDDEN
 62
     7
370
     0
100
AcDbLine
 10
159.3742401868
 20
102.545604014
 30
0.0
 11
159.3742401868
 21
102.2206841942
 31
0.0
  0
LINE
  5
1D5
330
1F
100
AcDbEntity
  8
0
  6
HIDDEN
 62
     7
370
     0
100
AcDbLine
 10
163.3742399111
 20
102.2206841942
 30
0.0
 11
163.3742399111
 21
102.545604014
 31
0.0
  0
CIRCLE
  5
1D6
330
1F
100
AcDbEntity
  8
0
  6
HIDDEN
 62
     7
370
     0
100
AcDbCircle
 10
161.3742402464
 20
119.3045907439
 30
0.0
 40
1.499999999999992
  0
ARC
  5
1D7
330
1F
100
AcDbEntity
  8
0
  6
HIDDEN
 62
     7
370
     0
100
AcDbCircle
 10
161.3742402464
 20
101.8615634343
 30
0.0
 40
1.50000000000001
100
AcDbArc
 50
71.1182787691
 51
191.5274417163
  0
ARC
  5
1D8
330
1F
100
AcDbEntity
  8
0
  6
HIDDEN
 62
     7
370
     0
100
AcDbCircle
 10
161.3742402464
 20
101.8615634343
 30
0.0
 40
1.499999999999987
100
AcDbArc
 50
336.6722113243
 51
71.1182787691
  0
LINE
  5
1D9
330
1F
100
AcDbEntity
  8
0
  6
HIDDEN
 62
     7
370
     0
100
AcDbLine
 10
153.6289955087
 20
99.7840630796
 30
0.0
 11
156.925945875
 21
100.5736337017
 31
0.0
  0
LINE
  5
1DA
330
1F
100
AcDbEntity
  8
0
  6
HIDDEN
 62
     7
370
     0
100
AcDbLine
 10
155.9943480946
 20
104.4636367794
 30
0.0
 11
152.6973977283
 21
103.6740661573
 31
0.0
  0
LINE
  5
1DB
330
1F
100
AcDbEntity
  8
0
  6
HIDDEN
 62
     7
370
     0
100
AcDbLine
 10
157.4889098823
 20
101.1846092504
 30
0.0
 11
157.7174871758
 21
101.8319995116
 31
0.0
  0
LINE
  5
1DC
330
1F
100
AcDbEntity
  8
0
  6
HIDDEN
 62
     7
370
     0
100
AcDbLine
 10
157.2700472146
 20
103.7003438894
 30
0.0
 11
156.7730050132
 21
104.1739591371
 31
0.0
  0
LINE
  5
1DD
330
1F
100
AcDbEntity
  8
0
  6
HIDDEN
 62
     7
370
     0
100
AcDbLine
 10
156.7730050132
 20
116.9921950411
 30
0.0
 11
157.2700472146
 21
117.4658102889
 31
0.0
  0
LINE
  5
1DE
330
1F
100
AcDbEntity
  8
0
  6
HIDDEN
 62
     7
370
     0
100
AcDbLine
 10
157.7174871758
 20
119.3341546666
 30
0.0
 11
157.4889098823
 21
119.9815449279
 31
0.0
  0
LINE
  5
1DF
330
1F
100
AcDbEntity
  8
0
  6
HIDDEN
 62
     7
370
     0
100
AcDbLine
 10
152.6973977283
 20
117.492088021
 30
0.0
 11
155.9943480946
 21
116.7025173988
 31
0.0
  0
LINE
  5
1E0
330
1F
100
AcDbEntity
  8
0
  6
HIDDEN
 62
     7
370
     0
100
AcDbLine
 10
156.925945875
 20
120.5925204765
 30
0.0
 11
153.6289955087
 21
121.3820910987
 31
0.0
  0
DIMENSION
  5
1E1
330
1F
100
AcDbEntity
  8
VERMASSUNG
100
AcDbDimension
  2
_D
 10
72.4993978979
 20
142.3330770891
 30
0.0
 11
72.4993978979
 21
110.5830770891
 31
0.0
 70
   160
  1
ISO 40 %%c<>
 71
     2
 42
-1.0
  3
SLDDIMSTYLE0
100
AcDbAlignedDimension
 13
166.8242402464
 23
78.8330770891
 33
0.0
 14
166.8242402464
 24
142.3330770891
 34
0.0
 50
90.0
100
AcDbRotatedDimension
  0
DIMENSION
  5
1EE
330
1F
100
AcDbEntity
  8
VERMASSUNG
100
AcDbDimension
  2
_D_1
 10
222.4742402464
 20
160.799470636
 30
0.0
 11
151.2992402464
 21
160.799470636
 31
0.0
 70
   160
  1
(<>)
 71
     2
 42
-1.0
  3
SLDDIMSTYLE0
100
AcDbAlignedDimension
 13
80.1242402464
 23
121.9902076862
 33
0.0
 14
222.4742402464
 24
122.8830770891
 34
0.0
100
AcDbRotatedDimension
  0
DIMENSION
  5
1FA
330
1F
100
AcDbEntity
  8
VERMASSUNG
100
AcDbDimension
  2
_D_2
 10
222.4742402464
 20
154.799470636
 30
0.0
 11
185.4242402464
 21
154.799470636
 31
0.0
 70
   160
  1
<>
 71
     2
 42
-1.0
  3
SLDDIMSTYLE0
100
AcDbAlignedDimension
 13
148.3742402464
 23
132.8080770891
 33
0.0
 14
222.4742402464
 24
122.8830770891
 34
0.0
100
AcDbRotatedDimension
  0
DIMENSION
  5
204
330
1F
100
AcDbEntity
  8
VERMASSUNG
100
AcDbDimension
  2
_D_3
 10
222.4742402464
 20
148.799470636
 30
0.0
 11
194.9492402464
 21
148.799470636
 31
0.0
 70
   160
  1
<>
 71
     2
 42
-1.0
  3
SLDDIMSTYLE0
100
AcDbAlignedDimension
 13
167.4242402464
 23
135.7544894452
 33
0.0
 14
222.4742402464
 24
122.8830770891
 34
0.0
100
AcDbRotatedDimension
  0
DIMENSION
  5
20E
330
1F
100
AcDbEntity
  8
VERMASSUNG
100
AcDbDimension
  2
_D_4
 10
229.2158980111
 20
98.0830770891
 30
0.0
 11
229.2158980111
 21
110.5830770891
 31
0.0
 70
   160
  1
MBM %%c<>
 71
     2
 42
-1.0
  3
SLDDIMSTYLE0
100
AcDbAlignedDimension
 13
222.2742402464
 23
123.0830770891
 33
0.0
 14
222.2742402464
 24
98.0830770891
 34
0.0
 50
90.0
100
AcDbRotatedDimension
  0
LINE
  5
21A
330
1F
100
AcDbEntity
  8
VERMASSUNG
  6
CENTERX2
 62
     7
370
     0
100
AcDbLine
 10
78.1242402464
 20
110.5830770891
 30
0.0
 11
224.4742402464
 21
110.5830770891
 31
0.0
  0
LINE
  5
21B
330
1F
100
AcDbEntity
  8
VERMASSUNG
  6
CENTERX2
370
     0
100
AcDbLine
 10
151.1679152492
 20
119.9149297344
 30
0.0
 11
162.6492630519
 21
117.1653182078
 31
0.0
  0
LINE
  5
21C
330
1F
100
AcDbEntity
  8
VERMASSUNG
  6
CENTERX2
370
     0
100
AcDbLine
 10
151.1679152492
 20
101.2512244438
 30
0.0
 11
162.6492630519
 21
104.0008359704
 31
0.0
  0
LINE
  5
21D
330
1F
100
AcDbEntity
  8
0
  6
Continuous
 62
     7
370
    15
100
AcDbLine
 10
278.8136467501
 20
20.6624352453
 30
0.0
 11
278.8843471327
 21
20.7032618369
 31
0.0
  0
LINE
  5
21E
330
1F
100
AcDbEntity
  8
0
  6
Continuous
 62
     7
370
    15
100
AcDbLine
 10
283.2323469066
 20
28.2350345061
 30
0.0
 11
283.2323459188
 21
28.3166761291
 31
0.0
  0
LINE
  5
21F
330
1F
100
AcDbEntity
  8
0
  6
Continuous
 62
     7
370
    15
100
AcDbLine
 10
257.7099931893
 20
30.7311831101
 30
0.0
 11
275.6881825246
 21
20.3525953213
 31
0.0
  0
LINE
  5
220
330
1F
100
AcDbEntity
  8
0
  6
Continuous
 62
     7
370
    15
100
AcDbLine
 10
281.9376744164
 20
31.1782061619
 30
0.0
 11
263.9594850811
 21
41.5567939507
 31
0.0
  0
SPLINE
  5
221
330
1F
100
AcDbEntity
  8
0
  6
Continuous
 62
     7
370
    15
100
AcDbSpline
210
0.0
220
0.0
230
1.0
 70
     8
 71
     3
 72
    31
 73
    27
 74
     0
 42
0.000000001
 43
0.00000001
 40
0.0
 40
0.0
 40
0.0
 40
0.0
 40
0.0072879559758718
 40
0.0513428898093576
 40
0.0955205648752614
 40
0.1398824964579368
 40
0.1844087898040498
 40
0.2290587134024829
 40
0.273788071699017
 40
0.3185595987066435
 40
0.3633462889571875
 40
0.4081276037240699
 40
0.452896152648935
 40
0.4976490994931116
 40
0.542386360732554
 40
0.5871095700727829
 40
0.6318212626372626
 40
0.6765245232971361
 40
0.7212226320417388
 40
0.7659190361285677
 40
0.8106170917385657
 40
0.8553193570291683
 40
0.9000294555862846
 40
0.9447508873390642
 40
0.9894871847133803
 40
1.0
 40
1.0
 40
1.0
 40
1.0
 10
260.4076990342573
 20
54.42739165724596
 30
0.0
 10
260.364501614058
 20
54.43827494385607
 30
0.0
 10
260.0601802936923
 20
54.51494656303657
 30
0.0
 10
259.464661074613
 20
54.58717322739459
 30
0.0
 10
258.6097185003253
 20
54.60083898509613
 30
0.0
 10
257.7201249486263
 20
54.50619852920064
 30
0.0
 10
256.8042951562239
 20
54.30943031777904
 30
0.0
 10
255.8682242055743
 20
54.01015169546821
 30
0.0
 10
254.9190650613093
 20
53.61093646791436
 30
0.0
 10
253.9638131929856
 20
53.11469123466194
 30
0.0
 10
253.0094902532611
 20
52.52525867549987
 30
0.0
 10
252.0629577756166
 20
51.84710576528146
 30
0.0
 10
251.1309144009631
 20
51.08529805734491
 30
0.0
 10
250.2198619759396
 20
50.24540063840917
 30
0.0
 10
249.3361334518107
 20
49.33347971639718
 30
0.0
 10
248.4858684075474
 20
48.35606643322771
 30
0.0
 10
247.6749788908319
 20
47.32012039016303
 30
0.0
 10
246.909118365125
 20
46.23298621972112
 30
0.0
 10
246.1936370577642
 20
45.10234915367685
 30
0.0
 10
245.533564578824
 20
43.9361883073959
 30
0.0
 10
244.9335167771992
 20
42.74271273657265
 30
0.0
 10
244.3978894800526
 20
41.53035899557447
 30
0.0
 10
243.9299553124098
 20
40.30749841213572
 30
0.0
 10
243.5351142839159
 20
39.0832283905687
 30
0.0
 10
243.2919366021568
 20
38.1751467467756
 30
0.0
 10
243.1827765478269
 20
37.6787783285004
 30
0.0
 10
243.1620055447722
 20
37.58432921892893
 30
0.0
  0
LINE
  5
222
330
1F
100
AcDbEntity
  8
0
  6
Continuous
 62
     7
370
    15
100
AcDbLine
 10
252.926431909
 20
52.4500369
 30
0.0
 11
231.6206007112
 21
60.1278145296
 31
0.0
  0
LINE
  5
223
330
1F
100
AcDbEntity
  8
0
  6
Continuous
 62
     7
370
    15
100
AcDbLine
 10
225.4558187165
 20
49.4489418843
 30
0.0
 11
245.7520568141
 21
32.3109667968
 31
0.0
  0
SPLINE
  5
224
330
1F
100
AcDbEntity
  8
0
  6
Continuous
 62
     7
370
    15
100
AcDbSpline
210
0.0
220
0.0
230
1.0
 70
     8
 71
     3
 72
    18
 73
    14
 74
     0
 42
0.000000001
 43
0.00000001
 40
0.0
 40
0.0
 40
0.0
 40
0.0
 40
0.0200927869275285
 40
0.1212787288381513
 40
0.2228460070307424
 40
0.3247041159418323
 40
0.4267517108170108
 40
0.5289018946607352
 40
0.6310914758167122
 40
0.7332713601527283
 40
0.8354231333168989
 40
0.9375395154690976
 40
1.0
 40
1.0
 40
1.0
 40
1.0
 10
254.3870958107333
 20
22.57354881214378
 30
0.0
 10
254.4435696022086
 20
22.5717795759324
 30
0.0
 10
254.7844416607982
 20
22.56110058354052
 30
0.0
 10
255.441537753306
 20
22.64301596596277
 30
0.0
 10
256.3531846829347
 20
22.8240167725337
 30
0.0
 10
257.2883846388854
 20
23.11648731545483
 30
0.0
 10
258.2365350407225
 20
23.50675574549886
 30
0.0
 10
259.191603615164
 20
23.9949252199673
 30
0.0
 10
260.1461927913141
 20
24.57668092599112
 30
0.0
 10
261.0939336013976
 20
25.2468050968585
 30
0.0
 10
262.0264522789746
 20
26.0040173593832
 30
0.0
 10
262.8247760253572
 20
26.72201813056195
 30
0.0
 10
263.2980883240025
 20
27.21459920152678
 30
0.0
 10
263.4777205900897
 20
27.40154438394089
 30
0.0
  0
SPLINE
  5
225
330
1F
100
AcDbEntity
  8
0
  6
Continuous
 62
     7
370
    15
100
AcDbSpline
210
0.0
220
0.0
230
1.0
 70
     8
 71
     3
 72
     9
 73
     5
 74
     0
 42
0.000000001
 43
0.00000001
 40
0.0
 40
0.0
 40
0.0
 40
0.0
 40
0.6740731618306928
 40
1.0
 40
1.0
 40
1.0
 40
1.0
 10
269.72939028858
 20
38.22589873990741
 30
0.0
 10
269.8209611365879
 20
38.54639007553844
 30
0.0
 10
269.9568081828629
 20
39.02184489821767
 30
0.0
 10
270.056027345949
 20
39.49049359479076
 30
0.0
 10
270.0883655340593
 20
39.64323878267698
 30
0.0
  0
LINE
  5
226
330
1F
100
AcDbEntity
  8
0
  6
Continuous
 62
     7
370
    15
100
AcDbLine
 10
249.9180784365
 20
24.1156683846
 30
0.0
 11
251.2715382071
 21
23.3343326902
 31
0.0
  0
LINE
  5
227
330
1F
100
AcDbEntity
  8
0
  6
Continuous
 62
     7
370
    15
100
AcDbLine
 10
246.0919812725
 20
26.3244272626
 30
0.0
 11
247.4277637329
 21
25.5532964622
 31
0.0
  0
SPLINE
  5
228
330
1F
100
AcDbEntity
  8
0
  6
Continuous
 62
     7
370
    15
100
AcDbSpline
210
0.0
220
0.0
230
1.0
 70
     8
 71
     3
 72
    10
 73
     6
 74
     0
 42
0.000000001
 43
0.00000001
 40
0.0
 40
0.0
 40
0.0
 40
0.0
 40
0.1582485027415325
 40
0.6302320868078555
 40
1.0
 40
1.0
 40
1.0
 40
1.0
 10
243.1722022832977
 20
30.32184450159644
 30
0.0
 10
243.2023854886066
 20
30.22003165587597
 30
0.0
 10
243.3225915198729
 20
29.81455722097995
 30
0.0
 10
243.5589320352041
 20
29.21002659344862
 30
0.0
 10
243.8122173111834
 20
28.75710065603864
 30
0.0
 10
243.9234814648514
 20
28.55813756627623
 30
0.0
  0
SPLINE
  5
229
330
1F
100
AcDbEntity
  8
0
  6
Continuous
 62
     7
370
    15
100
AcDbSpline
210
0.0
220
0.0
230
1.0
 70
     8
 71
     3
 72
    12
 73
     8
 74
     0
 42
0.000000001
 43
0.00000001
 40
0.0
 40
0.0
 40
0.0
 40
0.0
 40
0.1008383967035705
 40
0.3519149899268475
 40
0.6025700974902042
 40
0.8523573674595737
 40
1.0
 40
1.0
 40
1.0
 40
1.0
 10
270.0789075178357
 20
46.78899947563628
 30
0.0
 10
270.0427750701589
 20
46.91099110887058
 30
0.0
 10
269.916676774511
 20
47.33672858372367
 30
0.0
 10
269.643143629806
 20
48.01526517826649
 30
0.0
 10
269.2296412621942
 20
48.78796834660622
 30
0.0
 10
268.8135218654691
 20
49.39035540952474
 30
0.0
 10
268.5172351830125
 20
49.70782341434992
 30
0.0
 10
268.4071666010857
 20
49.82576072023392
 30
0.0
  0
SPLINE
  5
22A
330
1F
100
AcDbEntity
  8
0
  6
Continuous
 62
     7
370
    15
100
AcDbSpline
210
0.0
220
0.0
230
1.0
 70
     8
 71
     3
 72
    24
 73
    20
 74
     0
 42
0.000000001
 43
0.00000001
 40
0.0
 40
0.0
 40
0.0
 40
0.0
 40
0.0480617574601651
 40
0.1054668716630368
 40
0.163937031687242
 40
0.2237226675771212
 40
0.2845576207289692
 40
0.345960255084261
 40
0.4075137616004075
 40
0.4689885806138644
 40
0.5303436005130638
 40
0.5915964050885605
 40
0.6527894475875403
 40
0.7139748421388089
 40
0.7751998487980492
 40
0.8365125421948847
 40
0.8979711222455774
 40
0.9596284954808262
 40
1.0
 40
1.0
 40
1.0
 40
1.0
 10
231.6387455880235
 20
60.11332999014353
 30
0.0
 10
231.4993178965926
 20
60.16005655851202
 30
0.0
 10
231.1933573321956
 20
60.26259348703481
 30
0.0
 10
230.6750634184087
 20
60.29611618726349
 30
0.0
 10
230.1039783633677
 20
60.2394756477515
 30
0.0
 10
229.5090430335961
 20
60.07686464539076
 30
0.0
 10
228.9010860901882
 20
59.81301399239121
 30
0.0
 10
228.2916409245969
 20
59.45115785250665
 30
0.0
 10
227.6934574886263
 20
58.99925007066796
 30
0.0
 10
227.1181164623273
 20
58.46696413376392
 30
0.0
 10
226.5758623796216
 20
57.86503108128083
 30
0.0
 10
226.0758330987461
 20
57.20469710383785
 30
0.0
 10
225.6264696158808
 20
56.49784247418699
 30
0.0
 10
225.2354376339439
 20
55.75691245789201
 30
0.0
 10
224.9097915833971
 20
54.99483477058335
 30
0.0
 10
224.6550915544087
 20
54.22444930895757
 30
0.0
 10
224.4781049435659
 20
53.45953810829121
 30
0.0
 10
224.3886065760679
 20
52.79690005254002
 30
0.0
 10
224.3794589186845
 20
52.40231491680908
 30
0.0
 10
224.3758393092218
 20
52.24618269286458
 30
0.0
  0
SPLINE
  5
22B
330
1F
100
AcDbEntity
  8
0
  6
Continuous
 62
     7
370
    15
100
AcDbSpline
210
0.0
220
0.0
230
1.0
 70
     8
 71
     3
 72
    13
 73
     9
 74
     0
 42
0.000000001
 43
0.00000001
 40
0.0
 40
0.0
 40
0.0
 40
0.0
 40
0.1112852926207294
 40
0.3217595251081072
 40
0.532227342332576
 40
0.7406813518604121
 40
0.9450234419238491
 40
1.0
 40
1.0
 40
1.0
 40
1.0
 10
224.3758393092218
 20
52.24618269286458
 30
0.0
 10
224.3782531976648
 20
52.12184907417046
 30
0.0
 10
224.3852324810975
 20
51.76236288184554
 30
0.0
 10
224.4638946892763
 20
51.20242749286955
 30
0.0
 10
224.6395088972228
 20
50.59335354251446
 30
0.0
 10
224.9089184136544
 20
50.06563720828963
 30
0.0
 10
225.1600301453771
 20
49.70808293882995
 30
0.0
 10
225.3416634314736
 20
49.56226298034855
 30
0.0
 10
225.3801703918226
 20
49.53134858420455
 30
0.0
  0
LINE
  5
22C
330
1F
100
AcDbEntity
  8
0
  6
Continuous
 62
     7
370
    15
100
AcDbLine
 10
277.3812110572
 20
32.756597675
 30
0.0
 11
277.2397659866
 21
32.8382788112
 31
0.0
  0
LINE
  5
22D
330
1F
100
AcDbEntity
  8
0
  6
Continuous
 62
     7
370
    15
100
AcDbLine
 10
275.4009890715
 20
32.8382791133
 30
0.0
 11
275.2595449743
 21
32.7565982539
 31
0.0
  0
LINE
  5
22E
330
1F
100
AcDbEntity
  8
0
  6
Continuous
 62
     7
370
    15
100
AcDbLine
 10
277.8203775144
 20
31.9504633144
 30
0.0
 11
277.8203775144
 21
32.1443916179
 31
0.0
  0
LINE
  5
22F
330
1F
100
AcDbEntity
  8
0
  6
Continuous
 62
     7
370
    15
100
AcDbLine
 10
274.8203765265
 20
32.1443922832
 30
0.0
 11
274.8203765265
 21
31.9504639797
 31
0.0
  0
LWPOLYLINE
  5
230
330
1F
100
AcDbEntity
  8
0
  6
Continuous
 62
     7
370
    15
100
AcDbPolyline
 90
       45
 70
   128
 43
0.0
 10
274.5349337846
 20
23.2141247839
 10
274.5791971951
 20
23.9543436117
 10
274.7110868672
 20
24.730599493
 10
274.9279175855
 20
25.5270897855
 10
275.2252754556
 20
26.3276005987
 10
275.5971071362
 20
27.1158356858
 10
276.0358429876
 20
27.8757484693
 10
276.5325519937
 20
28.5918699757
 10
277.0771223684
 20
29.2496216543
 10
277.6584680909
 20
29.8356135067
 10
278.2647548696
 20
30.3379167394
 10
278.8836403456
 20
30.7463054726
 10
279.5025258216
 20
31.0524667003
 10
280.1088126002
 20
31.2501672824
 10
280.6901583228
 20
31.3353829141
 10
281.2347286974
 20
31.3063788067
 10
281.7314377035
 20
31.1637453118
 10
282.1701735549
 20
30.9103861601
 10
282.5420052356
 20
30.5514587933
 10
282.8393631056
 20
30.094270069
 10
283.0561938239
 20
29.5481271952
 10
283.188083496
 20
28.924147888
 10
283.2323469066
 20
28.2350345061
 10
283.188083496
 20
27.4948156783
 10
283.0561938239
 20
26.718559797
 10
282.8393631056
 20
25.9220695046
 10
282.5420052356
 20
25.1215586914
 10
282.1701735549
 20
24.3333236042
 10
281.7314377035
 20
23.5734108207
 10
281.2347286974
 20
22.8572893144
 10
280.6901583228
 20
22.1995376358
 10
280.1088126002
 20
21.6135457833
 10
279.5025258216
 20
21.1112425506
 10
278.8836403456
 20
20.7028538174
 10
278.2647548696
 20
20.3966925897
 10
277.6584680909
 20
20.1989920077
 10
277.0771223684
 20
20.113776376
 10
276.5325519937
 20
20.1427804833
 10
276.0358429876
 20
20.2854139782
 10
275.5971071362
 20
20.53877313
 10
275.2252754556
 20
20.8977004967
 10
274.9279175855
 20
21.354889221
 10
274.7110868672
 20
21.9010320948
 10
274.5791971951
 20
22.525011402
 10
274.5349337846
 20
23.2141247839
  0
LWPOLYLINE
  5
231
330
1F
100
AcDbEntity
  8
0
  6
Continuous
 62
     7
370
    15
100
AcDbPolyline
 90
       23
 70
   128
 43
0.0
 10
274.3935110222
 20
23.2141253541
 10
274.4384942219
 20
23.9663802933
 10
274.5725284442
 20
24.755258184
 10
274.7928850098
 20
25.5646997792
 10
275.0950779136
 20
26.3782267919
 10
275.4729556914
 20
27.1792787237
 10
275.9188255554
 20
27.9515479795
 10
276.4236111161
 20
28.6793137913
 10
276.9770361155
 20
29.3477604545
 10
277.5678347505
 20
29.9432808756
 10
278.183979817
 20
30.4537516241
 10
278.8129284705
 20
30.8687808919
 10
279.4418771239
 20
31.1799202824
 10
280.0580221904
 20
31.3808354854
 10
280.6488208255
 20
31.467436649
 10
281.2022458249
 20
31.4379608893
 10
281.7070313855
 20
31.2930080802
 10
282.1529012496
 20
31.0355292118
 10
282.5307790273
 20
30.6707656756
 10
282.8329719312
 20
30.206143163
 10
283.0533284968
 20
29.651119843
 10
283.187362719
 20
29.0169945714
 10
283.2323459188
 20
28.3166761291
  0
LWPOLYLINE
  5
232
330
1F
100
AcDbEntity
  8
0
  6
Continuous
 62
     7
370
    15
100
AcDbPolyline
 90
       13
 70
   128
 43
0.0
 10
278.8136467501
 20
20.6624352453
 10
278.8129284705
 20
20.6620205913
 10
278.183979817
 20
20.3508812008
 10
277.5678347505
 20
20.1499659978
 10
276.9770361155
 20
20.0633648342
 10
276.4236111161
 20
20.0928405939
 10
275.9188255554
 20
20.237793403
 10
275.4729556914
 20
20.4952722714
 10
275.0950779136
 20
20.8600358076
 10
274.7928850098
 20
21.3246583202
 10
274.5725284442
 20
21.8796816402
 10
274.4384942219
 20
22.5138069118
 10
274.3935110222
 20
23.2141253541
  0
SPLINE
  5
233
330
1F
100
AcDbEntity
  8
0
  6
Continuous
 62
     7
370
    15
100
AcDbSpline
210
0.0
220
0.0
230
1.0
 70
     8
 71
     3
 72
    38
 73
    34
 74
     0
 42
0.000000001
 43
0.00000001
 40
0.0
 40
0.0
 40
0.0
 40
0.0
 40
0.0625
 40
0.0625
 40
0.125
 40
0.125
 40
0.1875000000000001
 40
0.1875000000000001
 40
0.25
 40
0.25
 40
0.3125
 40
0.3125
 40
0.3749999999999999
 40
0.3749999999999999
 40
0.4374999999999999
 40
0.4374999999999999
 40
0.4999999999999999
 40
0.4999999999999999
 40
0.5624999999999999
 40
0.5624999999999999
 40
0.6249999999999999
 40
0.6249999999999999
 40
0.6874999999999999
 40
0.6874999999999999
 40
0.7499999999999999
 40
0.7499999999999999
 40
0.8125
 40
0.8125
 40
0.875
 40
0.875
 40
0.9375
 40
0.9375
 40
1.0
 40
1.0
 40
1.0
 40
1.0
 10
277.6903967166627
 20
31.516804603794
 30
0.0
 10
277.6061146383183
 20
31.46814959561675
 30
0.0
 10
277.5114145325128
 20
31.42247753773317
 30
0.0
 10
277.3055290633076
 20
31.33962481136876
 30
0.0
 10
277.1970566996197
 20
31.30341873510163
 30
0.0
 10
276.969849441605
 20
31.2414684545993
 30
0.0
 10
276.8517957155116
 20
31.21608196576408
 30
0.0
 10
276.615777995405
 20
31.17839501663502
 30
0.0
 10
276.4954562979983
 20
31.16572543887299
 30
0.0
 10
276.2587419708545
 20
31.15413704777723
 30
0.0
 10
276.1424674747561
 20
31.15506978181006
 30
0.0
 10
275.9136456877544
 20
31.1708938673291
 30
0.0
 10
275.8011902618803
 20
31.18596014167704
 30
0.0
 10
275.5876732635948
 20
31.22970584090571
 30
0.0
 10
275.4855328862866
 20
31.25842452221329
 30
0.0
 10
275.2904510964926
 20
31.33031866436485
 30
0.0
 10
275.1986848307327
 20
31.37320950672513
 30
0.0
 10
275.0306389284975
 20
31.47064230925504
 30
0.0
 10
274.9536369715632
 20
31.5254379017814
 30
0.0
 10
274.8141991049459
 20
31.64738224992952
 30
0.0
 10
274.752955840043
 20
31.71364393082519
 30
0.0
 10
274.6495467992486
 20
31.85336961834423
 30
0.0
 10
274.6069360884067
 20
31.92720336342254
 30
0.0
 10
274.541252544847
 20
32.0823520868172
 30
0.0
 10
274.5189413917472
 20
32.16218096210961
 30
0.0
 10
274.4965989019529
 20
32.32233526011771
 30
0.0
 10
274.4963431986378
 20
32.40310781418516
 30
0.0
 10
274.5206243146449
 20
32.56488603350518
 30
0.0
 10
274.5449044107723
 20
32.64333495853676
 30
0.0
 10
274.6180547218411
 20
32.79202358063171
 30
0.0
 10
274.6676726623112
 20
32.8633410349726
 30
0.0
 10
274.7923524187698
 20
32.99285756011562
 30
0.0
 10
274.8657710327981
 20
33.04976433857077
 30
0.0
 10
274.9503579395649
 20
33.09859532045051
 30
0.0
  0
SPLINE
  5
234
330
1F
100
AcDbEntity
  8
0
  6
Continuous
 62
     7
370
    15
100
AcDbSpline
210
0.0
220
0.0
230
1.0
 70
     8
 71
     3
 72
    34
 73
    30
 74
     0
 42
0.000000001
 43
0.00000001
 40
0.0
 40
0.0
 40
0.0
 40
0.0
 40
0.0625000000000007
 40
0.0625000000000007
 40
0.1250000000000014
 40
0.1250000000000014
 40
0.2500000000000012
 40
0.2500000000000012
 40
0.3750000000000009
 40
0.3750000000000009
 40
0.4375000000000008
 40
0.4375000000000008
 40
0.5000000000000007
 40
0.5000000000000007
 40
0.5625000000000006
 40
0.5625000000000006
 40
0.6250000000000004
 40
0.6250000000000004
 40
0.6875000000000004
 40
0.6875000000000004
 40
0.7500000000000003
 40
0.7500000000000003
 40
0.8125000000000002
 40
0.8125000000000002
 40
0.8750000000000001
 40
0.8750000000000001
 40
0.9375000000000001
 40
0.9375000000000001
 40
1.0
 40
1.0
 40
1.0
 40
1.0
 10
274.9503579395649
 20
33.09859532045051
 30
0.0
 10
275.0349753311772
 20
33.14744390085703
 30
0.0
 10
275.1314153702666
 20
33.18798793491698
 30
0.0
 10
275.3358240193518
 20
33.2484505809256
 30
0.0
 10
275.4463648453284
 20
33.26929481170415
 30
0.0
 10
275.7879817629112
 20
33.30386754513493
 30
0.0
 10
276.0298521166168
 20
33.29038939550843
 30
0.0
 10
276.5066818123578
 20
33.21242106606489
 30
0.0
 10
276.7336396413196
 20
33.15041783330653
 30
0.0
 10
277.0570256627068
 20
33.03383500212627
 30
0.0
 10
277.1590095738483
 20
32.99193427442716
 30
0.0
 10
277.3519294296211
 20
32.90313612922674
 30
0.0
 10
277.4433023537008
 20
32.85598131421293
 30
0.0
 10
277.6127521623476
 20
32.75774516512694
 30
0.0
 10
277.6894002257072
 20
32.70755190763112
 30
0.0
 10
277.8269875355277
 20
32.60481206652989
 30
0.0
 10
277.8882550606513
 20
32.5519292565212
 30
0.0
 10
277.9924506268567
 20
32.44438655127495
 30
0.0
 10
278.0346817791713
 20
32.39057761539634
 30
0.0
 10
278.099352797711
 20
32.28171486558072
 30
0.0
 10
278.1218946919391
 20
32.22621023263779
 30
0.0
 10
278.1443118774956
 20
32.11441288428732
 30
0.0
 10
278.1442003246664
 20
32.05899092042714
 30
0.0
 10
278.1203139596209
 20
31.9476163148678
 30
0.0
 10
278.0960188626639
 20
31.89090501363936
 30
0.0
 10
278.0220678997587
 20
31.77931426499229
 30
0.0
 10
277.9731351311846
 20
31.7249416522697
 30
0.0
 10
277.850036362741
 20
31.61824309553871
 30
0.0
 10
277.7747091699935
 20
31.56547714707767
 30
0.0
 10
277.6903967166627
 20
31.516804603794
 30
0.0
  0
LWPOLYLINE
  5
235
330
1F
100
AcDbEntity
  8
0
  6
Continuous
 62
     7
370
    15
100
AcDbPolyline
 90
       41
 70
   128
 43
0.0
 10
275.2597179919
 20
23.6325338007
 10
275.3043347116
 20
24.3129330159
 10
275.4370854306
 20
25.0280913741
 10
275.6547021218
 20
25.7603998556
 10
275.95182555
 20
26.4918260592
 10
276.3211402735
 20
27.2043603435
 10
276.7535522866
 20
27.8804574967
 10
277.2384140771
 20
28.5034694186
 10
277.7637868092
 20
29.058056364
 10
278.3167339934
 20
29.5305616094
 10
278.8836403456
 20
29.9093514215
 10
279.4505466978
 20
30.1850977514
 10
280.003493882
 20
30.3510117358
 10
280.5288666141
 20
30.4030072354
 10
281.0137284045
 20
30.3398048209
 10
281.4461404176
 20
30.1629599512
 10
281.8154551412
 20
29.8768273704
 10
282.1125785694
 20
29.4884525749
 10
282.3301952606
 20
29.007398977
 10
282.4629459796
 20
28.4455113365
 10
282.5075626993
 20
27.8166254893
 10
282.4629459796
 20
27.1362262741
 10
282.3301952606
 20
26.421067916
 10
282.1125785694
 20
25.6887594345
 10
281.8154551412
 20
24.9573332308
 10
281.4461404176
 20
24.2447989465
 10
281.0137284045
 20
23.5687017933
 10
280.5288666141
 20
22.9456898714
 10
280.003493882
 20
22.3911029261
 10
279.4505466978
 20
21.9185976806
 10
278.8836403456
 20
21.5398078685
 10
278.3167339934
 20
21.2640615386
 10
277.7637868092
 20
21.0981475542
 10
277.2384140771
 20
21.0461520546
 10
276.7535522866
 20
21.1093544691
 10
276.3211402735
 20
21.2861993389
 10
275.95182555
 20
21.5723319196
 10
275.6547021218
 20
21.9607067151
 10
275.4370854306
 20
22.4417603131
 10
275.3043347116
 20
23.0036479535
 10
275.2597179919
 20
23.6325338007
  0
ARC
  5
236
330
1F
100
AcDbEntity
  8
0
  6
Continuous
 62
     7
370
    15
100
AcDbCircle
 10
279.7301452165
 20
24.1213437742
 30
0.0
 40
4.342147436750037
100
AcDbArc
 50
152.8222845666
 51
207.1777154334
  0
SPLINE
  5
237
330
1F
100
AcDbEntity
  8
0
  6
Continuous
 62
     7
370
    15
100
AcDbSpline
210
0.0
220
0.0
230
1.0
 70
     8
 71
     3
 72
    22
 73
    18
 74
     0
 42
0.000000001
 43
0.00000001
 40
0.0
 40
0.0
 40
0.0
 40
0.0
 40
0.1250000000000001
 40
0.1250000000000001
 40
0.2500000000000003
 40
0.2500000000000003
 40
0.3750000000000004
 40
0.3750000000000004
 40
0.5000000000000006
 40
0.5000000000000006
 40
0.6250000000000007
 40
0.6250000000000007
 40
0.7500000000000004
 40
0.7500000000000004
 40
0.8750000000000003
 40
0.8750000000000003
 40
1.0
 40
1.0
 40
1.0
 40
1.0
 10
276.8159894955321
 20
21.50899112005589
 30
0.0
 10
276.7689518217482
 20
21.46176295010983
 30
0.0
 10
276.7204710565671
 20
21.42352303190955
 30
0.0
 10
276.6210144724016
 20
21.36491700691212
 30
0.0
 10
276.5694137391644
 20
21.34451710939636
 30
0.0
 10
276.467974409446
 20
21.32422324055745
 30
0.0
 10
276.417942288229
 20
21.32395066646339
 30
0.0
 10
276.3194931992292
 20
21.3437341307494
 30
0.0
 10
276.2716023990972
 20
21.3639560813058
 30
0.0
 10
276.1822183947565
 20
21.42317546714225
 30
0.0
 10
276.1397332624894
 20
21.46281604195005
 30
0.0
 10
276.0623800230382
 20
21.55955723059076
 30
0.0
 10
276.0278246377451
 20
21.61593643527787
 30
0.0
 10
275.9665660916008
 20
21.74433711425912
 30
0.0
 10
275.9400273814812
 20
21.81652131764158
 30
0.0
 10
275.896920689795
 20
21.96958451492207
 30
0.0
 10
275.8799454139777
 20
22.05123171591862
 30
0.0
 10
275.8673971446868
 20
22.13805901298605
 30
0.0
  0
SPLINE
  5
238
330
1F
100
AcDbEntity
  8
0
  6
Continuous
 62
     7
370
    15
100
AcDbSpline
210
0.0
220
0.0
230
1.0
 70
     8
 71
     3
 72
     8
 73
     4
 74
     0
 42
0.000000001
 43
0.00000001
 40
0.0
 40
0.0
 40
0.0
 40
0.0
 40
1.0
 40
1.0
 40
1.0
 40
1.0
 10
276.9166340356487
 20
21.60864833209036
 30
0.0
 10
276.8827164849508
 20
21.57553620446444
 30
0.0
 10
276.8491782267741
 20
21.54231426113195
 30
0.0
 10
276.8159894955321
 20
21.50899112005589
 30
0.0
  0
LWPOLYLINE
  5
239
330
1F
100
AcDbEntity
  8
0
  6
Continuous
 62
     7
370
    15
100
AcDbPolyline
 90
        9
 70
   128
 43
0.0
 10
280.5324476145
 20
23.6960121199
 10
280.1151515027
 20
23.1853570032
 10
279.6683424719
 20
22.7305407405
 10
279.2015031513
 20
22.3412162809
 10
278.7245412608
 20
22.025646217
 10
278.2475793703
 20
21.7905278038
 10
277.7807400497
 20
21.6408510569
 10
277.3339310189
 20
21.5797925933
 10
276.9166349071
 20
21.6086478747
  0
SPLINE
  5
23A
330
1F
100
AcDbEntity
  8
0
  6
Continuous
 62
     7
370
    15
100
AcDbSpline
210
0.0
220
0.0
230
1.0
 70
     8
 71
     3
 72
     8
 73
     4
 74
     0
 42
0.000000001
 43
0.00000001
 40
0.0
 40
0.0
 40
0.0
 40
0.0
 40
1.0
 40
1.0
 40
1.0
 40
1.0
 10
280.7050767920582
 20
23.75411342756833
 30
0.0
 10
280.6473453867454
 20
23.73495139938366
 30
0.0
 10
280.5897968955835
 20
23.7155900462847
 30
0.0
 10
280.5324467326473
 20
23.69601257127051
 30
0.0
  0
SPLINE
  5
23B
330
1F
100
AcDbEntity
  8
0
  6
Continuous
 62
     7
370
    15
100
AcDbSpline
210
0.0
220
0.0
230
1.0
 70
     8
 71
     3
 72
    22
 73
    18
 74
     0
 42
0.000000001
 43
0.00000001
 40
0.0
 40
0.0
 40
0.0
 40
0.0
 40
0.1250000000000002
 40
0.1250000000000002
 40
0.2500000000000004
 40
0.2500000000000004
 40
0.3750000000000006
 40
0.3750000000000006
 40
0.5000000000000004
 40
0.5000000000000004
 40
0.6250000000000004
 40
0.6250000000000004
 40
0.7500000000000002
 40
0.7500000000000002
 40
0.8750000000000001
 40
0.8750000000000001
 40
1.0
 40
1.0
 40
1.0
 40
1.0
 10
281.6608279274228
 20
25.48253541467762
 30
0.0
 10
281.682559581386
 20
25.40100740025929
 30
0.0
 10
281.6957309209728
 20
25.31708993658502
 30
0.0
 10
281.7052353382053
 20
25.14435931649992
 30
0.0
 10
281.7013313876478
 20
25.05445231176366
 30
0.0
 10
281.6761963526719
 20
24.87653831131864
 30
0.0
 10
281.6552158061369
 20
24.78819068735673
 30
0.0
 10
281.5960263585868
 20
24.61268291751276
 30
0.0
 10
281.5579195266693
 20
24.52649560910489
 30
0.0
 10
281.46787721816
 20
24.36369274598265
 30
0.0
 10
281.4149445515467
 20
24.28527480788617
 30
0.0
 10
281.2970248245789
 20
24.14055968039098
 30
0.0
 10
281.2327566105622
 20
24.07480816860888
 30
0.0
 10
281.0937479789353
 20
23.95626462895778
 30
0.0
 10
281.0189829104452
 20
23.90379623313703
 30
0.0
 10
280.8659751819137
 20
23.81668858982619
 30
0.0
 10
280.7868854074976
 20
23.78126708832384
 30
0.0
 10
280.7050767920582
 20
23.75411342756834
 30
0.0
  0
ARC
  5
23C
330
1F
100
AcDbEntity
  8
0
  6
Continuous
 62
     7
370
    15
100
AcDbCircle
 10
277.7980785499
 20
27.465820141
 30
0.0
 40
4.342147436750089
100
AcDbArc
 50
332.8222845666
 51
27.1777154334
  0
SPLINE
  5
23D
330
1F
100
AcDbEntity
  8
0
  6
Continuous
 62
     7
370
    15
100
AcDbSpline
210
0.0
220
0.0
230
1.0
 70
     8
 71
     3
 72
    22
 73
    18
 74
     0
 42
0.000000001
 43
0.00000001
 40
0.0
 40
0.0
 40
0.0
 40
0.0
 40
0.1250000000000001
 40
0.1250000000000001
 40
0.2500000000000003
 40
0.2500000000000003
 40
0.3750000000000004
 40
0.3750000000000004
 40
0.5000000000000006
 40
0.5000000000000006
 40
0.6250000000000007
 40
0.6250000000000007
 40
0.7500000000000004
 40
0.7500000000000004
 40
0.8750000000000003
 40
0.8750000000000003
 40
1.0
 40
1.0
 40
1.0
 40
1.0
 10
280.7050767920582
 20
30.0823047196829
 30
0.0
 10
280.7868872462863
 20
30.10945899076342
 30
0.0
 10
280.8660460237559
 20
30.12998886943836
 30
0.0
 10
281.0192998106292
 20
30.15753843036798
 30
0.0
 10
281.0942045438462
 20
30.16448521505303
 30
0.0
 10
281.2328815563234
 20
30.1632822272087
 30
0.0
 10
281.2970685172114
 20
30.15538338629417
 30
0.0
 10
281.4149411016301
 20
30.12438697677706
 30
0.0
 10
281.4678857289295
 20
30.1012475138979
 30
0.0
 10
281.5579232049811
 20
30.04165088687254
 30
0.0
 10
281.5960210505004
 20
30.0045430387937
 30
0.0
 10
281.6552320017371
 20
29.91827517020832
 30
0.0
 10
281.6762408992528
 20
29.86971618645699
 30
0.0
 10
281.701383356222
 20
29.76216488196505
 30
0.0
 10
281.7052300923556
 20
29.70308047632772
 30
0.0
 10
281.6957136203422
 20
29.58039598482213
 30
0.0
 10
281.6825590795277
 20
29.51614235673443
 30
0.0
 10
281.6608279274228
 20
29.44910414841628
 30
0.0
  0
SPLINE
  5
23E
330
1F
100
AcDbEntity
  8
0
  6
Continuous
 62
     7
370
    15
100
AcDbSpline
210
0.0
220
0.0
230
1.0
 70
     8
 71
     3
 72
     8
 73
     4
 74
     0
 42
0.000000001
 43
0.00000001
 40
0.0
 40
0.0
 40
0.0
 40
0.0
 40
1.0
 40
1.0
 40
1.0
 40
1.0
 10
280.5324467326473
 20
30.02420386338508
 30
0.0
 10
280.5898048349119
 20
30.04378404862703
 30
0.0
 10
280.6473531641713
 20
30.06314527295719
 30
0.0
 10
280.7050767920582
 20
30.0823047196829
 30
0.0
  0
LWPOLYLINE
  5
23F
330
1F
100
AcDbEntity
  8
0
  6
Continuous
 62
     7
370
    15
100
AcDbPolyline
 90
        9
 70
   128
 43
0.0
 10
276.9166349071
 20
27.9368390634
 10
277.3339310189
 20
28.4474941801
 10
277.7807400497
 20
28.9023104428
 10
278.2475793703
 20
29.2916349025
 10
278.7245412608
 20
29.6072049663
 10
279.2015031513
 20
29.8423233795
 10
279.6683424719
 20
29.9920001264
 10
280.1151515027
 20
30.05305859
 10
280.5324476145
 20
30.0242033086
  0
SPLINE
  5
240
330
1F
100
AcDbEntity
  8
0
  6
Continuous
 62
     7
370
    15
100
AcDbSpline
210
0.0
220
0.0
230
1.0
 70
     8
 71
     3
 72
     8
 73
     4
 74
     0
 42
0.000000001
 43
0.00000001
 40
0.0
 40
0.0
 40
0.0
 40
0.0
 40
1.0
 40
1.0
 40
1.0
 40
1.0
 10
276.8159894955321
 20
27.83718241217045
 30
0.0
 10
276.8491826984767
 20
27.87051004305891
 30
0.0
 10
276.8827211797117
 20
27.90373207985574
 30
0.0
 10
276.9166340356487
 20
27.93683962420491
 30
0.0
  0
SPLINE
  5
241
330
1F
100
AcDbEntity
  8
0
  6
Continuous
 62
     7
370
    15
100
AcDbSpline
210
0.0
220
0.0
230
1.0
 70
     8
 71
     3
 72
    22
 73
    18
 74
     0
 42
0.000000001
 43
0.00000001
 40
0.0
 40
0.0
 40
0.0
 40
0.0
 40
0.1250000000000002
 40
0.1250000000000002
 40
0.2500000000000004
 40
0.2500000000000004
 40
0.3750000000000007
 40
0.3750000000000007
 40
0.5000000000000006
 40
0.5000000000000006
 40
0.6250000000000004
 40
0.6250000000000004
 40
0.7500000000000003
 40
0.7500000000000003
 40
0.8750000000000002
 40
0.8750000000000002
 40
1.0
 40
1.0
 40
1.0
 40
1.0
 10
275.8673971446868
 20
26.10462774672471
 30
0.0
 10
275.879945703767
 20
26.1663662153854
 30
0.0
 10
275.8969309451214
 20
26.23287465544378
 30
0.0
 10
275.9401194163134
 20
26.37518631852709
 30
0.0
 10
275.9667355574247
 20
26.45198185474214
 30
0.0
 10
276.0278901620782
 20
26.60910220021761
 30
0.0
 10
276.0624020626452
 20
26.68963833976903
 30
0.0
 10
276.1397254461779
 20
26.85467761119849
 30
0.0
 10
276.1822224621788
 20
26.93833052028122
 30
0.0
 10
276.2716104322344
 20
27.10151112495233
 30
0.0
 10
276.3194911428481
 20
27.18284549516937
 30
0.0
 10
276.4179779556957
 20
27.33877900519615
 30
0.0
 10
276.4680745278616
 20
27.41271163167878
 30
0.0
 10
276.5697389470531
 20
27.55281352628635
 30
0.0
 10
276.6212250487961
 20
27.61872058356024
 30
0.0
 10
276.7205120993038
 20
27.73684051417914
 30
0.0
 10
276.7689528789767
 20
27.78995530373453
 30
0.0
 10
276.8159894955321
 20
27.83718241217045
 30
0.0
  0
LWPOLYLINE
  5
242
330
1F
100
AcDbEntity
  8
0
  6
Continuous
 62
     7
370
    15
100
AcDbPolyline
 90
       23
 70
   128
 43
0.0
 10
279.0499648984
 20
29.6594570442
 10
279.1746860665
 20
29.6534687208
 10
279.5769133628
 20
29.5549169083
 10
279.9176655293
 20
29.3389504509
 10
280.1846271251
 20
29.0133751347
 10
280.3681493208
 20
28.5899580322
 10
280.4615990914
 20
28.0840025129
 10
280.4615990914
 20
27.5137951746
 10
280.3681493208
 20
26.8999448468
 10
280.1846271251
 20
26.2646375274
 10
279.9176655293
 20
25.6308349134
 10
279.5769133628
 20
25.0214443789
 10
279.1746860665
 20
24.4584908152
 10
278.7255213397
 20
23.9623209441
 10
278.2456531276
 20
23.5508673338
 10
277.752425126
 20
23.2390012643
 10
277.2636638671
 20
23.0379943905
 10
276.7970344988
 20
22.95511167
 10
276.3694022017
 20
22.9933484212
 10
275.9962226451
 20
23.1513227399
 10
275.6909836436
 20
23.4233254212
 10
275.464717135
 20
23.7995249259
 10
275.4036870166
 20
23.9596839473
  0
LINE
  5
243
330
1F
100
AcDbEntity
  8
0
  6
Continuous
 62
     7
370
    15
100
AcDbLine
 10
275.9314682929
 20
22.0196144053
 30
0.0
 11
277.1744511307
 21
22.7371731239
 31
0.0
  0
LINE
  5
244
330
1F
100
AcDbEntity
  8
0
  6
Continuous
 62
     7
370
    15
100
AcDbLine
 10
280.7727272917
 20
29.9617936992
 30
0.0
 11
280.7744938374
 21
30.0821476226
 31
0.0
  0
ARC
  5
245
330
1F
100
AcDbEntity
  8
0
  6
Continuous
 62
     7
370
    15
100
AcDbCircle
 10
276.9099785973
 20
27.9785093307
 30
0.0
 40
4.342147436749433
100
AcDbArc
 50
332.8222845666
 51
27.1777154334
  0
ARC
  5
246
330
1F
100
AcDbEntity
  8
0
  6
Continuous
 62
     7
370
    15
100
AcDbCircle
 10
278.7232578306
 20
25.9957083875
 30
0.0
 40
2.04946951817825
100
AcDbArc
 50
302.3714316784
 51
359.9864851711
  0
LINE
  5
247
330
1F
100
AcDbEntity
  8
0
  6
Continuous
 62
     7
370
    15
100
AcDbLine
 10
278.5775727305
 20
23.547177982
 30
0.0
 11
279.8205555683
 21
24.2647367006
 31
0.0
  0
ARC
  5
248
330
1F
100
AcDbEntity
  8
0
  6
Continuous
 62
     7
370
    15
100
AcDbCircle
 10
276.0497241072
 20
26.3057416314
 30
0.0
 40
3.741616237730519
100
AcDbArc
 50
287.4935988326
 51
312.5010246347
  0
LINE
  5
249
330
1F
100
AcDbEntity
  8
0
  6
Continuous
 62
     7
370
    15
100
AcDbLine
 10
280.3423136319
 20
29.9144412968
 30
0.0
 11
280.5324476145
 21
30.0242033086
 31
0.0
  0
ARC
  5
24A
330
1F
100
AcDbEntity
  8
0
  6
Continuous
 62
     7
370
    15
100
AcDbCircle
 10
280.5508182754
 20
25.8169738311
 30
0.0
 40
4.102769042837868
100
AcDbArc
 50
92.9130531898
 51
147.0815702775
  0
LINE
  5
24B
330
1F
100
AcDbEntity
  8
0
  6
Continuous
 62
     7
370
    15
100
AcDbLine
 10
276.9166349071
 20
27.9368390634
 30
0.0
 11
277.1067688897
 21
28.0466010752
 31
0.0
  0
SPLINE
  5
24C
330
1F
100
AcDbEntity
  8
0
  6
Continuous
 62
     7
370
    15
100
AcDbSpline
210
0.0
220
0.0
230
1.0
 70
     8
 71
     3
 72
     9
 73
     5
 74
     0
 42
0.000000001
 43
0.00000001
 40
0.0
 40
0.0
 40
0.0
 40
0.0
 40
0.2251348358338469
 40
1.0
 40
1.0
 40
1.0
 40
1.0
 10
279.3525021386538
 20
29.82619441626762
 30
0.0
 10
279.4247717703137
 20
29.83866848071209
 30
0.0
 10
279.7457777638647
 20
29.89407556330894
 30
0.0
 10
280.0818798408685
 20
29.90555008763596
 30
0.0
 10
280.3423136319426
 20
29.91444129681236
 30
0.0
  0
LWPOLYLINE
  5
24D
330
1F
100
AcDbEntity
  8
0
  6
Continuous
 62
     7
370
    15
100
AcDbPolyline
 90
       21
 70
   128
 43
0.0
 10
278.951773772
 20
29.6126588353
 10
279.2845765654
 20
29.524193045
 10
279.6092610691
 20
29.3184102181
 10
279.863634422
 20
29.0081869771
 10
280.0385028489
 20
28.6047355942
 10
280.1275462982
 20
28.1226378015
 10
280.1275462982
 20
27.5793178169
 10
280.0385028489
 20
26.994412646
 10
279.863634422
 20
26.3890624749
 10
279.6092610691
 20
25.7851460121
 10
279.2845765654
 20
25.2044904366
 10
278.9013158448
 20
24.6680821873
 10
278.4733308148
 20
24.1953083937
 10
278.0160901921
 20
23.8032564412
 10
277.5461197084
 20
23.5060961299
 10
277.0804053362
 20
23.3145674814
 10
276.635779257
 20
23.2355928063
 10
276.2283113458
 20
23.2720265566
 10
275.8727285923
 20
23.422551916
 10
275.5818827396
 20
23.6817286104
 10
275.3981328522
 20
23.970961867
  0
SPLINE
  5
24E
330
1F
100
AcDbEntity
  8
0
  6
Continuous
 62
     7
370
    15
100
AcDbSpline
210
0.0
220
0.0
230
1.0
 70
     8
 71
     3
 72
    12
 73
     8
 74
     0
 42
0.000000001
 43
0.00000001
 40
0.0
 40
0.0
 40
0.0
 40
0.0
 40
0.2499999999999992
 40
0.2499999999999992
 40
0.4999999999999983
 40
0.4999999999999983
 40
1.0
 40
1.0
 40
1.0
 40
1.0
 10
248.4433669364417
 20
34.54223380705579
 30
0.0
 10
248.477146102714
 20
34.52273350944228
 30
0.0
 10
248.5154707991896
 20
34.49589376086511
 30
0.0
 10
248.5896939233021
 20
34.43749325754246
 30
0.0
 10
248.6250772877968
 20
34.40650359906157
 30
0.0
 10
248.7208872461818
 20
34.31576424604081
 30
0.0
 10
248.7698910043361
 20
34.25987011732327
 30
0.0
 10
248.8037000619508
 20
34.21261025355661
 30
0.0
  0
SPLINE
  5
24F
330
1F
100
AcDbEntity
  8
0
  6
Continuous
 62
     7
370
    15
100
AcDbSpline
210
0.0
220
0.0
230
1.0
 70
     8
 71
     3
 72
    12
 73
     8
 74
     0
 42
0.000000001
 43
0.00000001
 40
0.0
 40
0.0
 40
0.0
 40
0.0
 40
0.4999999999999971
 40
0.4999999999999971
 40
0.7499999999999986
 40
0.7499999999999986
 40
1.0
 40
1.0
 40
1.0
 40
1.0
 10
265.9082299751419
 20
50.98241177787815
 30
0.0
 10
265.9082299751419
 20
51.05383080960282
 30
0.0
 10
265.8906654444809
 20
51.13636056879602
 30
0.0
 10
265.8355399099909
 20
51.25530528482889
 30
0.0
 10
265.8122474362341
 20
51.29393817205349
 30
0.0
 10
265.7582790471768
 20
51.36050068333054
 30
0.0
 10
265.7274315464236
 20
51.38842172158319
 30
0.0
 10
265.6960979407859
 20
51.40651022709314
 30
0.0
  0
LWPOLYLINE
  5
250
330
1F
100
AcDbEntity
  8
0
  6
Continuous
 62
     7
370
    15
100
AcDbPolyline
 90
       11
 70
   128
 43
0.0
 10
254.4070734169
 20
48.2097739456
 10
255.4122958395
 20
49.1060632782
 10
256.4385574421
 20
49.9055224176
 10
257.4770188697
 20
50.6012652274
 10
258.5187353594
 20
51.1872998617
 10
259.5547342422
 20
51.6585773086
 10
260.5760921577
 20
52.011039007
 10
261.5740119802
 20
52.2416490877
 10
262.539897893
 20
52.3484209824
 10
263.4654301739
 20
52.3304347416
 10
264.3426378004
 20
52.1878462474
  0
LINE
  5
251
330
1F
100
AcDbEntity
  8
0
  6
Continuous
 62
     7
370
    15
100
AcDbLine
 10
265.6960975709
 20
51.406510553
 30
0.0
 11
264.3426378004
 21
52.1878462474
 31
0.0
  0
LINE
  5
252
330
1F
100
AcDbEntity
  8
0
  6
Continuous
 62
     7
370
    15
100
AcDbLine
 10
247.0899070219
 20
35.323569691
 30
0.0
 11
248.4433667925
 21
34.5422339967
 31
0.0
  0
ARC
  5
253
330
1F
100
AcDbEntity
  8
0
  6
Continuous
 62
     7
370
    15
100
AcDbCircle
 10
272.7058544277
 20
29.3120561791
 30
0.0
 40
26.31188051429232
100
AcDbArc
 50
136.4697995832
 51
166.7929036469
  0
SPLINE
  5
254
330
1F
100
AcDbEntity
  8
0
  6
Continuous
 62
     7
370
    15
100
AcDbSpline
210
0.0
220
0.0
230
1.0
 70
     8
 71
     3
 72
    12
 73
     8
 74
     0
 42
0.000000001
 43
0.00000001
 40
0.0
 40
0.0
 40
0.0
 40
0.0
 40
0.2500000000000008
 40
0.2500000000000008
 40
0.5000000000000017
 40
0.5000000000000017
 40
1.0
 40
1.0
 40
1.0
 40
1.0
 10
253.6294398121226
 20
47.43401717019029
 30
0.0
 10
253.7287544948425
 20
47.4673652544861
 30
0.0
 10
253.822579634534
 20
47.51124745599063
 30
0.0
 10
253.9995727394396
 20
47.61937772478635
 30
0.0
 10
254.0793843073607
 20
47.68178321496754
 30
0.0
 10
254.287568168581
 20
47.8891807927573
 30
0.0
 10
254.379278002167
 20
48.05059133055109
 30
0.0
 10
254.4070733283408
 20
48.20977433809018
 30
0.0
  0
LINE
  5
255
330
1F
100
AcDbEntity
  8
0
  6
Continuous
 62
     7
370
    15
100
AcDbLine
 10
269.9254936478
 20
46.3113627837
 30
0.0
 11
270.0308574764
 21
46.4938579073
 31
0.0
  0
LINE
  5
256
330
1F
100
AcDbEntity
  8
0
  6
Continuous
 62
     7
370
    15
100
AcDbLine
 10
268.7543348021
 20
45.6352671732
 30
0.0
 11
269.9254936478
 21
46.3113627837
 31
0.0
  0
ARC
  5
257
330
1F
100
AcDbEntity
  8
0
  6
Continuous
 62
     7
370
    15
100
AcDbCircle
 10
269.4168226298
 20
44.5995827535
 30
0.0
 40
1.229443914555035
100
AcDbArc
 50
122.6054968531
 51
177.3945222572
  0
LINE
  5
258
330
1F
100
AcDbEntity
  8
0
  6
Continuous
 62
     7
370
    15
100
AcDbLine
 10
268.1886496795
 20
39.388783007
 30
0.0
 11
268.1886496795
 21
44.6554714225
 31
0.0
  0
ARC
  5
259
330
1F
100
AcDbEntity
  8
0
  6
Continuous
 62
     7
370
    15
100
AcDbCircle
 10
268.5335091226
 20
39.3328411954
 30
0.0
 40
0.3493673163990102
100
AcDbArc
 50
170.7859529282
 51
309.2032375553
  0
LINE
  5
25A
330
1F
100
AcDbEntity
  8
0
  6
Continuous
 62
     7
370
    15
100
AcDbLine
 10
269.9254936478
 20
39.7382090071
 30
0.0
 11
268.7543348021
 21
39.0621133966
 31
0.0
  0
LINE
  5
25B
330
1F
100
AcDbEntity
  8
0
  6
Continuous
 62
     7
370
    15
100
AcDbLine
 10
270.0308574764
 20
39.6773643706
 30
0.0
 11
269.9254936478
 21
39.7382090071
 31
0.0
  0
LINE
  5
25C
330
1F
100
AcDbEntity
  8
0
  6
Continuous
 62
     7
370
    15
100
AcDbLine
 10
248.8515952403
 20
27.5725064107
 30
0.0
 11
248.8036999568
 21
27.4502577498
 31
0.0
  0
LINE
  5
25D
330
1F
100
AcDbEntity
  8
0
  6
Continuous
 62
     7
370
    15
100
AcDbLine
 10
248.8515952403
 20
27.5725064107
 30
0.0
 11
250.864533335
 21
28.734550838
 31
0.0
  0
ARC
  5
25E
330
1F
100
AcDbEntity
  8
0
  6
Continuous
 62
     7
370
    15
100
AcDbCircle
 10
250.2020455073
 20
29.7702352577
 30
0.0
 40
1.229443914554743
100
AcDbArc
 50
302.6054968531
 51
357.3945222572
  0
LINE
  5
25F
330
1F
100
AcDbEntity
  8
0
  6
Continuous
 62
     7
370
    15
100
AcDbLine
 10
251.4302184575
 20
34.9810350042
 30
0.0
 11
251.4302184575
 21
29.7143465887
 31
0.0
  0
ARC
  5
260
330
1F
100
AcDbEntity
  8
0
  6
Continuous
 62
     7
370
    15
100
AcDbCircle
 10
251.0853590145
 20
35.0369768158
 30
0.0
 40
0.3493673163989844
100
AcDbArc
 50
350.7859529282
 51
129.2032375553
  0
LINE
  5
261
330
1F
100
AcDbEntity
  8
0
  6
Continuous
 62
     7
370
    15
100
AcDbLine
 10
250.864533335
 20
35.3077046146
 30
0.0
 11
248.8515952403
 21
34.1456601873
 31
0.0
  0
LINE
  5
262
330
1F
100
AcDbEntity
  8
0
  6
Continuous
 62
     7
370
    15
100
AcDbLine
 10
248.8036999568
 20
34.212610131
 30
0.0
 11
248.8515952403
 21
34.1456601873
 31
0.0
  0
LINE
  5
263
330
1F
100
AcDbEntity
  8
0
  6
Continuous
 62
     7
370
    15
100
AcDbLine
 10
265.9082299035
 20
48.1974306698
 30
0.0
 11
265.9082299035
 21
50.9824115583
 31
0.0
  0
LINE
  5
264
330
1F
100
AcDbEntity
  8
0
  6
Continuous
 62
     7
370
    15
100
AcDbLine
 10
268.3199634544
 20
49.5896948136
 30
0.0
 11
265.9082299035
 21
48.1974306698
 31
0.0
  0
LINE
  5
265
330
1F
100
AcDbEntity
  8
0
  6
Continuous
 62
     7
370
    15
100
AcDbLine
 10
280.7727272917
 20
29.9617936992
 30
0.0
 11
281.6608272443
 21
29.4491045095
 31
0.0
  0
LINE
  5
266
330
1F
100
AcDbEntity
  8
0
  6
Continuous
 62
     7
370
    15
100
AcDbLine
 10
277.1744511307
 20
22.7371731239
 30
0.0
 11
277.4106078255
 21
22.6008427659
 31
0.0
  0
SPLINE
  5
267
330
1F
100
AcDbEntity
  8
0
  6
Continuous
 62
     7
370
    15
100
AcDbSpline
210
0.0
220
0.0
230
1.0
 70
     8
 71
     3
 72
    10
 73
     6
 74
     0
 42
0.000000001
 43
0.00000001
 40
0.0
 40
0.0
 40
0.0
 40
0.0
 40
0.5
 40
0.5
 40
1.0
 40
1.0
 40
1.0
 40
1.0
 10
277.4106071884322
 20
22.60084312798651
 30
0.0
 10
277.3139270583234
 20
22.46095459772756
 30
0.0
 10
277.2472483521197
 20
22.31532916454353
 30
0.0
 10
277.1513108571206
 20
22.01692282334486
 30
0.0
 10
277.1231811612403
 20
21.8676524010078
 30
0.0
 10
277.1067679959549
 20
21.71841033102528
 30
0.0
  0
LINE
  5
268
330
1F
100
AcDbEntity
  8
0
  6
Continuous
 62
     7
370
    15
100
AcDbLine
 10
277.1067688897
 20
21.7184098865
 30
0.0
 11
276.9166349071
 21
21.6086478747
 31
0.0
  0
SPLINE
  5
269
330
1F
100
AcDbEntity
  8
0
  6
Continuous
 62
     7
370
    15
100
AcDbSpline
210
0.0
220
0.0
230
1.0
 70
     8
 71
     3
 72
     8
 73
     4
 74
     0
 42
0.000000001
 43
0.00000001
 40
0.0
 40
0.0
 40
0.0
 40
0.0
 40
1.0
 40
1.0
 40
1.0
 40
1.0
 10
246.0997555162042
 20
36.58194889592546
 30
0.0
 10
245.7190576502038
 20
36.51898205825486
 30
0.0
 10
245.3382196779639
 20
36.45628193611982
 30
0.0
 10
244.9572790272242
 20
36.39380105744679
 30
0.0
  0
SPLINE
  5
26A
330
1F
100
AcDbEntity
  8
0
  6
Continuous
 62
     7
370
    15
100
AcDbSpline
210
0.0
220
0.0
230
1.0
 70
     8
 71
     3
 72
     8
 73
     4
 74
     0
 42
0.000000001
 43
0.00000001
 40
0.0
 40
0.0
 40
0.0
 40
0.0
 40
0.0011901715795577
 40
0.0011901715795577
 40
0.0011901715795577
 40
0.0011901715795577
 10
244.5995922296664
 20
36.76119771330242
 30
0.0
 10
244.7192387371612
 20
36.63858280354692
 30
0.0
 10
244.8384819113093
 20
36.51611076305121
 30
0.0
 10
244.9572790272242
 20
36.39380105744679
 30
0.0
  0
LWPOLYLINE
  5
26B
330
1F
100
AcDbEntity
  8
0
  6
Continuous
 62
     7
370
    15
100
AcDbPolyline
 90
       22
 70
   128
 43
0.0
 10
244.5995923183
 20
36.7611977687
 10
244.931013403
 20
38.0604775966
 10
245.3477535386
 20
39.3699080623
 10
245.8464054157
 20
40.678782168
 10
246.4228913267
 20
41.9763956404
 10
247.07249741
 20
43.2521393238
 10
247.7899111872
 20
44.4955790252
 10
248.5692656852
 20
45.6965475259
 10
249.4041881688
 20
46.8452236655
 10
250.2878518363
 20
47.9322154173
 10
251.2130298203
 20
48.9486328877
 10
252.1721570908
 20
49.8861643569
 10
253.1573900533
 20
50.7371441442
 10
254.1606724861
 20
51.4946127265
 10
255.1737999947
 20
52.1523767607
 10
256.1884879244
 20
52.7050574147
 10
257.1964387793
 20
53.1481338497
 10
258.1894099691
 20
53.4779846119
 10
259.1592820518
 20
53.6919118179
 10
260.0981235172
 20
53.7881656265
 10
260.9982573829
 20
53.7659591085
 10
261.8523230967
 20
53.625474325
  0
LINE
  5
26C
330
1F
100
AcDbEntity
  8
0
  6
Continuous
 62
     7
370
    15
100
AcDbLine
 10
262.276006267
 20
52.3231350668
 30
0.0
 11
261.8523230967
 21
53.625474325
 31
0.0
  0
LWPOLYLINE
  5
26D
330
1F
100
AcDbEntity
  8
0
  6
Continuous
 62
     7
370
    15
100
AcDbPolyline
 90
       21
 70
   128
 43
0.0
 10
246.0997553904
 20
36.5819490816
 10
246.4105620564
 20
37.8135583918
 10
246.8055781257
 20
39.0554176844
 10
247.2813113368
 20
40.2965473435
 10
247.8335549074
 20
41.5259727634
 10
248.4574263885
 20
42.732823205
 10
249.1474098113
 20
43.9064287509
 10
249.8974037609
 20
45.0364115562
 10
250.7007770235
 20
46.1127807114
 10
251.5504265379
 20
47.1260196898
 10
252.4388392991
 20
48.0671684721
 10
253.3581606821
 20
48.927906335
 10
254.300261449
 20
49.7006224733
 10
255.2568119583
 20
50.3784839351
 10
256.2193544406
 20
50.9554978781
 10
257.179378196
 20
51.4265625852
 10
258.128394668
 20
51.7875123241
 10
259.0580127237
 20
52.0351554828
 10
259.9600132337
 20
52.1673031747
 10
260.8264200717
 20
52.1827866513
 10
261.1485336176
 20
52.1576160935
  0
ARC
  5
26E
330
1F
100
AcDbEntity
  8
0
  6
Continuous
 62
     7
370
    15
100
AcDbCircle
 10
276.8982642462
 20
25.8158773522
 30
0.0
 40
4.102769042838074
100
AcDbArc
 50
272.9130531898
 51
327.0815702775
  0
LINE
  5
26F
330
1F
100
AcDbEntity
  8
0
  6
Continuous
 62
     7
370
    15
100
AcDbLine
 10
280.5324476145
 20
23.6960121199
 30
0.0
 11
280.3423136319
 21
23.5862501081
 31
0.0
  0
ARC
  5
270
330
1F
100
AcDbEntity
  8
0
  6
Continuous
 62
     7
370
    15
100
AcDbCircle
 10
276.2858808019
 20
26.1694112734
 30
0.0
 40
3.741616237730496
100
AcDbArc
 50
287.4935988326
 51
312.5010246347
  0
SPLINE
  5
271
330
1F
100
AcDbEntity
  8
0
  6
Continuous
 62
     7
370
    15
100
AcDbSpline
210
0.0
220
0.0
230
1.0
 70
     8
 71
     3
 72
    10
 73
     6
 74
     0
 42
0.000000001
 43
0.00000001
 40
0.0
 40
0.0
 40
0.0
 40
0.0
 40
0.5
 40
0.5
 40
1.0
 40
1.0
 40
1.0
 40
1.0
 10
280.3423127723411
 20
23.58625057233559
 30
0.0
 10
280.0831456603406
 20
23.57675184120185
 30
0.0
 10
279.8227402930306
 20
23.56029423023623
 30
0.0
 10
279.3092483870635
 20
23.50523061649394
 30
0.0
 10
279.0574052579014
 20
23.46697256889986
 30
0.0
 10
278.8137287084723
 20
23.41084794006851
 30
0.0
  0
LINE
  5
272
330
1F
100
AcDbEntity
  8
0
  6
Continuous
 62
     7
370
    15
100
AcDbLine
 10
280.7727272917
 20
25.9952249622
 30
0.0
 11
281.6608272443
 21
25.4825357724
 31
0.0
  0
LINE
  5
273
330
1F
100
AcDbEntity
  8
0
  6
Continuous
 62
     7
370
    15
100
AcDbLine
 10
243.2638098579
 20
37.5323285691
 30
0.0
 11
244.5995923183
 21
36.7611977687
 31
0.0
  0
LINE
  5
274
330
1F
100
AcDbEntity
  8
0
  6
Continuous
 62
     7
370
    15
100
AcDbLine
 10
261.8523230967
 20
53.625474325
 30
0.0
 11
260.5165406364
 21
54.3966051254
 31
0.0
  0
LINE
  5
275
330
1F
100
AcDbEntity
  8
0
  6
Continuous
 62
     7
370
    15
100
AcDbLine
 10
247.3262975
 20
36.2816642882
 30
0.0
 11
246.7357868958
 21
36.6225588039
 31
0.0
  0
SPLINE
  5
276
330
1F
100
AcDbEntity
  8
0
  6
Continuous
 62
     7
370
    15
100
AcDbSpline
210
0.0
220
0.0
230
1.0
 70
     8
 71
     3
 72
    14
 73
    10
 74
     0
 42
0.000000001
 43
0.00000001
 40
0.0
 40
0.0
 40
0.0
 40
0.0
 40
0.1134875903227499
 40
0.2884507601050068
 40
0.4634438893900288
 40
0.6380744063983101
 40
0.8124676993590939
 40
0.9871167959912229
 40
0.9999999999999999
 40
0.9999999999999999
 40
0.9999999999999999
 40
0.9999999999999999
 10
254.120522262258
 20
47.73432466806194
 30
0.0
 10
254.0509717998486
 20
47.73767469748461
 30
0.0
 10
253.8741957868012
 20
47.7461894481335
 30
0.0
 10
253.5793602644126
 20
47.66104340159244
 30
0.0
 10
253.2867141551095
 20
47.49760778932525
 30
0.0
 10
253.0611717952849
 20
47.26692009670042
 30
0.0
 10
252.9420802945861
 20
47.00418642841699
 30
0.0
 10
252.9080133161978
 20
46.80922865452539
 30
0.0
 10
252.9396755875025
 20
46.72344956631123
 30
0.0
 10
252.9418507407919
 20
46.71755666418519
 30
0.0
  0
SPLINE
  5
277
330
1F
100
AcDbEntity
  8
0
  6
Continuous
 62
     7
370
    15
100
AcDbSpline
210
0.0
220
0.0
230
1.0
 70
     8
 71
     3
 72
    12
 73
     8
 74
     0
 42
0.000000001
 43
0.00000001
 40
0.0
 40
0.0
 40
0.0
 40
0.0
 40
0.2500000000000015
 40
0.2500000000000015
 40
0.500000000000003
 40
0.500000000000003
 40
1.0
 40
1.0
 40
1.0
 40
1.0
 10
246.7357869654416
 20
36.62255879134109
 30
0.0
 10
246.6981682304823
 20
36.64427562477729
 30
0.0
 10
246.652175822095
 20
36.66153135875994
 30
0.0
 10
246.5525746921191
 20
36.68382514658776
 30
0.0
 10
246.497823966865
 20
36.6890309311672
 30
0.0
 10
246.3383180680457
 20
36.68602903174007
 30
0.0
 10
246.2333152628281
 20
36.65905129648087
 30
0.0
 10
246.1580023666362
 20
36.61557408694757
 30
0.0
  0
LINE
  5
278
330
1F
100
AcDbEntity
  8
0
  6
Continuous
 62
     7
370
    15
100
AcDbLine
 10
278.8137294252
 20
23.410847624
 30
0.0
 11
278.5775727305
 21
23.547177982
 31
0.0
  0
SPLINE
  5
279
330
1F
100
AcDbEntity
  8
0
  6
Continuous
 62
     7
370
    15
100
AcDbSpline
210
0.0
220
0.0
230
1.0
 70
     8
 71
     3
 72
    10
 73
     6
 74
     0
 42
0.000000001
 43
0.00000001
 40
0.0
 40
0.0
 40
0.0
 40
0.0
 40
0.5
 40
0.5
 40
1.0
 40
1.0
 40
1.0
 40
1.0
 10
243.1621656536529
 20
37.56305056790023
 30
0.0
 10
243.1694283353015
 20
37.56704717338806
 30
0.0
 10
243.1812219992672
 20
37.56722895177323
 30
0.0
 10
243.2152810100345
 20
37.55750732226348
 30
0.0
 10
243.2374534975867
 20
37.54754366548778
 30
0.0
 10
243.2638097642503
 20
37.53232851660647
 30
0.0
  0
LINE
  5
27A
330
1F
100
AcDbEntity
  8
0
  6
Continuous
 62
     7
370
    15
100
AcDbLine
 10
246.158002335
 20
36.615574327
 30
0.0
 11
246.0997553904
 21
36.5819490816
 31
0.0
  0
LINE
  5
27B
330
1F
100
AcDbEntity
  8
0
  6
Continuous
 62
     7
370
    15
100
AcDbLine
 10
248.8515952403
 20
34.1456601873
 30
0.0
 11
247.1244124492
 21
35.1427415891
 31
0.0
  0
SPLINE
  5
27C
330
1F
100
AcDbEntity
  8
0
  6
Continuous
 62
     7
370
    15
100
AcDbSpline
210
0.0
220
0.0
230
1.0
 70
     8
 71
     3
 72
     8
 73
     4
 74
     0
 42
0.000000001
 43
0.00000001
 40
0.0
 40
0.0
 40
0.0
 40
0.0
 40
0.0011901715795577
 40
0.0011901715795577
 40
0.0011901715795577
 40
0.0011901715795577
 10
247.1244125389131
 20
35.1427415107
 30
0.0
 10
247.1122510720945
 20
35.20349176641084
 30
0.0
 10
247.1007676251385
 20
35.26375544054089
 30
0.0
 10
247.0899068014959
 20
35.32356971175763
 30
0.0
  0
ARC
  5
27D
330
1F
100
AcDbEntity
  8
0
  6
Continuous
 62
     7
370
    15
100
AcDbCircle
 10
256.1018981204
 20
35.5674831207
 30
0.0
 40
10.35615909039277
100
AcDbArc
 50
174.7124140903
 51
187.155573961
  0
LINE
  5
27E
330
1F
100
AcDbEntity
  8
0
  6
Continuous
 62
     7
370
    15
100
AcDbLine
 10
245.8263971048
 20
36.536806991
 30
0.0
 11
245.8263971048
 21
34.2774792508
 31
0.0
  0
LINE
  5
27F
330
1F
100
AcDbEntity
  8
0
  6
Continuous
 62
     7
370
    15
100
AcDbLine
 10
245.8263971048
 20
34.2774792508
 30
0.0
 11
245.8263971048
 21
32.8116713434
 31
0.0
  0
LINE
  5
280
330
1F
100
AcDbEntity
  8
0
  6
Continuous
 62
     7
370
    15
100
AcDbLine
 10
243.6013272538
 20
37.1765753811
 30
0.0
 11
243.1621655711
 21
37.5630505004
 31
0.0
  0
LINE
  5
281
330
1F
100
AcDbEntity
  8
0
  6
Continuous
 62
     7
370
    15
100
AcDbLine
 10
244.9572787922
 20
36.3938012198
 30
0.0
 11
243.6013272538
 21
37.1765753811
 31
0.0
  0
LINE
  5
282
330
1F
100
AcDbEntity
  8
0
  6
Continuous
 62
     7
370
    15
100
AcDbLine
 10
244.8276090737
 20
36.3123728927
 30
0.0
 11
244.8282992283
 21
36.4330569104
 31
0.0
  0
ARC
  5
283
330
1F
100
AcDbEntity
  8
0
  6
Continuous
 62
     7
370
    15
100
AcDbCircle
 10
251.7834431396
 20
36.0573629628
 30
0.0
 40
6.960506994291356
100
AcDbArc
 50
177.9004024711
 51
210.688955664
  0
LINE
  5
284
330
1F
100
AcDbEntity
  8
0
  6
Continuous
 62
     7
370
    15
100
AcDbLine
 10
225.4558187165
 20
49.4489418843
 30
0.0
 11
225.3840159625
 21
49.5123725578
 31
0.0
  0
LINE
  5
285
330
1F
100
AcDbEntity
  8
0
  6
Continuous
 62
     7
370
    15
100
AcDbLine
 10
247.1244124492
 20
28.5695878126
 30
0.0
 11
248.8515952403
 21
27.5725064107
 31
0.0
  0
SPLINE
  5
286
330
1F
100
AcDbEntity
  8
0
  6
Continuous
 62
     7
370
    15
100
AcDbSpline
210
0.0
220
0.0
230
1.0
 70
     8
 71
     3
 72
    14
 73
    10
 74
     0
 42
0.000000001
 43
0.00000001
 40
0.0
 40
0.0
 40
0.0
 40
0.0
 40
0.25
 40
0.25
 40
0.5
 40
0.5
 40
0.75
 40
0.75
 40
1.0
 40
1.0
 40
1.0
 40
1.0
 10
248.8037000619508
 20
27.45025794088264
 30
0.0
 10
248.7867918644128
 20
27.4071010913335
 30
0.0
 10
248.7662686735318
 20
27.36708511884449
 30
0.0
 10
248.7174852379694
 20
27.29377549185957
 30
0.0
 10
248.6890282595936
 20
27.2604883332535
 30
0.0
 10
248.6256656370854
 20
27.20756548692317
 30
0.0
 10
248.5903465763445
 20
27.18750182049791
 30
0.0
 10
248.5155284992933
 20
27.17074283001587
 30
0.0
 10
248.4771590252287
 20
27.17493972562706
 30
0.0
 10
248.4433669364417
 20
27.1944474832495
 30
0.0
  0
LINE
  5
287
330
1F
100
AcDbEntity
  8
0
  6
Continuous
 62
     7
370
    15
100
AcDbLine
 10
248.4433667925
 20
27.1944476238
 30
0.0
 11
247.0899070219
 21
27.9757833182
 31
0.0
  0
SPLINE
  5
288
330
1F
100
AcDbEntity
  8
0
  6
Continuous
 62
     7
370
    15
100
AcDbSpline
210
0.0
220
0.0
230
1.0
 70
     8
 71
     3
 72
     8
 73
     4
 74
     0
 42
0.000000001
 43
0.00000001
 40
0.0
 40
0.0
 40
0.0
 40
0.0
 40
0.0011901715795577
 40
0.0011901715795577
 40
0.0011901715795577
 40
0.0011901715795577
 10
247.0899068014959
 20
27.97578338795134
 30
0.0
 10
247.1007676251385
 20
28.17373857630951
 30
0.0
 10
247.1122510720945
 20
28.37167748881109
 30
0.0
 10
247.1244125389131
 20
28.56958797501972
 30
0.0
  0
SPLINE
  5
289
330
1F
100
AcDbEntity
  8
0
  6
Continuous
 62
     7
370
    15
100
AcDbSpline
210
0.0
220
0.0
230
1.0
 70
     8
 71
     3
 72
     9
 73
     5
 74
     0
 42
0.000000001
 43
0.00000001
 40
0.0
 40
0.0
 40
0.0
 40
0.0
 40
0.471952868736819
 40
1.0
 40
1.0
 40
1.0
 40
1.0
 10
270.0915456454885
 20
39.64231034850833
 30
0.0
 10
270.0886328817178
 20
39.64399459570081
 30
0.0
 10
270.0824611557604
 20
39.64756327237183
 30
0.0
 10
270.0486901559337
 20
39.66706600735174
 30
0.0
 10
270.0308574763553
 20
39.67736437060968
 30
0.0
  0
ARC
  5
28A
330
1F
100
AcDbEntity
  8
0
  6
Continuous
 62
     7
370
    15
100
AcDbCircle
 10
254.1037928504
 20
28.235239955
 30
0.0
 40
5.646828382660243
100
AcDbArc
 50
209.7987360721
 51
271.8711756097
  0
SPLINE
  5
28B
330
1F
100
AcDbEntity
  8
0
  6
Continuous
 62
     7
370
    15
100
AcDbSpline
210
0.0
220
0.0
230
1.0
 70
     8
 71
     3
 72
     8
 73
     4
 74
     0
 42
0.000000001
 43
0.00000001
 40
0.0
 40
0.0
 40
0.0
 40
0.0
 40
1.0
 40
1.0
 40
1.0
 40
1.0
 10
247.4503294682705
 20
29.22912561345448
 30
0.0
 10
247.3412558878835
 20
29.00935341339526
 30
0.0
 10
247.2326443224155
 20
28.78950033172559
 30
0.0
 10
247.1244125389131
 20
28.56958797501972
 30
0.0
  0
LINE
  5
28C
330
1F
100
AcDbEntity
  8
0
  6
Continuous
 62
     7
370
    15
100
AcDbLine
 10
247.5085763636
 20
29.2627507595
 30
0.0
 11
247.450329419
 21
29.2291255141
 31
0.0
  0
SPLINE
  5
28D
330
1F
100
AcDbEntity
  8
0
  6
Continuous
 62
     7
370
    15
100
AcDbSpline
210
0.0
220
0.0
230
1.0
 70
     8
 71
     3
 72
    12
 73
     8
 74
     0
 42
0.000000001
 43
0.00000001
 40
0.0
 40
0.0
 40
0.0
 40
0.0
 40
0.2499999999999986
 40
0.2499999999999986
 40
0.4999999999999971
 40
0.4999999999999971
 40
1.0
 40
1.0
 40
1.0
 40
1.0
 10
247.5206754925587
 20
29.5962987535992
 30
0.0
 10
247.5587131001113
 20
29.57434011016196
 30
0.0
 10
247.5881865040229
 20
29.54808317355729
 30
0.0
 10
247.6269802140659
 20
29.49021516425798
 30
0.0
 10
247.6358024170124
 20
29.45943302944885
 30
0.0
 10
247.6306931443256
 20
29.3664530460621
 30
0.0
 10
247.5840694025563
 20
29.30633203413279
 30
0.0
 10
247.508576318703
 20
29.26275080447686
 30
0.0
  0
LINE
  5
28E
330
1F
100
AcDbEntity
  8
0
  6
Continuous
 62
     7
370
    15
100
AcDbLine
 10
246.7357868958
 20
30.0494050273
 30
0.0
 11
247.5206754726
 21
29.5962984966
 31
0.0
  0
SPLINE
  5
28F
330
1F
100
AcDbEntity
  8
0
  6
Continuous
 62
     7
370
    15
100
AcDbSpline
210
0.0
220
0.0
230
1.0
 70
     8
 71
     3
 72
    12
 73
     8
 74
     0
 42
0.000000001
 43
0.00000001
 40
0.0
 40
0.0
 40
0.0
 40
0.0
 40
0.4999999999999984
 40
0.4999999999999984
 40
0.7499999999999992
 40
0.7499999999999992
 40
1.0
 40
1.0
 40
1.0
 40
1.0
 10
246.1580023666367
 20
30.04242055126755
 30
0.0
 10
246.233933174388
 20
30.0862544735511
 30
0.0
 10
246.3378231338122
 20
30.1129118160603
 30
0.0
 10
246.4985252136445
 20
30.11586767883403
 30
0.0
 10
246.5523100140674
 20
30.11071440719808
 30
0.0
 10
246.6520788995099
 20
30.08841590459473
 30
0.0
 10
246.6976311253373
 20
30.07143215329731
 30
0.0
 10
246.7357869654416
 20
30.0494052556608
 30
0.0
  0
LINE
  5
290
330
1F
100
AcDbEntity
  8
0
  6
Continuous
 62
     7
370
    15
100
AcDbLine
 10
246.0997553904
 20
30.008795305
 30
0.0
 11
246.158002335
 21
30.0424205504
 31
0.0
  0
SPLINE
  5
291
330
1F
100
AcDbEntity
  8
0
  6
Continuous
 62
     7
370
    15
100
AcDbSpline
210
0.0
220
0.0
230
1.0
 70
     8
 71
     3
 72
     8
 73
     4
 74
     0
 42
0.000000001
 43
0.00000001
 40
0.0
 40
0.0
 40
0.0
 40
0.0
 40
1.0
 40
1.0
 40
1.0
 40
1.0
 10
244.9572790272242
 20
29.8206475217665
 30
0.0
 10
245.3382196779639
 20
29.88312840043953
 30
0.0
 10
245.7190576502038
 20
29.94582852257457
 30
0.0
 10
246.0997555162042
 20
30.00879536024517
 30
0.0
  0
LINE
  5
292
330
1F
100
AcDbEntity
  8
0
  6
Continuous
 62
     7
370
    15
100
AcDbLine
 10
243.6013272538
 20
30.6034216045
 30
0.0
 11
244.9572787922
 21
29.8206474432
 31
0.0
  0
LINE
  5
293
330
1F
100
AcDbEntity
  8
0
  6
Continuous
 62
     7
370
    15
100
AcDbLine
 10
243.6013272538
 20
30.6034216045
 30
0.0
 11
245.6142653485
 21
31.7654660318
 31
0.0
  0
ARC
  5
294
330
1F
100
AcDbEntity
  8
0
  6
Continuous
 62
     7
370
    15
100
AcDbCircle
 10
253.2744363657
 20
29.5408633174
 30
0.0
 40
6.379488898678733
100
AcDbArc
 50
194.2013364212
 51
238.2565264866
  0
ELLIPSE
  5
295
330
1F
100
AcDbEntity
  8
0
  6
Continuous
 62
     7
370
    15
100
AcDbEllipse
 10
245.37995078
 20
32.5539656693
 30
0.0
 11
-6.005970382716441E-5
 21
0.8534489614827264
 31
0.0
210
0.0
220
0.0
230
1.0
 40
0.7174342186
 41
3.534193645557532
 42
5.104989972352345
  0
ARC
  5
296
330
1F
100
AcDbEntity
  8
0
  6
Continuous
 62
     7
370
    15
100
AcDbCircle
 10
252.7265389141
 20
31.8572325299
 30
0.0
 40
6.879751452168592
100
AcDbArc
 50
195.5856097917
 51
215.4796086014
  0
ARC
  5
297
330
1F
100
AcDbEntity
  8
0
  6
Continuous
 62
     7
370
    15
100
AcDbCircle
 10
250.4374151802
 20
30.7592404535
 30
0.0
 40
5.990945803431444
100
AcDbArc
 50
192.9819354392
 51
253.8515311867
  0
SPLINE
  5
298
330
1F
100
AcDbEntity
  8
0
  6
Continuous
 62
     7
370
    15
100
AcDbSpline
210
0.0
220
0.0
230
1.0
 70
     8
 71
     3
 72
     8
 73
     4
 74
     0
 42
0.000000001
 43
0.00000001
 40
0.0
 40
0.0
 40
0.0
 40
0.0
 40
0.0011901715795577
 40
0.0011901715795577
 40
0.0011901715795577
 40
0.0011901715795577
 10
244.9572790272242
 20
29.8206475217665
 30
0.0
 10
244.8384819113093
 20
29.68429648545145
 30
0.0
 10
244.7192387371612
 20
29.54856593931554
 30
0.0
 10
244.5995922296664
 20
29.41341138949612
 30
0.0
  0
LINE
  5
299
330
1F
100
AcDbEntity
  8
0
  6
Continuous
 62
     7
370
    15
100
AcDbLine
 10
243.1621655711
 20
30.3498470477
 30
0.0
 11
243.6013272538
 21
30.6034216045
 31
0.0
  0
LINE
  5
29A
330
1F
100
AcDbEntity
  8
0
  6
Continuous
 62
     7
370
    15
100
AcDbLine
 10
244.5995923183
 20
29.4134113958
 30
0.0
 11
243.2638098579
 21
30.1845421962
 31
0.0
  0
SPLINE
  5
29B
330
1F
100
AcDbEntity
  8
0
  6
Continuous
 62
     7
370
    15
100
AcDbSpline
210
0.0
220
0.0
230
1.0
 70
     8
 71
     3
 72
    10
 73
     6
 74
     0
 42
0.000000001
 43
0.00000001
 40
0.0
 40
0.0
 40
0.0
 40
0.0
 40
0.5
 40
0.5
 40
1.0
 40
1.0
 40
1.0
 40
1.0
 10
243.2638097642503
 20
30.18454219280017
 30
0.0
 10
243.2375055118734
 20
30.19972731447294
 30
0.0
 10
243.2153073977548
 20
30.22335696540683
 30
0.0
 10
243.1812955113231
 20
30.28079935821672
 30
0.0
 10
243.169424630917
 20
30.31443763636734
 30
0.0
 10
243.1621656536529
 20
30.34984705961046
 30
0.0
  0
ARC
  5
29C
330
1F
100
AcDbEntity
  8
0
  6
Continuous
 62
     7
370
    15
100
AcDbCircle
 10
249.0871100737
 20
31.3513755354
 30
0.0
 40
5.851581450568767
100
AcDbArc
 50
209.3628572443
 51
239.2128999999
  0
ELLIPSE
  5
29D
330
1F
100
AcDbEntity
  8
0
  6
Continuous
 62
     7
370
    15
100
AcDbEllipse
 10
245.2607119645
 20
32.4851081892
 30
0.0
 11
0.2600075789209199
 21
0.9705436209909308
 31
0.0
210
0.0
220
0.0
230
1.0
 40
0.5176380889
 41
3.619174351347644
 42
5.189970678142648
  0
SPLINE
  5
29E
330
1F
100
AcDbEntity
  8
0
  6
Continuous
 62
     7
370
    15
100
AcDbSpline
210
0.0
220
0.0
230
1.0
 70
     8
 71
     3
 72
    12
 73
     8
 74
     0
 42
0.000000001
 43
0.00000001
 40
0.0
 40
0.0
 40
0.0
 40
0.0
 40
0.5000000000000003
 40
0.5000000000000003
 40
0.7500000000000001
 40
0.7500000000000001
 40
1.0
 40
1.0
 40
1.0
 40
1.0
 10
262.7161422013667
 20
52.82471222465221
 30
0.0
 10
262.7785855271914
 20
52.86075998935252
 30
0.0
 10
262.8579221324135
 20
52.88641898941032
 30
0.0
 10
262.9887954957546
 20
52.89820274941679
 30
0.0
 10
263.0335678081256
 20
52.89739247721327
 30
0.0
 10
263.1188297241289
 20
52.88384399682592
 30
0.0
 10
263.1582459312472
 20
52.87107938581651
 30
0.0
 10
263.1894855914971
 20
52.85304511382455
 30
0.0
  0
LINE
  5
29F
330
1F
100
AcDbEntity
  8
0
  6
Continuous
 62
     7
370
    15
100
AcDbLine
 10
263.1894858664
 20
52.8530450675
 30
0.0
 11
264.3411491605
 21
52.1882039994
 31
0.0
  0
SPLINE
  5
2A0
330
1F
100
AcDbEntity
  8
0
  6
Continuous
 62
     7
370
    15
100
AcDbSpline
210
0.0
220
0.0
230
1.0
 70
     8
 71
     3
 72
     9
 73
     5
 74
     0
 42
0.000000001
 43
0.00000001
 40
0.0
 40
0.0
 40
0.0
 40
0.0
 40
0.8664443272572582
 40
1.0
 40
1.0
 40
1.0
 40
1.0
 10
265.9082299034923
 20
50.40788985661372
 30
0.0
 10
266.2274066016182
 20
50.47717984784963
 30
0.0
 10
266.5957819121662
 20
50.55715035380846
 30
0.0
 10
266.9661220095302
 20
50.63401983429956
 30
0.0
 10
267.0155830303773
 20
50.64428618947994
 30
0.0
  0
LINE
  5
2A1
330
1F
100
AcDbEntity
  8
0
  6
Continuous
 62
     7
370
    15
100
AcDbLine
 10
267.0155830304
 20
50.6442861895
 30
0.0
 11
268.369042801
 21
49.8629504951
 31
0.0
  0
SPLINE
  5
2A2
330
1F
100
AcDbEntity
  8
0
  6
Continuous
 62
     7
370
    15
100
AcDbSpline
210
0.0
220
0.0
230
1.0
 70
     8
 71
     3
 72
    14
 73
    10
 74
     0
 42
0.000000001
 43
0.00000001
 40
0.0
 40
0.0
 40
0.0
 40
0.0
 40
0.25
 40
0.25
 40
0.5
 40
0.5
 40
0.75
 40
0.75
 40
1.0
 40
1.0
 40
1.0
 40
1.0
 10
268.3690427636885
 20
49.86295040427387
 30
0.0
 10
268.4003048518466
 20
49.84490318492608
 30
0.0
 10
268.4225722239428
 20
49.82181386948577
 30
0.0
 10
268.445725621931
 20
49.77320251621706
 30
0.0
 10
268.447245791927
 20
49.74720273465196
 30
0.0
 10
268.4338006211561
 20
49.69706980526453
 30
0.0
 10
268.419101115508
 20
49.67287949015313
 30
0.0
 10
268.3774561205323
 20
49.62792904738055
 30
0.0
 10
268.3511438370148
 20
49.60769514029878
 30
0.0
 10
268.3199634422701
 20
49.58969508155472
 30
0.0
  0
LINE
  5
2A3
330
1F
100
AcDbEntity
  8
0
  6
Continuous
 62
     7
370
    15
100
AcDbLine
 10
262.7161421017
 20
52.8247120213
 30
0.0
 11
262.2082212107
 21
52.5314955322
 31
0.0
  0
SPLINE
  5
2A4
330
1F
100
AcDbEntity
  8
0
  6
Continuous
 62
     7
370
    15
100
AcDbSpline
210
0.0
220
0.0
230
1.0
 70
     8
 71
     3
 72
    10
 73
     6
 74
     0
 42
0.000000001
 43
0.00000001
 40
0.0
 40
0.0
 40
0.0
 40
0.0
 40
0.4053858951955525
 40
0.8118897375415759
 40
1.0
 40
1.0
 40
1.0
 40
1.0
 10
270.0308574763553
 20
46.49385790729811
 30
0.0
 10
270.0491763200867
 20
46.53278402097381
 30
0.0
 10
270.0858645260786
 20
46.61074359625811
 30
0.0
 10
270.0998834276504
 20
46.71825700397299
 30
0.0
 10
270.0818094186117
 20
46.77137826386762
 30
0.0
 10
270.0760915815196
 20
46.78818353986117
 30
0.0
  0
LINE
  5
2A5
330
1F
100
AcDbEntity
  8
0
  6
Continuous
 62
     7
370
    15
100
AcDbLine
 10
269.9254936478
 20
39.7382090071
 30
0.0
 11
268.188649021
 21
40.740868068
 31
0.0
  0
LWPOLYLINE
  5
2A6
330
1F
100
AcDbEntity
  8
0
  6
Continuous
 62
     7
370
    15
100
AcDbPolyline
 90
       21
 70
   128
 43
0.0
 10
275.5289655603
 20
31.7123186142
 10
275.2489982044
 20
31.8826397507
 10
275.0739029089
 20
32.0945697904
 10
275.0208237688
 20
32.3273610933
 10
275.0949520905
 20
32.5582289515
 10
275.2890362699
 20
32.7645716854
 10
275.5840725648
 20
32.9261942314
 10
275.9511832633
 20
33.0272743801
 10
276.3544348433
 20
33.0579166718
 10
276.7543522536
 20
33.0151227561
 10
277.1117884805
 20
32.9030818173
 10
277.3917558365
 20
32.7327606808
 10
277.566851132
 20
32.5208306411
 10
277.6199302721
 20
32.2880393383
 10
277.5458019504
 20
32.05717148
 10
277.3517204051
 20
31.8508272255
 10
277.0566814761
 20
31.6892062002
 10
276.6895707776
 20
31.5881260515
 10
276.2863191976
 20
31.5574837598
 10
275.8864017873
 20
31.6002776755
 10
275.5289655603
 20
31.7123186142
  0
LWPOLYLINE
  5
2A7
330
1F
100
AcDbEntity
  8
0
  6
Continuous
 62
     7
370
    15
100
AcDbPolyline
 90
        7
 70
   128
 43
0.0
 10
275.407208748
 20
31.4574138887
 10
275.0970182327
 20
31.6433167061
 10
274.8955267446
 20
31.8737432825
 10
274.8206395327
 20
32.1282181079
 10
274.8790090901
 20
32.3841309014
 10
275.0654539269
 20
32.6187398785
 10
275.2595449743
 20
32.7565982539
  0
LWPOLYLINE
  5
2A8
330
1F
100
AcDbEntity
  8
0
  6
Continuous
 62
     7
370
    15
100
AcDbPolyline
 90
       12
 70
   128
 43
0.0
 10
277.3812110572
 20
32.756597675
 10
277.4007077613
 20
32.7451278615
 10
277.6594382916
 20
32.5346121005
 10
277.7991892564
 20
32.289422396
 10
277.8075414118
 20
32.0313460334
 10
277.6837517548
 20
31.7833147509
 10
277.4388182619
 20
31.5673679069
 10
277.0945096309
 20
31.4026902968
 10
276.6814142099
 20
31.3039170889
 10
276.2362389046
 20
31.2798239084
 10
275.7985412486
 20
31.3325503979
 10
275.407208748
 20
31.4574138887
  0
LWPOLYLINE
  5
2A9
330
1F
100
AcDbEntity
  8
0
  6
Continuous
 62
     7
370
    15
100
AcDbPolyline
 90
       17
 70
   128
 43
0.0
 10
275.7876955556
 20
31.9069630289
 10
275.5625968521
 20
32.0551453896
 10
275.4528616463
 20
32.2417779189
 10
275.4751979737
 20
32.4384464162
 10
275.6262049047
 20
32.6152101215
 10
275.8828941735
 20
32.7451577043
 10
276.2061867198
 20
32.8085060625
 10
276.5468622071
 20
32.7956121573
 10
276.8530584853
 20
32.7084374027
 10
277.0781598229
 20
32.5602535213
 10
277.1878950288
 20
32.373620992
 10
277.1655587014
 20
32.1769524947
 10
277.0145491362
 20
32.0001903101
 10
276.7578598674
 20
31.8702427273
 10
276.4345699552
 20
31.8068928484
 10
276.0938918338
 20
31.8197882743
 10
275.7876955556
 20
31.9069630289
  0
SPLINE
  5
2AA
330
1F
100
AcDbEntity
  8
0
  6
Continuous
 62
     7
370
    15
100
AcDbSpline
210
0.0
220
0.0
230
1.0
 70
     8
 71
     3
 72
     9
 73
     5
 74
     0
 42
0.000000001
 43
0.00000001
 40
0.0
 40
0.0
 40
0.0
 40
0.0
 40
0.5258025524270225
 40
1.0
 40
1.0
 40
1.0
 40
1.0
 10
275.7855856201727
 20
31.91284360476408
 30
0.0
 10
275.7366982455868
 20
31.93996145163172
 30
0.0
 10
275.6437215676299
 20
31.99153565328301
 30
0.0
 10
275.5599774113791
 20
32.07125744026533
 30
0.0
 10
275.5202661462357
 20
32.10906130816829
 30
0.0
  0
LINE
  5
2AB
330
1F
100
AcDbEntity
  8
0
  6
Continuous
 62
     7
370
    15
100
AcDbLine
 10
277.0074305376
 20
31.9960153909
 30
0.0
 11
276.8953034289
 21
31.9393526994
 31
0.0
  0
SPLINE
  5
2AC
330
1F
100
AcDbEntity
  8
0
  6
Continuous
 62
     7
370
    15
100
AcDbSpline
210
0.0
220
0.0
230
1.0
 70
     8
 71
     3
 72
    10
 73
     6
 74
     0
 42
0.000000001
 43
0.00000001
 40
0.0
 40
0.0
 40
0.0
 40
0.0
 40
0.4391153844704505
 40
0.7513656546158795
 40
1.0
 40
1.0
 40
1.0
 40
1.0
 10
277.1204878946479
 20
32.49168272209715
 30
0.0
 10
277.104302409946
 20
32.37878092897249
 30
0.0
 10
277.076607599565
 20
32.1855958739767
 30
0.0
 10
277.0363486251414
 20
32.04099690796987
 30
0.0
 10
277.0163123922453
 20
32.00983094139123
 30
0.0
 10
277.0074305375605
 20
31.99601539094825
 30
0.0
  0
SPLINE
  5
2AD
330
1F
100
AcDbEntity
  8
0
  6
Continuous
 62
     7
370
    15
100
AcDbSpline
210
0.0
220
0.0
230
1.0
 70
     8
 71
     3
 72
    11
 73
     7
 74
     0
 42
0.000000001
 43
0.00000001
 40
0.0
 40
0.0
 40
0.0
 40
0.0
 40
0.1843660832311639
 40
0.5174526791974392
 40
0.8663330724643808
 40
1.0
 40
1.0
 40
1.0
 40
1.0
 10
276.4334343775291
 20
32.79603934628162
 30
0.0
 10
276.4733035498901
 20
32.75932478921015
 30
0.0
 10
276.5852027110269
 20
32.6562795566531
 30
0.0
 10
276.793680086621
 20
32.52413420736989
 30
0.0
 10
276.9877950882442
 20
32.48586224076102
 30
0.0
 10
277.0917046592944
 20
32.4904201647008
 30
0.0
 10
277.1204878946479
 20
32.49168272209715
 30
0.0
  0
SPLINE
  5
2AE
330
1F
100
AcDbEntity
  8
0
  6
Continuous
 62
     7
370
    15
100
AcDbSpline
210
0.0
220
0.0
230
1.0
 70
     8
 71
     3
 72
    10
 73
     6
 74
     0
 42
0.000000001
 43
0.00000001
 40
0.0
 40
0.0
 40
0.0
 40
0.0
 40
0.4391165744807027
 40
0.7513666286987799
 40
0.9999999999999999
 40
0.9999999999999999
 40
0.9999999999999999
 40
0.9999999999999999
 10
275.633323503323
 20
32.60472863931719
 30
0.0
 10
275.7478656483264
 20
32.59017268815843
 30
0.0
 10
275.9438572148868
 20
32.5652661904645
 30
0.0
 10
276.2287646032783
 20
32.66529110742977
 30
0.0
 10
276.3705725120615
 20
32.7558815934776
 30
0.0
 10
276.4334343775291
 20
32.79603934628162
 30
0.0
  0
SPLINE
  5
2AF
330
1F
100
AcDbEntity
  8
0
  6
Continuous
 62
     7
370
    15
100
AcDbSpline
210
0.0
220
0.0
230
1.0
 70
     8
 71
     3
 72
    10
 73
     6
 74
     0
 42
0.000000001
 43
0.00000001
 40
0.0
 40
0.0
 40
0.0
 40
0.0
 40
0.4391153844704505
 40
0.7513656546158795
 40
1.0
 40
1.0
 40
1.0
 40
1.0
 10
275.5202661462358
 20
32.10906130816829
 30
0.0
 10
275.5364516309376
 20
32.13807623625552
 30
0.0
 10
275.5641464413185
 20
32.18772337048696
 30
0.0
 10
275.6044054157422
 20
32.3961244572296
 30
0.0
 10
275.6244416486382
 20
32.54065828795792
 30
0.0
 10
275.633323503323
 20
32.60472863931719
 30
0.0
  0
LINE
  5
2B0
330
1F
100
AcDbEntity
  8
0
  6
Continuous
 62
     7
370
    15
100
AcDbLine
 10
275.6333235033
 20
32.0091808714
 30
0.0
 11
275.6333235033
 21
32.6047286393
 31
0.0
  0
LINE
  5
2B1
330
1F
100
AcDbEntity
  8
0
  6
Continuous
 62
     7
370
    15
100
AcDbLine
 10
276.4334343775
 20
31.8068075442
 30
0.0
 11
276.4334343775
 21
32.7960393463
 31
0.0
  0
LWPOLYLINE
  5
2B2
330
1F
100
AcDbEntity
  8
0
  6
Continuous
 62
     7
370
    15
100
AcDbPolyline
 90
        3
 70
   128
 43
0.0
 10
253.138065394
 20
46.903868846
 10
253.227047928
 20
47.0312277287
 10
253.4285404862
 20
47.2211481076
  0
LWPOLYLINE
  5
2B3
330
1F
100
AcDbEntity
  8
0
  6
Continuous
 62
     7
370
    15
100
AcDbPolyline
 90
        3
 70
   128
 43
0.0
 10
253.1960334451
 20
46.968100129
 10
253.253829616
 20
47.0460669185
 10
253.4028318964
 20
47.193525084
  0
ARC
  5
2B4
330
1F
100
AcDbEntity
  8
0
  6
Continuous
 62
     7
370
     0
100
AcDbCircle
 10
259.5139278283
 20
33.2710016337
 30
0.0
 40
3.115262158260758
100
AcDbArc
 50
174.0725268466
 51
234.6152981745
  0
LWPOLYLINE
  5
2B5
330
1F
100
AcDbEntity
  8
0
  6
Continuous
 62
     7
370
     0
100
AcDbPolyline
 90
       18
 70
   128
 43
0.0
 10
263.9594850811
 20
41.5567939507
 10
263.7288420502
 20
41.671595869
 10
263.2240564896
 20
41.8165486781
 10
262.6706314902
 20
41.8460244379
 10
262.0798328551
 20
41.7594232743
 10
261.4636877886
 20
41.5585080712
 10
260.8347391352
 20
41.2473686808
 10
260.2057904817
 20
40.8323394129
 10
259.5896454152
 20
40.3218686644
 10
258.9988467802
 20
39.7263482434
 10
258.4454217807
 20
39.0579015801
 10
257.9406362201
 20
38.3301357683
 10
257.4947663561
 20
37.5578665125
 10
257.1168885783
 20
36.7568145807
 10
256.8146956745
 20
35.943287568
 10
256.5943391089
 20
35.1338459728
 10
256.4603048866
 20
34.3449680822
 10
256.4153216869
 20
33.592713143
  0
LWPOLYLINE
  5
2B6
330
1F
100
AcDbEntity
  8
0
  6
Continuous
 62
     7
370
     0
100
AcDbPolyline
 90
       22
 70
   128
 43
0.0
 10
248.4433667925
 20
34.5422339967
 10
248.7747878773
 20
35.8415138246
 10
249.1915280128
 20
37.1509442903
 10
249.6901798899
 20
38.459818396
 10
250.2666658009
 20
39.7574318684
 10
250.9162718843
 20
41.0331755518
 10
251.6336856615
 20
42.2766152532
 10
252.4130401594
 20
43.4775837539
 10
253.247962643
 20
44.6262598935
 10
254.1316263105
 20
45.7132516453
 10
255.0568042945
 20
46.7296691157
 10
256.015931565
 20
47.6672005849
 10
257.0011645276
 20
48.5181803722
 10
258.0044469604
 20
49.2756489545
 10
259.0175744689
 20
49.9334129887
 10
260.0322623987
 20
50.4860936427
 10
261.0402132535
 20
50.9291700777
 10
262.0331844433
 20
51.2590208399
 10
263.003056526
 20
51.4729480459
 10
263.9418979914
 20
51.5692018545
 10
264.8420318571
 20
51.5469953365
 10
265.6960975709
 20
51.406510553
  0
LWPOLYLINE
  5
2B7
330
1F
100
AcDbEntity
  8
0
  6
Continuous
 62
     7
370
     0
100
AcDbPolyline
 90
       22
 70
   128
 43
0.0
 10
248.8036999568
 20
34.212610131
 10
249.1175273664
 20
35.5055869922
 10
249.5184630923
 20
36.8108633914
 10
250.0031182644
 20
38.1174049498
 10
250.5673947603
 20
39.4141632866
 10
251.2065220834
 20
40.6901763967
 10
251.9150962177
 20
41.9346545792
 10
252.6871270422
 20
43.1370773919
 10
253.5160864052
 20
44.2872784389
 10
254.3949664054
 20
45.3755322475
 10
255.3163360265
 20
46.3926386744
 10
256.2724053456
 20
47.3299979955
 10
257.2550908934
 20
48.1796851399
 10
258.256084884
 20
48.9345170319
 10
259.2669238064
 20
49.5881104389
 10
260.2790614196
 20
50.1349408416
 10
261.2839402466
 20
50.5703837057
 10
262.2730645487
 20
50.8907581305
 10
263.2380713046
 20
51.0933556564
 10
264.1708021355
 20
51.1764627757
 10
265.0633706419
 20
51.1393769902
 10
265.9082299035
 20
50.9824115583
  0
LWPOLYLINE
  5
2B8
330
1F
100
AcDbEntity
  8
0
  6
Continuous
 62
     7
370
     0
100
AcDbPolyline
 90
        3
 70
   128
 43
0.0
 10
270.0308574764
 20
39.6773643706
 10
269.7238242704
 20
38.4163004576
 10
269.6788397536
 20
38.255080462
  0
LWPOLYLINE
  5
2B9
330
1F
100
AcDbEntity
  8
0
  6
Continuous
 62
     7
370
     0
100
AcDbPolyline
 90
       20
 70
   128
 43
0.0
 10
263.4293478618
 20
27.4294700017
 10
262.8098747995
 20
26.8166399057
 10
261.8576154897
 20
25.9649659537
 10
260.8857620112
 20
25.2016947046
 10
259.9021280358
 20
24.5329627648
 10
258.9146220245
 20
23.9641470054
 10
257.9311834723
 20
23.4998201529
 10
256.9597191936
 20
23.1437162887
 10
256.0080395676
 20
22.8986978465
 10
255.0837963875
 20
22.7667357034
 10
254.1944201757
 20
22.7488889623
 10
253.3470617376
 20
22.8453023907
 10
252.5485337163
 20
23.0552008179
 10
251.8052562621
 20
23.3768965546
 10
251.1232050079
 20
23.8078027058
 10
250.5078643124
 20
24.3444556088
 10
249.9641805033
 20
24.9825403133
 10
249.4965256577
 20
25.7169259462
 10
249.1086594061
 20
26.5417090614
 10
248.8036999568
 20
27.4502577498
  0
ARC
  5
2BA
330
1F
100
AcDbEntity
  8
0
  6
Continuous
 62
     7
370
     0
100
AcDbCircle
 10
263.2320997531
 20
44.7572445599
 30
0.0
 40
7.017045852610757
100
AcDbArc
 50
14.3287351339
 51
43.52515955
  0
LWPOLYLINE
  5
2BB
330
1F
100
AcDbEntity
  8
0
  6
Continuous
 62
     7
370
     0
100
AcDbPolyline
 90
       26
 70
   128
 43
0.0
 10
253.5868944278
 20
33.592713333
 10
253.6328944202
 20
34.4635710625
 10
253.7701686815
 20
35.3738051709
 10
253.9965525757
 20
36.3090608886
 10
254.3084754746
 20
37.2545885172
 10
254.7010187093
 20
38.1954766014
 10
255.1679913029
 20
39.1168864297
 10
255.7020290813
 20
40.0042875779
 10
256.2947095895
 20
40.8436843266
 10
256.9366861055
 20
41.6218397953
 10
257.6178341659
 20
42.3264814429
 10
258.327411922
 20
42.9464963025
 10
259.0542286035
 20
43.4721069407
 10
259.7868220785
 20
43.8950241518
 10
260.51363876
 20
44.2085781919
 10
261.2232165161
 20
44.407824371
 10
261.9043645765
 20
44.4896195341
 10
262.5463410924
 20
44.4526743737
 10
263.1390216007
 20
44.2975719742
 10
263.6730593791
 20
44.0267577206
 10
264.1400319727
 20
43.6445029726
 10
264.5325752073
 20
43.15683566
 10
264.8444981063
 20
42.5714465447
 10
265.0708820005
 20
41.8975681078
 10
265.2081562617
 20
41.1458274878
 10
265.2380726217
 20
40.8186811495
  0
LWPOLYLINE
  5
2BC
330
1F
100
AcDbEntity
  8
0
  6
Continuous
 62
     7
370
     0
100
AcDbPolyline
 90
       13
 70
   128
 43
0.0
 10
258.9885805241
 20
29.9930700951
 10
258.327411922
 20
29.7122153602
 10
257.6178341659
 20
29.5129691811
 10
256.9366861055
 20
29.431174018
 10
256.2947095895
 20
29.4681191784
 10
255.7020290813
 20
29.6232215779
 10
255.1679913029
 20
29.8940358316
 10
254.7010187093
 20
30.2762905796
 10
254.3084754746
 20
30.7639578921
 10
253.9965525757
 20
31.3493470074
 10
253.7701686815
 20
32.0232254443
 10
253.6328944202
 20
32.7749660643
 10
253.5868944278
 20
33.592713333
  0
LINE
  5
2BD
330
1F
100
AcDbEntity
  8
0
  6
Continuous
 62
     7
370
     0
100
AcDbLine
 10
275.9314682929
 20
22.0196144053
 30
0.0
 11
276.8159883975
 21
21.5089918178
 31
0.0
  0
LWPOLYLINE
  5
2BE
330
1F
100
AcDbEntity
  8
0
  6
Continuous
 62
     7
370
     0
100
AcDbPolyline
 90
       22
 70
   128
 43
0.0
 10
243.2638098579
 20
37.5323285691
 10
243.5952309427
 20
38.831608397
 10
244.0119710782
 20
40.1410388627
 10
244.5106229553
 20
41.4499129684
 10
245.0871088663
 20
42.7475264408
 10
245.7367149497
 20
44.0232701242
 10
246.4541287269
 20
45.2667098256
 10
247.2334832248
 20
46.4676783263
 10
248.0684057084
 20
47.6163544659
 10
248.9520693759
 20
48.7033462177
 10
249.8772473599
 20
49.7197636881
 10
250.8363746304
 20
50.6572951573
 10
251.821607593
 20
51.5082749446
 10
252.8248900258
 20
52.2657435268
 10
253.8380175343
 20
52.9235075611
 10
254.8527054641
 20
53.476188215
 10
255.8606563189
 20
53.9192646501
 10
256.8536275087
 20
54.2491154123
 10
257.8234995914
 20
54.4630426183
 10
258.7623410569
 20
54.5592964269
 10
259.6624749225
 20
54.5370899089
 10
260.5165406364
 20
54.3966051254
  0
LWPOLYLINE
  5
2BF
330
1F
100
AcDbEntity
  8
0
  6
Continuous
 62
     7
370
     0
100
AcDbPolyline
 90
       18
 70
   128
 43
0.0
 10
246.7357868958
 20
36.6225588039
 10
247.0483070946
 20
37.8261517399
 10
247.4434186529
 20
39.0386024026
 10
247.9175634547
 20
40.2489904984
 10
248.4664695217
 20
41.4464125309
 10
249.0851931604
 20
42.6200825585
 10
249.7681611085
 20
43.7594280082
 10
250.5092212433
 20
44.8541870107
 10
251.301698887
 20
45.8944979391
 10
252.1384544292
 20
46.8709897087
 10
253.0119514866
 20
47.7748667526
 10
253.9143217694
 20
48.5979867723
 10
254.8374366981
 20
49.3329355421
 10
255.7729813251
 20
49.9730931573
 10
256.7125285856
 20
50.5126921074
 10
257.6476151949
 20
50.9468740188
 10
258.5698183688
 20
51.2717255793
 10
258.8458086098
 20
51.3481996826
  0
LWPOLYLINE
  5
2C0
330
1F
100
AcDbEntity
  8
0
  6
Continuous
 62
     7
370
     0
100
AcDbPolyline
 90
       21
 70
   128
 43
0.0
 10
246.158002335
 20
36.615574327
 10
246.4690724188
 20
37.842536804
 10
246.8640825613
 20
39.0795234312
 10
247.3395293055
 20
40.3155637192
 10
247.8911966497
 20
41.539697132
 10
248.514191608
 20
42.7410666196
 10
249.2029903092
 20
43.9090201361
 10
249.951484753
 20
45.0331996096
 10
250.7530361522
 20
46.1036348536
 10
251.6005368358
 20
47.1108340572
 10
252.4864714941
 20
48.0458655283
 10
253.4029830323
 20
48.9004375366
 10
254.3419441883
 20
49.6669708358
 10
255.2950281604
 20
50.3386683344
 10
256.2537827976
 20
50.9095731335
 10
257.2097058992
 20
51.3746218826
 10
258.1543204128
 20
51.7296919929
 10
259.079249467
 20
51.9716335457
 10
259.9762904783
 20
52.0983014271
 10
260.8374885585
 20
52.1085726095
 10
260.9189208796
 20
52.1033576988
  0
LINE
  5
2C1
330
1F
100
AcDbEntity
  8
0
  6
Continuous
 62
     7
370
     0
100
AcDbLine
 10
279.8205555683
 20
24.2647367006
 30
0.0
 11
280.705075673
 21
23.7541141131
 31
0.0
  0
LINE
  5
2C2
330
1F
100
AcDbEntity
  8
0
  6
Continuous
 62
     7
370
     0
100
AcDbLine
 10
251.4302184575
 20
34.9810350042
 30
0.0
 11
250.8644411388
 21
35.3076512981
 31
0.0
  0
LWPOLYLINE
  5
2C3
330
1F
100
AcDbEntity
  8
0
  6
Continuous
 62
     7
370
     0
100
AcDbPolyline
 90
        3
 70
   128
 43
0.0
 10
245.7475538514
 20
35.6604695201
 10
245.7468478917
 20
35.7817076185
 10
245.7715841405
 20
36.5154076896
  0
LINE
  5
2C4
330
1F
100
AcDbEntity
  8
0
  6
Continuous
 62
     7
370
     0
100
AcDbLine
 10
245.9456359723
 20
32.8805286634
 30
0.0
 11
251.4302184575
 21
29.7143465887
 31
0.0
  0
LINE
  5
2C5
330
1F
100
AcDbEntity
  8
0
  6
Continuous
 62
     7
370
     0
100
AcDbLine
 10
245.8263971048
 20
32.8116713434
 30
0.0
 11
245.9456359723
 21
32.8805286634
 31
0.0
  0
LWPOLYLINE
  5
2C6
330
1F
100
AcDbEntity
  8
0
  6
Continuous
 62
     7
370
     0
100
AcDbPolyline
 90
       17
 70
   128
 43
0.0
 10
224.4749644164
 20
52.073671399
 10
224.5195758677
 20
52.8197075927
 10
224.6525017596
 20
53.6020637625
 10
224.8710367911
 20
54.4048138354
 10
225.1707315063
 20
55.2116155488
 10
225.5454851489
 20
56.0060450925
 10
225.9876691394
 20
56.7719302279
 10
226.4882816681
 20
57.4936793638
 10
227.0371315942
 20
58.1566000774
 10
227.6230461339
 20
58.7471975299
 10
228.2340976056
 20
59.2534479496
 10
228.8578468032
 20
59.6650463542
 10
229.4815960008
 20
59.973613444
 10
230.0926474725
 20
60.1728680364
 10
230.6785620121
 20
60.2587531121
 10
231.2274119383
 20
60.2295210347
 10
231.6206007112
 20
60.1278145296
  0
ARC
  5
2C7
330
1F
100
AcDbEntity
  8
0
  6
Continuous
 62
     7
370
     0
100
AcDbCircle
 10
227.8904336409
 20
51.8439146658
 30
0.0
 40
3.423188306224021
100
AcDbArc
 50
176.151542473
 51
222.9298563466
  0
LWPOLYLINE
  5
2C8
330
1F
100
AcDbEntity
  8
0
  6
Continuous
 62
     7
370
     0
100
AcDbPolyline
 90
        3
 70
   128
 43
0.0
 10
249.2036083532
 20
25.4290213824
 10
248.7806265329
 20
26.26423564
 10
248.4433667925
 20
27.1944476238
  0
LINE
  5
2C9
330
1F
100
AcDbEntity
  8
0
  6
Continuous
 62
     7
370
     0
100
AcDbLine
 10
250.864533335
 20
28.734550838
 30
0.0
 11
245.6142653485
 21
31.7654660318
 31
0.0
  0
LINE
  5
2CA
330
1F
100
AcDbEntity
  8
0
  6
Continuous
 62
     7
370
     0
100
AcDbLine
 10
247.6018865228
 20
29.3455761471
 30
0.0
 11
247.5206754726
 21
29.5962984966
 31
0.0
  0
LWPOLYLINE
  5
2CB
330
1F
100
AcDbEntity
  8
0
  6
Continuous
 62
     7
370
     0
100
AcDbPolyline
 90
        3
 70
   128
 43
0.0
 10
247.2352099285
 20
28.8182733076
 10
247.0475965251
 20
29.2082467768
 10
246.7357868958
 20
30.0494050273
  0
ARC
  5
2CC
330
1F
100
AcDbEntity
  8
0
  6
Continuous
 62
     7
370
     0
100
AcDbCircle
 10
252.8064377303
 20
31.9191021741
 30
0.0
 40
6.908228942494596
100
AcDbArc
 50
195.763002769
 51
213.7339912505
  0
LWPOLYLINE
  5
2CD
330
1F
100
AcDbEntity
  8
0
  6
Continuous
 62
     7
370
     0
100
AcDbPolyline
 90
        3
 70
   128
 43
0.0
 10
243.9872703908
 20
28.4821176729
 10
243.6010695983
 20
29.2543302124
 10
243.2638098579
 20
30.1845421962
  0
LINE
  5
2CE
330
1F
100
AcDbEntity
  8
0
  6
Continuous
 62
     7
370
     0
100
AcDbLine
 10
268.188649021
 20
39.3886768469
 30
0.0
 11
268.7543348021
 21
39.0621133966
 31
0.0
  0
OLE2FRAME
  5
2CF
330
1F
100
AcDbEntity
  8
0
100
AcDbOle2Frame
 70
     2
  3
Paintbrush-Bild
 10
13.8511154363
 20
38.264191557
 30
0.0
 11
51.6290888628
 21
31.9806341108
 31
0.0
 71
     2
 72
     0
 73
     1
 90
    12928
310
80552BED0767C5B32B40DDAF6807D121434000000000000000006FFBDDFB85D0
310
4940DDAF6807D121434000000000000000006FFBDDFB85D04940416F4BD60AFB
310
3F4000000000000000002BED0767C5B32B40416F4BD60AFB3F40000000000000
310
0000000000000100000000010000010000000100000000000100000000320000
310
D0CF11E0A1B11AE1000000000000000000000000000000003E000300FEFF0900
310
0600000000000000000000000100000001000000000000000010000002000000
310
01000000FEFFFFFF0000000000000000FFFFFFFFFFFFFFFFFFFFFFFFFFFFFFFF
310
FFFFFFFFFFFFFFFFFFFFFFFFFFFFFFFFFFFFFFFFFFFFFFFFFFFFFFFFFFFFFFFF
310
FFFFFFFFFFFFFFFFFFFFFFFFFFFFFFFFFFFFFFFFFFFFFFFFFFFFFFFFFFFFFFFF
310
FFFFFFFFFFFFFFFFFFFFFFFFFFFFFFFFFFFFFFFFFFFFFFFFFFFFFFFFFFFFFFFF
310
FFFFFFFFFFFFFFFFFFFFFFFFFFFFFFFFFFFFFFFFFFFFFFFFFFFFFFFFFFFFFFFF
310
FFFFFFFFFFFFFFFFFFFFFFFFFFFFFFFFFFFFFFFFFFFFFFFFFFFFFFFFFFFFFFFF
310
FFFFFFFFFFFFFFFFFFFFFFFFFFFFFFFFFFFFFFFFFFFFFFFFFFFFFFFFFFFFFFFF
310
FFFFFFFFFFFFFFFFFFFFFFFFFFFFFFFFFFFFFFFFFFFFFFFFFFFFFFFFFFFFFFFF
310
FFFFFFFFFFFFFFFFFFFFFFFFFFFFFFFFFFFFFFFFFFFFFFFFFFFFFFFFFFFFFFFF
310
FFFFFFFFFFFFFFFFFFFFFFFFFFFFFFFFFFFFFFFFFFFFFFFFFFFFFFFFFFFFFFFF
310
FFFFFFFFFFFFFFFFFFFFFFFFFFFFFFFFFFFFFFFFFFFFFFFFFFFFFFFFFFFFFFFF
310
FFFFFFFFFFFFFFFFFFFFFFFFFFFFFFFFFFFFFFFFFFFFFFFFFFFFFFFFFFFFFFFF
310
FFFFFFFFFFFFFFFFFFFFFFFFFFFFFFFFFFFFFFFFFFFFFFFFFFFFFFFFFFFFFFFF
310
FFFFFFFFFFFFFFFFFFFFFFFFFFFFFFFFFFFFFFFFFFFFFFFFFFFFFFFFFFFFFFFF
310
FDFFFFFFFEFFFFFFFEFFFFFFFEFFFFFF05000000060000000700000008000000
310
090000000A0000000B0000000C0000000D0000000E0000000F00000010000000
310
11000000120000001300000014000000150000001600000017000000FEFFFFFF
310
FFFFFFFFFFFFFFFFFFFFFFFFFFFFFFFFFFFFFFFFFFFFFFFFFFFFFFFFFFFFFFFF
310
FFFFFFFFFFFFFFFFFFFFFFFFFFFFFFFFFFFFFFFFFFFFFFFFFFFFFFFFFFFFFFFF
310
FFFFFFFFFFFFFFFFFFFFFFFFFFFFFFFFFFFFFFFFFFFFFFFFFFFFFFFFFFFFFFFF
310
FFFFFFFFFFFFFFFFFFFFFFFFFFFFFFFFFFFFFFFFFFFFFFFFFFFFFFFFFFFFFFFF
310
FFFFFFFFFFFFFFFFFFFFFFFFFFFFFFFFFFFFFFFFFFFFFFFFFFFFFFFFFFFFFFFF
310
FFFFFFFFFFFFFFFFFFFFFFFFFFFFFFFFFFFFFFFFFFFFFFFFFFFFFFFFFFFFFFFF
310
FFFFFFFFFFFFFFFFFFFFFFFFFFFFFFFFFFFFFFFFFFFFFFFFFFFFFFFFFFFFFFFF
310
FFFFFFFFFFFFFFFFFFFFFFFFFFFFFFFFFFFFFFFFFFFFFFFFFFFFFFFFFFFFFFFF
310
FFFFFFFFFFFFFFFFFFFFFFFFFFFFFFFFFFFFFFFFFFFFFFFFFFFFFFFFFFFFFFFF
310
FFFFFFFFFFFFFFFFFFFFFFFFFFFFFFFFFFFFFFFFFFFFFFFFFFFFFFFFFFFFFFFF
310
FFFFFFFFFFFFFFFFFFFFFFFFFFFFFFFFFFFFFFFFFFFFFFFFFFFFFFFFFFFFFFFF
310
FFFFFFFFFFFFFFFFFFFFFFFFFFFFFFFFFFFFFFFFFFFFFFFFFFFFFFFFFFFFFFFF
310
FFFFFFFFFFFFFFFFFFFFFFFFFFFFFFFFFFFFFFFFFFFFFFFFFFFFFFFFFFFFFFFF
310
52006F006F007400200045006E00740072007900000000000000000000000000
310
0000000000000000000000000000000000000000000000000000000000000000
310
16000500FFFFFFFFFFFFFFFF020000000A00030000000000C000000000000046
310
00000000000000000000000000B0B18199FFD10103000000C000000000000000
310
01004F006C006500000000000000000000000000000000000000000000000000
310
0000000000000000000000000000000000000000000000000000000000000000
310
0A000200FFFFFFFFFFFFFFFFFFFFFFFF00000000000000000000000000000000
310
0000000000000000000000000000000000000000000000001400000000000000
310
010043006F006D0070004F0062006A0000000000000000000000000000000000
310
0000000000000000000000000000000000000000000000000000000000000000
310
120002010100000003000000FFFFFFFF00000000000000000000000000000000
310
0000000000000000000000000000000000000000010000004D00000000000000
310
01004F006C006500310030004E00610074006900760065000000000000000000
310
0000000000000000000000000000000000000000000000000000000000000000
310
1A000200FFFFFFFFFFFFFFFFFFFFFFFF00000000000000000000000000000000
310
0000000000000000000000000000000000000000040000002426000000000000
310
FEFFFFFF02000000FEFFFFFFFFFFFFFFFFFFFFFFFFFFFFFFFFFFFFFFFFFFFFFF
310
FFFFFFFFFFFFFFFFFFFFFFFFFFFFFFFFFFFFFFFFFFFFFFFFFFFFFFFFFFFFFFFF
310
FFFFFFFFFFFFFFFFFFFFFFFFFFFFFFFFFFFFFFFFFFFFFFFFFFFFFFFFFFFFFFFF
310
FFFFFFFFFFFFFFFFFFFFFFFFFFFFFFFFFFFFFFFFFFFFFFFFFFFFFFFFFFFFFFFF
310
FFFFFFFFFFFFFFFFFFFFFFFFFFFFFFFFFFFFFFFFFFFFFFFFFFFFFFFFFFFFFFFF
310
FFFFFFFFFFFFFFFFFFFFFFFFFFFFFFFFFFFFFFFFFFFFFFFFFFFFFFFFFFFFFFFF
310
FFFFFFFFFFFFFFFFFFFFFFFFFFFFFFFFFFFFFFFFFFFFFFFFFFFFFFFFFFFFFFFF
310
FFFFFFFFFFFFFFFFFFFFFFFFFFFFFFFFFFFFFFFFFFFFFFFFFFFFFFFFFFFFFFFF
310
FFFFFFFFFFFFFFFFFFFFFFFFFFFFFFFFFFFFFFFFFFFFFFFFFFFFFFFFFFFFFFFF
310
FFFFFFFFFFFFFFFFFFFFFFFFFFFFFFFFFFFFFFFFFFFFFFFFFFFFFFFFFFFFFFFF
310
FFFFFFFFFFFFFFFFFFFFFFFFFFFFFFFFFFFFFFFFFFFFFFFFFFFFFFFFFFFFFFFF
310
FFFFFFFFFFFFFFFFFFFFFFFFFFFFFFFFFFFFFFFFFFFFFFFFFFFFFFFFFFFFFFFF
310
FFFFFFFFFFFFFFFFFFFFFFFFFFFFFFFFFFFFFFFFFFFFFFFFFFFFFFFFFFFFFFFF
310
FFFFFFFFFFFFFFFFFFFFFFFFFFFFFFFFFFFFFFFFFFFFFFFFFFFFFFFFFFFFFFFF
310
FFFFFFFFFFFFFFFFFFFFFFFFFFFFFFFFFFFFFFFFFFFFFFFFFFFFFFFFFFFFFFFF
310
FFFFFFFFFFFFFFFFFFFFFFFFFFFFFFFFFFFFFFFFFFFFFFFFFFFFFFFFFFFFFFFF
310
0100000200000000000000000000000000000000000000000000000000000000
310
0000000000000000000000000000000000000000000000000000000000000000
310
0100FEFF030A0000FFFFFFFF0A00030000000000C00000000000004607000000
310
5042727573680007000000504272757368000700000050427275736800F439B2
310
7100000000000000000000000000000000000000000000000000000000000000
310
0000000000000000000000000000000000000000000000000000000000000000
310
0000000000000000000000000000000000000000000000000000000000000000
310
0000000000000000000000000000000000000000000000000000000000000000
310
0000000000000000000000000000000000000000000000000000000000000000
310
0000000000000000000000000000000000000000000000000000000000000000
310
0000000000000000000000000000000000000000000000000000000000000000
310
0000000000000000000000000000000000000000000000000000000000000000
310
0000000000000000000000000000000000000000000000000000000000000000
310
0000000000000000000000000000000000000000000000000000000000000000
310
0000000000000000000000000000000000000000000000000000000000000000
310
0000000000000000000000000000000000000000000000000000000000000000
310
20260000424D0E260000000000003E00000028000000B40200006E0000000100
310
01000000000000000000130B0000130B00000200000002000000000000FFFFFF
310
FFFFFFFFFFFFFFFFFFFFFFFFFFFFFFFFFFFFFFFFFFFFFFFFFFFFFFFFFFFFFFFF
310
FFFFFFFFFFFFFFFFFFFFFFFFFFFFFFFFFFFFFFFFFFFFFFFFFFFFFFFFFFFFFFFF
310
FFFFFFFFFFFFFFFFFFFFFFFFFFFFFFFFFFFFFFFFFFFFFFFFF000FFFFFFFFFFFF
310
FFFFFFFFFFFFFFFFFFFFFFFFFFFFFFFFFFFFFFFFFFFFFFFFFFFFFFFFFFFFFFFF
310
FFFFFFFFFFFFFFFFFFFFFFFFFFFFFFFFFFFFFFFFFFFFFFFFFFFFFFFFFFFFFFFF
310
FFFFFFFFFFFFFFFFFFFFFFFFFFFFFFFFF000FFFFFFFFFFFFFFFFFFFFFFFFFFFF
310
FFFFFFFFFFFFFFFFFFFFFFFFFFFFFFFFFFFFFFFFFFFFFFFFFFFFFFFFFFFFFFFF
310
FFFFFFFFFFFFFFFFFFFFFFFFFFFFFFFFFFFFFFFFFFFFFFFFFFFFFFFFFFFFFFFF
310
FFFFFFFFFFFFFFFFF000FFFFFFFFFFFFFFFFFFFFFFFFFFFFFFFFFFFFFFFFFFFF
310
FFFFFFFFFFFFFFFFFFFFFFFFFFFFFFFFFFFFFFFFFFFFFFFFFFFFFFFFFFFFFFFF
310
FFFFFFFFFFFFFFFFFFFFFFFFFFFFFFFFFFFFFFFFFFFFFFFFFFFFFFFFFFFFFFFF
310
F000FFFFFFFFFFFFFFFFFFFFFFFFFFFFFFFFFFFFFFFFFFFFFFFFFFFFFFFFFFFF
310
FFFFFFFFFFFFFFFFFFFFFFFFFFFFFFFFFFFFFFFFFFFFFFFFFFFFFFFFFFFFFFFF
310
FFFFFFFFFFFFFFFFFFFFFFFFFFFFFFFFFFFFFFFFFFFFFFFFF000FFFFFFFFFFFF
310
FFFFFFFFFFFFFFFFFFFFFFFFFFFFFFFFFFFFFFFFFFFFFFFFFFFFFFFFFFFFFFFF
310
FFFFFFFFFFFFFFFFFFFFFFFFFFFFFFFFFFFFFFFFFFFFFFFFFFFFFFFFFFFFFFFF
310
FFFFFFFFFFFFFFFFFFFFFFFFFFFFFFFFF000FFFFFFFFFFFFFFFFFFFFFFFFFFFF
310
FFFFFFFFFFFFFFFFFFFFFFFFFFFFFFFFFFFFFFFFFFFFFFFFFFFFFFFFFFFFFFFF
310
FFFFFFFFFFFFFFFFFFFFFFFFFFFFFFFFFFFFFFFFFFFFFFFFFFFFFFFFFFFFFFFF
310
FFFFFFFFFFFFFFFFF000FFFFFFFFFFFFFFFFFFFFFFFFFFFFFFFFFFFFFFFFFFFF
310
FFFFFFFFFFFFFFFFFFFFFFFFFFFFFFFFFFFFFFFFFFFFFFFFFFFFFFFFFFFFFFFF
310
FFFFFFFFFFFFFFFFFFFFFFFFFFFFFFFFFFFFFFFFFFFFFFFFFFFFFFFFFFFFFFFF
310
F000FFFFFFFFFFFFFFFFFFFFFFFFFFFFFFFFFFFFFFFFFFFFFFFFFFFFFFFFFFFF
310
FFFFFFFFFFFFFFFFFFFFFFFFFFFFFFFFFFFFFFFFFFFFFFFFFFFFFFFFFFFFFFFF
310
FFFFFFFFFFFFFFFFFFFFFFFFFFFFFFFFFFFFFFFFFFFFFFFFF000FFFFFFFFFFFF
310
FFFFFFFFFFFFFFFFFFFFFFFFFFFFFFFFFFFFFFFFFFFFFFFFFFFFFFFFFFFFFFFF
310
FFFFFFFFFFFFFFFFFFFFFFFFFFFFFFFFFFFFFFFFFFFFFFFFFFFFFFFFFFFFFFFF
310
FFFFFFFFFFFFFFFFFFFFFFFFFFFFFFFFF000FFFFFFFFFFFFFFFFFFFFFFFFFFFF
310
FFFFFFFFFFFFFFFFFFFFFFFFFFFFFFFFFFFFFFFFFFFFFFFFFFFFFFFFFFFFFFFF
310
FFFFFFFFFFFFFFFFFFFFFFFFFFFFFFFFFFFFFFFFFFFFFFFFFFFFFFFFFFFFFFFF
310
FFFFFFFFFFFFFFFFF000FFFFFFFFFFFFFFFFFFFFFFFFFFFFFFFFFFFFFFFFFFFF
310
FFFFFFFFFFFFFFFFFFFFFFFFFFFFFFFFFFFFFFFFFFFFFFFFFFFFFFFFFFFFFFFF
310
FFFFFFFFFFFFFFFFFFFFFFFFFFFFFFFFFFFFFFFFFFFFFFFFFFFFFFFFFFFFFFFF
310
F000FFFFFFFFFFFFFFFFFFFFFFFFFFFFFFFFFFFFFFFFFFFFFFFFFFFFFFFFFFFF
310
FFFFFFFFFFFFFFFFFFFFFFFFFFFFFFFFFFFFFFFFFFFFFFFFFFFFFFFFFFFFFFFF
310
FFFFFFFFFFFFFFFFFFFFFFFFFFFFFFFFFFFFFFFFFFFFFFFFF000FFFFFFFFFFFF
310
FFFFFFFFFFFFFFFFFFFFFFFFFFFFFFFFFFFFFFFFFFFFFFFFFFFFFFFFFFFFFFFF
310
FFFFFFFFFFFFFFFFFFFFFFFFFFFFFFFFFFFFFFFFFFFFFFFFFFFFFFFFFFFFFFFF
310
FFFFFFFFFFFFFFFFFFFFFFFFFFFFFFFFF000FFFFFFFFFFFFFFFFFFFFFFFFFFFF
310
FFFFFFFFFFFFFFFFFFFFFFFFFFFFFFFFFFFFFFFFFFFFFFFFFFFFFFFFFFFFFFFF
310
FFFFFFFFFFFFFFFFFFFFFFFFFFFFFFFFFFFFFFFFFFFFFFFFFFFFFFFFFFFFFFFF
310
FFFFFFFFFFFFFFFFF000FFFFFFFFFFFFFFFFFFFFFFFFFFFFFFFFFFFFFFFFFFFF
310
FFFFFFFFFFFFFFFFFFFFFFFFFFFFFFFFFFFFFFFFFFFFFFFFFFFFFFFFFFFFFFFF
310
FFFFFFFFFFFFFFFFFFFFFFFFFFFFFFFFFFFFFFFFFFFFFFFFFFFFFFFFFFFFFFFF
310
F000FFFFFFFFFFFFFFFFFFFFFFFFFFFFFFFFFFFFFFFFFFFFFFFFFFFFFFFFFFFF
310
FFFFFFFFFFFFFFFFFFFFFFFFFFFFFFFFFFFFFFFFFFFFFFFFFFFFFFFFFFFFFFFF
310
FFFFFFFFFFFFFFFFFFFFFFFFFFFFFFFFFFFFFFFFFFFFFFFFF000FFFFFFFFFFFF
310
FFFFFFFFFFFFFFFFFFFFFFFFFFFFFFFFFFFFFFFFFFFFFFFFFFFFFFFFFFFFFFFF
310
FFFFFFFFFFFFFFFFFFFFFFFFFFFFFFFFFFFFFFFFFFFFFFFFFFFFFFFFFFFFFFFF
310
FFFFFFFFFFFFFFFFFFFFFFFFFFFFFFFFF000FFFFFFFFFFFFFFFFFFFFFFFFFFFF
310
FFFFFFFFFFFFFFFFFFFFFFFFFFFFFFFFFFFFFFFFFFFFFFFFFFFFFFFFFFFFFFFF
310
FFFFFFFFFFFFFFFFFFFFFFFFFFFFFFFFFFFFFFFFFFFFFFFFFFFFFFFFFFFFFFFF
310
FFFFFFFFFFFFFFFFF000FFFFF80003FFFFFFFFFFFFFFFFFFFFFFFFFFFFFFFFFF
310
FFFFF00007FFFFFFFFFF00007FFFFFF800000000000000007FFFFFFFFFFFFFFF
310
FFFFFFFC001FFFFFFFFFFFFFFC001FFFFFFFFFFFFFFFFFFFFFFFFFFE0007FFFF
310
F000FFFF8000007FFFFFFFF8000FFFFFC0007FFFFF80007FFFFF0000007FFFFF
310
FFF8000007FFFFF800000000000000007FFFFFF0001FFFFFFFFFFFC00001FFFF
310
FFFFFFFFC00001FFFFFFFF000000000003FFFFE000007FFFF000FFFE0000000F
310
FFFFFFF0000FFFFF80007FFFFF80007FFFFC0000001FFFFFFFC0000001FFFFF8
310
00000000000000007FFFFFF0001FFFFFFFFFFE0000003FFFFFFFFFFE0000003F
310
FFFFFF000000000003FFFF0000000FFFF000FFF800000003FFFFFFF00007FFFF
310
80007FFFFF80007FFFF000000007FFFFFF000000003FFFF80000000000000000
310
7FFFFFF0001FFFFFFFFFF80000000FFFFFFFFFF80000000FFFFFFF0000000000
310
03FFFC00000003FFF000FFE000000000FFFFFFF00007FFFF80003FFFFF80007F
310
FFC000000001FFFFFC000000001FFFF800000000000000007FFFFFF0001FFFFF
310
FFFFE000000003FFFFFFFFE000000003FFFFFF000000000003FFF000000000FF
310
F000FF80000000007FFFFFF00007FFFF80003FFFFF80007FFF8000000000FFFF
310
F80000000007FFF800000000000000007FFFFFF0001FFFFFFFFFC000000001FF
310
FFFFFFC000000001FFFFFF000000000003FFC0000000007FF000FF0000000000
310
3FFFFFE00007FFFF00003FFFFF80007FFE00000000003FFFF00000000003FFF8
310
00000000000000007FFFFFF0001FFFFFFFFF8000000000FFFFFFFF8000000000
310
FFFFFF000000000003FF80000000003FF000FE00000000001FFFFFE00003FFFF
310
00003FFFFF80007FFC00000000001FFFE00000000001FFF8000001FFFE000000
310
7FFFFFF0001FFFFFFFFE00000000003FFFFFFE00000000003FFFFF0000000000
310
03FF00000000001FF000FC00000000000FFFFFE00003FFFF00001FFFFF80007F
310
F800000000001FFFC00000000000FFF8000001FFFE0000007FFFFFF0001FFFFF
310
FFFC00000000001FFFFFFC00000000001FFFFF000000000003FE00000000000F
310
F000F8000000000007FFFFE00003FFFF00001FFFFF80007FF800000000000FFF
310
800000000000FFF8000001FFFE0000007FFFFFF0001FFFFFFFF800000000000F
310
FFFFF800000000000FFFFF000000000003FC000000000007F000F80000000000
310
03FFFFC00003FFFE00001FFFFF80007FF0000000000007FF0000000000007FF8
310
000001FFFE0000007FFFFFF0001FFFFFFFF0000000000007FFFFF00000000000
310
07FFFF000000000003F8000000000003F000F0000000000003FFFFC00001FFFE
310
00001FFFFF80007FE0000000000007FE0000000000003FF8000001FFFE000000
310
7FFFFFF0001FFFFFFFF0000000000007FFFFF0000000000007FFFF0000000000
310
03F800001F800003F000E00001FFF00001FFFFC00001FFFE00000FFFFF80007F
310
E00001FFE00003FE00001FFF00003FF8000001FFFE0000007FFFFFF0001FFFFF
310
FFE000003E000003FFFFE000003E000003FFFF000000000003F00001FFF80001
310
F000E00007FFFC0001FFFFC00001FFFE00000FFFFF80007FC0000FFFFC0003FC
310
0000FFFFC0001FF8000001FFFE0000007FFFFFF0001FFFFFFFC00003FFE00001
310
FFFFC00003FFE00001FFFF0001FFFFFFFFF00007FFFE0001F000E0000FFFFF00
310
00FFFF800001FFFC00000FFFFF80007FC0001FFFFE0001FC0001FFFFE0001FF8
310
000001FFFE0000007FFFFFF0001FFFFFFF80000FFFF80000FFFF80000FFFF800
310
00FFFF0003FFFFFFFFE0000FFFFF8000F000C0003FFFFF8000FFFF800000FFFC
310
000007FFFF80007F80003FFFFF0001FC0003FFFFF0001FF8000001FFFE000000
310
7FFFFFF0001FFFFFFF80003FFFFE0000FFFF80003FFFFE0000FFFF0003FFFFFF
310
FFE0003FFFFF8000F000C0003FFFFF8000FFFF800000FFFC000007FFFF80007F
310
80007FFFFF8001F80007FFFFF8000FF8000001FFFE0000007FFFFFF0001FFFFF
310
FF00007FFFFF00007FFF00007FFFFF00007FFF0003FFFFFFFFE0003FFFFFC000
310
F000C0007FFFFFC000FFFF000000FFFC000007FFFF80007F8000FFFFFF8000F8
310
000FFFFFF8000FF8000001FFFE0000007FFFFFF0001FFFFFFF0000FFFFFF8000
310
7FFF0000FFFFFF80007FFF0003FFFFFFFFC0007FFFFFC00070008000FFFFFFC0
310
00FFFF000000FFF8000007FFFF80007F8000FFFFFF8000F8000FFFFFF8000FF8
310
000001FFFE0000007FFFFFF0001FFFFFFE0001FFFFFFC0003FFE0001FFFFFFC0
310
003FFF0003FFFFFFFFC0007FFFFFE00070008000FFFFFFC0007FFF0000007FF8
310
000003FFFF80007F0001FFFFFF8000F8000FFFFFF8000FF8000001FFFE000000
310
7FFFFFF0001FFFFFFE0001FFFFFFC0003FFE0001FFFFFFC0003FFF0003FFFFFF
310
FFC000FFFFFFE00070008000FFFFFFC0007FFF0000007FF8000003FFFF80007F
310
0001FFFFFF8000F8001FFFFFF8000FF8000001FFFE0000007FFFFFF0001FFFFF
310
FE0003FFFFFFE0003FFE0003FFFFFFE0003FFF0003FFFFFFFFC000FFFFFFE000
310
70008000FFFFFFC0007FFE0000007FF8000003FFFF80007F0001FFFFFF8000F0
310
001FFFFFF8000FF8000001FFFE0000007FFFFFF0001FFFFFFC0003FFFFFFE000
310
1FFC0003FFFFFFE0001FFF0003FFFFFFFFC000FFFFFFC00070008000FFFFFF80
310
007FFE0000007FF0000003FFFF80007F0001FFFFFF0000F0001FFFFFF8000FF8
310
000001FFFE0000007FFFFFF0001FFFFFFC0007FFFFFFF0001FFC0007FFFFFFF0
310
001FFF0003FFFFFFFFC000FFFFFFC00070008001FFFFFF0000FFFE0000003FF0
310
000001FFFF80007F0001FFFFFF0000F8001FFFFFF0000FF8000001FFFE000000
310
7FFFFFF0001FFFFFFC0007FFFFFFF0001FFC0007FFFFFFF0001FFF0003FFFFFF
310
FFC001FFFFFF80007000FFFFFFFFFE0000FFFE0008003FF0008001FFFF80007F
310
FFFFFFFFFC0000FFFFFFFFFFE0000FF8000001FFFE0000007FFFFFF0001FFFFF
310
F8000FFFFFFFF8000FF8000FFFFFFFF8000FFF0003FFFFFFFFFFFFFFFFFF0000
310
7000FFFFFFFFFC0000FFFC0008003FF0008001FFFF80007FFFFFFFFFF80001FF
310
FFFFFFFF80000FF8000001FFFE0000007FFFFFF0001FFFFFF8000FFFFFFFF800
310
0FF8000FFFFFFFF8000FFF0003FFFFFFFFFFFFFFFFFE0000F000FFFFFFFFE000
310
00FFFC000C003FE000C001FFFF80007FFFFFFFFFC00001FFFFFFFFFE00001FF8
310
000001FFFE0000007FFFFFF0001FFFFFF8000FFFFFFFF8000FF8000FFFFFFFF8
310
000FFF0003FFFFFFFFFFFFFFFFF00000F000FFFFFFFE000001FFFC000C001FE0
310
00C000FFFF80007FFFFFFFFE000001FFFFFFFFE000001FF80FFFFFFFFFFFFFC0
310
7FFFFFF0001FFFFFF8000FFFFFFFF8000FF8000FFFFFFFF8000FFF0003FFFFFF
310
FFFFFFFFFF800000F000FFFFFFC0000001FFFC001C001FE001C000FFFF80007F
310
FFFFFF80000003FFFFFFF80000001FF80FFFFFFFFFFFFFC07FFFFFF0001FFFFF
310
F8001FFFFFFFFC000FF8001FFFFFFFFC000FFF0003FFFFFFFFFFFFFFF0000001
310
F000FFFFF800000001FFF8001C001FE001C000FFFF80007FFFFFF800000003FF
310
FFFF800000003FF80FFFFFFFFFFFFFC07FFFFFF0001FFFFFF8001FFFFFFFFC00
310
0FF8001FFFFFFFFC000FFF0003FFFFFFFFFFFFFE00000001F000FFFFC0000000
310
03FFF8001E001FC001E000FFFF80007FFFFF8000000007FFFFFC000000003FF8
310
0FFFFFFFFFFFFFC07FFFFFF0001FFFFFF8001FFFFFFFFC000FF8001FFFFFFFFC
310
000FFF0003FFFFFFFFFFFFE000000003F000FFFE0000000007FFF8001E000FC0
310
01E0007FFF80007FFFFE0000000007FFFFE0000000007FF80FFFFFFFFFFFFFC0
310
7FFFFFF0001FFFFFF0001FFFFFFFFC0007F0001FFFFFFFFC0007FF0003FFFFFF
310
FFFFFF0000000003F000FFF80000000007FFF8001E000FC003E0007FFF80007F
310
FFF0000000000FFFFF8000000000FFF80FFFFFFFFFFFFFC07FFFFFF0001FFFFF
310
F0001FFFFFFFFC0007F0001FFFFFFFFC0007FF0003FFFFFFFFFFFC0000000007
310
F000FFE0000000000FFFF0003E000FC003E0007FFF80007FFFC0000000001FFF
310
FE0000000001FFF80FFFFFFFFFFFFFC07FFFFFF0001FFFFFF0001FFFFFFFFC00
310
07F0001FFFFFFFFC0007FF0003FFFFFFFFFFF0000000000FF000FFC000000000
310
1FFFF0003F000F8003F0003FFF80007FFF80000000003FFFF80000000003FFF8
310
0FFFFFFFFFFFFFC07FFFFFF0001FFFFFF0001FFFFFFFFC0007F0001FFFFFFFFC
310
0007FF0003FFFFFFFFFFE0000000001FF000FF00000000007FFFF0003F000780
310
03F0003FFF80007FFF00000000007FFFF00000000007FFF80FFFFFFFFFFFFFC0
310
7FFFFFF0001FFFFFF0001FFFFFFFFC0007F0001FFFFFFFFC0007FF0003FFFFFF
310
FFFF80000000007FF000FE0000000000FFFFE0003F00078007F0003FFF80007F
310
FE0000000001FFFFE0000000001FFFF80FFFFFFFFFFFFFC07FFFFFF0001FFFFF
310
F0001FFFFFFFFC0007F0001FFFFFFFFC0007FF0003FFFFFFFFFF0000000000FF
310
F000FC0000000003FFFFE0007F00078007F0003FFF80007FFC0000000007FFFF
310
C0000000007FFFF80FFFFFFFFFFFFFC07FFFFFF0001FFFFFF8001FFFFFFFFC00
310
0FF8001FFFFFFFFC000FFF0003FFFFFFFFFE0000000003FFF000FC000000000F
310
FFFFE0007F80070007F8001FFF80007FF8000000001FFFFF8000000001FFFFF8
310
0FFFFFFFFFFFFFC07FFFFFF0001FFFFFF8001FFFFFFFFC000FF8001FFFFFFFFC
310
000FFF0003FFFFFFFFFC000000000FFFF000F8000000007FFFFFE0007F800700
310
07F8001FFF80007FF000000000FFFFFF800000000FFFFFF80FFFFFFFFFFFFFC0
310
7FFFFFF0001FFFFFF8000FFFFFFFF8000FF8000FFFFFFFF8000FFF0003FFFFFF
310
FFFC000000007FFFF000F800000007FFFFFFC0007F8003000FF8001FFF80007F
310
F000000007FFFFFF000000007FFFFFF80FFFFFFFFFFFFFC07FFFFFF0001FFFFF
310
F8000FFFFFFFF8000FF8000FFFFFFFF8000FFF0003FFFFFFFFF80000000FFFFF
310
F000F0000000FFFFFFFFC000FF8003000FF8001FFF80007FE0000000FFFFFFFF
310
0000000FFFFFFFF8000001FFFE0000007FFFFFF0001FFFFFF8000FFFFFFFF800
310
0FF8000FFFFFFFF8000FFF0003FFFFFFFFF8000000FFFFFFF000F000000FFFFF
310
FFFFC000FFC002000FF8000FFF80007FE000001FFFFFFFFE000001FFFFFFFFF8
310
000001FFFE0000007FFFFFF0001FFFFFF8000FFFFFFFF8000FF8000FFFFFFFF8
310
000FFF0003FFFFFFFFF000001FFFFFFFF000E00000FFFFFFFFFFC000FFC00200
310
0FFC000FFF80007FE00001FFFFFFFFFE00001FFFFFFFFFF8000001FFFE000000
310
7FFFFFF0001FFFFFFC000FFFFFFFF8001FFC000FFFFFFFF8001FFF0003FFFFFF
310
FFF00001FFFFFFFFF000E00007FFFFFFFFFF8000FFC000001FFC000FFF80007F
310
C0000FFFFFFFFFFE0000FFFFFFFFFFF8000001FFFE0000007FFFFFF0001FFFFF
310
FC0007FFFFFFF0001FFC0007FFFFFFF0001FFF0003FFFFFFFFF00007FFFFFFFF
310
F000E0001FFFFFFFFFFF8000FFC000001FFC000FFF80007FC0003FFFFFFFFFFE
310
0001FFFFFFFFFFF8000001FFFE0000007FFFFFF0001FFFFFFC0007FFFFFFF000
310
1FFC0007FFFFFFF0001FFF0003FFFFFFFFF0001FFFFFFFFFF000E0003FFFFF00
310
03FF8001FFE000001FFC0007FF80007FC0007FFFFF0007FC0003FFFFF0003FF8
310
000001FFFE0000007FFFFFF0001FFFFFFC0003FFFFFFE0001FFC0003FFFFFFE0
310
001FFF0003FFFFFFFFF0003FFFFFFFFFF000E0003FFFFF0001FF8001FFE00000
310
1FFE0007FF80007FC0007FFFFE0003FC0007FFFFE0003FF8000001FFFE000000
310
7FFFFFF0001FFFFFFE0003FFFFFFE0003FFE0003FFFFFFE0003FFF0003FFFFFF
310
FFF0003FFFFF8001F000E0003FFFFF0001FF0001FFE000001FFE0007FF80007F
310
C0007FFFFE0003FC0007FFFFE0003FF8000001FFFE0000007FFFFFF0001FFFFF
310
FE0001FFFFFFC0003FFE0001FFFFFFC0003FFF0003FFFFFFFFF0003FFFFF0001
310
F000E0003FFFFF0003FF0001FFE000003FFE0007FF80007FC0007FFFFE0003FC
310
0007FFFFE0003FF8000001FFFE0000007FFFFFF0001FFFFFFF0001FFFFFFC000
310
7FFF0001FFFFFFC0007FFF0003FFFFFFFFF0003FFFFF0001F000E0003FFFFE00
310
03FF0003FFF000003FFE0003FF80007FC0007FFFFC0003FE0007FFFFE0003FF8
310
000001FFFE0000007FFFFFF0001FFFFFFF0000FFFFFF80007FFF0000FFFFFF80
310
007FFF0003FFFFFFFFF0003FFFFF0001F000E0003FFFFE0003FF0003FFF00000
310
3FFF0003FF80007FC0007FFFFC0007FE0007FFFFC0003FF8000001FFFE000000
310
7FFFFFF0001FFFFFFF80007FFFFF0000FFFF80007FFFFF0000FFFF0003FFFFFF
310
FFF0003FFFFF0003F000E0003FFFFC0003FE0003FFF000003FFF0003FF80007F
310
E0003FFFF80007FE0003FFFFC0007FF8000001FFFE0000007FFFFFF0001FFFFF
310
FF80003FFFFE0000FFFF80003FFFFE0000FFFF0003FFFFFFFFF0001FFFFE0003
310
F000F0001FFFF80003FE0003FFF000007FFF0001FF80007FE0003FFFF00007FE
310
0001FFFF80007FF8000001FFFE0000007FFFFFF0001FFFFFFFC0000FFFF80001
310
FFFFC0000FFFF80001FFFF0003FFFFFFFFF0001FFFFC0003F000F0000FFFF000
310
07FE0007FFF800007FFF0001FF80007FE0001FFFE00007FF0000FFFE00007FF8
310
000001FFFE0000007FFFFFF0001FFFFFFFC00003FFE00001FFFFC00003FFE000
310
01FFFF0003FFFFFFFFF8000FFFF80003F000F00003FFC00007FC0007FFF80000
310
7FFF8001FF80007FF00007FF80000FFF00007FF80000FFF8000001FFFE000000
310
7F80000000000001FFE000003E000003FFFFE000003E000003FFFF0003FFFFFF
310
FFF80003FFE00007F000F800000000000FFC0007FFF800007FFF8001FF80007F
310
F000000000000FFF000000000000FFF8000001FFFE0000007F80000000000001
310
FFF0000000000007FFFFF0000000000007FFFF0003FFFFFFFFFC00007E000007
310
F000F800000000000FFC0007FFF80000FFFF8000FF80007FF800000000001FFF
310
800000000001FFF8000001FFFE0000007F80000000000001FFF800000000000F
310
FFFFF800000000000FFFFF0003FFFFFFFFFC00000000000FF000FC0000000000
310
1FFC0007FFFC0000FFFF8000FF80007FF800000000003FFFC00000000001FFF8
310
000001FFFE0000007F80000000000001FFF800000000000FFFFFF80000000000
310
0FFFFF0003FFFFFFFFFE00000000001FF000FE00000000003FF8000FFFFC0000
310
FFFF8000FF80007FFC00000000003FFFC00000000003FFF8000001FFFE000000
310
7F80000000000001FFFC00000000001FFFFFFC00000000001FFFFF0003FFFFFF
310
FFFF00000000001FF000FF00000000003FF8000FFFFC0000FFFFC000FF80007F
310
FE00000000007FFFE00000000007FFF8000001FFFE0000007F80000000000001
310
FFFE00000000003FFFFFFE00000000003FFFFF0003FFFFFFFFFF80000000003F
310
F000FF80000000007FF8000FFFFC0001FFFFC0007F80007FFF0000000000FFFF
310
F0000000000FFFF800000000000000007F80000000000001FFFF8000000000FF
310
FFFFFF8000000000FFFFFF0003FFFFFFFFFFC0000000007FF000FFC000000000
310
FFF8000FFFFE0001FFFFC0007F80007FFF8000000001FFFFF8000000001FFFF8
310
00000000000000007F80000000000001FFFFC000000001FFFFFFFFC000000001
310
FFFFFF0003FFFFFFFFFFE000000000FFF000FFE000000003FFF0001FFFFE0001
310
FFFFC0007F80007FFFC000000007FFFFFE000000003FFFF80000000000000000
310
7F80000000000001FFFFE000000003FFFFFFFFE000000003FFFFFF0003FFFFFF
310
FFFFF000000003FFF000FFF80000000FFFF0001FFFFE0001FFFFE0007F80007F
310
FFF00000000FFFFFFF00000000FFFFF800000000000000007F80000000000001
310
FFFFF80000000FFFFFFFFFF80000000FFFFFFF0003FFFFFFFFFFFC0000000FFF
310
F000FFFE0000003FFFF0001FFFFE0003FFFFE0003F80007FFFFC0000003FFFFF
310
FFC0000003FFFFF800000000000000007F80000000000001FFFFFE0000003FFF
310
FFFFFFFE0000003FFFFFFF0003FFFFFFFFFFFF0000003FFFF000FFFF800000FF
310
FFF0001FFFFF0003FFFFE0003F80007FFFFF000001FFFFFFFFF800001FFFFFF8
310
00000000000000007F80000000000001FFFFFFC00001FFFFFFFFFFFFC00001FF
310
FFFFFF0003FFFFFFFFFFFFC00000FFFFF000FFFFF8000FFFFFFFFFFFFFFFFFFF
310
FFFFFFFFFFFFFFFFFFFFF0001FFFFFFFFFFF0000FFFFFFF80000000000000000
310
7FFFFFFFFFFFFFFFFFFFFFFC001FFFFFFFFFFFFFFC001FFFFFFFFFFFFFFFFFFF
310
FFFFFFFC001FFFFFF000FFFFFFFFFFFFFFFFFFFFFFFFFFFFFFFFFFFFFFFFFFFF
310
FFFFFFFFFFFFFFFFFFFFFFFFFFFFFFFFFFFFFFFFFFFFFFFFFFFFFFFFFFFFFFFF
310
FFFFFFFFFFFFFFFFFFFFFFFFFFFFFFFFFFFFFFFFFFFFFFFFFFFFFFFFFFFFFFFF
310
F000FFFFFFFFFFFFFFFFFFFFFFFFFFFFFFFFFFFFFFFFFFFFFFFFFFFFFFFFFFFF
310
FFFFFFFFFFFFFFFFFFFFFFFFFFFFFFFFFFFFFFFFFFFFFFFFFFFFFFFFFFFFFFFF
310
FFFFFFFFFFFFFFFFFFFFFFFFFFFFFFFFFFFFFFFFFFFFFFFFF000FFFFFFFFFFFF
310
FFFFFFFFFFFFFFFFFFFFFFFFFFFFFFFFFFFFFFFFFFFFFFFFFFFFFFFFFFFFFFFF
310
FFFFFFFFFFFFFFFFFFFFFFFFFFFFFFFFFFFFFFFFFFFFFFFFFFFFFFFFFFFFFFFF
310
FFFFFFFFFFFFFFFFFFFFFFFFFFFFFFFFF000FFFFFFFFFFFFFFFFFFFFFFFFFFFF
310
FFFFFFFFFFFFFFFFFFFFFFFFFFFFFFFFFFFFFFFFFFFFFFFFFFFFFFFFFFFFFFFF
310
FFFFFFFFFFFFFFFFFFFFFFFFFFFFFFFFFFFFFFFFFFFFFFFFFFFFFFFFFFFFFFFF
310
FFFFFFFFFFFFFFFFF000FFFFFFFFFFFFFFFFFFFFFFFFFFFFFFFFFFFFFFFFFFFF
310
FFFFFFFFFFFFFFFFFFFFFFFFFFFFFFFFFFFFFFFFFFFFFFFFFFFFFFFFFFFFFFFF
310
FFFFFFFFFFFFFFFFFFFFFFFFFFFFFFFFFFFFFFFFFFFFFFFFFFFFFFFFFFFFFFFF
310
F000FFFFFFFFFFFFFFFFFFFFFFFFFFFFFFFFFFFFFFFFFFFFFFFFFFFFFFFFFFFF
310
FFFFFFFFFFFFFFFFFFFFFFFFFFFFFFFFFFFFFFFFFFFFFFFFFFFFFFFFFFFFFFFF
310
FFFFFFFFFFFFFFFFFFFFFFFFFFFFFFFFFFFFFFFFFFFFFFFFF000FFFFFFFFFFFF
310
FFFFFFFFFFFFFFFFFFFFFFFFFFFFFFFFFFFFFFFFFFFFFFFFFFFFFFFFFFFFFFFF
310
FFFFFFFFFFFFFFFFFFFFFFFFFFFFFFFFFFFFFFFFFFFFFFFFFFFFFFFFFFFFFFFF
310
FFFFFFFFFFFFFFFFFFFFFFFFFFFFFFFFF000FFFFFFFFFFFFFFFFFFFFFFFFFFFF
310
FFFFFFFFFFFFFFFFFFFFFFFFFFFFFFFFFFFFFFFFFFFFFFFFFFFFFFFFFFFFFFFF
310
FFFFFFFFFFFFFFFFFFFFFFFFFFFFFFFFFFFFFFFFFFFFFFFFFFFFFFFFFFFFFFFF
310
FFFFFFFFFFFFFFFFF000FFFFFFFFFFFFFFFFFFFFFFFFFFFFFFFFFFFFFFFFFFFF
310
FFFFFFFFFFFFFFFFFFFFFFFFFFFFFFFFFFFFFFFFFFFFFFFFFFFFFFFFFFFFFFFF
310
FFFFFFFFFFFFFFFFFFFFFFFFFFFFFFFFFFFFFFFFFFFFFFFFFFFFFFFFFFFFFFFF
310
F000FFFFFFFFFFFFFFFFFFFFFFFFFFFFFFFFFFFFFFFFFFFFFFFFFFFFFFFFFFFF
310
FFFFFFFFFFFFFFFFFFFFFFFFFFFFFFFFFFFFFFFFFFFFFFFFFFFFFFFFFFFFFFFF
310
FFFFFFFFFFFFFFFFFFFFFFFFFFFFFFFFFFFFFFFFFFFFFFFFF000FFFFFFFFFFFF
310
FFFFFFFFFFFFFFFFFFFFFFFFFFFFFFFFFFFFFFFFFFFFFFFFFFFFFFFFFFFFFFFF
310
FFFFFFFFFFFFFFFFFFFFFFFFFFFFFFFFFFFFFFFFFFFFFFFFFFFFFFFFFFFFFFFF
310
FFFFFFFFFFFFFFFFFFFFFFFFFFFFFFFFF000FFFFFFFFFFFFFFFFFFFFFFFFFFFF
310
FFFFFFFFFFFFFFFFFFFFFFFFFFFFFFFFFFFFFFFFFFFFFFFFFFFFFFFFFFFFFFFF
310
FFFFFFFFFFFFFFFFFFFFFFFFFFFFFFFFFFFFFFFFFFFFFFFFFFFFFFFFFFFFFFFF
310
FFFFFFFFFFFFFFFFF000FFFFFFFFFFFFFFFFFFFFFFFFFFFFFFFFFFFFFFFFFFFF
310
FFFFFFFFFFFFFFFFFFFFFFFFFFFFFFFFFFFFFFFFFFFFFFFFFFFFFFFFFFFFFFFF
310
FFFFFFFFFFFFFFFFFFFFFFFFFFFFFFFFFFFFFFFFFFFFFFFFFFFFFFFFFFFFFFFF
310
F000FFFFFFFFFFFFFFFFFFFFFFFFFFFFFFFFFFFFFFFFFFFFFFFFFFFFFFFFFFFF
310
FFFFFFFFFFFFFFFFFFFFFFFFFFFFFFFFFFFFFFFFFFFFFFFFFFFFFFFFFFFFFFFF
310
FFFFFFFFFFFFFFFFFFFFFFFFFFFFFFFFFFFFFFFFFFFFFFFFF000FFFFFFFFFFFF
310
FFFFFFFFFFFFFFFFFFFFFFFFFFFFFFFFFFFFFFFFFFFFFFFFFFFFFFFFFFFFFFFF
310
FFFFFFFFFFFFFFFFFFFFFFFFFFFFFFFFFFFFFFFFFFFFFFFFFFFFFFFFFFFFFFFF
310
FFFFFFFFFFFFFFFFFFFFFFFFFFFFFFFFF000FFFFFFFFFFFFFFFFFFFFFFFFFFFF
310
FFFFFFFFFFFFFFFFFFFFFFFFFFFFFFFFFFFFFFFFFFFFFFFFFFFFFFFFFFFFFFFF
310
FFFFFFFFFFFFFFFFFFFFFFFFFFFFFFFFFFFFFFFFFFFFFFFFFFFFFFFFFFFFFFFF
310
FFFFFFFFFFFFFFFFF000FFFFFFFFFFFFFFFFFFFFFFFFFFFFFFFFFFFFFFFFFFFF
310
FFFFFFFFFFFFFFFFFFFFFFFFFFFFFFFFFFFFFFFFFFFFFFFFFFFFFFFFFFFFFFFF
310
FFFFFFFFFFFFFFFFFFFFFFFFFFFFFFFFFFFFFFFFFFFFFFFFFFFFFFFFFFFFFFFF
310
F000FFFFFFFFFFFFFFFFFFFFFFFFFFFFFFFFFFFFFFFFFFFFFFFFFFFFFFFFFFFF
310
FFFFFFFFFFFFFFFFFFFFFFFFFFFFFFFFFFFFFFFFFFFFFFFFFFFFFFFFFFFFFFFF
310
FFFFFFFFFFFFFFFFFFFFFFFFFFFFFFFFFFFFFFFFFFFFFFFFF000FFFFFFFFFFFF
310
FFFFFFFFFFFFFFFFFFFFFFFFFFFFFFFFFFFFFFFFFFFFFFFFFFFFFFFFFFFFFFFF
310
FFFFFFFFFFFFFFFFFFFFFFFFFFFFFFFFFFFFFFFFFFFFFFFFFFFFFFFFFFFFFFFF
310
FFFFFFFFFFFFFFFFFFFFFFFFFFFFFFFFF000FFFFFFFFFFFFFFFFFFFFFFFFFFFF
310
FFFFFFFFFFFFFFFFFFFFFFFFFFFFFFFFFFFFFFFFFFFFFFFFFFFFFFFFFFFFFFFF
310
FFFFFFFFFFFFFFFFFFFFFFFFFFFFFFFFFFFFFFFFFFFFFFFFFFFFFFFFFFFFFFFF
310
FFFFFFFFFFFFFFFFF000FFFFFFFFFFFFFFFFFFFFFFFFFFFFFFFFFFFFFFFFFFFF
310
FFFFFFFFFFFFFFFFFFFFFFFFFFFFFFFFFFFFFFFFFFFFFFFFFFFFFFFFFFFFFFFF
310
FFFFFFFFFFFFFFFFFFFFFFFFFFFFFFFFFFFFFFFFFFFFFFFFFFFFFFFFFFFFFFFF
310
F000FFFFFFFFFFFFFFFFFFFFFFFFFFFFFFFFFFFFFFFFFFFFFFFFFFFFFFFFFFFF
310
FFFFFFFFFFFFFFFFFFFFFFFFFFFFFFFFFFFFFFFFFFFFFFFFFFFFFFFFFFFFFFFF
310
FFFFFFFFFFFFFFFFFFFFFFFFFFFFFFFFFFFFFFFFFFFFFFFFF000FFFFFFFFFFFF
310
FFFFFFFFFFFFFFFFFFFFFFFFFFFFFFFFFFFFFFFFFFFFFFFFFFFFFFFFFFFFFFFF
310
FFFFFFFFFFFFFFFFFFFFFFFFFFFFFFFFFFFFFFFFFFFFFFFFFFFFFFFFFFFFFFFF
310
FFFFFFFFFFFFFFFFFFFFFFFFFFFFFFFFF0000000000000000000000000000000
310
0000000000000000000000000000000000000000000000000000000000000000
310
0000000000000000000000000000000000000000000000000000000000000000
310
0000000000000000000000000000000000000000000000000000000000000000
310
0000000000000000000000000000000000000000000000000000000000000000
310
0000000000000000000000000000000000000000000000000000000000000000
310
0000000000000000000000000000000000000000000000000000000000000000
310
0000000000000000000000000000000000000000000000000000000000000000
310
0000000000000000000000000000000000000000000000000000000000000000
310
0000000000000000000000000000000000000000000000000000000000000000
310
0000000000000000000000000000000000000000000000000000000000000000
310
0000000000000000000000000000000000000000000000000000000000000000
310
0000000000000000000000000000000000000000000000000000000000000000
310
0000000000000000000000000000000000000000000000000000000000000000
310
0000000000000000000000000000000000000000000000000000000000000000
310
0000000000000000000000000000000000000000000000000000000000000000
  1
OLE
  0
ENDSEC
  0
SECTION
  2
OBJECTS
  0
DICTIONARY
  5
C
330
0
100
AcDbDictionary
281
     1
  3
ACAD_GROUP
350
D
  3
ACAD_LAYOUT
350
1A
  3
ACAD_MLINESTYLE
350
17
  3
ACAD_PLOTSETTINGS
350
19
  3
ACAD_PLOTSTYLENAME
350
E
  3
ACAD_SCALELIST
350
47
  0
DICTIONARY
  5
D
102
{ACAD_REACTORS
330
C
102
}
330
C
100
AcDbDictionary
281
     1
  0
DICTIONARY
  5
1A
102
{ACAD_REACTORS
330
C
102
}
330
C
100
AcDbDictionary
281
     1
  3
Layout1
350
1E
  3
Layout2
350
26
  3
Model
350
22
  0
DICTIONARY
  5
17
102
{ACAD_REACTORS
330
C
102
}
330
C
100
AcDbDictionary
281
     1
  3
Standard
350
18
  0
DICTIONARY
  5
19
102
{ACAD_REACTORS
330
C
102
}
330
C
100
AcDbDictionary
281
     1
  0
ACDBDICTIONARYWDFLT
  5
E
102
{ACAD_REACTORS
330
C
102
}
330
C
100
AcDbDictionary
281
     1
  3
Normal
350
F
100
AcDbDictionaryWithDefault
340
F
  0
DICTIONARY
  5
47
102
{ACAD_REACTORS
330
C
102
}
330
C
100
AcDbDictionary
281
     1
  3
A0
350
48
  3
A1
350
49
  3
A2
350
4A
  3
A3
350
4B
  3
A4
350
4C
  3
A5
350
4D
  3
A6
350
4E
  3
A7
350
4F
  3
A8
350
50
  3
A9
350
51
  3
B0
350
52
  3
B1
350
53
  3
B2
350
54
  3
B3
350
55
  3
B4
350
56
  3
B5
350
57
  3
B6
350
58
  3
B7
350
59
  3
B8
350
5A
  3
B9
350
5B
  3
C0
350
5C
  3
C1
350
5D
  3
C2
350
5E
  3
C3
350
5F
  3
C4
350
60
  3
C5
350
61
  3
C6
350
62
  3
C7
350
63
  3
C8
350
64
  3
C9
350
65
  3
D0
350
66
  3
D1
350
67
  3
D2
350
68
  0
LAYOUT
  5
1E
102
{ACAD_REACTORS
330
1A
102
}
330
1A
100
AcDbPlotSettings
  1

  2
none_device
  4

  6

 40
0.0
 41
0.0
 42
0.0
 43
0.0
 44
0.0
 45
0.0
 46
0.0
 47
0.0
 48
0.0
 49
0.0
140
0.0
141
0.0
142
1.0
143
1.0
 70
   688
 72
     1
 73
     0
 74
     5
  7

 75
    16
147
1.0
148
0.0
149
0.0
100
AcDbLayout
  1
Layout1
 70
     1
 71
     1
 10
0.0
 20
0.0
 11
420.0
 21
297.0
 12
0.0
 22
0.0
 32
0.0
 14
1.0000000000E+20
 24
1.0000000000E+20
 34
1.0000000000E+20
 15
-1.0000000000E+20
 25
-1.0000000000E+20
 35
-1.0000000000E+20
146
0.0
 13
0.0
 23
0.0
 33
0.0
 16
1.0
 26
0.0
 36
0.0
 17
0.0
 27
1.0
 37
0.0
 76
     0
330
1B
  0
LAYOUT
  5
26
102
{ACAD_REACTORS
330
1A
102
}
330
1A
100
AcDbPlotSettings
  1

  2
none_device
  4

  6

 40
0.0
 41
0.0
 42
0.0
 43
0.0
 44
0.0
 45
0.0
 46
0.0
 47
0.0
 48
0.0
 49
0.0
140
0.0
141
0.0
142
1.0
143
1.0
 70
   688
 72
     1
 73
     0
 74
     5
  7

 75
    16
147
1.0
148
0.0
149
0.0
100
AcDbLayout
  1
Layout2
 70
     1
 71
     2
 10
0.0
 20
0.0
 11
0.0
 21
0.0
 12
0.0
 22
0.0
 32
0.0
 14
0.0
 24
0.0
 34
0.0
 15
0.0
 25
0.0
 35
0.0
146
0.0
 13
0.0
 23
0.0
 33
0.0
 16
1.0
 26
0.0
 36
0.0
 17
0.0
 27
1.0
 37
0.0
 76
     0
330
23
  0
LAYOUT
  5
22
102
{ACAD_REACTORS
330
1A
102
}
330
1A
100
AcDbPlotSettings
  1

  2
none_device
  4
Letter_(8.50_x_11.00_Inches)
  6

 40
6.35
 41
6.35
 42
6.35000508
 43
6.35000508
 44
215.9
 45
279.4
 46
0.0
 47
0.0
 48
0.0
 49
0.0
140
0.0
141
0.0
142
1.0
143
1.0
 70
  1712
 72
     1
 73
     0
 74
     0
  7

 75
     0
147
1.0
148
0.0
149
0.0
100
AcDbLayout
  1
Model
 70
     1
 71
     0
 10
0.0
 20
0.0
 11
297.0
 21
210.0
 12
0.0
 22
0.0
 32
0.0
 14
0.0
 24
0.0
 34
0.0
 15
297.0
 25
210.0
 35
0.0
146
0.0
 13
0.0
 23
0.0
 33
0.0
 16
1.0
 26
0.0
 36
0.0
 17
0.0
 27
1.0
 37
0.0
 76
     0
330
1F
331
29
  0
MLINESTYLE
  5
18
102
{ACAD_REACTORS
330
17
102
}
330
17
100
AcDbMlineStyle
  2
Standard
 70
     0
  3

 62
   256
 51
90.0
 52
90.0
 71
     2
 49
0.5
 62
   256
  6
BYLAYER
 49
-0.5
 62
   256
  6
BYLAYER
  0
ACDBPLACEHOLDER
  5
F
102
{ACAD_REACTORS
330
E
102
}
330
E
  0
SCALE
  5
48
102
{ACAD_REACTORS
330
47
102
}
330
47
100
AcDbScale
 70
     0
300
1:1
140
1.0
141
1.0
290
     1
  0
SCALE
  5
49
102
{ACAD_REACTORS
330
47
102
}
330
47
100
AcDbScale
 70
     0
300
1:2
140
1.0
141
2.0
290
     0
  0
SCALE
  5
4A
102
{ACAD_REACTORS
330
47
102
}
330
47
100
AcDbScale
 70
     0
300
1:4
140
1.0
141
4.0
290
     0
  0
SCALE
  5
4B
102
{ACAD_REACTORS
330
47
102
}
330
47
100
AcDbScale
 70
     0
300
1:5
140
1.0
141
5.0
290
     0
  0
SCALE
  5
4C
102
{ACAD_REACTORS
330
47
102
}
330
47
100
AcDbScale
 70
     0
300
1:8
140
1.0
141
8.0
290
     0
  0
SCALE
  5
4D
102
{ACAD_REACTORS
330
47
102
}
330
47
100
AcDbScale
 70
     0
300
1:10
140
1.0
141
10.0
290
     0
  0
SCALE
  5
4E
102
{ACAD_REACTORS
330
47
102
}
330
47
100
AcDbScale
 70
     0
300
1:16
140
1.0
141
16.0
290
     0
  0
SCALE
  5
4F
102
{ACAD_REACTORS
330
47
102
}
330
47
100
AcDbScale
 70
     0
300
1:20
140
1.0
141
20.0
290
     0
  0
SCALE
  5
50
102
{ACAD_REACTORS
330
47
102
}
330
47
100
AcDbScale
 70
     0
300
1:30
140
1.0
141
30.0
290
     0
  0
SCALE
  5
51
102
{ACAD_REACTORS
330
47
102
}
330
47
100
AcDbScale
 70
     0
300
1:40
140
1.0
141
40.0
290
     0
  0
SCALE
  5
52
102
{ACAD_REACTORS
330
47
102
}
330
47
100
AcDbScale
 70
     0
300
1:50
140
1.0
141
50.0
290
     0
  0
SCALE
  5
53
102
{ACAD_REACTORS
330
47
102
}
330
47
100
AcDbScale
 70
     0
300
1:100
140
1.0
141
100.0
290
     0
  0
SCALE
  5
54
102
{ACAD_REACTORS
330
47
102
}
330
47
100
AcDbScale
 70
     0
300
2:1
140
2.0
141
1.0
290
     0
  0
SCALE
  5
55
102
{ACAD_REACTORS
330
47
102
}
330
47
100
AcDbScale
 70
     0
300
4:1
140
4.0
141
1.0
290
     0
  0
SCALE
  5
56
102
{ACAD_REACTORS
330
47
102
}
330
47
100
AcDbScale
 70
     0
300
8:1
140
8.0
141
1.0
290
     0
  0
SCALE
  5
57
102
{ACAD_REACTORS
330
47
102
}
330
47
100
AcDbScale
 70
     0
300
10:1
140
10.0
141
1.0
290
     0
  0
SCALE
  5
58
102
{ACAD_REACTORS
330
47
102
}
330
47
100
AcDbScale
 70
     0
300
100:1
140
100.0
141
1.0
290
     0
  0
SCALE
  5
59
102
{ACAD_REACTORS
330
47
102
}
330
47
100
AcDbScale
 70
     0
300
1/128" = 1'-0"
140
0.0078125
141
12.0
290
     0
  0
SCALE
  5
5A
102
{ACAD_REACTORS
330
47
102
}
330
47
100
AcDbScale
 70
     0
300
1/64" = 1'-0"
140
0.015625
141
12.0
290
     0
  0
SCALE
  5
5B
102
{ACAD_REACTORS
330
47
102
}
330
47
100
AcDbScale
 70
     0
300
1/32" = 1'-0"
140
0.03125
141
12.0
290
     0
  0
SCALE
  5
5C
102
{ACAD_REACTORS
330
47
102
}
330
47
100
AcDbScale
 70
     0
300
1/16" = 1'-0"
140
0.0625
141
12.0
290
     0
  0
SCALE
  5
5D
102
{ACAD_REACTORS
330
47
102
}
330
47
100
AcDbScale
 70
     0
300
3/32" = 1'-0"
140
0.09375
141
12.0
290
     0
  0
SCALE
  5
5E
102
{ACAD_REACTORS
330
47
102
}
330
47
100
AcDbScale
 70
     0
300
1/8" = 1'-0"
140
0.125
141
12.0
290
     0
  0
SCALE
  5
5F
102
{ACAD_REACTORS
330
47
102
}
330
47
100
AcDbScale
 70
     0
300
3/16" = 1'-0"
140
0.1875
141
12.0
290
     0
  0
SCALE
  5
60
102
{ACAD_REACTORS
330
47
102
}
330
47
100
AcDbScale
 70
     0
300
1/4" = 1'-0"
140
0.25
141
12.0
290
     0
  0
SCALE
  5
61
102
{ACAD_REACTORS
330
47
102
}
330
47
100
AcDbScale
 70
     0
300
3/8" = 1'-0"
140
0.375
141
12.0
290
     0
  0
SCALE
  5
62
102
{ACAD_REACTORS
330
47
102
}
330
47
100
AcDbScale
 70
     0
300
1/2" = 1'-0"
140
0.5
141
12.0
290
     0
  0
SCALE
  5
63
102
{ACAD_REACTORS
330
47
102
}
330
47
100
AcDbScale
 70
     0
300
3/4" = 1'-0"
140
0.75
141
12.0
290
     0
  0
SCALE
  5
64
102
{ACAD_REACTORS
330
47
102
}
330
47
100
AcDbScale
 70
     0
300
1" = 1'-0"
140
1.0
141
12.0
290
     0
  0
SCALE
  5
65
102
{ACAD_REACTORS
330
47
102
}
330
47
100
AcDbScale
 70
     0
300
1-1/2" = 1'-0"
140
1.5
141
12.0
290
     0
  0
SCALE
  5
66
102
{ACAD_REACTORS
330
47
102
}
330
47
100
AcDbScale
 70
     0
300
3" = 1'-0"
140
3.0
141
12.0
290
     0
  0
SCALE
  5
67
102
{ACAD_REACTORS
330
47
102
}
330
47
100
AcDbScale
 70
     0
300
6" = 1'-0"
140
6.0
141
12.0
290
     0
  0
SCALE
  5
68
102
{ACAD_REACTORS
330
47
102
}
330
47
100
AcDbScale
 70
     0
300
1'-0" = 1'-0"
140
12.0
141
12.0
290
     0
  0
ENDSEC
  0
EOF
