  0
SECTION
  2
HEADER
  9
$ACADVER
  1
AC1015
  9
$ACADMAINTVER
 70
     6
  9
$DWGCODEPAGE
  3
ANSI_1252
  9
$INSBASE
 10
0.0
 20
0.0
 30
0.0
  9
$EXTMIN
 10
0.0
 20
0.0
 30
0.0
  9
$EXTMAX
 10
297.0
 20
210.0
 30
0.0
  9
$LIMMIN
 10
0.0
 20
0.0
  9
$LIMMAX
 10
297.0
 20
210.0
  9
$ORTHOMODE
 70
     0
  9
$REGENMODE
 70
     1
  9
$FILLMODE
 70
     1
  9
$QTEXTMODE
 70
     0
  9
$MIRRTEXT
 70
     1
  9
$LTSCALE
 40
1.0
  9
$ATTMODE
 70
     1
  9
$TEXTSIZE
 40
2.0
  9
$TRACEWID
 40
1.0
  9
$TEXTSTYLE
  7
Standard
  9
$CLAYER
  8
0
  9
$CELTYPE
  6
ByLayer
  9
$CECOLOR
 62
   256
  9
$CELTSCALE
 40
1.0
  9
$DISPSILH
 70
     0
  9
$DIMSCALE
 40
1.0
  9
$DIMASZ
 40
3.0
  9
$DIMEXO
 40
0.0
  9
$DIMDLI
 40
3.75
  9
$DIMRND
 40
0.0
  9
$DIMDLE
 40
0.0
  9
$DIMEXE
 40
1.0
  9
$DIMTP
 40
0.0
  9
$DIMTM
 40
0.0
  9
$DIMTXT
 40
2.0
  9
$DIMCEN
 40
2.5
  9
$DIMTSZ
 40
0.0
  9
$DIMTOL
 70
     0
  9
$DIMLIM
 70
     0
  9
$DIMTIH
 70
     1
  9
$DIMTOH
 70
     1
  9
$DIMSE1
 70
     0
  9
$DIMSE2
 70
     0
  9
$DIMTAD
 70
     1
  9
$DIMZIN
 70
     0
  9
$DIMBLK
  1

  9
$DIMASO
 70
     1
  9
$DIMSHO
 70
     1
  9
$DIMPOST
  1

  9
$DIMAPOST
  1

  9
$DIMALT
 70
     0
  9
$DIMALTD
 70
     3
  9
$DIMALTF
 40
0.0393700787
  9
$DIMLFAC
 40
1.0
  9
$DIMTOFL
 70
     1
  9
$DIMTVP
 40
0.0
  9
$DIMTIX
 70
     0
  9
$DIMSOXD
 70
     0
  9
$DIMSAH
 70
     0
  9
$DIMBLK1
  1

  9
$DIMBLK2
  1

  9
$DIMSTYLE
  2
ISO-25
  9
$DIMCLRD
 70
     0
  9
$DIMCLRE
 70
     0
  9
$DIMCLRT
 70
     0
  9
$DIMTFAC
 40
1.0
  9
$DIMGAP
 40
1.524
  9
$DIMJUST
 70
     0
  9
$DIMSD1
 70
     0
  9
$DIMSD2
 70
     0
  9
$DIMTOLJ
 70
     0
  9
$DIMTZIN
 70
     0
  9
$DIMALTZ
 70
     0
  9
$DIMALTTZ
 70
     0
  9
$DIMUPT
 70
     0
  9
$DIMDEC
 70
     2
  9
$DIMTDEC
 70
     3
  9
$DIMALTU
 70
     2
  9
$DIMALTTD
 70
     3
  9
$DIMTXSTY
  7
Standard
  9
$DIMAUNIT
 70
     0
  9
$DIMADEC
 70
     2
  9
$DIMALTRND
 40
0.0
  9
$DIMAZIN
 70
     0
  9
$DIMDSEP
 70
    44
  9
$DIMATFIT
 70
     3
  9
$DIMFRAC
 70
     0
  9
$DIMLDRBLK
  1

  9
$DIMLUNIT
 70
     2
  9
$DIMLWD
 70
    -2
  9
$DIMLWE
 70
    -2
  9
$DIMTMOVE
 70
     0
  9
$LUNITS
 70
     2
  9
$LUPREC
 70
     2
  9
$SKETCHINC
 40
1.0
  9
$FILLETRAD
 40
10.0
  9
$AUNITS
 70
     0
  9
$AUPREC
 70
     2
  9
$MENU
  1
.
  9
$ELEVATION
 40
0.0
  9
$PELEVATION
 40
0.0
  9
$THICKNESS
 40
0.0
  9
$LIMCHECK
 70
     0
  9
$CHAMFERA
 40
0.0
  9
$CHAMFERB
 40
0.0
  9
$CHAMFERC
 40
0.0
  9
$CHAMFERD
 40
0.0
  9
$SKPOLY
 70
     0
  9
$TDCREATE
 40
2457626.633925926
  9
$TDUCREATE
 40
2457626.550592592
  9
$TDUPDATE
 40
2457626.633927338
  9
$TDUUPDATE
 40
2457626.550594005
  9
$TDINDWG
 40
0.0000000116
  9
$TDUSRTIMER
 40
0.0000000116
  9
$USRTIMER
 70
     1
  9
$ANGBASE
 50
0.0
  9
$ANGDIR
 70
     0
  9
$PDMODE
 70
     0
  9
$PDSIZE
 40
-1.0
  9
$PLINEWID
 40
0.0
  9
$SPLFRAME
 70
     0
  9
$SPLINETYPE
 70
     6
  9
$SPLINESEGS
 70
     8
  9
$HANDSEED
  5
2B8
  9
$SURFTAB1
 70
     6
  9
$SURFTAB2
 70
     6
  9
$SURFTYPE
 70
     6
  9
$SURFU
 70
     6
  9
$SURFV
 70
     6
  9
$UCSBASE
  2

  9
$UCSNAME
  2

  9
$UCSORG
 10
0.0
 20
0.0
 30
0.0
  9
$UCSXDIR
 10
1.0
 20
0.0
 30
0.0
  9
$UCSYDIR
 10
0.0
 20
1.0
 30
0.0
  9
$UCSORTHOREF
  2

  9
$UCSORTHOVIEW
 70
     0
  9
$UCSORGTOP
 10
0.0
 20
0.0
 30
0.0
  9
$UCSORGBOTTOM
 10
0.0
 20
0.0
 30
0.0
  9
$UCSORGLEFT
 10
0.0
 20
0.0
 30
0.0
  9
$UCSORGRIGHT
 10
0.0
 20
0.0
 30
0.0
  9
$UCSORGFRONT
 10
0.0
 20
0.0
 30
0.0
  9
$UCSORGBACK
 10
0.0
 20
0.0
 30
0.0
  9
$PUCSBASE
  2

  9
$PUCSNAME
  2

  9
$PUCSORG
 10
0.0
 20
0.0
 30
0.0
  9
$PUCSXDIR
 10
1.0
 20
0.0
 30
0.0
  9
$PUCSYDIR
 10
0.0
 20
1.0
 30
0.0
  9
$PUCSORTHOREF
  2

  9
$PUCSORTHOVIEW
 70
     0
  9
$PUCSORGTOP
 10
0.0
 20
0.0
 30
0.0
  9
$PUCSORGBOTTOM
 10
0.0
 20
0.0
 30
0.0
  9
$PUCSORGLEFT
 10
0.0
 20
0.0
 30
0.0
  9
$PUCSORGRIGHT
 10
0.0
 20
0.0
 30
0.0
  9
$PUCSORGFRONT
 10
0.0
 20
0.0
 30
0.0
  9
$PUCSORGBACK
 10
0.0
 20
0.0
 30
0.0
  9
$USERI1
 70
     0
  9
$USERI2
 70
     0
  9
$USERI3
 70
     0
  9
$USERI4
 70
     0
  9
$USERI5
 70
     0
  9
$USERR1
 40
0.0
  9
$USERR2
 40
0.0
  9
$USERR3
 40
0.0
  9
$USERR4
 40
0.0
  9
$USERR5
 40
0.0
  9
$WORLDVIEW
 70
     1
  9
$SHADEDGE
 70
     3
  9
$SHADEDIF
 70
    70
  9
$TILEMODE
 70
     1
  9
$MAXACTVP
 70
    64
  9
$PINSBASE
 10
0.0
 20
0.0
 30
0.0
  9
$PLIMCHECK
 70
     0
  9
$PEXTMIN
 10
1.0000000000E+20
 20
1.0000000000E+20
 30
1.0000000000E+20
  9
$PEXTMAX
 10
-1.0000000000E+20
 20
-1.0000000000E+20
 30
-1.0000000000E+20
  9
$PLIMMIN
 10
0.0
 20
0.0
  9
$PLIMMAX
 10
420.0
 20
297.0
  9
$UNITMODE
 70
     0
  9
$VISRETAIN
 70
     1
  9
$PLINEGEN
 70
     0
  9
$PSLTSCALE
 70
     1
  9
$TREEDEPTH
 70
  3020
  9
$CMLSTYLE
  2
Standard
  9
$CMLJUST
 70
     0
  9
$CMLSCALE
 40
20.0
  9
$PROXYGRAPHICS
 70
     1
  9
$MEASUREMENT
 70
     1
  9
$CELWEIGHT
370
    -1
  9
$ENDCAPS
280
     0
  9
$JOINSTYLE
280
     0
  9
$LWDISPLAY
290
     1
  9
$INSUNITS
 70
     4
  9
$HYPERLINKBASE
  1

  9
$STYLESHEET
  1

  9
$XEDIT
290
     1
  9
$CEPSNTYPE
380
     0
  9
$PSTYLEMODE
290
     1
  9
$FINGERPRINTGUID
  2
{822FCD8B-2088-455E-93FD-7E84D0E27425}
  9
$VERSIONGUID
  2
{FAEB1C32-E019-11D5-929B-00C0DF256EC4}
  9
$EXTNAMES
290
     1
  9
$PSVPSCALE
 40
0.0
  9
$OLESTARTUP
290
     0
  0
ENDSEC
  0
SECTION
  2
CLASSES
  0
CLASS
  1
ACDBDICTIONARYWDFLT
  2
AcDbDictionaryWithDefault
  3
ObjectDBX Classes
 90
        0
280
     0
281
     0
  0
CLASS
  1
VISUALSTYLE
  2
AcDbVisualStyle
  3
ObjectDBX Classes
 90
     4095
280
     0
281
     0
  0
CLASS
  1
MATERIAL
  2
AcDbMaterial
  3
ObjectDBX Classes
 90
     1153
280
     0
281
     0
  0
CLASS
  1
SCALE
  2
AcDbScale
  3
ObjectDBX Classes
 90
     1153
280
     0
281
     0
  0
CLASS
  1
TABLESTYLE
  2
AcDbTableStyle
  3
ObjectDBX Classes
 90
     4095
280
     0
281
     0
  0
CLASS
  1
MLEADERSTYLE
  2
AcDbMLeaderStyle
  3
ACDB_MLEADERSTYLE_CLASS
 90
     4095
280
     0
281
     0
  0
CLASS
  1
SUN
  2
AcDbSun
  3
SCENEOE
 90
     1153
280
     0
281
     0
  0
CLASS
  1
ACDBPLACEHOLDER
  2
AcDbPlaceHolder
  3
ObjectDBX Classes
 90
        0
280
     0
281
     0
  0
CLASS
  1
LAYOUT
  2
AcDbLayout
  3
ObjectDBX Classes
 90
        0
280
     0
281
     0
  0
ENDSEC
  0
SECTION
  2
TABLES
  0
TABLE
  2
VPORT
  5
8
330
0
100
AcDbSymbolTable
 70
     1
  0
VPORT
  5
29
330
8
100
AcDbSymbolTableRecord
100
AcDbViewportTableRecord
  2
*Active
 70
     0
 10
0.0
 20
0.0
 11
1.0
 21
1.0
 12
148.5
 22
105.0
 13
0.0
 23
0.0
 14
10.0
 24
10.0
 15
10.0
 25
10.0
 16
0.0
 26
0.0
 36
1.0
 17
0.0
 27
0.0
 37
0.0
 40
210.0
 41
1.4142857143
 42
50.0
 43
0.0
 44
0.0
 50
0.0
 51
0.0
 71
     0
 72
  2000
 73
     1
 74
     3
 75
     0
 76
     0
 77
     0
 78
     0
281
     0
 65
     1
110
0.0
120
0.0
130
0.0
111
1.0
121
0.0
131
0.0
112
0.0
122
1.0
132
0.0
 79
     0
146
0.0
  0
ENDTAB
  0
TABLE
  2
LTYPE
  5
5
330
0
100
AcDbSymbolTable
 70
     6
  0
LTYPE
  5
14
330
5
100
AcDbSymbolTableRecord
100
AcDbLinetypeTableRecord
  2
ByBlock
 70
     0
  3

 72
    65
 73
     0
 40
0.0
  0
LTYPE
  5
15
330
5
100
AcDbSymbolTableRecord
100
AcDbLinetypeTableRecord
  2
ByLayer
 70
     0
  3

 72
    65
 73
     0
 40
0.0
  0
LTYPE
  5
16
330
5
100
AcDbSymbolTableRecord
100
AcDbLinetypeTableRecord
  2
Continuous
 70
     0
  3
Solid line
 72
    65
 73
     0
 40
0.0
  0
LTYPE
  5
6E
330
5
100
AcDbSymbolTableRecord
100
AcDbLinetypeTableRecord
  2
HIDDEN
 70
     0
  3
Hidden __ __ __ __ __ __ __ __ __ __ __ __ __ __
 72
    65
 73
     2
 40
1.905
 49
1.27
 74
     0
 49
-0.635
 74
     0
  0
LTYPE
  5
6F
330
5
100
AcDbSymbolTableRecord
100
AcDbLinetypeTableRecord
  2
PHANTOM
 70
     0
  3
Phantom ______  __  __  ______  __  __  ______
 72
    65
 73
     6
 40
12.7
 49
6.35
 74
     0
 49
-1.27
 74
     0
 49
1.27
 74
     0
 49
-1.27
 74
     0
 49
1.27
 74
     0
 49
-1.27
 74
     0
  0
LTYPE
  5
70
330
5
100
AcDbSymbolTableRecord
100
AcDbLinetypeTableRecord
  2
CENTER
 70
     0
  3
Center ____ _ ____ _ ____ _ ____ _ ____ _ ____
 72
    65
 73
     4
 40
10.16
 49
6.35
 74
     0
 49
-1.27
 74
     0
 49
1.27
 74
     0
 49
-1.27
 74
     0
  0
LTYPE
  5
71
330
5
100
AcDbSymbolTableRecord
100
AcDbLinetypeTableRecord
  2
CENTERX2
 70
     0
  3
Center (2x) ________  __  ________  __  _____
 72
    65
 73
     4
 40
20.32
 49
12.7
 74
     0
 49
-2.54
 74
     0
 49
2.54
 74
     0
 49
-2.54
 74
     0
  0
LTYPE
  5
72
330
5
100
AcDbSymbolTableRecord
100
AcDbLinetypeTableRecord
  2
DOT2
 70
     0
  3
Dot (.5x) ........................................
 72
    65
 73
     2
 40
0.635
 49
0.0
 74
     0
 49
-0.635
 74
     0
  0
ENDTAB
  0
TABLE
  2
LAYER
  5
2
330
0
100
AcDbSymbolTable
 70
     5
  0
LAYER
  5
10
330
2
100
AcDbSymbolTableRecord
100
AcDbLayerTableRecord
  2
0
 70
     0
 62
     7
  6
Continuous
370
    -3
390
F
  0
LAYER
  5
73
330
2
100
AcDbSymbolTableRecord
100
AcDbLayerTableRecord
  2
FORMAT
 70
     0
 62
     7
  6
Continuous
370
    -3
390
F
  0
LAYER
  5
74
330
2
100
AcDbSymbolTableRecord
100
AcDbLayerTableRecord
  2
VERMASSUNG
 70
     0
 62
     7
  6
Continuous
370
    -3
390
F
  0
LAYER
  5
75
330
2
100
AcDbSymbolTableRecord
100
AcDbLayerTableRecord
  2
KOPF_DÜNN
 70
     0
 62
     7
  6
Continuous
370
    -3
390
F
  0
LAYER
  5
76
330
2
100
AcDbSymbolTableRecord
100
AcDbLayerTableRecord
  2
KOPF_DICK
 70
     0
 62
     7
  6
Continuous
370
    15
390
F
  0
ENDTAB
  0
TABLE
  2
STYLE
  5
3
330
0
100
AcDbSymbolTable
 70
     3
  0
STYLE
  5
11
330
3
100
AcDbSymbolTableRecord
100
AcDbTextStyleTableRecord
  2
Standard
 70
     0
 40
0.0
 41
1.0
 50
0.0
 71
     0
 42
2.0
  3
txt
  4

  0
STYLE
  5
77
330
3
100
AcDbSymbolTableRecord
100
AcDbTextStyleTableRecord
  2
SLDTEXTSTYLE0
 70
     0
 40
0.0
 41
0.7
 50
0.0
 71
     0
 42
2.0
  3
TXT
  4

  0
STYLE
  5
7B
330
3
100
AcDbSymbolTableRecord
100
AcDbTextStyleTableRecord
  2
SLDTEXTSTYLE1
 70
     0
 40
0.0
 41
0.65
 50
0.0
 71
     0
 42
2.0
  3
TXT
  4

  0
ENDTAB
  0
TABLE
  2
VIEW
  5
6
330
0
100
AcDbSymbolTable
 70
     0
  0
ENDTAB
  0
TABLE
  2
UCS
  5
7
330
0
100
AcDbSymbolTable
 70
     0
  0
ENDTAB
  0
TABLE
  2
APPID
  5
9
330
0
100
AcDbSymbolTable
 70
     1
  0
APPID
  5
12
330
9
100
AcDbSymbolTableRecord
100
AcDbRegAppTableRecord
  2
ACAD
 70
     0
  0
ENDTAB
  0
TABLE
  2
DIMSTYLE
  5
A
330
0
100
AcDbSymbolTable
 70
     3
100
AcDbDimStyleTable
  0
DIMSTYLE
105
27
330
A
100
AcDbSymbolTableRecord
100
AcDbDimStyleTableRecord
  2
ISO-25
 70
     0
 41
2.5
 42
0.625
 43
3.75
 44
1.25
 73
     0
 74
     0
 77
     1
 78
     8
140
2.5
141
2.5
143
0.0393700787
147
0.625
171
     3
172
     1
178
     0
271
     2
272
     2
274
     3
278
    44
283
     0
284
     8
340
11
  0
DIMSTYLE
105
1A1
102
{ACAD_REACTORS
330
1A0
330
1AC
330
1B8
330
1C2
330
1CC
102
}
330
A
100
AcDbSymbolTableRecord
100
AcDbDimStyleTableRecord
  2
SLDDIMSTYLE0
 70
     0
 41
3.0
 44
0.0
 45
0.000000001
 73
     0
 74
     0
 77
     1
 78
    12
 79
     3
140
2.0
147
0.5
173
     1
178
     0
271
     2
272
     3
276
     2
284
    12
340
77
  0
DIMSTYLE
105
1DC
330
A
100
AcDbSymbolTableRecord
100
AcDbDimStyleTableRecord
  2
SLDDIMSTYLE1
 70
     0
 41
0.9
 44
0.0
 45
0.000000001
146
0.9
147
0.0
173
     1
178
     0
271
     0
272
     0
276
     2
340
11
341
1DD
343
1DD
344
1DD
  0
ENDTAB
  0
TABLE
  2
BLOCK_RECORD
  5
1
330
0
100
AcDbSymbolTable
 70
    10
  0
BLOCK_RECORD
  5
1F
330
1
100
AcDbSymbolTableRecord
100
AcDbBlockTableRecord
  2
*Model_Space
340
22
  0
BLOCK_RECORD
  5
1B
330
1
100
AcDbSymbolTableRecord
100
AcDbBlockTableRecord
  2
*Paper_Space
340
1E
  0
BLOCK_RECORD
  5
23
330
1
100
AcDbSymbolTableRecord
100
AcDbBlockTableRecord
  2
*Paper_Space0
340
26
  0
BLOCK_RECORD
  5
7E
330
1
100
AcDbSymbolTableRecord
100
AcDbBlockTableRecord
  2
SW_TABLEANNOTATION_0
340
0
102
{BLKREFS
331
99
102
}
  0
BLOCK_RECORD
  5
1A2
330
1
100
AcDbSymbolTableRecord
100
AcDbBlockTableRecord
  2
_D
340
0
  0
BLOCK_RECORD
  5
1AD
330
1
100
AcDbSymbolTableRecord
100
AcDbBlockTableRecord
  2
_D_1
340
0
  0
BLOCK_RECORD
  5
1B9
330
1
100
AcDbSymbolTableRecord
100
AcDbBlockTableRecord
  2
_D_2
340
0
  0
BLOCK_RECORD
  5
1C3
330
1
100
AcDbSymbolTableRecord
100
AcDbBlockTableRecord
  2
_D_3
340
0
  0
BLOCK_RECORD
  5
1CD
330
1
100
AcDbSymbolTableRecord
100
AcDbBlockTableRecord
  2
_D_4
340
0
  0
BLOCK_RECORD
  5
1D6
330
1
100
AcDbSymbolTableRecord
100
AcDbBlockTableRecord
  2
SW_NOTE_0
340
0
102
{BLKREFS
331
1DB
102
}
  0
BLOCK_RECORD
  5
1DD
330
1
100
AcDbSymbolTableRecord
100
AcDbBlockTableRecord
  2
_DOT
340
0
  0
BLOCK_RECORD
  5
1E6
330
1
100
AcDbSymbolTableRecord
100
AcDbBlockTableRecord
  2
SW_NOTE_1
340
0
102
{BLKREFS
331
1EB
102
}
  0
ENDTAB
  0
ENDSEC
  0
SECTION
  2
BLOCKS
  0
BLOCK
  5
20
330
1F
100
AcDbEntity
  8
0
100
AcDbBlockBegin
  2
*Model_Space
 70
     0
 10
0.0
 20
0.0
 30
0.0
  3
*Model_Space
  1

  0
ENDBLK
  5
21
330
1F
100
AcDbEntity
  8
0
100
AcDbBlockEnd
  0
BLOCK
  5
1C
330
1B
100
AcDbEntity
 67
     1
  8
0
100
AcDbBlockBegin
  2
*Paper_Space
 70
     0
 10
0.0
 20
0.0
 30
0.0
  3
*Paper_Space
  1

  0
ENDBLK
  5
1D
330
1B
100
AcDbEntity
 67
     1
  8
0
100
AcDbBlockEnd
  0
BLOCK
  5
24
330
23
100
AcDbEntity
  8
0
100
AcDbBlockBegin
  2
*Paper_Space0
 70
     0
 10
0.0
 20
0.0
 30
0.0
  3
*Paper_Space0
  1

  0
ENDBLK
  5
25
330
23
100
AcDbEntity
  8
0
100
AcDbBlockEnd
  0
BLOCK
  5
7F
330
7E
100
AcDbEntity
  8
0
100
AcDbBlockBegin
  2
SW_TABLEANNOTATION_0
 70
     0
 10
0.0
 20
0.0
 30
0.0
  3
SW_TABLEANNOTATION_0
  1

  0
LINE
  5
81
330
7E
100
AcDbEntity
  8
0
  6
Continuous
 62
     0
370
     0
100
AcDbLine
 10
0.0
 20
0.0
 30
0.0
 11
0.0
 21
-10.9613963039
 31
0.0
  0
LINE
  5
82
330
7E
100
AcDbEntity
  8
0
  6
Continuous
 62
     0
370
     0
100
AcDbLine
 10
0.0
 20
-10.9613963039
 30
0.0
 11
125.0044361962
 21
-10.9613963039
 31
0.0
  0
LINE
  5
83
330
7E
100
AcDbEntity
  8
0
  6
Continuous
 62
     0
370
     0
100
AcDbLine
 10
125.0044361962
 20
-10.9613963039
 30
0.0
 11
125.0044361962
 21
0.0
 31
0.0
  0
LINE
  5
84
330
7E
100
AcDbEntity
  8
0
  6
Continuous
 62
     0
370
     0
100
AcDbLine
 10
125.0044361962
 20
0.0
 30
0.0
 11
0.0
 21
0.0
 31
0.0
  0
LINE
  5
85
330
7E
100
AcDbEntity
  8
0
  6
Continuous
 62
     0
370
     0
100
AcDbLine
 10
15.9651052694
 20
-7.3075975359
 30
0.0
 11
15.9651052694
 21
-10.9613963039
 31
0.0
  0
LINE
  5
86
330
7E
100
AcDbEntity
  8
0
  6
Continuous
 62
     0
370
     0
100
AcDbLine
 10
34.1012448998
 20
-7.3075975359
 30
0.0
 11
34.1012448998
 21
-10.9613963039
 31
0.0
  0
LINE
  5
87
330
7E
100
AcDbEntity
  8
0
  6
Continuous
 62
     0
370
     0
100
AcDbLine
 10
92.6586456418
 20
-7.3075975359
 30
0.0
 11
92.6586456418
 21
-10.9613963039
 31
0.0
  0
LINE
  5
88
330
7E
100
AcDbEntity
  8
0
  6
Continuous
 62
     0
370
     0
100
AcDbLine
 10
15.9651052694
 20
0.0
 30
0.0
 11
15.9651052694
 21
-7.3075975359
 31
0.0
  0
LINE
  5
89
330
7E
100
AcDbEntity
  8
0
  6
Continuous
 62
     0
370
     0
100
AcDbLine
 10
34.1012448998
 20
0.0
 30
0.0
 11
34.1012448998
 21
-7.3075975359
 31
0.0
  0
LINE
  5
8A
330
7E
100
AcDbEntity
  8
0
  6
Continuous
 62
     0
370
     0
100
AcDbLine
 10
92.6586456418
 20
0.0
 30
0.0
 11
92.6586456418
 21
-7.3075975359
 31
0.0
  0
LINE
  5
8B
330
7E
100
AcDbEntity
  8
0
  6
Continuous
 62
     0
370
     0
100
AcDbLine
 10
0.0
 20
-3.653798768
 30
0.0
 11
125.0044361962
 21
-3.653798768
 31
0.0
  0
LINE
  5
8C
330
7E
100
AcDbEntity
  8
0
  6
Continuous
 62
     0
370
     0
100
AcDbLine
 10
0.0
 20
-7.3075975359
 30
0.0
 11
125.0044361962
 21
-7.3075975359
 31
0.0
  0
MTEXT
  5
8D
330
7E
100
AcDbEntity
  8
0
  6
Continuous
 62
     0
370
     0
100
AcDbMText
 10
5.2825527975
 20
-7.9563615651
 30
0.0
 40
2.0
 41
0.0
 71
     1
 72
     1
  1
POS.
  7
SLDTEXTSTYLE0
 73
     1
 44
1.0
  0
MTEXT
  5
8E
330
7E
100
AcDbEntity
  8
0
  6
Continuous
 62
     0
370
     0
100
AcDbMText
 10
21.1331751904
 20
-7.9563615651
 30
0.0
 40
2.0
 41
0.0
 71
     1
 72
     1
  1
MENGE
  7
SLDTEXTSTYLE0
 73
     1
 44
1.0
  0
MTEXT
  5
8F
330
7E
100
AcDbEntity
  8
0
  6
Continuous
 62
     0
370
     0
100
AcDbMText
 10
56.0799464956
 20
-7.9563615651
 30
0.0
 40
2.0
 41
0.0
 71
     1
 72
     1
  1
Bezeichnung
  7
SLDTEXTSTYLE0
 73
     1
 44
1.0
  0
MTEXT
  5
90
330
7E
100
AcDbEntity
  8
0
  6
Continuous
 62
     0
370
     0
100
AcDbMText
 10
97.7315420798
 20
-7.9563615651
 30
0.0
 40
2.0
 41
0.0
 71
     1
 72
     1
  1
Zeichnungsnummer
  7
SLDTEXTSTYLE0
 73
     1
 44
1.0
  0
MTEXT
  5
91
330
7E
100
AcDbEntity
  8
0
  6
Continuous
 62
     0
370
     0
100
AcDbMText
 10
7.2825526596
 20
-0.9171773494
 30
0.0
 40
2.0
 41
0.0
 71
     1
 72
     1
  1
2
  7
SLDTEXTSTYLE0
 73
     1
 44
1.0
  0
MTEXT
  5
92
330
7E
100
AcDbEntity
  8
0
  6
Continuous
 62
     0
370
     0
100
AcDbMText
 10
24.5331750608
 20
-0.9171773494
 30
0.0
 40
2.0
 41
0.0
 71
     1
 72
     1
  1
1
  7
SLDTEXTSTYLE0
 73
     1
 44
1.0
  0
MTEXT
  5
93
330
7E
100
AcDbEntity
  8
0
  6
Continuous
 62
     0
370
     0
100
AcDbMText
 10
54.2799467594
 20
-0.9171773494
 30
0.0
 40
2.0
 41
0.0
 71
     1
 72
     1
  1
Klemmschraube
  7
SLDTEXTSTYLE0
 73
     1
 44
1.0
  0
MTEXT
  5
94
330
7E
100
AcDbEntity
  8
0
  6
Continuous
 62
     0
370
     0
100
AcDbMText
 10
99.3315412244
 20
-0.9171773494
 30
0.0
 40
2.0
 41
0.0
 71
     1
 72
     1
  1
MB5-ER1.001.017
  7
SLDTEXTSTYLE0
 73
     1
 44
1.0
  0
MTEXT
  5
95
330
7E
100
AcDbEntity
  8
0
  6
Continuous
 62
     0
370
     0
100
AcDbMText
 10
7.4825526109
 20
-4.5709761174
 30
0.0
 40
2.0
 41
0.0
 71
     1
 72
     1
  1
1
  7
SLDTEXTSTYLE0
 73
     1
 44
1.0
  0
MTEXT
  5
96
330
7E
100
AcDbEntity
  8
0
  6
Continuous
 62
     0
370
     0
100
AcDbMText
 10
24.5331750608
 20
-4.5709761174
 30
0.0
 40
2.0
 41
0.0
 71
     1
 72
     1
  1
1
  7
SLDTEXTSTYLE0
 73
     1
 44
1.0
  0
MTEXT
  5
97
330
7E
100
AcDbEntity
  8
0
  6
Continuous
 62
     0
370
     0
100
AcDbMText
 10
53.6799449847
 20
-4.5709761174
 30
0.0
 40
2.0
 41
0.0
 71
     1
 72
     1
  1
Aufnahme MBM
  7
SLDTEXTSTYLE0
 73
     1
 44
1.0
  0
MTEXT
  5
98
330
7E
100
AcDbEntity
  8
0
  6
Continuous
 62
     0
370
     0
100
AcDbMText
 10
99.0315408027
 20
-4.5709761174
 30
0.0
 40
2.0
 41
0.0
 71
     1
 72
     1
  1
SK4-MB5.K01.119
  7
SLDTEXTSTYLE0
 73
     1
 44
1.0
  0
ENDBLK
  5
80
330
7E
100
AcDbEntity
  8
0
100
AcDbBlockEnd
  0
BLOCK
  5
1A3
330
1A2
100
AcDbEntity
  8
0
100
AcDbBlockBegin
  2
_D
 70
     0
 10
0.0
 20
0.0
 30
0.0
  3
_D
  1

  0
SOLID
  5
1A5
330
1A2
100
AcDbEntity
  8
VERMASSUNG
100
AcDbTrace
 10
47.9548484237
 20
175.5730503392
 30
0.0
 11
47.5048484237
 21
172.5730503392
 31
0.0
 12
48.4048484237
 22
172.5730503392
 32
0.0
 13
48.4048484237
 23
172.5730503392
 33
0.0
  0
SOLID
  5
1A6
330
1A2
100
AcDbEntity
  8
VERMASSUNG
100
AcDbTrace
 10
47.9548484237
 20
112.0730503392
 30
0.0
 11
48.4048484237
 21
115.0730503392
 31
0.0
 12
47.5048484237
 22
115.0730503392
 32
0.0
 13
47.5048484237
 23
115.0730503392
 33
0.0
  0
LINE
  5
1A7
330
1A2
100
AcDbEntity
  8
VERMASSUNG
100
AcDbLine
 10
125.2548823902
 20
175.5730503392
 30
0.0
 11
46.9548484237
 21
175.5730503392
 31
0.0
  0
LINE
  5
1A8
330
1A2
100
AcDbEntity
  8
VERMASSUNG
100
AcDbLine
 10
125.2548823902
 20
112.0730503392
 30
0.0
 11
46.9548484237
 21
112.0730503392
 31
0.0
  0
LINE
  5
1A9
330
1A2
100
AcDbEntity
  8
VERMASSUNG
100
AcDbLine
 10
47.9548484237
 20
175.5730503392
 30
0.0
 11
47.9548484237
 21
112.0730503392
 31
0.0
  0
MTEXT
  5
1AA
330
1A2
100
AcDbEntity
  8
VERMASSUNG
100
AcDbMText
 10
45.376712886
 20
140.04419112
 30
0.0
 40
2.0
 41
0.0
 71
     1
 72
     1
  1
%%c
  7
SLDTEXTSTYLE0
 11
-7.044195017643634E-15
 21
1.0
 31
0.0
 73
     1
 44
1.0
  0
MTEXT
  5
1AB
330
1A2
100
AcDbEntity
  8
VERMASSUNG
100
AcDbMText
 10
45.3767128278
 20
143.6531633136
 30
0.0
 40
2.0
 41
0.0
 71
     1
 72
     1
  1
63.5
  7
SLDTEXTSTYLE0
 11
-7.044195017643634E-15
 21
1.0
 31
0.0
 73
     1
 44
1.0
  0
ENDBLK
  5
1A4
330
1A2
100
AcDbEntity
  8
0
100
AcDbBlockEnd
  0
BLOCK
  5
1AE
330
1AD
100
AcDbEntity
  8
0
100
AcDbBlockBegin
  2
_D_1
 70
     0
 10
0.0
 20
0.0
 30
0.0
  3
_D_1
  1

  0
SOLID
  5
1B0
330
1AD
100
AcDbEntity
  8
VERMASSUNG
100
AcDbTrace
 10
250.267535153
 20
171.3230503392
 30
0.0
 11
249.817535153
 21
168.3230503392
 31
0.0
 12
250.717535153
 22
168.3230503392
 32
0.0
 13
250.717535153
 23
168.3230503392
 33
0.0
  0
SOLID
  5
1B1
330
1AD
100
AcDbEntity
  8
VERMASSUNG
100
AcDbTrace
 10
250.267535153
 20
116.3230503392
 30
0.0
 11
250.717535153
 21
119.3230503392
 31
0.0
 12
249.817535153
 22
119.3230503392
 32
0.0
 13
249.817535153
 23
119.3230503392
 33
0.0
  0
LINE
  5
1B2
330
1AD
100
AcDbEntity
  8
VERMASSUNG
100
AcDbLine
 10
240.0548823902
 20
171.3230503392
 30
0.0
 11
251.267535153
 21
171.3230503392
 31
0.0
  0
LINE
  5
1B3
330
1AD
100
AcDbEntity
  8
VERMASSUNG
100
AcDbLine
 10
240.0548823902
 20
116.3230503392
 30
0.0
 11
251.267535153
 21
116.3230503392
 31
0.0
  0
LINE
  5
1B4
330
1AD
100
AcDbEntity
  8
VERMASSUNG
100
AcDbLine
 10
250.267535153
 20
171.3230503392
 30
0.0
 11
250.267535153
 21
116.3230503392
 31
0.0
  0
MTEXT
  5
1B5
330
1AD
100
AcDbEntity
  8
VERMASSUNG
100
AcDbMText
 10
247.4893998967
 20
137.6264236305
 30
0.0
 40
2.0
 41
0.0
 71
     1
 72
     1
  1
MBM
  7
SLDTEXTSTYLE0
 11
-7.044195017643634E-15
 21
1.0
 31
0.0
 73
     1
 44
1.0
  0
MTEXT
  5
1B6
330
1AD
100
AcDbEntity
  8
VERMASSUNG
100
AcDbMText
 10
247.689399848
 20
144.0264234689
 30
0.0
 40
2.0
 41
0.0
 71
     1
 72
     1
  1
%%c
  7
SLDTEXTSTYLE0
 11
-7.044195017643634E-15
 21
1.0
 31
0.0
 73
     1
 44
1.0
  0
MTEXT
  5
1B7
330
1AD
100
AcDbEntity
  8
VERMASSUNG
100
AcDbMText
 10
247.4893998967
 20
147.6364239488
 30
0.0
 40
2.0
 41
0.0
 71
     1
 72
     1
  1
55
  7
SLDTEXTSTYLE0
 11
-7.044195017643634E-15
 21
1.0
 31
0.0
 73
     1
 44
1.0
  0
ENDBLK
  5
1AF
330
1AD
100
AcDbEntity
  8
0
100
AcDbBlockEnd
  0
BLOCK
  5
1BA
330
1B9
100
AcDbEntity
  8
0
100
AcDbBlockBegin
  2
_D_2
 70
     0
 10
0.0
 20
0.0
 30
0.0
  3
_D_2
  1

  0
SOLID
  5
1BC
330
1B9
100
AcDbEntity
  8
VERMASSUNG
100
AcDbTrace
 10
240.5548823902
 20
185.5769849857
 30
0.0
 11
237.5548823902
 21
186.0269849857
 31
0.0
 12
237.5548823902
 22
185.1269849857
 32
0.0
 13
237.5548823902
 23
185.1269849857
 33
0.0
  0
SOLID
  5
1BD
330
1B9
100
AcDbEntity
  8
VERMASSUNG
100
AcDbTrace
 10
140.5048823902
 20
185.5769849857
 30
0.0
 11
143.5048823902
 21
185.1269849857
 31
0.0
 12
143.5048823902
 22
186.0269849857
 32
0.0
 13
143.5048823902
 23
186.0269849857
 33
0.0
  0
LINE
  5
1BE
330
1B9
100
AcDbEntity
  8
VERMASSUNG
100
AcDbLine
 10
240.5548823902
 20
170.8230503392
 30
0.0
 11
240.5548823902
 21
186.5769849857
 31
0.0
  0
LINE
  5
1BF
330
1B9
100
AcDbEntity
  8
VERMASSUNG
100
AcDbLine
 10
140.5048823902
 20
174.9730503392
 30
0.0
 11
140.5048823902
 21
186.5769849857
 31
0.0
  0
LINE
  5
1C0
330
1B9
100
AcDbEntity
  8
VERMASSUNG
100
AcDbLine
 10
240.5548823902
 20
185.5769849857
 30
0.0
 11
140.5048823902
 21
185.5769849857
 31
0.0
  0
MTEXT
  5
1C1
330
1B9
100
AcDbEntity
  8
VERMASSUNG
100
AcDbMText
 10
184.7903731229
 20
188.1551205817
 30
0.0
 40
2.0
 41
0.0
 71
     1
 72
     1
  1
100.05
  7
SLDTEXTSTYLE0
 73
     1
 44
1.0
  0
ENDBLK
  5
1BB
330
1B9
100
AcDbEntity
  8
0
100
AcDbBlockEnd
  0
BLOCK
  5
1C4
330
1C3
100
AcDbEntity
  8
0
100
AcDbBlockBegin
  2
_D_3
 70
     0
 10
0.0
 20
0.0
 30
0.0
  3
_D_3
  1

  0
SOLID
  5
1C6
330
1C3
100
AcDbEntity
  8
VERMASSUNG
100
AcDbTrace
 10
240.5548823902
 20
191.5769849857
 30
0.0
 11
237.5548823902
 21
192.0269849857
 31
0.0
 12
237.5548823902
 22
191.1269849857
 32
0.0
 13
237.5548823902
 23
191.1269849857
 33
0.0
  0
SOLID
  5
1C7
330
1C3
100
AcDbEntity
  8
VERMASSUNG
100
AcDbTrace
 10
121.4548823902
 20
191.5769849857
 30
0.0
 11
124.4548823902
 21
191.1269849857
 31
0.0
 12
124.4548823902
 22
192.0269849857
 32
0.0
 13
124.4548823902
 23
192.0269849857
 33
0.0
  0
LINE
  5
1C8
330
1C3
100
AcDbEntity
  8
VERMASSUNG
100
AcDbLine
 10
240.5548823902
 20
170.8230503392
 30
0.0
 11
240.5548823902
 21
192.5769849857
 31
0.0
  0
LINE
  5
1C9
330
1C3
100
AcDbEntity
  8
VERMASSUNG
100
AcDbLine
 10
121.4548823902
 20
166.0480503392
 30
0.0
 11
121.4548823902
 21
192.5769849857
 31
0.0
  0
LINE
  5
1CA
330
1C3
100
AcDbEntity
  8
VERMASSUNG
100
AcDbLine
 10
240.5548823902
 20
191.5769849857
 30
0.0
 11
121.4548823902
 21
191.5769849857
 31
0.0
  0
MTEXT
  5
1CB
330
1C3
100
AcDbEntity
  8
VERMASSUNG
100
AcDbMText
 10
178.9042593468
 20
194.1551205817
 30
0.0
 40
2.0
 41
0.0
 71
     1
 72
     1
  1
119.1
  7
SLDTEXTSTYLE0
 73
     1
 44
1.0
  0
ENDBLK
  5
1C5
330
1C3
100
AcDbEntity
  8
0
100
AcDbBlockEnd
  0
BLOCK
  5
1CE
330
1CD
100
AcDbEntity
  8
0
100
AcDbBlockBegin
  2
_D_4
 70
     0
 10
0.0
 20
0.0
 30
0.0
  3
_D_4
  1

  0
SOLID
  5
1D0
330
1CD
100
AcDbEntity
  8
VERMASSUNG
100
AcDbTrace
 10
240.5548823902
 20
197.5769849857
 30
0.0
 11
237.5548823902
 21
198.0269849857
 31
0.0
 12
237.5548823902
 22
197.1269849857
 32
0.0
 13
237.5548823902
 23
197.1269849857
 33
0.0
  0
SOLID
  5
1D1
330
1CD
100
AcDbEntity
  8
VERMASSUNG
100
AcDbTrace
 10
53.2048823902
 20
197.5769849857
 30
0.0
 11
56.2048823902
 21
197.1269849857
 31
0.0
 12
56.2048823902
 22
198.0269849857
 32
0.0
 13
56.2048823902
 23
198.0269849857
 33
0.0
  0
LINE
  5
1D2
330
1CD
100
AcDbEntity
  8
VERMASSUNG
100
AcDbLine
 10
240.5548823902
 20
170.8230503392
 30
0.0
 11
240.5548823902
 21
198.5769849857
 31
0.0
  0
LINE
  5
1D3
330
1CD
100
AcDbEntity
  8
VERMASSUNG
100
AcDbLine
 10
53.2048823902
 20
155.2301809362
 30
0.0
 11
53.2048823902
 21
198.5769849857
 31
0.0
  0
LINE
  5
1D4
330
1CD
100
AcDbEntity
  8
VERMASSUNG
100
AcDbLine
 10
240.5548823902
 20
197.5769849857
 30
0.0
 11
53.2048823902
 21
197.5769849857
 31
0.0
  0
MTEXT
  5
1D5
330
1CD
100
AcDbEntity
  8
VERMASSUNG
100
AcDbMText
 10
150.7107979999
 20
200.1551205817
 30
0.0
 40
2.0
 41
0.0
 71
     1
 72
     1
  1
187.35
  7
SLDTEXTSTYLE0
 73
     1
 44
1.0
  0
ENDBLK
  5
1CF
330
1CD
100
AcDbEntity
  8
0
100
AcDbBlockEnd
  0
BLOCK
  5
1D7
330
1D6
100
AcDbEntity
  8
0
100
AcDbBlockBegin
  2
SW_NOTE_0
 70
     0
 10
0.0
 20
0.0
 30
0.0
  3
SW_NOTE_0
  1

  0
CIRCLE
  5
1D9
330
1D6
100
AcDbEntity
  8
VERMASSUNG
 62
     0
100
AcDbCircle
 10
0.0
 20
-2.5028270988
 30
0.0
 40
2.50282709876212
  0
MTEXT
  5
1DA
330
1D6
100
AcDbEntity
  8
VERMASSUNG
 62
     0
100
AcDbMText
 10
-0.0000000237
 20
-1.8101961014
 30
0.0
 40
2.0
 41
0.0
 71
     2
 72
     1
  1
1
  7
SLDTEXTSTYLE0
 73
     1
 44
1.0
  0
ENDBLK
  5
1D8
330
1D6
100
AcDbEntity
  8
0
100
AcDbBlockEnd
  0
BLOCK
  5
1DE
330
1DD
100
AcDbEntity
  8
0
100
AcDbBlockBegin
  2
_DOT
 70
     0
 10
0.0
 20
0.0
 30
0.0
  3
_DOT
  1

  0
POLYLINE
  5
1E0
330
1DD
100
AcDbEntity
  8
0
  6
ByBlock
 62
     0
100
AcDb2dPolyline
 66
     1
 10
0.0
 20
0.0
 30
0.0
 70
     1
 40
0.5
 41
0.5
  0
VERTEX
  5
1E2
330
1E0
100
AcDbEntity
  8
0
  6
ByBlock
 62
     0
100
AcDbVertex
100
AcDb2dVertex
 10
-0.25
 20
0.0
 30
0.0
 42
1.0
  0
VERTEX
  5
1E3
330
1E0
100
AcDbEntity
  8
0
  6
ByBlock
 62
     0
100
AcDbVertex
100
AcDb2dVertex
 10
0.25
 20
0.0
 30
0.0
 42
1.0
  0
SEQEND
  5
1E4
330
1E0
100
AcDbEntity
  8
0
  6
ByBlock
 62
     0
  0
LINE
  5
1E1
330
1DD
100
AcDbEntity
  8
0
  6
ByBlock
 62
     0
370
    -2
100
AcDbLine
 10
-0.5
 20
0.0
 30
0.0
 11
-1.0
 21
0.0
 31
0.0
  0
ENDBLK
  5
1DF
330
1DD
100
AcDbEntity
  8
0
100
AcDbBlockEnd
  0
BLOCK
  5
1E7
330
1E6
100
AcDbEntity
  8
0
100
AcDbBlockBegin
  2
SW_NOTE_1
 70
     0
 10
0.0
 20
0.0
 30
0.0
  3
SW_NOTE_1
  1

  0
CIRCLE
  5
1E9
330
1E6
100
AcDbEntity
  8
VERMASSUNG
 62
     0
100
AcDbCircle
 10
2.1547502449
 20
1.2732615083
 30
0.0
 40
2.502827098762102
  0
MTEXT
  5
1EA
330
1E6
100
AcDbEntity
  8
VERMASSUNG
 62
     0
100
AcDbMText
 10
2.1422502698
 20
1.9658925056
 30
0.0
 40
2.0
 41
0.0
 71
     2
 72
     1
  1
2
  7
SLDTEXTSTYLE0
 73
     1
 44
1.0
  0
ENDBLK
  5
1E8
330
1E6
100
AcDbEntity
  8
0
100
AcDbBlockEnd
  0
ENDSEC
  0
SECTION
  2
ENTITIES
  0
MTEXT
  5
78
330
1F
100
AcDbEntity
  8
KOPF_DÜNN
100
AcDbMText
 10
13.8892156294
 20
23.8442973028
 30
0.0
 40
3.0
 41
0.0
 71
     1
 72
     1
  1
102.415.552
  7
SLDTEXTSTYLE0
 73
     1
 44
1.0
  0
MTEXT
  5
79
330
1F
100
AcDbEntity
  8
VERMASSUNG
100
AcDbMText
 10
13.9329988022
 20
28.8834360957
 30
0.0
 40
3.0
 41
0.0
 71
     1
 72
     1
  1
Aufnahme_Master shank MBM 55
  7
SLDTEXTSTYLE0
 73
     1
 44
1.0
  0
MTEXT
  5
7A
330
1F
100
AcDbEntity
  8
VERMASSUNG
100
AcDbMText
 10
98.8601118557
 20
13.8365368761
 30
0.0
 40
2.0
 41
0.0
 71
     1
 72
     1
  1
Datum: 04.08.2006
  7
SLDTEXTSTYLE0
 73
     1
 44
1.0
  0
MTEXT
  5
7C
330
1F
100
AcDbEntity
  8
VERMASSUNG
100
AcDbMText
 10
13.933048693
 20
18.0482802738
 30
0.0
 40
2.0
 41
0.0
 71
     1
 72
     1
  1
DIN 69 871 AD 40
  7
SLDTEXTSTYLE1
 73
     1
 44
1.0
  0
MTEXT
  5
7D
330
1F
100
AcDbEntity
  8
VERMASSUNG
100
AcDbMText
 10
13.9808475933
 20
13.9090974274
 30
0.0
 40
2.0
 41
0.0
 71
     1
 72
     1
  1
Gewicht: 2398g
  7
SLDTEXTSTYLE0
 73
     1
 44
1.0
  0
INSERT
  5
99
330
1F
100
AcDbEntity
  8
0
  6
Continuous
 62
     7
370
     0
100
AcDbBlockReference
  2
SW_TABLEANNOTATION_0
 10
155.4069348624
 20
22.9491325334
 30
0.0
  0
ARC
  5
9A
330
1F
100
AcDbEntity
  8
0
  6
Continuous
 62
     7
370
    15
100
AcDbCircle
 10
139.9048823902
 20
112.6730503392
 30
0.0
 40
0.6000000000000085
100
AcDbArc
 50
270.0
 51
0.0
  0
ARC
  5
9B
330
1F
100
AcDbEntity
  8
0
  6
Continuous
 62
     7
370
    15
100
AcDbCircle
 10
139.9048823902
 20
174.9730503392
 30
0.0
 40
0.5999999999999943
100
AcDbArc
 50
0.0
 51
90.0
  0
ARC
  5
9C
330
1F
100
AcDbEntity
  8
0
  6
Continuous
 62
     7
370
    15
100
AcDbCircle
 10
125.2548823902
 20
174.9730503392
 30
0.0
 40
0.6000000000000227
100
AcDbArc
 50
90.0
 51
180.0
  0
ARC
  5
9D
330
1F
100
AcDbEntity
  8
0
  6
Continuous
 62
     7
370
    15
100
AcDbCircle
 10
125.2548823902
 20
112.6730503392
 30
0.0
 40
0.6000000000000085
100
AcDbArc
 50
180.0
 51
270.0
  0
LINE
  5
9E
330
1F
100
AcDbEntity
  8
0
  6
Continuous
 62
     7
370
    15
100
AcDbLine
 10
130.6448823902
 20
172.7812673816
 30
0.0
 11
129.0330457481
 21
175.5730503392
 31
0.0
  0
LINE
  5
9F
330
1F
100
AcDbEntity
  8
0
  6
Continuous
 62
     7
370
    15
100
AcDbLine
 10
139.9048823902
 20
175.5730503392
 30
0.0
 11
136.0767190323
 21
175.5730503392
 31
0.0
  0
LINE
  5
A0
330
1F
100
AcDbEntity
  8
0
  6
Continuous
 62
     7
370
    15
100
AcDbLine
 10
125.2548823902
 20
112.0730503392
 30
0.0
 11
129.0330457481
 21
112.0730503392
 31
0.0
  0
LINE
  5
A1
330
1F
100
AcDbEntity
  8
0
  6
Continuous
 62
     7
370
    15
100
AcDbLine
 10
134.4648823902
 20
114.8648332967
 30
0.0
 11
136.0767190323
 21
112.0730503392
 31
0.0
  0
LINE
  5
A2
330
1F
100
AcDbEntity
  8
0
  6
Continuous
 62
     7
370
    15
100
AcDbLine
 10
136.0767190323
 20
112.0730503392
 30
0.0
 11
139.9048823902
 21
112.0730503392
 31
0.0
  0
LINE
  5
A3
330
1F
100
AcDbEntity
  8
0
  6
Continuous
 62
     7
370
    15
100
AcDbLine
 10
129.0330457481
 20
175.5730503392
 30
0.0
 11
125.2548823902
 21
175.5730503392
 31
0.0
  0
LINE
  5
A4
330
1F
100
AcDbEntity
  8
0
  6
Continuous
 62
     7
370
    15
100
AcDbLine
 10
129.0330457481
 20
112.0730503392
 30
0.0
 11
130.6448823902
 21
114.8648332967
 31
0.0
  0
LINE
  5
A5
330
1F
100
AcDbEntity
  8
0
  6
Continuous
 62
     7
370
    15
100
AcDbLine
 10
136.0767190323
 20
175.5730503392
 30
0.0
 11
134.4648823902
 21
172.7812673816
 31
0.0
  0
ARC
  5
A6
330
1F
100
AcDbEntity
  8
0
  6
Continuous
 62
     7
370
    15
100
AcDbCircle
 10
133.6648823902
 20
172.6230503392
 30
0.0
 40
0.8000000000000114
100
AcDbArc
 50
270.0
 51
0.0
  0
ARC
  5
A7
330
1F
100
AcDbEntity
  8
0
  6
Continuous
 62
     7
370
    15
100
AcDbCircle
 10
131.4448823902
 20
115.0230503392
 30
0.0
 40
0.7999999999999972
100
AcDbArc
 50
90.0
 51
180.0
  0
ARC
  5
A8
330
1F
100
AcDbEntity
  8
0
  6
Continuous
 62
     7
370
    15
100
AcDbCircle
 10
131.4448823902
 20
172.6230503392
 30
0.0
 40
0.8000000000000114
100
AcDbArc
 50
180.0
 51
270.0
  0
ARC
  5
A9
330
1F
100
AcDbEntity
  8
0
  6
Continuous
 62
     7
370
    15
100
AcDbCircle
 10
133.6648823902
 20
115.0230503392
 30
0.0
 40
0.8000000000000114
100
AcDbArc
 50
0.0
 51
90.0
  0
LINE
  5
AA
330
1F
100
AcDbEntity
  8
0
  6
Continuous
 62
     7
370
    15
100
AcDbLine
 10
240.0548823902
 20
116.3230503392
 30
0.0
 11
240.5548823902
 21
116.8230503392
 31
0.0
  0
LINE
  5
AB
330
1F
100
AcDbEntity
  8
0
  6
Continuous
 62
     7
370
    15
100
AcDbLine
 10
240.5548823902
 20
170.8230503392
 30
0.0
 11
240.0548823902
 21
171.3230503392
 31
0.0
  0
LINE
  5
AC
330
1F
100
AcDbEntity
  8
0
  6
Continuous
 62
     7
370
    15
100
AcDbLine
 10
158.4756083324
 20
116.3230503392
 30
0.0
 11
240.0548823902
 21
116.3230503392
 31
0.0
  0
LINE
  5
AD
330
1F
100
AcDbEntity
  8
0
  6
Continuous
 62
     7
370
    15
100
AcDbLine
 10
218.7548823902
 20
171.3230503392
 30
0.0
 11
158.4756083324
 21
171.3230503392
 31
0.0
  0
LINE
  5
AE
330
1F
100
AcDbEntity
  8
0
  6
Continuous
 62
     7
370
    15
100
AcDbLine
 10
240.0548823902
 20
171.3230503392
 30
0.0
 11
233.2548823902
 21
171.3230503392
 31
0.0
  0
ARC
  5
AF
330
1F
100
AcDbEntity
  8
0
  6
Continuous
 62
     7
370
    15
100
AcDbCircle
 10
158.4756083324
 20
117.3230503392
 30
0.0
 40
1.000000000000008
100
AcDbArc
 50
210.0
 51
270.0
  0
ARC
  5
B0
330
1F
100
AcDbEntity
  8
0
  6
Continuous
 62
     7
370
    15
100
AcDbCircle
 10
158.4756083324
 20
170.3230503392
 30
0.0
 40
1.000000000000008
100
AcDbArc
 50
90.0
 51
150.0
  0
LINE
  5
B1
330
1F
100
AcDbEntity
  8
0
  6
Continuous
 62
     7
370
    15
100
AcDbLine
 10
157.6095829286
 20
170.8230503392
 30
0.0
 11
156.7435575248
 21
169.3230503392
 31
0.0
  0
LINE
  5
B2
330
1F
100
AcDbEntity
  8
0
  6
Continuous
 62
     7
370
    15
100
AcDbLine
 10
156.7435575248
 20
118.3230503392
 30
0.0
 11
157.6095829286
 21
116.8230503392
 31
0.0
  0
LINE
  5
B3
330
1F
100
AcDbEntity
  8
0
  6
Continuous
 62
     7
370
    15
100
AcDbLine
 10
131.4448823902
 20
115.8230503392
 30
0.0
 11
133.6648823902
 21
115.8230503392
 31
0.0
  0
LINE
  5
B4
330
1F
100
AcDbEntity
  8
0
  6
Continuous
 62
     7
370
    15
100
AcDbLine
 10
133.6648823902
 20
171.8230503392
 30
0.0
 11
131.4448823902
 21
171.8230503392
 31
0.0
  0
ARC
  5
B5
330
1F
100
AcDbEntity
  8
0
  6
Continuous
 62
     7
370
    15
100
AcDbCircle
 10
155.877532121
 20
117.8230503392
 30
0.0
 40
1.000000000000008
100
AcDbArc
 50
30.0
 51
90.0
  0
ARC
  5
B6
330
1F
100
AcDbEntity
  8
0
  6
Continuous
 62
     7
370
    15
100
AcDbCircle
 10
155.877532121
 20
169.8230503392
 30
0.0
 40
1.000000000000008
100
AcDbArc
 50
270.0
 51
330.0
  0
LINE
  5
B7
330
1F
100
AcDbEntity
  8
0
  6
Continuous
 62
     7
370
    15
100
AcDbLine
 10
141.5048823902
 20
118.8230503392
 30
0.0
 11
155.877532121
 21
118.8230503392
 31
0.0
  0
LINE
  5
B8
330
1F
100
AcDbEntity
  8
0
  6
Continuous
 62
     7
370
    15
100
AcDbLine
 10
155.877532121
 20
168.8230503392
 30
0.0
 11
141.5048823902
 21
168.8230503392
 31
0.0
  0
ARC
  5
B9
330
1F
100
AcDbEntity
  8
0
  6
Continuous
 62
     7
370
    15
100
AcDbCircle
 10
141.5048823902
 20
117.8230503392
 30
0.0
 40
1.0
100
AcDbArc
 50
90.0
 51
180.0
  0
ARC
  5
BA
330
1F
100
AcDbEntity
  8
0
  6
Continuous
 62
     7
370
    15
100
AcDbCircle
 10
141.5048823902
 20
169.8230503392
 30
0.0
 40
1.0
100
AcDbArc
 50
180.0
 51
270.0
  0
ARC
  5
BB
330
1F
100
AcDbEntity
  8
0
  6
Continuous
 62
     7
370
    15
100
AcDbCircle
 10
124.0548823902
 20
120.9980503392
 30
0.0
 40
0.6000000000000085
100
AcDbArc
 50
0.0
 51
90.0
  0
ARC
  5
BC
330
1F
100
AcDbEntity
  8
0
  6
Continuous
 62
     7
370
    15
100
AcDbCircle
 10
124.0548823902
 20
166.6480503392
 30
0.0
 40
0.5999999999999943
100
AcDbArc
 50
270.0
 51
0.0
  0
LINE
  5
BD
330
1F
100
AcDbEntity
  8
0
  6
Continuous
 62
     7
370
    15
100
AcDbLine
 10
121.4548823902
 20
121.5980503392
 30
0.0
 11
124.0548823902
 21
121.5980503392
 31
0.0
  0
LINE
  5
BE
330
1F
100
AcDbEntity
  8
0
  6
Continuous
 62
     7
370
    15
100
AcDbLine
 10
124.0548823902
 20
166.0480503392
 30
0.0
 11
121.4548823902
 21
166.0480503392
 31
0.0
  0
LINE
  5
BF
330
1F
100
AcDbEntity
  8
0
  6
Continuous
 62
     7
370
    15
100
AcDbLine
 10
121.4548823902
 20
166.0480503392
 30
0.0
 11
54.0605754971
 21
156.2197139173
 31
0.0
  0
LINE
  5
C0
330
1F
100
AcDbEntity
  8
0
  6
Continuous
 62
     7
370
    15
100
AcDbLine
 10
54.0605754971
 20
131.4263867611
 30
0.0
 11
121.4548823902
 21
121.5980503392
 31
0.0
  0
ARC
  5
C1
330
1F
100
AcDbEntity
  8
0
  6
Continuous
 62
     7
370
    15
100
AcDbCircle
 10
54.2048823902
 20
132.4159197422
 30
0.0
 40
1.000000000000009
100
AcDbArc
 50
180.0
 51
261.7028550302
  0
ARC
  5
C2
330
1F
100
AcDbEntity
  8
0
  6
Continuous
 62
     7
370
    15
100
AcDbCircle
 10
54.2048823902
 20
155.2301809362
 30
0.0
 40
1.000000000000009
100
AcDbArc
 50
98.2971449698
 51
180.0
  0
LINE
  5
C3
330
1F
100
AcDbEntity
  8
0
  6
Continuous
 62
     7
370
    15
100
AcDbLine
 10
231.7789335758
 20
171.0489991535
 30
0.0
 11
231.5048823902
 21
171.3230503392
 31
0.0
  0
LINE
  5
C4
330
1F
100
AcDbEntity
  8
0
  6
Continuous
 62
     7
370
    15
100
AcDbLine
 10
220.5048823902
 20
171.3230503392
 30
0.0
 11
220.2274899928
 21
171.0456579417
 31
0.0
  0
LINE
  5
C5
330
1F
100
AcDbEntity
  8
0
  6
Continuous
 62
     7
370
    15
100
AcDbLine
 10
135.6196719939
 20
135.7730503392
 30
0.0
 11
140.5048823902
 21
135.7730503392
 31
0.0
  0
LINE
  5
C6
330
1F
100
AcDbEntity
  8
0
  6
Continuous
 62
     7
370
    15
100
AcDbLine
 10
140.5048823902
 20
135.7730503392
 30
0.0
 11
140.5048823902
 21
135.5413426594
 31
0.0
  0
SPLINE
  5
C7
330
1F
100
AcDbEntity
  8
0
  6
Continuous
 62
     7
370
    15
100
AcDbSpline
210
0.0
220
0.0
230
1.0
 70
     8
 71
     3
 72
    14
 73
    10
 74
     0
 42
0.000000001
 43
0.00000001
 40
0.0
 40
0.0
 40
0.0
 40
0.0
 40
0.25
 40
0.25
 40
0.5
 40
0.5
 40
0.75
 40
0.75
 40
1.0
 40
1.0
 40
1.0
 40
1.0
 10
140.5048823901974
 20
135.5413426593728
 30
0.0
 10
140.5048823901974
 20
135.4595440416166
 30
0.0
 10
140.4937051213512
 20
135.3793746426564
 30
0.0
 10
140.4474282352065
 20
135.2225228092428
 30
0.0
 10
140.4118689393419
 20
135.1456748599249
 30
0.0
 10
140.3135378232429
 20
135.0073264943745
 30
0.0
 10
140.2501991491178
 20
134.944795608081
 30
0.0
 10
140.0927610634051
 20
134.8521259005767
 30
0.0
 10
140.0004608507244
 20
134.8243741960571
 30
0.0
 10
139.9048823901974
 20
134.8243741960571
 30
0.0
  0
LINE
  5
C8
330
1F
100
AcDbEntity
  8
0
  6
Continuous
 62
     7
370
    15
100
AcDbLine
 10
139.9048823902
 20
134.8243741961
 30
0.0
 11
136.0767190323
 21
134.8243741961
 31
0.0
  0
SPLINE
  5
C9
330
1F
100
AcDbEntity
  8
0
  6
Continuous
 62
     7
370
    15
100
AcDbSpline
210
0.0
220
0.0
230
1.0
 70
     8
 71
     3
 72
     8
 73
     4
 74
     0
 42
0.000000001
 43
0.00000001
 40
0.0
 40
0.0
 40
0.0
 40
0.0
 40
0.0011901715795577
 40
0.0011901715795577
 40
0.0011901715795577
 40
0.0011901715795577
 10
136.0767190322541
 20
134.8243741960571
 30
0.0
 10
135.9228728427582
 20
135.140058918514
 30
0.0
 10
135.7704775750856
 20
135.4562740823775
 30
0.0
 10
135.6196719939011
 20
135.7730503391846
 30
0.0
  0
LINE
  5
CA
330
1F
100
AcDbEntity
  8
0
  6
Continuous
 62
     7
370
    15
100
AcDbLine
 10
140.5048823902
 20
112.6730503392
 30
0.0
 11
140.5048823902
 21
135.5413426594
 31
0.0
  0
LINE
  5
CB
330
1F
100
AcDbEntity
  8
0
  6
Continuous
 62
     7
370
    15
100
AcDbLine
 10
140.5048823902
 20
152.104758019
 30
0.0
 11
140.5048823902
 21
151.8730503392
 31
0.0
  0
LINE
  5
CC
330
1F
100
AcDbEntity
  8
0
  6
Continuous
 62
     7
370
    15
100
AcDbLine
 10
140.5048823902
 20
151.8730503392
 30
0.0
 11
135.6196719939
 21
151.8730503392
 31
0.0
  0
SPLINE
  5
CD
330
1F
100
AcDbEntity
  8
0
  6
Continuous
 62
     7
370
    15
100
AcDbSpline
210
0.0
220
0.0
230
1.0
 70
     8
 71
     3
 72
     8
 73
     4
 74
     0
 42
0.000000001
 43
0.00000001
 40
0.0
 40
0.0
 40
0.0
 40
0.0
 40
0.0011901715795577
 40
0.0011901715795577
 40
0.0011901715795577
 40
0.0011901715795577
 10
135.6196719939011
 20
151.8730503391846
 30
0.0
 10
135.7704775750856
 20
152.1898265959918
 30
0.0
 10
135.9228728427582
 20
152.5060417598553
 30
0.0
 10
136.0767190322541
 20
152.8217264823122
 30
0.0
  0
LINE
  5
CE
330
1F
100
AcDbEntity
  8
0
  6
Continuous
 62
     7
370
    15
100
AcDbLine
 10
136.0767190323
 20
152.8217264823
 30
0.0
 11
139.9048823902
 21
152.8217264823
 31
0.0
  0
SPLINE
  5
CF
330
1F
100
AcDbEntity
  8
0
  6
Continuous
 62
     7
370
    15
100
AcDbSpline
210
0.0
220
0.0
230
1.0
 70
     8
 71
     3
 72
    12
 73
     8
 74
     0
 42
0.000000001
 43
0.00000001
 40
0.0
 40
0.0
 40
0.0
 40
0.0
 40
0.249999999999999
 40
0.249999999999999
 40
0.499999999999998
 40
0.499999999999998
 40
1.0
 40
1.0
 40
1.0
 40
1.0
 10
139.9048823901974
 20
152.8217264823122
 30
0.0
 10
140.0004243003334
 20
152.8217264823122
 30
0.0
 10
140.0925692421962
 20
152.7939258243253
 30
0.0
 10
140.2488955188061
 20
152.7022327206302
 30
0.0
 10
140.3125636614261
 20
152.6399542757662
 30
0.0
 10
140.4614315068565
 20
152.4310711307942
 30
0.0
 10
140.5048823901974
 20
152.2683197572778
 30
0.0
 10
140.5048823901974
 20
152.1047580189964
 30
0.0
  0
LINE
  5
D0
330
1F
100
AcDbEntity
  8
0
  6
Continuous
 62
     7
370
    15
100
AcDbLine
 10
140.5048823902
 20
152.104758019
 30
0.0
 11
140.5048823902
 21
174.9730503392
 31
0.0
  0
LINE
  5
D1
330
1F
100
AcDbEntity
  8
0
  6
Continuous
 62
     7
370
    15
100
AcDbLine
 10
129.4900927865
 20
151.8730503392
 30
0.0
 11
125.6548823902
 21
151.8730503392
 31
0.0
  0
LINE
  5
D2
330
1F
100
AcDbEntity
  8
0
  6
Continuous
 62
     7
370
    15
100
AcDbLine
 10
125.6548823902
 20
151.8730503392
 30
0.0
 11
124.8710269315
 21
152.6569057978
 31
0.0
  0
SPLINE
  5
D3
330
1F
100
AcDbEntity
  8
0
  6
Continuous
 62
     7
370
    15
100
AcDbSpline
210
0.0
220
0.0
230
1.0
 70
     8
 71
     3
 72
    10
 73
     6
 74
     0
 42
0.000000001
 43
0.00000001
 40
0.0
 40
0.0
 40
0.0
 40
0.0
 40
0.5
 40
0.5
 40
1.0
 40
1.0
 40
1.0
 40
1.0
 10
124.8710269315446
 20
152.6569057978375
 30
0.0
 10
124.919796904526
 20
152.7051876451279
 30
0.0
 10
124.9772490278283
 20
152.7463996227906
 30
0.0
 10
125.107845930817
 20
152.8050046728498
 30
0.0
 10
125.1803356106592
 20
152.8217264823122
 30
0.0
 10
125.2548823901974
 20
152.8217264823122
 30
0.0
  0
LINE
  5
D4
330
1F
100
AcDbEntity
  8
0
  6
Continuous
 62
     7
370
    15
100
AcDbLine
 10
125.2548823902
 20
152.8217264823
 30
0.0
 11
129.0330457481
 21
152.8217264823
 31
0.0
  0
SPLINE
  5
D5
330
1F
100
AcDbEntity
  8
0
  6
Continuous
 62
     7
370
    15
100
AcDbSpline
210
0.0
220
0.0
230
1.0
 70
     8
 71
     3
 72
     8
 73
     4
 74
     0
 42
0.000000001
 43
0.00000001
 40
0.0
 40
0.0
 40
0.0
 40
0.0
 40
0.0011901715795577
 40
0.0011901715795577
 40
0.0011901715795577
 40
0.0011901715795577
 10
129.0330457481407
 20
152.8217264823122
 30
0.0
 10
129.1868919376367
 20
152.5060417598553
 30
0.0
 10
129.3392872053093
 20
152.1898265959918
 30
0.0
 10
129.4900927864938
 20
151.8730503391846
 30
0.0
  0
SPLINE
  5
D6
330
1F
100
AcDbEntity
  8
0
  6
Continuous
 62
     7
370
    15
100
AcDbSpline
210
0.0
220
0.0
230
1.0
 70
    24
 71
     3
 72
    10
 73
     6
 74
     0
 42
0.000000001
 43
0.00000001
 40
0.0
 40
0.0
 40
0.0
 40
0.0
 40
0.5
 40
0.5
 40
1.0
 40
1.0
 40
1.0
 40
1.0
 10
124.8710269315446
 20
152.6569057978375
 30
0.0
 10
124.8129042714685
 20
152.7150284579135
 30
0.0
 10
124.760501105465
 20
152.767431623917
 30
0.0
 10
124.6815980839187
 20
152.8463346454634
 30
0.0
 10
124.6548823901974
 20
152.8730503391846
 30
0.0
 10
124.6548823901974
 20
152.8730503391846
 30
0.0
  0
LINE
  5
D7
330
1F
100
AcDbEntity
  8
0
  6
Continuous
 62
     7
370
    15
100
AcDbLine
 10
124.6548823902
 20
152.8730503392
 30
0.0
 11
124.6548823902
 21
174.9730503392
 31
0.0
  0
LINE
  5
D8
330
1F
100
AcDbEntity
  8
0
  6
Continuous
 62
     7
370
    15
100
AcDbLine
 10
124.6548823902
 20
112.6730503392
 30
0.0
 11
124.6548823902
 21
134.7730503392
 31
0.0
  0
SPLINE
  5
D9
330
1F
100
AcDbEntity
  8
0
  6
Continuous
 62
     7
370
    15
100
AcDbSpline
210
0.0
220
0.0
230
1.0
 70
    24
 71
     3
 72
    10
 73
     6
 74
     0
 42
0.000000001
 43
0.00000001
 40
0.0
 40
0.0
 40
0.0
 40
0.0
 40
0.5
 40
0.5
 40
1.0
 40
1.0
 40
1.0
 40
1.0
 10
124.6548823901974
 20
134.7730503391846
 30
0.0
 10
124.6548823901975
 20
134.7730503391847
 30
0.0
 10
124.681409152883
 20
134.7995771018702
 30
0.0
 10
124.7602776645067
 20
134.8784456134939
 30
0.0
 10
124.8124146710905
 20
134.9305826200777
 30
0.0
 10
124.8710269315447
 20
134.9891948805319
 30
0.0
  0
SPLINE
  5
DA
330
1F
100
AcDbEntity
  8
0
  6
Continuous
 62
     7
370
    15
100
AcDbSpline
210
0.0
220
0.0
230
1.0
 70
     8
 71
     3
 72
    10
 73
     6
 74
     0
 42
0.000000001
 43
0.00000001
 40
0.0
 40
0.0
 40
0.0
 40
0.0
 40
0.5
 40
0.5
 40
1.0
 40
1.0
 40
1.0
 40
1.0
 10
125.2548823901974
 20
134.8243741960571
 30
0.0
 10
125.1804827292785
 20
134.8243741960571
 30
0.0
 10
125.1079231328228
 20
134.8410916161251
 30
0.0
 10
124.9775548142039
 20
134.8995336686028
 30
0.0
 10
124.9197720290405
 20
134.9409376597546
 30
0.0
 10
124.8710269315446
 20
134.9891948805317
 30
0.0
  0
LINE
  5
DB
330
1F
100
AcDbEntity
  8
0
  6
Continuous
 62
     7
370
    15
100
AcDbLine
 10
124.8710269315
 20
134.9891948805
 30
0.0
 11
125.6548823902
 21
135.7730503392
 31
0.0
  0
LINE
  5
DC
330
1F
100
AcDbEntity
  8
0
  6
Continuous
 62
     7
370
    15
100
AcDbLine
 10
125.6548823902
 20
135.7730503392
 30
0.0
 11
129.4900927865
 21
135.7730503392
 31
0.0
  0
SPLINE
  5
DD
330
1F
100
AcDbEntity
  8
0
  6
Continuous
 62
     7
370
    15
100
AcDbSpline
210
0.0
220
0.0
230
1.0
 70
     8
 71
     3
 72
     8
 73
     4
 74
     0
 42
0.000000001
 43
0.00000001
 40
0.0
 40
0.0
 40
0.0
 40
0.0
 40
0.0011901715795577
 40
0.0011901715795577
 40
0.0011901715795577
 40
0.0011901715795577
 10
129.4900927864938
 20
135.7730503391846
 30
0.0
 10
129.3392872053093
 20
135.4562740823774
 30
0.0
 10
129.1868919376367
 20
135.140058918514
 30
0.0
 10
129.0330457481407
 20
134.8243741960571
 30
0.0
  0
LINE
  5
DE
330
1F
100
AcDbEntity
  8
0
  6
Continuous
 62
     7
370
    15
100
AcDbLine
 10
129.0330457481
 20
134.8243741961
 30
0.0
 11
125.2548823902
 21
134.8243741961
 31
0.0
  0
SPLINE
  5
DF
330
1F
100
AcDbEntity
  8
0
  6
Continuous
 62
     7
370
    15
100
AcDbSpline
210
0.0
220
0.0
230
1.0
 70
    24
 71
     3
 72
     8
 73
     4
 74
     0
 42
0.000000001
 43
0.00000001
 40
0.0
 40
0.0
 40
0.0
 40
0.0
 40
1.0
 40
1.0
 40
1.0
 40
1.0
 10
130.6448823901974
 20
151.8730503391846
 30
0.0
 10
130.2607476416131
 20
151.8730503391846
 30
0.0
 10
129.8757613651201
 20
151.8730503391846
 30
0.0
 10
129.4900927864938
 20
151.8730503391846
 30
0.0
  0
LINE
  5
E0
330
1F
100
AcDbEntity
  8
0
  6
Continuous
 62
     7
370
    15
100
AcDbLine
 10
129.0330457481
 20
152.8217264823
 30
0.0
 11
129.0330457481
 21
175.5730503392
 31
0.0
  0
LINE
  5
E1
330
1F
100
AcDbEntity
  8
0
  6
Continuous
 62
     7
370
    15
100
AcDbLine
 10
130.6448823902
 20
151.8730503392
 30
0.0
 11
130.6448823902
 21
172.7812673816
 31
0.0
  0
LINE
  5
E2
330
1F
100
AcDbEntity
  8
0
  6
Continuous
 62
     7
370
    15
100
AcDbLine
 10
136.0767190323
 20
152.8217264823
 30
0.0
 11
136.0767190323
 21
175.5730503392
 31
0.0
  0
LINE
  5
E3
330
1F
100
AcDbEntity
  8
0
  6
Continuous
 62
     7
370
    15
100
AcDbLine
 10
129.0330457481
 20
112.0730503392
 30
0.0
 11
129.0330457481
 21
134.8243741961
 31
0.0
  0
LINE
  5
E4
330
1F
100
AcDbEntity
  8
0
  6
Continuous
 62
     7
370
    15
100
AcDbLine
 10
134.4648823902
 20
114.8648332967
 30
0.0
 11
134.4648823902
 21
135.7730503392
 31
0.0
  0
SPLINE
  5
E5
330
1F
100
AcDbEntity
  8
0
  6
Continuous
 62
     7
370
    15
100
AcDbSpline
210
0.0
220
0.0
230
1.0
 70
    24
 71
     3
 72
     8
 73
     4
 74
     0
 42
0.000000001
 43
0.00000001
 40
0.0
 40
0.0
 40
0.0
 40
0.0
 40
1.0
 40
1.0
 40
1.0
 40
1.0
 10
134.4648823901974
 20
135.7730503391846
 30
0.0
 10
134.8490171387818
 20
135.7730503391846
 30
0.0
 10
135.2340034152747
 20
135.7730503391846
 30
0.0
 10
135.6196719939011
 20
135.7730503391846
 30
0.0
  0
LINE
  5
E6
330
1F
100
AcDbEntity
  8
0
  6
Continuous
 62
     7
370
    15
100
AcDbLine
 10
136.0767190323
 20
112.0730503392
 30
0.0
 11
136.0767190323
 21
134.8243741961
 31
0.0
  0
LINE
  5
E7
330
1F
100
AcDbEntity
  8
0
  6
Continuous
 62
     7
370
    15
100
AcDbLine
 10
130.6448823902
 20
114.8648332967
 30
0.0
 11
130.6448823902
 21
135.7730503392
 31
0.0
  0
SPLINE
  5
E8
330
1F
100
AcDbEntity
  8
0
  6
Continuous
 62
     7
370
    15
100
AcDbSpline
210
0.0
220
0.0
230
1.0
 70
    24
 71
     3
 72
     8
 73
     4
 74
     0
 42
0.000000001
 43
0.00000001
 40
0.0
 40
0.0
 40
0.0
 40
0.0
 40
1.0
 40
1.0
 40
1.0
 40
1.0
 10
129.4900927864938
 20
135.7730503391846
 30
0.0
 10
129.8757613651201
 20
135.7730503391846
 30
0.0
 10
130.2607476416131
 20
135.7730503391846
 30
0.0
 10
130.6448823901974
 20
135.7730503391846
 30
0.0
  0
SPLINE
  5
E9
330
1F
100
AcDbEntity
  8
0
  6
Continuous
 62
     7
370
    15
100
AcDbSpline
210
0.0
220
0.0
230
1.0
 70
    24
 71
     3
 72
     8
 73
     4
 74
     0
 42
0.000000001
 43
0.00000001
 40
0.0
 40
0.0
 40
0.0
 40
0.0
 40
1.0
 40
1.0
 40
1.0
 40
1.0
 10
135.6196719939011
 20
151.8730503391846
 30
0.0
 10
135.2340034152747
 20
151.8730503391846
 30
0.0
 10
134.8490171387818
 20
151.8730503391846
 30
0.0
 10
134.4648823901974
 20
151.8730503391846
 30
0.0
  0
LINE
  5
EA
330
1F
100
AcDbEntity
  8
0
  6
Continuous
 62
     7
370
    15
100
AcDbLine
 10
134.4648823902
 20
151.8730503392
 30
0.0
 11
134.4648823902
 21
172.7812673816
 31
0.0
  0
SPLINE
  5
EB
330
1F
100
AcDbEntity
  8
0
  6
Continuous
 62
     7
370
    15
100
AcDbSpline
210
0.0
220
0.0
230
1.0
 70
    24
 71
     3
 72
    12
 73
     8
 74
     0
 42
0.000000001
 43
0.00000001
 40
0.0
 40
0.0
 40
0.0
 40
0.0
 40
0.5000000000000013
 40
0.5000000000000013
 40
0.7500000000000007
 40
0.7500000000000007
 40
1.0
 40
1.0
 40
1.0
 40
1.0
 10
134.4648823901974
 20
151.8730503391846
 30
0.0
 10
134.4648823901974
 20
151.8730503391846
 30
0.0
 10
134.3829570323777
 20
151.8730503391846
 30
0.0
 10
134.1640352289093
 20
151.8730503391846
 30
0.0
 10
134.0739879374183
 20
151.8730503391846
 30
0.0
 10
133.8785744693984
 20
151.8730503391846
 30
0.0
 10
133.7712915024146
 20
151.8730503391846
 30
0.0
 10
133.6648823901974
 20
151.8730503391846
 30
0.0
  0
SPLINE
  5
EC
330
1F
100
AcDbEntity
  8
0
  6
Continuous
 62
     7
370
    15
100
AcDbSpline
210
0.0
220
0.0
230
1.0
 70
    24
 71
     3
 72
    12
 73
     8
 74
     0
 42
0.000000001
 43
0.00000001
 40
0.0
 40
0.0
 40
0.0
 40
0.0
 40
0.4999999999999984
 40
0.4999999999999984
 40
0.7499999999999992
 40
0.7499999999999992
 40
1.0
 40
1.0
 40
1.0
 40
1.0
 10
130.6448823901974
 20
135.7730503391846
 30
0.0
 10
130.6448823901974
 20
135.7730503391846
 30
0.0
 10
130.7265010169429
 20
135.7730503391846
 30
0.0
 10
130.9465269376055
 20
135.7730503391846
 30
0.0
 10
131.0352143856912
 20
135.7730503391846
 30
0.0
 10
131.2309347688203
 20
135.7730503391846
 30
0.0
 10
131.336961377079
 20
135.7730503391846
 30
0.0
 10
131.4448823901974
 20
135.7730503391846
 30
0.0
  0
SPLINE
  5
ED
330
1F
100
AcDbEntity
  8
0
  6
Continuous
 62
     7
370
    15
100
AcDbSpline
210
0.0
220
0.0
230
1.0
 70
    24
 71
     3
 72
    12
 73
     8
 74
     0
 42
0.000000001
 43
0.00000001
 40
0.0
 40
0.0
 40
0.0
 40
0.0
 40
0.2500000000000015
 40
0.2500000000000015
 40
0.500000000000003
 40
0.500000000000003
 40
1.0
 40
1.0
 40
1.0
 40
1.0
 10
131.4448823901974
 20
151.8730503391846
 30
0.0
 10
131.33848053984
 20
151.8730503391846
 30
0.0
 10
131.2311651284435
 20
151.8730503391846
 30
0.0
 10
131.0356935374162
 20
151.8730503391846
 30
0.0
 10
130.9455114214786
 20
151.8730503391846
 30
0.0
 10
130.7272899347579
 20
151.8730503391846
 30
0.0
 10
130.6448823901971
 20
151.8730503391846
 30
0.0
 10
130.6448823901974
 20
151.8730503391846
 30
0.0
  0
SPLINE
  5
EE
330
1F
100
AcDbEntity
  8
0
  6
Continuous
 62
     7
370
    15
100
AcDbSpline
210
0.0
220
0.0
230
1.0
 70
    24
 71
     3
 72
    12
 73
     8
 74
     0
 42
0.000000001
 43
0.00000001
 40
0.0
 40
0.0
 40
0.0
 40
0.0
 40
0.2499999999999986
 40
0.2499999999999986
 40
0.4999999999999971
 40
0.4999999999999971
 40
1.0
 40
1.0
 40
1.0
 40
1.0
 10
133.6648823901974
 20
135.7730503391846
 30
0.0
 10
133.7724689911596
 20
135.7730503391846
 30
0.0
 10
133.878473745129
 20
135.7730503391846
 30
0.0
 10
134.0750987914778
 20
135.7730503391846
 30
0.0
 10
134.1629839646998
 20
135.7730503391846
 30
0.0
 10
134.3835365578042
 20
135.7730503391846
 30
0.0
 10
134.4648823901974
 20
135.7730503391846
 30
0.0
 10
134.4648823901974
 20
135.7730503391846
 30
0.0
  0
LINE
  5
EF
330
1F
100
AcDbEntity
  8
0
  6
Continuous
 62
     7
370
    15
100
AcDbLine
 10
240.5548823902
 20
143.8230503392
 30
0.0
 11
240.5548823902
 21
170.8230503392
 31
0.0
  0
LINE
  5
F0
330
1F
100
AcDbEntity
  8
0
  6
Continuous
 62
     7
370
    15
100
AcDbLine
 10
240.5548823902
 20
116.8230503392
 30
0.0
 11
240.5548823902
 21
143.8230503392
 31
0.0
  0
LINE
  5
F1
330
1F
100
AcDbEntity
  8
0
  6
Continuous
 62
     7
370
    15
100
AcDbLine
 10
240.0548823902
 20
143.8230503392
 30
0.0
 11
240.0548823902
 21
171.3230503392
 31
0.0
  0
LINE
  5
F2
330
1F
100
AcDbEntity
  8
0
  6
Continuous
 62
     7
370
    15
100
AcDbLine
 10
240.0548823902
 20
116.3230503392
 30
0.0
 11
240.0548823902
 21
143.8230503392
 31
0.0
  0
SPLINE
  5
F3
330
1F
100
AcDbEntity
  8
0
  6
Continuous
 62
     7
370
    15
100
AcDbSpline
210
0.0
220
0.0
230
1.0
 70
     8
 71
     3
 72
    48
 73
    44
 74
     0
 42
0.000000001
 43
0.00000001
 40
0.0
 40
0.0
 40
0.0
 40
0.0
 40
0.0312499999999993
 40
0.0312499999999993
 40
0.0624999999999986
 40
0.0624999999999986
 40
0.1249999999999971
 40
0.1249999999999971
 40
0.1562499999999963
 40
0.1562499999999963
 40
0.1874999999999956
 40
0.1874999999999956
 40
0.2187499999999949
 40
0.2187499999999949
 40
0.2499999999999942
 40
0.2499999999999942
 40
0.312499999999993
 40
0.312499999999993
 40
0.3437499999999932
 40
0.3437499999999932
 40
0.3749999999999934
 40
0.3749999999999934
 40
0.4374999999999939
 40
0.4374999999999939
 40
0.4999999999999943
 40
0.4999999999999943
 40
0.5624999999999948
 40
0.5624999999999948
 40
0.6249999999999952
 40
0.6249999999999952
 40
0.6874999999999957
 40
0.6874999999999957
 40
0.7499999999999961
 40
0.7499999999999961
 40
0.8124999999999966
 40
0.8124999999999966
 40
0.874999999999997
 40
0.874999999999997
 40
0.9062499999999976
 40
0.9062499999999976
 40
0.9374999999999982
 40
0.9374999999999982
 40
1.0
 40
1.0
 40
1.0
 40
1.0
 10
233.2548823901974
 20
171.3230503391846
 30
0.0
 10
233.2548823901974
 20
171.3230503391846
 30
0.0
 10
233.2417643233727
 20
171.3203065789815
 30
0.0
 10
233.1889848877064
 20
171.3093498628712
 30
0.0
 10
233.1488925920495
 20
171.3010486758198
 30
0.0
 10
232.9912863814837
 20
171.2688250597753
 30
0.0
 10
232.8372666281561
 20
171.237687143785
 30
0.0
 10
232.536867367758
 20
171.1799436198256
 30
0.0
 10
232.4247168042252
 20
171.1587934887543
 30
0.0
 10
232.182659777844
 20
171.1144422004451
 30
0.0
 10
232.0522380702582
 20
171.0911391562128
 30
0.0
 10
231.7734594581561
 20
171.0430343848755
 30
0.0
 10
231.62509969027
 20
171.0182311735928
 30
0.0
 10
231.3106831512687
 20
170.9678450890479
 30
0.0
 10
231.1445206527995
 20
170.9422619382639
 30
0.0
 10
230.6298013118474
 20
170.8669143989326
 30
0.0
 10
230.2621222234494
 20
170.8180511891168
 30
0.0
 10
229.67534920881
 20
170.7506369072615
 30
0.0
 10
229.4728807209378
 20
170.7290576789406
 30
0.0
 10
229.0622896211157
 20
170.6890948291133
 30
0.0
 10
228.8539193293063
 20
170.6706645196485
 30
0.0
 10
228.2198738122285
 20
170.6206100003054
 30
0.0
 10
227.7853370506843
 20
170.5942210818043
 30
0.0
 10
226.8922309614402
 20
170.5583990633043
 30
0.0
 10
226.4406222524879
 20
170.5493686833508
 30
0.0
 10
225.5437883603675
 20
170.5497110995642
 30
0.0
 10
225.0959955148414
 20
170.558973751746
 30
0.0
 10
224.2017094970306
 20
170.5954361755016
 30
0.0
 10
223.766008483933
 20
170.6222254042463
 30
0.0
 10
222.9238078501338
 20
170.6892673223362
 30
0.0
 10
222.5161049821703
 20
170.7295837151261
 30
0.0
 10
221.7294405267309
 20
170.8203287896607
 30
0.0
 10
221.3630892272605
 20
170.8692608830053
 30
0.0
 10
220.6841943329965
 20
170.9688935934298
 30
0.0
 10
220.3701118230894
 20
171.019888835215
 30
0.0
 10
219.8088601959441
 20
171.1168503985484
 30
0.0
 10
219.5691123407705
 20
171.1614414002677
 30
0.0
 10
219.2724529409136
 20
171.2184773846893
 30
0.0
 10
219.1841387691062
 20
171.2358470115394
 30
0.0
 10
219.0300247474119
 20
171.2665653327086
 30
0.0
 10
218.964214823604
 20
171.2799177361326
 30
0.0
 10
218.807680586926
 20
171.3119278495076
 30
0.0
 10
218.7548823901974
 20
171.3230503391846
 30
0.0
 10
218.7548823901974
 20
171.3230503391846
 30
0.0
  0
LINE
  5
F4
330
1F
100
AcDbEntity
  8
0
  6
Continuous
 62
     7
370
    15
100
AcDbLine
 10
131.4448823902
 20
135.7730503392
 30
0.0
 11
133.6648823902
 21
135.7730503392
 31
0.0
  0
LINE
  5
F5
330
1F
100
AcDbEntity
  8
0
  6
Continuous
 62
     7
370
    15
100
AcDbLine
 10
133.6648823902
 20
151.8730503392
 30
0.0
 11
131.4448823902
 21
151.8730503392
 31
0.0
  0
SPLINE
  5
F6
330
1F
100
AcDbEntity
  8
0
  6
Continuous
 62
     7
370
    15
100
AcDbSpline
210
0.0
220
0.0
230
1.0
 70
     8
 71
     3
 72
    12
 73
     8
 74
     0
 42
0.000000001
 43
0.00000001
 40
0.0
 40
0.0
 40
0.0
 40
0.0
 40
0.4999999999999998
 40
0.4999999999999998
 40
0.7499999999999999
 40
0.7499999999999999
 40
1.0
 40
1.0
 40
1.0
 40
1.0
 10
141.5048823901974
 20
135.835403626917
 30
0.0
 10
142.2528657284298
 20
135.9290461433147
 30
0.0
 10
142.967613975774
 20
136.1231091708807
 30
0.0
 10
143.9930791902713
 20
136.5585549473189
 30
0.0
 10
144.3276351521421
 20
136.7290141765862
 30
0.0
 10
144.9608866238259
 20
137.1086766509621
 30
0.0
 10
145.2623187231055
 20
137.3188553088462
 30
0.0
 10
145.5489382978971
 20
137.5492954826414
 30
0.0
  0
SPLINE
  5
F7
330
1F
100
AcDbEntity
  8
0
  6
Continuous
 62
     7
370
    15
100
AcDbSpline
210
0.0
220
0.0
230
1.0
 70
     8
 71
     3
 72
    28
 73
    24
 74
     0
 42
0.000000001
 43
0.00000001
 40
0.0
 40
0.0
 40
0.0
 40
0.0
 40
0.1249999999999998
 40
0.1249999999999998
 40
0.2499999999999996
 40
0.2499999999999996
 40
0.3749999999999994
 40
0.3749999999999994
 40
0.4374999999999993
 40
0.4374999999999993
 40
0.4999999999999992
 40
0.4999999999999992
 40
0.6249999999999991
 40
0.6249999999999991
 40
0.749999999999999
 40
0.749999999999999
 40
0.8124999999999993
 40
0.8124999999999993
 40
0.8749999999999996
 40
0.8749999999999996
 40
0.9374999999999998
 40
0.9374999999999998
 40
1.0
 40
1.0
 40
1.0
 40
1.0
 10
145.5489382978971
 20
137.5492954826414
 30
0.0
 10
146.0122654570816
 20
137.9218073432291
 30
0.0
 10
146.4396058300241
 20
138.3518061625734
 30
0.0
 10
147.1785024855481
 20
139.2823180226677
 30
0.0
 10
147.4955013031265
 20
139.7858318321017
 30
0.0
 10
148.0200179280988
 20
140.8750639235602
 30
0.0
 10
148.2174882557563
 20
141.4402650707507
 30
0.0
 10
148.4183984849137
 20
142.3168542241663
 30
0.0
 10
148.4693816665531
 20
142.6139904121217
 30
0.0
 10
148.5379242847126
 20
143.2186394265892
 30
0.0
 10
148.5548631737135
 20
143.5215464900462
 30
0.0
 10
148.5549207740304
 20
144.4245175144401
 30
0.0
 10
148.4882389283406
 20
145.0223699740245
 30
0.0
 10
148.2174474528501
 20
146.2081476864591
 30
0.0
 10
148.0186637382664
 20
146.7731798296226
 30
0.0
 10
147.629840956686
 20
147.5816250644038
 30
0.0
 10
147.4842712457854
 20
147.8456193625643
 30
0.0
 10
147.164703289982
 20
148.3551266765989
 30
0.0
 10
146.992196882031
 20
148.5985645613598
 30
0.0
 10
146.6224920973597
 20
149.0638171602695
 30
0.0
 10
146.4252917146609
 20
149.2856292465015
 30
0.0
 10
146.0059154290217
 20
149.7077466264727
 30
0.0
 10
145.7825094235277
 20
149.9090156114925
 30
0.0
 10
145.5489382978971
 20
150.0968051957279
 30
0.0
  0
SPLINE
  5
F8
330
1F
100
AcDbEntity
  8
0
  6
Continuous
 62
     7
370
    15
100
AcDbSpline
210
0.0
220
0.0
230
1.0
 70
     8
 71
     3
 72
    12
 73
     8
 74
     0
 42
0.000000001
 43
0.00000001
 40
0.0
 40
0.0
 40
0.0
 40
0.0
 40
0.4999999999999991
 40
0.4999999999999991
 40
0.7499999999999996
 40
0.7499999999999996
 40
1.0
 40
1.0
 40
1.0
 40
1.0
 10
145.5489382978971
 20
150.0968051957279
 30
0.0
 10
144.9720556453361
 20
150.5606148947417
 30
0.0
 10
144.3431747491222
 20
150.9378935319303
 30
0.0
 10
143.3188538538994
 20
151.3743290437456
 30
0.0
 10
142.9636259511348
 20
151.497411274142
 30
0.0
 10
142.2444545918142
 20
151.6916667495717
 30
0.0
 10
141.8781562006398
 20
151.7639656643631
 30
0.0
 10
141.5048823901974
 20
151.8106970514523
 30
0.0
  0
SPLINE
  5
F9
330
1F
100
AcDbEntity
  8
0
  6
Continuous
 62
     7
370
    15
100
AcDbSpline
210
0.0
220
0.0
230
1.0
 70
     8
 71
     3
 72
    14
 73
    10
 74
     0
 42
0.000000001
 43
0.00000001
 40
0.0
 40
0.0
 40
0.0
 40
0.0
 40
0.25
 40
0.25
 40
0.5
 40
0.5
 40
0.75
 40
0.75
 40
1.0
 40
1.0
 40
1.0
 40
1.0
 10
140.6368842108208
 20
135.7741326778247
 30
0.0
 10
140.6794508943596
 20
135.7748307691658
 30
0.0
 10
140.7309309848725
 20
135.7759947725972
 30
0.0
 10
140.8525296574903
 20
135.7803304860228
 30
0.0
 10
140.9224671811573
 20
135.7835328950273
 30
0.0
 10
141.0734154134453
 20
135.7927957981363
 30
0.0
 10
141.1568690454432
 20
135.799039765302
 30
0.0
 10
141.3274068671221
 20
135.8147243110275
 30
0.0
 10
141.4159938111957
 20
135.8242753707229
 30
0.0
 10
141.5048823901974
 20
135.835403626917
 30
0.0
  0
SPLINE
  5
FA
330
1F
100
AcDbEntity
  8
0
  6
Continuous
 62
     7
370
    15
100
AcDbSpline
210
0.0
220
0.0
230
1.0
 70
     8
 71
     3
 72
     8
 73
     4
 74
     0
 42
0.000000001
 43
0.00000001
 40
0.0
 40
0.0
 40
0.0
 40
0.0
 40
1.0
 40
1.0
 40
1.0
 40
1.0
 10
140.5048823901974
 20
135.7730503391846
 30
0.0
 10
140.5048823901974
 20
135.7730503391846
 30
0.0
 10
140.5497931129926
 20
135.7727043884624
 30
0.0
 10
140.6368842108208
 20
135.7741326778247
 30
0.0
  0
SPLINE
  5
FB
330
1F
100
AcDbEntity
  8
0
  6
Continuous
 62
     7
370
    15
100
AcDbSpline
210
0.0
220
0.0
230
1.0
 70
     8
 71
     3
 72
    10
 73
     6
 74
     0
 42
0.000000001
 43
0.00000001
 40
0.0
 40
0.0
 40
0.0
 40
0.0
 40
0.5
 40
0.5
 40
1.0
 40
1.0
 40
1.0
 40
1.0
 10
141.5048823901974
 20
151.8106970514523
 30
0.0
 10
141.3274416382841
 20
151.8329114480455
 30
0.0
 10
141.1508224747716
 20
151.8485328271273
 30
0.0
 10
140.8473712504571
 20
151.8671978476364
 30
0.0
 10
140.7213482677366
 20
151.8705827945138
 30
0.0
 10
140.6368842108282
 20
151.8719680005451
 30
0.0
  0
SPLINE
  5
FC
330
1F
100
AcDbEntity
  8
0
  6
Continuous
 62
     7
370
    15
100
AcDbSpline
210
0.0
220
0.0
230
1.0
 70
     8
 71
     3
 72
    10
 73
     6
 74
     0
 42
0.000000001
 43
0.00000001
 40
0.0
 40
0.0
 40
0.0
 40
0.0
 40
0.5
 40
0.5
 40
1.0
 40
1.0
 40
1.0
 40
1.0
 10
140.6368842108282
 20
151.8719680005451
 30
0.0
 10
140.5936201859832
 20
151.8726775282466
 30
0.0
 10
140.5602658114266
 20
151.8728902083213
 30
0.0
 10
140.51602855414
 20
151.8730730102781
 30
0.0
 10
140.5048823901974
 20
151.8730503391846
 30
0.0
 10
140.5048823901974
 20
151.8730503391846
 30
0.0
  0
LINE
  5
FD
330
1F
100
AcDbEntity
  8
0
  6
Continuous
 62
     7
370
    15
100
AcDbLine
 10
124.9921406904
 20
137.3730503392
 30
0.0
 11
125.6548823902
 21
135.7730503392
 31
0.0
  0
LINE
  5
FE
330
1F
100
AcDbEntity
  8
0
  6
Continuous
 62
     7
370
    15
100
AcDbLine
 10
124.6548823902
 20
134.7730503392
 30
0.0
 11
124.6548823902
 21
137.035792039
 31
0.0
  0
LINE
  5
FF
330
1F
100
AcDbEntity
  8
0
  6
Continuous
 62
     7
370
    15
100
AcDbLine
 10
125.6548823902
 20
151.8730503392
 30
0.0
 11
124.9921406904
 21
150.2730503392
 31
0.0
  0
LINE
  5
100
330
1F
100
AcDbEntity
  8
0
  6
Continuous
 62
     7
370
    15
100
AcDbLine
 10
124.6548823902
 20
150.6103086394
 30
0.0
 11
124.6548823902
 21
152.8730503392
 31
0.0
  0
LINE
  5
101
330
1F
100
AcDbEntity
  8
0
  6
Continuous
 62
     7
370
    15
100
AcDbLine
 10
124.6548823902
 20
147.0200215621
 30
0.0
 11
124.6548823902
 21
140.6260791163
 31
0.0
  0
LINE
  5
102
330
1F
100
AcDbEntity
  8
0
  6
Continuous
 62
     7
370
    15
100
AcDbLine
 10
124.6548823902
 20
150.6103086394
 30
0.0
 11
124.6548823902
 21
147.0200215621
 31
0.0
  0
LINE
  5
103
330
1F
100
AcDbEntity
  8
0
  6
Continuous
 62
     7
370
    15
100
AcDbLine
 10
124.6548823902
 20
140.6260791163
 30
0.0
 11
124.6548823902
 21
137.035792039
 31
0.0
  0
LINE
  5
104
330
1F
100
AcDbEntity
  8
0
  6
Continuous
 62
     7
370
    15
100
AcDbLine
 10
121.4548823902
 20
143.8230503392
 30
0.0
 11
121.4548823902
 21
166.0480503392
 31
0.0
  0
LINE
  5
105
330
1F
100
AcDbEntity
  8
0
  6
Continuous
 62
     7
370
    15
100
AcDbLine
 10
121.4548823902
 20
121.5980503392
 30
0.0
 11
121.4548823902
 21
143.8230503392
 31
0.0
  0
LINE
  5
106
330
1F
100
AcDbEntity
  8
0
  6
Continuous
 62
     7
370
    15
100
AcDbLine
 10
53.2048823902
 20
143.8230503392
 30
0.0
 11
53.2048823902
 21
155.2301809362
 31
0.0
  0
LINE
  5
107
330
1F
100
AcDbEntity
  8
0
  6
Continuous
 62
     7
370
    15
100
AcDbLine
 10
53.2048823902
 20
132.4159197422
 30
0.0
 11
53.2048823902
 21
143.8230503392
 31
0.0
  0
LINE
  5
108
330
1F
100
AcDbEntity
  8
0
  6
Continuous
 62
     7
370
    15
100
AcDbLine
 10
226.0048823902
 20
171.3230503392
 30
0.0
 11
220.5048823902
 21
171.3230503392
 31
0.0
  0
LINE
  5
109
330
1F
100
AcDbEntity
  8
0
  6
Continuous
 62
     7
370
    15
100
AcDbLine
 10
231.5048823902
 20
171.3230503392
 30
0.0
 11
226.0048823902
 21
171.3230503392
 31
0.0
  0
LINE
  5
10A
330
1F
100
AcDbEntity
  8
0
  6
Continuous
 62
     7
370
    15
100
AcDbLine
 10
226.0048823902
 20
170.8230503392
 30
0.0
 11
221.7145947513
 21
170.8230503392
 31
0.0
  0
LINE
  5
10B
330
1F
100
AcDbEntity
  8
0
  6
Continuous
 62
     7
370
    15
100
AcDbLine
 10
230.2512427801
 20
170.8230503392
 30
0.0
 11
226.0048823902
 21
170.8230503392
 31
0.0
  0
SPLINE
  5
10C
330
1F
100
AcDbEntity
  8
0
  6
HIDDEN
 62
     7
370
     0
100
AcDbSpline
210
0.0
220
0.0
230
1.0
 70
     8
 71
     3
 72
    12
 73
     8
 74
     0
 42
0.000000001
 43
0.00000001
 40
0.0
 40
0.0
 40
0.0
 40
0.0
 40
0.4999999999999982
 40
0.4999999999999982
 40
0.7499999999999991
 40
0.7499999999999991
 40
1.0
 40
1.0
 40
1.0
 40
1.0
 10
139.9048823901974
 20
134.9892524162335
 30
0.0
 10
140.0752826365453
 20
134.9892524162335
 30
0.0
 10
140.236812934736
 20
135.0508500105912
 30
0.0
 10
140.3967210338904
 20
135.189348306215
 30
0.0
 10
140.4372903924739
 20
135.2425563248816
 30
0.0
 10
140.491518984817
 20
135.356042431093
 30
0.0
 10
140.5048823901974
 20
135.4149924490509
 30
0.0
 10
140.5048823901974
 20
135.4750373620079
 30
0.0
  0
SPLINE
  5
10D
330
1F
100
AcDbEntity
  8
0
  6
HIDDEN
 62
     7
370
     0
100
AcDbSpline
210
0.0
220
0.0
230
1.0
 70
     8
 71
     3
 72
    12
 73
     8
 74
     0
 42
0.000000001
 43
0.00000001
 40
0.0
 40
0.0
 40
0.0
 40
0.0
 40
0.4999999999999971
 40
0.4999999999999971
 40
0.7499999999999986
 40
0.7499999999999986
 40
1.0
 40
1.0
 40
1.0
 40
1.0
 10
140.5048823901974
 20
168.9944626952683
 30
0.0
 10
140.5048823901974
 20
169.1693934046341
 30
0.0
 10
140.4552023952424
 20
169.3467022921271
 30
0.0
 10
140.2992838382249
 20
169.5600937627836
 30
0.0
 10
140.2334027736487
 20
169.621784318783
 30
0.0
 10
140.08075711816
 20
169.7085092513713
 30
0.0
 10
139.993507210299
 20
169.7332799792322
 30
0.0
 10
139.9048823901973
 20
169.7332799792322
 30
0.0
  0
SPLINE
  5
10E
330
1F
100
AcDbEntity
  8
0
  6
HIDDEN
 62
     7
370
     0
100
AcDbSpline
210
0.0
220
0.0
230
1.0
 70
     8
 71
     3
 72
    12
 73
     8
 74
     0
 42
0.000000001
 43
0.00000001
 40
0.0
 40
0.0
 40
0.0
 40
0.0
 40
0.25
 40
0.25
 40
0.5
 40
0.5
 40
1.0
 40
1.0
 40
1.0
 40
1.0
 10
125.2548823901974
 20
169.7332799792322
 30
0.0
 10
125.1664670128869
 20
169.7332799792322
 30
0.0
 10
125.0791965757164
 20
169.7085580273314
 30
0.0
 10
124.9267328509445
 20
169.6220533519852
 30
0.0
 10
124.8610942387221
 20
169.5608009138336
 30
0.0
 10
124.7044358374382
 20
169.3467921331482
 30
0.0
 10
124.6548823901974
 20
169.170020846876
 30
0.0
 10
124.6548823901974
 20
168.9944626952682
 30
0.0
  0
SPLINE
  5
10F
330
1F
100
AcDbEntity
  8
0
  6
HIDDEN
 62
     7
370
     0
100
AcDbSpline
210
0.0
220
0.0
230
1.0
 70
     8
 71
     3
 72
     8
 73
     4
 74
     0
 42
0.000000001
 43
0.00000001
 40
0.0
 40
0.0
 40
0.0
 40
0.0
 40
1.0
 40
1.0
 40
1.0
 40
1.0
 10
124.9421239915051
 20
135.0602919404923
 30
0.0
 10
125.0340002775012
 20
135.0149504313512
 30
0.0
 10
125.1427292762864
 20
134.9892524162335
 30
0.0
 10
125.2548823901974
 20
134.9892524162335
 30
0.0
  0
SPLINE
  5
110
330
1F
100
AcDbEntity
  8
0
  6
HIDDEN
 62
     7
370
     0
100
AcDbSpline
210
0.0
220
0.0
230
1.0
 70
     8
 71
     3
 72
     8
 73
     4
 74
     0
 42
0.000000001
 43
0.00000001
 40
0.0
 40
0.0
 40
0.0
 40
0.0
 40
1.0
 40
1.0
 40
1.0
 40
1.0
 10
130.6448823901974
 20
166.2251893950431
 30
0.0
 10
130.1201499018355
 20
167.4000353110048
 30
0.0
 10
129.5814744176167
 20
168.5692792708427
 30
0.0
 10
129.0330457481407
 20
169.7332799792322
 30
0.0
  0
LINE
  5
111
330
1F
100
AcDbEntity
  8
0
  6
HIDDEN
 62
     7
370
     0
100
AcDbLine
 10
139.9048823902
 20
169.7332799792
 30
0.0
 11
136.0767190323
 21
169.7332799792
 31
0.0
  0
LINE
  5
112
330
1F
100
AcDbEntity
  8
0
  6
HIDDEN
 62
     7
370
     0
100
AcDbLine
 10
125.2548823902
 20
134.9892524162
 30
0.0
 11
129.0330457481
 21
134.9892524162
 31
0.0
  0
LINE
  5
113
330
1F
100
AcDbEntity
  8
0
  6
HIDDEN
 62
     7
370
     0
100
AcDbLine
 10
129.0330457481
 20
134.9892524162
 30
0.0
 11
129.0330457481
 21
134.8243741961
 31
0.0
  0
SPLINE
  5
114
330
1F
100
AcDbEntity
  8
0
  6
HIDDEN
 62
     7
370
     0
100
AcDbSpline
210
0.0
220
0.0
230
1.0
 70
     8
 71
     3
 72
     8
 73
     4
 74
     0
 42
0.000000001
 43
0.00000001
 40
0.0
 40
0.0
 40
0.0
 40
0.0
 40
0.0012409313617635
 40
0.0012409313617635
 40
0.0012409313617635
 40
0.0012409313617635
 10
135.5188370764934
 20
135.7730503391846
 30
0.0
 10
135.7040609160494
 20
135.5115227957075
 30
0.0
 10
135.8900461040219
 20
135.2502642939321
 30
0.0
 10
136.0767190322541
 20
134.9892524162335
 30
0.0
  0
LINE
  5
115
330
1F
100
AcDbEntity
  8
0
  6
HIDDEN
 62
     7
370
     0
100
AcDbLine
 10
136.0767190323
 20
134.9892524162
 30
0.0
 11
136.0767190323
 21
134.8243741961
 31
0.0
  0
LINE
  5
116
330
1F
100
AcDbEntity
  8
0
  6
HIDDEN
 62
     7
370
     0
100
AcDbLine
 10
136.0767190323
 20
134.9892524162
 30
0.0
 11
139.9048823902
 21
134.9892524162
 31
0.0
  0
LINE
  5
117
330
1F
100
AcDbEntity
  8
0
  6
HIDDEN
 62
     7
370
     0
100
AcDbLine
 10
129.0330457481
 20
169.7332799792
 30
0.0
 11
125.2548823902
 21
169.7332799792
 31
0.0
  0
SPLINE
  5
118
330
1F
100
AcDbEntity
  8
0
  6
HIDDEN
 62
     7
370
     0
100
AcDbSpline
210
0.0
220
0.0
230
1.0
 70
     8
 71
     3
 72
     8
 73
     4
 74
     0
 42
0.000000001
 43
0.00000001
 40
0.0
 40
0.0
 40
0.0
 40
0.0
 40
0.0012409313617635
 40
0.0012409313617635
 40
0.0012409313617635
 40
0.0012409313617635
 10
129.0330457481407
 20
134.9892524162335
 30
0.0
 10
129.2197186763729
 20
135.2502642939321
 30
0.0
 10
129.4057038643454
 20
135.5115227957075
 30
0.0
 10
129.5909277039014
 20
135.7730503391846
 30
0.0
  0
SPLINE
  5
119
330
1F
100
AcDbEntity
  8
0
  6
HIDDEN
 62
     7
370
     0
100
AcDbSpline
210
0.0
220
0.0
230
1.0
 70
     8
 71
     3
 72
     8
 73
     4
 74
     0
 42
0.000000001
 43
0.00000001
 40
0.0
 40
0.0
 40
0.0
 40
0.0
 40
1.0
 40
1.0
 40
1.0
 40
1.0
 10
136.0767190322541
 20
169.7332799792322
 30
0.0
 10
135.5282903627781
 20
168.5692792708427
 30
0.0
 10
134.9896148785593
 20
167.4000353110048
 30
0.0
 10
134.4648823901974
 20
166.2251893950431
 30
0.0
  0
SPLINE
  5
11A
330
1F
100
AcDbEntity
  8
0
  6
HIDDEN
 62
     7
370
     0
100
AcDbSpline
210
0.0
220
0.0
230
1.0
 70
     8
 71
     3
 72
    14
 73
    10
 74
     0
 42
0.000000001
 43
0.00000001
 40
0.0
 40
0.0
 40
0.0
 40
0.0
 40
0.25
 40
0.25
 40
0.5
 40
0.5
 40
0.75
 40
0.75
 40
1.0
 40
1.0
 40
1.0
 40
1.0
 10
134.4648823901974
 20
166.0202911587099
 30
0.0
 10
134.4648823901974
 20
165.898225994478
 30
0.0
 10
134.4488007887376
 20
165.7787755869975
 30
0.0
 10
134.3833092754707
 20
165.5452937239185
 30
0.0
 10
134.3340013023434
 20
165.4330265476966
 30
0.0
 10
134.1994317806464
 20
165.2310449467479
 30
0.0
 10
134.1139087045612
 20
165.1412445417685
 30
0.0
 10
133.9069132090061
 20
165.0102818438293
 30
0.0
 10
133.7862195750625
 20
164.9719864826411
 30
0.0
 10
133.6648823901975
 20
164.9719864826411
 30
0.0
  0
SPLINE
  5
11B
330
1F
100
AcDbEntity
  8
0
  6
HIDDEN
 62
     7
370
     0
100
AcDbSpline
210
0.0
220
0.0
230
1.0
 70
     8
 71
     3
 72
    14
 73
    10
 74
     0
 42
0.000000001
 43
0.00000001
 40
0.0
 40
0.0
 40
0.0
 40
0.0
 40
0.1250000000000007
 40
0.1250000000000007
 40
0.2500000000000014
 40
0.2500000000000014
 40
0.499999999999999
 40
0.499999999999999
 40
1.0
 40
1.0
 40
1.0
 40
1.0
 10
131.4448823901974
 20
164.9719864826412
 30
0.0
 10
131.3842650667798
 20
164.9719864826412
 30
0.0
 10
131.3221399186448
 20
164.9815537912185
 30
0.0
 10
131.2059222556234
 20
165.0172418391828
 30
0.0
 10
131.151305615931
 20
165.0429397398362
 30
0.0
 10
130.9966292774228
 20
165.1406646597172
 30
0.0
 10
130.9105125286388
 20
165.2309141017699
 30
0.0
 10
130.7092049480982
 20
165.5326511967014
 30
0.0
 10
130.6448823901974
 20
165.7786125098423
 30
0.0
 10
130.6448823901974
 20
166.0202911587099
 30
0.0
  0
LINE
  5
11C
330
1F
100
AcDbEntity
  8
0
  6
HIDDEN
 62
     7
370
     0
100
AcDbLine
 10
133.6648823902
 20
164.9719864826
 30
0.0
 11
131.4448823902
 21
164.9719864826
 31
0.0
  0
LINE
  5
11D
330
1F
100
AcDbEntity
  8
0
  6
HIDDEN
 62
     7
370
     0
100
AcDbLine
 10
141.5048823902
 20
140.6671035716
 30
0.0
 11
147.9104546166
 21
140.6671035716
 31
0.0
  0
LINE
  5
11E
330
1F
100
AcDbEntity
  8
0
  6
HIDDEN
 62
     7
370
     0
100
AcDbLine
 10
147.9104546166
 20
146.9789971068
 30
0.0
 11
141.5048823902
 21
146.9789971068
 31
0.0
  0
SPLINE
  5
11F
330
1F
100
AcDbEntity
  8
0
  6
HIDDEN
 62
     7
370
     0
100
AcDbSpline
210
0.0
220
0.0
230
1.0
 70
     8
 71
     3
 72
    18
 73
    14
 74
     0
 42
0.000000001
 43
0.00000001
 40
0.0
 40
0.0
 40
0.0
 40
0.0
 40
0.5000000000000007
 40
0.5000000000000007
 40
0.750000000000001
 40
0.750000000000001
 40
0.8750000000000009
 40
0.8750000000000009
 40
0.9375000000000016
 40
0.9375000000000016
 40
0.9687500000000009
 40
0.9687500000000009
 40
1.0
 40
1.0
 40
1.0
 40
1.0
 10
140.5778427806515
 20
137.3730503391847
 30
0.0
 10
140.6368135807901
 20
137.952280536496
 30
0.0
 10
140.7255344341272
 20
138.5282392221824
 30
0.0
 10
140.9089463786252
 20
139.3823776728593
 30
0.0
 10
140.977671530044
 20
139.664710010138
 30
0.0
 10
141.108603641127
 20
140.0794730896132
 30
0.0
 10
141.1563029128596
 20
140.2164552286366
 30
0.0
 10
141.2483920714049
 20
140.4154844859769
 30
0.0
 10
141.2825778666152
 20
140.481779658919
 30
0.0
 10
141.3485847195891
 20
140.5729888506592
 30
0.0
 10
141.3731306398103
 20
140.6020648797793
 30
0.0
 10
141.4315334827987
 20
140.6491512984819
 30
0.0
 10
141.4675869232787
 20
140.6671035715717
 30
0.0
 10
141.5048823901974
 20
140.6671035715717
 30
0.0
  0
SPLINE
  5
120
330
1F
100
AcDbEntity
  8
0
  6
HIDDEN
 62
     7
370
     0
100
AcDbSpline
210
0.0
220
0.0
230
1.0
 70
     8
 71
     3
 72
    10
 73
     6
 74
     0
 42
0.000000001
 43
0.00000001
 40
0.0
 40
0.0
 40
0.0
 40
0.0
 40
0.5
 40
0.5
 40
1.0
 40
1.0
 40
1.0
 40
1.0
 10
140.5048823901974
 20
136.6273060800944
 30
0.0
 10
140.5048823901974
 20
136.7433141592396
 30
0.0
 10
140.5168564852055
 20
136.8635722605547
 30
0.0
 10
140.5466483421189
 20
137.1134134389728
 30
0.0
 10
140.5645951484475
 20
137.2429278277445
 30
0.0
 10
140.5778427806519
 20
137.3730503391846
 30
0.0
  0
LINE
  5
121
330
1F
100
AcDbEntity
  8
0
  6
HIDDEN
 62
     7
370
     0
100
AcDbLine
 10
140.5048823902
 20
136.6273060801
 30
0.0
 11
140.5048823902
 21
135.7730503392
 31
0.0
  0
SPLINE
  5
122
330
1F
100
AcDbEntity
  8
0
  6
HIDDEN
 62
     7
370
     0
100
AcDbSpline
210
0.0
220
0.0
230
1.0
 70
     8
 71
     3
 72
    10
 73
     6
 74
     0
 42
0.000000001
 43
0.00000001
 40
0.0
 40
0.0
 40
0.0
 40
0.0
 40
0.5
 40
0.5
 40
1.0
 40
1.0
 40
1.0
 40
1.0
 10
140.5778427806519
 20
150.2730503391846
 30
0.0
 10
140.5645969171936
 20
150.4031554774304
 30
0.0
 10
140.546969666828
 20
150.5302665639927
 30
0.0
 10
140.5170913250838
 20
150.7802900484968
 30
0.0
 10
140.5048823901974
 20
150.9030100595851
 30
0.0
 10
140.5048823901974
 20
151.0187945982749
 30
0.0
  0
SPLINE
  5
123
330
1F
100
AcDbEntity
  8
0
  6
HIDDEN
 62
     7
370
     0
100
AcDbSpline
210
0.0
220
0.0
230
1.0
 70
     8
 71
     3
 72
    18
 73
    14
 74
     0
 42
0.000000001
 43
0.00000001
 40
0.0
 40
0.0
 40
0.0
 40
0.0
 40
0.0312499999999996
 40
0.0312499999999996
 40
0.0624999999999992
 40
0.0624999999999992
 40
0.1249999999999985
 40
0.1249999999999985
 40
0.2499999999999982
 40
0.2499999999999982
 40
0.4999999999999988
 40
0.4999999999999988
 40
1.0
 40
1.0
 40
1.0
 40
1.0
 10
141.5048823901974
 20
146.9789971067966
 30
0.0
 10
141.4680282844388
 20
146.9789971067966
 30
0.0
 10
141.4326257964789
 20
146.9963639220746
 30
0.0
 10
141.3746084028508
 20
147.0425619630936
 30
0.0
 10
141.3505343990624
 20
147.0708044051983
 30
0.0
 10
141.2855152739137
 20
147.1595466534985
 30
0.0
 10
141.2510907645016
 20
147.2253448358166
 30
0.0
 10
141.1585124675152
 20
147.4238139576319
 30
0.0
 10
141.1103027871344
 20
147.5615941801966
 30
0.0
 10
140.9779279633677
 20
147.9798944088787
 30
0.0
 10
140.9090303340372
 20
148.2633900945523
 30
0.0
 10
140.7257206572001
 20
149.116878265843
 30
0.0
 10
140.6369618175789
 20
149.6923641123824
 30
0.0
 10
140.5778427806519
 20
150.2730503391846
 30
0.0
  0
LINE
  5
124
330
1F
100
AcDbEntity
  8
0
  6
HIDDEN
 62
     7
370
     0
100
AcDbLine
 10
140.5048823902
 20
151.8730503392
 30
0.0
 11
140.5048823902
 21
151.0187945983
 31
0.0
  0
LINE
  5
125
330
1F
100
AcDbEntity
  8
0
  6
HIDDEN
 62
     7
370
     0
100
AcDbLine
 10
240.0048823902
 20
121.5025291455
 30
0.0
 11
240.0048823902
 21
128.1168654816
 31
0.0
  0
LINE
  5
126
330
1F
100
AcDbEntity
  8
0
  6
HIDDEN
 62
     7
370
     0
100
AcDbLine
 10
240.0048823902
 20
159.5292351968
 30
0.0
 11
240.0048823902
 21
166.1435715329
 31
0.0
  0
LINE
  5
127
330
1F
100
AcDbEntity
  8
0
  6
HIDDEN
 62
     7
370
     0
100
AcDbLine
 10
240.0048823902
 20
132.3841097914
 30
0.0
 11
240.0048823902
 21
155.261990887
 31
0.0
  0
LINE
  5
128
330
1F
100
AcDbEntity
  8
0
  6
HIDDEN
 62
     7
370
     0
100
AcDbLine
 10
236.0048823902
 20
153.341919912
 30
0.0
 11
236.0048823902
 21
134.3041807663
 31
0.0
  0
LINE
  5
129
330
1F
100
AcDbEntity
  8
0
  6
HIDDEN
 62
     7
370
     0
100
AcDbLine
 10
236.0048823902
 20
159.8730503392
 30
0.0
 11
240.0048823902
 21
159.8730503392
 31
0.0
  0
LINE
  5
12A
330
1F
100
AcDbEntity
  8
0
  6
HIDDEN
 62
     7
370
     0
100
AcDbLine
 10
236.0048823902
 20
159.8730503392
 30
0.0
 11
236.0048823902
 21
153.341919912
 31
0.0
  0
LINE
  5
12B
330
1F
100
AcDbEntity
  8
0
  6
HIDDEN
 62
     7
370
     0
100
AcDbLine
 10
236.0048823902
 20
153.341919912
 30
0.0
 11
240.0048823902
 21
153.341919912
 31
0.0
  0
LINE
  5
12C
330
1F
100
AcDbEntity
  8
0
  6
HIDDEN
 62
     7
370
     0
100
AcDbLine
 10
236.0048823902
 20
127.7730503392
 30
0.0
 11
240.0048823902
 21
127.7730503392
 31
0.0
  0
LINE
  5
12D
330
1F
100
AcDbEntity
  8
0
  6
HIDDEN
 62
     7
370
     0
100
AcDbLine
 10
236.0048823902
 20
134.3041807663
 30
0.0
 11
236.0048823902
 21
127.7730503392
 31
0.0
  0
LINE
  5
12E
330
1F
100
AcDbEntity
  8
0
  6
HIDDEN
 62
     7
370
     0
100
AcDbLine
 10
236.0048823902
 20
134.3041807663
 30
0.0
 11
240.0048823902
 21
134.3041807663
 31
0.0
  0
LINE
  5
12F
330
1F
100
AcDbEntity
  8
0
  6
HIDDEN
 62
     7
370
     0
100
AcDbLine
 10
234.8048823902
 20
143.8230503392
 30
0.0
 11
234.8048823902
 21
158.8230503392
 31
0.0
  0
LINE
  5
130
330
1F
100
AcDbEntity
  8
0
  6
HIDDEN
 62
     7
370
     0
100
AcDbLine
 10
234.8048823902
 20
128.8230503392
 30
0.0
 11
234.8048823902
 21
143.8230503392
 31
0.0
  0
LINE
  5
131
330
1F
100
AcDbEntity
  8
0
  6
HIDDEN
 62
     7
370
     0
100
AcDbLine
 10
209.5548823902
 20
143.8230503392
 30
0.0
 11
209.5548823902
 21
158.5230503392
 31
0.0
  0
LINE
  5
132
330
1F
100
AcDbEntity
  8
0
  6
HIDDEN
 62
     7
370
     0
100
AcDbLine
 10
209.5548823902
 20
129.1230503392
 30
0.0
 11
209.5548823902
 21
143.8230503392
 31
0.0
  0
LINE
  5
133
330
1F
100
AcDbEntity
  8
0
  6
HIDDEN
 62
     7
370
     0
100
AcDbLine
 10
212.0548823902
 20
143.8230503392
 30
0.0
 11
212.0548823902
 21
158.8230503392
 31
0.0
  0
LINE
  5
134
330
1F
100
AcDbEntity
  8
0
  6
HIDDEN
 62
     7
370
     0
100
AcDbLine
 10
212.0548823902
 20
128.8230503392
 30
0.0
 11
212.0548823902
 21
143.8230503392
 31
0.0
  0
SPLINE
  5
135
330
1F
100
AcDbEntity
  8
0
  6
HIDDEN
 62
     7
370
     0
100
AcDbSpline
210
0.0
220
0.0
230
1.0
 70
     8
 71
     3
 72
    12
 73
     8
 74
     0
 42
0.000000001
 43
0.00000001
 40
0.0
 40
0.0
 40
0.0
 40
0.0
 40
0.204840183375797
 40
0.4093326781951575
 40
0.6226848207317248
 40
0.8427979668841997
 40
1.0
 40
1.0
 40
1.0
 40
1.0
 10
226.0048823901974
 20
157.7783360761375
 30
0.0
 10
226.5994647983941
 20
157.8012179961964
 30
0.0
 10
227.7876203914223
 20
157.8469429973443
 30
0.0
 10
229.3889256759584
 20
158.1632996553261
 30
0.0
 10
230.6429395429784
 20
158.5164037522037
 30
0.0
 10
231.4114506013844
 20
158.7883960540705
 30
0.0
 10
231.4364707870834
 20
158.7980062678901
 30
0.0
 10
231.4468950272861
 20
158.8020102020919
 30
0.0
  0
LINE
  5
136
330
1F
100
AcDbEntity
  8
0
  6
HIDDEN
 62
     7
370
     0
100
AcDbLine
 10
226.484121767
 20
157.8082641109
 30
0.0
 11
225.5895697071
 21
157.8066688469
 31
0.0
  0
SPLINE
  5
137
330
1F
100
AcDbEntity
  8
0
  6
HIDDEN
 62
     7
370
     0
100
AcDbSpline
210
0.0
220
0.0
230
1.0
 70
     8
 71
     3
 72
    14
 73
    10
 74
     0
 42
0.000000001
 43
0.00000001
 40
0.0
 40
0.0
 40
0.0
 40
0.0
 40
0.0143986299835898
 40
0.1822614301579598
 40
0.3407283832447612
 40
0.4957073063062182
 40
0.6571150937018697
 40
0.8265284175967165
 40
1.0
 40
1.0
 40
1.0
 40
1.0
 10
221.1098261140048
 20
158.6146609917635
 30
0.0
 10
221.079005033712
 20
158.623988134532
 30
0.0
 10
220.6888641536719
 20
158.7420534214521
 30
0.0
 10
220.4615932521511
 20
158.8447746315329
 30
0.0
 10
220.5489049475693
 20
158.8046413763631
 30
0.0
 10
221.2436383090885
 20
158.559408912031
 30
0.0
 10
222.4246632264486
 20
158.2119164194285
 30
0.0
 10
224.0618585295897
 20
157.8612556212621
 30
0.0
 10
225.3521174281561
 20
157.806193157475
 30
0.0
 10
226.0048823901974
 20
157.7783360761375
 30
0.0
  0
LINE
  5
138
330
1F
100
AcDbEntity
  8
0
  6
HIDDEN
 62
     7
370
     0
100
AcDbLine
 10
236.0048823902
 20
159.8730503392
 30
0.0
 11
236.0048823902
 21
162.3230503392
 31
0.0
  0
LINE
  5
139
330
1F
100
AcDbEntity
  8
0
  6
HIDDEN
 62
     7
370
     0
100
AcDbLine
 10
236.0048823902
 20
125.3230503392
 30
0.0
 11
236.0048823902
 21
127.7730503392
 31
0.0
  0
LINE
  5
13A
330
1F
100
AcDbEntity
  8
0
  6
HIDDEN
 62
     7
370
     0
100
AcDbLine
 10
60.2048823902
 20
143.8230503392
 30
0.0
 11
60.2048823902
 21
152.3230503392
 31
0.0
  0
LINE
  5
13B
330
1F
100
AcDbEntity
  8
0
  6
HIDDEN
 62
     7
370
     0
100
AcDbLine
 10
60.2048823902
 20
135.3230503392
 30
0.0
 11
60.2048823902
 21
143.8230503392
 31
0.0
  0
LINE
  5
13C
330
1F
100
AcDbEntity
  8
0
  6
HIDDEN
 62
     7
370
     0
100
AcDbLine
 10
63.2008116045
 20
143.8230503392
 30
0.0
 11
63.2008116045
 21
150.8230503392
 31
0.0
  0
LINE
  5
13D
330
1F
100
AcDbEntity
  8
0
  6
HIDDEN
 62
     7
370
     0
100
AcDbLine
 10
63.2008116045
 20
136.8230503392
 30
0.0
 11
63.2008116045
 21
143.8230503392
 31
0.0
  0
LINE
  5
13E
330
1F
100
AcDbEntity
  8
0
  6
HIDDEN
 62
     7
370
     0
100
AcDbLine
 10
96.2048823902
 20
143.8230503392
 30
0.0
 11
96.2048823902
 21
150.8230503392
 31
0.0
  0
LINE
  5
13F
330
1F
100
AcDbEntity
  8
0
  6
HIDDEN
 62
     7
370
     0
100
AcDbLine
 10
96.2048823902
 20
136.8230503392
 30
0.0
 11
96.2048823902
 21
143.8230503392
 31
0.0
  0
LINE
  5
140
330
1F
100
AcDbEntity
  8
0
  6
HIDDEN
 62
     7
370
     0
100
AcDbLine
 10
97.8572490925
 20
143.8230503392
 30
0.0
 11
97.8572490925
 21
148.0730503392
 31
0.0
  0
LINE
  5
141
330
1F
100
AcDbEntity
  8
0
  6
HIDDEN
 62
     7
370
     0
100
AcDbLine
 10
97.8572490925
 20
139.5730503392
 30
0.0
 11
97.8572490925
 21
143.8230503392
 31
0.0
  0
LINE
  5
142
330
1F
100
AcDbEntity
  8
0
  6
HIDDEN
 62
     7
370
     0
100
AcDbLine
 10
226.0048823902
 20
169.5730503392
 30
0.0
 11
231.5048823902
 21
169.5730503392
 31
0.0
  0
LINE
  5
143
330
1F
100
AcDbEntity
  8
0
  6
HIDDEN
 62
     7
370
     0
100
AcDbLine
 10
220.5048823902
 20
169.5730503392
 30
0.0
 11
226.0048823902
 21
169.5730503392
 31
0.0
  0
LINE
  5
144
330
1F
100
AcDbEntity
  8
0
  6
HIDDEN
 62
     7
370
     0
100
AcDbLine
 10
124.6548823902
 20
162.1730503392
 30
0.0
 11
140.5048823902
 21
162.1730503392
 31
0.0
  0
LWPOLYLINE
  5
145
330
1F
100
AcDbEntity
  8
0
  6
HIDDEN
 62
     7
370
     0
100
AcDbPolyline
 90
        9
 70
   128
 43
0.0
 10
140.5048823902
 20
162.1730503392
 10
140.5050336553
 20
162.1730503406
 10
140.5051849204
 20
162.1730503449
 10
140.5053361855
 20
162.1730503521
 10
140.5054874506
 20
162.1730503621
 10
140.5056387157
 20
162.1730503749
 10
140.5057899808
 20
162.1730503907
 10
140.5059412459
 20
162.1730504093
 10
140.506092511
 20
162.1730504307
  0
SPLINE
  5
146
330
1F
100
AcDbEntity
  8
0
  6
HIDDEN
 62
     7
370
     0
100
AcDbSpline
210
0.0
220
0.0
230
1.0
 70
     8
 71
     3
 72
     8
 73
     4
 74
     0
 42
0.000000001
 43
0.00000001
 40
0.0
 40
0.0
 40
0.0
 40
0.0
 40
1.0
 40
1.0
 40
1.0
 40
1.0
 10
125.2548823901974
 20
152.6568482621357
 30
0.0
 10
125.1427041360178
 20
152.6568482621357
 30
0.0
 10
125.0340346232893
 20
152.6311671968747
 30
0.0
 10
124.942123991505
 20
152.5858087378771
 30
0.0
  0
SPLINE
  5
147
330
1F
100
AcDbEntity
  8
0
  6
HIDDEN
 62
     7
370
     0
100
AcDbSpline
210
0.0
220
0.0
230
1.0
 70
     8
 71
     3
 72
    12
 73
     8
 74
     0
 42
0.000000001
 43
0.00000001
 40
0.0
 40
0.0
 40
0.0
 40
0.0
 40
0.4999999999999986
 40
0.4999999999999986
 40
0.7499999999999992
 40
0.7499999999999992
 40
1.0
 40
1.0
 40
1.0
 40
1.0
 10
140.5048823901974
 20
152.1710633163613
 30
0.0
 10
140.5048823901974
 20
152.2913903494144
 30
0.0
 10
140.4510875786044
 20
152.4094879228963
 30
0.0
 10
140.2901640086382
 20
152.5491306653353
 30
0.0
 10
140.2254125475357
 20
152.5874066187297
 30
0.0
 10
140.073192364218
 20
152.6422464483641
 30
0.0
 10
139.990384848693
 20
152.6568482621357
 30
0.0
 10
139.9048823901974
 20
152.6568482621357
 30
0.0
  0
LINE
  5
148
330
1F
100
AcDbEntity
  8
0
  6
HIDDEN
 62
     7
370
     0
100
AcDbLine
 10
136.0767190323
 20
152.8217264823
 30
0.0
 11
136.0767190323
 21
152.6568482621
 31
0.0
  0
LINE
  5
149
330
1F
100
AcDbEntity
  8
0
  6
HIDDEN
 62
     7
370
     0
100
AcDbLine
 10
129.0330457481
 20
152.8217264823
 30
0.0
 11
129.0330457481
 21
152.6568482621
 31
0.0
  0
LINE
  5
14A
330
1F
100
AcDbEntity
  8
0
  6
HIDDEN
 62
     7
370
     0
100
AcDbLine
 10
129.0330457481
 20
152.6568482621
 30
0.0
 11
125.2548823902
 21
152.6568482621
 31
0.0
  0
SPLINE
  5
14B
330
1F
100
AcDbEntity
  8
0
  6
HIDDEN
 62
     7
370
     0
100
AcDbSpline
210
0.0
220
0.0
230
1.0
 70
     8
 71
     3
 72
     8
 73
     4
 74
     0
 42
0.000000001
 43
0.00000001
 40
0.0
 40
0.0
 40
0.0
 40
0.0
 40
0.0012409313617635
 40
0.0012409313617635
 40
0.0012409313617635
 40
0.0012409313617635
 10
129.5909277039014
 20
151.8730503391846
 30
0.0
 10
129.4057038643454
 20
152.1345778826618
 30
0.0
 10
129.2197186763729
 20
152.3958363844372
 30
0.0
 10
129.0330457481407
 20
152.6568482621357
 30
0.0
  0
LINE
  5
14C
330
1F
100
AcDbEntity
  8
0
  6
HIDDEN
 62
     7
370
     0
100
AcDbLine
 10
139.9048823902
 20
152.6568482621
 30
0.0
 11
136.0767190323
 21
152.6568482621
 31
0.0
  0
SPLINE
  5
14D
330
1F
100
AcDbEntity
  8
0
  6
HIDDEN
 62
     7
370
     0
100
AcDbSpline
210
0.0
220
0.0
230
1.0
 70
     8
 71
     3
 72
     8
 73
     4
 74
     0
 42
0.000000001
 43
0.00000001
 40
0.0
 40
0.0
 40
0.0
 40
0.0
 40
0.0012409313617635
 40
0.0012409313617635
 40
0.0012409313617635
 40
0.0012409313617635
 10
136.0767190322541
 20
152.6568482621357
 30
0.0
 10
135.8900461040219
 20
152.3958363844372
 30
0.0
 10
135.7040609160494
 20
152.1345778826618
 30
0.0
 10
135.5188370764934
 20
151.8730503391846
 30
0.0
  0
LINE
  5
14E
330
1F
100
AcDbEntity
  8
0
  6
HIDDEN
 62
     7
370
     0
100
AcDbLine
 10
221.7145947513
 20
170.8230503392
 30
0.0
 11
220.0048823902
 21
170.8230503392
 31
0.0
  0
LINE
  5
14F
330
1F
100
AcDbEntity
  8
0
  6
HIDDEN
 62
     7
370
     0
100
AcDbLine
 10
232.0048823902
 20
170.8230503392
 30
0.0
 11
230.2512427801
 21
170.8230503392
 31
0.0
  0
LINE
  5
150
330
1F
100
AcDbEntity
  8
0
  6
HIDDEN
 62
     7
370
     0
100
AcDbLine
 10
226.0048823902
 20
160.7144367607
 30
0.0
 11
220.0048823902
 21
160.7144367607
 31
0.0
  0
LINE
  5
151
330
1F
100
AcDbEntity
  8
0
  6
HIDDEN
 62
     7
370
     0
100
AcDbLine
 10
232.0048823902
 20
160.7144367607
 30
0.0
 11
226.0048823902
 21
160.7144367607
 31
0.0
  0
LINE
  5
152
330
1F
100
AcDbEntity
  8
0
  6
HIDDEN
 62
     7
370
     0
100
AcDbLine
 10
226.0048823902
 20
159.9730503392
 30
0.0
 11
220.7462688117
 21
159.9730503392
 31
0.0
  0
LINE
  5
153
330
1F
100
AcDbEntity
  8
0
  6
HIDDEN
 62
     7
370
     0
100
AcDbLine
 10
231.2634959687
 20
159.9730503392
 30
0.0
 11
226.0048823902
 21
159.9730503392
 31
0.0
  0
LINE
  5
154
330
1F
100
AcDbEntity
  8
0
  6
HIDDEN
 62
     7
370
     0
100
AcDbLine
 10
226.0048823902
 20
154.7230503392
 30
0.0
 11
221.9101657906
 21
154.7230503392
 31
0.0
  0
LINE
  5
155
330
1F
100
AcDbEntity
  8
0
  6
HIDDEN
 62
     7
370
     0
100
AcDbLine
 10
230.0995989898
 20
154.7230503392
 30
0.0
 11
226.0048823902
 21
154.7230503392
 31
0.0
  0
LINE
  5
156
330
1F
100
AcDbEntity
  8
0
  6
HIDDEN
 62
     7
370
     0
100
AcDbLine
 10
226.0048823902
 20
154.3230503392
 30
0.0
 11
222.3101657906
 21
154.3230503392
 31
0.0
  0
LINE
  5
157
330
1F
100
AcDbEntity
  8
0
  6
HIDDEN
 62
     7
370
     0
100
AcDbLine
 10
229.6995989898
 20
154.3230503392
 30
0.0
 11
226.0048823902
 21
154.3230503392
 31
0.0
  0
SPLINE
  5
158
330
1F
100
AcDbEntity
  8
0
  6
HIDDEN
 62
     7
370
     0
100
AcDbSpline
210
0.0
220
0.0
230
1.0
 70
     8
 71
     3
 72
    11
 73
     7
 74
     0
 42
0.000000001
 43
0.00000001
 40
0.0
 40
0.0
 40
0.0
 40
0.0
 40
0.1336647920874057
 40
0.4825473608259797
 40
0.8156356561503854
 40
1.0
 40
1.0
 40
1.0
 40
1.0
 10
227.7369331977663
 20
171.2871519543224
 30
0.0
 10
227.5918115195384
 20
171.2185047862383
 30
0.0
 10
227.0679033030671
 20
170.9706795416855
 30
0.0
 10
226.0891793486973
 20
170.7369282050075
 30
0.0
 10
225.0380401999809
 20
170.9318549610849
 30
0.0
 10
224.4738486398654
 20
171.1938169416133
 30
0.0
 10
224.2728315826285
 20
171.2871519543224
 30
0.0
  0
SPLINE
  5
159
330
1F
100
AcDbEntity
  8
0
  6
HIDDEN
 62
     7
370
     0
100
AcDbSpline
210
0.0
220
0.0
230
1.0
 70
     8
 71
     3
 72
    11
 73
     7
 74
     0
 42
0.000000001
 43
0.00000001
 40
0.0
 40
0.0
 40
0.0
 40
0.0
 40
0.2164553779443461
 40
0.4403112895790555
 40
0.7519005688038763
 40
1.0
 40
1.0
 40
1.0
 40
1.0
 10
229.4689840053352
 20
171.2871519543224
 30
0.0
 10
229.3503368468151
 20
171.1784937840574
 30
0.0
 10
229.1089860249089
 20
170.9574624586774
 30
0.0
 10
228.6611033602566
 20
170.7732325342599
 30
0.0
 10
228.1806688616736
 20
170.8843084383592
 30
0.0
 10
227.8732196324699
 20
171.1634249001329
 30
0.0
 10
227.7369331977663
 20
171.2871519543224
 30
0.0
  0
SPLINE
  5
15A
330
1F
100
AcDbEntity
  8
0
  6
HIDDEN
 62
     7
370
     0
100
AcDbSpline
210
0.0
220
0.0
230
1.0
 70
     8
 71
     3
 72
    11
 73
     7
 74
     0
 42
0.000000001
 43
0.00000001
 40
0.0
 40
0.0
 40
0.0
 40
0.0
 40
0.2164553779443456
 40
0.440311289579057
 40
0.7519005688038766
 40
0.9999999999999999
 40
0.9999999999999999
 40
0.9999999999999999
 40
0.9999999999999999
 10
224.2728315826285
 20
171.2871519543224
 30
0.0
 10
224.1541844241084
 20
171.1784937840574
 30
0.0
 10
223.9128336022023
 20
170.9574624586774
 30
0.0
 10
223.4649509375499
 20
170.7732325342599
 30
0.0
 10
222.984516438967
 20
170.8843084383593
 30
0.0
 10
222.6770672097633
 20
171.1634249001329
 30
0.0
 10
222.5407807750597
 20
171.2871519543224
 30
0.0
  0
LINE
  5
15B
330
1F
100
AcDbEntity
  8
0
  6
HIDDEN
 62
     7
370
     0
100
AcDbLine
 10
224.2728315826
 20
164.3230503392
 30
0.0
 11
224.2728315826
 21
171.2871519543
 31
0.0
  0
LINE
  5
15C
330
1F
100
AcDbEntity
  8
0
  6
HIDDEN
 62
     7
370
     0
100
AcDbLine
 10
227.7369331978
 20
164.3230503392
 30
0.0
 11
227.7369331978
 21
171.2871519543
 31
0.0
  0
LINE
  5
15D
330
1F
100
AcDbEntity
  8
0
  6
HIDDEN
 62
     7
370
     0
100
AcDbLine
 10
224.2728315826
 20
164.3230503392
 30
0.0
 11
226.0048823902
 21
164.3230503392
 31
0.0
  0
LINE
  5
15E
330
1F
100
AcDbEntity
  8
0
  6
HIDDEN
 62
     7
370
     0
100
AcDbLine
 10
223.4068061788
 20
164.3230503392
 30
0.0
 11
224.2728315826
 21
164.3230503392
 31
0.0
  0
LINE
  5
15F
330
1F
100
AcDbEntity
  8
0
  6
HIDDEN
 62
     7
370
     0
100
AcDbLine
 10
226.0048823902
 20
164.3230503392
 30
0.0
 11
227.7369331978
 21
164.3230503392
 31
0.0
  0
LINE
  5
160
330
1F
100
AcDbEntity
  8
0
  6
HIDDEN
 62
     7
370
     0
100
AcDbLine
 10
227.7369331978
 20
164.3230503392
 30
0.0
 11
228.6029586016
 21
164.3230503392
 31
0.0
  0
LINE
  5
161
330
1F
100
AcDbEntity
  8
0
  6
HIDDEN
 62
     7
370
     0
100
AcDbLine
 10
226.0048823902
 20
163.3230503392
 30
0.0
 11
223.0048823902
 21
163.3230503392
 31
0.0
  0
LINE
  5
162
330
1F
100
AcDbEntity
  8
0
  6
HIDDEN
 62
     7
370
     0
100
AcDbLine
 10
229.0048823902
 20
163.3230503392
 30
0.0
 11
226.0048823902
 21
163.3230503392
 31
0.0
  0
LINE
  5
163
330
1F
100
AcDbEntity
  8
0
  6
HIDDEN
 62
     7
370
     0
100
AcDbLine
 10
228.6029586016
 20
164.3230503392
 30
0.0
 11
229.4689840053
 21
164.3230503392
 31
0.0
  0
LINE
  5
164
330
1F
100
AcDbEntity
  8
0
  6
HIDDEN
 62
     7
370
     0
100
AcDbLine
 10
222.5407807751
 20
164.3230503392
 30
0.0
 11
223.4068061788
 21
164.3230503392
 31
0.0
  0
LINE
  5
165
330
1F
100
AcDbEntity
  8
0
  6
HIDDEN
 62
     7
370
     0
100
AcDbLine
 10
229.4689840053
 20
164.3230503392
 30
0.0
 11
229.4689840053
 21
171.2871519543
 31
0.0
  0
LINE
  5
166
330
1F
100
AcDbEntity
  8
0
  6
HIDDEN
 62
     7
370
     0
100
AcDbLine
 10
222.5407807751
 20
164.3230503392
 30
0.0
 11
222.5407807751
 21
171.2871519543
 31
0.0
  0
LINE
  5
167
330
1F
100
AcDbEntity
  8
0
  6
HIDDEN
 62
     7
370
     0
100
AcDbLine
 10
240.5548823902
 20
167.3230503392
 30
0.0
 11
240.0048823902
 21
166.1435715329
 31
0.0
  0
LINE
  5
168
330
1F
100
AcDbEntity
  8
0
  6
HIDDEN
 62
     7
370
     0
100
AcDbLine
 10
240.0048823902
 20
121.5025291455
 30
0.0
 11
240.5548823902
 21
120.3230503392
 31
0.0
  0
LINE
  5
169
330
1F
100
AcDbEntity
  8
0
  6
HIDDEN
 62
     7
370
     0
100
AcDbLine
 10
236.0048823902
 20
159.5158706622
 30
0.0
 11
234.8048823902
 21
158.8230503392
 31
0.0
  0
LINE
  5
16A
330
1F
100
AcDbEntity
  8
0
  6
HIDDEN
 62
     7
370
     0
100
AcDbLine
 10
234.8048823902
 20
128.8230503392
 30
0.0
 11
236.0048823902
 21
128.1302300162
 31
0.0
  0
LINE
  5
16B
330
1F
100
AcDbEntity
  8
0
  6
HIDDEN
 62
     7
370
     0
100
AcDbLine
 10
210.1548823902
 20
128.5230503392
 30
0.0
 11
210.8562756494
 21
128.5230503392
 31
0.0
  0
LINE
  5
16C
330
1F
100
AcDbEntity
  8
0
  6
HIDDEN
 62
     7
370
     0
100
AcDbLine
 10
210.8562756494
 20
159.1230503392
 30
0.0
 11
210.1548823902
 21
159.1230503392
 31
0.0
  0
ARC
  5
16D
330
1F
100
AcDbEntity
  8
0
  6
HIDDEN
 62
     7
370
     0
100
AcDbCircle
 10
210.8562756494
 20
129.1230503392
 30
0.0
 40
0.5999999999999943
100
AcDbArc
 50
270.0
 51
285.0
  0
ARC
  5
16E
330
1F
100
AcDbEntity
  8
0
  6
HIDDEN
 62
     7
370
     0
100
AcDbCircle
 10
210.8562756494
 20
158.5230503392
 30
0.0
 40
0.5999999999999943
100
AcDbArc
 50
75.0
 51
90.0
  0
ARC
  5
16F
330
1F
100
AcDbEntity
  8
0
  6
HIDDEN
 62
     7
370
     0
100
AcDbCircle
 10
210.1548823902
 20
129.1230503392
 30
0.0
 40
0.5999999999999943
100
AcDbArc
 50
180.0
 51
270.0
  0
ARC
  5
170
330
1F
100
AcDbEntity
  8
0
  6
HIDDEN
 62
     7
370
     0
100
AcDbCircle
 10
210.1548823902
 20
158.5230503392
 30
0.0
 40
0.5999999999999943
100
AcDbArc
 50
90.0
 51
180.0
  0
LINE
  5
171
330
1F
100
AcDbEntity
  8
0
  6
HIDDEN
 62
     7
370
     0
100
AcDbLine
 10
211.0115670764
 20
128.5434948434
 30
0.0
 11
212.0548823902
 21
128.8230503392
 31
0.0
  0
LINE
  5
172
330
1F
100
AcDbEntity
  8
0
  6
HIDDEN
 62
     7
370
     0
100
AcDbLine
 10
212.0548823902
 20
158.8230503392
 30
0.0
 11
211.0115670764
 21
159.102605835
 31
0.0
  0
LINE
  5
173
330
1F
100
AcDbEntity
  8
0
  6
HIDDEN
 62
     7
370
     0
100
AcDbLine
 10
212.0548823902
 20
128.8230503392
 30
0.0
 11
234.8048823902
 21
128.8230503392
 31
0.0
  0
LINE
  5
174
330
1F
100
AcDbEntity
  8
0
  6
HIDDEN
 62
     7
370
     0
100
AcDbLine
 10
220.5640832885
 20
158.8230503392
 30
0.0
 11
212.0548823902
 21
158.8230503392
 31
0.0
  0
LINE
  5
175
330
1F
100
AcDbEntity
  8
0
  6
HIDDEN
 62
     7
370
     0
100
AcDbLine
 10
234.8048823902
 20
158.8230503392
 30
0.0
 11
231.4468950273
 21
158.8230503392
 31
0.0
  0
ARC
  5
176
330
1F
100
AcDbEntity
  8
0
  6
HIDDEN
 62
     7
370
     0
100
AcDbCircle
 10
54.0048823902
 20
134.5230503392
 30
0.0
 40
0.7999999999999972
100
AcDbArc
 50
90.0
 51
180.0
  0
ARC
  5
177
330
1F
100
AcDbEntity
  8
0
  6
HIDDEN
 62
     7
370
     0
100
AcDbCircle
 10
54.0048823902
 20
153.1230503392
 30
0.0
 40
0.7999999999999972
100
AcDbArc
 50
180.0
 51
270.0
  0
LINE
  5
178
330
1F
100
AcDbEntity
  8
0
  6
HIDDEN
 62
     7
370
     0
100
AcDbLine
 10
240.0048823902
 20
162.3230503392
 30
0.0
 11
236.0048823902
 21
162.3230503392
 31
0.0
  0
LINE
  5
179
330
1F
100
AcDbEntity
  8
0
  6
HIDDEN
 62
     7
370
     0
100
AcDbLine
 10
236.0048823902
 20
125.3230503392
 30
0.0
 11
240.0048823902
 21
125.3230503392
 31
0.0
  0
LINE
  5
17A
330
1F
100
AcDbEntity
  8
0
  6
HIDDEN
 62
     7
370
     0
100
AcDbLine
 10
61.0972548209
 20
135.0980503392
 30
0.0
 11
61.9739422825
 21
135.0980503392
 31
0.0
  0
LINE
  5
17B
330
1F
100
AcDbEntity
  8
0
  6
HIDDEN
 62
     7
370
     0
100
AcDbLine
 10
61.9739422825
 20
152.5480503392
 30
0.0
 11
61.0972548209
 21
152.5480503392
 31
0.0
  0
ARC
  5
17C
330
1F
100
AcDbEntity
  8
0
  6
HIDDEN
 62
     7
370
     0
100
AcDbCircle
 10
61.9739422825
 20
135.4980503392
 30
0.0
 40
0.4000000000000057
100
AcDbArc
 50
270.0
 51
330.0
  0
ARC
  5
17D
330
1F
100
AcDbEntity
  8
0
  6
HIDDEN
 62
     7
370
     0
100
AcDbCircle
 10
61.9739422825
 20
152.1480503392
 30
0.0
 40
0.4000000000000057
100
AcDbArc
 50
30.0
 51
90.0
  0
ARC
  5
17E
330
1F
100
AcDbEntity
  8
0
  6
HIDDEN
 62
     7
370
     0
100
AcDbCircle
 10
61.0972548209
 20
135.4980503392
 30
0.0
 40
0.3999999999999773
100
AcDbArc
 50
255.0
 51
270.0
  0
ARC
  5
17F
330
1F
100
AcDbEntity
  8
0
  6
HIDDEN
 62
     7
370
     0
100
AcDbCircle
 10
61.0972548209
 20
152.1480503392
 30
0.0
 40
0.3999999999999773
100
AcDbArc
 50
90.0
 51
105.0
  0
LINE
  5
180
330
1F
100
AcDbEntity
  8
0
  6
HIDDEN
 62
     7
370
     0
100
AcDbLine
 10
60.9937272029
 20
152.5344206697
 30
0.0
 11
60.2048823902
 21
152.3230503392
 31
0.0
  0
LINE
  5
181
330
1F
100
AcDbEntity
  8
0
  6
HIDDEN
 62
     7
370
     0
100
AcDbLine
 10
60.2048823902
 20
135.3230503392
 30
0.0
 11
60.9937272029
 21
135.1116800087
 31
0.0
  0
LINE
  5
182
330
1F
100
AcDbEntity
  8
0
  6
HIDDEN
 62
     7
370
     0
100
AcDbLine
 10
62.320352444
 20
135.2980503392
 30
0.0
 11
63.2008116045
 21
136.8230503392
 31
0.0
  0
LINE
  5
183
330
1F
100
AcDbEntity
  8
0
  6
HIDDEN
 62
     7
370
     0
100
AcDbLine
 10
63.2008116045
 20
150.8230503392
 30
0.0
 11
62.320352444
 21
152.3480503392
 31
0.0
  0
LINE
  5
184
330
1F
100
AcDbEntity
  8
0
  6
HIDDEN
 62
     7
370
     0
100
AcDbLine
 10
54.0048823902
 20
135.3230503392
 30
0.0
 11
60.2048823902
 21
135.3230503392
 31
0.0
  0
LINE
  5
185
330
1F
100
AcDbEntity
  8
0
  6
HIDDEN
 62
     7
370
     0
100
AcDbLine
 10
60.2048823902
 20
152.3230503392
 30
0.0
 11
54.0048823902
 21
152.3230503392
 31
0.0
  0
LINE
  5
186
330
1F
100
AcDbEntity
  8
0
  6
HIDDEN
 62
     7
370
     0
100
AcDbLine
 10
96.2048823902
 20
136.8230503392
 30
0.0
 11
97.8572490925
 21
139.5730503392
 31
0.0
  0
LINE
  5
187
330
1F
100
AcDbEntity
  8
0
  6
HIDDEN
 62
     7
370
     0
100
AcDbLine
 10
97.8572490925
 20
148.0730503392
 30
0.0
 11
96.2048823902
 21
150.8230503392
 31
0.0
  0
LINE
  5
188
330
1F
100
AcDbEntity
  8
0
  6
HIDDEN
 62
     7
370
     0
100
AcDbLine
 10
63.2008116045
 20
136.8230503392
 30
0.0
 11
96.2048823902
 21
136.8230503392
 31
0.0
  0
LINE
  5
189
330
1F
100
AcDbEntity
  8
0
  6
HIDDEN
 62
     7
370
     0
100
AcDbLine
 10
96.2048823902
 20
150.8230503392
 30
0.0
 11
63.2008116045
 21
150.8230503392
 31
0.0
  0
LINE
  5
18A
330
1F
100
AcDbEntity
  8
0
  6
HIDDEN
 62
     7
370
     0
100
AcDbLine
 10
218.7548823902
 20
171.3230503392
 30
0.0
 11
220.5048823902
 21
169.5730503392
 31
0.0
  0
LINE
  5
18B
330
1F
100
AcDbEntity
  8
0
  6
HIDDEN
 62
     7
370
     0
100
AcDbLine
 10
231.5048823902
 20
169.5730503392
 30
0.0
 11
233.2548823902
 21
171.3230503392
 31
0.0
  0
LINE
  5
18C
330
1F
100
AcDbEntity
  8
0
  6
HIDDEN
 62
     7
370
     0
100
AcDbLine
 10
220.5048823902
 20
169.5730503392
 30
0.0
 11
220.5048823902
 21
158.8016252151
 31
0.0
  0
LINE
  5
18D
330
1F
100
AcDbEntity
  8
0
  6
HIDDEN
 62
     7
370
     0
100
AcDbLine
 10
231.5048823902
 20
158.8021334663
 30
0.0
 11
231.5048823902
 21
169.5730503392
 31
0.0
  0
LINE
  5
18E
330
1F
100
AcDbEntity
  8
0
  6
HIDDEN
 62
     7
370
     0
100
AcDbLine
 10
97.8572490925
 20
139.5730503392
 30
0.0
 11
209.5548823902
 21
139.5730503392
 31
0.0
  0
LINE
  5
18F
330
1F
100
AcDbEntity
  8
0
  6
HIDDEN
 62
     7
370
     0
100
AcDbLine
 10
209.5548823902
 20
148.0730503392
 30
0.0
 11
97.8572490925
 21
148.0730503392
 31
0.0
  0
LINE
  5
190
330
1F
100
AcDbEntity
  8
0
  6
HIDDEN
 62
     7
370
     0
100
AcDbLine
 10
232.0048823902
 20
170.8230503392
 30
0.0
 11
231.7789335758
 21
171.0489991535
 31
0.0
  0
LINE
  5
191
330
1F
100
AcDbEntity
  8
0
  6
HIDDEN
 62
     7
370
     0
100
AcDbLine
 10
220.2274899928
 20
171.0456579417
 30
0.0
 11
220.0048823902
 21
170.8230503392
 31
0.0
  0
LINE
  5
192
330
1F
100
AcDbEntity
  8
0
  6
HIDDEN
 62
     7
370
     0
100
AcDbLine
 10
232.0048823902
 20
160.7144367607
 30
0.0
 11
232.0048823902
 21
170.8230503392
 31
0.0
  0
LINE
  5
193
330
1F
100
AcDbEntity
  8
0
  6
HIDDEN
 62
     7
370
     0
100
AcDbLine
 10
220.0048823902
 20
170.8230503392
 30
0.0
 11
220.0048823902
 21
160.7144367607
 31
0.0
  0
LINE
  5
194
330
1F
100
AcDbEntity
  8
0
  6
HIDDEN
 62
     7
370
     0
100
AcDbLine
 10
220.0048823902
 20
160.7144367607
 30
0.0
 11
220.7462688117
 21
159.9730503392
 31
0.0
  0
LINE
  5
195
330
1F
100
AcDbEntity
  8
0
  6
HIDDEN
 62
     7
370
     0
100
AcDbLine
 10
231.2634959687
 20
159.9730503392
 30
0.0
 11
232.0048823902
 21
160.7144367607
 31
0.0
  0
LINE
  5
196
330
1F
100
AcDbEntity
  8
0
  6
HIDDEN
 62
     7
370
     0
100
AcDbLine
 10
220.7462688117
 20
159.9730503392
 30
0.0
 11
221.9101657906
 21
154.7230503392
 31
0.0
  0
LINE
  5
197
330
1F
100
AcDbEntity
  8
0
  6
HIDDEN
 62
     7
370
     0
100
AcDbLine
 10
230.0995989898
 20
154.7230503392
 30
0.0
 11
231.2634959687
 21
159.9730503392
 31
0.0
  0
LINE
  5
198
330
1F
100
AcDbEntity
  8
0
  6
HIDDEN
 62
     7
370
     0
100
AcDbLine
 10
221.9101657906
 20
154.7230503392
 30
0.0
 11
222.3101657906
 21
154.3230503392
 31
0.0
  0
LINE
  5
199
330
1F
100
AcDbEntity
  8
0
  6
HIDDEN
 62
     7
370
     0
100
AcDbLine
 10
229.6995989898
 20
154.3230503392
 30
0.0
 11
230.0995989898
 21
154.7230503392
 31
0.0
  0
LINE
  5
19A
330
1F
100
AcDbEntity
  8
0
  6
HIDDEN
 62
     7
370
     0
100
AcDbLine
 10
222.5048823902
 20
171.3230503392
 30
0.0
 11
222.5407807751
 21
171.2871519543
 31
0.0
  0
LINE
  5
19B
330
1F
100
AcDbEntity
  8
0
  6
HIDDEN
 62
     7
370
     0
100
AcDbLine
 10
229.4689840053
 20
171.2871519543
 30
0.0
 11
229.5048823902
 21
171.3230503392
 31
0.0
  0
LINE
  5
19C
330
1F
100
AcDbEntity
  8
0
  6
HIDDEN
 62
     7
370
     0
100
AcDbLine
 10
223.0048823902
 20
163.3230503392
 30
0.0
 11
226.0048823902
 21
162.2311396364
 31
0.0
  0
LINE
  5
19D
330
1F
100
AcDbEntity
  8
0
  6
HIDDEN
 62
     7
370
     0
100
AcDbLine
 10
226.0048823902
 20
162.2311396364
 30
0.0
 11
229.0048823902
 21
163.3230503392
 31
0.0
  0
LINE
  5
19E
330
1F
100
AcDbEntity
  8
0
  6
HIDDEN
 62
     7
370
     0
100
AcDbLine
 10
229.0048823902
 20
163.3230503392
 30
0.0
 11
229.0048823902
 21
164.3230503392
 31
0.0
  0
LINE
  5
19F
330
1F
100
AcDbEntity
  8
0
  6
HIDDEN
 62
     7
370
     0
100
AcDbLine
 10
223.0048823902
 20
164.3230503392
 30
0.0
 11
223.0048823902
 21
163.3230503392
 31
0.0
  0
DIMENSION
  5
1A0
330
1F
100
AcDbEntity
  8
VERMASSUNG
100
AcDbDimension
  2
_D
 10
47.9548484237
 20
112.0730503392
 30
0.0
 11
47.9548484237
 21
144.2476730973
 31
0.0
 70
   160
  1
%%c<>
 71
     2
 42
-1.0
  3
SLDDIMSTYLE0
100
AcDbAlignedDimension
 13
125.2548823902
 23
175.5730503392
 33
0.0
 14
125.2548823902
 24
112.0730503392
 34
0.0
 50
90.0
100
AcDbRotatedDimension
  0
DIMENSION
  5
1AC
330
1F
100
AcDbEntity
  8
VERMASSUNG
100
AcDbDimension
  2
_D_1
 10
250.267535153
 20
116.3230503392
 30
0.0
 11
250.267535153
 21
144.0314232741
 31
0.0
 70
   160
  1
MBM %%c<>
 71
     2
 42
-1.0
  3
SLDDIMSTYLE0
100
AcDbAlignedDimension
 13
240.0548823902
 23
171.3230503392
 33
0.0
 14
240.0548823902
 24
116.3230503392
 34
0.0
 50
90.0
100
AcDbRotatedDimension
  0
DIMENSION
  5
1B8
330
1F
100
AcDbEntity
  8
VERMASSUNG
100
AcDbDimension
  2
_D_2
 10
140.5048823902
 20
185.5769849857
 30
0.0
 11
188.3903730611
 21
185.5769849857
 31
0.0
 70
   160
  1
<>
 71
     2
 42
-1.0
  3
SLDDIMSTYLE0
100
AcDbAlignedDimension
 13
240.5548823902
 23
170.8230503392
 33
0.0
 14
140.5048823902
 24
174.9730503392
 34
0.0
100
AcDbRotatedDimension
  0
DIMENSION
  5
1C2
330
1F
100
AcDbEntity
  8
VERMASSUNG
100
AcDbDimension
  2
_D_3
 10
121.4548823902
 20
191.5769849857
 30
0.0
 11
181.4042595237
 21
191.5769849857
 31
0.0
 70
   160
  1
<>
 71
     2
 42
-1.0
  3
SLDDIMSTYLE0
100
AcDbAlignedDimension
 13
240.5548823902
 23
170.8230503392
 33
0.0
 14
121.4548823902
 24
166.0480503392
 34
0.0
100
AcDbRotatedDimension
  0
DIMENSION
  5
1CC
330
1F
100
AcDbEntity
  8
VERMASSUNG
100
AcDbDimension
  2
_D_4
 10
53.2048823902
 20
197.5769849857
 30
0.0
 11
154.310797938
 21
197.5769849857
 31
0.0
 70
   160
  1
<>
 71
     2
 42
-1.0
  3
SLDDIMSTYLE0
100
AcDbAlignedDimension
 13
240.5548823902
 23
170.8230503392
 33
0.0
 14
53.2048823902
 24
155.2301809362
 34
0.0
100
AcDbRotatedDimension
  0
INSERT
  5
1DB
330
1F
100
AcDbEntity
  8
VERMASSUNG
100
AcDbBlockReference
  2
SW_NOTE_0
 10
99.8530852106
 20
120.0016517804
 30
0.0
  0
LEADER
  5
1E5
330
1F
100
AcDbEntity
  8
VERMASSUNG
100
AcDbLeader
  3
SLDDIMSTYLE1
 76
     2
 10
104.2931646634
 20
129.71343772
 30
0.0
 10
99.8530852106
 20
120.0016517804
 30
0.0
  0
INSERT
  5
1EB
330
1F
100
AcDbEntity
  8
VERMASSUNG
100
AcDbBlockReference
  2
SW_NOTE_1
 10
232.2722820764
 20
179.3989226249
 30
0.0
  0
LEADER
  5
1EC
330
1F
100
AcDbEntity
  8
VERMASSUNG
100
AcDbLeader
  3
SLDDIMSTYLE1
 76
     2
 10
227.7369331978
 20
169.5999716252
 30
0.0
 10
232.2722820764
 20
179.3989226249
 30
0.0
  0
LINE
  5
1ED
330
1F
100
AcDbEntity
  8
VERMASSUNG
  6
CENTERX2
 62
     7
370
     0
100
AcDbLine
 10
226.0048823902
 20
152.3230503392
 30
0.0
 11
226.0048823902
 21
173.6329408603
 31
0.0
  0
LINE
  5
1EE
330
1F
100
AcDbEntity
  8
VERMASSUNG
  6
CENTERX2
 62
     7
370
     0
100
AcDbLine
 10
51.2048823902
 20
143.8230503392
 30
0.0
 11
242.3383332394
 21
143.8230503392
 31
0.0
  0
ARC
  5
1EF
330
1F
100
AcDbEntity
  8
0
  6
Continuous
 62
     7
370
    15
100
AcDbCircle
 10
158.4756083324
 20
41.9520989953
 30
0.0
 40
1.000000000000012
100
AcDbArc
 50
210.0
 51
270.0
  0
ARC
  5
1F0
330
1F
100
AcDbEntity
  8
0
  6
Continuous
 62
     7
370
    15
100
AcDbCircle
 10
158.4756083324
 20
94.9520989953
 30
0.0
 40
1.000000000000015
100
AcDbArc
 50
90.0
 51
150.0
  0
LINE
  5
1F1
330
1F
100
AcDbEntity
  8
0
  6
Continuous
 62
     7
370
    15
100
AcDbLine
 10
158.4756083324
 20
40.9520989953
 30
0.0
 11
240.0548823902
 21
40.9520989953
 31
0.0
  0
LINE
  5
1F2
330
1F
100
AcDbEntity
  8
0
  6
Continuous
 62
     7
370
    15
100
AcDbLine
 10
240.0548823902
 20
95.9520989953
 30
0.0
 11
158.4756083324
 21
95.9520989953
 31
0.0
  0
LINE
  5
1F3
330
1F
100
AcDbEntity
  8
0
  6
Continuous
 62
     7
370
    15
100
AcDbLine
 10
240.0548823902
 20
40.9520989953
 30
0.0
 11
240.5548823902
 21
41.4520989953
 31
0.0
  0
LINE
  5
1F4
330
1F
100
AcDbEntity
  8
0
  6
Continuous
 62
     7
370
    15
100
AcDbLine
 10
240.5548823902
 20
95.4520989953
 30
0.0
 11
240.0548823902
 21
95.9520989953
 31
0.0
  0
LINE
  5
1F5
330
1F
100
AcDbEntity
  8
0
  6
Continuous
 62
     7
370
    15
100
AcDbLine
 10
157.6095829286
 20
95.4520989953
 30
0.0
 11
156.7435575248
 21
93.9520989953
 31
0.0
  0
LINE
  5
1F6
330
1F
100
AcDbEntity
  8
0
  6
Continuous
 62
     7
370
    15
100
AcDbLine
 10
156.7435575248
 20
42.9520989953
 30
0.0
 11
157.6095829286
 21
41.4520989953
 31
0.0
  0
ARC
  5
1F7
330
1F
100
AcDbEntity
  8
0
  6
Continuous
 62
     7
370
    15
100
AcDbCircle
 10
155.877532121
 20
42.4520989953
 30
0.0
 40
1.000000000000005
100
AcDbArc
 50
30.0
 51
90.0
  0
ARC
  5
1F8
330
1F
100
AcDbEntity
  8
0
  6
Continuous
 62
     7
370
    15
100
AcDbCircle
 10
155.877532121
 20
94.4520989953
 30
0.0
 40
1.000000000000001
100
AcDbArc
 50
270.0
 51
330.0
  0
LINE
  5
1F9
330
1F
100
AcDbEntity
  8
0
  6
Continuous
 62
     7
370
    15
100
AcDbLine
 10
148.5308862146
 20
43.4520989953
 30
0.0
 11
155.877532121
 21
43.4520989953
 31
0.0
  0
LINE
  5
1FA
330
1F
100
AcDbEntity
  8
0
  6
Continuous
 62
     7
370
    15
100
AcDbLine
 10
155.877532121
 20
93.4520989953
 30
0.0
 11
148.5291208603
 21
93.4520989953
 31
0.0
  0
ARC
  5
1FB
330
1F
100
AcDbEntity
  8
0
  6
Continuous
 62
     7
370
    15
100
AcDbCircle
 10
124.0548823902
 20
45.6270989953
 30
0.0
 40
0.6000000000000014
100
AcDbArc
 50
0.0
 51
90.0
  0
ARC
  5
1FC
330
1F
100
AcDbEntity
  8
0
  6
Continuous
 62
     7
370
    15
100
AcDbCircle
 10
124.0548823902
 20
91.2770989953
 30
0.0
 40
0.5999999999999943
100
AcDbArc
 50
270.0
 51
0.0
  0
LINE
  5
1FD
330
1F
100
AcDbEntity
  8
0
  6
Continuous
 62
     7
370
    15
100
AcDbLine
 10
121.4548823902
 20
90.6770989953
 30
0.0
 11
54.0605754971
 21
80.8487625733
 31
0.0
  0
LINE
  5
1FE
330
1F
100
AcDbEntity
  8
0
  6
Continuous
 62
     7
370
    15
100
AcDbLine
 10
54.0605754971
 20
56.0554354172
 30
0.0
 11
121.4548823902
 21
46.2270989953
 31
0.0
  0
LINE
  5
1FF
330
1F
100
AcDbEntity
  8
0
  6
Continuous
 62
     7
370
    15
100
AcDbLine
 10
121.4548823902
 20
46.2270989953
 30
0.0
 11
124.0548823902
 21
46.2270989953
 31
0.0
  0
LINE
  5
200
330
1F
100
AcDbEntity
  8
0
  6
Continuous
 62
     7
370
    15
100
AcDbLine
 10
124.0548823902
 20
90.6770989953
 30
0.0
 11
121.4548823902
 21
90.6770989953
 31
0.0
  0
ARC
  5
201
330
1F
100
AcDbEntity
  8
0
  6
Continuous
 62
     7
370
    15
100
AcDbCircle
 10
54.2048823902
 20
57.0449683982
 30
0.0
 40
0.9999999999999878
100
AcDbArc
 50
180.0
 51
261.7028550302
  0
ARC
  5
202
330
1F
100
AcDbEntity
  8
0
  6
Continuous
 62
     7
370
    15
100
AcDbCircle
 10
54.2048823902
 20
79.8592295923
 30
0.0
 40
0.9999999999999949
100
AcDbArc
 50
98.2971449698
 51
180.0
  0
SPLINE
  5
203
330
1F
100
AcDbEntity
  8
0
  6
Continuous
 62
     7
370
    15
100
AcDbSpline
210
0.0
220
0.0
230
1.0
 70
     8
 71
     3
 72
     8
 73
     4
 74
     0
 42
0.000000001
 43
0.00000001
 40
0.0
 40
0.0
 40
0.0
 40
0.0
 40
1.0
 40
1.0
 40
1.0
 40
1.0
 10
130.6448823901974
 20
40.63527253575009
 30
0.0
 10
130.2607476416131
 20
39.94263111380591
 30
0.0
 10
129.8757613651201
 20
39.25044493948221
 30
0.0
 10
129.4900927864938
 20
38.55865064863804
 30
0.0
  0
SPLINE
  5
204
330
1F
100
AcDbEntity
  8
0
  6
Continuous
 62
     7
370
    15
100
AcDbSpline
210
0.0
220
0.0
230
1.0
 70
     8
 71
     3
 72
     8
 73
     4
 74
     0
 42
0.000000001
 43
0.00000001
 40
0.0
 40
0.0
 40
0.0
 40
0.0
 40
0.0011901715795577
 40
0.0011901715795577
 40
0.0011901715795577
 40
0.0011901715795577
 10
129.0330457481407
 20
38.00400664661488
 30
0.0
 10
129.1868919376367
 20
38.18857188429847
 30
0.0
 10
129.3392872053093
 20
38.3734472448271
 30
0.0
 10
129.4900927864938
 20
38.55865064863804
 30
0.0
  0
LINE
  5
205
330
1F
100
AcDbEntity
  8
0
  6
Continuous
 62
     7
370
    15
100
AcDbLine
 10
129.0330457481
 20
38.0040066466
 30
0.0
 11
129.0330457481
 21
86.8020989953
 31
0.0
  0
SPLINE
  5
206
330
1F
100
AcDbEntity
  8
0
  6
Continuous
 62
     7
370
    15
100
AcDbSpline
210
0.0
220
0.0
230
1.0
 70
    24
 71
     3
 72
     8
 73
     4
 74
     0
 42
0.000000001
 43
0.00000001
 40
0.0
 40
0.0
 40
0.0
 40
0.0
 40
1.0
 40
1.0
 40
1.0
 40
1.0
 10
130.6448823901974
 20
86.80209899525155
 30
0.0
 10
130.1201499018355
 20
86.80209899525155
 30
0.0
 10
129.5814744176167
 20
86.80209899525155
 30
0.0
 10
129.0330457481407
 20
86.80209899525155
 30
0.0
  0
LINE
  5
207
330
1F
100
AcDbEntity
  8
0
  6
Continuous
 62
     7
370
    15
100
AcDbLine
 10
130.6448823902
 20
40.6352725358
 30
0.0
 11
130.6448823902
 21
86.8020989953
 31
0.0
  0
LINE
  5
208
330
1F
100
AcDbEntity
  8
0
  6
Continuous
 62
     7
370
    15
100
AcDbLine
 10
136.0767190323
 20
38.0040066466
 30
0.0
 11
139.9048823902
 21
38.0040066466
 31
0.0
  0
LINE
  5
209
330
1F
100
AcDbEntity
  8
0
  6
Continuous
 62
     7
370
    15
100
AcDbLine
 10
136.0767190323
 20
38.0040066466
 30
0.0
 11
136.0767190323
 21
86.8020989953
 31
0.0
  0
LINE
  5
20A
330
1F
100
AcDbEntity
  8
0
  6
Continuous
 62
     7
370
    15
100
AcDbLine
 10
139.9048823902
 20
86.8020989953
 30
0.0
 11
136.0767190323
 21
86.8020989953
 31
0.0
  0
SPLINE
  5
20B
330
1F
100
AcDbEntity
  8
0
  6
Continuous
 62
     7
370
    15
100
AcDbSpline
210
0.0
220
0.0
230
1.0
 70
     8
 71
     3
 72
    12
 73
     8
 74
     0
 42
0.000000001
 43
0.00000001
 40
0.0
 40
0.0
 40
0.0
 40
0.0
 40
0.249999999999999
 40
0.249999999999999
 40
0.499999999999998
 40
0.499999999999998
 40
1.0
 40
1.0
 40
1.0
 40
1.0
 10
139.9048823901974
 20
38.00400664661488
 30
0.0
 10
140.0004243003334
 20
38.00400664661489
 30
0.0
 10
140.0925692421962
 20
38.02026031581109
 30
0.0
 10
140.2488955188061
 20
38.07386873672457
 30
0.0
 10
140.3125636614261
 20
38.11027986200625
 30
0.0
 10
140.4614315068565
 20
38.23240350169274
 30
0.0
 10
140.5048823901974
 20
38.32755617712977
 30
0.0
 10
140.5048823901974
 20
38.42318263274946
 30
0.0
  0
SPLINE
  5
20C
330
1F
100
AcDbEntity
  8
0
  6
Continuous
 62
     7
370
    15
100
AcDbSpline
210
0.0
220
0.0
230
1.0
 70
    24
 71
     3
 72
    12
 73
     8
 74
     0
 42
0.000000001
 43
0.00000001
 40
0.0
 40
0.0
 40
0.0
 40
0.0
 40
0.4999999999999971
 40
0.4999999999999971
 40
0.7499999999999986
 40
0.7499999999999986
 40
1.0
 40
1.0
 40
1.0
 40
1.0
 10
140.5048823901974
 20
86.80209899525155
 30
0.0
 10
140.5048823901974
 20
86.80209899525155
 30
0.0
 10
140.4552023952424
 20
86.80209899525155
 30
0.0
 10
140.2992838382249
 20
86.80209899525155
 30
0.0
 10
140.2334027736487
 20
86.80209899525155
 30
0.0
 10
140.08075711816
 20
86.80209899525155
 30
0.0
 10
139.993507210299
 20
86.80209899525155
 30
0.0
 10
139.9048823901973
 20
86.80209899525155
 30
0.0
  0
LINE
  5
20D
330
1F
100
AcDbEntity
  8
0
  6
Continuous
 62
     7
370
    15
100
AcDbLine
 10
140.5048823902
 20
38.4231826327
 30
0.0
 11
140.5048823902
 21
86.8020989953
 31
0.0
  0
LINE
  5
20E
330
1F
100
AcDbEntity
  8
0
  6
Continuous
 62
     7
370
    15
100
AcDbLine
 10
125.2548823902
 20
38.0040066466
 30
0.0
 11
129.0330457481
 21
38.0040066466
 31
0.0
  0
LINE
  5
20F
330
1F
100
AcDbEntity
  8
0
  6
Continuous
 62
     7
370
    15
100
AcDbLine
 10
129.0330457481
 20
86.8020989953
 30
0.0
 11
125.2548823902
 21
86.8020989953
 31
0.0
  0
SPLINE
  5
210
330
1F
100
AcDbEntity
  8
0
  6
Continuous
 62
     7
370
    15
100
AcDbSpline
210
0.0
220
0.0
230
1.0
 70
     8
 71
     3
 72
     8
 73
     4
 74
     0
 42
0.000000001
 43
0.00000001
 40
0.0
 40
0.0
 40
0.0
 40
0.0
 40
0.0011901715795577
 40
0.0011901715795577
 40
0.0011901715795577
 40
0.0011901715795577
 10
135.6196719939011
 20
38.55865064863804
 30
0.0
 10
135.7704775750856
 20
38.3734472448271
 30
0.0
 10
135.9228728427582
 20
38.18857188429847
 30
0.0
 10
136.0767190322541
 20
38.00400664661488
 30
0.0
  0
SPLINE
  5
211
330
1F
100
AcDbEntity
  8
0
  6
Continuous
 62
     7
370
    15
100
AcDbSpline
210
0.0
220
0.0
230
1.0
 70
     8
 71
     3
 72
     8
 73
     4
 74
     0
 42
0.000000001
 43
0.00000001
 40
0.0
 40
0.0
 40
0.0
 40
0.0
 40
1.0
 40
1.0
 40
1.0
 40
1.0
 10
135.6196719939011
 20
38.55865064863804
 30
0.0
 10
135.2340034152747
 20
39.25044493948221
 30
0.0
 10
134.8490171387818
 20
39.94263111380591
 30
0.0
 10
134.4648823901974
 20
40.63527253575008
 30
0.0
  0
LINE
  5
212
330
1F
100
AcDbEntity
  8
0
  6
Continuous
 62
     7
370
    15
100
AcDbLine
 10
134.4648823902
 20
40.6352725358
 30
0.0
 11
134.4648823902
 21
86.8020989953
 31
0.0
  0
SPLINE
  5
213
330
1F
100
AcDbEntity
  8
0
  6
Continuous
 62
     7
370
    15
100
AcDbSpline
210
0.0
220
0.0
230
1.0
 70
    24
 71
     3
 72
     8
 73
     4
 74
     0
 42
0.000000001
 43
0.00000001
 40
0.0
 40
0.0
 40
0.0
 40
0.0
 40
1.0
 40
1.0
 40
1.0
 40
1.0
 10
136.0767190322541
 20
86.80209899525155
 30
0.0
 10
135.5282903627781
 20
86.80209899525155
 30
0.0
 10
134.9896148785593
 20
86.80209899525155
 30
0.0
 10
134.4648823901974
 20
86.80209899525155
 30
0.0
  0
SPLINE
  5
214
330
1F
100
AcDbEntity
  8
0
  6
Continuous
 62
     7
370
    15
100
AcDbSpline
210
0.0
220
0.0
230
1.0
 70
     8
 71
     3
 72
    10
 73
     6
 74
     0
 42
0.000000001
 43
0.00000001
 40
0.0
 40
0.0
 40
0.0
 40
0.0
 40
0.5
 40
0.5
 40
1.0
 40
1.0
 40
1.0
 40
1.0
 10
124.8710269315446
 20
38.10036914578335
 30
0.0
 10
124.919796904526
 20
38.07214113857533
 30
0.0
 10
124.9772490278283
 20
38.04804653433373
 30
0.0
 10
125.107845930817
 20
38.01378306124118
 30
0.0
 10
125.1803356106592
 20
38.00400664661488
 30
0.0
 10
125.2548823901974
 20
38.00400664661488
 30
0.0
  0
SPLINE
  5
215
330
1F
100
AcDbEntity
  8
0
  6
Continuous
 62
     7
370
    15
100
AcDbSpline
210
0.0
220
0.0
230
1.0
 70
     8
 71
     3
 72
    10
 73
     6
 74
     0
 42
0.000000001
 43
0.00000001
 40
0.0
 40
0.0
 40
0.0
 40
0.0
 40
0.5
 40
0.5
 40
1.0
 40
1.0
 40
1.0
 40
1.0
 10
124.8710269315446
 20
38.10036914578335
 30
0.0
 10
124.8129042714685
 20
38.16767430564516
 30
0.0
 10
124.760501105465
 20
38.2477596926788
 30
0.0
 10
124.6815980839187
 20
38.43177913436756
 30
0.0
 10
124.6548823901974
 20
38.536990491788
 30
0.0
 10
124.6548823901974
 20
38.64572383824864
 30
0.0
  0
LINE
  5
216
330
1F
100
AcDbEntity
  8
0
  6
Continuous
 62
     7
370
    15
100
AcDbLine
 10
124.6548823902
 20
38.6457238382
 30
0.0
 11
124.6548823902
 21
86.8020989953
 31
0.0
  0
SPLINE
  5
217
330
1F
100
AcDbEntity
  8
0
  6
Continuous
 62
     7
370
    15
100
AcDbSpline
210
0.0
220
0.0
230
1.0
 70
    24
 71
     3
 72
    12
 73
     8
 74
     0
 42
0.000000001
 43
0.00000001
 40
0.0
 40
0.0
 40
0.0
 40
0.0
 40
0.25
 40
0.25
 40
0.5
 40
0.5
 40
1.0
 40
1.0
 40
1.0
 40
1.0
 10
125.2548823901974
 20
86.80209899525155
 30
0.0
 10
125.1664670128869
 20
86.80209899525155
 30
0.0
 10
125.0791965757164
 20
86.80209899525155
 30
0.0
 10
124.9267328509445
 20
86.80209899525155
 30
0.0
 10
124.8610942387221
 20
86.80209899525155
 30
0.0
 10
124.7044358374382
 20
86.80209899525155
 30
0.0
 10
124.6548823901974
 20
86.80209899525155
 30
0.0
 10
124.6548823901974
 20
86.80209899525155
 30
0.0
  0
SPLINE
  5
218
330
1F
100
AcDbEntity
  8
0
  6
Continuous
 62
     7
370
    15
100
AcDbSpline
210
0.0
220
0.0
230
1.0
 70
     8
 71
     3
 72
    12
 73
     8
 74
     0
 42
0.000000001
 43
0.00000001
 40
0.0
 40
0.0
 40
0.0
 40
0.0
 40
0.2500000000000015
 40
0.2500000000000015
 40
0.500000000000003
 40
0.500000000000003
 40
1.0
 40
1.0
 40
1.0
 40
1.0
 10
131.4448823901974
 20
41.63424113896482
 30
0.0
 10
131.33848053984
 20
41.63424113896482
 30
0.0
 10
131.2311651284435
 20
41.61147037494631
 30
0.0
 10
131.0356935374162
 20
41.52522742829421
 30
0.0
 10
130.9455114214786
 20
41.46055110782368
 30
0.0
 10
130.7272899347579
 20
41.22762178376688
 30
0.0
 10
130.6448823901971
 20
41.01303654587586
 30
0.0
 10
130.6448823901974
 20
40.80001950744314
 30
0.0
  0
SPLINE
  5
219
330
1F
100
AcDbEntity
  8
0
  6
Continuous
 62
     7
370
    15
100
AcDbSpline
210
0.0
220
0.0
230
1.0
 70
    24
 71
     3
 72
    14
 73
    10
 74
     0
 42
0.000000001
 43
0.00000001
 40
0.0
 40
0.0
 40
0.0
 40
0.0
 40
0.1250000000000007
 40
0.1250000000000007
 40
0.2500000000000014
 40
0.2500000000000014
 40
0.499999999999999
 40
0.499999999999999
 40
1.0
 40
1.0
 40
1.0
 40
1.0
 10
131.4448823901974
 20
86.80209899525155
 30
0.0
 10
131.3842650667798
 20
86.80209899525155
 30
0.0
 10
131.3221399186448
 20
86.80209899525155
 30
0.0
 10
131.2059222556234
 20
86.80209899525155
 30
0.0
 10
131.151305615931
 20
86.80209899525155
 30
0.0
 10
130.9966292774228
 20
86.80209899525155
 30
0.0
 10
130.9105125286388
 20
86.80209899525155
 30
0.0
 10
130.7092049480982
 20
86.80209899525155
 30
0.0
 10
130.6448823901974
 20
86.80209899525155
 30
0.0
 10
130.6448823901974
 20
86.80209899525155
 30
0.0
  0
SPLINE
  5
21A
330
1F
100
AcDbEntity
  8
0
  6
Continuous
 62
     7
370
    15
100
AcDbSpline
210
0.0
220
0.0
230
1.0
 70
     8
 71
     3
 72
    12
 73
     8
 74
     0
 42
0.000000001
 43
0.00000001
 40
0.0
 40
0.0
 40
0.0
 40
0.0
 40
0.5000000000000013
 40
0.5000000000000013
 40
0.7500000000000007
 40
0.7500000000000007
 40
1.0
 40
1.0
 40
1.0
 40
1.0
 10
134.4648823901974
 20
40.8000195074445
 30
0.0
 10
134.4648823901974
 20
41.01284206637737
 30
0.0
 10
134.3829570323777
 20
41.22709857301535
 30
0.0
 10
134.1640352289093
 20
41.46078820146523
 30
0.0
 10
134.0739879374183
 20
41.52527302630921
 30
0.0
 10
133.8785744693984
 20
41.61147263746479
 30
0.0
 10
133.7712915024146
 20
41.63424113896482
 30
0.0
 10
133.6648823901974
 20
41.63424113896482
 30
0.0
  0
SPLINE
  5
21B
330
1F
100
AcDbEntity
  8
0
  6
Continuous
 62
     7
370
    15
100
AcDbSpline
210
0.0
220
0.0
230
1.0
 70
    24
 71
     3
 72
    14
 73
    10
 74
     0
 42
0.000000001
 43
0.00000001
 40
0.0
 40
0.0
 40
0.0
 40
0.0
 40
0.25
 40
0.25
 40
0.5
 40
0.5
 40
0.75
 40
0.75
 40
1.0
 40
1.0
 40
1.0
 40
1.0
 10
134.4648823901974
 20
86.80209899525155
 30
0.0
 10
134.4648823901974
 20
86.80209899525155
 30
0.0
 10
134.4488007887376
 20
86.80209899525155
 30
0.0
 10
134.3833092754707
 20
86.80209899525155
 30
0.0
 10
134.3340013023434
 20
86.80209899525155
 30
0.0
 10
134.1994317806464
 20
86.80209899525155
 30
0.0
 10
134.1139087045612
 20
86.80209899525155
 30
0.0
 10
133.9069132090061
 20
86.80209899525155
 30
0.0
 10
133.7862195750625
 20
86.80209899525155
 30
0.0
 10
133.6648823901975
 20
86.80209899525155
 30
0.0
  0
LINE
  5
21C
330
1F
100
AcDbEntity
  8
0
  6
Continuous
 62
     7
370
    15
100
AcDbLine
 10
133.6648823902
 20
41.634241139
 30
0.0
 11
131.4448823902
 21
41.634241139
 31
0.0
  0
LINE
  5
21D
330
1F
100
AcDbEntity
  8
0
  6
Continuous
 62
     7
370
    15
100
AcDbLine
 10
133.6648823902
 20
86.8020989953
 30
0.0
 11
131.4448823902
 21
86.8020989953
 31
0.0
  0
LINE
  5
21E
330
1F
100
AcDbEntity
  8
0
  6
Continuous
 62
     7
370
    15
100
AcDbLine
 10
240.0548823902
 20
40.9520989953
 30
0.0
 11
240.0548823902
 21
95.9520989953
 31
0.0
  0
SPLINE
  5
21F
330
1F
100
AcDbEntity
  8
0
  6
Continuous
 62
     7
370
    15
100
AcDbSpline
210
0.0
220
0.0
230
1.0
 70
     8
 71
     3
 72
    48
 73
    44
 74
     0
 42
0.000000001
 43
0.00000001
 40
0.0
 40
0.0
 40
0.0
 40
0.0
 40
0.0312499999999993
 40
0.0312499999999993
 40
0.0624999999999986
 40
0.0624999999999986
 40
0.1249999999999971
 40
0.1249999999999971
 40
0.1562499999999963
 40
0.1562499999999963
 40
0.1874999999999956
 40
0.1874999999999956
 40
0.2187499999999949
 40
0.2187499999999949
 40
0.2499999999999942
 40
0.2499999999999942
 40
0.312499999999993
 40
0.312499999999993
 40
0.3437499999999932
 40
0.3437499999999932
 40
0.3749999999999934
 40
0.3749999999999934
 40
0.4374999999999939
 40
0.4374999999999939
 40
0.4999999999999943
 40
0.4999999999999943
 40
0.5624999999999948
 40
0.5624999999999948
 40
0.6249999999999952
 40
0.6249999999999952
 40
0.6874999999999957
 40
0.6874999999999957
 40
0.7499999999999961
 40
0.7499999999999961
 40
0.8124999999999966
 40
0.8124999999999966
 40
0.874999999999997
 40
0.874999999999997
 40
0.9062499999999976
 40
0.9062499999999976
 40
0.9374999999999982
 40
0.9374999999999982
 40
1.0
 40
1.0
 40
1.0
 40
1.0
 10
233.2548823901974
 20
68.45209899525155
 30
0.0
 10
233.2548823901974
 20
68.2278011361547
 30
0.0
 10
233.2417643233727
 20
68.00366049459427
 30
0.0
 10
233.1889848877064
 20
67.55569713218587
 30
0.0
 10
233.1488925920495
 20
67.33045463323636
 30
0.0
 10
232.9912863814837
 20
66.6707049797534
 30
0.0
 10
232.8372666281561
 20
66.24924335892385
 30
0.0
 10
232.536867367758
 20
65.64289785395083
 30
0.0
 10
232.4247168042252
 20
65.44485130821825
 30
0.0
 10
232.182659777844
 20
65.06590312591123
 30
0.0
 10
232.0522380702582
 20
64.88382844791421
 30
0.0
 10
231.7734594581561
 20
64.53372037844221
 30
0.0
 10
231.62509969027
 20
64.3656893943285
 30
0.0
 10
231.3106831512687
 20
64.04338920320622
 30
0.0
 10
231.1445206527995
 20
63.88921726843484
 30
0.0
 10
230.6298013118474
 20
63.45554754929562
 30
0.0
 10
230.2621222234494
 20
63.20129515136573
 30
0.0
 10
229.67534920881
 20
62.86928298606526
 30
0.0
 10
229.4728807209378
 20
62.76651974815012
 30
0.0
 10
229.0622896211157
 20
62.58058336406677
 30
0.0
 10
228.8539193293063
 20
62.49715111072102
 30
0.0
 10
228.2198738122285
 20
62.27440021894686
 30
0.0
 10
227.7853370506843
 20
62.16239268575047
 30
0.0
 10
226.8922309614402
 20
62.01182594281168
 30
0.0
 10
226.4406222524879
 20
61.97491532526242
 30
0.0
 10
225.5437883603675
 20
61.97632837484853
 30
0.0
 10
225.0959955148414
 20
62.01419475259797
 30
0.0
 10
224.2017094970306
 20
62.16754902001095
 30
0.0
 10
223.766008483933
 20
62.28138968104744
 30
0.0
 10
222.9238078501338
 20
62.58014679666834
 30
0.0
 10
222.5161049821703
 20
62.76521696882159
 30
0.0
 10
221.7294405267309
 20
63.21290805001528
 30
0.0
 10
221.3630892272605
 20
63.46836659832503
 30
0.0
 10
220.6841943329965
 20
64.04321167521238
 30
0.0
 10
220.3701118230894
 20
64.36437817025791
 30
0.0
 10
219.8088601959441
 20
65.07186763605169
 30
0.0
 10
219.5691123407705
 20
65.44816855386385
 30
0.0
 10
219.2724529409136
 20
66.04775231251564
 30
0.0
 10
219.1841387691062
 20
66.25351162004524
 30
0.0
 10
219.0300247474119
 20
66.67764340366656
 30
0.0
 10
218.964214823604
 20
66.89688712738996
 30
0.0
 10
218.807680586926
 20
67.5550939492504
 30
0.0
 10
218.7548823901974
 20
68.00030704672916
 30
0.0
 10
218.7548823901974
 20
68.45209899525155
 30
0.0
  0
SPLINE
  5
220
330
1F
100
AcDbEntity
  8
0
  6
Continuous
 62
     7
370
    15
100
AcDbSpline
210
0.0
220
0.0
230
1.0
 70
     8
 71
     3
 72
    52
 73
    48
 74
     0
 42
0.000000001
 43
0.00000001
 40
0.0
 40
0.0
 40
0.0
 40
0.0
 40
0.0312500000000006
 40
0.0312500000000006
 40
0.0625000000000013
 40
0.0625000000000013
 40
0.0937500000000019
 40
0.0937500000000019
 40
0.1250000000000026
 40
0.1250000000000026
 40
0.187500000000003
 40
0.187500000000003
 40
0.2500000000000034
 40
0.2500000000000034
 40
0.3125000000000039
 40
0.3125000000000039
 40
0.3750000000000043
 40
0.3750000000000043
 40
0.4375000000000048
 40
0.4375000000000048
 40
0.4687500000000051
 40
0.4687500000000051
 40
0.5000000000000053
 40
0.5000000000000053
 40
0.5625000000000038
 40
0.5625000000000038
 40
0.593750000000004
 40
0.593750000000004
 40
0.6250000000000042
 40
0.6250000000000042
 40
0.6875000000000047
 40
0.6875000000000047
 40
0.7187500000000049
 40
0.7187500000000049
 40
0.750000000000005
 40
0.750000000000005
 40
0.8125000000000041
 40
0.8125000000000041
 40
0.8437500000000031
 40
0.8437500000000031
 40
0.875000000000002
 40
0.875000000000002
 40
0.9375000000000008
 40
0.9375000000000008
 40
0.9687500000000003
 40
0.9687500000000003
 40
1.0
 40
1.0
 40
1.0
 40
1.0
 10
218.7548823901974
 20
68.45209899525155
 30
0.0
 10
218.7548823901974
 20
68.67803863239932
 30
0.0
 10
218.7684797707054
 20
68.90704729944079
 30
0.0
 10
218.822040857576
 20
69.35668051185205
 30
0.0
 10
218.8618369845523
 20
69.57833784301212
 30
0.0
 10
218.9665529642514
 20
70.01556560900652
 30
0.0
 10
219.031475092043
 20
70.2311354737656
 30
0.0
 10
219.1863704097179
 20
70.65622434738535
 30
0.0
 10
219.2766250138626
 20
70.86589519354446
 30
0.0
 10
219.57765760765
 20
71.47117762978954
 30
0.0
 10
219.8200669416286
 20
71.84861288476434
 30
0.0
 10
220.3837368452325
 20
72.55474182372046
 30
0.0
 10
220.7011817748422
 20
72.8779195169895
 30
0.0
 10
221.394063742071
 20
73.4593261336232
 30
0.0
 10
221.7635233814156
 20
73.7129086501007
 30
0.0
 10
222.5404405986465
 20
74.15043440521775
 30
0.0
 10
222.9499165632872
 20
74.33532311831219
 30
0.0
 10
223.8037617501092
 20
74.6340340497064
 30
0.0
 10
224.2383446798895
 20
74.74468101787721
 30
0.0
 10
224.9012009203459
 20
74.85562781094174
 30
0.0
 10
225.1239954604674
 20
74.88337481654504
 30
0.0
 10
225.5733234081789
 20
74.92016888578985
 30
0.0
 10
225.8009283899912
 20
74.92917346778361
 30
0.0
 10
226.4787462016889
 20
74.92732133502211
 30
0.0
 10
226.9252567686758
 20
74.88835507973084
 30
0.0
 10
227.5871455807842
 20
74.77436712855483
 30
0.0
 10
227.8064545625407
 20
74.7270566851158
 30
0.0
 10
228.2423629463653
 20
74.61325486173439
 30
0.0
 10
228.4597649893007
 20
74.54640290794994
 30
0.0
 10
229.0956498762752
 20
74.32016148817665
 30
0.0
 10
229.5013221716186
 20
74.13475284797526
 30
0.0
 10
230.0823416128261
 20
73.80389527276031
 30
0.0
 10
230.2714035233466
 20
73.68476026548763
 30
0.0
 10
230.6398804329029
 20
73.42784326229481
 30
0.0
 10
230.8196141965991
 20
73.28962662371443
 30
0.0
 10
231.3318439058244
 20
72.85520835687217
 30
0.0
 10
231.6417781079809
 20
72.53686512864164
 30
0.0
 10
232.0571771976471
 20
72.01364360754106
 30
0.0
 10
232.1873333738984
 20
71.83156391664185
 30
0.0
 10
232.4297811108103
 20
71.45080864724856
 30
0.0
 10
232.5410727364832
 20
71.25339967045527
 30
0.0
 10
232.8385471588795
 20
70.65116490543393
 30
0.0
 10
232.9915330216384
 20
70.23219375536502
 30
0.0
 10
233.1484887473664
 20
69.57556692143187
 30
0.0
 10
233.1887350411289
 20
69.35025641415031
 30
0.0
 10
233.2417598535313
 20
68.90093869272658
 30
0.0
 10
233.2548823901974
 20
68.67644020833917
 30
0.0
 10
233.2548823901974
 20
68.45209899525155
 30
0.0
  0
LINE
  5
221
330
1F
100
AcDbEntity
  8
0
  6
Continuous
 62
     7
370
    15
100
AcDbLine
 10
240.5548823902
 20
41.4520989953
 30
0.0
 11
240.5548823902
 21
95.4520989953
 31
0.0
  0
SPLINE
  5
222
330
1F
100
AcDbEntity
  8
0
  6
Continuous
 62
     7
370
    15
100
AcDbSpline
210
0.0
220
0.0
230
1.0
 70
    24
 71
     3
 72
    18
 73
    14
 74
     0
 42
0.000000001
 43
0.00000001
 40
0.0
 40
0.0
 40
0.0
 40
0.0
 40
0.0312499999999996
 40
0.0312499999999996
 40
0.0624999999999992
 40
0.0624999999999992
 40
0.1249999999999985
 40
0.1249999999999985
 40
0.2499999999999982
 40
0.2499999999999982
 40
0.4999999999999988
 40
0.4999999999999988
 40
1.0
 40
1.0
 40
1.0
 40
1.0
 10
141.5048823901974
 20
93.25209899525156
 30
0.0
 10
141.4680282844388
 20
93.25209899525156
 30
0.0
 10
141.4326257964789
 20
93.25209899525156
 30
0.0
 10
141.3746084028508
 20
93.25209899525154
 30
0.0
 10
141.3505343990624
 20
93.25209899525156
 30
0.0
 10
141.2855152739137
 20
93.25209899525156
 30
0.0
 10
141.2510907645016
 20
93.25209899525156
 30
0.0
 10
141.1585124675152
 20
93.25209899525156
 30
0.0
 10
141.1103027871344
 20
93.25209899525156
 30
0.0
 10
140.9779279633677
 20
93.25209899525156
 30
0.0
 10
140.9090303340372
 20
93.25209899525156
 30
0.0
 10
140.7257206572001
 20
93.25209899525156
 30
0.0
 10
140.6369618175789
 20
93.25209899525156
 30
0.0
 10
140.5778427806519
 20
93.25209899525156
 30
0.0
  0
SPLINE
  5
223
330
1F
100
AcDbEntity
  8
0
  6
Continuous
 62
     7
370
    15
100
AcDbSpline
210
0.0
220
0.0
230
1.0
 70
     8
 71
     3
 72
    10
 73
     6
 74
     0
 42
0.000000001
 43
0.00000001
 40
0.0
 40
0.0
 40
0.0
 40
0.0
 40
0.5
 40
0.5
 40
1.0
 40
1.0
 40
1.0
 40
1.0
 10
141.5048823901974
 20
44.76249156920922
 30
0.0
 10
141.3274416382841
 20
44.76998180527443
 30
0.0
 10
141.1508224747716
 20
44.72419338072196
 30
0.0
 10
140.8473712504571
 20
44.5427231009481
 30
0.0
 10
140.7213482677366
 20
44.40723334811452
 30
0.0
 10
140.6368842108282
 20
44.25209899525174
 30
0.0
  0
SPLINE
  5
224
330
1F
100
AcDbEntity
  8
0
  6
Continuous
 62
     7
370
    15
100
AcDbSpline
210
0.0
220
0.0
230
1.0
 70
     8
 71
     3
 72
     8
 73
     4
 74
     0
 42
0.000000001
 43
0.00000001
 40
0.0
 40
0.0
 40
0.0
 40
0.0
 40
1.0
 40
1.0
 40
1.0
 40
1.0
 10
140.5048823901974
 20
86.87158595879099
 30
0.0
 10
140.5048823901974
 20
86.84844711920414
 30
0.0
 10
140.505285221616
 20
86.8252848295918
 30
0.0
 10
140.5060925110064
 20
86.8020989952516
 30
0.0
  0
SPLINE
  5
225
330
1F
100
AcDbEntity
  8
0
  6
Continuous
 62
     7
370
    15
100
AcDbSpline
210
0.0
220
0.0
230
1.0
 70
     8
 71
     3
 72
    14
 73
    10
 74
     0
 42
0.000000001
 43
0.00000001
 40
0.0
 40
0.0
 40
0.0
 40
0.0
 40
0.0632946075515393
 40
0.2483034310786993
 40
0.4246496472194809
 40
0.6058174326334218
 40
0.787817232198385
 40
0.9747087674420183
 40
1.0
 40
1.0
 40
1.0
 40
1.0
 10
148.5308862146038
 20
43.4598114864996
 30
0.0
 10
148.5373303112735
 20
43.45774066391887
 30
0.0
 10
148.5626103686936
 20
43.44961686993641
 30
0.0
 10
148.3851784670927
 20
43.50674362110917
 30
0.0
 10
148.0058771576506
 20
43.62475527351592
 30
0.0
 10
147.4241711364493
 20
43.79581329495846
 30
0.0
 10
146.6547338098096
 20
44.00220544847791
 30
0.0
 10
145.9871721370782
 20
44.15996806991915
 30
0.0
 10
145.5956106659236
 20
44.24228695412354
 30
0.0
 10
145.5489382978971
 20
44.25209899525155
 30
0.0
  0
SPLINE
  5
226
330
1F
100
AcDbEntity
  8
0
  6
Continuous
 62
     7
370
    15
100
AcDbSpline
210
0.0
220
0.0
230
1.0
 70
     8
 71
     3
 72
    12
 73
     8
 74
     0
 42
0.000000001
 43
0.00000001
 40
0.0
 40
0.0
 40
0.0
 40
0.0
 40
0.4999999999999991
 40
0.4999999999999991
 40
0.7499999999999996
 40
0.7499999999999996
 40
1.0
 40
1.0
 40
1.0
 40
1.0
 10
145.5489382978971
 20
44.25209899525155
 30
0.0
 10
144.9720556453361
 20
44.37233983623087
 30
0.0
 10
144.3431747491222
 20
44.48395751973515
 30
0.0
 10
143.3188538538994
 20
44.61931926253936
 30
0.0
 10
142.9636259511348
 20
44.6589355406666
 30
0.0
 10
142.2444545918142
 20
44.72246944224791
 30
0.0
 10
141.8781562006398
 20
44.74673470993632
 30
0.0
 10
141.5048823901974
 20
44.76249156920922
 30
0.0
  0
LINE
  5
227
330
1F
100
AcDbEntity
  8
0
  6
Continuous
 62
     7
370
    15
100
AcDbLine
 10
147.9104546166
 20
93.2520989953
 30
0.0
 11
141.5048823902
 21
93.2520989953
 31
0.0
  0
SPLINE
  5
228
330
1F
100
AcDbEntity
  8
0
  6
Continuous
 62
     7
370
    15
100
AcDbSpline
210
0.0
220
0.0
230
1.0
 70
     8
 71
     3
 72
    10
 73
     6
 74
     0
 42
0.000000001
 43
0.00000001
 40
0.0
 40
0.0
 40
0.0
 40
0.0
 40
0.2002212848417091
 40
0.6082979976457659
 40
1.0
 40
1.0
 40
1.0
 40
1.0
 10
148.5291208603113
 20
93.44381568854593
 30
0.0
 10
148.5336963209409
 20
93.44530151337585
 30
0.0
 10
148.547597158414
 20
93.44981564018111
 30
0.0
 10
148.3540306266875
 20
93.38698707440794
 30
0.0
 10
148.0562812412097
 20
93.29644375880726
 30
0.0
 10
147.9104546165686
 20
93.25209899525156
 30
0.0
  0
LINE
  5
229
330
1F
100
AcDbEntity
  8
0
  6
Continuous
 62
     7
370
    15
100
AcDbLine
 10
121.4548823902
 20
46.2270989953
 30
0.0
 11
121.4548823902
 21
90.6770989953
 31
0.0
  0
SPLINE
  5
22A
330
1F
100
AcDbEntity
  8
0
  6
Continuous
 62
     7
370
    15
100
AcDbSpline
210
0.0
220
0.0
230
1.0
 70
     8
 71
     3
 72
    12
 73
     8
 74
     0
 42
0.000000001
 43
0.00000001
 40
0.0
 40
0.0
 40
0.0
 40
0.0
 40
0.4999999999999986
 40
0.4999999999999986
 40
0.7499999999999992
 40
0.7499999999999992
 40
1.0
 40
1.0
 40
1.0
 40
1.0
 10
140.5048823901974
 20
98.46265012869276
 30
0.0
 10
140.5048823901974
 20
98.58297716174586
 30
0.0
 10
140.4510875786044
 20
98.70107473522765
 30
0.0
 10
140.2901640086382
 20
98.84071747766666
 30
0.0
 10
140.2254125475357
 20
98.87899343106112
 30
0.0
 10
140.073192364218
 20
98.93383326069555
 30
0.0
 10
139.990384848693
 20
98.94843507446713
 30
0.0
 10
139.9048823901974
 20
98.94843507446711
 30
0.0
  0
LINE
  5
22B
330
1F
100
AcDbEntity
  8
0
  6
Continuous
 62
     7
370
    15
100
AcDbLine
 10
140.5048823902
 20
93.6235113513
 30
0.0
 11
140.5048823902
 21
98.4626501287
 31
0.0
  0
SPLINE
  5
22C
330
1F
100
AcDbEntity
  8
0
  6
Continuous
 62
     7
370
    15
100
AcDbSpline
210
0.0
220
0.0
230
1.0
 70
     8
 71
     3
 72
    14
 73
    10
 74
     0
 42
0.000000001
 43
0.00000001
 40
0.0
 40
0.0
 40
0.0
 40
0.0
 40
0.25
 40
0.25
 40
0.5
 40
0.5
 40
0.75
 40
0.75
 40
1.0
 40
1.0
 40
1.0
 40
1.0
 10
139.9048823901974
 20
94.36232863529912
 30
0.0
 10
139.9933049283199
 20
94.36232863529912
 30
0.0
 10
140.0813589180129
 20
94.33725628483971
 30
0.0
 10
140.2331886818843
 20
94.2509142198684
 30
0.0
 10
140.2990316264481
 20
94.18937096535554
 30
0.0
 10
140.4028306869936
 20
94.04754321910463
 30
0.0
 10
140.4413027964683
 20
93.96749462913456
 30
0.0
 10
140.4925254597429
 20
93.79848213246086
 30
0.0
 10
140.5048823901974
 20
93.71170282559122
 30
0.0
 10
140.5048823901974
 20
93.6235113513352
 30
0.0
  0
LINE
  5
22D
330
1F
100
AcDbEntity
  8
0
  6
Continuous
 62
     7
370
    15
100
AcDbLine
 10
139.9048823902
 20
98.9484350745
 30
0.0
 11
136.0767190323
 21
98.9484350745
 31
0.0
  0
LINE
  5
22E
330
1F
100
AcDbEntity
  8
0
  6
Continuous
 62
     7
370
    15
100
AcDbLine
 10
136.0767190323
 20
94.3623286353
 30
0.0
 11
139.9048823902
 21
94.3623286353
 31
0.0
  0
LINE
  5
22F
330
1F
100
AcDbEntity
  8
0
  6
Continuous
 62
     7
370
    15
100
AcDbLine
 10
136.0767190323
 20
94.3623286353
 30
0.0
 11
136.0767190323
 21
98.9484350745
 31
0.0
  0
SPLINE
  5
230
330
1F
100
AcDbEntity
  8
0
  6
Continuous
 62
     7
370
    15
100
AcDbSpline
210
0.0
220
0.0
230
1.0
 70
     8
 71
     3
 72
     8
 73
     4
 74
     0
 42
0.000000001
 43
0.00000001
 40
0.0
 40
0.0
 40
0.0
 40
0.0
 40
1.0
 40
1.0
 40
1.0
 40
1.0
 10
135.5188370764934
 20
98.16463715151603
 30
0.0
 10
135.1668930535852
 20
97.5330757635022
 30
0.0
 10
134.815534630525
 20
96.90119386380339
 30
0.0
 10
134.4648823901974
 20
96.26892545475302
 30
0.0
  0
SPLINE
  5
231
330
1F
100
AcDbEntity
  8
0
  6
Continuous
 62
     7
370
    15
100
AcDbSpline
210
0.0
220
0.0
230
1.0
 70
     8
 71
     3
 72
     8
 73
     4
 74
     0
 42
0.000000001
 43
0.00000001
 40
0.0
 40
0.0
 40
0.0
 40
0.0
 40
0.0012409313617635
 40
0.0012409313617635
 40
0.0012409313617635
 40
0.0012409313617635
 10
136.0767190322541
 20
98.94843507446711
 30
0.0
 10
135.8900461040219
 20
98.68742319676855
 30
0.0
 10
135.7040609160494
 20
98.42616469499319
 30
0.0
 10
135.5188370764934
 20
98.16463715151603
 30
0.0
  0
SPLINE
  5
232
330
1F
100
AcDbEntity
  8
0
  6
Continuous
 62
     7
370
    15
100
AcDbSpline
210
0.0
220
0.0
230
1.0
 70
     8
 71
     3
 72
     8
 73
     4
 74
     0
 42
0.000000001
 43
0.00000001
 40
0.0
 40
0.0
 40
0.0
 40
0.0
 40
1.0
 40
1.0
 40
1.0
 40
1.0
 10
134.4648823901974
 20
90.85423805111004
 30
0.0
 10
134.9896735096934
 20
92.02921523881477
 30
0.0
 10
135.5281897608762
 20
93.19811440655293
 30
0.0
 10
136.0767190322541
 20
94.36232863529914
 30
0.0
  0
LINE
  5
233
330
1F
100
AcDbEntity
  8
0
  6
Continuous
 62
     7
370
    15
100
AcDbLine
 10
134.4648823902
 20
90.8542380511
 30
0.0
 11
134.4648823902
 21
96.2689254548
 31
0.0
  0
SPLINE
  5
234
330
1F
100
AcDbEntity
  8
0
  6
Continuous
 62
     7
370
    15
100
AcDbSpline
210
0.0
220
0.0
230
1.0
 70
     8
 71
     3
 72
     8
 73
     4
 74
     0
 42
0.000000001
 43
0.00000001
 40
0.0
 40
0.0
 40
0.0
 40
0.0
 40
0.0012409313617635
 40
0.0012409313617635
 40
0.0012409313617635
 40
0.0012409313617635
 10
129.5909277039014
 20
98.16463715151603
 30
0.0
 10
129.4057038643454
 20
98.42616469499319
 30
0.0
 10
129.2197186763729
 20
98.68742319676855
 30
0.0
 10
129.0330457481407
 20
98.94843507446713
 30
0.0
  0
SPLINE
  5
235
330
1F
100
AcDbEntity
  8
0
  6
Continuous
 62
     7
370
    15
100
AcDbSpline
210
0.0
220
0.0
230
1.0
 70
     8
 71
     3
 72
     8
 73
     4
 74
     0
 42
0.000000001
 43
0.00000001
 40
0.0
 40
0.0
 40
0.0
 40
0.0
 40
1.0
 40
1.0
 40
1.0
 40
1.0
 10
130.6448823901974
 20
96.26892545475302
 30
0.0
 10
130.2942301498699
 20
96.90119386380339
 30
0.0
 10
129.9428717268097
 20
97.5330757635022
 30
0.0
 10
129.5909277039014
 20
98.16463715151602
 30
0.0
  0
LINE
  5
236
330
1F
100
AcDbEntity
  8
0
  6
Continuous
 62
     7
370
    15
100
AcDbLine
 10
130.6448823902
 20
90.8542380511
 30
0.0
 11
130.6448823902
 21
96.2689254548
 31
0.0
  0
SPLINE
  5
237
330
1F
100
AcDbEntity
  8
0
  6
Continuous
 62
     7
370
    15
100
AcDbSpline
210
0.0
220
0.0
230
1.0
 70
     8
 71
     3
 72
     8
 73
     4
 74
     0
 42
0.000000001
 43
0.00000001
 40
0.0
 40
0.0
 40
0.0
 40
0.0
 40
1.0
 40
1.0
 40
1.0
 40
1.0
 10
129.0330457481407
 20
94.36232863529912
 30
0.0
 10
129.5819905263376
 20
93.19723252298543
 30
0.0
 10
130.1206009008544
 20
92.02807420616094
 30
0.0
 10
130.6448823901974
 20
90.85423805111003
 30
0.0
  0
LINE
  5
238
330
1F
100
AcDbEntity
  8
0
  6
Continuous
 62
     7
370
    15
100
AcDbLine
 10
129.0330457481
 20
94.3623286353
 30
0.0
 11
129.0330457481
 21
98.9484350745
 31
0.0
  0
SPLINE
  5
239
330
1F
100
AcDbEntity
  8
0
  6
Continuous
 62
     7
370
    15
100
AcDbSpline
210
0.0
220
0.0
230
1.0
 70
     8
 71
     3
 72
    10
 73
     6
 74
     0
 42
0.000000001
 43
0.00000001
 40
0.0
 40
0.0
 40
0.0
 40
0.0
 40
0.5
 40
0.5
 40
1.0
 40
1.0
 40
1.0
 40
1.0
 10
124.942123991505
 20
98.87739555020849
 30
0.0
 10
124.8662843975015
 20
98.80734636387987
 30
0.0
 10
124.7989608797755
 20
98.72212759030619
 30
0.0
 10
124.6923172414704
 20
98.5119014636444
 30
0.0
 10
124.6548823901974
 20
98.3883922727771
 30
0.0
 10
124.6548823901974
 20
98.25847415225445
 30
0.0
  0
SPLINE
  5
23A
330
1F
100
AcDbEntity
  8
0
  6
Continuous
 62
     7
370
    15
100
AcDbSpline
210
0.0
220
0.0
230
1.0
 70
     8
 71
     3
 72
     8
 73
     4
 74
     0
 42
0.000000001
 43
0.00000001
 40
0.0
 40
0.0
 40
0.0
 40
0.0
 40
1.0
 40
1.0
 40
1.0
 40
1.0
 10
125.2548823901974
 20
98.94843507446713
 30
0.0
 10
125.1427041360178
 20
98.94843507446713
 30
0.0
 10
125.0340346232893
 20
98.92275400920614
 30
0.0
 10
124.942123991505
 20
98.87739555020849
 30
0.0
  0
SPLINE
  5
23B
330
1F
100
AcDbEntity
  8
0
  6
Continuous
 62
     7
370
    15
100
AcDbSpline
210
0.0
220
0.0
230
1.0
 70
     8
 71
     3
 72
    12
 73
     8
 74
     0
 42
0.000000001
 43
0.00000001
 40
0.0
 40
0.0
 40
0.0
 40
0.0
 40
0.5000000000000003
 40
0.5000000000000003
 40
0.7500000000000001
 40
0.7500000000000001
 40
1.0
 40
1.0
 40
1.0
 40
1.0
 10
124.6548823901974
 20
93.62351135133518
 30
0.0
 10
124.6548823901974
 20
93.80012774785692
 30
0.0
 10
124.7042230250193
 20
93.97518491923063
 30
0.0
 10
124.8604385833074
 20
94.18913513172329
 30
0.0
 10
124.9257411632081
 20
94.25046777457023
 30
0.0
 10
125.0795101811684
 20
94.33785587254148
 30
0.0
 10
125.1665232877789
 20
94.36232863529911
 30
0.0
 10
125.2548823901974
 20
94.36232863529911
 30
0.0
  0
LINE
  5
23C
330
1F
100
AcDbEntity
  8
0
  6
Continuous
 62
     7
370
    15
100
AcDbLine
 10
124.6548823902
 20
93.6235113513
 30
0.0
 11
124.6548823902
 21
98.2584741523
 31
0.0
  0
LINE
  5
23D
330
1F
100
AcDbEntity
  8
0
  6
Continuous
 62
     7
370
    15
100
AcDbLine
 10
129.0330457481
 20
98.9484350745
 30
0.0
 11
125.2548823902
 21
98.9484350745
 31
0.0
  0
LINE
  5
23E
330
1F
100
AcDbEntity
  8
0
  6
Continuous
 62
     7
370
    15
100
AcDbLine
 10
125.2548823902
 20
94.3623286353
 30
0.0
 11
129.0330457481
 21
94.3623286353
 31
0.0
  0
SPLINE
  5
23F
330
1F
100
AcDbEntity
  8
0
  6
Continuous
 62
     7
370
    15
100
AcDbSpline
210
0.0
220
0.0
230
1.0
 70
     8
 71
     3
 72
    12
 73
     8
 74
     0
 42
0.000000001
 43
0.00000001
 40
0.0
 40
0.0
 40
0.0
 40
0.0
 40
0.5
 40
0.5
 40
0.75
 40
0.75
 40
1.0
 40
1.0
 40
1.0
 40
1.0
 10
134.4648823901974
 20
96.1041784830586
 30
0.0
 10
134.4648823901974
 20
95.89104108140711
 30
0.0
 10
134.3822399750495
 20
95.67606155666942
 30
0.0
 10
134.1636565642391
 20
95.44314248778367
 30
0.0
 10
134.0745666112584
 20
95.37927557796316
 30
0.0
 10
133.8791612933609
 20
95.2928894235814
 30
0.0
 10
133.7726372464175
 20
95.26995685153828
 30
0.0
 10
133.6648823901974
 20
95.26995685153828
 30
0.0
  0
SPLINE
  5
240
330
1F
100
AcDbEntity
  8
0
  6
Continuous
 62
     7
370
    15
100
AcDbSpline
210
0.0
220
0.0
230
1.0
 70
     8
 71
     3
 72
    12
 73
     8
 74
     0
 42
0.000000001
 43
0.00000001
 40
0.0
 40
0.0
 40
0.0
 40
0.0
 40
0.2500000000000015
 40
0.2500000000000015
 40
0.500000000000003
 40
0.500000000000003
 40
1.0
 40
1.0
 40
1.0
 40
1.0
 10
133.6648823901974
 20
89.60103513870803
 30
0.0
 10
133.7869643876857
 20
89.60103513870801
 30
0.0
 10
133.9075549301714
 20
89.63976149488175
 30
0.0
 10
134.1130502138713
 20
89.76972508262803
 30
0.0
 10
134.1985666968237
 20
89.85893131917477
 30
0.0
 10
134.4019610483679
 20
90.16380785672038
 30
0.0
 10
134.4648823901974
 20
90.40657847082248
 30
0.0
 10
134.4648823901974
 20
90.64933981477684
 30
0.0
  0
SPLINE
  5
241
330
1F
100
AcDbEntity
  8
0
  6
Continuous
 62
     7
370
    15
100
AcDbSpline
210
0.0
220
0.0
230
1.0
 70
     8
 71
     3
 72
    14
 73
    10
 74
     0
 42
0.000000001
 43
0.00000001
 40
0.0
 40
0.0
 40
0.0
 40
0.0
 40
0.25
 40
0.25
 40
0.5
 40
0.5
 40
0.75
 40
0.75
 40
1.0
 40
1.0
 40
1.0
 40
1.0
 10
131.4448823901974
 20
95.26995685153828
 30
0.0
 10
131.3375133456831
 20
95.2699568515383
 30
0.0
 10
131.2307078539202
 20
95.29288184694326
 30
0.0
 10
131.0355664854034
 20
95.37907428081745
 30
0.0
 10
130.9463567678135
 20
95.44291827748141
 30
0.0
 10
130.8004299749971
 20
95.59833438542282
 30
0.0
 10
130.742440231199
 20
95.69098896363055
 30
0.0
 10
130.6648463896765
 20
95.89022230368009
 30
0.0
 10
130.6448823901974
 20
95.9968273987353
 30
0.0
 10
130.6448823901974
 20
96.1041784830586
 30
0.0
  0
SPLINE
  5
242
330
1F
100
AcDbEntity
  8
0
  6
Continuous
 62
     7
370
    15
100
AcDbSpline
210
0.0
220
0.0
230
1.0
 70
     8
 71
     3
 72
    14
 73
    10
 74
     0
 42
0.000000001
 43
0.00000001
 40
0.0
 40
0.0
 40
0.0
 40
0.0
 40
0.25
 40
0.25
 40
0.5
 40
0.5
 40
0.75
 40
0.75
 40
1.0
 40
1.0
 40
1.0
 40
1.0
 10
130.6448823901974
 20
90.64933981477684
 30
0.0
 10
130.6448823901974
 20
90.52740447959529
 30
0.0
 10
130.6609267577374
 20
90.40785023909386
 30
0.0
 10
130.7266560999167
 20
90.17373425595062
 30
0.0
 10
130.775863470165
 20
90.06180171581592
 30
0.0
 10
130.9108764510639
 20
89.85940190657904
 30
0.0
 10
130.9967965196702
 20
89.7695367130161
 30
0.0
 10
131.2033113216756
 20
89.63920220340587
 30
0.0
 10
131.3234500340467
 20
89.60103513870807
 30
0.0
 10
131.4448823901974
 20
89.60103513870807
 30
0.0
  0
LINE
  5
243
330
1F
100
AcDbEntity
  8
0
  6
Continuous
 62
     7
370
    15
100
AcDbLine
 10
133.6648823902
 20
95.2699568515
 30
0.0
 11
131.4448823902
 21
95.2699568515
 31
0.0
  0
LINE
  5
244
330
1F
100
AcDbEntity
  8
0
  6
Continuous
 62
     7
370
    15
100
AcDbLine
 10
131.4448823902
 20
89.6010351387
 30
0.0
 11
133.6648823902
 21
89.6010351387
 31
0.0
  0
LINE
  5
245
330
1F
100
AcDbEntity
  8
0
  6
Continuous
 62
     7
370
    15
100
AcDbLine
 10
134.4648823902
 20
90.6493398148
 30
0.0
 11
134.4648823902
 21
90.8542380511
 31
0.0
  0
LINE
  5
246
330
1F
100
AcDbEntity
  8
0
  6
Continuous
 62
     7
370
    15
100
AcDbLine
 10
130.6448823902
 20
90.8542380511
 30
0.0
 11
130.6448823902
 21
90.6493398148
 31
0.0
  0
LINE
  5
247
330
1F
100
AcDbEntity
  8
0
  6
Continuous
 62
     7
370
    15
100
AcDbLine
 10
140.5048823902
 20
93.6235113513
 30
0.0
 11
140.5048823902
 21
86.8715859588
 31
0.0
  0
LINE
  5
248
330
1F
100
AcDbEntity
  8
0
  6
Continuous
 62
     7
370
    15
100
AcDbLine
 10
124.6548823902
 20
93.6235113513
 30
0.0
 11
124.6548823902
 21
86.8020989953
 31
0.0
  0
LINE
  5
249
330
1F
100
AcDbEntity
  8
0
  6
Continuous
 62
     7
370
    15
100
AcDbLine
 10
53.2048823902
 20
57.0449683982
 30
0.0
 11
53.2048823902
 21
79.8592295923
 31
0.0
  0
SPLINE
  5
24A
330
1F
100
AcDbEntity
  8
0
  6
Continuous
 62
     7
370
    15
100
AcDbSpline
210
0.0
220
0.0
230
1.0
 70
    24
 71
     3
 72
    11
 73
     7
 74
     0
 42
0.000000001
 43
0.00000001
 40
0.0
 40
0.0
 40
0.0
 40
0.0
 40
0.1336647920874057
 40
0.4825473608259797
 40
0.8156356561503854
 40
1.0
 40
1.0
 40
1.0
 40
1.0
 10
227.7369331977663
 20
65.45209899525155
 30
0.0
 10
227.5918115195384
 20
65.45209899525155
 30
0.0
 10
227.0679033030671
 20
65.45209899525155
 30
0.0
 10
226.0891793486973
 20
65.45209899525155
 30
0.0
 10
225.0380401999809
 20
65.45209899525155
 30
0.0
 10
224.4738486398654
 20
65.45209899525155
 30
0.0
 10
224.2728315826285
 20
65.45209899525155
 30
0.0
  0
SPLINE
  5
24B
330
1F
100
AcDbEntity
  8
0
  6
Continuous
 62
     7
370
    15
100
AcDbSpline
210
0.0
220
0.0
230
1.0
 70
    24
 71
     3
 72
    11
 73
     7
 74
     0
 42
0.000000001
 43
0.00000001
 40
0.0
 40
0.0
 40
0.0
 40
0.0
 40
0.2164553779443461
 40
0.4403112895790555
 40
0.7519005688038763
 40
1.0
 40
1.0
 40
1.0
 40
1.0
 10
229.4689840053352
 20
68.45209899525155
 30
0.0
 10
229.3503368468151
 20
68.24659608852106
 30
0.0
 10
229.1089860249089
 20
67.8285642025311
 30
0.0
 10
228.6611033602566
 20
67.05280867152382
 30
0.0
 10
228.1806688616736
 20
66.22067171026937
 30
0.0
 10
227.8732196324699
 20
65.68815402454062
 30
0.0
 10
227.7369331977663
 20
65.45209899525155
 30
0.0
  0
SPLINE
  5
24C
330
1F
100
AcDbEntity
  8
0
  6
Continuous
 62
     7
370
    15
100
AcDbSpline
210
0.0
220
0.0
230
1.0
 70
    24
 71
     3
 72
    11
 73
     7
 74
     0
 42
0.000000001
 43
0.00000001
 40
0.0
 40
0.0
 40
0.0
 40
0.0
 40
0.2164553779443451
 40
0.4403112895790549
 40
0.7519005688038766
 40
1.0
 40
1.0
 40
1.0
 40
1.0
 10
227.7369331977663
 20
71.45209899525155
 30
0.0
 10
227.8555803562864
 20
71.24659608852106
 30
0.0
 10
228.0969311781925
 20
70.82856420253108
 30
0.0
 10
228.5448138428449
 20
70.05280867152382
 30
0.0
 10
229.0252483414278
 20
69.22067171026936
 30
0.0
 10
229.3326975706316
 20
68.68815402454062
 30
0.0
 10
229.4689840053352
 20
68.45209899525155
 30
0.0
  0
SPLINE
  5
24D
330
1F
100
AcDbEntity
  8
0
  6
Continuous
 62
     7
370
    15
100
AcDbSpline
210
0.0
220
0.0
230
1.0
 70
    24
 71
     3
 72
    11
 73
     7
 74
     0
 42
0.000000001
 43
0.00000001
 40
0.0
 40
0.0
 40
0.0
 40
0.0
 40
0.1843643438496109
 40
0.5174526391740203
 40
0.8663352079125943
 40
1.0
 40
1.0
 40
1.0
 40
1.0
 10
224.2728315826286
 20
71.45209899525155
 30
0.0
 10
224.4738486398654
 20
71.45209899525155
 30
0.0
 10
225.038040199981
 20
71.45209899525155
 30
0.0
 10
226.0891793486974
 20
71.45209899525155
 30
0.0
 10
227.0679033030671
 20
71.45209899525155
 30
0.0
 10
227.5918115195384
 20
71.45209899525155
 30
0.0
 10
227.7369331977663
 20
71.45209899525155
 30
0.0
  0
SPLINE
  5
24E
330
1F
100
AcDbEntity
  8
0
  6
Continuous
 62
     7
370
    15
100
AcDbSpline
210
0.0
220
0.0
230
1.0
 70
    24
 71
     3
 72
    11
 73
     7
 74
     0
 42
0.000000001
 43
0.00000001
 40
0.0
 40
0.0
 40
0.0
 40
0.0
 40
0.2164553779443449
 40
0.4403112895790561
 40
0.751900568803877
 40
1.0
 40
1.0
 40
1.0
 40
1.0
 10
222.5407807750597
 20
68.45209899525155
 30
0.0
 10
222.6594279335797
 20
68.65760190198205
 30
0.0
 10
222.9007787554859
 20
69.07563378797202
 30
0.0
 10
223.3486614201383
 20
69.85138931897929
 30
0.0
 10
223.8290959187212
 20
70.68352628023375
 30
0.0
 10
224.1365451479249
 20
71.21604396596248
 30
0.0
 10
224.2728315826286
 20
71.45209899525155
 30
0.0
  0
SPLINE
  5
24F
330
1F
100
AcDbEntity
  8
0
  6
Continuous
 62
     7
370
    15
100
AcDbSpline
210
0.0
220
0.0
230
1.0
 70
    24
 71
     3
 72
    11
 73
     7
 74
     0
 42
0.000000001
 43
0.00000001
 40
0.0
 40
0.0
 40
0.0
 40
0.0
 40
0.2164553779443456
 40
0.4403112895790571
 40
0.7519005688038767
 40
1.0
 40
1.0
 40
1.0
 40
1.0
 10
224.2728315826285
 20
65.45209899525155
 30
0.0
 10
224.1541844241085
 20
65.65760190198203
 30
0.0
 10
223.9128336022023
 20
66.07563378797201
 30
0.0
 10
223.4649509375499
 20
66.85138931897929
 30
0.0
 10
222.984516438967
 20
67.68352628023375
 30
0.0
 10
222.6770672097633
 20
68.21604396596248
 30
0.0
 10
222.5407807750597
 20
68.45209899525155
 30
0.0
  0
CIRCLE
  5
250
330
1F
100
AcDbEntity
  8
0
  6
Continuous
 62
     7
370
    15
100
AcDbCircle
 10
226.0048823902
 20
68.4520989953
 30
0.0
 40
3.5
  0
CIRCLE
  5
251
330
1F
100
AcDbEntity
  8
0
  6
Continuous
 62
     7
370
    15
100
AcDbCircle
 10
226.0048823902
 20
68.4520989953
 30
0.0
 40
5.5
  0
CIRCLE
  5
252
330
1F
100
AcDbEntity
  8
0
  6
Continuous
 62
     7
370
    15
100
AcDbCircle
 10
226.0048823902
 20
68.4520989953
 30
0.0
 40
5.999999999999993
  0
ARC
  5
253
330
1F
100
AcDbEntity
  8
0
  6
Continuous
 62
     7
370
    15
100
AcDbCircle
 10
226.0048823902
 20
68.4520989953
 30
0.0
 40
3.0
100
AcDbArc
 50
90.0
 51
150.0
  0
ARC
  5
254
330
1F
100
AcDbEntity
  8
0
  6
Continuous
 62
     7
370
    15
100
AcDbCircle
 10
226.0048823902
 20
68.4520989953
 30
0.0
 40
3.0
100
AcDbArc
 50
30.0
 51
90.0
  0
ARC
  5
255
330
1F
100
AcDbEntity
  8
0
  6
Continuous
 62
     7
370
    15
100
AcDbCircle
 10
226.0048823902
 20
68.4520989953
 30
0.0
 40
3.0
100
AcDbArc
 50
330.0
 51
30.0
  0
ARC
  5
256
330
1F
100
AcDbEntity
  8
0
  6
Continuous
 62
     7
370
    15
100
AcDbCircle
 10
226.0048823902
 20
68.4520989953
 30
0.0
 40
3.000000000000025
100
AcDbArc
 50
150.0
 51
210.0
  0
ARC
  5
257
330
1F
100
AcDbEntity
  8
0
  6
Continuous
 62
     7
370
    15
100
AcDbCircle
 10
226.0048823902
 20
68.4520989953
 30
0.0
 40
3.0
100
AcDbArc
 50
270.0
 51
330.0
  0
ARC
  5
258
330
1F
100
AcDbEntity
  8
0
  6
Continuous
 62
     7
370
    15
100
AcDbCircle
 10
226.0048823902
 20
68.4520989953
 30
0.0
 40
3.000000000000025
100
AcDbArc
 50
210.0
 51
270.0
  0
LINE
  5
259
330
1F
100
AcDbEntity
  8
0
  6
HIDDEN
 62
     7
370
     0
100
AcDbLine
 10
240.0048823902
 20
87.6186402978
 30
0.0
 11
240.0048823902
 21
90.772620189
 31
0.0
  0
LINE
  5
25A
330
1F
100
AcDbEntity
  8
0
  6
HIDDEN
 62
     7
370
     0
100
AcDbLine
 10
240.0048823902
 20
52.5926720328
 30
0.0
 11
240.0048823902
 21
84.3115259577
 31
0.0
  0
LINE
  5
25B
330
1F
100
AcDbEntity
  8
0
  6
HIDDEN
 62
     7
370
     0
100
AcDbLine
 10
240.0048823902
 20
46.1315778015
 30
0.0
 11
240.0048823902
 21
49.2855576927
 31
0.0
  0
LINE
  5
25C
330
1F
100
AcDbEntity
  8
0
  6
HIDDEN
 62
     7
370
     0
100
AcDbLine
 10
236.0048823902
 20
59.2516913956
 30
0.0
 11
236.0048823902
 21
77.6525065949
 31
0.0
  0
LINE
  5
25D
330
1F
100
AcDbEntity
  8
0
  6
HIDDEN
 62
     7
370
     0
100
AcDbLine
 10
240.0048823902
 20
87.6186402978
 30
0.0
 11
240.0048823902
 21
87.4788366834
 31
0.0
  0
LINE
  5
25E
330
1F
100
AcDbEntity
  8
0
  6
HIDDEN
 62
     7
370
     0
100
AcDbLine
 10
236.0048823902
 20
87.4788366834
 30
0.0
 11
240.0048823902
 21
87.4788366834
 31
0.0
  0
LINE
  5
25F
330
1F
100
AcDbEntity
  8
0
  6
HIDDEN
 62
     7
370
     0
100
AcDbLine
 10
236.0048823902
 20
87.6520989953
 30
0.0
 11
236.0048823902
 21
82.4520989953
 31
0.0
  0
LINE
  5
260
330
1F
100
AcDbEntity
  8
0
  6
HIDDEN
 62
     7
370
     0
100
AcDbLine
 10
236.0048823902
 20
77.6525065949
 30
0.0
 11
240.0048823902
 21
77.6525065949
 31
0.0
  0
LINE
  5
261
330
1F
100
AcDbEntity
  8
0
  6
HIDDEN
 62
     7
370
     0
100
AcDbLine
 10
236.0048823902
 20
82.4520989953
 30
0.0
 11
236.0048823902
 21
77.6525065949
 31
0.0
  0
LINE
  5
262
330
1F
100
AcDbEntity
  8
0
  6
HIDDEN
 62
     7
370
     0
100
AcDbLine
 10
240.0048823902
 20
59.2516913956
 30
0.0
 11
236.0048823902
 21
59.2516913956
 31
0.0
  0
LINE
  5
263
330
1F
100
AcDbEntity
  8
0
  6
HIDDEN
 62
     7
370
     0
100
AcDbLine
 10
236.0048823902
 20
59.2516913956
 30
0.0
 11
236.0048823902
 21
54.4520989953
 31
0.0
  0
LINE
  5
264
330
1F
100
AcDbEntity
  8
0
  6
HIDDEN
 62
     7
370
     0
100
AcDbLine
 10
236.0048823902
 20
49.4253613071
 30
0.0
 11
240.0048823902
 21
49.4253613071
 31
0.0
  0
LINE
  5
265
330
1F
100
AcDbEntity
  8
0
  6
HIDDEN
 62
     7
370
     0
100
AcDbLine
 10
240.0048823902
 20
49.4253613071
 30
0.0
 11
240.0048823902
 21
49.2855576927
 31
0.0
  0
LINE
  5
266
330
1F
100
AcDbEntity
  8
0
  6
HIDDEN
 62
     7
370
     0
100
AcDbLine
 10
236.0048823902
 20
54.4520989953
 30
0.0
 11
236.0048823902
 21
49.2520989953
 31
0.0
  0
LINE
  5
267
330
1F
100
AcDbEntity
  8
0
  6
HIDDEN
 62
     7
370
     0
100
AcDbLine
 10
234.8048823902
 20
53.4520989953
 30
0.0
 11
234.8048823902
 21
83.4520989953
 31
0.0
  0
LINE
  5
268
330
1F
100
AcDbEntity
  8
0
  6
HIDDEN
 62
     7
370
     0
100
AcDbLine
 10
209.5548823902
 20
53.7520989953
 30
0.0
 11
209.5548823902
 21
83.1520989111
 31
0.0
  0
LINE
  5
269
330
1F
100
AcDbEntity
  8
0
  6
HIDDEN
 62
     7
370
     0
100
AcDbLine
 10
212.0548823902
 20
53.4520989953
 30
0.0
 11
212.0548823902
 21
83.4520989953
 31
0.0
  0
LINE
  5
26A
330
1F
100
AcDbEntity
  8
0
  6
HIDDEN
 62
     7
370
     0
100
AcDbLine
 10
236.0048823902
 20
89.7270989953
 30
0.0
 11
236.0048823902
 21
87.6520989953
 31
0.0
  0
LINE
  5
26B
330
1F
100
AcDbEntity
  8
0
  6
HIDDEN
 62
     7
370
     0
100
AcDbLine
 10
236.0048823902
 20
49.2520989953
 30
0.0
 11
236.0048823902
 21
47.1770989953
 31
0.0
  0
LINE
  5
26C
330
1F
100
AcDbEntity
  8
0
  6
HIDDEN
 62
     7
370
     0
100
AcDbLine
 10
124.6548823902
 20
93.2520989953
 30
0.0
 11
124.9921406904
 21
93.2520989953
 31
0.0
  0
ELLIPSE
  5
26D
330
1F
100
AcDbEntity
  8
0
  6
HIDDEN
 62
     7
370
     0
100
AcDbEllipse
 10
124.9921406904
 20
94.8520989953
 30
0.0
 11
0.0
 21
1.600000000000009
 31
0.0
210
0.0
220
0.0
230
1.0
 40
0.4142135624
 41
3.141592653589793
 42
4.712388980384695
  0
ELLIPSE
  5
26E
330
1F
100
AcDbEntity
  8
0
  6
HIDDEN
 62
     7
370
     0
100
AcDbEllipse
 10
124.9921406904
 20
44.2520989953
 30
0.0
 11
0.0
 21
1.600000000000001
 31
0.0
210
0.0
220
0.0
230
1.0
 40
0.4142135624
 41
4.712388980384695
 42
6.283185307179586
  0
LINE
  5
26F
330
1F
100
AcDbEntity
  8
0
  6
HIDDEN
 62
     7
370
     0
100
AcDbLine
 10
124.9921406904
 20
45.8520989953
 30
0.0
 11
124.6548823902
 21
45.8520989953
 31
0.0
  0
LINE
  5
270
330
1F
100
AcDbEntity
  8
0
  6
HIDDEN
 62
     7
370
     0
100
AcDbLine
 10
125.6548823902
 20
38.5586506486
 30
0.0
 11
124.8710269315
 21
38.1003691458
 31
0.0
  0
LINE
  5
271
330
1F
100
AcDbEntity
  8
0
  6
HIDDEN
 62
     7
370
     0
100
AcDbLine
 10
124.9421239915
 20
98.8773955502
 30
0.0
 11
125.6548823902
 21
98.1646371515
 31
0.0
  0
LINE
  5
272
330
1F
100
AcDbEntity
  8
0
  6
HIDDEN
 62
     7
370
     0
100
AcDbLine
 10
60.2048823902
 20
59.9520989953
 30
0.0
 11
60.2048823902
 21
76.9520989953
 31
0.0
  0
LINE
  5
273
330
1F
100
AcDbEntity
  8
0
  6
HIDDEN
 62
     7
370
     0
100
AcDbLine
 10
63.2008116045
 20
61.4520989953
 30
0.0
 11
63.2008116045
 21
75.4520989953
 31
0.0
  0
LINE
  5
274
330
1F
100
AcDbEntity
  8
0
  6
HIDDEN
 62
     7
370
     0
100
AcDbLine
 10
125.6548823902
 20
98.1646371515
 30
0.0
 11
129.5909277039
 21
98.1646371515
 31
0.0
  0
LINE
  5
275
330
1F
100
AcDbEntity
  8
0
  6
HIDDEN
 62
     7
370
     0
100
AcDbLine
 10
135.5188370765
 20
98.1646371515
 30
0.0
 11
140.5048823902
 21
98.1646371515
 31
0.0
  0
LINE
  5
276
330
1F
100
AcDbEntity
  8
0
  6
HIDDEN
 62
     7
370
     0
100
AcDbLine
 10
125.6548823902
 20
98.1646371515
 30
0.0
 11
125.6548823902
 21
94.8520989953
 31
0.0
  0
LINE
  5
277
330
1F
100
AcDbEntity
  8
0
  6
HIDDEN
 62
     7
370
     0
100
AcDbLine
 10
124.9921406904
 20
93.2520989953
 30
0.0
 11
140.5778427807
 21
93.2520989953
 31
0.0
  0
LINE
  5
278
330
1F
100
AcDbEntity
  8
0
  6
HIDDEN
 62
     7
370
     0
100
AcDbLine
 10
129.4900927865
 20
38.5586506486
 30
0.0
 11
125.6548823902
 21
38.5586506486
 31
0.0
  0
LINE
  5
279
330
1F
100
AcDbEntity
  8
0
  6
HIDDEN
 62
     7
370
     0
100
AcDbLine
 10
140.5048823902
 20
38.5586506486
 30
0.0
 11
135.6196719939
 21
38.5586506486
 31
0.0
  0
LINE
  5
27A
330
1F
100
AcDbEntity
  8
0
  6
HIDDEN
 62
     7
370
     0
100
AcDbLine
 10
125.6548823902
 20
38.5586506486
 30
0.0
 11
125.6548823902
 21
44.2520989953
 31
0.0
  0
LINE
  5
27B
330
1F
100
AcDbEntity
  8
0
  6
HIDDEN
 62
     7
370
     0
100
AcDbLine
 10
140.5048823902
 20
45.8520989953
 30
0.0
 11
124.9921406904
 21
45.8520989953
 31
0.0
  0
SPLINE
  5
27C
330
1F
100
AcDbEntity
  8
0
  6
HIDDEN
 62
     7
370
     0
100
AcDbSpline
210
0.0
220
0.0
230
1.0
 70
    24
 71
     3
 72
    12
 73
     8
 74
     0
 42
0.000000001
 43
0.00000001
 40
0.0
 40
0.0
 40
0.0
 40
0.0
 40
0.25
 40
0.25
 40
0.5
 40
0.5
 40
1.0
 40
1.0
 40
1.0
 40
1.0
 10
141.2953146647456
 20
45.85209899525155
 30
0.0
 10
141.2385534154002
 20
45.85209899525155
 30
0.0
 10
141.1811386034575
 20
45.85209899525154
 30
0.0
 10
141.0671719916151
 20
45.85209899525155
 30
0.0
 10
141.0103330714438
 20
45.85209899525154
 30
0.0
 10
140.8395874660787
 20
45.85209899525154
 30
0.0
 10
140.7254689629751
 20
45.85209899525154
 30
0.0
 10
140.6106478241192
 20
45.85209899525155
 30
0.0
  0
LINE
  5
27D
330
1F
100
AcDbEntity
  8
0
  6
HIDDEN
 62
     7
370
     0
100
AcDbLine
 10
140.6106478241
 20
45.8520989953
 30
0.0
 11
140.5048823902
 21
45.8520989953
 31
0.0
  0
LINE
  5
27E
330
1F
100
AcDbEntity
  8
0
  6
HIDDEN
 62
     7
370
     0
100
AcDbLine
 10
96.2048823902
 20
61.4520989953
 30
0.0
 11
96.2048823902
 21
75.4520989953
 31
0.0
  0
LINE
  5
27F
330
1F
100
AcDbEntity
  8
0
  6
HIDDEN
 62
     7
370
     0
100
AcDbLine
 10
97.8572490925
 20
64.2020989953
 30
0.0
 11
97.8572490925
 21
72.7020989953
 31
0.0
  0
SPLINE
  5
280
330
1F
100
AcDbEntity
  8
0
  6
HIDDEN
 62
     7
370
     0
100
AcDbSpline
210
0.0
220
0.0
230
1.0
 70
    24
 71
     3
 72
    12
 73
     8
 74
     0
 42
0.000000001
 43
0.00000001
 40
0.0
 40
0.0
 40
0.0
 40
0.0
 40
0.5000000000000013
 40
0.5000000000000013
 40
0.7500000000000007
 40
0.7500000000000007
 40
1.0
 40
1.0
 40
1.0
 40
1.0
 10
144.546393024317
 20
45.85209899525155
 30
0.0
 10
144.0748018877323
 20
45.85209899525155
 30
0.0
 10
143.5688764304847
 20
45.85209899525155
 30
0.0
 10
142.7532774147284
 20
45.85209899525154
 30
0.0
 10
142.4699444329009
 20
45.85209899525154
 30
0.0
 10
141.8905126767353
 20
45.85209899525154
 30
0.0
 10
141.595674761583
 20
45.85209899525154
 30
0.0
 10
141.2953146647456
 20
45.85209899525155
 30
0.0
  0
LINE
  5
281
330
1F
100
AcDbEntity
  8
0
  6
HIDDEN
 62
     7
370
     0
100
AcDbLine
 10
146.9548823902
 20
45.8520989953
 30
0.0
 11
144.5463930243
 21
45.8520989953
 31
0.0
  0
LINE
  5
282
330
1F
100
AcDbEntity
  8
0
  6
HIDDEN
 62
     7
370
     0
100
AcDbLine
 10
148.5548823902
 20
93.2520989953
 30
0.0
 11
147.9104546166
 21
93.2520989953
 31
0.0
  0
LINE
  5
283
330
1F
100
AcDbEntity
  8
0
  6
HIDDEN
 62
     7
370
     0
100
AcDbLine
 10
130.6448823902
 20
90.6493398148
 30
0.0
 11
130.6448823902
 21
86.8020989953
 31
0.0
  0
LINE
  5
284
330
1F
100
AcDbEntity
  8
0
  6
HIDDEN
 62
     7
370
     0
100
AcDbLine
 10
134.4648823902
 20
90.6493398148
 30
0.0
 11
134.4648823902
 21
86.8020989953
 31
0.0
  0
LINE
  5
285
330
1F
100
AcDbEntity
  8
0
  6
HIDDEN
 62
     7
370
     0
100
AcDbLine
 10
129.0330457481
 20
94.3623286353
 30
0.0
 11
129.0330457481
 21
86.8020989953
 31
0.0
  0
LINE
  5
286
330
1F
100
AcDbEntity
  8
0
  6
HIDDEN
 62
     7
370
     0
100
AcDbLine
 10
136.0767190323
 20
94.3623286353
 30
0.0
 11
136.0767190323
 21
86.8020989953
 31
0.0
  0
CIRCLE
  5
287
330
1F
100
AcDbEntity
  8
0
  6
HIDDEN
 62
     7
370
     0
100
AcDbCircle
 10
226.0048823902
 20
68.4520989953
 30
0.0
 40
5.258613578496409
  0
CIRCLE
  5
288
330
1F
100
AcDbEntity
  8
0
  6
HIDDEN
 62
     7
370
     0
100
AcDbCircle
 10
226.0048823902
 20
68.4520989953
 30
0.0
 40
4.094716599620995
  0
CIRCLE
  5
289
330
1F
100
AcDbEntity
  8
0
  6
HIDDEN
 62
     7
370
     0
100
AcDbCircle
 10
226.0048823902
 20
68.4520989953
 30
0.0
 40
3.694716599621017
  0
LINE
  5
28A
330
1F
100
AcDbEntity
  8
0
  6
HIDDEN
 62
     7
370
     0
100
AcDbLine
 10
240.5548823902
 20
91.9520989953
 30
0.0
 11
240.0048823902
 21
90.772620189
 31
0.0
  0
LINE
  5
28B
330
1F
100
AcDbEntity
  8
0
  6
HIDDEN
 62
     7
370
     0
100
AcDbLine
 10
240.0048823902
 20
46.1315778015
 30
0.0
 11
240.5548823902
 21
44.9520989953
 31
0.0
  0
LINE
  5
28C
330
1F
100
AcDbEntity
  8
0
  6
HIDDEN
 62
     7
370
     0
100
AcDbLine
 10
240.0048823902
 20
87.6520989953
 30
0.0
 11
236.0048823902
 21
87.6520989953
 31
0.0
  0
LINE
  5
28D
330
1F
100
AcDbEntity
  8
0
  6
HIDDEN
 62
     7
370
     0
100
AcDbLine
 10
236.0048823902
 20
49.2520989953
 30
0.0
 11
240.0048823902
 21
49.2520989953
 31
0.0
  0
LINE
  5
28E
330
1F
100
AcDbEntity
  8
0
  6
HIDDEN
 62
     7
370
     0
100
AcDbLine
 10
236.0048823902
 20
84.1449193183
 30
0.0
 11
234.8048823902
 21
83.4520989953
 31
0.0
  0
LINE
  5
28F
330
1F
100
AcDbEntity
  8
0
  6
HIDDEN
 62
     7
370
     0
100
AcDbLine
 10
234.8048823902
 20
53.4520989953
 30
0.0
 11
236.0048823902
 21
52.7592786722
 31
0.0
  0
ARC
  5
290
330
1F
100
AcDbEntity
  8
0
  6
HIDDEN
 62
     7
370
     0
100
AcDbCircle
 10
210.1548823902
 20
53.7520989953
 30
0.0
 40
0.5999999999999943
100
AcDbArc
 50
180.0
 51
270.0
  0
ARC
  5
291
330
1F
100
AcDbEntity
  8
0
  6
HIDDEN
 62
     7
370
     0
100
AcDbCircle
 10
210.1548823902
 20
83.1520989953
 30
0.0
 40
0.5999999999999943
100
AcDbArc
 50
90.0
 51
180.0
  0
LINE
  5
292
330
1F
100
AcDbEntity
  8
0
  6
HIDDEN
 62
     7
370
     0
100
AcDbLine
 10
210.1548823902
 20
53.1520989953
 30
0.0
 11
210.8562756494
 21
53.1520989953
 31
0.0
  0
LINE
  5
293
330
1F
100
AcDbEntity
  8
0
  6
HIDDEN
 62
     7
370
     0
100
AcDbLine
 10
210.8562756494
 20
83.7520989953
 30
0.0
 11
210.1548823902
 21
83.7520989953
 31
0.0
  0
ARC
  5
294
330
1F
100
AcDbEntity
  8
0
  6
HIDDEN
 62
     7
370
     0
100
AcDbCircle
 10
210.8562756494
 20
53.7520989953
 30
0.0
 40
0.5999999999999872
100
AcDbArc
 50
270.0
 51
285.0
  0
ARC
  5
295
330
1F
100
AcDbEntity
  8
0
  6
HIDDEN
 62
     7
370
     0
100
AcDbCircle
 10
210.8562756494
 20
83.1520989953
 30
0.0
 40
0.5999999999999943
100
AcDbArc
 50
75.0
 51
90.0
  0
LINE
  5
296
330
1F
100
AcDbEntity
  8
0
  6
HIDDEN
 62
     7
370
     0
100
AcDbLine
 10
211.0115670764
 20
53.1725434995
 30
0.0
 11
212.0548823902
 21
53.4520989953
 31
0.0
  0
LINE
  5
297
330
1F
100
AcDbEntity
  8
0
  6
HIDDEN
 62
     7
370
     0
100
AcDbLine
 10
212.0548823902
 20
83.4520989953
 30
0.0
 11
211.0115670764
 21
83.731654491
 31
0.0
  0
LINE
  5
298
330
1F
100
AcDbEntity
  8
0
  6
HIDDEN
 62
     7
370
     0
100
AcDbLine
 10
212.0548823902
 20
53.4520989953
 30
0.0
 11
234.8048823902
 21
53.4520989953
 31
0.0
  0
LINE
  5
299
330
1F
100
AcDbEntity
  8
0
  6
HIDDEN
 62
     7
370
     0
100
AcDbLine
 10
234.8048823902
 20
83.4520989953
 30
0.0
 11
212.0548823902
 21
83.4520989953
 31
0.0
  0
LINE
  5
29A
330
1F
100
AcDbEntity
  8
0
  6
HIDDEN
 62
     7
370
     0
100
AcDbLine
 10
240.0048823902
 20
89.7270989953
 30
0.0
 11
236.0048823902
 21
89.7270989953
 31
0.0
  0
LINE
  5
29B
330
1F
100
AcDbEntity
  8
0
  6
HIDDEN
 62
     7
370
     0
100
AcDbLine
 10
236.0048823902
 20
47.1770989953
 30
0.0
 11
240.0048823902
 21
47.1770989953
 31
0.0
  0
ARC
  5
29C
330
1F
100
AcDbEntity
  8
0
  6
HIDDEN
 62
     7
370
     0
100
AcDbCircle
 10
54.0048823902
 20
59.1520989953
 30
0.0
 40
0.7999999999999972
100
AcDbArc
 50
90.0
 51
180.0
  0
ARC
  5
29D
330
1F
100
AcDbEntity
  8
0
  6
HIDDEN
 62
     7
370
     0
100
AcDbCircle
 10
54.0048823902
 20
77.7520989953
 30
0.0
 40
0.7999999999999972
100
AcDbArc
 50
180.0
 51
270.0
  0
ARC
  5
29E
330
1F
100
AcDbEntity
  8
0
  6
HIDDEN
 62
     7
370
     0
100
AcDbCircle
 10
61.9739422825
 20
60.1270989953
 30
0.0
 40
0.4000000000000057
100
AcDbArc
 50
270.0
 51
330.0
  0
ARC
  5
29F
330
1F
100
AcDbEntity
  8
0
  6
HIDDEN
 62
     7
370
     0
100
AcDbCircle
 10
61.9739422825
 20
76.7770989953
 30
0.0
 40
0.400000000000005
100
AcDbArc
 50
30.0
 51
90.0
  0
LINE
  5
2A0
330
1F
100
AcDbEntity
  8
0
  6
HIDDEN
 62
     7
370
     0
100
AcDbLine
 10
61.0972548209
 20
59.7270989953
 30
0.0
 11
61.9739422825
 21
59.7270989953
 31
0.0
  0
LINE
  5
2A1
330
1F
100
AcDbEntity
  8
0
  6
HIDDEN
 62
     7
370
     0
100
AcDbLine
 10
61.9739422825
 20
77.1770989953
 30
0.0
 11
61.0972548209
 21
77.1770989953
 31
0.0
  0
ARC
  5
2A2
330
1F
100
AcDbEntity
  8
0
  6
HIDDEN
 62
     7
370
     0
100
AcDbCircle
 10
61.0972548209
 20
60.1270989953
 30
0.0
 40
0.3999999999999986
100
AcDbArc
 50
255.0
 51
270.0
  0
ARC
  5
2A3
330
1F
100
AcDbEntity
  8
0
  6
HIDDEN
 62
     7
370
     0
100
AcDbCircle
 10
61.0972548209
 20
76.7770989953
 30
0.0
 40
0.4000000000000005
100
AcDbArc
 50
90.0
 51
105.0
  0
LINE
  5
2A4
330
1F
100
AcDbEntity
  8
0
  6
HIDDEN
 62
     7
370
     0
100
AcDbLine
 10
60.9937272029
 20
77.1634693258
 30
0.0
 11
60.2048823902
 21
76.9520989953
 31
0.0
  0
LINE
  5
2A5
330
1F
100
AcDbEntity
  8
0
  6
HIDDEN
 62
     7
370
     0
100
AcDbLine
 10
60.2048823902
 20
59.9520989953
 30
0.0
 11
60.9937272029
 21
59.7407286647
 31
0.0
  0
LINE
  5
2A6
330
1F
100
AcDbEntity
  8
0
  6
HIDDEN
 62
     7
370
     0
100
AcDbLine
 10
62.320352444
 20
59.9270989953
 30
0.0
 11
63.2008116045
 21
61.4520989953
 31
0.0
  0
LINE
  5
2A7
330
1F
100
AcDbEntity
  8
0
  6
HIDDEN
 62
     7
370
     0
100
AcDbLine
 10
63.2008116045
 20
75.4520989953
 30
0.0
 11
62.320352444
 21
76.9770989953
 31
0.0
  0
LINE
  5
2A8
330
1F
100
AcDbEntity
  8
0
  6
HIDDEN
 62
     7
370
     0
100
AcDbLine
 10
54.0048823902
 20
59.9520989953
 30
0.0
 11
60.2048823902
 21
59.9520989953
 31
0.0
  0
LINE
  5
2A9
330
1F
100
AcDbEntity
  8
0
  6
HIDDEN
 62
     7
370
     0
100
AcDbLine
 10
60.2048823902
 20
76.9520989953
 30
0.0
 11
54.0048823902
 21
76.9520989953
 31
0.0
  0
LINE
  5
2AA
330
1F
100
AcDbEntity
  8
0
  6
HIDDEN
 62
     7
370
     0
100
AcDbLine
 10
63.2008116045
 20
61.4520989953
 30
0.0
 11
96.2048823902
 21
61.4520989953
 31
0.0
  0
LINE
  5
2AB
330
1F
100
AcDbEntity
  8
0
  6
HIDDEN
 62
     7
370
     0
100
AcDbLine
 10
96.2048823902
 20
75.4520989953
 30
0.0
 11
63.2008116045
 21
75.4520989953
 31
0.0
  0
LINE
  5
2AC
330
1F
100
AcDbEntity
  8
0
  6
HIDDEN
 62
     7
370
     0
100
AcDbLine
 10
96.2048823902
 20
61.4520989953
 30
0.0
 11
97.8572490925
 21
64.2020989953
 31
0.0
  0
LINE
  5
2AD
330
1F
100
AcDbEntity
  8
0
  6
HIDDEN
 62
     7
370
     0
100
AcDbLine
 10
97.8572490925
 20
72.7020989953
 30
0.0
 11
96.2048823902
 21
75.4520989953
 31
0.0
  0
ARC
  5
2AE
330
1F
100
AcDbEntity
  8
0
  6
HIDDEN
 62
     7
370
     0
100
AcDbCircle
 10
146.9548823902
 20
44.2520989953
 30
0.0
 40
1.600000000000001
100
AcDbArc
 50
0.0
 51
90.0
  0
LINE
  5
2AF
330
1F
100
AcDbEntity
  8
0
  6
HIDDEN
 62
     7
370
     0
100
AcDbLine
 10
148.5548823902
 20
43.4520989953
 30
0.0
 11
148.5548823902
 21
44.2520989953
 31
0.0
  0
LINE
  5
2B0
330
1F
100
AcDbEntity
  8
0
  6
HIDDEN
 62
     7
370
     0
100
AcDbLine
 10
97.8572490925
 20
64.2020989953
 30
0.0
 11
209.5548823902
 21
64.2020989953
 31
0.0
  0
LINE
  5
2B1
330
1F
100
AcDbEntity
  8
0
  6
HIDDEN
 62
     7
370
     0
100
AcDbLine
 10
209.5548823902
 20
72.7020989953
 30
0.0
 11
97.8572490925
 21
72.7020989953
 31
0.0
  0
LINE
  5
2B2
330
1F
100
AcDbEntity
  8
0
  6
HIDDEN
 62
     7
370
     0
100
AcDbLine
 10
148.5548823902
 20
93.2520989953
 30
0.0
 11
148.5548823902
 21
93.4520989953
 31
0.0
  0
LINE
  5
2B3
330
1F
100
AcDbEntity
  8
VERMASSUNG
  6
CENTERX2
 62
     7
370
     0
100
AcDbLine
 10
140.5048823902
 20
41.4520990005
 30
0.0
 11
140.5048823902
 21
46.2520989953
 31
0.0
  0
LINE
  5
2B4
330
1F
100
AcDbEntity
  8
VERMASSUNG
  6
CENTERX2
 62
     7
370
     0
100
AcDbLine
 10
140.5048823902
 20
95.4520989075
 30
0.0
 11
140.5048823902
 21
91.2520989953
 31
0.0
  0
LINE
  5
2B5
330
1F
100
AcDbEntity
  8
VERMASSUNG
  6
CENTERX2
 62
     7
370
     0
100
AcDbLine
 10
140.5048823902
 20
88.8507609284
 30
0.0
 11
140.5048823902
 21
84.8090055742
 31
0.0
  0
LINE
  5
2B6
330
1F
100
AcDbEntity
  8
VERMASSUNG
  6
CENTERX2
 62
     7
370
     0
100
AcDbLine
 10
51.2048823902
 20
68.4520989953
 30
0.0
 11
242.5548823902
 21
68.4520989953
 31
0.0
  0
OLE2FRAME
  5
2B7
330
1F
100
AcDbEntity
  8
0
100
AcDbOle2Frame
 70
     2
  3
Paintbrush-Bild
 10
13.8511154363
 20
38.264191557
 30
0.0
 11
51.6290888628
 21
31.9806341108
 31
0.0
 71
     2
 72
     0
 73
     1
 90
    12928
310
80552BED0767C5B32B40DDAF6807D121434000000000000000006FFBDDFB85D0
310
4940DDAF6807D121434000000000000000006FFBDDFB85D04940416F4BD60AFB
310
3F4000000000000000002BED0767C5B32B40416F4BD60AFB3F40000000000000
310
0000000000000100000000010000010000000100000000000100000000320000
310
D0CF11E0A1B11AE1000000000000000000000000000000003E000300FEFF0900
310
0600000000000000000000000100000001000000000000000010000002000000
310
01000000FEFFFFFF0000000000000000FFFFFFFFFFFFFFFFFFFFFFFFFFFFFFFF
310
FFFFFFFFFFFFFFFFFFFFFFFFFFFFFFFFFFFFFFFFFFFFFFFFFFFFFFFFFFFFFFFF
310
FFFFFFFFFFFFFFFFFFFFFFFFFFFFFFFFFFFFFFFFFFFFFFFFFFFFFFFFFFFFFFFF
310
FFFFFFFFFFFFFFFFFFFFFFFFFFFFFFFFFFFFFFFFFFFFFFFFFFFFFFFFFFFFFFFF
310
FFFFFFFFFFFFFFFFFFFFFFFFFFFFFFFFFFFFFFFFFFFFFFFFFFFFFFFFFFFFFFFF
310
FFFFFFFFFFFFFFFFFFFFFFFFFFFFFFFFFFFFFFFFFFFFFFFFFFFFFFFFFFFFFFFF
310
FFFFFFFFFFFFFFFFFFFFFFFFFFFFFFFFFFFFFFFFFFFFFFFFFFFFFFFFFFFFFFFF
310
FFFFFFFFFFFFFFFFFFFFFFFFFFFFFFFFFFFFFFFFFFFFFFFFFFFFFFFFFFFFFFFF
310
FFFFFFFFFFFFFFFFFFFFFFFFFFFFFFFFFFFFFFFFFFFFFFFFFFFFFFFFFFFFFFFF
310
FFFFFFFFFFFFFFFFFFFFFFFFFFFFFFFFFFFFFFFFFFFFFFFFFFFFFFFFFFFFFFFF
310
FFFFFFFFFFFFFFFFFFFFFFFFFFFFFFFFFFFFFFFFFFFFFFFFFFFFFFFFFFFFFFFF
310
FFFFFFFFFFFFFFFFFFFFFFFFFFFFFFFFFFFFFFFFFFFFFFFFFFFFFFFFFFFFFFFF
310
FFFFFFFFFFFFFFFFFFFFFFFFFFFFFFFFFFFFFFFFFFFFFFFFFFFFFFFFFFFFFFFF
310
FFFFFFFFFFFFFFFFFFFFFFFFFFFFFFFFFFFFFFFFFFFFFFFFFFFFFFFFFFFFFFFF
310
FDFFFFFFFEFFFFFFFEFFFFFFFEFFFFFF05000000060000000700000008000000
310
090000000A0000000B0000000C0000000D0000000E0000000F00000010000000
310
11000000120000001300000014000000150000001600000017000000FEFFFFFF
310
FFFFFFFFFFFFFFFFFFFFFFFFFFFFFFFFFFFFFFFFFFFFFFFFFFFFFFFFFFFFFFFF
310
FFFFFFFFFFFFFFFFFFFFFFFFFFFFFFFFFFFFFFFFFFFFFFFFFFFFFFFFFFFFFFFF
310
FFFFFFFFFFFFFFFFFFFFFFFFFFFFFFFFFFFFFFFFFFFFFFFFFFFFFFFFFFFFFFFF
310
FFFFFFFFFFFFFFFFFFFFFFFFFFFFFFFFFFFFFFFFFFFFFFFFFFFFFFFFFFFFFFFF
310
FFFFFFFFFFFFFFFFFFFFFFFFFFFFFFFFFFFFFFFFFFFFFFFFFFFFFFFFFFFFFFFF
310
FFFFFFFFFFFFFFFFFFFFFFFFFFFFFFFFFFFFFFFFFFFFFFFFFFFFFFFFFFFFFFFF
310
FFFFFFFFFFFFFFFFFFFFFFFFFFFFFFFFFFFFFFFFFFFFFFFFFFFFFFFFFFFFFFFF
310
FFFFFFFFFFFFFFFFFFFFFFFFFFFFFFFFFFFFFFFFFFFFFFFFFFFFFFFFFFFFFFFF
310
FFFFFFFFFFFFFFFFFFFFFFFFFFFFFFFFFFFFFFFFFFFFFFFFFFFFFFFFFFFFFFFF
310
FFFFFFFFFFFFFFFFFFFFFFFFFFFFFFFFFFFFFFFFFFFFFFFFFFFFFFFFFFFFFFFF
310
FFFFFFFFFFFFFFFFFFFFFFFFFFFFFFFFFFFFFFFFFFFFFFFFFFFFFFFFFFFFFFFF
310
FFFFFFFFFFFFFFFFFFFFFFFFFFFFFFFFFFFFFFFFFFFFFFFFFFFFFFFFFFFFFFFF
310
FFFFFFFFFFFFFFFFFFFFFFFFFFFFFFFFFFFFFFFFFFFFFFFFFFFFFFFFFFFFFFFF
310
52006F006F007400200045006E00740072007900000000000000000000000000
310
0000000000000000000000000000000000000000000000000000000000000000
310
16000500FFFFFFFFFFFFFFFF020000000A00030000000000C000000000000046
310
000000000000000000000000805F1E62D2FED10103000000C000000000000000
310
01004F006C006500000000000000000000000000000000000000000000000000
310
0000000000000000000000000000000000000000000000000000000000000000
310
0A000200FFFFFFFFFFFFFFFFFFFFFFFF00000000000000000000000000000000
310
0000000000000000000000000000000000000000000000001400000000000000
310
010043006F006D0070004F0062006A0000000000000000000000000000000000
310
0000000000000000000000000000000000000000000000000000000000000000
310
120002010100000003000000FFFFFFFF00000000000000000000000000000000
310
0000000000000000000000000000000000000000010000004D00000000000000
310
01004F006C006500310030004E00610074006900760065000000000000000000
310
0000000000000000000000000000000000000000000000000000000000000000
310
1A000200FFFFFFFFFFFFFFFFFFFFFFFF00000000000000000000000000000000
310
0000000000000000000000000000000000000000040000002426000000000000
310
FEFFFFFF02000000FEFFFFFFFFFFFFFFFFFFFFFFFFFFFFFFFFFFFFFFFFFFFFFF
310
FFFFFFFFFFFFFFFFFFFFFFFFFFFFFFFFFFFFFFFFFFFFFFFFFFFFFFFFFFFFFFFF
310
FFFFFFFFFFFFFFFFFFFFFFFFFFFFFFFFFFFFFFFFFFFFFFFFFFFFFFFFFFFFFFFF
310
FFFFFFFFFFFFFFFFFFFFFFFFFFFFFFFFFFFFFFFFFFFFFFFFFFFFFFFFFFFFFFFF
310
FFFFFFFFFFFFFFFFFFFFFFFFFFFFFFFFFFFFFFFFFFFFFFFFFFFFFFFFFFFFFFFF
310
FFFFFFFFFFFFFFFFFFFFFFFFFFFFFFFFFFFFFFFFFFFFFFFFFFFFFFFFFFFFFFFF
310
FFFFFFFFFFFFFFFFFFFFFFFFFFFFFFFFFFFFFFFFFFFFFFFFFFFFFFFFFFFFFFFF
310
FFFFFFFFFFFFFFFFFFFFFFFFFFFFFFFFFFFFFFFFFFFFFFFFFFFFFFFFFFFFFFFF
310
FFFFFFFFFFFFFFFFFFFFFFFFFFFFFFFFFFFFFFFFFFFFFFFFFFFFFFFFFFFFFFFF
310
FFFFFFFFFFFFFFFFFFFFFFFFFFFFFFFFFFFFFFFFFFFFFFFFFFFFFFFFFFFFFFFF
310
FFFFFFFFFFFFFFFFFFFFFFFFFFFFFFFFFFFFFFFFFFFFFFFFFFFFFFFFFFFFFFFF
310
FFFFFFFFFFFFFFFFFFFFFFFFFFFFFFFFFFFFFFFFFFFFFFFFFFFFFFFFFFFFFFFF
310
FFFFFFFFFFFFFFFFFFFFFFFFFFFFFFFFFFFFFFFFFFFFFFFFFFFFFFFFFFFFFFFF
310
FFFFFFFFFFFFFFFFFFFFFFFFFFFFFFFFFFFFFFFFFFFFFFFFFFFFFFFFFFFFFFFF
310
FFFFFFFFFFFFFFFFFFFFFFFFFFFFFFFFFFFFFFFFFFFFFFFFFFFFFFFFFFFFFFFF
310
FFFFFFFFFFFFFFFFFFFFFFFFFFFFFFFFFFFFFFFFFFFFFFFFFFFFFFFFFFFFFFFF
310
0100000200000000000000000000000000000000000000000000000000000000
310
0000000000000000000000000000000000000000000000000000000000000000
310
0100FEFF030A0000FFFFFFFF0A00030000000000C00000000000004607000000
310
5042727573680007000000504272757368000700000050427275736800F439B2
310
7100000000000000000000000000000000000000000000000000000000000000
310
0000000000000000000000000000000000000000000000000000000000000000
310
0000000000000000000000000000000000000000000000000000000000000000
310
0000000000000000000000000000000000000000000000000000000000000000
310
0000000000000000000000000000000000000000000000000000000000000000
310
0000000000000000000000000000000000000000000000000000000000000000
310
0000000000000000000000000000000000000000000000000000000000000000
310
0000000000000000000000000000000000000000000000000000000000000000
310
0000000000000000000000000000000000000000000000000000000000000000
310
0000000000000000000000000000000000000000000000000000000000000000
310
0000000000000000000000000000000000000000000000000000000000000000
310
0000000000000000000000000000000000000000000000000000000000000000
310
20260000424D0E260000000000003E00000028000000B40200006E0000000100
310
01000000000000000000130B0000130B00000200000002000000000000FFFFFF
310
FFFFFFFFFFFFFFFFFFFFFFFFFFFFFFFFFFFFFFFFFFFFFFFFFFFFFFFFFFFFFFFF
310
FFFFFFFFFFFFFFFFFFFFFFFFFFFFFFFFFFFFFFFFFFFFFFFFFFFFFFFFFFFFFFFF
310
FFFFFFFFFFFFFFFFFFFFFFFFFFFFFFFFFFFFFFFFFFFFFFFFF000FFFFFFFFFFFF
310
FFFFFFFFFFFFFFFFFFFFFFFFFFFFFFFFFFFFFFFFFFFFFFFFFFFFFFFFFFFFFFFF
310
FFFFFFFFFFFFFFFFFFFFFFFFFFFFFFFFFFFFFFFFFFFFFFFFFFFFFFFFFFFFFFFF
310
FFFFFFFFFFFFFFFFFFFFFFFFFFFFFFFFF000FFFFFFFFFFFFFFFFFFFFFFFFFFFF
310
FFFFFFFFFFFFFFFFFFFFFFFFFFFFFFFFFFFFFFFFFFFFFFFFFFFFFFFFFFFFFFFF
310
FFFFFFFFFFFFFFFFFFFFFFFFFFFFFFFFFFFFFFFFFFFFFFFFFFFFFFFFFFFFFFFF
310
FFFFFFFFFFFFFFFFF000FFFFFFFFFFFFFFFFFFFFFFFFFFFFFFFFFFFFFFFFFFFF
310
FFFFFFFFFFFFFFFFFFFFFFFFFFFFFFFFFFFFFFFFFFFFFFFFFFFFFFFFFFFFFFFF
310
FFFFFFFFFFFFFFFFFFFFFFFFFFFFFFFFFFFFFFFFFFFFFFFFFFFFFFFFFFFFFFFF
310
F000FFFFFFFFFFFFFFFFFFFFFFFFFFFFFFFFFFFFFFFFFFFFFFFFFFFFFFFFFFFF
310
FFFFFFFFFFFFFFFFFFFFFFFFFFFFFFFFFFFFFFFFFFFFFFFFFFFFFFFFFFFFFFFF
310
FFFFFFFFFFFFFFFFFFFFFFFFFFFFFFFFFFFFFFFFFFFFFFFFF000FFFFFFFFFFFF
310
FFFFFFFFFFFFFFFFFFFFFFFFFFFFFFFFFFFFFFFFFFFFFFFFFFFFFFFFFFFFFFFF
310
FFFFFFFFFFFFFFFFFFFFFFFFFFFFFFFFFFFFFFFFFFFFFFFFFFFFFFFFFFFFFFFF
310
FFFFFFFFFFFFFFFFFFFFFFFFFFFFFFFFF000FFFFFFFFFFFFFFFFFFFFFFFFFFFF
310
FFFFFFFFFFFFFFFFFFFFFFFFFFFFFFFFFFFFFFFFFFFFFFFFFFFFFFFFFFFFFFFF
310
FFFFFFFFFFFFFFFFFFFFFFFFFFFFFFFFFFFFFFFFFFFFFFFFFFFFFFFFFFFFFFFF
310
FFFFFFFFFFFFFFFFF000FFFFFFFFFFFFFFFFFFFFFFFFFFFFFFFFFFFFFFFFFFFF
310
FFFFFFFFFFFFFFFFFFFFFFFFFFFFFFFFFFFFFFFFFFFFFFFFFFFFFFFFFFFFFFFF
310
FFFFFFFFFFFFFFFFFFFFFFFFFFFFFFFFFFFFFFFFFFFFFFFFFFFFFFFFFFFFFFFF
310
F000FFFFFFFFFFFFFFFFFFFFFFFFFFFFFFFFFFFFFFFFFFFFFFFFFFFFFFFFFFFF
310
FFFFFFFFFFFFFFFFFFFFFFFFFFFFFFFFFFFFFFFFFFFFFFFFFFFFFFFFFFFFFFFF
310
FFFFFFFFFFFFFFFFFFFFFFFFFFFFFFFFFFFFFFFFFFFFFFFFF000FFFFFFFFFFFF
310
FFFFFFFFFFFFFFFFFFFFFFFFFFFFFFFFFFFFFFFFFFFFFFFFFFFFFFFFFFFFFFFF
310
FFFFFFFFFFFFFFFFFFFFFFFFFFFFFFFFFFFFFFFFFFFFFFFFFFFFFFFFFFFFFFFF
310
FFFFFFFFFFFFFFFFFFFFFFFFFFFFFFFFF000FFFFFFFFFFFFFFFFFFFFFFFFFFFF
310
FFFFFFFFFFFFFFFFFFFFFFFFFFFFFFFFFFFFFFFFFFFFFFFFFFFFFFFFFFFFFFFF
310
FFFFFFFFFFFFFFFFFFFFFFFFFFFFFFFFFFFFFFFFFFFFFFFFFFFFFFFFFFFFFFFF
310
FFFFFFFFFFFFFFFFF000FFFFFFFFFFFFFFFFFFFFFFFFFFFFFFFFFFFFFFFFFFFF
310
FFFFFFFFFFFFFFFFFFFFFFFFFFFFFFFFFFFFFFFFFFFFFFFFFFFFFFFFFFFFFFFF
310
FFFFFFFFFFFFFFFFFFFFFFFFFFFFFFFFFFFFFFFFFFFFFFFFFFFFFFFFFFFFFFFF
310
F000FFFFFFFFFFFFFFFFFFFFFFFFFFFFFFFFFFFFFFFFFFFFFFFFFFFFFFFFFFFF
310
FFFFFFFFFFFFFFFFFFFFFFFFFFFFFFFFFFFFFFFFFFFFFFFFFFFFFFFFFFFFFFFF
310
FFFFFFFFFFFFFFFFFFFFFFFFFFFFFFFFFFFFFFFFFFFFFFFFF000FFFFFFFFFFFF
310
FFFFFFFFFFFFFFFFFFFFFFFFFFFFFFFFFFFFFFFFFFFFFFFFFFFFFFFFFFFFFFFF
310
FFFFFFFFFFFFFFFFFFFFFFFFFFFFFFFFFFFFFFFFFFFFFFFFFFFFFFFFFFFFFFFF
310
FFFFFFFFFFFFFFFFFFFFFFFFFFFFFFFFF000FFFFFFFFFFFFFFFFFFFFFFFFFFFF
310
FFFFFFFFFFFFFFFFFFFFFFFFFFFFFFFFFFFFFFFFFFFFFFFFFFFFFFFFFFFFFFFF
310
FFFFFFFFFFFFFFFFFFFFFFFFFFFFFFFFFFFFFFFFFFFFFFFFFFFFFFFFFFFFFFFF
310
FFFFFFFFFFFFFFFFF000FFFFFFFFFFFFFFFFFFFFFFFFFFFFFFFFFFFFFFFFFFFF
310
FFFFFFFFFFFFFFFFFFFFFFFFFFFFFFFFFFFFFFFFFFFFFFFFFFFFFFFFFFFFFFFF
310
FFFFFFFFFFFFFFFFFFFFFFFFFFFFFFFFFFFFFFFFFFFFFFFFFFFFFFFFFFFFFFFF
310
F000FFFFFFFFFFFFFFFFFFFFFFFFFFFFFFFFFFFFFFFFFFFFFFFFFFFFFFFFFFFF
310
FFFFFFFFFFFFFFFFFFFFFFFFFFFFFFFFFFFFFFFFFFFFFFFFFFFFFFFFFFFFFFFF
310
FFFFFFFFFFFFFFFFFFFFFFFFFFFFFFFFFFFFFFFFFFFFFFFFF000FFFFFFFFFFFF
310
FFFFFFFFFFFFFFFFFFFFFFFFFFFFFFFFFFFFFFFFFFFFFFFFFFFFFFFFFFFFFFFF
310
FFFFFFFFFFFFFFFFFFFFFFFFFFFFFFFFFFFFFFFFFFFFFFFFFFFFFFFFFFFFFFFF
310
FFFFFFFFFFFFFFFFFFFFFFFFFFFFFFFFF000FFFFFFFFFFFFFFFFFFFFFFFFFFFF
310
FFFFFFFFFFFFFFFFFFFFFFFFFFFFFFFFFFFFFFFFFFFFFFFFFFFFFFFFFFFFFFFF
310
FFFFFFFFFFFFFFFFFFFFFFFFFFFFFFFFFFFFFFFFFFFFFFFFFFFFFFFFFFFFFFFF
310
FFFFFFFFFFFFFFFFF000FFFFF80003FFFFFFFFFFFFFFFFFFFFFFFFFFFFFFFFFF
310
FFFFF00007FFFFFFFFFF00007FFFFFF800000000000000007FFFFFFFFFFFFFFF
310
FFFFFFFC001FFFFFFFFFFFFFFC001FFFFFFFFFFFFFFFFFFFFFFFFFFE0007FFFF
310
F000FFFF8000007FFFFFFFF8000FFFFFC0007FFFFF80007FFFFF0000007FFFFF
310
FFF8000007FFFFF800000000000000007FFFFFF0001FFFFFFFFFFFC00001FFFF
310
FFFFFFFFC00001FFFFFFFF000000000003FFFFE000007FFFF000FFFE0000000F
310
FFFFFFF0000FFFFF80007FFFFF80007FFFFC0000001FFFFFFFC0000001FFFFF8
310
00000000000000007FFFFFF0001FFFFFFFFFFE0000003FFFFFFFFFFE0000003F
310
FFFFFF000000000003FFFF0000000FFFF000FFF800000003FFFFFFF00007FFFF
310
80007FFFFF80007FFFF000000007FFFFFF000000003FFFF80000000000000000
310
7FFFFFF0001FFFFFFFFFF80000000FFFFFFFFFF80000000FFFFFFF0000000000
310
03FFFC00000003FFF000FFE000000000FFFFFFF00007FFFF80003FFFFF80007F
310
FFC000000001FFFFFC000000001FFFF800000000000000007FFFFFF0001FFFFF
310
FFFFE000000003FFFFFFFFE000000003FFFFFF000000000003FFF000000000FF
310
F000FF80000000007FFFFFF00007FFFF80003FFFFF80007FFF8000000000FFFF
310
F80000000007FFF800000000000000007FFFFFF0001FFFFFFFFFC000000001FF
310
FFFFFFC000000001FFFFFF000000000003FFC0000000007FF000FF0000000000
310
3FFFFFE00007FFFF00003FFFFF80007FFE00000000003FFFF00000000003FFF8
310
00000000000000007FFFFFF0001FFFFFFFFF8000000000FFFFFFFF8000000000
310
FFFFFF000000000003FF80000000003FF000FE00000000001FFFFFE00003FFFF
310
00003FFFFF80007FFC00000000001FFFE00000000001FFF8000001FFFE000000
310
7FFFFFF0001FFFFFFFFE00000000003FFFFFFE00000000003FFFFF0000000000
310
03FF00000000001FF000FC00000000000FFFFFE00003FFFF00001FFFFF80007F
310
F800000000001FFFC00000000000FFF8000001FFFE0000007FFFFFF0001FFFFF
310
FFFC00000000001FFFFFFC00000000001FFFFF000000000003FE00000000000F
310
F000F8000000000007FFFFE00003FFFF00001FFFFF80007FF800000000000FFF
310
800000000000FFF8000001FFFE0000007FFFFFF0001FFFFFFFF800000000000F
310
FFFFF800000000000FFFFF000000000003FC000000000007F000F80000000000
310
03FFFFC00003FFFE00001FFFFF80007FF0000000000007FF0000000000007FF8
310
000001FFFE0000007FFFFFF0001FFFFFFFF0000000000007FFFFF00000000000
310
07FFFF000000000003F8000000000003F000F0000000000003FFFFC00001FFFE
310
00001FFFFF80007FE0000000000007FE0000000000003FF8000001FFFE000000
310
7FFFFFF0001FFFFFFFF0000000000007FFFFF0000000000007FFFF0000000000
310
03F800001F800003F000E00001FFF00001FFFFC00001FFFE00000FFFFF80007F
310
E00001FFE00003FE00001FFF00003FF8000001FFFE0000007FFFFFF0001FFFFF
310
FFE000003E000003FFFFE000003E000003FFFF000000000003F00001FFF80001
310
F000E00007FFFC0001FFFFC00001FFFE00000FFFFF80007FC0000FFFFC0003FC
310
0000FFFFC0001FF8000001FFFE0000007FFFFFF0001FFFFFFFC00003FFE00001
310
FFFFC00003FFE00001FFFF0001FFFFFFFFF00007FFFE0001F000E0000FFFFF00
310
00FFFF800001FFFC00000FFFFF80007FC0001FFFFE0001FC0001FFFFE0001FF8
310
000001FFFE0000007FFFFFF0001FFFFFFF80000FFFF80000FFFF80000FFFF800
310
00FFFF0003FFFFFFFFE0000FFFFF8000F000C0003FFFFF8000FFFF800000FFFC
310
000007FFFF80007F80003FFFFF0001FC0003FFFFF0001FF8000001FFFE000000
310
7FFFFFF0001FFFFFFF80003FFFFE0000FFFF80003FFFFE0000FFFF0003FFFFFF
310
FFE0003FFFFF8000F000C0003FFFFF8000FFFF800000FFFC000007FFFF80007F
310
80007FFFFF8001F80007FFFFF8000FF8000001FFFE0000007FFFFFF0001FFFFF
310
FF00007FFFFF00007FFF00007FFFFF00007FFF0003FFFFFFFFE0003FFFFFC000
310
F000C0007FFFFFC000FFFF000000FFFC000007FFFF80007F8000FFFFFF8000F8
310
000FFFFFF8000FF8000001FFFE0000007FFFFFF0001FFFFFFF0000FFFFFF8000
310
7FFF0000FFFFFF80007FFF0003FFFFFFFFC0007FFFFFC00070008000FFFFFFC0
310
00FFFF000000FFF8000007FFFF80007F8000FFFFFF8000F8000FFFFFF8000FF8
310
000001FFFE0000007FFFFFF0001FFFFFFE0001FFFFFFC0003FFE0001FFFFFFC0
310
003FFF0003FFFFFFFFC0007FFFFFE00070008000FFFFFFC0007FFF0000007FF8
310
000003FFFF80007F0001FFFFFF8000F8000FFFFFF8000FF8000001FFFE000000
310
7FFFFFF0001FFFFFFE0001FFFFFFC0003FFE0001FFFFFFC0003FFF0003FFFFFF
310
FFC000FFFFFFE00070008000FFFFFFC0007FFF0000007FF8000003FFFF80007F
310
0001FFFFFF8000F8001FFFFFF8000FF8000001FFFE0000007FFFFFF0001FFFFF
310
FE0003FFFFFFE0003FFE0003FFFFFFE0003FFF0003FFFFFFFFC000FFFFFFE000
310
70008000FFFFFFC0007FFE0000007FF8000003FFFF80007F0001FFFFFF8000F0
310
001FFFFFF8000FF8000001FFFE0000007FFFFFF0001FFFFFFC0003FFFFFFE000
310
1FFC0003FFFFFFE0001FFF0003FFFFFFFFC000FFFFFFC00070008000FFFFFF80
310
007FFE0000007FF0000003FFFF80007F0001FFFFFF0000F0001FFFFFF8000FF8
310
000001FFFE0000007FFFFFF0001FFFFFFC0007FFFFFFF0001FFC0007FFFFFFF0
310
001FFF0003FFFFFFFFC000FFFFFFC00070008001FFFFFF0000FFFE0000003FF0
310
000001FFFF80007F0001FFFFFF0000F8001FFFFFF0000FF8000001FFFE000000
310
7FFFFFF0001FFFFFFC0007FFFFFFF0001FFC0007FFFFFFF0001FFF0003FFFFFF
310
FFC001FFFFFF80007000FFFFFFFFFE0000FFFE0008003FF0008001FFFF80007F
310
FFFFFFFFFC0000FFFFFFFFFFE0000FF8000001FFFE0000007FFFFFF0001FFFFF
310
F8000FFFFFFFF8000FF8000FFFFFFFF8000FFF0003FFFFFFFFFFFFFFFFFF0000
310
7000FFFFFFFFFC0000FFFC0008003FF0008001FFFF80007FFFFFFFFFF80001FF
310
FFFFFFFF80000FF8000001FFFE0000007FFFFFF0001FFFFFF8000FFFFFFFF800
310
0FF8000FFFFFFFF8000FFF0003FFFFFFFFFFFFFFFFFE0000F000FFFFFFFFE000
310
00FFFC000C003FE000C001FFFF80007FFFFFFFFFC00001FFFFFFFFFE00001FF8
310
000001FFFE0000007FFFFFF0001FFFFFF8000FFFFFFFF8000FF8000FFFFFFFF8
310
000FFF0003FFFFFFFFFFFFFFFFF00000F000FFFFFFFE000001FFFC000C001FE0
310
00C000FFFF80007FFFFFFFFE000001FFFFFFFFE000001FF80FFFFFFFFFFFFFC0
310
7FFFFFF0001FFFFFF8000FFFFFFFF8000FF8000FFFFFFFF8000FFF0003FFFFFF
310
FFFFFFFFFF800000F000FFFFFFC0000001FFFC001C001FE001C000FFFF80007F
310
FFFFFF80000003FFFFFFF80000001FF80FFFFFFFFFFFFFC07FFFFFF0001FFFFF
310
F8001FFFFFFFFC000FF8001FFFFFFFFC000FFF0003FFFFFFFFFFFFFFF0000001
310
F000FFFFF800000001FFF8001C001FE001C000FFFF80007FFFFFF800000003FF
310
FFFF800000003FF80FFFFFFFFFFFFFC07FFFFFF0001FFFFFF8001FFFFFFFFC00
310
0FF8001FFFFFFFFC000FFF0003FFFFFFFFFFFFFE00000001F000FFFFC0000000
310
03FFF8001E001FC001E000FFFF80007FFFFF8000000007FFFFFC000000003FF8
310
0FFFFFFFFFFFFFC07FFFFFF0001FFFFFF8001FFFFFFFFC000FF8001FFFFFFFFC
310
000FFF0003FFFFFFFFFFFFE000000003F000FFFE0000000007FFF8001E000FC0
310
01E0007FFF80007FFFFE0000000007FFFFE0000000007FF80FFFFFFFFFFFFFC0
310
7FFFFFF0001FFFFFF0001FFFFFFFFC0007F0001FFFFFFFFC0007FF0003FFFFFF
310
FFFFFF0000000003F000FFF80000000007FFF8001E000FC003E0007FFF80007F
310
FFF0000000000FFFFF8000000000FFF80FFFFFFFFFFFFFC07FFFFFF0001FFFFF
310
F0001FFFFFFFFC0007F0001FFFFFFFFC0007FF0003FFFFFFFFFFFC0000000007
310
F000FFE0000000000FFFF0003E000FC003E0007FFF80007FFFC0000000001FFF
310
FE0000000001FFF80FFFFFFFFFFFFFC07FFFFFF0001FFFFFF0001FFFFFFFFC00
310
07F0001FFFFFFFFC0007FF0003FFFFFFFFFFF0000000000FF000FFC000000000
310
1FFFF0003F000F8003F0003FFF80007FFF80000000003FFFF80000000003FFF8
310
0FFFFFFFFFFFFFC07FFFFFF0001FFFFFF0001FFFFFFFFC0007F0001FFFFFFFFC
310
0007FF0003FFFFFFFFFFE0000000001FF000FF00000000007FFFF0003F000780
310
03F0003FFF80007FFF00000000007FFFF00000000007FFF80FFFFFFFFFFFFFC0
310
7FFFFFF0001FFFFFF0001FFFFFFFFC0007F0001FFFFFFFFC0007FF0003FFFFFF
310
FFFF80000000007FF000FE0000000000FFFFE0003F00078007F0003FFF80007F
310
FE0000000001FFFFE0000000001FFFF80FFFFFFFFFFFFFC07FFFFFF0001FFFFF
310
F0001FFFFFFFFC0007F0001FFFFFFFFC0007FF0003FFFFFFFFFF0000000000FF
310
F000FC0000000003FFFFE0007F00078007F0003FFF80007FFC0000000007FFFF
310
C0000000007FFFF80FFFFFFFFFFFFFC07FFFFFF0001FFFFFF8001FFFFFFFFC00
310
0FF8001FFFFFFFFC000FFF0003FFFFFFFFFE0000000003FFF000FC000000000F
310
FFFFE0007F80070007F8001FFF80007FF8000000001FFFFF8000000001FFFFF8
310
0FFFFFFFFFFFFFC07FFFFFF0001FFFFFF8001FFFFFFFFC000FF8001FFFFFFFFC
310
000FFF0003FFFFFFFFFC000000000FFFF000F8000000007FFFFFE0007F800700
310
07F8001FFF80007FF000000000FFFFFF800000000FFFFFF80FFFFFFFFFFFFFC0
310
7FFFFFF0001FFFFFF8000FFFFFFFF8000FF8000FFFFFFFF8000FFF0003FFFFFF
310
FFFC000000007FFFF000F800000007FFFFFFC0007F8003000FF8001FFF80007F
310
F000000007FFFFFF000000007FFFFFF80FFFFFFFFFFFFFC07FFFFFF0001FFFFF
310
F8000FFFFFFFF8000FF8000FFFFFFFF8000FFF0003FFFFFFFFF80000000FFFFF
310
F000F0000000FFFFFFFFC000FF8003000FF8001FFF80007FE0000000FFFFFFFF
310
0000000FFFFFFFF8000001FFFE0000007FFFFFF0001FFFFFF8000FFFFFFFF800
310
0FF8000FFFFFFFF8000FFF0003FFFFFFFFF8000000FFFFFFF000F000000FFFFF
310
FFFFC000FFC002000FF8000FFF80007FE000001FFFFFFFFE000001FFFFFFFFF8
310
000001FFFE0000007FFFFFF0001FFFFFF8000FFFFFFFF8000FF8000FFFFFFFF8
310
000FFF0003FFFFFFFFF000001FFFFFFFF000E00000FFFFFFFFFFC000FFC00200
310
0FFC000FFF80007FE00001FFFFFFFFFE00001FFFFFFFFFF8000001FFFE000000
310
7FFFFFF0001FFFFFFC000FFFFFFFF8001FFC000FFFFFFFF8001FFF0003FFFFFF
310
FFF00001FFFFFFFFF000E00007FFFFFFFFFF8000FFC000001FFC000FFF80007F
310
C0000FFFFFFFFFFE0000FFFFFFFFFFF8000001FFFE0000007FFFFFF0001FFFFF
310
FC0007FFFFFFF0001FFC0007FFFFFFF0001FFF0003FFFFFFFFF00007FFFFFFFF
310
F000E0001FFFFFFFFFFF8000FFC000001FFC000FFF80007FC0003FFFFFFFFFFE
310
0001FFFFFFFFFFF8000001FFFE0000007FFFFFF0001FFFFFFC0007FFFFFFF000
310
1FFC0007FFFFFFF0001FFF0003FFFFFFFFF0001FFFFFFFFFF000E0003FFFFF00
310
03FF8001FFE000001FFC0007FF80007FC0007FFFFF0007FC0003FFFFF0003FF8
310
000001FFFE0000007FFFFFF0001FFFFFFC0003FFFFFFE0001FFC0003FFFFFFE0
310
001FFF0003FFFFFFFFF0003FFFFFFFFFF000E0003FFFFF0001FF8001FFE00000
310
1FFE0007FF80007FC0007FFFFE0003FC0007FFFFE0003FF8000001FFFE000000
310
7FFFFFF0001FFFFFFE0003FFFFFFE0003FFE0003FFFFFFE0003FFF0003FFFFFF
310
FFF0003FFFFF8001F000E0003FFFFF0001FF0001FFE000001FFE0007FF80007F
310
C0007FFFFE0003FC0007FFFFE0003FF8000001FFFE0000007FFFFFF0001FFFFF
310
FE0001FFFFFFC0003FFE0001FFFFFFC0003FFF0003FFFFFFFFF0003FFFFF0001
310
F000E0003FFFFF0003FF0001FFE000003FFE0007FF80007FC0007FFFFE0003FC
310
0007FFFFE0003FF8000001FFFE0000007FFFFFF0001FFFFFFF0001FFFFFFC000
310
7FFF0001FFFFFFC0007FFF0003FFFFFFFFF0003FFFFF0001F000E0003FFFFE00
310
03FF0003FFF000003FFE0003FF80007FC0007FFFFC0003FE0007FFFFE0003FF8
310
000001FFFE0000007FFFFFF0001FFFFFFF0000FFFFFF80007FFF0000FFFFFF80
310
007FFF0003FFFFFFFFF0003FFFFF0001F000E0003FFFFE0003FF0003FFF00000
310
3FFF0003FF80007FC0007FFFFC0007FE0007FFFFC0003FF8000001FFFE000000
310
7FFFFFF0001FFFFFFF80007FFFFF0000FFFF80007FFFFF0000FFFF0003FFFFFF
310
FFF0003FFFFF0003F000E0003FFFFC0003FE0003FFF000003FFF0003FF80007F
310
E0003FFFF80007FE0003FFFFC0007FF8000001FFFE0000007FFFFFF0001FFFFF
310
FF80003FFFFE0000FFFF80003FFFFE0000FFFF0003FFFFFFFFF0001FFFFE0003
310
F000F0001FFFF80003FE0003FFF000007FFF0001FF80007FE0003FFFF00007FE
310
0001FFFF80007FF8000001FFFE0000007FFFFFF0001FFFFFFFC0000FFFF80001
310
FFFFC0000FFFF80001FFFF0003FFFFFFFFF0001FFFFC0003F000F0000FFFF000
310
07FE0007FFF800007FFF0001FF80007FE0001FFFE00007FF0000FFFE00007FF8
310
000001FFFE0000007FFFFFF0001FFFFFFFC00003FFE00001FFFFC00003FFE000
310
01FFFF0003FFFFFFFFF8000FFFF80003F000F00003FFC00007FC0007FFF80000
310
7FFF8001FF80007FF00007FF80000FFF00007FF80000FFF8000001FFFE000000
310
7F80000000000001FFE000003E000003FFFFE000003E000003FFFF0003FFFFFF
310
FFF80003FFE00007F000F800000000000FFC0007FFF800007FFF8001FF80007F
310
F000000000000FFF000000000000FFF8000001FFFE0000007F80000000000001
310
FFF0000000000007FFFFF0000000000007FFFF0003FFFFFFFFFC00007E000007
310
F000F800000000000FFC0007FFF80000FFFF8000FF80007FF800000000001FFF
310
800000000001FFF8000001FFFE0000007F80000000000001FFF800000000000F
310
FFFFF800000000000FFFFF0003FFFFFFFFFC00000000000FF000FC0000000000
310
1FFC0007FFFC0000FFFF8000FF80007FF800000000003FFFC00000000001FFF8
310
000001FFFE0000007F80000000000001FFF800000000000FFFFFF80000000000
310
0FFFFF0003FFFFFFFFFE00000000001FF000FE00000000003FF8000FFFFC0000
310
FFFF8000FF80007FFC00000000003FFFC00000000003FFF8000001FFFE000000
310
7F80000000000001FFFC00000000001FFFFFFC00000000001FFFFF0003FFFFFF
310
FFFF00000000001FF000FF00000000003FF8000FFFFC0000FFFFC000FF80007F
310
FE00000000007FFFE00000000007FFF8000001FFFE0000007F80000000000001
310
FFFE00000000003FFFFFFE00000000003FFFFF0003FFFFFFFFFF80000000003F
310
F000FF80000000007FF8000FFFFC0001FFFFC0007F80007FFF0000000000FFFF
310
F0000000000FFFF800000000000000007F80000000000001FFFF8000000000FF
310
FFFFFF8000000000FFFFFF0003FFFFFFFFFFC0000000007FF000FFC000000000
310
FFF8000FFFFE0001FFFFC0007F80007FFF8000000001FFFFF8000000001FFFF8
310
00000000000000007F80000000000001FFFFC000000001FFFFFFFFC000000001
310
FFFFFF0003FFFFFFFFFFE000000000FFF000FFE000000003FFF0001FFFFE0001
310
FFFFC0007F80007FFFC000000007FFFFFE000000003FFFF80000000000000000
310
7F80000000000001FFFFE000000003FFFFFFFFE000000003FFFFFF0003FFFFFF
310
FFFFF000000003FFF000FFF80000000FFFF0001FFFFE0001FFFFE0007F80007F
310
FFF00000000FFFFFFF00000000FFFFF800000000000000007F80000000000001
310
FFFFF80000000FFFFFFFFFF80000000FFFFFFF0003FFFFFFFFFFFC0000000FFF
310
F000FFFE0000003FFFF0001FFFFE0003FFFFE0003F80007FFFFC0000003FFFFF
310
FFC0000003FFFFF800000000000000007F80000000000001FFFFFE0000003FFF
310
FFFFFFFE0000003FFFFFFF0003FFFFFFFFFFFF0000003FFFF000FFFF800000FF
310
FFF0001FFFFF0003FFFFE0003F80007FFFFF000001FFFFFFFFF800001FFFFFF8
310
00000000000000007F80000000000001FFFFFFC00001FFFFFFFFFFFFC00001FF
310
FFFFFF0003FFFFFFFFFFFFC00000FFFFF000FFFFF8000FFFFFFFFFFFFFFFFFFF
310
FFFFFFFFFFFFFFFFFFFFF0001FFFFFFFFFFF0000FFFFFFF80000000000000000
310
7FFFFFFFFFFFFFFFFFFFFFFC001FFFFFFFFFFFFFFC001FFFFFFFFFFFFFFFFFFF
310
FFFFFFFC001FFFFFF000FFFFFFFFFFFFFFFFFFFFFFFFFFFFFFFFFFFFFFFFFFFF
310
FFFFFFFFFFFFFFFFFFFFFFFFFFFFFFFFFFFFFFFFFFFFFFFFFFFFFFFFFFFFFFFF
310
FFFFFFFFFFFFFFFFFFFFFFFFFFFFFFFFFFFFFFFFFFFFFFFFFFFFFFFFFFFFFFFF
310
F000FFFFFFFFFFFFFFFFFFFFFFFFFFFFFFFFFFFFFFFFFFFFFFFFFFFFFFFFFFFF
310
FFFFFFFFFFFFFFFFFFFFFFFFFFFFFFFFFFFFFFFFFFFFFFFFFFFFFFFFFFFFFFFF
310
FFFFFFFFFFFFFFFFFFFFFFFFFFFFFFFFFFFFFFFFFFFFFFFFF000FFFFFFFFFFFF
310
FFFFFFFFFFFFFFFFFFFFFFFFFFFFFFFFFFFFFFFFFFFFFFFFFFFFFFFFFFFFFFFF
310
FFFFFFFFFFFFFFFFFFFFFFFFFFFFFFFFFFFFFFFFFFFFFFFFFFFFFFFFFFFFFFFF
310
FFFFFFFFFFFFFFFFFFFFFFFFFFFFFFFFF000FFFFFFFFFFFFFFFFFFFFFFFFFFFF
310
FFFFFFFFFFFFFFFFFFFFFFFFFFFFFFFFFFFFFFFFFFFFFFFFFFFFFFFFFFFFFFFF
310
FFFFFFFFFFFFFFFFFFFFFFFFFFFFFFFFFFFFFFFFFFFFFFFFFFFFFFFFFFFFFFFF
310
FFFFFFFFFFFFFFFFF000FFFFFFFFFFFFFFFFFFFFFFFFFFFFFFFFFFFFFFFFFFFF
310
FFFFFFFFFFFFFFFFFFFFFFFFFFFFFFFFFFFFFFFFFFFFFFFFFFFFFFFFFFFFFFFF
310
FFFFFFFFFFFFFFFFFFFFFFFFFFFFFFFFFFFFFFFFFFFFFFFFFFFFFFFFFFFFFFFF
310
F000FFFFFFFFFFFFFFFFFFFFFFFFFFFFFFFFFFFFFFFFFFFFFFFFFFFFFFFFFFFF
310
FFFFFFFFFFFFFFFFFFFFFFFFFFFFFFFFFFFFFFFFFFFFFFFFFFFFFFFFFFFFFFFF
310
FFFFFFFFFFFFFFFFFFFFFFFFFFFFFFFFFFFFFFFFFFFFFFFFF000FFFFFFFFFFFF
310
FFFFFFFFFFFFFFFFFFFFFFFFFFFFFFFFFFFFFFFFFFFFFFFFFFFFFFFFFFFFFFFF
310
FFFFFFFFFFFFFFFFFFFFFFFFFFFFFFFFFFFFFFFFFFFFFFFFFFFFFFFFFFFFFFFF
310
FFFFFFFFFFFFFFFFFFFFFFFFFFFFFFFFF000FFFFFFFFFFFFFFFFFFFFFFFFFFFF
310
FFFFFFFFFFFFFFFFFFFFFFFFFFFFFFFFFFFFFFFFFFFFFFFFFFFFFFFFFFFFFFFF
310
FFFFFFFFFFFFFFFFFFFFFFFFFFFFFFFFFFFFFFFFFFFFFFFFFFFFFFFFFFFFFFFF
310
FFFFFFFFFFFFFFFFF000FFFFFFFFFFFFFFFFFFFFFFFFFFFFFFFFFFFFFFFFFFFF
310
FFFFFFFFFFFFFFFFFFFFFFFFFFFFFFFFFFFFFFFFFFFFFFFFFFFFFFFFFFFFFFFF
310
FFFFFFFFFFFFFFFFFFFFFFFFFFFFFFFFFFFFFFFFFFFFFFFFFFFFFFFFFFFFFFFF
310
F000FFFFFFFFFFFFFFFFFFFFFFFFFFFFFFFFFFFFFFFFFFFFFFFFFFFFFFFFFFFF
310
FFFFFFFFFFFFFFFFFFFFFFFFFFFFFFFFFFFFFFFFFFFFFFFFFFFFFFFFFFFFFFFF
310
FFFFFFFFFFFFFFFFFFFFFFFFFFFFFFFFFFFFFFFFFFFFFFFFF000FFFFFFFFFFFF
310
FFFFFFFFFFFFFFFFFFFFFFFFFFFFFFFFFFFFFFFFFFFFFFFFFFFFFFFFFFFFFFFF
310
FFFFFFFFFFFFFFFFFFFFFFFFFFFFFFFFFFFFFFFFFFFFFFFFFFFFFFFFFFFFFFFF
310
FFFFFFFFFFFFFFFFFFFFFFFFFFFFFFFFF000FFFFFFFFFFFFFFFFFFFFFFFFFFFF
310
FFFFFFFFFFFFFFFFFFFFFFFFFFFFFFFFFFFFFFFFFFFFFFFFFFFFFFFFFFFFFFFF
310
FFFFFFFFFFFFFFFFFFFFFFFFFFFFFFFFFFFFFFFFFFFFFFFFFFFFFFFFFFFFFFFF
310
FFFFFFFFFFFFFFFFF000FFFFFFFFFFFFFFFFFFFFFFFFFFFFFFFFFFFFFFFFFFFF
310
FFFFFFFFFFFFFFFFFFFFFFFFFFFFFFFFFFFFFFFFFFFFFFFFFFFFFFFFFFFFFFFF
310
FFFFFFFFFFFFFFFFFFFFFFFFFFFFFFFFFFFFFFFFFFFFFFFFFFFFFFFFFFFFFFFF
310
F000FFFFFFFFFFFFFFFFFFFFFFFFFFFFFFFFFFFFFFFFFFFFFFFFFFFFFFFFFFFF
310
FFFFFFFFFFFFFFFFFFFFFFFFFFFFFFFFFFFFFFFFFFFFFFFFFFFFFFFFFFFFFFFF
310
FFFFFFFFFFFFFFFFFFFFFFFFFFFFFFFFFFFFFFFFFFFFFFFFF000FFFFFFFFFFFF
310
FFFFFFFFFFFFFFFFFFFFFFFFFFFFFFFFFFFFFFFFFFFFFFFFFFFFFFFFFFFFFFFF
310
FFFFFFFFFFFFFFFFFFFFFFFFFFFFFFFFFFFFFFFFFFFFFFFFFFFFFFFFFFFFFFFF
310
FFFFFFFFFFFFFFFFFFFFFFFFFFFFFFFFF000FFFFFFFFFFFFFFFFFFFFFFFFFFFF
310
FFFFFFFFFFFFFFFFFFFFFFFFFFFFFFFFFFFFFFFFFFFFFFFFFFFFFFFFFFFFFFFF
310
FFFFFFFFFFFFFFFFFFFFFFFFFFFFFFFFFFFFFFFFFFFFFFFFFFFFFFFFFFFFFFFF
310
FFFFFFFFFFFFFFFFF000FFFFFFFFFFFFFFFFFFFFFFFFFFFFFFFFFFFFFFFFFFFF
310
FFFFFFFFFFFFFFFFFFFFFFFFFFFFFFFFFFFFFFFFFFFFFFFFFFFFFFFFFFFFFFFF
310
FFFFFFFFFFFFFFFFFFFFFFFFFFFFFFFFFFFFFFFFFFFFFFFFFFFFFFFFFFFFFFFF
310
F000FFFFFFFFFFFFFFFFFFFFFFFFFFFFFFFFFFFFFFFFFFFFFFFFFFFFFFFFFFFF
310
FFFFFFFFFFFFFFFFFFFFFFFFFFFFFFFFFFFFFFFFFFFFFFFFFFFFFFFFFFFFFFFF
310
FFFFFFFFFFFFFFFFFFFFFFFFFFFFFFFFFFFFFFFFFFFFFFFFF000FFFFFFFFFFFF
310
FFFFFFFFFFFFFFFFFFFFFFFFFFFFFFFFFFFFFFFFFFFFFFFFFFFFFFFFFFFFFFFF
310
FFFFFFFFFFFFFFFFFFFFFFFFFFFFFFFFFFFFFFFFFFFFFFFFFFFFFFFFFFFFFFFF
310
FFFFFFFFFFFFFFFFFFFFFFFFFFFFFFFFF000FFFFFFFFFFFFFFFFFFFFFFFFFFFF
310
FFFFFFFFFFFFFFFFFFFFFFFFFFFFFFFFFFFFFFFFFFFFFFFFFFFFFFFFFFFFFFFF
310
FFFFFFFFFFFFFFFFFFFFFFFFFFFFFFFFFFFFFFFFFFFFFFFFFFFFFFFFFFFFFFFF
310
FFFFFFFFFFFFFFFFF000FFFFFFFFFFFFFFFFFFFFFFFFFFFFFFFFFFFFFFFFFFFF
310
FFFFFFFFFFFFFFFFFFFFFFFFFFFFFFFFFFFFFFFFFFFFFFFFFFFFFFFFFFFFFFFF
310
FFFFFFFFFFFFFFFFFFFFFFFFFFFFFFFFFFFFFFFFFFFFFFFFFFFFFFFFFFFFFFFF
310
F000FFFFFFFFFFFFFFFFFFFFFFFFFFFFFFFFFFFFFFFFFFFFFFFFFFFFFFFFFFFF
310
FFFFFFFFFFFFFFFFFFFFFFFFFFFFFFFFFFFFFFFFFFFFFFFFFFFFFFFFFFFFFFFF
310
FFFFFFFFFFFFFFFFFFFFFFFFFFFFFFFFFFFFFFFFFFFFFFFFF000FFFFFFFFFFFF
310
FFFFFFFFFFFFFFFFFFFFFFFFFFFFFFFFFFFFFFFFFFFFFFFFFFFFFFFFFFFFFFFF
310
FFFFFFFFFFFFFFFFFFFFFFFFFFFFFFFFFFFFFFFFFFFFFFFFFFFFFFFFFFFFFFFF
310
FFFFFFFFFFFFFFFFFFFFFFFFFFFFFFFFF0000000000000000000000000000000
310
0000000000000000000000000000000000000000000000000000000000000000
310
0000000000000000000000000000000000000000000000000000000000000000
310
0000000000000000000000000000000000000000000000000000000000000000
310
0000000000000000000000000000000000000000000000000000000000000000
310
0000000000000000000000000000000000000000000000000000000000000000
310
0000000000000000000000000000000000000000000000000000000000000000
310
0000000000000000000000000000000000000000000000000000000000000000
310
0000000000000000000000000000000000000000000000000000000000000000
310
0000000000000000000000000000000000000000000000000000000000000000
310
0000000000000000000000000000000000000000000000000000000000000000
310
0000000000000000000000000000000000000000000000000000000000000000
310
0000000000000000000000000000000000000000000000000000000000000000
310
0000000000000000000000000000000000000000000000000000000000000000
310
0000000000000000000000000000000000000000000000000000000000000000
310
0000000000000000000000000000000000000000000000000000000000000000
  1
OLE
  0
ENDSEC
  0
SECTION
  2
OBJECTS
  0
DICTIONARY
  5
C
330
0
100
AcDbDictionary
281
     1
  3
ACAD_GROUP
350
D
  3
ACAD_LAYOUT
350
1A
  3
ACAD_MLINESTYLE
350
17
  3
ACAD_PLOTSETTINGS
350
19
  3
ACAD_PLOTSTYLENAME
350
E
  3
ACAD_SCALELIST
350
47
  0
DICTIONARY
  5
D
102
{ACAD_REACTORS
330
C
102
}
330
C
100
AcDbDictionary
281
     1
  0
DICTIONARY
  5
1A
102
{ACAD_REACTORS
330
C
102
}
330
C
100
AcDbDictionary
281
     1
  3
Layout1
350
1E
  3
Layout2
350
26
  3
Model
350
22
  0
DICTIONARY
  5
17
102
{ACAD_REACTORS
330
C
102
}
330
C
100
AcDbDictionary
281
     1
  3
Standard
350
18
  0
DICTIONARY
  5
19
102
{ACAD_REACTORS
330
C
102
}
330
C
100
AcDbDictionary
281
     1
  0
ACDBDICTIONARYWDFLT
  5
E
102
{ACAD_REACTORS
330
C
102
}
330
C
100
AcDbDictionary
281
     1
  3
Normal
350
F
100
AcDbDictionaryWithDefault
340
F
  0
DICTIONARY
  5
47
102
{ACAD_REACTORS
330
C
102
}
330
C
100
AcDbDictionary
281
     1
  3
A0
350
48
  3
A1
350
49
  3
A2
350
4A
  3
A3
350
4B
  3
A4
350
4C
  3
A5
350
4D
  3
A6
350
4E
  3
A7
350
4F
  3
A8
350
50
  3
A9
350
51
  3
B0
350
52
  3
B1
350
53
  3
B2
350
54
  3
B3
350
55
  3
B4
350
56
  3
B5
350
57
  3
B6
350
58
  3
B7
350
59
  3
B8
350
5A
  3
B9
350
5B
  3
C0
350
5C
  3
C1
350
5D
  3
C2
350
5E
  3
C3
350
5F
  3
C4
350
60
  3
C5
350
61
  3
C6
350
62
  3
C7
350
63
  3
C8
350
64
  3
C9
350
65
  3
D0
350
66
  3
D1
350
67
  3
D2
350
68
  0
LAYOUT
  5
1E
102
{ACAD_REACTORS
330
1A
102
}
330
1A
100
AcDbPlotSettings
  1

  2
none_device
  4

  6

 40
0.0
 41
0.0
 42
0.0
 43
0.0
 44
0.0
 45
0.0
 46
0.0
 47
0.0
 48
0.0
 49
0.0
140
0.0
141
0.0
142
1.0
143
1.0
 70
   688
 72
     1
 73
     0
 74
     5
  7

 75
    16
147
1.0
148
0.0
149
0.0
100
AcDbLayout
  1
Layout1
 70
     1
 71
     1
 10
0.0
 20
0.0
 11
420.0
 21
297.0
 12
0.0
 22
0.0
 32
0.0
 14
1.0000000000E+20
 24
1.0000000000E+20
 34
1.0000000000E+20
 15
-1.0000000000E+20
 25
-1.0000000000E+20
 35
-1.0000000000E+20
146
0.0
 13
0.0
 23
0.0
 33
0.0
 16
1.0
 26
0.0
 36
0.0
 17
0.0
 27
1.0
 37
0.0
 76
     0
330
1B
  0
LAYOUT
  5
26
102
{ACAD_REACTORS
330
1A
102
}
330
1A
100
AcDbPlotSettings
  1

  2
none_device
  4

  6

 40
0.0
 41
0.0
 42
0.0
 43
0.0
 44
0.0
 45
0.0
 46
0.0
 47
0.0
 48
0.0
 49
0.0
140
0.0
141
0.0
142
1.0
143
1.0
 70
   688
 72
     1
 73
     0
 74
     5
  7

 75
    16
147
1.0
148
0.0
149
0.0
100
AcDbLayout
  1
Layout2
 70
     1
 71
     2
 10
0.0
 20
0.0
 11
0.0
 21
0.0
 12
0.0
 22
0.0
 32
0.0
 14
0.0
 24
0.0
 34
0.0
 15
0.0
 25
0.0
 35
0.0
146
0.0
 13
0.0
 23
0.0
 33
0.0
 16
1.0
 26
0.0
 36
0.0
 17
0.0
 27
1.0
 37
0.0
 76
     0
330
23
  0
LAYOUT
  5
22
102
{ACAD_REACTORS
330
1A
102
}
330
1A
100
AcDbPlotSettings
  1

  2
none_device
  4
Letter_(8.50_x_11.00_Inches)
  6

 40
6.35
 41
6.35
 42
6.35000508
 43
6.35000508
 44
215.9
 45
279.4
 46
0.0
 47
0.0
 48
0.0
 49
0.0
140
0.0
141
0.0
142
1.0
143
1.0
 70
  1712
 72
     1
 73
     0
 74
     0
  7

 75
     0
147
1.0
148
0.0
149
0.0
100
AcDbLayout
  1
Model
 70
     1
 71
     0
 10
0.0
 20
0.0
 11
297.0
 21
210.0
 12
0.0
 22
0.0
 32
0.0
 14
0.0
 24
0.0
 34
0.0
 15
297.0
 25
210.0
 35
0.0
146
0.0
 13
0.0
 23
0.0
 33
0.0
 16
1.0
 26
0.0
 36
0.0
 17
0.0
 27
1.0
 37
0.0
 76
     0
330
1F
331
29
  0
MLINESTYLE
  5
18
102
{ACAD_REACTORS
330
17
102
}
330
17
100
AcDbMlineStyle
  2
Standard
 70
     0
  3

 62
   256
 51
90.0
 52
90.0
 71
     2
 49
0.5
 62
   256
  6
BYLAYER
 49
-0.5
 62
   256
  6
BYLAYER
  0
ACDBPLACEHOLDER
  5
F
102
{ACAD_REACTORS
330
E
102
}
330
E
  0
SCALE
  5
48
102
{ACAD_REACTORS
330
47
102
}
330
47
100
AcDbScale
 70
     0
300
1:1
140
1.0
141
1.0
290
     1
  0
SCALE
  5
49
102
{ACAD_REACTORS
330
47
102
}
330
47
100
AcDbScale
 70
     0
300
1:2
140
1.0
141
2.0
290
     0
  0
SCALE
  5
4A
102
{ACAD_REACTORS
330
47
102
}
330
47
100
AcDbScale
 70
     0
300
1:4
140
1.0
141
4.0
290
     0
  0
SCALE
  5
4B
102
{ACAD_REACTORS
330
47
102
}
330
47
100
AcDbScale
 70
     0
300
1:5
140
1.0
141
5.0
290
     0
  0
SCALE
  5
4C
102
{ACAD_REACTORS
330
47
102
}
330
47
100
AcDbScale
 70
     0
300
1:8
140
1.0
141
8.0
290
     0
  0
SCALE
  5
4D
102
{ACAD_REACTORS
330
47
102
}
330
47
100
AcDbScale
 70
     0
300
1:10
140
1.0
141
10.0
290
     0
  0
SCALE
  5
4E
102
{ACAD_REACTORS
330
47
102
}
330
47
100
AcDbScale
 70
     0
300
1:16
140
1.0
141
16.0
290
     0
  0
SCALE
  5
4F
102
{ACAD_REACTORS
330
47
102
}
330
47
100
AcDbScale
 70
     0
300
1:20
140
1.0
141
20.0
290
     0
  0
SCALE
  5
50
102
{ACAD_REACTORS
330
47
102
}
330
47
100
AcDbScale
 70
     0
300
1:30
140
1.0
141
30.0
290
     0
  0
SCALE
  5
51
102
{ACAD_REACTORS
330
47
102
}
330
47
100
AcDbScale
 70
     0
300
1:40
140
1.0
141
40.0
290
     0
  0
SCALE
  5
52
102
{ACAD_REACTORS
330
47
102
}
330
47
100
AcDbScale
 70
     0
300
1:50
140
1.0
141
50.0
290
     0
  0
SCALE
  5
53
102
{ACAD_REACTORS
330
47
102
}
330
47
100
AcDbScale
 70
     0
300
1:100
140
1.0
141
100.0
290
     0
  0
SCALE
  5
54
102
{ACAD_REACTORS
330
47
102
}
330
47
100
AcDbScale
 70
     0
300
2:1
140
2.0
141
1.0
290
     0
  0
SCALE
  5
55
102
{ACAD_REACTORS
330
47
102
}
330
47
100
AcDbScale
 70
     0
300
4:1
140
4.0
141
1.0
290
     0
  0
SCALE
  5
56
102
{ACAD_REACTORS
330
47
102
}
330
47
100
AcDbScale
 70
     0
300
8:1
140
8.0
141
1.0
290
     0
  0
SCALE
  5
57
102
{ACAD_REACTORS
330
47
102
}
330
47
100
AcDbScale
 70
     0
300
10:1
140
10.0
141
1.0
290
     0
  0
SCALE
  5
58
102
{ACAD_REACTORS
330
47
102
}
330
47
100
AcDbScale
 70
     0
300
100:1
140
100.0
141
1.0
290
     0
  0
SCALE
  5
59
102
{ACAD_REACTORS
330
47
102
}
330
47
100
AcDbScale
 70
     0
300
1/128" = 1'-0"
140
0.0078125
141
12.0
290
     0
  0
SCALE
  5
5A
102
{ACAD_REACTORS
330
47
102
}
330
47
100
AcDbScale
 70
     0
300
1/64" = 1'-0"
140
0.015625
141
12.0
290
     0
  0
SCALE
  5
5B
102
{ACAD_REACTORS
330
47
102
}
330
47
100
AcDbScale
 70
     0
300
1/32" = 1'-0"
140
0.03125
141
12.0
290
     0
  0
SCALE
  5
5C
102
{ACAD_REACTORS
330
47
102
}
330
47
100
AcDbScale
 70
     0
300
1/16" = 1'-0"
140
0.0625
141
12.0
290
     0
  0
SCALE
  5
5D
102
{ACAD_REACTORS
330
47
102
}
330
47
100
AcDbScale
 70
     0
300
3/32" = 1'-0"
140
0.09375
141
12.0
290
     0
  0
SCALE
  5
5E
102
{ACAD_REACTORS
330
47
102
}
330
47
100
AcDbScale
 70
     0
300
1/8" = 1'-0"
140
0.125
141
12.0
290
     0
  0
SCALE
  5
5F
102
{ACAD_REACTORS
330
47
102
}
330
47
100
AcDbScale
 70
     0
300
3/16" = 1'-0"
140
0.1875
141
12.0
290
     0
  0
SCALE
  5
60
102
{ACAD_REACTORS
330
47
102
}
330
47
100
AcDbScale
 70
     0
300
1/4" = 1'-0"
140
0.25
141
12.0
290
     0
  0
SCALE
  5
61
102
{ACAD_REACTORS
330
47
102
}
330
47
100
AcDbScale
 70
     0
300
3/8" = 1'-0"
140
0.375
141
12.0
290
     0
  0
SCALE
  5
62
102
{ACAD_REACTORS
330
47
102
}
330
47
100
AcDbScale
 70
     0
300
1/2" = 1'-0"
140
0.5
141
12.0
290
     0
  0
SCALE
  5
63
102
{ACAD_REACTORS
330
47
102
}
330
47
100
AcDbScale
 70
     0
300
3/4" = 1'-0"
140
0.75
141
12.0
290
     0
  0
SCALE
  5
64
102
{ACAD_REACTORS
330
47
102
}
330
47
100
AcDbScale
 70
     0
300
1" = 1'-0"
140
1.0
141
12.0
290
     0
  0
SCALE
  5
65
102
{ACAD_REACTORS
330
47
102
}
330
47
100
AcDbScale
 70
     0
300
1-1/2" = 1'-0"
140
1.5
141
12.0
290
     0
  0
SCALE
  5
66
102
{ACAD_REACTORS
330
47
102
}
330
47
100
AcDbScale
 70
     0
300
3" = 1'-0"
140
3.0
141
12.0
290
     0
  0
SCALE
  5
67
102
{ACAD_REACTORS
330
47
102
}
330
47
100
AcDbScale
 70
     0
300
6" = 1'-0"
140
6.0
141
12.0
290
     0
  0
SCALE
  5
68
102
{ACAD_REACTORS
330
47
102
}
330
47
100
AcDbScale
 70
     0
300
1'-0" = 1'-0"
140
12.0
141
12.0
290
     0
  0
ENDSEC
  0
EOF
