  0
SECTION
  2
HEADER
  9
$ACADVER
  1
AC1015
  9
$ACADMAINTVER
 70
     6
  9
$DWGCODEPAGE
  3
ANSI_1252
  9
$INSBASE
 10
0.0
 20
0.0
 30
0.0
  9
$EXTMIN
 10
0.0
 20
0.0
 30
0.0
  9
$EXTMAX
 10
297.0
 20
210.0
 30
0.0
  9
$LIMMIN
 10
0.0
 20
0.0
  9
$LIMMAX
 10
297.0
 20
210.0
  9
$ORTHOMODE
 70
     0
  9
$REGENMODE
 70
     1
  9
$FILLMODE
 70
     1
  9
$QTEXTMODE
 70
     0
  9
$MIRRTEXT
 70
     1
  9
$LTSCALE
 40
1.0
  9
$ATTMODE
 70
     1
  9
$TEXTSIZE
 40
2.0
  9
$TRACEWID
 40
1.0
  9
$TEXTSTYLE
  7
Standard
  9
$CLAYER
  8
0
  9
$CELTYPE
  6
ByLayer
  9
$CECOLOR
 62
   256
  9
$CELTSCALE
 40
1.0
  9
$DISPSILH
 70
     0
  9
$DIMSCALE
 40
1.0
  9
$DIMASZ
 40
3.0
  9
$DIMEXO
 40
0.0
  9
$DIMDLI
 40
3.75
  9
$DIMRND
 40
0.0
  9
$DIMDLE
 40
0.0
  9
$DIMEXE
 40
1.0
  9
$DIMTP
 40
0.0
  9
$DIMTM
 40
0.0
  9
$DIMTXT
 40
2.0
  9
$DIMCEN
 40
2.5
  9
$DIMTSZ
 40
0.0
  9
$DIMTOL
 70
     0
  9
$DIMLIM
 70
     0
  9
$DIMTIH
 70
     1
  9
$DIMTOH
 70
     1
  9
$DIMSE1
 70
     0
  9
$DIMSE2
 70
     0
  9
$DIMTAD
 70
     1
  9
$DIMZIN
 70
     0
  9
$DIMBLK
  1

  9
$DIMASO
 70
     1
  9
$DIMSHO
 70
     1
  9
$DIMPOST
  1

  9
$DIMAPOST
  1

  9
$DIMALT
 70
     0
  9
$DIMALTD
 70
     3
  9
$DIMALTF
 40
0.0393700787
  9
$DIMLFAC
 40
1.0
  9
$DIMTOFL
 70
     1
  9
$DIMTVP
 40
0.0
  9
$DIMTIX
 70
     0
  9
$DIMSOXD
 70
     0
  9
$DIMSAH
 70
     0
  9
$DIMBLK1
  1

  9
$DIMBLK2
  1

  9
$DIMSTYLE
  2
ISO-25
  9
$DIMCLRD
 70
     0
  9
$DIMCLRE
 70
     0
  9
$DIMCLRT
 70
     0
  9
$DIMTFAC
 40
1.0
  9
$DIMGAP
 40
1.524
  9
$DIMJUST
 70
     0
  9
$DIMSD1
 70
     0
  9
$DIMSD2
 70
     0
  9
$DIMTOLJ
 70
     0
  9
$DIMTZIN
 70
     0
  9
$DIMALTZ
 70
     0
  9
$DIMALTTZ
 70
     0
  9
$DIMUPT
 70
     0
  9
$DIMDEC
 70
     2
  9
$DIMTDEC
 70
     3
  9
$DIMALTU
 70
     2
  9
$DIMALTTD
 70
     3
  9
$DIMTXSTY
  7
Standard
  9
$DIMAUNIT
 70
     0
  9
$DIMADEC
 70
     2
  9
$DIMALTRND
 40
0.0
  9
$DIMAZIN
 70
     0
  9
$DIMDSEP
 70
    44
  9
$DIMATFIT
 70
     3
  9
$DIMFRAC
 70
     0
  9
$DIMLDRBLK
  1

  9
$DIMLUNIT
 70
     2
  9
$DIMLWD
 70
    -2
  9
$DIMLWE
 70
    -2
  9
$DIMTMOVE
 70
     0
  9
$LUNITS
 70
     2
  9
$LUPREC
 70
     2
  9
$SKETCHINC
 40
1.0
  9
$FILLETRAD
 40
10.0
  9
$AUNITS
 70
     0
  9
$AUPREC
 70
     2
  9
$MENU
  1
.
  9
$ELEVATION
 40
0.0
  9
$PELEVATION
 40
0.0
  9
$THICKNESS
 40
0.0
  9
$LIMCHECK
 70
     0
  9
$CHAMFERA
 40
0.0
  9
$CHAMFERB
 40
0.0
  9
$CHAMFERC
 40
0.0
  9
$CHAMFERD
 40
0.0
  9
$SKPOLY
 70
     0
  9
$TDCREATE
 40
2457655.627705371
  9
$TDUCREATE
 40
2457655.544372037
  9
$TDUPDATE
 40
2457655.627706482
  9
$TDUUPDATE
 40
2457655.544373148
  9
$TDINDWG
 40
0.0000000116
  9
$TDUSRTIMER
 40
0.0000000116
  9
$USRTIMER
 70
     1
  9
$ANGBASE
 50
0.0
  9
$ANGDIR
 70
     0
  9
$PDMODE
 70
     0
  9
$PDSIZE
 40
-1.0
  9
$PLINEWID
 40
0.0
  9
$SPLFRAME
 70
     0
  9
$SPLINETYPE
 70
     6
  9
$SPLINESEGS
 70
     8
  9
$HANDSEED
  5
1CB
  9
$SURFTAB1
 70
     6
  9
$SURFTAB2
 70
     6
  9
$SURFTYPE
 70
     6
  9
$SURFU
 70
     6
  9
$SURFV
 70
     6
  9
$UCSBASE
  2

  9
$UCSNAME
  2

  9
$UCSORG
 10
0.0
 20
0.0
 30
0.0
  9
$UCSXDIR
 10
1.0
 20
0.0
 30
0.0
  9
$UCSYDIR
 10
0.0
 20
1.0
 30
0.0
  9
$UCSORTHOREF
  2

  9
$UCSORTHOVIEW
 70
     0
  9
$UCSORGTOP
 10
0.0
 20
0.0
 30
0.0
  9
$UCSORGBOTTOM
 10
0.0
 20
0.0
 30
0.0
  9
$UCSORGLEFT
 10
0.0
 20
0.0
 30
0.0
  9
$UCSORGRIGHT
 10
0.0
 20
0.0
 30
0.0
  9
$UCSORGFRONT
 10
0.0
 20
0.0
 30
0.0
  9
$UCSORGBACK
 10
0.0
 20
0.0
 30
0.0
  9
$PUCSBASE
  2

  9
$PUCSNAME
  2

  9
$PUCSORG
 10
0.0
 20
0.0
 30
0.0
  9
$PUCSXDIR
 10
1.0
 20
0.0
 30
0.0
  9
$PUCSYDIR
 10
0.0
 20
1.0
 30
0.0
  9
$PUCSORTHOREF
  2

  9
$PUCSORTHOVIEW
 70
     0
  9
$PUCSORGTOP
 10
0.0
 20
0.0
 30
0.0
  9
$PUCSORGBOTTOM
 10
0.0
 20
0.0
 30
0.0
  9
$PUCSORGLEFT
 10
0.0
 20
0.0
 30
0.0
  9
$PUCSORGRIGHT
 10
0.0
 20
0.0
 30
0.0
  9
$PUCSORGFRONT
 10
0.0
 20
0.0
 30
0.0
  9
$PUCSORGBACK
 10
0.0
 20
0.0
 30
0.0
  9
$USERI1
 70
     0
  9
$USERI2
 70
     0
  9
$USERI3
 70
     0
  9
$USERI4
 70
     0
  9
$USERI5
 70
     0
  9
$USERR1
 40
0.0
  9
$USERR2
 40
0.0
  9
$USERR3
 40
0.0
  9
$USERR4
 40
0.0
  9
$USERR5
 40
0.0
  9
$WORLDVIEW
 70
     1
  9
$SHADEDGE
 70
     3
  9
$SHADEDIF
 70
    70
  9
$TILEMODE
 70
     1
  9
$MAXACTVP
 70
    64
  9
$PINSBASE
 10
0.0
 20
0.0
 30
0.0
  9
$PLIMCHECK
 70
     0
  9
$PEXTMIN
 10
1.0000000000E+20
 20
1.0000000000E+20
 30
1.0000000000E+20
  9
$PEXTMAX
 10
-1.0000000000E+20
 20
-1.0000000000E+20
 30
-1.0000000000E+20
  9
$PLIMMIN
 10
0.0
 20
0.0
  9
$PLIMMAX
 10
420.0
 20
297.0
  9
$UNITMODE
 70
     0
  9
$VISRETAIN
 70
     1
  9
$PLINEGEN
 70
     0
  9
$PSLTSCALE
 70
     1
  9
$TREEDEPTH
 70
  3020
  9
$CMLSTYLE
  2
Standard
  9
$CMLJUST
 70
     0
  9
$CMLSCALE
 40
20.0
  9
$PROXYGRAPHICS
 70
     1
  9
$MEASUREMENT
 70
     1
  9
$CELWEIGHT
370
    -1
  9
$ENDCAPS
280
     0
  9
$JOINSTYLE
280
     0
  9
$LWDISPLAY
290
     1
  9
$INSUNITS
 70
     4
  9
$HYPERLINKBASE
  1

  9
$STYLESHEET
  1

  9
$XEDIT
290
     1
  9
$CEPSNTYPE
380
     0
  9
$PSTYLEMODE
290
     1
  9
$FINGERPRINTGUID
  2
{6DC1C91F-9BC1-4B6E-8E27-3D97B7C845FB}
  9
$VERSIONGUID
  2
{FAEB1C32-E019-11D5-929B-00C0DF256EC4}
  9
$EXTNAMES
290
     1
  9
$PSVPSCALE
 40
0.0
  9
$OLESTARTUP
290
     0
  0
ENDSEC
  0
SECTION
  2
CLASSES
  0
CLASS
  1
ACDBDICTIONARYWDFLT
  2
AcDbDictionaryWithDefault
  3
ObjectDBX Classes
 90
        0
280
     0
281
     0
  0
CLASS
  1
VISUALSTYLE
  2
AcDbVisualStyle
  3
ObjectDBX Classes
 90
     4095
280
     0
281
     0
  0
CLASS
  1
MATERIAL
  2
AcDbMaterial
  3
ObjectDBX Classes
 90
     1153
280
     0
281
     0
  0
CLASS
  1
SCALE
  2
AcDbScale
  3
ObjectDBX Classes
 90
     1153
280
     0
281
     0
  0
CLASS
  1
TABLESTYLE
  2
AcDbTableStyle
  3
ObjectDBX Classes
 90
     4095
280
     0
281
     0
  0
CLASS
  1
MLEADERSTYLE
  2
AcDbMLeaderStyle
  3
ACDB_MLEADERSTYLE_CLASS
 90
     4095
280
     0
281
     0
  0
CLASS
  1
SUN
  2
AcDbSun
  3
SCENEOE
 90
     1153
280
     0
281
     0
  0
CLASS
  1
ACDBPLACEHOLDER
  2
AcDbPlaceHolder
  3
ObjectDBX Classes
 90
        0
280
     0
281
     0
  0
CLASS
  1
LAYOUT
  2
AcDbLayout
  3
ObjectDBX Classes
 90
        0
280
     0
281
     0
  0
ENDSEC
  0
SECTION
  2
TABLES
  0
TABLE
  2
VPORT
  5
8
330
0
100
AcDbSymbolTable
 70
     1
  0
VPORT
  5
29
330
8
100
AcDbSymbolTableRecord
100
AcDbViewportTableRecord
  2
*Active
 70
     0
 10
0.0
 20
0.0
 11
1.0
 21
1.0
 12
148.5
 22
105.0
 13
0.0
 23
0.0
 14
10.0
 24
10.0
 15
10.0
 25
10.0
 16
0.0
 26
0.0
 36
1.0
 17
0.0
 27
0.0
 37
0.0
 40
210.0
 41
1.4142857143
 42
50.0
 43
0.0
 44
0.0
 50
0.0
 51
0.0
 71
     0
 72
  2000
 73
     1
 74
     3
 75
     0
 76
     0
 77
     0
 78
     0
281
     0
 65
     1
110
0.0
120
0.0
130
0.0
111
1.0
121
0.0
131
0.0
112
0.0
122
1.0
132
0.0
 79
     0
146
0.0
  0
ENDTAB
  0
TABLE
  2
LTYPE
  5
5
330
0
100
AcDbSymbolTable
 70
     6
  0
LTYPE
  5
14
330
5
100
AcDbSymbolTableRecord
100
AcDbLinetypeTableRecord
  2
ByBlock
 70
     0
  3

 72
    65
 73
     0
 40
0.0
  0
LTYPE
  5
15
330
5
100
AcDbSymbolTableRecord
100
AcDbLinetypeTableRecord
  2
ByLayer
 70
     0
  3

 72
    65
 73
     0
 40
0.0
  0
LTYPE
  5
16
330
5
100
AcDbSymbolTableRecord
100
AcDbLinetypeTableRecord
  2
Continuous
 70
     0
  3
Solid line
 72
    65
 73
     0
 40
0.0
  0
LTYPE
  5
6E
330
5
100
AcDbSymbolTableRecord
100
AcDbLinetypeTableRecord
  2
HIDDEN
 70
     0
  3
Hidden __ __ __ __ __ __ __ __ __ __ __ __ __ __
 72
    65
 73
     2
 40
1.905
 49
1.27
 74
     0
 49
-0.635
 74
     0
  0
LTYPE
  5
6F
330
5
100
AcDbSymbolTableRecord
100
AcDbLinetypeTableRecord
  2
PHANTOM
 70
     0
  3
Phantom ______  __  __  ______  __  __  ______
 72
    65
 73
     6
 40
12.7
 49
6.35
 74
     0
 49
-1.27
 74
     0
 49
1.27
 74
     0
 49
-1.27
 74
     0
 49
1.27
 74
     0
 49
-1.27
 74
     0
  0
LTYPE
  5
70
330
5
100
AcDbSymbolTableRecord
100
AcDbLinetypeTableRecord
  2
CENTER
 70
     0
  3
Center ____ _ ____ _ ____ _ ____ _ ____ _ ____
 72
    65
 73
     4
 40
10.16
 49
6.35
 74
     0
 49
-1.27
 74
     0
 49
1.27
 74
     0
 49
-1.27
 74
     0
  0
LTYPE
  5
71
330
5
100
AcDbSymbolTableRecord
100
AcDbLinetypeTableRecord
  2
CENTERX2
 70
     0
  3
Center (2x) ________  __  ________  __  _____
 72
    65
 73
     4
 40
20.32
 49
12.7
 74
     0
 49
-2.54
 74
     0
 49
2.54
 74
     0
 49
-2.54
 74
     0
  0
LTYPE
  5
72
330
5
100
AcDbSymbolTableRecord
100
AcDbLinetypeTableRecord
  2
DOT2
 70
     0
  3
Dot (.5x) ........................................
 72
    65
 73
     2
 40
0.635
 49
0.0
 74
     0
 49
-0.635
 74
     0
  0
ENDTAB
  0
TABLE
  2
LAYER
  5
2
330
0
100
AcDbSymbolTable
 70
     5
  0
LAYER
  5
10
330
2
100
AcDbSymbolTableRecord
100
AcDbLayerTableRecord
  2
0
 70
     0
 62
     7
  6
Continuous
370
    -3
390
F
  0
LAYER
  5
73
330
2
100
AcDbSymbolTableRecord
100
AcDbLayerTableRecord
  2
FORMAT
 70
     0
 62
     7
  6
Continuous
370
    -3
390
F
  0
LAYER
  5
74
330
2
100
AcDbSymbolTableRecord
100
AcDbLayerTableRecord
  2
VERMASSUNG
 70
     0
 62
     7
  6
Continuous
370
    -3
390
F
  0
LAYER
  5
75
330
2
100
AcDbSymbolTableRecord
100
AcDbLayerTableRecord
  2
KOPF_DÜNN
 70
     0
 62
     7
  6
Continuous
370
    -3
390
F
  0
LAYER
  5
76
330
2
100
AcDbSymbolTableRecord
100
AcDbLayerTableRecord
  2
KOPF_DICK
 70
     0
 62
     7
  6
Continuous
370
    15
390
F
  0
ENDTAB
  0
TABLE
  2
STYLE
  5
3
330
0
100
AcDbSymbolTable
 70
     3
  0
STYLE
  5
11
330
3
100
AcDbSymbolTableRecord
100
AcDbTextStyleTableRecord
  2
Standard
 70
     0
 40
0.0
 41
1.0
 50
0.0
 71
     0
 42
2.0
  3
txt
  4

  0
STYLE
  5
77
330
3
100
AcDbSymbolTableRecord
100
AcDbTextStyleTableRecord
  2
SLDTEXTSTYLE0
 70
     0
 40
0.0
 41
0.7
 50
0.0
 71
     0
 42
2.0
  3
TXT
  4

  0
STYLE
  5
7B
330
3
100
AcDbSymbolTableRecord
100
AcDbTextStyleTableRecord
  2
SLDTEXTSTYLE1
 70
     0
 40
0.0
 41
0.6444444444
 50
0.0
 71
     0
 42
2.0
  3
TXT
  4

  0
ENDTAB
  0
TABLE
  2
VIEW
  5
6
330
0
100
AcDbSymbolTable
 70
     0
  0
ENDTAB
  0
TABLE
  2
UCS
  5
7
330
0
100
AcDbSymbolTable
 70
     0
  0
ENDTAB
  0
TABLE
  2
APPID
  5
9
330
0
100
AcDbSymbolTable
 70
     1
  0
APPID
  5
12
330
9
100
AcDbSymbolTableRecord
100
AcDbRegAppTableRecord
  2
ACAD
 70
     0
  0
ENDTAB
  0
TABLE
  2
DIMSTYLE
  5
A
330
0
100
AcDbSymbolTable
 70
     2
100
AcDbDimStyleTable
  0
DIMSTYLE
105
27
330
A
100
AcDbSymbolTableRecord
100
AcDbDimStyleTableRecord
  2
ISO-25
 70
     0
 41
2.5
 42
0.625
 43
3.75
 44
1.25
 73
     0
 74
     0
 77
     1
 78
     8
140
2.5
141
2.5
143
0.0393700787
147
0.625
171
     3
172
     1
178
     0
271
     2
272
     2
274
     3
278
    44
283
     0
284
     8
340
11
  0
DIMSTYLE
105
123
102
{ACAD_REACTORS
330
122
330
12D
330
139
330
143
330
14D
102
}
330
A
100
AcDbSymbolTableRecord
100
AcDbDimStyleTableRecord
  2
SLDDIMSTYLE0
 70
     0
 41
3.0
 44
0.0
 45
0.000000001
 73
     0
 74
     0
 77
     1
 78
    12
 79
     3
140
2.0
147
0.5
173
     1
178
     0
271
     2
272
     3
276
     2
284
    12
340
77
  0
ENDTAB
  0
TABLE
  2
BLOCK_RECORD
  5
1
330
0
100
AcDbSymbolTable
 70
     6
  0
BLOCK_RECORD
  5
1F
330
1
100
AcDbSymbolTableRecord
100
AcDbBlockTableRecord
  2
*Model_Space
340
22
  0
BLOCK_RECORD
  5
1B
330
1
100
AcDbSymbolTableRecord
100
AcDbBlockTableRecord
  2
*Paper_Space
340
1E
  0
BLOCK_RECORD
  5
23
330
1
100
AcDbSymbolTableRecord
100
AcDbBlockTableRecord
  2
*Paper_Space0
340
26
  0
BLOCK_RECORD
  5
124
330
1
100
AcDbSymbolTableRecord
100
AcDbBlockTableRecord
  2
_D
340
0
  0
BLOCK_RECORD
  5
12E
330
1
100
AcDbSymbolTableRecord
100
AcDbBlockTableRecord
  2
_D_1
340
0
  0
BLOCK_RECORD
  5
13A
330
1
100
AcDbSymbolTableRecord
100
AcDbBlockTableRecord
  2
_D_2
340
0
  0
BLOCK_RECORD
  5
144
330
1
100
AcDbSymbolTableRecord
100
AcDbBlockTableRecord
  2
_D_3
340
0
  0
BLOCK_RECORD
  5
14E
330
1
100
AcDbSymbolTableRecord
100
AcDbBlockTableRecord
  2
_D_4
340
0
  0
ENDTAB
  0
ENDSEC
  0
SECTION
  2
BLOCKS
  0
BLOCK
  5
20
330
1F
100
AcDbEntity
  8
0
100
AcDbBlockBegin
  2
*Model_Space
 70
     0
 10
0.0
 20
0.0
 30
0.0
  3
*Model_Space
  1

  0
ENDBLK
  5
21
330
1F
100
AcDbEntity
  8
0
100
AcDbBlockEnd
  0
BLOCK
  5
1C
330
1B
100
AcDbEntity
 67
     1
  8
0
100
AcDbBlockBegin
  2
*Paper_Space
 70
     0
 10
0.0
 20
0.0
 30
0.0
  3
*Paper_Space
  1

  0
ENDBLK
  5
1D
330
1B
100
AcDbEntity
 67
     1
  8
0
100
AcDbBlockEnd
  0
BLOCK
  5
24
330
23
100
AcDbEntity
  8
0
100
AcDbBlockBegin
  2
*Paper_Space0
 70
     0
 10
0.0
 20
0.0
 30
0.0
  3
*Paper_Space0
  1

  0
ENDBLK
  5
25
330
23
100
AcDbEntity
  8
0
100
AcDbBlockEnd
  0
BLOCK
  5
125
330
124
100
AcDbEntity
  8
0
100
AcDbBlockBegin
  2
_D
 70
     0
 10
0.0
 20
0.0
 30
0.0
  3
_D
  1

  0
SOLID
  5
127
330
124
100
AcDbEntity
  8
VERMASSUNG
100
AcDbTrace
 10
162.1622204406
 20
160.2132271046
 30
0.0
 11
165.1622204406
 21
159.7632271046
 31
0.0
 12
165.1622204406
 22
160.6632271046
 32
0.0
 13
165.1622204406
 23
160.6632271046
 33
0.0
  0
SOLID
  5
128
330
124
100
AcDbEntity
  8
VERMASSUNG
100
AcDbTrace
 10
222.1622204406
 20
160.2132271046
 30
0.0
 11
219.1622204406
 21
160.6632271046
 31
0.0
 12
219.1622204406
 22
159.7632271046
 32
0.0
 13
219.1622204406
 23
159.7632271046
 33
0.0
  0
LINE
  5
129
330
124
100
AcDbEntity
  8
VERMASSUNG
100
AcDbLine
 10
162.1622204406
 20
148.5580597937
 30
0.0
 11
162.1622204406
 21
161.2132271046
 31
0.0
  0
LINE
  5
12A
330
124
100
AcDbEntity
  8
VERMASSUNG
100
AcDbLine
 10
222.1622204406
 20
152.3580597937
 30
0.0
 11
222.1622204406
 21
161.2132271046
 31
0.0
  0
LINE
  5
12B
330
124
100
AcDbEntity
  8
VERMASSUNG
100
AcDbLine
 10
162.1622204406
 20
160.2132271046
 30
0.0
 11
222.1622204406
 21
160.2132271046
 31
0.0
  0
MTEXT
  5
12C
330
124
100
AcDbEntity
  8
VERMASSUNG
100
AcDbMText
 10
190.7625304303
 20
162.7913627005
 30
0.0
 40
2.0
 41
0.0
 71
     1
 72
     1
  1
60
  7
SLDTEXTSTYLE0
 73
     1
 44
1.0
  0
ENDBLK
  5
126
330
124
100
AcDbEntity
  8
0
100
AcDbBlockEnd
  0
BLOCK
  5
12F
330
12E
100
AcDbEntity
  8
0
100
AcDbBlockBegin
  2
_D_1
 70
     0
 10
0.0
 20
0.0
 30
0.0
  3
_D_1
  1

  0
SOLID
  5
131
330
12E
100
AcDbEntity
  8
VERMASSUNG
100
AcDbTrace
 10
63.2533858592
 20
148.5580597937
 30
0.0
 11
62.8033858592
 21
145.5580597937
 31
0.0
 12
63.7033858592
 22
145.5580597937
 32
0.0
 13
63.7033858592
 23
145.5580597937
 33
0.0
  0
SOLID
  5
132
330
12E
100
AcDbEntity
  8
VERMASSUNG
100
AcDbTrace
 10
63.2533858592
 20
85.5580597937
 30
0.0
 11
63.7033858592
 21
88.5580597937
 31
0.0
 12
62.8033858592
 22
88.5580597937
 32
0.0
 13
62.8033858592
 23
88.5580597937
 33
0.0
  0
LINE
  5
133
330
12E
100
AcDbEntity
  8
VERMASSUNG
100
AcDbLine
 10
159.1622162965
 20
148.5580597937
 30
0.0
 11
62.2533858592
 21
148.5580597937
 31
0.0
  0
LINE
  5
134
330
12E
100
AcDbEntity
  8
VERMASSUNG
100
AcDbLine
 10
159.1622212145
 20
85.5580597937
 30
0.0
 11
62.2533858592
 21
85.5580597937
 31
0.0
  0
LINE
  5
135
330
12E
100
AcDbEntity
  8
VERMASSUNG
100
AcDbLine
 10
63.2533858592
 20
148.5580597937
 30
0.0
 11
63.2533858592
 21
85.5580597937
 31
0.0
  0
MTEXT
  5
136
330
12E
100
AcDbEntity
  8
VERMASSUNG
100
AcDbMText
 10
60.475250603
 20
106.3535747267
 30
0.0
 40
2.0
 41
0.0
 71
     1
 72
     1
  1
MAS BT 40
  7
SLDTEXTSTYLE0
 11
-7.044195017643634E-15
 21
1.0
 31
0.0
 73
     1
 44
1.0
  0
MTEXT
  5
137
330
12E
100
AcDbEntity
  8
VERMASSUNG
100
AcDbMText
 10
60.6752505542
 20
121.3535743915
 30
0.0
 40
2.0
 41
0.0
 71
     1
 72
     1
  1
%%c
  7
SLDTEXTSTYLE0
 11
-7.044195017643634E-15
 21
1.0
 31
0.0
 73
     1
 44
1.0
  0
MTEXT
  5
138
330
12E
100
AcDbEntity
  8
VERMASSUNG
100
AcDbMText
 10
60.6752502632
 20
124.96316484
 30
0.0
 40
2.0
 41
0.0
 71
     1
 72
     1
  1
63
  7
SLDTEXTSTYLE0
 11
-7.044195017643634E-15
 21
1.0
 31
0.0
 73
     1
 44
1.0
  0
ENDBLK
  5
130
330
12E
100
AcDbEntity
  8
0
100
AcDbBlockEnd
  0
BLOCK
  5
13B
330
13A
100
AcDbEntity
  8
0
100
AcDbBlockBegin
  2
_D_2
 70
     0
 10
0.0
 20
0.0
 30
0.0
  3
_D_2
  1

  0
SOLID
  5
13D
330
13A
100
AcDbEntity
  8
VERMASSUNG
100
AcDbTrace
 10
135.1622204406
 20
166.2132271046
 30
0.0
 11
138.1622204406
 21
165.7632271046
 31
0.0
 12
138.1622204406
 22
166.6632271046
 32
0.0
 13
138.1622204406
 23
166.6632271046
 33
0.0
  0
SOLID
  5
13E
330
13A
100
AcDbEntity
  8
VERMASSUNG
100
AcDbTrace
 10
222.1622204406
 20
166.2132271046
 30
0.0
 11
219.1622204406
 21
166.6632271046
 31
0.0
 12
219.1622204406
 22
165.7632271046
 32
0.0
 13
219.1622204406
 23
165.7632271046
 33
0.0
  0
LINE
  5
13F
330
13A
100
AcDbEntity
  8
VERMASSUNG
100
AcDbLine
 10
135.1622204406
 20
139.2830597937
 30
0.0
 11
135.1622204406
 21
167.2132271046
 31
0.0
  0
LINE
  5
140
330
13A
100
AcDbEntity
  8
VERMASSUNG
100
AcDbLine
 10
222.1622204406
 20
152.3580597937
 30
0.0
 11
222.1622204406
 21
167.2132271046
 31
0.0
  0
LINE
  5
141
330
13A
100
AcDbEntity
  8
VERMASSUNG
100
AcDbLine
 10
135.1622204406
 20
166.2132271046
 30
0.0
 11
222.1622204406
 21
166.2132271046
 31
0.0
  0
MTEXT
  5
142
330
13A
100
AcDbEntity
  8
VERMASSUNG
100
AcDbMText
 10
177.2625304303
 20
168.7913627005
 30
0.0
 40
2.0
 41
0.0
 71
     1
 72
     1
  1
87
  7
SLDTEXTSTYLE0
 73
     1
 44
1.0
  0
ENDBLK
  5
13C
330
13A
100
AcDbEntity
  8
0
100
AcDbBlockEnd
  0
BLOCK
  5
145
330
144
100
AcDbEntity
  8
0
100
AcDbBlockBegin
  2
_D_3
 70
     0
 10
0.0
 20
0.0
 30
0.0
  3
_D_3
  1

  0
SOLID
  5
147
330
144
100
AcDbEntity
  8
VERMASSUNG
100
AcDbTrace
 10
222.1622204406
 20
173.5256006205
 30
0.0
 11
219.1622204406
 21
173.9756006205
 31
0.0
 12
219.1622204406
 22
173.0756006205
 32
0.0
 13
219.1622204406
 23
173.0756006205
 33
0.0
  0
SOLID
  5
148
330
144
100
AcDbEntity
  8
VERMASSUNG
100
AcDbTrace
 10
69.7622204406
 20
173.5256006205
 30
0.0
 11
72.7622204406
 21
173.0756006205
 31
0.0
 12
72.7622204406
 22
173.9756006205
 32
0.0
 13
72.7622204406
 23
173.9756006205
 33
0.0
  0
LINE
  5
149
330
144
100
AcDbEntity
  8
VERMASSUNG
100
AcDbLine
 10
222.1622204406
 20
152.3580597937
 30
0.0
 11
222.1622204406
 21
174.5256006205
 31
0.0
  0
LINE
  5
14A
330
144
100
AcDbEntity
  8
VERMASSUNG
100
AcDbLine
 10
69.7622204406
 20
128.8808153907
 30
0.0
 11
69.7622204406
 21
174.5256006205
 31
0.0
  0
LINE
  5
14B
330
144
100
AcDbEntity
  8
VERMASSUNG
100
AcDbLine
 10
222.1622204406
 20
173.5256006205
 30
0.0
 11
69.7622204406
 21
173.5256006205
 31
0.0
  0
MTEXT
  5
14C
330
144
100
AcDbEntity
  8
VERMASSUNG
100
AcDbMText
 10
142.9622204145
 20
176.1037362165
 30
0.0
 40
2.0
 41
0.0
 71
     1
 72
     1
  1
152.4
  7
SLDTEXTSTYLE0
 73
     1
 44
1.0
  0
ENDBLK
  5
146
330
144
100
AcDbEntity
  8
0
100
AcDbBlockEnd
  0
BLOCK
  5
14F
330
14E
100
AcDbEntity
  8
0
100
AcDbBlockBegin
  2
_D_4
 70
     0
 10
0.0
 20
0.0
 30
0.0
  3
_D_4
  1

  0
SOLID
  5
151
330
14E
100
AcDbEntity
  8
VERMASSUNG
100
AcDbTrace
 10
232.5639479045
 20
153.0580597937
 30
0.0
 11
232.1139479045
 21
150.0580597937
 31
0.0
 12
233.0139479045
 22
150.0580597937
 32
0.0
 13
233.0139479045
 23
150.0580597937
 33
0.0
  0
SOLID
  5
152
330
14E
100
AcDbEntity
  8
VERMASSUNG
100
AcDbTrace
 10
232.5639479045
 20
81.0580597937
 30
0.0
 11
233.0139479045
 21
84.0580597937
 31
0.0
 12
232.1139479045
 22
84.0580597937
 32
0.0
 13
232.1139479045
 23
84.0580597937
 33
0.0
  0
LINE
  5
153
330
14E
100
AcDbEntity
  8
VERMASSUNG
100
AcDbLine
 10
221.4622204406
 20
153.0580597937
 30
0.0
 11
233.5639479045
 21
153.0580597937
 31
0.0
  0
LINE
  5
154
330
14E
100
AcDbEntity
  8
VERMASSUNG
100
AcDbLine
 10
221.4622204406
 20
81.0580597937
 30
0.0
 11
233.5639479045
 21
81.0580597937
 31
0.0
  0
LINE
  5
155
330
14E
100
AcDbEntity
  8
VERMASSUNG
100
AcDbLine
 10
232.5639479045
 20
153.0580597937
 30
0.0
 11
232.5639479045
 21
81.0580597937
 31
0.0
  0
MTEXT
  5
156
330
14E
100
AcDbEntity
  8
VERMASSUNG
100
AcDbMText
 10
229.7858126483
 20
110.6530601501
 30
0.0
 40
2.0
 41
0.0
 71
     1
 72
     1
  1
MBM
  7
SLDTEXTSTYLE0
 11
-7.044195017643634E-15
 21
1.0
 31
0.0
 73
     1
 44
1.0
  0
MTEXT
  5
157
330
14E
100
AcDbEntity
  8
VERMASSUNG
100
AcDbMText
 10
229.9858125996
 20
117.0530599884
 30
0.0
 40
2.0
 41
0.0
 71
     1
 72
     1
  1
%%c
  7
SLDTEXTSTYLE0
 11
-7.044195017643634E-15
 21
1.0
 31
0.0
 73
     1
 44
1.0
  0
MTEXT
  5
158
330
14E
100
AcDbEntity
  8
VERMASSUNG
100
AcDbMText
 10
229.7858126483
 20
120.6630604684
 30
0.0
 40
2.0
 41
0.0
 71
     1
 72
     1
  1
72
  7
SLDTEXTSTYLE0
 11
-7.044195017643634E-15
 21
1.0
 31
0.0
 73
     1
 44
1.0
  0
ENDBLK
  5
150
330
14E
100
AcDbEntity
  8
0
100
AcDbBlockEnd
  0
ENDSEC
  0
SECTION
  2
ENTITIES
  0
MTEXT
  5
78
330
1F
100
AcDbEntity
  8
KOPF_DÜNN
100
AcDbMText
 10
13.8892156294
 20
23.8442973028
 30
0.0
 40
3.0
 41
0.0
 71
     1
 72
     1
  1
102.412.721
  7
SLDTEXTSTYLE0
 73
     1
 44
1.0
  0
MTEXT
  5
79
330
1F
100
AcDbEntity
  8
VERMASSUNG
100
AcDbMText
 10
13.9329988022
 20
28.8834360957
 30
0.0
 40
3.0
 41
0.0
 71
     1
 72
     1
  1
Aufnahme_Master shank MBM 72
  7
SLDTEXTSTYLE0
 73
     1
 44
1.0
  0
MTEXT
  5
7A
330
1F
100
AcDbEntity
  8
VERMASSUNG
100
AcDbMText
 10
98.8601118557
 20
13.8365368761
 30
0.0
 40
2.0
 41
0.0
 71
     1
 72
     1
  1
Datum: 22.11.2007
  7
SLDTEXTSTYLE0
 73
     1
 44
1.0
  0
MTEXT
  5
7C
330
1F
100
AcDbEntity
  8
VERMASSUNG
100
AcDbMText
 10
13.933048693
 20
18.0482802738
 30
0.0
 40
2.0
 41
0.0
 71
     1
 72
     1
  1
MAS BT 40 / MBM 72
  7
SLDTEXTSTYLE1
 73
     1
 44
1.0
  0
MTEXT
  5
7D
330
1F
100
AcDbEntity
  8
VERMASSUNG
100
AcDbMText
 10
13.9808475933
 20
13.9090974274
 30
0.0
 40
2.0
 41
0.0
 71
     1
 72
     1
  1
Gewicht: 2428g
  7
SLDTEXTSTYLE0
 73
     1
 44
1.0
  0
ARC
  5
7E
330
1F
100
AcDbEntity
  8
0
  6
Continuous
 62
     7
370
    15
100
AcDbCircle
 10
165.3376469212
 20
152.0580597937
 30
0.0
 40
1.0
100
AcDbArc
 50
90.0
 51
150.0
  0
ARC
  5
7F
330
1F
100
AcDbEntity
  8
0
  6
Continuous
 62
     7
370
    15
100
AcDbCircle
 10
165.3376469212
 20
82.0580597937
 30
0.0
 40
1.0
100
AcDbArc
 50
210.0
 51
270.0
  0
LINE
  5
80
330
1F
100
AcDbEntity
  8
0
  6
Continuous
 62
     7
370
    15
100
AcDbLine
 10
165.3376469212
 20
81.0580597937
 30
0.0
 11
221.4622204406
 21
81.0580597937
 31
0.0
  0
LINE
  5
81
330
1F
100
AcDbEntity
  8
0
  6
Continuous
 62
     7
370
    15
100
AcDbLine
 10
221.4622204406
 20
153.0580597937
 30
0.0
 11
165.3376469212
 21
153.0580597937
 31
0.0
  0
LINE
  5
82
330
1F
100
AcDbEntity
  8
0
  6
Continuous
 62
     7
370
    15
100
AcDbLine
 10
221.4622204406
 20
81.0580597937
 30
0.0
 11
222.1622204406
 21
81.7580597937
 31
0.0
  0
LINE
  5
83
330
1F
100
AcDbEntity
  8
0
  6
Continuous
 62
     7
370
    15
100
AcDbLine
 10
222.1622204406
 20
152.3580597937
 30
0.0
 11
221.4622204406
 21
153.0580597937
 31
0.0
  0
LINE
  5
84
330
1F
100
AcDbEntity
  8
0
  6
Continuous
 62
     7
370
    15
100
AcDbLine
 10
164.4716215174
 20
152.5580597937
 30
0.0
 11
162.4508955752
 21
149.0580597937
 31
0.0
  0
LINE
  5
85
330
1F
100
AcDbEntity
  8
0
  6
Continuous
 62
     7
370
    15
100
AcDbLine
 10
162.4508955752
 20
85.0580597937
 30
0.0
 11
164.4716215174
 21
81.5580597937
 31
0.0
  0
ARC
  5
86
330
1F
100
AcDbEntity
  8
0
  6
Continuous
 62
     7
370
    15
100
AcDbCircle
 10
161.5848701714
 20
84.5580597937
 30
0.0
 40
1.000000000000008
100
AcDbArc
 50
30.0
 51
90.0
  0
ARC
  5
87
330
1F
100
AcDbEntity
  8
0
  6
Continuous
 62
     7
370
    15
100
AcDbCircle
 10
161.5848701714
 20
149.5580597937
 30
0.0
 40
1.000000000000028
100
AcDbArc
 50
270.0
 51
330.0
  0
LINE
  5
88
330
1F
100
AcDbEntity
  8
0
  6
Continuous
 62
     7
370
    15
100
AcDbLine
 10
159.1628378558
 20
85.5580597937
 30
0.0
 11
161.5848701714
 21
85.5580597937
 31
0.0
  0
LINE
  5
89
330
1F
100
AcDbEntity
  8
0
  6
Continuous
 62
     7
370
    15
100
AcDbLine
 10
161.5848701714
 20
148.5580597937
 30
0.0
 11
159.1617202706
 21
148.5580597937
 31
0.0
  0
ARC
  5
8A
330
1F
100
AcDbEntity
  8
0
  6
Continuous
 62
     7
370
    15
100
AcDbCircle
 10
136.1622204406
 20
93.8330597937
 30
0.0
 40
1.0
100
AcDbArc
 50
46.4297969643
 51
90.0
  0
ARC
  5
8B
330
1F
100
AcDbEntity
  8
0
  6
Continuous
 62
     7
370
    15
100
AcDbCircle
 10
136.1622204406
 20
140.2830597937
 30
0.0
 40
1.000000000000036
100
AcDbArc
 50
270.0
 51
313.5373873939
  0
LINE
  5
8C
330
1F
100
AcDbEntity
  8
0
  6
Continuous
 62
     7
370
    15
100
AcDbLine
 10
135.1622204406
 20
94.8330597937
 30
0.0
 11
136.1622204406
 21
94.8330597937
 31
0.0
  0
LINE
  5
8D
330
1F
100
AcDbEntity
  8
0
  6
Continuous
 62
     7
370
    15
100
AcDbLine
 10
136.1622204406
 20
139.2830597937
 30
0.0
 11
135.1622204406
 21
139.2830597937
 31
0.0
  0
LINE
  5
8E
330
1F
100
AcDbEntity
  8
0
  6
Continuous
 62
     7
370
    15
100
AcDbLine
 10
135.1622204406
 20
139.2830597937
 30
0.0
 11
70.6179135475
 21
129.8703483718
 31
0.0
  0
LINE
  5
8F
330
1F
100
AcDbEntity
  8
0
  6
Continuous
 62
     7
370
    15
100
AcDbLine
 10
70.6179135475
 20
104.2457712156
 30
0.0
 11
135.1622204406
 21
94.8330597937
 31
0.0
  0
ARC
  5
90
330
1F
100
AcDbEntity
  8
0
  6
Continuous
 62
     7
370
    15
100
AcDbCircle
 10
70.7622204406
 20
105.2353041966
 30
0.0
 40
1.0
100
AcDbArc
 50
180.0
 51
261.7028550302
  0
ARC
  5
91
330
1F
100
AcDbEntity
  8
0
  6
Continuous
 62
     7
370
    15
100
AcDbCircle
 10
70.7622204406
 20
128.8808153907
 30
0.0
 40
1.00000000000001
100
AcDbArc
 50
98.2971449698
 51
180.0
  0
SPLINE
  5
92
330
1F
100
AcDbEntity
  8
0
  6
Continuous
 62
     7
370
    15
100
AcDbSpline
210
0.0
220
0.0
230
1.0
 70
    24
 71
     3
 72
    12
 73
     8
 74
     0
 42
0.000000001
 43
0.00000001
 40
0.0
 40
0.0
 40
0.0
 40
0.0
 40
0.1302930353292233
 40
0.3062462287298356
 40
0.4817563438479439
 40
0.8155257769953094
 40
1.0
 40
1.0
 40
1.0
 40
1.0
 10
207.2244269772658
 20
116.8113125613742
 30
0.0
 10
207.1213181391151
 20
116.6529163976167
 30
0.0
 10
206.8789667904603
 20
116.2806153941638
 30
0.0
 10
206.4748348949584
 20
115.6597865394541
 30
0.0
 10
205.8770089985558
 20
114.7414042719064
 30
0.0
 10
205.2625709878394
 20
113.7975024152874
 30
0.0
 10
204.8511012669542
 20
113.1654011671353
 30
0.0
 10
204.7046343374527
 20
112.9403981492905
 30
0.0
  0
SPLINE
  5
93
330
1F
100
AcDbEntity
  8
0
  6
Continuous
 62
     7
370
    15
100
AcDbSpline
210
0.0
220
0.0
230
1.0
 70
    24
 71
     3
 72
    12
 73
     8
 74
     0
 42
0.000000001
 43
0.00000001
 40
0.0
 40
0.0
 40
0.0
 40
0.0
 40
0.1844742230046906
 40
0.5182436561520561
 40
0.6937537712701644
 40
0.8697069646707767
 40
0.9999999999999999
 40
0.9999999999999999
 40
0.9999999999999999
 40
0.9999999999999999
 10
198.0000139039732
 20
117.3048070259848
 30
0.0
 10
198.1464808334747
 20
117.5298100438296
 30
0.0
 10
198.5579505543598
 20
118.1619112919817
 30
0.0
 10
199.1723885650762
 20
119.1058131486007
 30
0.0
 10
199.7702144614788
 20
120.0241954161484
 30
0.0
 10
200.1743463569807
 20
120.6450242708581
 30
0.0
 10
200.4166977056355
 20
121.017325274311
 30
0.0
 10
200.5198065437862
 20
121.1757214380685
 30
0.0
  0
CIRCLE
  5
94
330
1F
100
AcDbEntity
  8
0
  6
Continuous
 62
     7
370
    15
100
AcDbCircle
 10
202.6122204406
 20
117.0580597937
 30
0.0
 40
4.750000000000003
  0
SPLINE
  5
95
330
1F
100
AcDbEntity
  8
0
  6
Continuous
 62
     7
370
    15
100
AcDbSpline
210
0.0
220
0.0
230
1.0
 70
    24
 71
     3
 72
    11
 73
     7
 74
     0
 42
0.000000001
 43
0.00000001
 40
0.0
 40
0.0
 40
0.0
 40
0.0
 40
0.2164567244934127
 40
0.4403141600939091
 40
0.7519028444798534
 40
1.0
 40
1.0
 40
1.0
 40
1.0
 10
204.7046343374527
 20
112.9403981492905
 30
0.0
 10
204.3886917173569
 20
112.9573006809652
 30
0.0
 10
203.7460043176886
 20
112.9916836462217
 30
0.0
 10
202.5533515905888
 20
113.0554890628212
 30
0.0
 10
201.2740253667815
 20
113.1239314021726
 30
0.0
 10
200.4553359045271
 20
113.167730255785
 30
0.0
 10
200.0924278008064
 20
113.1871453815958
 30
0.0
  0
SPLINE
  5
96
330
1F
100
AcDbEntity
  8
0
  6
Continuous
 62
     7
370
    15
100
AcDbSpline
210
0.0
220
0.0
230
1.0
 70
    24
 71
     3
 72
    11
 73
     7
 74
     0
 42
0.000000001
 43
0.00000001
 40
0.0
 40
0.0
 40
0.0
 40
0.0
 40
0.2164567244934119
 40
0.4403141600939098
 40
0.7519028444798546
 40
1.0
 40
1.0
 40
1.0
 40
1.0
 10
205.1320130804325
 20
120.9289742057632
 30
0.0
 10
205.2753463686619
 20
120.6469086047846
 30
0.0
 10
205.5669135471263
 20
120.0731335073515
 30
0.0
 10
206.1079827990022
 20
119.0083632394905
 30
0.0
 10
206.688373106333
 20
117.8662130602701
 30
0.0
 10
207.0597869175752
 20
117.1353077613409
 30
0.0
 10
207.2244269772658
 20
116.8113125613742
 30
0.0
  0
SPLINE
  5
97
330
1F
100
AcDbEntity
  8
0
  6
Continuous
 62
     7
370
    15
100
AcDbSpline
210
0.0
220
0.0
230
1.0
 70
    24
 71
     3
 72
    11
 73
     7
 74
     0
 42
0.000000001
 43
0.00000001
 40
0.0
 40
0.0
 40
0.0
 40
0.0
 40
0.2164567244934127
 40
0.4403141600939091
 40
0.7519028444798533
 40
1.0
 40
1.0
 40
1.0
 40
1.0
 10
200.5198065437862
 20
121.1757214380685
 30
0.0
 10
200.835749163882
 20
121.1588189063938
 30
0.0
 10
201.4784365635503
 20
121.1244359411372
 30
0.0
 10
202.6710892906501
 20
121.0606305245378
 30
0.0
 10
203.9504155144573
 20
120.9921881851864
 30
0.0
 10
204.7691049767118
 20
120.9483893315739
 30
0.0
 10
205.1320130804325
 20
120.9289742057632
 30
0.0
  0
SPLINE
  5
98
330
1F
100
AcDbEntity
  8
0
  6
Continuous
 62
     7
370
    15
100
AcDbSpline
210
0.0
220
0.0
230
1.0
 70
    24
 71
     3
 72
    11
 73
     7
 74
     0
 42
0.000000001
 43
0.00000001
 40
0.0
 40
0.0
 40
0.0
 40
0.0
 40
0.2164567244934117
 40
0.4403141600939116
 40
0.7519028444798539
 40
0.9999999999999999
 40
0.9999999999999999
 40
0.9999999999999999
 40
0.9999999999999999
 10
200.0924278008064
 20
113.1871453815958
 30
0.0
 10
199.949094512577
 20
113.4692109825744
 30
0.0
 10
199.6575273341126
 20
114.0429860800075
 30
0.0
 10
199.1164580822368
 20
115.1077563478685
 30
0.0
 10
198.5360677749059
 20
116.2499065270889
 30
0.0
 10
198.1646539636637
 20
116.980811826018
 30
0.0
 10
198.0000139039732
 20
117.3048070259848
 30
0.0
  0
CIRCLE
  5
99
330
1F
100
AcDbEntity
  8
0
  6
Continuous
 62
     7
370
    15
100
AcDbCircle
 10
202.6122204406
 20
117.0580597937
 30
0.0
 40
7.200000000000012
  0
CIRCLE
  5
9A
330
1F
100
AcDbEntity
  8
0
  6
Continuous
 62
     7
370
    15
100
AcDbCircle
 10
202.6122204406
 20
117.0580597937
 30
0.0
 40
8.000000000000009
  0
ARC
  5
9B
330
1F
100
AcDbEntity
  8
0
  6
Continuous
 62
     7
370
    15
100
AcDbCircle
 10
202.6122204406
 20
117.0580597937
 30
0.0
 40
4.000000000000028
100
AcDbArc
 50
26.9376674198
 51
86.9376674198
  0
ARC
  5
9C
330
1F
100
AcDbEntity
  8
0
  6
Continuous
 62
     7
370
    15
100
AcDbCircle
 10
202.6122204406
 20
117.0580597937
 30
0.0
 40
4.000000000000028
100
AcDbArc
 50
326.9376674198
 51
26.9376674198
  0
ARC
  5
9D
330
1F
100
AcDbEntity
  8
0
  6
Continuous
 62
     7
370
    15
100
AcDbCircle
 10
202.6122204406
 20
117.0580597937
 30
0.0
 40
4.000000000000028
100
AcDbArc
 50
266.9376674198
 51
326.9376674198
  0
ARC
  5
9E
330
1F
100
AcDbEntity
  8
0
  6
Continuous
 62
     7
370
    15
100
AcDbCircle
 10
202.6122204406
 20
117.0580597937
 30
0.0
 40
4.000000000000003
100
AcDbArc
 50
146.9376674198
 51
206.9376674198
  0
ARC
  5
9F
330
1F
100
AcDbEntity
  8
0
  6
Continuous
 62
     7
370
    15
100
AcDbCircle
 10
202.6122204406
 20
117.0580597937
 30
0.0
 40
4.000000000000003
100
AcDbArc
 50
86.9376674198
 51
146.9376674198
  0
ARC
  5
A0
330
1F
100
AcDbEntity
  8
0
  6
Continuous
 62
     7
370
    15
100
AcDbCircle
 10
202.6122204406
 20
117.0580597937
 30
0.0
 40
4.000000000000003
100
AcDbArc
 50
206.9376674198
 51
266.9376674198
  0
LINE
  5
A1
330
1F
100
AcDbEntity
  8
0
  6
Continuous
 62
     7
370
    15
100
AcDbLine
 10
221.4622204406
 20
81.0580597937
 30
0.0
 11
221.4622204406
 21
153.0580597937
 31
0.0
  0
SPLINE
  5
A2
330
1F
100
AcDbEntity
  8
0
  6
Continuous
 62
     7
370
    15
100
AcDbSpline
210
0.0
220
0.0
230
1.0
 70
     8
 71
     3
 72
    50
 73
    46
 74
     0
 42
0.000000001
 43
0.00000001
 40
0.0
 40
0.0
 40
0.0
 40
0.0
 40
0.0312500000000008
 40
0.0312500000000008
 40
0.0625000000000016
 40
0.0625000000000016
 40
0.1250000000000031
 40
0.1250000000000031
 40
0.1562500000000036
 40
0.1562500000000036
 40
0.1875000000000041
 40
0.1875000000000041
 40
0.2187500000000046
 40
0.2187500000000046
 40
0.250000000000005
 40
0.250000000000005
 40
0.3125000000000069
 40
0.3125000000000069
 40
0.3437500000000079
 40
0.3437500000000079
 40
0.3750000000000088
 40
0.3750000000000088
 40
0.4375000000000105
 40
0.4375000000000105
 40
0.4687500000000107
 40
0.4687500000000107
 40
0.5000000000000109
 40
0.5000000000000109
 40
0.5625000000000098
 40
0.5625000000000098
 40
0.6250000000000087
 40
0.6250000000000087
 40
0.6875000000000075
 40
0.6875000000000075
 40
0.7500000000000059
 40
0.7500000000000059
 40
0.8125000000000042
 40
0.8125000000000042
 40
0.8750000000000026
 40
0.8750000000000026
 40
0.9062500000000019
 40
0.9062500000000019
 40
0.9375000000000012
 40
0.9375000000000012
 40
1.0
 40
1.0
 40
1.0
 40
1.0
 10
212.3622204406194
 20
117.0580597936795
 30
0.0
 10
212.3622204406195
 20
116.7567168412764
 30
0.0
 10
212.3445135827751
 20
116.4556765715688
 30
0.0
 10
212.2733358483166
 20
115.8542069941612
 30
0.0
 10
212.2192828903196
 20
115.5517863382392
 30
0.0
 10
212.0065923017604
 20
114.665343638498
 30
0.0
 10
211.7988202915315
 20
114.0995193978787
 30
0.0
 10
211.3940210234165
 20
113.286001190042
 30
0.0
 10
211.2428804235939
 20
113.0202484084467
 30
0.0
 10
210.916735976959
 20
112.511839057707
 30
0.0
 10
210.7410623909801
 20
112.2676397767607
 30
0.0
 10
210.3656870906757
 20
111.798196486117
 30
0.0
 10
210.1659813529835
 20
111.5729558861558
 30
0.0
 10
209.7428885712228
 20
111.1410250897688
 30
0.0
 10
209.51930139206
 20
110.9344087051147
 30
0.0
 10
208.8268396987133
 20
110.3533086452799
 30
0.0
 10
208.3324010832627
 20
110.012758879845
 30
0.0
 10
207.5436594923531
 20
109.5681648708569
 30
0.0
 10
207.2715472193318
 20
109.4305716724159
 30
0.0
 10
206.7196689787699
 20
109.181583021035
 30
0.0
 10
206.439632239233
 20
109.0698711903701
 30
0.0
 10
205.5876165050335
 20
108.7716442573387
 30
0.0
 10
205.0038288932465
 20
108.6217240859008
 30
0.0
 10
204.1041402089005
 20
108.4705887209827
 30
0.0
 10
203.8008662280436
 20
108.4328349819316
 30
0.0
 10
203.1975306823652
 20
108.3832952556247
 30
0.0
 10
202.896101460921
 20
108.3712568887402
 30
0.0
 10
201.9925180506445
 20
108.3726992730762
 30
0.0
 10
201.3910623610871
 20
108.4234098678974
 30
0.0
 10
200.1900919524242
 20
108.6286319274699
 30
0.0
 10
199.6041877822659
 20
108.7811609955835
 30
0.0
 10
198.4725053846707
 20
109.1811975203314
 30
0.0
 10
197.924714751892
 20
109.4289755303552
 30
0.0
 10
196.8677894867447
 20
110.0281888669373
 30
0.0
 10
196.3744699021281
 20
110.3708121750876
 30
0.0
 10
195.4613150892218
 20
111.1410059890211
 30
0.0
 10
195.03932342785
 20
111.5706510867795
 30
0.0
 10
194.2830013949777
 20
112.5200020595739
 30
0.0
 10
193.959973599224
 20
113.0249104122935
 30
0.0
 10
193.5602486091618
 20
113.8293282770587
 30
0.0
 10
193.4412493339827
 20
114.1053674076371
 30
0.0
 10
193.2335656110915
 20
114.6743342949557
 30
0.0
 10
193.1447335374709
 20
114.968827830488
 30
0.0
 10
192.9334096121908
 20
115.8533463213269
 30
0.0
 10
192.8622204406195
 20
116.451409850991
 30
0.0
 10
192.8622204406195
 20
117.0580597936795
 30
0.0
  0
SPLINE
  5
A3
330
1F
100
AcDbEntity
  8
0
  6
Continuous
 62
     7
370
    15
100
AcDbSpline
210
0.0
220
0.0
230
1.0
 70
     8
 71
     3
 72
    54
 73
    50
 74
     0
 42
0.000000001
 43
0.00000001
 40
0.0
 40
0.0
 40
0.0
 40
0.0
 40
0.0312500000000003
 40
0.0312500000000003
 40
0.0625000000000005
 40
0.0625000000000005
 40
0.0937500000000008
 40
0.0937500000000008
 40
0.125000000000001
 40
0.125000000000001
 40
0.1875000000000012
 40
0.1875000000000012
 40
0.2187500000000011
 40
0.2187500000000011
 40
0.2500000000000009
 40
0.2500000000000009
 40
0.3125000000000009
 40
0.3125000000000009
 40
0.3750000000000009
 40
0.3750000000000009
 40
0.437500000000001
 40
0.437500000000001
 40
0.4687500000000009
 40
0.4687500000000009
 40
0.5000000000000009
 40
0.5000000000000009
 40
0.562500000000001
 40
0.562500000000001
 40
0.5937500000000002
 40
0.5937500000000002
 40
0.6249999999999994
 40
0.6249999999999994
 40
0.6874999999999979
 40
0.6874999999999979
 40
0.7187499999999977
 40
0.7187499999999977
 40
0.7499999999999974
 40
0.7499999999999974
 40
0.8124999999999981
 40
0.8124999999999981
 40
0.8437499999999984
 40
0.8437499999999984
 40
0.8749999999999989
 40
0.8749999999999989
 40
0.9374999999999996
 40
0.9374999999999996
 40
0.9687499999999999
 40
0.9687499999999999
 40
1.0
 40
1.0
 40
1.0
 40
1.0
 10
192.8622204406195
 20
117.0580597936795
 30
0.0
 10
192.8622204406195
 20
117.3614493554567
 30
0.0
 10
192.8805515012385
 20
117.6690515777397
 30
0.0
 10
192.9528666866715
 20
118.2733526469425
 30
0.0
 10
193.0065941166361
 20
118.5711567242515
 30
0.0
 10
193.1479027495841
 20
119.1584063733871
 30
0.0
 10
193.2354873314996
 20
119.4478510851302
 30
0.0
 10
193.4443573128578
 20
120.0184461168979
 30
0.0
 10
193.566081408871
 20
120.2999468125526
 30
0.0
 10
193.9719719557227
 20
121.1123922100033
 30
0.0
 10
194.2986383491482
 20
121.6186805727339
 30
0.0
 10
194.867912508688
 20
122.3287413416023
 30
0.0
 10
195.0705187211562
 20
122.5563165607813
 30
0.0
 10
195.4952032791126
 20
122.9881362491446
 30
0.0
 10
195.7179991217255
 20
123.1932985610948
 30
0.0
 10
196.4170723056984
 20
123.7774786013278
 30
0.0
 10
196.9139989907199
 20
124.1171522165644
 30
0.0
 10
197.9583864456115
 20
124.7029695904869
 30
0.0
 10
198.508344190887
 20
124.950335694619
 30
0.0
 10
199.6559393693069
 20
125.3502891093212
 30
0.0
 10
200.239873959753
 20
125.4983756900288
 30
0.0
 10
201.1302984187877
 20
125.6468256833126
 30
0.0
 10
201.429543038939
 20
125.6839423599629
 30
0.0
 10
202.0329739438482
 20
125.7331511548901
 30
0.0
 10
202.3386253200915
 20
125.7451943548951
 30
0.0
 10
203.2494513025482
 20
125.7426738757527
 30
0.0
 10
203.8493251708132
 20
125.69045141413
 30
0.0
 10
204.7383766531428
 20
125.5378252767813
 30
0.0
 10
205.0329233326298
 20
125.4744902283446
 30
0.0
 10
205.6183193952554
 20
125.3221830701726
 30
0.0
 10
205.9103931785966
 20
125.2326922537956
 30
0.0
 10
206.7651821203668
 20
124.9296353946386
 30
0.0
 10
207.3104210965217
 20
124.6813006225818
 30
0.0
 10
208.0912685031805
 20
124.238276054064
 30
0.0
 10
208.3453423821582
 20
124.0787692670046
 30
0.0
 10
208.8405145291558
 20
123.7348395739471
 30
0.0
 10
209.082320294645
 20
123.5496337372936
 30
0.0
 10
209.7717114898105
 20
122.9672616855812
 30
0.0
 10
210.188795786132
 20
122.5405376743791
 30
0.0
 10
210.7478298325616
 20
121.839296071529
 30
0.0
 10
210.9229950681514
 20
121.5952828748846
 30
0.0
 10
211.2493093994863
 20
121.0850600018234
 30
0.0
 10
211.3995619379989
 20
120.8197678926635
 30
0.0
 10
211.8007301136369
 20
120.0111533878373
 30
0.0
 10
212.0069568711617
 20
119.4487448252801
 30
0.0
 10
212.218559989667
 20
118.5676009872328
 30
0.0
 10
212.2728640034698
 20
118.2652153494782
 30
0.0
 10
212.3445072018663
 20
117.6611768275661
 30
0.0
 10
212.3622204406194
 20
117.3594669144618
 30
0.0
 10
212.3622204406194
 20
117.0580597936795
 30
0.0
  0
LINE
  5
A4
330
1F
100
AcDbEntity
  8
0
  6
Continuous
 62
     7
370
    15
100
AcDbLine
 10
222.1622204406
 20
81.7580597937
 30
0.0
 11
222.1622204406
 21
152.3580597937
 31
0.0
  0
SPLINE
  5
A5
330
1F
100
AcDbEntity
  8
0
  6
Continuous
 62
     7
370
    15
100
AcDbSpline
210
0.0
220
0.0
230
1.0
 70
     8
 71
     3
 72
    10
 73
     6
 74
     0
 42
0.000000001
 43
0.00000001
 40
0.0
 40
0.0
 40
0.0
 40
0.0
 40
0.5
 40
0.5
 40
1.0
 40
1.0
 40
1.0
 40
1.0
 10
156.1388288446649
 20
146.9625205150336
 30
0.0
 10
155.8227250135255
 20
146.3426579567564
 30
0.0
 10
155.4929459691807
 20
145.6967572214576
 30
0.0
 10
154.8207226967919
 20
144.3823385811571
 30
0.0
 10
154.4785895308613
 20
143.7144163541448
 30
0.0
 10
154.1314092023471
 20
143.0380786216633
 30
0.0
  0
SPLINE
  5
A6
330
1F
100
AcDbEntity
  8
0
  6
Continuous
 62
     7
370
    15
100
AcDbSpline
210
0.0
220
0.0
230
1.0
 70
     8
 71
     3
 72
     9
 73
     5
 74
     0
 42
0.000000001
 43
0.00000001
 40
0.0
 40
0.0
 40
0.0
 40
0.0
 40
0.5067595796306674
 40
1.0
 40
1.0
 40
1.0
 40
1.0
 10
156.787850983604
 20
147.9201949010285
 30
0.0
 10
156.677450635822
 20
147.7581199626966
 30
0.0
 10
156.4595951630898
 20
147.4382938659704
 30
0.0
 10
156.2450020608757
 20
147.1199458863202
 30
0.0
 10
156.1391560689312
 20
146.9629237950138
 30
0.0
  0
LINE
  5
A7
330
1F
100
AcDbEntity
  8
0
  6
Continuous
 62
     7
370
    15
100
AcDbLine
 10
156.7872204406
 20
86.1969617741
 30
0.0
 11
156.7872204406
 21
147.9191415482
 31
0.0
  0
SPLINE
  5
A8
330
1F
100
AcDbEntity
  8
0
  6
Continuous
 62
     7
370
    15
100
AcDbSpline
210
0.0
220
0.0
230
1.0
 70
     8
 71
     3
 72
     9
 73
     5
 74
     0
 42
0.000000001
 43
0.00000001
 40
0.0
 40
0.0
 40
0.0
 40
0.0
 40
0.4932426507672939
 40
1.0
 40
1.0
 40
1.0
 40
1.0
 10
156.1391421539084
 20
87.15319369197472
 30
0.0
 10
156.2449882590341
 20
86.99617045214731
 30
0.0
 10
156.4595806203414
 20
86.67782158352631
 30
0.0
 10
156.6774349083074
 20
86.35799553681012
 30
0.0
 10
156.7878341697961
 20
86.19592133716064
 30
0.0
  0
SPLINE
  5
A9
330
1F
100
AcDbEntity
  8
0
  6
Continuous
 62
     7
370
    15
100
AcDbSpline
210
0.0
220
0.0
230
1.0
 70
     8
 71
     3
 72
    10
 73
     6
 74
     0
 42
0.000000001
 43
0.00000001
 40
0.0
 40
0.0
 40
0.0
 40
0.0
 40
0.5
 40
0.5
 40
1.0
 40
1.0
 40
1.0
 40
1.0
 10
156.1388229249971
 20
87.15361068047446
 30
0.0
 10
155.822643822323
 20
87.77362083248819
 30
0.0
 10
155.492201595156
 20
88.42081889835588
 30
0.0
 10
154.8204900744733
 20
89.73423482294965
 30
0.0
 10
154.4785161994413
 20
90.40184608925244
 30
0.0
 10
154.1314092023471
 20
91.0780409656956
 30
0.0
  0
SPLINE
  5
AA
330
1F
100
AcDbEntity
  8
0
  6
Continuous
 62
     7
370
    15
100
AcDbSpline
210
0.0
220
0.0
230
1.0
 70
     8
 71
     3
 72
    11
 73
     7
 74
     0
 42
0.000000001
 43
0.00000001
 40
0.0
 40
0.0
 40
0.0
 40
0.0
 40
0.2488814606694497
 40
0.5011921284373979
 40
0.7520447562609068
 40
1.0
 40
1.0
 40
1.0
 40
1.0
 10
159.1617202706024
 20
148.557910048273
 30
0.0
 10
159.131941941116
 20
148.5487780221286
 30
0.0
 10
159.0719749821611
 20
148.5303881444417
 30
0.0
 10
158.5800529203675
 20
148.3863508959555
 30
0.0
 10
157.8519834977268
 20
148.1769478178455
 30
0.0
 10
157.1412400265621
 20
148.0047435484952
 30
0.0
 10
156.7879325094283
 20
147.919141548178
 30
0.0
  0
SPLINE
  5
AB
330
1F
100
AcDbEntity
  8
0
  6
Continuous
 62
     7
370
    15
100
AcDbSpline
210
0.0
220
0.0
230
1.0
 70
     8
 71
     3
 72
    24
 73
    20
 74
     0
 42
0.000000001
 43
0.00000001
 40
0.0
 40
0.0
 40
0.0
 40
0.0
 40
0.0452526285779199
 40
0.0903797919997872
 40
0.1354297334762094
 40
0.1804509444415869
 40
0.2254920091019758
 40
0.2706014474912611
 40
0.3158275595596116
 40
0.361218272779684
 40
0.4068209956259345
 40
0.4526824790694493
 40
0.4988486879483424
 40
0.5834875413230236
 40
0.6672865896625026
 40
0.7505381947447017
 40
0.833540503368218
 40
0.9165943471357945
 40
1.0
 40
1.0
 40
1.0
 40
1.0
 10
156.7878391340371
 20
86.196961774144
 30
0.0
 10
156.8555428759472
 20
86.18120273312415
 30
0.0
 10
156.9907626477865
 20
86.14972834380694
 30
0.0
 10
157.1834243646423
 20
86.10326754046318
 30
0.0
 10
157.3681612363044
 20
86.05763656082783
 30
0.0
 10
157.5442791776043
 20
86.01301126339317
 30
0.0
 10
157.7119629702221
 20
85.96952397679291
 30
0.0
 10
157.8711624545082
 20
85.92732292899935
 30
0.0
 10
158.0218905930085
 20
85.88655633667533
 30
0.0
 10
158.1641435463555
 20
85.84737658412139
 30
0.0
 10
158.2979223017436
 20
85.80993929212829
 30
0.0
 10
158.4232262114687
 20
85.77440270888889
 30
0.0
 10
158.5722053343704
 20
85.73172058303264
 30
0.0
 10
158.7328614328745
 20
85.68524388901439
 30
0.0
 10
158.8886848400635
 20
85.63961491619843
 30
0.0
 10
159.010274464778
 20
85.60359618184549
 30
0.0
 10
159.0967836637964
 20
85.5777055302416
 30
0.0
 10
159.1512991869836
 20
85.56124082208005
 30
0.0
 10
159.1585684236502
 20
85.55912213951741
 30
0.0
 10
159.1622107236828
 20
85.5580605593377
 30
0.0
  0
LINE
  5
AC
330
1F
100
AcDbEntity
  8
0
  6
Continuous
 62
     7
370
    15
100
AcDbLine
 10
146.7372204406
 20
147.2944498967
 30
0.0
 11
138.1622204406
 21
147.2944498967
 31
0.0
  0
LINE
  5
AD
330
1F
100
AcDbEntity
  8
0
  6
Continuous
 62
     7
370
    15
100
AcDbLine
 10
146.7372204406
 20
86.8216696907
 30
0.0
 11
146.7372204406
 21
147.2944498967
 31
0.0
  0
LINE
  5
AE
330
1F
100
AcDbEntity
  8
0
  6
Continuous
 62
     7
370
    15
100
AcDbLine
 10
138.1622204406
 20
86.8216696907
 30
0.0
 11
146.7372204406
 21
86.8216696907
 31
0.0
  0
SPLINE
  5
AF
330
1F
100
AcDbEntity
  8
0
  6
Continuous
 62
     7
370
    15
100
AcDbSpline
210
0.0
220
0.0
230
1.0
 70
     8
 71
     3
 72
     8
 73
     4
 74
     0
 42
0.000000001
 43
0.00000001
 40
0.0
 40
0.0
 40
0.0
 40
0.0
 40
0.0012389803509652
 40
0.0012389803509652
 40
0.0012389803509652
 40
0.0012389803509652
 10
147.2947819841532
 20
146.5120825164659
 30
0.0
 10
147.1096620110204
 20
146.7731324978449
 30
0.0
 10
146.9237835632614
 20
147.0339141109639
 30
0.0
 10
146.7372204406194
 20
147.2944498966813
 30
0.0
  0
SPLINE
  5
B0
330
1F
100
AcDbEntity
  8
0
  6
Continuous
 62
     7
370
    15
100
AcDbSpline
210
0.0
220
0.0
230
1.0
 70
     8
 71
     3
 72
     8
 73
     4
 74
     0
 42
0.000000001
 43
0.00000001
 40
0.0
 40
0.0
 40
0.0
 40
0.0
 40
1.0
 40
1.0
 40
1.0
 40
1.0
 10
149.3930316788917
 20
142.7253054581445
 30
0.0
 10
148.6967383128502
 20
143.9892438262593
 30
0.0
 10
147.9969431476591
 20
145.2512992717675
 30
0.0
 10
147.2947819841532
 20
146.5120825164659
 30
0.0
  0
SPLINE
  5
B1
330
1F
100
AcDbEntity
  8
0
  6
Continuous
 62
     7
370
    15
100
AcDbSpline
210
0.0
220
0.0
230
1.0
 70
     8
 71
     3
 72
     8
 73
     4
 74
     0
 42
0.000000001
 43
0.00000001
 40
0.0
 40
0.0
 40
0.0
 40
0.0
 40
1.0
 40
1.0
 40
1.0
 40
1.0
 10
149.3930316788917
 20
91.39081412921442
 30
0.0
 10
148.6967135382337
 20
90.12683078926764
 30
0.0
 10
147.9969163461233
 20
88.86477219141568
 30
0.0
 10
147.2947819841532
 20
87.60403707089301
 30
0.0
  0
SPLINE
  5
B2
330
1F
100
AcDbEntity
  8
0
  6
Continuous
 62
     7
370
    15
100
AcDbSpline
210
0.0
220
0.0
230
1.0
 70
     8
 71
     3
 72
     8
 73
     4
 74
     0
 42
0.000000001
 43
0.00000001
 40
0.0
 40
0.0
 40
0.0
 40
0.0
 40
0.0012389803509652
 40
0.0012389803509652
 40
0.0012389803509652
 40
0.0012389803509652
 10
146.7372204406194
 20
86.82166969067764
 30
0.0
 10
146.9237835632614
 20
87.082205476395
 30
0.0
 10
147.1096620110204
 20
87.34298708951401
 30
0.0
 10
147.2947819841532
 20
87.60403707089301
 30
0.0
  0
LINE
  5
B3
330
1F
100
AcDbEntity
  8
0
  6
Continuous
 62
     7
370
    15
100
AcDbLine
 10
137.1622204406
 20
87.9316542482
 30
0.0
 11
137.1622204406
 21
146.1844653392
 31
0.0
  0
SPLINE
  5
B4
330
1F
100
AcDbEntity
  8
0
  6
Continuous
 62
     7
370
    15
100
AcDbSpline
210
0.0
220
0.0
230
1.0
 70
     8
 71
     3
 72
    12
 73
     8
 74
     0
 42
0.000000001
 43
0.00000001
 40
0.0
 40
0.0
 40
0.0
 40
0.0
 40
0.2499999999999997
 40
0.2499999999999997
 40
0.4999999999999993
 40
0.4999999999999993
 40
1.0
 40
1.0
 40
1.0
 40
1.0
 10
137.5492532635849
 20
147.1250496935004
 30
0.0
 10
137.4973925123969
 20
147.068237121186
 30
0.0
 10
137.4486607153779
 20
147.0062449349342
 30
0.0
 10
137.3584877054605
 20
146.8701918618102
 30
0.0
 10
137.3167104571756
 20
146.7952857592115
 30
0.0
 10
137.2106215873296
 20
146.5571591239141
 30
0.0
 10
137.1622204406194
 20
146.3737523923453
 30
0.0
 10
137.1622204406194
 20
146.1844653391635
 30
0.0
  0
SPLINE
  5
B5
330
1F
100
AcDbEntity
  8
0
  6
Continuous
 62
     7
370
    15
100
AcDbSpline
210
0.0
220
0.0
230
1.0
 70
     8
 71
     3
 72
     8
 73
     4
 74
     0
 42
0.000000001
 43
0.00000001
 40
0.0
 40
0.0
 40
0.0
 40
0.0
 40
1.0
 40
1.0
 40
1.0
 40
1.0
 10
138.1622204406194
 20
147.2944498966813
 30
0.0
 10
137.9358761270196
 20
147.2944498966813
 30
0.0
 10
137.7184240066144
 20
147.2310814276604
 30
0.0
 10
137.549253263585
 20
147.1250496935004
 30
0.0
  0
SPLINE
  5
B6
330
1F
100
AcDbEntity
  8
0
  6
Continuous
 62
     7
370
    15
100
AcDbSpline
210
0.0
220
0.0
230
1.0
 70
     8
 71
     3
 72
     8
 73
     4
 74
     0
 42
0.000000001
 43
0.00000001
 40
0.0
 40
0.0
 40
0.0
 40
0.0
 40
1.0
 40
1.0
 40
1.0
 40
1.0
 10
137.549253263585
 20
86.99106989385854
 30
0.0
 10
137.7188467692369
 20
86.88477318330133
 30
0.0
 10
137.9352154615702
 20
86.82166969067764
 30
0.0
 10
138.1622204406194
 20
86.82166969067764
 30
0.0
  0
SPLINE
  5
B7
330
1F
100
AcDbEntity
  8
0
  6
Continuous
 62
     7
370
    15
100
AcDbSpline
210
0.0
220
0.0
230
1.0
 70
     8
 71
     3
 72
    12
 73
     8
 74
     0
 42
0.000000001
 43
0.00000001
 40
0.0
 40
0.0
 40
0.0
 40
0.0
 40
0.2500000000000004
 40
0.2500000000000004
 40
0.5000000000000009
 40
0.5000000000000009
 40
1.0
 40
1.0
 40
1.0
 40
1.0
 10
137.549253263585
 20
86.99106989385852
 30
0.0
 10
137.4973925123969
 20
87.04788246617291
 30
0.0
 10
137.4486607153779
 20
87.10987465242474
 30
0.0
 10
137.3584877054605
 20
87.24592772554874
 30
0.0
 10
137.3167104571756
 20
87.32083382814746
 30
0.0
 10
137.2106215873296
 20
87.55896046344486
 30
0.0
 10
137.1622204406194
 20
87.74236719501363
 30
0.0
 10
137.1622204406194
 20
87.93165424819549
 30
0.0
  0
SPLINE
  5
B8
330
1F
100
AcDbEntity
  8
0
  6
Continuous
 62
     7
370
    15
100
AcDbSpline
210
0.0
220
0.0
230
1.0
 70
     8
 71
     3
 72
    10
 73
     6
 74
     0
 42
0.000000001
 43
0.00000001
 40
0.0
 40
0.0
 40
0.0
 40
0.0
 40
0.5
 40
0.5
 40
1.0
 40
1.0
 40
1.0
 40
1.0
 10
150.0858520019192
 20
142.305782463259
 30
0.0
 10
149.9438346894723
 20
142.305782463259
 30
0.0
 10
149.80338764261
 20
142.3462723154685
 30
0.0
 10
149.5617977233487
 20
142.4942081454076
 30
0.0
 10
149.4611202810954
 20
142.6017084213871
 30
0.0
 10
149.3930316788918
 20
142.7253054581442
 30
0.0
  0
SPLINE
  5
B9
330
1F
100
AcDbEntity
  8
0
  6
Continuous
 62
     7
370
    15
100
AcDbSpline
210
0.0
220
0.0
230
1.0
 70
     8
 71
     3
 72
    10
 73
     6
 74
     0
 42
0.000000001
 43
0.00000001
 40
0.0
 40
0.0
 40
0.0
 40
0.0
 40
0.5
 40
0.5
 40
1.0
 40
1.0
 40
1.0
 40
1.0
 10
150.0858520019192
 20
91.81033712409995
 30
0.0
 10
149.9449946374086
 20
91.81033712409995
 30
0.0
 10
149.8021605059344
 20
91.76923321828124
 30
0.0
 10
149.5618988151611
 20
91.6218353249803
 30
0.0
 10
149.4611925460816
 20
91.51454234414064
 30
0.0
 10
149.3930316788917
 20
91.39081412921443
 30
0.0
  0
SPLINE
  5
BA
330
1F
100
AcDbEntity
  8
0
  6
Continuous
 62
     7
370
    15
100
AcDbSpline
210
0.0
220
0.0
230
1.0
 70
     8
 71
     3
 72
    12
 73
     8
 74
     0
 42
0.000000001
 43
0.00000001
 40
0.0
 40
0.0
 40
0.0
 40
0.0
 40
0.2499999999999998
 40
0.2499999999999998
 40
0.4999999999999996
 40
0.4999999999999996
 40
1.0
 40
1.0
 40
1.0
 40
1.0
 10
154.1314092023472
 20
143.0380786216634
 30
0.0
 10
154.0955050520106
 20
142.9681341875152
 30
0.0
 10
154.0529734998811
 20
142.9048828244574
 30
0.0
 10
153.9561792230411
 20
142.7898241695414
 30
0.0
 10
153.9010895447768
 20
142.7374956358295
 30
0.0
 10
153.7229563112229
 20
142.6037107327444
 30
0.0
 10
153.5855792192203
 20
142.5431629655862
 30
0.0
 10
153.4385888793203
 20
142.5239630172023
 30
0.0
  0
SPLINE
  5
BB
330
1F
100
AcDbEntity
  8
0
  6
Continuous
 62
     7
370
    15
100
AcDbSpline
210
0.0
220
0.0
230
1.0
 70
     8
 71
     3
 72
    12
 73
     8
 74
     0
 42
0.000000001
 43
0.00000001
 40
0.0
 40
0.0
 40
0.0
 40
0.0
 40
0.2500000000000005
 40
0.2500000000000005
 40
0.500000000000001
 40
0.500000000000001
 40
1.0
 40
1.0
 40
1.0
 40
1.0
 10
154.1314092023471
 20
91.07804096569559
 30
0.0
 10
154.0955050520106
 20
91.14798539984376
 30
0.0
 10
154.0529734998811
 20
91.21123676290159
 30
0.0
 10
153.9561792230411
 20
91.32629541781753
 30
0.0
 10
153.9010895447768
 20
91.37862395152949
 30
0.0
 10
153.7229563112229
 20
91.51240885461458
 30
0.0
 10
153.5855792192203
 20
91.57295662177275
 30
0.0
 10
153.4385888793203
 20
91.59215657015662
 30
0.0
  0
LINE
  5
BC
330
1F
100
AcDbEntity
  8
0
  6
Continuous
 62
     7
370
    15
100
AcDbLine
 10
150.1122204406
 20
91.8103371241
 30
0.0
 11
150.0858520019
 21
91.8103371241
 31
0.0
  0
LINE
  5
BD
330
1F
100
AcDbEntity
  8
0
  6
Continuous
 62
     7
370
    15
100
AcDbLine
 10
150.1122204406
 20
142.3057824633
 30
0.0
 11
150.0858520019
 21
142.3057824633
 31
0.0
  0
SPLINE
  5
BE
330
1F
100
AcDbEntity
  8
0
  6
Continuous
 62
     7
370
    15
100
AcDbSpline
210
0.0
220
0.0
230
1.0
 70
     8
 71
     3
 72
    10
 73
     6
 74
     0
 42
0.000000001
 43
0.00000001
 40
0.0
 40
0.0
 40
0.0
 40
0.0
 40
0.5
 40
0.5
 40
1.0
 40
1.0
 40
1.0
 40
1.0
 10
153.4385888793196
 20
142.5239630172052
 30
0.0
 10
152.9166741549237
 20
142.4557902666971
 30
0.0
 10
152.3778229748143
 20
142.4011670017391
 30
0.0
 10
151.2664603327822
 20
142.3260711488478
 30
0.0
 10
150.6896195555861
 20
142.305782463259
 30
0.0
 10
150.1122204406194
 20
142.305782463259
 30
0.0
  0
SPLINE
  5
BF
330
1F
100
AcDbEntity
  8
0
  6
Continuous
 62
     7
370
    15
100
AcDbSpline
210
0.0
220
0.0
230
1.0
 70
     8
 71
     3
 72
    10
 73
     6
 74
     0
 42
0.000000001
 43
0.00000001
 40
0.0
 40
0.0
 40
0.0
 40
0.0
 40
0.5
 40
0.5
 40
1.0
 40
1.0
 40
1.0
 40
1.0
 10
153.4385888793196
 20
91.59215657015369
 30
0.0
 10
152.9166741549237
 20
91.6603293206619
 30
0.0
 10
152.3778229748143
 20
91.71495258561984
 30
0.0
 10
151.2664603327822
 20
91.79004843851118
 30
0.0
 10
150.6896195555861
 20
91.81033712409995
 30
0.0
 10
150.1122204406194
 20
91.81033712409995
 30
0.0
  0
SPLINE
  5
C0
330
1F
100
AcDbEntity
  8
0
  6
Continuous
 62
     7
370
    15
100
AcDbSpline
210
0.0
220
0.0
230
1.0
 70
    24
 71
     3
 72
    10
 73
     6
 74
     0
 42
0.000000001
 43
0.00000001
 40
0.0
 40
0.0
 40
0.0
 40
0.0
 40
0.1235222089032964
 40
0.9999911853568847
 40
1.0
 40
1.0
 40
1.0
 40
1.0
 10
136.966743513901
 20
139.5580597936795
 30
0.0
 10
136.9590885629408
 20
139.5580597936802
 30
0.0
 10
136.8971168450409
 20
139.5580597936856
 30
0.0
 10
136.8215609244409
 20
139.5580597935581
 30
0.0
 10
136.8509698978334
 20
139.5580597936795
 30
0.0
 10
136.8509701935963
 20
139.5580597936795
 30
0.0
  0
SPLINE
  5
C1
330
1F
100
AcDbEntity
  8
0
  6
Continuous
 62
     7
370
    15
100
AcDbSpline
210
0.0
220
0.0
230
1.0
 70
    24
 71
     3
 72
     9
 73
     5
 74
     0
 42
0.000000001
 43
0.00000001
 40
0.0
 40
0.0
 40
0.0
 40
0.0
 40
0.835045995432788
 40
1.0
 40
1.0
 40
1.0
 40
1.0
 10
136.8509702827853
 20
94.55805979367949
 30
0.0
 10
136.8681633735391
 20
94.55805979367949
 30
0.0
 10
136.8887527672347
 20
94.55805979367949
 30
0.0
 10
136.953977264067
 20
94.55805979367949
 30
0.0
 10
136.9647363060154
 20
94.55805979367949
 30
0.0
  0
LINE
  5
C2
330
1F
100
AcDbEntity
  8
0
  6
Continuous
 62
     7
370
    15
100
AcDbLine
 10
135.1622204406
 20
94.8330597937
 30
0.0
 11
135.1622204406
 21
139.2830597937
 31
0.0
  0
LINE
  5
C3
330
1F
100
AcDbEntity
  8
0
  6
Continuous
 62
     7
370
    15
100
AcDbLine
 10
69.7622204406
 20
105.2353041966
 30
0.0
 11
69.7622204406
 21
128.8808153907
 31
0.0
  0
CIRCLE
  5
C4
330
1F
100
AcDbEntity
  8
0
  6
HIDDEN
 62
     7
370
     0
100
AcDbCircle
 10
202.6122204406
 20
117.0580597937
 30
0.0
 40
7.012850235103757
  0
CIRCLE
  5
C5
330
1F
100
AcDbEntity
  8
0
  6
HIDDEN
 62
     7
370
     0
100
AcDbCircle
 10
202.6122204406
 20
117.0580597937
 30
0.0
 40
5.294716599621023
  0
CIRCLE
  5
C6
330
1F
100
AcDbEntity
  8
0
  6
HIDDEN
 62
     7
370
     0
100
AcDbCircle
 10
202.6122204406
 20
117.0580597937
 30
0.0
 40
4.894716599621017
  0
CIRCLE
  5
C7
330
1F
100
AcDbEntity
  8
0
  6
HIDDEN
 62
     7
370
     0
100
AcDbCircle
 10
202.6122204406
 20
117.0580597937
 30
0.0
 40
7.25
  0
SPLINE
  5
C8
330
1F
100
AcDbEntity
  8
0
  6
HIDDEN
 62
     7
370
     0
100
AcDbSpline
210
0.0
220
0.0
230
1.0
 70
     8
 71
     3
 72
    17
 73
    13
 74
     0
 42
0.000000001
 43
0.00000001
 40
0.0
 40
0.0
 40
0.0
 40
0.0
 40
0.0009813126920742
 40
0.001002033598443
 40
0.2502032402186956
 40
0.5024387435752413
 40
0.5867805814958951
 40
0.6701656695096343
 40
0.7528827247070328
 40
0.8352274922509455
 40
0.9174997331726163
 40
0.9999999999999999
 40
0.9999999999999999
 40
0.9999999999999999
 40
0.9999999999999999
 10
159.1622107236828
 20
85.5580605593377
 30
0.0
 10
159.1622146595879
 20
85.55806018269632
 30
0.0
 10
159.1622186786016
 20
85.55805979810195
 30
0.0
 10
159.1628394123149
 20
85.5580586891242
 30
0.0
 10
159.0586943824446
 20
85.59027530122259
 30
0.0
 10
158.6902098391194
 20
85.69863647148682
 30
0.0
 10
158.3235972624481
 20
85.80346714810148
 30
0.0
 10
158.0740657323165
 20
85.87315985311326
 30
0.0
 10
157.7962799383484
 20
85.94830156196394
 30
0.0
 10
157.4896201636964
 20
86.0279665555667
 30
0.0
 10
157.1564333305297
 20
86.1111157370001
 30
0.0
 10
156.9114358884562
 20
86.1684282192288
 30
0.0
 10
156.788767643497
 20
86.19712411723387
 30
0.0
  0
LINE
  5
C9
330
1F
100
AcDbEntity
  8
0
  6
HIDDEN
 62
     7
370
     0
100
AcDbLine
 10
221.4122204406
 20
141.05235748
 30
0.0
 11
221.4122204406
 21
145.9496796033
 31
0.0
  0
SPLINE
  5
CA
330
1F
100
AcDbEntity
  8
0
  6
HIDDEN
 62
     7
370
     0
100
AcDbSpline
210
0.0
220
0.0
230
1.0
 70
     8
 71
     3
 72
    16
 73
    12
 74
     0
 42
0.000000001
 43
0.00000001
 40
0.0
 40
0.0
 40
0.0
 40
0.0
 40
0.2499999999999985
 40
0.2499999999999985
 40
0.499999999999997
 40
0.499999999999997
 40
0.6249999999999973
 40
0.6249999999999973
 40
0.7499999999999977
 40
0.7499999999999977
 40
1.0
 40
1.0
 40
1.0
 40
1.0
 10
221.4122204406195
 20
136.9761034055496
 30
0.0
 10
221.5477249873119
 20
137.5244607718421
 30
0.0
 10
221.651532763992
 20
138.0466062476256
 30
0.0
 10
221.7951325734276
 20
139.0285601382803
 30
0.0
 10
221.8311549545823
 20
139.4628489496482
 30
0.0
 10
221.8310557485466
 20
140.0205893585226
 30
0.0
 10
221.821853417985
 20
140.1856224267666
 30
0.0
 10
221.785791687001
 20
140.4757138021239
 30
0.0
 10
221.7586802139539
 20
140.6014434254054
 30
0.0
 10
221.6510629320436
 20
140.9117570604548
 30
0.0
 10
221.5477131812626
 20
141.0260715419321
 30
0.0
 10
221.4122204406195
 20
141.0523574799748
 30
0.0
  0
LINE
  5
CB
330
1F
100
AcDbEntity
  8
0
  6
HIDDEN
 62
     7
370
     0
100
AcDbLine
 10
221.4122204406
 20
97.1400161818
 30
0.0
 11
221.4122204406
 21
136.9761034055
 31
0.0
  0
SPLINE
  5
CC
330
1F
100
AcDbEntity
  8
0
  6
HIDDEN
 62
     7
370
     0
100
AcDbSpline
210
0.0
220
0.0
230
1.0
 70
     8
 71
     3
 72
    16
 73
    12
 74
     0
 42
0.000000001
 43
0.00000001
 40
0.0
 40
0.0
 40
0.0
 40
0.0
 40
0.2500000000000004
 40
0.2500000000000004
 40
0.5000000000000008
 40
0.5000000000000008
 40
0.6250000000000006
 40
0.6250000000000006
 40
0.7500000000000002
 40
0.7500000000000002
 40
1.0
 40
1.0
 40
1.0
 40
1.0
 10
221.4122204406195
 20
93.06376210738415
 30
0.0
 10
221.5477249873119
 20
93.09005033583055
 30
0.0
 10
221.651532763992
 20
93.20479549413936
 30
0.0
 10
221.7951325734275
 20
93.62071481540127
 30
0.0
 10
221.8311549545823
 20
93.91135007306397
 30
0.0
 10
221.8310557485466
 20
94.46948458444562
 30
0.0
 10
221.821853417985
 20
94.67110880790568
 30
0.0
 10
221.785791687001
 20
95.1041765920066
 30
0.0
 10
221.7586802139539
 20
95.33728954088949
 30
0.0
 10
221.6510629320436
 20
96.07178745855587
 30
0.0
 10
221.5477131812626
 20
96.59170659202513
 30
0.0
 10
221.4122204406195
 20
97.14001618180939
 30
0.0
  0
LINE
  5
CD
330
1F
100
AcDbEntity
  8
0
  6
HIDDEN
 62
     7
370
     0
100
AcDbLine
 10
221.4122204406
 20
88.1664399841
 30
0.0
 11
221.4122204406
 21
93.0637621074
 31
0.0
  0
LINE
  5
CE
330
1F
100
AcDbEntity
  8
0
  6
HIDDEN
 62
     7
370
     0
100
AcDbLine
 10
217.1122204406
 20
106.0598781258
 30
0.0
 11
217.1122204406
 21
128.0562414616
 31
0.0
  0
LINE
  5
CF
330
1F
100
AcDbEntity
  8
0
  6
HIDDEN
 62
     7
370
     0
100
AcDbLine
 10
221.4122204406
 20
141.05235748
 30
0.0
 11
221.4122204406
 21
140.9263254112
 31
0.0
  0
LINE
  5
D0
330
1F
100
AcDbEntity
  8
0
  6
HIDDEN
 62
     7
370
     0
100
AcDbLine
 10
217.1122204406
 20
140.9263254112
 30
0.0
 11
221.4122204406
 21
140.9263254112
 31
0.0
  0
LINE
  5
D1
330
1F
100
AcDbEntity
  8
0
  6
HIDDEN
 62
     7
370
     0
100
AcDbLine
 10
217.1122204406
 20
141.0580597937
 30
0.0
 11
217.1122204406
 21
135.8580597937
 31
0.0
  0
LINE
  5
D2
330
1F
100
AcDbEntity
  8
0
  6
HIDDEN
 62
     7
370
     0
100
AcDbLine
 10
217.1122204406
 20
135.8580597937
 30
0.0
 11
217.1122204406
 21
128.0562414616
 31
0.0
  0
LINE
  5
D3
330
1F
100
AcDbEntity
  8
0
  6
HIDDEN
 62
     7
370
     0
100
AcDbLine
 10
217.1122204406
 20
128.0562414616
 30
0.0
 11
221.4122204406
 21
128.0562414616
 31
0.0
  0
LINE
  5
D4
330
1F
100
AcDbEntity
  8
0
  6
HIDDEN
 62
     7
370
     0
100
AcDbLine
 10
217.1122204406
 20
106.0598781258
 30
0.0
 11
217.1122204406
 21
98.2580597937
 31
0.0
  0
LINE
  5
D5
330
1F
100
AcDbEntity
  8
0
  6
HIDDEN
 62
     7
370
     0
100
AcDbLine
 10
221.4122204406
 20
106.0598781258
 30
0.0
 11
217.1122204406
 21
106.0598781258
 31
0.0
  0
LINE
  5
D6
330
1F
100
AcDbEntity
  8
0
  6
HIDDEN
 62
     7
370
     0
100
AcDbLine
 10
217.1122204406
 20
93.1897941762
 30
0.0
 11
221.4122204406
 21
93.1897941762
 31
0.0
  0
LINE
  5
D7
330
1F
100
AcDbEntity
  8
0
  6
HIDDEN
 62
     7
370
     0
100
AcDbLine
 10
221.4122204406
 20
93.1897941762
 30
0.0
 11
221.4122204406
 21
93.0637621074
 31
0.0
  0
LINE
  5
D8
330
1F
100
AcDbEntity
  8
0
  6
HIDDEN
 62
     7
370
     0
100
AcDbLine
 10
217.1122204406
 20
98.2580597937
 30
0.0
 11
217.1122204406
 21
93.0580597937
 31
0.0
  0
LINE
  5
D9
330
1F
100
AcDbEntity
  8
0
  6
HIDDEN
 62
     7
370
     0
100
AcDbLine
 10
215.6122204406
 20
97.0580597937
 30
0.0
 11
215.6122204406
 21
137.0580597937
 31
0.0
  0
LINE
  5
DA
330
1F
100
AcDbEntity
  8
0
  6
HIDDEN
 62
     7
370
     0
100
AcDbLine
 10
181.1622204406
 20
97.3580597937
 30
0.0
 11
181.1622204406
 21
136.7580597649
 31
0.0
  0
LINE
  5
DB
330
1F
100
AcDbEntity
  8
0
  6
HIDDEN
 62
     7
370
     0
100
AcDbLine
 10
183.6622204406
 20
97.0580597937
 30
0.0
 11
183.6622204406
 21
137.0580597937
 31
0.0
  0
LINE
  5
DC
330
1F
100
AcDbEntity
  8
0
  6
HIDDEN
 62
     7
370
     0
100
AcDbLine
 10
217.1122204406
 20
145.0830597937
 30
0.0
 11
217.1122204406
 21
141.0580597937
 31
0.0
  0
LINE
  5
DD
330
1F
100
AcDbEntity
  8
0
  6
HIDDEN
 62
     7
370
     0
100
AcDbLine
 10
217.1122204406
 20
93.0580597937
 30
0.0
 11
217.1122204406
 21
89.0330597937
 31
0.0
  0
LINE
  5
DE
330
1F
100
AcDbEntity
  8
0
  6
HIDDEN
 62
     7
370
     0
100
AcDbLine
 10
137.1622204406
 20
139.5580597937
 30
0.0
 11
137.4994787408
 21
139.5580597937
 31
0.0
  0
ELLIPSE
  5
DF
330
1F
100
AcDbEntity
  8
0
  6
HIDDEN
 62
     7
370
     0
100
AcDbEllipse
 10
137.4994787408
 20
141.1580597937
 30
0.0
 11
0.0
 21
1.599999999999994
 31
0.0
210
0.0
220
0.0
230
1.0
 40
0.4142135624
 41
3.141592653589793
 42
4.712388980384677
  0
ELLIPSE
  5
E0
330
1F
100
AcDbEntity
  8
0
  6
HIDDEN
 62
     7
370
     0
100
AcDbEllipse
 10
137.4994787408
 20
92.9580597937
 30
0.0
 11
0.0
 21
1.600000000000009
 31
0.0
210
0.0
220
0.0
230
1.0
 40
0.4142135624
 41
4.712388980384695
 42
6.283185307179586
  0
LINE
  5
E1
330
1F
100
AcDbEntity
  8
0
  6
HIDDEN
 62
     7
370
     0
100
AcDbLine
 10
137.4994787408
 20
94.5580597937
 30
0.0
 11
137.1622204406
 21
94.5580597937
 31
0.0
  0
LINE
  5
E2
330
1F
100
AcDbEntity
  8
0
  6
HIDDEN
 62
     7
370
     0
100
AcDbLine
 10
138.1622204406
 20
87.6040370709
 30
0.0
 11
137.5492532636
 21
86.9910698939
 31
0.0
  0
LINE
  5
E3
330
1F
100
AcDbEntity
  8
0
  6
HIDDEN
 62
     7
370
     0
100
AcDbLine
 10
137.5492532636
 20
147.1250496935
 30
0.0
 11
138.1622204406
 21
146.5120825165
 31
0.0
  0
LINE
  5
E4
330
1F
100
AcDbEntity
  8
0
  6
HIDDEN
 62
     7
370
     0
100
AcDbLine
 10
76.7622204406
 20
108.5580597937
 30
0.0
 11
76.7622204406
 21
125.5580597937
 31
0.0
  0
LINE
  5
E5
330
1F
100
AcDbEntity
  8
0
  6
HIDDEN
 62
     7
370
     0
100
AcDbLine
 10
79.758149655
 20
110.0580597937
 30
0.0
 11
79.758149655
 21
124.0580597937
 31
0.0
  0
LINE
  5
E6
330
1F
100
AcDbEntity
  8
0
  6
HIDDEN
 62
     7
370
     0
100
AcDbLine
 10
138.1622204406
 20
146.5120825165
 30
0.0
 11
147.2947819842
 21
146.5120825165
 31
0.0
  0
LINE
  5
E7
330
1F
100
AcDbEntity
  8
0
  6
HIDDEN
 62
     7
370
     0
100
AcDbLine
 10
138.1622204406
 20
146.5120825165
 30
0.0
 11
138.1622204406
 21
141.1580597937
 31
0.0
  0
LINE
  5
E8
330
1F
100
AcDbEntity
  8
0
  6
HIDDEN
 62
     7
370
     0
100
AcDbLine
 10
147.2947819842
 20
87.6040370709
 30
0.0
 11
138.1622204406
 21
87.6040370709
 31
0.0
  0
LINE
  5
E9
330
1F
100
AcDbEntity
  8
0
  6
HIDDEN
 62
     7
370
     0
100
AcDbLine
 10
138.1622204406
 20
87.6040370709
 30
0.0
 11
138.1622204406
 21
92.9580597937
 31
0.0
  0
LINE
  5
EA
330
1F
100
AcDbEntity
  8
0
  6
HIDDEN
 62
     7
370
     0
100
AcDbLine
 10
150.1122204406
 20
94.5580597937
 30
0.0
 11
137.4994787408
 21
94.5580597937
 31
0.0
  0
LINE
  5
EB
330
1F
100
AcDbEntity
  8
0
  6
HIDDEN
 62
     7
370
     0
100
AcDbLine
 10
137.4994787408
 20
139.5580597937
 30
0.0
 11
150.1122204406
 21
139.5580597937
 31
0.0
  0
SPLINE
  5
EC
330
1F
100
AcDbEntity
  8
0
  6
HIDDEN
 62
     7
370
     0
100
AcDbSpline
210
0.0
220
0.0
230
1.0
 70
     8
 71
     3
 72
    22
 73
    18
 74
     0
 42
0.000000001
 43
0.00000001
 40
0.0
 40
0.0
 40
0.0
 40
0.0
 40
0.0479373712862718
 40
0.0947427791142881
 40
0.1404168307157218
 40
0.1849601802970084
 40
0.2283735338877002
 40
0.2706576548286919
 40
0.3118133700036158
 40
0.3518415769365326
 40
0.3907432519033017
 40
0.4285194592338348
 40
0.4651713620192978
 40
0.5007002344840911
 40
0.7601597453867004
 40
0.9994256477007895
 40
1.0
 40
1.0
 40
1.0
 40
1.0
 10
156.1384840712319
 20
146.9629205693905
 30
0.0
 10
156.1991462188932
 20
146.9784067603382
 30
0.0
 10
156.3190380757526
 20
147.0090134608917
 30
0.0
 10
156.4878529323745
 20
147.0531752045429
 30
0.0
 10
156.6461783551939
 20
147.0953502089297
 30
0.0
 10
156.7937371784287
 20
147.135458348043
 30
0.0
 10
156.9310412688205
 20
147.1735203767608
 30
0.0
 10
157.0584192338806
 20
147.2095309948232
 30
0.0
 10
157.1762638010985
 20
147.2434916978211
 30
0.0
 10
157.2849645946363
 20
147.2754019918018
 30
0.0
 10
157.3849224869281
 20
147.3052627863345
 30
0.0
 10
157.4765422118833
 20
147.3330714869225
 30
0.0
 10
157.5602341099064
 20
147.3588376676141
 30
0.0
 10
157.7972240002495
 20
147.432547238672
 30
0.0
 10
158.0766382102254
 20
147.5249163997485
 30
0.0
 10
158.1623513262903
 20
147.5579964016489
 30
0.0
 10
158.1622200487374
 20
147.5580594358872
 30
0.0
 10
158.1622197343633
 20
147.5580595868371
 30
0.0
  0
LINE
  5
ED
330
1F
100
AcDbEntity
  8
0
  6
HIDDEN
 62
     7
370
     0
100
AcDbLine
 10
156.5622204406
 20
94.5580597937
 30
0.0
 11
150.1122204406
 21
94.5580597937
 31
0.0
  0
LINE
  5
EE
330
1F
100
AcDbEntity
  8
0
  6
HIDDEN
 62
     7
370
     0
100
AcDbLine
 10
156.1384622068
 20
87.1530119003
 30
0.0
 11
156.232404936
 21
87.128028229
 31
0.0
  0
SPLINE
  5
EF
330
1F
100
AcDbEntity
  8
0
  6
HIDDEN
 62
     7
370
     0
100
AcDbSpline
210
0.0
220
0.0
230
1.0
 70
     8
 71
     3
 72
    13
 73
     9
 74
     0
 42
0.000000001
 43
0.00000001
 40
0.0
 40
0.0
 40
0.0
 40
0.0
 40
0.0000729225244404
 40
0.1576810836853553
 40
0.3241445774245414
 40
0.4996852408390643
 40
0.7294243771452443
 40
1.0
 40
1.0
 40
1.0
 40
1.0
 10
158.1621878654433
 20
86.55807223279278
 30
0.0
 10
158.1621987241846
 20
86.55806794293989
 30
0.0
 10
158.1856786860411
 20
86.54879195230288
 30
0.0
 10
158.1140934710063
 20
86.57695745437167
 30
0.0
 10
157.9584771325834
 20
86.63054638423192
 30
0.0
 10
157.6222239102682
 20
86.73906967302581
 30
0.0
 10
157.0649108442573
 20
86.91013573635588
 30
0.0
 10
156.4636530789881
 20
87.06789972539278
 30
0.0
 10
156.1384863887093
 20
87.15322019379012
 30
0.0
  0
LINE
  5
F0
330
1F
100
AcDbEntity
  8
0
  6
HIDDEN
 62
     7
370
     0
100
AcDbLine
 10
150.1122204406
 20
139.5580597937
 30
0.0
 11
156.5622204406
 21
139.5580597937
 31
0.0
  0
LINE
  5
F1
330
1F
100
AcDbEntity
  8
0
  6
HIDDEN
 62
     7
370
     0
100
AcDbLine
 10
112.7622204406
 20
110.0580597937
 30
0.0
 11
112.7622204406
 21
124.0580597937
 31
0.0
  0
LINE
  5
F2
330
1F
100
AcDbEntity
  8
0
  6
HIDDEN
 62
     7
370
     0
100
AcDbLine
 10
114.4145871429
 20
112.8080597937
 30
0.0
 11
114.4145871429
 21
121.3080597937
 31
0.0
  0
SPLINE
  5
F3
330
1F
100
AcDbEntity
  8
0
  6
HIDDEN
 62
     7
370
     0
100
AcDbSpline
210
0.0
220
0.0
230
1.0
 70
     8
 71
     3
 72
     9
 73
     5
 74
     0
 42
0.000000001
 43
0.00000001
 40
0.0
 40
0.0
 40
0.0
 40
0.0
 40
0.4932365030918491
 40
1.0
 40
1.0
 40
1.0
 40
1.0
 10
156.1392799793169
 20
146.9628913048518
 30
0.0
 10
156.2451279347188
 20
147.1199126929746
 30
0.0
 10
156.4597267219909
 20
147.4382617752881
 30
0.0
 10
156.6775866038792
 20
147.7580878829761
 30
0.0
 10
156.7879900394609
 20
147.9201640797106
 30
0.0
  0
SPLINE
  5
F4
330
1F
100
AcDbEntity
  8
0
  6
HIDDEN
 62
     7
370
     0
100
AcDbSpline
210
0.0
220
0.0
230
1.0
 70
     8
 71
     3
 72
     9
 73
     5
 74
     0
 42
0.000000001
 43
0.00000001
 40
0.0
 40
0.0
 40
0.0
 40
0.0
 40
0.5067661696360637
 40
0.9999999999999999
 40
0.9999999999999999
 40
0.9999999999999999
 40
0.9999999999999999
 10
156.7879937247469
 20
86.19596964320233
 30
0.0
 10
156.6775888942498
 20
86.35804705781797
 30
0.0
 10
156.4597274087911
 20
86.67787388195663
 30
0.0
 10
156.245127690909
 20
86.99622239821278
 30
0.0
 10
156.1392798500631
 20
87.15324265627649
 30
0.0
  0
LINE
  5
F5
330
1F
100
AcDbEntity
  8
0
  6
HIDDEN
 62
     7
370
     0
100
AcDbLine
 10
222.1622204406
 20
147.5580597937
 30
0.0
 11
221.4122204406
 21
145.9496796033
 31
0.0
  0
LINE
  5
F6
330
1F
100
AcDbEntity
  8
0
  6
HIDDEN
 62
     7
370
     0
100
AcDbLine
 10
221.4122204406
 20
88.1664399841
 30
0.0
 11
222.1622204406
 21
86.5580597937
 31
0.0
  0
LINE
  5
F7
330
1F
100
AcDbEntity
  8
0
  6
HIDDEN
 62
     7
370
     0
100
AcDbLine
 10
221.4122204406
 20
141.0580597937
 30
0.0
 11
217.1122204406
 21
141.0580597937
 31
0.0
  0
LINE
  5
F8
330
1F
100
AcDbEntity
  8
0
  6
HIDDEN
 62
     7
370
     0
100
AcDbLine
 10
217.1122204406
 20
93.0580597937
 30
0.0
 11
221.4122204406
 21
93.0580597937
 31
0.0
  0
LINE
  5
F9
330
1F
100
AcDbEntity
  8
0
  6
HIDDEN
 62
     7
370
     0
100
AcDbLine
 10
217.1122204406
 20
137.9240851975
 30
0.0
 11
215.6122204406
 21
137.0580597937
 31
0.0
  0
LINE
  5
FA
330
1F
100
AcDbEntity
  8
0
  6
HIDDEN
 62
     7
370
     0
100
AcDbLine
 10
215.6122204406
 20
97.0580597937
 30
0.0
 11
217.1122204406
 21
96.1920343899
 31
0.0
  0
ARC
  5
FB
330
1F
100
AcDbEntity
  8
0
  6
HIDDEN
 62
     7
370
     0
100
AcDbCircle
 10
181.7622204406
 20
97.3580597937
 30
0.0
 40
0.6000000000000227
100
AcDbArc
 50
180.0
 51
270.0
  0
ARC
  5
FC
330
1F
100
AcDbEntity
  8
0
  6
HIDDEN
 62
     7
370
     0
100
AcDbCircle
 10
181.7622204406
 20
136.7580597937
 30
0.0
 40
0.6000000000000227
100
AcDbArc
 50
90.0
 51
180.0
  0
LINE
  5
FD
330
1F
100
AcDbEntity
  8
0
  6
HIDDEN
 62
     7
370
     0
100
AcDbLine
 10
181.7622204406
 20
96.7580597937
 30
0.0
 11
182.4636136998
 21
96.7580597937
 31
0.0
  0
LINE
  5
FE
330
1F
100
AcDbEntity
  8
0
  6
HIDDEN
 62
     7
370
     0
100
AcDbLine
 10
182.4636136998
 20
137.3580597937
 30
0.0
 11
181.7622204406
 21
137.3580597937
 31
0.0
  0
ARC
  5
FF
330
1F
100
AcDbEntity
  8
0
  6
HIDDEN
 62
     7
370
     0
100
AcDbCircle
 10
182.4636136998
 20
97.3580597937
 30
0.0
 40
0.6000000000000008
100
AcDbArc
 50
270.0
 51
285.0
  0
ARC
  5
100
330
1F
100
AcDbEntity
  8
0
  6
HIDDEN
 62
     7
370
     0
100
AcDbCircle
 10
182.4636136998
 20
136.7580597937
 30
0.0
 40
0.6000000000000282
100
AcDbArc
 50
75.0
 51
90.0
  0
LINE
  5
101
330
1F
100
AcDbEntity
  8
0
  6
HIDDEN
 62
     7
370
     0
100
AcDbLine
 10
182.6189051269
 20
96.7785042979
 30
0.0
 11
183.6622204406
 21
97.0580597937
 31
0.0
  0
LINE
  5
102
330
1F
100
AcDbEntity
  8
0
  6
HIDDEN
 62
     7
370
     0
100
AcDbLine
 10
183.6622204406
 20
137.0580597937
 30
0.0
 11
182.6189051269
 21
137.3376152895
 31
0.0
  0
LINE
  5
103
330
1F
100
AcDbEntity
  8
0
  6
HIDDEN
 62
     7
370
     0
100
AcDbLine
 10
183.6622204406
 20
97.0580597937
 30
0.0
 11
215.6122204406
 21
97.0580597937
 31
0.0
  0
LINE
  5
104
330
1F
100
AcDbEntity
  8
0
  6
HIDDEN
 62
     7
370
     0
100
AcDbLine
 10
215.6122204406
 20
137.0580597937
 30
0.0
 11
183.6622204406
 21
137.0580597937
 31
0.0
  0
LINE
  5
105
330
1F
100
AcDbEntity
  8
0
  6
HIDDEN
 62
     7
370
     0
100
AcDbLine
 10
221.4122204406
 20
145.0830597937
 30
0.0
 11
217.1122204406
 21
145.0830597937
 31
0.0
  0
LINE
  5
106
330
1F
100
AcDbEntity
  8
0
  6
HIDDEN
 62
     7
370
     0
100
AcDbLine
 10
217.1122204406
 20
89.0330597937
 30
0.0
 11
221.4122204406
 21
89.0330597937
 31
0.0
  0
ARC
  5
107
330
1F
100
AcDbEntity
  8
0
  6
HIDDEN
 62
     7
370
     0
100
AcDbCircle
 10
70.5622204406
 20
107.7580597937
 30
0.0
 40
0.7999999999999972
100
AcDbArc
 50
90.0
 51
180.0
  0
ARC
  5
108
330
1F
100
AcDbEntity
  8
0
  6
HIDDEN
 62
     7
370
     0
100
AcDbCircle
 10
70.5622204406
 20
126.3580597937
 30
0.0
 40
0.7999999999999972
100
AcDbArc
 50
180.0
 51
270.0
  0
LINE
  5
109
330
1F
100
AcDbEntity
  8
0
  6
HIDDEN
 62
     7
370
     0
100
AcDbLine
 10
77.6545928714
 20
108.3330597937
 30
0.0
 11
78.5312803329
 21
108.3330597937
 31
0.0
  0
LINE
  5
10A
330
1F
100
AcDbEntity
  8
0
  6
HIDDEN
 62
     7
370
     0
100
AcDbLine
 10
78.5312803329
 20
125.7830597937
 30
0.0
 11
77.6545928714
 21
125.7830597937
 31
0.0
  0
ARC
  5
10B
330
1F
100
AcDbEntity
  8
0
  6
HIDDEN
 62
     7
370
     0
100
AcDbCircle
 10
78.5312803329
 20
108.7330597937
 30
0.0
 40
0.4000000000000244
100
AcDbArc
 50
270.0
 51
330.0
  0
ARC
  5
10C
330
1F
100
AcDbEntity
  8
0
  6
HIDDEN
 62
     7
370
     0
100
AcDbCircle
 10
78.5312803329
 20
125.3830597937
 30
0.0
 40
0.4000000000000244
100
AcDbArc
 50
30.0
 51
90.0
  0
ARC
  5
10D
330
1F
100
AcDbEntity
  8
0
  6
HIDDEN
 62
     7
370
     0
100
AcDbCircle
 10
77.6545928714
 20
108.7330597937
 30
0.0
 40
0.3999999999999915
100
AcDbArc
 50
255.0
 51
270.0
  0
ARC
  5
10E
330
1F
100
AcDbEntity
  8
0
  6
HIDDEN
 62
     7
370
     0
100
AcDbCircle
 10
77.6545928714
 20
125.3830597937
 30
0.0
 40
0.4000000000000057
100
AcDbArc
 50
90.0
 51
105.0
  0
LINE
  5
10F
330
1F
100
AcDbEntity
  8
0
  6
HIDDEN
 62
     7
370
     0
100
AcDbLine
 10
77.5510652533
 20
125.7694301242
 30
0.0
 11
76.7622204406
 21
125.5580597937
 31
0.0
  0
LINE
  5
110
330
1F
100
AcDbEntity
  8
0
  6
HIDDEN
 62
     7
370
     0
100
AcDbLine
 10
76.7622204406
 20
108.5580597937
 30
0.0
 11
77.5510652533
 21
108.3466894632
 31
0.0
  0
LINE
  5
111
330
1F
100
AcDbEntity
  8
0
  6
HIDDEN
 62
     7
370
     0
100
AcDbLine
 10
78.8776904945
 20
108.5330597937
 30
0.0
 11
79.758149655
 21
110.0580597937
 31
0.0
  0
LINE
  5
112
330
1F
100
AcDbEntity
  8
0
  6
HIDDEN
 62
     7
370
     0
100
AcDbLine
 10
79.758149655
 20
124.0580597937
 30
0.0
 11
78.8776904945
 21
125.5830597937
 31
0.0
  0
LINE
  5
113
330
1F
100
AcDbEntity
  8
0
  6
HIDDEN
 62
     7
370
     0
100
AcDbLine
 10
70.5622204406
 20
108.5580597937
 30
0.0
 11
76.7622204406
 21
108.5580597937
 31
0.0
  0
LINE
  5
114
330
1F
100
AcDbEntity
  8
0
  6
HIDDEN
 62
     7
370
     0
100
AcDbLine
 10
76.7622204406
 20
125.5580597937
 30
0.0
 11
70.5622204406
 21
125.5580597937
 31
0.0
  0
LINE
  5
115
330
1F
100
AcDbEntity
  8
0
  6
HIDDEN
 62
     7
370
     0
100
AcDbLine
 10
158.1622204406
 20
141.1580597937
 30
0.0
 11
158.1622204406
 21
147.6583538073
 31
0.0
  0
ARC
  5
116
330
1F
100
AcDbEntity
  8
0
  6
HIDDEN
 62
     7
370
     0
100
AcDbCircle
 10
156.5622204406
 20
92.9580597937
 30
0.0
 40
1.600000000000009
100
AcDbArc
 50
0.0
 51
90.0
  0
LINE
  5
117
330
1F
100
AcDbEntity
  8
0
  6
HIDDEN
 62
     7
370
     0
100
AcDbLine
 10
158.1622204406
 20
86.4577023328
 30
0.0
 11
158.1622204406
 21
92.9580597937
 31
0.0
  0
ARC
  5
118
330
1F
100
AcDbEntity
  8
0
  6
HIDDEN
 62
     7
370
     0
100
AcDbCircle
 10
156.5622204406
 20
141.1580597937
 30
0.0
 40
1.600000000000023
100
AcDbArc
 50
270.0
 51
0.0
  0
LINE
  5
119
330
1F
100
AcDbEntity
  8
0
  6
HIDDEN
 62
     7
370
     0
100
AcDbLine
 10
112.7622204406
 20
110.0580597937
 30
0.0
 11
114.4145871429
 21
112.8080597937
 31
0.0
  0
LINE
  5
11A
330
1F
100
AcDbEntity
  8
0
  6
HIDDEN
 62
     7
370
     0
100
AcDbLine
 10
114.4145871429
 20
121.3080597937
 30
0.0
 11
112.7622204406
 21
124.0580597937
 31
0.0
  0
LINE
  5
11B
330
1F
100
AcDbEntity
  8
0
  6
HIDDEN
 62
     7
370
     0
100
AcDbLine
 10
79.758149655
 20
110.0580597937
 30
0.0
 11
112.7622204406
 21
110.0580597937
 31
0.0
  0
LINE
  5
11C
330
1F
100
AcDbEntity
  8
0
  6
HIDDEN
 62
     7
370
     0
100
AcDbLine
 10
112.7622204406
 20
124.0580597937
 30
0.0
 11
79.758149655
 21
124.0580597937
 31
0.0
  0
LINE
  5
11D
330
1F
100
AcDbEntity
  8
0
  6
HIDDEN
 62
     7
370
     0
100
AcDbLine
 10
158.1622195306
 20
147.5580595818
 30
0.0
 11
159.1622189
 21
148.5580593285
 31
0.0
  0
LINE
  5
11E
330
1F
100
AcDbEntity
  8
0
  6
HIDDEN
 62
     7
370
     0
100
AcDbLine
 10
159.162226802
 20
85.558058656
 30
0.0
 11
158.1622265531
 21
86.5580584605
 31
0.0
  0
LINE
  5
11F
330
1F
100
AcDbEntity
  8
0
  6
HIDDEN
 62
     7
370
     0
100
AcDbLine
 10
114.4145871429
 20
112.8080597937
 30
0.0
 11
181.1622204406
 21
112.8080597937
 31
0.0
  0
LINE
  5
120
330
1F
100
AcDbEntity
  8
0
  6
HIDDEN
 62
     7
370
     0
100
AcDbLine
 10
181.1622204406
 20
121.3080597937
 30
0.0
 11
114.4145871429
 21
121.3080597937
 31
0.0
  0
LINE
  5
121
330
1F
100
AcDbEntity
  8
VERMASSUNG
100
AcDbLine
 10
162.1622204406
 20
148.5580597937
 30
0.0
 11
162.1622204406
 21
85.5580597937
 31
0.0
  0
DIMENSION
  5
122
330
1F
100
AcDbEntity
  8
VERMASSUNG
100
AcDbDimension
  2
_D
 10
222.1622204406
 20
160.2132271046
 30
0.0
 11
192.1622204406
 21
160.2132271046
 31
0.0
 70
   160
  1
<>
 71
     2
 42
-1.0
  3
SLDDIMSTYLE0
100
AcDbAlignedDimension
 13
162.1622204406
 23
148.5580597937
 33
0.0
 14
222.1622204406
 24
152.3580597937
 34
0.0
100
AcDbRotatedDimension
  0
DIMENSION
  5
12D
330
1F
100
AcDbEntity
  8
VERMASSUNG
100
AcDbDimension
  2
_D_1
 10
63.2533858592
 20
85.5580597937
 30
0.0
 11
63.2533858592
 21
117.0580597937
 31
0.0
 70
   160
  1
MAS BT 40 %%c<>
 71
     2
 42
-1.0
  3
SLDDIMSTYLE0
100
AcDbAlignedDimension
 13
159.1622162965
 23
148.5580597937
 33
0.0
 14
159.1622212145
 24
85.5580597937
 34
0.0
 50
90.0
100
AcDbRotatedDimension
  0
DIMENSION
  5
139
330
1F
100
AcDbEntity
  8
VERMASSUNG
100
AcDbDimension
  2
_D_2
 10
222.1622204406
 20
166.2132271046
 30
0.0
 11
178.6622204406
 21
166.2132271046
 31
0.0
 70
   160
  1
<>
 71
     2
 42
-1.0
  3
SLDDIMSTYLE0
100
AcDbAlignedDimension
 13
135.1622204406
 23
139.2830597937
 33
0.0
 14
222.1622204406
 24
152.3580597937
 34
0.0
100
AcDbRotatedDimension
  0
DIMENSION
  5
143
330
1F
100
AcDbEntity
  8
VERMASSUNG
100
AcDbDimension
  2
_D_3
 10
69.7622204406
 20
173.5256006205
 30
0.0
 11
145.9622204406
 21
173.5256006205
 31
0.0
 70
   160
  1
<>
 71
     2
 42
-1.0
  3
SLDDIMSTYLE0
100
AcDbAlignedDimension
 13
222.1622204406
 23
152.3580597937
 33
0.0
 14
69.7622204406
 24
128.8808153907
 34
0.0
100
AcDbRotatedDimension
  0
DIMENSION
  5
14D
330
1F
100
AcDbEntity
  8
VERMASSUNG
100
AcDbDimension
  2
_D_4
 10
232.5639479045
 20
81.0580597937
 30
0.0
 11
232.5639479045
 21
117.0580597937
 31
0.0
 70
   160
  1
MBM %%c<>
 71
     2
 42
-1.0
  3
SLDDIMSTYLE0
100
AcDbAlignedDimension
 13
221.4622204406
 23
153.0580597937
 33
0.0
 14
221.4622204406
 24
81.0580597937
 34
0.0
 50
90.0
100
AcDbRotatedDimension
  0
LINE
  5
159
330
1F
100
AcDbEntity
  8
VERMASSUNG
  6
CENTERX2
 62
     7
370
     0
100
AcDbLine
 10
67.7622204406
 20
117.0580597937
 30
0.0
 11
224.1622204406
 21
117.0580597937
 31
0.0
  0
LINE
  5
15A
330
1F
100
AcDbEntity
  8
0
  6
Continuous
 62
     7
370
    15
100
AcDbLine
 10
272.1706626018
 20
49.4817799962
 30
0.0
 11
271.8877739307
 21
49.6451412343
 31
0.0
  0
LINE
  5
15B
330
1F
100
AcDbEntity
  8
0
  6
Continuous
 62
     7
370
    15
100
AcDbLine
 10
266.7957778497
 20
49.6451412343
 30
0.0
 11
266.5128891785
 21
49.4817799962
 31
0.0
  0
LINE
  5
15C
330
1F
100
AcDbEntity
  8
0
  6
Continuous
 62
     7
370
    15
100
AcDbLine
 10
273.3417758902
 20
47.4613722439
 30
0.0
 11
273.3417758902
 21
47.8492291296
 31
0.0
  0
LINE
  5
15D
330
1F
100
AcDbEntity
  8
0
  6
Continuous
 62
     7
370
    15
100
AcDbLine
 10
265.3417758902
 20
47.8492291296
 30
0.0
 11
265.3417758902
 21
47.4613722439
 31
0.0
  0
LINE
  5
15E
330
1F
100
AcDbEntity
  8
0
  6
Continuous
 62
     7
370
    15
100
AcDbLine
 10
276.0083259482
 20
14.9342473971
 30
0.0
 11
276.2557730979
 21
15.0771420373
 31
0.0
  0
LINE
  5
15F
330
1F
100
AcDbEntity
  8
0
  6
Continuous
 62
     7
370
    15
100
AcDbLine
 10
288.7341793642
 20
36.6927177807
 30
0.0
 11
288.7341793642
 21
36.9784606198
 31
0.0
  0
LINE
  5
160
330
1F
100
AcDbEntity
  8
0
  6
Continuous
 62
     7
370
    15
100
AcDbLine
 10
247.1639554457
 20
25.497047364
 30
0.0
 11
267.0069887091
 21
14.0419080906
 31
0.0
  0
LINE
  5
161
330
1F
100
AcDbEntity
  8
0
  6
Continuous
 62
     7
370
    15
100
AcDbLine
 10
285.0055258966
 20
45.2196671363
 30
0.0
 11
265.1624926332
 21
56.6748064098
 31
0.0
  0
SPLINE
  5
162
330
1F
100
AcDbEntity
  8
0
  6
Continuous
 62
     7
370
    15
100
AcDbSpline
210
0.0
220
0.0
230
1.0
 70
     8
 71
     3
 72
    14
 73
    10
 74
     0
 42
0.000000001
 43
0.00000001
 40
0.0
 40
0.0
 40
0.0
 40
0.0
 40
0.1362076687450201
 40
0.283178083939672
 40
0.4301126607976761
 40
0.5768802323001845
 40
0.7232978097144369
 40
0.8691436455000914
 40
1.0
 40
1.0
 40
1.0
 40
1.0
 10
243.292275175365
 20
33.8365195079421
 30
0.0
 10
243.3009994858881
 20
33.45678866869785
 30
0.0
 10
243.3191374773859
 20
32.66732172854126
 30
0.0
 10
243.4598628648849
 20
31.53710018420328
 30
0.0
 10
243.6874267569163
 20
30.44002686931816
 30
0.0
 10
244.006465078386
 20
29.41715697930284
 30
0.0
 10
244.4148436985188
 20
28.47811646883947
 30
0.0
 10
244.8851332391758
 20
27.64750988783371
 30
0.0
 10
245.2593290336808
 20
27.1798296768389
 30
0.0
 10
245.4362914837704
 20
26.95865713238101
 30
0.0
  0
SPLINE
  5
163
330
1F
100
AcDbEntity
  8
0
  6
Continuous
 62
     7
370
    15
100
AcDbSpline
210
0.0
220
0.0
230
1.0
 70
     8
 71
     3
 72
    15
 73
    11
 74
     0
 42
0.000000001
 43
0.00000001
 40
0.0
 40
0.0
 40
0.0
 40
0.0
 40
0.0945874222783187
 40
0.2427651831197027
 40
0.3918116263572013
 40
0.5416827223457054
 40
0.6922116854145217
 40
0.8431899960028127
 40
0.9944268583398109
 40
1.0
 40
1.0
 40
1.0
 40
1.0
 10
263.0815783940694
 20
57.42253412885542
 30
0.0
 10
262.8880817255275
 20
57.45944885647802
 30
0.0
 10
262.3914590981195
 20
57.55419306659871
 30
0.0
 10
261.5433221951656
 20
57.57621795746387
 30
0.0
 10
260.5495850178942
 20
57.50374407317567
 30
0.0
 10
259.522694035694
 20
57.3103130275523
 30
0.0
 10
258.4721177030577
 20
57.00693134840944
 30
0.0
 10
257.4054035709197
 20
56.57886980299198
 30
0.0
 10
256.6750512169732
 20
56.24470255200566
 30
0.0
 10
256.3038195346224
 20
56.02574997464642
 30
0.0
 10
256.2906256904686
 20
56.01796824070482
 30
0.0
  0
LINE
  5
164
330
1F
100
AcDbEntity
  8
0
  6
Continuous
 62
     7
370
    15
100
AcDbLine
 10
257.4613402103
 20
58.5225812349
 30
0.0
 11
254.429619886
 21
60.2727561246
 31
0.0
  0
SPLINE
  5
165
330
1F
100
AcDbEntity
  8
0
  6
Continuous
 62
     7
370
    15
100
AcDbSpline
210
0.0
220
0.0
230
1.0
 70
     8
 71
     3
 72
    29
 73
    25
 74
     0
 42
0.000000001
 43
0.00000001
 40
0.0
 40
0.0
 40
0.0
 40
0.0
 40
0.0129151939244331
 40
0.0602008384125476
 40
0.107810657343933
 40
0.1557479919439229
 40
0.2039539929021752
 40
0.2523443970270567
 40
0.3008393568326959
 40
0.3493780751109874
 40
0.3979144247304651
 40
0.4464286098294777
 40
0.4949137004221711
 40
0.5433692337453522
 40
0.5917984817565901
 40
0.6402067560283126
 40
0.688600425691805
 40
0.7369863862880546
 40
0.7853717955968638
 40
0.8337625676746088
 40
0.8821650419732152
 40
0.9305866281852799
 40
0.9790346230958208
 40
1.0
 40
1.0
 40
1.0
 40
1.0
 10
252.5432630301727
 20
60.9415851393486
 30
0.0
 10
252.4666603886744
 20
60.95882569898746
 30
0.0
 10
252.1095969740795
 20
61.03918811174206
 30
0.0
 10
251.4274668990647
 20
61.06756055541565
 30
0.0
 10
250.5032679122058
 20
61.0228697762112
 30
0.0
 10
249.543381852637
 20
60.85379960093122
 30
0.0
 10
248.5597634940289
 20
60.57249305052399
 30
0.0
 10
247.5595141059278
 20
60.17792908039269
 30
0.0
 10
246.5515035180681
 20
59.67429784940397
 30
0.0
 10
245.5441665670128
 20
59.06587291813353
 30
0.0
 10
244.5457846700707
 20
58.35811382272345
 30
0.0
 10
243.5642940668619
 20
57.55712567557341
 30
0.0
 10
242.6072972150336
 20
56.66960449574432
 30
0.0
 10
241.6821337883671
 20
55.70279881724318
 30
0.0
 10
240.7958865171033
 20
54.66448935962484
 30
0.0
 10
239.955353816311
 20
53.56294660972928
 30
0.0
 10
239.1670027603901
 20
52.40688112051071
 30
0.0
 10
238.4369545156324
 20
51.2053931016321
 30
0.0
 10
237.7708353776491
 20
49.96789505731854
 30
0.0
 10
237.1741424418641
 20
48.70413161684574
 30
0.0
 10
236.6506578455446
 20
47.4237512064215
 30
0.0
 10
236.2081677989512
 20
46.13749715380217
 30
0.0
 10
235.9072294719268
 20
45.09563181263744
 30
0.0
 10
235.7725259109206
 20
44.48975959415016
 30
0.0
 10
235.7318405090593
 20
44.30676402594376
 30
0.0
  0
LINE
  5
166
330
1F
100
AcDbEntity
  8
0
  6
Continuous
 62
     7
370
    15
100
AcDbLine
 10
245.4198250966
 20
58.9601174417
 30
0.0
 11
225.5301222085
 21
66.127577962
 31
0.0
  0
LINE
  5
167
330
1F
100
AcDbEntity
  8
0
  6
Continuous
 62
     7
370
    15
100
AcDbLine
 10
219.1586527971
 20
55.090673351
 30
0.0
 11
238.1865268835
 21
39.0236937737
 31
0.0
  0
LINE
  5
168
330
1F
100
AcDbEntity
  8
0
  6
Continuous
 62
     7
370
    15
100
AcDbLine
 10
238.6808998469
 20
32.9922169596
 30
0.0
 11
241.7126201713
 21
31.2420420699
 31
0.0
  0
SPLINE
  5
169
330
1F
100
AcDbEntity
  8
0
  6
Continuous
 62
     7
370
    15
100
AcDbSpline
210
0.0
220
0.0
230
1.0
 70
     8
 71
     3
 72
    11
 73
     7
 74
     0
 42
0.000000001
 43
0.00000001
 40
0.0
 40
0.0
 40
0.0
 40
0.0
 40
0.1055678012898777
 40
0.4052628959555745
 40
0.7040184529172374
 40
0.9999999999999999
 40
0.9999999999999999
 40
0.9999999999999999
 40
0.9999999999999999
 10
235.7180365754593
 20
37.05934780793783
 30
0.0
 10
235.7513630913951
 20
36.94552385371506
 30
0.0
 10
235.8792998315303
 20
36.50856651678262
 30
0.0
 10
236.1677012419443
 20
35.80543939764312
 30
0.0
 10
236.6069734494266
 20
34.98140728043074
 30
0.0
 10
236.9715312994537
 20
34.51271204164883
 30
0.0
 10
237.1529600277412
 20
34.27945748103438
 30
0.0
  0
SPLINE
  5
16A
330
1F
100
AcDbEntity
  8
0
  6
Continuous
 62
     7
370
    15
100
AcDbSpline
210
0.0
220
0.0
230
1.0
 70
     8
 71
     3
 72
    23
 73
    19
 74
     0
 42
0.000000001
 43
0.00000001
 40
0.0
 40
0.0
 40
0.0
 40
0.0
 40
0.0413928159098139
 40
0.1017136895166463
 40
0.1632084537629535
 40
0.226086072312994
 40
0.2899972597467975
 40
0.3544139079620355
 40
0.4189093869074583
 40
0.4833029237866976
 40
0.5475734666964054
 40
0.6117515447786982
 40
0.675888184632805
 40
0.7400421262001149
 40
0.8042571450006935
 40
0.8685947987563609
 40
0.9331168851141542
 40
1.0
 40
1.0
 40
1.0
 40
1.0
 10
225.4414453145654
 20
66.14399369653269
 30
0.0
 10
225.3184482612137
 20
66.18304111705642
 30
0.0
 10
225.0162102080371
 20
66.27899151618435
 30
0.0
 10
224.4869741829119
 20
66.29961905871687
 30
0.0
 10
223.87286839575
 20
66.22474613370598
 30
0.0
 10
223.2333099422469
 20
66.03129752136454
 30
0.0
 10
222.5815975980852
 20
65.72655623532758
 30
0.0
 10
221.9311137494008
 20
65.31464750517557
 30
0.0
 10
221.2963387608851
 20
64.80542716665083
 30
0.0
 10
220.6902079957389
 20
64.2103600636104
 30
0.0
 10
220.1241268680619
 20
63.54199503231118
 30
0.0
 10
219.608383079185
 20
62.81355364456704
 30
0.0
 10
219.1523438459574
 20
62.03897252931201
 30
0.0
 10
218.7647095489476
 20
61.23294139416542
 30
0.0
 10
218.4523605552841
 20
60.41015328427454
 30
0.0
 10
218.2240159000089
 20
59.58676191582517
 30
0.0
 10
218.0746212686336
 20
58.76454102195997
 30
0.0
 10
218.0555122124566
 20
58.24192029930293
 30
0.0
 10
218.0457860129793
 20
57.97591483297145
 30
0.0
  0
SPLINE
  5
16B
330
1F
100
AcDbEntity
  8
0
  6
Continuous
 62
     7
370
    15
100
AcDbSpline
210
0.0
220
0.0
230
1.0
 70
     8
 71
     3
 72
    13
 73
     9
 74
     0
 42
0.000000001
 43
0.00000001
 40
0.0
 40
0.0
 40
0.0
 40
0.0
 40
0.1123289039292208
 40
0.3249020681958338
 40
0.5374529477762198
 40
0.74784129225438
 40
0.9538641287941226
 40
1.0
 40
1.0
 40
1.0
 40
1.0
 10
218.0457860129793
 20
57.97591483297145
 30
0.0
 10
218.0484578831968
 20
57.84300512481624
 30
0.0
 10
218.0561860469129
 20
57.45857478184643
 30
0.0
 10
218.143317722316
 20
56.86153540514805
 30
0.0
 10
218.3377124658903
 20
56.21519241011827
 30
0.0
 10
218.635896420556
 20
55.66145170020575
 30
0.0
 10
218.906840147283
 20
55.2952894195355
 30
0.0
 10
219.0986680014382
 20
55.15312652251603
 30
0.0
 10
219.1337655209811
 20
55.1271158835586
 30
0.0
  0
LWPOLYLINE
  5
16C
330
1F
100
AcDbEntity
  8
0
  6
Continuous
 62
     7
370
    15
100
AcDbPolyline
 90
       32
 70
   128
 43
0.0
 10
270.0864266477
 20
46.1425552576
 10
269.362181317
 20
46.0976430761
 10
268.6371005858
 20
46.1378127441
 10
267.9408693443
 20
46.2614197107
 10
267.3019913813
 20
46.4634034923
 10
266.7466224359
 20
46.7354948489
 10
266.2974993778
 20
47.0665543286
 10
265.9730093577
 20
47.4430283173
 10
265.7864370354
 20
47.8495039257
 10
265.7454207035
 20
48.2693399946
 10
265.8516395754
 20
48.685348386
 10
266.1007450382
 20
49.0804976676
 10
266.4825386849
 20
49.4386103813
 10
266.9813898387
 20
49.7450253504
 10
267.5768754748
 20
49.9871979103
 10
268.2446163412
 20
50.1552134878
 10
268.9572750485
 20
50.2421935054
 10
269.6856752654
 20
50.2445769911
 10
270.3999962016
 20
50.1622663645
 10
271.0709934738
 20
49.9986314325
 10
271.671196375
 20
49.7603714284
 10
272.1760325278
 20
49.4572407448
 10
272.5648338809
 20
49.1016495873
 10
272.8216828611
 20
48.7081558999
 10
272.9360640411
 20
48.2928693604
 10
272.9032946419
 20
47.8727918483
 10
272.7247162465
 20
47.4651213865
 10
272.4076398755
 20
47.0865480515
 10
271.9650466726
 20
46.7525706802
 10
271.4150564558
 20
46.4768623454
 10
270.7801858889
 20
46.2707105787
 10
270.0864266477
 20
46.1425552576
  0
LWPOLYLINE
  5
16D
330
1F
100
AcDbEntity
  8
0
  6
Continuous
 62
     7
370
    15
100
AcDbPolyline
 90
       15
 70
   128
 43
0.0
 10
270.1691656208
 20
45.5900177999
 10
269.4135802201
 20
45.5404503632
 10
268.6553996239
 20
45.5743282066
 10
267.9220264542
 20
45.6904268965
 10
267.2399667283
 20
45.8845503238
 10
266.6338718618
 20
46.1496823621
 10
266.1256477021
 20
46.4762404488
 10
265.7336627948
 20
46.8524219236
 10
265.4720844955
 20
47.264630608
 10
265.3503669257
 20
47.6979682061
 10
265.3729092753
 20
48.1367727681
 10
265.5388968052
 20
48.5651847538
 10
265.8423302935
 20
48.9677202379
 10
266.2722428634
 20
49.3298305391
 10
266.5128891785
 20
49.4817799962
  0
LWPOLYLINE
  5
16E
330
1F
100
AcDbEntity
  8
0
  6
Continuous
 62
     7
370
    15
100
AcDbPolyline
 90
       13
 70
   128
 43
0.0
 10
272.1706626018
 20
49.4817799962
 10
272.3172652446
 20
49.392484835
 10
272.769417157
 20
49.0395167877
 10
273.0976851833
 20
48.6435286431
 10
273.2902048619
 20
48.2188324446
 10
273.3400180299
 20
47.7807778192
 10
273.2453243096
 20
47.3451972026
 10
273.0095461789
 20
46.9278336131
 10
272.6412052737
 20
46.5437716582
 10
272.1536143939
 20
46.2068923376
 10
271.5643963445
 20
45.9293713478
 10
270.8948470009
 20
45.7212390203
 10
270.1691656208
 20
45.5900177999
  0
LWPOLYLINE
  5
16F
330
1F
100
AcDbEntity
  8
0
  6
Continuous
 62
     7
370
    15
100
AcDbPolyline
 90
       26
 70
   128
 43
0.0
 10
269.8330385427
 20
46.8344387273
 10
269.2397397551
 20
46.806053061
 10
268.652852273
 20
46.8637364885
 10
268.1092523955
 20
47.0038645479
 10
267.6430965021
 20
47.2176324779
 10
267.283674882
 20
47.4916084533
 10
267.0535713173
 20
47.8085775559
 10
266.9672440614
 20
48.1486234513
 10
267.0301173732
 20
48.4903798053
 10
267.2382406914
 20
48.8123728092
 10
267.5785368623
 20
49.0943704584
 10
268.0296238261
 20
49.3186538035
 10
268.5631581298
 20
49.4711302971
 10
269.145615851
 20
49.5422192802
 10
269.7403990288
 20
49.5274539708
 10
270.3101352489
 20
49.4277621274
 10
270.819025889
 20
49.2494077551
 10
271.2350954788
 20
49.0035975153
 10
271.5322008357
 20
48.7057765692
 10
271.6916737374
 20
48.3746581022
 10
271.7034939151
 20
48.0310475053
 10
271.5669186635
 20
47.6965350961
 10
271.2905295079
 20
47.3921395195
 10
270.8916929955
 20
47.1369870691
 10
270.3954694912
 20
46.9471099116
 10
269.8330385427
 20
46.8344387273
  0
SPLINE
  5
170
330
1F
100
AcDbEntity
  8
0
  6
Continuous
 62
     7
370
    15
100
AcDbSpline
210
0.0
220
0.0
230
1.0
 70
     8
 71
     3
 72
    11
 73
     7
 74
     0
 42
0.000000001
 43
0.00000001
 40
0.0
 40
0.0
 40
0.0
 40
0.0
 40
0.2307489497050967
 40
0.4693872653748122
 40
0.801549557076855
 40
1.0
 40
1.0
 40
1.0
 40
1.0
 10
271.6012320366746
 20
48.39804795003015
 30
0.0
 10
271.5521748376935
 20
48.25200127712422
 30
0.0
 10
271.4523831614753
 20
47.95491455798631
 30
0.0
 10
271.2673672612812
 20
47.52815476715696
 30
0.0
 10
271.0838192409412
 20
47.25425047038785
 30
0.0
 10
270.9705014124708
 20
47.1866938530875
 30
0.0
 10
270.9281202712286
 20
47.16142751522789
 30
0.0
  0
SPLINE
  5
171
330
1F
100
AcDbEntity
  8
0
  6
Continuous
 62
     7
370
    15
100
AcDbSpline
210
0.0
220
0.0
230
1.0
 70
     8
 71
     3
 72
    11
 73
     7
 74
     0
 42
0.000000001
 43
0.00000001
 40
0.0
 40
0.0
 40
0.0
 40
0.0
 40
0.2164567244934127
 40
0.4403141600939091
 40
0.7519028444798533
 40
1.0
 40
1.0
 40
1.0
 40
1.0
 10
270.0578090981278
 20
49.38977026801605
 30
0.0
 10
270.1635357353125
 20
49.26268633019725
 30
0.0
 10
270.3786038306116
 20
49.00417342202557
 30
0.0
 10
270.7777116247012
 20
48.64744105611597
 30
0.0
 10
271.2058237276653
 20
48.43282567232477
 30
0.0
 10
271.4797889296896
 20
48.40872935088363
 30
0.0
 10
271.6012320366746
 20
48.39804795003015
 30
0.0
  0
SPLINE
  5
172
330
1F
100
AcDbEntity
  8
0
  6
Continuous
 62
     7
370
    15
100
AcDbSpline
210
0.0
220
0.0
230
1.0
 70
     8
 71
     3
 72
    11
 73
     7
 74
     0
 42
0.000000001
 43
0.00000001
 40
0.0
 40
0.0
 40
0.0
 40
0.0
 40
0.1847276211383795
 40
0.5189555278332378
 40
0.8695279910914477
 40
1.0
 40
1.0
 40
1.0
 40
1.0
 10
267.7983529516414
 20
49.11400357428055
 30
0.0
 10
267.9297216963531
 20
49.07913472219603
 30
0.0
 10
268.2987760685822
 20
48.98117761417424
 30
0.0
 10
268.987180496729
 20
48.95926835749354
 30
0.0
 10
269.6248877588479
 20
49.16581323853146
 30
0.0
 10
269.9654418135439
 20
49.34198721645436
 30
0.0
 10
270.0578090981278
 20
49.38977026801605
 30
0.0
  0
SPLINE
  5
173
330
1F
100
AcDbEntity
  8
0
  6
Continuous
 62
     7
370
    15
100
AcDbSpline
210
0.0
220
0.0
230
1.0
 70
     8
 71
     3
 72
    11
 73
     7
 74
     0
 42
0.000000001
 43
0.00000001
 40
0.0
 40
0.0
 40
0.0
 40
0.0
 40
0.2164567244934117
 40
0.4403141600939116
 40
0.7519028444798539
 40
0.9999999999999999
 40
0.9999999999999999
 40
0.9999999999999999
 40
0.9999999999999999
 10
267.0823197437016
 20
47.84651456255914
 30
0.0
 10
267.131369023259
 20
47.87418977118936
 30
0.0
 10
267.2311445898627
 20
47.930486410954
 30
0.0
 10
267.4163008597213
 20
48.15795480276449
 30
0.0
 10
267.6149129671271
 20
48.56999572246976
 30
0.0
 10
267.7420124014883
 20
48.94692058122538
 30
0.0
 10
267.7983529516414
 20
49.11400357428055
 30
0.0
  0
SPLINE
  5
174
330
1F
100
AcDbEntity
  8
0
  6
Continuous
 62
     7
370
    15
100
AcDbSpline
210
0.0
220
0.0
230
1.0
 70
     8
 71
     3
 72
     9
 73
     5
 74
     0
 42
0.000000001
 43
0.00000001
 40
0.0
 40
0.0
 40
0.0
 40
0.0
 40
0.465558845306735
 40
1.0
 40
1.0
 40
1.0
 40
1.0
 10
267.7983529516414
 20
47.15881003985576
 30
0.0
 10
267.6814478455997
 20
47.2410001879381
 30
0.0
 10
267.4303408003351
 20
47.41754102463553
 30
0.0
 10
267.2035344118536
 20
47.6971043931046
 30
0.0
 10
267.0823197437016
 20
47.84651456255914
 30
0.0
  0
LINE
  5
175
330
1F
100
AcDbEntity
  8
0
  6
Continuous
 62
     7
370
    15
100
AcDbLine
 10
267.7983529516
 20
47.1337698738
 30
0.0
 11
267.7983529516
 21
49.1140035743
 31
0.0
  0
LINE
  5
176
330
1F
100
AcDbEntity
  8
0
  6
Continuous
 62
     7
370
    15
100
AcDbLine
 10
270.0578090981
 20
46.8685823766
 30
0.0
 11
270.0578090981
 21
49.389770268
 31
0.0
  0
LWPOLYLINE
  5
177
330
1F
100
AcDbEntity
  8
0
  6
Continuous
 62
     7
370
    15
100
AcDbPolyline
 90
       71
 70
   128
 43
0.0
 10
263.7733099883
 20
22.283114607
 10
263.8235525492
 20
23.6039958394
 10
263.9738757082
 20
24.9722509387
 10
264.2230691518
 20
26.3768635195
 10
264.5691265207
 20
27.8065244671
 10
265.0092615646
 20
29.2497229924
 10
265.5399305748
 20
30.6948393092
 10
266.1568609166
 20
32.1302381907
 10
266.8550854295
 20
33.5443626492
 10
267.6289824203
 20
34.925826986
 10
268.4723209256
 20
36.2635084625
 10
269.3783108795
 20
37.546636854
 10
270.3396577836
 20
38.7648811653
 10
271.348621438
 20
39.9084328094
 10
272.3970782605
 20
40.9680845808
 10
273.4765866933
 20
41.9353047866
 10
274.5784551693
 20
42.8023059385
 10
275.6938120913
 20
43.5621074528
 10
276.8136772613
 20
44.2085918546
 10
277.9290341833
 20
44.7365540316
 10
279.0309026592
 20
45.1417431428
 10
280.110411092
 20
45.4208968437
 10
281.1588679146
 20
45.5717675528
 10
282.1678315689
 20
45.593140548
 10
283.1291784731
 20
45.4848437463
 10
284.035168427
 20
45.2477490901
 10
284.8785069322
 20
44.883765526
 10
285.6524039231
 20
44.3958236357
 10
286.350628436
 20
43.7878520404
 10
286.9675587778
 20
43.0647457699
 10
287.498227788
 20
42.2323268507
 10
287.9383628319
 20
41.2972974304
 10
288.2844202008
 20
40.2671858163
 10
288.5336136443
 20
39.1502858612
 10
288.6839368034
 20
37.955590187
 10
288.7341793642
 20
36.6927177807
 10
288.6839368034
 20
35.3718365484
 10
288.5336136443
 20
34.003581449
 10
288.2844202008
 20
32.5989688682
 10
287.9383628319
 20
31.1693079206
 10
287.498227788
 20
29.7261093954
 10
286.9675587778
 20
28.2809930786
 10
286.350628436
 20
26.845594197
 10
285.6524039231
 20
25.4314697385
 10
284.8785069322
 20
24.0500054018
 10
284.035168427
 20
22.7123239252
 10
283.1291784731
 20
21.4291955337
 10
282.1678315689
 20
20.2109512224
 10
281.1588679146
 20
19.0673995784
 10
280.110411092
 20
18.0077478069
 10
279.0309026592
 20
17.0405276011
 10
277.9290341833
 20
16.1735264493
 10
276.8136772613
 20
15.4137249349
 10
275.6938120913
 20
14.7672405331
 10
274.5784551693
 20
14.2392783561
 10
273.4765866933
 20
13.8340892449
 10
272.3970782605
 20
13.554935544
 10
271.348621438
 20
13.4040648349
 10
270.3396577836
 20
13.3826918398
 10
269.3783108795
 20
13.4909886414
 10
268.4723209256
 20
13.7280832976
 10
267.6289824203
 20
14.0920668617
 10
266.8550854295
 20
14.580008752
 10
266.1568609166
 20
15.1879803473
 10
265.5399305748
 20
15.9110866178
 10
265.0092615646
 20
16.7435055371
 10
264.5691265207
 20
17.6785349573
 10
264.2230691518
 20
18.7086465715
 10
263.9738757082
 20
19.8255465265
 10
263.8235525492
 20
21.0202422007
 10
263.7733099883
 20
22.283114607
  0
LWPOLYLINE
  5
178
330
1F
100
AcDbEntity
  8
0
  6
Continuous
 62
     7
370
    15
100
AcDbPolyline
 90
       37
 70
   128
 43
0.0
 10
263.2783352415
 20
22.283114607
 10
263.3281418652
 20
23.6108546814
 10
263.4771719317
 20
24.985708893
 10
263.7242590789
 20
26.3969171437
 10
264.0674695147
 20
27.8334348154
 10
264.5041171521
 20
29.2840192098
 10
265.0307846315
 20
30.737317537
 10
265.6433500655
 20
32.1819557673
 10
266.3370192993
 20
33.6066276478
 10
267.1063634304
 20
35.0001831894
 10
267.9453612981
 20
36.3517159305
 10
268.8474466063
 20
37.650648295
 10
269.8055593145
 20
38.8868143759
 10
270.8122008917
 20
40.0505394976
 10
271.8594930027
 20
41.1327159332
 10
272.9392391667
 20
42.1248741848
 10
274.042988906
 20
43.0192492688
 10
275.1621038825
 20
43.8088414877
 10
276.287825504
 20
44.4874712117
 10
277.4113434726
 20
45.049827243
 10
278.5238647368
 20
45.4915083834
 10
279.6166823093
 20
45.809057879
 10
280.681243411
 20
45.9999904745
 10
281.7092164077
 20
46.0628118634
 10
282.6925560172
 20
45.9970303831
 10
283.6235662736
 20
45.803160863
 10
284.4949607593
 20
45.482720595
 10
285.2999196311
 20
45.0382174585
 10
286.0321429944
 20
44.4731302933
 10
286.6859002085
 20
43.7918816726
 10
287.2560747369
 20
42.9998032906
 10
287.7382041908
 20
42.1030942346
 10
288.1285152536
 20
41.1087724686
 10
288.4239532119
 20
40.0246199088
 10
288.6222058632
 20
38.8591215187
 10
288.7217216117
 20
37.6213989036
 10
288.7341793642
 20
36.9784606198
  0
LWPOLYLINE
  5
179
330
1F
100
AcDbEntity
  8
0
  6
Continuous
 62
     7
370
    15
100
AcDbPolyline
 90
       19
 70
   128
 43
0.0
 10
276.0083259482
 20
14.9342473971
 10
275.1621038825
 20
14.4780949458
 10
274.042988906
 20
13.975584516
 10
272.9392391667
 20
13.5955972766
 10
271.8594930027
 20
13.3411071429
 10
270.8122008917
 20
13.2141058452
 10
269.8055593145
 20
13.2155873409
 10
268.8474466063
 20
13.3455400353
 10
267.9453612981
 20
13.6029468724
 10
267.1063634304
 20
13.9857932946
 10
266.3370192993
 20
14.4910830096
 10
265.6433500655
 20
15.1148614403
 10
265.0307846315
 20
15.8522466748
 10
264.5041171521
 20
16.6974676737
 10
264.0674695147
 20
17.6439094368
 10
263.7242590789
 20
18.684164774
 10
263.4771719317
 20
19.810092277
 10
263.3281418652
 20
21.0128800363
 10
263.2783352415
 20
22.283114607
  0
SPLINE
  5
17A
330
1F
100
AcDbEntity
  8
0
  6
Continuous
 62
     7
370
    15
100
AcDbSpline
210
0.0
220
0.0
230
1.0
 70
     8
 71
     3
 72
    50
 73
    46
 74
     0
 42
0.000000001
 43
0.00000001
 40
0.0
 40
0.0
 40
0.0
 40
0.0
 40
0.0312500000000008
 40
0.0312500000000008
 40
0.0625000000000016
 40
0.0625000000000016
 40
0.1250000000000031
 40
0.1250000000000031
 40
0.1562500000000036
 40
0.1562500000000036
 40
0.1875000000000041
 40
0.1875000000000041
 40
0.2187500000000046
 40
0.2187500000000046
 40
0.250000000000005
 40
0.250000000000005
 40
0.3125000000000069
 40
0.3125000000000069
 40
0.3437500000000079
 40
0.3437500000000079
 40
0.3750000000000088
 40
0.3750000000000088
 40
0.4375000000000105
 40
0.4375000000000105
 40
0.4687500000000107
 40
0.4687500000000107
 40
0.5000000000000109
 40
0.5000000000000109
 40
0.5625000000000098
 40
0.5625000000000098
 40
0.6250000000000087
 40
0.6250000000000087
 40
0.6875000000000075
 40
0.6875000000000075
 40
0.7500000000000059
 40
0.7500000000000059
 40
0.8125000000000042
 40
0.8125000000000042
 40
0.8750000000000026
 40
0.8750000000000026
 40
0.9062500000000019
 40
0.9062500000000019
 40
0.9375000000000012
 40
0.9375000000000012
 40
1.0
 40
1.0
 40
1.0
 40
1.0
 10
272.7889214484725
 20
46.18585068176923
 30
0.0
 10
272.6823806259191
 20
46.12434597407361
 30
0.0
 10
272.5696864982311
 20
46.06497253204422
 30
0.0
 10
272.3318697604474
 20
45.95057662790673
 30
0.0
 10
272.2058373055894
 20
45.89521677881809
 30
0.0
 10
271.8172350047969
 20
45.73956682581401
 30
0.0
 10
271.5437274273592
 20
45.64897005748738
 30
0.0
 10
271.1129871529174
 20
45.53309676014883
 30
0.0
 10
270.9655930844013
 20
45.49781609940742
 30
0.0
 10
270.6705337597069
 20
45.4356908193912
 30
0.0
 10
270.5220862839874
 20
45.40861261781282
 30
0.0
 10
270.2233978067215
 20
45.36239537169406
 30
0.0
 10
270.0731565882239
 20
45.34325700097255
 30
0.0
 10
269.7708601031327
 20
45.31316977493009
 30
0.0
 10
269.6187601744998
 20
45.30227283785428
 30
0.0
 10
269.1684880985327
 20
45.28271337667812
 30
0.0
 10
268.8732751253646
 20
45.28670838907509
 30
0.0
 10
268.4372251422814
 20
45.31913759814758
 30
0.0
 10
268.2923723837013
 20
45.33449097493403
 30
0.0
 10
268.009223178641
 20
45.37389590861881
 30
0.0
 10
267.8707191433861
 20
45.39791468811478
 30
0.0
 10
267.4640469483815
 20
45.48287313221908
 30
0.0
 10
267.2046420739177
 20
45.55663061465746
 30
0.0
 10
266.8331196683834
 20
45.6943496168016
 30
0.0
 10
266.7125481617236
 20
45.74473600936159
 30
0.0
 10
266.4817218956787
 20
45.85276043168101
 30
0.0
 10
266.3708943669841
 20
45.91060070843717
 30
0.0
 10
266.0519393484695
 20
46.09546472409638
 30
0.0
 10
265.8572215528728
 20
46.23376938898919
 30
0.0
 10
265.5051713478744
 20
46.54121585875492
 30
0.0
 10
265.3519501111477
 20
46.7069667962629
 30
0.0
 10
265.093274232089
 20
47.05719511709002
 30
0.0
 10
264.9872037520932
 20
47.2421804120099
 30
0.0
 10
264.825378147834
 20
47.63107530517033
 30
0.0
 10
264.7720989683395
 20
47.82918179430549
 30
0.0
 10
264.7215546224301
 20
48.22866711283295
 30
0.0
 10
264.7242605208143
 20
48.43106681691387
 30
0.0
 10
264.7925065570064
 20
48.83369836202226
 30
0.0
 10
264.8568110446046
 20
49.02774126008971
 30
0.0
 10
264.9998915826048
 20
49.30556200625967
 30
0.0
 10
265.0554135559395
 20
49.39595136145341
 30
0.0
 10
265.1831464436871
 20
49.57173160216996
 30
0.0
 10
265.2558587508603
 20
49.65748558979984
 30
0.0
 10
265.4938689720427
 20
49.89917153683592
 30
0.0
 10
265.680147187763
 20
50.04202174334304
 30
0.0
 10
265.8946303319037
 20
50.16584022690494
 30
0.0
  0
SPLINE
  5
17B
330
1F
100
AcDbEntity
  8
0
  6
Continuous
 62
     7
370
    15
100
AcDbSpline
210
0.0
220
0.0
230
1.0
 70
     8
 71
     3
 72
    54
 73
    50
 74
     0
 42
0.000000001
 43
0.00000001
 40
0.0
 40
0.0
 40
0.0
 40
0.0
 40
0.0312500000000003
 40
0.0312500000000003
 40
0.0625000000000005
 40
0.0625000000000005
 40
0.0937500000000008
 40
0.0937500000000008
 40
0.125000000000001
 40
0.125000000000001
 40
0.1875000000000012
 40
0.1875000000000012
 40
0.2187500000000011
 40
0.2187500000000011
 40
0.2500000000000009
 40
0.2500000000000009
 40
0.3125000000000009
 40
0.3125000000000009
 40
0.3750000000000009
 40
0.3750000000000009
 40
0.437500000000001
 40
0.437500000000001
 40
0.4687500000000009
 40
0.4687500000000009
 40
0.5000000000000009
 40
0.5000000000000009
 40
0.562500000000001
 40
0.562500000000001
 40
0.5937500000000002
 40
0.5937500000000002
 40
0.6249999999999994
 40
0.6249999999999994
 40
0.6874999999999979
 40
0.6874999999999979
 40
0.7187499999999977
 40
0.7187499999999977
 40
0.7499999999999974
 40
0.7499999999999974
 40
0.8124999999999981
 40
0.8124999999999981
 40
0.8437499999999984
 40
0.8437499999999984
 40
0.8749999999999989
 40
0.8749999999999989
 40
0.9374999999999996
 40
0.9374999999999996
 40
0.9687499999999999
 40
0.9687499999999999
 40
1.0
 40
1.0
 40
1.0
 40
1.0
 10
265.8946303319037
 20
50.16584022690494
 30
0.0
 10
266.0018947401407
 20
50.22776265172427
 30
0.0
 10
266.1171295574179
 20
50.28520457886371
 30
0.0
 10
266.3563495283748
 20
50.3875239383289
 30
0.0
 10
266.4806346846718
 20
50.43270200036548
 30
0.0
 10
266.7382189355473
 20
50.51167168524447
 30
0.0
 10
266.8715189206733
 20
50.54546195137685
 30
0.0
 10
267.1471014189128
 20
50.60193219830824
 30
0.0
 10
267.2896629111783
 20
50.62456157283024
 30
0.0
 10
267.720409715168
 20
50.67501966478205
 30
0.0
 10
268.0149036934178
 20
50.68638518538673
 30
0.0
 10
268.4672168950609
 20
50.67418059881646
 30
0.0
 10
268.61930899879
 20
50.6651687666677
 30
0.0
 10
268.9221289791339
 20
50.63828233061822
 30
0.0
 10
269.0734350357117
 20
50.6203958778466
 30
0.0
 10
269.5271335641195
 20
50.55434562343296
 30
0.0
 10
269.8229164368471
 20
50.49482559189634
 30
0.0
 10
270.3992808814359
 20
50.35133470820172
 30
0.0
 10
270.6811774317948
 20
50.26698085087661
 30
0.0
 10
271.2283184840009
 20
50.07671672750257
 30
0.0
 10
271.4871270510484
 20
49.97312827824996
 30
0.0
 10
271.8544246360663
 20
49.80689114123255
 30
0.0
 10
271.9733463130148
 20
49.74964755830047
 30
0.0
 10
272.2040892917278
 20
49.63155641740513
 30
0.0
 10
272.3164112863335
 20
49.57040492377583
 30
0.0
 10
272.6375457767248
 20
49.38424491029769
 30
0.0
 10
272.8311697884063
 20
49.25649783093424
 30
0.0
 10
273.0915354660431
 20
49.05908795655799
 30
0.0
 10
273.1732811221456
 20
48.99230566959881
 30
0.0
 10
273.3264011727435
 20
48.85654794057989
 30
0.0
 10
273.3980250675901
 20
48.78726486924316
 30
0.0
 10
273.5930918160971
 20
48.57941985173999
 30
0.0
 10
273.6980633041373
 20
48.44007095449033
 30
0.0
 10
273.817501713982
 20
48.22788081554286
 30
0.0
 10
273.8509362299683
 20
48.15661562508725
 30
0.0
 10
273.9044085123604
 20
48.0125633833126
 30
0.0
 10
273.9244196091076
 20
47.93952315780618
 30
0.0
 10
273.9622565901338
 20
47.72219713135991
 30
0.0
 10
273.9588484362534
 20
47.57827563769413
 30
0.0
 10
273.908570472513
 20
47.36132604403585
 30
0.0
 10
273.8842290424467
 20
47.28883244538572
 30
0.0
 10
273.8192075539603
 20
47.14304850488062
 30
0.0
 10
273.7785349237056
 20
47.07006240089429
 30
0.0
 10
273.6344808925363
 20
46.85531954353228
 30
0.0
 10
273.5085516076995
 20
46.71582580093386
 30
0.0
 10
273.2718332161651
 20
46.51083636259386
 30
0.0
 10
273.1841231168731
 20
46.4427238466578
 30
0.0
 10
272.9958929451081
 20
46.31101825955373
 30
0.0
 10
272.8954849579741
 20
46.24736848636118
 30
0.0
 10
272.7889214484725
 20
46.18585068176924
 30
0.0
  0
ARC
  5
17C
330
1F
100
AcDbEntity
  8
0
  6
Continuous
 62
     7
370
    15
100
AcDbCircle
 10
262.0660495692
 20
51.2748119082
 30
0.0
 40
6.224781141930864
100
AcDbArc
 50
60.1693522385
 51
79.5978917471
  0
ARC
  5
17D
330
1F
100
AcDbEntity
  8
0
  6
Continuous
 62
     7
370
    15
100
AcDbCircle
 10
250.2732956463
 20
30.8578934054
 30
0.0
 40
6.197311252651951
100
AcDbArc
 50
219.9063337575
 51
239.8858710033
  0
LWPOLYLINE
  5
17E
330
1F
100
AcDbEntity
  8
0
  6
Continuous
 62
     7
370
    15
100
AcDbPolyline
 90
       66
 70
   128
 43
0.0
 10
265.4703662632
 20
23.2628043412
 10
265.5207070126
 20
24.4936806562
 10
265.6712592428
 20
25.7711868028
 10
265.9206172882
 20
27.0833950503
 10
266.26645296
 20
28.4180536639
 10
266.7055372835
 20
29.7627012957
 10
267.2337706469
 20
31.104783333
 10
267.8462210774
 20
32.4317691174
 10
268.5371702906
 20
33.7312689403
 10
269.3001670796
 20
34.9911497219
 10
270.1280875491
 20
36.1996482948
 10
271.0132016288
 20
37.3454812335
 10
271.9472452469
 20
38.4179502045
 10
272.9214974899
 20
39.407041854
 10
273.926862027
 20
40.3035212998
 10
274.9539520404
 20
41.0990183548
 10
275.9931778675
 20
41.7861056773
 10
277.0348365367
 20
42.3583681183
 10
278.0692023616
 20
42.8104626173
 10
279.0866177473
 20
43.13816809
 10
280.0775833604
 20
43.3384248386
 10
281.032846822
 20
43.4093631198
 10
281.9434890945
 20
43.350320602
 10
282.8010077563
 20
43.1618485492
 10
283.5973963869
 20
42.8457066743
 10
284.3252193201
 20
42.4048467087
 10
284.9776810693
 20
41.8433848431
 10
285.5486897749
 20
41.1665632958
 10
286.0329140825
 20
40.3807013672
 10
286.4258329202
 20
39.4931364383
 10
286.7237777107
 20
38.5121554637
 10
286.9239666237
 20
37.4469175985
 10
287.0245305494
 20
36.3073686816
 10
287.0245305494
 20
35.1041483742
 10
286.9239666237
 20
33.8484908202
 10
286.7237777107
 20
32.5521197558
 10
286.4258329202
 20
31.2271390484
 10
286.0329140825
 20
29.8859196857
 10
285.5486897749
 20
28.5409842717
 10
284.9776810693
 20
27.2048901059
 10
284.3252193201
 20
25.8901119396
 10
283.5973963869
 20
24.6089255022
 10
282.8010077563
 20
23.3732928863
 10
281.9434890945
 20
22.1947508608
 10
281.032846822
 20
21.0843031549
 10
280.0775833604
 20
20.0523177198
 10
279.0866177473
 20
19.1084299253
 10
278.0692023616
 20
18.2614525975
 10
277.0348365367
 20
17.5192937355
 10
275.9931778675
 20
16.8888826766
 10
274.9539520404
 20
16.3761053991
 10
273.926862027
 20
15.9857495661
 10
272.9214974899
 20
15.721459825
 10
271.9472452469
 20
15.5857037779
 10
271.0132016288
 20
15.5797489423
 10
270.1280875491
 20
15.703650917
 10
269.3001670796
 20
15.9562528626
 10
268.5371702906
 20
16.3351963029
 10
267.8462210774
 20
16.8369431449
 10
267.2337706469
 20
17.4568087137
 10
266.7055372835
 20
18.1890054915
 10
266.26645296
 20
19.0266971541
 10
265.9206172882
 20
19.9620624003
 10
265.6712592428
 20
20.9863679768
 10
265.5207070126
 20
22.0900502183
 10
265.4703662632
 20
23.2628043412
  0
SPLINE
  5
17F
330
1F
100
AcDbEntity
  8
0
  6
Continuous
 62
     7
370
    15
100
AcDbSpline
210
0.0
220
0.0
230
1.0
 70
     8
 71
     3
 72
    16
 73
    12
 74
     0
 42
0.000000001
 43
0.00000001
 40
0.0
 40
0.0
 40
0.0
 40
0.0
 40
0.2499999999999986
 40
0.2499999999999986
 40
0.4999999999999972
 40
0.4999999999999972
 40
0.6249999999999977
 40
0.6249999999999977
 40
0.749999999999998
 40
0.749999999999998
 40
1.0
 40
1.0
 40
1.0
 40
1.0
 10
268.9464877803803
 20
17.03124001320271
 30
0.0
 10
268.8005222661947
 20
16.94095082318044
 30
0.0
 10
268.6526175542637
 20
16.89728711425806
 30
0.0
 10
268.3562146263309
 20
16.90860826925138
 30
0.0
 10
268.2154061795696
 20
16.96341855364049
 30
0.0
 10
268.0181800923109
 20
17.11985615866814
 30
0.0
 10
267.9565785763018
 20
17.18312654727833
 30
0.0
 10
267.8412660397022
 20
17.33098297533094
 30
0.0
 10
267.7872285518733
 20
17.4162219698623
 30
0.0
 10
267.6394676591485
 20
17.70083375851685
 30
0.0
 10
267.5625117318227
 20
17.92196799139693
 30
0.0
 10
267.5053143314476
 20
18.17322547797375
 30
0.0
  0
LWPOLYLINE
  5
180
330
1F
100
AcDbEntity
  8
0
  6
Continuous
 62
     7
370
    15
100
AcDbPolyline
 90
       16
 70
   128
 43
0.0
 10
283.0306714863
 20
25.1618662014
 10
282.245314215
 20
23.9290491279
 10
281.3956521537
 20
22.7549376503
 10
280.4904178674
 20
21.6515989247
 10
279.5389150749
 20
20.6303727264
 10
278.5509230289
 20
19.7017549037
 10
277.5365960071
 20
18.8752895042
 10
276.50635895
 20
18.1594706848
 10
275.4708003167
 20
17.5616554106
 10
274.4405632596
 20
17.0879878429
 10
273.4262362378
 20
16.7433361909
 10
272.4382441917
 20
16.531242678
 10
271.4867413993
 20
16.4538871361
 10
270.5815071129
 20
16.5120646016
 10
269.7318450517
 20
16.7051771443
 10
268.9464877804
 20
17.0312400132
  0
SPLINE
  5
181
330
1F
100
AcDbEntity
  8
0
  6
Continuous
 62
     7
370
    15
100
AcDbSpline
210
0.0
220
0.0
230
1.0
 70
     8
 71
     3
 72
    16
 73
    12
 74
     0
 42
0.000000001
 43
0.00000001
 40
0.0
 40
0.0
 40
0.0
 40
0.0
 40
0.2499999999999995
 40
0.2499999999999995
 40
0.499999999999999
 40
0.499999999999999
 40
0.6249999999999988
 40
0.6249999999999988
 40
0.7499999999999984
 40
0.7499999999999984
 40
1.0
 40
1.0
 40
1.0
 40
1.0
 10
284.4718449352358
 20
27.96779511226391
 30
0.0
 10
284.5104587348597
 20
27.70578477109669
 30
0.0
 10
284.5065917865007
 20
27.43685313624108
 30
0.0
 10
284.4103122997698
 20
26.88677230879134
 30
0.0
 10
284.3202930539917
 20
26.61985255424132
 30
0.0
 10
284.1229276304553
 20
26.23583876407363
 30
0.0
 10
284.0483891874538
 20
26.11408422805685
 30
0.0
 10
283.8825268567682
 20
25.8825635315102
 30
0.0
 10
283.7905236300797
 20
25.7721131135357
 30
0.0
 10
283.4927909459992
 20
25.46419005063147
 30
0.0
 10
283.2724321187212
 20
25.29540707639944
 30
0.0
 10
283.030671486303
 20
25.16186620138731
 30
0.0
  0
LWPOLYLINE
  5
182
330
1F
100
AcDbEntity
  8
0
  6
Continuous
 62
     7
370
    15
100
AcDbPolyline
 90
       13
 70
   128
 43
0.0
 10
284.4718449352
 20
41.1087599517
 10
284.9901157132
 20
40.4130807768
 10
285.4211798783
 20
39.6130419342
 10
285.7608612937
 20
38.7163941763
 10
286.0058691359
 20
37.7318241999
 10
286.1538297764
 20
36.6688704895
 10
286.2033097768
 20
35.5378309089
 10
286.1538297764
 20
34.3496629359
 10
286.0058691359
 20
33.1158775062
 10
285.7608612937
 20
31.8484274964
 10
285.4211798783
 20
30.5595919243
 10
284.9901157132
 20
29.2618569905
 10
284.4718449352
 20
27.9677951123
  0
SPLINE
  5
183
330
1F
100
AcDbEntity
  8
0
  6
Continuous
 62
     7
370
    15
100
AcDbSpline
210
0.0
220
0.0
230
1.0
 70
     8
 71
     3
 72
    16
 73
    12
 74
     0
 42
0.000000001
 43
0.00000001
 40
0.0
 40
0.0
 40
0.0
 40
0.0
 40
0.2499999999999985
 40
0.2499999999999985
 40
0.499999999999997
 40
0.499999999999997
 40
0.6249999999999973
 40
0.6249999999999973
 40
0.7499999999999977
 40
0.7499999999999977
 40
1.0
 40
1.0
 40
1.0
 40
1.0
 10
283.030671486303
 20
42.25074541645099
 30
0.0
 10
283.2724531843365
 20
42.285721100919
 30
0.0
 10
283.4937610790979
 20
42.28701005436539
 30
0.0
 10
283.8917044060596
 20
42.21707087473239
 30
0.0
 10
284.0579845228099
 20
42.14755610825231
 30
0.0
 10
284.2551404608081
 20
41.99115899953082
 30
0.0
 10
284.3102349464743
 20
41.93164503957972
 30
0.0
 10
284.4000479885538
 20
41.79850915637797
 30
0.0
 10
284.4349147699431
 20
41.72433717510617
 30
0.0
 10
284.5065787528563
 20
41.48365519741354
 30
0.0
 10
284.510455370571
 20
41.30470875197971
 30
0.0
 10
284.4718449352358
 20
41.10875995167995
 30
0.0
  0
LWPOLYLINE
  5
184
330
1F
100
AcDbEntity
  8
0
  6
Continuous
 62
     7
370
    15
100
AcDbPolyline
 90
       16
 70
   128
 43
0.0
 10
268.9464877804
 20
34.1201192283
 10
269.7318450517
 20
35.3529363018
 10
270.5815071129
 20
36.5270477793
 10
271.4867413993
 20
37.630386505
 10
272.4382441917
 20
38.6516127032
 10
273.4262362378
 20
39.580230526
 10
274.4405632596
 20
40.4066959254
 10
275.4708003167
 20
41.1225147448
 10
276.50635895
 20
41.720330019
 10
277.5365960071
 20
42.1939975868
 10
278.5509230289
 20
42.5386492388
 10
279.5389150749
 20
42.7507427516
 10
280.4904178674
 20
42.8280982936
 10
281.3956521537
 20
42.7699208281
 10
282.245314215
 20
42.5768082853
 10
283.0306714863
 20
42.2507454165
  0
SPLINE
  5
185
330
1F
100
AcDbEntity
  8
0
  6
Continuous
 62
     7
370
    15
100
AcDbSpline
210
0.0
220
0.0
230
1.0
 70
     8
 71
     3
 72
    16
 73
    12
 74
     0
 42
0.000000001
 43
0.00000001
 40
0.0
 40
0.0
 40
0.0
 40
0.0
 40
0.2500000000000004
 40
0.2500000000000004
 40
0.5000000000000008
 40
0.5000000000000008
 40
0.6250000000000006
 40
0.6250000000000006
 40
0.7500000000000002
 40
0.7500000000000002
 40
1.0
 40
1.0
 40
1.0
 40
1.0
 10
267.5053143314476
 20
31.3141903173898
 30
0.0
 10
267.5625167156714
 20
31.52088715300275
 30
0.0
 10
267.6397868468608
 20
31.74744403238238
 30
0.0
 10
267.8376067326208
 20
32.23890683519245
 30
0.0
 10
267.9530976483879
 20
32.49112210765151
 30
0.0
 10
268.1503929226637
 20
32.87517639412535
 30
0.0
 10
268.2184243353223
 20
33.0006873588012
 30
0.0
 10
268.3587871714878
 20
33.24692860019871
 30
0.0
 10
268.4316196917368
 20
33.36844603143277
 30
0.0
 10
268.6532554660056
 20
33.72029890529892
 30
0.0
 10
268.8005349836724
 20
33.9312696669772
 30
0.0
 10
268.9464877803803
 20
34.12011922826638
 30
0.0
  0
LWPOLYLINE
  5
186
330
1F
100
AcDbEntity
  8
0
  6
Continuous
 62
     7
370
    15
100
AcDbPolyline
 90
       13
 70
   128
 43
0.0
 10
267.5053143314
 20
18.173225478
 10
266.9870435535
 20
18.8689046529
 10
266.5559793884
 20
19.6689434955
 10
266.216297973
 20
20.5655912534
 10
265.9712901308
 20
21.5501612298
 10
265.8233294903
 20
22.6131149402
 10
265.7738494899
 20
23.7441545208
 10
265.8233294903
 20
24.9323224938
 10
265.9712901308
 20
26.1661079234
 10
266.216297973
 20
27.4335579332
 10
266.5559793884
 20
28.7223935053
 10
266.9870435535
 20
30.0201284391
 10
267.5053143314
 20
31.3141903174
  0
ARC
  5
187
330
1F
100
AcDbEntity
  8
0
  6
Continuous
 62
     7
370
    15
100
AcDbCircle
 10
283.6782086007
 20
40.2902669654
 30
0.0
 40
2.06465010873543
100
AcDbArc
 50
108.2781542705
 51
120.3370408027
  0
LINE
  5
188
330
1F
100
AcDbEntity
  8
0
  6
Continuous
 62
     7
370
    15
100
AcDbLine
 10
279.8770240524
 20
40.4798359422
 30
0.0
 11
282.6353833765
 21
42.0722028855
 31
0.0
  0
LWPOLYLINE
  5
189
330
1F
100
AcDbEntity
  8
0
  6
Continuous
 62
     7
370
    15
100
AcDbPolyline
 90
        9
 70
   128
 43
0.0
 10
272.1001352143
 20
35.9903335777
 10
273.0219163902
 20
36.9994572799
 10
273.9866274611
 20
37.9020983498
 10
274.9803083171
 20
38.6851948778
 10
275.9885796333
 20
39.337414856
 10
276.9968509495
 20
39.8493201604
 10
277.9905318056
 20
40.2135031282
 10
278.9552428765
 20
40.4246937523
 10
279.8770240524
 20
40.4798359422
  0
LINE
  5
18A
330
1F
100
AcDbEntity
  8
0
  6
Continuous
 62
     7
370
    15
100
AcDbLine
 10
269.3417758902
 20
34.3979666344
 30
0.0
 11
272.1001352143
 21
35.9903335777
 31
0.0
  0
ARC
  5
18B
330
1F
100
AcDbEntity
  8
0
  6
Continuous
 62
     7
370
    15
100
AcDbCircle
 10
270.7780031679
 20
31.9345659106
 30
0.0
 40
2.851506955785135
100
AcDbArc
 50
120.2433076991
 51
129.9633418827
  0
ARC
  5
18C
330
1F
100
AcDbEntity
  8
0
  6
Continuous
 62
     7
370
    15
100
AcDbCircle
 10
282.9280269946
 20
25.5457410542
 30
0.0
 40
15.85307206964611
100
AcDbArc
 50
144.205003627
 51
177.418271851
  0
LWPOLYLINE
  5
18D
330
1F
100
AcDbEntity
  8
0
  6
Continuous
 62
     7
370
    15
100
AcDbPolyline
 90
       39
 70
   128
 43
0.0
 10
277.4467260227
 20
40.0318660163
 10
278.1569270686
 20
40.0256841528
 10
278.8736906808
 20
39.8950812786
 10
279.5308789421
 20
39.6376780054
 10
280.1196045087
 20
39.2569552708
 10
280.6319058773
 20
38.7580616969
 10
281.0608550507
 20
38.1477439633
 10
281.4006512272
 20
37.4342555703
 10
281.6466992464
 20
36.6272452246
 10
281.7956717309
 20
35.7376263565
 10
281.8455540835
 20
34.7774295353
 10
281.7956717309
 20
33.7596397757
 10
281.6466992464
 20
32.6980209381
 10
281.4006512272
 20
31.6069295963
 10
281.0608550507
 20
30.5011208887
 10
280.6319058773
 20
29.3955489813
 10
280.1196045087
 20
28.3051648374
 10
279.5308789421
 20
27.2447140321
 10
278.8736906808
 20
26.2285373433
 10
278.1569270686
 20
25.2703768175
 10
277.3902811039
 20
24.3831899321
 10
276.584120358
 20
23.5789743678
 10
275.7493467722
 20
22.8686057605
 10
274.8972492272
 20
22.2616906269
 10
274.0393508804
 20
21.7664364531
 10
273.1872533353
 20
21.3895407022
 10
272.3524797495
 20
21.1361002426
 10
271.5463190037
 20
21.0095424218
 10
270.7796730389
 20
21.0115787172
 10
270.0629094268
 20
21.1421815915
 10
269.4057211655
 20
21.3995848647
 10
268.8169955989
 20
21.7803075992
 10
268.3046942303
 20
22.2792011732
 10
267.8757450569
 20
22.8895189068
 10
267.5359488804
 20
23.6030072998
 10
267.2899008612
 20
24.4100176455
 10
267.1409283767
 20
25.2996365135
 10
267.0910460241
 20
26.2598333347
 10
267.0910460241
 20
26.2598333347
  0
LINE
  5
18E
330
1F
100
AcDbEntity
  8
0
  6
Continuous
 62
     7
370
    15
100
AcDbLine
 10
267.8214963106
 20
18.0874212644
 30
0.0
 11
270.5798556347
 21
19.6797882077
 31
0.0
  0
LINE
  5
18F
330
1F
100
AcDbEntity
  8
0
  6
Continuous
 62
     7
370
    15
100
AcDbLine
 10
267.5641331414
 20
17.9597532181
 30
0.0
 11
267.8214963106
 21
18.0874212644
 31
0.0
  0
LWPOLYLINE
  5
190
330
1F
100
AcDbEntity
  8
0
  6
Continuous
 62
     7
370
    15
100
AcDbPolyline
 90
        3
 70
   128
 43
0.0
 10
282.9070062904
 20
41.3864401833
 10
282.9535804614
 20
41.885988479
 10
282.9257145476
 20
42.2403173913
  0
LWPOLYLINE
  5
191
330
1F
100
AcDbEntity
  8
0
  6
Continuous
 62
     7
370
    15
100
AcDbPolyline
 90
       12
 70
   128
 43
0.0
 10
282.9070062904
 20
29.3939455194
 10
283.3845168474
 20
30.6754390553
 10
283.7724149802
 20
31.9553565964
 10
284.0668021191
 20
33.2208343334
 10
284.2647195267
 20
34.459153584
 10
284.3641780343
 20
35.6578686223
 10
284.3641780343
 20
36.8049317646
 10
284.2647195267
 20
37.8888144543
 10
284.0668021191
 20
38.8986231301
 10
283.7724149802
 20
39.8242087113
 10
283.3845168474
 20
40.6562686013
 10
282.9070062904
 20
41.3864401833
  0
ARC
  5
192
330
1F
100
AcDbEntity
  8
0
  6
Continuous
 62
     7
370
    15
100
AcDbCircle
 10
279.1206228267
 20
29.003727185
 30
0.0
 40
3.80643797829729
100
AcDbArc
 50
301.5993128453
 51
5.8840342133
  0
LINE
  5
193
330
1F
100
AcDbEntity
  8
0
  6
Continuous
 62
     7
370
    15
100
AcDbLine
 10
278.3567444728
 20
24.1692905722
 30
0.0
 11
281.1151037969
 21
25.7616575155
 31
0.0
  0
LWPOLYLINE
  5
194
330
1F
100
AcDbEntity
  8
0
  6
Continuous
 62
     7
370
    15
100
AcDbPolyline
 90
        9
 70
   128
 43
0.0
 10
278.3567444728
 20
24.1692905722
 10
277.434963297
 20
23.1601668699
 10
276.470252226
 20
22.2575258001
 10
275.47657137
 20
21.4744292721
 10
274.4683000538
 20
20.8222092939
 10
273.4600287376
 20
20.3103039895
 10
272.4663478815
 20
19.9461210216
 10
271.5016368106
 20
19.7349303975
 10
270.5798556347
 20
19.6797882077
  0
ARC
  5
195
330
1F
100
AcDbEntity
  8
0
  6
Continuous
 62
     7
370
    15
100
AcDbCircle
 10
270.2815256088
 20
18.2686695308
 30
0.0
 40
2.777851440168858
100
AcDbArc
 50
169.5358433675
 51
181.9690102461
  0
LWPOLYLINE
  5
196
330
1F
100
AcDbEntity
  8
0
  6
Continuous
 62
     7
370
    15
100
AcDbPolyline
 90
       12
 70
   128
 43
0.0
 10
267.5498733967
 20
18.7731839665
 10
267.0723628397
 20
19.5033555486
 10
266.6844647069
 20
20.3354154386
 10
266.390077568
 20
21.2610010197
 10
266.1921601605
 20
22.2708096955
 10
266.0927016529
 20
23.3546923853
 10
266.0927016529
 20
24.5017555275
 10
266.1921601605
 20
25.7004705659
 10
266.390077568
 20
26.9387898164
 10
266.6844647069
 20
28.2042675534
 10
267.0723628397
 20
29.4841850946
 10
267.5498733967
 20
30.7656786305
  0
ARC
  5
197
330
1F
100
AcDbEntity
  8
0
  6
Continuous
 62
     7
370
    15
100
AcDbCircle
 10
269.6314150957
 20
31.210841147
 30
0.0
 40
2.128611169441728
100
AcDbArc
 50
177.2170585604
 51
192.0715397822
  0
LWPOLYLINE
  5
198
330
1F
100
AcDbEntity
  8
0
  6
Continuous
 62
     7
370
    15
100
AcDbPolyline
 90
       34
 70
   128
 43
0.0
 10
277.2396983517
 20
39.9514342493
 10
277.712671273
 20
39.9085096295
 10
278.3933638373
 20
39.7374628634
 10
279.011512438
 20
39.4413016296
 10
279.5584396237
 20
39.0241833826
 10
280.0264677357
 20
38.4919635483
 10
280.4090266852
 20
37.8521133265
 10
280.7007461831
 20
37.1136148117
 10
280.8975311271
 20
36.2868349043
 10
280.996619088
 20
35.3833797819
 10
280.996619088
 20
34.4159319739
 10
280.8975311271
 20
33.398072327
 10
280.7007461831
 20
32.3440893594
 10
280.4090266852
 20
31.2687786816
 10
280.0264677357
 20
30.1872352985
 10
279.5584396237
 20
29.1146417082
 10
279.011512438
 20
28.0660547738
 10
278.3933638373
 20
27.0561943572
 10
277.712671273
 20
26.099236685
 10
276.9789901767
 20
25.2086153452
 10
276.2026198227
 20
24.3968327093
 10
275.3944587488
 20
23.675284426
 10
274.5658517651
 20
23.0540994515
 10
273.7284306974
 20
22.5419978612
 10
272.8939511017
 20
22.1461684389
 10
272.0741272423
 20
21.872167762
 10
271.2804676492
 20
21.7238421994
 10
270.5241135634
 20
21.7032739168
 10
269.8156825382
 20
21.810751648
 10
269.1651193923
 20
22.044766641
 10
268.5815566063
 20
22.4020338384
 10
268.0731861225
 20
22.8775379919
 10
267.6471443482
 20
23.4646040655
 10
267.4609245723
 20
23.8097425001
  0
LWPOLYLINE
  5
199
330
1F
100
AcDbEntity
  8
0
  6
Continuous
 62
     7
370
    15
100
AcDbPolyline
 90
       19
 70
   128
 43
0.0
 10
243.3058924556
 20
34.0170624356
 10
243.3564196768
 20
35.3454274143
 10
243.5075945251
 20
36.7214346672
 10
243.7581998295
 20
38.1340053929
 10
244.1062178634
 20
39.5717664026
 10
244.5488465903
 20
41.02314169
 10
245.0825222238
 20
42.4764456347
 10
245.7029479216
 20
43.9199770878
 10
246.4051283808
 20
45.3421135829
 10
247.1834100571
 20
46.731404913
 10
248.0315266842
 20
48.0766653214
 10
248.9426497257
 20
49.3670635622
 10
249.9094433545
 20
50.5922101076
 10
250.9241235168
 20
51.7422407978
 10
251.9785206046
 20
52.807896262
 10
253.0641452325
 20
53.780596469
 10
254.1722565894
 20
54.6525098086
 10
255.2939328141
 20
55.4166161474
 10
256.1842504799
 20
55.9402534689
  0
ARC
  5
19A
330
1F
100
AcDbEntity
  8
0
  6
Continuous
 62
     7
370
    15
100
AcDbCircle
 10
268.298950666
 20
18.9917184642
 30
0.0
 40
2.064650108738258
100
AcDbArc
 50
288.2781542706
 51
300.3370408027
  0
ARC
  5
19B
330
1F
100
AcDbEntity
  8
0
  6
Continuous
 62
     7
370
    15
100
AcDbCircle
 10
250.043577301
 20
35.3147712915
 30
0.0
 40
7.931808520759798
100
AcDbArc
 50
189.8715815181
 51
215.8957706178
  0
SPLINE
  5
19C
330
1F
100
AcDbEntity
  8
0
  6
Continuous
 62
     7
370
    15
100
AcDbSpline
210
0.0
220
0.0
230
1.0
 70
     8
 71
     3
 72
    29
 73
    25
 74
     0
 42
0.000000001
 43
0.00000001
 40
0.0
 40
0.0
 40
0.0
 40
0.0
 40
0.022617010504675
 40
0.0451713142265269
 40
0.0676870228522217
 40
0.0901883721292881
 40
0.1126996441720091
 40
0.1352450890217754
 40
0.1578488467233686
 40
0.180534871159394
 40
0.2033268568200607
 40
0.2262481695790738
 40
0.2493217824052779
 40
0.3751991801918881
 40
0.4999614246459502
 40
0.499971796076067
 40
0.6247044141121627
 40
0.7509557879398104
 40
0.7931713871196749
 40
0.8349081045063343
 40
0.8763104515934019
 40
0.9175264576337645
 40
0.9587061619419153
 40
1.0
 40
1.0
 40
1.0
 40
1.0
 10
242.2293646651688
 20
39.10919166500016
 30
0.0
 10
242.2477298902927
 20
39.06035177519496
 30
0.0
 10
242.2844094220435
 20
38.96280740660018
 30
0.0
 10
242.336099250711
 20
38.8153447971866
 30
0.0
 10
242.3852806105357
 20
38.66740750765729
 30
0.0
 10
242.4317702804363
 20
38.5189156424204
 30
0.0
 10
242.4756803768963
 20
38.36992367628532
 30
0.0
 10
242.5170455683521
 20
38.22045188770728
 30
0.0
 10
242.5559228550564
 20
38.07053178440147
 30
0.0
 10
242.5923647000778
 20
37.92019297442594
 30
0.0
 10
242.626426681163
 20
37.7694705228094
 30
0.0
 10
242.6581637342579
 20
37.6183888260851
 30
0.0
 10
242.7313220061249
 20
37.24266761913527
 30
0.0
 10
242.8169985461579
 20
36.6538971974289
 30
0.0
 10
242.842730907986
 20
36.15241359341744
 30
0.0
 10
242.8431680642137
 20
35.68196076818411
 30
0.0
 10
242.817737007502
 20
35.2355182382917
 30
0.0
 10
242.72576969146
 20
34.79949156680299
 30
0.0
 10
242.6332157974117
 20
34.53129868418394
 30
0.0
 10
242.5696331735215
 20
34.38504757334805
 30
0.0
 10
242.4979876694854
 20
34.25412724150179
 30
0.0
 10
242.4177328951736
 20
34.13868090905164
 30
0.0
 10
242.3293312355813
 20
34.03715890460794
 30
0.0
 10
242.2629745816709
 20
33.98216002764644
 30
0.0
 10
242.2297503397864
 20
33.95462253315469
 30
0.0
  0
LWPOLYLINE
  5
19D
330
1F
100
AcDbEntity
  8
0
  6
Continuous
 62
     7
370
    15
100
AcDbPolyline
 90
       22
 70
   128
 43
0.0
 10
242.229145924
 20
39.1093179416
 10
242.4881373013
 20
40.435207733
 10
242.8420164323
 20
41.7824398423
 10
243.2876309867
 20
43.1390132205
 10
243.8210114611
 20
44.492843607
 10
244.4374065399
 20
45.8318711757
 10
245.1313254188
 20
47.1441679631
 10
245.8965867171
 20
48.4180441214
 10
246.726373541
 20
49.6421520511
 10
247.6132942077
 20
50.8055874849
 10
248.5494480899
 20
51.8979866213
 10
249.5264959948
 20
52.9096184456
 10
250.535734448
 20
53.8314714124
 10
251.5681732242
 20
54.6553337203
 10
252.6146154314
 20
55.3738664615
 10
253.6657394356
 20
55.9806689969
 10
254.7121818981
 20
56.470335972
 10
255.7446211828
 20
56.8385054678
 10
256.753860393
 20
57.0818978562
 10
257.7309092966
 20
57.1983450149
 10
258.6670644105
 20
57.1868096409
 10
258.939369585
 20
57.1582902601
  0
ARC
  5
19E
330
1F
100
AcDbEntity
  8
0
  6
Continuous
 62
     7
370
    15
100
AcDbCircle
 10
281.6956336579
 20
41.0133158989
 30
0.0
 40
2.777851440164704
100
AcDbArc
 50
349.5358433675
 51
1.9690102461
  0
LINE
  5
19F
330
1F
100
AcDbEntity
  8
0
  6
Continuous
 62
     7
370
    15
100
AcDbLine
 10
282.9070062904
 20
41.3864401833
 30
0.0
 11
284.42728587
 21
40.5088014631
 31
0.0
  0
LWPOLYLINE
  5
1A0
330
1F
100
AcDbEntity
  8
0
  6
Continuous
 62
     7
370
    15
100
AcDbPolyline
 90
        9
 70
   128
 43
0.0
 10
279.8770240524
 20
23.291651852
 10
278.9552428765
 20
22.2825281497
 10
277.9905318056
 20
21.3798870799
 10
276.9968509495
 20
20.5967905518
 10
275.9885796333
 20
19.9445705737
 10
274.9803083171
 20
19.4326652693
 10
273.9866274611
 20
19.0684823014
 10
273.0219163902
 20
18.8572916773
 10
272.1001352143
 20
18.8021494875
  0
LINE
  5
1A1
330
1F
100
AcDbEntity
  8
0
  6
Continuous
 62
     7
370
    15
100
AcDbLine
 10
282.6353833765
 20
24.8840187953
 30
0.0
 11
279.8770240524
 21
23.291651852
 31
0.0
  0
ARC
  5
1A2
330
1F
100
AcDbEntity
  8
0
  6
Continuous
 62
     7
370
    15
100
AcDbCircle
 10
281.1991560988
 20
27.3474195191
 30
0.0
 40
2.851506955790982
100
AcDbArc
 50
300.2433076991
 51
309.9633418827
  0
LINE
  5
1A3
330
1F
100
AcDbEntity
  8
0
  6
Continuous
 62
     7
370
    15
100
AcDbLine
 10
272.1001352143
 20
18.8021494875
 30
0.0
 11
269.3417758902
 21
17.2097825442
 31
0.0
  0
LINE
  5
1A4
330
1F
100
AcDbEntity
  8
0
  6
Continuous
 62
     7
370
    15
100
AcDbLine
 10
270.5798556347
 20
19.6797882077
 30
0.0
 11
272.1001352143
 21
18.8021494875
 31
0.0
  0
ARC
  5
1A5
330
1F
100
AcDbEntity
  8
0
  6
Continuous
 62
     7
370
    15
100
AcDbCircle
 10
282.345744171
 20
28.0711442826
 30
0.0
 40
2.128611169438652
100
AcDbArc
 50
357.2170585604
 51
12.0715397823
  0
LWPOLYLINE
  5
1A6
330
1F
100
AcDbEntity
  8
0
  6
Continuous
 62
     7
370
    15
100
AcDbPolyline
 90
       12
 70
   128
 43
0.0
 10
284.42728587
 20
40.5088014631
 10
284.904796427
 20
39.7786298811
 10
285.2926945597
 20
38.9465699911
 10
285.5870816987
 20
38.0209844099
 10
285.7849991062
 20
37.0111757341
 10
285.8844576138
 20
35.9272930444
 10
285.8844576138
 20
34.7802299021
 10
285.7849991062
 20
33.5815148638
 10
285.5870816987
 20
32.3431956132
 10
285.2926945597
 20
31.0777178762
 10
284.904796427
 20
29.7978003351
 10
284.42728587
 20
28.5163067991
  0
LINE
  5
1A7
330
1F
100
AcDbEntity
  8
0
  6
Continuous
 62
     7
370
    15
100
AcDbLine
 10
282.9070062904
 20
29.3939455194
 30
0.0
 11
284.42728587
 21
28.5163067991
 31
0.0
  0
LINE
  5
1A8
330
1F
100
AcDbEntity
  8
0
  6
Continuous
 62
     7
370
    15
100
AcDbLine
 10
279.8770240524
 20
23.291651852
 30
0.0
 11
278.3567444728
 21
24.1692905722
 31
0.0
  0
SPLINE
  5
1A9
330
1F
100
AcDbEntity
  8
0
  6
Continuous
 62
     7
370
    15
100
AcDbSpline
210
0.0
220
0.0
230
1.0
 70
     8
 71
     3
 72
     8
 73
     4
 74
     0
 42
0.000000001
 43
0.00000001
 40
0.0
 40
0.0
 40
0.0
 40
0.0
 40
1.0
 40
1.0
 40
1.0
 40
1.0
 10
241.4512095269937
 20
42.38809506850451
 30
0.0
 10
240.7581382919409
 20
42.2722334501298
 30
0.0
 10
240.0645175255446
 20
42.15747475697674
 30
0.0
 10
239.3705383647172
 20
42.04346320933858
 30
0.0
  0
SPLINE
  5
1AA
330
1F
100
AcDbEntity
  8
0
  6
Continuous
 62
     7
370
    15
100
AcDbSpline
210
0.0
220
0.0
230
1.0
 70
     8
 71
     3
 72
     8
 73
     4
 74
     0
 42
0.000000001
 43
0.00000001
 40
0.0
 40
0.0
 40
0.0
 40
0.0
 40
0.0012389803509652
 40
0.0012389803509652
 40
0.0012389803509652
 40
0.0012389803509652
 10
238.8968019505718
 20
42.3169973300926
 30
0.0
 10
239.0548752855528
 20
42.22572624964209
 30
0.0
 10
239.2127934645187
 20
42.13454472254183
 30
0.0
 10
239.3705383647172
 20
42.04346320933858
 30
0.0
  0
LWPOLYLINE
  5
1AB
330
1F
100
AcDbEntity
  8
0
  6
Continuous
 62
     7
370
    15
100
AcDbPolyline
 90
       26
 70
   128
 43
0.0
 10
238.8968019506
 20
42.3169973301
 10
239.2424673413
 20
43.6748840081
 10
239.6820177478
 20
45.0437290914
 10
240.2114638864
 20
46.4111091778
 10
240.8260005953
 20
47.7646141613
 10
241.520050445
 20
49.091959864
 10
242.2873143589
 20
50.3810995251
 10
243.1208287818
 20
51.620333135
 10
244.0130288806
 20
52.7984136232
 10
244.9558172008
 20
53.9046489343
 10
245.9406371581
 20
54.928999067
 10
246.9585506964
 20
55.8621671963
 10
248.0003194078
 20
56.6956840489
 10
249.056488379
 20
57.4219847695
 10
250.1174720025
 20
58.0344775781
 10
251.1736409738
 20
58.5276035954
 10
252.2154096852
 20
58.8968872946
 10
253.2333232235
 20
59.1389771207
 10
254.2181431808
 20
59.2516759079
 10
255.160931501
 20
59.2339608216
 10
256.0531315998
 20
59.0859926408
 10
256.8866460227
 20
58.8091142992
 10
257.6539099365
 20
58.405838697
 10
258.3479597863
 20
57.879825894
 10
258.9624964951
 20
57.2358498917
 10
259.0349772089
 20
57.1453781937
  0
LINE
  5
1AC
330
1F
100
AcDbEntity
  8
0
  6
Continuous
 62
     7
370
    15
100
AcDbLine
 10
235.8650816262
 20
44.0671722198
 30
0.0
 11
238.8968019506
 21
42.3169973301
 31
0.0
  0
ARC
  5
1AD
330
1F
100
AcDbEntity
  8
0
  6
Continuous
 62
     7
370
    15
100
AcDbCircle
 10
251.712722716
 20
55.5287234198
 30
0.0
 40
5.466934839273568
100
AcDbArc
 50
60.2003272
 51
80.105094332
  0
LINE
  5
1AE
330
1F
100
AcDbEntity
  8
0
  6
Continuous
 62
     7
370
    15
100
AcDbLine
 10
241.8538049295
 20
42.3269326778
 30
0.0
 11
241.8444822785
 21
42.3323145296
 31
0.0
  0
SPLINE
  5
1AF
330
1F
100
AcDbEntity
  8
0
  6
Continuous
 62
     7
370
    15
100
AcDbSpline
210
0.0
220
0.0
230
1.0
 70
     8
 71
     3
 72
    10
 73
     6
 74
     0
 42
0.000000001
 43
0.00000001
 40
0.0
 40
0.0
 40
0.0
 40
0.0
 40
0.248868731686378
 40
0.7161553579143207
 40
1.0
 40
1.0
 40
1.0
 40
1.0
 10
242.7797374092252
 20
41.51421064502286
 30
0.0
 10
242.7110448088215
 20
41.59880579530454
 30
0.0
 10
242.5133720297029
 20
41.84224043539481
 30
0.0
 10
242.197394876913
 20
42.1110850884596
 30
0.0
 10
241.9480353020452
 20
42.26773595530776
 30
0.0
 10
241.8538049294528
 20
42.32693267778312
 30
0.0
  0
SPLINE
  5
1B0
330
1F
100
AcDbEntity
  8
0
  6
Continuous
 62
     7
370
    15
100
AcDbSpline
210
0.0
220
0.0
230
1.0
 70
     8
 71
     3
 72
    10
 73
     6
 74
     0
 42
0.000000001
 43
0.00000001
 40
0.0
 40
0.0
 40
0.0
 40
0.0
 40
0.5
 40
0.5
 40
1.0
 40
1.0
 40
1.0
 40
1.0
 10
241.8444822785457
 20
42.33231452959585
 30
0.0
 10
241.7946816797329
 20
42.36106380334497
 30
0.0
 10
241.7296497629889
 20
42.38182714870563
 30
0.0
 10
241.5925914026435
 20
42.40078083809341
 30
0.0
 10
241.5190525625937
 20
42.39943647686561
 30
0.0
 10
241.4512095269937
 20
42.38809506850451
 30
0.0
  0
SPLINE
  5
1B1
330
1F
100
AcDbEntity
  8
0
  6
Continuous
 62
     7
370
    15
100
AcDbSpline
210
0.0
220
0.0
230
1.0
 70
     8
 71
     3
 72
     8
 73
     4
 74
     0
 42
0.000000001
 43
0.00000001
 40
0.0
 40
0.0
 40
0.0
 40
0.0
 40
1.0
 40
1.0
 40
1.0
 40
1.0
 10
235.7082570186733
 20
44.15769389900139
 30
0.0
 10
235.7306358151927
 20
44.14478194754955
 30
0.0
 10
235.78482324621
 20
44.11350439639252
 30
0.0
 10
235.8650816262344
 20
44.06717221981253
 30
0.0
  0
LINE
  5
1B2
330
1F
100
AcDbEntity
  8
0
  6
Continuous
 62
     7
370
    15
100
AcDbLine
 10
235.7082570187
 20
44.157693899
 30
0.0
 11
235.7318077206
 21
44.3067704176
 31
0.0
  0
SPLINE
  5
1B3
330
1F
100
AcDbEntity
  8
0
  6
Continuous
 62
     7
370
    15
100
AcDbSpline
210
0.0
220
0.0
230
1.0
 70
     8
 71
     3
 72
    11
 73
     7
 74
     0
 42
0.000000001
 43
0.00000001
 40
0.0
 40
0.0
 40
0.0
 40
0.0
 40
0.3105157409943961
 40
0.5915933464965112
 40
0.8435752121754158
 40
1.0
 40
1.0
 40
1.0
 40
1.0
 10
242.3377900144525
 20
34.68075127191519
 30
0.0
 10
242.4287893729029
 20
34.77222070350071
 30
0.0
 10
242.6021609862783
 20
34.94648789833121
 30
0.0
 10
242.752450471251
 20
35.36501502073723
 30
0.0
 10
242.826529404087
 20
35.7761502201685
 30
0.0
 10
242.8340705477537
 20
36.07088797783025
 30
0.0
 10
242.836958898832
 20
36.18377617593043
 30
0.0
  0
SPLINE
  5
1B4
330
1F
100
AcDbEntity
  8
0
  6
Continuous
 62
     7
370
    15
100
AcDbSpline
210
0.0
220
0.0
230
1.0
 70
     8
 71
     3
 72
     9
 73
     5
 74
     0
 42
0.000000001
 43
0.00000001
 40
0.0
 40
0.0
 40
0.0
 40
0.0
 40
0.5067661696360637
 40
0.9999999999999999
 40
0.9999999999999999
 40
0.9999999999999999
 40
0.9999999999999999
 10
242.22906854998
 20
33.95412050537105
 30
0.0
 10
242.2473375672959
 20
34.07657485922382
 30
0.0
 10
242.2833877585091
 20
34.3182136291139
 30
0.0
 10
242.3200684979443
 20
34.56036402724495
 30
0.0
 10
242.3381606795565
 20
34.67980079563928
 30
0.0
  0
SPLINE
  5
1B5
330
1F
100
AcDbEntity
  8
0
  6
Continuous
 62
     7
370
    15
100
AcDbSpline
210
0.0
220
0.0
230
1.0
 70
     8
 71
     3
 72
    10
 73
     6
 74
     0
 42
0.000000001
 43
0.00000001
 40
0.0
 40
0.0
 40
0.0
 40
0.0
 40
0.4807908150149394
 40
0.9757817590326827
 40
1.0
 40
1.0
 40
1.0
 40
1.0
 10
241.8538049294527
 20
35.75377914210283
 30
0.0
 10
242.003595876353
 20
35.67360876674079
 30
0.0
 10
242.3076018371344
 20
35.51090018860241
 30
0.0
 10
242.5972172813331
 20
35.39939875788095
 30
0.0
 10
242.7315557120118
 20
35.37116714040163
 30
0.0
 10
242.7378218578726
 20
35.36985029136509
 30
0.0
  0
LINE
  5
1B6
330
1F
100
AcDbEntity
  8
0
  6
Continuous
 62
     7
370
    15
100
AcDbLine
 10
236.1416902662
 20
43.9074375408
 30
0.0
 11
235.7082570187
 21
44.157693899
 31
0.0
  0
LINE
  5
1B7
330
1F
100
AcDbEntity
  8
0
  6
Continuous
 62
     7
370
    15
100
AcDbLine
 10
239.3705383647
 20
42.0434632093
 30
0.0
 11
236.1416902662
 21
43.9074375408
 31
0.0
  0
SPLINE
  5
1B8
330
1F
100
AcDbEntity
  8
0
  6
Continuous
 62
     7
370
    15
100
AcDbSpline
210
0.0
220
0.0
230
1.0
 70
     8
 71
     3
 72
    11
 73
     7
 74
     0
 42
0.000000001
 43
0.00000001
 40
0.0
 40
0.0
 40
0.0
 40
0.0
 40
0.21800253697792
 40
0.5290085500354185
 40
0.8400525035994036
 40
1.0
 40
1.0
 40
1.0
 40
1.0
 10
238.2467551875097
 20
39.89361159501664
 30
0.0
 10
238.2420330028845
 20
40.10000592565777
 30
0.0
 10
238.2305740718271
 20
40.60084581083331
 30
0.0
 10
238.1655016594529
 20
41.41957235345512
 30
0.0
 10
238.1247736973451
 20
42.17373874176069
 30
0.0
 10
238.1456587289316
 20
42.60128360909889
 30
0.0
 10
238.1527512324469
 20
42.74647675673418
 30
0.0
  0
LINE
  5
1B9
330
1F
100
AcDbEntity
  8
0
  6
Continuous
 62
     7
370
    15
100
AcDbLine
 10
238.2467551875
 20
39.4732562396
 30
0.0
 11
238.2467551875
 21
39.893611595
 31
0.0
  0
LINE
  5
1BA
330
1F
100
AcDbEntity
  8
0
  6
Continuous
 62
     7
370
    15
100
AcDbLine
 10
237.6368755887
 20
42.7086250547
 30
0.0
 11
237.6420634834
 21
43.0412905189
 31
0.0
  0
ARC
  5
1BB
330
1F
100
AcDbEntity
  8
0
  6
Continuous
 62
     7
370
    15
100
AcDbCircle
 10
245.114412642
 20
42.5196145882
 30
0.0
 40
7.479925490202626
100
AcDbArc
 50
178.5520370702
 51
203.3435928549
  0
LWPOLYLINE
  5
1BC
330
1F
100
AcDbEntity
  8
0
  6
Continuous
 62
     7
370
    15
100
AcDbPolyline
 90
        3
 70
   128
 43
0.0
 10
225.4572733388
 20
66.1524076389
 10
225.4990427537
 20
66.1385164711
 10
225.5301222085
 20
66.127577962
  0
LINE
  5
1BD
330
1F
100
AcDbEntity
  8
0
  6
Continuous
 62
     7
370
    15
100
AcDbLine
 10
241.8444822785
 20
35.7591609939
 30
0.0
 11
241.8538049295
 21
35.7537791421
 31
0.0
  0
ARC
  5
1BE
330
1F
100
AcDbEntity
  8
0
  6
Continuous
 62
     7
370
    15
100
AcDbCircle
 10
244.6504934306
 20
36.3836496598
 30
0.0
 40
5.894055296995451
100
AcDbArc
 50
192.5292124781
 51
260.6428941703
  0
SPLINE
  5
1BF
330
1F
100
AcDbEntity
  8
0
  6
Continuous
 62
     7
370
    15
100
AcDbSpline
210
0.0
220
0.0
230
1.0
 70
     8
 71
     3
 72
     8
 73
     4
 74
     0
 42
0.000000001
 43
0.00000001
 40
0.0
 40
0.0
 40
0.0
 40
0.0
 40
0.0012389803509652
 40
0.0012389803509652
 40
0.0012389803509652
 40
0.0012389803509652
 10
239.3705383647172
 20
35.4703096736583
 30
0.0
 10
239.2127934645187
 20
35.34823322312357
 30
0.0
 10
239.0548752855528
 20
35.22647592012276
 30
0.0
 10
238.8968019505718
 20
35.10500889857832
 30
0.0
  0
SPLINE
  5
1C0
330
1F
100
AcDbEntity
  8
0
  6
Continuous
 62
     7
370
    15
100
AcDbSpline
210
0.0
220
0.0
230
1.0
 70
     8
 71
     3
 72
     8
 73
     4
 74
     0
 42
0.000000001
 43
0.00000001
 40
0.0
 40
0.0
 40
0.0
 40
0.0
 40
1.0
 40
1.0
 40
1.0
 40
1.0
 10
239.3705383647172
 20
35.4703096736583
 30
0.0
 10
240.0645189476589
 20
35.58432145493091
 30
0.0
 10
240.7581520084208
 20
35.69908220745127
 30
0.0
 10
241.4512095269937
 20
35.81494153282422
 30
0.0
  0
SPLINE
  5
1C1
330
1F
100
AcDbEntity
  8
0
  6
Continuous
 62
     7
370
    15
100
AcDbSpline
210
0.0
220
0.0
230
1.0
 70
     8
 71
     3
 72
    12
 73
     8
 74
     0
 42
0.000000001
 43
0.00000001
 40
0.0
 40
0.0
 40
0.0
 40
0.0
 40
0.2499999999999984
 40
0.2499999999999984
 40
0.4999999999999968
 40
0.4999999999999968
 40
1.0
 40
1.0
 40
1.0
 40
1.0
 10
241.4512095269937
 20
35.81494153282422
 30
0.0
 10
241.4849980429179
 20
35.82059000290847
 30
0.0
 10
241.5205698189867
 20
35.82385046642392
 30
0.0
 10
241.5911520653792
 20
35.82498805597204
 30
0.0
 10
241.6261750238281
 20
35.82297143951401
 30
0.0
 10
241.7303803190931
 20
35.80859570217442
 30
0.0
 10
241.7940907510327
 20
35.78825140354201
 30
0.0
 10
241.8444822785457
 20
35.75916099391556
 30
0.0
  0
LINE
  5
1C2
330
1F
100
AcDbEntity
  8
0
  6
Continuous
 62
     7
370
    15
100
AcDbLine
 10
236.1416902662
 20
37.3342840051
 30
0.0
 11
239.3705383647
 21
35.4703096737
 31
0.0
  0
LINE
  5
1C3
330
1F
100
AcDbEntity
  8
0
  6
Continuous
 62
     7
370
    15
100
AcDbLine
 10
236.1416902662
 20
37.3342840051
 30
0.0
 11
238.0346231532
 21
38.4270509006
 31
0.0
  0
LINE
  5
1C4
330
1F
100
AcDbEntity
  8
0
  6
Continuous
 62
     7
370
    15
100
AcDbLine
 10
235.7082570187
 20
37.0840276469
 30
0.0
 11
236.1416902662
 21
37.3342840051
 31
0.0
  0
LINE
  5
1C5
330
1F
100
AcDbEntity
  8
0
  6
Continuous
 62
     7
370
    15
100
AcDbLine
 10
238.8968019506
 20
35.1050088986
 30
0.0
 11
235.8650816262
 21
36.8551837883
 31
0.0
  0
SPLINE
  5
1C6
330
1F
100
AcDbEntity
  8
0
  6
Continuous
 62
     7
370
    15
100
AcDbSpline
210
0.0
220
0.0
230
1.0
 70
     8
 71
     3
 72
     8
 73
     4
 74
     0
 42
0.000000001
 43
0.00000001
 40
0.0
 40
0.0
 40
0.0
 40
0.0
 40
1.0
 40
1.0
 40
1.0
 40
1.0
 10
235.8650816262344
 20
36.85518378829825
 30
0.0
 10
235.7850568267197
 20
36.90138112172021
 30
0.0
 10
235.7305800293378
 20
36.98456864408491
 30
0.0
 10
235.7082570186733
 20
37.08402764692603
 30
0.0
  0
ARC
  5
1C7
330
1F
100
AcDbEntity
  8
0
  6
Continuous
 62
     7
370
    15
100
AcDbCircle
 10
241.3993542781
 20
37.6804247339
 30
0.0
 40
5.419343745194609
100
AcDbArc
 50
219.8533827402
 51
239.8927242878
  0
ELLIPSE
  5
1C8
330
1F
100
AcDbEntity
  8
0
  6
Continuous
 62
     7
370
    15
100
AcDbEllipse
 10
237.8003085781
 20
39.215550475
 30
0.0
 11
-6.005970385558612E-5
 21
0.8534489614827194
 31
0.0
210
0.0
220
0.0
230
1.0
 40
0.7174342186
 41
3.534193645557438
 42
5.104989972352339
  0
ELLIPSE
  5
1C9
330
1F
100
AcDbEntity
  8
0
  6
Continuous
 62
     7
370
    15
100
AcDbEllipse
 10
237.6810697626
 20
39.1466929949
 30
0.0
 11
0.2600075789209199
 21
0.9705436209909308
 31
0.0
210
0.0
220
0.0
230
1.0
 40
0.5176380889
 41
3.619174351347715
 42
5.189970678142601
  0
OLE2FRAME
  5
1CA
330
1F
100
AcDbEntity
  8
0
100
AcDbOle2Frame
 70
     2
  3
Paintbrush-Bild
 10
13.8511154363
 20
38.264191557
 30
0.0
 11
51.6290888628
 21
31.9806341108
 31
0.0
 71
     2
 72
     0
 73
     1
 90
    12928
310
80552BED0767C5B32B40DDAF6807D121434000000000000000006FFBDDFB85D0
310
4940DDAF6807D121434000000000000000006FFBDDFB85D04940416F4BD60AFB
310
3F4000000000000000002BED0767C5B32B40416F4BD60AFB3F40000000000000
310
0000000000000100000000010000010000000100000000000100000000320000
310
D0CF11E0A1B11AE1000000000000000000000000000000003E000300FEFF0900
310
0600000000000000000000000100000001000000000000000010000002000000
310
01000000FEFFFFFF0000000000000000FFFFFFFFFFFFFFFFFFFFFFFFFFFFFFFF
310
FFFFFFFFFFFFFFFFFFFFFFFFFFFFFFFFFFFFFFFFFFFFFFFFFFFFFFFFFFFFFFFF
310
FFFFFFFFFFFFFFFFFFFFFFFFFFFFFFFFFFFFFFFFFFFFFFFFFFFFFFFFFFFFFFFF
310
FFFFFFFFFFFFFFFFFFFFFFFFFFFFFFFFFFFFFFFFFFFFFFFFFFFFFFFFFFFFFFFF
310
FFFFFFFFFFFFFFFFFFFFFFFFFFFFFFFFFFFFFFFFFFFFFFFFFFFFFFFFFFFFFFFF
310
FFFFFFFFFFFFFFFFFFFFFFFFFFFFFFFFFFFFFFFFFFFFFFFFFFFFFFFFFFFFFFFF
310
FFFFFFFFFFFFFFFFFFFFFFFFFFFFFFFFFFFFFFFFFFFFFFFFFFFFFFFFFFFFFFFF
310
FFFFFFFFFFFFFFFFFFFFFFFFFFFFFFFFFFFFFFFFFFFFFFFFFFFFFFFFFFFFFFFF
310
FFFFFFFFFFFFFFFFFFFFFFFFFFFFFFFFFFFFFFFFFFFFFFFFFFFFFFFFFFFFFFFF
310
FFFFFFFFFFFFFFFFFFFFFFFFFFFFFFFFFFFFFFFFFFFFFFFFFFFFFFFFFFFFFFFF
310
FFFFFFFFFFFFFFFFFFFFFFFFFFFFFFFFFFFFFFFFFFFFFFFFFFFFFFFFFFFFFFFF
310
FFFFFFFFFFFFFFFFFFFFFFFFFFFFFFFFFFFFFFFFFFFFFFFFFFFFFFFFFFFFFFFF
310
FFFFFFFFFFFFFFFFFFFFFFFFFFFFFFFFFFFFFFFFFFFFFFFFFFFFFFFFFFFFFFFF
310
FFFFFFFFFFFFFFFFFFFFFFFFFFFFFFFFFFFFFFFFFFFFFFFFFFFFFFFFFFFFFFFF
310
FDFFFFFFFEFFFFFFFEFFFFFFFEFFFFFF05000000060000000700000008000000
310
090000000A0000000B0000000C0000000D0000000E0000000F00000010000000
310
11000000120000001300000014000000150000001600000017000000FEFFFFFF
310
FFFFFFFFFFFFFFFFFFFFFFFFFFFFFFFFFFFFFFFFFFFFFFFFFFFFFFFFFFFFFFFF
310
FFFFFFFFFFFFFFFFFFFFFFFFFFFFFFFFFFFFFFFFFFFFFFFFFFFFFFFFFFFFFFFF
310
FFFFFFFFFFFFFFFFFFFFFFFFFFFFFFFFFFFFFFFFFFFFFFFFFFFFFFFFFFFFFFFF
310
FFFFFFFFFFFFFFFFFFFFFFFFFFFFFFFFFFFFFFFFFFFFFFFFFFFFFFFFFFFFFFFF
310
FFFFFFFFFFFFFFFFFFFFFFFFFFFFFFFFFFFFFFFFFFFFFFFFFFFFFFFFFFFFFFFF
310
FFFFFFFFFFFFFFFFFFFFFFFFFFFFFFFFFFFFFFFFFFFFFFFFFFFFFFFFFFFFFFFF
310
FFFFFFFFFFFFFFFFFFFFFFFFFFFFFFFFFFFFFFFFFFFFFFFFFFFFFFFFFFFFFFFF
310
FFFFFFFFFFFFFFFFFFFFFFFFFFFFFFFFFFFFFFFFFFFFFFFFFFFFFFFFFFFFFFFF
310
FFFFFFFFFFFFFFFFFFFFFFFFFFFFFFFFFFFFFFFFFFFFFFFFFFFFFFFFFFFFFFFF
310
FFFFFFFFFFFFFFFFFFFFFFFFFFFFFFFFFFFFFFFFFFFFFFFFFFFFFFFFFFFFFFFF
310
FFFFFFFFFFFFFFFFFFFFFFFFFFFFFFFFFFFFFFFFFFFFFFFFFFFFFFFFFFFFFFFF
310
FFFFFFFFFFFFFFFFFFFFFFFFFFFFFFFFFFFFFFFFFFFFFFFFFFFFFFFFFFFFFFFF
310
FFFFFFFFFFFFFFFFFFFFFFFFFFFFFFFFFFFFFFFFFFFFFFFFFFFFFFFFFFFFFFFF
310
52006F006F007400200045006E00740072007900000000000000000000000000
310
0000000000000000000000000000000000000000000000000000000000000000
310
16000500FFFFFFFFFFFFFFFF020000000A00030000000000C000000000000046
310
000000000000000000000000E0E0BBEF9A15D20103000000C000000000000000
310
01004F006C006500000000000000000000000000000000000000000000000000
310
0000000000000000000000000000000000000000000000000000000000000000
310
0A000200FFFFFFFFFFFFFFFFFFFFFFFF00000000000000000000000000000000
310
0000000000000000000000000000000000000000000000001400000000000000
310
010043006F006D0070004F0062006A0000000000000000000000000000000000
310
0000000000000000000000000000000000000000000000000000000000000000
310
120002010100000003000000FFFFFFFF00000000000000000000000000000000
310
0000000000000000000000000000000000000000010000004D00000000000000
310
01004F006C006500310030004E00610074006900760065000000000000000000
310
0000000000000000000000000000000000000000000000000000000000000000
310
1A000200FFFFFFFFFFFFFFFFFFFFFFFF00000000000000000000000000000000
310
0000000000000000000000000000000000000000040000002426000000000000
310
FEFFFFFF02000000FEFFFFFFFFFFFFFFFFFFFFFFFFFFFFFFFFFFFFFFFFFFFFFF
310
FFFFFFFFFFFFFFFFFFFFFFFFFFFFFFFFFFFFFFFFFFFFFFFFFFFFFFFFFFFFFFFF
310
FFFFFFFFFFFFFFFFFFFFFFFFFFFFFFFFFFFFFFFFFFFFFFFFFFFFFFFFFFFFFFFF
310
FFFFFFFFFFFFFFFFFFFFFFFFFFFFFFFFFFFFFFFFFFFFFFFFFFFFFFFFFFFFFFFF
310
FFFFFFFFFFFFFFFFFFFFFFFFFFFFFFFFFFFFFFFFFFFFFFFFFFFFFFFFFFFFFFFF
310
FFFFFFFFFFFFFFFFFFFFFFFFFFFFFFFFFFFFFFFFFFFFFFFFFFFFFFFFFFFFFFFF
310
FFFFFFFFFFFFFFFFFFFFFFFFFFFFFFFFFFFFFFFFFFFFFFFFFFFFFFFFFFFFFFFF
310
FFFFFFFFFFFFFFFFFFFFFFFFFFFFFFFFFFFFFFFFFFFFFFFFFFFFFFFFFFFFFFFF
310
FFFFFFFFFFFFFFFFFFFFFFFFFFFFFFFFFFFFFFFFFFFFFFFFFFFFFFFFFFFFFFFF
310
FFFFFFFFFFFFFFFFFFFFFFFFFFFFFFFFFFFFFFFFFFFFFFFFFFFFFFFFFFFFFFFF
310
FFFFFFFFFFFFFFFFFFFFFFFFFFFFFFFFFFFFFFFFFFFFFFFFFFFFFFFFFFFFFFFF
310
FFFFFFFFFFFFFFFFFFFFFFFFFFFFFFFFFFFFFFFFFFFFFFFFFFFFFFFFFFFFFFFF
310
FFFFFFFFFFFFFFFFFFFFFFFFFFFFFFFFFFFFFFFFFFFFFFFFFFFFFFFFFFFFFFFF
310
FFFFFFFFFFFFFFFFFFFFFFFFFFFFFFFFFFFFFFFFFFFFFFFFFFFFFFFFFFFFFFFF
310
FFFFFFFFFFFFFFFFFFFFFFFFFFFFFFFFFFFFFFFFFFFFFFFFFFFFFFFFFFFFFFFF
310
FFFFFFFFFFFFFFFFFFFFFFFFFFFFFFFFFFFFFFFFFFFFFFFFFFFFFFFFFFFFFFFF
310
0100000200000000000000000000000000000000000000000000000000000000
310
0000000000000000000000000000000000000000000000000000000000000000
310
0100FEFF030A0000FFFFFFFF0A00030000000000C00000000000004607000000
310
5042727573680007000000504272757368000700000050427275736800F439B2
310
7100000000000000000000000000000000000000000000000000000000000000
310
0000000000000000000000000000000000000000000000000000000000000000
310
0000000000000000000000000000000000000000000000000000000000000000
310
0000000000000000000000000000000000000000000000000000000000000000
310
0000000000000000000000000000000000000000000000000000000000000000
310
0000000000000000000000000000000000000000000000000000000000000000
310
0000000000000000000000000000000000000000000000000000000000000000
310
0000000000000000000000000000000000000000000000000000000000000000
310
0000000000000000000000000000000000000000000000000000000000000000
310
0000000000000000000000000000000000000000000000000000000000000000
310
0000000000000000000000000000000000000000000000000000000000000000
310
0000000000000000000000000000000000000000000000000000000000000000
310
20260000424D0E260000000000003E00000028000000B40200006E0000000100
310
01000000000000000000130B0000130B00000200000002000000000000FFFFFF
310
FFFFFFFFFFFFFFFFFFFFFFFFFFFFFFFFFFFFFFFFFFFFFFFFFFFFFFFFFFFFFFFF
310
FFFFFFFFFFFFFFFFFFFFFFFFFFFFFFFFFFFFFFFFFFFFFFFFFFFFFFFFFFFFFFFF
310
FFFFFFFFFFFFFFFFFFFFFFFFFFFFFFFFFFFFFFFFFFFFFFFFF000FFFFFFFFFFFF
310
FFFFFFFFFFFFFFFFFFFFFFFFFFFFFFFFFFFFFFFFFFFFFFFFFFFFFFFFFFFFFFFF
310
FFFFFFFFFFFFFFFFFFFFFFFFFFFFFFFFFFFFFFFFFFFFFFFFFFFFFFFFFFFFFFFF
310
FFFFFFFFFFFFFFFFFFFFFFFFFFFFFFFFF000FFFFFFFFFFFFFFFFFFFFFFFFFFFF
310
FFFFFFFFFFFFFFFFFFFFFFFFFFFFFFFFFFFFFFFFFFFFFFFFFFFFFFFFFFFFFFFF
310
FFFFFFFFFFFFFFFFFFFFFFFFFFFFFFFFFFFFFFFFFFFFFFFFFFFFFFFFFFFFFFFF
310
FFFFFFFFFFFFFFFFF000FFFFFFFFFFFFFFFFFFFFFFFFFFFFFFFFFFFFFFFFFFFF
310
FFFFFFFFFFFFFFFFFFFFFFFFFFFFFFFFFFFFFFFFFFFFFFFFFFFFFFFFFFFFFFFF
310
FFFFFFFFFFFFFFFFFFFFFFFFFFFFFFFFFFFFFFFFFFFFFFFFFFFFFFFFFFFFFFFF
310
F000FFFFFFFFFFFFFFFFFFFFFFFFFFFFFFFFFFFFFFFFFFFFFFFFFFFFFFFFFFFF
310
FFFFFFFFFFFFFFFFFFFFFFFFFFFFFFFFFFFFFFFFFFFFFFFFFFFFFFFFFFFFFFFF
310
FFFFFFFFFFFFFFFFFFFFFFFFFFFFFFFFFFFFFFFFFFFFFFFFF000FFFFFFFFFFFF
310
FFFFFFFFFFFFFFFFFFFFFFFFFFFFFFFFFFFFFFFFFFFFFFFFFFFFFFFFFFFFFFFF
310
FFFFFFFFFFFFFFFFFFFFFFFFFFFFFFFFFFFFFFFFFFFFFFFFFFFFFFFFFFFFFFFF
310
FFFFFFFFFFFFFFFFFFFFFFFFFFFFFFFFF000FFFFFFFFFFFFFFFFFFFFFFFFFFFF
310
FFFFFFFFFFFFFFFFFFFFFFFFFFFFFFFFFFFFFFFFFFFFFFFFFFFFFFFFFFFFFFFF
310
FFFFFFFFFFFFFFFFFFFFFFFFFFFFFFFFFFFFFFFFFFFFFFFFFFFFFFFFFFFFFFFF
310
FFFFFFFFFFFFFFFFF000FFFFFFFFFFFFFFFFFFFFFFFFFFFFFFFFFFFFFFFFFFFF
310
FFFFFFFFFFFFFFFFFFFFFFFFFFFFFFFFFFFFFFFFFFFFFFFFFFFFFFFFFFFFFFFF
310
FFFFFFFFFFFFFFFFFFFFFFFFFFFFFFFFFFFFFFFFFFFFFFFFFFFFFFFFFFFFFFFF
310
F000FFFFFFFFFFFFFFFFFFFFFFFFFFFFFFFFFFFFFFFFFFFFFFFFFFFFFFFFFFFF
310
FFFFFFFFFFFFFFFFFFFFFFFFFFFFFFFFFFFFFFFFFFFFFFFFFFFFFFFFFFFFFFFF
310
FFFFFFFFFFFFFFFFFFFFFFFFFFFFFFFFFFFFFFFFFFFFFFFFF000FFFFFFFFFFFF
310
FFFFFFFFFFFFFFFFFFFFFFFFFFFFFFFFFFFFFFFFFFFFFFFFFFFFFFFFFFFFFFFF
310
FFFFFFFFFFFFFFFFFFFFFFFFFFFFFFFFFFFFFFFFFFFFFFFFFFFFFFFFFFFFFFFF
310
FFFFFFFFFFFFFFFFFFFFFFFFFFFFFFFFF000FFFFFFFFFFFFFFFFFFFFFFFFFFFF
310
FFFFFFFFFFFFFFFFFFFFFFFFFFFFFFFFFFFFFFFFFFFFFFFFFFFFFFFFFFFFFFFF
310
FFFFFFFFFFFFFFFFFFFFFFFFFFFFFFFFFFFFFFFFFFFFFFFFFFFFFFFFFFFFFFFF
310
FFFFFFFFFFFFFFFFF000FFFFFFFFFFFFFFFFFFFFFFFFFFFFFFFFFFFFFFFFFFFF
310
FFFFFFFFFFFFFFFFFFFFFFFFFFFFFFFFFFFFFFFFFFFFFFFFFFFFFFFFFFFFFFFF
310
FFFFFFFFFFFFFFFFFFFFFFFFFFFFFFFFFFFFFFFFFFFFFFFFFFFFFFFFFFFFFFFF
310
F000FFFFFFFFFFFFFFFFFFFFFFFFFFFFFFFFFFFFFFFFFFFFFFFFFFFFFFFFFFFF
310
FFFFFFFFFFFFFFFFFFFFFFFFFFFFFFFFFFFFFFFFFFFFFFFFFFFFFFFFFFFFFFFF
310
FFFFFFFFFFFFFFFFFFFFFFFFFFFFFFFFFFFFFFFFFFFFFFFFF000FFFFFFFFFFFF
310
FFFFFFFFFFFFFFFFFFFFFFFFFFFFFFFFFFFFFFFFFFFFFFFFFFFFFFFFFFFFFFFF
310
FFFFFFFFFFFFFFFFFFFFFFFFFFFFFFFFFFFFFFFFFFFFFFFFFFFFFFFFFFFFFFFF
310
FFFFFFFFFFFFFFFFFFFFFFFFFFFFFFFFF000FFFFFFFFFFFFFFFFFFFFFFFFFFFF
310
FFFFFFFFFFFFFFFFFFFFFFFFFFFFFFFFFFFFFFFFFFFFFFFFFFFFFFFFFFFFFFFF
310
FFFFFFFFFFFFFFFFFFFFFFFFFFFFFFFFFFFFFFFFFFFFFFFFFFFFFFFFFFFFFFFF
310
FFFFFFFFFFFFFFFFF000FFFFFFFFFFFFFFFFFFFFFFFFFFFFFFFFFFFFFFFFFFFF
310
FFFFFFFFFFFFFFFFFFFFFFFFFFFFFFFFFFFFFFFFFFFFFFFFFFFFFFFFFFFFFFFF
310
FFFFFFFFFFFFFFFFFFFFFFFFFFFFFFFFFFFFFFFFFFFFFFFFFFFFFFFFFFFFFFFF
310
F000FFFFFFFFFFFFFFFFFFFFFFFFFFFFFFFFFFFFFFFFFFFFFFFFFFFFFFFFFFFF
310
FFFFFFFFFFFFFFFFFFFFFFFFFFFFFFFFFFFFFFFFFFFFFFFFFFFFFFFFFFFFFFFF
310
FFFFFFFFFFFFFFFFFFFFFFFFFFFFFFFFFFFFFFFFFFFFFFFFF000FFFFFFFFFFFF
310
FFFFFFFFFFFFFFFFFFFFFFFFFFFFFFFFFFFFFFFFFFFFFFFFFFFFFFFFFFFFFFFF
310
FFFFFFFFFFFFFFFFFFFFFFFFFFFFFFFFFFFFFFFFFFFFFFFFFFFFFFFFFFFFFFFF
310
FFFFFFFFFFFFFFFFFFFFFFFFFFFFFFFFF000FFFFFFFFFFFFFFFFFFFFFFFFFFFF
310
FFFFFFFFFFFFFFFFFFFFFFFFFFFFFFFFFFFFFFFFFFFFFFFFFFFFFFFFFFFFFFFF
310
FFFFFFFFFFFFFFFFFFFFFFFFFFFFFFFFFFFFFFFFFFFFFFFFFFFFFFFFFFFFFFFF
310
FFFFFFFFFFFFFFFFF000FFFFF80003FFFFFFFFFFFFFFFFFFFFFFFFFFFFFFFFFF
310
FFFFF00007FFFFFFFFFF00007FFFFFF800000000000000007FFFFFFFFFFFFFFF
310
FFFFFFFC001FFFFFFFFFFFFFFC001FFFFFFFFFFFFFFFFFFFFFFFFFFE0007FFFF
310
F000FFFF8000007FFFFFFFF8000FFFFFC0007FFFFF80007FFFFF0000007FFFFF
310
FFF8000007FFFFF800000000000000007FFFFFF0001FFFFFFFFFFFC00001FFFF
310
FFFFFFFFC00001FFFFFFFF000000000003FFFFE000007FFFF000FFFE0000000F
310
FFFFFFF0000FFFFF80007FFFFF80007FFFFC0000001FFFFFFFC0000001FFFFF8
310
00000000000000007FFFFFF0001FFFFFFFFFFE0000003FFFFFFFFFFE0000003F
310
FFFFFF000000000003FFFF0000000FFFF000FFF800000003FFFFFFF00007FFFF
310
80007FFFFF80007FFFF000000007FFFFFF000000003FFFF80000000000000000
310
7FFFFFF0001FFFFFFFFFF80000000FFFFFFFFFF80000000FFFFFFF0000000000
310
03FFFC00000003FFF000FFE000000000FFFFFFF00007FFFF80003FFFFF80007F
310
FFC000000001FFFFFC000000001FFFF800000000000000007FFFFFF0001FFFFF
310
FFFFE000000003FFFFFFFFE000000003FFFFFF000000000003FFF000000000FF
310
F000FF80000000007FFFFFF00007FFFF80003FFFFF80007FFF8000000000FFFF
310
F80000000007FFF800000000000000007FFFFFF0001FFFFFFFFFC000000001FF
310
FFFFFFC000000001FFFFFF000000000003FFC0000000007FF000FF0000000000
310
3FFFFFE00007FFFF00003FFFFF80007FFE00000000003FFFF00000000003FFF8
310
00000000000000007FFFFFF0001FFFFFFFFF8000000000FFFFFFFF8000000000
310
FFFFFF000000000003FF80000000003FF000FE00000000001FFFFFE00003FFFF
310
00003FFFFF80007FFC00000000001FFFE00000000001FFF8000001FFFE000000
310
7FFFFFF0001FFFFFFFFE00000000003FFFFFFE00000000003FFFFF0000000000
310
03FF00000000001FF000FC00000000000FFFFFE00003FFFF00001FFFFF80007F
310
F800000000001FFFC00000000000FFF8000001FFFE0000007FFFFFF0001FFFFF
310
FFFC00000000001FFFFFFC00000000001FFFFF000000000003FE00000000000F
310
F000F8000000000007FFFFE00003FFFF00001FFFFF80007FF800000000000FFF
310
800000000000FFF8000001FFFE0000007FFFFFF0001FFFFFFFF800000000000F
310
FFFFF800000000000FFFFF000000000003FC000000000007F000F80000000000
310
03FFFFC00003FFFE00001FFFFF80007FF0000000000007FF0000000000007FF8
310
000001FFFE0000007FFFFFF0001FFFFFFFF0000000000007FFFFF00000000000
310
07FFFF000000000003F8000000000003F000F0000000000003FFFFC00001FFFE
310
00001FFFFF80007FE0000000000007FE0000000000003FF8000001FFFE000000
310
7FFFFFF0001FFFFFFFF0000000000007FFFFF0000000000007FFFF0000000000
310
03F800001F800003F000E00001FFF00001FFFFC00001FFFE00000FFFFF80007F
310
E00001FFE00003FE00001FFF00003FF8000001FFFE0000007FFFFFF0001FFFFF
310
FFE000003E000003FFFFE000003E000003FFFF000000000003F00001FFF80001
310
F000E00007FFFC0001FFFFC00001FFFE00000FFFFF80007FC0000FFFFC0003FC
310
0000FFFFC0001FF8000001FFFE0000007FFFFFF0001FFFFFFFC00003FFE00001
310
FFFFC00003FFE00001FFFF0001FFFFFFFFF00007FFFE0001F000E0000FFFFF00
310
00FFFF800001FFFC00000FFFFF80007FC0001FFFFE0001FC0001FFFFE0001FF8
310
000001FFFE0000007FFFFFF0001FFFFFFF80000FFFF80000FFFF80000FFFF800
310
00FFFF0003FFFFFFFFE0000FFFFF8000F000C0003FFFFF8000FFFF800000FFFC
310
000007FFFF80007F80003FFFFF0001FC0003FFFFF0001FF8000001FFFE000000
310
7FFFFFF0001FFFFFFF80003FFFFE0000FFFF80003FFFFE0000FFFF0003FFFFFF
310
FFE0003FFFFF8000F000C0003FFFFF8000FFFF800000FFFC000007FFFF80007F
310
80007FFFFF8001F80007FFFFF8000FF8000001FFFE0000007FFFFFF0001FFFFF
310
FF00007FFFFF00007FFF00007FFFFF00007FFF0003FFFFFFFFE0003FFFFFC000
310
F000C0007FFFFFC000FFFF000000FFFC000007FFFF80007F8000FFFFFF8000F8
310
000FFFFFF8000FF8000001FFFE0000007FFFFFF0001FFFFFFF0000FFFFFF8000
310
7FFF0000FFFFFF80007FFF0003FFFFFFFFC0007FFFFFC00070008000FFFFFFC0
310
00FFFF000000FFF8000007FFFF80007F8000FFFFFF8000F8000FFFFFF8000FF8
310
000001FFFE0000007FFFFFF0001FFFFFFE0001FFFFFFC0003FFE0001FFFFFFC0
310
003FFF0003FFFFFFFFC0007FFFFFE00070008000FFFFFFC0007FFF0000007FF8
310
000003FFFF80007F0001FFFFFF8000F8000FFFFFF8000FF8000001FFFE000000
310
7FFFFFF0001FFFFFFE0001FFFFFFC0003FFE0001FFFFFFC0003FFF0003FFFFFF
310
FFC000FFFFFFE00070008000FFFFFFC0007FFF0000007FF8000003FFFF80007F
310
0001FFFFFF8000F8001FFFFFF8000FF8000001FFFE0000007FFFFFF0001FFFFF
310
FE0003FFFFFFE0003FFE0003FFFFFFE0003FFF0003FFFFFFFFC000FFFFFFE000
310
70008000FFFFFFC0007FFE0000007FF8000003FFFF80007F0001FFFFFF8000F0
310
001FFFFFF8000FF8000001FFFE0000007FFFFFF0001FFFFFFC0003FFFFFFE000
310
1FFC0003FFFFFFE0001FFF0003FFFFFFFFC000FFFFFFC00070008000FFFFFF80
310
007FFE0000007FF0000003FFFF80007F0001FFFFFF0000F0001FFFFFF8000FF8
310
000001FFFE0000007FFFFFF0001FFFFFFC0007FFFFFFF0001FFC0007FFFFFFF0
310
001FFF0003FFFFFFFFC000FFFFFFC00070008001FFFFFF0000FFFE0000003FF0
310
000001FFFF80007F0001FFFFFF0000F8001FFFFFF0000FF8000001FFFE000000
310
7FFFFFF0001FFFFFFC0007FFFFFFF0001FFC0007FFFFFFF0001FFF0003FFFFFF
310
FFC001FFFFFF80007000FFFFFFFFFE0000FFFE0008003FF0008001FFFF80007F
310
FFFFFFFFFC0000FFFFFFFFFFE0000FF8000001FFFE0000007FFFFFF0001FFFFF
310
F8000FFFFFFFF8000FF8000FFFFFFFF8000FFF0003FFFFFFFFFFFFFFFFFF0000
310
7000FFFFFFFFFC0000FFFC0008003FF0008001FFFF80007FFFFFFFFFF80001FF
310
FFFFFFFF80000FF8000001FFFE0000007FFFFFF0001FFFFFF8000FFFFFFFF800
310
0FF8000FFFFFFFF8000FFF0003FFFFFFFFFFFFFFFFFE0000F000FFFFFFFFE000
310
00FFFC000C003FE000C001FFFF80007FFFFFFFFFC00001FFFFFFFFFE00001FF8
310
000001FFFE0000007FFFFFF0001FFFFFF8000FFFFFFFF8000FF8000FFFFFFFF8
310
000FFF0003FFFFFFFFFFFFFFFFF00000F000FFFFFFFE000001FFFC000C001FE0
310
00C000FFFF80007FFFFFFFFE000001FFFFFFFFE000001FF80FFFFFFFFFFFFFC0
310
7FFFFFF0001FFFFFF8000FFFFFFFF8000FF8000FFFFFFFF8000FFF0003FFFFFF
310
FFFFFFFFFF800000F000FFFFFFC0000001FFFC001C001FE001C000FFFF80007F
310
FFFFFF80000003FFFFFFF80000001FF80FFFFFFFFFFFFFC07FFFFFF0001FFFFF
310
F8001FFFFFFFFC000FF8001FFFFFFFFC000FFF0003FFFFFFFFFFFFFFF0000001
310
F000FFFFF800000001FFF8001C001FE001C000FFFF80007FFFFFF800000003FF
310
FFFF800000003FF80FFFFFFFFFFFFFC07FFFFFF0001FFFFFF8001FFFFFFFFC00
310
0FF8001FFFFFFFFC000FFF0003FFFFFFFFFFFFFE00000001F000FFFFC0000000
310
03FFF8001E001FC001E000FFFF80007FFFFF8000000007FFFFFC000000003FF8
310
0FFFFFFFFFFFFFC07FFFFFF0001FFFFFF8001FFFFFFFFC000FF8001FFFFFFFFC
310
000FFF0003FFFFFFFFFFFFE000000003F000FFFE0000000007FFF8001E000FC0
310
01E0007FFF80007FFFFE0000000007FFFFE0000000007FF80FFFFFFFFFFFFFC0
310
7FFFFFF0001FFFFFF0001FFFFFFFFC0007F0001FFFFFFFFC0007FF0003FFFFFF
310
FFFFFF0000000003F000FFF80000000007FFF8001E000FC003E0007FFF80007F
310
FFF0000000000FFFFF8000000000FFF80FFFFFFFFFFFFFC07FFFFFF0001FFFFF
310
F0001FFFFFFFFC0007F0001FFFFFFFFC0007FF0003FFFFFFFFFFFC0000000007
310
F000FFE0000000000FFFF0003E000FC003E0007FFF80007FFFC0000000001FFF
310
FE0000000001FFF80FFFFFFFFFFFFFC07FFFFFF0001FFFFFF0001FFFFFFFFC00
310
07F0001FFFFFFFFC0007FF0003FFFFFFFFFFF0000000000FF000FFC000000000
310
1FFFF0003F000F8003F0003FFF80007FFF80000000003FFFF80000000003FFF8
310
0FFFFFFFFFFFFFC07FFFFFF0001FFFFFF0001FFFFFFFFC0007F0001FFFFFFFFC
310
0007FF0003FFFFFFFFFFE0000000001FF000FF00000000007FFFF0003F000780
310
03F0003FFF80007FFF00000000007FFFF00000000007FFF80FFFFFFFFFFFFFC0
310
7FFFFFF0001FFFFFF0001FFFFFFFFC0007F0001FFFFFFFFC0007FF0003FFFFFF
310
FFFF80000000007FF000FE0000000000FFFFE0003F00078007F0003FFF80007F
310
FE0000000001FFFFE0000000001FFFF80FFFFFFFFFFFFFC07FFFFFF0001FFFFF
310
F0001FFFFFFFFC0007F0001FFFFFFFFC0007FF0003FFFFFFFFFF0000000000FF
310
F000FC0000000003FFFFE0007F00078007F0003FFF80007FFC0000000007FFFF
310
C0000000007FFFF80FFFFFFFFFFFFFC07FFFFFF0001FFFFFF8001FFFFFFFFC00
310
0FF8001FFFFFFFFC000FFF0003FFFFFFFFFE0000000003FFF000FC000000000F
310
FFFFE0007F80070007F8001FFF80007FF8000000001FFFFF8000000001FFFFF8
310
0FFFFFFFFFFFFFC07FFFFFF0001FFFFFF8001FFFFFFFFC000FF8001FFFFFFFFC
310
000FFF0003FFFFFFFFFC000000000FFFF000F8000000007FFFFFE0007F800700
310
07F8001FFF80007FF000000000FFFFFF800000000FFFFFF80FFFFFFFFFFFFFC0
310
7FFFFFF0001FFFFFF8000FFFFFFFF8000FF8000FFFFFFFF8000FFF0003FFFFFF
310
FFFC000000007FFFF000F800000007FFFFFFC0007F8003000FF8001FFF80007F
310
F000000007FFFFFF000000007FFFFFF80FFFFFFFFFFFFFC07FFFFFF0001FFFFF
310
F8000FFFFFFFF8000FF8000FFFFFFFF8000FFF0003FFFFFFFFF80000000FFFFF
310
F000F0000000FFFFFFFFC000FF8003000FF8001FFF80007FE0000000FFFFFFFF
310
0000000FFFFFFFF8000001FFFE0000007FFFFFF0001FFFFFF8000FFFFFFFF800
310
0FF8000FFFFFFFF8000FFF0003FFFFFFFFF8000000FFFFFFF000F000000FFFFF
310
FFFFC000FFC002000FF8000FFF80007FE000001FFFFFFFFE000001FFFFFFFFF8
310
000001FFFE0000007FFFFFF0001FFFFFF8000FFFFFFFF8000FF8000FFFFFFFF8
310
000FFF0003FFFFFFFFF000001FFFFFFFF000E00000FFFFFFFFFFC000FFC00200
310
0FFC000FFF80007FE00001FFFFFFFFFE00001FFFFFFFFFF8000001FFFE000000
310
7FFFFFF0001FFFFFFC000FFFFFFFF8001FFC000FFFFFFFF8001FFF0003FFFFFF
310
FFF00001FFFFFFFFF000E00007FFFFFFFFFF8000FFC000001FFC000FFF80007F
310
C0000FFFFFFFFFFE0000FFFFFFFFFFF8000001FFFE0000007FFFFFF0001FFFFF
310
FC0007FFFFFFF0001FFC0007FFFFFFF0001FFF0003FFFFFFFFF00007FFFFFFFF
310
F000E0001FFFFFFFFFFF8000FFC000001FFC000FFF80007FC0003FFFFFFFFFFE
310
0001FFFFFFFFFFF8000001FFFE0000007FFFFFF0001FFFFFFC0007FFFFFFF000
310
1FFC0007FFFFFFF0001FFF0003FFFFFFFFF0001FFFFFFFFFF000E0003FFFFF00
310
03FF8001FFE000001FFC0007FF80007FC0007FFFFF0007FC0003FFFFF0003FF8
310
000001FFFE0000007FFFFFF0001FFFFFFC0003FFFFFFE0001FFC0003FFFFFFE0
310
001FFF0003FFFFFFFFF0003FFFFFFFFFF000E0003FFFFF0001FF8001FFE00000
310
1FFE0007FF80007FC0007FFFFE0003FC0007FFFFE0003FF8000001FFFE000000
310
7FFFFFF0001FFFFFFE0003FFFFFFE0003FFE0003FFFFFFE0003FFF0003FFFFFF
310
FFF0003FFFFF8001F000E0003FFFFF0001FF0001FFE000001FFE0007FF80007F
310
C0007FFFFE0003FC0007FFFFE0003FF8000001FFFE0000007FFFFFF0001FFFFF
310
FE0001FFFFFFC0003FFE0001FFFFFFC0003FFF0003FFFFFFFFF0003FFFFF0001
310
F000E0003FFFFF0003FF0001FFE000003FFE0007FF80007FC0007FFFFE0003FC
310
0007FFFFE0003FF8000001FFFE0000007FFFFFF0001FFFFFFF0001FFFFFFC000
310
7FFF0001FFFFFFC0007FFF0003FFFFFFFFF0003FFFFF0001F000E0003FFFFE00
310
03FF0003FFF000003FFE0003FF80007FC0007FFFFC0003FE0007FFFFE0003FF8
310
000001FFFE0000007FFFFFF0001FFFFFFF0000FFFFFF80007FFF0000FFFFFF80
310
007FFF0003FFFFFFFFF0003FFFFF0001F000E0003FFFFE0003FF0003FFF00000
310
3FFF0003FF80007FC0007FFFFC0007FE0007FFFFC0003FF8000001FFFE000000
310
7FFFFFF0001FFFFFFF80007FFFFF0000FFFF80007FFFFF0000FFFF0003FFFFFF
310
FFF0003FFFFF0003F000E0003FFFFC0003FE0003FFF000003FFF0003FF80007F
310
E0003FFFF80007FE0003FFFFC0007FF8000001FFFE0000007FFFFFF0001FFFFF
310
FF80003FFFFE0000FFFF80003FFFFE0000FFFF0003FFFFFFFFF0001FFFFE0003
310
F000F0001FFFF80003FE0003FFF000007FFF0001FF80007FE0003FFFF00007FE
310
0001FFFF80007FF8000001FFFE0000007FFFFFF0001FFFFFFFC0000FFFF80001
310
FFFFC0000FFFF80001FFFF0003FFFFFFFFF0001FFFFC0003F000F0000FFFF000
310
07FE0007FFF800007FFF0001FF80007FE0001FFFE00007FF0000FFFE00007FF8
310
000001FFFE0000007FFFFFF0001FFFFFFFC00003FFE00001FFFFC00003FFE000
310
01FFFF0003FFFFFFFFF8000FFFF80003F000F00003FFC00007FC0007FFF80000
310
7FFF8001FF80007FF00007FF80000FFF00007FF80000FFF8000001FFFE000000
310
7F80000000000001FFE000003E000003FFFFE000003E000003FFFF0003FFFFFF
310
FFF80003FFE00007F000F800000000000FFC0007FFF800007FFF8001FF80007F
310
F000000000000FFF000000000000FFF8000001FFFE0000007F80000000000001
310
FFF0000000000007FFFFF0000000000007FFFF0003FFFFFFFFFC00007E000007
310
F000F800000000000FFC0007FFF80000FFFF8000FF80007FF800000000001FFF
310
800000000001FFF8000001FFFE0000007F80000000000001FFF800000000000F
310
FFFFF800000000000FFFFF0003FFFFFFFFFC00000000000FF000FC0000000000
310
1FFC0007FFFC0000FFFF8000FF80007FF800000000003FFFC00000000001FFF8
310
000001FFFE0000007F80000000000001FFF800000000000FFFFFF80000000000
310
0FFFFF0003FFFFFFFFFE00000000001FF000FE00000000003FF8000FFFFC0000
310
FFFF8000FF80007FFC00000000003FFFC00000000003FFF8000001FFFE000000
310
7F80000000000001FFFC00000000001FFFFFFC00000000001FFFFF0003FFFFFF
310
FFFF00000000001FF000FF00000000003FF8000FFFFC0000FFFFC000FF80007F
310
FE00000000007FFFE00000000007FFF8000001FFFE0000007F80000000000001
310
FFFE00000000003FFFFFFE00000000003FFFFF0003FFFFFFFFFF80000000003F
310
F000FF80000000007FF8000FFFFC0001FFFFC0007F80007FFF0000000000FFFF
310
F0000000000FFFF800000000000000007F80000000000001FFFF8000000000FF
310
FFFFFF8000000000FFFFFF0003FFFFFFFFFFC0000000007FF000FFC000000000
310
FFF8000FFFFE0001FFFFC0007F80007FFF8000000001FFFFF8000000001FFFF8
310
00000000000000007F80000000000001FFFFC000000001FFFFFFFFC000000001
310
FFFFFF0003FFFFFFFFFFE000000000FFF000FFE000000003FFF0001FFFFE0001
310
FFFFC0007F80007FFFC000000007FFFFFE000000003FFFF80000000000000000
310
7F80000000000001FFFFE000000003FFFFFFFFE000000003FFFFFF0003FFFFFF
310
FFFFF000000003FFF000FFF80000000FFFF0001FFFFE0001FFFFE0007F80007F
310
FFF00000000FFFFFFF00000000FFFFF800000000000000007F80000000000001
310
FFFFF80000000FFFFFFFFFF80000000FFFFFFF0003FFFFFFFFFFFC0000000FFF
310
F000FFFE0000003FFFF0001FFFFE0003FFFFE0003F80007FFFFC0000003FFFFF
310
FFC0000003FFFFF800000000000000007F80000000000001FFFFFE0000003FFF
310
FFFFFFFE0000003FFFFFFF0003FFFFFFFFFFFF0000003FFFF000FFFF800000FF
310
FFF0001FFFFF0003FFFFE0003F80007FFFFF000001FFFFFFFFF800001FFFFFF8
310
00000000000000007F80000000000001FFFFFFC00001FFFFFFFFFFFFC00001FF
310
FFFFFF0003FFFFFFFFFFFFC00000FFFFF000FFFFF8000FFFFFFFFFFFFFFFFFFF
310
FFFFFFFFFFFFFFFFFFFFF0001FFFFFFFFFFF0000FFFFFFF80000000000000000
310
7FFFFFFFFFFFFFFFFFFFFFFC001FFFFFFFFFFFFFFC001FFFFFFFFFFFFFFFFFFF
310
FFFFFFFC001FFFFFF000FFFFFFFFFFFFFFFFFFFFFFFFFFFFFFFFFFFFFFFFFFFF
310
FFFFFFFFFFFFFFFFFFFFFFFFFFFFFFFFFFFFFFFFFFFFFFFFFFFFFFFFFFFFFFFF
310
FFFFFFFFFFFFFFFFFFFFFFFFFFFFFFFFFFFFFFFFFFFFFFFFFFFFFFFFFFFFFFFF
310
F000FFFFFFFFFFFFFFFFFFFFFFFFFFFFFFFFFFFFFFFFFFFFFFFFFFFFFFFFFFFF
310
FFFFFFFFFFFFFFFFFFFFFFFFFFFFFFFFFFFFFFFFFFFFFFFFFFFFFFFFFFFFFFFF
310
FFFFFFFFFFFFFFFFFFFFFFFFFFFFFFFFFFFFFFFFFFFFFFFFF000FFFFFFFFFFFF
310
FFFFFFFFFFFFFFFFFFFFFFFFFFFFFFFFFFFFFFFFFFFFFFFFFFFFFFFFFFFFFFFF
310
FFFFFFFFFFFFFFFFFFFFFFFFFFFFFFFFFFFFFFFFFFFFFFFFFFFFFFFFFFFFFFFF
310
FFFFFFFFFFFFFFFFFFFFFFFFFFFFFFFFF000FFFFFFFFFFFFFFFFFFFFFFFFFFFF
310
FFFFFFFFFFFFFFFFFFFFFFFFFFFFFFFFFFFFFFFFFFFFFFFFFFFFFFFFFFFFFFFF
310
FFFFFFFFFFFFFFFFFFFFFFFFFFFFFFFFFFFFFFFFFFFFFFFFFFFFFFFFFFFFFFFF
310
FFFFFFFFFFFFFFFFF000FFFFFFFFFFFFFFFFFFFFFFFFFFFFFFFFFFFFFFFFFFFF
310
FFFFFFFFFFFFFFFFFFFFFFFFFFFFFFFFFFFFFFFFFFFFFFFFFFFFFFFFFFFFFFFF
310
FFFFFFFFFFFFFFFFFFFFFFFFFFFFFFFFFFFFFFFFFFFFFFFFFFFFFFFFFFFFFFFF
310
F000FFFFFFFFFFFFFFFFFFFFFFFFFFFFFFFFFFFFFFFFFFFFFFFFFFFFFFFFFFFF
310
FFFFFFFFFFFFFFFFFFFFFFFFFFFFFFFFFFFFFFFFFFFFFFFFFFFFFFFFFFFFFFFF
310
FFFFFFFFFFFFFFFFFFFFFFFFFFFFFFFFFFFFFFFFFFFFFFFFF000FFFFFFFFFFFF
310
FFFFFFFFFFFFFFFFFFFFFFFFFFFFFFFFFFFFFFFFFFFFFFFFFFFFFFFFFFFFFFFF
310
FFFFFFFFFFFFFFFFFFFFFFFFFFFFFFFFFFFFFFFFFFFFFFFFFFFFFFFFFFFFFFFF
310
FFFFFFFFFFFFFFFFFFFFFFFFFFFFFFFFF000FFFFFFFFFFFFFFFFFFFFFFFFFFFF
310
FFFFFFFFFFFFFFFFFFFFFFFFFFFFFFFFFFFFFFFFFFFFFFFFFFFFFFFFFFFFFFFF
310
FFFFFFFFFFFFFFFFFFFFFFFFFFFFFFFFFFFFFFFFFFFFFFFFFFFFFFFFFFFFFFFF
310
FFFFFFFFFFFFFFFFF000FFFFFFFFFFFFFFFFFFFFFFFFFFFFFFFFFFFFFFFFFFFF
310
FFFFFFFFFFFFFFFFFFFFFFFFFFFFFFFFFFFFFFFFFFFFFFFFFFFFFFFFFFFFFFFF
310
FFFFFFFFFFFFFFFFFFFFFFFFFFFFFFFFFFFFFFFFFFFFFFFFFFFFFFFFFFFFFFFF
310
F000FFFFFFFFFFFFFFFFFFFFFFFFFFFFFFFFFFFFFFFFFFFFFFFFFFFFFFFFFFFF
310
FFFFFFFFFFFFFFFFFFFFFFFFFFFFFFFFFFFFFFFFFFFFFFFFFFFFFFFFFFFFFFFF
310
FFFFFFFFFFFFFFFFFFFFFFFFFFFFFFFFFFFFFFFFFFFFFFFFF000FFFFFFFFFFFF
310
FFFFFFFFFFFFFFFFFFFFFFFFFFFFFFFFFFFFFFFFFFFFFFFFFFFFFFFFFFFFFFFF
310
FFFFFFFFFFFFFFFFFFFFFFFFFFFFFFFFFFFFFFFFFFFFFFFFFFFFFFFFFFFFFFFF
310
FFFFFFFFFFFFFFFFFFFFFFFFFFFFFFFFF000FFFFFFFFFFFFFFFFFFFFFFFFFFFF
310
FFFFFFFFFFFFFFFFFFFFFFFFFFFFFFFFFFFFFFFFFFFFFFFFFFFFFFFFFFFFFFFF
310
FFFFFFFFFFFFFFFFFFFFFFFFFFFFFFFFFFFFFFFFFFFFFFFFFFFFFFFFFFFFFFFF
310
FFFFFFFFFFFFFFFFF000FFFFFFFFFFFFFFFFFFFFFFFFFFFFFFFFFFFFFFFFFFFF
310
FFFFFFFFFFFFFFFFFFFFFFFFFFFFFFFFFFFFFFFFFFFFFFFFFFFFFFFFFFFFFFFF
310
FFFFFFFFFFFFFFFFFFFFFFFFFFFFFFFFFFFFFFFFFFFFFFFFFFFFFFFFFFFFFFFF
310
F000FFFFFFFFFFFFFFFFFFFFFFFFFFFFFFFFFFFFFFFFFFFFFFFFFFFFFFFFFFFF
310
FFFFFFFFFFFFFFFFFFFFFFFFFFFFFFFFFFFFFFFFFFFFFFFFFFFFFFFFFFFFFFFF
310
FFFFFFFFFFFFFFFFFFFFFFFFFFFFFFFFFFFFFFFFFFFFFFFFF000FFFFFFFFFFFF
310
FFFFFFFFFFFFFFFFFFFFFFFFFFFFFFFFFFFFFFFFFFFFFFFFFFFFFFFFFFFFFFFF
310
FFFFFFFFFFFFFFFFFFFFFFFFFFFFFFFFFFFFFFFFFFFFFFFFFFFFFFFFFFFFFFFF
310
FFFFFFFFFFFFFFFFFFFFFFFFFFFFFFFFF000FFFFFFFFFFFFFFFFFFFFFFFFFFFF
310
FFFFFFFFFFFFFFFFFFFFFFFFFFFFFFFFFFFFFFFFFFFFFFFFFFFFFFFFFFFFFFFF
310
FFFFFFFFFFFFFFFFFFFFFFFFFFFFFFFFFFFFFFFFFFFFFFFFFFFFFFFFFFFFFFFF
310
FFFFFFFFFFFFFFFFF000FFFFFFFFFFFFFFFFFFFFFFFFFFFFFFFFFFFFFFFFFFFF
310
FFFFFFFFFFFFFFFFFFFFFFFFFFFFFFFFFFFFFFFFFFFFFFFFFFFFFFFFFFFFFFFF
310
FFFFFFFFFFFFFFFFFFFFFFFFFFFFFFFFFFFFFFFFFFFFFFFFFFFFFFFFFFFFFFFF
310
F000FFFFFFFFFFFFFFFFFFFFFFFFFFFFFFFFFFFFFFFFFFFFFFFFFFFFFFFFFFFF
310
FFFFFFFFFFFFFFFFFFFFFFFFFFFFFFFFFFFFFFFFFFFFFFFFFFFFFFFFFFFFFFFF
310
FFFFFFFFFFFFFFFFFFFFFFFFFFFFFFFFFFFFFFFFFFFFFFFFF000FFFFFFFFFFFF
310
FFFFFFFFFFFFFFFFFFFFFFFFFFFFFFFFFFFFFFFFFFFFFFFFFFFFFFFFFFFFFFFF
310
FFFFFFFFFFFFFFFFFFFFFFFFFFFFFFFFFFFFFFFFFFFFFFFFFFFFFFFFFFFFFFFF
310
FFFFFFFFFFFFFFFFFFFFFFFFFFFFFFFFF000FFFFFFFFFFFFFFFFFFFFFFFFFFFF
310
FFFFFFFFFFFFFFFFFFFFFFFFFFFFFFFFFFFFFFFFFFFFFFFFFFFFFFFFFFFFFFFF
310
FFFFFFFFFFFFFFFFFFFFFFFFFFFFFFFFFFFFFFFFFFFFFFFFFFFFFFFFFFFFFFFF
310
FFFFFFFFFFFFFFFFF000FFFFFFFFFFFFFFFFFFFFFFFFFFFFFFFFFFFFFFFFFFFF
310
FFFFFFFFFFFFFFFFFFFFFFFFFFFFFFFFFFFFFFFFFFFFFFFFFFFFFFFFFFFFFFFF
310
FFFFFFFFFFFFFFFFFFFFFFFFFFFFFFFFFFFFFFFFFFFFFFFFFFFFFFFFFFFFFFFF
310
F000FFFFFFFFFFFFFFFFFFFFFFFFFFFFFFFFFFFFFFFFFFFFFFFFFFFFFFFFFFFF
310
FFFFFFFFFFFFFFFFFFFFFFFFFFFFFFFFFFFFFFFFFFFFFFFFFFFFFFFFFFFFFFFF
310
FFFFFFFFFFFFFFFFFFFFFFFFFFFFFFFFFFFFFFFFFFFFFFFFF000FFFFFFFFFFFF
310
FFFFFFFFFFFFFFFFFFFFFFFFFFFFFFFFFFFFFFFFFFFFFFFFFFFFFFFFFFFFFFFF
310
FFFFFFFFFFFFFFFFFFFFFFFFFFFFFFFFFFFFFFFFFFFFFFFFFFFFFFFFFFFFFFFF
310
FFFFFFFFFFFFFFFFFFFFFFFFFFFFFFFFF0000000000000000000000000000000
310
0000000000000000000000000000000000000000000000000000000000000000
310
0000000000000000000000000000000000000000000000000000000000000000
310
0000000000000000000000000000000000000000000000000000000000000000
310
0000000000000000000000000000000000000000000000000000000000000000
310
0000000000000000000000000000000000000000000000000000000000000000
310
0000000000000000000000000000000000000000000000000000000000000000
310
0000000000000000000000000000000000000000000000000000000000000000
310
0000000000000000000000000000000000000000000000000000000000000000
310
0000000000000000000000000000000000000000000000000000000000000000
310
0000000000000000000000000000000000000000000000000000000000000000
310
0000000000000000000000000000000000000000000000000000000000000000
310
0000000000000000000000000000000000000000000000000000000000000000
310
0000000000000000000000000000000000000000000000000000000000000000
310
0000000000000000000000000000000000000000000000000000000000000000
310
0000000000000000000000000000000000000000000000000000000000000000
  1
OLE
  0
ENDSEC
  0
SECTION
  2
OBJECTS
  0
DICTIONARY
  5
C
330
0
100
AcDbDictionary
281
     1
  3
ACAD_GROUP
350
D
  3
ACAD_LAYOUT
350
1A
  3
ACAD_MLINESTYLE
350
17
  3
ACAD_PLOTSETTINGS
350
19
  3
ACAD_PLOTSTYLENAME
350
E
  3
ACAD_SCALELIST
350
47
  0
DICTIONARY
  5
D
102
{ACAD_REACTORS
330
C
102
}
330
C
100
AcDbDictionary
281
     1
  0
DICTIONARY
  5
1A
102
{ACAD_REACTORS
330
C
102
}
330
C
100
AcDbDictionary
281
     1
  3
Layout1
350
1E
  3
Layout2
350
26
  3
Model
350
22
  0
DICTIONARY
  5
17
102
{ACAD_REACTORS
330
C
102
}
330
C
100
AcDbDictionary
281
     1
  3
Standard
350
18
  0
DICTIONARY
  5
19
102
{ACAD_REACTORS
330
C
102
}
330
C
100
AcDbDictionary
281
     1
  0
ACDBDICTIONARYWDFLT
  5
E
102
{ACAD_REACTORS
330
C
102
}
330
C
100
AcDbDictionary
281
     1
  3
Normal
350
F
100
AcDbDictionaryWithDefault
340
F
  0
DICTIONARY
  5
47
102
{ACAD_REACTORS
330
C
102
}
330
C
100
AcDbDictionary
281
     1
  3
A0
350
48
  3
A1
350
49
  3
A2
350
4A
  3
A3
350
4B
  3
A4
350
4C
  3
A5
350
4D
  3
A6
350
4E
  3
A7
350
4F
  3
A8
350
50
  3
A9
350
51
  3
B0
350
52
  3
B1
350
53
  3
B2
350
54
  3
B3
350
55
  3
B4
350
56
  3
B5
350
57
  3
B6
350
58
  3
B7
350
59
  3
B8
350
5A
  3
B9
350
5B
  3
C0
350
5C
  3
C1
350
5D
  3
C2
350
5E
  3
C3
350
5F
  3
C4
350
60
  3
C5
350
61
  3
C6
350
62
  3
C7
350
63
  3
C8
350
64
  3
C9
350
65
  3
D0
350
66
  3
D1
350
67
  3
D2
350
68
  0
LAYOUT
  5
1E
102
{ACAD_REACTORS
330
1A
102
}
330
1A
100
AcDbPlotSettings
  1

  2
none_device
  4

  6

 40
0.0
 41
0.0
 42
0.0
 43
0.0
 44
0.0
 45
0.0
 46
0.0
 47
0.0
 48
0.0
 49
0.0
140
0.0
141
0.0
142
1.0
143
1.0
 70
   688
 72
     1
 73
     0
 74
     5
  7

 75
    16
147
1.0
148
0.0
149
0.0
100
AcDbLayout
  1
Layout1
 70
     1
 71
     1
 10
0.0
 20
0.0
 11
420.0
 21
297.0
 12
0.0
 22
0.0
 32
0.0
 14
1.0000000000E+20
 24
1.0000000000E+20
 34
1.0000000000E+20
 15
-1.0000000000E+20
 25
-1.0000000000E+20
 35
-1.0000000000E+20
146
0.0
 13
0.0
 23
0.0
 33
0.0
 16
1.0
 26
0.0
 36
0.0
 17
0.0
 27
1.0
 37
0.0
 76
     0
330
1B
  0
LAYOUT
  5
26
102
{ACAD_REACTORS
330
1A
102
}
330
1A
100
AcDbPlotSettings
  1

  2
none_device
  4

  6

 40
0.0
 41
0.0
 42
0.0
 43
0.0
 44
0.0
 45
0.0
 46
0.0
 47
0.0
 48
0.0
 49
0.0
140
0.0
141
0.0
142
1.0
143
1.0
 70
   688
 72
     1
 73
     0
 74
     5
  7

 75
    16
147
1.0
148
0.0
149
0.0
100
AcDbLayout
  1
Layout2
 70
     1
 71
     2
 10
0.0
 20
0.0
 11
0.0
 21
0.0
 12
0.0
 22
0.0
 32
0.0
 14
0.0
 24
0.0
 34
0.0
 15
0.0
 25
0.0
 35
0.0
146
0.0
 13
0.0
 23
0.0
 33
0.0
 16
1.0
 26
0.0
 36
0.0
 17
0.0
 27
1.0
 37
0.0
 76
     0
330
23
  0
LAYOUT
  5
22
102
{ACAD_REACTORS
330
1A
102
}
330
1A
100
AcDbPlotSettings
  1

  2
none_device
  4
Letter_(8.50_x_11.00_Inches)
  6

 40
6.35
 41
6.35
 42
6.35000508
 43
6.35000508
 44
215.9
 45
279.4
 46
0.0
 47
0.0
 48
0.0
 49
0.0
140
0.0
141
0.0
142
1.0
143
1.0
 70
  1712
 72
     1
 73
     0
 74
     0
  7

 75
     0
147
1.0
148
0.0
149
0.0
100
AcDbLayout
  1
Model
 70
     1
 71
     0
 10
0.0
 20
0.0
 11
297.0
 21
210.0
 12
0.0
 22
0.0
 32
0.0
 14
0.0
 24
0.0
 34
0.0
 15
297.0
 25
210.0
 35
0.0
146
0.0
 13
0.0
 23
0.0
 33
0.0
 16
1.0
 26
0.0
 36
0.0
 17
0.0
 27
1.0
 37
0.0
 76
     0
330
1F
331
29
  0
MLINESTYLE
  5
18
102
{ACAD_REACTORS
330
17
102
}
330
17
100
AcDbMlineStyle
  2
Standard
 70
     0
  3

 62
   256
 51
90.0
 52
90.0
 71
     2
 49
0.5
 62
   256
  6
BYLAYER
 49
-0.5
 62
   256
  6
BYLAYER
  0
ACDBPLACEHOLDER
  5
F
102
{ACAD_REACTORS
330
E
102
}
330
E
  0
SCALE
  5
48
102
{ACAD_REACTORS
330
47
102
}
330
47
100
AcDbScale
 70
     0
300
1:1
140
1.0
141
1.0
290
     1
  0
SCALE
  5
49
102
{ACAD_REACTORS
330
47
102
}
330
47
100
AcDbScale
 70
     0
300
1:2
140
1.0
141
2.0
290
     0
  0
SCALE
  5
4A
102
{ACAD_REACTORS
330
47
102
}
330
47
100
AcDbScale
 70
     0
300
1:4
140
1.0
141
4.0
290
     0
  0
SCALE
  5
4B
102
{ACAD_REACTORS
330
47
102
}
330
47
100
AcDbScale
 70
     0
300
1:5
140
1.0
141
5.0
290
     0
  0
SCALE
  5
4C
102
{ACAD_REACTORS
330
47
102
}
330
47
100
AcDbScale
 70
     0
300
1:8
140
1.0
141
8.0
290
     0
  0
SCALE
  5
4D
102
{ACAD_REACTORS
330
47
102
}
330
47
100
AcDbScale
 70
     0
300
1:10
140
1.0
141
10.0
290
     0
  0
SCALE
  5
4E
102
{ACAD_REACTORS
330
47
102
}
330
47
100
AcDbScale
 70
     0
300
1:16
140
1.0
141
16.0
290
     0
  0
SCALE
  5
4F
102
{ACAD_REACTORS
330
47
102
}
330
47
100
AcDbScale
 70
     0
300
1:20
140
1.0
141
20.0
290
     0
  0
SCALE
  5
50
102
{ACAD_REACTORS
330
47
102
}
330
47
100
AcDbScale
 70
     0
300
1:30
140
1.0
141
30.0
290
     0
  0
SCALE
  5
51
102
{ACAD_REACTORS
330
47
102
}
330
47
100
AcDbScale
 70
     0
300
1:40
140
1.0
141
40.0
290
     0
  0
SCALE
  5
52
102
{ACAD_REACTORS
330
47
102
}
330
47
100
AcDbScale
 70
     0
300
1:50
140
1.0
141
50.0
290
     0
  0
SCALE
  5
53
102
{ACAD_REACTORS
330
47
102
}
330
47
100
AcDbScale
 70
     0
300
1:100
140
1.0
141
100.0
290
     0
  0
SCALE
  5
54
102
{ACAD_REACTORS
330
47
102
}
330
47
100
AcDbScale
 70
     0
300
2:1
140
2.0
141
1.0
290
     0
  0
SCALE
  5
55
102
{ACAD_REACTORS
330
47
102
}
330
47
100
AcDbScale
 70
     0
300
4:1
140
4.0
141
1.0
290
     0
  0
SCALE
  5
56
102
{ACAD_REACTORS
330
47
102
}
330
47
100
AcDbScale
 70
     0
300
8:1
140
8.0
141
1.0
290
     0
  0
SCALE
  5
57
102
{ACAD_REACTORS
330
47
102
}
330
47
100
AcDbScale
 70
     0
300
10:1
140
10.0
141
1.0
290
     0
  0
SCALE
  5
58
102
{ACAD_REACTORS
330
47
102
}
330
47
100
AcDbScale
 70
     0
300
100:1
140
100.0
141
1.0
290
     0
  0
SCALE
  5
59
102
{ACAD_REACTORS
330
47
102
}
330
47
100
AcDbScale
 70
     0
300
1/128" = 1'-0"
140
0.0078125
141
12.0
290
     0
  0
SCALE
  5
5A
102
{ACAD_REACTORS
330
47
102
}
330
47
100
AcDbScale
 70
     0
300
1/64" = 1'-0"
140
0.015625
141
12.0
290
     0
  0
SCALE
  5
5B
102
{ACAD_REACTORS
330
47
102
}
330
47
100
AcDbScale
 70
     0
300
1/32" = 1'-0"
140
0.03125
141
12.0
290
     0
  0
SCALE
  5
5C
102
{ACAD_REACTORS
330
47
102
}
330
47
100
AcDbScale
 70
     0
300
1/16" = 1'-0"
140
0.0625
141
12.0
290
     0
  0
SCALE
  5
5D
102
{ACAD_REACTORS
330
47
102
}
330
47
100
AcDbScale
 70
     0
300
3/32" = 1'-0"
140
0.09375
141
12.0
290
     0
  0
SCALE
  5
5E
102
{ACAD_REACTORS
330
47
102
}
330
47
100
AcDbScale
 70
     0
300
1/8" = 1'-0"
140
0.125
141
12.0
290
     0
  0
SCALE
  5
5F
102
{ACAD_REACTORS
330
47
102
}
330
47
100
AcDbScale
 70
     0
300
3/16" = 1'-0"
140
0.1875
141
12.0
290
     0
  0
SCALE
  5
60
102
{ACAD_REACTORS
330
47
102
}
330
47
100
AcDbScale
 70
     0
300
1/4" = 1'-0"
140
0.25
141
12.0
290
     0
  0
SCALE
  5
61
102
{ACAD_REACTORS
330
47
102
}
330
47
100
AcDbScale
 70
     0
300
3/8" = 1'-0"
140
0.375
141
12.0
290
     0
  0
SCALE
  5
62
102
{ACAD_REACTORS
330
47
102
}
330
47
100
AcDbScale
 70
     0
300
1/2" = 1'-0"
140
0.5
141
12.0
290
     0
  0
SCALE
  5
63
102
{ACAD_REACTORS
330
47
102
}
330
47
100
AcDbScale
 70
     0
300
3/4" = 1'-0"
140
0.75
141
12.0
290
     0
  0
SCALE
  5
64
102
{ACAD_REACTORS
330
47
102
}
330
47
100
AcDbScale
 70
     0
300
1" = 1'-0"
140
1.0
141
12.0
290
     0
  0
SCALE
  5
65
102
{ACAD_REACTORS
330
47
102
}
330
47
100
AcDbScale
 70
     0
300
1-1/2" = 1'-0"
140
1.5
141
12.0
290
     0
  0
SCALE
  5
66
102
{ACAD_REACTORS
330
47
102
}
330
47
100
AcDbScale
 70
     0
300
3" = 1'-0"
140
3.0
141
12.0
290
     0
  0
SCALE
  5
67
102
{ACAD_REACTORS
330
47
102
}
330
47
100
AcDbScale
 70
     0
300
6" = 1'-0"
140
6.0
141
12.0
290
     0
  0
SCALE
  5
68
102
{ACAD_REACTORS
330
47
102
}
330
47
100
AcDbScale
 70
     0
300
1'-0" = 1'-0"
140
12.0
141
12.0
290
     0
  0
ENDSEC
  0
EOF
