  0
SECTION
  2
HEADER
  9
$ACADVER
  1
AC1015
  9
$ACADMAINTVER
 70
     6
  9
$DWGCODEPAGE
  3
ANSI_1252
  9
$INSBASE
 10
0.0
 20
0.0
 30
0.0
  9
$EXTMIN
 10
0.0
 20
0.0
 30
0.0
  9
$EXTMAX
 10
297.0
 20
210.0
 30
0.0
  9
$LIMMIN
 10
0.0
 20
0.0
  9
$LIMMAX
 10
297.0
 20
210.0
  9
$ORTHOMODE
 70
     0
  9
$REGENMODE
 70
     1
  9
$FILLMODE
 70
     1
  9
$QTEXTMODE
 70
     0
  9
$MIRRTEXT
 70
     1
  9
$LTSCALE
 40
1.0
  9
$ATTMODE
 70
     1
  9
$TEXTSIZE
 40
2.0
  9
$TRACEWID
 40
1.0
  9
$TEXTSTYLE
  7
Standard
  9
$CLAYER
  8
0
  9
$CELTYPE
  6
ByLayer
  9
$CECOLOR
 62
   256
  9
$CELTSCALE
 40
1.0
  9
$DISPSILH
 70
     0
  9
$DIMSCALE
 40
1.0
  9
$DIMASZ
 40
3.0
  9
$DIMEXO
 40
0.0
  9
$DIMDLI
 40
3.75
  9
$DIMRND
 40
0.0
  9
$DIMDLE
 40
0.0
  9
$DIMEXE
 40
1.0
  9
$DIMTP
 40
0.0
  9
$DIMTM
 40
0.0
  9
$DIMTXT
 40
2.0
  9
$DIMCEN
 40
2.5
  9
$DIMTSZ
 40
0.0
  9
$DIMTOL
 70
     0
  9
$DIMLIM
 70
     0
  9
$DIMTIH
 70
     1
  9
$DIMTOH
 70
     1
  9
$DIMSE1
 70
     0
  9
$DIMSE2
 70
     0
  9
$DIMTAD
 70
     1
  9
$DIMZIN
 70
     0
  9
$DIMBLK
  1

  9
$DIMASO
 70
     1
  9
$DIMSHO
 70
     1
  9
$DIMPOST
  1

  9
$DIMAPOST
  1

  9
$DIMALT
 70
     0
  9
$DIMALTD
 70
     3
  9
$DIMALTF
 40
0.0393700787
  9
$DIMLFAC
 40
1.0
  9
$DIMTOFL
 70
     1
  9
$DIMTVP
 40
0.0
  9
$DIMTIX
 70
     0
  9
$DIMSOXD
 70
     0
  9
$DIMSAH
 70
     0
  9
$DIMBLK1
  1

  9
$DIMBLK2
  1

  9
$DIMSTYLE
  2
ISO-25
  9
$DIMCLRD
 70
     0
  9
$DIMCLRE
 70
     0
  9
$DIMCLRT
 70
     0
  9
$DIMTFAC
 40
1.0
  9
$DIMGAP
 40
1.524
  9
$DIMJUST
 70
     0
  9
$DIMSD1
 70
     0
  9
$DIMSD2
 70
     0
  9
$DIMTOLJ
 70
     0
  9
$DIMTZIN
 70
     0
  9
$DIMALTZ
 70
     0
  9
$DIMALTTZ
 70
     0
  9
$DIMUPT
 70
     0
  9
$DIMDEC
 70
     2
  9
$DIMTDEC
 70
     3
  9
$DIMALTU
 70
     2
  9
$DIMALTTD
 70
     3
  9
$DIMTXSTY
  7
Standard
  9
$DIMAUNIT
 70
     0
  9
$DIMADEC
 70
     2
  9
$DIMALTRND
 40
0.0
  9
$DIMAZIN
 70
     0
  9
$DIMDSEP
 70
    44
  9
$DIMATFIT
 70
     3
  9
$DIMFRAC
 70
     0
  9
$DIMLDRBLK
  1

  9
$DIMLUNIT
 70
     2
  9
$DIMLWD
 70
    -2
  9
$DIMLWE
 70
    -2
  9
$DIMTMOVE
 70
     0
  9
$LUNITS
 70
     2
  9
$LUPREC
 70
     2
  9
$SKETCHINC
 40
1.0
  9
$FILLETRAD
 40
10.0
  9
$AUNITS
 70
     0
  9
$AUPREC
 70
     2
  9
$MENU
  1
.
  9
$ELEVATION
 40
0.0
  9
$PELEVATION
 40
0.0
  9
$THICKNESS
 40
0.0
  9
$LIMCHECK
 70
     0
  9
$CHAMFERA
 40
0.0
  9
$CHAMFERB
 40
0.0
  9
$CHAMFERC
 40
0.0
  9
$CHAMFERD
 40
0.0
  9
$SKPOLY
 70
     0
  9
$TDCREATE
 40
2457655.629313114
  9
$TDUCREATE
 40
2457655.54597978
  9
$TDUPDATE
 40
2457655.629314213
  9
$TDUUPDATE
 40
2457655.54598088
  9
$TDINDWG
 40
0.0000000116
  9
$TDUSRTIMER
 40
0.0000000116
  9
$USRTIMER
 70
     1
  9
$ANGBASE
 50
0.0
  9
$ANGDIR
 70
     0
  9
$PDMODE
 70
     0
  9
$PDSIZE
 40
-1.0
  9
$PLINEWID
 40
0.0
  9
$SPLFRAME
 70
     0
  9
$SPLINETYPE
 70
     6
  9
$SPLINESEGS
 70
     8
  9
$HANDSEED
  5
1E2
  9
$SURFTAB1
 70
     6
  9
$SURFTAB2
 70
     6
  9
$SURFTYPE
 70
     6
  9
$SURFU
 70
     6
  9
$SURFV
 70
     6
  9
$UCSBASE
  2

  9
$UCSNAME
  2

  9
$UCSORG
 10
0.0
 20
0.0
 30
0.0
  9
$UCSXDIR
 10
1.0
 20
0.0
 30
0.0
  9
$UCSYDIR
 10
0.0
 20
1.0
 30
0.0
  9
$UCSORTHOREF
  2

  9
$UCSORTHOVIEW
 70
     0
  9
$UCSORGTOP
 10
0.0
 20
0.0
 30
0.0
  9
$UCSORGBOTTOM
 10
0.0
 20
0.0
 30
0.0
  9
$UCSORGLEFT
 10
0.0
 20
0.0
 30
0.0
  9
$UCSORGRIGHT
 10
0.0
 20
0.0
 30
0.0
  9
$UCSORGFRONT
 10
0.0
 20
0.0
 30
0.0
  9
$UCSORGBACK
 10
0.0
 20
0.0
 30
0.0
  9
$PUCSBASE
  2

  9
$PUCSNAME
  2

  9
$PUCSORG
 10
0.0
 20
0.0
 30
0.0
  9
$PUCSXDIR
 10
1.0
 20
0.0
 30
0.0
  9
$PUCSYDIR
 10
0.0
 20
1.0
 30
0.0
  9
$PUCSORTHOREF
  2

  9
$PUCSORTHOVIEW
 70
     0
  9
$PUCSORGTOP
 10
0.0
 20
0.0
 30
0.0
  9
$PUCSORGBOTTOM
 10
0.0
 20
0.0
 30
0.0
  9
$PUCSORGLEFT
 10
0.0
 20
0.0
 30
0.0
  9
$PUCSORGRIGHT
 10
0.0
 20
0.0
 30
0.0
  9
$PUCSORGFRONT
 10
0.0
 20
0.0
 30
0.0
  9
$PUCSORGBACK
 10
0.0
 20
0.0
 30
0.0
  9
$USERI1
 70
     0
  9
$USERI2
 70
     0
  9
$USERI3
 70
     0
  9
$USERI4
 70
     0
  9
$USERI5
 70
     0
  9
$USERR1
 40
0.0
  9
$USERR2
 40
0.0
  9
$USERR3
 40
0.0
  9
$USERR4
 40
0.0
  9
$USERR5
 40
0.0
  9
$WORLDVIEW
 70
     1
  9
$SHADEDGE
 70
     3
  9
$SHADEDIF
 70
    70
  9
$TILEMODE
 70
     1
  9
$MAXACTVP
 70
    64
  9
$PINSBASE
 10
0.0
 20
0.0
 30
0.0
  9
$PLIMCHECK
 70
     0
  9
$PEXTMIN
 10
1.0000000000E+20
 20
1.0000000000E+20
 30
1.0000000000E+20
  9
$PEXTMAX
 10
-1.0000000000E+20
 20
-1.0000000000E+20
 30
-1.0000000000E+20
  9
$PLIMMIN
 10
0.0
 20
0.0
  9
$PLIMMAX
 10
420.0
 20
297.0
  9
$UNITMODE
 70
     0
  9
$VISRETAIN
 70
     1
  9
$PLINEGEN
 70
     0
  9
$PSLTSCALE
 70
     1
  9
$TREEDEPTH
 70
  3020
  9
$CMLSTYLE
  2
Standard
  9
$CMLJUST
 70
     0
  9
$CMLSCALE
 40
20.0
  9
$PROXYGRAPHICS
 70
     1
  9
$MEASUREMENT
 70
     1
  9
$CELWEIGHT
370
    -1
  9
$ENDCAPS
280
     0
  9
$JOINSTYLE
280
     0
  9
$LWDISPLAY
290
     1
  9
$INSUNITS
 70
     4
  9
$HYPERLINKBASE
  1

  9
$STYLESHEET
  1

  9
$XEDIT
290
     1
  9
$CEPSNTYPE
380
     0
  9
$PSTYLEMODE
290
     1
  9
$FINGERPRINTGUID
  2
{91DB2AAF-C441-437E-BAF2-81C528B8DFB2}
  9
$VERSIONGUID
  2
{FAEB1C32-E019-11D5-929B-00C0DF256EC4}
  9
$EXTNAMES
290
     1
  9
$PSVPSCALE
 40
0.0
  9
$OLESTARTUP
290
     0
  0
ENDSEC
  0
SECTION
  2
CLASSES
  0
CLASS
  1
ACDBDICTIONARYWDFLT
  2
AcDbDictionaryWithDefault
  3
ObjectDBX Classes
 90
        0
280
     0
281
     0
  0
CLASS
  1
VISUALSTYLE
  2
AcDbVisualStyle
  3
ObjectDBX Classes
 90
     4095
280
     0
281
     0
  0
CLASS
  1
MATERIAL
  2
AcDbMaterial
  3
ObjectDBX Classes
 90
     1153
280
     0
281
     0
  0
CLASS
  1
SCALE
  2
AcDbScale
  3
ObjectDBX Classes
 90
     1153
280
     0
281
     0
  0
CLASS
  1
TABLESTYLE
  2
AcDbTableStyle
  3
ObjectDBX Classes
 90
     4095
280
     0
281
     0
  0
CLASS
  1
MLEADERSTYLE
  2
AcDbMLeaderStyle
  3
ACDB_MLEADERSTYLE_CLASS
 90
     4095
280
     0
281
     0
  0
CLASS
  1
SUN
  2
AcDbSun
  3
SCENEOE
 90
     1153
280
     0
281
     0
  0
CLASS
  1
ACDBPLACEHOLDER
  2
AcDbPlaceHolder
  3
ObjectDBX Classes
 90
        0
280
     0
281
     0
  0
CLASS
  1
LAYOUT
  2
AcDbLayout
  3
ObjectDBX Classes
 90
        0
280
     0
281
     0
  0
ENDSEC
  0
SECTION
  2
TABLES
  0
TABLE
  2
VPORT
  5
8
330
0
100
AcDbSymbolTable
 70
     1
  0
VPORT
  5
29
330
8
100
AcDbSymbolTableRecord
100
AcDbViewportTableRecord
  2
*Active
 70
     0
 10
0.0
 20
0.0
 11
1.0
 21
1.0
 12
148.5
 22
105.0
 13
0.0
 23
0.0
 14
10.0
 24
10.0
 15
10.0
 25
10.0
 16
0.0
 26
0.0
 36
1.0
 17
0.0
 27
0.0
 37
0.0
 40
210.0
 41
1.4142857143
 42
50.0
 43
0.0
 44
0.0
 50
0.0
 51
0.0
 71
     0
 72
  2000
 73
     1
 74
     3
 75
     0
 76
     0
 77
     0
 78
     0
281
     0
 65
     1
110
0.0
120
0.0
130
0.0
111
1.0
121
0.0
131
0.0
112
0.0
122
1.0
132
0.0
 79
     0
146
0.0
  0
ENDTAB
  0
TABLE
  2
LTYPE
  5
5
330
0
100
AcDbSymbolTable
 70
     6
  0
LTYPE
  5
14
330
5
100
AcDbSymbolTableRecord
100
AcDbLinetypeTableRecord
  2
ByBlock
 70
     0
  3

 72
    65
 73
     0
 40
0.0
  0
LTYPE
  5
15
330
5
100
AcDbSymbolTableRecord
100
AcDbLinetypeTableRecord
  2
ByLayer
 70
     0
  3

 72
    65
 73
     0
 40
0.0
  0
LTYPE
  5
16
330
5
100
AcDbSymbolTableRecord
100
AcDbLinetypeTableRecord
  2
Continuous
 70
     0
  3
Solid line
 72
    65
 73
     0
 40
0.0
  0
LTYPE
  5
6E
330
5
100
AcDbSymbolTableRecord
100
AcDbLinetypeTableRecord
  2
HIDDEN
 70
     0
  3
Hidden __ __ __ __ __ __ __ __ __ __ __ __ __ __
 72
    65
 73
     2
 40
1.905
 49
1.27
 74
     0
 49
-0.635
 74
     0
  0
LTYPE
  5
6F
330
5
100
AcDbSymbolTableRecord
100
AcDbLinetypeTableRecord
  2
PHANTOM
 70
     0
  3
Phantom ______  __  __  ______  __  __  ______
 72
    65
 73
     6
 40
12.7
 49
6.35
 74
     0
 49
-1.27
 74
     0
 49
1.27
 74
     0
 49
-1.27
 74
     0
 49
1.27
 74
     0
 49
-1.27
 74
     0
  0
LTYPE
  5
70
330
5
100
AcDbSymbolTableRecord
100
AcDbLinetypeTableRecord
  2
CENTER
 70
     0
  3
Center ____ _ ____ _ ____ _ ____ _ ____ _ ____
 72
    65
 73
     4
 40
10.16
 49
6.35
 74
     0
 49
-1.27
 74
     0
 49
1.27
 74
     0
 49
-1.27
 74
     0
  0
LTYPE
  5
71
330
5
100
AcDbSymbolTableRecord
100
AcDbLinetypeTableRecord
  2
CENTERX2
 70
     0
  3
Center (2x) ________  __  ________  __  _____
 72
    65
 73
     4
 40
20.32
 49
12.7
 74
     0
 49
-2.54
 74
     0
 49
2.54
 74
     0
 49
-2.54
 74
     0
  0
LTYPE
  5
72
330
5
100
AcDbSymbolTableRecord
100
AcDbLinetypeTableRecord
  2
DOT2
 70
     0
  3
Dot (.5x) ........................................
 72
    65
 73
     2
 40
0.635
 49
0.0
 74
     0
 49
-0.635
 74
     0
  0
ENDTAB
  0
TABLE
  2
LAYER
  5
2
330
0
100
AcDbSymbolTable
 70
     5
  0
LAYER
  5
10
330
2
100
AcDbSymbolTableRecord
100
AcDbLayerTableRecord
  2
0
 70
     0
 62
     7
  6
Continuous
370
    -3
390
F
  0
LAYER
  5
73
330
2
100
AcDbSymbolTableRecord
100
AcDbLayerTableRecord
  2
FORMAT
 70
     0
 62
     7
  6
Continuous
370
    -3
390
F
  0
LAYER
  5
74
330
2
100
AcDbSymbolTableRecord
100
AcDbLayerTableRecord
  2
VERMASSUNG
 70
     0
 62
     7
  6
Continuous
370
    -3
390
F
  0
LAYER
  5
75
330
2
100
AcDbSymbolTableRecord
100
AcDbLayerTableRecord
  2
KOPF_DÜNN
 70
     0
 62
     7
  6
Continuous
370
    -3
390
F
  0
LAYER
  5
76
330
2
100
AcDbSymbolTableRecord
100
AcDbLayerTableRecord
  2
KOPF_DICK
 70
     0
 62
     7
  6
Continuous
370
    15
390
F
  0
ENDTAB
  0
TABLE
  2
STYLE
  5
3
330
0
100
AcDbSymbolTable
 70
     3
  0
STYLE
  5
11
330
3
100
AcDbSymbolTableRecord
100
AcDbTextStyleTableRecord
  2
Standard
 70
     0
 40
0.0
 41
1.0
 50
0.0
 71
     0
 42
2.0
  3
txt
  4

  0
STYLE
  5
77
330
3
100
AcDbSymbolTableRecord
100
AcDbTextStyleTableRecord
  2
SLDTEXTSTYLE0
 70
     0
 40
0.0
 41
0.7
 50
0.0
 71
     0
 42
2.0
  3
TXT
  4

  0
STYLE
  5
7B
330
3
100
AcDbSymbolTableRecord
100
AcDbTextStyleTableRecord
  2
SLDTEXTSTYLE1
 70
     0
 40
0.0
 41
0.6444444444
 50
0.0
 71
     0
 42
2.0
  3
TXT
  4

  0
ENDTAB
  0
TABLE
  2
VIEW
  5
6
330
0
100
AcDbSymbolTable
 70
     0
  0
ENDTAB
  0
TABLE
  2
UCS
  5
7
330
0
100
AcDbSymbolTable
 70
     0
  0
ENDTAB
  0
TABLE
  2
APPID
  5
9
330
0
100
AcDbSymbolTable
 70
     1
  0
APPID
  5
12
330
9
100
AcDbSymbolTableRecord
100
AcDbRegAppTableRecord
  2
ACAD
 70
     0
  0
ENDTAB
  0
TABLE
  2
DIMSTYLE
  5
A
330
0
100
AcDbSymbolTable
 70
     2
100
AcDbDimStyleTable
  0
DIMSTYLE
105
27
330
A
100
AcDbSymbolTableRecord
100
AcDbDimStyleTableRecord
  2
ISO-25
 70
     0
 41
2.5
 42
0.625
 43
3.75
 44
1.25
 73
     0
 74
     0
 77
     1
 78
     8
140
2.5
141
2.5
143
0.0393700787
147
0.625
171
     3
172
     1
178
     0
271
     2
272
     2
274
     3
278
    44
283
     0
284
     8
340
11
  0
DIMSTYLE
105
11F
102
{ACAD_REACTORS
330
11E
330
12B
330
135
330
13F
330
14B
102
}
330
A
100
AcDbSymbolTableRecord
100
AcDbDimStyleTableRecord
  2
SLDDIMSTYLE0
 70
     0
 41
3.0
 44
0.0
 45
0.000000001
 73
     0
 74
     0
 77
     1
 78
    12
 79
     3
140
2.0
147
0.5
173
     1
178
     0
271
     2
272
     3
276
     2
284
    12
340
77
  0
ENDTAB
  0
TABLE
  2
BLOCK_RECORD
  5
1
330
0
100
AcDbSymbolTable
 70
     6
  0
BLOCK_RECORD
  5
1F
330
1
100
AcDbSymbolTableRecord
100
AcDbBlockTableRecord
  2
*Model_Space
340
22
  0
BLOCK_RECORD
  5
1B
330
1
100
AcDbSymbolTableRecord
100
AcDbBlockTableRecord
  2
*Paper_Space
340
1E
  0
BLOCK_RECORD
  5
23
330
1
100
AcDbSymbolTableRecord
100
AcDbBlockTableRecord
  2
*Paper_Space0
340
26
  0
BLOCK_RECORD
  5
120
330
1
100
AcDbSymbolTableRecord
100
AcDbBlockTableRecord
  2
_D
340
0
  0
BLOCK_RECORD
  5
12C
330
1
100
AcDbSymbolTableRecord
100
AcDbBlockTableRecord
  2
_D_1
340
0
  0
BLOCK_RECORD
  5
136
330
1
100
AcDbSymbolTableRecord
100
AcDbBlockTableRecord
  2
_D_2
340
0
  0
BLOCK_RECORD
  5
140
330
1
100
AcDbSymbolTableRecord
100
AcDbBlockTableRecord
  2
_D_3
340
0
  0
BLOCK_RECORD
  5
14C
330
1
100
AcDbSymbolTableRecord
100
AcDbBlockTableRecord
  2
_D_4
340
0
  0
ENDTAB
  0
ENDSEC
  0
SECTION
  2
BLOCKS
  0
BLOCK
  5
20
330
1F
100
AcDbEntity
  8
0
100
AcDbBlockBegin
  2
*Model_Space
 70
     0
 10
0.0
 20
0.0
 30
0.0
  3
*Model_Space
  1

  0
ENDBLK
  5
21
330
1F
100
AcDbEntity
  8
0
100
AcDbBlockEnd
  0
BLOCK
  5
1C
330
1B
100
AcDbEntity
 67
     1
  8
0
100
AcDbBlockBegin
  2
*Paper_Space
 70
     0
 10
0.0
 20
0.0
 30
0.0
  3
*Paper_Space
  1

  0
ENDBLK
  5
1D
330
1B
100
AcDbEntity
 67
     1
  8
0
100
AcDbBlockEnd
  0
BLOCK
  5
24
330
23
100
AcDbEntity
  8
0
100
AcDbBlockBegin
  2
*Paper_Space0
 70
     0
 10
0.0
 20
0.0
 30
0.0
  3
*Paper_Space0
  1

  0
ENDBLK
  5
25
330
23
100
AcDbEntity
  8
0
100
AcDbBlockEnd
  0
BLOCK
  5
121
330
120
100
AcDbEntity
  8
0
100
AcDbBlockBegin
  2
_D
 70
     0
 10
0.0
 20
0.0
 30
0.0
  3
_D
  1

  0
SOLID
  5
123
330
120
100
AcDbEntity
  8
VERMASSUNG
100
AcDbTrace
 10
46.0869653513
 20
148.2264931711
 30
0.0
 11
45.6369653513
 21
145.2264931711
 31
0.0
 12
46.5369653513
 22
145.2264931711
 32
0.0
 13
46.5369653513
 23
145.2264931711
 33
0.0
  0
SOLID
  5
124
330
120
100
AcDbEntity
  8
VERMASSUNG
100
AcDbTrace
 10
46.0869653513
 20
85.2264931711
 30
0.0
 11
46.5369653513
 21
88.2264931711
 31
0.0
 12
45.6369653513
 22
88.2264931711
 32
0.0
 13
45.6369653513
 23
88.2264931711
 33
0.0
  0
LINE
  5
125
330
120
100
AcDbEntity
  8
VERMASSUNG
100
AcDbLine
 10
141.201163552
 20
148.2264931711
 30
0.0
 11
45.0869653513
 21
148.2264931711
 31
0.0
  0
LINE
  5
126
330
120
100
AcDbEntity
  8
VERMASSUNG
100
AcDbLine
 10
141.2011684699
 20
85.2264931711
 30
0.0
 11
45.0869653513
 21
85.2264931711
 31
0.0
  0
LINE
  5
127
330
120
100
AcDbEntity
  8
VERMASSUNG
100
AcDbLine
 10
46.0869653513
 20
148.2264931711
 30
0.0
 11
46.0869653513
 21
85.2264931711
 31
0.0
  0
MTEXT
  5
128
330
120
100
AcDbEntity
  8
VERMASSUNG
100
AcDbMText
 10
43.3088300951
 20
106.0220081042
 30
0.0
 40
2.0
 41
0.0
 71
     1
 72
     1
  1
MAS BT 40
  7
SLDTEXTSTYLE0
 11
-7.044195017643634E-15
 21
1.0
 31
0.0
 73
     1
 44
1.0
  0
MTEXT
  5
129
330
120
100
AcDbEntity
  8
VERMASSUNG
100
AcDbMText
 10
43.5088300464
 20
121.0220077689
 30
0.0
 40
2.0
 41
0.0
 71
     1
 72
     1
  1
%%c
  7
SLDTEXTSTYLE0
 11
-7.044195017643634E-15
 21
1.0
 31
0.0
 73
     1
 44
1.0
  0
MTEXT
  5
12A
330
120
100
AcDbEntity
  8
VERMASSUNG
100
AcDbMText
 10
43.5088297553
 20
124.6315982175
 30
0.0
 40
2.0
 41
0.0
 71
     1
 72
     1
  1
63
  7
SLDTEXTSTYLE0
 11
-7.044195017643634E-15
 21
1.0
 31
0.0
 73
     1
 44
1.0
  0
ENDBLK
  5
122
330
120
100
AcDbEntity
  8
0
100
AcDbBlockEnd
  0
BLOCK
  5
12D
330
12C
100
AcDbEntity
  8
0
100
AcDbBlockBegin
  2
_D_1
 70
     0
 10
0.0
 20
0.0
 30
0.0
  3
_D_1
  1

  0
SOLID
  5
12F
330
12C
100
AcDbEntity
  8
VERMASSUNG
100
AcDbTrace
 10
117.201167696
 20
160.5749762788
 30
0.0
 11
120.201167696
 21
160.1249762788
 31
0.0
 12
120.201167696
 22
161.0249762788
 32
0.0
 13
120.201167696
 23
161.0249762788
 33
0.0
  0
SOLID
  5
130
330
12C
100
AcDbEntity
  8
VERMASSUNG
100
AcDbTrace
 10
244.201167696
 20
160.5749762788
 30
0.0
 11
241.201167696
 21
161.0249762788
 31
0.0
 12
241.201167696
 22
160.1249762788
 32
0.0
 13
241.201167696
 23
160.1249762788
 33
0.0
  0
LINE
  5
131
330
12C
100
AcDbEntity
  8
VERMASSUNG
100
AcDbLine
 10
117.201167696
 20
138.9514931711
 30
0.0
 11
117.201167696
 21
161.5749762788
 31
0.0
  0
LINE
  5
132
330
12C
100
AcDbEntity
  8
VERMASSUNG
100
AcDbLine
 10
244.201167696
 20
143.7264931711
 30
0.0
 11
244.201167696
 21
161.5749762788
 31
0.0
  0
LINE
  5
133
330
12C
100
AcDbEntity
  8
VERMASSUNG
100
AcDbLine
 10
117.201167696
 20
160.5749762788
 30
0.0
 11
244.201167696
 21
160.5749762788
 31
0.0
  0
MTEXT
  5
134
330
12C
100
AcDbEntity
  8
VERMASSUNG
100
AcDbMText
 10
178.8018247506
 20
163.1531118748
 30
0.0
 40
2.0
 41
0.0
 71
     1
 72
     1
  1
127
  7
SLDTEXTSTYLE0
 73
     1
 44
1.0
  0
ENDBLK
  5
12E
330
12C
100
AcDbEntity
  8
0
100
AcDbBlockEnd
  0
BLOCK
  5
137
330
136
100
AcDbEntity
  8
0
100
AcDbBlockBegin
  2
_D_2
 70
     0
 10
0.0
 20
0.0
 30
0.0
  3
_D_2
  1

  0
SOLID
  5
139
330
136
100
AcDbEntity
  8
VERMASSUNG
100
AcDbTrace
 10
51.801167696
 20
166.5749762788
 30
0.0
 11
54.801167696
 21
166.1249762788
 31
0.0
 12
54.801167696
 22
167.0249762788
 32
0.0
 13
54.801167696
 23
167.0249762788
 33
0.0
  0
SOLID
  5
13A
330
136
100
AcDbEntity
  8
VERMASSUNG
100
AcDbTrace
 10
244.201167696
 20
166.5749762788
 30
0.0
 11
241.201167696
 21
167.0249762788
 31
0.0
 12
241.201167696
 22
166.1249762788
 32
0.0
 13
241.201167696
 23
166.1249762788
 33
0.0
  0
LINE
  5
13B
330
136
100
AcDbEntity
  8
VERMASSUNG
100
AcDbLine
 10
51.801167696
 20
128.5492487682
 30
0.0
 11
51.801167696
 21
167.5749762788
 31
0.0
  0
LINE
  5
13C
330
136
100
AcDbEntity
  8
VERMASSUNG
100
AcDbLine
 10
244.201167696
 20
143.7264931711
 30
0.0
 11
244.201167696
 21
167.5749762788
 31
0.0
  0
LINE
  5
13D
330
136
100
AcDbEntity
  8
VERMASSUNG
100
AcDbLine
 10
51.801167696
 20
166.5749762788
 30
0.0
 11
244.201167696
 21
166.5749762788
 31
0.0
  0
MTEXT
  5
13E
330
136
100
AcDbEntity
  8
VERMASSUNG
100
AcDbMText
 10
145.0021470987
 20
169.1531118748
 30
0.0
 40
2.0
 41
0.0
 71
     1
 72
     1
  1
192.4
  7
SLDTEXTSTYLE0
 73
     1
 44
1.0
  0
ENDBLK
  5
138
330
136
100
AcDbEntity
  8
0
100
AcDbBlockEnd
  0
BLOCK
  5
141
330
140
100
AcDbEntity
  8
0
100
AcDbBlockBegin
  2
_D_3
 70
     0
 10
0.0
 20
0.0
 30
0.0
  3
_D_3
  1

  0
SOLID
  5
143
330
140
100
AcDbEntity
  8
VERMASSUNG
100
AcDbTrace
 10
254.201167696
 20
144.2264931711
 30
0.0
 11
253.751167696
 21
141.2264931711
 31
0.0
 12
254.651167696
 22
141.2264931711
 32
0.0
 13
254.651167696
 23
141.2264931711
 33
0.0
  0
SOLID
  5
144
330
140
100
AcDbEntity
  8
VERMASSUNG
100
AcDbTrace
 10
254.201167696
 20
89.2264931711
 30
0.0
 11
254.651167696
 21
92.2264931711
 31
0.0
 12
253.751167696
 22
92.2264931711
 32
0.0
 13
253.751167696
 23
92.2264931711
 33
0.0
  0
LINE
  5
145
330
140
100
AcDbEntity
  8
VERMASSUNG
100
AcDbLine
 10
243.701167696
 20
144.2264931711
 30
0.0
 11
255.201167696
 21
144.2264931711
 31
0.0
  0
LINE
  5
146
330
140
100
AcDbEntity
  8
VERMASSUNG
100
AcDbLine
 10
243.701167696
 20
89.2264931711
 30
0.0
 11
255.201167696
 21
89.2264931711
 31
0.0
  0
LINE
  5
147
330
140
100
AcDbEntity
  8
VERMASSUNG
100
AcDbLine
 10
254.201167696
 20
144.2264931711
 30
0.0
 11
254.201167696
 21
89.2264931711
 31
0.0
  0
MTEXT
  5
148
330
140
100
AcDbEntity
  8
VERMASSUNG
100
AcDbMText
 10
251.4230324398
 20
110.3214935276
 30
0.0
 40
2.0
 41
0.0
 71
     1
 72
     1
  1
MBM
  7
SLDTEXTSTYLE0
 11
-7.044195017643634E-15
 21
1.0
 31
0.0
 73
     1
 44
1.0
  0
MTEXT
  5
149
330
140
100
AcDbEntity
  8
VERMASSUNG
100
AcDbMText
 10
251.6230323911
 20
116.7214933659
 30
0.0
 40
2.0
 41
0.0
 71
     1
 72
     1
  1
%%c
  7
SLDTEXTSTYLE0
 11
-7.044195017643634E-15
 21
1.0
 31
0.0
 73
     1
 44
1.0
  0
MTEXT
  5
14A
330
140
100
AcDbEntity
  8
VERMASSUNG
100
AcDbMText
 10
251.4230324398
 20
120.3314938459
 30
0.0
 40
2.0
 41
0.0
 71
     1
 72
     1
  1
55
  7
SLDTEXTSTYLE0
 11
-7.044195017643634E-15
 21
1.0
 31
0.0
 73
     1
 44
1.0
  0
ENDBLK
  5
142
330
140
100
AcDbEntity
  8
0
100
AcDbBlockEnd
  0
BLOCK
  5
14D
330
14C
100
AcDbEntity
  8
0
100
AcDbBlockBegin
  2
_D_4
 70
     0
 10
0.0
 20
0.0
 30
0.0
  3
_D_4
  1

  0
SOLID
  5
14F
330
14C
100
AcDbEntity
  8
VERMASSUNG
100
AcDbTrace
 10
144.201167696
 20
154.8869349592
 30
0.0
 11
147.201167696
 21
154.4369349592
 31
0.0
 12
147.201167696
 22
155.3369349592
 32
0.0
 13
147.201167696
 23
155.3369349592
 33
0.0
  0
SOLID
  5
150
330
14C
100
AcDbEntity
  8
VERMASSUNG
100
AcDbTrace
 10
244.201167696
 20
154.8869349592
 30
0.0
 11
241.201167696
 21
155.3369349592
 31
0.0
 12
241.201167696
 22
154.4369349592
 32
0.0
 13
241.201167696
 23
154.4369349592
 33
0.0
  0
LINE
  5
151
330
14C
100
AcDbEntity
  8
VERMASSUNG
100
AcDbLine
 10
144.201167696
 20
147.2264931711
 30
0.0
 11
144.201167696
 21
155.8869349592
 31
0.0
  0
LINE
  5
152
330
14C
100
AcDbEntity
  8
VERMASSUNG
100
AcDbLine
 10
244.201167696
 20
143.7264931711
 30
0.0
 11
244.201167696
 21
155.8869349592
 31
0.0
  0
LINE
  5
153
330
14C
100
AcDbEntity
  8
VERMASSUNG
100
AcDbLine
 10
144.201167696
 20
154.8869349592
 30
0.0
 11
244.201167696
 21
154.8869349592
 31
0.0
  0
MTEXT
  5
154
330
14C
100
AcDbEntity
  8
VERMASSUNG
100
AcDbMText
 10
192.301167664
 20
157.4650705552
 30
0.0
 40
2.0
 41
0.0
 71
     1
 72
     1
  1
100
  7
SLDTEXTSTYLE0
 73
     1
 44
1.0
  0
ENDBLK
  5
14E
330
14C
100
AcDbEntity
  8
0
100
AcDbBlockEnd
  0
ENDSEC
  0
SECTION
  2
ENTITIES
  0
MTEXT
  5
78
330
1F
100
AcDbEntity
  8
KOPF_DÜNN
100
AcDbMText
 10
13.8892156294
 20
23.8442973028
 30
0.0
 40
3.0
 41
0.0
 71
     1
 72
     1
  1
102.412.552
  7
SLDTEXTSTYLE0
 73
     1
 44
1.0
  0
MTEXT
  5
79
330
1F
100
AcDbEntity
  8
VERMASSUNG
100
AcDbMText
 10
13.9329988022
 20
28.8834360957
 30
0.0
 40
3.0
 41
0.0
 71
     1
 72
     1
  1
Aufnahme_Master shank MBM 55
  7
SLDTEXTSTYLE0
 73
     1
 44
1.0
  0
MTEXT
  5
7A
330
1F
100
AcDbEntity
  8
VERMASSUNG
100
AcDbMText
 10
98.8601118557
 20
13.8365368761
 30
0.0
 40
2.0
 41
0.0
 71
     1
 72
     1
  1
Datum: 22.11.2007
  7
SLDTEXTSTYLE0
 73
     1
 44
1.0
  0
MTEXT
  5
7C
330
1F
100
AcDbEntity
  8
VERMASSUNG
100
AcDbMText
 10
13.933048693
 20
18.0482802738
 30
0.0
 40
2.0
 41
0.0
 71
     1
 72
     1
  1
MAS BT 40 / MBM 55
  7
SLDTEXTSTYLE1
 73
     1
 44
1.0
  0
MTEXT
  5
7D
330
1F
100
AcDbEntity
  8
VERMASSUNG
100
AcDbMText
 10
13.9808475933
 20
13.9090974274
 30
0.0
 40
2.0
 41
0.0
 71
     1
 72
     1
  1
Gewicht: 2616g
  7
SLDTEXTSTYLE0
 73
     1
 44
1.0
  0
LINE
  5
7E
330
1F
100
AcDbEntity
  8
0
  6
Continuous
 62
     7
370
    15
100
AcDbLine
 10
141.2017862899
 20
85.2264931711
 30
0.0
 11
143.201167696
 21
85.2264931711
 31
0.0
  0
LINE
  5
7F
330
1F
100
AcDbEntity
  8
0
  6
Continuous
 62
     7
370
    15
100
AcDbLine
 10
143.201167696
 20
148.2264931711
 30
0.0
 11
141.200667526
 21
148.2264931711
 31
0.0
  0
ARC
  5
80
330
1F
100
AcDbEntity
  8
0
  6
Continuous
 62
     7
370
    15
100
AcDbCircle
 10
143.201167696
 20
86.2264931711
 30
0.0
 40
1.0
100
AcDbArc
 50
270.0
 51
0.0
  0
ARC
  5
81
330
1F
100
AcDbEntity
  8
0
  6
Continuous
 62
     7
370
    15
100
AcDbCircle
 10
143.201167696
 20
147.2264931711
 30
0.0
 40
1.0
100
AcDbArc
 50
0.0
 51
90.0
  0
ARC
  5
82
330
1F
100
AcDbEntity
  8
0
  6
Continuous
 62
     7
370
    15
100
AcDbCircle
 10
147.201167696
 20
86.2264931711
 30
0.0
 40
3.000000000000028
100
AcDbArc
 50
90.0
 51
180.0
  0
ARC
  5
83
330
1F
100
AcDbEntity
  8
0
  6
Continuous
 62
     7
370
    15
100
AcDbCircle
 10
147.201167696
 20
147.2264931711
 30
0.0
 40
3.000000000000028
100
AcDbArc
 50
180.0
 51
270.0
  0
LINE
  5
84
330
1F
100
AcDbEntity
  8
0
  6
Continuous
 62
     7
370
    15
100
AcDbLine
 10
147.201167696
 20
89.2264931711
 30
0.0
 11
243.701167696
 21
89.2264931711
 31
0.0
  0
LINE
  5
85
330
1F
100
AcDbEntity
  8
0
  6
Continuous
 62
     7
370
    15
100
AcDbLine
 10
243.701167696
 20
144.2264931711
 30
0.0
 11
147.201167696
 21
144.2264931711
 31
0.0
  0
LINE
  5
86
330
1F
100
AcDbEntity
  8
0
  6
Continuous
 62
     7
370
    15
100
AcDbLine
 10
243.701167696
 20
89.2264931711
 30
0.0
 11
244.201167696
 21
89.7264931711
 31
0.0
  0
LINE
  5
87
330
1F
100
AcDbEntity
  8
0
  6
Continuous
 62
     7
370
    15
100
AcDbLine
 10
244.201167696
 20
143.7264931711
 30
0.0
 11
243.701167696
 21
144.2264931711
 31
0.0
  0
ARC
  5
88
330
1F
100
AcDbEntity
  8
0
  6
Continuous
 62
     7
370
    15
100
AcDbCircle
 10
118.201167696
 20
93.5014931711
 30
0.0
 40
1.000000000000014
100
AcDbArc
 50
46.4276319692
 51
90.0
  0
ARC
  5
89
330
1F
100
AcDbEntity
  8
0
  6
Continuous
 62
     7
370
    15
100
AcDbCircle
 10
118.201167696
 20
139.9514931711
 30
0.0
 40
1.000000000000019
100
AcDbArc
 50
270.0
 51
313.53724077
  0
LINE
  5
8A
330
1F
100
AcDbEntity
  8
0
  6
Continuous
 62
     7
370
    15
100
AcDbLine
 10
117.201167696
 20
138.9514931711
 30
0.0
 11
52.656860803
 21
129.5387817492
 31
0.0
  0
LINE
  5
8B
330
1F
100
AcDbEntity
  8
0
  6
Continuous
 62
     7
370
    15
100
AcDbLine
 10
52.656860803
 20
103.914204593
 30
0.0
 11
117.201167696
 21
94.5014931711
 31
0.0
  0
LINE
  5
8C
330
1F
100
AcDbEntity
  8
0
  6
Continuous
 62
     7
370
    15
100
AcDbLine
 10
117.201167696
 20
94.5014931711
 30
0.0
 11
118.201167696
 21
94.5014931711
 31
0.0
  0
LINE
  5
8D
330
1F
100
AcDbEntity
  8
0
  6
Continuous
 62
     7
370
    15
100
AcDbLine
 10
118.201167696
 20
138.9514931711
 30
0.0
 11
117.201167696
 21
138.9514931711
 31
0.0
  0
ARC
  5
8E
330
1F
100
AcDbEntity
  8
0
  6
Continuous
 62
     7
370
    15
100
AcDbCircle
 10
52.801167696
 20
104.9037375741
 30
0.0
 40
1.000000000000009
100
AcDbArc
 50
180.0
 51
261.7028550302
  0
ARC
  5
8F
330
1F
100
AcDbEntity
  8
0
  6
Continuous
 62
     7
370
    15
100
AcDbCircle
 10
52.801167696
 20
128.5492487682
 30
0.0
 40
1.0
100
AcDbArc
 50
98.2971449698
 51
180.0
  0
SPLINE
  5
90
330
1F
100
AcDbEntity
  8
0
  6
Continuous
 62
     7
370
    15
100
AcDbSpline
210
0.0
220
0.0
230
1.0
 70
     8
 71
     3
 72
    11
 73
     7
 74
     0
 42
0.000000001
 43
0.00000001
 40
0.0
 40
0.0
 40
0.0
 40
0.0
 40
0.2488814606694497
 40
0.5011921284373979
 40
0.7520447562609068
 40
1.0
 40
1.0
 40
1.0
 40
1.0
 10
141.2006675260251
 20
148.2263434257208
 30
0.0
 10
141.1708891965387
 20
148.2172113995763
 30
0.0
 10
141.1109222375838
 20
148.1988215218894
 30
0.0
 10
140.6190001757902
 20
148.0547842734032
 30
0.0
 10
139.8909307531495
 20
147.8453811952932
 30
0.0
 10
139.1801872819849
 20
147.6731769259429
 30
0.0
 10
138.826879764851
 20
147.5875749256257
 30
0.0
  0
SPLINE
  5
91
330
1F
100
AcDbEntity
  8
0
  6
Continuous
 62
     7
370
    15
100
AcDbSpline
210
0.0
220
0.0
230
1.0
 70
     8
 71
     3
 72
    24
 73
    20
 74
     0
 42
0.000000001
 43
0.00000001
 40
0.0
 40
0.0
 40
0.0
 40
0.0
 40
0.0452526285779199
 40
0.0903797919997872
 40
0.1354297334762094
 40
0.1804509444415869
 40
0.2254920091019758
 40
0.2706014474912611
 40
0.3158275595596116
 40
0.361218272779684
 40
0.4068209956259345
 40
0.4526824790694493
 40
0.4988486879483424
 40
0.5834875413230236
 40
0.6672865896625026
 40
0.7505381947447017
 40
0.833540503368218
 40
0.9165943471357945
 40
1.0
 40
1.0
 40
1.0
 40
1.0
 10
138.8267863894598
 20
85.86539515159173
 30
0.0
 10
138.8944901313699
 20
85.84963611057188
 30
0.0
 10
139.0297099032092
 20
85.81816172125465
 30
0.0
 10
139.222371620065
 20
85.77170091791092
 30
0.0
 10
139.4071084917271
 20
85.72606993827556
 30
0.0
 10
139.583226433027
 20
85.68144464084088
 30
0.0
 10
139.7509102256448
 20
85.63795735424064
 30
0.0
 10
139.9101097099309
 20
85.59575630644707
 30
0.0
 10
140.0608378484312
 20
85.55498971412305
 30
0.0
 10
140.2030908017782
 20
85.51580996156913
 30
0.0
 10
140.3368695571663
 20
85.47837266957603
 30
0.0
 10
140.4621734668914
 20
85.4428360863366
 30
0.0
 10
140.6111525897931
 20
85.40015396048037
 30
0.0
 10
140.7718086882972
 20
85.3536772664621
 30
0.0
 10
140.9276320954862
 20
85.30804829364617
 30
0.0
 10
141.0492217202007
 20
85.27202955929319
 30
0.0
 10
141.1357309192191
 20
85.24613890768931
 30
0.0
 10
141.1902464424064
 20
85.22967419952779
 30
0.0
 10
141.1975156790729
 20
85.22755551696515
 30
0.0
 10
141.2011579791054
 20
85.22649393678542
 30
0.0
  0
LINE
  5
92
330
1F
100
AcDbEntity
  8
0
  6
Continuous
 62
     7
370
    15
100
AcDbLine
 10
138.826167696
 20
85.8653951516
 30
0.0
 11
138.826167696
 21
147.5875749256
 31
0.0
  0
SPLINE
  5
93
330
1F
100
AcDbEntity
  8
0
  6
Continuous
 62
     7
370
    15
100
AcDbSpline
210
0.0
220
0.0
230
1.0
 70
     8
 71
     3
 72
    10
 73
     6
 74
     0
 42
0.000000001
 43
0.00000001
 40
0.0
 40
0.0
 40
0.0
 40
0.0
 40
0.5
 40
0.5
 40
1.0
 40
1.0
 40
1.0
 40
1.0
 10
138.1777761000876
 20
146.6309538924814
 30
0.0
 10
137.8616722689482
 20
146.0110913342041
 30
0.0
 10
137.5318932246034
 20
145.3651905989053
 30
0.0
 10
136.8596699522146
 20
144.0507719586048
 30
0.0
 10
136.517536786284
 20
143.3828497315925
 30
0.0
 10
136.1703564577699
 20
142.7065119991111
 30
0.0
  0
SPLINE
  5
94
330
1F
100
AcDbEntity
  8
0
  6
Continuous
 62
     7
370
    15
100
AcDbSpline
210
0.0
220
0.0
230
1.0
 70
     8
 71
     3
 72
     9
 73
     5
 74
     0
 42
0.000000001
 43
0.00000001
 40
0.0
 40
0.0
 40
0.0
 40
0.0
 40
0.5067595796306674
 40
1.0
 40
1.0
 40
1.0
 40
1.0
 10
138.8267982390267
 20
147.5886282784762
 30
0.0
 10
138.7163978912447
 20
147.4265533401443
 30
0.0
 10
138.4985424185125
 20
147.1067272434182
 30
0.0
 10
138.2839493162984
 20
146.7883792637679
 30
0.0
 10
138.178103324354
 20
146.6313571724615
 30
0.0
  0
SPLINE
  5
95
330
1F
100
AcDbEntity
  8
0
  6
Continuous
 62
     7
370
    15
100
AcDbSpline
210
0.0
220
0.0
230
1.0
 70
     8
 71
     3
 72
     9
 73
     5
 74
     0
 42
0.000000001
 43
0.00000001
 40
0.0
 40
0.0
 40
0.0
 40
0.0
 40
0.4932426507672939
 40
1.0
 40
1.0
 40
1.0
 40
1.0
 10
138.1780894093311
 20
86.82162706942242
 30
0.0
 10
138.2839355144568
 20
86.66460382959504
 30
0.0
 10
138.4985278757641
 20
86.34625496097404
 30
0.0
 10
138.7163821637301
 20
86.02642891425783
 30
0.0
 10
138.8267814252188
 20
85.86435471460837
 30
0.0
  0
SPLINE
  5
96
330
1F
100
AcDbEntity
  8
0
  6
Continuous
 62
     7
370
    15
100
AcDbSpline
210
0.0
220
0.0
230
1.0
 70
     8
 71
     3
 72
    10
 73
     6
 74
     0
 42
0.000000001
 43
0.00000001
 40
0.0
 40
0.0
 40
0.0
 40
0.0
 40
0.5
 40
0.5
 40
1.0
 40
1.0
 40
1.0
 40
1.0
 10
138.1777701804198
 20
86.82204405792218
 30
0.0
 10
137.8615910777457
 20
87.44205420993589
 30
0.0
 10
137.5311488505787
 20
88.08925227580359
 30
0.0
 10
136.859437329896
 20
89.40266820039737
 30
0.0
 10
136.517463454864
 20
90.07027946670017
 30
0.0
 10
136.1703564577699
 20
90.74647434314333
 30
0.0
  0
LINE
  5
97
330
1F
100
AcDbEntity
  8
0
  6
Continuous
 62
     7
370
    15
100
AcDbLine
 10
128.776167696
 20
146.9628832741
 30
0.0
 11
120.201167696
 21
146.9628832741
 31
0.0
  0
LINE
  5
98
330
1F
100
AcDbEntity
  8
0
  6
Continuous
 62
     7
370
    15
100
AcDbLine
 10
128.776167696
 20
86.4901030681
 30
0.0
 11
128.776167696
 21
146.9628832741
 31
0.0
  0
LINE
  5
99
330
1F
100
AcDbEntity
  8
0
  6
Continuous
 62
     7
370
    15
100
AcDbLine
 10
120.201167696
 20
86.4901030681
 30
0.0
 11
128.776167696
 21
86.4901030681
 31
0.0
  0
LINE
  5
9A
330
1F
100
AcDbEntity
  8
0
  6
Continuous
 62
     7
370
    15
100
AcDbLine
 10
144.201167696
 20
86.2264931711
 30
0.0
 11
144.201167696
 21
147.2264931514
 31
0.0
  0
SPLINE
  5
9B
330
1F
100
AcDbEntity
  8
0
  6
Continuous
 62
     7
370
    15
100
AcDbSpline
210
0.0
220
0.0
230
1.0
 70
     8
 71
     3
 72
     8
 73
     4
 74
     0
 42
0.000000001
 43
0.00000001
 40
0.0
 40
0.0
 40
0.0
 40
0.0
 40
0.0012389803509652
 40
0.0012389803509652
 40
0.0012389803509652
 40
0.0012389803509652
 10
129.3337292395759
 20
146.1805158939137
 30
0.0
 10
129.1486092664431
 20
146.4415658752927
 30
0.0
 10
128.9627308186841
 20
146.7023474884116
 30
0.0
 10
128.7761676960421
 20
146.962883274129
 30
0.0
  0
SPLINE
  5
9C
330
1F
100
AcDbEntity
  8
0
  6
Continuous
 62
     7
370
    15
100
AcDbSpline
210
0.0
220
0.0
230
1.0
 70
     8
 71
     3
 72
     8
 73
     4
 74
     0
 42
0.000000001
 43
0.00000001
 40
0.0
 40
0.0
 40
0.0
 40
0.0
 40
1.0
 40
1.0
 40
1.0
 40
1.0
 10
131.4319789343144
 20
142.3937388355922
 30
0.0
 10
130.7356855682729
 20
143.657677203707
 30
0.0
 10
130.0358904030818
 20
144.9197326492153
 30
0.0
 10
129.3337292395759
 20
146.1805158939137
 30
0.0
  0
SPLINE
  5
9D
330
1F
100
AcDbEntity
  8
0
  6
Continuous
 62
     7
370
    15
100
AcDbSpline
210
0.0
220
0.0
230
1.0
 70
     8
 71
     3
 72
     8
 73
     4
 74
     0
 42
0.000000001
 43
0.00000001
 40
0.0
 40
0.0
 40
0.0
 40
0.0
 40
1.0
 40
1.0
 40
1.0
 40
1.0
 10
131.4319789343144
 20
91.05924750666213
 30
0.0
 10
130.7356607936564
 20
89.79526416671537
 30
0.0
 10
130.035863601546
 20
88.53320556886341
 30
0.0
 10
129.3337292395759
 20
87.27247044834073
 30
0.0
  0
SPLINE
  5
9E
330
1F
100
AcDbEntity
  8
0
  6
Continuous
 62
     7
370
    15
100
AcDbSpline
210
0.0
220
0.0
230
1.0
 70
     8
 71
     3
 72
     8
 73
     4
 74
     0
 42
0.000000001
 43
0.00000001
 40
0.0
 40
0.0
 40
0.0
 40
0.0
 40
0.0012389803509652
 40
0.0012389803509652
 40
0.0012389803509652
 40
0.0012389803509652
 10
128.7761676960421
 20
86.49010306812536
 30
0.0
 10
128.9627308186841
 20
86.75063885384273
 30
0.0
 10
129.1486092664431
 20
87.01142046696172
 30
0.0
 10
129.3337292395759
 20
87.27247044834073
 30
0.0
  0
LINE
  5
9F
330
1F
100
AcDbEntity
  8
0
  6
Continuous
 62
     7
370
    15
100
AcDbLine
 10
119.201167696
 20
87.6000876256
 30
0.0
 11
119.201167696
 21
145.8528987166
 31
0.0
  0
SPLINE
  5
A0
330
1F
100
AcDbEntity
  8
0
  6
Continuous
 62
     7
370
    15
100
AcDbSpline
210
0.0
220
0.0
230
1.0
 70
     8
 71
     3
 72
    12
 73
     8
 74
     0
 42
0.000000001
 43
0.00000001
 40
0.0
 40
0.0
 40
0.0
 40
0.0
 40
0.2499999999999997
 40
0.2499999999999997
 40
0.4999999999999993
 40
0.4999999999999993
 40
1.0
 40
1.0
 40
1.0
 40
1.0
 10
119.5882005190077
 20
146.7934830709481
 30
0.0
 10
119.5363397678196
 20
146.7366704986338
 30
0.0
 10
119.4876079708006
 20
146.6746783123819
 30
0.0
 10
119.3974349608832
 20
146.538625239258
 30
0.0
 10
119.3556577125983
 20
146.4637191366592
 30
0.0
 10
119.2495688427523
 20
146.2255925013618
 30
0.0
 10
119.2011676960421
 20
146.0421857697931
 30
0.0
 10
119.2011676960421
 20
145.8528987166112
 30
0.0
  0
SPLINE
  5
A1
330
1F
100
AcDbEntity
  8
0
  6
Continuous
 62
     7
370
    15
100
AcDbSpline
210
0.0
220
0.0
230
1.0
 70
     8
 71
     3
 72
     8
 73
     4
 74
     0
 42
0.000000001
 43
0.00000001
 40
0.0
 40
0.0
 40
0.0
 40
0.0
 40
1.0
 40
1.0
 40
1.0
 40
1.0
 10
120.2011676960421
 20
146.962883274129
 30
0.0
 10
119.9748233824423
 20
146.962883274129
 30
0.0
 10
119.7573712620371
 20
146.8995148051082
 30
0.0
 10
119.5882005190077
 20
146.7934830709481
 30
0.0
  0
SPLINE
  5
A2
330
1F
100
AcDbEntity
  8
0
  6
Continuous
 62
     7
370
    15
100
AcDbSpline
210
0.0
220
0.0
230
1.0
 70
     8
 71
     3
 72
     8
 73
     4
 74
     0
 42
0.000000001
 43
0.00000001
 40
0.0
 40
0.0
 40
0.0
 40
0.0
 40
1.0
 40
1.0
 40
1.0
 40
1.0
 10
119.5882005190077
 20
86.65950327130625
 30
0.0
 10
119.7577940246596
 20
86.55320656074905
 30
0.0
 10
119.9741627169929
 20
86.49010306812535
 30
0.0
 10
120.2011676960421
 20
86.49010306812535
 30
0.0
  0
SPLINE
  5
A3
330
1F
100
AcDbEntity
  8
0
  6
Continuous
 62
     7
370
    15
100
AcDbSpline
210
0.0
220
0.0
230
1.0
 70
     8
 71
     3
 72
    12
 73
     8
 74
     0
 42
0.000000001
 43
0.00000001
 40
0.0
 40
0.0
 40
0.0
 40
0.0
 40
0.2500000000000004
 40
0.2500000000000004
 40
0.5000000000000009
 40
0.5000000000000009
 40
1.0
 40
1.0
 40
1.0
 40
1.0
 10
119.5882005190077
 20
86.65950327130625
 30
0.0
 10
119.5363397678196
 20
86.71631584362063
 30
0.0
 10
119.4876079708006
 20
86.77830802987245
 30
0.0
 10
119.3974349608832
 20
86.91436110299644
 30
0.0
 10
119.3556577125983
 20
86.98926720559517
 30
0.0
 10
119.2495688427523
 20
87.22739384089256
 30
0.0
 10
119.2011676960421
 20
87.41080057246134
 30
0.0
 10
119.2011676960421
 20
87.60008762564321
 30
0.0
  0
LINE
  5
A4
330
1F
100
AcDbEntity
  8
0
  6
Continuous
 62
     7
370
    15
100
AcDbLine
 10
243.701167696
 20
89.2264931711
 30
0.0
 11
243.701167696
 21
144.2264931711
 31
0.0
  0
SPLINE
  5
A5
330
1F
100
AcDbEntity
  8
0
  6
Continuous
 62
     7
370
    15
100
AcDbSpline
210
0.0
220
0.0
230
1.0
 70
     8
 71
     3
 72
    48
 73
    44
 74
     0
 42
0.000000001
 43
0.00000001
 40
0.0
 40
0.0
 40
0.0
 40
0.0
 40
0.0312499999999993
 40
0.0312499999999993
 40
0.0624999999999986
 40
0.0624999999999986
 40
0.1249999999999971
 40
0.1249999999999971
 40
0.1562499999999963
 40
0.1562499999999963
 40
0.1874999999999956
 40
0.1874999999999956
 40
0.2187499999999949
 40
0.2187499999999949
 40
0.2499999999999942
 40
0.2499999999999942
 40
0.312499999999993
 40
0.312499999999993
 40
0.3437499999999932
 40
0.3437499999999932
 40
0.3749999999999934
 40
0.3749999999999934
 40
0.4374999999999939
 40
0.4374999999999939
 40
0.4999999999999943
 40
0.4999999999999943
 40
0.5624999999999948
 40
0.5624999999999948
 40
0.6249999999999952
 40
0.6249999999999952
 40
0.6874999999999957
 40
0.6874999999999957
 40
0.7499999999999961
 40
0.7499999999999961
 40
0.8124999999999966
 40
0.8124999999999966
 40
0.874999999999997
 40
0.874999999999997
 40
0.9062499999999976
 40
0.9062499999999976
 40
0.9374999999999982
 40
0.9374999999999982
 40
1.0
 40
1.0
 40
1.0
 40
1.0
 10
236.9011676960421
 20
116.7264931711272
 30
0.0
 10
236.9011676960422
 20
116.5021953120303
 30
0.0
 10
236.8880496292174
 20
116.2780546704699
 30
0.0
 10
236.8352701935511
 20
115.8300913080615
 30
0.0
 10
236.7951778978942
 20
115.604848809112
 30
0.0
 10
236.6375716873285
 20
114.9450991556291
 30
0.0
 10
236.4835519340008
 20
114.5236375347995
 30
0.0
 10
236.1831526736027
 20
113.9172920298265
 30
0.0
 10
236.07100211007
 20
113.7192454840939
 30
0.0
 10
235.8289450836887
 20
113.3402973017869
 30
0.0
 10
235.6985233761029
 20
113.1582226237899
 30
0.0
 10
235.4197447640009
 20
112.8081145543179
 30
0.0
 10
235.2713849961147
 20
112.6400835702042
 30
0.0
 10
234.9569684571134
 20
112.3177833790819
 30
0.0
 10
234.7908059586443
 20
112.1636114443105
 30
0.0
 10
234.2760866176921
 20
111.7299417251713
 30
0.0
 10
233.9084075292941
 20
111.4756893272414
 30
0.0
 10
233.3216345146547
 20
111.1436771619409
 30
0.0
 10
233.1191660267826
 20
111.0409139240258
 30
0.0
 10
232.7085749269604
 20
110.8549775399424
 30
0.0
 10
232.500204635151
 20
110.7715452865967
 30
0.0
 10
231.8661591180733
 20
110.5487943948225
 30
0.0
 10
231.431622356529
 20
110.4367868616261
 30
0.0
 10
230.538516267285
 20
110.2862201186873
 30
0.0
 10
230.0869075583326
 20
110.2493095011381
 30
0.0
 10
229.1900736662122
 20
110.2507225507242
 30
0.0
 10
228.7422808206861
 20
110.2885889284736
 30
0.0
 10
227.8479948028753
 20
110.4419431958866
 30
0.0
 10
227.4122937897777
 20
110.5557838569231
 30
0.0
 10
226.5700931559785
 20
110.854540972544
 30
0.0
 10
226.162390288015
 20
111.0396111446972
 30
0.0
 10
225.3757258325756
 20
111.4873022258909
 30
0.0
 10
225.0093745331053
 20
111.7427607742007
 30
0.0
 10
224.3304796388412
 20
112.317605851088
 30
0.0
 10
224.0163971289341
 20
112.6387723461335
 30
0.0
 10
223.4551455017888
 20
113.3462618119273
 30
0.0
 10
223.2153976466152
 20
113.7225627297395
 30
0.0
 10
222.9187382467583
 20
114.3221464883913
 30
0.0
 10
222.8304240749509
 20
114.5279057959209
 30
0.0
 10
222.6763100532566
 20
114.9520375795422
 30
0.0
 10
222.6105001294487
 20
115.1712813032656
 30
0.0
 10
222.4539658927708
 20
115.8294881251261
 30
0.0
 10
222.4011676960422
 20
116.2747012226048
 30
0.0
 10
222.4011676960421
 20
116.7264931711272
 30
0.0
  0
SPLINE
  5
A6
330
1F
100
AcDbEntity
  8
0
  6
Continuous
 62
     7
370
    15
100
AcDbSpline
210
0.0
220
0.0
230
1.0
 70
     8
 71
     3
 72
    52
 73
    48
 74
     0
 42
0.000000001
 43
0.00000001
 40
0.0
 40
0.0
 40
0.0
 40
0.0
 40
0.0312500000000006
 40
0.0312500000000006
 40
0.0625000000000013
 40
0.0625000000000013
 40
0.0937500000000019
 40
0.0937500000000019
 40
0.1250000000000026
 40
0.1250000000000026
 40
0.187500000000003
 40
0.187500000000003
 40
0.2500000000000034
 40
0.2500000000000034
 40
0.3125000000000039
 40
0.3125000000000039
 40
0.3750000000000043
 40
0.3750000000000043
 40
0.4375000000000048
 40
0.4375000000000048
 40
0.4687500000000051
 40
0.4687500000000051
 40
0.5000000000000053
 40
0.5000000000000053
 40
0.5625000000000038
 40
0.5625000000000038
 40
0.593750000000004
 40
0.593750000000004
 40
0.6250000000000042
 40
0.6250000000000042
 40
0.6875000000000047
 40
0.6875000000000047
 40
0.7187500000000049
 40
0.7187500000000049
 40
0.750000000000005
 40
0.750000000000005
 40
0.8125000000000041
 40
0.8125000000000041
 40
0.8437500000000031
 40
0.8437500000000031
 40
0.875000000000002
 40
0.875000000000002
 40
0.9375000000000008
 40
0.9375000000000008
 40
0.9687500000000003
 40
0.9687500000000003
 40
1.0
 40
1.0
 40
1.0
 40
1.0
 10
222.4011676960421
 20
116.7264931711272
 30
0.0
 10
222.4011676960421
 20
116.952432808275
 30
0.0
 10
222.4147650765502
 20
117.1814414753164
 30
0.0
 10
222.4683261634208
 20
117.6310746877277
 30
0.0
 10
222.508122290397
 20
117.8527320188878
 30
0.0
 10
222.6128382700961
 20
118.2899597848822
 30
0.0
 10
222.6777603978877
 20
118.5055296496413
 30
0.0
 10
222.8326557155627
 20
118.930618523261
 30
0.0
 10
222.9229103197074
 20
119.1402893694201
 30
0.0
 10
223.2239429134947
 20
119.7455718056652
 30
0.0
 10
223.4663522474733
 20
120.12300706064
 30
0.0
 10
224.0300221510772
 20
120.8291359995961
 30
0.0
 10
224.3474670806869
 20
121.1523136928651
 30
0.0
 10
225.0403490479158
 20
121.7337203094988
 30
0.0
 10
225.4098086872604
 20
121.9873028259763
 30
0.0
 10
226.1867259044912
 20
122.4248285810934
 30
0.0
 10
226.5962018691319
 20
122.6097172941878
 30
0.0
 10
227.4500470559539
 20
122.9084282255821
 30
0.0
 10
227.8846299857342
 20
123.0190751937529
 30
0.0
 10
228.5474862261906
 20
123.1300219868174
 30
0.0
 10
228.7702807663122
 20
123.1577689924207
 30
0.0
 10
229.2196087140237
 20
123.1945630616655
 30
0.0
 10
229.447213695836
 20
123.2035676436593
 30
0.0
 10
230.1250315075337
 20
123.2017155108978
 30
0.0
 10
230.5715420745205
 20
123.1627492556065
 30
0.0
 10
231.233430886629
 20
123.0487613044305
 30
0.0
 10
231.4527398683854
 20
123.0014508609914
 30
0.0
 10
231.88864825221
 20
122.88764903761
 30
0.0
 10
232.1060502951454
 20
122.8207970838256
 30
0.0
 10
232.7419351821198
 20
122.5945556640523
 30
0.0
 10
233.1476074774633
 20
122.4091470238509
 30
0.0
 10
233.7286269186708
 20
122.078289448636
 30
0.0
 10
233.9176888291913
 20
121.9591544413633
 30
0.0
 10
234.2861657387476
 20
121.7022374381705
 30
0.0
 10
234.4658995024438
 20
121.5640207995901
 30
0.0
 10
234.9781292116692
 20
121.1296025327478
 30
0.0
 10
235.2880634138256
 20
120.8112593045173
 30
0.0
 10
235.7034625034919
 20
120.2880377834167
 30
0.0
 10
235.8336186797431
 20
120.1059580925175
 30
0.0
 10
236.0760664166551
 20
119.7252028231242
 30
0.0
 10
236.1873580423279
 20
119.5277938463309
 30
0.0
 10
236.4848324647242
 20
118.9255590813096
 30
0.0
 10
236.6378183274831
 20
118.5065879312407
 30
0.0
 10
236.7947740532111
 20
117.8499610973075
 30
0.0
 10
236.8350203469736
 20
117.624650590026
 30
0.0
 10
236.888045159376
 20
117.1753328686022
 30
0.0
 10
236.9011676960422
 20
116.9508343842148
 30
0.0
 10
236.9011676960421
 20
116.7264931711272
 30
0.0
  0
LINE
  5
A7
330
1F
100
AcDbEntity
  8
0
  6
Continuous
 62
     7
370
    15
100
AcDbLine
 10
244.201167696
 20
89.7264931711
 30
0.0
 11
244.201167696
 21
143.7264931711
 31
0.0
  0
SPLINE
  5
A8
330
1F
100
AcDbEntity
  8
0
  6
Continuous
 62
     7
370
    15
100
AcDbSpline
210
0.0
220
0.0
230
1.0
 70
     8
 71
     3
 72
    10
 73
     6
 74
     0
 42
0.000000001
 43
0.00000001
 40
0.0
 40
0.0
 40
0.0
 40
0.0
 40
0.5
 40
0.5
 40
1.0
 40
1.0
 40
1.0
 40
1.0
 10
132.1247992573419
 20
141.9742158407067
 30
0.0
 10
131.982781944895
 20
141.9742158407067
 30
0.0
 10
131.8423348980327
 20
142.0147056929162
 30
0.0
 10
131.6007449787714
 20
142.1626415228554
 30
0.0
 10
131.5000675365181
 20
142.2701417988349
 30
0.0
 10
131.4319789343145
 20
142.393738835592
 30
0.0
  0
SPLINE
  5
A9
330
1F
100
AcDbEntity
  8
0
  6
Continuous
 62
     7
370
    15
100
AcDbSpline
210
0.0
220
0.0
230
1.0
 70
     8
 71
     3
 72
    10
 73
     6
 74
     0
 42
0.000000001
 43
0.00000001
 40
0.0
 40
0.0
 40
0.0
 40
0.0
 40
0.5
 40
0.5
 40
1.0
 40
1.0
 40
1.0
 40
1.0
 10
132.1247992573419
 20
91.47877050154767
 30
0.0
 10
131.9839418928313
 20
91.47877050154767
 30
0.0
 10
131.8411077613571
 20
91.43766659572897
 30
0.0
 10
131.6008460705838
 20
91.29026870242801
 30
0.0
 10
131.5001398015043
 20
91.18297572158838
 30
0.0
 10
131.4319789343144
 20
91.05924750666215
 30
0.0
  0
SPLINE
  5
AA
330
1F
100
AcDbEntity
  8
0
  6
Continuous
 62
     7
370
    15
100
AcDbSpline
210
0.0
220
0.0
230
1.0
 70
     8
 71
     3
 72
    12
 73
     8
 74
     0
 42
0.000000001
 43
0.00000001
 40
0.0
 40
0.0
 40
0.0
 40
0.0
 40
0.2499999999999998
 40
0.2499999999999998
 40
0.4999999999999996
 40
0.4999999999999996
 40
1.0
 40
1.0
 40
1.0
 40
1.0
 10
136.1703564577699
 20
142.7065119991111
 30
0.0
 10
136.1344523074333
 20
142.6365675649629
 30
0.0
 10
136.0919207553038
 20
142.5733162019051
 30
0.0
 10
135.9951264784638
 20
142.4582575469892
 30
0.0
 10
135.9400368001995
 20
142.4059290132772
 30
0.0
 10
135.7619035666456
 20
142.2721441101921
 30
0.0
 10
135.624526474643
 20
142.2115963430339
 30
0.0
 10
135.477536134743
 20
142.19239639465
 30
0.0
  0
SPLINE
  5
AB
330
1F
100
AcDbEntity
  8
0
  6
Continuous
 62
     7
370
    15
100
AcDbSpline
210
0.0
220
0.0
230
1.0
 70
     8
 71
     3
 72
    12
 73
     8
 74
     0
 42
0.000000001
 43
0.00000001
 40
0.0
 40
0.0
 40
0.0
 40
0.0
 40
0.2500000000000005
 40
0.2500000000000005
 40
0.500000000000001
 40
0.500000000000001
 40
1.0
 40
1.0
 40
1.0
 40
1.0
 10
136.1703564577699
 20
90.74647434314332
 30
0.0
 10
136.1344523074333
 20
90.81641877729146
 30
0.0
 10
136.0919207553038
 20
90.8796701403493
 30
0.0
 10
135.9951264784638
 20
90.99472879526526
 30
0.0
 10
135.9400368001995
 20
91.0470573289772
 30
0.0
 10
135.7619035666456
 20
91.1808422320623
 30
0.0
 10
135.624526474643
 20
91.24138999922046
 30
0.0
 10
135.477536134743
 20
91.26058994760434
 30
0.0
  0
LINE
  5
AC
330
1F
100
AcDbEntity
  8
0
  6
Continuous
 62
     7
370
    15
100
AcDbLine
 10
132.151167696
 20
91.4787705015
 30
0.0
 11
132.1247992573
 21
91.4787705015
 31
0.0
  0
LINE
  5
AD
330
1F
100
AcDbEntity
  8
0
  6
Continuous
 62
     7
370
    15
100
AcDbLine
 10
132.151167696
 20
141.9742158407
 30
0.0
 11
132.1247992573
 21
141.9742158407
 31
0.0
  0
SPLINE
  5
AE
330
1F
100
AcDbEntity
  8
0
  6
Continuous
 62
     7
370
    15
100
AcDbSpline
210
0.0
220
0.0
230
1.0
 70
     8
 71
     3
 72
    10
 73
     6
 74
     0
 42
0.000000001
 43
0.00000001
 40
0.0
 40
0.0
 40
0.0
 40
0.0
 40
0.5
 40
0.5
 40
1.0
 40
1.0
 40
1.0
 40
1.0
 10
135.4775361347423
 20
142.192396394653
 30
0.0
 10
134.9556214103464
 20
142.1242236441448
 30
0.0
 10
134.416770230237
 20
142.0696003791869
 30
0.0
 10
133.3054075882049
 20
141.9945045262955
 30
0.0
 10
132.7285668110089
 20
141.9742158407067
 30
0.0
 10
132.1511676960421
 20
141.9742158407067
 30
0.0
  0
SPLINE
  5
AF
330
1F
100
AcDbEntity
  8
0
  6
Continuous
 62
     7
370
    15
100
AcDbSpline
210
0.0
220
0.0
230
1.0
 70
     8
 71
     3
 72
    10
 73
     6
 74
     0
 42
0.000000001
 43
0.00000001
 40
0.0
 40
0.0
 40
0.0
 40
0.0
 40
0.5
 40
0.5
 40
1.0
 40
1.0
 40
1.0
 40
1.0
 10
135.4775361347423
 20
91.26058994760142
 30
0.0
 10
134.9556214103464
 20
91.32876269810963
 30
0.0
 10
134.416770230237
 20
91.38338596306755
 30
0.0
 10
133.3054075882049
 20
91.4584818159589
 30
0.0
 10
132.7285668110089
 20
91.47877050154769
 30
0.0
 10
132.1511676960421
 20
91.47877050154769
 30
0.0
  0
SPLINE
  5
B0
330
1F
100
AcDbEntity
  8
0
  6
Continuous
 62
     7
370
    15
100
AcDbSpline
210
0.0
220
0.0
230
1.0
 70
     8
 71
     3
 72
     9
 73
     5
 74
     0
 42
0.000000001
 43
0.00000001
 40
0.0
 40
0.0
 40
0.0
 40
0.0
 40
0.999988394080397
 40
1.0
 40
1.0
 40
1.0
 40
1.0
 10
118.9802002533578
 20
139.2264931711272
 30
0.0
 10
118.9207227069224
 20
139.2264931710306
 30
0.0
 10
118.8612444701873
 20
139.226493170934
 30
0.0
 10
118.8899172272755
 20
139.2264931711272
 30
0.0
 10
118.8899175600492
 20
139.2264931711272
 30
0.0
  0
LINE
  5
B1
330
1F
100
AcDbEntity
  8
0
  6
Continuous
 62
     7
370
    15
100
AcDbLine
 10
118.8899176398
 20
94.2264931711
 30
0.0
 11
118.9704266883
 21
94.2264931711
 31
0.0
  0
LINE
  5
B2
330
1F
100
AcDbEntity
  8
0
  6
Continuous
 62
     7
370
    15
100
AcDbLine
 10
117.201167696
 20
94.5014931711
 30
0.0
 11
117.201167696
 21
138.9514931711
 31
0.0
  0
LINE
  5
B3
330
1F
100
AcDbEntity
  8
0
  6
Continuous
 62
     7
370
    15
100
AcDbLine
 10
51.801167696
 20
104.9037375741
 30
0.0
 11
51.801167696
 21
128.5492487682
 31
0.0
  0
SPLINE
  5
B4
330
1F
100
AcDbEntity
  8
0
  6
Continuous
 62
     7
370
    15
100
AcDbSpline
210
0.0
220
0.0
230
1.0
 70
    24
 71
     3
 72
    11
 73
     7
 74
     0
 42
0.000000001
 43
0.00000001
 40
0.0
 40
0.0
 40
0.0
 40
0.0
 40
0.1336647920874057
 40
0.4825473608259797
 40
0.8156356561503854
 40
1.0
 40
1.0
 40
1.0
 40
1.0
 10
231.383218503611
 20
113.7264931711272
 30
0.0
 10
231.2380968253831
 20
113.7264931711272
 30
0.0
 10
230.7141886089119
 20
113.7264931711272
 30
0.0
 10
229.7354646545421
 20
113.7264931711272
 30
0.0
 10
228.6843255058257
 20
113.7264931711272
 30
0.0
 10
228.1201339457101
 20
113.7264931711272
 30
0.0
 10
227.9191168884733
 20
113.7264931711272
 30
0.0
  0
SPLINE
  5
B5
330
1F
100
AcDbEntity
  8
0
  6
Continuous
 62
     7
370
    15
100
AcDbSpline
210
0.0
220
0.0
230
1.0
 70
    24
 71
     3
 72
    11
 73
     7
 74
     0
 42
0.000000001
 43
0.00000001
 40
0.0
 40
0.0
 40
0.0
 40
0.0
 40
0.2164553779443458
 40
0.4403112895790558
 40
0.7519005688038765
 40
1.0
 40
1.0
 40
1.0
 40
1.0
 10
233.1152693111799
 20
116.7264931711272
 30
0.0
 10
232.9966221526598
 20
116.5209902643967
 30
0.0
 10
232.7552713307536
 20
116.1029583784067
 30
0.0
 10
232.3073886661013
 20
115.3272028473995
 30
0.0
 10
231.8269541675184
 20
114.495065886145
 30
0.0
 10
231.5195049383146
 20
113.9625482004163
 30
0.0
 10
231.383218503611
 20
113.7264931711272
 30
0.0
  0
SPLINE
  5
B6
330
1F
100
AcDbEntity
  8
0
  6
Continuous
 62
     7
370
    15
100
AcDbSpline
210
0.0
220
0.0
230
1.0
 70
    24
 71
     3
 72
    11
 73
     7
 74
     0
 42
0.000000001
 43
0.00000001
 40
0.0
 40
0.0
 40
0.0
 40
0.0
 40
0.2164553779443446
 40
0.4403112895790549
 40
0.7519005688038765
 40
1.0
 40
1.0
 40
1.0
 40
1.0
 10
231.383218503611
 20
119.7264931711272
 30
0.0
 10
231.5018656621311
 20
119.5209902643967
 30
0.0
 10
231.7432164840372
 20
119.1029583784067
 30
0.0
 10
232.1910991486896
 20
118.3272028473995
 30
0.0
 10
232.6715336472726
 20
117.495065886145
 30
0.0
 10
232.9789828764763
 20
116.9625482004163
 30
0.0
 10
233.1152693111799
 20
116.7264931711272
 30
0.0
  0
SPLINE
  5
B7
330
1F
100
AcDbEntity
  8
0
  6
Continuous
 62
     7
370
    15
100
AcDbSpline
210
0.0
220
0.0
230
1.0
 70
    24
 71
     3
 72
    11
 73
     7
 74
     0
 42
0.000000001
 43
0.00000001
 40
0.0
 40
0.0
 40
0.0
 40
0.0
 40
0.1843643438496109
 40
0.5174526391740203
 40
0.8663352079125943
 40
1.0
 40
1.0
 40
1.0
 40
1.0
 10
227.9191168884733
 20
119.7264931711272
 30
0.0
 10
228.1201339457101
 20
119.7264931711272
 30
0.0
 10
228.6843255058257
 20
119.7264931711272
 30
0.0
 10
229.7354646545421
 20
119.7264931711272
 30
0.0
 10
230.7141886089119
 20
119.7264931711272
 30
0.0
 10
231.2380968253831
 20
119.7264931711272
 30
0.0
 10
231.383218503611
 20
119.7264931711272
 30
0.0
  0
SPLINE
  5
B8
330
1F
100
AcDbEntity
  8
0
  6
Continuous
 62
     7
370
    15
100
AcDbSpline
210
0.0
220
0.0
230
1.0
 70
    24
 71
     3
 72
    11
 73
     7
 74
     0
 42
0.000000001
 43
0.00000001
 40
0.0
 40
0.0
 40
0.0
 40
0.0
 40
0.2164553779443448
 40
0.4403112895790566
 40
0.7519005688038765
 40
1.0
 40
1.0
 40
1.0
 40
1.0
 10
227.9191168884732
 20
113.7264931711272
 30
0.0
 10
227.8004697299532
 20
113.9319960778577
 30
0.0
 10
227.5591189080469
 20
114.3500279638477
 30
0.0
 10
227.1112362433947
 20
115.1257834948549
 30
0.0
 10
226.6308017448117
 20
115.9579204561094
 30
0.0
 10
226.323352515608
 20
116.4904381418381
 30
0.0
 10
226.1870660809044
 20
116.7264931711272
 30
0.0
  0
CIRCLE
  5
B9
330
1F
100
AcDbEntity
  8
0
  6
Continuous
 62
     7
370
    15
100
AcDbCircle
 10
229.651167696
 20
116.7264931711
 30
0.0
 40
3.500000000000014
  0
SPLINE
  5
BA
330
1F
100
AcDbEntity
  8
0
  6
Continuous
 62
     7
370
    15
100
AcDbSpline
210
0.0
220
0.0
230
1.0
 70
    24
 71
     3
 72
    11
 73
     7
 74
     0
 42
0.000000001
 43
0.00000001
 40
0.0
 40
0.0
 40
0.0
 40
0.0
 40
0.2164553779443451
 40
0.4403112895790564
 40
0.7519005688038773
 40
1.0
 40
1.0
 40
1.0
 40
1.0
 10
226.1870660809044
 20
116.7264931711272
 30
0.0
 10
226.3057132394245
 20
116.9319960778577
 30
0.0
 10
226.5470640613306
 20
117.3500279638477
 30
0.0
 10
226.994946725983
 20
118.1257834948549
 30
0.0
 10
227.4753812245659
 20
118.9579204561094
 30
0.0
 10
227.7828304537696
 20
119.4904381418381
 30
0.0
 10
227.9191168884733
 20
119.7264931711272
 30
0.0
  0
CIRCLE
  5
BB
330
1F
100
AcDbEntity
  8
0
  6
Continuous
 62
     7
370
    15
100
AcDbCircle
 10
229.651167696
 20
116.7264931711
 30
0.0
 40
5.500000000000014
  0
CIRCLE
  5
BC
330
1F
100
AcDbEntity
  8
0
  6
Continuous
 62
     7
370
    15
100
AcDbCircle
 10
229.651167696
 20
116.7264931711
 30
0.0
 40
6.000000000000014
  0
ARC
  5
BD
330
1F
100
AcDbEntity
  8
0
  6
Continuous
 62
     7
370
    15
100
AcDbCircle
 10
229.651167696
 20
116.7264931711
 30
0.0
 40
3.000000000000032
100
AcDbArc
 50
150.0
 51
210.0
  0
ARC
  5
BE
330
1F
100
AcDbEntity
  8
0
  6
Continuous
 62
     7
370
    15
100
AcDbCircle
 10
229.651167696
 20
116.7264931711
 30
0.0
 40
2.999999999999983
100
AcDbArc
 50
330.0
 51
30.0
  0
ARC
  5
BF
330
1F
100
AcDbEntity
  8
0
  6
Continuous
 62
     7
370
    15
100
AcDbCircle
 10
229.651167696
 20
116.7264931711
 30
0.0
 40
3.0
100
AcDbArc
 50
90.0
 51
150.0
  0
ARC
  5
C0
330
1F
100
AcDbEntity
  8
0
  6
Continuous
 62
     7
370
    15
100
AcDbCircle
 10
229.651167696
 20
116.7264931711
 30
0.0
 40
3.0
100
AcDbArc
 50
30.0
 51
90.0
  0
ARC
  5
C1
330
1F
100
AcDbEntity
  8
0
  6
Continuous
 62
     7
370
    15
100
AcDbCircle
 10
229.651167696
 20
116.7264931711
 30
0.0
 40
3.000000000000014
100
AcDbArc
 50
270.0
 51
330.0
  0
ARC
  5
C2
330
1F
100
AcDbEntity
  8
0
  6
Continuous
 62
     7
370
    15
100
AcDbCircle
 10
229.651167696
 20
116.7264931711
 30
0.0
 40
3.000000000000032
100
AcDbArc
 50
210.0
 51
270.0
  0
SPLINE
  5
C3
330
1F
100
AcDbEntity
  8
0
  6
HIDDEN
 62
     7
370
     0
100
AcDbSpline
210
0.0
220
0.0
230
1.0
 70
     8
 71
     3
 72
    17
 73
    13
 74
     0
 42
0.000000001
 43
0.00000001
 40
0.0
 40
0.0
 40
0.0
 40
0.0
 40
0.0009813126920742
 40
0.001002033598443
 40
0.2502032402186956
 40
0.5024387435752413
 40
0.5867805814958951
 40
0.6701656695096343
 40
0.7528827247070328
 40
0.8352274922509455
 40
0.9174997331726163
 40
0.9999999999999999
 40
0.9999999999999999
 40
0.9999999999999999
 40
0.9999999999999999
 10
141.2011579791054
 20
85.22649393678542
 30
0.0
 10
141.2011619150106
 20
85.22649356014404
 30
0.0
 10
141.2011659340243
 20
85.22649317554968
 30
0.0
 10
141.2017866677377
 20
85.22649206657192
 30
0.0
 10
141.0976416378673
 20
85.2587086786703
 30
0.0
 10
140.7291570945421
 20
85.36706984893452
 30
0.0
 10
140.3625445178708
 20
85.47190052554917
 30
0.0
 10
140.1130129877392
 20
85.54159323056099
 30
0.0
 10
139.8352271937711
 20
85.61673493941166
 30
0.0
 10
139.5285674191191
 20
85.69639993301442
 30
0.0
 10
139.1953805859524
 20
85.77954911444782
 30
0.0
 10
138.9503831438789
 20
85.83686159667653
 30
0.0
 10
138.8277148989197
 20
85.8655574946816
 30
0.0
  0
LINE
  5
C4
330
1F
100
AcDbEntity
  8
0
  6
HIDDEN
 62
     7
370
     0
100
AcDbLine
 10
243.651167696
 20
135.8930344737
 30
0.0
 11
243.651167696
 21
139.0470143648
 31
0.0
  0
LINE
  5
C5
330
1F
100
AcDbEntity
  8
0
  6
HIDDEN
 62
     7
370
     0
100
AcDbLine
 10
243.651167696
 20
100.8670662087
 30
0.0
 11
243.651167696
 21
132.5859201336
 31
0.0
  0
LINE
  5
C6
330
1F
100
AcDbEntity
  8
0
  6
HIDDEN
 62
     7
370
     0
100
AcDbLine
 10
243.651167696
 20
94.4059719774
 30
0.0
 11
243.651167696
 21
97.5599518686
 31
0.0
  0
LINE
  5
C7
330
1F
100
AcDbEntity
  8
0
  6
HIDDEN
 62
     7
370
     0
100
AcDbLine
 10
239.651167696
 20
107.5260855715
 30
0.0
 11
239.651167696
 21
125.9269007708
 31
0.0
  0
LINE
  5
C8
330
1F
100
AcDbEntity
  8
0
  6
HIDDEN
 62
     7
370
     0
100
AcDbLine
 10
243.651167696
 20
135.8930344737
 30
0.0
 11
243.651167696
 21
135.7532308593
 31
0.0
  0
LINE
  5
C9
330
1F
100
AcDbEntity
  8
0
  6
HIDDEN
 62
     7
370
     0
100
AcDbLine
 10
239.651167696
 20
135.7532308593
 30
0.0
 11
243.651167696
 21
135.7532308593
 31
0.0
  0
LINE
  5
CA
330
1F
100
AcDbEntity
  8
0
  6
HIDDEN
 62
     7
370
     0
100
AcDbLine
 10
239.651167696
 20
135.9264931711
 30
0.0
 11
239.651167696
 21
130.7264931711
 31
0.0
  0
LINE
  5
CB
330
1F
100
AcDbEntity
  8
0
  6
HIDDEN
 62
     7
370
     0
100
AcDbLine
 10
239.651167696
 20
125.9269007708
 30
0.0
 11
243.651167696
 21
125.9269007708
 31
0.0
  0
LINE
  5
CC
330
1F
100
AcDbEntity
  8
0
  6
HIDDEN
 62
     7
370
     0
100
AcDbLine
 10
239.651167696
 20
130.7264931711
 30
0.0
 11
239.651167696
 21
125.9269007708
 31
0.0
  0
LINE
  5
CD
330
1F
100
AcDbEntity
  8
0
  6
HIDDEN
 62
     7
370
     0
100
AcDbLine
 10
243.651167696
 20
107.5260855715
 30
0.0
 11
239.651167696
 21
107.5260855715
 31
0.0
  0
LINE
  5
CE
330
1F
100
AcDbEntity
  8
0
  6
HIDDEN
 62
     7
370
     0
100
AcDbLine
 10
239.651167696
 20
107.5260855715
 30
0.0
 11
239.651167696
 21
102.7264931711
 31
0.0
  0
LINE
  5
CF
330
1F
100
AcDbEntity
  8
0
  6
HIDDEN
 62
     7
370
     0
100
AcDbLine
 10
239.651167696
 20
97.6997554829
 30
0.0
 11
243.651167696
 21
97.6997554829
 31
0.0
  0
LINE
  5
D0
330
1F
100
AcDbEntity
  8
0
  6
HIDDEN
 62
     7
370
     0
100
AcDbLine
 10
243.651167696
 20
97.6997554829
 30
0.0
 11
243.651167696
 21
97.5599518686
 31
0.0
  0
LINE
  5
D1
330
1F
100
AcDbEntity
  8
0
  6
HIDDEN
 62
     7
370
     0
100
AcDbLine
 10
239.651167696
 20
102.7264931711
 30
0.0
 11
239.651167696
 21
97.5264931711
 31
0.0
  0
LINE
  5
D2
330
1F
100
AcDbEntity
  8
0
  6
HIDDEN
 62
     7
370
     0
100
AcDbLine
 10
238.451167696
 20
101.7264931711
 30
0.0
 11
238.451167696
 21
131.7264931711
 31
0.0
  0
LINE
  5
D3
330
1F
100
AcDbEntity
  8
0
  6
HIDDEN
 62
     7
370
     0
100
AcDbLine
 10
213.201167696
 20
102.0264931711
 30
0.0
 11
213.201167696
 21
131.4264931405
 31
0.0
  0
LINE
  5
D4
330
1F
100
AcDbEntity
  8
0
  6
HIDDEN
 62
     7
370
     0
100
AcDbLine
 10
215.701167696
 20
101.7264931711
 30
0.0
 11
215.701167696
 21
131.7264931711
 31
0.0
  0
LINE
  5
D5
330
1F
100
AcDbEntity
  8
0
  6
HIDDEN
 62
     7
370
     0
100
AcDbLine
 10
239.651167696
 20
138.0014931711
 30
0.0
 11
239.651167696
 21
135.9264931711
 31
0.0
  0
LINE
  5
D6
330
1F
100
AcDbEntity
  8
0
  6
HIDDEN
 62
     7
370
     0
100
AcDbLine
 10
239.651167696
 20
97.5264931711
 30
0.0
 11
239.651167696
 21
95.4514931711
 31
0.0
  0
LINE
  5
D7
330
1F
100
AcDbEntity
  8
0
  6
HIDDEN
 62
     7
370
     0
100
AcDbLine
 10
119.201167696
 20
139.2264931711
 30
0.0
 11
119.5384259962
 21
139.2264931711
 31
0.0
  0
ELLIPSE
  5
D8
330
1F
100
AcDbEntity
  8
0
  6
HIDDEN
 62
     7
370
     0
100
AcDbEllipse
 10
119.5384259962
 20
140.8264931711
 30
0.0
 11
0.0
 21
1.600000000000023
 31
0.0
210
0.0
220
0.0
230
1.0
 40
0.4142135624
 41
3.141592653589793
 42
4.712388980384695
  0
ELLIPSE
  5
D9
330
1F
100
AcDbEntity
  8
0
  6
HIDDEN
 62
     7
370
     0
100
AcDbEllipse
 10
119.5384259962
 20
92.6264931711
 30
0.0
 11
0.0
 21
1.599999999999994
 31
0.0
210
0.0
220
0.0
230
1.0
 40
0.4142135624
 41
4.712388980384695
 42
6.283185307179586
  0
LINE
  5
DA
330
1F
100
AcDbEntity
  8
0
  6
HIDDEN
 62
     7
370
     0
100
AcDbLine
 10
119.5384259962
 20
94.2264931711
 30
0.0
 11
119.201167696
 21
94.2264931711
 31
0.0
  0
LINE
  5
DB
330
1F
100
AcDbEntity
  8
0
  6
HIDDEN
 62
     7
370
     0
100
AcDbLine
 10
120.201167696
 20
87.2724704483
 30
0.0
 11
119.588200519
 21
86.6595032713
 31
0.0
  0
LINE
  5
DC
330
1F
100
AcDbEntity
  8
0
  6
HIDDEN
 62
     7
370
     0
100
AcDbLine
 10
119.588200519
 20
146.7934830709
 30
0.0
 11
120.201167696
 21
146.1805158939
 31
0.0
  0
LINE
  5
DD
330
1F
100
AcDbEntity
  8
0
  6
HIDDEN
 62
     7
370
     0
100
AcDbLine
 10
58.801167696
 20
108.2264931711
 30
0.0
 11
58.801167696
 21
125.2264931711
 31
0.0
  0
LINE
  5
DE
330
1F
100
AcDbEntity
  8
0
  6
HIDDEN
 62
     7
370
     0
100
AcDbLine
 10
61.7970969104
 20
109.7264931711
 30
0.0
 11
61.7970969104
 21
123.7264931711
 31
0.0
  0
LINE
  5
DF
330
1F
100
AcDbEntity
  8
0
  6
HIDDEN
 62
     7
370
     0
100
AcDbLine
 10
120.201167696
 20
146.1805158939
 30
0.0
 11
129.3337292396
 21
146.1805158939
 31
0.0
  0
LINE
  5
E0
330
1F
100
AcDbEntity
  8
0
  6
HIDDEN
 62
     7
370
     0
100
AcDbLine
 10
120.201167696
 20
146.1805158939
 30
0.0
 11
120.201167696
 21
140.8264931711
 31
0.0
  0
LINE
  5
E1
330
1F
100
AcDbEntity
  8
0
  6
HIDDEN
 62
     7
370
     0
100
AcDbLine
 10
129.3337292396
 20
87.2724704483
 30
0.0
 11
120.201167696
 21
87.2724704483
 31
0.0
  0
LINE
  5
E2
330
1F
100
AcDbEntity
  8
0
  6
HIDDEN
 62
     7
370
     0
100
AcDbLine
 10
120.201167696
 20
87.2724704483
 30
0.0
 11
120.201167696
 21
92.6264931711
 31
0.0
  0
LINE
  5
E3
330
1F
100
AcDbEntity
  8
0
  6
HIDDEN
 62
     7
370
     0
100
AcDbLine
 10
132.151167696
 20
94.2264931711
 30
0.0
 11
119.5384259962
 21
94.2264931711
 31
0.0
  0
LINE
  5
E4
330
1F
100
AcDbEntity
  8
0
  6
HIDDEN
 62
     7
370
     0
100
AcDbLine
 10
119.5384259962
 20
139.2264931711
 30
0.0
 11
132.151167696
 21
139.2264931711
 31
0.0
  0
SPLINE
  5
E5
330
1F
100
AcDbEntity
  8
0
  6
HIDDEN
 62
     7
370
     0
100
AcDbSpline
210
0.0
220
0.0
230
1.0
 70
     8
 71
     3
 72
    13
 73
     9
 74
     0
 42
0.000000001
 43
0.00000001
 40
0.0
 40
0.0
 40
0.0
 40
0.0
 40
0.1850454653101185
 40
0.3520092965815967
 40
0.5010298177385477
 40
0.676622781446296
 40
0.843096261468993
 40
1.0
 40
1.0
 40
1.0
 40
1.0
 10
138.1774313266546
 20
146.6313539468382
 30
0.0
 10
138.4042214422697
 20
146.6901906183756
 30
0.0
 10
138.835640979817
 20
146.8021147626737
 30
0.0
 10
139.3230964507712
 20
146.9423808343011
 30
0.0
 10
139.7122056273106
 20
147.0616755935601
 30
0.0
 10
139.9931055477352
 20
147.1523434031884
 30
0.0
 10
140.169990322809
 20
147.2142591635353
 30
0.0
 10
140.1908527026345
 20
147.2224484196941
 30
0.0
 10
140.2009752010712
 20
147.226421874945
 30
0.0
  0
LINE
  5
E6
330
1F
100
AcDbEntity
  8
0
  6
HIDDEN
 62
     7
370
     0
100
AcDbLine
 10
138.92766187
 20
146.8310670262
 30
0.0
 11
138.1774093086
 21
146.631541373
 31
0.0
  0
LINE
  5
E7
330
1F
100
AcDbEntity
  8
0
  6
HIDDEN
 62
     7
370
     0
100
AcDbLine
 10
138.1774094622
 20
86.8214452777
 30
0.0
 11
138.2713521914
 21
86.7964616064
 31
0.0
  0
SPLINE
  5
E8
330
1F
100
AcDbEntity
  8
0
  6
HIDDEN
 62
     7
370
     0
100
AcDbSpline
210
0.0
220
0.0
230
1.0
 70
     8
 71
     3
 72
    13
 73
     9
 74
     0
 42
0.000000001
 43
0.00000001
 40
0.0
 40
0.0
 40
0.0
 40
0.0
 40
0.0000729225244404
 40
0.1576810836853553
 40
0.3241445774245414
 40
0.4996852408390643
 40
0.7294243771452443
 40
1.0
 40
1.0
 40
1.0
 40
1.0
 10
140.201135120866
 20
86.22650561024051
 30
0.0
 10
140.2011459796073
 20
86.22650132038761
 30
0.0
 10
140.2246259414638
 20
86.21722532975059
 30
0.0
 10
140.153040726429
 20
86.24539083181939
 30
0.0
 10
139.9974243880061
 20
86.29897976167965
 30
0.0
 10
139.6611711656909
 20
86.40750305047352
 30
0.0
 10
139.10385809968
 20
86.5785691138036
 30
0.0
 10
138.5026003344108
 20
86.7363331028405
 30
0.0
 10
138.177433644132
 20
86.82165357123783
 30
0.0
  0
LINE
  5
E9
330
1F
100
AcDbEntity
  8
0
  6
HIDDEN
 62
     7
370
     0
100
AcDbLine
 10
138.601167696
 20
94.2264931711
 30
0.0
 11
132.151167696
 21
94.2264931711
 31
0.0
  0
LINE
  5
EA
330
1F
100
AcDbEntity
  8
0
  6
HIDDEN
 62
     7
370
     0
100
AcDbLine
 10
132.151167696
 20
139.2264931711
 30
0.0
 11
138.601167696
 21
139.2264931711
 31
0.0
  0
LINE
  5
EB
330
1F
100
AcDbEntity
  8
0
  6
HIDDEN
 62
     7
370
     0
100
AcDbLine
 10
94.801167696
 20
109.7264931711
 30
0.0
 11
94.801167696
 21
123.7264931711
 31
0.0
  0
LINE
  5
EC
330
1F
100
AcDbEntity
  8
0
  6
HIDDEN
 62
     7
370
     0
100
AcDbLine
 10
96.4535343984
 20
112.4764931711
 30
0.0
 11
96.4535343984
 21
120.9764931711
 31
0.0
  0
SPLINE
  5
ED
330
1F
100
AcDbEntity
  8
0
  6
HIDDEN
 62
     7
370
     0
100
AcDbSpline
210
0.0
220
0.0
230
1.0
 70
     8
 71
     3
 72
     9
 73
     5
 74
     0
 42
0.000000001
 43
0.00000001
 40
0.0
 40
0.0
 40
0.0
 40
0.0
 40
0.4932365030918491
 40
1.0
 40
1.0
 40
1.0
 40
1.0
 10
138.1782272347396
 20
146.6313246822995
 30
0.0
 10
138.2840751901415
 20
146.7883460704223
 30
0.0
 10
138.4986739774136
 20
147.1066951527358
 30
0.0
 10
138.7165338593019
 20
147.4265212604238
 30
0.0
 10
138.8269372948837
 20
147.5885974571583
 30
0.0
  0
SPLINE
  5
EE
330
1F
100
AcDbEntity
  8
0
  6
HIDDEN
 62
     7
370
     0
100
AcDbSpline
210
0.0
220
0.0
230
1.0
 70
     8
 71
     3
 72
     9
 73
     5
 74
     0
 42
0.000000001
 43
0.00000001
 40
0.0
 40
0.0
 40
0.0
 40
0.0
 40
0.5067661696360637
 40
0.9999999999999999
 40
0.9999999999999999
 40
0.9999999999999999
 40
0.9999999999999999
 10
138.8269409801696
 20
85.86440302065006
 30
0.0
 10
138.7165361496725
 20
86.02648043526567
 30
0.0
 10
138.4986746642138
 20
86.34630725940437
 30
0.0
 10
138.2840749463317
 20
86.66465577566052
 30
0.0
 10
138.1782271054858
 20
86.8216760337242
 30
0.0
  0
CIRCLE
  5
EF
330
1F
100
AcDbEntity
  8
0
  6
HIDDEN
 62
     7
370
     0
100
AcDbCircle
 10
229.651167696
 20
116.7264931711
 30
0.0
 40
5.258613578496423
  0
CIRCLE
  5
F0
330
1F
100
AcDbEntity
  8
0
  6
HIDDEN
 62
     7
370
     0
100
AcDbCircle
 10
229.651167696
 20
116.7264931711
 30
0.0
 40
4.094716599621009
  0
CIRCLE
  5
F1
330
1F
100
AcDbEntity
  8
0
  6
HIDDEN
 62
     7
370
     0
100
AcDbCircle
 10
229.651167696
 20
116.7264931711
 30
0.0
 40
3.694716599621032
  0
LINE
  5
F2
330
1F
100
AcDbEntity
  8
0
  6
HIDDEN
 62
     7
370
     0
100
AcDbLine
 10
244.201167696
 20
140.2264931711
 30
0.0
 11
243.651167696
 21
139.0470143648
 31
0.0
  0
LINE
  5
F3
330
1F
100
AcDbEntity
  8
0
  6
HIDDEN
 62
     7
370
     0
100
AcDbLine
 10
243.651167696
 20
94.4059719774
 30
0.0
 11
244.201167696
 21
93.2264931711
 31
0.0
  0
LINE
  5
F4
330
1F
100
AcDbEntity
  8
0
  6
HIDDEN
 62
     7
370
     0
100
AcDbLine
 10
243.651167696
 20
135.9264931711
 30
0.0
 11
239.651167696
 21
135.9264931711
 31
0.0
  0
LINE
  5
F5
330
1F
100
AcDbEntity
  8
0
  6
HIDDEN
 62
     7
370
     0
100
AcDbLine
 10
239.651167696
 20
97.5264931711
 30
0.0
 11
243.651167696
 21
97.5264931711
 31
0.0
  0
LINE
  5
F6
330
1F
100
AcDbEntity
  8
0
  6
HIDDEN
 62
     7
370
     0
100
AcDbLine
 10
239.651167696
 20
132.4193134942
 30
0.0
 11
238.451167696
 21
131.7264931711
 31
0.0
  0
LINE
  5
F7
330
1F
100
AcDbEntity
  8
0
  6
HIDDEN
 62
     7
370
     0
100
AcDbLine
 10
238.451167696
 20
101.7264931711
 30
0.0
 11
239.651167696
 21
101.0336728481
 31
0.0
  0
LINE
  5
F8
330
1F
100
AcDbEntity
  8
0
  6
HIDDEN
 62
     7
370
     0
100
AcDbLine
 10
213.801167696
 20
101.4264931711
 30
0.0
 11
214.5025609552
 21
101.4264931711
 31
0.0
  0
LINE
  5
F9
330
1F
100
AcDbEntity
  8
0
  6
HIDDEN
 62
     7
370
     0
100
AcDbLine
 10
214.5025609552
 20
132.0264931711
 30
0.0
 11
213.801167696
 21
132.0264931711
 31
0.0
  0
ARC
  5
FA
330
1F
100
AcDbEntity
  8
0
  6
HIDDEN
 62
     7
370
     0
100
AcDbCircle
 10
213.801167696
 20
102.0264931711
 30
0.0
 40
0.6000000000000085
100
AcDbArc
 50
180.0
 51
270.0
  0
ARC
  5
FB
330
1F
100
AcDbEntity
  8
0
  6
HIDDEN
 62
     7
370
     0
100
AcDbCircle
 10
213.801167696
 20
131.4264931711
 30
0.0
 40
0.6000000000000227
100
AcDbArc
 50
90.0
 51
180.0
  0
ARC
  5
FC
330
1F
100
AcDbEntity
  8
0
  6
HIDDEN
 62
     7
370
     0
100
AcDbCircle
 10
214.5025609552
 20
102.0264931711
 30
0.0
 40
0.5999999999999801
100
AcDbArc
 50
270.0
 51
285.0
  0
ARC
  5
FD
330
1F
100
AcDbEntity
  8
0
  6
HIDDEN
 62
     7
370
     0
100
AcDbCircle
 10
214.5025609552
 20
131.4264931711
 30
0.0
 40
0.5999999999999943
100
AcDbArc
 50
75.0
 51
90.0
  0
LINE
  5
FE
330
1F
100
AcDbEntity
  8
0
  6
HIDDEN
 62
     7
370
     0
100
AcDbLine
 10
214.6578523823
 20
101.4469376754
 30
0.0
 11
215.701167696
 21
101.7264931711
 31
0.0
  0
LINE
  5
FF
330
1F
100
AcDbEntity
  8
0
  6
HIDDEN
 62
     7
370
     0
100
AcDbLine
 10
215.701167696
 20
131.7264931711
 30
0.0
 11
214.6578523823
 21
132.0060486669
 31
0.0
  0
LINE
  5
100
330
1F
100
AcDbEntity
  8
0
  6
HIDDEN
 62
     7
370
     0
100
AcDbLine
 10
215.701167696
 20
101.7264931711
 30
0.0
 11
238.451167696
 21
101.7264931711
 31
0.0
  0
LINE
  5
101
330
1F
100
AcDbEntity
  8
0
  6
HIDDEN
 62
     7
370
     0
100
AcDbLine
 10
238.451167696
 20
131.7264931711
 30
0.0
 11
215.701167696
 21
131.7264931711
 31
0.0
  0
LINE
  5
102
330
1F
100
AcDbEntity
  8
0
  6
HIDDEN
 62
     7
370
     0
100
AcDbLine
 10
243.651167696
 20
138.0014931711
 30
0.0
 11
239.651167696
 21
138.0014931711
 31
0.0
  0
LINE
  5
103
330
1F
100
AcDbEntity
  8
0
  6
HIDDEN
 62
     7
370
     0
100
AcDbLine
 10
239.651167696
 20
95.4514931711
 30
0.0
 11
243.651167696
 21
95.4514931711
 31
0.0
  0
ARC
  5
104
330
1F
100
AcDbEntity
  8
0
  6
HIDDEN
 62
     7
370
     0
100
AcDbCircle
 10
52.601167696
 20
107.4264931711
 30
0.0
 40
0.7999999999999972
100
AcDbArc
 50
90.0
 51
180.0
  0
ARC
  5
105
330
1F
100
AcDbEntity
  8
0
  6
HIDDEN
 62
     7
370
     0
100
AcDbCircle
 10
52.601167696
 20
126.0264931711
 30
0.0
 40
0.7999999999999972
100
AcDbArc
 50
180.0
 51
270.0
  0
ARC
  5
106
330
1F
100
AcDbEntity
  8
0
  6
HIDDEN
 62
     7
370
     0
100
AcDbCircle
 10
60.5702275884
 20
108.4014931711
 30
0.0
 40
0.4000000000000057
100
AcDbArc
 50
270.0
 51
330.0
  0
ARC
  5
107
330
1F
100
AcDbEntity
  8
0
  6
HIDDEN
 62
     7
370
     0
100
AcDbCircle
 10
60.5702275884
 20
125.0514931711
 30
0.0
 40
0.4000000000000199
100
AcDbArc
 50
30.0
 51
90.0
  0
LINE
  5
108
330
1F
100
AcDbEntity
  8
0
  6
HIDDEN
 62
     7
370
     0
100
AcDbLine
 10
59.6935401268
 20
108.0014931711
 30
0.0
 11
60.5702275884
 21
108.0014931711
 31
0.0
  0
LINE
  5
109
330
1F
100
AcDbEntity
  8
0
  6
HIDDEN
 62
     7
370
     0
100
AcDbLine
 10
60.5702275884
 20
125.4514931711
 30
0.0
 11
59.6935401268
 21
125.4514931711
 31
0.0
  0
ARC
  5
10A
330
1F
100
AcDbEntity
  8
0
  6
HIDDEN
 62
     7
370
     0
100
AcDbCircle
 10
59.6935401268
 20
108.4014931711
 30
0.0
 40
0.4000000000000057
100
AcDbArc
 50
255.0
 51
270.0
  0
ARC
  5
10B
330
1F
100
AcDbEntity
  8
0
  6
HIDDEN
 62
     7
370
     0
100
AcDbCircle
 10
59.6935401268
 20
125.0514931711
 30
0.0
 40
0.4000000000000199
100
AcDbArc
 50
90.0
 51
105.0
  0
LINE
  5
10C
330
1F
100
AcDbEntity
  8
0
  6
HIDDEN
 62
     7
370
     0
100
AcDbLine
 10
59.5900125087
 20
125.4378635016
 30
0.0
 11
58.801167696
 21
125.2264931711
 31
0.0
  0
LINE
  5
10D
330
1F
100
AcDbEntity
  8
0
  6
HIDDEN
 62
     7
370
     0
100
AcDbLine
 10
58.801167696
 20
108.2264931711
 30
0.0
 11
59.5900125087
 21
108.0151228406
 31
0.0
  0
LINE
  5
10E
330
1F
100
AcDbEntity
  8
0
  6
HIDDEN
 62
     7
370
     0
100
AcDbLine
 10
60.9166377499
 20
108.2014931711
 30
0.0
 11
61.7970969104
 21
109.7264931711
 31
0.0
  0
LINE
  5
10F
330
1F
100
AcDbEntity
  8
0
  6
HIDDEN
 62
     7
370
     0
100
AcDbLine
 10
61.7970969104
 20
123.7264931711
 30
0.0
 11
60.9166377499
 21
125.2514931711
 31
0.0
  0
LINE
  5
110
330
1F
100
AcDbEntity
  8
0
  6
HIDDEN
 62
     7
370
     0
100
AcDbLine
 10
52.601167696
 20
108.2264931711
 30
0.0
 11
58.801167696
 21
108.2264931711
 31
0.0
  0
LINE
  5
111
330
1F
100
AcDbEntity
  8
0
  6
HIDDEN
 62
     7
370
     0
100
AcDbLine
 10
58.801167696
 20
125.2264931711
 30
0.0
 11
52.601167696
 21
125.2264931711
 31
0.0
  0
LINE
  5
112
330
1F
100
AcDbEntity
  8
0
  6
HIDDEN
 62
     7
370
     0
100
AcDbLine
 10
140.201167696
 20
140.8264931711
 30
0.0
 11
140.201167696
 21
147.3267871848
 31
0.0
  0
LINE
  5
113
330
1F
100
AcDbEntity
  8
0
  6
HIDDEN
 62
     7
370
     0
100
AcDbLine
 10
140.201167696
 20
86.1261357102
 30
0.0
 11
140.201167696
 21
92.6264931711
 31
0.0
  0
ARC
  5
114
330
1F
100
AcDbEntity
  8
0
  6
HIDDEN
 62
     7
370
     0
100
AcDbCircle
 10
138.601167696
 20
92.6264931711
 30
0.0
 40
1.599999999999994
100
AcDbArc
 50
0.0
 51
90.0
  0
ARC
  5
115
330
1F
100
AcDbEntity
  8
0
  6
HIDDEN
 62
     7
370
     0
100
AcDbCircle
 10
138.601167696
 20
140.8264931711
 30
0.0
 40
1.599999999999994
100
AcDbArc
 50
270.0
 51
0.0
  0
LINE
  5
116
330
1F
100
AcDbEntity
  8
0
  6
HIDDEN
 62
     7
370
     0
100
AcDbLine
 10
94.801167696
 20
109.7264931711
 30
0.0
 11
96.4535343984
 21
112.4764931711
 31
0.0
  0
LINE
  5
117
330
1F
100
AcDbEntity
  8
0
  6
HIDDEN
 62
     7
370
     0
100
AcDbLine
 10
96.4535343984
 20
120.9764931711
 30
0.0
 11
94.801167696
 21
123.7264931711
 31
0.0
  0
LINE
  5
118
330
1F
100
AcDbEntity
  8
0
  6
HIDDEN
 62
     7
370
     0
100
AcDbLine
 10
61.7970969104
 20
109.7264931711
 30
0.0
 11
94.801167696
 21
109.7264931711
 31
0.0
  0
LINE
  5
119
330
1F
100
AcDbEntity
  8
0
  6
HIDDEN
 62
     7
370
     0
100
AcDbLine
 10
94.801167696
 20
123.7264931711
 30
0.0
 11
61.7970969104
 21
123.7264931711
 31
0.0
  0
LINE
  5
11A
330
1F
100
AcDbEntity
  8
0
  6
HIDDEN
 62
     7
370
     0
100
AcDbLine
 10
140.2011667861
 20
147.2264929592
 30
0.0
 11
141.2011661554
 21
148.2264927059
 31
0.0
  0
LINE
  5
11B
330
1F
100
AcDbEntity
  8
0
  6
HIDDEN
 62
     7
370
     0
100
AcDbLine
 10
141.2011740574
 20
85.2264920334
 30
0.0
 11
140.2011738085
 21
86.226491838
 31
0.0
  0
LINE
  5
11C
330
1F
100
AcDbEntity
  8
0
  6
HIDDEN
 62
     7
370
     0
100
AcDbLine
 10
96.4535343984
 20
112.4764931711
 30
0.0
 11
213.201167696
 21
112.4764931711
 31
0.0
  0
LINE
  5
11D
330
1F
100
AcDbEntity
  8
0
  6
HIDDEN
 62
     7
370
     0
100
AcDbLine
 10
213.201167696
 20
120.9764931711
 30
0.0
 11
96.4535343984
 21
120.9764931711
 31
0.0
  0
DIMENSION
  5
11E
330
1F
100
AcDbEntity
  8
VERMASSUNG
100
AcDbDimension
  2
_D
 10
46.0869653513
 20
85.2264931711
 30
0.0
 11
46.0869653513
 21
116.7264931711
 31
0.0
 70
   160
  1
MAS BT 40 %%c<>
 71
     2
 42
-1.0
  3
SLDDIMSTYLE0
100
AcDbAlignedDimension
 13
141.201163552
 23
148.2264931711
 33
0.0
 14
141.2011684699
 24
85.2264931711
 34
0.0
 50
90.0
100
AcDbRotatedDimension
  0
DIMENSION
  5
12B
330
1F
100
AcDbEntity
  8
VERMASSUNG
100
AcDbDimension
  2
_D_1
 10
244.201167696
 20
160.5749762788
 30
0.0
 11
180.701167696
 21
160.5749762788
 31
0.0
 70
   160
  1
<>
 71
     2
 42
-1.0
  3
SLDDIMSTYLE0
100
AcDbAlignedDimension
 13
117.201167696
 23
138.9514931711
 33
0.0
 14
244.201167696
 24
143.7264931711
 34
0.0
100
AcDbRotatedDimension
  0
DIMENSION
  5
135
330
1F
100
AcDbEntity
  8
VERMASSUNG
100
AcDbDimension
  2
_D_2
 10
244.201167696
 20
166.5749762788
 30
0.0
 11
148.001167696
 21
166.5749762788
 31
0.0
 70
   160
  1
<>
 71
     2
 42
-1.0
  3
SLDDIMSTYLE0
100
AcDbAlignedDimension
 13
51.801167696
 23
128.5492487682
 33
0.0
 14
244.201167696
 24
143.7264931711
 34
0.0
100
AcDbRotatedDimension
  0
DIMENSION
  5
13F
330
1F
100
AcDbEntity
  8
VERMASSUNG
100
AcDbDimension
  2
_D_3
 10
254.201167696
 20
89.2264931711
 30
0.0
 11
254.201167696
 21
116.7264931711
 31
0.0
 70
   160
  1
MBM %%c<>
 71
     2
 42
-1.0
  3
SLDDIMSTYLE0
100
AcDbAlignedDimension
 13
243.701167696
 23
144.2264931711
 33
0.0
 14
243.701167696
 24
89.2264931711
 34
0.0
 50
90.0
100
AcDbRotatedDimension
  0
DIMENSION
  5
14B
330
1F
100
AcDbEntity
  8
VERMASSUNG
100
AcDbDimension
  2
_D_4
 10
244.201167696
 20
154.8869349592
 30
0.0
 11
194.201167696
 21
154.8869349592
 31
0.0
 70
   160
  1
<>
 71
     2
 42
-1.0
  3
SLDDIMSTYLE0
100
AcDbAlignedDimension
 13
144.201167696
 23
147.2264931711
 33
0.0
 14
244.201167696
 24
143.7264931711
 34
0.0
100
AcDbRotatedDimension
  0
LINE
  5
155
330
1F
100
AcDbEntity
  8
VERMASSUNG
  6
CENTERX2
 62
     7
370
     0
100
AcDbLine
 10
49.801167696
 20
116.7264931711
 30
0.0
 11
246.201167696
 21
116.7264931711
 31
0.0
  0
LINE
  5
156
330
1F
100
AcDbEntity
  8
0
  6
Continuous
 62
     7
370
    15
100
AcDbLine
 10
276.4097283278
 20
16.2327828633
 30
0.0
 11
276.5864762919
 21
16.3348504634
 31
0.0
  0
LINE
  5
157
330
1F
100
AcDbEntity
  8
0
  6
Continuous
 62
     7
370
    15
100
AcDbLine
 10
286.130866354
 20
32.8680103805
 30
0.0
 11
286.130866354
 21
33.0721124084
 31
0.0
  0
LINE
  5
158
330
1F
100
AcDbEntity
  8
0
  6
Continuous
 62
     7
370
    15
100
AcDbLine
 10
235.4158046335
 20
35.2469804796
 30
0.0
 11
269.5337068258
 21
15.5511347819
 31
0.0
  0
LINE
  5
159
330
1F
100
AcDbEntity
  8
0
  6
Continuous
 62
     7
370
    15
100
AcDbLine
 10
283.2825893995
 20
39.3674784974
 30
0.0
 11
249.1646872073
 21
59.0633241951
 31
0.0
  0
SPLINE
  5
15A
330
1F
100
AcDbEntity
  8
0
  6
Continuous
 62
     7
370
    15
100
AcDbSpline
210
0.0
220
0.0
230
1.0
 70
     8
 71
     3
 72
    11
 73
     7
 74
     0
 42
0.000000001
 43
0.00000001
 40
0.0
 40
0.0
 40
0.0
 40
0.0
 40
0.1969554907758412
 40
0.529257227710317
 40
0.864002232098798
 40
1.0
 40
1.0
 40
1.0
 40
1.0
 10
235.05615769186
 20
33.63854921211045
 30
0.0
 10
235.2338956005659
 20
33.60992138313365
 30
0.0
 10
235.7115114946453
 20
33.5329929088883
 30
0.0
 10
236.5388239723052
 20
33.5537337587603
 30
0.0
 10
237.3231171539631
 20
33.6330119990777
 30
0.0
 10
237.797313366915
 20
33.75720076808172
 30
0.0
 10
237.9343088351512
 20
33.79307895119391
 30
0.0
  0
SPLINE
  5
15B
330
1F
100
AcDbEntity
  8
0
  6
Continuous
 62
     7
370
    15
100
AcDbSpline
210
0.0
220
0.0
230
1.0
 70
     8
 71
     3
 72
    11
 73
     7
 74
     0
 42
0.000000001
 43
0.00000001
 40
0.0
 40
0.0
 40
0.0
 40
0.0
 40
0.2690554775922433
 40
0.6100157191220072
 40
0.9490877925349342
 40
0.9999999999999999
 40
0.9999999999999999
 40
0.9999999999999999
 40
0.9999999999999999
 10
251.688198503061
 20
57.6065321327286
 30
0.0
 10
251.6067001526794
 20
57.86891540632494
 30
0.0
 10
251.4219231124193
 20
58.46380357868553
 30
0.0
 10
251.0121007664778
 20
59.2787765304786
 30
0.0
 10
250.6601283331367
 20
59.87228512842802
 30
0.0
 10
250.4258767473498
 20
60.13407715059824
 30
0.0
 10
250.3952953472283
 20
60.16825393771239
 30
0.0
  0
LINE
  5
15C
330
1F
100
AcDbEntity
  8
0
  6
Continuous
 62
     7
370
    15
100
AcDbLine
 10
231.4548762547
 20
35.224237239
 30
0.0
 11
233.0016723385
 21
34.3312908667
 31
0.0
  0
LINE
  5
15D
330
1F
100
AcDbEntity
  8
0
  6
Continuous
 62
     7
370
    15
100
AcDbLine
 10
248.7503923776
 20
61.6118300317
 30
0.0
 11
247.2035962937
 21
62.504776404
 31
0.0
  0
LINE
  5
15E
330
1F
100
AcDbEntity
  8
0
  6
Continuous
 62
     7
370
    15
100
AcDbLine
 10
243.6503847182
 20
64.5560017849
 30
0.0
 11
240.6186643939
 21
66.3061766746
 31
0.0
  0
SPLINE
  5
15F
330
1F
100
AcDbEntity
  8
0
  6
Continuous
 62
     7
370
    15
100
AcDbSpline
210
0.0
220
0.0
230
1.0
 70
     8
 71
     3
 72
    28
 73
    24
 74
     0
 42
0.000000001
 43
0.00000001
 40
0.0
 40
0.0
 40
0.0
 40
0.0
 40
0.0224317573467625
 40
0.0721290766836758
 40
0.122190742077215
 40
0.1725907338626125
 40
0.223245974997291
 40
0.2740601049565513
 40
0.3249520428891806
 40
0.3758619631871377
 40
0.4267539225230087
 40
0.4776161302683545
 40
0.5284459741931438
 40
0.5792461419560822
 40
0.6300221964169331
 40
0.6807811742711342
 40
0.731530833091125
 40
0.7822792801893688
 40
0.8330334286192158
 40
0.8838002921979785
 40
0.9345883071161898
 40
0.9854057765568073
 40
1.0
 40
1.0
 40
1.0
 40
1.0
 10
238.5986830207131
 20
66.99314890691352
 30
0.0
 10
238.4645808172695
 20
67.01772099258166
 30
0.0
 10
238.0333766112814
 20
67.09673227217236
 30
0.0
 10
237.2568098316428
 20
67.0970785403103
 30
0.0
 10
236.2792396451844
 20
66.99910793034587
 30
0.0
 10
235.2675430275112
 20
66.76908861219951
 30
0.0
 10
234.233960472014
 20
66.41763440441137
 30
0.0
 10
233.1871152524639
 20
65.94530132221007
 30
0.0
 10
232.1369209741149
 20
65.35723802268717
 30
0.0
 10
231.092797894705
 20
64.65894748649748
 30
0.0
 10
230.0638877900121
 20
63.85709347848177
 30
0.0
 10
229.0589202230446
 20
62.95902021670422
 30
0.0
 10
228.0862747733036
 20
61.97273172060902
 30
0.0
 10
227.154029623778
 20
60.90686378328498
 30
0.0
 10
226.2699361685231
 20
59.77064096748958
 30
0.0
 10
225.4413651687917
 20
58.57381605049774
 30
0.0
 10
224.6752849141173
 20
57.32660991300913
 30
0.0
 10
223.9780979393438
 20
56.03961842932626
 30
0.0
 10
223.3560149669228
 20
54.72382881240873
 30
0.0
 10
222.8133965029769
 20
53.39014028018529
 30
0.0
 10
222.3586955814719
 20
52.05065606864025
 30
0.0
 10
222.0716558230548
 20
51.03141381327185
 30
0.0
 10
221.9469601501654
 20
50.46496031101094
 30
0.0
 10
221.9191388779689
 20
50.33857695938512
 30
0.0
  0
LINE
  5
160
330
1F
100
AcDbEntity
  8
0
  6
Continuous
 62
     7
370
    15
100
AcDbLine
 10
231.6170976214
 20
64.9905729406
 30
0.0
 11
211.7191667164
 21
72.1609985121
 31
0.0
  0
LINE
  5
161
330
1F
100
AcDbEntity
  8
0
  6
Continuous
 62
     7
370
    15
100
AcDbLine
 10
205.3476973051
 20
61.1240939011
 30
0.0
 11
224.3755713914
 21
45.0571143237
 31
0.0
  0
LINE
  5
162
330
1F
100
AcDbEntity
  8
0
  6
Continuous
 62
     7
370
    15
100
AcDbLine
 10
224.8699443549
 20
39.0256375097
 30
0.0
 11
227.9016646792
 21
37.2754626199
 31
0.0
  0
SPLINE
  5
163
330
1F
100
AcDbEntity
  8
0
  6
Continuous
 62
     7
370
    15
100
AcDbSpline
210
0.0
220
0.0
230
1.0
 70
     8
 71
     3
 72
    11
 73
     7
 74
     0
 42
0.000000001
 43
0.00000001
 40
0.0
 40
0.0
 40
0.0
 40
0.0
 40
0.119753467636452
 40
0.4530211862673724
 40
0.7851840739726288
 40
1.0
 40
1.0
 40
1.0
 40
1.0
 10
221.9072465423044
 20
43.0929485057062
 30
0.0
 10
221.942695399482
 20
42.97208826747316
 30
0.0
 10
222.0767965962774
 20
42.51488022517157
 30
0.0
 10
222.3825514529747
 20
41.78497658835696
 30
0.0
 10
222.7888056528808
 20
41.02643488335505
 30
0.0
 10
223.1069117353847
 20
40.62786113073132
 30
0.0
 10
223.231842081812
 20
40.47132857844507
 30
0.0
  0
SPLINE
  5
164
330
1F
100
AcDbEntity
  8
0
  6
Continuous
 62
     7
370
    15
100
AcDbSpline
210
0.0
220
0.0
230
1.0
 70
     8
 71
     3
 72
    23
 73
    19
 74
     0
 42
0.000000001
 43
0.00000001
 40
0.0
 40
0.0
 40
0.0
 40
0.0
 40
0.0394737783046317
 40
0.1032610629242398
 40
0.1684258578836442
 40
0.2350646148311785
 40
0.3026931311354487
 40
0.3707302309749987
 40
0.4387502014029906
 40
0.5066420573335293
 40
0.5744113743303174
 40
0.6421060790279689
 40
0.709789772241503
 40
0.7775215915114371
 40
0.8453610888764395
 40
0.9133808489327676
 40
0.9816446865085173
 40
0.9999999999999999
 40
0.9999999999999999
 40
0.9999999999999999
 40
0.9999999999999999
 10
211.5109253175339
 20
72.21023427035756
 30
0.0
 10
211.3936302116317
 20
72.24294241683695
 30
0.0
 10
211.0867931711587
 20
72.32850498816414
 30
0.0
 10
210.5425965856618
 20
72.32645043800157
 30
0.0
 10
209.8971181457121
 20
72.2206018299387
 30
0.0
 10
209.2267968683839
 20
71.9859710243842
 30
0.0
 10
208.5474536254787
 20
71.63234473630571
 30
0.0
 10
207.8745302498616
 20
71.16553997128955
 30
0.0
 10
207.2240047446183
 20
70.59771884892321
 30
0.0
 10
206.6098867813563
 20
69.94241031010218
 30
0.0
 10
206.0444725981079
 20
69.21414588263919
 30
0.0
 10
205.5389176966707
 20
68.4282863210082
 30
0.0
 10
205.1033279433514
 20
67.6010042987239
 30
0.0
 10
204.746773845567
 20
66.74913089558981
 30
0.0
 10
204.4766729574995
 20
65.88950102337134
 30
0.0
 10
204.3005203713046
 20
65.03963825365253
 30
0.0
 10
204.2392565402258
 20
64.41589199886883
 30
0.0
 10
204.235604432681
 20
64.08042385357808
 30
0.0
 10
204.2348305209298
 20
64.00933538298757
 30
0.0
  0
SPLINE
  5
165
330
1F
100
AcDbEntity
  8
0
  6
Continuous
 62
     7
370
    15
100
AcDbSpline
210
0.0
220
0.0
230
1.0
 70
     8
 71
     3
 72
    12
 73
     8
 74
     0
 42
0.000000001
 43
0.00000001
 40
0.0
 40
0.0
 40
0.0
 40
0.0
 40
0.1206400079654922
 40
0.3490190680756797
 40
0.577338611773078
 40
0.8030617016462747
 40
1.0
 40
1.0
 40
1.0
 40
1.0
 10
204.2348305209298
 20
64.00933538298757
 30
0.0
 10
204.237748597743
 20
63.87105803105657
 30
0.0
 10
204.2461907759812
 20
63.47101302674307
 30
0.0
 10
204.33985656894
 20
62.85037706445293
 30
0.0
 10
204.5541580239797
 20
62.18803135795897
 30
0.0
 10
204.8536473261387
 20
61.62735065452086
 30
0.0
 10
205.1278365712452
 20
61.34617833533071
 30
0.0
 10
205.2555945469256
 20
61.21516660909339
 30
0.0
  0
LINE
  5
166
330
1F
100
AcDbEntity
  8
0
  6
Continuous
 62
     7
370
    15
100
AcDbLine
 10
273.5623880086
 20
42.5746542428
 30
0.0
 11
273.3855825891
 21
42.6767550167
 31
0.0
  0
LINE
  5
167
330
1F
100
AcDbEntity
  8
0
  6
Continuous
 62
     7
370
    15
100
AcDbLine
 10
269.4958633606
 20
42.6767550167
 30
0.0
 11
269.3190579411
 21
42.5746542428
 31
0.0
  0
LINE
  5
168
330
1F
100
AcDbEntity
  8
0
  6
Continuous
 62
     7
370
    15
100
AcDbLine
 10
274.4407229748
 20
41.0440382884
 30
0.0
 11
274.4407229748
 21
41.3502410929
 31
0.0
  0
LINE
  5
169
330
1F
100
AcDbEntity
  8
0
  6
Continuous
 62
     7
370
    15
100
AcDbLine
 10
268.4407229748
 20
41.3502410929
 30
0.0
 11
268.4407229748
 21
41.0440382884
 31
0.0
  0
LWPOLYLINE
  5
16A
330
1F
100
AcDbEntity
  8
0
  6
Continuous
 62
     7
370
    15
100
AcDbPolyline
 90
       60
 70
   128
 43
0.0
 10
267.0389832619
 20
21.8465008708
 10
267.093062928
 20
23.04942548
 10
267.2546891819
 20
24.3011595259
 10
267.5220307336
 20
25.5875203619
 10
267.8920584965
 20
26.8939330055
 10
268.3605799082
 20
28.2055952796
 10
268.922286434
 20
29.5076455263
 10
269.5708137143
 20
30.7853309963
 10
270.298813676
 20
32.0241750025
 10
271.0980377887
 20
33.2101409474
 10
271.9594305237
 20
34.3297913629
 10
272.8732319572
 20
35.3704401624
 10
273.8290883539
 20
36.3202963792
 10
274.8161694787
 20
37.1685977628
 10
275.8232913082
 20
37.9057327196
 10
276.8390427495
 20
38.523349216
 10
277.8519149331
 20
39.0144494102
 10
278.8504316122
 20
39.3734689408
 10
279.8232791941
 20
39.5963399732
 10
280.7594349267
 20
39.6805372894
 10
281.6482917917
 20
39.6251069003
 10
282.4797786855
 20
39.4306768542
 10
283.2444745294
 20
39.0994501213
 10
283.9337150139
 20
38.6351796328
 10
284.539690769
 20
38.0431257589
 10
285.0555358472
 20
37.3299967065
 10
285.4754055176
 20
36.5038725128
 10
285.7945424891
 20
35.5741134949
 10
286.0093308124
 20
34.5512541941
 10
286.1173368498
 20
33.446884015
 10
286.1173368498
 20
32.2735159129
 10
286.0093308124
 20
31.0444446173
 10
285.7945424891
 20
29.7735959971
 10
285.4754055176
 20
28.4753692749
 10
285.0555358472
 20
27.1644738784
 10
284.539690769
 20
25.855762776
 10
283.9337150139
 20
24.5640641877
 10
283.2444745294
 20
23.3040135744
 10
282.4797786855
 20
22.0898878131
 10
281.6482917917
 20
20.9354434339
 10
280.7594349267
 20
19.8537607529
 10
279.8232791941
 20
18.857095667
 10
278.8504316122
 20
17.95674079
 10
277.8519149331
 20
17.1628975022
 10
276.8390427495
 20
16.4845603655
 10
275.8232913082
 20
15.9294152106
 10
274.8161694787
 20
15.5037520539
 10
273.8290883539
 20
15.2123938291
 10
272.8732319572
 20
15.0586417413
 10
271.9594305237
 20
15.0442378631
 10
271.0980377887
 20
15.1693453962
 10
270.298813676
 20
15.4325468222
 10
269.5708137143
 20
15.8308599638
 10
268.922286434
 20
16.359771774
 10
268.3605799082
 20
17.0132894706
 10
267.8920584965
 20
17.784008437
 10
267.5220307336
 20
18.6631961193
 10
267.2546891819
 20
19.6408909698
 10
267.093062928
 20
20.7060153151
 10
267.0389832619
 20
21.8465008708
  0
LWPOLYLINE
  5
16B
330
1F
100
AcDbEntity
  8
0
  6
Continuous
 62
     7
370
    15
100
AcDbPolyline
 90
       32
 70
   128
 43
0.0
 10
266.6854298714
 20
21.8465008708
 10
266.7386919392
 20
23.0508350567
 10
266.8978945923
 20
24.3034693798
 10
267.1612935732
 20
25.5906797163
 10
267.5260030274
 20
26.8983631204
 10
267.9880271219
 20
28.2121923391
 10
268.5423038239
 20
29.5177727845
 10
269.1827603621
 20
30.800800244
 10
269.9023797604
 20
32.0472176004
 10
270.6932777182
 20
33.2433688442
 10
271.546788992
 20
34.3761486921
 10
272.4535623336
 20
35.4331461711
 10
273.4036629446
 20
36.4027805955
 10
274.3866813238
 20
37.2744284477
 10
275.3918473161
 20
38.0385397714
 10
276.4081481127
 20
38.6867428031
 10
277.4244489092
 20
39.2119356946
 10
278.4296149016
 20
39.6083643229
 10
279.4126332808
 20
39.8716853328
 10
280.3627338917
 20
39.9990137243
 10
281.2695072333
 20
39.9889544609
 10
282.1230185071
 20
39.841617754
 10
282.9139164649
 20
39.5586178553
 10
283.6335358633
 20
39.143055371
 10
284.2739924014
 20
38.5994832906
 10
284.8282691035
 20
37.9338571036
 10
285.290293198
 20
37.1534695498
 10
285.6550026522
 20
36.2668707185
 10
285.918401633
 20
35.283774372
 10
286.0776042862
 20
34.2149515197
 10
286.130866354
 20
33.0721124084
 10
286.130866354
 20
33.0721124084
  0
LWPOLYLINE
  5
16C
330
1F
100
AcDbEntity
  8
0
  6
Continuous
 62
     7
370
    15
100
AcDbPolyline
 90
       17
 70
   128
 43
0.0
 10
276.4097283278
 20
16.2327828633
 10
276.4081481127
 20
16.2318704762
 10
275.3918473161
 20
15.7066775846
 10
274.3866813238
 20
15.3102489564
 10
273.4036629446
 20
15.0469279464
 10
272.4535623336
 20
14.9195995549
 10
271.546788992
 20
14.9296588183
 10
270.6932777182
 20
15.0769955253
 10
269.9023797604
 20
15.359995424
 10
269.1827603621
 20
15.7755579083
 10
268.5423038239
 20
16.3191299886
 10
267.9880271219
 20
16.9847561756
 10
267.5260030274
 20
17.7651437295
 10
267.1612935732
 20
18.6517425608
 10
266.8978945923
 20
19.6348389072
 10
266.7386919392
 20
20.7036617595
 10
266.6854298714
 20
21.8465008708
  0
SPLINE
  5
16D
330
1F
100
AcDbEntity
  8
0
  6
Continuous
 62
     7
370
    15
100
AcDbSpline
210
0.0
220
0.0
230
1.0
 70
     8
 71
     3
 72
    48
 73
    44
 74
     0
 42
0.000000001
 43
0.00000001
 40
0.0
 40
0.0
 40
0.0
 40
0.0
 40
0.0312499999999993
 40
0.0312499999999993
 40
0.0624999999999986
 40
0.0624999999999986
 40
0.1249999999999971
 40
0.1249999999999971
 40
0.1562499999999963
 40
0.1562499999999963
 40
0.1874999999999956
 40
0.1874999999999956
 40
0.2187499999999949
 40
0.2187499999999949
 40
0.2499999999999942
 40
0.2499999999999942
 40
0.312499999999993
 40
0.312499999999993
 40
0.3437499999999932
 40
0.3437499999999932
 40
0.3749999999999934
 40
0.3749999999999934
 40
0.4374999999999939
 40
0.4374999999999939
 40
0.4999999999999943
 40
0.4999999999999943
 40
0.5624999999999948
 40
0.5624999999999948
 40
0.6249999999999952
 40
0.6249999999999952
 40
0.6874999999999957
 40
0.6874999999999957
 40
0.7499999999999961
 40
0.7499999999999961
 40
0.8124999999999966
 40
0.8124999999999966
 40
0.874999999999997
 40
0.874999999999997
 40
0.9062499999999976
 40
0.9062499999999976
 40
0.9374999999999982
 40
0.9374999999999982
 40
1.0
 40
1.0
 40
1.0
 40
1.0
 10
274.0039850566371
 20
40.07463659315464
 30
0.0
 10
273.9246837880507
 20
40.02885694524685
 30
0.0
 10
273.8408001672533
 20
39.98466661370693
 30
0.0
 10
273.6637608531788
 20
39.89953546990924
 30
0.0
 10
273.5699508369033
 20
39.85835680893353
 30
0.0
 10
273.2809718998476
 20
39.74271236510604
 30
0.0
 10
273.0775085087911
 20
39.67541424798706
 30
0.0
 10
272.7569258225914
 20
39.5893950270564
 30
0.0
 10
272.6472545828584
 20
39.56322851029795
 30
0.0
 10
272.4276960857507
 20
39.51718142928223
 30
0.0
 10
272.3172119290796
 20
39.49712500994295
 30
0.0
 10
272.0948669105102
 20
39.46292676851909
 30
0.0
 10
271.9830058873883
 20
39.44878541625562
 30
0.0
 10
271.7578925286057
 20
39.42660519967898
 30
0.0
 10
271.6446372036097
 20
39.41860765469017
 30
0.0
 10
271.3093310358128
 20
39.40438787639766
 30
0.0
 10
271.0894450501049
 20
39.40758909143931
 30
0.0
 10
270.7646054345103
 20
39.4320630412137
 30
0.0
 10
270.6566897229416
 20
39.44360292462125
 30
0.0
 10
270.4457854084247
 20
39.4731397587717
 30
0.0
 10
270.3426176292013
 20
39.49111531586412
 30
0.0
 10
270.0396943538036
 20
39.55462560404437
 30
0.0
 10
269.8464617652887
 20
39.60968065915628
 30
0.0
 10
269.4774676968003
 20
39.74660937553941
 30
0.0
 10
269.3047500325453
 20
39.8275632600947
 30
0.0
 10
268.9881709576594
 20
40.01103708090842
 30
0.0
 10
268.8432400650831
 20
40.11394278004068
 30
0.0
 10
268.5812811325317
 20
40.3426548153713
 30
0.0
 10
268.467486313763
 20
40.4657546348027
 30
0.0
 10
268.2753500153151
 20
40.72599765638486
 30
0.0
 10
268.1966374708545
 20
40.86344382604061
 30
0.0
 10
268.076792285069
 20
41.1524268227033
 30
0.0
 10
268.037585776904
 20
41.29931699925147
 30
0.0
 10
268.0007986111798
 20
41.59588495702278
 30
0.0
 10
268.0033031781444
 20
41.7463604152552
 30
0.0
 10
268.0550060618317
 20
42.04489958209776
 30
0.0
 10
268.1032848601235
 20
42.18884157235711
 30
0.0
 10
268.2103847942686
 20
42.39505272306329
 30
0.0
 10
268.2519079202119
 20
42.46216522116914
 30
0.0
 10
268.3473736154616
 20
42.59272774414455
 30
0.0
 10
268.4016206556533
 20
42.65635916284808
 30
0.0
 10
268.5789886991124
 20
42.83571824713639
 30
0.0
 10
268.7177283177919
 20
42.94190434560449
 30
0.0
 10
268.8774608930347
 20
43.03411599851197
 30
0.0
  0
SPLINE
  5
16E
330
1F
100
AcDbEntity
  8
0
  6
Continuous
 62
     7
370
    15
100
AcDbSpline
210
0.0
220
0.0
230
1.0
 70
     8
 71
     3
 72
    52
 73
    48
 74
     0
 42
0.000000001
 43
0.00000001
 40
0.0
 40
0.0
 40
0.0
 40
0.0
 40
0.0312500000000006
 40
0.0312500000000006
 40
0.0625000000000013
 40
0.0625000000000013
 40
0.0937500000000019
 40
0.0937500000000019
 40
0.1250000000000026
 40
0.1250000000000026
 40
0.187500000000003
 40
0.187500000000003
 40
0.2500000000000034
 40
0.2500000000000034
 40
0.3125000000000039
 40
0.3125000000000039
 40
0.3750000000000043
 40
0.3750000000000043
 40
0.4375000000000048
 40
0.4375000000000048
 40
0.4687500000000051
 40
0.4687500000000051
 40
0.5000000000000053
 40
0.5000000000000053
 40
0.5625000000000038
 40
0.5625000000000038
 40
0.593750000000004
 40
0.593750000000004
 40
0.6250000000000042
 40
0.6250000000000042
 40
0.6875000000000047
 40
0.6875000000000047
 40
0.7187500000000049
 40
0.7187500000000049
 40
0.750000000000005
 40
0.750000000000005
 40
0.8125000000000041
 40
0.8125000000000041
 40
0.8437500000000031
 40
0.8437500000000031
 40
0.875000000000002
 40
0.875000000000002
 40
0.9375000000000008
 40
0.9375000000000008
 40
0.9687500000000003
 40
0.9687500000000003
 40
1.0
 40
1.0
 40
1.0
 40
1.0
 10
268.8774608930347
 20
43.03411599851197
 30
0.0
 10
268.9573426178177
 20
43.0802307366494
 30
0.0
 10
269.0431168085072
 20
43.12303555067857
 30
0.0
 10
269.2210228591456
 20
43.19933562381424
 30
0.0
 10
269.313460615752
 20
43.23309037734531
 30
0.0
 10
269.5050666645528
 20
43.29221658281286
 30
0.0
 10
269.6042355595533
 20
43.31758710848823
 30
0.0
 10
269.809290936876
 20
43.36013229698582
 30
0.0
 10
269.9153305967562
 20
43.37726042572896
 30
0.0
 10
270.2357613485698
 20
43.41574763293283
 30
0.0
 10
270.4549095046351
 20
43.42493089401979
 30
0.0
 10
270.9038511907937
 20
43.41432844813433
 30
0.0
 10
271.1303454912032
 20
43.39448939550677
 30
0.0
 10
271.5808745406221
 20
43.3304132199294
 30
0.0
 10
271.8011532072956
 20
43.28680771326069
 30
0.0
 10
272.2305236378513
 20
43.18121580750912
 30
0.0
 10
272.4406632849135
 20
43.11891728424219
 30
0.0
 10
272.8481534083578
 20
42.978192548912
 30
0.0
 10
273.0409212874313
 20
42.90142206936882
 30
0.0
 10
273.314501973584
 20
42.77799679982111
 30
0.0
 10
273.4030817865595
 20
42.73546027690576
 30
0.0
 10
273.5749518738964
 20
42.64763704207201
 30
0.0
 10
273.6586059874268
 20
42.6021272357705
 30
0.0
 10
273.8975959451394
 20
42.46358845975158
 30
0.0
 10
274.0416846183564
 20
42.36839024316762
 30
0.0
 10
274.235396825448
 20
42.22109558247067
 30
0.0
 10
274.2962074918473
 20
42.17123723660335
 30
0.0
 10
274.4100893584243
 20
42.06982513805506
 30
0.0
 10
274.4633168528977
 20
42.01806641349152
 30
0.0
 10
274.608147689661
 20
41.86282342203715
 30
0.0
 10
274.686022651761
 20
41.7586453754492
 30
0.0
 10
274.7744682276798
 20
41.59990445760949
 30
0.0
 10
274.7991911214168
 20
41.54657293528817
 30
0.0
 10
274.8386335045658
 20
41.43874169512152
 30
0.0
 10
274.8533120249182
 20
41.38411384444659
 30
0.0
 10
274.8808225241997
 20
41.22161710995398
 30
0.0
 10
274.8778494845196
 20
41.11396640433706
 30
0.0
 10
274.839728498304
 20
40.9516839096048
 30
0.0
 10
274.8213707636487
 20
40.89745583248224
 30
0.0
 10
274.7724716665954
 20
40.78840845817663
 30
0.0
 10
274.7420245851178
 20
40.73397808069131
 30
0.0
 10
274.6342755326643
 20
40.57370157555217
 30
0.0
 10
274.5402355324879
 20
40.4695899061975
 30
0.0
 10
274.3635751180005
 20
40.31663738975968
 30
0.0
 10
274.2981450378334
 20
40.26583851347569
 30
0.0
 10
274.1580343361808
 20
40.16780341092514
 30
0.0
 10
274.0833016531741
 20
40.12042508969985
 30
0.0
 10
274.0039850566371
 20
40.07463659315464
 30
0.0
  0
LINE
  5
16F
330
1F
100
AcDbEntity
  8
0
  6
Continuous
 62
     7
370
    15
100
AcDbLine
 10
249.1646872073
 20
59.0633241951
 30
0.0
 11
249.0844363898
 21
59.1085829429
 31
0.0
  0
LWPOLYLINE
  5
170
330
1F
100
AcDbEntity
  8
0
  6
Continuous
 62
     7
370
    15
100
AcDbPolyline
 90
       56
 70
   128
 43
0.0
 10
268.276420129
 20
22.5608579687
 10
268.3305771614
 20
23.685796159
 10
268.4923422387
 20
24.8585974381
 10
268.7596065058
 20
26.063972548
 10
269.1288857643
 20
27.2862075806
 10
269.5953658943
 20
28.5093688331
 10
270.1529656138
 20
29.7175105281
 10
270.7944157579
 20
30.8948826908
 10
271.5113540428
 20
32.0261364747
 10
272.2944340817
 20
33.0965242565
 10
273.1334472287
 20
34.0920918947
 10
274.0174556643
 20
34.9998606425
 10
274.9349349866
 20
35.807996346
 10
275.8739244496
 20
36.5059637205
 10
276.8221828896
 20
37.0846636938
 10
277.7673483076
 20
37.5365520269
 10
278.6970990271
 20
37.8557376641
 10
279.5993143254
 20
38.0380595325
 10
280.4622324465
 20
38.0811407879
 10
281.2746039329
 20
37.9844198001
 10
282.02583828
 20
37.7491574751
 10
282.7061419992
 20
37.3784208172
 10
283.3066462911
 20
36.8770429456
 10
283.8195226639
 20
36.2515600876
 10
284.2380849898
 20
35.5101263689
 10
284.5568766687
 20
34.6624075119
 10
284.7717417635
 20
33.7194548282
 10
284.8798791792
 20
32.6935611482
 10
284.8798791792
 20
31.5981005648
 10
284.7717417635
 20
30.4473540822
 10
284.5568766687
 20
29.2563234405
 10
284.2380849898
 20
28.0405355455
 10
283.8195226639
 20
26.8158400519
 10
283.3066462911
 20
25.5982027382
 10
282.7061419992
 20
24.4034973691
 10
282.02583828
 20
23.247298756
 10
281.2746039329
 20
22.1446797161
 10
280.4622324465
 20
21.1100145748
 10
279.5993143254
 20
20.1567917745
 10
278.6970990271
 20
19.2974380322
 10
277.7673483076
 20
18.5431563381
 10
276.8221828896
 20
17.9037799077
 10
275.8739244496
 20
17.3876439905
 10
274.9349349866
 20
17.0014772075
 10
274.0174556643
 20
16.7503138333
 10
273.1334472287
 20
16.6374281666
 10
272.2944340817
 20
16.6642918447
 10
271.5113540428
 20
16.8305546584
 10
270.7944157579
 20
17.1340491178
 10
270.1529656138
 20
17.5708187084
 10
269.5953658943
 20
18.1351694706
 10
269.1288857643
 20
18.8197442292
 10
268.7596065058
 20
19.6156185053
 10
268.4923422387
 20
20.5124168606
 10
268.3305771614
 20
21.498448157
 10
268.276420129
 20
22.5608579687
  0
SPLINE
  5
171
330
1F
100
AcDbEntity
  8
0
  6
Continuous
 62
     7
370
    15
100
AcDbSpline
210
0.0
220
0.0
230
1.0
 70
     8
 71
     3
 72
    18
 73
    14
 74
     0
 42
0.000000001
 43
0.00000001
 40
0.0
 40
0.0
 40
0.0
 40
0.0
 40
0.2499999999999998
 40
0.2499999999999998
 40
0.3749999999999997
 40
0.3749999999999997
 40
0.4999999999999996
 40
0.4999999999999996
 40
0.6249999999999994
 40
0.6249999999999994
 40
0.7499999999999993
 40
0.7499999999999993
 40
1.0
 40
1.0
 40
1.0
 40
1.0
 10
270.7833162676925
 20
17.82020006814092
 30
0.0
 10
270.6597086082213
 20
17.78069364386371
 30
0.0
 10
270.5384659173978
 20
17.77464312283137
 30
0.0
 10
270.3609814046775
 20
17.81632039006794
 30
0.0
 10
270.3025317084093
 20
17.83899338799354
 30
0.0
 10
270.1910078692208
 20
17.90031082307957
 30
0.0
 10
270.1374290104761
 20
17.93902296288163
 30
0.0
 10
270.0346662570379
 20
18.03257178659845
 30
0.0
 10
269.9851084824376
 20
18.08795790569359
 30
0.0
 10
269.892729786194
 20
18.21280125594409
 30
0.0
 10
269.8499431984733
 20
18.28197623263866
 30
0.0
 10
269.7313709846538
 20
18.50913833902874
 30
0.0
 10
269.6649644373269
 20
18.68859917817565
 30
0.0
 10
269.6140747796725
 20
18.88740089126555
 30
0.0
  0
LWPOLYLINE
  5
172
330
1F
100
AcDbEntity
  8
0
  6
Continuous
 62
     7
370
    15
100
AcDbPolyline
 90
       14
 70
   128
 43
0.0
 10
281.9976246186
 20
24.2940824787
 10
281.2827817057
 20
23.1434772907
 10
280.4957143018
 20
22.0567367302
 10
279.6480417703
 20
21.0499041925
 10
278.7522781796
 20
20.1378434022
 10
277.8216475593
 20
19.3340189823
 10
276.8698886761
 20
18.6502976776
 10
275.9110522102
 20
18.0967731679
 10
274.9592933269
 20
17.6816170563
 10
274.0286627067
 20
17.410958233
 10
273.132899116
 20
17.2887923956
 10
272.2852265845
 20
17.3169230608
 10
271.4981591806
 20
17.4949349396
 10
270.7833162677
 20
17.8202000681
  0
SPLINE
  5
173
330
1F
100
AcDbEntity
  8
0
  6
Continuous
 62
     7
370
    15
100
AcDbSpline
210
0.0
220
0.0
230
1.0
 70
     8
 71
     3
 72
    18
 73
    14
 74
     0
 42
0.000000001
 43
0.00000001
 40
0.0
 40
0.0
 40
0.0
 40
0.0
 40
0.2499999999999991
 40
0.2499999999999991
 40
0.374999999999999
 40
0.374999999999999
 40
0.4999999999999989
 40
0.4999999999999989
 40
0.6249999999999988
 40
0.6249999999999988
 40
0.7499999999999987
 40
0.7499999999999987
 40
1.0
 40
1.0
 40
1.0
 40
1.0
 10
283.1668661066111
 20
26.7112607887667
 30
0.0
 10
283.1800018390617
 20
26.49070388146244
 30
0.0
 10
283.163413809996
 20
26.2678616453375
 30
0.0
 10
283.0937913994171
 20
25.9298294728066
 30
0.0
 10
283.0628339607773
 20
25.81642621416884
 30
0.0
 10
282.9875813142254
 20
25.5956939210083
 30
0.0
 10
282.9431336297749
 20
25.48741620136889
 30
0.0
 10
282.8405910756464
 20
25.27503413338086
 30
0.0
 10
282.781935790558
 20
25.17010606546246
 30
0.0
 10
282.6532384470063
 20
24.96929655309728
 30
0.0
 10
282.5834555366654
 20
24.87354739875166
 30
0.0
 10
282.3582590726143
 20
24.59986718485964
 30
0.0
 10
282.1852814534426
 20
24.43427076230791
 30
0.0
 10
281.997624618591
 20
24.2940824786529
 30
0.0
  0
LWPOLYLINE
  5
174
330
1F
100
AcDbEntity
  8
0
  6
Continuous
 62
     7
370
    15
100
AcDbPolyline
 90
       10
 70
   128
 43
0.0
 10
283.1668661066
 20
36.0516225908
 10
283.6009137386
 20
35.3354033185
 10
283.931992079
 20
34.5068545751
 10
284.1553731383
 20
33.5778085146
 10
284.2678669059
 20
32.5615324511
 10
284.2678669059
 20
31.4725393933
 10
284.1553731383
 20
30.3263807903
 10
283.931992079
 20
29.1394244487
 10
283.6009137386
 20
27.9286207898
 10
283.1668661066
 20
26.7112607888
  0
SPLINE
  5
175
330
1F
100
AcDbEntity
  8
0
  6
Continuous
 62
     7
370
    15
100
AcDbSpline
210
0.0
220
0.0
230
1.0
 70
     8
 71
     3
 72
    18
 73
    14
 74
     0
 42
0.000000001
 43
0.00000001
 40
0.0
 40
0.0
 40
0.0
 40
0.0
 40
0.2499999999999988
 40
0.2499999999999988
 40
0.3749999999999989
 40
0.3749999999999989
 40
0.499999999999999
 40
0.499999999999999
 40
0.6249999999999991
 40
0.6249999999999991
 40
0.7499999999999992
 40
0.7499999999999992
 40
1.0
 40
1.0
 40
1.0
 40
1.0
 10
281.997624618591
 20
37.11882341390858
 30
0.0
 10
282.1852488179114
 20
37.12137387636061
 30
0.0
 10
282.354704025699
 20
37.09959190378083
 30
0.0
 10
282.581707048463
 20
37.02932820917523
 30
0.0
 10
282.6527264397532
 20
36.99939888076887
 30
0.0
 10
282.7808195699649
 20
36.92851619757718
 30
0.0
 10
282.8385594345916
 20
36.88740196020951
 30
0.0
 10
282.9414226123997
 20
36.79379516273794
 30
0.0
 10
282.9868348093321
 20
36.74080223468993
 30
0.0
 10
283.0626227677113
 20
36.62553651354305
 30
0.0
 10
283.0930665639522
 20
36.56348687870256
 30
0.0
 10
283.1626918925357
 20
36.36458120770409
 30
0.0
 10
283.1800041239035
 20
36.21346191389362
 30
0.0
 10
283.1668661066111
 20
36.05162259078396
 30
0.0
  0
LWPOLYLINE
  5
176
330
1F
100
AcDbEntity
  8
0
  6
Continuous
 62
     7
370
    15
100
AcDbPolyline
 90
       14
 70
   128
 43
0.0
 10
270.7833162677
 20
30.6449410034
 10
271.4981591806
 20
31.7955461913
 10
272.2852265845
 20
32.8822867519
 10
273.132899116
 20
33.8891192896
 10
274.0286627067
 20
34.8011800799
 10
274.9592933269
 20
35.6050044998
 10
275.9110522102
 20
36.2887258045
 10
276.8698886761
 20
36.8422503142
 10
277.8216475593
 20
37.2574064258
 10
278.7522781796
 20
37.528065249
 10
279.6480417703
 20
37.6502310864
 10
280.4957143018
 20
37.6221004213
 10
281.2827817057
 20
37.4440885424
 10
281.9976246186
 20
37.1188234139
  0
SPLINE
  5
177
330
1F
100
AcDbEntity
  8
0
  6
Continuous
 62
     7
370
    15
100
AcDbSpline
210
0.0
220
0.0
230
1.0
 70
     8
 71
     3
 72
    18
 73
    14
 74
     0
 42
0.000000001
 43
0.00000001
 40
0.0
 40
0.0
 40
0.0
 40
0.0
 40
0.2500000000000005
 40
0.2500000000000005
 40
0.3750000000000004
 40
0.3750000000000004
 40
0.5000000000000003
 40
0.5000000000000003
 40
0.6250000000000002
 40
0.6250000000000002
 40
0.7500000000000001
 40
0.7500000000000001
 40
1.0
 40
1.0
 40
1.0
 40
1.0
 10
269.6140747796724
 20
28.2277626932828
 30
0.0
 10
269.664955587071
 20
28.41136363876188
 30
0.0
 10
269.7297561331009
 20
28.6063733812747
 30
0.0
 10
269.8488970537235
 20
28.91581912643658
 30
0.0
 10
269.8924241873852
 20
29.02196605459356
 30
0.0
 10
269.9842461249602
 20
29.23313309964846
 30
0.0
 10
270.0328548152928
 20
29.33900872172223
 30
0.0
 10
270.1354977937911
 20
29.55133281595552
 30
0.0
 10
270.1900075012118
 20
29.65865407492105
 30
0.0
 10
270.3021141068989
 20
29.86904121638985
 30
0.0
 10
270.3595542257601
 20
29.97191571258955
 30
0.0
 10
270.5358038045753
 20
30.27385236187319
 30
0.0
 10
270.6596871077878
 20
30.46779032976135
 30
0.0
 10
270.7833162676925
 20
30.6449410033966
 30
0.0
  0
LWPOLYLINE
  5
178
330
1F
100
AcDbEntity
  8
0
  6
Continuous
 62
     7
370
    15
100
AcDbPolyline
 90
       10
 70
   128
 43
0.0
 10
269.6140747797
 20
18.8874008913
 10
269.1800271477
 20
19.6036201635
 10
268.8489488072
 20
20.432168907
 10
268.625567748
 20
21.3612149674
 10
268.5130739804
 20
22.3774910309
 10
268.5130739804
 20
23.4664840888
 10
268.625567748
 20
24.6126426917
 10
268.8489488072
 20
25.7995990334
 10
269.1800271477
 20
27.0104026923
 10
269.6140747797
 20
28.2277626933
  0
ARC
  5
179
330
1F
100
AcDbEntity
  8
0
  6
Continuous
 62
     7
370
    15
100
AcDbCircle
 10
282.2801776523
 20
35.318903196
 30
0.0
 40
1.821962954515133
100
AcDbArc
 50
98.9215321124
 51
121.0579635503
  0
LINE
  5
17A
330
1F
100
AcDbEntity
  8
0
  6
Continuous
 62
     7
370
    15
100
AcDbLine
 10
279.6433057448
 20
35.9000736055
 30
0.0
 11
281.3402179114
 21
36.8796801478
 31
0.0
  0
LWPOLYLINE
  5
17B
330
1F
100
AcDbEntity
  8
0
  6
Continuous
 62
     7
370
    15
100
AcDbPolyline
 90
        9
 70
   128
 43
0.0
 10
273.1376351414
 20
32.1444299073
 10
273.9014613672
 20
33.0173872299
 10
274.7073743377
 20
33.7965353246
 10
275.5417468414
 20
34.468699548
 10
276.3904704431
 20
35.022514251
 10
277.2391940449
 20
35.4486149605
 10
278.0735665485
 20
35.7397967244
 10
278.8794795191
 20
35.8911359395
 10
279.6433057448
 20
35.9000736055
  0
LINE
  5
17C
330
1F
100
AcDbEntity
  8
0
  6
Continuous
 62
     7
370
    15
100
AcDbLine
 10
271.4407229748
 20
31.164823365
 30
0.0
 11
273.1376351414
 21
32.1444299073
 31
0.0
  0
ARC
  5
17D
330
1F
100
AcDbEntity
  8
0
  6
Continuous
 62
     7
370
    15
100
AcDbCircle
 10
273.0294474979
 20
28.4802376116
 30
0.0
 40
3.119462498237679
100
AcDbArc
 50
120.6168359905
 51
136.0576097217
  0
ARC
  5
17E
330
1F
100
AcDbEntity
  8
0
  6
Continuous
 62
     7
370
    15
100
AcDbCircle
 10
281.2942154178
 20
24.548295747
 30
0.0
 40
11.8782486913024
100
AcDbArc
 50
146.2122724283
 51
177.4200151873
  0
LWPOLYLINE
  5
17F
330
1F
100
AcDbEntity
  8
0
  6
Continuous
 62
     7
370
    15
100
AcDbPolyline
 90
       33
 70
   128
 43
0.0
 10
277.2212050339
 20
35.440919319
 10
277.7503817974
 20
35.4359384699
 10
278.3921005585
 20
35.3065616613
 10
278.967333808
 20
35.0405360457
 10
279.4648852848
 20
34.6430395092
 10
279.8750707156
 20
34.1218088697
 10
280.1899063073
 20
33.4869892887
 10
280.4032641434
 20
32.7509368073
 10
280.5109914562
 20
31.9279778498
 10
280.5109914562
 20
31.0341303761
 10
280.4032641434
 20
30.0867921106
 10
280.1899063073
 20
29.104401915
 10
279.8750707156
 20
28.1060808972
 10
279.4648852848
 20
27.11126024
 10
278.967333808
 20
26.1393029961
 10
278.3921005585
 20
25.2091272075
 10
277.7503817974
 20
24.338837688
 10
277.0546678502
 20
23.5453736331
 10
276.3184999977
 20
22.8441789181
 10
275.5562069097
 20
22.2489015004
 10
274.782625754
 20
21.771127778
 10
274.012813408
 20
21.4201570729
 10
273.2617533933
 20
21.2028206305
 10
272.5440642387
 20
21.1233486577
 10
271.8737149474
 20
21.1832879858
 10
271.2637531057
 20
21.3814719641
 10
270.726050927
 20
21.7140431669
 10
270.2710741727
 20
22.174528474
 10
269.9076784478
 20
22.7539650626
 10
269.6429368366
 20
23.4410748588
 10
269.4820022336
 20
24.2224840518
 10
269.4280070476
 20
25.0829834006
 10
269.4280070476
 20
25.0829834006
  0
LINE
  5
180
330
1F
100
AcDbEntity
  8
0
  6
Continuous
 62
     7
370
    15
100
AcDbLine
 10
270.0265094125
 20
18.8757514461
 30
0.0
 11
271.7234215791
 21
19.8553579884
 31
0.0
  0
LINE
  5
181
330
1F
100
AcDbEntity
  8
0
  6
Continuous
 62
     7
370
    15
100
AcDbLine
 10
269.6663146968
 20
18.7089596122
 30
0.0
 11
270.0265094125
 21
18.8757514461
 31
0.0
  0
ARC
  5
182
330
1F
100
AcDbEntity
  8
0
  6
Continuous
 62
     7
370
    15
100
AcDbCircle
 10
279.3748495125
 20
36.6034957071
 30
0.0
 40
2.391972527142165
100
AcDbArc
 50
346.7582111184
 51
10.8666152616
  0
LWPOLYLINE
  5
183
330
1F
100
AcDbEntity
  8
0
  6
Continuous
 62
     7
370
    15
100
AcDbPolyline
 90
        9
 70
   128
 43
0.0
 10
281.7032245024
 20
28.2830428558
 10
282.0474533289
 20
29.406706942
 10
282.2966883457
 20
30.5153144764
 10
282.4475813522
 20
31.5939725263
 10
282.4981052656
 20
32.6281904976
 10
282.4475813522
 20
33.6040748001
 10
282.2966883457
 20
34.508515493
 10
282.0474533289
 20
35.3293624022
 10
281.7032245024
 20
36.055588345
  0
ARC
  5
184
330
1F
100
AcDbEntity
  8
0
  6
Continuous
 62
     7
370
    15
100
AcDbCircle
 10
277.9628205588
 20
27.8094336032
 30
0.0
 40
3.77026887439549
100
AcDbArc
 50
301.3793030507
 51
7.2163787538
  0
LINE
  5
185
330
1F
100
AcDbEntity
  8
0
  6
Continuous
 62
     7
370
    15
100
AcDbLine
 10
278.2290921825
 20
23.6110016866
 30
0.0
 11
279.9260043491
 21
24.5906082288
 31
0.0
  0
LWPOLYLINE
  5
186
330
1F
100
AcDbEntity
  8
0
  6
Continuous
 62
     7
370
    15
100
AcDbPolyline
 90
        9
 70
   128
 43
0.0
 10
278.2290921825
 20
23.6110016866
 10
277.4652659567
 20
22.738044364
 10
276.6593529862
 20
21.9588962693
 10
275.8249804825
 20
21.2867320459
 10
274.9762568808
 20
20.7329173429
 10
274.127533279
 20
20.3068166333
 10
273.2931607754
 20
20.0156348695
 10
272.4872478048
 20
19.8642956544
 10
271.7234215791
 20
19.8553579884
  0
ARC
  5
187
330
1F
100
AcDbEntity
  8
0
  6
Continuous
 62
     7
370
    15
100
AcDbCircle
 10
272.3120713242
 20
19.130982691
 30
0.0
 40
2.708969812923641
100
AcDbArc
 50
167.8781475344
 51
185.1588186135
  0
LWPOLYLINE
  5
188
330
1F
100
AcDbEntity
  8
0
  6
Continuous
 62
     7
370
    15
100
AcDbPolyline
 90
        9
 70
   128
 43
0.0
 10
269.6635028216
 20
19.6998432489
 10
269.319273995
 20
20.4260691917
 10
269.0700389782
 20
21.2469161009
 10
268.9191459717
 20
22.1513567937
 10
268.8686220583
 20
23.1272410963
 10
268.9191459717
 20
24.1614590675
 10
269.0700389782
 20
25.2401171175
 10
269.319273995
 20
26.3487246519
 10
269.6635028216
 20
27.4723887381
  0
ARC
  5
189
330
1F
100
AcDbEntity
  8
0
  6
Continuous
 62
     7
370
    15
100
AcDbCircle
 10
271.7840392577
 20
27.9904505972
 30
0.0
 40
2.182902395199513
100
AcDbArc
 50
173.7588101909
 51
193.7288361877
  0
LWPOLYLINE
  5
18A
330
1F
100
AcDbEntity
  8
0
  6
Continuous
 62
     7
370
    15
100
AcDbPolyline
 90
       29
 70
   128
 43
0.0
 10
277.0705459435
 20
35.3741752577
 10
277.4191737236
 20
35.3379144152
 10
278.0249163048
 20
35.1639711265
 10
278.5599601788
 20
34.8549964629
 10
279.0134133953
 20
34.4172802577
 10
279.3760449543
 20
33.8597331505
 10
279.6404727231
 20
33.1937051925
 10
279.8013137149
 20
32.4327547923
 10
279.855293671
 20
31.5923727057
 10
279.8013137149
 20
30.6896666885
 10
279.6404727231
 20
29.743013232
 10
279.3760449543
 20
28.7716834707
 10
279.0134133953
 20
27.7954508774
 10
278.5599601788
 20
26.8341887324
 10
278.0249163048
 20
25.9074655611
 10
277.4191737236
 20
25.0341467747
 10
276.7550636073
 20
24.2320106253
 10
276.0461053227
 20
23.5173862917
 10
275.3067312161
 20
22.9048214646
 10
274.5519928121
 20
22.4067861973
 10
273.797254408
 20
22.0334190516
 10
273.0578803014
 20
21.792320706
 10
272.3489220168
 20
21.6883992274
 10
271.6848119005
 20
21.7237701576
 10
271.0790693193
 20
21.8977134463
 10
270.5440254453
 20
22.2066881099
 10
270.0905722288
 20
22.6444043151
 10
269.7279406698
 20
23.2019514223
 10
269.7009587633
 20
23.25573734
  0
ARC
  5
18B
330
1F
100
AcDbEntity
  8
0
  6
Continuous
 62
     7
370
    15
100
AcDbCircle
 10
270.500763234
 20
19.620120286
 30
0.0
 40
1.821962954515361
100
AcDbArc
 50
278.9215321124
 51
301.0579635503
  0
ARC
  5
18C
330
1F
100
AcDbEntity
  8
0
  6
Continuous
 62
     7
370
    15
100
AcDbCircle
 10
280.4688695621
 20
35.808040791
 30
0.0
 40
2.708969812923005
100
AcDbArc
 50
347.8781475344
 51
5.1588186135
  0
LINE
  5
18D
330
1F
100
AcDbEntity
  8
0
  6
Continuous
 62
     7
370
    15
100
AcDbLine
 10
281.7032245024
 20
36.055588345
 30
0.0
 11
283.1174380647
 21
35.2391802332
 31
0.0
  0
LWPOLYLINE
  5
18E
330
1F
100
AcDbEntity
  8
0
  6
Continuous
 62
     7
370
    15
100
AcDbPolyline
 90
        9
 70
   128
 43
0.0
 10
279.6433057448
 20
22.7945935748
 10
278.8794795191
 20
21.9216362522
 10
278.0735665485
 20
21.1424881575
 10
277.2391940449
 20
20.470323934
 10
276.3904704431
 20
19.9165092311
 10
275.5417468414
 20
19.4904085215
 10
274.7073743377
 20
19.1992267577
 10
273.9014613672
 20
19.0478875426
 10
273.1376351414
 20
19.0389498765
  0
LINE
  5
18F
330
1F
100
AcDbEntity
  8
0
  6
Continuous
 62
     7
370
    15
100
AcDbLine
 10
281.3402179114
 20
23.774200117
 30
0.0
 11
279.6433057448
 21
22.7945935748
 31
0.0
  0
ARC
  5
190
330
1F
100
AcDbEntity
  8
0
  6
Continuous
 62
     7
370
    15
100
AcDbCircle
 10
279.7514933884
 20
26.4587858705
 30
0.0
 40
3.119462498238898
100
AcDbArc
 50
300.6168359906
 51
316.0576097217
  0
LINE
  5
191
330
1F
100
AcDbEntity
  8
0
  6
Continuous
 62
     7
370
    15
100
AcDbLine
 10
273.1376351414
 20
19.0389498765
 30
0.0
 11
271.4407229748
 21
18.0593433343
 31
0.0
  0
LINE
  5
192
330
1F
100
AcDbEntity
  8
0
  6
Continuous
 62
     7
370
    15
100
AcDbLine
 10
271.7234215791
 20
19.8553579884
 30
0.0
 11
273.1376351414
 21
19.0389498765
 31
0.0
  0
LINE
  5
193
330
1F
100
AcDbEntity
  8
0
  6
Continuous
 62
     7
370
    15
100
AcDbLine
 10
279.6433057448
 20
22.7945935748
 30
0.0
 11
278.2290921825
 21
23.6110016866
 31
0.0
  0
ARC
  5
194
330
1F
100
AcDbEntity
  8
0
  6
Continuous
 62
     7
370
    15
100
AcDbCircle
 10
280.9969016286
 20
26.9485728849
 30
0.0
 40
2.182902395196596
100
AcDbArc
 50
353.7588101909
 51
13.7288361877
  0
LWPOLYLINE
  5
195
330
1F
100
AcDbEntity
  8
0
  6
Continuous
 62
     7
370
    15
100
AcDbPolyline
 90
        9
 70
   128
 43
0.0
 10
283.1174380647
 20
35.2391802332
 10
283.4616668912
 20
34.5129542903
 10
283.710901908
 20
33.6921073812
 10
283.8617949146
 20
32.7876666883
 10
283.912318828
 20
31.8117823858
 10
283.8617949146
 20
30.7775644145
 10
283.710901908
 20
29.6989063646
 10
283.4616668912
 20
28.5902988302
 10
283.1174380647
 20
27.4666347439
  0
LINE
  5
196
330
1F
100
AcDbEntity
  8
0
  6
Continuous
 62
     7
370
    15
100
AcDbLine
 10
281.7032245024
 20
28.2830428558
 30
0.0
 11
283.1174380647
 21
27.4666347439
 31
0.0
  0
ARC
  5
197
330
1F
100
AcDbEntity
  8
0
  6
Continuous
 62
     7
370
    15
100
AcDbCircle
 10
246.0251799103
 20
56.8912397172
 30
0.0
 40
5.445834604965942
100
AcDbArc
 50
38.1323437877
 51
81.9843531058
  0
ARC
  5
198
330
1F
100
AcDbEntity
  8
0
  6
Continuous
 62
     7
370
    15
100
AcDbCircle
 10
235.7259639314
 20
39.0506865156
 30
0.0
 40
5.444394052233175
100
AcDbArc
 50
218.0780041002
 51
261.683797159
  0
ARC
  5
199
330
1F
100
AcDbEntity
  8
0
  6
Continuous
 62
     7
370
    15
100
AcDbCircle
 10
235.126383899
 20
40.9142657758
 30
0.0
 40
6.771734868679792
100
AcDbArc
 50
187.8587342088
 51
237.1677505261
  0
SPLINE
  5
19A
330
1F
100
AcDbEntity
  8
0
  6
Continuous
 62
     7
370
    15
100
AcDbSpline
210
0.0
220
0.0
230
1.0
 70
     8
 71
     3
 72
    29
 73
    25
 74
     0
 42
0.000000001
 43
0.00000001
 40
0.0
 40
0.0
 40
0.0
 40
0.0
 40
0.022617010504675
 40
0.0451713142265269
 40
0.0676870228522217
 40
0.0901883721292881
 40
0.1126996441720091
 40
0.1352450890217754
 40
0.1578488467233686
 40
0.180534871159394
 40
0.2033268568200607
 40
0.2262481695790738
 40
0.2493217824052779
 40
0.3751991801918881
 40
0.4999614246459502
 40
0.499971796076067
 40
0.6247044141121627
 40
0.7509557879398104
 40
0.7931713871196749
 40
0.8349081045063343
 40
0.8763104515934019
 40
0.9175264576337645
 40
0.9587061619419153
 40
1.0
 40
1.0
 40
1.0
 40
1.0
 10
228.4184091731193
 20
45.14261221501629
 30
0.0
 10
228.4367743982432
 20
45.09377232521108
 30
0.0
 10
228.473453929994
 20
44.99622795661632
 30
0.0
 10
228.5251437586616
 20
44.84876534720272
 30
0.0
 10
228.5743251184863
 20
44.70082805767343
 30
0.0
 10
228.6208147883868
 20
44.55233619243652
 30
0.0
 10
228.6647248848468
 20
44.40334422630146
 30
0.0
 10
228.7060900763026
 20
44.25387243772342
 30
0.0
 10
228.744967363007
 20
44.10395233441759
 30
0.0
 10
228.7814092080283
 20
43.95361352444206
 30
0.0
 10
228.8154711891135
 20
43.80289107282552
 30
0.0
 10
228.8472082422084
 20
43.65180937610123
 30
0.0
 10
228.9203665140755
 20
43.27608816915141
 30
0.0
 10
229.0060430541085
 20
42.68731774744502
 30
0.0
 10
229.0317754159366
 20
42.18583414343357
 30
0.0
 10
229.0322125721642
 20
41.71538131820024
 30
0.0
 10
229.0067815154526
 20
41.26893878830783
 30
0.0
 10
228.9148141994105
 20
40.83291211681912
 30
0.0
 10
228.8222603053622
 20
40.56471923420007
 30
0.0
 10
228.758677681472
 20
40.41846812336418
 30
0.0
 10
228.687032177436
 20
40.28754779151793
 30
0.0
 10
228.6067774031241
 20
40.17210145906777
 30
0.0
 10
228.5183757435318
 20
40.07057945462407
 30
0.0
 10
228.4520190896214
 20
40.01558057766258
 30
0.0
 10
228.4187948477369
 20
39.98804308317082
 30
0.0
  0
LWPOLYLINE
  5
19B
330
1F
100
AcDbEntity
  8
0
  6
Continuous
 62
     7
370
    15
100
AcDbPolyline
 90
       23
 70
   128
 43
0.0
 10
228.418190432
 20
45.1427384916
 10
228.7001748073
 20
46.5678378351
 10
229.091376272
 20
48.0165362049
 10
229.587775103
 20
49.4739477507
 10
230.1842706394
 20
50.9250970912
 10
230.8747336944
 20
52.3550731916
 10
231.6520695336
 20
53.7491825787
 10
232.5082907766
 20
55.0931003218
 10
233.4345994697
 20
56.3730172258
 10
234.4214774875
 20
57.5757817251
 10
235.4587843349
 20
58.6890350202
 10
236.5358613442
 20
59.701338069
 10
237.6416411963
 20
60.6022891257
 10
238.7647616408
 20
61.3826306231
 10
239.893682247
 20
62.0343442966
 10
241.016802986
 20
62.5507335747
 10
242.122583424
 20
62.9264923883
 10
243.1996613048
 20
63.1577596925
 10
244.2369693001
 20
63.2421591399
 10
245.2238487305
 20
63.1788234987
 10
246.1501590864
 20
62.9684035631
 10
247.0063822253
 20
62.6130614671
 10
247.2035962937
 20
62.504776404
  0
SPLINE
  5
19C
330
1F
100
AcDbEntity
  8
0
  6
Continuous
 62
     7
370
    15
100
AcDbSpline
210
0.0
220
0.0
230
1.0
 70
     8
 71
     3
 72
     8
 73
     4
 74
     0
 42
0.000000001
 43
0.00000001
 40
0.0
 40
0.0
 40
0.0
 40
0.0
 40
1.0
 40
1.0
 40
1.0
 40
1.0
 10
227.6402540349442
 20
48.42151561852064
 30
0.0
 10
226.9471827998914
 20
48.30565400014593
 30
0.0
 10
226.2535620334952
 20
48.19089530699287
 30
0.0
 10
225.5595828726678
 20
48.07688375935471
 30
0.0
  0
SPLINE
  5
19D
330
1F
100
AcDbEntity
  8
0
  6
Continuous
 62
     7
370
    15
100
AcDbSpline
210
0.0
220
0.0
230
1.0
 70
     8
 71
     3
 72
     8
 73
     4
 74
     0
 42
0.000000001
 43
0.00000001
 40
0.0
 40
0.0
 40
0.0
 40
0.0
 40
0.0012389803509652
 40
0.0012389803509652
 40
0.0012389803509652
 40
0.0012389803509652
 10
225.0858464585223
 20
48.35041788010872
 30
0.0
 10
225.2439197935033
 20
48.25914679965822
 30
0.0
 10
225.4018379724693
 20
48.16796527255796
 30
0.0
 10
225.5595828726678
 20
48.07688375935471
 30
0.0
  0
LWPOLYLINE
  5
19E
330
1F
100
AcDbEntity
  8
0
  6
Continuous
 62
     7
370
    15
100
AcDbPolyline
 90
       25
 70
   128
 43
0.0
 10
225.0858464585
 20
48.3504178801
 10
225.4467044961
 20
49.7608291639
 10
225.9086536604
 20
51.182543268
 10
226.4671729414
 20
52.6016461421
 10
227.1167962151
 20
54.0042492914
 10
227.8511657401
 20
55.376625701
 10
228.6630943789
 20
56.7053441796
 10
229.5446359377
 20
57.9774008074
 10
230.487162934
 20
59.1803462041
 10
231.4814510321
 20
60.3024073679
 10
232.5177693203
 20
61.3326028957
 10
233.585975545
 20
62.2608504564
 10
234.6756153717
 20
63.0780654645
 10
235.7760246987
 20
63.7762499896
 10
236.8764340258
 20
64.3485710301
 10
237.9660738524
 20
64.7894273869
 10
239.0342800772
 20
65.0945044813
 10
240.0705983654
 20
65.2608165806
 10
241.0648864635
 20
65.2867360196
 10
242.0074134598
 20
65.1720091294
 10
242.8889550186
 20
64.9177587207
 10
243.7008836574
 20
64.5264730947
 10
244.4352531823
 20
64.0019816908
 10
245.0848764561
 20
63.3494176084
 10
245.2240217168
 20
63.1787987438
  0
LINE
  5
19F
330
1F
100
AcDbEntity
  8
0
  6
Continuous
 62
     7
370
    15
100
AcDbLine
 10
222.0541261342
 20
50.1005927698
 30
0.0
 11
225.0858464585
 21
48.3504178801
 31
0.0
  0
ARC
  5
1A0
330
1F
100
AcDbEntity
  8
0
  6
Continuous
 62
     7
370
    15
100
AcDbCircle
 10
237.8841149316
 20
61.5161849104
 30
0.0
 40
5.515594425158491
100
AcDbArc
 50
60.2784668012
 51
81.3172543569
  0
LINE
  5
1A1
330
1F
100
AcDbEntity
  8
0
  6
Continuous
 62
     7
370
    15
100
AcDbLine
 10
228.0428494374
 20
48.3603532278
 30
0.0
 11
228.0335267865
 21
48.3657350796
 31
0.0
  0
SPLINE
  5
1A2
330
1F
100
AcDbEntity
  8
0
  6
Continuous
 62
     7
370
    15
100
AcDbSpline
210
0.0
220
0.0
230
1.0
 70
     8
 71
     3
 72
    10
 73
     6
 74
     0
 42
0.000000001
 43
0.00000001
 40
0.0
 40
0.0
 40
0.0
 40
0.0
 40
0.2534901721302325
 40
0.7179017518723985
 40
1.0
 40
1.0
 40
1.0
 40
1.0
 10
228.9739941635886
 20
47.54147106285258
 30
0.0
 10
228.9036106390751
 20
47.62820228618876
 30
0.0
 10
228.7042796152072
 20
47.87383112714868
 30
0.0
 10
228.3864555794495
 20
48.14453444429967
 30
0.0
 10
228.1370842514
 20
48.30116440539064
 30
0.0
 10
228.0428494374033
 20
48.36035322779924
 30
0.0
  0
SPLINE
  5
1A3
330
1F
100
AcDbEntity
  8
0
  6
Continuous
 62
     7
370
    15
100
AcDbSpline
210
0.0
220
0.0
230
1.0
 70
     8
 71
     3
 72
    10
 73
     6
 74
     0
 42
0.000000001
 43
0.00000001
 40
0.0
 40
0.0
 40
0.0
 40
0.0
 40
0.5
 40
0.5
 40
1.0
 40
1.0
 40
1.0
 40
1.0
 10
228.0335267864962
 20
48.36573507961198
 30
0.0
 10
227.9837261876834
 20
48.3944843533611
 30
0.0
 10
227.9186942709395
 20
48.41524769872176
 30
0.0
 10
227.781635910594
 20
48.43420138810954
 30
0.0
 10
227.7080970705442
 20
48.43285702688173
 30
0.0
 10
227.6402540349442
 20
48.42151561852064
 30
0.0
  0
SPLINE
  5
1A4
330
1F
100
AcDbEntity
  8
0
  6
Continuous
 62
     7
370
    15
100
AcDbSpline
210
0.0
220
0.0
230
1.0
 70
     8
 71
     3
 72
     8
 73
     4
 74
     0
 42
0.000000001
 43
0.00000001
 40
0.0
 40
0.0
 40
0.0
 40
0.0
 40
1.0
 40
1.0
 40
1.0
 40
1.0
 10
221.8973015266238
 20
50.19111444901751
 30
0.0
 10
221.9196803231433
 20
50.17820249756567
 30
0.0
 10
221.9738677541605
 20
50.14692494640865
 30
0.0
 10
222.054126134185
 20
50.10059276982865
 30
0.0
  0
LINE
  5
1A5
330
1F
100
AcDbEntity
  8
0
  6
Continuous
 62
     7
370
    15
100
AcDbLine
 10
221.8973015266
 20
50.191114449
 30
0.0
 11
221.9205542163
 21
50.3383045431
 31
0.0
  0
SPLINE
  5
1A6
330
1F
100
AcDbEntity
  8
0
  6
Continuous
 62
     7
370
    15
100
AcDbSpline
210
0.0
220
0.0
230
1.0
 70
     8
 71
     3
 72
    11
 73
     7
 74
     0
 42
0.000000001
 43
0.00000001
 40
0.0
 40
0.0
 40
0.0
 40
0.0
 40
0.2912888849922404
 40
0.5549624174218817
 40
0.7913417921254566
 40
1.0
 40
1.0
 40
1.0
 40
1.0
 10
228.526834522403
 20
40.71417182193132
 30
0.0
 10
228.6177713372435
 20
40.80572938854443
 30
0.0
 10
228.791023792784
 20
40.98016449787661
 30
0.0
 10
228.9421145110473
 20
41.39756254061525
 30
0.0
 10
229.020703889104
 20
41.85169434112542
 30
0.0
 10
229.0283324904418
 20
42.19566147297866
 30
0.0
 10
229.0319092002435
 20
42.35693226922123
 30
0.0
  0
SPLINE
  5
1A7
330
1F
100
AcDbEntity
  8
0
  6
Continuous
 62
     7
370
    15
100
AcDbSpline
210
0.0
220
0.0
230
1.0
 70
     8
 71
     3
 72
     9
 73
     5
 74
     0
 42
0.000000001
 43
0.00000001
 40
0.0
 40
0.0
 40
0.0
 40
0.0
 40
0.5067661696360637
 40
0.9999999999999999
 40
0.9999999999999999
 40
0.9999999999999999
 40
0.9999999999999999
 10
228.4181130579306
 20
39.98754105538718
 30
0.0
 10
228.4363820752464
 20
40.10999540923994
 30
0.0
 10
228.4724322664597
 20
40.35163417913003
 30
0.0
 10
228.5091130058948
 20
40.59378457726108
 30
0.0
 10
228.527205187507
 20
40.71322134565541
 30
0.0
  0
SPLINE
  5
1A8
330
1F
100
AcDbEntity
  8
0
  6
Continuous
 62
     7
370
    15
100
AcDbSpline
210
0.0
220
0.0
230
1.0
 70
     8
 71
     3
 72
    10
 73
     6
 74
     0
 42
0.000000001
 43
0.00000001
 40
0.0
 40
0.0
 40
0.0
 40
0.0
 40
0.4807908150149394
 40
0.9757817590326827
 40
1.0
 40
1.0
 40
1.0
 40
1.0
 10
228.0428494374033
 20
41.78719969211895
 30
0.0
 10
228.1926403843035
 20
41.70702931675692
 30
0.0
 10
228.4966463450849
 20
41.54432073861854
 30
0.0
 10
228.7862617892836
 20
41.43281930789708
 30
0.0
 10
228.9206002199624
 20
41.40458769041776
 30
0.0
 10
228.9268663658231
 20
41.40327084138122
 30
0.0
  0
LINE
  5
1A9
330
1F
100
AcDbEntity
  8
0
  6
Continuous
 62
     7
370
    15
100
AcDbLine
 10
222.3307347741
 20
49.9408580908
 30
0.0
 11
221.8973015266
 21
50.191114449
 31
0.0
  0
LINE
  5
1AA
330
1F
100
AcDbEntity
  8
0
  6
Continuous
 62
     7
370
    15
100
AcDbLine
 10
225.5595828727
 20
48.0768837594
 30
0.0
 11
222.3307347741
 21
49.9408580908
 31
0.0
  0
SPLINE
  5
1AB
330
1F
100
AcDbEntity
  8
0
  6
Continuous
 62
     7
370
    15
100
AcDbSpline
210
0.0
220
0.0
230
1.0
 70
     8
 71
     3
 72
    11
 73
     7
 74
     0
 42
0.000000001
 43
0.00000001
 40
0.0
 40
0.0
 40
0.0
 40
0.0
 40
0.21800253697792
 40
0.5290085500354185
 40
0.8400525035994036
 40
1.0
 40
1.0
 40
1.0
 40
1.0
 10
224.4357996954602
 20
45.92703214503276
 30
0.0
 10
224.4310775108351
 20
46.1334264756739
 30
0.0
 10
224.4196185797776
 20
46.63426636084944
 30
0.0
 10
224.3545461674035
 20
47.45299290347126
 30
0.0
 10
224.3138182052957
 20
48.20715929177683
 30
0.0
 10
224.3347032368821
 20
48.63470415911501
 30
0.0
 10
224.3417957403974
 20
48.77989730675031
 30
0.0
  0
LINE
  5
1AC
330
1F
100
AcDbEntity
  8
0
  6
Continuous
 62
     7
370
    15
100
AcDbLine
 10
224.4357996955
 20
45.5066767896
 30
0.0
 11
224.4357996955
 21
45.927032145
 31
0.0
  0
LINE
  5
1AD
330
1F
100
AcDbEntity
  8
0
  6
Continuous
 62
     7
370
    15
100
AcDbLine
 10
223.8259200967
 20
48.7420456047
 30
0.0
 11
223.8311079914
 21
49.074711069
 31
0.0
  0
ARC
  5
1AE
330
1F
100
AcDbEntity
  8
0
  6
Continuous
 62
     7
370
    15
100
AcDbCircle
 10
231.2512664388
 20
48.5429396143
 30
0.0
 40
7.428015313391034
100
AcDbArc
 50
178.4640177796
 51
203.4316121455
  0
LINE
  5
1AF
330
1F
100
AcDbEntity
  8
0
  6
Continuous
 62
     7
370
    15
100
AcDbLine
 10
211.5425506273
 20
72.2164706722
 30
0.0
 11
211.7191667164
 21
72.1609985121
 31
0.0
  0
LINE
  5
1B0
330
1F
100
AcDbEntity
  8
0
  6
Continuous
 62
     7
370
    15
100
AcDbLine
 10
205.3476973051
 20
61.1240939011
 30
0.0
 11
205.2639273271
 21
61.1985334785
 31
0.0
  0
LINE
  5
1B1
330
1F
100
AcDbEntity
  8
0
  6
Continuous
 62
     7
370
    15
100
AcDbLine
 10
228.0335267865
 20
41.7925815439
 30
0.0
 11
228.0428494374
 21
41.7871996921
 31
0.0
  0
ARC
  5
1B2
330
1F
100
AcDbEntity
  8
0
  6
Continuous
 62
     7
370
    15
100
AcDbCircle
 10
230.8297562819
 20
42.4067314402
 30
0.0
 40
5.882269120093943
100
AcDbArc
 50
192.4515759335
 51
260.7205307149
  0
SPLINE
  5
1B3
330
1F
100
AcDbEntity
  8
0
  6
Continuous
 62
     7
370
    15
100
AcDbSpline
210
0.0
220
0.0
230
1.0
 70
     8
 71
     3
 72
     8
 73
     4
 74
     0
 42
0.000000001
 43
0.00000001
 40
0.0
 40
0.0
 40
0.0
 40
0.0
 40
0.0012389803509652
 40
0.0012389803509652
 40
0.0012389803509652
 40
0.0012389803509652
 10
225.5595828726678
 20
41.50373022367443
 30
0.0
 10
225.4018379724693
 20
41.3816537731397
 30
0.0
 10
225.2439197935033
 20
41.25989647013888
 30
0.0
 10
225.0858464585222
 20
41.13842944859444
 30
0.0
  0
SPLINE
  5
1B4
330
1F
100
AcDbEntity
  8
0
  6
Continuous
 62
     7
370
    15
100
AcDbSpline
210
0.0
220
0.0
230
1.0
 70
     8
 71
     3
 72
     8
 73
     4
 74
     0
 42
0.000000001
 43
0.00000001
 40
0.0
 40
0.0
 40
0.0
 40
0.0
 40
1.0
 40
1.0
 40
1.0
 40
1.0
 10
225.5595828726678
 20
41.50373022367443
 30
0.0
 10
226.2535634556094
 20
41.61774200494704
 30
0.0
 10
226.9471965163713
 20
41.7325027574674
 30
0.0
 10
227.6402540349442
 20
41.84836208284035
 30
0.0
  0
SPLINE
  5
1B5
330
1F
100
AcDbEntity
  8
0
  6
Continuous
 62
     7
370
    15
100
AcDbSpline
210
0.0
220
0.0
230
1.0
 70
     8
 71
     3
 72
    12
 73
     8
 74
     0
 42
0.000000001
 43
0.00000001
 40
0.0
 40
0.0
 40
0.0
 40
0.0
 40
0.2499999999999984
 40
0.2499999999999984
 40
0.4999999999999968
 40
0.4999999999999968
 40
1.0
 40
1.0
 40
1.0
 40
1.0
 10
227.6402540349442
 20
41.84836208284035
 30
0.0
 10
227.6740425508683
 20
41.85401055292459
 30
0.0
 10
227.7096143269372
 20
41.85727101644004
 30
0.0
 10
227.7801965733297
 20
41.85840860598816
 30
0.0
 10
227.8152195317786
 20
41.85639198953014
 30
0.0
 10
227.9194248270436
 20
41.84201625219055
 30
0.0
 10
227.9831352589832
 20
41.82167195355814
 30
0.0
 10
228.0335267864962
 20
41.7925815439317
 30
0.0
  0
LINE
  5
1B6
330
1F
100
AcDbEntity
  8
0
  6
Continuous
 62
     7
370
    15
100
AcDbLine
 10
222.3307347741
 20
43.3677045551
 30
0.0
 11
225.5595828727
 21
41.5037302237
 31
0.0
  0
LINE
  5
1B7
330
1F
100
AcDbEntity
  8
0
  6
Continuous
 62
     7
370
    15
100
AcDbLine
 10
222.3307347741
 20
43.3677045551
 30
0.0
 11
224.2236676611
 21
44.4604714506
 31
0.0
  0
LINE
  5
1B8
330
1F
100
AcDbEntity
  8
0
  6
Continuous
 62
     7
370
    15
100
AcDbLine
 10
221.8973015266
 20
43.1174481969
 30
0.0
 11
222.3307347741
 21
43.3677045551
 31
0.0
  0
LINE
  5
1B9
330
1F
100
AcDbEntity
  8
0
  6
Continuous
 62
     7
370
    15
100
AcDbLine
 10
225.0858464585
 20
41.1384294486
 30
0.0
 11
222.0541261342
 21
42.8886043383
 31
0.0
  0
SPLINE
  5
1BA
330
1F
100
AcDbEntity
  8
0
  6
Continuous
 62
     7
370
    15
100
AcDbSpline
210
0.0
220
0.0
230
1.0
 70
     8
 71
     3
 72
     8
 73
     4
 74
     0
 42
0.000000001
 43
0.00000001
 40
0.0
 40
0.0
 40
0.0
 40
0.0
 40
1.0
 40
1.0
 40
1.0
 40
1.0
 10
222.054126134185
 20
42.88860433831438
 30
0.0
 10
221.9741013346702
 20
42.93480167173634
 30
0.0
 10
221.9196245372883
 20
43.01798919410104
 30
0.0
 10
221.8973015266238
 20
43.11744819694216
 30
0.0
  0
ARC
  5
1BB
330
1F
100
AcDbEntity
  8
0
  6
Continuous
 62
     7
370
    15
100
AcDbCircle
 10
227.6323337176
 20
43.7690394938
 30
0.0
 40
5.489139948493316
100
AcDbArc
 50
218.1309193603
 51
239.7849931837
  0
ELLIPSE
  5
1BC
330
1F
100
AcDbEntity
  8
0
  6
Continuous
 62
     7
370
    15
100
AcDbEllipse
 10
223.9893530861
 20
45.248971025
 30
0.0
 11
-6.005970385558612E-5
 21
0.8534489614827194
 31
0.0
210
0.0
220
0.0
230
1.0
 40
0.7174342186
 41
3.534193645557425
 42
5.104989972352362
  0
ELLIPSE
  5
1BD
330
1F
100
AcDbEntity
  8
0
  6
Continuous
 62
     7
370
    15
100
AcDbEllipse
 10
223.8701142705
 20
45.1801135449
 30
0.0
 11
0.26000757892092
 21
0.9705436209909237
 31
0.0
210
0.0
220
0.0
230
1.0
 40
0.5176380889
 41
3.619174351347695
 42
5.189970678142625
  0
LWPOLYLINE
  5
1BE
330
1F
100
AcDbEntity
  8
0
  6
Continuous
 62
     7
370
    15
100
AcDbPolyline
 90
       27
 70
   128
 43
0.0
 10
269.4961793266
 20
40.4318151421
 10
269.087324476
 20
40.7330811972
 10
268.8152405919
 20
41.0820779383
 10
268.6957402007
 20
41.4585229431
 10
268.7357682307
 20
41.8405385964
 10
268.9329983984
 20
42.2059235369
 10
269.2759684032
 20
42.53344292
 10
269.7447460751
 20
42.8040625097
 10
270.3120877598
 20
43.0020548791
 10
270.9450216208
 20
43.1159134314
 10
271.6067638427
 20
43.1390211212
 10
272.2588563729
 20
43.0700350138
 10
272.8634019638
 20
42.9129643308
 10
273.3852666231
 20
42.6769374496
 10
273.7941214737
 20
42.3756713944
 10
274.0662053577
 20
42.0266746534
 10
274.185705749
 20
41.6502296486
 10
274.1456777189
 20
41.2682139953
 10
273.9484475513
 20
40.9028290548
 10
273.6054775465
 20
40.5753096716
 10
273.1366998746
 20
40.3046900819
 10
272.5693581898
 20
40.1066977125
 10
271.9364243288
 20
39.9928391603
 10
271.2746821069
 20
39.9697314705
 10
270.6225895767
 20
40.0387175779
 10
270.0180439858
 20
40.1957882608
 10
269.4961793266
 20
40.4318151421
  0
LWPOLYLINE
  5
1BF
330
1F
100
AcDbEntity
  8
0
  6
Continuous
 62
     7
370
    15
100
AcDbPolyline
 90
        8
 70
   128
 43
0.0
 10
269.3194026313
 20
40.1256289251
 10
268.8873729575
 20
40.441053506
 10
268.5929950441
 20
40.805492625
 10
268.4521388806
 20
41.1992992749
 10
268.4723980591
 20
41.6012432373
 10
268.6526804022
 20
41.9896556091
 10
268.983266842
 20
42.3435969788
 10
269.3190579411
 20
42.5746542428
  0
LWPOLYLINE
  5
1C0
330
1F
100
AcDbEntity
  8
0
  6
Continuous
 62
     7
370
    15
100
AcDbPolyline
 90
       15
 70
   128
 43
0.0
 10
273.5623880086
 20
42.5746542428
 10
273.7939699696
 20
42.424404076
 10
274.1596463359
 20
42.0821580811
 10
274.3787448401
 20
41.7004542519
 10
274.4394538251
 20
41.2998703406
 10
274.3385004537
 20
40.9020019297
 10
274.0813271484
 20
40.528298208
 10
273.6817981886
 20
40.1989056401
 10
273.1614522839
 20
39.9315818644
 10
272.5483414168
 20
39.7407383749
 10
271.8755185528
 20
39.6366635935
 10
271.1792557466
 20
39.6249682187
 10
270.4970887064
 20
39.7062827511
 10
269.8657932338
 20
39.8762235032
 10
269.3194026313
 20
40.1256289251
  0
LWPOLYLINE
  5
1C1
330
1F
100
AcDbEntity
  8
0
  6
Continuous
 62
     7
370
    15
100
AcDbPolyline
 90
       22
 70
   128
 43
0.0
 10
270.2032861078
 20
40.840019198
 10
269.8935210362
 20
41.0823165305
 10
269.7212316467
 20
41.3665584447
 10
269.7017266075
 20
41.6674887993
 10
269.8367390271
 20
41.9583686115
 10
270.1142724593
 20
42.2133519336
 10
270.5096668409
 20
42.4097823784
 10
270.9877896459
 20
42.5302062389
 10
271.5061575648
 20
42.5639233266
 10
272.0187113333
 20
42.5079377302
 10
272.4799082996
 20
42.3672240158
 10
272.8487690894
 20
42.1542852144
 10
273.0925188029
 20
41.8880418729
 10
273.1894992082
 20
41.5921508806
 10
273.1310931708
 20
41.2929034506
 10
272.9224903235
 20
41.0168890305
 10
272.5822259446
 20
40.7886327125
 10
272.1405340174
 20
40.6284160724
 10
271.636660808
 20
40.5504750616
 10
271.1153776623
 20
40.561735081
 10
270.6230028754
 20
40.6611956285
 10
270.2032861078
 20
40.840019198
  0
SPLINE
  5
1C2
330
1F
100
AcDbEntity
  8
0
  6
Continuous
 62
     7
370
    15
100
AcDbSpline
210
0.0
220
0.0
230
1.0
 70
     8
 71
     3
 72
     9
 73
     5
 74
     0
 42
0.000000001
 43
0.00000001
 40
0.0
 40
0.0
 40
0.0
 40
0.0
 40
0.6311775999677
 40
1.0
 40
1.0
 40
1.0
 40
1.0
 10
270.3802313212315
 20
40.74245811571451
 30
0.0
 10
270.245263477079
 20
40.83539304689029
 30
0.0
 10
270.0314285054966
 20
40.98263358771516
 30
0.0
 10
269.8387532993266
 20
41.20055481579467
 30
0.0
 10
269.7676903673603
 20
41.28092904615293
 30
0.0
  0
SPLINE
  5
1C3
330
1F
100
AcDbEntity
  8
0
  6
Continuous
 62
     7
370
    15
100
AcDbSpline
210
0.0
220
0.0
230
1.0
 70
     8
 71
     3
 72
    11
 73
     7
 74
     0
 42
0.000000001
 43
0.00000001
 40
0.0
 40
0.0
 40
0.0
 40
0.0
 40
0.2164553779443446
 40
0.4403112895790549
 40
0.7519005688038765
 40
1.0
 40
1.0
 40
1.0
 40
1.0
 10
273.1137555823116
 20
41.79851104919285
 30
0.0
 10
273.0830474380392
 20
41.68798944823014
 30
0.0
 10
273.0205812487787
 20
41.46316755141065
 30
0.0
 10
272.9046606851955
 20
41.13820488816375
 30
0.0
 10
272.7803150870379
 20
40.91565539583129
 30
0.0
 10
272.7007413711179
 20
40.85817143623157
 30
0.0
 10
272.6654678462275
 20
40.83268988297873
 30
0.0
  0
SPLINE
  5
1C4
330
1F
100
AcDbEntity
  8
0
  6
Continuous
 62
     7
370
    15
100
AcDbSpline
210
0.0
220
0.0
230
1.0
 70
     8
 71
     3
 72
    11
 73
     7
 74
     0
 42
0.000000001
 43
0.00000001
 40
0.0
 40
0.0
 40
0.0
 40
0.0
 40
0.1843643438496109
 40
0.5174526391740203
 40
0.8663352079125943
 40
1.0
 40
1.0
 40
1.0
 40
1.0
 10
271.88901071092
 20
42.505541213887
 30
0.0
 10
271.9600809730731
 20
42.42640730132386
 30
0.0
 10
272.1595528120961
 20
42.20430333561685
 30
0.0
 10
272.5311866221101
 20
41.91018087786738
 30
0.0
 10
272.8772177946324
 20
41.80585508708695
 30
0.0
 10
273.0624473209255
 20
41.80010407083897
 30
0.0
 10
273.1137555823116
 20
41.79851104919285
 30
0.0
  0
SPLINE
  5
1C5
330
1F
100
AcDbEntity
  8
0
  6
Continuous
 62
     7
370
    15
100
AcDbSpline
210
0.0
220
0.0
230
1.0
 70
     8
 71
     3
 72
    11
 73
     7
 74
     0
 42
0.000000001
 43
0.00000001
 40
0.0
 40
0.0
 40
0.0
 40
0.0
 40
0.2164553779443451
 40
0.4403112895790564
 40
0.7519005688038775
 40
1.0
 40
1.0
 40
1.0
 40
1.0
 10
270.2159781034443
 20
42.24675021236705
 30
0.0
 10
270.3305824580747
 20
42.2201157314333
 30
0.0
 10
270.56370945015
 20
42.16593614597519
 30
0.0
 10
270.9963308830849
 20
42.15764003688112
 30
0.0
 10
271.4603949731063
 20
42.27477222720649
 30
0.0
 10
271.7573681238669
 20
42.43466414676575
 30
0.0
 10
271.88901071092
 20
42.505541213887
 30
0.0
  0
SPLINE
  5
1C6
330
1F
100
AcDbEntity
  8
0
  6
Continuous
 62
     7
370
    15
100
AcDbSpline
210
0.0
220
0.0
230
1.0
 70
     8
 71
     3
 72
    11
 73
     7
 74
     0
 42
0.000000001
 43
0.00000001
 40
0.0
 40
0.0
 40
0.0
 40
0.0
 40
0.2164553779443449
 40
0.4403112895790566
 40
0.7519005688038765
 40
1.0
 40
1.0
 40
1.0
 40
1.0
 10
269.7676903673603
 20
41.28092904615293
 30
0.0
 10
269.7983985116326
 20
41.30272681654947
 30
0.0
 10
269.860864700893
 20
41.34706761549098
 30
0.0
 10
269.9767852644764
 20
41.52159902668038
 30
0.0
 10
270.1011308626339
 20
41.83484652792704
 30
0.0
 10
270.1807045785539
 20
42.12024046983409
 30
0.0
 10
270.2159781034443
 20
42.24675021236705
 30
0.0
  0
LINE
  5
1C7
330
1F
100
AcDbEntity
  8
0
  6
Continuous
 62
     7
370
    15
100
AcDbLine
 10
270.2159781034
 20
40.8327666557
 30
0.0
 11
270.2159781034
 21
42.2467502124
 31
0.0
  0
LINE
  5
1C8
330
1F
100
AcDbEntity
  8
0
  6
Continuous
 62
     7
370
    15
100
AcDbLine
 10
271.8890107109
 20
40.5778317019
 30
0.0
 11
271.8890107109
 21
42.5055412139
 31
0.0
  0
LWPOLYLINE
  5
1C9
330
1F
100
AcDbEntity
  8
0
  6
Continuous
 62
     7
370
     0
100
AcDbPolyline
 90
        9
 70
   128
 43
0.0
 10
232.5675276791
 20
41.5423465686
 10
232.6207897469
 20
40.3995074572
 10
232.7799924001
 20
39.3306846049
 10
233.0433913809
 20
38.3475882585
 10
233.4081008351
 20
37.4609894272
 10
233.8701249296
 20
36.6806018734
 10
234.4244016317
 20
36.0149756864
 10
235.0648581698
 20
35.471403606
 10
235.4158046335
 20
35.2469804796
  0
LWPOLYLINE
  5
1CA
330
1F
100
AcDbEntity
  8
0
  6
Continuous
 62
     7
370
     0
100
AcDbPolyline
 90
       24
 70
   128
 43
0.0
 10
249.0844363898
 20
59.1085829429
 10
248.7960142727
 20
59.254463553
 10
248.0051163149
 20
59.5374634517
 10
247.1516050411
 20
59.6848001586
 10
246.2448316995
 20
59.6948594221
 10
245.2947310885
 20
59.5675310305
 10
244.3117127093
 20
59.3042100206
 10
243.306546717
 20
58.9077813924
 10
242.2902459204
 20
58.3825885008
 10
241.2739451239
 20
57.7343854691
 10
240.2687791315
 20
56.9702741454
 10
239.2857607523
 20
56.0986262932
 10
238.3356601414
 20
55.1289918688
 10
237.4288867998
 20
54.0719943899
 10
236.575375526
 20
52.939214542
 10
235.7844775682
 20
51.7430632981
 10
235.0648581698
 20
50.4966459418
 10
234.4244016317
 20
49.2136184822
 10
233.8701249296
 20
47.9080380368
 10
233.4081008351
 20
46.5942088181
 10
233.0433913809
 20
45.286525414
 10
232.7799924001
 20
43.9993150775
 10
232.6207897469
 20
42.7466807544
 10
232.5675276791
 20
41.5423465686
  0
LINE
  5
1CB
330
1F
100
AcDbEntity
  8
0
  6
Continuous
 62
     7
370
     0
100
AcDbLine
 10
270.0265094125
 20
18.8757514461
 30
0.0
 11
271.4407229748
 21
18.0593433343
 31
0.0
  0
LINE
  5
1CC
330
1F
100
AcDbEntity
  8
0
  6
Continuous
 62
     7
370
     0
100
AcDbLine
 10
279.9260043491
 20
24.5906082288
 30
0.0
 11
281.3402179114
 21
23.774200117
 31
0.0
  0
LWPOLYLINE
  5
1CD
330
1F
100
AcDbEntity
  8
0
  6
Continuous
 62
     7
370
     0
100
AcDbPolyline
 90
       30
 70
   128
 43
0.0
 10
230.4462073355
 20
41.5423465686
 10
230.4997923652
 20
42.8131240048
 10
230.6600149021
 20
44.1331398422
 10
230.9252825826
 20
45.4892751705
 10
231.2929590574
 20
46.8680521075
 10
231.7593901924
 20
48.2557677484
 10
232.3199403856
 20
49.6386303519
 10
232.9690386372
 20
51.0028964081
 10
233.7002339173
 20
52.335007228
 10
234.5062592785
 20
53.6217236958
 10
235.3791040788
 20
54.8502578452
 10
236.3100935943
 20
56.0083999518
 10
237.2899752331
 20
57.084639879
 10
238.3090104911
 20
58.068281471
 10
239.3570717381
 20
58.9495488557
 10
240.4237428707
 20
59.7196836019
 10
241.4984228318
 20
60.3710317645
 10
242.5704309691
 20
60.8971199528
 10
243.6291131843
 20
61.292719666
 10
244.6639478178
 20
61.5538992565
 10
245.6646502181
 20
61.6780630042
 10
246.6212749552
 20
61.6639769139
 10
247.5243146626
 20
61.5117809796
 10
248.364794526
 20
61.2229877927
 10
249.134361479
 20
60.8004675099
 10
249.8253672194
 20
60.2484193273
 10
250.4309442217
 20
59.572329748
 10
250.9450739897
 20
58.7789180539
 10
251.3626468706
 20
57.8760695268
 10
251.4020215008
 20
57.7717385996
  0
LWPOLYLINE
  5
1CE
330
1F
100
AcDbEntity
  8
0
  6
Continuous
 62
     7
370
     0
100
AcDbPolyline
 90
       14
 70
   128
 43
0.0
 10
237.6531389271
 20
33.9553948841
 10
237.2899752331
 20
33.9016994813
 10
236.3100935943
 20
33.8465921499
 10
235.3791040788
 20
33.9298366417
 10
234.5062592785
 20
34.1506056355
 10
233.7002339173
 20
34.50670503
 10
232.9690386372
 20
34.9945957493
 10
232.3199403856
 20
35.6094289163
 10
231.7593901924
 20
36.3450940427
 10
231.2929590574
 20
37.1942797581
 10
230.9252825826
 20
38.1485464732
 10
230.6600149021
 20
39.1984102567
 10
230.4997923652
 20
40.3334370907
 10
230.4462073355
 20
41.5423465686
  0
LWPOLYLINE
  5
1CF
330
1F
100
AcDbEntity
  8
0
  6
Continuous
 62
     7
370
     0
100
AcDbPolyline
 90
       23
 70
   128
 43
0.0
 10
229.7391005544
 20
41.5423465686
 10
229.792727925
 20
42.8338561673
 10
229.9530935761
 20
44.1748446669
 10
230.2186530988
 20
45.552397615
 10
230.5868490096
 20
46.9532484235
 10
231.0541353808
 20
48.3639061336
 10
231.616011989
 20
49.7707853402
 10
232.2670676554
 20
51.1603370276
 10
233.001032358
 20
52.5191790534
 10
233.8108376156
 20
53.834225026
 10
234.6886845607
 20
55.0928103339
 10
235.6261190475
 20
56.2828141126
 10
236.6141130694
 20
57.392775975
 10
237.6431517038
 20
58.4120063818
 10
238.7033247462
 20
59.3306895869
 10
239.7844221506
 20
60.1399781689
 10
240.876032358
 20
60.8320782364
 10
241.9676425655
 20
61.4003244872
 10
243.0487399699
 20
61.8392443995
 10
244.1089130123
 20
62.1446109345
 10
245.1379516467
 20
62.3134832455
 10
246.1259456686
 20
62.3442349999
 10
246.7845663
 20
62.2838686546
  0
ARC
  5
1D0
330
1F
100
AcDbEntity
  8
0
  6
Continuous
 62
     7
370
     0
100
AcDbCircle
 10
239.0567576286
 20
41.0801334659
 30
0.0
 40
9.32911433661225
100
AcDbArc
 50
177.1601048329
 51
215.2720751698
  0
LWPOLYLINE
  5
1D1
330
1F
100
AcDbEntity
  8
0
  6
Continuous
 62
     7
370
     0
100
AcDbPolyline
 90
       18
 70
   128
 43
0.0
 10
227.6402540349
 20
48.4215156185
 10
228.0081678612
 20
49.7660765458
 10
228.4816413552
 20
51.1180038722
 10
229.0549342283
 20
52.460907128
 10
229.7210960037
 20
53.7785052493
 10
230.4720502826
 20
55.054823966
 10
231.2986926603
 20
56.2743894706
 10
232.1910011063
 20
57.422416019
 10
233.1381574692
 20
58.4849851897
 10
234.1286786333
 20
59.4492146275
 10
235.1505557379
 20
60.3034142268
 10
236.1913997696
 20
61.0372278593
 10
237.238591764
 20
61.6417589299
 10
238.2794357957
 20
62.1096782367
 10
239.3013129003
 20
62.4353128289
 10
240.2918340645
 20
62.6147147844
 10
241.2389904273
 20
62.6457090731
 10
241.2595011549
 20
62.6447037016
  0
LWPOLYLINE
  5
1D2
330
1F
100
AcDbEntity
  8
0
  6
Continuous
 62
     7
370
     0
100
AcDbPolyline
 90
       20
 70
   128
 43
0.0
 10
222.0541261342
 20
50.1005927698
 10
222.4149841717
 20
51.5110040537
 10
222.8769333361
 20
52.9327181577
 10
223.435452617
 20
54.3518210318
 10
224.0850758908
 20
55.7544241811
 10
224.8194454157
 20
57.1268005908
 10
225.6313740546
 20
58.4555190693
 10
226.5129156134
 20
59.7275756971
 10
227.4554426096
 20
60.9305210939
 10
228.4497307078
 20
62.0525822576
 10
229.4860489959
 20
63.0827777854
 10
230.5542552207
 20
64.0110253461
 10
231.6438950473
 20
64.8282403543
 10
232.7443043744
 20
65.5264248794
 10
233.8447137015
 20
66.0987459198
 10
234.9343535281
 20
66.5396022767
 10
236.0025597529
 20
66.844679371
 10
237.038878041
 20
67.0109914704
 10
238.0331661392
 20
67.0369109093
 10
238.7167663468
 20
66.9685672781
  0
LWPOLYLINE
  5
1D3
330
1F
100
AcDbEntity
  8
0
  6
Continuous
 62
     7
370
     0
100
AcDbPolyline
 90
       16
 70
   128
 43
0.0
 10
228.0335267865
 20
48.3657350796
 10
228.3989725455
 20
49.685968408
 10
228.8674356145
 20
51.0127755798
 10
229.4332788059
 20
52.3301906389
 10
230.0896931217
 20
53.6223606481
 10
230.8287796883
 20
54.873736453
 10
231.6416448066
 20
56.0692597908
 10
232.5185069735
 20
57.1945444919
 10
233.4488145856
 20
58.2360495938
 10
234.4213729112
 20
59.1812422846
 10
235.4244788002
 20
60.0187487151
 10
236.4460615125
 20
60.7384908639
 10
237.4738279697
 20
61.3318078105
 10
238.495410682
 20
61.7915599551
 10
239.498516571
 20
62.1122149319
 10
240.3944358819
 20
62.2809914533
  0
LINE
  5
1D4
330
1F
100
AcDbEntity
  8
0
  6
Continuous
 62
     7
370
     0
100
AcDbLine
 10
228.0428494374
 20
41.7871996921
 30
0.0
 11
228.4486306787
 21
42.0214522165
 31
0.0
  0
LWPOLYLINE
  5
1D5
330
1F
100
AcDbEntity
  8
0
  6
Continuous
 62
     7
370
     0
100
AcDbPolyline
 90
        3
 70
   128
 43
0.0
 10
229.013368291
 20
41.7607860092
 10
229.0038781795
 20
41.7640653082
 10
228.4486306787
 20
42.0214522165
  0
ARC
  5
1D6
330
1F
100
AcDbEntity
  8
0
  6
Continuous
 62
     7
370
     0
100
AcDbCircle
 10
227.7611326047
 20
43.0777728228
 30
0.0
 40
1.260343931250286
100
AcDbArc
 50
303.0577786045
 51
346.243819488
  0
LINE
  5
1D7
330
1F
100
AcDbEntity
  8
0
  6
Continuous
 62
     7
370
     0
100
AcDbLine
 10
224.555038511
 20
45.5755342698
 30
0.0
 11
228.9426280181
 21
43.0426327617
 31
0.0
  0
LINE
  5
1D8
330
1F
100
AcDbEntity
  8
0
  6
Continuous
 62
     7
370
     0
100
AcDbLine
 10
224.4357996955
 20
45.5066767896
 30
0.0
 11
224.555038511
 21
45.5755342698
 31
0.0
  0
LINE
  5
1D9
330
1F
100
AcDbEntity
  8
0
  6
Continuous
 62
     7
370
     0
100
AcDbLine
 10
224.1794734873
 20
48.5379435767
 30
0.0
 11
224.1855758082
 21
48.8990021149
 31
0.0
  0
ARC
  5
1DA
330
1F
100
AcDbEntity
  8
0
  6
Continuous
 62
     7
370
     0
100
AcDbCircle
 10
232.564257878
 20
48.4437481041
 30
0.0
 40
8.385313474484242
100
AcDbArc
 50
179.3563607893
 51
193.3440494374
  0
LWPOLYLINE
  5
1DB
330
1F
100
AcDbEntity
  8
0
  6
Continuous
 62
     7
370
     0
100
AcDbPolyline
 90
       16
 70
   128
 43
0.0
 10
204.333957589
 20
63.8368230243
 10
204.3897272894
 20
64.6873078292
 10
204.5556631553
 20
65.5812412009
 10
204.827679295
 20
66.4966115332
 10
205.1990777684
 20
67.4108793705
 10
205.6607135126
 20
68.3015324043
 10
206.2012195233
 20
69.1466398011
 10
206.8072867487
 20
69.925392212
 10
207.4639918025
 20
70.6186141682
 10
208.1551644265
 20
71.2092362443
 10
208.8637856571
 20
71.6827153647
 10
209.5724068876
 20
72.0273929021
 10
210.2635795117
 20
72.2347817516
 10
210.9202845654
 20
72.2997753115
 10
211.5263517909
 20
72.2207732245
 10
211.5425506273
 20
72.2164706722
  0
ARC
  5
1DC
330
1F
100
AcDbEntity
  8
0
  6
Continuous
 62
     7
370
     0
100
AcDbCircle
 10
207.8147794982
 20
63.5807295706
 30
0.0
 40
3.490229937986345
100
AcDbArc
 50
175.7921763123
 51
223.0418762325
  0
LWPOLYLINE
  5
1DD
330
1F
100
AcDbEntity
  8
0
  6
Continuous
 62
     7
370
     0
100
AcDbPolyline
 90
        3
 70
   128
 43
0.0
 10
228.5341410602
 20
40.6368565859
 10
228.3989725455
 20
40.8942829078
 10
228.0335267865
 20
41.7925815439
  0
LWPOLYLINE
  5
1DE
330
1F
100
AcDbEntity
  8
0
  6
Continuous
 62
     7
370
     0
100
AcDbPolyline
 90
        3
 70
   128
 43
0.0
 10
228.4421693074
 20
40.1801288737
 10
228.0081678612
 20
40.9285854175
 10
227.6402540349
 20
41.8483620828
  0
LINE
  5
1DF
330
1F
100
AcDbEntity
  8
0
  6
Continuous
 62
     7
370
     0
100
AcDbLine
 10
228.4486306787
 20
42.0214522165
 30
0.0
 11
224.2236676611
 21
44.4604714506
 31
0.0
  0
ARC
  5
1E0
330
1F
100
AcDbEntity
  8
0
  6
Continuous
 62
     7
370
     0
100
AcDbCircle
 10
229.1262376036
 20
44.8704938919
 30
0.0
 40
7.344565803268794
100
AcDbArc
 50
195.6550047259
 51
217.6938936044
  0
OLE2FRAME
  5
1E1
330
1F
100
AcDbEntity
  8
0
100
AcDbOle2Frame
 70
     2
  3
Paintbrush-Bild
 10
13.8511154363
 20
38.264191557
 30
0.0
 11
51.6290888628
 21
31.9806341108
 31
0.0
 71
     2
 72
     0
 73
     1
 90
    12928
310
80552BED0767C5B32B40DDAF6807D121434000000000000000006FFBDDFB85D0
310
4940DDAF6807D121434000000000000000006FFBDDFB85D04940416F4BD60AFB
310
3F4000000000000000002BED0767C5B32B40416F4BD60AFB3F40000000000000
310
0000000000000100000000010000010000000100000000000100000000320000
310
D0CF11E0A1B11AE1000000000000000000000000000000003E000300FEFF0900
310
0600000000000000000000000100000001000000000000000010000002000000
310
01000000FEFFFFFF0000000000000000FFFFFFFFFFFFFFFFFFFFFFFFFFFFFFFF
310
FFFFFFFFFFFFFFFFFFFFFFFFFFFFFFFFFFFFFFFFFFFFFFFFFFFFFFFFFFFFFFFF
310
FFFFFFFFFFFFFFFFFFFFFFFFFFFFFFFFFFFFFFFFFFFFFFFFFFFFFFFFFFFFFFFF
310
FFFFFFFFFFFFFFFFFFFFFFFFFFFFFFFFFFFFFFFFFFFFFFFFFFFFFFFFFFFFFFFF
310
FFFFFFFFFFFFFFFFFFFFFFFFFFFFFFFFFFFFFFFFFFFFFFFFFFFFFFFFFFFFFFFF
310
FFFFFFFFFFFFFFFFFFFFFFFFFFFFFFFFFFFFFFFFFFFFFFFFFFFFFFFFFFFFFFFF
310
FFFFFFFFFFFFFFFFFFFFFFFFFFFFFFFFFFFFFFFFFFFFFFFFFFFFFFFFFFFFFFFF
310
FFFFFFFFFFFFFFFFFFFFFFFFFFFFFFFFFFFFFFFFFFFFFFFFFFFFFFFFFFFFFFFF
310
FFFFFFFFFFFFFFFFFFFFFFFFFFFFFFFFFFFFFFFFFFFFFFFFFFFFFFFFFFFFFFFF
310
FFFFFFFFFFFFFFFFFFFFFFFFFFFFFFFFFFFFFFFFFFFFFFFFFFFFFFFFFFFFFFFF
310
FFFFFFFFFFFFFFFFFFFFFFFFFFFFFFFFFFFFFFFFFFFFFFFFFFFFFFFFFFFFFFFF
310
FFFFFFFFFFFFFFFFFFFFFFFFFFFFFFFFFFFFFFFFFFFFFFFFFFFFFFFFFFFFFFFF
310
FFFFFFFFFFFFFFFFFFFFFFFFFFFFFFFFFFFFFFFFFFFFFFFFFFFFFFFFFFFFFFFF
310
FFFFFFFFFFFFFFFFFFFFFFFFFFFFFFFFFFFFFFFFFFFFFFFFFFFFFFFFFFFFFFFF
310
FDFFFFFFFEFFFFFFFEFFFFFFFEFFFFFF05000000060000000700000008000000
310
090000000A0000000B0000000C0000000D0000000E0000000F00000010000000
310
11000000120000001300000014000000150000001600000017000000FEFFFFFF
310
FFFFFFFFFFFFFFFFFFFFFFFFFFFFFFFFFFFFFFFFFFFFFFFFFFFFFFFFFFFFFFFF
310
FFFFFFFFFFFFFFFFFFFFFFFFFFFFFFFFFFFFFFFFFFFFFFFFFFFFFFFFFFFFFFFF
310
FFFFFFFFFFFFFFFFFFFFFFFFFFFFFFFFFFFFFFFFFFFFFFFFFFFFFFFFFFFFFFFF
310
FFFFFFFFFFFFFFFFFFFFFFFFFFFFFFFFFFFFFFFFFFFFFFFFFFFFFFFFFFFFFFFF
310
FFFFFFFFFFFFFFFFFFFFFFFFFFFFFFFFFFFFFFFFFFFFFFFFFFFFFFFFFFFFFFFF
310
FFFFFFFFFFFFFFFFFFFFFFFFFFFFFFFFFFFFFFFFFFFFFFFFFFFFFFFFFFFFFFFF
310
FFFFFFFFFFFFFFFFFFFFFFFFFFFFFFFFFFFFFFFFFFFFFFFFFFFFFFFFFFFFFFFF
310
FFFFFFFFFFFFFFFFFFFFFFFFFFFFFFFFFFFFFFFFFFFFFFFFFFFFFFFFFFFFFFFF
310
FFFFFFFFFFFFFFFFFFFFFFFFFFFFFFFFFFFFFFFFFFFFFFFFFFFFFFFFFFFFFFFF
310
FFFFFFFFFFFFFFFFFFFFFFFFFFFFFFFFFFFFFFFFFFFFFFFFFFFFFFFFFFFFFFFF
310
FFFFFFFFFFFFFFFFFFFFFFFFFFFFFFFFFFFFFFFFFFFFFFFFFFFFFFFFFFFFFFFF
310
FFFFFFFFFFFFFFFFFFFFFFFFFFFFFFFFFFFFFFFFFFFFFFFFFFFFFFFFFFFFFFFF
310
FFFFFFFFFFFFFFFFFFFFFFFFFFFFFFFFFFFFFFFFFFFFFFFFFFFFFFFFFFFFFFFF
310
52006F006F007400200045006E00740072007900000000000000000000000000
310
0000000000000000000000000000000000000000000000000000000000000000
310
16000500FFFFFFFFFFFFFFFF020000000A00030000000000C000000000000046
310
000000000000000000000000A08E87429B15D20103000000C000000000000000
310
01004F006C006500000000000000000000000000000000000000000000000000
310
0000000000000000000000000000000000000000000000000000000000000000
310
0A000200FFFFFFFFFFFFFFFFFFFFFFFF00000000000000000000000000000000
310
0000000000000000000000000000000000000000000000001400000000000000
310
010043006F006D0070004F0062006A0000000000000000000000000000000000
310
0000000000000000000000000000000000000000000000000000000000000000
310
120002010100000003000000FFFFFFFF00000000000000000000000000000000
310
0000000000000000000000000000000000000000010000004D00000000000000
310
01004F006C006500310030004E00610074006900760065000000000000000000
310
0000000000000000000000000000000000000000000000000000000000000000
310
1A000200FFFFFFFFFFFFFFFFFFFFFFFF00000000000000000000000000000000
310
0000000000000000000000000000000000000000040000002426000000000000
310
FEFFFFFF02000000FEFFFFFFFFFFFFFFFFFFFFFFFFFFFFFFFFFFFFFFFFFFFFFF
310
FFFFFFFFFFFFFFFFFFFFFFFFFFFFFFFFFFFFFFFFFFFFFFFFFFFFFFFFFFFFFFFF
310
FFFFFFFFFFFFFFFFFFFFFFFFFFFFFFFFFFFFFFFFFFFFFFFFFFFFFFFFFFFFFFFF
310
FFFFFFFFFFFFFFFFFFFFFFFFFFFFFFFFFFFFFFFFFFFFFFFFFFFFFFFFFFFFFFFF
310
FFFFFFFFFFFFFFFFFFFFFFFFFFFFFFFFFFFFFFFFFFFFFFFFFFFFFFFFFFFFFFFF
310
FFFFFFFFFFFFFFFFFFFFFFFFFFFFFFFFFFFFFFFFFFFFFFFFFFFFFFFFFFFFFFFF
310
FFFFFFFFFFFFFFFFFFFFFFFFFFFFFFFFFFFFFFFFFFFFFFFFFFFFFFFFFFFFFFFF
310
FFFFFFFFFFFFFFFFFFFFFFFFFFFFFFFFFFFFFFFFFFFFFFFFFFFFFFFFFFFFFFFF
310
FFFFFFFFFFFFFFFFFFFFFFFFFFFFFFFFFFFFFFFFFFFFFFFFFFFFFFFFFFFFFFFF
310
FFFFFFFFFFFFFFFFFFFFFFFFFFFFFFFFFFFFFFFFFFFFFFFFFFFFFFFFFFFFFFFF
310
FFFFFFFFFFFFFFFFFFFFFFFFFFFFFFFFFFFFFFFFFFFFFFFFFFFFFFFFFFFFFFFF
310
FFFFFFFFFFFFFFFFFFFFFFFFFFFFFFFFFFFFFFFFFFFFFFFFFFFFFFFFFFFFFFFF
310
FFFFFFFFFFFFFFFFFFFFFFFFFFFFFFFFFFFFFFFFFFFFFFFFFFFFFFFFFFFFFFFF
310
FFFFFFFFFFFFFFFFFFFFFFFFFFFFFFFFFFFFFFFFFFFFFFFFFFFFFFFFFFFFFFFF
310
FFFFFFFFFFFFFFFFFFFFFFFFFFFFFFFFFFFFFFFFFFFFFFFFFFFFFFFFFFFFFFFF
310
FFFFFFFFFFFFFFFFFFFFFFFFFFFFFFFFFFFFFFFFFFFFFFFFFFFFFFFFFFFFFFFF
310
0100000200000000000000000000000000000000000000000000000000000000
310
0000000000000000000000000000000000000000000000000000000000000000
310
0100FEFF030A0000FFFFFFFF0A00030000000000C00000000000004607000000
310
5042727573680007000000504272757368000700000050427275736800F439B2
310
7100000000000000000000000000000000000000000000000000000000000000
310
0000000000000000000000000000000000000000000000000000000000000000
310
0000000000000000000000000000000000000000000000000000000000000000
310
0000000000000000000000000000000000000000000000000000000000000000
310
0000000000000000000000000000000000000000000000000000000000000000
310
0000000000000000000000000000000000000000000000000000000000000000
310
0000000000000000000000000000000000000000000000000000000000000000
310
0000000000000000000000000000000000000000000000000000000000000000
310
0000000000000000000000000000000000000000000000000000000000000000
310
0000000000000000000000000000000000000000000000000000000000000000
310
0000000000000000000000000000000000000000000000000000000000000000
310
0000000000000000000000000000000000000000000000000000000000000000
310
20260000424D0E260000000000003E00000028000000B40200006E0000000100
310
01000000000000000000130B0000130B00000200000002000000000000FFFFFF
310
FFFFFFFFFFFFFFFFFFFFFFFFFFFFFFFFFFFFFFFFFFFFFFFFFFFFFFFFFFFFFFFF
310
FFFFFFFFFFFFFFFFFFFFFFFFFFFFFFFFFFFFFFFFFFFFFFFFFFFFFFFFFFFFFFFF
310
FFFFFFFFFFFFFFFFFFFFFFFFFFFFFFFFFFFFFFFFFFFFFFFFF000FFFFFFFFFFFF
310
FFFFFFFFFFFFFFFFFFFFFFFFFFFFFFFFFFFFFFFFFFFFFFFFFFFFFFFFFFFFFFFF
310
FFFFFFFFFFFFFFFFFFFFFFFFFFFFFFFFFFFFFFFFFFFFFFFFFFFFFFFFFFFFFFFF
310
FFFFFFFFFFFFFFFFFFFFFFFFFFFFFFFFF000FFFFFFFFFFFFFFFFFFFFFFFFFFFF
310
FFFFFFFFFFFFFFFFFFFFFFFFFFFFFFFFFFFFFFFFFFFFFFFFFFFFFFFFFFFFFFFF
310
FFFFFFFFFFFFFFFFFFFFFFFFFFFFFFFFFFFFFFFFFFFFFFFFFFFFFFFFFFFFFFFF
310
FFFFFFFFFFFFFFFFF000FFFFFFFFFFFFFFFFFFFFFFFFFFFFFFFFFFFFFFFFFFFF
310
FFFFFFFFFFFFFFFFFFFFFFFFFFFFFFFFFFFFFFFFFFFFFFFFFFFFFFFFFFFFFFFF
310
FFFFFFFFFFFFFFFFFFFFFFFFFFFFFFFFFFFFFFFFFFFFFFFFFFFFFFFFFFFFFFFF
310
F000FFFFFFFFFFFFFFFFFFFFFFFFFFFFFFFFFFFFFFFFFFFFFFFFFFFFFFFFFFFF
310
FFFFFFFFFFFFFFFFFFFFFFFFFFFFFFFFFFFFFFFFFFFFFFFFFFFFFFFFFFFFFFFF
310
FFFFFFFFFFFFFFFFFFFFFFFFFFFFFFFFFFFFFFFFFFFFFFFFF000FFFFFFFFFFFF
310
FFFFFFFFFFFFFFFFFFFFFFFFFFFFFFFFFFFFFFFFFFFFFFFFFFFFFFFFFFFFFFFF
310
FFFFFFFFFFFFFFFFFFFFFFFFFFFFFFFFFFFFFFFFFFFFFFFFFFFFFFFFFFFFFFFF
310
FFFFFFFFFFFFFFFFFFFFFFFFFFFFFFFFF000FFFFFFFFFFFFFFFFFFFFFFFFFFFF
310
FFFFFFFFFFFFFFFFFFFFFFFFFFFFFFFFFFFFFFFFFFFFFFFFFFFFFFFFFFFFFFFF
310
FFFFFFFFFFFFFFFFFFFFFFFFFFFFFFFFFFFFFFFFFFFFFFFFFFFFFFFFFFFFFFFF
310
FFFFFFFFFFFFFFFFF000FFFFFFFFFFFFFFFFFFFFFFFFFFFFFFFFFFFFFFFFFFFF
310
FFFFFFFFFFFFFFFFFFFFFFFFFFFFFFFFFFFFFFFFFFFFFFFFFFFFFFFFFFFFFFFF
310
FFFFFFFFFFFFFFFFFFFFFFFFFFFFFFFFFFFFFFFFFFFFFFFFFFFFFFFFFFFFFFFF
310
F000FFFFFFFFFFFFFFFFFFFFFFFFFFFFFFFFFFFFFFFFFFFFFFFFFFFFFFFFFFFF
310
FFFFFFFFFFFFFFFFFFFFFFFFFFFFFFFFFFFFFFFFFFFFFFFFFFFFFFFFFFFFFFFF
310
FFFFFFFFFFFFFFFFFFFFFFFFFFFFFFFFFFFFFFFFFFFFFFFFF000FFFFFFFFFFFF
310
FFFFFFFFFFFFFFFFFFFFFFFFFFFFFFFFFFFFFFFFFFFFFFFFFFFFFFFFFFFFFFFF
310
FFFFFFFFFFFFFFFFFFFFFFFFFFFFFFFFFFFFFFFFFFFFFFFFFFFFFFFFFFFFFFFF
310
FFFFFFFFFFFFFFFFFFFFFFFFFFFFFFFFF000FFFFFFFFFFFFFFFFFFFFFFFFFFFF
310
FFFFFFFFFFFFFFFFFFFFFFFFFFFFFFFFFFFFFFFFFFFFFFFFFFFFFFFFFFFFFFFF
310
FFFFFFFFFFFFFFFFFFFFFFFFFFFFFFFFFFFFFFFFFFFFFFFFFFFFFFFFFFFFFFFF
310
FFFFFFFFFFFFFFFFF000FFFFFFFFFFFFFFFFFFFFFFFFFFFFFFFFFFFFFFFFFFFF
310
FFFFFFFFFFFFFFFFFFFFFFFFFFFFFFFFFFFFFFFFFFFFFFFFFFFFFFFFFFFFFFFF
310
FFFFFFFFFFFFFFFFFFFFFFFFFFFFFFFFFFFFFFFFFFFFFFFFFFFFFFFFFFFFFFFF
310
F000FFFFFFFFFFFFFFFFFFFFFFFFFFFFFFFFFFFFFFFFFFFFFFFFFFFFFFFFFFFF
310
FFFFFFFFFFFFFFFFFFFFFFFFFFFFFFFFFFFFFFFFFFFFFFFFFFFFFFFFFFFFFFFF
310
FFFFFFFFFFFFFFFFFFFFFFFFFFFFFFFFFFFFFFFFFFFFFFFFF000FFFFFFFFFFFF
310
FFFFFFFFFFFFFFFFFFFFFFFFFFFFFFFFFFFFFFFFFFFFFFFFFFFFFFFFFFFFFFFF
310
FFFFFFFFFFFFFFFFFFFFFFFFFFFFFFFFFFFFFFFFFFFFFFFFFFFFFFFFFFFFFFFF
310
FFFFFFFFFFFFFFFFFFFFFFFFFFFFFFFFF000FFFFFFFFFFFFFFFFFFFFFFFFFFFF
310
FFFFFFFFFFFFFFFFFFFFFFFFFFFFFFFFFFFFFFFFFFFFFFFFFFFFFFFFFFFFFFFF
310
FFFFFFFFFFFFFFFFFFFFFFFFFFFFFFFFFFFFFFFFFFFFFFFFFFFFFFFFFFFFFFFF
310
FFFFFFFFFFFFFFFFF000FFFFFFFFFFFFFFFFFFFFFFFFFFFFFFFFFFFFFFFFFFFF
310
FFFFFFFFFFFFFFFFFFFFFFFFFFFFFFFFFFFFFFFFFFFFFFFFFFFFFFFFFFFFFFFF
310
FFFFFFFFFFFFFFFFFFFFFFFFFFFFFFFFFFFFFFFFFFFFFFFFFFFFFFFFFFFFFFFF
310
F000FFFFFFFFFFFFFFFFFFFFFFFFFFFFFFFFFFFFFFFFFFFFFFFFFFFFFFFFFFFF
310
FFFFFFFFFFFFFFFFFFFFFFFFFFFFFFFFFFFFFFFFFFFFFFFFFFFFFFFFFFFFFFFF
310
FFFFFFFFFFFFFFFFFFFFFFFFFFFFFFFFFFFFFFFFFFFFFFFFF000FFFFFFFFFFFF
310
FFFFFFFFFFFFFFFFFFFFFFFFFFFFFFFFFFFFFFFFFFFFFFFFFFFFFFFFFFFFFFFF
310
FFFFFFFFFFFFFFFFFFFFFFFFFFFFFFFFFFFFFFFFFFFFFFFFFFFFFFFFFFFFFFFF
310
FFFFFFFFFFFFFFFFFFFFFFFFFFFFFFFFF000FFFFFFFFFFFFFFFFFFFFFFFFFFFF
310
FFFFFFFFFFFFFFFFFFFFFFFFFFFFFFFFFFFFFFFFFFFFFFFFFFFFFFFFFFFFFFFF
310
FFFFFFFFFFFFFFFFFFFFFFFFFFFFFFFFFFFFFFFFFFFFFFFFFFFFFFFFFFFFFFFF
310
FFFFFFFFFFFFFFFFF000FFFFF80003FFFFFFFFFFFFFFFFFFFFFFFFFFFFFFFFFF
310
FFFFF00007FFFFFFFFFF00007FFFFFF800000000000000007FFFFFFFFFFFFFFF
310
FFFFFFFC001FFFFFFFFFFFFFFC001FFFFFFFFFFFFFFFFFFFFFFFFFFE0007FFFF
310
F000FFFF8000007FFFFFFFF8000FFFFFC0007FFFFF80007FFFFF0000007FFFFF
310
FFF8000007FFFFF800000000000000007FFFFFF0001FFFFFFFFFFFC00001FFFF
310
FFFFFFFFC00001FFFFFFFF000000000003FFFFE000007FFFF000FFFE0000000F
310
FFFFFFF0000FFFFF80007FFFFF80007FFFFC0000001FFFFFFFC0000001FFFFF8
310
00000000000000007FFFFFF0001FFFFFFFFFFE0000003FFFFFFFFFFE0000003F
310
FFFFFF000000000003FFFF0000000FFFF000FFF800000003FFFFFFF00007FFFF
310
80007FFFFF80007FFFF000000007FFFFFF000000003FFFF80000000000000000
310
7FFFFFF0001FFFFFFFFFF80000000FFFFFFFFFF80000000FFFFFFF0000000000
310
03FFFC00000003FFF000FFE000000000FFFFFFF00007FFFF80003FFFFF80007F
310
FFC000000001FFFFFC000000001FFFF800000000000000007FFFFFF0001FFFFF
310
FFFFE000000003FFFFFFFFE000000003FFFFFF000000000003FFF000000000FF
310
F000FF80000000007FFFFFF00007FFFF80003FFFFF80007FFF8000000000FFFF
310
F80000000007FFF800000000000000007FFFFFF0001FFFFFFFFFC000000001FF
310
FFFFFFC000000001FFFFFF000000000003FFC0000000007FF000FF0000000000
310
3FFFFFE00007FFFF00003FFFFF80007FFE00000000003FFFF00000000003FFF8
310
00000000000000007FFFFFF0001FFFFFFFFF8000000000FFFFFFFF8000000000
310
FFFFFF000000000003FF80000000003FF000FE00000000001FFFFFE00003FFFF
310
00003FFFFF80007FFC00000000001FFFE00000000001FFF8000001FFFE000000
310
7FFFFFF0001FFFFFFFFE00000000003FFFFFFE00000000003FFFFF0000000000
310
03FF00000000001FF000FC00000000000FFFFFE00003FFFF00001FFFFF80007F
310
F800000000001FFFC00000000000FFF8000001FFFE0000007FFFFFF0001FFFFF
310
FFFC00000000001FFFFFFC00000000001FFFFF000000000003FE00000000000F
310
F000F8000000000007FFFFE00003FFFF00001FFFFF80007FF800000000000FFF
310
800000000000FFF8000001FFFE0000007FFFFFF0001FFFFFFFF800000000000F
310
FFFFF800000000000FFFFF000000000003FC000000000007F000F80000000000
310
03FFFFC00003FFFE00001FFFFF80007FF0000000000007FF0000000000007FF8
310
000001FFFE0000007FFFFFF0001FFFFFFFF0000000000007FFFFF00000000000
310
07FFFF000000000003F8000000000003F000F0000000000003FFFFC00001FFFE
310
00001FFFFF80007FE0000000000007FE0000000000003FF8000001FFFE000000
310
7FFFFFF0001FFFFFFFF0000000000007FFFFF0000000000007FFFF0000000000
310
03F800001F800003F000E00001FFF00001FFFFC00001FFFE00000FFFFF80007F
310
E00001FFE00003FE00001FFF00003FF8000001FFFE0000007FFFFFF0001FFFFF
310
FFE000003E000003FFFFE000003E000003FFFF000000000003F00001FFF80001
310
F000E00007FFFC0001FFFFC00001FFFE00000FFFFF80007FC0000FFFFC0003FC
310
0000FFFFC0001FF8000001FFFE0000007FFFFFF0001FFFFFFFC00003FFE00001
310
FFFFC00003FFE00001FFFF0001FFFFFFFFF00007FFFE0001F000E0000FFFFF00
310
00FFFF800001FFFC00000FFFFF80007FC0001FFFFE0001FC0001FFFFE0001FF8
310
000001FFFE0000007FFFFFF0001FFFFFFF80000FFFF80000FFFF80000FFFF800
310
00FFFF0003FFFFFFFFE0000FFFFF8000F000C0003FFFFF8000FFFF800000FFFC
310
000007FFFF80007F80003FFFFF0001FC0003FFFFF0001FF8000001FFFE000000
310
7FFFFFF0001FFFFFFF80003FFFFE0000FFFF80003FFFFE0000FFFF0003FFFFFF
310
FFE0003FFFFF8000F000C0003FFFFF8000FFFF800000FFFC000007FFFF80007F
310
80007FFFFF8001F80007FFFFF8000FF8000001FFFE0000007FFFFFF0001FFFFF
310
FF00007FFFFF00007FFF00007FFFFF00007FFF0003FFFFFFFFE0003FFFFFC000
310
F000C0007FFFFFC000FFFF000000FFFC000007FFFF80007F8000FFFFFF8000F8
310
000FFFFFF8000FF8000001FFFE0000007FFFFFF0001FFFFFFF0000FFFFFF8000
310
7FFF0000FFFFFF80007FFF0003FFFFFFFFC0007FFFFFC00070008000FFFFFFC0
310
00FFFF000000FFF8000007FFFF80007F8000FFFFFF8000F8000FFFFFF8000FF8
310
000001FFFE0000007FFFFFF0001FFFFFFE0001FFFFFFC0003FFE0001FFFFFFC0
310
003FFF0003FFFFFFFFC0007FFFFFE00070008000FFFFFFC0007FFF0000007FF8
310
000003FFFF80007F0001FFFFFF8000F8000FFFFFF8000FF8000001FFFE000000
310
7FFFFFF0001FFFFFFE0001FFFFFFC0003FFE0001FFFFFFC0003FFF0003FFFFFF
310
FFC000FFFFFFE00070008000FFFFFFC0007FFF0000007FF8000003FFFF80007F
310
0001FFFFFF8000F8001FFFFFF8000FF8000001FFFE0000007FFFFFF0001FFFFF
310
FE0003FFFFFFE0003FFE0003FFFFFFE0003FFF0003FFFFFFFFC000FFFFFFE000
310
70008000FFFFFFC0007FFE0000007FF8000003FFFF80007F0001FFFFFF8000F0
310
001FFFFFF8000FF8000001FFFE0000007FFFFFF0001FFFFFFC0003FFFFFFE000
310
1FFC0003FFFFFFE0001FFF0003FFFFFFFFC000FFFFFFC00070008000FFFFFF80
310
007FFE0000007FF0000003FFFF80007F0001FFFFFF0000F0001FFFFFF8000FF8
310
000001FFFE0000007FFFFFF0001FFFFFFC0007FFFFFFF0001FFC0007FFFFFFF0
310
001FFF0003FFFFFFFFC000FFFFFFC00070008001FFFFFF0000FFFE0000003FF0
310
000001FFFF80007F0001FFFFFF0000F8001FFFFFF0000FF8000001FFFE000000
310
7FFFFFF0001FFFFFFC0007FFFFFFF0001FFC0007FFFFFFF0001FFF0003FFFFFF
310
FFC001FFFFFF80007000FFFFFFFFFE0000FFFE0008003FF0008001FFFF80007F
310
FFFFFFFFFC0000FFFFFFFFFFE0000FF8000001FFFE0000007FFFFFF0001FFFFF
310
F8000FFFFFFFF8000FF8000FFFFFFFF8000FFF0003FFFFFFFFFFFFFFFFFF0000
310
7000FFFFFFFFFC0000FFFC0008003FF0008001FFFF80007FFFFFFFFFF80001FF
310
FFFFFFFF80000FF8000001FFFE0000007FFFFFF0001FFFFFF8000FFFFFFFF800
310
0FF8000FFFFFFFF8000FFF0003FFFFFFFFFFFFFFFFFE0000F000FFFFFFFFE000
310
00FFFC000C003FE000C001FFFF80007FFFFFFFFFC00001FFFFFFFFFE00001FF8
310
000001FFFE0000007FFFFFF0001FFFFFF8000FFFFFFFF8000FF8000FFFFFFFF8
310
000FFF0003FFFFFFFFFFFFFFFFF00000F000FFFFFFFE000001FFFC000C001FE0
310
00C000FFFF80007FFFFFFFFE000001FFFFFFFFE000001FF80FFFFFFFFFFFFFC0
310
7FFFFFF0001FFFFFF8000FFFFFFFF8000FF8000FFFFFFFF8000FFF0003FFFFFF
310
FFFFFFFFFF800000F000FFFFFFC0000001FFFC001C001FE001C000FFFF80007F
310
FFFFFF80000003FFFFFFF80000001FF80FFFFFFFFFFFFFC07FFFFFF0001FFFFF
310
F8001FFFFFFFFC000FF8001FFFFFFFFC000FFF0003FFFFFFFFFFFFFFF0000001
310
F000FFFFF800000001FFF8001C001FE001C000FFFF80007FFFFFF800000003FF
310
FFFF800000003FF80FFFFFFFFFFFFFC07FFFFFF0001FFFFFF8001FFFFFFFFC00
310
0FF8001FFFFFFFFC000FFF0003FFFFFFFFFFFFFE00000001F000FFFFC0000000
310
03FFF8001E001FC001E000FFFF80007FFFFF8000000007FFFFFC000000003FF8
310
0FFFFFFFFFFFFFC07FFFFFF0001FFFFFF8001FFFFFFFFC000FF8001FFFFFFFFC
310
000FFF0003FFFFFFFFFFFFE000000003F000FFFE0000000007FFF8001E000FC0
310
01E0007FFF80007FFFFE0000000007FFFFE0000000007FF80FFFFFFFFFFFFFC0
310
7FFFFFF0001FFFFFF0001FFFFFFFFC0007F0001FFFFFFFFC0007FF0003FFFFFF
310
FFFFFF0000000003F000FFF80000000007FFF8001E000FC003E0007FFF80007F
310
FFF0000000000FFFFF8000000000FFF80FFFFFFFFFFFFFC07FFFFFF0001FFFFF
310
F0001FFFFFFFFC0007F0001FFFFFFFFC0007FF0003FFFFFFFFFFFC0000000007
310
F000FFE0000000000FFFF0003E000FC003E0007FFF80007FFFC0000000001FFF
310
FE0000000001FFF80FFFFFFFFFFFFFC07FFFFFF0001FFFFFF0001FFFFFFFFC00
310
07F0001FFFFFFFFC0007FF0003FFFFFFFFFFF0000000000FF000FFC000000000
310
1FFFF0003F000F8003F0003FFF80007FFF80000000003FFFF80000000003FFF8
310
0FFFFFFFFFFFFFC07FFFFFF0001FFFFFF0001FFFFFFFFC0007F0001FFFFFFFFC
310
0007FF0003FFFFFFFFFFE0000000001FF000FF00000000007FFFF0003F000780
310
03F0003FFF80007FFF00000000007FFFF00000000007FFF80FFFFFFFFFFFFFC0
310
7FFFFFF0001FFFFFF0001FFFFFFFFC0007F0001FFFFFFFFC0007FF0003FFFFFF
310
FFFF80000000007FF000FE0000000000FFFFE0003F00078007F0003FFF80007F
310
FE0000000001FFFFE0000000001FFFF80FFFFFFFFFFFFFC07FFFFFF0001FFFFF
310
F0001FFFFFFFFC0007F0001FFFFFFFFC0007FF0003FFFFFFFFFF0000000000FF
310
F000FC0000000003FFFFE0007F00078007F0003FFF80007FFC0000000007FFFF
310
C0000000007FFFF80FFFFFFFFFFFFFC07FFFFFF0001FFFFFF8001FFFFFFFFC00
310
0FF8001FFFFFFFFC000FFF0003FFFFFFFFFE0000000003FFF000FC000000000F
310
FFFFE0007F80070007F8001FFF80007FF8000000001FFFFF8000000001FFFFF8
310
0FFFFFFFFFFFFFC07FFFFFF0001FFFFFF8001FFFFFFFFC000FF8001FFFFFFFFC
310
000FFF0003FFFFFFFFFC000000000FFFF000F8000000007FFFFFE0007F800700
310
07F8001FFF80007FF000000000FFFFFF800000000FFFFFF80FFFFFFFFFFFFFC0
310
7FFFFFF0001FFFFFF8000FFFFFFFF8000FF8000FFFFFFFF8000FFF0003FFFFFF
310
FFFC000000007FFFF000F800000007FFFFFFC0007F8003000FF8001FFF80007F
310
F000000007FFFFFF000000007FFFFFF80FFFFFFFFFFFFFC07FFFFFF0001FFFFF
310
F8000FFFFFFFF8000FF8000FFFFFFFF8000FFF0003FFFFFFFFF80000000FFFFF
310
F000F0000000FFFFFFFFC000FF8003000FF8001FFF80007FE0000000FFFFFFFF
310
0000000FFFFFFFF8000001FFFE0000007FFFFFF0001FFFFFF8000FFFFFFFF800
310
0FF8000FFFFFFFF8000FFF0003FFFFFFFFF8000000FFFFFFF000F000000FFFFF
310
FFFFC000FFC002000FF8000FFF80007FE000001FFFFFFFFE000001FFFFFFFFF8
310
000001FFFE0000007FFFFFF0001FFFFFF8000FFFFFFFF8000FF8000FFFFFFFF8
310
000FFF0003FFFFFFFFF000001FFFFFFFF000E00000FFFFFFFFFFC000FFC00200
310
0FFC000FFF80007FE00001FFFFFFFFFE00001FFFFFFFFFF8000001FFFE000000
310
7FFFFFF0001FFFFFFC000FFFFFFFF8001FFC000FFFFFFFF8001FFF0003FFFFFF
310
FFF00001FFFFFFFFF000E00007FFFFFFFFFF8000FFC000001FFC000FFF80007F
310
C0000FFFFFFFFFFE0000FFFFFFFFFFF8000001FFFE0000007FFFFFF0001FFFFF
310
FC0007FFFFFFF0001FFC0007FFFFFFF0001FFF0003FFFFFFFFF00007FFFFFFFF
310
F000E0001FFFFFFFFFFF8000FFC000001FFC000FFF80007FC0003FFFFFFFFFFE
310
0001FFFFFFFFFFF8000001FFFE0000007FFFFFF0001FFFFFFC0007FFFFFFF000
310
1FFC0007FFFFFFF0001FFF0003FFFFFFFFF0001FFFFFFFFFF000E0003FFFFF00
310
03FF8001FFE000001FFC0007FF80007FC0007FFFFF0007FC0003FFFFF0003FF8
310
000001FFFE0000007FFFFFF0001FFFFFFC0003FFFFFFE0001FFC0003FFFFFFE0
310
001FFF0003FFFFFFFFF0003FFFFFFFFFF000E0003FFFFF0001FF8001FFE00000
310
1FFE0007FF80007FC0007FFFFE0003FC0007FFFFE0003FF8000001FFFE000000
310
7FFFFFF0001FFFFFFE0003FFFFFFE0003FFE0003FFFFFFE0003FFF0003FFFFFF
310
FFF0003FFFFF8001F000E0003FFFFF0001FF0001FFE000001FFE0007FF80007F
310
C0007FFFFE0003FC0007FFFFE0003FF8000001FFFE0000007FFFFFF0001FFFFF
310
FE0001FFFFFFC0003FFE0001FFFFFFC0003FFF0003FFFFFFFFF0003FFFFF0001
310
F000E0003FFFFF0003FF0001FFE000003FFE0007FF80007FC0007FFFFE0003FC
310
0007FFFFE0003FF8000001FFFE0000007FFFFFF0001FFFFFFF0001FFFFFFC000
310
7FFF0001FFFFFFC0007FFF0003FFFFFFFFF0003FFFFF0001F000E0003FFFFE00
310
03FF0003FFF000003FFE0003FF80007FC0007FFFFC0003FE0007FFFFE0003FF8
310
000001FFFE0000007FFFFFF0001FFFFFFF0000FFFFFF80007FFF0000FFFFFF80
310
007FFF0003FFFFFFFFF0003FFFFF0001F000E0003FFFFE0003FF0003FFF00000
310
3FFF0003FF80007FC0007FFFFC0007FE0007FFFFC0003FF8000001FFFE000000
310
7FFFFFF0001FFFFFFF80007FFFFF0000FFFF80007FFFFF0000FFFF0003FFFFFF
310
FFF0003FFFFF0003F000E0003FFFFC0003FE0003FFF000003FFF0003FF80007F
310
E0003FFFF80007FE0003FFFFC0007FF8000001FFFE0000007FFFFFF0001FFFFF
310
FF80003FFFFE0000FFFF80003FFFFE0000FFFF0003FFFFFFFFF0001FFFFE0003
310
F000F0001FFFF80003FE0003FFF000007FFF0001FF80007FE0003FFFF00007FE
310
0001FFFF80007FF8000001FFFE0000007FFFFFF0001FFFFFFFC0000FFFF80001
310
FFFFC0000FFFF80001FFFF0003FFFFFFFFF0001FFFFC0003F000F0000FFFF000
310
07FE0007FFF800007FFF0001FF80007FE0001FFFE00007FF0000FFFE00007FF8
310
000001FFFE0000007FFFFFF0001FFFFFFFC00003FFE00001FFFFC00003FFE000
310
01FFFF0003FFFFFFFFF8000FFFF80003F000F00003FFC00007FC0007FFF80000
310
7FFF8001FF80007FF00007FF80000FFF00007FF80000FFF8000001FFFE000000
310
7F80000000000001FFE000003E000003FFFFE000003E000003FFFF0003FFFFFF
310
FFF80003FFE00007F000F800000000000FFC0007FFF800007FFF8001FF80007F
310
F000000000000FFF000000000000FFF8000001FFFE0000007F80000000000001
310
FFF0000000000007FFFFF0000000000007FFFF0003FFFFFFFFFC00007E000007
310
F000F800000000000FFC0007FFF80000FFFF8000FF80007FF800000000001FFF
310
800000000001FFF8000001FFFE0000007F80000000000001FFF800000000000F
310
FFFFF800000000000FFFFF0003FFFFFFFFFC00000000000FF000FC0000000000
310
1FFC0007FFFC0000FFFF8000FF80007FF800000000003FFFC00000000001FFF8
310
000001FFFE0000007F80000000000001FFF800000000000FFFFFF80000000000
310
0FFFFF0003FFFFFFFFFE00000000001FF000FE00000000003FF8000FFFFC0000
310
FFFF8000FF80007FFC00000000003FFFC00000000003FFF8000001FFFE000000
310
7F80000000000001FFFC00000000001FFFFFFC00000000001FFFFF0003FFFFFF
310
FFFF00000000001FF000FF00000000003FF8000FFFFC0000FFFFC000FF80007F
310
FE00000000007FFFE00000000007FFF8000001FFFE0000007F80000000000001
310
FFFE00000000003FFFFFFE00000000003FFFFF0003FFFFFFFFFF80000000003F
310
F000FF80000000007FF8000FFFFC0001FFFFC0007F80007FFF0000000000FFFF
310
F0000000000FFFF800000000000000007F80000000000001FFFF8000000000FF
310
FFFFFF8000000000FFFFFF0003FFFFFFFFFFC0000000007FF000FFC000000000
310
FFF8000FFFFE0001FFFFC0007F80007FFF8000000001FFFFF8000000001FFFF8
310
00000000000000007F80000000000001FFFFC000000001FFFFFFFFC000000001
310
FFFFFF0003FFFFFFFFFFE000000000FFF000FFE000000003FFF0001FFFFE0001
310
FFFFC0007F80007FFFC000000007FFFFFE000000003FFFF80000000000000000
310
7F80000000000001FFFFE000000003FFFFFFFFE000000003FFFFFF0003FFFFFF
310
FFFFF000000003FFF000FFF80000000FFFF0001FFFFE0001FFFFE0007F80007F
310
FFF00000000FFFFFFF00000000FFFFF800000000000000007F80000000000001
310
FFFFF80000000FFFFFFFFFF80000000FFFFFFF0003FFFFFFFFFFFC0000000FFF
310
F000FFFE0000003FFFF0001FFFFE0003FFFFE0003F80007FFFFC0000003FFFFF
310
FFC0000003FFFFF800000000000000007F80000000000001FFFFFE0000003FFF
310
FFFFFFFE0000003FFFFFFF0003FFFFFFFFFFFF0000003FFFF000FFFF800000FF
310
FFF0001FFFFF0003FFFFE0003F80007FFFFF000001FFFFFFFFF800001FFFFFF8
310
00000000000000007F80000000000001FFFFFFC00001FFFFFFFFFFFFC00001FF
310
FFFFFF0003FFFFFFFFFFFFC00000FFFFF000FFFFF8000FFFFFFFFFFFFFFFFFFF
310
FFFFFFFFFFFFFFFFFFFFF0001FFFFFFFFFFF0000FFFFFFF80000000000000000
310
7FFFFFFFFFFFFFFFFFFFFFFC001FFFFFFFFFFFFFFC001FFFFFFFFFFFFFFFFFFF
310
FFFFFFFC001FFFFFF000FFFFFFFFFFFFFFFFFFFFFFFFFFFFFFFFFFFFFFFFFFFF
310
FFFFFFFFFFFFFFFFFFFFFFFFFFFFFFFFFFFFFFFFFFFFFFFFFFFFFFFFFFFFFFFF
310
FFFFFFFFFFFFFFFFFFFFFFFFFFFFFFFFFFFFFFFFFFFFFFFFFFFFFFFFFFFFFFFF
310
F000FFFFFFFFFFFFFFFFFFFFFFFFFFFFFFFFFFFFFFFFFFFFFFFFFFFFFFFFFFFF
310
FFFFFFFFFFFFFFFFFFFFFFFFFFFFFFFFFFFFFFFFFFFFFFFFFFFFFFFFFFFFFFFF
310
FFFFFFFFFFFFFFFFFFFFFFFFFFFFFFFFFFFFFFFFFFFFFFFFF000FFFFFFFFFFFF
310
FFFFFFFFFFFFFFFFFFFFFFFFFFFFFFFFFFFFFFFFFFFFFFFFFFFFFFFFFFFFFFFF
310
FFFFFFFFFFFFFFFFFFFFFFFFFFFFFFFFFFFFFFFFFFFFFFFFFFFFFFFFFFFFFFFF
310
FFFFFFFFFFFFFFFFFFFFFFFFFFFFFFFFF000FFFFFFFFFFFFFFFFFFFFFFFFFFFF
310
FFFFFFFFFFFFFFFFFFFFFFFFFFFFFFFFFFFFFFFFFFFFFFFFFFFFFFFFFFFFFFFF
310
FFFFFFFFFFFFFFFFFFFFFFFFFFFFFFFFFFFFFFFFFFFFFFFFFFFFFFFFFFFFFFFF
310
FFFFFFFFFFFFFFFFF000FFFFFFFFFFFFFFFFFFFFFFFFFFFFFFFFFFFFFFFFFFFF
310
FFFFFFFFFFFFFFFFFFFFFFFFFFFFFFFFFFFFFFFFFFFFFFFFFFFFFFFFFFFFFFFF
310
FFFFFFFFFFFFFFFFFFFFFFFFFFFFFFFFFFFFFFFFFFFFFFFFFFFFFFFFFFFFFFFF
310
F000FFFFFFFFFFFFFFFFFFFFFFFFFFFFFFFFFFFFFFFFFFFFFFFFFFFFFFFFFFFF
310
FFFFFFFFFFFFFFFFFFFFFFFFFFFFFFFFFFFFFFFFFFFFFFFFFFFFFFFFFFFFFFFF
310
FFFFFFFFFFFFFFFFFFFFFFFFFFFFFFFFFFFFFFFFFFFFFFFFF000FFFFFFFFFFFF
310
FFFFFFFFFFFFFFFFFFFFFFFFFFFFFFFFFFFFFFFFFFFFFFFFFFFFFFFFFFFFFFFF
310
FFFFFFFFFFFFFFFFFFFFFFFFFFFFFFFFFFFFFFFFFFFFFFFFFFFFFFFFFFFFFFFF
310
FFFFFFFFFFFFFFFFFFFFFFFFFFFFFFFFF000FFFFFFFFFFFFFFFFFFFFFFFFFFFF
310
FFFFFFFFFFFFFFFFFFFFFFFFFFFFFFFFFFFFFFFFFFFFFFFFFFFFFFFFFFFFFFFF
310
FFFFFFFFFFFFFFFFFFFFFFFFFFFFFFFFFFFFFFFFFFFFFFFFFFFFFFFFFFFFFFFF
310
FFFFFFFFFFFFFFFFF000FFFFFFFFFFFFFFFFFFFFFFFFFFFFFFFFFFFFFFFFFFFF
310
FFFFFFFFFFFFFFFFFFFFFFFFFFFFFFFFFFFFFFFFFFFFFFFFFFFFFFFFFFFFFFFF
310
FFFFFFFFFFFFFFFFFFFFFFFFFFFFFFFFFFFFFFFFFFFFFFFFFFFFFFFFFFFFFFFF
310
F000FFFFFFFFFFFFFFFFFFFFFFFFFFFFFFFFFFFFFFFFFFFFFFFFFFFFFFFFFFFF
310
FFFFFFFFFFFFFFFFFFFFFFFFFFFFFFFFFFFFFFFFFFFFFFFFFFFFFFFFFFFFFFFF
310
FFFFFFFFFFFFFFFFFFFFFFFFFFFFFFFFFFFFFFFFFFFFFFFFF000FFFFFFFFFFFF
310
FFFFFFFFFFFFFFFFFFFFFFFFFFFFFFFFFFFFFFFFFFFFFFFFFFFFFFFFFFFFFFFF
310
FFFFFFFFFFFFFFFFFFFFFFFFFFFFFFFFFFFFFFFFFFFFFFFFFFFFFFFFFFFFFFFF
310
FFFFFFFFFFFFFFFFFFFFFFFFFFFFFFFFF000FFFFFFFFFFFFFFFFFFFFFFFFFFFF
310
FFFFFFFFFFFFFFFFFFFFFFFFFFFFFFFFFFFFFFFFFFFFFFFFFFFFFFFFFFFFFFFF
310
FFFFFFFFFFFFFFFFFFFFFFFFFFFFFFFFFFFFFFFFFFFFFFFFFFFFFFFFFFFFFFFF
310
FFFFFFFFFFFFFFFFF000FFFFFFFFFFFFFFFFFFFFFFFFFFFFFFFFFFFFFFFFFFFF
310
FFFFFFFFFFFFFFFFFFFFFFFFFFFFFFFFFFFFFFFFFFFFFFFFFFFFFFFFFFFFFFFF
310
FFFFFFFFFFFFFFFFFFFFFFFFFFFFFFFFFFFFFFFFFFFFFFFFFFFFFFFFFFFFFFFF
310
F000FFFFFFFFFFFFFFFFFFFFFFFFFFFFFFFFFFFFFFFFFFFFFFFFFFFFFFFFFFFF
310
FFFFFFFFFFFFFFFFFFFFFFFFFFFFFFFFFFFFFFFFFFFFFFFFFFFFFFFFFFFFFFFF
310
FFFFFFFFFFFFFFFFFFFFFFFFFFFFFFFFFFFFFFFFFFFFFFFFF000FFFFFFFFFFFF
310
FFFFFFFFFFFFFFFFFFFFFFFFFFFFFFFFFFFFFFFFFFFFFFFFFFFFFFFFFFFFFFFF
310
FFFFFFFFFFFFFFFFFFFFFFFFFFFFFFFFFFFFFFFFFFFFFFFFFFFFFFFFFFFFFFFF
310
FFFFFFFFFFFFFFFFFFFFFFFFFFFFFFFFF000FFFFFFFFFFFFFFFFFFFFFFFFFFFF
310
FFFFFFFFFFFFFFFFFFFFFFFFFFFFFFFFFFFFFFFFFFFFFFFFFFFFFFFFFFFFFFFF
310
FFFFFFFFFFFFFFFFFFFFFFFFFFFFFFFFFFFFFFFFFFFFFFFFFFFFFFFFFFFFFFFF
310
FFFFFFFFFFFFFFFFF000FFFFFFFFFFFFFFFFFFFFFFFFFFFFFFFFFFFFFFFFFFFF
310
FFFFFFFFFFFFFFFFFFFFFFFFFFFFFFFFFFFFFFFFFFFFFFFFFFFFFFFFFFFFFFFF
310
FFFFFFFFFFFFFFFFFFFFFFFFFFFFFFFFFFFFFFFFFFFFFFFFFFFFFFFFFFFFFFFF
310
F000FFFFFFFFFFFFFFFFFFFFFFFFFFFFFFFFFFFFFFFFFFFFFFFFFFFFFFFFFFFF
310
FFFFFFFFFFFFFFFFFFFFFFFFFFFFFFFFFFFFFFFFFFFFFFFFFFFFFFFFFFFFFFFF
310
FFFFFFFFFFFFFFFFFFFFFFFFFFFFFFFFFFFFFFFFFFFFFFFFF000FFFFFFFFFFFF
310
FFFFFFFFFFFFFFFFFFFFFFFFFFFFFFFFFFFFFFFFFFFFFFFFFFFFFFFFFFFFFFFF
310
FFFFFFFFFFFFFFFFFFFFFFFFFFFFFFFFFFFFFFFFFFFFFFFFFFFFFFFFFFFFFFFF
310
FFFFFFFFFFFFFFFFFFFFFFFFFFFFFFFFF000FFFFFFFFFFFFFFFFFFFFFFFFFFFF
310
FFFFFFFFFFFFFFFFFFFFFFFFFFFFFFFFFFFFFFFFFFFFFFFFFFFFFFFFFFFFFFFF
310
FFFFFFFFFFFFFFFFFFFFFFFFFFFFFFFFFFFFFFFFFFFFFFFFFFFFFFFFFFFFFFFF
310
FFFFFFFFFFFFFFFFF000FFFFFFFFFFFFFFFFFFFFFFFFFFFFFFFFFFFFFFFFFFFF
310
FFFFFFFFFFFFFFFFFFFFFFFFFFFFFFFFFFFFFFFFFFFFFFFFFFFFFFFFFFFFFFFF
310
FFFFFFFFFFFFFFFFFFFFFFFFFFFFFFFFFFFFFFFFFFFFFFFFFFFFFFFFFFFFFFFF
310
F000FFFFFFFFFFFFFFFFFFFFFFFFFFFFFFFFFFFFFFFFFFFFFFFFFFFFFFFFFFFF
310
FFFFFFFFFFFFFFFFFFFFFFFFFFFFFFFFFFFFFFFFFFFFFFFFFFFFFFFFFFFFFFFF
310
FFFFFFFFFFFFFFFFFFFFFFFFFFFFFFFFFFFFFFFFFFFFFFFFF000FFFFFFFFFFFF
310
FFFFFFFFFFFFFFFFFFFFFFFFFFFFFFFFFFFFFFFFFFFFFFFFFFFFFFFFFFFFFFFF
310
FFFFFFFFFFFFFFFFFFFFFFFFFFFFFFFFFFFFFFFFFFFFFFFFFFFFFFFFFFFFFFFF
310
FFFFFFFFFFFFFFFFFFFFFFFFFFFFFFFFF0000000000000000000000000000000
310
0000000000000000000000000000000000000000000000000000000000000000
310
0000000000000000000000000000000000000000000000000000000000000000
310
0000000000000000000000000000000000000000000000000000000000000000
310
0000000000000000000000000000000000000000000000000000000000000000
310
0000000000000000000000000000000000000000000000000000000000000000
310
0000000000000000000000000000000000000000000000000000000000000000
310
0000000000000000000000000000000000000000000000000000000000000000
310
0000000000000000000000000000000000000000000000000000000000000000
310
0000000000000000000000000000000000000000000000000000000000000000
310
0000000000000000000000000000000000000000000000000000000000000000
310
0000000000000000000000000000000000000000000000000000000000000000
310
0000000000000000000000000000000000000000000000000000000000000000
310
0000000000000000000000000000000000000000000000000000000000000000
310
0000000000000000000000000000000000000000000000000000000000000000
310
0000000000000000000000000000000000000000000000000000000000000000
  1
OLE
  0
ENDSEC
  0
SECTION
  2
OBJECTS
  0
DICTIONARY
  5
C
330
0
100
AcDbDictionary
281
     1
  3
ACAD_GROUP
350
D
  3
ACAD_LAYOUT
350
1A
  3
ACAD_MLINESTYLE
350
17
  3
ACAD_PLOTSETTINGS
350
19
  3
ACAD_PLOTSTYLENAME
350
E
  3
ACAD_SCALELIST
350
47
  0
DICTIONARY
  5
D
102
{ACAD_REACTORS
330
C
102
}
330
C
100
AcDbDictionary
281
     1
  0
DICTIONARY
  5
1A
102
{ACAD_REACTORS
330
C
102
}
330
C
100
AcDbDictionary
281
     1
  3
Layout1
350
1E
  3
Layout2
350
26
  3
Model
350
22
  0
DICTIONARY
  5
17
102
{ACAD_REACTORS
330
C
102
}
330
C
100
AcDbDictionary
281
     1
  3
Standard
350
18
  0
DICTIONARY
  5
19
102
{ACAD_REACTORS
330
C
102
}
330
C
100
AcDbDictionary
281
     1
  0
ACDBDICTIONARYWDFLT
  5
E
102
{ACAD_REACTORS
330
C
102
}
330
C
100
AcDbDictionary
281
     1
  3
Normal
350
F
100
AcDbDictionaryWithDefault
340
F
  0
DICTIONARY
  5
47
102
{ACAD_REACTORS
330
C
102
}
330
C
100
AcDbDictionary
281
     1
  3
A0
350
48
  3
A1
350
49
  3
A2
350
4A
  3
A3
350
4B
  3
A4
350
4C
  3
A5
350
4D
  3
A6
350
4E
  3
A7
350
4F
  3
A8
350
50
  3
A9
350
51
  3
B0
350
52
  3
B1
350
53
  3
B2
350
54
  3
B3
350
55
  3
B4
350
56
  3
B5
350
57
  3
B6
350
58
  3
B7
350
59
  3
B8
350
5A
  3
B9
350
5B
  3
C0
350
5C
  3
C1
350
5D
  3
C2
350
5E
  3
C3
350
5F
  3
C4
350
60
  3
C5
350
61
  3
C6
350
62
  3
C7
350
63
  3
C8
350
64
  3
C9
350
65
  3
D0
350
66
  3
D1
350
67
  3
D2
350
68
  0
LAYOUT
  5
1E
102
{ACAD_REACTORS
330
1A
102
}
330
1A
100
AcDbPlotSettings
  1

  2
none_device
  4

  6

 40
0.0
 41
0.0
 42
0.0
 43
0.0
 44
0.0
 45
0.0
 46
0.0
 47
0.0
 48
0.0
 49
0.0
140
0.0
141
0.0
142
1.0
143
1.0
 70
   688
 72
     1
 73
     0
 74
     5
  7

 75
    16
147
1.0
148
0.0
149
0.0
100
AcDbLayout
  1
Layout1
 70
     1
 71
     1
 10
0.0
 20
0.0
 11
420.0
 21
297.0
 12
0.0
 22
0.0
 32
0.0
 14
1.0000000000E+20
 24
1.0000000000E+20
 34
1.0000000000E+20
 15
-1.0000000000E+20
 25
-1.0000000000E+20
 35
-1.0000000000E+20
146
0.0
 13
0.0
 23
0.0
 33
0.0
 16
1.0
 26
0.0
 36
0.0
 17
0.0
 27
1.0
 37
0.0
 76
     0
330
1B
  0
LAYOUT
  5
26
102
{ACAD_REACTORS
330
1A
102
}
330
1A
100
AcDbPlotSettings
  1

  2
none_device
  4

  6

 40
0.0
 41
0.0
 42
0.0
 43
0.0
 44
0.0
 45
0.0
 46
0.0
 47
0.0
 48
0.0
 49
0.0
140
0.0
141
0.0
142
1.0
143
1.0
 70
   688
 72
     1
 73
     0
 74
     5
  7

 75
    16
147
1.0
148
0.0
149
0.0
100
AcDbLayout
  1
Layout2
 70
     1
 71
     2
 10
0.0
 20
0.0
 11
0.0
 21
0.0
 12
0.0
 22
0.0
 32
0.0
 14
0.0
 24
0.0
 34
0.0
 15
0.0
 25
0.0
 35
0.0
146
0.0
 13
0.0
 23
0.0
 33
0.0
 16
1.0
 26
0.0
 36
0.0
 17
0.0
 27
1.0
 37
0.0
 76
     0
330
23
  0
LAYOUT
  5
22
102
{ACAD_REACTORS
330
1A
102
}
330
1A
100
AcDbPlotSettings
  1

  2
none_device
  4
Letter_(8.50_x_11.00_Inches)
  6

 40
6.35
 41
6.35
 42
6.35000508
 43
6.35000508
 44
215.9
 45
279.4
 46
0.0
 47
0.0
 48
0.0
 49
0.0
140
0.0
141
0.0
142
1.0
143
1.0
 70
  1712
 72
     1
 73
     0
 74
     0
  7

 75
     0
147
1.0
148
0.0
149
0.0
100
AcDbLayout
  1
Model
 70
     1
 71
     0
 10
0.0
 20
0.0
 11
297.0
 21
210.0
 12
0.0
 22
0.0
 32
0.0
 14
0.0
 24
0.0
 34
0.0
 15
297.0
 25
210.0
 35
0.0
146
0.0
 13
0.0
 23
0.0
 33
0.0
 16
1.0
 26
0.0
 36
0.0
 17
0.0
 27
1.0
 37
0.0
 76
     0
330
1F
331
29
  0
MLINESTYLE
  5
18
102
{ACAD_REACTORS
330
17
102
}
330
17
100
AcDbMlineStyle
  2
Standard
 70
     0
  3

 62
   256
 51
90.0
 52
90.0
 71
     2
 49
0.5
 62
   256
  6
BYLAYER
 49
-0.5
 62
   256
  6
BYLAYER
  0
ACDBPLACEHOLDER
  5
F
102
{ACAD_REACTORS
330
E
102
}
330
E
  0
SCALE
  5
48
102
{ACAD_REACTORS
330
47
102
}
330
47
100
AcDbScale
 70
     0
300
1:1
140
1.0
141
1.0
290
     1
  0
SCALE
  5
49
102
{ACAD_REACTORS
330
47
102
}
330
47
100
AcDbScale
 70
     0
300
1:2
140
1.0
141
2.0
290
     0
  0
SCALE
  5
4A
102
{ACAD_REACTORS
330
47
102
}
330
47
100
AcDbScale
 70
     0
300
1:4
140
1.0
141
4.0
290
     0
  0
SCALE
  5
4B
102
{ACAD_REACTORS
330
47
102
}
330
47
100
AcDbScale
 70
     0
300
1:5
140
1.0
141
5.0
290
     0
  0
SCALE
  5
4C
102
{ACAD_REACTORS
330
47
102
}
330
47
100
AcDbScale
 70
     0
300
1:8
140
1.0
141
8.0
290
     0
  0
SCALE
  5
4D
102
{ACAD_REACTORS
330
47
102
}
330
47
100
AcDbScale
 70
     0
300
1:10
140
1.0
141
10.0
290
     0
  0
SCALE
  5
4E
102
{ACAD_REACTORS
330
47
102
}
330
47
100
AcDbScale
 70
     0
300
1:16
140
1.0
141
16.0
290
     0
  0
SCALE
  5
4F
102
{ACAD_REACTORS
330
47
102
}
330
47
100
AcDbScale
 70
     0
300
1:20
140
1.0
141
20.0
290
     0
  0
SCALE
  5
50
102
{ACAD_REACTORS
330
47
102
}
330
47
100
AcDbScale
 70
     0
300
1:30
140
1.0
141
30.0
290
     0
  0
SCALE
  5
51
102
{ACAD_REACTORS
330
47
102
}
330
47
100
AcDbScale
 70
     0
300
1:40
140
1.0
141
40.0
290
     0
  0
SCALE
  5
52
102
{ACAD_REACTORS
330
47
102
}
330
47
100
AcDbScale
 70
     0
300
1:50
140
1.0
141
50.0
290
     0
  0
SCALE
  5
53
102
{ACAD_REACTORS
330
47
102
}
330
47
100
AcDbScale
 70
     0
300
1:100
140
1.0
141
100.0
290
     0
  0
SCALE
  5
54
102
{ACAD_REACTORS
330
47
102
}
330
47
100
AcDbScale
 70
     0
300
2:1
140
2.0
141
1.0
290
     0
  0
SCALE
  5
55
102
{ACAD_REACTORS
330
47
102
}
330
47
100
AcDbScale
 70
     0
300
4:1
140
4.0
141
1.0
290
     0
  0
SCALE
  5
56
102
{ACAD_REACTORS
330
47
102
}
330
47
100
AcDbScale
 70
     0
300
8:1
140
8.0
141
1.0
290
     0
  0
SCALE
  5
57
102
{ACAD_REACTORS
330
47
102
}
330
47
100
AcDbScale
 70
     0
300
10:1
140
10.0
141
1.0
290
     0
  0
SCALE
  5
58
102
{ACAD_REACTORS
330
47
102
}
330
47
100
AcDbScale
 70
     0
300
100:1
140
100.0
141
1.0
290
     0
  0
SCALE
  5
59
102
{ACAD_REACTORS
330
47
102
}
330
47
100
AcDbScale
 70
     0
300
1/128" = 1'-0"
140
0.0078125
141
12.0
290
     0
  0
SCALE
  5
5A
102
{ACAD_REACTORS
330
47
102
}
330
47
100
AcDbScale
 70
     0
300
1/64" = 1'-0"
140
0.015625
141
12.0
290
     0
  0
SCALE
  5
5B
102
{ACAD_REACTORS
330
47
102
}
330
47
100
AcDbScale
 70
     0
300
1/32" = 1'-0"
140
0.03125
141
12.0
290
     0
  0
SCALE
  5
5C
102
{ACAD_REACTORS
330
47
102
}
330
47
100
AcDbScale
 70
     0
300
1/16" = 1'-0"
140
0.0625
141
12.0
290
     0
  0
SCALE
  5
5D
102
{ACAD_REACTORS
330
47
102
}
330
47
100
AcDbScale
 70
     0
300
3/32" = 1'-0"
140
0.09375
141
12.0
290
     0
  0
SCALE
  5
5E
102
{ACAD_REACTORS
330
47
102
}
330
47
100
AcDbScale
 70
     0
300
1/8" = 1'-0"
140
0.125
141
12.0
290
     0
  0
SCALE
  5
5F
102
{ACAD_REACTORS
330
47
102
}
330
47
100
AcDbScale
 70
     0
300
3/16" = 1'-0"
140
0.1875
141
12.0
290
     0
  0
SCALE
  5
60
102
{ACAD_REACTORS
330
47
102
}
330
47
100
AcDbScale
 70
     0
300
1/4" = 1'-0"
140
0.25
141
12.0
290
     0
  0
SCALE
  5
61
102
{ACAD_REACTORS
330
47
102
}
330
47
100
AcDbScale
 70
     0
300
3/8" = 1'-0"
140
0.375
141
12.0
290
     0
  0
SCALE
  5
62
102
{ACAD_REACTORS
330
47
102
}
330
47
100
AcDbScale
 70
     0
300
1/2" = 1'-0"
140
0.5
141
12.0
290
     0
  0
SCALE
  5
63
102
{ACAD_REACTORS
330
47
102
}
330
47
100
AcDbScale
 70
     0
300
3/4" = 1'-0"
140
0.75
141
12.0
290
     0
  0
SCALE
  5
64
102
{ACAD_REACTORS
330
47
102
}
330
47
100
AcDbScale
 70
     0
300
1" = 1'-0"
140
1.0
141
12.0
290
     0
  0
SCALE
  5
65
102
{ACAD_REACTORS
330
47
102
}
330
47
100
AcDbScale
 70
     0
300
1-1/2" = 1'-0"
140
1.5
141
12.0
290
     0
  0
SCALE
  5
66
102
{ACAD_REACTORS
330
47
102
}
330
47
100
AcDbScale
 70
     0
300
3" = 1'-0"
140
3.0
141
12.0
290
     0
  0
SCALE
  5
67
102
{ACAD_REACTORS
330
47
102
}
330
47
100
AcDbScale
 70
     0
300
6" = 1'-0"
140
6.0
141
12.0
290
     0
  0
SCALE
  5
68
102
{ACAD_REACTORS
330
47
102
}
330
47
100
AcDbScale
 70
     0
300
1'-0" = 1'-0"
140
12.0
141
12.0
290
     0
  0
ENDSEC
  0
EOF
