  0
SECTION
  2
HEADER
  9
$ACADVER
  1
AC1015
  9
$ACADMAINTVER
 70
     6
  9
$DWGCODEPAGE
  3
ANSI_1252
  9
$INSBASE
 10
0.0
 20
0.0
 30
0.0
  9
$EXTMIN
 10
0.0
 20
0.0
 30
0.0
  9
$EXTMAX
 10
297.0
 20
210.0
 30
0.0
  9
$LIMMIN
 10
0.0
 20
0.0
  9
$LIMMAX
 10
297.0
 20
210.0
  9
$ORTHOMODE
 70
     0
  9
$REGENMODE
 70
     1
  9
$FILLMODE
 70
     1
  9
$QTEXTMODE
 70
     0
  9
$MIRRTEXT
 70
     1
  9
$LTSCALE
 40
1.0
  9
$ATTMODE
 70
     1
  9
$TEXTSIZE
 40
2.0
  9
$TRACEWID
 40
1.0
  9
$TEXTSTYLE
  7
Standard
  9
$CLAYER
  8
0
  9
$CELTYPE
  6
ByLayer
  9
$CECOLOR
 62
   256
  9
$CELTSCALE
 40
1.0
  9
$DISPSILH
 70
     0
  9
$DIMSCALE
 40
1.0
  9
$DIMASZ
 40
3.0
  9
$DIMEXO
 40
0.0
  9
$DIMDLI
 40
3.75
  9
$DIMRND
 40
0.0
  9
$DIMDLE
 40
0.0
  9
$DIMEXE
 40
1.0
  9
$DIMTP
 40
0.0
  9
$DIMTM
 40
0.0
  9
$DIMTXT
 40
2.0
  9
$DIMCEN
 40
2.5
  9
$DIMTSZ
 40
0.0
  9
$DIMTOL
 70
     0
  9
$DIMLIM
 70
     0
  9
$DIMTIH
 70
     1
  9
$DIMTOH
 70
     1
  9
$DIMSE1
 70
     0
  9
$DIMSE2
 70
     0
  9
$DIMTAD
 70
     1
  9
$DIMZIN
 70
     0
  9
$DIMBLK
  1

  9
$DIMASO
 70
     1
  9
$DIMSHO
 70
     1
  9
$DIMPOST
  1

  9
$DIMAPOST
  1

  9
$DIMALT
 70
     0
  9
$DIMALTD
 70
     3
  9
$DIMALTF
 40
0.0393700787
  9
$DIMLFAC
 40
1.0
  9
$DIMTOFL
 70
     1
  9
$DIMTVP
 40
0.0
  9
$DIMTIX
 70
     0
  9
$DIMSOXD
 70
     0
  9
$DIMSAH
 70
     0
  9
$DIMBLK1
  1

  9
$DIMBLK2
  1

  9
$DIMSTYLE
  2
ISO-25
  9
$DIMCLRD
 70
     0
  9
$DIMCLRE
 70
     0
  9
$DIMCLRT
 70
     0
  9
$DIMTFAC
 40
1.0
  9
$DIMGAP
 40
1.524
  9
$DIMJUST
 70
     0
  9
$DIMSD1
 70
     0
  9
$DIMSD2
 70
     0
  9
$DIMTOLJ
 70
     0
  9
$DIMTZIN
 70
     0
  9
$DIMALTZ
 70
     0
  9
$DIMALTTZ
 70
     0
  9
$DIMUPT
 70
     0
  9
$DIMDEC
 70
     2
  9
$DIMTDEC
 70
     3
  9
$DIMALTU
 70
     2
  9
$DIMALTTD
 70
     3
  9
$DIMTXSTY
  7
Standard
  9
$DIMAUNIT
 70
     0
  9
$DIMADEC
 70
     2
  9
$DIMALTRND
 40
0.0
  9
$DIMAZIN
 70
     0
  9
$DIMDSEP
 70
    44
  9
$DIMATFIT
 70
     3
  9
$DIMFRAC
 70
     0
  9
$DIMLDRBLK
  1

  9
$DIMLUNIT
 70
     2
  9
$DIMLWD
 70
    -2
  9
$DIMLWE
 70
    -2
  9
$DIMTMOVE
 70
     0
  9
$LUNITS
 70
     2
  9
$LUPREC
 70
     2
  9
$SKETCHINC
 40
1.0
  9
$FILLETRAD
 40
10.0
  9
$AUNITS
 70
     0
  9
$AUPREC
 70
     2
  9
$MENU
  1
.
  9
$ELEVATION
 40
0.0
  9
$PELEVATION
 40
0.0
  9
$THICKNESS
 40
0.0
  9
$LIMCHECK
 70
     0
  9
$CHAMFERA
 40
0.0
  9
$CHAMFERB
 40
0.0
  9
$CHAMFERC
 40
0.0
  9
$CHAMFERD
 40
0.0
  9
$SKPOLY
 70
     0
  9
$TDCREATE
 40
2457655.630555162
  9
$TDUCREATE
 40
2457655.547221829
  9
$TDUPDATE
 40
2457655.630556262
  9
$TDUUPDATE
 40
2457655.547222928
  9
$TDINDWG
 40
0.0000000116
  9
$TDUSRTIMER
 40
0.0000000116
  9
$USRTIMER
 70
     1
  9
$ANGBASE
 50
0.0
  9
$ANGDIR
 70
     0
  9
$PDMODE
 70
     0
  9
$PDSIZE
 40
-1.0
  9
$PLINEWID
 40
0.0
  9
$SPLFRAME
 70
     0
  9
$SPLINETYPE
 70
     6
  9
$SPLINESEGS
 70
     8
  9
$HANDSEED
  5
1DF
  9
$SURFTAB1
 70
     6
  9
$SURFTAB2
 70
     6
  9
$SURFTYPE
 70
     6
  9
$SURFU
 70
     6
  9
$SURFV
 70
     6
  9
$UCSBASE
  2

  9
$UCSNAME
  2

  9
$UCSORG
 10
0.0
 20
0.0
 30
0.0
  9
$UCSXDIR
 10
1.0
 20
0.0
 30
0.0
  9
$UCSYDIR
 10
0.0
 20
1.0
 30
0.0
  9
$UCSORTHOREF
  2

  9
$UCSORTHOVIEW
 70
     0
  9
$UCSORGTOP
 10
0.0
 20
0.0
 30
0.0
  9
$UCSORGBOTTOM
 10
0.0
 20
0.0
 30
0.0
  9
$UCSORGLEFT
 10
0.0
 20
0.0
 30
0.0
  9
$UCSORGRIGHT
 10
0.0
 20
0.0
 30
0.0
  9
$UCSORGFRONT
 10
0.0
 20
0.0
 30
0.0
  9
$UCSORGBACK
 10
0.0
 20
0.0
 30
0.0
  9
$PUCSBASE
  2

  9
$PUCSNAME
  2

  9
$PUCSORG
 10
0.0
 20
0.0
 30
0.0
  9
$PUCSXDIR
 10
1.0
 20
0.0
 30
0.0
  9
$PUCSYDIR
 10
0.0
 20
1.0
 30
0.0
  9
$PUCSORTHOREF
  2

  9
$PUCSORTHOVIEW
 70
     0
  9
$PUCSORGTOP
 10
0.0
 20
0.0
 30
0.0
  9
$PUCSORGBOTTOM
 10
0.0
 20
0.0
 30
0.0
  9
$PUCSORGLEFT
 10
0.0
 20
0.0
 30
0.0
  9
$PUCSORGRIGHT
 10
0.0
 20
0.0
 30
0.0
  9
$PUCSORGFRONT
 10
0.0
 20
0.0
 30
0.0
  9
$PUCSORGBACK
 10
0.0
 20
0.0
 30
0.0
  9
$USERI1
 70
     0
  9
$USERI2
 70
     0
  9
$USERI3
 70
     0
  9
$USERI4
 70
     0
  9
$USERI5
 70
     0
  9
$USERR1
 40
0.0
  9
$USERR2
 40
0.0
  9
$USERR3
 40
0.0
  9
$USERR4
 40
0.0
  9
$USERR5
 40
0.0
  9
$WORLDVIEW
 70
     1
  9
$SHADEDGE
 70
     3
  9
$SHADEDIF
 70
    70
  9
$TILEMODE
 70
     1
  9
$MAXACTVP
 70
    64
  9
$PINSBASE
 10
0.0
 20
0.0
 30
0.0
  9
$PLIMCHECK
 70
     0
  9
$PEXTMIN
 10
1.0000000000E+20
 20
1.0000000000E+20
 30
1.0000000000E+20
  9
$PEXTMAX
 10
-1.0000000000E+20
 20
-1.0000000000E+20
 30
-1.0000000000E+20
  9
$PLIMMIN
 10
0.0
 20
0.0
  9
$PLIMMAX
 10
420.0
 20
297.0
  9
$UNITMODE
 70
     0
  9
$VISRETAIN
 70
     1
  9
$PLINEGEN
 70
     0
  9
$PSLTSCALE
 70
     1
  9
$TREEDEPTH
 70
  3020
  9
$CMLSTYLE
  2
Standard
  9
$CMLJUST
 70
     0
  9
$CMLSCALE
 40
20.0
  9
$PROXYGRAPHICS
 70
     1
  9
$MEASUREMENT
 70
     1
  9
$CELWEIGHT
370
    -1
  9
$ENDCAPS
280
     0
  9
$JOINSTYLE
280
     0
  9
$LWDISPLAY
290
     1
  9
$INSUNITS
 70
     4
  9
$HYPERLINKBASE
  1

  9
$STYLESHEET
  1

  9
$XEDIT
290
     1
  9
$CEPSNTYPE
380
     0
  9
$PSTYLEMODE
290
     1
  9
$FINGERPRINTGUID
  2
{2057F89D-EDB6-4D0F-A7A6-45B81F747E83}
  9
$VERSIONGUID
  2
{FAEB1C32-E019-11D5-929B-00C0DF256EC4}
  9
$EXTNAMES
290
     1
  9
$PSVPSCALE
 40
0.0
  9
$OLESTARTUP
290
     0
  0
ENDSEC
  0
SECTION
  2
CLASSES
  0
CLASS
  1
ACDBDICTIONARYWDFLT
  2
AcDbDictionaryWithDefault
  3
ObjectDBX Classes
 90
        0
280
     0
281
     0
  0
CLASS
  1
VISUALSTYLE
  2
AcDbVisualStyle
  3
ObjectDBX Classes
 90
     4095
280
     0
281
     0
  0
CLASS
  1
MATERIAL
  2
AcDbMaterial
  3
ObjectDBX Classes
 90
     1153
280
     0
281
     0
  0
CLASS
  1
SCALE
  2
AcDbScale
  3
ObjectDBX Classes
 90
     1153
280
     0
281
     0
  0
CLASS
  1
TABLESTYLE
  2
AcDbTableStyle
  3
ObjectDBX Classes
 90
     4095
280
     0
281
     0
  0
CLASS
  1
MLEADERSTYLE
  2
AcDbMLeaderStyle
  3
ACDB_MLEADERSTYLE_CLASS
 90
     4095
280
     0
281
     0
  0
CLASS
  1
SUN
  2
AcDbSun
  3
SCENEOE
 90
     1153
280
     0
281
     0
  0
CLASS
  1
ACDBPLACEHOLDER
  2
AcDbPlaceHolder
  3
ObjectDBX Classes
 90
        0
280
     0
281
     0
  0
CLASS
  1
LAYOUT
  2
AcDbLayout
  3
ObjectDBX Classes
 90
        0
280
     0
281
     0
  0
ENDSEC
  0
SECTION
  2
TABLES
  0
TABLE
  2
VPORT
  5
8
330
0
100
AcDbSymbolTable
 70
     1
  0
VPORT
  5
29
330
8
100
AcDbSymbolTableRecord
100
AcDbViewportTableRecord
  2
*Active
 70
     0
 10
0.0
 20
0.0
 11
1.0
 21
1.0
 12
148.5
 22
105.0
 13
0.0
 23
0.0
 14
10.0
 24
10.0
 15
10.0
 25
10.0
 16
0.0
 26
0.0
 36
1.0
 17
0.0
 27
0.0
 37
0.0
 40
210.0
 41
1.4142857143
 42
50.0
 43
0.0
 44
0.0
 50
0.0
 51
0.0
 71
     0
 72
  2000
 73
     1
 74
     3
 75
     0
 76
     0
 77
     0
 78
     0
281
     0
 65
     1
110
0.0
120
0.0
130
0.0
111
1.0
121
0.0
131
0.0
112
0.0
122
1.0
132
0.0
 79
     0
146
0.0
  0
ENDTAB
  0
TABLE
  2
LTYPE
  5
5
330
0
100
AcDbSymbolTable
 70
     6
  0
LTYPE
  5
14
330
5
100
AcDbSymbolTableRecord
100
AcDbLinetypeTableRecord
  2
ByBlock
 70
     0
  3

 72
    65
 73
     0
 40
0.0
  0
LTYPE
  5
15
330
5
100
AcDbSymbolTableRecord
100
AcDbLinetypeTableRecord
  2
ByLayer
 70
     0
  3

 72
    65
 73
     0
 40
0.0
  0
LTYPE
  5
16
330
5
100
AcDbSymbolTableRecord
100
AcDbLinetypeTableRecord
  2
Continuous
 70
     0
  3
Solid line
 72
    65
 73
     0
 40
0.0
  0
LTYPE
  5
6E
330
5
100
AcDbSymbolTableRecord
100
AcDbLinetypeTableRecord
  2
HIDDEN
 70
     0
  3
Hidden __ __ __ __ __ __ __ __ __ __ __ __ __ __
 72
    65
 73
     2
 40
1.905
 49
1.27
 74
     0
 49
-0.635
 74
     0
  0
LTYPE
  5
6F
330
5
100
AcDbSymbolTableRecord
100
AcDbLinetypeTableRecord
  2
PHANTOM
 70
     0
  3
Phantom ______  __  __  ______  __  __  ______
 72
    65
 73
     6
 40
12.7
 49
6.35
 74
     0
 49
-1.27
 74
     0
 49
1.27
 74
     0
 49
-1.27
 74
     0
 49
1.27
 74
     0
 49
-1.27
 74
     0
  0
LTYPE
  5
70
330
5
100
AcDbSymbolTableRecord
100
AcDbLinetypeTableRecord
  2
CENTER
 70
     0
  3
Center ____ _ ____ _ ____ _ ____ _ ____ _ ____
 72
    65
 73
     4
 40
10.16
 49
6.35
 74
     0
 49
-1.27
 74
     0
 49
1.27
 74
     0
 49
-1.27
 74
     0
  0
LTYPE
  5
71
330
5
100
AcDbSymbolTableRecord
100
AcDbLinetypeTableRecord
  2
CENTERX2
 70
     0
  3
Center (2x) ________  __  ________  __  _____
 72
    65
 73
     4
 40
20.32
 49
12.7
 74
     0
 49
-2.54
 74
     0
 49
2.54
 74
     0
 49
-2.54
 74
     0
  0
LTYPE
  5
72
330
5
100
AcDbSymbolTableRecord
100
AcDbLinetypeTableRecord
  2
DOT2
 70
     0
  3
Dot (.5x) ........................................
 72
    65
 73
     2
 40
0.635
 49
0.0
 74
     0
 49
-0.635
 74
     0
  0
ENDTAB
  0
TABLE
  2
LAYER
  5
2
330
0
100
AcDbSymbolTable
 70
     5
  0
LAYER
  5
10
330
2
100
AcDbSymbolTableRecord
100
AcDbLayerTableRecord
  2
0
 70
     0
 62
     7
  6
Continuous
370
    -3
390
F
  0
LAYER
  5
73
330
2
100
AcDbSymbolTableRecord
100
AcDbLayerTableRecord
  2
FORMAT
 70
     0
 62
     7
  6
Continuous
370
    -3
390
F
  0
LAYER
  5
74
330
2
100
AcDbSymbolTableRecord
100
AcDbLayerTableRecord
  2
VERMASSUNG
 70
     0
 62
     7
  6
Continuous
370
    -3
390
F
  0
LAYER
  5
75
330
2
100
AcDbSymbolTableRecord
100
AcDbLayerTableRecord
  2
KOPF_DÜNN
 70
     0
 62
     7
  6
Continuous
370
    -3
390
F
  0
LAYER
  5
76
330
2
100
AcDbSymbolTableRecord
100
AcDbLayerTableRecord
  2
KOPF_DICK
 70
     0
 62
     7
  6
Continuous
370
    15
390
F
  0
ENDTAB
  0
TABLE
  2
STYLE
  5
3
330
0
100
AcDbSymbolTable
 70
     3
  0
STYLE
  5
11
330
3
100
AcDbSymbolTableRecord
100
AcDbTextStyleTableRecord
  2
Standard
 70
     0
 40
0.0
 41
1.0
 50
0.0
 71
     0
 42
2.0
  3
txt
  4

  0
STYLE
  5
77
330
3
100
AcDbSymbolTableRecord
100
AcDbTextStyleTableRecord
  2
SLDTEXTSTYLE0
 70
     0
 40
0.0
 41
0.7
 50
0.0
 71
     0
 42
2.0
  3
TXT
  4

  0
STYLE
  5
7B
330
3
100
AcDbSymbolTableRecord
100
AcDbTextStyleTableRecord
  2
SLDTEXTSTYLE1
 70
     0
 40
0.0
 41
0.6444444444
 50
0.0
 71
     0
 42
2.0
  3
TXT
  4

  0
ENDTAB
  0
TABLE
  2
VIEW
  5
6
330
0
100
AcDbSymbolTable
 70
     0
  0
ENDTAB
  0
TABLE
  2
UCS
  5
7
330
0
100
AcDbSymbolTable
 70
     0
  0
ENDTAB
  0
TABLE
  2
APPID
  5
9
330
0
100
AcDbSymbolTable
 70
     1
  0
APPID
  5
12
330
9
100
AcDbSymbolTableRecord
100
AcDbRegAppTableRecord
  2
ACAD
 70
     0
  0
ENDTAB
  0
TABLE
  2
DIMSTYLE
  5
A
330
0
100
AcDbSymbolTable
 70
     2
100
AcDbDimStyleTable
  0
DIMSTYLE
105
27
330
A
100
AcDbSymbolTableRecord
100
AcDbDimStyleTableRecord
  2
ISO-25
 70
     0
 41
2.5
 42
0.625
 43
3.75
 44
1.25
 73
     0
 74
     0
 77
     1
 78
     8
140
2.5
141
2.5
143
0.0393700787
147
0.625
171
     3
172
     1
178
     0
271
     2
272
     2
274
     3
278
    44
283
     0
284
     8
340
11
  0
DIMSTYLE
105
11E
102
{ACAD_REACTORS
330
11D
330
12A
330
134
330
13E
330
14A
102
}
330
A
100
AcDbSymbolTableRecord
100
AcDbDimStyleTableRecord
  2
SLDDIMSTYLE0
 70
     0
 41
3.0
 44
0.0
 45
0.000000001
 73
     0
 74
     0
 77
     1
 78
    12
 79
     3
140
2.0
147
0.5
173
     1
178
     0
271
     2
272
     3
276
     2
284
    12
340
77
  0
ENDTAB
  0
TABLE
  2
BLOCK_RECORD
  5
1
330
0
100
AcDbSymbolTable
 70
     6
  0
BLOCK_RECORD
  5
1F
330
1
100
AcDbSymbolTableRecord
100
AcDbBlockTableRecord
  2
*Model_Space
340
22
  0
BLOCK_RECORD
  5
1B
330
1
100
AcDbSymbolTableRecord
100
AcDbBlockTableRecord
  2
*Paper_Space
340
1E
  0
BLOCK_RECORD
  5
23
330
1
100
AcDbSymbolTableRecord
100
AcDbBlockTableRecord
  2
*Paper_Space0
340
26
  0
BLOCK_RECORD
  5
11F
330
1
100
AcDbSymbolTableRecord
100
AcDbBlockTableRecord
  2
_D
340
0
  0
BLOCK_RECORD
  5
12B
330
1
100
AcDbSymbolTableRecord
100
AcDbBlockTableRecord
  2
_D_1
340
0
  0
BLOCK_RECORD
  5
135
330
1
100
AcDbSymbolTableRecord
100
AcDbBlockTableRecord
  2
_D_2
340
0
  0
BLOCK_RECORD
  5
13F
330
1
100
AcDbSymbolTableRecord
100
AcDbBlockTableRecord
  2
_D_3
340
0
  0
BLOCK_RECORD
  5
14B
330
1
100
AcDbSymbolTableRecord
100
AcDbBlockTableRecord
  2
_D_4
340
0
  0
ENDTAB
  0
ENDSEC
  0
SECTION
  2
BLOCKS
  0
BLOCK
  5
20
330
1F
100
AcDbEntity
  8
0
100
AcDbBlockBegin
  2
*Model_Space
 70
     0
 10
0.0
 20
0.0
 30
0.0
  3
*Model_Space
  1

  0
ENDBLK
  5
21
330
1F
100
AcDbEntity
  8
0
100
AcDbBlockEnd
  0
BLOCK
  5
1C
330
1B
100
AcDbEntity
 67
     1
  8
0
100
AcDbBlockBegin
  2
*Paper_Space
 70
     0
 10
0.0
 20
0.0
 30
0.0
  3
*Paper_Space
  1

  0
ENDBLK
  5
1D
330
1B
100
AcDbEntity
 67
     1
  8
0
100
AcDbBlockEnd
  0
BLOCK
  5
24
330
23
100
AcDbEntity
  8
0
100
AcDbBlockBegin
  2
*Paper_Space0
 70
     0
 10
0.0
 20
0.0
 30
0.0
  3
*Paper_Space0
  1

  0
ENDBLK
  5
25
330
23
100
AcDbEntity
  8
0
100
AcDbBlockEnd
  0
BLOCK
  5
120
330
11F
100
AcDbEntity
  8
0
100
AcDbBlockBegin
  2
_D
 70
     0
 10
0.0
 20
0.0
 30
0.0
  3
_D
  1

  0
SOLID
  5
122
330
11F
100
AcDbEntity
  8
VERMASSUNG
100
AcDbTrace
 10
71.8312086144
 20
141.4764271047
 30
0.0
 11
71.3812086144
 21
138.4764271047
 31
0.0
 12
72.2812086144
 22
138.4764271047
 32
0.0
 13
72.2812086144
 23
138.4764271047
 33
0.0
  0
SOLID
  5
123
330
11F
100
AcDbEntity
  8
VERMASSUNG
100
AcDbTrace
 10
71.8312086144
 20
78.4764271047
 30
0.0
 11
72.2812086144
 21
81.4764271047
 31
0.0
 12
71.3812086144
 22
81.4764271047
 32
0.0
 13
71.3812086144
 23
81.4764271047
 33
0.0
  0
LINE
  5
124
330
11F
100
AcDbEntity
  8
VERMASSUNG
100
AcDbLine
 10
167.3456221393
 20
141.4764271047
 30
0.0
 11
70.8312086144
 21
141.4764271047
 31
0.0
  0
LINE
  5
125
330
11F
100
AcDbEntity
  8
VERMASSUNG
100
AcDbLine
 10
167.3456270573
 20
78.4764271047
 30
0.0
 11
70.8312086144
 21
78.4764271047
 31
0.0
  0
LINE
  5
126
330
11F
100
AcDbEntity
  8
VERMASSUNG
100
AcDbLine
 10
71.8312086144
 20
141.4764271047
 30
0.0
 11
71.8312086144
 21
78.4764271047
 31
0.0
  0
MTEXT
  5
127
330
11F
100
AcDbEntity
  8
VERMASSUNG
100
AcDbMText
 10
69.0530733582
 20
99.2719420378
 30
0.0
 40
2.0
 41
0.0
 71
     1
 72
     1
  1
MAS BT 40
  7
SLDTEXTSTYLE0
 11
-7.044195017643634E-15
 21
1.0
 31
0.0
 73
     1
 44
1.0
  0
MTEXT
  5
128
330
11F
100
AcDbEntity
  8
VERMASSUNG
100
AcDbMText
 10
69.2530733095
 20
114.2719417025
 30
0.0
 40
2.0
 41
0.0
 71
     1
 72
     1
  1
%%c
  7
SLDTEXTSTYLE0
 11
-7.044195017643634E-15
 21
1.0
 31
0.0
 73
     1
 44
1.0
  0
MTEXT
  5
129
330
11F
100
AcDbEntity
  8
VERMASSUNG
100
AcDbMText
 10
69.2530730184
 20
117.8815321511
 30
0.0
 40
2.0
 41
0.0
 71
     1
 72
     1
  1
63
  7
SLDTEXTSTYLE0
 11
-7.044195017643634E-15
 21
1.0
 31
0.0
 73
     1
 44
1.0
  0
ENDBLK
  5
121
330
11F
100
AcDbEntity
  8
0
100
AcDbBlockEnd
  0
BLOCK
  5
12C
330
12B
100
AcDbEntity
  8
0
100
AcDbBlockBegin
  2
_D_1
 70
     0
 10
0.0
 20
0.0
 30
0.0
  3
_D_1
  1

  0
SOLID
  5
12E
330
12B
100
AcDbEntity
  8
VERMASSUNG
100
AcDbTrace
 10
77.9456262834
 20
159.2420981014
 30
0.0
 11
80.9456262834
 21
158.7920981014
 31
0.0
 12
80.9456262834
 22
159.6920981014
 32
0.0
 13
80.9456262834
 23
159.6920981014
 33
0.0
  0
SOLID
  5
12F
330
12B
100
AcDbEntity
  8
VERMASSUNG
100
AcDbTrace
 10
210.3456262834
 20
159.2420981014
 30
0.0
 11
207.3456262834
 21
159.6920981014
 31
0.0
 12
207.3456262834
 22
158.7920981014
 32
0.0
 13
207.3456262834
 23
158.7920981014
 33
0.0
  0
LINE
  5
130
330
12B
100
AcDbEntity
  8
VERMASSUNG
100
AcDbLine
 10
77.9456262834
 20
121.7991827018
 30
0.0
 11
77.9456262834
 21
160.2420981014
 31
0.0
  0
LINE
  5
131
330
12B
100
AcDbEntity
  8
VERMASSUNG
100
AcDbLine
 10
210.3456262834
 20
136.9764271047
 30
0.0
 11
210.3456262834
 21
160.2420981014
 31
0.0
  0
LINE
  5
132
330
12B
100
AcDbEntity
  8
VERMASSUNG
100
AcDbLine
 10
77.9456262834
 20
159.2420981014
 30
0.0
 11
210.3456262834
 21
159.2420981014
 31
0.0
  0
MTEXT
  5
133
330
12B
100
AcDbEntity
  8
VERMASSUNG
100
AcDbMText
 10
141.146605686
 20
161.8202336974
 30
0.0
 40
2.0
 41
0.0
 71
     1
 72
     1
  1
132.4
  7
SLDTEXTSTYLE0
 73
     1
 44
1.0
  0
ENDBLK
  5
12D
330
12B
100
AcDbEntity
  8
0
100
AcDbBlockEnd
  0
BLOCK
  5
136
330
135
100
AcDbEntity
  8
0
100
AcDbBlockBegin
  2
_D_2
 70
     0
 10
0.0
 20
0.0
 30
0.0
  3
_D_2
  1

  0
SOLID
  5
138
330
135
100
AcDbEntity
  8
VERMASSUNG
100
AcDbTrace
 10
143.3456262834
 20
153.2420981014
 30
0.0
 11
146.3456262834
 21
152.7920981014
 31
0.0
 12
146.3456262834
 22
153.6920981014
 32
0.0
 13
146.3456262834
 23
153.6920981014
 33
0.0
  0
SOLID
  5
139
330
135
100
AcDbEntity
  8
VERMASSUNG
100
AcDbTrace
 10
210.3456262834
 20
153.2420981014
 30
0.0
 11
207.3456262834
 21
153.6920981014
 31
0.0
 12
207.3456262834
 22
152.7920981014
 32
0.0
 13
207.3456262834
 23
152.7920981014
 33
0.0
  0
LINE
  5
13A
330
135
100
AcDbEntity
  8
VERMASSUNG
100
AcDbLine
 10
143.3456262834
 20
132.2014271047
 30
0.0
 11
143.3456262834
 21
154.2420981014
 31
0.0
  0
LINE
  5
13B
330
135
100
AcDbEntity
  8
VERMASSUNG
100
AcDbLine
 10
210.3456262834
 20
136.9764271047
 30
0.0
 11
210.3456262834
 21
154.2420981014
 31
0.0
  0
LINE
  5
13C
330
135
100
AcDbEntity
  8
VERMASSUNG
100
AcDbLine
 10
143.3456262834
 20
153.2420981014
 30
0.0
 11
210.3456262834
 21
153.2420981014
 31
0.0
  0
MTEXT
  5
13D
330
135
100
AcDbEntity
  8
VERMASSUNG
100
AcDbMText
 10
175.4459362731
 20
155.8202336974
 30
0.0
 40
2.0
 41
0.0
 71
     1
 72
     1
  1
67
  7
SLDTEXTSTYLE0
 73
     1
 44
1.0
  0
ENDBLK
  5
137
330
135
100
AcDbEntity
  8
0
100
AcDbBlockEnd
  0
BLOCK
  5
140
330
13F
100
AcDbEntity
  8
0
100
AcDbBlockBegin
  2
_D_3
 70
     0
 10
0.0
 20
0.0
 30
0.0
  3
_D_3
  1

  0
SOLID
  5
142
330
13F
100
AcDbEntity
  8
VERMASSUNG
100
AcDbTrace
 10
220.970593594
 20
137.4764271047
 30
0.0
 11
220.520593594
 21
134.4764271047
 31
0.0
 12
221.420593594
 22
134.4764271047
 32
0.0
 13
221.420593594
 23
134.4764271047
 33
0.0
  0
SOLID
  5
143
330
13F
100
AcDbEntity
  8
VERMASSUNG
100
AcDbTrace
 10
220.970593594
 20
82.4764271047
 30
0.0
 11
221.420593594
 21
85.4764271047
 31
0.0
 12
220.520593594
 22
85.4764271047
 32
0.0
 13
220.520593594
 23
85.4764271047
 33
0.0
  0
LINE
  5
144
330
13F
100
AcDbEntity
  8
VERMASSUNG
100
AcDbLine
 10
209.8456262834
 20
137.4764271047
 30
0.0
 11
221.970593594
 21
137.4764271047
 31
0.0
  0
LINE
  5
145
330
13F
100
AcDbEntity
  8
VERMASSUNG
100
AcDbLine
 10
209.8456262834
 20
82.4764271047
 30
0.0
 11
221.970593594
 21
82.4764271047
 31
0.0
  0
LINE
  5
146
330
13F
100
AcDbEntity
  8
VERMASSUNG
100
AcDbLine
 10
220.970593594
 20
137.4764271047
 30
0.0
 11
220.970593594
 21
82.4764271047
 31
0.0
  0
MTEXT
  5
147
330
13F
100
AcDbEntity
  8
VERMASSUNG
100
AcDbMText
 10
218.1924583378
 20
103.5714274612
 30
0.0
 40
2.0
 41
0.0
 71
     1
 72
     1
  1
MBM
  7
SLDTEXTSTYLE0
 11
-7.044195017643634E-15
 21
1.0
 31
0.0
 73
     1
 44
1.0
  0
MTEXT
  5
148
330
13F
100
AcDbEntity
  8
VERMASSUNG
100
AcDbMText
 10
218.3924582891
 20
109.9714272995
 30
0.0
 40
2.0
 41
0.0
 71
     1
 72
     1
  1
%%c
  7
SLDTEXTSTYLE0
 11
-7.044195017643634E-15
 21
1.0
 31
0.0
 73
     1
 44
1.0
  0
MTEXT
  5
149
330
13F
100
AcDbEntity
  8
VERMASSUNG
100
AcDbMText
 10
218.1924583378
 20
113.5814277794
 30
0.0
 40
2.0
 41
0.0
 71
     1
 72
     1
  1
55
  7
SLDTEXTSTYLE0
 11
-7.044195017643634E-15
 21
1.0
 31
0.0
 73
     1
 44
1.0
  0
ENDBLK
  5
141
330
13F
100
AcDbEntity
  8
0
100
AcDbBlockEnd
  0
BLOCK
  5
14C
330
14B
100
AcDbEntity
  8
0
100
AcDbBlockBegin
  2
_D_4
 70
     0
 10
0.0
 20
0.0
 30
0.0
  3
_D_4
  1

  0
SOLID
  5
14E
330
14B
100
AcDbEntity
  8
VERMASSUNG
100
AcDbTrace
 10
170.3456262834
 20
145.9964827938
 30
0.0
 11
173.3456262834
 21
145.5464827938
 31
0.0
 12
173.3456262834
 22
146.4464827938
 32
0.0
 13
173.3456262834
 23
146.4464827938
 33
0.0
  0
SOLID
  5
14F
330
14B
100
AcDbEntity
  8
VERMASSUNG
100
AcDbTrace
 10
210.3456262834
 20
145.9964827938
 30
0.0
 11
207.3456262834
 21
146.4464827938
 31
0.0
 12
207.3456262834
 22
145.5464827938
 32
0.0
 13
207.3456262834
 23
145.5464827938
 33
0.0
  0
LINE
  5
150
330
14B
100
AcDbEntity
  8
VERMASSUNG
100
AcDbLine
 10
170.3456262834
 20
140.4764271047
 30
0.0
 11
170.3456262834
 21
146.9964827938
 31
0.0
  0
LINE
  5
151
330
14B
100
AcDbEntity
  8
VERMASSUNG
100
AcDbLine
 10
210.3456262834
 20
136.9764271047
 30
0.0
 11
210.3456262834
 21
146.9964827938
 31
0.0
  0
LINE
  5
152
330
14B
100
AcDbEntity
  8
VERMASSUNG
100
AcDbLine
 10
170.3456262834
 20
145.9964827938
 30
0.0
 11
210.3456262834
 21
145.9964827938
 31
0.0
  0
MTEXT
  5
153
330
14B
100
AcDbEntity
  8
VERMASSUNG
100
AcDbMText
 10
188.8456262703
 20
148.5746183897
 30
0.0
 40
2.0
 41
0.0
 71
     1
 72
     1
  1
40
  7
SLDTEXTSTYLE0
 73
     1
 44
1.0
  0
ENDBLK
  5
14D
330
14B
100
AcDbEntity
  8
0
100
AcDbBlockEnd
  0
ENDSEC
  0
SECTION
  2
ENTITIES
  0
MTEXT
  5
78
330
1F
100
AcDbEntity
  8
KOPF_DÜNN
100
AcDbMText
 10
13.8892156294
 20
23.8442973028
 30
0.0
 40
3.0
 41
0.0
 71
     1
 72
     1
  1
102.412.551
  7
SLDTEXTSTYLE0
 73
     1
 44
1.0
  0
MTEXT
  5
79
330
1F
100
AcDbEntity
  8
VERMASSUNG
100
AcDbMText
 10
13.9329988022
 20
28.8834360957
 30
0.0
 40
3.0
 41
0.0
 71
     1
 72
     1
  1
Aufnahme_Master shank MBM 55
  7
SLDTEXTSTYLE0
 73
     1
 44
1.0
  0
MTEXT
  5
7A
330
1F
100
AcDbEntity
  8
VERMASSUNG
100
AcDbMText
 10
98.8601118557
 20
13.8365368761
 30
0.0
 40
2.0
 41
0.0
 71
     1
 72
     1
  1
Datum: 22.11.2007
  7
SLDTEXTSTYLE0
 73
     1
 44
1.0
  0
MTEXT
  5
7C
330
1F
100
AcDbEntity
  8
VERMASSUNG
100
AcDbMText
 10
13.933048693
 20
18.0482802738
 30
0.0
 40
2.0
 41
0.0
 71
     1
 72
     1
  1
MAS BT 40 / MBM 55
  7
SLDTEXTSTYLE1
 73
     1
 44
1.0
  0
MTEXT
  5
7D
330
1F
100
AcDbEntity
  8
VERMASSUNG
100
AcDbMText
 10
13.9808475933
 20
13.9090974274
 30
0.0
 40
2.0
 41
0.0
 71
     1
 72
     1
  1
Gewicht: 1523g
  7
SLDTEXTSTYLE0
 73
     1
 44
1.0
  0
LINE
  5
7E
330
1F
100
AcDbEntity
  8
0
  6
Continuous
 62
     7
370
    15
100
AcDbLine
 10
167.3457814293
 20
78.4764271047
 30
0.0
 11
169.3456262834
 21
78.4764271047
 31
0.0
  0
LINE
  5
7F
330
1F
100
AcDbEntity
  8
0
  6
Continuous
 62
     7
370
    15
100
AcDbLine
 10
169.3456262834
 20
141.4764271047
 30
0.0
 11
167.3451261134
 21
141.4764271047
 31
0.0
  0
ARC
  5
80
330
1F
100
AcDbEntity
  8
0
  6
Continuous
 62
     7
370
    15
100
AcDbCircle
 10
169.3456262834
 20
79.4764271047
 30
0.0
 40
1.0
100
AcDbArc
 50
270.0
 51
0.0
  0
ARC
  5
81
330
1F
100
AcDbEntity
  8
0
  6
Continuous
 62
     7
370
    15
100
AcDbCircle
 10
169.3456262834
 20
140.4764271047
 30
0.0
 40
1.0
100
AcDbArc
 50
0.0
 51
90.0
  0
ARC
  5
82
330
1F
100
AcDbEntity
  8
0
  6
Continuous
 62
     7
370
    15
100
AcDbCircle
 10
173.3456262834
 20
79.4764271047
 30
0.0
 40
3.0
100
AcDbArc
 50
90.0
 51
180.0
  0
ARC
  5
83
330
1F
100
AcDbEntity
  8
0
  6
Continuous
 62
     7
370
    15
100
AcDbCircle
 10
173.3456262834
 20
140.4764271047
 30
0.0
 40
3.0
100
AcDbArc
 50
180.0
 51
270.0
  0
LINE
  5
84
330
1F
100
AcDbEntity
  8
0
  6
Continuous
 62
     7
370
    15
100
AcDbLine
 10
173.3456262834
 20
82.4764271047
 30
0.0
 11
209.8456262834
 21
82.4764271047
 31
0.0
  0
LINE
  5
85
330
1F
100
AcDbEntity
  8
0
  6
Continuous
 62
     7
370
    15
100
AcDbLine
 10
209.8456262834
 20
137.4764271047
 30
0.0
 11
173.3456262834
 21
137.4764271047
 31
0.0
  0
LINE
  5
86
330
1F
100
AcDbEntity
  8
0
  6
Continuous
 62
     7
370
    15
100
AcDbLine
 10
209.8456262834
 20
82.4764271047
 30
0.0
 11
210.3456262834
 21
82.9764271047
 31
0.0
  0
LINE
  5
87
330
1F
100
AcDbEntity
  8
0
  6
Continuous
 62
     7
370
    15
100
AcDbLine
 10
210.3456262834
 20
136.9764271047
 30
0.0
 11
209.8456262834
 21
137.4764271047
 31
0.0
  0
ARC
  5
88
330
1F
100
AcDbEntity
  8
0
  6
Continuous
 62
     7
370
    15
100
AcDbCircle
 10
144.3456262834
 20
86.7514271047
 30
0.0
 40
1.0
100
AcDbArc
 50
46.4321093438
 51
90.0
  0
ARC
  5
89
330
1F
100
AcDbEntity
  8
0
  6
Continuous
 62
     7
370
    15
100
AcDbCircle
 10
144.3456262834
 20
133.2014271047
 30
0.0
 40
1.000000000000009
100
AcDbArc
 50
270.0
 51
313.5375077307
  0
LINE
  5
8A
330
1F
100
AcDbEntity
  8
0
  6
Continuous
 62
     7
370
    15
100
AcDbLine
 10
143.3456262834
 20
87.7514271047
 30
0.0
 11
144.3456262834
 21
87.7514271047
 31
0.0
  0
LINE
  5
8B
330
1F
100
AcDbEntity
  8
0
  6
Continuous
 62
     7
370
    15
100
AcDbLine
 10
144.3456262834
 20
132.2014271047
 30
0.0
 11
143.3456262834
 21
132.2014271047
 31
0.0
  0
LINE
  5
8C
330
1F
100
AcDbEntity
  8
0
  6
Continuous
 62
     7
370
    15
100
AcDbLine
 10
143.3456262834
 20
132.2014271047
 30
0.0
 11
78.8013193903
 21
122.7887156828
 31
0.0
  0
LINE
  5
8D
330
1F
100
AcDbEntity
  8
0
  6
Continuous
 62
     7
370
    15
100
AcDbLine
 10
78.8013193903
 20
97.1641385266
 30
0.0
 11
143.3456262834
 21
87.7514271047
 31
0.0
  0
ARC
  5
8E
330
1F
100
AcDbEntity
  8
0
  6
Continuous
 62
     7
370
    15
100
AcDbCircle
 10
78.9456262834
 20
98.1536715077
 30
0.0
 40
1.0
100
AcDbArc
 50
180.0
 51
261.7028550302
  0
ARC
  5
8F
330
1F
100
AcDbEntity
  8
0
  6
Continuous
 62
     7
370
    15
100
AcDbCircle
 10
78.9456262834
 20
121.7991827018
 30
0.0
 40
1.00000000000001
100
AcDbArc
 50
98.2971449698
 51
180.0
  0
SPLINE
  5
90
330
1F
100
AcDbEntity
  8
0
  6
Continuous
 62
     7
370
    15
100
AcDbSpline
210
0.0
220
0.0
230
1.0
 70
    24
 71
     3
 72
    11
 73
     7
 74
     0
 42
0.000000001
 43
0.00000001
 40
0.0
 40
0.0
 40
0.0
 40
0.0
 40
0.1336647920874057
 40
0.4825473608259797
 40
0.8156356561503854
 40
1.0
 40
1.0
 40
1.0
 40
1.0
 10
197.5276770909364
 20
106.9764271047228
 30
0.0
 10
197.3825554127085
 20
106.9764271047228
 30
0.0
 10
196.8586471962373
 20
106.9764271047228
 30
0.0
 10
195.8799232418675
 20
106.9764271047228
 30
0.0
 10
194.8287840931511
 20
106.9764271047228
 30
0.0
 10
194.2645925330355
 20
106.9764271047228
 30
0.0
 10
194.0635754757987
 20
106.9764271047228
 30
0.0
  0
SPLINE
  5
91
330
1F
100
AcDbEntity
  8
0
  6
Continuous
 62
     7
370
    15
100
AcDbSpline
210
0.0
220
0.0
230
1.0
 70
    24
 71
     3
 72
    11
 73
     7
 74
     0
 42
0.000000001
 43
0.00000001
 40
0.0
 40
0.0
 40
0.0
 40
0.0
 40
0.2164553779443458
 40
0.4403112895790559
 40
0.7519005688038763
 40
1.0
 40
1.0
 40
1.0
 40
1.0
 10
199.2597278985053
 20
109.9764271047228
 30
0.0
 10
199.1410807399852
 20
109.7709241979923
 30
0.0
 10
198.899729918079
 20
109.3528923120024
 30
0.0
 10
198.4518472534267
 20
108.5771367809951
 30
0.0
 10
197.9714127548438
 20
107.7449998197406
 30
0.0
 10
197.66396352564
 20
107.2124821340119
 30
0.0
 10
197.5276770909364
 20
106.9764271047228
 30
0.0
  0
SPLINE
  5
92
330
1F
100
AcDbEntity
  8
0
  6
Continuous
 62
     7
370
    15
100
AcDbSpline
210
0.0
220
0.0
230
1.0
 70
    24
 71
     3
 72
    11
 73
     7
 74
     0
 42
0.000000001
 43
0.00000001
 40
0.0
 40
0.0
 40
0.0
 40
0.0
 40
0.2164553779443446
 40
0.4403112895790551
 40
0.7519005688038766
 40
1.0
 40
1.0
 40
1.0
 40
1.0
 10
197.5276770909364
 20
112.9764271047228
 30
0.0
 10
197.6463242494565
 20
112.7709241979923
 30
0.0
 10
197.8876750713627
 20
112.3528923120023
 30
0.0
 10
198.3355577360151
 20
111.5771367809951
 30
0.0
 10
198.815992234598
 20
110.7449998197406
 30
0.0
 10
199.1234414638017
 20
110.2124821340119
 30
0.0
 10
199.2597278985053
 20
109.9764271047228
 30
0.0
  0
SPLINE
  5
93
330
1F
100
AcDbEntity
  8
0
  6
Continuous
 62
     7
370
    15
100
AcDbSpline
210
0.0
220
0.0
230
1.0
 70
    24
 71
     3
 72
    11
 73
     7
 74
     0
 42
0.000000001
 43
0.00000001
 40
0.0
 40
0.0
 40
0.0
 40
0.0
 40
0.1843643438496109
 40
0.5174526391740203
 40
0.8663352079125943
 40
1.0
 40
1.0
 40
1.0
 40
1.0
 10
194.0635754757987
 20
112.9764271047228
 30
0.0
 10
194.2645925330355
 20
112.9764271047228
 30
0.0
 10
194.8287840931511
 20
112.9764271047228
 30
0.0
 10
195.8799232418676
 20
112.9764271047228
 30
0.0
 10
196.8586471962373
 20
112.9764271047228
 30
0.0
 10
197.3825554127085
 20
112.9764271047228
 30
0.0
 10
197.5276770909364
 20
112.9764271047228
 30
0.0
  0
SPLINE
  5
94
330
1F
100
AcDbEntity
  8
0
  6
Continuous
 62
     7
370
    15
100
AcDbSpline
210
0.0
220
0.0
230
1.0
 70
    24
 71
     3
 72
    11
 73
     7
 74
     0
 42
0.000000001
 43
0.00000001
 40
0.0
 40
0.0
 40
0.0
 40
0.0
 40
0.2164553779443451
 40
0.4403112895790564
 40
0.7519005688038772
 40
1.0
 40
1.0
 40
1.0
 40
1.0
 10
192.3315246682298
 20
109.9764271047228
 30
0.0
 10
192.4501718267499
 20
110.1819300114533
 30
0.0
 10
192.6915226486561
 20
110.5999618974433
 30
0.0
 10
193.1394053133084
 20
111.3757174284505
 30
0.0
 10
193.6198398118914
 20
112.207854389705
 30
0.0
 10
193.9272890410951
 20
112.7403720754337
 30
0.0
 10
194.0635754757987
 20
112.9764271047228
 30
0.0
  0
SPLINE
  5
95
330
1F
100
AcDbEntity
  8
0
  6
Continuous
 62
     7
370
    15
100
AcDbSpline
210
0.0
220
0.0
230
1.0
 70
    24
 71
     3
 72
    11
 73
     7
 74
     0
 42
0.000000001
 43
0.00000001
 40
0.0
 40
0.0
 40
0.0
 40
0.0
 40
0.2164553779443447
 40
0.4403112895790566
 40
0.7519005688038765
 40
1.0
 40
1.0
 40
1.0
 40
1.0
 10
194.0635754757987
 20
106.9764271047228
 30
0.0
 10
193.9449283172786
 20
107.1819300114533
 30
0.0
 10
193.7035774953724
 20
107.5999618974433
 30
0.0
 10
193.25569483072
 20
108.3757174284505
 30
0.0
 10
192.7752603321371
 20
109.207854389705
 30
0.0
 10
192.4678111029334
 20
109.7403720754337
 30
0.0
 10
192.3315246682298
 20
109.9764271047228
 30
0.0
  0
CIRCLE
  5
96
330
1F
100
AcDbEntity
  8
0
  6
Continuous
 62
     7
370
    15
100
AcDbCircle
 10
195.7956262834
 20
109.9764271047
 30
0.0
 40
3.5
  0
CIRCLE
  5
97
330
1F
100
AcDbEntity
  8
0
  6
Continuous
 62
     7
370
    15
100
AcDbCircle
 10
195.7956262834
 20
109.9764271047
 30
0.0
 40
5.5
  0
CIRCLE
  5
98
330
1F
100
AcDbEntity
  8
0
  6
Continuous
 62
     7
370
    15
100
AcDbCircle
 10
195.7956262834
 20
109.9764271047
 30
0.0
 40
6.0
  0
ARC
  5
99
330
1F
100
AcDbEntity
  8
0
  6
Continuous
 62
     7
370
    15
100
AcDbCircle
 10
195.7956262834
 20
109.9764271047
 30
0.0
 40
3.000000000000025
100
AcDbArc
 50
330.0
 51
30.0
  0
ARC
  5
9A
330
1F
100
AcDbEntity
  8
0
  6
Continuous
 62
     7
370
    15
100
AcDbCircle
 10
195.7956262834
 20
109.9764271047
 30
0.0
 40
3.000000000000025
100
AcDbArc
 50
270.0
 51
330.0
  0
ARC
  5
9B
330
1F
100
AcDbEntity
  8
0
  6
Continuous
 62
     7
370
    15
100
AcDbCircle
 10
195.7956262834
 20
109.9764271047
 30
0.0
 40
3.000000000000025
100
AcDbArc
 50
30.0
 51
90.0
  0
ARC
  5
9C
330
1F
100
AcDbEntity
  8
0
  6
Continuous
 62
     7
370
    15
100
AcDbCircle
 10
195.7956262834
 20
109.9764271047
 30
0.0
 40
3.0
100
AcDbArc
 50
210.0
 51
270.0
  0
ARC
  5
9D
330
1F
100
AcDbEntity
  8
0
  6
Continuous
 62
     7
370
    15
100
AcDbCircle
 10
195.7956262834
 20
109.9764271047
 30
0.0
 40
3.0
100
AcDbArc
 50
90.0
 51
150.0
  0
ARC
  5
9E
330
1F
100
AcDbEntity
  8
0
  6
Continuous
 62
     7
370
    15
100
AcDbCircle
 10
195.7956262834
 20
109.9764271047
 30
0.0
 40
3.0
100
AcDbArc
 50
150.0
 51
210.0
  0
SPLINE
  5
9F
330
1F
100
AcDbEntity
  8
0
  6
Continuous
 62
     7
370
    15
100
AcDbSpline
210
0.0
220
0.0
230
1.0
 70
     8
 71
     3
 72
    11
 73
     7
 74
     0
 42
0.000000001
 43
0.00000001
 40
0.0
 40
0.0
 40
0.0
 40
0.0
 40
0.2488814606694497
 40
0.5011921284373979
 40
0.7520447562609068
 40
1.0
 40
1.0
 40
1.0
 40
1.0
 10
167.3451261133505
 20
141.4762773593163
 30
0.0
 10
167.3153477838641
 20
141.4671453331719
 30
0.0
 10
167.2553808249092
 20
141.448755455485
 30
0.0
 10
166.7634587631156
 20
141.3047182069988
 30
0.0
 10
166.0353893404748
 20
141.0953151288888
 30
0.0
 10
165.3246458693102
 20
140.9231108595385
 30
0.0
 10
164.9713383521764
 20
140.8375088592214
 30
0.0
  0
LWPOLYLINE
  5
A0
330
1F
100
AcDbEntity
  8
0
  6
Continuous
 62
     7
370
    15
100
AcDbPolyline
 90
       28
 70
   128
 43
0.0
 10
164.9712449768
 20
79.1153290852
 10
165.9744521533
 20
78.8668906357
 10
166.7216256009
 20
78.6597905706
 10
167.1886060843
 20
78.5234217217
 10
167.305861452
 20
78.4883207931
 10
167.3354304174
 20
78.4794193473
 10
167.3429502205
 20
78.4771778866
 10
167.3448939521
 20
78.4766153264
 10
167.3454117755
 20
78.4764743192
 10
167.3455571765
 20
78.4764389749
 10
167.3456014994
 20
78.4764301041
 10
167.3456165664
 20
78.4764278704
 10
167.3456223263
 20
78.4764273041
 10
167.3456247629
 20
78.4764271587
 10
167.3456258703
 20
78.4764271204
 10
167.3456263963
 20
78.4764271099
 10
167.3456266524
 20
78.4764271067
 10
167.3456267787
 20
78.4764271057
 10
167.3456268414
 20
78.4764271053
 10
167.3456268727
 20
78.4764271052
 10
167.3456268883
 20
78.4764271051
 10
167.3456269038
 20
78.4764271051
 10
167.3456269846
 20
78.4764271048
 10
167.3456270223
 20
78.4764271047
 10
167.3456270406
 20
78.4764271047
 10
167.3456270506
 20
78.4764271047
 10
167.3456270584
 20
78.4764271047
 10
167.325761548
 20
78.4824443552
  0
LINE
  5
A1
330
1F
100
AcDbEntity
  8
0
  6
Continuous
 62
     7
370
    15
100
AcDbLine
 10
164.9706262834
 20
79.1153290852
 30
0.0
 11
164.9706262834
 21
140.8375088592
 31
0.0
  0
SPLINE
  5
A2
330
1F
100
AcDbEntity
  8
0
  6
Continuous
 62
     7
370
    15
100
AcDbSpline
210
0.0
220
0.0
230
1.0
 70
     8
 71
     3
 72
    10
 73
     6
 74
     0
 42
0.000000001
 43
0.00000001
 40
0.0
 40
0.0
 40
0.0
 40
0.0
 40
0.5
 40
0.5
 40
1.0
 40
1.0
 40
1.0
 40
1.0
 10
164.322234687413
 20
139.8808878260769
 30
0.0
 10
164.0061308562736
 20
139.2610252677998
 30
0.0
 10
163.6763518119288
 20
138.6151245325009
 30
0.0
 10
163.00412853954
 20
137.3007058922004
 30
0.0
 10
162.6619953736094
 20
136.6327836651881
 30
0.0
 10
162.3148150450952
 20
135.9564459327067
 30
0.0
  0
SPLINE
  5
A3
330
1F
100
AcDbEntity
  8
0
  6
Continuous
 62
     7
370
    15
100
AcDbSpline
210
0.0
220
0.0
230
1.0
 70
     8
 71
     3
 72
     9
 73
     5
 74
     0
 42
0.000000001
 43
0.00000001
 40
0.0
 40
0.0
 40
0.0
 40
0.0
 40
0.5067595796306674
 40
1.0
 40
1.0
 40
1.0
 40
1.0
 10
164.9712568263521
 20
140.8385622120718
 30
0.0
 10
164.8608564785701
 20
140.6764872737399
 30
0.0
 10
164.6430010058379
 20
140.3566611770138
 30
0.0
 10
164.4284079036238
 20
140.0383131973635
 30
0.0
 10
164.3225619116793
 20
139.8812911060571
 30
0.0
  0
SPLINE
  5
A4
330
1F
100
AcDbEntity
  8
0
  6
Continuous
 62
     7
370
    15
100
AcDbSpline
210
0.0
220
0.0
230
1.0
 70
     8
 71
     3
 72
     9
 73
     5
 74
     0
 42
0.000000001
 43
0.00000001
 40
0.0
 40
0.0
 40
0.0
 40
0.0
 40
0.4932426507672939
 40
1.0
 40
1.0
 40
1.0
 40
1.0
 10
164.3225479966565
 20
80.07156100301805
 30
0.0
 10
164.4283941017822
 20
79.91453776319064
 30
0.0
 10
164.6429864630895
 20
79.59618889456964
 30
0.0
 10
164.8608407510555
 20
79.27636284785345
 30
0.0
 10
164.9712400125441
 20
79.11428864820397
 30
0.0
  0
SPLINE
  5
A5
330
1F
100
AcDbEntity
  8
0
  6
Continuous
 62
     7
370
    15
100
AcDbSpline
210
0.0
220
0.0
230
1.0
 70
     8
 71
     3
 72
    10
 73
     6
 74
     0
 42
0.000000001
 43
0.00000001
 40
0.0
 40
0.0
 40
0.0
 40
0.0
 40
0.5
 40
0.5
 40
1.0
 40
1.0
 40
1.0
 40
1.0
 10
164.3222287677452
 20
80.07197799151778
 30
0.0
 10
164.0060496650711
 20
80.69198814353152
 30
0.0
 10
163.6756074379041
 20
81.3391862093992
 30
0.0
 10
163.0038959172214
 20
82.65260213399297
 30
0.0
 10
162.6619220421894
 20
83.32021340029577
 30
0.0
 10
162.3148150450952
 20
83.99640827673893
 30
0.0
  0
LINE
  5
A6
330
1F
100
AcDbEntity
  8
0
  6
Continuous
 62
     7
370
    15
100
AcDbLine
 10
154.9206262834
 20
140.2128172077
 30
0.0
 11
146.3456262834
 21
140.2128172077
 31
0.0
  0
LINE
  5
A7
330
1F
100
AcDbEntity
  8
0
  6
Continuous
 62
     7
370
    15
100
AcDbLine
 10
154.9206262834
 20
79.7400370017
 30
0.0
 11
154.9206262834
 21
140.2128172077
 31
0.0
  0
LINE
  5
A8
330
1F
100
AcDbEntity
  8
0
  6
Continuous
 62
     7
370
    15
100
AcDbLine
 10
146.3456262834
 20
79.7400370017
 30
0.0
 11
154.9206262834
 21
79.7400370017
 31
0.0
  0
LINE
  5
A9
330
1F
100
AcDbEntity
  8
0
  6
Continuous
 62
     7
370
    15
100
AcDbLine
 10
145.3456262834
 20
80.8500215592
 30
0.0
 11
145.3456262834
 21
139.1028326502
 31
0.0
  0
SPLINE
  5
AA
330
1F
100
AcDbEntity
  8
0
  6
Continuous
 62
     7
370
    15
100
AcDbSpline
210
0.0
220
0.0
230
1.0
 70
     8
 71
     3
 72
    12
 73
     8
 74
     0
 42
0.000000001
 43
0.00000001
 40
0.0
 40
0.0
 40
0.0
 40
0.0
 40
0.2499999999999997
 40
0.2499999999999997
 40
0.4999999999999993
 40
0.4999999999999993
 40
1.0
 40
1.0
 40
1.0
 40
1.0
 10
145.732659106333
 20
140.0434170045438
 30
0.0
 10
145.680798355145
 20
139.9866044322293
 30
0.0
 10
145.632066558126
 20
139.9246122459776
 30
0.0
 10
145.5418935482086
 20
139.7885591728536
 30
0.0
 10
145.5001162999237
 20
139.7136530702548
 30
0.0
 10
145.3940274300777
 20
139.4755264349574
 30
0.0
 10
145.3456262833675
 20
139.2921197033886
 30
0.0
 10
145.3456262833675
 20
139.1028326502068
 30
0.0
  0
SPLINE
  5
AB
330
1F
100
AcDbEntity
  8
0
  6
Continuous
 62
     7
370
    15
100
AcDbSpline
210
0.0
220
0.0
230
1.0
 70
     8
 71
     3
 72
     8
 73
     4
 74
     0
 42
0.000000001
 43
0.00000001
 40
0.0
 40
0.0
 40
0.0
 40
0.0
 40
1.0
 40
1.0
 40
1.0
 40
1.0
 10
146.3456262833675
 20
140.2128172077246
 30
0.0
 10
146.1192819697677
 20
140.2128172077246
 30
0.0
 10
145.9018298493625
 20
140.1494487387037
 30
0.0
 10
145.732659106333
 20
140.0434170045438
 30
0.0
  0
SPLINE
  5
AC
330
1F
100
AcDbEntity
  8
0
  6
Continuous
 62
     7
370
    15
100
AcDbSpline
210
0.0
220
0.0
230
1.0
 70
     8
 71
     3
 72
     8
 73
     4
 74
     0
 42
0.000000001
 43
0.00000001
 40
0.0
 40
0.0
 40
0.0
 40
0.0
 40
1.0
 40
1.0
 40
1.0
 40
1.0
 10
145.732659106333
 20
79.90943720490186
 30
0.0
 10
145.902252611985
 20
79.80314049434466
 30
0.0
 10
146.1186213043183
 20
79.74003700172096
 30
0.0
 10
146.3456262833675
 20
79.74003700172096
 30
0.0
  0
SPLINE
  5
AD
330
1F
100
AcDbEntity
  8
0
  6
Continuous
 62
     7
370
    15
100
AcDbSpline
210
0.0
220
0.0
230
1.0
 70
     8
 71
     3
 72
    12
 73
     8
 74
     0
 42
0.000000001
 43
0.00000001
 40
0.0
 40
0.0
 40
0.0
 40
0.0
 40
0.2500000000000004
 40
0.2500000000000004
 40
0.5000000000000009
 40
0.5000000000000009
 40
1.0
 40
1.0
 40
1.0
 40
1.0
 10
145.732659106333
 20
79.90943720490185
 30
0.0
 10
145.680798355145
 20
79.96624977721623
 30
0.0
 10
145.632066558126
 20
80.02824196346806
 30
0.0
 10
145.5418935482086
 20
80.16429503659207
 30
0.0
 10
145.5001162999237
 20
80.23920113919078
 30
0.0
 10
145.3940274300777
 20
80.47732777448819
 30
0.0
 10
145.3456262833675
 20
80.66073450605695
 30
0.0
 10
145.3456262833675
 20
80.85002155923881
 30
0.0
  0
SPLINE
  5
AE
330
1F
100
AcDbEntity
  8
0
  6
Continuous
 62
     7
370
    15
100
AcDbSpline
210
0.0
220
0.0
230
1.0
 70
     8
 71
     3
 72
     8
 73
     4
 74
     0
 42
0.000000001
 43
0.00000001
 40
0.0
 40
0.0
 40
0.0
 40
0.0
 40
0.0012389803509652
 40
0.0012389803509652
 40
0.0012389803509652
 40
0.0012389803509652
 10
155.4781878269013
 20
139.4304498275092
 30
0.0
 10
155.2930678537685
 20
139.6914998088883
 30
0.0
 10
155.1071894060095
 20
139.9522814220073
 30
0.0
 10
154.9206262833675
 20
140.2128172077246
 30
0.0
  0
SPLINE
  5
AF
330
1F
100
AcDbEntity
  8
0
  6
Continuous
 62
     7
370
    15
100
AcDbSpline
210
0.0
220
0.0
230
1.0
 70
     8
 71
     3
 72
     8
 73
     4
 74
     0
 42
0.000000001
 43
0.00000001
 40
0.0
 40
0.0
 40
0.0
 40
0.0
 40
1.0
 40
1.0
 40
1.0
 40
1.0
 10
157.5764375216398
 20
135.6436727691878
 30
0.0
 10
156.8801441555983
 20
136.9076111373026
 30
0.0
 10
156.1803489904072
 20
138.1696665828109
 30
0.0
 10
155.4781878269013
 20
139.4304498275092
 30
0.0
  0
SPLINE
  5
B0
330
1F
100
AcDbEntity
  8
0
  6
Continuous
 62
     7
370
    15
100
AcDbSpline
210
0.0
220
0.0
230
1.0
 70
     8
 71
     3
 72
     8
 73
     4
 74
     0
 42
0.000000001
 43
0.00000001
 40
0.0
 40
0.0
 40
0.0
 40
0.0
 40
1.0
 40
1.0
 40
1.0
 40
1.0
 10
157.5764375216398
 20
84.30918144025775
 30
0.0
 10
156.8801193809818
 20
83.04519810031097
 30
0.0
 10
156.1803221888714
 20
81.78313950245901
 30
0.0
 10
155.4781878269013
 20
80.52240438193634
 30
0.0
  0
SPLINE
  5
B1
330
1F
100
AcDbEntity
  8
0
  6
Continuous
 62
     7
370
    15
100
AcDbSpline
210
0.0
220
0.0
230
1.0
 70
     8
 71
     3
 72
     8
 73
     4
 74
     0
 42
0.000000001
 43
0.00000001
 40
0.0
 40
0.0
 40
0.0
 40
0.0
 40
0.0012389803509652
 40
0.0012389803509652
 40
0.0012389803509652
 40
0.0012389803509652
 10
154.9206262833675
 20
79.74003700172096
 30
0.0
 10
155.1071894060095
 20
80.00057278743833
 30
0.0
 10
155.2930678537685
 20
80.26135440055734
 30
0.0
 10
155.4781878269013
 20
80.52240438193634
 30
0.0
  0
LINE
  5
B2
330
1F
100
AcDbEntity
  8
0
  6
Continuous
 62
     7
370
    15
100
AcDbLine
 10
209.8456262834
 20
82.4764271047
 30
0.0
 11
209.8456262834
 21
137.4764271047
 31
0.0
  0
SPLINE
  5
B3
330
1F
100
AcDbEntity
  8
0
  6
Continuous
 62
     7
370
    15
100
AcDbSpline
210
0.0
220
0.0
230
1.0
 70
     8
 71
     3
 72
    48
 73
    44
 74
     0
 42
0.000000001
 43
0.00000001
 40
0.0
 40
0.0
 40
0.0
 40
0.0
 40
0.0312500000000004
 40
0.0312500000000004
 40
0.0625000000000009
 40
0.0625000000000009
 40
0.1250000000000017
 40
0.1250000000000017
 40
0.1562500000000024
 40
0.1562500000000024
 40
0.1875000000000031
 40
0.1875000000000031
 40
0.2187500000000037
 40
0.2187500000000037
 40
0.2500000000000044
 40
0.2500000000000044
 40
0.312500000000005
 40
0.312500000000005
 40
0.3437500000000048
 40
0.3437500000000048
 40
0.3750000000000046
 40
0.3750000000000046
 40
0.4375000000000043
 40
0.4375000000000043
 40
0.5000000000000039
 40
0.5000000000000039
 40
0.5625000000000037
 40
0.5625000000000037
 40
0.6250000000000033
 40
0.6250000000000033
 40
0.687500000000003
 40
0.687500000000003
 40
0.7500000000000026
 40
0.7500000000000026
 40
0.8125000000000022
 40
0.8125000000000022
 40
0.8750000000000019
 40
0.8750000000000019
 40
0.9062500000000014
 40
0.9062500000000014
 40
0.937500000000001
 40
0.937500000000001
 40
1.0
 40
1.0
 40
1.0
 40
1.0
 10
203.0456262833676
 20
109.9764271047228
 30
0.0
 10
203.0456262833676
 20
109.7521292456259
 30
0.0
 10
203.0325082165429
 20
109.5279886040655
 30
0.0
 10
202.9797287808765
 20
109.0800252416571
 30
0.0
 10
202.9396364852196
 20
108.8547827427076
 30
0.0
 10
202.7820302746539
 20
108.1950330892247
 30
0.0
 10
202.6280105213262
 20
107.7735714683951
 30
0.0
 10
202.3276112609282
 20
107.1672259634221
 30
0.0
 10
202.2154606973954
 20
106.9691794176895
 30
0.0
 10
201.9734036710142
 20
106.5902312353825
 30
0.0
 10
201.8429819634283
 20
106.4081565573855
 30
0.0
 10
201.5642033513263
 20
106.0580484879135
 30
0.0
 10
201.4158435834401
 20
105.8900175037997
 30
0.0
 10
201.1014270444389
 20
105.5677173126775
 30
0.0
 10
200.9352645459697
 20
105.4135453779061
 30
0.0
 10
200.4205452050175
 20
104.9798756587669
 30
0.0
 10
200.0528661166196
 20
104.725623260837
 30
0.0
 10
199.4660931019802
 20
104.3936110955365
 30
0.0
 10
199.263624614108
 20
104.2908478576214
 30
0.0
 10
198.8530335142858
 20
104.104911473538
 30
0.0
 10
198.6446632224764
 20
104.0214792201923
 30
0.0
 10
198.0106177053987
 20
103.7987283284181
 30
0.0
 10
197.5760809438545
 20
103.6867207952217
 30
0.0
 10
196.6829748546104
 20
103.536154052283
 30
0.0
 10
196.231366145658
 20
103.4992434347337
 30
0.0
 10
195.3345322535376
 20
103.5006564843198
 30
0.0
 10
194.8867394080116
 20
103.5385228620692
 30
0.0
 10
193.9924533902007
 20
103.6918771294822
 30
0.0
 10
193.5567523771032
 20
103.8057177905187
 30
0.0
 10
192.7145517433038
 20
104.1044749061396
 30
0.0
 10
192.3068488753404
 20
104.2895450782929
 30
0.0
 10
191.520184419901
 20
104.7372361594865
 30
0.0
 10
191.1538331204306
 20
104.9926947077963
 30
0.0
 10
190.4749382261667
 20
105.5675397846836
 30
0.0
 10
190.1608557162595
 20
105.8887062797292
 30
0.0
 10
189.5996040891143
 20
106.5961957455229
 30
0.0
 10
189.3598562339407
 20
106.9724966633351
 30
0.0
 10
189.0631968340837
 20
107.5720804219869
 30
0.0
 10
188.9748826622763
 20
107.7778397295165
 30
0.0
 10
188.8207686405821
 20
108.2019715131378
 30
0.0
 10
188.7549587167741
 20
108.4212152368612
 30
0.0
 10
188.5984244800962
 20
109.0794220587217
 30
0.0
 10
188.5456262833675
 20
109.5246351562004
 30
0.0
 10
188.5456262833675
 20
109.9764271047228
 30
0.0
  0
SPLINE
  5
B4
330
1F
100
AcDbEntity
  8
0
  6
Continuous
 62
     7
370
    15
100
AcDbSpline
210
0.0
220
0.0
230
1.0
 70
     8
 71
     3
 72
    52
 73
    48
 74
     0
 42
0.000000001
 43
0.00000001
 40
0.0
 40
0.0
 40
0.0
 40
0.0
 40
0.0312500000000007
 40
0.0312500000000007
 40
0.0625000000000013
 40
0.0625000000000013
 40
0.093750000000002
 40
0.093750000000002
 40
0.1250000000000026
 40
0.1250000000000026
 40
0.187500000000004
 40
0.187500000000004
 40
0.2500000000000054
 40
0.2500000000000054
 40
0.3125000000000069
 40
0.3125000000000069
 40
0.3750000000000083
 40
0.3750000000000083
 40
0.4375000000000097
 40
0.4375000000000097
 40
0.4687500000000099
 40
0.4687500000000099
 40
0.5000000000000101
 40
0.5000000000000101
 40
0.5625000000000097
 40
0.5625000000000097
 40
0.5937500000000094
 40
0.5937500000000094
 40
0.6250000000000092
 40
0.6250000000000092
 40
0.6875000000000079
 40
0.6875000000000079
 40
0.7187500000000072
 40
0.7187500000000072
 40
0.7500000000000064
 40
0.7500000000000064
 40
0.8125000000000051
 40
0.8125000000000051
 40
0.8437500000000041
 40
0.8437500000000041
 40
0.8750000000000031
 40
0.8750000000000031
 40
0.9375000000000016
 40
0.9375000000000016
 40
0.9687500000000008
 40
0.9687500000000008
 40
1.0
 40
1.0
 40
1.0
 40
1.0
 10
188.5456262833675
 20
109.9764271047228
 30
0.0
 10
188.5456262833675
 20
110.2023667418706
 30
0.0
 10
188.5592236638756
 20
110.431375408912
 30
0.0
 10
188.6127847507462
 20
110.8810086213233
 30
0.0
 10
188.6525808777224
 20
111.1026659524834
 30
0.0
 10
188.7572968574216
 20
111.5398937184778
 30
0.0
 10
188.8222189852131
 20
111.7554635832368
 30
0.0
 10
188.9771143028881
 20
112.1805524568566
 30
0.0
 10
189.0673689070328
 20
112.3902233030157
 30
0.0
 10
189.3684015008201
 20
112.9955057392608
 30
0.0
 10
189.6108108347987
 20
113.3729409942356
 30
0.0
 10
190.1744807384027
 20
114.0790699331917
 30
0.0
 10
190.4919256680123
 20
114.4022476264607
 30
0.0
 10
191.1848076352412
 20
114.9836542430944
 30
0.0
 10
191.5542672745858
 20
115.237236759572
 30
0.0
 10
192.3311844918167
 20
115.674762514689
 30
0.0
 10
192.7406604564574
 20
115.8596512277834
 30
0.0
 10
193.5945056432794
 20
116.1583621591776
 30
0.0
 10
194.0290885730597
 20
116.2690091273484
 30
0.0
 10
194.6919448135161
 20
116.379955920413
 30
0.0
 10
194.9147393536376
 20
116.4077029260163
 30
0.0
 10
195.3640673013491
 20
116.4444969952611
 30
0.0
 10
195.5916722831614
 20
116.4535015772549
 30
0.0
 10
196.2694900948591
 20
116.4516494444934
 30
0.0
 10
196.7160006618459
 20
116.4126831892021
 30
0.0
 10
197.3778894739543
 20
116.2986952380261
 30
0.0
 10
197.5971984557108
 20
116.2513847945871
 30
0.0
 10
198.0331068395354
 20
116.1375829712056
 30
0.0
 10
198.2505088824708
 20
116.0707310174212
 30
0.0
 10
198.8863937694453
 20
115.8444895976479
 30
0.0
 10
199.2920660647887
 20
115.6590809574465
 30
0.0
 10
199.8730855059962
 20
115.3282233822316
 30
0.0
 10
200.0621474165168
 20
115.2090883749589
 30
0.0
 10
200.4306243260731
 20
114.9521713717661
 30
0.0
 10
200.6103580897693
 20
114.8139547331857
 30
0.0
 10
201.1225877989945
 20
114.3795364663434
 30
0.0
 10
201.4325220011511
 20
114.0611932381129
 30
0.0
 10
201.8479210908173
 20
113.5379717170123
 30
0.0
 10
201.9780772670685
 20
113.3558920261131
 30
0.0
 10
202.2205250039805
 20
112.9751367567198
 30
0.0
 10
202.3318166296534
 20
112.7777277799265
 30
0.0
 10
202.6292910520497
 20
112.1754930149052
 30
0.0
 10
202.7822769148085
 20
111.7565218648363
 30
0.0
 10
202.9392326405365
 20
111.0998950309031
 30
0.0
 10
202.979478934299
 20
110.8745845236216
 30
0.0
 10
203.0325037467015
 20
110.4252668021978
 30
0.0
 10
203.0456262833676
 20
110.2007683178104
 30
0.0
 10
203.0456262833676
 20
109.9764271047228
 30
0.0
  0
LINE
  5
B5
330
1F
100
AcDbEntity
  8
0
  6
Continuous
 62
     7
370
    15
100
AcDbLine
 10
210.3456262834
 20
82.9764271047
 30
0.0
 11
210.3456262834
 21
136.9764271047
 31
0.0
  0
SPLINE
  5
B6
330
1F
100
AcDbEntity
  8
0
  6
Continuous
 62
     7
370
    15
100
AcDbSpline
210
0.0
220
0.0
230
1.0
 70
     8
 71
     3
 72
    10
 73
     6
 74
     0
 42
0.000000001
 43
0.00000001
 40
0.0
 40
0.0
 40
0.0
 40
0.0
 40
0.5
 40
0.5
 40
1.0
 40
1.0
 40
1.0
 40
1.0
 10
158.2692578446674
 20
135.2241497743023
 30
0.0
 10
158.1272405322204
 20
135.2241497743023
 30
0.0
 10
157.9867934853581
 20
135.2646396265118
 30
0.0
 10
157.7452035660968
 20
135.412575456451
 30
0.0
 10
157.6445261238435
 20
135.5200757324305
 30
0.0
 10
157.5764375216399
 20
135.6436727691875
 30
0.0
  0
SPLINE
  5
B7
330
1F
100
AcDbEntity
  8
0
  6
Continuous
 62
     7
370
    15
100
AcDbSpline
210
0.0
220
0.0
230
1.0
 70
     8
 71
     3
 72
    10
 73
     6
 74
     0
 42
0.000000001
 43
0.00000001
 40
0.0
 40
0.0
 40
0.0
 40
0.0
 40
0.5
 40
0.5
 40
1.0
 40
1.0
 40
1.0
 40
1.0
 10
158.2692578446673
 20
84.72870443514327
 30
0.0
 10
158.1284004801567
 20
84.72870443514327
 30
0.0
 10
157.9855663486825
 20
84.68760052932457
 30
0.0
 10
157.7453046579092
 20
84.54020263602362
 30
0.0
 10
157.6445983888297
 20
84.43290965518396
 30
0.0
 10
157.5764375216398
 20
84.30918144025776
 30
0.0
  0
SPLINE
  5
B8
330
1F
100
AcDbEntity
  8
0
  6
Continuous
 62
     7
370
    15
100
AcDbSpline
210
0.0
220
0.0
230
1.0
 70
     8
 71
     3
 72
    12
 73
     8
 74
     0
 42
0.000000001
 43
0.00000001
 40
0.0
 40
0.0
 40
0.0
 40
0.0
 40
0.2499999999999998
 40
0.2499999999999998
 40
0.4999999999999996
 40
0.4999999999999996
 40
1.0
 40
1.0
 40
1.0
 40
1.0
 10
162.3148150450953
 20
135.9564459327067
 30
0.0
 10
162.2789108947587
 20
135.8865014985585
 30
0.0
 10
162.2363793426292
 20
135.8232501355007
 30
0.0
 10
162.1395850657892
 20
135.7081914805848
 30
0.0
 10
162.0844953875249
 20
135.6558629468728
 30
0.0
 10
161.906362153971
 20
135.5220780437877
 30
0.0
 10
161.7689850619684
 20
135.4615302766295
 30
0.0
 10
161.6219947220685
 20
135.4423303282456
 30
0.0
  0
SPLINE
  5
B9
330
1F
100
AcDbEntity
  8
0
  6
Continuous
 62
     7
370
    15
100
AcDbSpline
210
0.0
220
0.0
230
1.0
 70
     8
 71
     3
 72
    12
 73
     8
 74
     0
 42
0.000000001
 43
0.00000001
 40
0.0
 40
0.0
 40
0.0
 40
0.0
 40
0.2500000000000005
 40
0.2500000000000005
 40
0.500000000000001
 40
0.500000000000001
 40
1.0
 40
1.0
 40
1.0
 40
1.0
 10
162.3148150450952
 20
83.99640827673892
 30
0.0
 10
162.2789108947587
 20
84.06635271088709
 30
0.0
 10
162.2363793426292
 20
84.12960407394492
 30
0.0
 10
162.1395850657892
 20
84.24466272886086
 30
0.0
 10
162.0844953875249
 20
84.29699126257282
 30
0.0
 10
161.906362153971
 20
84.4307761656579
 30
0.0
 10
161.7689850619684
 20
84.49132393281607
 30
0.0
 10
161.6219947220685
 20
84.51052388119994
 30
0.0
  0
LINE
  5
BA
330
1F
100
AcDbEntity
  8
0
  6
Continuous
 62
     7
370
    15
100
AcDbLine
 10
158.2956262834
 20
84.7287044351
 30
0.0
 11
158.2692578447
 21
84.7287044351
 31
0.0
  0
LINE
  5
BB
330
1F
100
AcDbEntity
  8
0
  6
Continuous
 62
     7
370
    15
100
AcDbLine
 10
158.2956262834
 20
135.2241497743
 30
0.0
 11
158.2692578447
 21
135.2241497743
 31
0.0
  0
SPLINE
  5
BC
330
1F
100
AcDbEntity
  8
0
  6
Continuous
 62
     7
370
    15
100
AcDbSpline
210
0.0
220
0.0
230
1.0
 70
     8
 71
     3
 72
    10
 73
     6
 74
     0
 42
0.000000001
 43
0.00000001
 40
0.0
 40
0.0
 40
0.0
 40
0.0
 40
0.5
 40
0.5
 40
1.0
 40
1.0
 40
1.0
 40
1.0
 10
161.6219947220677
 20
135.4423303282486
 30
0.0
 10
161.1000799976718
 20
135.3741575777404
 30
0.0
 10
160.5612288175624
 20
135.3195343127824
 30
0.0
 10
159.4498661755303
 20
135.2444384598911
 30
0.0
 10
158.8730253983342
 20
135.2241497743023
 30
0.0
 10
158.2956262833675
 20
135.2241497743023
 30
0.0
  0
SPLINE
  5
BD
330
1F
100
AcDbEntity
  8
0
  6
Continuous
 62
     7
370
    15
100
AcDbSpline
210
0.0
220
0.0
230
1.0
 70
     8
 71
     3
 72
    10
 73
     6
 74
     0
 42
0.000000001
 43
0.00000001
 40
0.0
 40
0.0
 40
0.0
 40
0.0
 40
0.5
 40
0.5
 40
1.0
 40
1.0
 40
1.0
 40
1.0
 10
161.6219947220677
 20
84.51052388119702
 30
0.0
 10
161.1000799976718
 20
84.57869663170523
 30
0.0
 10
160.5612288175624
 20
84.63331989666317
 30
0.0
 10
159.4498661755303
 20
84.7084157495545
 30
0.0
 10
158.8730253983342
 20
84.72870443514327
 30
0.0
 10
158.2956262833675
 20
84.72870443514327
 30
0.0
  0
SPLINE
  5
BE
330
1F
100
AcDbEntity
  8
0
  6
Continuous
 62
     7
370
    15
100
AcDbSpline
210
0.0
220
0.0
230
1.0
 70
    24
 71
     3
 72
    10
 73
     6
 74
     0
 42
0.000000001
 43
0.00000001
 40
0.0
 40
0.0
 40
0.0
 40
0.0
 40
0.2232294580238814
 40
0.9999929978948798
 40
1.0
 40
1.0
 40
1.0
 40
1.0
 10
145.174229199108
 20
132.4764271047228
 30
0.0
 10
145.1587252684695
 20
132.4764271047234
 30
0.0
 10
145.0892728663737
 20
132.476427104726
 30
0.0
 10
145.0049667719882
 20
132.4764271046932
 30
0.0
 10
145.0343756792638
 20
132.4764271047228
 30
0.0
 10
145.0343759443669
 20
132.4764271047228
 30
0.0
  0
SPLINE
  5
BF
330
1F
100
AcDbEntity
  8
0
  6
Continuous
 62
     7
370
    15
100
AcDbSpline
210
0.0
220
0.0
230
1.0
 70
    24
 71
     3
 72
     9
 73
     5
 74
     0
 42
0.000000001
 43
0.00000001
 40
0.0
 40
0.0
 40
0.0
 40
0.0
 40
0.7395368299127758
 40
1.0
 40
1.0
 40
1.0
 40
1.0
 10
145.0343760411438
 20
87.4764271047228
 30
0.0
 10
145.0527557681171
 20
87.4764271047228
 30
0.0
 10
145.0776087926453
 20
87.4764271047228
 30
0.0
 10
145.152861473627
 20
87.4764271047228
 30
0.0
 10
145.1724620254731
 20
87.4764271047228
 30
0.0
  0
LINE
  5
C0
330
1F
100
AcDbEntity
  8
0
  6
Continuous
 62
     7
370
    15
100
AcDbLine
 10
143.3456262834
 20
87.7514271047
 30
0.0
 11
143.3456262834
 21
132.2014271047
 31
0.0
  0
LINE
  5
C1
330
1F
100
AcDbEntity
  8
0
  6
Continuous
 62
     7
370
    15
100
AcDbLine
 10
77.9456262834
 20
98.1536715077
 30
0.0
 11
77.9456262834
 21
121.7991827018
 31
0.0
  0
CIRCLE
  5
C2
330
1F
100
AcDbEntity
  8
0
  6
HIDDEN
 62
     7
370
     0
100
AcDbCircle
 10
195.7956262834
 20
109.9764271047
 30
0.0
 40
5.258613578496409
  0
CIRCLE
  5
C3
330
1F
100
AcDbEntity
  8
0
  6
HIDDEN
 62
     7
370
     0
100
AcDbCircle
 10
195.7956262834
 20
109.9764271047
 30
0.0
 40
4.094716599621009
  0
CIRCLE
  5
C4
330
1F
100
AcDbEntity
  8
0
  6
HIDDEN
 62
     7
370
     0
100
AcDbCircle
 10
195.7956262834
 20
109.9764271047
 30
0.0
 40
3.694716599621017
  0
SPLINE
  5
C5
330
1F
100
AcDbEntity
  8
0
  6
HIDDEN
 62
     7
370
     0
100
AcDbSpline
210
0.0
220
0.0
230
1.0
 70
     8
 71
     3
 72
    11
 73
     7
 74
     0
 42
0.000000001
 43
0.00000001
 40
0.0
 40
0.0
 40
0.0
 40
0.0
 40
0.2247859116756046
 40
0.4857438011354331
 40
0.7445966906984172
 40
0.9999999999999999
 40
0.9999999999999999
 40
0.9999999999999999
 40
0.9999999999999999
 10
167.3257615480187
 20
78.48244435518671
 30
0.0
 10
167.2988437505288
 20
78.49086914139586
 30
0.0
 10
167.2406766119681
 20
78.5090744090057
 30
0.0
 10
166.7619432175751
 20
78.64915338670659
 30
0.0
 10
166.0354594261185
 20
78.8582248242523
 30
0.0
 10
165.3250135991732
 20
79.03012024615889
 30
0.0
 10
164.9721734862451
 20
79.1154914282772
 30
0.0
  0
LINE
  5
C6
330
1F
100
AcDbEntity
  8
0
  6
HIDDEN
 62
     7
370
     0
100
AcDbLine
 10
209.7956262834
 20
129.1429684073
 30
0.0
 11
209.7956262834
 21
132.2969482984
 31
0.0
  0
LINE
  5
C7
330
1F
100
AcDbEntity
  8
0
  6
HIDDEN
 62
     7
370
     0
100
AcDbLine
 10
209.7956262834
 20
94.1170001422
 30
0.0
 11
209.7956262834
 21
125.8358540672
 31
0.0
  0
LINE
  5
C8
330
1F
100
AcDbEntity
  8
0
  6
HIDDEN
 62
     7
370
     0
100
AcDbLine
 10
209.7956262834
 20
87.655905911
 30
0.0
 11
209.7956262834
 21
90.8098858022
 31
0.0
  0
LINE
  5
C9
330
1F
100
AcDbEntity
  8
0
  6
HIDDEN
 62
     7
370
     0
100
AcDbLine
 10
205.7956262834
 20
100.7760195051
 30
0.0
 11
205.7956262834
 21
119.1768347044
 31
0.0
  0
LINE
  5
CA
330
1F
100
AcDbEntity
  8
0
  6
HIDDEN
 62
     7
370
     0
100
AcDbLine
 10
205.7956262834
 20
119.1768347044
 30
0.0
 11
209.7956262834
 21
119.1768347044
 31
0.0
  0
LINE
  5
CB
330
1F
100
AcDbEntity
  8
0
  6
HIDDEN
 62
     7
370
     0
100
AcDbLine
 10
205.7956262834
 20
123.9764271047
 30
0.0
 11
205.7956262834
 21
119.1768347044
 31
0.0
  0
LINE
  5
CC
330
1F
100
AcDbEntity
  8
0
  6
HIDDEN
 62
     7
370
     0
100
AcDbLine
 10
209.7956262834
 20
129.1429684073
 30
0.0
 11
209.7956262834
 21
129.0031647929
 31
0.0
  0
LINE
  5
CD
330
1F
100
AcDbEntity
  8
0
  6
HIDDEN
 62
     7
370
     0
100
AcDbLine
 10
205.7956262834
 20
129.0031647929
 30
0.0
 11
209.7956262834
 21
129.0031647929
 31
0.0
  0
LINE
  5
CE
330
1F
100
AcDbEntity
  8
0
  6
HIDDEN
 62
     7
370
     0
100
AcDbLine
 10
205.7956262834
 20
129.1764271047
 30
0.0
 11
205.7956262834
 21
123.9764271047
 31
0.0
  0
LINE
  5
CF
330
1F
100
AcDbEntity
  8
0
  6
HIDDEN
 62
     7
370
     0
100
AcDbLine
 10
205.7956262834
 20
90.9496894165
 30
0.0
 11
209.7956262834
 21
90.9496894165
 31
0.0
  0
LINE
  5
D0
330
1F
100
AcDbEntity
  8
0
  6
HIDDEN
 62
     7
370
     0
100
AcDbLine
 10
209.7956262834
 20
90.9496894165
 30
0.0
 11
209.7956262834
 21
90.8098858022
 31
0.0
  0
LINE
  5
D1
330
1F
100
AcDbEntity
  8
0
  6
HIDDEN
 62
     7
370
     0
100
AcDbLine
 10
205.7956262834
 20
95.9764271047
 30
0.0
 11
205.7956262834
 21
90.7764271047
 31
0.0
  0
LINE
  5
D2
330
1F
100
AcDbEntity
  8
0
  6
HIDDEN
 62
     7
370
     0
100
AcDbLine
 10
209.7956262834
 20
100.7760195051
 30
0.0
 11
205.7956262834
 21
100.7760195051
 31
0.0
  0
LINE
  5
D3
330
1F
100
AcDbEntity
  8
0
  6
HIDDEN
 62
     7
370
     0
100
AcDbLine
 10
205.7956262834
 20
100.7760195051
 30
0.0
 11
205.7956262834
 21
95.9764271047
 31
0.0
  0
LINE
  5
D4
330
1F
100
AcDbEntity
  8
0
  6
HIDDEN
 62
     7
370
     0
100
AcDbLine
 10
204.5956262834
 20
94.9764271047
 30
0.0
 11
204.5956262834
 21
124.9764271047
 31
0.0
  0
LINE
  5
D5
330
1F
100
AcDbEntity
  8
0
  6
HIDDEN
 62
     7
370
     0
100
AcDbLine
 10
179.3456262834
 20
95.2764271047
 30
0.0
 11
179.3456262834
 21
124.6764270929
 31
0.0
  0
LINE
  5
D6
330
1F
100
AcDbEntity
  8
0
  6
HIDDEN
 62
     7
370
     0
100
AcDbLine
 10
181.8456262834
 20
94.9764271047
 30
0.0
 11
181.8456262834
 21
124.9764271047
 31
0.0
  0
LINE
  5
D7
330
1F
100
AcDbEntity
  8
0
  6
HIDDEN
 62
     7
370
     0
100
AcDbLine
 10
205.7956262834
 20
131.2514271047
 30
0.0
 11
205.7956262834
 21
129.1764271047
 31
0.0
  0
LINE
  5
D8
330
1F
100
AcDbEntity
  8
0
  6
HIDDEN
 62
     7
370
     0
100
AcDbLine
 10
205.7956262834
 20
90.7764271047
 30
0.0
 11
205.7956262834
 21
88.7014271047
 31
0.0
  0
LINE
  5
D9
330
1F
100
AcDbEntity
  8
0
  6
HIDDEN
 62
     7
370
     0
100
AcDbLine
 10
145.3456262834
 20
132.4764271047
 30
0.0
 11
145.6828845836
 21
132.4764271047
 31
0.0
  0
ELLIPSE
  5
DA
330
1F
100
AcDbEntity
  8
0
  6
HIDDEN
 62
     7
370
     0
100
AcDbEllipse
 10
145.6828845836
 20
134.0764271047
 30
0.0
 11
0.0
 21
1.599999999999966
 31
0.0
210
0.0
220
0.0
230
1.0
 40
0.4142135624
 41
3.141592653589793
 42
4.712388980384677
  0
ELLIPSE
  5
DB
330
1F
100
AcDbEntity
  8
0
  6
HIDDEN
 62
     7
370
     0
100
AcDbEllipse
 10
145.6828845836
 20
85.8764271047
 30
0.0
 11
0.0
 21
1.599999999999994
 31
0.0
210
0.0
220
0.0
230
1.0
 40
0.4142135624
 41
4.712388980384695
 42
6.283185307179586
  0
LINE
  5
DC
330
1F
100
AcDbEntity
  8
0
  6
HIDDEN
 62
     7
370
     0
100
AcDbLine
 10
145.6828845836
 20
87.4764271047
 30
0.0
 11
145.3456262834
 21
87.4764271047
 31
0.0
  0
LINE
  5
DD
330
1F
100
AcDbEntity
  8
0
  6
HIDDEN
 62
     7
370
     0
100
AcDbLine
 10
146.3456262834
 20
80.5224043819
 30
0.0
 11
145.7326591063
 21
79.9094372049
 31
0.0
  0
LINE
  5
DE
330
1F
100
AcDbEntity
  8
0
  6
HIDDEN
 62
     7
370
     0
100
AcDbLine
 10
145.7326591063
 20
140.0434170045
 30
0.0
 11
146.3456262834
 21
139.4304498275
 31
0.0
  0
LINE
  5
DF
330
1F
100
AcDbEntity
  8
0
  6
HIDDEN
 62
     7
370
     0
100
AcDbLine
 10
84.9456262834
 20
101.4764271047
 30
0.0
 11
84.9456262834
 21
118.4764271047
 31
0.0
  0
LINE
  5
E0
330
1F
100
AcDbEntity
  8
0
  6
HIDDEN
 62
     7
370
     0
100
AcDbLine
 10
87.9415554977
 20
102.9764271047
 30
0.0
 11
87.9415554977
 21
116.9764271047
 31
0.0
  0
LINE
  5
E1
330
1F
100
AcDbEntity
  8
0
  6
HIDDEN
 62
     7
370
     0
100
AcDbLine
 10
146.3456262834
 20
139.4304498275
 30
0.0
 11
155.4781878269
 21
139.4304498275
 31
0.0
  0
LINE
  5
E2
330
1F
100
AcDbEntity
  8
0
  6
HIDDEN
 62
     7
370
     0
100
AcDbLine
 10
146.3456262834
 20
139.4304498275
 30
0.0
 11
146.3456262834
 21
134.0764271047
 31
0.0
  0
LINE
  5
E3
330
1F
100
AcDbEntity
  8
0
  6
HIDDEN
 62
     7
370
     0
100
AcDbLine
 10
155.4781878269
 20
80.5224043819
 30
0.0
 11
146.3456262834
 21
80.5224043819
 31
0.0
  0
LINE
  5
E4
330
1F
100
AcDbEntity
  8
0
  6
HIDDEN
 62
     7
370
     0
100
AcDbLine
 10
146.3456262834
 20
80.5224043819
 30
0.0
 11
146.3456262834
 21
85.8764271047
 31
0.0
  0
LINE
  5
E5
330
1F
100
AcDbEntity
  8
0
  6
HIDDEN
 62
     7
370
     0
100
AcDbLine
 10
158.2956262834
 20
87.4764271047
 30
0.0
 11
145.6828845836
 21
87.4764271047
 31
0.0
  0
LINE
  5
E6
330
1F
100
AcDbEntity
  8
0
  6
HIDDEN
 62
     7
370
     0
100
AcDbLine
 10
145.6828845836
 20
132.4764271047
 30
0.0
 11
158.2956262834
 21
132.4764271047
 31
0.0
  0
LINE
  5
E7
330
1F
100
AcDbEntity
  8
0
  6
HIDDEN
 62
     7
370
     0
100
AcDbLine
 10
164.7456262834
 20
87.4764271047
 30
0.0
 11
158.2956262834
 21
87.4764271047
 31
0.0
  0
LINE
  5
E8
330
1F
100
AcDbEntity
  8
0
  6
HIDDEN
 62
     7
370
     0
100
AcDbLine
 10
158.2956262834
 20
132.4764271047
 30
0.0
 11
164.7456262834
 21
132.4764271047
 31
0.0
  0
SPLINE
  5
E9
330
1F
100
AcDbEntity
  8
0
  6
HIDDEN
 62
     7
370
     0
100
AcDbSpline
210
0.0
220
0.0
230
1.0
 70
     8
 71
     3
 72
    13
 73
     9
 74
     0
 42
0.000000001
 43
0.00000001
 40
0.0
 40
0.0
 40
0.0
 40
0.0
 40
0.1850454653101185
 40
0.3520092965815967
 40
0.5010298177385477
 40
0.676622781446296
 40
0.843096261468993
 40
1.0
 40
1.0
 40
1.0
 40
1.0
 10
164.32188991398
 20
139.8812878804339
 30
0.0
 10
164.5486800295951
 20
139.9401245519712
 30
0.0
 10
164.9800995671424
 20
140.0520486962693
 30
0.0
 10
165.4675550380966
 20
140.1923147678968
 30
0.0
 10
165.856664214636
 20
140.3116095271557
 30
0.0
 10
166.1375641350606
 20
140.4022773367841
 30
0.0
 10
166.3144489101344
 20
140.4641930971309
 30
0.0
 10
166.3353112899599
 20
140.4723823532896
 30
0.0
 10
166.3454337883966
 20
140.4763558085406
 30
0.0
  0
LINE
  5
EA
330
1F
100
AcDbEntity
  8
0
  6
HIDDEN
 62
     7
370
     0
100
AcDbLine
 10
165.0721204573
 20
140.0810009598
 30
0.0
 11
164.321867896
 21
139.8814753066
 31
0.0
  0
LINE
  5
EB
330
1F
100
AcDbEntity
  8
0
  6
HIDDEN
 62
     7
370
     0
100
AcDbLine
 10
164.3218680496
 20
80.0713792113
 30
0.0
 11
164.4158107788
 21
80.04639554
 31
0.0
  0
SPLINE
  5
EC
330
1F
100
AcDbEntity
  8
0
  6
HIDDEN
 62
     7
370
     0
100
AcDbSpline
210
0.0
220
0.0
230
1.0
 70
     8
 71
     3
 72
    13
 73
     9
 74
     0
 42
0.000000001
 43
0.00000001
 40
0.0
 40
0.0
 40
0.0
 40
0.0
 40
0.0000729225244404
 40
0.1576810836853553
 40
0.3241445774245414
 40
0.4996852408390643
 40
0.7294243771452443
 40
1.0
 40
1.0
 40
1.0
 40
1.0
 10
166.3455937081914
 20
79.47643954383611
 30
0.0
 10
166.3456045669327
 20
79.47643525398321
 30
0.0
 10
166.3690845287892
 20
79.4671592633462
 30
0.0
 10
166.2974993137544
 20
79.49532476541499
 30
0.0
 10
166.1418829753315
 20
79.54891369527525
 30
0.0
 10
165.8056297530163
 20
79.65743698406914
 30
0.0
 10
165.2483166870054
 20
79.82850304739921
 30
0.0
 10
164.6470589217362
 20
79.9862670364361
 30
0.0
 10
164.3218922314574
 20
80.07158750483345
 30
0.0
  0
LINE
  5
ED
330
1F
100
AcDbEntity
  8
0
  6
HIDDEN
 62
     7
370
     0
100
AcDbLine
 10
120.9456262834
 20
102.9764271047
 30
0.0
 11
120.9456262834
 21
116.9764271047
 31
0.0
  0
LINE
  5
EE
330
1F
100
AcDbEntity
  8
0
  6
HIDDEN
 62
     7
370
     0
100
AcDbLine
 10
122.5979929857
 20
105.7264271047
 30
0.0
 11
122.5979929857
 21
114.2264271047
 31
0.0
  0
SPLINE
  5
EF
330
1F
100
AcDbEntity
  8
0
  6
HIDDEN
 62
     7
370
     0
100
AcDbSpline
210
0.0
220
0.0
230
1.0
 70
     8
 71
     3
 72
     9
 73
     5
 74
     0
 42
0.000000001
 43
0.00000001
 40
0.0
 40
0.0
 40
0.0
 40
0.0
 40
0.4932365030918491
 40
1.0
 40
1.0
 40
1.0
 40
1.0
 10
164.322685822065
 20
139.8812586158951
 30
0.0
 10
164.4285337774669
 20
140.0382800040179
 30
0.0
 10
164.643132564739
 20
140.3566290863315
 30
0.0
 10
164.8609924466273
 20
140.6764551940194
 30
0.0
 10
164.971395882209
 20
140.838531390754
 30
0.0
  0
SPLINE
  5
F0
330
1F
100
AcDbEntity
  8
0
  6
HIDDEN
 62
     7
370
     0
100
AcDbSpline
210
0.0
220
0.0
230
1.0
 70
     8
 71
     3
 72
     9
 73
     5
 74
     0
 42
0.000000001
 43
0.00000001
 40
0.0
 40
0.0
 40
0.0
 40
0.0
 40
0.5067661696360637
 40
0.9999999999999999
 40
0.9999999999999999
 40
0.9999999999999999
 40
0.9999999999999999
 10
164.971399567495
 20
79.11433695424566
 30
0.0
 10
164.8609947369979
 20
79.2764143688613
 30
0.0
 10
164.6431332515392
 20
79.59624119299995
 30
0.0
 10
164.4285335336571
 20
79.9145897092561
 30
0.0
 10
164.3226856928112
 20
80.07160996731982
 30
0.0
  0
LINE
  5
F1
330
1F
100
AcDbEntity
  8
0
  6
HIDDEN
 62
     7
370
     0
100
AcDbLine
 10
210.3456262834
 20
133.4764271047
 30
0.0
 11
209.7956262834
 21
132.2969482984
 31
0.0
  0
LINE
  5
F2
330
1F
100
AcDbEntity
  8
0
  6
HIDDEN
 62
     7
370
     0
100
AcDbLine
 10
209.7956262834
 20
87.655905911
 30
0.0
 11
210.3456262834
 21
86.4764271047
 31
0.0
  0
LINE
  5
F3
330
1F
100
AcDbEntity
  8
0
  6
HIDDEN
 62
     7
370
     0
100
AcDbLine
 10
209.7956262834
 20
129.1764271047
 30
0.0
 11
205.7956262834
 21
129.1764271047
 31
0.0
  0
LINE
  5
F4
330
1F
100
AcDbEntity
  8
0
  6
HIDDEN
 62
     7
370
     0
100
AcDbLine
 10
205.7956262834
 20
90.7764271047
 30
0.0
 11
209.7956262834
 21
90.7764271047
 31
0.0
  0
LINE
  5
F5
330
1F
100
AcDbEntity
  8
0
  6
HIDDEN
 62
     7
370
     0
100
AcDbLine
 10
205.7956262834
 20
125.6692474278
 30
0.0
 11
204.5956262834
 21
124.9764271047
 31
0.0
  0
LINE
  5
F6
330
1F
100
AcDbEntity
  8
0
  6
HIDDEN
 62
     7
370
     0
100
AcDbLine
 10
204.5956262834
 20
94.9764271047
 30
0.0
 11
205.7956262834
 21
94.2836067817
 31
0.0
  0
ARC
  5
F7
330
1F
100
AcDbEntity
  8
0
  6
HIDDEN
 62
     7
370
     0
100
AcDbCircle
 10
179.9456262834
 20
95.2764271047
 30
0.0
 40
0.6000000000000227
100
AcDbArc
 50
180.0
 51
270.0
  0
ARC
  5
F8
330
1F
100
AcDbEntity
  8
0
  6
HIDDEN
 62
     7
370
     0
100
AcDbCircle
 10
179.9456262834
 20
124.6764271047
 30
0.0
 40
0.6000000000000227
100
AcDbArc
 50
90.0
 51
180.0
  0
LINE
  5
F9
330
1F
100
AcDbEntity
  8
0
  6
HIDDEN
 62
     7
370
     0
100
AcDbLine
 10
179.9456262834
 20
94.6764271047
 30
0.0
 11
180.6470195425
 21
94.6764271047
 31
0.0
  0
LINE
  5
FA
330
1F
100
AcDbEntity
  8
0
  6
HIDDEN
 62
     7
370
     0
100
AcDbLine
 10
180.6470195425
 20
125.2764271047
 30
0.0
 11
179.9456262834
 21
125.2764271047
 31
0.0
  0
ARC
  5
FB
330
1F
100
AcDbEntity
  8
0
  6
HIDDEN
 62
     7
370
     0
100
AcDbCircle
 10
180.6470195425
 20
95.2764271047
 30
0.0
 40
0.5999999999999943
100
AcDbArc
 50
270.0
 51
285.0
  0
ARC
  5
FC
330
1F
100
AcDbEntity
  8
0
  6
HIDDEN
 62
     7
370
     0
100
AcDbCircle
 10
180.6470195425
 20
124.6764271047
 30
0.0
 40
0.6000000000000085
100
AcDbArc
 50
75.0
 51
90.0
  0
LINE
  5
FD
330
1F
100
AcDbEntity
  8
0
  6
HIDDEN
 62
     7
370
     0
100
AcDbLine
 10
180.8023109696
 20
94.6968716089
 30
0.0
 11
181.8456262834
 21
94.9764271047
 31
0.0
  0
LINE
  5
FE
330
1F
100
AcDbEntity
  8
0
  6
HIDDEN
 62
     7
370
     0
100
AcDbLine
 10
181.8456262834
 20
124.9764271047
 30
0.0
 11
180.8023109696
 21
125.2559826005
 31
0.0
  0
LINE
  5
FF
330
1F
100
AcDbEntity
  8
0
  6
HIDDEN
 62
     7
370
     0
100
AcDbLine
 10
181.8456262834
 20
94.9764271047
 30
0.0
 11
204.5956262834
 21
94.9764271047
 31
0.0
  0
LINE
  5
100
330
1F
100
AcDbEntity
  8
0
  6
HIDDEN
 62
     7
370
     0
100
AcDbLine
 10
204.5956262834
 20
124.9764271047
 30
0.0
 11
181.8456262834
 21
124.9764271047
 31
0.0
  0
LINE
  5
101
330
1F
100
AcDbEntity
  8
0
  6
HIDDEN
 62
     7
370
     0
100
AcDbLine
 10
209.7956262834
 20
131.2514271047
 30
0.0
 11
205.7956262834
 21
131.2514271047
 31
0.0
  0
LINE
  5
102
330
1F
100
AcDbEntity
  8
0
  6
HIDDEN
 62
     7
370
     0
100
AcDbLine
 10
205.7956262834
 20
88.7014271047
 30
0.0
 11
209.7956262834
 21
88.7014271047
 31
0.0
  0
ARC
  5
103
330
1F
100
AcDbEntity
  8
0
  6
HIDDEN
 62
     7
370
     0
100
AcDbCircle
 10
78.7456262834
 20
100.6764271047
 30
0.0
 40
0.7999999999999972
100
AcDbArc
 50
90.0
 51
180.0
  0
ARC
  5
104
330
1F
100
AcDbEntity
  8
0
  6
HIDDEN
 62
     7
370
     0
100
AcDbCircle
 10
78.7456262834
 20
119.2764271047
 30
0.0
 40
0.7999999999999972
100
AcDbArc
 50
180.0
 51
270.0
  0
LINE
  5
105
330
1F
100
AcDbEntity
  8
0
  6
HIDDEN
 62
     7
370
     0
100
AcDbLine
 10
85.8379987141
 20
101.2514271047
 30
0.0
 11
86.7146861757
 21
101.2514271047
 31
0.0
  0
LINE
  5
106
330
1F
100
AcDbEntity
  8
0
  6
HIDDEN
 62
     7
370
     0
100
AcDbLine
 10
86.7146861757
 20
118.7014271047
 30
0.0
 11
85.8379987141
 21
118.7014271047
 31
0.0
  0
ARC
  5
107
330
1F
100
AcDbEntity
  8
0
  6
HIDDEN
 62
     7
370
     0
100
AcDbCircle
 10
86.7146861757
 20
101.6514271047
 30
0.0
 40
0.4000000000000121
100
AcDbArc
 50
270.0
 51
330.0
  0
ARC
  5
108
330
1F
100
AcDbEntity
  8
0
  6
HIDDEN
 62
     7
370
     0
100
AcDbCircle
 10
86.7146861757
 20
118.3014271047
 30
0.0
 40
0.4000000000000121
100
AcDbArc
 50
30.0
 51
90.0
  0
ARC
  5
109
330
1F
100
AcDbEntity
  8
0
  6
HIDDEN
 62
     7
370
     0
100
AcDbCircle
 10
85.8379987141
 20
101.6514271047
 30
0.0
 40
0.3999999999999915
100
AcDbArc
 50
255.0
 51
270.0
  0
ARC
  5
10A
330
1F
100
AcDbEntity
  8
0
  6
HIDDEN
 62
     7
370
     0
100
AcDbCircle
 10
85.8379987141
 20
118.3014271047
 30
0.0
 40
0.3999999999999915
100
AcDbArc
 50
90.0
 51
105.0
  0
LINE
  5
10B
330
1F
100
AcDbEntity
  8
0
  6
HIDDEN
 62
     7
370
     0
100
AcDbLine
 10
85.7344710961
 20
118.6877974352
 30
0.0
 11
84.9456262834
 21
118.4764271047
 31
0.0
  0
LINE
  5
10C
330
1F
100
AcDbEntity
  8
0
  6
HIDDEN
 62
     7
370
     0
100
AcDbLine
 10
84.9456262834
 20
101.4764271047
 30
0.0
 11
85.7344710961
 21
101.2650567742
 31
0.0
  0
LINE
  5
10D
330
1F
100
AcDbEntity
  8
0
  6
HIDDEN
 62
     7
370
     0
100
AcDbLine
 10
87.0610963372
 20
101.4514271047
 30
0.0
 11
87.9415554977
 21
102.9764271047
 31
0.0
  0
LINE
  5
10E
330
1F
100
AcDbEntity
  8
0
  6
HIDDEN
 62
     7
370
     0
100
AcDbLine
 10
87.9415554977
 20
116.9764271047
 30
0.0
 11
87.0610963372
 21
118.5014271047
 31
0.0
  0
LINE
  5
10F
330
1F
100
AcDbEntity
  8
0
  6
HIDDEN
 62
     7
370
     0
100
AcDbLine
 10
78.7456262834
 20
101.4764271047
 30
0.0
 11
84.9456262834
 21
101.4764271047
 31
0.0
  0
LINE
  5
110
330
1F
100
AcDbEntity
  8
0
  6
HIDDEN
 62
     7
370
     0
100
AcDbLine
 10
84.9456262834
 20
118.4764271047
 30
0.0
 11
78.7456262834
 21
118.4764271047
 31
0.0
  0
ARC
  5
111
330
1F
100
AcDbEntity
  8
0
  6
HIDDEN
 62
     7
370
     0
100
AcDbCircle
 10
164.7456262834
 20
85.8764271047
 30
0.0
 40
1.599999999999994
100
AcDbArc
 50
0.0
 51
90.0
  0
ARC
  5
112
330
1F
100
AcDbEntity
  8
0
  6
HIDDEN
 62
     7
370
     0
100
AcDbCircle
 10
164.7456262834
 20
134.0764271047
 30
0.0
 40
1.600000000000023
100
AcDbArc
 50
270.0
 51
0.0
  0
LINE
  5
113
330
1F
100
AcDbEntity
  8
0
  6
HIDDEN
 62
     7
370
     0
100
AcDbLine
 10
166.3456262834
 20
134.0764271047
 30
0.0
 11
166.3456262834
 21
140.4763558085
 31
0.0
  0
LINE
  5
114
330
1F
100
AcDbEntity
  8
0
  6
HIDDEN
 62
     7
370
     0
100
AcDbLine
 10
166.3456262834
 20
79.4764395438
 30
0.0
 11
166.3456262834
 21
85.8764271047
 31
0.0
  0
LINE
  5
115
330
1F
100
AcDbEntity
  8
0
  6
HIDDEN
 62
     7
370
     0
100
AcDbLine
 10
120.9456262834
 20
102.9764271047
 30
0.0
 11
122.5979929857
 21
105.7264271047
 31
0.0
  0
LINE
  5
116
330
1F
100
AcDbEntity
  8
0
  6
HIDDEN
 62
     7
370
     0
100
AcDbLine
 10
122.5979929857
 20
114.2264271047
 30
0.0
 11
120.9456262834
 21
116.9764271047
 31
0.0
  0
LINE
  5
117
330
1F
100
AcDbEntity
  8
0
  6
HIDDEN
 62
     7
370
     0
100
AcDbLine
 10
87.9415554977
 20
102.9764271047
 30
0.0
 11
120.9456262834
 21
102.9764271047
 31
0.0
  0
LINE
  5
118
330
1F
100
AcDbEntity
  8
0
  6
HIDDEN
 62
     7
370
     0
100
AcDbLine
 10
120.9456262834
 20
116.9764271047
 30
0.0
 11
87.9415554977
 21
116.9764271047
 31
0.0
  0
LINE
  5
119
330
1F
100
AcDbEntity
  8
0
  6
HIDDEN
 62
     7
370
     0
100
AcDbLine
 10
166.3456253734
 20
140.4764268928
 30
0.0
 11
167.3456247427
 21
141.4764266395
 31
0.0
  0
LINE
  5
11A
330
1F
100
AcDbEntity
  8
0
  6
HIDDEN
 62
     7
370
     0
100
AcDbLine
 10
167.3456326448
 20
78.476425967
 30
0.0
 11
166.3456323958
 21
79.4764257716
 31
0.0
  0
LINE
  5
11B
330
1F
100
AcDbEntity
  8
0
  6
HIDDEN
 62
     7
370
     0
100
AcDbLine
 10
122.5979929857
 20
105.7264271047
 30
0.0
 11
179.3456262834
 21
105.7264271047
 31
0.0
  0
LINE
  5
11C
330
1F
100
AcDbEntity
  8
0
  6
HIDDEN
 62
     7
370
     0
100
AcDbLine
 10
179.3456262834
 20
114.2264271047
 30
0.0
 11
122.5979929857
 21
114.2264271047
 31
0.0
  0
DIMENSION
  5
11D
330
1F
100
AcDbEntity
  8
VERMASSUNG
100
AcDbDimension
  2
_D
 10
71.8312086144
 20
78.4764271047
 30
0.0
 11
71.8312086144
 21
109.9764271047
 31
0.0
 70
   160
  1
MAS BT 40 %%c<>
 71
     2
 42
-1.0
  3
SLDDIMSTYLE0
100
AcDbAlignedDimension
 13
167.3456221393
 23
141.4764271047
 33
0.0
 14
167.3456270573
 24
78.4764271047
 34
0.0
 50
90.0
100
AcDbRotatedDimension
  0
DIMENSION
  5
12A
330
1F
100
AcDbEntity
  8
VERMASSUNG
100
AcDbDimension
  2
_D_1
 10
210.3456262834
 20
159.2420981014
 30
0.0
 11
144.1456262834
 21
159.2420981014
 31
0.0
 70
   160
  1
<>
 71
     2
 42
-1.0
  3
SLDDIMSTYLE0
100
AcDbAlignedDimension
 13
77.9456262834
 23
121.7991827018
 33
0.0
 14
210.3456262834
 24
136.9764271047
 34
0.0
100
AcDbRotatedDimension
  0
DIMENSION
  5
134
330
1F
100
AcDbEntity
  8
VERMASSUNG
100
AcDbDimension
  2
_D_2
 10
210.3456262834
 20
153.2420981014
 30
0.0
 11
176.8456262834
 21
153.2420981014
 31
0.0
 70
   160
  1
<>
 71
     2
 42
-1.0
  3
SLDDIMSTYLE0
100
AcDbAlignedDimension
 13
143.3456262834
 23
132.2014271047
 33
0.0
 14
210.3456262834
 24
136.9764271047
 34
0.0
100
AcDbRotatedDimension
  0
DIMENSION
  5
13E
330
1F
100
AcDbEntity
  8
VERMASSUNG
100
AcDbDimension
  2
_D_3
 10
220.970593594
 20
82.4764271047
 30
0.0
 11
220.970593594
 21
109.9764271047
 31
0.0
 70
   160
  1
MBM %%c<>
 71
     2
 42
-1.0
  3
SLDDIMSTYLE0
100
AcDbAlignedDimension
 13
209.8456262834
 23
137.4764271047
 33
0.0
 14
209.8456262834
 24
82.4764271047
 34
0.0
 50
90.0
100
AcDbRotatedDimension
  0
DIMENSION
  5
14A
330
1F
100
AcDbEntity
  8
VERMASSUNG
100
AcDbDimension
  2
_D_4
 10
210.3456262834
 20
145.9964827938
 30
0.0
 11
190.3456262834
 21
145.9964827938
 31
0.0
 70
   160
  1
<>
 71
     2
 42
-1.0
  3
SLDDIMSTYLE0
100
AcDbAlignedDimension
 13
170.3456262834
 23
140.4764271047
 33
0.0
 14
210.3456262834
 24
136.9764271047
 34
0.0
100
AcDbRotatedDimension
  0
LINE
  5
154
330
1F
100
AcDbEntity
  8
VERMASSUNG
  6
CENTERX2
 62
     7
370
     0
100
AcDbLine
 10
75.9456262834
 20
109.9764271047
 30
0.0
 11
212.3456262834
 21
109.9764271047
 31
0.0
  0
LINE
  5
155
330
1F
100
AcDbEntity
  8
0
  6
Continuous
 62
     7
370
    15
100
AcDbLine
 10
276.0929963191
 20
41.739932935
 30
0.0
 11
275.9161908996
 21
41.8420337088
 31
0.0
  0
LINE
  5
156
330
1F
100
AcDbEntity
  8
0
  6
Continuous
 62
     7
370
    15
100
AcDbLine
 10
272.0264716711
 20
41.8420337088
 30
0.0
 11
271.8496662516
 21
41.739932935
 31
0.0
  0
LINE
  5
157
330
1F
100
AcDbEntity
  8
0
  6
Continuous
 62
     7
370
    15
100
AcDbLine
 10
276.9713312853
 20
40.2093169806
 30
0.0
 11
276.9713312853
 21
40.515519785
 31
0.0
  0
LINE
  5
158
330
1F
100
AcDbEntity
  8
0
  6
Continuous
 62
     7
370
    15
100
AcDbLine
 10
270.9713312853
 20
40.515519785
 30
0.0
 11
270.9713312853
 21
40.2093169806
 31
0.0
  0
LINE
  5
159
330
1F
100
AcDbEntity
  8
0
  6
Continuous
 62
     7
370
    15
100
AcDbLine
 10
278.9403366383
 20
15.3980615554
 30
0.0
 11
279.1170846024
 21
15.5001291556
 31
0.0
  0
LINE
  5
15A
330
1F
100
AcDbEntity
  8
0
  6
Continuous
 62
     7
370
    15
100
AcDbLine
 10
288.6614746645
 20
32.0332890726
 30
0.0
 11
288.6614746645
 21
32.2373911006
 31
0.0
  0
LINE
  5
15B
330
1F
100
AcDbEntity
  8
0
  6
Continuous
 62
     7
370
    15
100
AcDbLine
 10
259.1596163796
 20
22.1661374944
 30
0.0
 11
272.0643151363
 21
14.7164134741
 31
0.0
  0
LINE
  5
15C
330
1F
100
AcDbEntity
  8
0
  6
Continuous
 62
     7
370
    15
100
AcDbLine
 10
285.81319771
 20
38.5327571895
 30
0.0
 11
272.9084989534
 21
45.9824812099
 31
0.0
  0
SPLINE
  5
15D
330
1F
100
AcDbEntity
  8
0
  6
Continuous
 62
     7
370
    15
100
AcDbSpline
210
0.0
220
0.0
230
1.0
 70
     8
 71
     3
 72
    13
 73
     9
 74
     0
 42
0.000000001
 43
0.00000001
 40
0.0
 40
0.0
 40
0.0
 40
0.0
 40
0.0097286875936693
 40
0.2531213773361347
 40
0.4978322454179569
 40
0.7441519514021033
 40
0.9920215995984019
 40
0.9999999999999999
 40
0.9999999999999999
 40
0.9999999999999999
 40
0.9999999999999999
 10
258.2353805594307
 20
20.65554908269109
 30
0.0
 10
258.2454526212003
 20
20.65236273906237
 30
0.0
 10
258.5075079213844
 20
20.5694603249182
 30
0.0
 10
259.0617773120453
 20
20.49894265706316
 30
0.0
 10
259.8943874182183
 20
20.44926835962147
 30
0.0
 10
260.7668528804014
 20
20.52321977047715
 30
0.0
 10
261.3695196088171
 20
20.60994659469899
 30
0.0
 10
261.6839553336957
 20
20.70038679492438
 30
0.0
 10
261.6937607401758
 20
20.70320709444886
 30
0.0
  0
SPLINE
  5
15E
330
1F
100
AcDbEntity
  8
0
  6
Continuous
 62
     7
370
    15
100
AcDbSpline
210
0.0
220
0.0
230
1.0
 70
     8
 71
     3
 72
    12
 73
     8
 74
     0
 42
0.000000001
 43
0.00000001
 40
0.0
 40
0.0
 40
0.0
 40
0.0
 40
0.1399313107571027
 40
0.3961674535858347
 40
0.6512905084800158
 40
0.9048811620981894
 40
1.0
 40
1.0
 40
1.0
 40
1.0
 10
275.4297036133293
 20
44.5270207400676
 30
0.0
 10
275.3819562844324
 20
44.69221922976956
 30
0.0
 10
275.2467761192335
 20
45.15992202371437
 30
0.0
 10
274.9396072553689
 20
45.85651182960795
 30
0.0
 10
274.512395211447
 20
46.60664020805586
 30
0.0
 10
274.1268996878447
 20
47.15001858043049
 30
0.0
 10
273.8632956225849
 20
47.41232363248474
 30
0.0
 10
273.7913913212583
 20
47.48387359695063
 30
0.0
  0
LINE
  5
15F
330
1F
100
AcDbEntity
  8
0
  6
Continuous
 62
     7
370
    15
100
AcDbLine
 10
255.1986880008
 20
22.1433942538
 30
0.0
 11
256.7454840846
 21
21.2504478815
 31
0.0
  0
LINE
  5
160
330
1F
100
AcDbEntity
  8
0
  6
Continuous
 62
     7
370
    15
100
AcDbLine
 10
272.4942041236
 20
48.5309870465
 30
0.0
 11
270.9474080398
 21
49.4239334188
 31
0.0
  0
LINE
  5
161
330
1F
100
AcDbEntity
  8
0
  6
Continuous
 62
     7
370
    15
100
AcDbLine
 10
267.3941964643
 20
51.4751587998
 30
0.0
 11
264.36247614
 21
53.2253336895
 31
0.0
  0
SPLINE
  5
162
330
1F
100
AcDbEntity
  8
0
  6
Continuous
 62
     7
370
    15
100
AcDbSpline
210
0.0
220
0.0
230
1.0
 70
     8
 71
     3
 72
    31
 73
    27
 74
     0
 42
0.000000001
 43
0.00000001
 40
0.0
 40
0.0
 40
0.0
 40
0.0
 40
0.0026956622572192
 40
0.0459909860637982
 40
0.0895322458528171
 40
0.1333615154848204
 40
0.1774607082523113
 40
0.2217734568929174
 40
0.2662309539301942
 40
0.3107708072864361
 40
0.3553456700301131
 40
0.3999188358753877
 40
0.4444736375051244
 40
0.4890036251643667
 40
0.5335076180716295
 40
0.577987620991531
 40
0.6224474704522281
 40
0.6668920076250994
 40
0.7113266013610812
 40
0.7557568909842198
 40
0.8001886584353411
 40
0.8446260164478925
 40
0.8890746843554165
 40
0.9335405731594233
 40
0.978029478250145
 40
0.9999999999999999
 40
0.9999999999999999
 40
0.9999999999999999
 40
0.9999999999999999
 10
262.7772259672168
 20
53.84187983512733
 30
0.0
 10
262.7614037971874
 20
53.84656773725427
 30
0.0
 10
262.4914600387018
 20
53.92654854375592
 30
0.0
 10
261.9277641838072
 20
53.98934020240892
 30
0.0
 10
261.0894496387112
 20
54.02174121005316
 30
0.0
 10
260.2140863135761
 20
53.94238148119243
 30
0.0
 10
259.3133328717289
 20
53.76540051663022
 30
0.0
 10
258.3919789482802
 20
53.48781596865904
 30
0.0
 10
257.4573027616371
 20
53.11253290686496
 30
0.0
 10
256.5161565178625
 20
52.64211296189162
 30
0.0
 10
255.5754877613996
 20
52.08031607790251
 30
0.0
 10
254.641997077296
 20
51.43148215332103
 30
0.0
 10
253.7221562430903
 20
50.70052522696152
 30
0.0
 10
252.8221741538226
 20
49.89278936175237
 30
0.0
 10
251.9480651775023
 20
49.01404969021522
 30
0.0
 10
251.1056560966109
 20
48.07049283916628
 30
0.0
 10
250.3005678414387
 20
47.06868992580934
 30
0.0
 10
249.5381911147928
 20
46.01556483051476
 30
0.0
 10
248.8236484024543
 20
44.9183550025828
 30
0.0
 10
248.1617887822346
 20
43.78457423014593
 30
0.0
 10
247.5570634888325
 20
42.62195811803635
 30
0.0
 10
247.0138627805393
 20
41.43848268034538
 30
0.0
 10
246.5350824265779
 20
40.24200059657883
 30
0.0
 10
246.1273483982544
 20
39.04131500473418
 30
0.0
 10
245.839842203842
 20
38.04447914604297
 30
0.0
 10
245.7084905300258
 20
37.45466492929322
 30
0.0
 10
245.6650675734394
 20
37.25968091132148
 30
0.0
  0
LINE
  5
163
330
1F
100
AcDbEntity
  8
0
  6
Continuous
 62
     7
370
    15
100
AcDbLine
 10
255.3551158349
 20
51.911817715
 30
0.0
 11
235.4629784625
 21
59.0801555269
 31
0.0
  0
LINE
  5
164
330
1F
100
AcDbEntity
  8
0
  6
Continuous
 62
     7
370
    15
100
AcDbLine
 10
229.0915090511
 20
48.0432509159
 30
0.0
 11
248.1193831375
 21
31.9762713385
 31
0.0
  0
LINE
  5
165
330
1F
100
AcDbEntity
  8
0
  6
Continuous
 62
     7
370
    15
100
AcDbLine
 10
248.613756101
 20
25.9447945245
 30
0.0
 11
251.6454764253
 21
24.1946196348
 31
0.0
  0
SPLINE
  5
166
330
1F
100
AcDbEntity
  8
0
  6
Continuous
 62
     7
370
    15
100
AcDbSpline
210
0.0
220
0.0
230
1.0
 70
     8
 71
     3
 72
    12
 73
     8
 74
     0
 42
0.000000001
 43
0.00000001
 40
0.0
 40
0.0
 40
0.0
 40
0.0
 40
0.0870000302701162
 40
0.3432506754587111
 40
0.5987700380077075
 40
0.8528664596654896
 40
1.0
 40
1.0
 40
1.0
 40
1.0
 10
245.6506258138624
 20
30.01163528220149
 30
0.0
 10
245.6805369529341
 20
29.90916123341022
 30
0.0
 10
245.7985486209556
 20
29.50485923080882
 30
0.0
 10
246.0601640350204
 20
28.84596732173694
 30
0.0
 10
246.4667477478582
 20
28.07322248718344
 30
0.0
 10
246.8711502079556
 20
27.46646959002836
 30
0.0
 10
247.1657435122472
 20
27.15333683793027
 30
0.0
 10
247.2737727222395
 20
27.03850909629773
 30
0.0
  0
SPLINE
  5
167
330
1F
100
AcDbEntity
  8
0
  6
Continuous
 62
     7
370
    15
100
AcDbSpline
210
0.0
220
0.0
230
1.0
 70
     8
 71
     3
 72
    25
 73
    21
 74
     0
 42
0.000000001
 43
0.00000001
 40
0.0
 40
0.0
 40
0.0
 40
0.0
 40
0.0353048655902018
 40
0.0915854568434995
 40
0.1488513741872154
 40
0.207338033956575
 40
0.2668204192514977
 40
0.3268674031455533
 40
0.3870976313879108
 40
0.4472690272955349
 40
0.5073304355272636
 40
0.5672894808445756
 40
0.6271800435593513
 40
0.6870465961881561
 40
0.7469359908050875
 40
0.8068842563241431
 40
0.8669429772043646
 40
0.9271617749220931
 40
0.9843681413975529
 40
1.0
 40
1.0
 40
1.0
 40
1.0
 10
235.3744385800175
 20
59.09719996389571
 30
0.0
 10
235.2699920524033
 20
59.13159176537793
 30
0.0
 10
234.9990440460207
 20
59.22080861404068
 30
0.0
 10
234.5194367538159
 20
59.25187075250037
 30
0.0
 10
233.9508268955388
 20
59.20333671555503
 30
0.0
 10
233.3577484503913
 20
59.05062773263298
 30
0.0
 10
232.7510048197365
 20
58.79999326060288
 30
0.0
 10
232.1410827083853
 20
58.45361680698181
 30
0.0
 10
231.540002151899
 20
58.01872959668516
 30
0.0
 10
230.9587328305171
 20
57.50405001171504
 30
0.0
 10
230.4070862278566
 20
56.91944759793765
 30
0.0
 10
229.8938047633447
 20
56.27525042265012
 30
0.0
 10
229.4269771917249
 20
55.58240513750822
 30
0.0
 10
229.0140566101036
 20
54.85240168966519
 30
0.0
 10
228.6618001743354
 20
54.09719270979935
 30
0.0
 10
228.3762465756262
 20
53.32901881204514
 30
0.0
 10
228.1622952368348
 20
52.55998901883339
 30
0.0
 10
228.0275502816227
 20
51.81607635891705
 30
0.0
 10
227.9819053634566
 20
51.27555307798344
 30
0.0
 10
227.9792188264514
 20
50.98981486133481
 30
0.0
 10
227.9786422670068
 20
50.92849239781803
 30
0.0
  0
SPLINE
  5
168
330
1F
100
AcDbEntity
  8
0
  6
Continuous
 62
     7
370
    15
100
AcDbSpline
210
0.0
220
0.0
230
1.0
 70
     8
 71
     3
 72
    13
 73
     9
 74
     0
 42
0.000000001
 43
0.00000001
 40
0.0
 40
0.0
 40
0.0
 40
0.0
 40
0.1032503366444278
 40
0.2985395242481425
 40
0.4938496886365012
 40
0.6875172807719486
 40
0.877759895113391
 40
0.9999999999999999
 40
0.9999999999999999
 40
0.9999999999999999
 40
0.9999999999999999
 10
227.9786422670068
 20
50.92849239781803
 30
0.0
 10
227.9809765349906
 20
50.80430456006287
 30
0.0
 10
227.9877258713706
 20
50.44522604075001
 30
0.0
 10
228.0634632307302
 20
49.88464848240989
 30
0.0
 10
228.2333875728707
 20
49.27348507167834
 30
0.0
 10
228.4911972271265
 20
48.73645083903099
 30
0.0
 10
228.7803067325419
 20
48.32080420790555
 30
0.0
 10
229.0115799563589
 20
48.12693943268545
 30
0.0
 10
229.102051721347
 20
48.05110147750101
 30
0.0
  0
LWPOLYLINE
  5
169
330
1F
100
AcDbEntity
  8
0
  6
Continuous
 62
     7
370
    15
100
AcDbPolyline
 90
       30
 70
   128
 43
0.0
 10
272.0267876371
 20
39.5970938342
 10
271.6542305829
 20
39.8646561556
 10
271.3900185823
 20
40.1721972721
 10
271.2465058947
 20
40.5053369029
 10
271.230403014
 20
40.8484978092
 10
271.342462893
 20
41.1856341684
 10
271.5774457362
 20
41.5009818589
 10
271.924364007
 20
41.7797955734
 10
272.3669961928
 20
42.0090382924
 10
272.8846453044
 20
42.1779908811
 10
273.4531066447
 20
42.2787533043
 10
274.0457995932
 20
42.306614023
 10
274.6350104864
 20
42.260270301
 10
275.1931884778
 20
42.1418891193
 10
275.6942337849
 20
41.9570058502
 10
276.1147180859
 20
41.7142654301
 10
276.4349800024
 20
41.4250181311
 10
276.640044443
 20
41.1027888356
 10
276.7203228224
 20
40.7626446271
 10
276.6720614129
 20
40.4204902708
 10
276.4975168642
 20
40.0923245243
 10
276.2048506855
 20
39.793492053
 10
275.807747622
 20
39.5379659312
 10
275.3247757716
 20
39.3376942763
 10
274.7785183614
 20
39.2020415684
 10
274.1945177805
 20
39.1373507773
 10
273.6000812472
 20
39.1466467724
 10
273.0230039531
 20
39.2294948835
 10
272.490269391
 20
39.3820212248
 10
272.0267876371
 20
39.5970938342
  0
ARC
  5
16A
330
1F
100
AcDbEntity
  8
0
  6
Continuous
 62
     7
370
    15
100
AcDbCircle
 10
272.3183177479
 20
40.5154862127
 30
0.0
 40
1.311069792532521
100
AcDbArc
 50
110.944123305
 51
249.0720049829
  0
LWPOLYLINE
  5
16B
330
1F
100
AcDbEntity
  8
0
  6
Continuous
 62
     7
370
    15
100
AcDbPolyline
 90
       17
 70
   128
 43
0.0
 10
276.0929963191
 20
41.739932935
 10
276.2963782398
 20
41.6099569057
 10
276.6304113834
 20
41.3173666052
 10
276.8555814754
 20
40.9919486016
 10
276.9626700257
 20
40.6470255464
 10
276.9472928165
 20
40.2967186298
 10
276.8100793925
 20
39.9553694582
 10
276.5566472875
 20
39.6369529068
 10
276.1973720417
 20
39.3545049867
 10
275.7469624257
 20
39.1195891488
 10
275.2238582622
 20
38.9418228751
 10
274.6494754971
 20
38.8284839379
 10
274.0473294283
 20
38.7842124464
 10
273.4420719865
 20
38.8108208809
 10
272.8584824827
 20
38.9072198887
 10
272.3204531396
 20
39.0694628833
 10
271.8500109418
 20
39.2909076173
  0
LWPOLYLINE
  5
16C
330
1F
100
AcDbEntity
  8
0
  6
Continuous
 62
     7
370
    15
100
AcDbPolyline
 90
       24
 70
   128
 43
0.0
 10
272.7338944182
 20
40.0052978902
 10
272.4459254628
 20
40.2245194276
 10
272.2710888789
 20
40.4804629045
 10
272.2223514962
 20
40.7541461639
 10
272.3033279434
 20
41.0252713707
 10
272.5080125679
 20
41.2737304084
 10
272.8212248474
 20
41.4810962069
 10
273.21973526
 20
41.6319893936
 10
273.6739881115
 20
41.7152189111
 10
274.150293546
 20
41.7246120068
 10
274.6133261682
 20
41.6594720378
 10
275.028744967
 20
41.5246301376
 10
275.3657402303
 20
41.330086913
 10
275.5993185612
 20
41.0902707451
 10
275.7121565233
 20
40.822967702
 10
275.6958854413
 20
40.5480024275
 10
275.5517120669
 20
40.2857678381
 10
275.2903290796
 20
40.0557126738
 10
274.93112206
 20
39.8748990736
 10
274.5007317494
 20
39.756737155
 10
274.0310782281
 20
39.709990447
 10
273.5569935495
 20
39.7381259392
 10
273.1136384053
 20
39.8390569507
 10
272.7338944182
 20
40.0052978902
  0
SPLINE
  5
16D
330
1F
100
AcDbEntity
  8
0
  6
Continuous
 62
     7
370
    15
100
AcDbSpline
210
0.0
220
0.0
230
1.0
 70
     8
 71
     3
 72
     9
 73
     5
 74
     0
 42
0.000000001
 43
0.00000001
 40
0.0
 40
0.0
 40
0.0
 40
0.0
 40
0.6311775999677
 40
1.0
 40
1.0
 40
1.0
 40
1.0
 10
272.9108396317121
 20
39.90773680788561
 30
0.0
 10
272.7758717875596
 20
40.00067173906139
 30
0.0
 10
272.5620368159772
 20
40.14791227988626
 30
0.0
 10
272.3693616098072
 20
40.36583350796577
 30
0.0
 10
272.2982986778409
 20
40.44620773832405
 30
0.0
  0
SPLINE
  5
16E
330
1F
100
AcDbEntity
  8
0
  6
Continuous
 62
     7
370
    15
100
AcDbSpline
210
0.0
220
0.0
230
1.0
 70
     8
 71
     3
 72
    11
 73
     7
 74
     0
 42
0.000000001
 43
0.00000001
 40
0.0
 40
0.0
 40
0.0
 40
0.0
 40
0.2164553779443446
 40
0.440311289579055
 40
0.7519005688038765
 40
1.0
 40
1.0
 40
1.0
 40
1.0
 10
275.6443638927921
 20
40.96378974136395
 30
0.0
 10
275.6136557485198
 20
40.85326814040124
 30
0.0
 10
275.5511895592594
 20
40.62844624358175
 30
0.0
 10
275.435268995676
 20
40.30348358033485
 30
0.0
 10
275.3109233975185
 20
40.08093408800239
 30
0.0
 10
275.2313496815985
 20
40.02345012840266
 30
0.0
 10
275.1960761567081
 20
39.99796857514985
 30
0.0
  0
SPLINE
  5
16F
330
1F
100
AcDbEntity
  8
0
  6
Continuous
 62
     7
370
    15
100
AcDbSpline
210
0.0
220
0.0
230
1.0
 70
     8
 71
     3
 72
    11
 73
     7
 74
     0
 42
0.000000001
 43
0.00000001
 40
0.0
 40
0.0
 40
0.0
 40
0.0
 40
0.1843643438496109
 40
0.5174526391740203
 40
0.8663352079125943
 40
1.0
 40
1.0
 40
1.0
 40
1.0
 10
274.4196190214005
 20
41.6708199060581
 30
0.0
 10
274.4906892835537
 20
41.59168599349496
 30
0.0
 10
274.6901611225767
 20
41.36958202778796
 30
0.0
 10
275.0617949325907
 20
41.07545957003848
 30
0.0
 10
275.407826105113
 20
40.97113377925805
 30
0.0
 10
275.5930556314061
 20
40.96538276301008
 30
0.0
 10
275.6443638927921
 20
40.96378974136395
 30
0.0
  0
SPLINE
  5
170
330
1F
100
AcDbEntity
  8
0
  6
Continuous
 62
     7
370
    15
100
AcDbSpline
210
0.0
220
0.0
230
1.0
 70
     8
 71
     3
 72
    11
 73
     7
 74
     0
 42
0.000000001
 43
0.00000001
 40
0.0
 40
0.0
 40
0.0
 40
0.0
 40
0.2164553779443451
 40
0.4403112895790564
 40
0.7519005688038772
 40
1.0
 40
1.0
 40
1.0
 40
1.0
 10
272.7465864139249
 20
41.41202890453815
 30
0.0
 10
272.8611907685553
 20
41.38539442360441
 30
0.0
 10
273.0943177606305
 20
41.33121483814629
 30
0.0
 10
273.5269391935655
 20
41.32291872905223
 30
0.0
 10
273.991003283587
 20
41.44005091937759
 30
0.0
 10
274.2879764343475
 20
41.59994283893686
 30
0.0
 10
274.4196190214005
 20
41.6708199060581
 30
0.0
  0
SPLINE
  5
171
330
1F
100
AcDbEntity
  8
0
  6
Continuous
 62
     7
370
    15
100
AcDbSpline
210
0.0
220
0.0
230
1.0
 70
     8
 71
     3
 72
    11
 73
     7
 74
     0
 42
0.000000001
 43
0.00000001
 40
0.0
 40
0.0
 40
0.0
 40
0.0
 40
0.2164553779443447
 40
0.4403112895790566
 40
0.7519005688038765
 40
1.0
 40
1.0
 40
1.0
 40
1.0
 10
272.2982986778409
 20
40.44620773832405
 30
0.0
 10
272.3290068221132
 20
40.46800550872057
 30
0.0
 10
272.3914730113736
 20
40.51234630766208
 30
0.0
 10
272.507393574957
 20
40.68687771885151
 30
0.0
 10
272.6317391731145
 20
41.00012522009814
 30
0.0
 10
272.7113128890345
 20
41.28551916200519
 30
0.0
 10
272.7465864139249
 20
41.41202890453815
 30
0.0
  0
LINE
  5
172
330
1F
100
AcDbEntity
  8
0
  6
Continuous
 62
     7
370
    15
100
AcDbLine
 10
272.7465864139
 20
39.9980453479
 30
0.0
 11
272.7465864139
 21
41.4120289045
 31
0.0
  0
LINE
  5
173
330
1F
100
AcDbEntity
  8
0
  6
Continuous
 62
     7
370
    15
100
AcDbLine
 10
274.4196190214
 20
39.743110394
 30
0.0
 11
274.4196190214
 21
41.6708199061
 31
0.0
  0
LWPOLYLINE
  5
174
330
1F
100
AcDbEntity
  8
0
  6
Continuous
 62
     7
370
    15
100
AcDbPolyline
 90
       67
 70
   128
 43
0.0
 10
269.5695915724
 20
21.011779563
 10
269.6128163349
 20
22.0845640607
 10
269.742099172
 20
23.1975395042
 10
269.9562692785
 20
24.3406266157
 10
270.2533870967
 20
25.5034734212
 10
270.6307618816
 20
26.675549
 10
271.0849760687
 20
27.8462388541
 10
271.611916224
 20
29.004941035
 10
272.2068102958
 20
30.1411621562
 10
272.8642708314
 20
31.2446124233
 10
273.5783437663
 20
32.3052988199
 10
274.3425623454
 20
33.3136156057
 10
275.150005687
 20
34.2604313078
 10
275.993361459
 20
35.1371714164
 10
276.8649921011
 20
35.9358960375
 10
277.7570039912
 20
36.6493717971
 10
278.6613189313
 20
37.2711373483
 10
279.5697473055
 20
37.7955618861
 10
280.4740622457
 20
38.2178961405
 10
281.3660741358
 20
38.5343153872
 10
282.2377047779
 20
38.7419540844
 10
283.0810605499
 20
38.838931824
 10
283.8885038915
 20
38.8243703605
 10
284.6527224706
 20
38.6984015649
 10
285.3667954055
 20
38.46216623
 10
286.0242559411
 20
38.1178037396
 10
286.6191500129
 20
37.6684326937
 10
287.1460901682
 20
37.1181226662
 10
287.6003043553
 20
36.4718573498
 10
287.9776791402
 20
35.7354894233
 10
288.2747969584
 20
34.9156875488
 10
288.4889670649
 20
34.0198759789
 10
288.618249902
 20
33.0561673219
 10
288.6614746645
 20
32.0332890726
 10
288.618249902
 20
30.960504575
 10
288.4889670649
 20
29.8475291314
 10
288.2747969584
 20
28.7044420199
 10
287.9776791402
 20
27.5415952144
 10
287.6003043553
 20
26.3695196357
 10
287.1460901682
 20
25.1988297815
 10
286.6191500129
 20
24.0401276007
 10
286.0242559411
 20
22.9039064795
 10
285.3667954055
 20
21.8004562123
 10
284.6527224706
 20
20.7397698157
 10
283.8885038915
 20
19.7314530299
 10
283.0810605499
 20
18.7846373279
 10
282.2377047779
 20
17.9078972192
 10
281.3660741358
 20
17.1091725982
 10
280.4740622457
 20
16.3956968385
 10
279.5697473055
 20
15.7739312873
 10
278.6613189313
 20
15.2495067496
 10
277.7570039912
 20
14.8271724952
 10
276.8649921011
 20
14.5107532485
 10
275.993361459
 20
14.3031145513
 10
275.150005687
 20
14.2061368116
 10
274.3425623454
 20
14.2206982751
 10
273.5783437663
 20
14.3466670707
 10
272.8642708314
 20
14.5829024057
 10
272.2068102958
 20
14.9272648961
 10
271.611916224
 20
15.3766359419
 10
271.0849760687
 20
15.9269459695
 10
270.6307618816
 20
16.5732112858
 10
270.2533870967
 20
17.3095792123
 10
269.9562692785
 20
18.1293810869
 10
269.742099172
 20
19.0251926568
 10
269.6128163349
 20
19.9889013138
 10
269.5695915724
 20
21.011779563
  0
LWPOLYLINE
  5
175
330
1F
100
AcDbEntity
  8
0
  6
Continuous
 62
     7
370
    15
100
AcDbPolyline
 90
       35
 70
   128
 43
0.0
 10
269.2160381818
 20
21.011779563
 10
269.2600634028
 20
22.1044304403
 10
269.3917403666
 20
23.2380165402
 10
269.6098765862
 20
24.4022719315
 10
269.9124965862
 20
25.5866529371
 10
270.296859793
 20
26.7804336192
 10
270.7594853539
 20
27.972802915
 10
271.2961836603
 20
29.1529625437
 10
271.902094289
 20
30.3102247968
 10
272.5717300197
 20
31.4341093282
 10
273.2990265275
 20
32.5144380654
 10
274.0773973025
 20
33.5414273843
 10
274.8997932985
 20
34.5057767104
 10
275.7587667701
 20
35.398752747
 10
276.6465387203
 20
36.2122685648
 10
277.5550693491
 20
36.9389568385
 10
278.4761308622
 20
37.5722365666
 10
279.4013819841
 20
38.1063726698
 10
280.3224434972
 20
38.536527929
 10
281.230974126
 20
38.8588067913
 10
282.1187460762
 20
39.0702906496
 10
282.9777195478
 20
39.1690642733
 10
283.8001155438
 20
39.1542331531
 10
284.5784863188
 20
39.025931602
 10
285.3057828266
 20
38.7853215386
 10
285.9754185573
 20
38.4345819651
 10
286.581329186
 20
37.9768892332
 10
287.1180274924
 20
37.4163882792
 10
287.5806530533
 20
36.7581550866
 10
287.9650162601
 20
36.0081507171
 10
288.2676362601
 20
35.1731673263
 10
288.4857724797
 20
34.2607666532
 10
288.6174494435
 20
33.2792115396
 10
288.6614746645
 20
32.2373911006
 10
288.6614746645
 20
32.2373911006
  0
LWPOLYLINE
  5
176
330
1F
100
AcDbEntity
  8
0
  6
Continuous
 62
     7
370
    15
100
AcDbPolyline
 90
       18
 70
   128
 43
0.0
 10
278.9403366383
 20
15.3980615554
 10
278.4761308622
 20
15.1427979938
 10
277.5550693491
 20
14.7126427346
 10
276.6465387203
 20
14.3903638723
 10
275.7587667701
 20
14.178880014
 10
274.8997932985
 20
14.0801063903
 10
274.0773973025
 20
14.0949375105
 10
273.2990265275
 20
14.2232390616
 10
272.5717300197
 20
14.463849125
 10
271.902094289
 20
14.8145886985
 10
271.2961836603
 20
15.2722814304
 10
270.7594853539
 20
15.8327823844
 10
270.296859793
 20
16.491015577
 10
269.9124965862
 20
17.2410199465
 10
269.6098765862
 20
18.0760033373
 10
269.3917403666
 20
18.9884040104
 10
269.2600634028
 20
19.969959124
 10
269.2160381818
 20
21.011779563
  0
SPLINE
  5
177
330
1F
100
AcDbEntity
  8
0
  6
Continuous
 62
     7
370
    15
100
AcDbSpline
210
0.0
220
0.0
230
1.0
 70
     8
 71
     3
 72
    48
 73
    44
 74
     0
 42
0.000000001
 43
0.00000001
 40
0.0
 40
0.0
 40
0.0
 40
0.0
 40
0.0312500000000004
 40
0.0312500000000004
 40
0.0625000000000009
 40
0.0625000000000009
 40
0.1250000000000017
 40
0.1250000000000017
 40
0.1562500000000024
 40
0.1562500000000024
 40
0.1875000000000031
 40
0.1875000000000031
 40
0.2187500000000037
 40
0.2187500000000037
 40
0.2500000000000044
 40
0.2500000000000044
 40
0.312500000000005
 40
0.312500000000005
 40
0.3437500000000048
 40
0.3437500000000048
 40
0.3750000000000046
 40
0.3750000000000046
 40
0.4375000000000043
 40
0.4375000000000043
 40
0.5000000000000039
 40
0.5000000000000039
 40
0.5625000000000037
 40
0.5625000000000037
 40
0.6250000000000033
 40
0.6250000000000033
 40
0.687500000000003
 40
0.687500000000003
 40
0.7500000000000026
 40
0.7500000000000026
 40
0.8125000000000022
 40
0.8125000000000022
 40
0.8750000000000019
 40
0.8750000000000019
 40
0.9062500000000014
 40
0.9062500000000014
 40
0.937500000000001
 40
0.937500000000001
 40
1.0
 40
1.0
 40
1.0
 40
1.0
 10
276.5345933671177
 20
39.23991528532574
 30
0.0
 10
276.4552920985312
 20
39.19413563741795
 30
0.0
 10
276.3714084777339
 20
39.14994530587804
 30
0.0
 10
276.1943691636594
 20
39.06481416208033
 30
0.0
 10
276.1005591473839
 20
39.02363550110463
 30
0.0
 10
275.8115802103282
 20
38.90799105727714
 30
0.0
 10
275.6081168192717
 20
38.84069294015816
 30
0.0
 10
275.287534133072
 20
38.7546737192275
 30
0.0
 10
275.177862893339
 20
38.72850720246906
 30
0.0
 10
274.9583043962312
 20
38.68246012145334
 30
0.0
 10
274.8478202395602
 20
38.66240370211406
 30
0.0
 10
274.6254752209908
 20
38.6282054606902
 30
0.0
 10
274.5136141978688
 20
38.61406410842673
 30
0.0
 10
274.2885008390862
 20
38.59188389185008
 30
0.0
 10
274.1752455140903
 20
38.58388634686128
 30
0.0
 10
273.8399393462934
 20
38.56966656856876
 30
0.0
 10
273.6200533605855
 20
38.57286778361041
 30
0.0
 10
273.2952137449909
 20
38.59734173338479
 30
0.0
 10
273.1872980334221
 20
38.60888161679235
 30
0.0
 10
272.9763937189052
 20
38.63841845094281
 30
0.0
 10
272.8732259396819
 20
38.65639400803523
 30
0.0
 10
272.5703026642842
 20
38.71990429621547
 30
0.0
 10
272.3770700757692
 20
38.77495935132738
 30
0.0
 10
272.0080760072809
 20
38.91188806771051
 30
0.0
 10
271.8353583430259
 20
38.9928419522658
 30
0.0
 10
271.5187792681401
 20
39.17631577307952
 30
0.0
 10
271.3738483755637
 20
39.27922147221178
 30
0.0
 10
271.1118894430123
 20
39.5079335075424
 30
0.0
 10
270.9980946242435
 20
39.63103332697381
 30
0.0
 10
270.8059583257957
 20
39.89127634855598
 30
0.0
 10
270.7272457813351
 20
40.02872251821172
 30
0.0
 10
270.6074005955496
 20
40.3177055148744
 30
0.0
 10
270.5681940873846
 20
40.46459569142259
 30
0.0
 10
270.5314069216604
 20
40.76116364919388
 30
0.0
 10
270.5339114886251
 20
40.9116391074263
 30
0.0
 10
270.5856143723122
 20
41.21017827426886
 30
0.0
 10
270.633893170604
 20
41.35412026452821
 30
0.0
 10
270.7409931047492
 20
41.56033141523439
 30
0.0
 10
270.7825162306925
 20
41.62744391334024
 30
0.0
 10
270.8779819259422
 20
41.75800643631565
 30
0.0
 10
270.9322289661339
 20
41.82163785501918
 30
0.0
 10
271.1095970095929
 20
42.0009969393075
 30
0.0
 10
271.2483366282724
 20
42.1071830377756
 30
0.0
 10
271.4080692035153
 20
42.19939469068306
 30
0.0
  0
SPLINE
  5
178
330
1F
100
AcDbEntity
  8
0
  6
Continuous
 62
     7
370
    15
100
AcDbSpline
210
0.0
220
0.0
230
1.0
 70
     8
 71
     3
 72
    52
 73
    48
 74
     0
 42
0.000000001
 43
0.00000001
 40
0.0
 40
0.0
 40
0.0
 40
0.0
 40
0.0312500000000007
 40
0.0312500000000007
 40
0.0625000000000013
 40
0.0625000000000013
 40
0.093750000000002
 40
0.093750000000002
 40
0.1250000000000026
 40
0.1250000000000026
 40
0.187500000000004
 40
0.187500000000004
 40
0.2500000000000054
 40
0.2500000000000054
 40
0.3125000000000069
 40
0.3125000000000069
 40
0.3750000000000083
 40
0.3750000000000083
 40
0.4375000000000097
 40
0.4375000000000097
 40
0.4687500000000099
 40
0.4687500000000099
 40
0.5000000000000101
 40
0.5000000000000101
 40
0.5625000000000097
 40
0.5625000000000097
 40
0.5937500000000094
 40
0.5937500000000094
 40
0.6250000000000092
 40
0.6250000000000092
 40
0.6875000000000079
 40
0.6875000000000079
 40
0.7187500000000072
 40
0.7187500000000072
 40
0.7500000000000064
 40
0.7500000000000064
 40
0.8125000000000051
 40
0.8125000000000051
 40
0.8437500000000041
 40
0.8437500000000041
 40
0.8750000000000031
 40
0.8750000000000031
 40
0.9375000000000016
 40
0.9375000000000016
 40
0.9687500000000008
 40
0.9687500000000008
 40
1.0
 40
1.0
 40
1.0
 40
1.0
 10
271.4080692035153
 20
42.19939469068306
 30
0.0
 10
271.4879509282983
 20
42.2455094288205
 30
0.0
 10
271.5737251189879
 20
42.28831424284968
 30
0.0
 10
271.7516311696261
 20
42.36461431598534
 30
0.0
 10
271.8440689262326
 20
42.39836906951641
 30
0.0
 10
272.0356749750333
 20
42.45749527498396
 30
0.0
 10
272.1348438700339
 20
42.48286580065933
 30
0.0
 10
272.3398992473566
 20
42.52541098915692
 30
0.0
 10
272.4459389072368
 20
42.54253911790006
 30
0.0
 10
272.7663696590504
 20
42.58102632510393
 30
0.0
 10
272.9855178151157
 20
42.5902095861909
 30
0.0
 10
273.4344595012743
 20
42.57960714030543
 30
0.0
 10
273.6609538016838
 20
42.55976808767787
 30
0.0
 10
274.1114828511027
 20
42.4956919121005
 30
0.0
 10
274.3317615177762
 20
42.45208640543179
 30
0.0
 10
274.7611319483319
 20
42.34649449968021
 30
0.0
 10
274.971271595394
 20
42.28419597641328
 30
0.0
 10
275.3787617188384
 20
42.14347124108309
 30
0.0
 10
275.5715295979119
 20
42.06670076153992
 30
0.0
 10
275.8451102840646
 20
41.94327549199221
 30
0.0
 10
275.93369009704
 20
41.90073896907686
 30
0.0
 10
276.105560184377
 20
41.81291573424311
 30
0.0
 10
276.1892142979074
 20
41.7674059279416
 30
0.0
 10
276.42820425562
 20
41.62886715192268
 30
0.0
 10
276.5722929288369
 20
41.53366893533873
 30
0.0
 10
276.7660051359286
 20
41.38637427464178
 30
0.0
 10
276.8268158023278
 20
41.33651592877445
 30
0.0
 10
276.9406976689048
 20
41.23510383022617
 30
0.0
 10
276.9939251633782
 20
41.18334510566262
 30
0.0
 10
277.1387560001416
 20
41.02810211420825
 30
0.0
 10
277.2166309622416
 20
40.92392406762031
 30
0.0
 10
277.3050765381604
 20
40.7651831497806
 30
0.0
 10
277.3297994318974
 20
40.71185162745927
 30
0.0
 10
277.3692418150464
 20
40.60402038729262
 30
0.0
 10
277.3839203353988
 20
40.54939253661769
 30
0.0
 10
277.4114308346803
 20
40.38689580212508
 30
0.0
 10
277.4084577950002
 20
40.27924509650816
 30
0.0
 10
277.3703368087846
 20
40.1169626017759
 30
0.0
 10
277.3519790741293
 20
40.06273452465334
 30
0.0
 10
277.3030799770759
 20
39.95368715034773
 30
0.0
 10
277.2726328955984
 20
39.89925677286242
 30
0.0
 10
277.1648838431449
 20
39.73898026772326
 30
0.0
 10
277.0708438429685
 20
39.63486859836859
 30
0.0
 10
276.8941834284811
 20
39.48191608193078
 30
0.0
 10
276.828753348314
 20
39.4311172056468
 30
0.0
 10
276.6886426466614
 20
39.33308210309624
 30
0.0
 10
276.6139099636547
 20
39.28570378187096
 30
0.0
 10
276.5345933671177
 20
39.23991528532574
 30
0.0
  0
LWPOLYLINE
  5
179
330
1F
100
AcDbEntity
  8
0
  6
Continuous
 62
     7
370
    15
100
AcDbPolyline
 90
       62
 70
   128
 43
0.0
 10
270.8070284395
 20
21.7261366609
 10
270.8510645478
 20
22.7380592657
 10
270.9827060788
 20
23.7900982476
 10
271.2005575997
 20
24.8711017315
 10
271.5023098301
 20
25.9696108117
 10
271.8847641213
 20
27.0739810186
 10
272.3438663627
 20
28.1725057533
 10
272.8747499563
 20
29.2535403804
 10
273.4717874039
 20
30.3056256637
 10
274.1286499601
 20
31.3176092377
 10
274.8383747184
 20
32.2787638246
 10
275.5934384198
 20
33.1789009468
 10
276.3858372011
 20
34.0084789268
 10
277.2071714383
 20
34.7587040317
 10
278.0487347839
 20
35.4216236887
 10
278.9016064574
 20
35.9902107845
 10
279.7567458066
 20
36.4584381545
 10
280.6050881419
 20
36.8213424721
 10
281.4376408233
 20
37.0750768612
 10
282.2455785854
 20
37.2169516742
 10
283.0203370869
 20
37.2454630027
 10
283.7537036949
 20
37.1603086196
 10
284.437904541
 20
36.9623911825
 10
285.0656869259
 20
36.6538086656
 10
285.6303962002
 20
36.2378321202
 10
286.1260463052
 20
35.7188710012
 10
286.5473832264
 20
35.1024264256
 10
286.8899406876
 20
34.3950328592
 10
287.1500874945
 20
33.6041888498
 10
287.3250660263
 20
32.7382775407
 10
287.413021467
 20
31.8064778071
 10
287.413021467
 20
30.8186669581
 10
287.3250660263
 20
29.7853160343
 10
287.1500874945
 20
28.7173788126
 10
286.8899406876
 20
27.6261756933
 10
286.5473832264
 20
26.5232737008
 10
286.1260463052
 20
25.4203638707
 10
285.6303962002
 20
24.3291373215
 10
285.0656869259
 20
23.2611613262
 10
284.437904541
 20
22.2277566958
 10
283.7537036949
 20
21.2398777767
 10
283.0203370869
 20
20.3079963311
 10
282.2455785854
 20
19.4419905342
 10
281.4376408233
 20
18.6510402628
 10
280.6050881419
 20
17.9435297865
 10
279.7567458066
 20
17.3269588925
 10
278.9016064574
 20
16.8078633856
 10
278.0487347839
 20
16.3917458074
 10
277.2071714383
 20
16.0830171075
 10
276.3858372011
 20
15.8849498872
 10
275.5934384198
 20
15.7996437081
 10
274.8383747184
 20
15.828002837
 10
274.1286499601
 20
15.9697266602
 10
273.4717874039
 20
16.2233128697
 10
272.8747499563
 20
16.5860733887
 10
272.3438663627
 20
17.0541628655
 10
271.8847641213
 20
17.6226194351
 10
271.5023098301
 20
18.2854173165
 10
271.2005575997
 20
19.0355306873
 10
270.9827060788
 20
19.8650081591
 10
270.8510645478
 20
20.7650570644
 10
270.8070284395
 20
21.7261366609
  0
SPLINE
  5
17A
330
1F
100
AcDbEntity
  8
0
  6
Continuous
 62
     7
370
    15
100
AcDbSpline
210
0.0
220
0.0
230
1.0
 70
     8
 71
     3
 72
    18
 73
    14
 74
     0
 42
0.000000001
 43
0.00000001
 40
0.0
 40
0.0
 40
0.0
 40
0.0
 40
0.25
 40
0.25
 40
0.375
 40
0.375
 40
0.5
 40
0.5
 40
0.625
 40
0.625
 40
0.75
 40
0.75
 40
1.0
 40
1.0
 40
1.0
 40
1.0
 10
273.313924578173
 20
16.98547876031203
 30
0.0
 10
273.1903169187019
 20
16.94597233603481
 30
0.0
 10
273.0690742278783
 20
16.93992181500248
 30
0.0
 10
272.8915897151581
 20
16.98159908223904
 30
0.0
 10
272.8331400188899
 20
17.00427208016466
 30
0.0
 10
272.7216161797013
 20
17.06558951525069
 30
0.0
 10
272.6680373209567
 20
17.10430165505273
 30
0.0
 10
272.5652745675184
 20
17.19785047876957
 30
0.0
 10
272.5157167929182
 20
17.25323659786469
 30
0.0
 10
272.4233380966745
 20
17.37807994811521
 30
0.0
 10
272.3805515089539
 20
17.44725492480978
 30
0.0
 10
272.2619792951343
 20
17.67441703119984
 30
0.0
 10
272.1955727478075
 20
17.85387787034675
 30
0.0
 10
272.144683090153
 20
18.05267958343665
 30
0.0
  0
LWPOLYLINE
  5
17B
330
1F
100
AcDbEntity
  8
0
  6
Continuous
 62
     7
370
    15
100
AcDbPolyline
 90
       16
 70
   128
 43
0.0
 10
284.5282329291
 20
23.4593611708
 10
283.9131172926
 20
22.4588422733
 10
283.2426302317
 20
21.5046427694
 10
282.524208753
 20
20.6073465889
 10
281.7658215491
 20
19.776906493
 10
280.9758806103
 20
19.022533679
 10
280.1631479192
 20
18.3525956096
 10
279.3366382634
 20
17.7745232022
 10
278.5055192438
 20
17.2947284048
 10
277.679009588
 20
16.9185330759
 10
276.8662768969
 20
16.6501099537
 10
276.0763359581
 20
16.4924363733
 10
275.3179487542
 20
16.4472612415
 10
274.5995272755
 20
16.5150856385
 10
273.9290402147
 20
16.6951572597
 10
273.3139245782
 20
16.9854787603
  0
SPLINE
  5
17C
330
1F
100
AcDbEntity
  8
0
  6
Continuous
 62
     7
370
    15
100
AcDbSpline
210
0.0
220
0.0
230
1.0
 70
     8
 71
     3
 72
    18
 73
    14
 74
     0
 42
0.000000001
 43
0.00000001
 40
0.0
 40
0.0
 40
0.0
 40
0.0
 40
0.2500000000000002
 40
0.2500000000000002
 40
0.3749999999999999
 40
0.3749999999999999
 40
0.4999999999999997
 40
0.4999999999999997
 40
0.6249999999999994
 40
0.6249999999999994
 40
0.7499999999999991
 40
0.7499999999999991
 40
1.0
 40
1.0
 40
1.0
 40
1.0
 10
285.6974744170917
 20
25.87653948093782
 30
0.0
 10
285.7106101495423
 20
25.65598257363355
 30
0.0
 10
285.6940221204766
 20
25.43314033750863
 30
0.0
 10
285.6243997098976
 20
25.09510816497771
 30
0.0
 10
285.5934422712577
 20
24.98170490633996
 30
0.0
 10
285.5181896247059
 20
24.76097261317942
 30
0.0
 10
285.4737419402555
 20
24.65269489354
 30
0.0
 10
285.371199386127
 20
24.44031282555199
 30
0.0
 10
285.3125441010386
 20
24.33538475763357
 30
0.0
 10
285.1838467574869
 20
24.1345752452684
 30
0.0
 10
285.114063847146
 20
24.03882609092278
 30
0.0
 10
284.8888673830948
 20
23.76514587703075
 30
0.0
 10
284.7158897639232
 20
23.59954945447903
 30
0.0
 10
284.5282329290716
 20
23.459361170824
 30
0.0
  0
LWPOLYLINE
  5
17D
330
1F
100
AcDbEntity
  8
0
  6
Continuous
 62
     7
370
    15
100
AcDbPolyline
 90
       11
 70
   128
 43
0.0
 10
285.6974744171
 20
35.216901283
 10
286.0926598955
 20
34.5775406177
 10
286.4048709912
 20
33.8462832312
 10
286.6304954571
 20
33.0315896886
 10
286.7669228437
 20
32.142885902
 10
286.8125747015
 20
31.1904540739
 10
286.7669228437
 20
30.1853137326
 10
286.6304954571
 20
29.1390942384
 10
286.4048709912
 20
28.0639002323
 10
286.0926598955
 20
26.9721715875
 10
285.6974744171
 20
25.8765394809
  0
SPLINE
  5
17E
330
1F
100
AcDbEntity
  8
0
  6
Continuous
 62
     7
370
    15
100
AcDbSpline
210
0.0
220
0.0
230
1.0
 70
     8
 71
     3
 72
    18
 73
    14
 74
     0
 42
0.000000001
 43
0.00000001
 40
0.0
 40
0.0
 40
0.0
 40
0.0
 40
0.2499999999999989
 40
0.2499999999999989
 40
0.3749999999999991
 40
0.3749999999999991
 40
0.4999999999999992
 40
0.4999999999999992
 40
0.6249999999999994
 40
0.6249999999999994
 40
0.7499999999999996
 40
0.7499999999999996
 40
1.0
 40
1.0
 40
1.0
 40
1.0
 10
284.5282329290716
 20
36.28410210607969
 30
0.0
 10
284.715857128392
 20
36.28665256853172
 30
0.0
 10
284.8853123361797
 20
36.26487059595195
 30
0.0
 10
285.1123153589436
 20
36.19460690134634
 30
0.0
 10
285.1833347502337
 20
36.16467757293996
 30
0.0
 10
285.3114278804454
 20
36.0937948897483
 30
0.0
 10
285.3691677450722
 20
36.0526806523806
 30
0.0
 10
285.4720309228803
 20
35.95907385490904
 30
0.0
 10
285.5174431198127
 20
35.90608092686103
 30
0.0
 10
285.5932310781918
 20
35.79081520571417
 30
0.0
 10
285.6236748744327
 20
35.72876557087366
 30
0.0
 10
285.6933002030162
 20
35.52985989987521
 30
0.0
 10
285.7106124343841
 20
35.37874060606472
 30
0.0
 10
285.6974744170917
 20
35.21690128295506
 30
0.0
  0
LWPOLYLINE
  5
17F
330
1F
100
AcDbEntity
  8
0
  6
Continuous
 62
     7
370
    15
100
AcDbPolyline
 90
       16
 70
   128
 43
0.0
 10
273.3139245782
 20
29.8102196956
 10
273.9290402147
 20
30.8107385931
 10
274.5995272755
 20
31.764938097
 10
275.3179487542
 20
32.6622342775
 10
276.0763359581
 20
33.4926743734
 10
276.8662768969
 20
34.2470471874
 10
277.679009588
 20
34.9169852568
 10
278.5055192438
 20
35.4950576642
 10
279.3366382634
 20
35.9748524615
 10
280.1631479192
 20
36.3510477905
 10
280.9758806103
 20
36.6194709127
 10
281.7658215491
 20
36.7771444931
 10
282.524208753
 20
36.8223196249
 10
283.2426302317
 20
36.7544952279
 10
283.9131172926
 20
36.5744236067
 10
284.5282329291
 20
36.2841021061
  0
SPLINE
  5
180
330
1F
100
AcDbEntity
  8
0
  6
Continuous
 62
     7
370
    15
100
AcDbSpline
210
0.0
220
0.0
230
1.0
 70
     8
 71
     3
 72
    18
 73
    14
 74
     0
 42
0.000000001
 43
0.00000001
 40
0.0
 40
0.0
 40
0.0
 40
0.0
 40
0.2500000000000005
 40
0.2500000000000005
 40
0.3750000000000004
 40
0.3750000000000004
 40
0.5000000000000003
 40
0.5000000000000003
 40
0.6250000000000002
 40
0.6250000000000002
 40
0.7500000000000001
 40
0.7500000000000001
 40
1.0
 40
1.0
 40
1.0
 40
1.0
 10
272.144683090153
 20
27.39304138545391
 30
0.0
 10
272.1955638975516
 20
27.57664233093299
 30
0.0
 10
272.2603644435814
 20
27.77165207344581
 30
0.0
 10
272.3795053642041
 20
28.08109781860768
 30
0.0
 10
272.4230324978657
 20
28.18724474676467
 30
0.0
 10
272.5148544354408
 20
28.39841179181957
 30
0.0
 10
272.5634631257734
 20
28.50428741389334
 30
0.0
 10
272.6661061042716
 20
28.71661150812663
 30
0.0
 10
272.7206158116923
 20
28.82393276709215
 30
0.0
 10
272.8327224173794
 20
29.03431990856097
 30
0.0
 10
272.8901625362407
 20
29.13719440476067
 30
0.0
 10
273.0664121150558
 20
29.4391310540443
 30
0.0
 10
273.1902954182684
 20
29.63306902193245
 30
0.0
 10
273.313924578173
 20
29.81021969556771
 30
0.0
  0
LWPOLYLINE
  5
181
330
1F
100
AcDbEntity
  8
0
  6
Continuous
 62
     7
370
    15
100
AcDbPolyline
 90
       11
 70
   128
 43
0.0
 10
272.1446830902
 20
18.0526795834
 10
271.7494976117
 20
18.6920402487
 10
271.4372865161
 20
19.4232976352
 10
271.2116620501
 20
20.2379911778
 10
271.0752346636
 20
21.1266949644
 10
271.0295828058
 20
22.0791267925
 10
271.0752346636
 20
23.0842671338
 10
271.2116620501
 20
24.130486628
 10
271.4372865161
 20
25.2056806341
 10
271.7494976117
 20
26.2974092789
 10
272.1446830902
 20
27.3930413855
  0
ARC
  5
182
330
1F
100
AcDbEntity
  8
0
  6
Continuous
 62
     7
370
    15
100
AcDbCircle
 10
284.8107859628
 20
34.4841818882
 30
0.0
 40
1.821962954516183
100
AcDbArc
 50
98.9215321124
 51
121.0579635503
  0
LINE
  5
183
330
1F
100
AcDbEntity
  8
0
  6
Continuous
 62
     7
370
    15
100
AcDbLine
 10
282.1739140553
 20
35.0653522977
 30
0.0
 11
283.8708262219
 21
36.04495884
 31
0.0
  0
LWPOLYLINE
  5
184
330
1F
100
AcDbEntity
  8
0
  6
Continuous
 62
     7
370
    15
100
AcDbPolyline
 90
       10
 70
   128
 43
0.0
 10
275.6682434519
 20
31.3097085995
 10
276.3448785481
 20
32.0900460775
 10
277.0559424589
 20
32.7974785131
 10
277.7919323951
 20
33.4225516485
 10
278.5430124515
 20
33.9569118912
 10
279.2991450557
 20
34.3934179524
 10
280.0502251121
 20
34.7262362844
 10
280.7862150484
 20
34.9509190417
 10
281.4972789592
 20
35.0644635226
 10
282.1739140553
 20
35.0653522977
  0
LINE
  5
185
330
1F
100
AcDbEntity
  8
0
  6
Continuous
 62
     7
370
    15
100
AcDbLine
 10
273.9713312853
 20
30.3301020572
 30
0.0
 11
275.6682434519
 21
31.3097085995
 31
0.0
  0
ARC
  5
186
330
1F
100
AcDbEntity
  8
0
  6
Continuous
 62
     7
370
    15
100
AcDbCircle
 10
275.5600558084
 20
27.6455163037
 30
0.0
 40
3.119462498239124
100
AcDbArc
 50
120.6168359906
 51
136.0576097217
  0
ARC
  5
187
330
1F
100
AcDbEntity
  8
0
  6
Continuous
 62
     7
370
    15
100
AcDbCircle
 10
283.7137260309
 20
23.7500668197
 30
0.0
 40
11.7656629843245
100
AcDbArc
 50
146.059097156
 51
177.5731904596
  0
LWPOLYLINE
  5
188
330
1F
100
AcDbEntity
  8
0
  6
Continuous
 62
     7
370
    15
100
AcDbPolyline
 90
       37
 70
   128
 43
0.0
 10
279.7518133444
 20
34.6061980111
 10
279.8691950746
 20
34.6120917805
 10
280.4797661171
 20
34.5769542297
 10
281.043452736
 20
34.429439255
 10
281.5513652567
 20
34.1718732556
 10
281.9954935953
 20
33.8083182014
 10
282.3688335826
 20
33.3445075726
 10
282.665497424
 20
32.78775594
 10
282.8808065534
 20
32.1468436093
 10
283.0113654173
 20
31.431878151
 10
283.0551150244
 20
30.6541349973
 10
283.0113654173
 20
29.8258796224
 10
282.8808065534
 20
28.9601741084
 10
282.665497424
 20
28.0706711483
 10
282.3688335826
 20
27.1713987352
 10
281.9954935953
 20
26.2765389322
 10
281.5513652567
 20
25.4002042131
 10
281.043452736
 20
24.5562148997
 10
280.4797661171
 20
23.7578812079
 10
279.8691950746
 20
23.0177933367
 10
279.2213686787
 20
22.347622914
 10
278.5465035386
 20
21.7579389278
 10
277.8552426808
 20
21.2580410467
 10
277.1584877017
 20
20.855812959
 10
276.4672268439
 20
20.5575980419
 10
275.7923617038
 20
20.3680993227
 10
275.1445353079
 20
20.2903053095
 10
274.5339642654
 20
20.3254428604
 10
273.9702776465
 20
20.4729578351
 10
273.4623651258
 20
20.7305238344
 10
273.0182367872
 20
21.0940788886
 10
272.6448967999
 20
21.5578895174
 10
272.3482329585
 20
22.11464115
 10
272.1329238291
 20
22.7555534807
 10
272.0023649652
 20
23.4705189391
 10
271.9586153581
 20
24.2482620927
 10
271.9586153581
 20
24.2482620927
  0
LINE
  5
189
330
1F
100
AcDbEntity
  8
0
  6
Continuous
 62
     7
370
    15
100
AcDbLine
 10
272.5571177229
 20
18.0410301383
 30
0.0
 11
274.2540298895
 21
19.0206366805
 31
0.0
  0
LINE
  5
18A
330
1F
100
AcDbEntity
  8
0
  6
Continuous
 62
     7
370
    15
100
AcDbLine
 10
272.1969230073
 20
17.8742383043
 30
0.0
 11
272.5571177229
 21
18.0410301383
 31
0.0
  0
ARC
  5
18B
330
1F
100
AcDbEntity
  8
0
  6
Continuous
 62
     7
370
    15
100
AcDbCircle
 10
281.905457823
 20
35.7687743992
 30
0.0
 40
2.391972527139289
100
AcDbArc
 50
346.7582111184
 51
10.8666152616
  0
LWPOLYLINE
  5
18C
330
1F
100
AcDbEntity
  8
0
  6
Continuous
 62
     7
370
    15
100
AcDbPolyline
 90
        9
 70
   128
 43
0.0
 10
284.2338328128
 20
27.4483215479
 10
284.5780616393
 20
28.5719856342
 10
284.8272966561
 20
29.6805931686
 10
284.9781896627
 20
30.7592512185
 10
285.0287135761
 20
31.7934691898
 10
284.9781896627
 20
32.7693534923
 10
284.8272966561
 20
33.6737941851
 10
284.5780616393
 20
34.4946410943
 10
284.2338328128
 20
35.2208670372
  0
ARC
  5
18D
330
1F
100
AcDbEntity
  8
0
  6
Continuous
 62
     7
370
    15
100
AcDbCircle
 10
280.4934288693
 20
26.9747122954
 30
0.0
 40
3.770268874395592
100
AcDbArc
 50
301.3793030507
 51
7.2163787538
  0
LINE
  5
18E
330
1F
100
AcDbEntity
  8
0
  6
Continuous
 62
     7
370
    15
100
AcDbLine
 10
280.759700493
 20
22.7762803787
 30
0.0
 11
282.4566126596
 21
23.755886921
 31
0.0
  0
LWPOLYLINE
  5
18F
330
1F
100
AcDbEntity
  8
0
  6
Continuous
 62
     7
370
    15
100
AcDbPolyline
 90
       10
 70
   128
 43
0.0
 10
280.759700493
 20
22.7762803787
 10
280.0830653968
 20
21.9959429007
 10
279.372001486
 20
21.2885104651
 10
278.6360115498
 20
20.6634373297
 10
277.8849314934
 20
20.129077087
 10
277.1287988891
 20
19.6925710259
 10
276.3777188327
 20
19.3597526938
 10
275.6417288965
 20
19.1350699365
 10
274.9306649857
 20
19.0215254556
 10
274.2540298895
 20
19.0206366805
  0
ARC
  5
190
330
1F
100
AcDbEntity
  8
0
  6
Continuous
 62
     7
370
    15
100
AcDbCircle
 10
274.8426796347
 20
18.2962613832
 30
0.0
 40
2.708969812925973
100
AcDbArc
 50
167.8781475344
 51
185.1588186135
  0
LWPOLYLINE
  5
191
330
1F
100
AcDbEntity
  8
0
  6
Continuous
 62
     7
370
    15
100
AcDbPolyline
 90
        9
 70
   128
 43
0.0
 10
272.194111132
 20
18.865121941
 10
271.8498823055
 20
19.5913478839
 10
271.6006472887
 20
20.4121947931
 10
271.4497542822
 20
21.3166354859
 10
271.3992303688
 20
22.2925197884
 10
271.4497542822
 20
23.3267377597
 10
271.6006472887
 20
24.4053958096
 10
271.8498823055
 20
25.5140033441
 10
272.194111132
 20
26.6376674303
  0
ARC
  5
192
330
1F
100
AcDbEntity
  8
0
  6
Continuous
 62
     7
370
    15
100
AcDbCircle
 10
274.3146475682
 20
27.1557292894
 30
0.0
 40
2.182902395198935
100
AcDbArc
 50
173.7588101909
 51
193.7288361877
  0
LWPOLYLINE
  5
193
330
1F
100
AcDbEntity
  8
0
  6
Continuous
 62
     7
370
    15
100
AcDbPolyline
 90
       31
 70
   128
 43
0.0
 10
279.601154254
 20
34.5394539499
 10
280.1167078976
 20
34.4704544268
 10
280.6480150113
 20
34.2878945807
 10
281.1207781276
 20
33.9970979942
 10
281.527234489
 20
33.6028395394
 10
281.8607100935
 20
33.111592929
 10
282.1157292808
 20
32.531424419
 10
282.2881046429
 20
31.8718603602
 10
282.375005781
 20
31.1437307761
 10
282.375005781
 20
30.3589915345
 10
282.2881046429
 20
29.530528032
 10
282.1157292808
 20
28.6719436164
 10
281.8607100935
 20
27.79733622
 10
281.527234489
 20
26.9210668722
 10
281.1207781276
 20
26.0575238914
 10
280.6480150113
 20
25.2208866294
 10
280.1167078976
 20
24.424892647
 10
279.5355808344
 20
23.6826121434
 10
278.9141759123
 20
23.0062333439
 10
278.2626965827
 20
22.4068623697
 10
277.5918401183
 20
21.8943408757
 10
276.9126219637
 20
21.4770844505
 10
276.2361948621
 20
21.1619444332
 10
275.573665728
 20
20.9540954141
 10
274.9359132713
 20
20.8569502684
 10
274.3334093698
 20
20.8721041167
 10
273.7760471208
 20
20.9993081331
 10
273.2729783972
 20
21.2364736314
 10
272.8324635734
 20
21.5797063605
 10
272.4617358906
 20
22.0233704486
 10
272.231567074
 20
22.4210160317
  0
ARC
  5
194
330
1F
100
AcDbEntity
  8
0
  6
Continuous
 62
     7
370
    15
100
AcDbCircle
 10
269.8147214721
 20
43.8894259583
 30
0.0
 40
5.358074430546433
100
AcDbArc
 50
43.1408448853
 51
76.7904746878
  0
ARC
  5
195
330
1F
100
AcDbEntity
  8
0
  6
Continuous
 62
     7
370
    15
100
AcDbCircle
 10
259.4271337036
 20
25.8961326359
 30
0.0
 40
5.362485834210272
100
AcDbArc
 50
223.1069864387
 51
256.2124654503
  0
ARC
  5
196
330
1F
100
AcDbEntity
  8
0
  6
Continuous
 62
     7
370
    15
100
AcDbCircle
 10
258.9604059166
 20
27.8909223879
 30
0.0
 40
6.869104842012971
100
AcDbArc
 50
188.2309578672
 51
236.7955268677
  0
SPLINE
  5
197
330
1F
100
AcDbEntity
  8
0
  6
Continuous
 62
     7
370
    15
100
AcDbSpline
210
0.0
220
0.0
230
1.0
 70
     8
 71
     3
 72
    29
 73
    25
 74
     0
 42
0.000000001
 43
0.00000001
 40
0.0
 40
0.0
 40
0.0
 40
0.0
 40
0.022617010504675
 40
0.0451713142265269
 40
0.0676870228522217
 40
0.0901883721292881
 40
0.1126996441720091
 40
0.1352450890217754
 40
0.1578488467233686
 40
0.180534871159394
 40
0.2033268568200607
 40
0.2262481695790738
 40
0.2493217824052779
 40
0.3751991801918881
 40
0.4999614246459502
 40
0.499971796076067
 40
0.6247044141121627
 40
0.7509557879398104
 40
0.7931713871196749
 40
0.8349081045063343
 40
0.8763104515934019
 40
0.9175264576337645
 40
0.9587061619419153
 40
1.0
 40
1.0
 40
1.0
 40
1.0
 10
252.1622209191963
 20
32.06176922984675
 30
0.0
 10
252.1805861443202
 20
32.01292934004154
 30
0.0
 10
252.217265676071
 20
31.91538497144677
 30
0.0
 10
252.2689555047386
 20
31.76792236203318
 30
0.0
 10
252.3181368645632
 20
31.61998507250388
 30
0.0
 10
252.3646265344638
 20
31.47149320726698
 30
0.0
 10
252.4085366309238
 20
31.32250124113191
 30
0.0
 10
252.4499018223795
 20
31.17302945255387
 30
0.0
 10
252.4887791090839
 20
31.02310934924805
 30
0.0
 10
252.5252209541053
 20
30.87277053927252
 30
0.0
 10
252.5592829351905
 20
30.72204808765598
 30
0.0
 10
252.5910199882854
 20
30.57096639093168
 30
0.0
 10
252.6641782601524
 20
30.19524518398185
 30
0.0
 10
252.7498548001854
 20
29.60647476227548
 30
0.0
 10
252.7755871620136
 20
29.10499115826402
 30
0.0
 10
252.7760243182412
 20
28.63453833303069
 30
0.0
 10
252.7505932615295
 20
28.18809580313828
 30
0.0
 10
252.6586259454874
 20
27.75206913164957
 30
0.0
 10
252.5660720514392
 20
27.48387624903052
 30
0.0
 10
252.5024894275489
 20
27.33762513819463
 30
0.0
 10
252.4308439235129
 20
27.20670480634838
 30
0.0
 10
252.3505891492011
 20
27.09125847389823
 30
0.0
 10
252.2621874896088
 20
26.98973646945452
 30
0.0
 10
252.1958308356984
 20
26.93473759249302
 30
0.0
 10
252.1626065938139
 20
26.90720009800128
 30
0.0
  0
LWPOLYLINE
  5
198
330
1F
100
AcDbEntity
  8
0
  6
Continuous
 62
     7
370
    15
100
AcDbPolyline
 90
       26
 70
   128
 43
0.0
 10
252.162002178
 20
32.0618955064
 10
252.4013918806
 20
33.301472293
 10
252.7239812354
 20
34.5604010406
 10
253.1272552323
 20
35.828866737
 10
253.6080698181
 20
37.0969800172
 10
254.1626764081
 20
38.3548542634
 10
254.7867511116
 20
39.5926826848
 10
255.475428442
 20
40.8008147742
 10
256.2233392502
 20
41.9698315466
 10
257.0246525837
 20
43.0906189724
 10
257.873121147
 20
44.1544390337
 10
258.7621300071
 20
45.1529978481
 10
259.6847481659
 20
46.0785103311
 10
260.6337825966
 20
46.9237608907
 10
261.6018343224
 20
47.6821596825
 10
262.5813561019
 20
48.3477939865
 10
263.5647112692
 20
48.9154743042
 10
264.5442332721
 20
49.3807748179
 10
265.5122854433
 20
49.7400678957
 10
266.4613205375
 20
49.9905523734
 10
267.3839395731
 20
50.1302753939
 10
268.2729495162
 20
50.1581476317
 10
269.1214193603
 20
50.0739517859
 10
269.9227341626
 20
49.8783442743
 10
270.6706466159
 20
49.5728501157
 10
270.9474080398
 20
49.4239334188
  0
ARC
  5
199
330
1F
100
AcDbEntity
  8
0
  6
Continuous
 62
     7
370
    15
100
AcDbCircle
 10
273.0313715444
 20
18.7853989782
 30
0.0
 40
1.821962954514649
100
AcDbArc
 50
278.9215321124
 51
301.0579635503
  0
SPLINE
  5
19A
330
1F
100
AcDbEntity
  8
0
  6
Continuous
 62
     7
370
    15
100
AcDbSpline
210
0.0
220
0.0
230
1.0
 70
     8
 71
     3
 72
     8
 73
     4
 74
     0
 42
0.000000001
 43
0.00000001
 40
0.0
 40
0.0
 40
0.0
 40
0.0
 40
1.0
 40
1.0
 40
1.0
 40
1.0
 10
251.3840657810212
 20
35.34067263335109
 30
0.0
 10
250.6909945459684
 20
35.22481101497637
 30
0.0
 10
249.9973737795721
 20
35.11005232182332
 30
0.0
 10
249.3033946187447
 20
34.99604077418517
 30
0.0
  0
SPLINE
  5
19B
330
1F
100
AcDbEntity
  8
0
  6
Continuous
 62
     7
370
    15
100
AcDbSpline
210
0.0
220
0.0
230
1.0
 70
     8
 71
     3
 72
     8
 73
     4
 74
     0
 42
0.000000001
 43
0.00000001
 40
0.0
 40
0.0
 40
0.0
 40
0.0
 40
0.0012389803509652
 40
0.0012389803509652
 40
0.0012389803509652
 40
0.0012389803509652
 10
248.8296582045992
 20
35.26957489493918
 30
0.0
 10
248.9877315395802
 20
35.17830381448866
 30
0.0
 10
249.1456497185462
 20
35.08712228738842
 30
0.0
 10
249.3033946187447
 20
34.99604077418517
 30
0.0
  0
LWPOLYLINE
  5
19C
330
1F
100
AcDbEntity
  8
0
  6
Continuous
 62
     7
370
    15
100
AcDbPolyline
 90
       27
 70
   128
 43
0.0
 10
248.8296582046
 20
35.2695748949
 10
249.1484297907
 20
36.5333206131
 10
249.548803079
 20
37.8073070071
 10
250.0276279528
 20
39.0815104165
 10
250.5811370423
 20
40.3459054735
 10
251.204975366
 20
41.5905439818
 10
251.8942345955
 20
42.8056331886
 10
252.6434916741
 20
43.9816128335
 10
253.4468514851
 20
45.1092303684
 10
254.2979932341
 20
46.1796137556
 10
255.1902201811
 20
47.1843412727
 10
256.1165123296
 20
48.1155077746
 10
257.0695816598
 20
48.9657868904
 10
258.0419294705
 20
49.728488667
 10
259.0259053785
 20
50.3976122056
 10
260.0137675111
 20
50.967892876
 10
260.9977434191
 20
51.4348437387
 10
261.9700912299
 20
51.7947908481
 10
262.9231605601
 20
52.0449021586
 10
263.8494527085
 20
52.1832098069
 10
264.7416796555
 20
52.2086255955
 10
265.5928214046
 20
52.1209495543
 10
266.3961812155
 20
51.920871514
 10
267.1454382942
 20
51.6099656783
 10
267.8346975237
 20
51.1906782388
 10
268.4585358473
 20
50.6663081277
 10
268.9678334629
 20
50.0979557586
  0
LINE
  5
19D
330
1F
100
AcDbEntity
  8
0
  6
Continuous
 62
     7
370
    15
100
AcDbLine
 10
245.7979378803
 20
37.0197497847
 30
0.0
 11
248.8296582046
 21
35.2695748949
 31
0.0
  0
ARC
  5
19E
330
1F
100
AcDbEntity
  8
0
  6
Continuous
 62
     7
370
    15
100
AcDbCircle
 10
261.6771709798
 20
48.557185457
 30
0.0
 40
5.38539429601737
100
AcDbArc
 50
60.0907689584
 51
77.2167671414
  0
LINE
  5
19F
330
1F
100
AcDbEntity
  8
0
  6
Continuous
 62
     7
370
    15
100
AcDbLine
 10
251.7866611835
 20
35.2795102426
 30
0.0
 11
251.7773385326
 21
35.2848920944
 31
0.0
  0
SPLINE
  5
1A0
330
1F
100
AcDbEntity
  8
0
  6
Continuous
 62
     7
370
    15
100
AcDbSpline
210
0.0
220
0.0
230
1.0
 70
     8
 71
     3
 72
    10
 73
     6
 74
     0
 42
0.000000001
 43
0.00000001
 40
0.0
 40
0.0
 40
0.0
 40
0.0
 40
0.2412336484976924
 40
0.7132701399152719
 40
1.0
 40
1.0
 40
1.0
 40
1.0
 10
252.7041216072466
 20
34.47680097226666
 30
0.0
 10
252.638178608816
 20
34.55792616774523
 30
0.0
 10
252.4432009512215
 20
34.79779394692949
 30
0.0
 10
252.1302241326055
 20
35.06361463051137
 30
0.0
 10
251.8808841517141
 20
35.22030034978693
 30
0.0
 10
251.7866611834802
 20
35.2795102426297
 30
0.0
  0
ARC
  5
1A1
330
1F
100
AcDbEntity
  8
0
  6
Continuous
 62
     7
370
    15
100
AcDbCircle
 10
282.9994778726
 20
34.9733194832
 30
0.0
 40
2.708969812921751
100
AcDbArc
 50
347.8781475344
 51
5.1588186135
  0
LINE
  5
1A2
330
1F
100
AcDbEntity
  8
0
  6
Continuous
 62
     7
370
    15
100
AcDbLine
 10
284.2338328128
 20
35.2208670372
 30
0.0
 11
285.6480463752
 21
34.4044589254
 31
0.0
  0
SPLINE
  5
1A3
330
1F
100
AcDbEntity
  8
0
  6
Continuous
 62
     7
370
    15
100
AcDbSpline
210
0.0
220
0.0
230
1.0
 70
     8
 71
     3
 72
    10
 73
     6
 74
     0
 42
0.000000001
 43
0.00000001
 40
0.0
 40
0.0
 40
0.0
 40
0.0
 40
0.5
 40
0.5
 40
1.0
 40
1.0
 40
1.0
 40
1.0
 10
251.7773385325731
 20
35.28489209444243
 30
0.0
 10
251.7275379337603
 20
35.31364136819155
 30
0.0
 10
251.6625060170164
 20
35.33440471355222
 30
0.0
 10
251.525447656671
 20
35.35335840294
 30
0.0
 10
251.4519088166212
 20
35.35201404171219
 30
0.0
 10
251.3840657810212
 20
35.34067263335109
 30
0.0
  0
LWPOLYLINE
  5
1A4
330
1F
100
AcDbEntity
  8
0
  6
Continuous
 62
     7
370
    15
100
AcDbPolyline
 90
       10
 70
   128
 43
0.0
 10
282.1739140553
 20
21.9598722669
 10
281.4972789592
 20
21.1795347888
 10
280.7862150484
 20
20.4721023533
 10
280.0502251121
 20
19.8470292179
 10
279.2991450557
 20
19.3126689752
 10
278.5430124515
 20
18.876162914
 10
277.7919323951
 20
18.543344582
 10
277.0559424589
 20
18.3186618246
 10
276.3448785481
 20
18.2051173437
 10
275.6682434519
 20
18.2042285687
  0
LINE
  5
1A5
330
1F
100
AcDbEntity
  8
0
  6
Continuous
 62
     7
370
    15
100
AcDbLine
 10
283.8708262219
 20
22.9394788092
 30
0.0
 11
282.1739140553
 21
21.9598722669
 31
0.0
  0
ARC
  5
1A6
330
1F
100
AcDbEntity
  8
0
  6
Continuous
 62
     7
370
    15
100
AcDbCircle
 10
282.2821016989
 20
25.6240645627
 30
0.0
 40
3.11946249823461
100
AcDbArc
 50
300.6168359905
 51
316.0576097217
  0
LINE
  5
1A7
330
1F
100
AcDbEntity
  8
0
  6
Continuous
 62
     7
370
    15
100
AcDbLine
 10
275.6682434519
 20
18.2042285687
 30
0.0
 11
273.9713312853
 21
17.2246220264
 31
0.0
  0
SPLINE
  5
1A8
330
1F
100
AcDbEntity
  8
0
  6
Continuous
 62
     7
370
    15
100
AcDbSpline
210
0.0
220
0.0
230
1.0
 70
     8
 71
     3
 72
     8
 73
     4
 74
     0
 42
0.000000001
 43
0.00000001
 40
0.0
 40
0.0
 40
0.0
 40
0.0
 40
1.0
 40
1.0
 40
1.0
 40
1.0
 10
245.6411132727008
 20
37.11027146384797
 30
0.0
 10
245.6634920692202
 20
37.09735951239613
 30
0.0
 10
245.7176795002375
 20
37.0660819612391
 30
0.0
 10
245.7979378802619
 20
37.0197497846591
 30
0.0
  0
LINE
  5
1A9
330
1F
100
AcDbEntity
  8
0
  6
Continuous
 62
     7
370
    15
100
AcDbLine
 10
245.6411132727
 20
37.1102714638
 30
0.0
 11
245.6647270835
 21
37.2597474634
 31
0.0
  0
LINE
  5
1AA
330
1F
100
AcDbEntity
  8
0
  6
Continuous
 62
     7
370
    15
100
AcDbLine
 10
274.2540298895
 20
19.0206366805
 30
0.0
 11
275.6682434519
 21
18.2042285687
 31
0.0
  0
SPLINE
  5
1AB
330
1F
100
AcDbEntity
  8
0
  6
Continuous
 62
     7
370
    15
100
AcDbSpline
210
0.0
220
0.0
230
1.0
 70
     8
 71
     3
 72
    11
 73
     7
 74
     0
 42
0.000000001
 43
0.00000001
 40
0.0
 40
0.0
 40
0.0
 40
0.0
 40
0.3105157409943946
 40
0.5915933464965085
 40
0.8435752121754119
 40
1.0
 40
1.0
 40
1.0
 40
1.0
 10
252.2706462684799
 20
27.63332883676178
 30
0.0
 10
252.3616456269303
 20
27.72479826834729
 30
0.0
 10
252.5350172403058
 20
27.8990654631778
 30
0.0
 10
252.6853067252785
 20
28.31759258558381
 30
0.0
 10
252.7593856581145
 20
28.72872778501509
 30
0.0
 10
252.7669268017812
 20
29.02346554267683
 30
0.0
 10
252.7698151528595
 20
29.13635374077701
 30
0.0
  0
SPLINE
  5
1AC
330
1F
100
AcDbEntity
  8
0
  6
Continuous
 62
     7
370
    15
100
AcDbSpline
210
0.0
220
0.0
230
1.0
 70
     8
 71
     3
 72
     9
 73
     5
 74
     0
 42
0.000000001
 43
0.00000001
 40
0.0
 40
0.0
 40
0.0
 40
0.0
 40
0.5067661696360637
 40
0.9999999999999999
 40
0.9999999999999999
 40
0.9999999999999999
 40
0.9999999999999999
 10
252.1619248040075
 20
26.90669807021763
 30
0.0
 10
252.1801938213233
 20
27.0291524240704
 30
0.0
 10
252.2162440125366
 20
27.27079119396048
 30
0.0
 10
252.2529247519718
 20
27.51294159209153
 30
0.0
 10
252.271016933584
 20
27.63237836048586
 30
0.0
  0
SPLINE
  5
1AD
330
1F
100
AcDbEntity
  8
0
  6
Continuous
 62
     7
370
    15
100
AcDbSpline
210
0.0
220
0.0
230
1.0
 70
     8
 71
     3
 72
    10
 73
     6
 74
     0
 42
0.000000001
 43
0.00000001
 40
0.0
 40
0.0
 40
0.0
 40
0.0
 40
0.4807908150149394
 40
0.9757817590326827
 40
1.0
 40
1.0
 40
1.0
 40
1.0
 10
251.7866611834802
 20
28.70635670694941
 30
0.0
 10
251.9364521303805
 20
28.62618633158737
 30
0.0
 10
252.2404580911619
 20
28.46347775344899
 30
0.0
 10
252.5300735353605
 20
28.35197632272753
 30
0.0
 10
252.6644119660393
 20
28.32374470524821
 30
0.0
 10
252.6706781119001
 20
28.32242785621167
 30
0.0
  0
LINE
  5
1AE
330
1F
100
AcDbEntity
  8
0
  6
Continuous
 62
     7
370
    15
100
AcDbLine
 10
282.1739140553
 20
21.9598722669
 30
0.0
 11
280.759700493
 21
22.7762803787
 31
0.0
  0
ARC
  5
1AF
330
1F
100
AcDbEntity
  8
0
  6
Continuous
 62
     7
370
    15
100
AcDbCircle
 10
283.527509939
 20
26.113851577
 30
0.0
 40
2.182902395195401
100
AcDbArc
 50
353.7588101909
 51
13.7288361877
  0
LWPOLYLINE
  5
1B0
330
1F
100
AcDbEntity
  8
0
  6
Continuous
 62
     7
370
    15
100
AcDbPolyline
 90
        9
 70
   128
 43
0.0
 10
285.6480463752
 20
34.4044589254
 10
285.9922752017
 20
33.6782329825
 10
286.2415102185
 20
32.8573860733
 10
286.3924032251
 20
31.9529453805
 10
286.4429271385
 20
30.977061078
 10
286.3924032251
 20
29.9428431067
 10
286.2415102185
 20
28.8641850568
 10
285.9922752017
 20
27.7555775223
 10
285.6480463752
 20
26.6319134361
  0
LINE
  5
1B1
330
1F
100
AcDbEntity
  8
0
  6
Continuous
 62
     7
370
    15
100
AcDbLine
 10
284.2338328128
 20
27.4483215479
 30
0.0
 11
285.6480463752
 21
26.6319134361
 31
0.0
  0
LINE
  5
1B2
330
1F
100
AcDbEntity
  8
0
  6
Continuous
 62
     7
370
    15
100
AcDbLine
 10
246.0745465202
 20
36.8600151057
 30
0.0
 11
245.6411132727
 21
37.1102714638
 31
0.0
  0
LINE
  5
1B3
330
1F
100
AcDbEntity
  8
0
  6
Continuous
 62
     7
370
    15
100
AcDbLine
 10
249.3033946187
 20
34.9960407742
 30
0.0
 11
246.0745465202
 21
36.8600151057
 31
0.0
  0
SPLINE
  5
1B4
330
1F
100
AcDbEntity
  8
0
  6
Continuous
 62
     7
370
    15
100
AcDbSpline
210
0.0
220
0.0
230
1.0
 70
     8
 71
     3
 72
    11
 73
     7
 74
     0
 42
0.000000001
 43
0.00000001
 40
0.0
 40
0.0
 40
0.0
 40
0.0
 40
0.2157984249344531
 40
0.5236600154156212
 40
0.8315591628062389
 40
1.0
 40
1.0
 40
1.0
 40
1.0
 10
248.1796114415372
 20
32.84618915986321
 30
0.0
 10
248.1748952389804
 20
33.05257997568327
 30
0.0
 10
248.1634508241087
 20
33.55341133173603
 30
0.0
 10
248.0982336527634
 20
34.37222292886615
 30
0.0
 10
248.0574702758538
 20
35.13594782120058
 30
0.0
 10
248.0790136817617
 20
35.57264355017929
 30
0.0
 10
248.0866317475227
 20
35.72706559445149
 30
0.0
  0
LINE
  5
1B5
330
1F
100
AcDbEntity
  8
0
  6
Continuous
 62
     7
370
    15
100
AcDbLine
 10
248.1796114415
 20
32.4258338045
 30
0.0
 11
248.1796114415
 21
32.8461891599
 31
0.0
  0
LINE
  5
1B6
330
1F
100
AcDbEntity
  8
0
  6
Continuous
 62
     7
370
    15
100
AcDbLine
 10
247.5697318428
 20
35.6612026195
 30
0.0
 11
247.5749197375
 21
35.9938680838
 31
0.0
  0
ARC
  5
1B7
330
1F
100
AcDbEntity
  8
0
  6
Continuous
 62
     7
370
    15
100
AcDbCircle
 10
255.1092573126
 20
35.4841828986
 30
0.0
 40
7.541603297121102
100
AcDbArc
 50
178.6550055644
 51
203.2406243607
  0
LWPOLYLINE
  5
1B8
330
1F
100
AcDbEntity
  8
0
  6
Continuous
 62
     7
370
    15
100
AcDbPolyline
 90
        3
 70
   128
 43
0.0
 10
235.3903664033
 20
59.1049090233
 10
235.3964380345
 20
59.1029458669
 10
235.4629784625
 20
59.0801555269
  0
LINE
  5
1B9
330
1F
100
AcDbEntity
  8
0
  6
Continuous
 62
     7
370
    15
100
AcDbLine
 10
251.7773385326
 20
28.7117385588
 30
0.0
 11
251.7866611835
 21
28.7063567069
 31
0.0
  0
ARC
  5
1BA
330
1F
100
AcDbEntity
  8
0
  6
Continuous
 62
     7
370
    15
100
AcDbCircle
 10
254.5964882573
 20
29.3501141031
 30
0.0
 40
5.909903261159814
100
AcDbArc
 50
192.6330051264
 51
260.539101522
  0
SPLINE
  5
1BB
330
1F
100
AcDbEntity
  8
0
  6
Continuous
 62
     7
370
    15
100
AcDbSpline
210
0.0
220
0.0
230
1.0
 70
     8
 71
     3
 72
     8
 73
     4
 74
     0
 42
0.000000001
 43
0.00000001
 40
0.0
 40
0.0
 40
0.0
 40
0.0
 40
0.0012389803509652
 40
0.0012389803509652
 40
0.0012389803509652
 40
0.0012389803509652
 10
249.3033946187447
 20
28.42288723850488
 30
0.0
 10
249.1456497185463
 20
28.30081078797016
 30
0.0
 10
248.9877315395802
 20
28.17905348496934
 30
0.0
 10
248.8296582045992
 20
28.0575864634249
 30
0.0
  0
SPLINE
  5
1BC
330
1F
100
AcDbEntity
  8
0
  6
Continuous
 62
     7
370
    15
100
AcDbSpline
210
0.0
220
0.0
230
1.0
 70
     8
 71
     3
 72
     8
 73
     4
 74
     0
 42
0.000000001
 43
0.00000001
 40
0.0
 40
0.0
 40
0.0
 40
0.0
 40
1.0
 40
1.0
 40
1.0
 40
1.0
 10
249.3033946187447
 20
28.42288723850488
 30
0.0
 10
249.9973752016863
 20
28.53689901977749
 30
0.0
 10
250.6910082624483
 20
28.65165977229785
 30
0.0
 10
251.3840657810212
 20
28.7675190976708
 30
0.0
  0
SPLINE
  5
1BD
330
1F
100
AcDbEntity
  8
0
  6
Continuous
 62
     7
370
    15
100
AcDbSpline
210
0.0
220
0.0
230
1.0
 70
     8
 71
     3
 72
    12
 73
     8
 74
     0
 42
0.000000001
 43
0.00000001
 40
0.0
 40
0.0
 40
0.0
 40
0.0
 40
0.2499999999999984
 40
0.2499999999999984
 40
0.4999999999999968
 40
0.4999999999999968
 40
1.0
 40
1.0
 40
1.0
 40
1.0
 10
251.3840657810212
 20
28.7675190976708
 30
0.0
 10
251.4178542969453
 20
28.77316756775505
 30
0.0
 10
251.4534260730142
 20
28.7764280312705
 30
0.0
 10
251.5240083194067
 20
28.77756562081862
 30
0.0
 10
251.5590312778556
 20
28.77554900436059
 30
0.0
 10
251.6632365731206
 20
28.761173267021
 30
0.0
 10
251.7269470050602
 20
28.74082896838859
 30
0.0
 10
251.7773385325731
 20
28.71173855876215
 30
0.0
  0
LINE
  5
1BE
330
1F
100
AcDbEntity
  8
0
  6
Continuous
 62
     7
370
    15
100
AcDbLine
 10
246.0745465202
 20
30.28686157
 30
0.0
 11
249.3033946187
 21
28.4228872385
 31
0.0
  0
LINE
  5
1BF
330
1F
100
AcDbEntity
  8
0
  6
Continuous
 62
     7
370
    15
100
AcDbLine
 10
246.0745465202
 20
30.28686157
 30
0.0
 11
247.9674794072
 21
31.3796284654
 31
0.0
  0
LINE
  5
1C0
330
1F
100
AcDbEntity
  8
0
  6
Continuous
 62
     7
370
    15
100
AcDbLine
 10
245.6411132727
 20
30.0366052118
 30
0.0
 11
246.0745465202
 21
30.28686157
 31
0.0
  0
LINE
  5
1C1
330
1F
100
AcDbEntity
  8
0
  6
Continuous
 62
     7
370
    15
100
AcDbLine
 10
248.8296582046
 20
28.0575864634
 30
0.0
 11
245.7979378803
 21
29.8077613531
 31
0.0
  0
SPLINE
  5
1C2
330
1F
100
AcDbEntity
  8
0
  6
Continuous
 62
     7
370
    15
100
AcDbSpline
210
0.0
220
0.0
230
1.0
 70
     8
 71
     3
 72
     8
 73
     4
 74
     0
 42
0.000000001
 43
0.00000001
 40
0.0
 40
0.0
 40
0.0
 40
0.0
 40
1.0
 40
1.0
 40
1.0
 40
1.0
 10
245.7979378802619
 20
29.80776135314483
 30
0.0
 10
245.7179130807472
 20
29.85395868656679
 30
0.0
 10
245.6634362833653
 20
29.93714620893149
 30
0.0
 10
245.6411132727008
 20
30.03660521177262
 30
0.0
  0
ARC
  5
1C3
330
1F
100
AcDbEntity
  8
0
  6
Continuous
 62
     7
370
    15
100
AcDbCircle
 10
251.3307024264
 20
30.6266193028
 30
0.0
 40
5.413065729347653
100
AcDbArc
 50
222.5529287278
 51
239.8726429758
  0
ELLIPSE
  5
1C4
330
1F
100
AcDbEntity
  8
0
  6
Continuous
 62
     7
370
    15
100
AcDbEllipse
 10
247.7331648321
 20
32.1681280399
 30
0.0
 11
-6.005970385558612E-5
 21
0.8534489614827264
 31
0.0
210
0.0
220
0.0
230
1.0
 40
0.7174342186
 41
3.534193645557449
 42
5.104989972352361
  0
ELLIPSE
  5
1C5
330
1F
100
AcDbEntity
  8
0
  6
Continuous
 62
     7
370
    15
100
AcDbEllipse
 10
247.6139260166
 20
32.0992705597
 30
0.0
 11
0.2600075789209199
 21
0.9705436209909377
 31
0.0
210
0.0
220
0.0
230
1.0
 40
0.5176380889
 41
3.619174351347715
 42
5.189970678142605
  0
LWPOLYLINE
  5
1C6
330
1F
100
AcDbEntity
  8
0
  6
Continuous
 62
     7
370
     0
100
AcDbPolyline
 90
       10
 70
   128
 43
0.0
 10
256.3113394252
 20
28.4615035834
 10
256.3553646462
 20
27.4196831444
 10
256.48704161
 20
26.4381280307
 10
256.7051778295
 20
25.5257273577
 10
257.0077978295
 20
24.6907439669
 10
257.3921610363
 20
23.9407395974
 10
257.8547865973
 20
23.2825064048
 10
258.3914849036
 20
22.7220054508
 10
258.9973955324
 20
22.2643127189
 10
259.1596163796
 20
22.1661374944
  0
LWPOLYLINE
  5
1C7
330
1F
100
AcDbEntity
  8
0
  6
Continuous
 62
     7
370
     0
100
AcDbPolyline
 90
       26
 70
   128
 43
0.0
 10
272.9084989534
 20
45.9824812099
 10
272.4010840699
 20
46.235045559
 10
271.6737875622
 20
46.4756556224
 10
270.8954167872
 20
46.6039571735
 10
270.0730207911
 20
46.6187882937
 10
269.2140473196
 20
46.52001467
 10
268.3262753693
 20
46.3085308117
 10
267.4177447406
 20
45.9862519493
 10
266.4966832274
 20
45.5560966902
 10
265.5714321056
 20
45.021960587
 10
264.6503705924
 20
44.3886808588
 10
263.7418399637
 20
43.6619925851
 10
262.8540680134
 20
42.8484767674
 10
261.9950945419
 20
41.9555007308
 10
261.1726985458
 20
40.9911514047
 10
260.3943277708
 20
39.9641620858
 10
259.667031263
 20
38.8838333485
 10
258.9973955324
 20
37.7599488172
 10
258.3914849036
 20
36.6026865641
 10
257.8547865973
 20
35.4225269354
 10
257.3921610363
 20
34.2301576396
 10
257.0077978295
 20
33.0363769575
 10
256.7051778295
 20
31.8519959519
 10
256.48704161
 20
30.6877405606
 10
256.3553646462
 20
29.5541544606
 10
256.3113394252
 20
28.4615035834
  0
LWPOLYLINE
  5
1C8
330
1F
100
AcDbEntity
  8
0
  6
Continuous
 62
     7
370
     0
100
AcDbPolyline
 90
       33
 70
   128
 43
0.0
 10
254.1900190816
 20
28.4615035834
 10
254.2334297929
 20
29.6027749031
 10
254.363312409
 20
30.7849783176
 10
254.5786211917
 20
31.9985954199
 10
254.8776226011
 20
33.233854879
 10
255.2579092537
 20
34.4808111118
 10
255.716419305
 20
35.72942436
 10
256.2494611017
 20
36.969641524
 10
256.8527429047
 20
38.1914771042
 10
257.5214074435
 20
39.3850935992
 10
258.2500710246
 20
40.5408807106
 10
259.0328668771
 20
41.6495327203
 10
259.8634923892
 20
42.7021234142
 10
260.7352598526
 20
43.6901779509
 10
261.6411503083
 20
44.6057410962
 10
262.573870059
 20
45.441441274
 10
263.5259093938
 20
46.1905499179
 10
264.4896030516
 20
46.8470356456
 10
265.4571919378
 20
47.40561282
 10
266.4208855957
 20
47.861784106
 10
267.3729249304
 20
48.2118766809
 10
268.3056446811
 20
48.4530718049
 10
269.2115351369
 20
48.5834275167
 10
270.0833026003
 20
48.6018942689
 10
270.9139281123
 20
48.508323378
 10
271.6967239649
 20
48.3034682218
 10
272.4253875459
 20
47.9889781735
 10
273.0940520847
 20
47.5673853221
 10
273.6973338877
 20
47.0420840853
 10
274.2303756844
 20
46.4173038799
 10
274.6888857357
 20
45.6980750687
 10
275.0691723884
 20
44.8901884591
 10
275.1458332469
 20
44.6908956144
  0
LWPOLYLINE
  5
1C9
330
1F
100
AcDbEntity
  8
0
  6
Continuous
 62
     7
370
     0
100
AcDbPolyline
 90
       15
 70
   128
 43
0.0
 10
261.3969506732
 20
20.874551899
 10
260.7352598526
 20
20.7898033554
 10
259.8634923892
 20
20.7713366032
 10
259.0328668771
 20
20.8649074941
 10
258.2500710246
 20
21.0697626503
 10
257.5214074435
 20
21.3842526986
 10
256.8527429047
 20
21.80584555
 10
256.2494611017
 20
22.3311467868
 10
255.716419305
 20
22.9559269922
 10
255.2579092537
 20
23.6751558034
 10
254.8776226011
 20
24.483042413
 10
254.5786211917
 20
25.3730821929
 10
254.363312409
 20
26.3381090662
 10
254.2334297929
 20
27.370353204
 10
254.1900190816
 20
28.4615035834
  0
LWPOLYLINE
  5
1CA
330
1F
100
AcDbEntity
  8
0
  6
Continuous
 62
     7
370
     0
100
AcDbPolyline
 90
       26
 70
   128
 43
0.0
 10
253.4829123004
 20
28.4615035834
 10
253.5264930961
 20
29.6232761484
 10
253.6568944044
 20
30.8262735836
 10
253.8730956581
 20
32.061080803
 10
254.1734047895
 20
33.3180337657
 10
254.5554714722
 20
34.5872951108
 10
255.0163055166
 20
35.8589311471
 10
255.5523002714
 20
37.1229895987
 10
256.159260851
 20
38.3695774941
 10
256.8324369657
 20
39.588938593
 10
257.5665600999
 20
40.7715297415
 10
258.3558847446
 20
41.9080955604
 10
259.1942333643
 20
42.9897408812
 10
260.0750447444
 20
44.0080003626
 10
260.9914253415
 20
44.9549047438
 10
261.936203235
 20
45.8230432139
 10
262.9019842569
 20
46.6056214125
 10
263.8812098613
 20
47.296514604
 10
264.8662162801
 20
47.8903156125
 10
265.8492945026
 20
48.3823771399
 10
266.8227506088
 20
48.7688481377
 10
267.7789659847
 20
49.0467039464
 10
268.7104569487
 20
49.2137699674
 10
269.6099333209
 20
49.2687386827
 10
270.4703554791
 20
49.2111798875
 10
271.0391096479
 20
49.1057307038
  0
ARC
  5
1CB
330
1F
100
AcDbEntity
  8
0
  6
Continuous
 62
     7
370
     0
100
AcDbCircle
 10
262.6670540466
 20
28.0075189168
 30
0.0
 40
9.195355441290683
100
AcDbArc
 50
177.1700948069
 51
218.912540029
  0
LINE
  5
1CC
330
1F
100
AcDbEntity
  8
0
  6
Continuous
 62
     7
370
     0
100
AcDbLine
 10
272.5571177229
 20
18.0410301383
 30
0.0
 11
273.9713312853
 21
17.2246220264
 31
0.0
  0
LWPOLYLINE
  5
1CD
330
1F
100
AcDbEntity
  8
0
  6
Continuous
 62
     7
370
     0
100
AcDbPolyline
 90
       20
 70
   128
 43
0.0
 10
251.384065781
 20
35.3406726334
 10
251.7040444096
 20
36.5294051072
 10
252.1071012149
 20
37.7253821149
 10
252.5894113962
 20
38.9172544527
 10
253.1463980791
 20
40.0937118683
 10
253.7727757479
 20
41.2435903888
 10
254.4626004023
 20
42.3559782615
 10
255.2093259628
 20
43.4203195003
 10
256.00586639
 20
44.4265140572
 10
256.8446629267
 20
45.3650136657
 10
257.7177558275
 20
46.2269124498
 10
258.616859892
 20
47.0040314354
 10
259.5334430874
 20
47.6889961651
 10
260.4588075129
 20
48.2753066775
 10
261.3841719384
 20
48.7573991891
 10
262.3007551337
 20
49.130698891
 10
263.1998591982
 20
49.3916633621
 10
264.072952099
 20
49.5378161843
 10
264.9117486358
 20
49.567770443
 10
265.003312901
 20
49.5638607164
  0
LWPOLYLINE
  5
1CE
330
1F
100
AcDbEntity
  8
0
  6
Continuous
 62
     7
370
     0
100
AcDbPolyline
 90
       23
 70
   128
 43
0.0
 10
245.7979378803
 20
37.0197497847
 10
246.1167094663
 20
38.2834955028
 10
246.5170827547
 20
39.5574818968
 10
246.9959076285
 20
40.8316853063
 10
247.549416718
 20
42.0960803632
 10
248.1732550416
 20
43.3407188715
 10
248.8625142711
 20
44.5558080783
 10
249.6117713497
 20
45.7317877233
 10
250.4151311607
 20
46.8594052582
 10
251.2662729098
 20
47.9297886453
 10
252.1584998568
 20
48.9345161624
 10
253.0847920052
 20
49.8656826643
 10
254.0378613354
 20
50.7159617801
 10
255.0102091462
 20
51.4786635567
 10
255.9941850542
 20
52.1477870953
 10
256.9820471868
 20
52.7180677657
 10
257.9660230948
 20
53.1850186285
 10
258.9383709055
 20
53.5449657379
 10
259.8914402357
 20
53.7950770483
 10
260.8177323842
 20
53.9333846966
 10
261.7099593311
 20
53.9588004852
 10
262.5611010802
 20
53.871124444
 10
262.8687601169
 20
53.8090981611
  0
LWPOLYLINE
  5
1CF
330
1F
100
AcDbEntity
  8
0
  6
Continuous
 62
     7
370
     0
100
AcDbPolyline
 90
       18
 70
   128
 43
0.0
 10
251.7773385326
 20
35.2848920944
 10
252.0952651805
 20
36.4521524259
 10
252.4942726152
 20
37.6259990113
 10
252.9706027059
 20
38.7953757434
 10
253.5197690428
 20
39.9492686147
 10
254.1365991936
 20
41.076809456
 10
254.815283421
 20
42.1673782997
 10
255.5494294026
 20
43.2107034063
 10
256.3321224386
 20
44.1969580108
 10
257.155990579
 20
45.1168528783
 10
258.0132740578
 20
45.9617237959
 10
258.8958983803
 20
46.7236131791
 10
259.7955503738
 20
47.3953450212
 10
260.7037564872
 20
47.9705924822
 10
261.6119626005
 20
48.4439374797
 10
262.511614594
 20
48.8109217196
 10
263.3942389165
 20
49.068088688
 10
264.138247628
 20
49.2001484681
  0
LINE
  5
1D0
330
1F
100
AcDbEntity
  8
0
  6
Continuous
 62
     7
370
     0
100
AcDbLine
 10
251.7866611835
 20
28.7063567069
 30
0.0
 11
252.1924424248
 21
28.9406092313
 31
0.0
  0
LWPOLYLINE
  5
1D1
330
1F
100
AcDbEntity
  8
0
  6
Continuous
 62
     7
370
     0
100
AcDbPolyline
 90
        3
 70
   128
 43
0.0
 10
252.7523168422
 20
28.681618653
 10
252.6866633357
 20
28.7052320584
 10
252.1924424248
 20
28.9406092313
  0
ARC
  5
1D2
330
1F
100
AcDbEntity
  8
0
  6
Continuous
 62
     7
370
     0
100
AcDbCircle
 10
251.5049443508
 20
29.9969298376
 30
0.0
 40
1.260343931250924
100
AcDbArc
 50
303.0577786045
 51
346.243819488
  0
LINE
  5
1D3
330
1F
100
AcDbEntity
  8
0
  6
Continuous
 62
     7
370
     0
100
AcDbLine
 10
248.2988502571
 20
32.4946912846
 30
0.0
 11
252.6864397641
 21
29.9617897765
 31
0.0
  0
LINE
  5
1D4
330
1F
100
AcDbEntity
  8
0
  6
Continuous
 62
     7
370
     0
100
AcDbLine
 10
248.1796114415
 20
32.4258338045
 30
0.0
 11
248.2988502571
 21
32.4946912846
 31
0.0
  0
LINE
  5
1D5
330
1F
100
AcDbEntity
  8
0
  6
Continuous
 62
     7
370
     0
100
AcDbLine
 10
247.9232852334
 20
35.4571005916
 30
0.0
 11
247.9284731281
 21
35.7897660558
 31
0.0
  0
ARC
  5
1D6
330
1F
100
AcDbEntity
  8
0
  6
Continuous
 62
     7
370
     0
100
AcDbCircle
 10
256.4012803103
 20
35.3734129261
 30
0.0
 40
8.478408114113087
100
AcDbArc
 50
179.4344424297
 51
193.3052282553
  0
LWPOLYLINE
  5
1D7
330
1F
100
AcDbEntity
  8
0
  6
Continuous
 62
     7
370
     0
100
AcDbPolyline
 90
       17
 70
   128
 43
0.0
 10
228.0777693351
 20
50.7559800392
 10
228.1218533105
 20
51.5094267245
 10
228.2532471922
 20
52.2991067017
 10
228.4693935477
 20
53.1096497482
 10
228.7660853341
 20
53.9252795657
 10
229.1375477834
 20
54.7301208474
 10
229.5765508013
 20
55.5085082735
 10
230.0745496936
 20
56.2452914179
 10
230.6218514782
 20
56.9261296349
 10
231.2078035485
 20
57.537771183
 10
231.821001014
 20
58.0683111553
 10
232.4495086834
 20
58.5074231945
 10
233.08109337
 20
58.8465604845
 10
233.7034619961
 20
59.0791221036
 10
234.3045008645
 20
59.2005815043
 10
234.8725114372
 20
59.2085746177
 10
235.3903664033
 20
59.1049090233
  0
ARC
  5
1D8
330
1F
100
AcDbEntity
  8
0
  6
Continuous
 62
     7
370
     0
100
AcDbCircle
 10
231.5717947433
 20
50.5159076252
 30
0.0
 40
3.502263313440185
100
AcDbArc
 50
176.0694185984
 51
224.9117477784
  0
LINE
  5
1D9
330
1F
100
AcDbEntity
  8
0
  6
Continuous
 62
     7
370
     0
100
AcDbLine
 10
282.4566126596
 20
23.755886921
 30
0.0
 11
283.8708262219
 21
22.9394788092
 31
0.0
  0
LWPOLYLINE
  5
1DA
330
1F
100
AcDbEntity
  8
0
  6
Continuous
 62
     7
370
     0
100
AcDbPolyline
 90
        3
 70
   128
 43
0.0
 10
252.2672620264
 20
27.575314476
 10
252.0952651805
 20
27.9115485217
 10
251.7773385326
 20
28.7117385588
  0
ARC
  5
1DB
330
1F
100
AcDbEntity
  8
0
  6
Continuous
 62
     7
370
     0
100
AcDbCircle
 10
257.4027796348
 20
30.6333244229
 30
0.0
 40
6.301281295524597
100
AcDbArc
 50
197.2234711962
 51
213.8726679638
  0
LINE
  5
1DC
330
1F
100
AcDbEntity
  8
0
  6
Continuous
 62
     7
370
     0
100
AcDbLine
 10
252.1924424248
 20
28.9406092313
 30
0.0
 11
247.9674794072
 21
31.3796284654
 31
0.0
  0
ARC
  5
1DD
330
1F
100
AcDbEntity
  8
0
  6
Continuous
 62
     7
370
     0
100
AcDbCircle
 10
252.6289983362
 20
31.6810449344
 30
0.0
 40
7.083260430626459
100
AcDbArc
 50
195.3352418649
 51
221.7338662233
  0
OLE2FRAME
  5
1DE
330
1F
100
AcDbEntity
  8
0
100
AcDbOle2Frame
 70
     2
  3
Paintbrush-Bild
 10
13.8511154363
 20
38.264191557
 30
0.0
 11
51.6290888628
 21
31.9806341108
 31
0.0
 71
     2
 72
     0
 73
     1
 90
    12928
310
80552BED0767C5B32B40DDAF6807D121434000000000000000006FFBDDFB85D0
310
4940DDAF6807D121434000000000000000006FFBDDFB85D04940416F4BD60AFB
310
3F4000000000000000002BED0767C5B32B40416F4BD60AFB3F40000000000000
310
0000000000000100000000010000010000000100000000000100000000320000
310
D0CF11E0A1B11AE1000000000000000000000000000000003E000300FEFF0900
310
0600000000000000000000000100000001000000000000000010000002000000
310
01000000FEFFFFFF0000000000000000FFFFFFFFFFFFFFFFFFFFFFFFFFFFFFFF
310
FFFFFFFFFFFFFFFFFFFFFFFFFFFFFFFFFFFFFFFFFFFFFFFFFFFFFFFFFFFFFFFF
310
FFFFFFFFFFFFFFFFFFFFFFFFFFFFFFFFFFFFFFFFFFFFFFFFFFFFFFFFFFFFFFFF
310
FFFFFFFFFFFFFFFFFFFFFFFFFFFFFFFFFFFFFFFFFFFFFFFFFFFFFFFFFFFFFFFF
310
FFFFFFFFFFFFFFFFFFFFFFFFFFFFFFFFFFFFFFFFFFFFFFFFFFFFFFFFFFFFFFFF
310
FFFFFFFFFFFFFFFFFFFFFFFFFFFFFFFFFFFFFFFFFFFFFFFFFFFFFFFFFFFFFFFF
310
FFFFFFFFFFFFFFFFFFFFFFFFFFFFFFFFFFFFFFFFFFFFFFFFFFFFFFFFFFFFFFFF
310
FFFFFFFFFFFFFFFFFFFFFFFFFFFFFFFFFFFFFFFFFFFFFFFFFFFFFFFFFFFFFFFF
310
FFFFFFFFFFFFFFFFFFFFFFFFFFFFFFFFFFFFFFFFFFFFFFFFFFFFFFFFFFFFFFFF
310
FFFFFFFFFFFFFFFFFFFFFFFFFFFFFFFFFFFFFFFFFFFFFFFFFFFFFFFFFFFFFFFF
310
FFFFFFFFFFFFFFFFFFFFFFFFFFFFFFFFFFFFFFFFFFFFFFFFFFFFFFFFFFFFFFFF
310
FFFFFFFFFFFFFFFFFFFFFFFFFFFFFFFFFFFFFFFFFFFFFFFFFFFFFFFFFFFFFFFF
310
FFFFFFFFFFFFFFFFFFFFFFFFFFFFFFFFFFFFFFFFFFFFFFFFFFFFFFFFFFFFFFFF
310
FFFFFFFFFFFFFFFFFFFFFFFFFFFFFFFFFFFFFFFFFFFFFFFFFFFFFFFFFFFFFFFF
310
FDFFFFFFFEFFFFFFFEFFFFFFFEFFFFFF05000000060000000700000008000000
310
090000000A0000000B0000000C0000000D0000000E0000000F00000010000000
310
11000000120000001300000014000000150000001600000017000000FEFFFFFF
310
FFFFFFFFFFFFFFFFFFFFFFFFFFFFFFFFFFFFFFFFFFFFFFFFFFFFFFFFFFFFFFFF
310
FFFFFFFFFFFFFFFFFFFFFFFFFFFFFFFFFFFFFFFFFFFFFFFFFFFFFFFFFFFFFFFF
310
FFFFFFFFFFFFFFFFFFFFFFFFFFFFFFFFFFFFFFFFFFFFFFFFFFFFFFFFFFFFFFFF
310
FFFFFFFFFFFFFFFFFFFFFFFFFFFFFFFFFFFFFFFFFFFFFFFFFFFFFFFFFFFFFFFF
310
FFFFFFFFFFFFFFFFFFFFFFFFFFFFFFFFFFFFFFFFFFFFFFFFFFFFFFFFFFFFFFFF
310
FFFFFFFFFFFFFFFFFFFFFFFFFFFFFFFFFFFFFFFFFFFFFFFFFFFFFFFFFFFFFFFF
310
FFFFFFFFFFFFFFFFFFFFFFFFFFFFFFFFFFFFFFFFFFFFFFFFFFFFFFFFFFFFFFFF
310
FFFFFFFFFFFFFFFFFFFFFFFFFFFFFFFFFFFFFFFFFFFFFFFFFFFFFFFFFFFFFFFF
310
FFFFFFFFFFFFFFFFFFFFFFFFFFFFFFFFFFFFFFFFFFFFFFFFFFFFFFFFFFFFFFFF
310
FFFFFFFFFFFFFFFFFFFFFFFFFFFFFFFFFFFFFFFFFFFFFFFFFFFFFFFFFFFFFFFF
310
FFFFFFFFFFFFFFFFFFFFFFFFFFFFFFFFFFFFFFFFFFFFFFFFFFFFFFFFFFFFFFFF
310
FFFFFFFFFFFFFFFFFFFFFFFFFFFFFFFFFFFFFFFFFFFFFFFFFFFFFFFFFFFFFFFF
310
FFFFFFFFFFFFFFFFFFFFFFFFFFFFFFFFFFFFFFFFFFFFFFFFFFFFFFFFFFFFFFFF
310
52006F006F007400200045006E00740072007900000000000000000000000000
310
0000000000000000000000000000000000000000000000000000000000000000
310
16000500FFFFFFFFFFFFFFFF020000000A00030000000000C000000000000046
310
000000000000000000000000B0387E829B15D20103000000C000000000000000
310
01004F006C006500000000000000000000000000000000000000000000000000
310
0000000000000000000000000000000000000000000000000000000000000000
310
0A000200FFFFFFFFFFFFFFFFFFFFFFFF00000000000000000000000000000000
310
0000000000000000000000000000000000000000000000001400000000000000
310
010043006F006D0070004F0062006A0000000000000000000000000000000000
310
0000000000000000000000000000000000000000000000000000000000000000
310
120002010100000003000000FFFFFFFF00000000000000000000000000000000
310
0000000000000000000000000000000000000000010000004D00000000000000
310
01004F006C006500310030004E00610074006900760065000000000000000000
310
0000000000000000000000000000000000000000000000000000000000000000
310
1A000200FFFFFFFFFFFFFFFFFFFFFFFF00000000000000000000000000000000
310
0000000000000000000000000000000000000000040000002426000000000000
310
FEFFFFFF02000000FEFFFFFFFFFFFFFFFFFFFFFFFFFFFFFFFFFFFFFFFFFFFFFF
310
FFFFFFFFFFFFFFFFFFFFFFFFFFFFFFFFFFFFFFFFFFFFFFFFFFFFFFFFFFFFFFFF
310
FFFFFFFFFFFFFFFFFFFFFFFFFFFFFFFFFFFFFFFFFFFFFFFFFFFFFFFFFFFFFFFF
310
FFFFFFFFFFFFFFFFFFFFFFFFFFFFFFFFFFFFFFFFFFFFFFFFFFFFFFFFFFFFFFFF
310
FFFFFFFFFFFFFFFFFFFFFFFFFFFFFFFFFFFFFFFFFFFFFFFFFFFFFFFFFFFFFFFF
310
FFFFFFFFFFFFFFFFFFFFFFFFFFFFFFFFFFFFFFFFFFFFFFFFFFFFFFFFFFFFFFFF
310
FFFFFFFFFFFFFFFFFFFFFFFFFFFFFFFFFFFFFFFFFFFFFFFFFFFFFFFFFFFFFFFF
310
FFFFFFFFFFFFFFFFFFFFFFFFFFFFFFFFFFFFFFFFFFFFFFFFFFFFFFFFFFFFFFFF
310
FFFFFFFFFFFFFFFFFFFFFFFFFFFFFFFFFFFFFFFFFFFFFFFFFFFFFFFFFFFFFFFF
310
FFFFFFFFFFFFFFFFFFFFFFFFFFFFFFFFFFFFFFFFFFFFFFFFFFFFFFFFFFFFFFFF
310
FFFFFFFFFFFFFFFFFFFFFFFFFFFFFFFFFFFFFFFFFFFFFFFFFFFFFFFFFFFFFFFF
310
FFFFFFFFFFFFFFFFFFFFFFFFFFFFFFFFFFFFFFFFFFFFFFFFFFFFFFFFFFFFFFFF
310
FFFFFFFFFFFFFFFFFFFFFFFFFFFFFFFFFFFFFFFFFFFFFFFFFFFFFFFFFFFFFFFF
310
FFFFFFFFFFFFFFFFFFFFFFFFFFFFFFFFFFFFFFFFFFFFFFFFFFFFFFFFFFFFFFFF
310
FFFFFFFFFFFFFFFFFFFFFFFFFFFFFFFFFFFFFFFFFFFFFFFFFFFFFFFFFFFFFFFF
310
FFFFFFFFFFFFFFFFFFFFFFFFFFFFFFFFFFFFFFFFFFFFFFFFFFFFFFFFFFFFFFFF
310
0100000200000000000000000000000000000000000000000000000000000000
310
0000000000000000000000000000000000000000000000000000000000000000
310
0100FEFF030A0000FFFFFFFF0A00030000000000C00000000000004607000000
310
5042727573680007000000504272757368000700000050427275736800F439B2
310
7100000000000000000000000000000000000000000000000000000000000000
310
0000000000000000000000000000000000000000000000000000000000000000
310
0000000000000000000000000000000000000000000000000000000000000000
310
0000000000000000000000000000000000000000000000000000000000000000
310
0000000000000000000000000000000000000000000000000000000000000000
310
0000000000000000000000000000000000000000000000000000000000000000
310
0000000000000000000000000000000000000000000000000000000000000000
310
0000000000000000000000000000000000000000000000000000000000000000
310
0000000000000000000000000000000000000000000000000000000000000000
310
0000000000000000000000000000000000000000000000000000000000000000
310
0000000000000000000000000000000000000000000000000000000000000000
310
0000000000000000000000000000000000000000000000000000000000000000
310
20260000424D0E260000000000003E00000028000000B40200006E0000000100
310
01000000000000000000130B0000130B00000200000002000000000000FFFFFF
310
FFFFFFFFFFFFFFFFFFFFFFFFFFFFFFFFFFFFFFFFFFFFFFFFFFFFFFFFFFFFFFFF
310
FFFFFFFFFFFFFFFFFFFFFFFFFFFFFFFFFFFFFFFFFFFFFFFFFFFFFFFFFFFFFFFF
310
FFFFFFFFFFFFFFFFFFFFFFFFFFFFFFFFFFFFFFFFFFFFFFFFF000FFFFFFFFFFFF
310
FFFFFFFFFFFFFFFFFFFFFFFFFFFFFFFFFFFFFFFFFFFFFFFFFFFFFFFFFFFFFFFF
310
FFFFFFFFFFFFFFFFFFFFFFFFFFFFFFFFFFFFFFFFFFFFFFFFFFFFFFFFFFFFFFFF
310
FFFFFFFFFFFFFFFFFFFFFFFFFFFFFFFFF000FFFFFFFFFFFFFFFFFFFFFFFFFFFF
310
FFFFFFFFFFFFFFFFFFFFFFFFFFFFFFFFFFFFFFFFFFFFFFFFFFFFFFFFFFFFFFFF
310
FFFFFFFFFFFFFFFFFFFFFFFFFFFFFFFFFFFFFFFFFFFFFFFFFFFFFFFFFFFFFFFF
310
FFFFFFFFFFFFFFFFF000FFFFFFFFFFFFFFFFFFFFFFFFFFFFFFFFFFFFFFFFFFFF
310
FFFFFFFFFFFFFFFFFFFFFFFFFFFFFFFFFFFFFFFFFFFFFFFFFFFFFFFFFFFFFFFF
310
FFFFFFFFFFFFFFFFFFFFFFFFFFFFFFFFFFFFFFFFFFFFFFFFFFFFFFFFFFFFFFFF
310
F000FFFFFFFFFFFFFFFFFFFFFFFFFFFFFFFFFFFFFFFFFFFFFFFFFFFFFFFFFFFF
310
FFFFFFFFFFFFFFFFFFFFFFFFFFFFFFFFFFFFFFFFFFFFFFFFFFFFFFFFFFFFFFFF
310
FFFFFFFFFFFFFFFFFFFFFFFFFFFFFFFFFFFFFFFFFFFFFFFFF000FFFFFFFFFFFF
310
FFFFFFFFFFFFFFFFFFFFFFFFFFFFFFFFFFFFFFFFFFFFFFFFFFFFFFFFFFFFFFFF
310
FFFFFFFFFFFFFFFFFFFFFFFFFFFFFFFFFFFFFFFFFFFFFFFFFFFFFFFFFFFFFFFF
310
FFFFFFFFFFFFFFFFFFFFFFFFFFFFFFFFF000FFFFFFFFFFFFFFFFFFFFFFFFFFFF
310
FFFFFFFFFFFFFFFFFFFFFFFFFFFFFFFFFFFFFFFFFFFFFFFFFFFFFFFFFFFFFFFF
310
FFFFFFFFFFFFFFFFFFFFFFFFFFFFFFFFFFFFFFFFFFFFFFFFFFFFFFFFFFFFFFFF
310
FFFFFFFFFFFFFFFFF000FFFFFFFFFFFFFFFFFFFFFFFFFFFFFFFFFFFFFFFFFFFF
310
FFFFFFFFFFFFFFFFFFFFFFFFFFFFFFFFFFFFFFFFFFFFFFFFFFFFFFFFFFFFFFFF
310
FFFFFFFFFFFFFFFFFFFFFFFFFFFFFFFFFFFFFFFFFFFFFFFFFFFFFFFFFFFFFFFF
310
F000FFFFFFFFFFFFFFFFFFFFFFFFFFFFFFFFFFFFFFFFFFFFFFFFFFFFFFFFFFFF
310
FFFFFFFFFFFFFFFFFFFFFFFFFFFFFFFFFFFFFFFFFFFFFFFFFFFFFFFFFFFFFFFF
310
FFFFFFFFFFFFFFFFFFFFFFFFFFFFFFFFFFFFFFFFFFFFFFFFF000FFFFFFFFFFFF
310
FFFFFFFFFFFFFFFFFFFFFFFFFFFFFFFFFFFFFFFFFFFFFFFFFFFFFFFFFFFFFFFF
310
FFFFFFFFFFFFFFFFFFFFFFFFFFFFFFFFFFFFFFFFFFFFFFFFFFFFFFFFFFFFFFFF
310
FFFFFFFFFFFFFFFFFFFFFFFFFFFFFFFFF000FFFFFFFFFFFFFFFFFFFFFFFFFFFF
310
FFFFFFFFFFFFFFFFFFFFFFFFFFFFFFFFFFFFFFFFFFFFFFFFFFFFFFFFFFFFFFFF
310
FFFFFFFFFFFFFFFFFFFFFFFFFFFFFFFFFFFFFFFFFFFFFFFFFFFFFFFFFFFFFFFF
310
FFFFFFFFFFFFFFFFF000FFFFFFFFFFFFFFFFFFFFFFFFFFFFFFFFFFFFFFFFFFFF
310
FFFFFFFFFFFFFFFFFFFFFFFFFFFFFFFFFFFFFFFFFFFFFFFFFFFFFFFFFFFFFFFF
310
FFFFFFFFFFFFFFFFFFFFFFFFFFFFFFFFFFFFFFFFFFFFFFFFFFFFFFFFFFFFFFFF
310
F000FFFFFFFFFFFFFFFFFFFFFFFFFFFFFFFFFFFFFFFFFFFFFFFFFFFFFFFFFFFF
310
FFFFFFFFFFFFFFFFFFFFFFFFFFFFFFFFFFFFFFFFFFFFFFFFFFFFFFFFFFFFFFFF
310
FFFFFFFFFFFFFFFFFFFFFFFFFFFFFFFFFFFFFFFFFFFFFFFFF000FFFFFFFFFFFF
310
FFFFFFFFFFFFFFFFFFFFFFFFFFFFFFFFFFFFFFFFFFFFFFFFFFFFFFFFFFFFFFFF
310
FFFFFFFFFFFFFFFFFFFFFFFFFFFFFFFFFFFFFFFFFFFFFFFFFFFFFFFFFFFFFFFF
310
FFFFFFFFFFFFFFFFFFFFFFFFFFFFFFFFF000FFFFFFFFFFFFFFFFFFFFFFFFFFFF
310
FFFFFFFFFFFFFFFFFFFFFFFFFFFFFFFFFFFFFFFFFFFFFFFFFFFFFFFFFFFFFFFF
310
FFFFFFFFFFFFFFFFFFFFFFFFFFFFFFFFFFFFFFFFFFFFFFFFFFFFFFFFFFFFFFFF
310
FFFFFFFFFFFFFFFFF000FFFFFFFFFFFFFFFFFFFFFFFFFFFFFFFFFFFFFFFFFFFF
310
FFFFFFFFFFFFFFFFFFFFFFFFFFFFFFFFFFFFFFFFFFFFFFFFFFFFFFFFFFFFFFFF
310
FFFFFFFFFFFFFFFFFFFFFFFFFFFFFFFFFFFFFFFFFFFFFFFFFFFFFFFFFFFFFFFF
310
F000FFFFFFFFFFFFFFFFFFFFFFFFFFFFFFFFFFFFFFFFFFFFFFFFFFFFFFFFFFFF
310
FFFFFFFFFFFFFFFFFFFFFFFFFFFFFFFFFFFFFFFFFFFFFFFFFFFFFFFFFFFFFFFF
310
FFFFFFFFFFFFFFFFFFFFFFFFFFFFFFFFFFFFFFFFFFFFFFFFF000FFFFFFFFFFFF
310
FFFFFFFFFFFFFFFFFFFFFFFFFFFFFFFFFFFFFFFFFFFFFFFFFFFFFFFFFFFFFFFF
310
FFFFFFFFFFFFFFFFFFFFFFFFFFFFFFFFFFFFFFFFFFFFFFFFFFFFFFFFFFFFFFFF
310
FFFFFFFFFFFFFFFFFFFFFFFFFFFFFFFFF000FFFFFFFFFFFFFFFFFFFFFFFFFFFF
310
FFFFFFFFFFFFFFFFFFFFFFFFFFFFFFFFFFFFFFFFFFFFFFFFFFFFFFFFFFFFFFFF
310
FFFFFFFFFFFFFFFFFFFFFFFFFFFFFFFFFFFFFFFFFFFFFFFFFFFFFFFFFFFFFFFF
310
FFFFFFFFFFFFFFFFF000FFFFF80003FFFFFFFFFFFFFFFFFFFFFFFFFFFFFFFFFF
310
FFFFF00007FFFFFFFFFF00007FFFFFF800000000000000007FFFFFFFFFFFFFFF
310
FFFFFFFC001FFFFFFFFFFFFFFC001FFFFFFFFFFFFFFFFFFFFFFFFFFE0007FFFF
310
F000FFFF8000007FFFFFFFF8000FFFFFC0007FFFFF80007FFFFF0000007FFFFF
310
FFF8000007FFFFF800000000000000007FFFFFF0001FFFFFFFFFFFC00001FFFF
310
FFFFFFFFC00001FFFFFFFF000000000003FFFFE000007FFFF000FFFE0000000F
310
FFFFFFF0000FFFFF80007FFFFF80007FFFFC0000001FFFFFFFC0000001FFFFF8
310
00000000000000007FFFFFF0001FFFFFFFFFFE0000003FFFFFFFFFFE0000003F
310
FFFFFF000000000003FFFF0000000FFFF000FFF800000003FFFFFFF00007FFFF
310
80007FFFFF80007FFFF000000007FFFFFF000000003FFFF80000000000000000
310
7FFFFFF0001FFFFFFFFFF80000000FFFFFFFFFF80000000FFFFFFF0000000000
310
03FFFC00000003FFF000FFE000000000FFFFFFF00007FFFF80003FFFFF80007F
310
FFC000000001FFFFFC000000001FFFF800000000000000007FFFFFF0001FFFFF
310
FFFFE000000003FFFFFFFFE000000003FFFFFF000000000003FFF000000000FF
310
F000FF80000000007FFFFFF00007FFFF80003FFFFF80007FFF8000000000FFFF
310
F80000000007FFF800000000000000007FFFFFF0001FFFFFFFFFC000000001FF
310
FFFFFFC000000001FFFFFF000000000003FFC0000000007FF000FF0000000000
310
3FFFFFE00007FFFF00003FFFFF80007FFE00000000003FFFF00000000003FFF8
310
00000000000000007FFFFFF0001FFFFFFFFF8000000000FFFFFFFF8000000000
310
FFFFFF000000000003FF80000000003FF000FE00000000001FFFFFE00003FFFF
310
00003FFFFF80007FFC00000000001FFFE00000000001FFF8000001FFFE000000
310
7FFFFFF0001FFFFFFFFE00000000003FFFFFFE00000000003FFFFF0000000000
310
03FF00000000001FF000FC00000000000FFFFFE00003FFFF00001FFFFF80007F
310
F800000000001FFFC00000000000FFF8000001FFFE0000007FFFFFF0001FFFFF
310
FFFC00000000001FFFFFFC00000000001FFFFF000000000003FE00000000000F
310
F000F8000000000007FFFFE00003FFFF00001FFFFF80007FF800000000000FFF
310
800000000000FFF8000001FFFE0000007FFFFFF0001FFFFFFFF800000000000F
310
FFFFF800000000000FFFFF000000000003FC000000000007F000F80000000000
310
03FFFFC00003FFFE00001FFFFF80007FF0000000000007FF0000000000007FF8
310
000001FFFE0000007FFFFFF0001FFFFFFFF0000000000007FFFFF00000000000
310
07FFFF000000000003F8000000000003F000F0000000000003FFFFC00001FFFE
310
00001FFFFF80007FE0000000000007FE0000000000003FF8000001FFFE000000
310
7FFFFFF0001FFFFFFFF0000000000007FFFFF0000000000007FFFF0000000000
310
03F800001F800003F000E00001FFF00001FFFFC00001FFFE00000FFFFF80007F
310
E00001FFE00003FE00001FFF00003FF8000001FFFE0000007FFFFFF0001FFFFF
310
FFE000003E000003FFFFE000003E000003FFFF000000000003F00001FFF80001
310
F000E00007FFFC0001FFFFC00001FFFE00000FFFFF80007FC0000FFFFC0003FC
310
0000FFFFC0001FF8000001FFFE0000007FFFFFF0001FFFFFFFC00003FFE00001
310
FFFFC00003FFE00001FFFF0001FFFFFFFFF00007FFFE0001F000E0000FFFFF00
310
00FFFF800001FFFC00000FFFFF80007FC0001FFFFE0001FC0001FFFFE0001FF8
310
000001FFFE0000007FFFFFF0001FFFFFFF80000FFFF80000FFFF80000FFFF800
310
00FFFF0003FFFFFFFFE0000FFFFF8000F000C0003FFFFF8000FFFF800000FFFC
310
000007FFFF80007F80003FFFFF0001FC0003FFFFF0001FF8000001FFFE000000
310
7FFFFFF0001FFFFFFF80003FFFFE0000FFFF80003FFFFE0000FFFF0003FFFFFF
310
FFE0003FFFFF8000F000C0003FFFFF8000FFFF800000FFFC000007FFFF80007F
310
80007FFFFF8001F80007FFFFF8000FF8000001FFFE0000007FFFFFF0001FFFFF
310
FF00007FFFFF00007FFF00007FFFFF00007FFF0003FFFFFFFFE0003FFFFFC000
310
F000C0007FFFFFC000FFFF000000FFFC000007FFFF80007F8000FFFFFF8000F8
310
000FFFFFF8000FF8000001FFFE0000007FFFFFF0001FFFFFFF0000FFFFFF8000
310
7FFF0000FFFFFF80007FFF0003FFFFFFFFC0007FFFFFC00070008000FFFFFFC0
310
00FFFF000000FFF8000007FFFF80007F8000FFFFFF8000F8000FFFFFF8000FF8
310
000001FFFE0000007FFFFFF0001FFFFFFE0001FFFFFFC0003FFE0001FFFFFFC0
310
003FFF0003FFFFFFFFC0007FFFFFE00070008000FFFFFFC0007FFF0000007FF8
310
000003FFFF80007F0001FFFFFF8000F8000FFFFFF8000FF8000001FFFE000000
310
7FFFFFF0001FFFFFFE0001FFFFFFC0003FFE0001FFFFFFC0003FFF0003FFFFFF
310
FFC000FFFFFFE00070008000FFFFFFC0007FFF0000007FF8000003FFFF80007F
310
0001FFFFFF8000F8001FFFFFF8000FF8000001FFFE0000007FFFFFF0001FFFFF
310
FE0003FFFFFFE0003FFE0003FFFFFFE0003FFF0003FFFFFFFFC000FFFFFFE000
310
70008000FFFFFFC0007FFE0000007FF8000003FFFF80007F0001FFFFFF8000F0
310
001FFFFFF8000FF8000001FFFE0000007FFFFFF0001FFFFFFC0003FFFFFFE000
310
1FFC0003FFFFFFE0001FFF0003FFFFFFFFC000FFFFFFC00070008000FFFFFF80
310
007FFE0000007FF0000003FFFF80007F0001FFFFFF0000F0001FFFFFF8000FF8
310
000001FFFE0000007FFFFFF0001FFFFFFC0007FFFFFFF0001FFC0007FFFFFFF0
310
001FFF0003FFFFFFFFC000FFFFFFC00070008001FFFFFF0000FFFE0000003FF0
310
000001FFFF80007F0001FFFFFF0000F8001FFFFFF0000FF8000001FFFE000000
310
7FFFFFF0001FFFFFFC0007FFFFFFF0001FFC0007FFFFFFF0001FFF0003FFFFFF
310
FFC001FFFFFF80007000FFFFFFFFFE0000FFFE0008003FF0008001FFFF80007F
310
FFFFFFFFFC0000FFFFFFFFFFE0000FF8000001FFFE0000007FFFFFF0001FFFFF
310
F8000FFFFFFFF8000FF8000FFFFFFFF8000FFF0003FFFFFFFFFFFFFFFFFF0000
310
7000FFFFFFFFFC0000FFFC0008003FF0008001FFFF80007FFFFFFFFFF80001FF
310
FFFFFFFF80000FF8000001FFFE0000007FFFFFF0001FFFFFF8000FFFFFFFF800
310
0FF8000FFFFFFFF8000FFF0003FFFFFFFFFFFFFFFFFE0000F000FFFFFFFFE000
310
00FFFC000C003FE000C001FFFF80007FFFFFFFFFC00001FFFFFFFFFE00001FF8
310
000001FFFE0000007FFFFFF0001FFFFFF8000FFFFFFFF8000FF8000FFFFFFFF8
310
000FFF0003FFFFFFFFFFFFFFFFF00000F000FFFFFFFE000001FFFC000C001FE0
310
00C000FFFF80007FFFFFFFFE000001FFFFFFFFE000001FF80FFFFFFFFFFFFFC0
310
7FFFFFF0001FFFFFF8000FFFFFFFF8000FF8000FFFFFFFF8000FFF0003FFFFFF
310
FFFFFFFFFF800000F000FFFFFFC0000001FFFC001C001FE001C000FFFF80007F
310
FFFFFF80000003FFFFFFF80000001FF80FFFFFFFFFFFFFC07FFFFFF0001FFFFF
310
F8001FFFFFFFFC000FF8001FFFFFFFFC000FFF0003FFFFFFFFFFFFFFF0000001
310
F000FFFFF800000001FFF8001C001FE001C000FFFF80007FFFFFF800000003FF
310
FFFF800000003FF80FFFFFFFFFFFFFC07FFFFFF0001FFFFFF8001FFFFFFFFC00
310
0FF8001FFFFFFFFC000FFF0003FFFFFFFFFFFFFE00000001F000FFFFC0000000
310
03FFF8001E001FC001E000FFFF80007FFFFF8000000007FFFFFC000000003FF8
310
0FFFFFFFFFFFFFC07FFFFFF0001FFFFFF8001FFFFFFFFC000FF8001FFFFFFFFC
310
000FFF0003FFFFFFFFFFFFE000000003F000FFFE0000000007FFF8001E000FC0
310
01E0007FFF80007FFFFE0000000007FFFFE0000000007FF80FFFFFFFFFFFFFC0
310
7FFFFFF0001FFFFFF0001FFFFFFFFC0007F0001FFFFFFFFC0007FF0003FFFFFF
310
FFFFFF0000000003F000FFF80000000007FFF8001E000FC003E0007FFF80007F
310
FFF0000000000FFFFF8000000000FFF80FFFFFFFFFFFFFC07FFFFFF0001FFFFF
310
F0001FFFFFFFFC0007F0001FFFFFFFFC0007FF0003FFFFFFFFFFFC0000000007
310
F000FFE0000000000FFFF0003E000FC003E0007FFF80007FFFC0000000001FFF
310
FE0000000001FFF80FFFFFFFFFFFFFC07FFFFFF0001FFFFFF0001FFFFFFFFC00
310
07F0001FFFFFFFFC0007FF0003FFFFFFFFFFF0000000000FF000FFC000000000
310
1FFFF0003F000F8003F0003FFF80007FFF80000000003FFFF80000000003FFF8
310
0FFFFFFFFFFFFFC07FFFFFF0001FFFFFF0001FFFFFFFFC0007F0001FFFFFFFFC
310
0007FF0003FFFFFFFFFFE0000000001FF000FF00000000007FFFF0003F000780
310
03F0003FFF80007FFF00000000007FFFF00000000007FFF80FFFFFFFFFFFFFC0
310
7FFFFFF0001FFFFFF0001FFFFFFFFC0007F0001FFFFFFFFC0007FF0003FFFFFF
310
FFFF80000000007FF000FE0000000000FFFFE0003F00078007F0003FFF80007F
310
FE0000000001FFFFE0000000001FFFF80FFFFFFFFFFFFFC07FFFFFF0001FFFFF
310
F0001FFFFFFFFC0007F0001FFFFFFFFC0007FF0003FFFFFFFFFF0000000000FF
310
F000FC0000000003FFFFE0007F00078007F0003FFF80007FFC0000000007FFFF
310
C0000000007FFFF80FFFFFFFFFFFFFC07FFFFFF0001FFFFFF8001FFFFFFFFC00
310
0FF8001FFFFFFFFC000FFF0003FFFFFFFFFE0000000003FFF000FC000000000F
310
FFFFE0007F80070007F8001FFF80007FF8000000001FFFFF8000000001FFFFF8
310
0FFFFFFFFFFFFFC07FFFFFF0001FFFFFF8001FFFFFFFFC000FF8001FFFFFFFFC
310
000FFF0003FFFFFFFFFC000000000FFFF000F8000000007FFFFFE0007F800700
310
07F8001FFF80007FF000000000FFFFFF800000000FFFFFF80FFFFFFFFFFFFFC0
310
7FFFFFF0001FFFFFF8000FFFFFFFF8000FF8000FFFFFFFF8000FFF0003FFFFFF
310
FFFC000000007FFFF000F800000007FFFFFFC0007F8003000FF8001FFF80007F
310
F000000007FFFFFF000000007FFFFFF80FFFFFFFFFFFFFC07FFFFFF0001FFFFF
310
F8000FFFFFFFF8000FF8000FFFFFFFF8000FFF0003FFFFFFFFF80000000FFFFF
310
F000F0000000FFFFFFFFC000FF8003000FF8001FFF80007FE0000000FFFFFFFF
310
0000000FFFFFFFF8000001FFFE0000007FFFFFF0001FFFFFF8000FFFFFFFF800
310
0FF8000FFFFFFFF8000FFF0003FFFFFFFFF8000000FFFFFFF000F000000FFFFF
310
FFFFC000FFC002000FF8000FFF80007FE000001FFFFFFFFE000001FFFFFFFFF8
310
000001FFFE0000007FFFFFF0001FFFFFF8000FFFFFFFF8000FF8000FFFFFFFF8
310
000FFF0003FFFFFFFFF000001FFFFFFFF000E00000FFFFFFFFFFC000FFC00200
310
0FFC000FFF80007FE00001FFFFFFFFFE00001FFFFFFFFFF8000001FFFE000000
310
7FFFFFF0001FFFFFFC000FFFFFFFF8001FFC000FFFFFFFF8001FFF0003FFFFFF
310
FFF00001FFFFFFFFF000E00007FFFFFFFFFF8000FFC000001FFC000FFF80007F
310
C0000FFFFFFFFFFE0000FFFFFFFFFFF8000001FFFE0000007FFFFFF0001FFFFF
310
FC0007FFFFFFF0001FFC0007FFFFFFF0001FFF0003FFFFFFFFF00007FFFFFFFF
310
F000E0001FFFFFFFFFFF8000FFC000001FFC000FFF80007FC0003FFFFFFFFFFE
310
0001FFFFFFFFFFF8000001FFFE0000007FFFFFF0001FFFFFFC0007FFFFFFF000
310
1FFC0007FFFFFFF0001FFF0003FFFFFFFFF0001FFFFFFFFFF000E0003FFFFF00
310
03FF8001FFE000001FFC0007FF80007FC0007FFFFF0007FC0003FFFFF0003FF8
310
000001FFFE0000007FFFFFF0001FFFFFFC0003FFFFFFE0001FFC0003FFFFFFE0
310
001FFF0003FFFFFFFFF0003FFFFFFFFFF000E0003FFFFF0001FF8001FFE00000
310
1FFE0007FF80007FC0007FFFFE0003FC0007FFFFE0003FF8000001FFFE000000
310
7FFFFFF0001FFFFFFE0003FFFFFFE0003FFE0003FFFFFFE0003FFF0003FFFFFF
310
FFF0003FFFFF8001F000E0003FFFFF0001FF0001FFE000001FFE0007FF80007F
310
C0007FFFFE0003FC0007FFFFE0003FF8000001FFFE0000007FFFFFF0001FFFFF
310
FE0001FFFFFFC0003FFE0001FFFFFFC0003FFF0003FFFFFFFFF0003FFFFF0001
310
F000E0003FFFFF0003FF0001FFE000003FFE0007FF80007FC0007FFFFE0003FC
310
0007FFFFE0003FF8000001FFFE0000007FFFFFF0001FFFFFFF0001FFFFFFC000
310
7FFF0001FFFFFFC0007FFF0003FFFFFFFFF0003FFFFF0001F000E0003FFFFE00
310
03FF0003FFF000003FFE0003FF80007FC0007FFFFC0003FE0007FFFFE0003FF8
310
000001FFFE0000007FFFFFF0001FFFFFFF0000FFFFFF80007FFF0000FFFFFF80
310
007FFF0003FFFFFFFFF0003FFFFF0001F000E0003FFFFE0003FF0003FFF00000
310
3FFF0003FF80007FC0007FFFFC0007FE0007FFFFC0003FF8000001FFFE000000
310
7FFFFFF0001FFFFFFF80007FFFFF0000FFFF80007FFFFF0000FFFF0003FFFFFF
310
FFF0003FFFFF0003F000E0003FFFFC0003FE0003FFF000003FFF0003FF80007F
310
E0003FFFF80007FE0003FFFFC0007FF8000001FFFE0000007FFFFFF0001FFFFF
310
FF80003FFFFE0000FFFF80003FFFFE0000FFFF0003FFFFFFFFF0001FFFFE0003
310
F000F0001FFFF80003FE0003FFF000007FFF0001FF80007FE0003FFFF00007FE
310
0001FFFF80007FF8000001FFFE0000007FFFFFF0001FFFFFFFC0000FFFF80001
310
FFFFC0000FFFF80001FFFF0003FFFFFFFFF0001FFFFC0003F000F0000FFFF000
310
07FE0007FFF800007FFF0001FF80007FE0001FFFE00007FF0000FFFE00007FF8
310
000001FFFE0000007FFFFFF0001FFFFFFFC00003FFE00001FFFFC00003FFE000
310
01FFFF0003FFFFFFFFF8000FFFF80003F000F00003FFC00007FC0007FFF80000
310
7FFF8001FF80007FF00007FF80000FFF00007FF80000FFF8000001FFFE000000
310
7F80000000000001FFE000003E000003FFFFE000003E000003FFFF0003FFFFFF
310
FFF80003FFE00007F000F800000000000FFC0007FFF800007FFF8001FF80007F
310
F000000000000FFF000000000000FFF8000001FFFE0000007F80000000000001
310
FFF0000000000007FFFFF0000000000007FFFF0003FFFFFFFFFC00007E000007
310
F000F800000000000FFC0007FFF80000FFFF8000FF80007FF800000000001FFF
310
800000000001FFF8000001FFFE0000007F80000000000001FFF800000000000F
310
FFFFF800000000000FFFFF0003FFFFFFFFFC00000000000FF000FC0000000000
310
1FFC0007FFFC0000FFFF8000FF80007FF800000000003FFFC00000000001FFF8
310
000001FFFE0000007F80000000000001FFF800000000000FFFFFF80000000000
310
0FFFFF0003FFFFFFFFFE00000000001FF000FE00000000003FF8000FFFFC0000
310
FFFF8000FF80007FFC00000000003FFFC00000000003FFF8000001FFFE000000
310
7F80000000000001FFFC00000000001FFFFFFC00000000001FFFFF0003FFFFFF
310
FFFF00000000001FF000FF00000000003FF8000FFFFC0000FFFFC000FF80007F
310
FE00000000007FFFE00000000007FFF8000001FFFE0000007F80000000000001
310
FFFE00000000003FFFFFFE00000000003FFFFF0003FFFFFFFFFF80000000003F
310
F000FF80000000007FF8000FFFFC0001FFFFC0007F80007FFF0000000000FFFF
310
F0000000000FFFF800000000000000007F80000000000001FFFF8000000000FF
310
FFFFFF8000000000FFFFFF0003FFFFFFFFFFC0000000007FF000FFC000000000
310
FFF8000FFFFE0001FFFFC0007F80007FFF8000000001FFFFF8000000001FFFF8
310
00000000000000007F80000000000001FFFFC000000001FFFFFFFFC000000001
310
FFFFFF0003FFFFFFFFFFE000000000FFF000FFE000000003FFF0001FFFFE0001
310
FFFFC0007F80007FFFC000000007FFFFFE000000003FFFF80000000000000000
310
7F80000000000001FFFFE000000003FFFFFFFFE000000003FFFFFF0003FFFFFF
310
FFFFF000000003FFF000FFF80000000FFFF0001FFFFE0001FFFFE0007F80007F
310
FFF00000000FFFFFFF00000000FFFFF800000000000000007F80000000000001
310
FFFFF80000000FFFFFFFFFF80000000FFFFFFF0003FFFFFFFFFFFC0000000FFF
310
F000FFFE0000003FFFF0001FFFFE0003FFFFE0003F80007FFFFC0000003FFFFF
310
FFC0000003FFFFF800000000000000007F80000000000001FFFFFE0000003FFF
310
FFFFFFFE0000003FFFFFFF0003FFFFFFFFFFFF0000003FFFF000FFFF800000FF
310
FFF0001FFFFF0003FFFFE0003F80007FFFFF000001FFFFFFFFF800001FFFFFF8
310
00000000000000007F80000000000001FFFFFFC00001FFFFFFFFFFFFC00001FF
310
FFFFFF0003FFFFFFFFFFFFC00000FFFFF000FFFFF8000FFFFFFFFFFFFFFFFFFF
310
FFFFFFFFFFFFFFFFFFFFF0001FFFFFFFFFFF0000FFFFFFF80000000000000000
310
7FFFFFFFFFFFFFFFFFFFFFFC001FFFFFFFFFFFFFFC001FFFFFFFFFFFFFFFFFFF
310
FFFFFFFC001FFFFFF000FFFFFFFFFFFFFFFFFFFFFFFFFFFFFFFFFFFFFFFFFFFF
310
FFFFFFFFFFFFFFFFFFFFFFFFFFFFFFFFFFFFFFFFFFFFFFFFFFFFFFFFFFFFFFFF
310
FFFFFFFFFFFFFFFFFFFFFFFFFFFFFFFFFFFFFFFFFFFFFFFFFFFFFFFFFFFFFFFF
310
F000FFFFFFFFFFFFFFFFFFFFFFFFFFFFFFFFFFFFFFFFFFFFFFFFFFFFFFFFFFFF
310
FFFFFFFFFFFFFFFFFFFFFFFFFFFFFFFFFFFFFFFFFFFFFFFFFFFFFFFFFFFFFFFF
310
FFFFFFFFFFFFFFFFFFFFFFFFFFFFFFFFFFFFFFFFFFFFFFFFF000FFFFFFFFFFFF
310
FFFFFFFFFFFFFFFFFFFFFFFFFFFFFFFFFFFFFFFFFFFFFFFFFFFFFFFFFFFFFFFF
310
FFFFFFFFFFFFFFFFFFFFFFFFFFFFFFFFFFFFFFFFFFFFFFFFFFFFFFFFFFFFFFFF
310
FFFFFFFFFFFFFFFFFFFFFFFFFFFFFFFFF000FFFFFFFFFFFFFFFFFFFFFFFFFFFF
310
FFFFFFFFFFFFFFFFFFFFFFFFFFFFFFFFFFFFFFFFFFFFFFFFFFFFFFFFFFFFFFFF
310
FFFFFFFFFFFFFFFFFFFFFFFFFFFFFFFFFFFFFFFFFFFFFFFFFFFFFFFFFFFFFFFF
310
FFFFFFFFFFFFFFFFF000FFFFFFFFFFFFFFFFFFFFFFFFFFFFFFFFFFFFFFFFFFFF
310
FFFFFFFFFFFFFFFFFFFFFFFFFFFFFFFFFFFFFFFFFFFFFFFFFFFFFFFFFFFFFFFF
310
FFFFFFFFFFFFFFFFFFFFFFFFFFFFFFFFFFFFFFFFFFFFFFFFFFFFFFFFFFFFFFFF
310
F000FFFFFFFFFFFFFFFFFFFFFFFFFFFFFFFFFFFFFFFFFFFFFFFFFFFFFFFFFFFF
310
FFFFFFFFFFFFFFFFFFFFFFFFFFFFFFFFFFFFFFFFFFFFFFFFFFFFFFFFFFFFFFFF
310
FFFFFFFFFFFFFFFFFFFFFFFFFFFFFFFFFFFFFFFFFFFFFFFFF000FFFFFFFFFFFF
310
FFFFFFFFFFFFFFFFFFFFFFFFFFFFFFFFFFFFFFFFFFFFFFFFFFFFFFFFFFFFFFFF
310
FFFFFFFFFFFFFFFFFFFFFFFFFFFFFFFFFFFFFFFFFFFFFFFFFFFFFFFFFFFFFFFF
310
FFFFFFFFFFFFFFFFFFFFFFFFFFFFFFFFF000FFFFFFFFFFFFFFFFFFFFFFFFFFFF
310
FFFFFFFFFFFFFFFFFFFFFFFFFFFFFFFFFFFFFFFFFFFFFFFFFFFFFFFFFFFFFFFF
310
FFFFFFFFFFFFFFFFFFFFFFFFFFFFFFFFFFFFFFFFFFFFFFFFFFFFFFFFFFFFFFFF
310
FFFFFFFFFFFFFFFFF000FFFFFFFFFFFFFFFFFFFFFFFFFFFFFFFFFFFFFFFFFFFF
310
FFFFFFFFFFFFFFFFFFFFFFFFFFFFFFFFFFFFFFFFFFFFFFFFFFFFFFFFFFFFFFFF
310
FFFFFFFFFFFFFFFFFFFFFFFFFFFFFFFFFFFFFFFFFFFFFFFFFFFFFFFFFFFFFFFF
310
F000FFFFFFFFFFFFFFFFFFFFFFFFFFFFFFFFFFFFFFFFFFFFFFFFFFFFFFFFFFFF
310
FFFFFFFFFFFFFFFFFFFFFFFFFFFFFFFFFFFFFFFFFFFFFFFFFFFFFFFFFFFFFFFF
310
FFFFFFFFFFFFFFFFFFFFFFFFFFFFFFFFFFFFFFFFFFFFFFFFF000FFFFFFFFFFFF
310
FFFFFFFFFFFFFFFFFFFFFFFFFFFFFFFFFFFFFFFFFFFFFFFFFFFFFFFFFFFFFFFF
310
FFFFFFFFFFFFFFFFFFFFFFFFFFFFFFFFFFFFFFFFFFFFFFFFFFFFFFFFFFFFFFFF
310
FFFFFFFFFFFFFFFFFFFFFFFFFFFFFFFFF000FFFFFFFFFFFFFFFFFFFFFFFFFFFF
310
FFFFFFFFFFFFFFFFFFFFFFFFFFFFFFFFFFFFFFFFFFFFFFFFFFFFFFFFFFFFFFFF
310
FFFFFFFFFFFFFFFFFFFFFFFFFFFFFFFFFFFFFFFFFFFFFFFFFFFFFFFFFFFFFFFF
310
FFFFFFFFFFFFFFFFF000FFFFFFFFFFFFFFFFFFFFFFFFFFFFFFFFFFFFFFFFFFFF
310
FFFFFFFFFFFFFFFFFFFFFFFFFFFFFFFFFFFFFFFFFFFFFFFFFFFFFFFFFFFFFFFF
310
FFFFFFFFFFFFFFFFFFFFFFFFFFFFFFFFFFFFFFFFFFFFFFFFFFFFFFFFFFFFFFFF
310
F000FFFFFFFFFFFFFFFFFFFFFFFFFFFFFFFFFFFFFFFFFFFFFFFFFFFFFFFFFFFF
310
FFFFFFFFFFFFFFFFFFFFFFFFFFFFFFFFFFFFFFFFFFFFFFFFFFFFFFFFFFFFFFFF
310
FFFFFFFFFFFFFFFFFFFFFFFFFFFFFFFFFFFFFFFFFFFFFFFFF000FFFFFFFFFFFF
310
FFFFFFFFFFFFFFFFFFFFFFFFFFFFFFFFFFFFFFFFFFFFFFFFFFFFFFFFFFFFFFFF
310
FFFFFFFFFFFFFFFFFFFFFFFFFFFFFFFFFFFFFFFFFFFFFFFFFFFFFFFFFFFFFFFF
310
FFFFFFFFFFFFFFFFFFFFFFFFFFFFFFFFF000FFFFFFFFFFFFFFFFFFFFFFFFFFFF
310
FFFFFFFFFFFFFFFFFFFFFFFFFFFFFFFFFFFFFFFFFFFFFFFFFFFFFFFFFFFFFFFF
310
FFFFFFFFFFFFFFFFFFFFFFFFFFFFFFFFFFFFFFFFFFFFFFFFFFFFFFFFFFFFFFFF
310
FFFFFFFFFFFFFFFFF000FFFFFFFFFFFFFFFFFFFFFFFFFFFFFFFFFFFFFFFFFFFF
310
FFFFFFFFFFFFFFFFFFFFFFFFFFFFFFFFFFFFFFFFFFFFFFFFFFFFFFFFFFFFFFFF
310
FFFFFFFFFFFFFFFFFFFFFFFFFFFFFFFFFFFFFFFFFFFFFFFFFFFFFFFFFFFFFFFF
310
F000FFFFFFFFFFFFFFFFFFFFFFFFFFFFFFFFFFFFFFFFFFFFFFFFFFFFFFFFFFFF
310
FFFFFFFFFFFFFFFFFFFFFFFFFFFFFFFFFFFFFFFFFFFFFFFFFFFFFFFFFFFFFFFF
310
FFFFFFFFFFFFFFFFFFFFFFFFFFFFFFFFFFFFFFFFFFFFFFFFF000FFFFFFFFFFFF
310
FFFFFFFFFFFFFFFFFFFFFFFFFFFFFFFFFFFFFFFFFFFFFFFFFFFFFFFFFFFFFFFF
310
FFFFFFFFFFFFFFFFFFFFFFFFFFFFFFFFFFFFFFFFFFFFFFFFFFFFFFFFFFFFFFFF
310
FFFFFFFFFFFFFFFFFFFFFFFFFFFFFFFFF000FFFFFFFFFFFFFFFFFFFFFFFFFFFF
310
FFFFFFFFFFFFFFFFFFFFFFFFFFFFFFFFFFFFFFFFFFFFFFFFFFFFFFFFFFFFFFFF
310
FFFFFFFFFFFFFFFFFFFFFFFFFFFFFFFFFFFFFFFFFFFFFFFFFFFFFFFFFFFFFFFF
310
FFFFFFFFFFFFFFFFF000FFFFFFFFFFFFFFFFFFFFFFFFFFFFFFFFFFFFFFFFFFFF
310
FFFFFFFFFFFFFFFFFFFFFFFFFFFFFFFFFFFFFFFFFFFFFFFFFFFFFFFFFFFFFFFF
310
FFFFFFFFFFFFFFFFFFFFFFFFFFFFFFFFFFFFFFFFFFFFFFFFFFFFFFFFFFFFFFFF
310
F000FFFFFFFFFFFFFFFFFFFFFFFFFFFFFFFFFFFFFFFFFFFFFFFFFFFFFFFFFFFF
310
FFFFFFFFFFFFFFFFFFFFFFFFFFFFFFFFFFFFFFFFFFFFFFFFFFFFFFFFFFFFFFFF
310
FFFFFFFFFFFFFFFFFFFFFFFFFFFFFFFFFFFFFFFFFFFFFFFFF000FFFFFFFFFFFF
310
FFFFFFFFFFFFFFFFFFFFFFFFFFFFFFFFFFFFFFFFFFFFFFFFFFFFFFFFFFFFFFFF
310
FFFFFFFFFFFFFFFFFFFFFFFFFFFFFFFFFFFFFFFFFFFFFFFFFFFFFFFFFFFFFFFF
310
FFFFFFFFFFFFFFFFFFFFFFFFFFFFFFFFF0000000000000000000000000000000
310
0000000000000000000000000000000000000000000000000000000000000000
310
0000000000000000000000000000000000000000000000000000000000000000
310
0000000000000000000000000000000000000000000000000000000000000000
310
0000000000000000000000000000000000000000000000000000000000000000
310
0000000000000000000000000000000000000000000000000000000000000000
310
0000000000000000000000000000000000000000000000000000000000000000
310
0000000000000000000000000000000000000000000000000000000000000000
310
0000000000000000000000000000000000000000000000000000000000000000
310
0000000000000000000000000000000000000000000000000000000000000000
310
0000000000000000000000000000000000000000000000000000000000000000
310
0000000000000000000000000000000000000000000000000000000000000000
310
0000000000000000000000000000000000000000000000000000000000000000
310
0000000000000000000000000000000000000000000000000000000000000000
310
0000000000000000000000000000000000000000000000000000000000000000
310
0000000000000000000000000000000000000000000000000000000000000000
  1
OLE
  0
ENDSEC
  0
SECTION
  2
OBJECTS
  0
DICTIONARY
  5
C
330
0
100
AcDbDictionary
281
     1
  3
ACAD_GROUP
350
D
  3
ACAD_LAYOUT
350
1A
  3
ACAD_MLINESTYLE
350
17
  3
ACAD_PLOTSETTINGS
350
19
  3
ACAD_PLOTSTYLENAME
350
E
  3
ACAD_SCALELIST
350
47
  0
DICTIONARY
  5
D
102
{ACAD_REACTORS
330
C
102
}
330
C
100
AcDbDictionary
281
     1
  0
DICTIONARY
  5
1A
102
{ACAD_REACTORS
330
C
102
}
330
C
100
AcDbDictionary
281
     1
  3
Layout1
350
1E
  3
Layout2
350
26
  3
Model
350
22
  0
DICTIONARY
  5
17
102
{ACAD_REACTORS
330
C
102
}
330
C
100
AcDbDictionary
281
     1
  3
Standard
350
18
  0
DICTIONARY
  5
19
102
{ACAD_REACTORS
330
C
102
}
330
C
100
AcDbDictionary
281
     1
  0
ACDBDICTIONARYWDFLT
  5
E
102
{ACAD_REACTORS
330
C
102
}
330
C
100
AcDbDictionary
281
     1
  3
Normal
350
F
100
AcDbDictionaryWithDefault
340
F
  0
DICTIONARY
  5
47
102
{ACAD_REACTORS
330
C
102
}
330
C
100
AcDbDictionary
281
     1
  3
A0
350
48
  3
A1
350
49
  3
A2
350
4A
  3
A3
350
4B
  3
A4
350
4C
  3
A5
350
4D
  3
A6
350
4E
  3
A7
350
4F
  3
A8
350
50
  3
A9
350
51
  3
B0
350
52
  3
B1
350
53
  3
B2
350
54
  3
B3
350
55
  3
B4
350
56
  3
B5
350
57
  3
B6
350
58
  3
B7
350
59
  3
B8
350
5A
  3
B9
350
5B
  3
C0
350
5C
  3
C1
350
5D
  3
C2
350
5E
  3
C3
350
5F
  3
C4
350
60
  3
C5
350
61
  3
C6
350
62
  3
C7
350
63
  3
C8
350
64
  3
C9
350
65
  3
D0
350
66
  3
D1
350
67
  3
D2
350
68
  0
LAYOUT
  5
1E
102
{ACAD_REACTORS
330
1A
102
}
330
1A
100
AcDbPlotSettings
  1

  2
none_device
  4

  6

 40
0.0
 41
0.0
 42
0.0
 43
0.0
 44
0.0
 45
0.0
 46
0.0
 47
0.0
 48
0.0
 49
0.0
140
0.0
141
0.0
142
1.0
143
1.0
 70
   688
 72
     1
 73
     0
 74
     5
  7

 75
    16
147
1.0
148
0.0
149
0.0
100
AcDbLayout
  1
Layout1
 70
     1
 71
     1
 10
0.0
 20
0.0
 11
420.0
 21
297.0
 12
0.0
 22
0.0
 32
0.0
 14
1.0000000000E+20
 24
1.0000000000E+20
 34
1.0000000000E+20
 15
-1.0000000000E+20
 25
-1.0000000000E+20
 35
-1.0000000000E+20
146
0.0
 13
0.0
 23
0.0
 33
0.0
 16
1.0
 26
0.0
 36
0.0
 17
0.0
 27
1.0
 37
0.0
 76
     0
330
1B
  0
LAYOUT
  5
26
102
{ACAD_REACTORS
330
1A
102
}
330
1A
100
AcDbPlotSettings
  1

  2
none_device
  4

  6

 40
0.0
 41
0.0
 42
0.0
 43
0.0
 44
0.0
 45
0.0
 46
0.0
 47
0.0
 48
0.0
 49
0.0
140
0.0
141
0.0
142
1.0
143
1.0
 70
   688
 72
     1
 73
     0
 74
     5
  7

 75
    16
147
1.0
148
0.0
149
0.0
100
AcDbLayout
  1
Layout2
 70
     1
 71
     2
 10
0.0
 20
0.0
 11
0.0
 21
0.0
 12
0.0
 22
0.0
 32
0.0
 14
0.0
 24
0.0
 34
0.0
 15
0.0
 25
0.0
 35
0.0
146
0.0
 13
0.0
 23
0.0
 33
0.0
 16
1.0
 26
0.0
 36
0.0
 17
0.0
 27
1.0
 37
0.0
 76
     0
330
23
  0
LAYOUT
  5
22
102
{ACAD_REACTORS
330
1A
102
}
330
1A
100
AcDbPlotSettings
  1

  2
none_device
  4
Letter_(8.50_x_11.00_Inches)
  6

 40
6.35
 41
6.35
 42
6.35000508
 43
6.35000508
 44
215.9
 45
279.4
 46
0.0
 47
0.0
 48
0.0
 49
0.0
140
0.0
141
0.0
142
1.0
143
1.0
 70
  1712
 72
     1
 73
     0
 74
     0
  7

 75
     0
147
1.0
148
0.0
149
0.0
100
AcDbLayout
  1
Model
 70
     1
 71
     0
 10
0.0
 20
0.0
 11
297.0
 21
210.0
 12
0.0
 22
0.0
 32
0.0
 14
0.0
 24
0.0
 34
0.0
 15
297.0
 25
210.0
 35
0.0
146
0.0
 13
0.0
 23
0.0
 33
0.0
 16
1.0
 26
0.0
 36
0.0
 17
0.0
 27
1.0
 37
0.0
 76
     0
330
1F
331
29
  0
MLINESTYLE
  5
18
102
{ACAD_REACTORS
330
17
102
}
330
17
100
AcDbMlineStyle
  2
Standard
 70
     0
  3

 62
   256
 51
90.0
 52
90.0
 71
     2
 49
0.5
 62
   256
  6
BYLAYER
 49
-0.5
 62
   256
  6
BYLAYER
  0
ACDBPLACEHOLDER
  5
F
102
{ACAD_REACTORS
330
E
102
}
330
E
  0
SCALE
  5
48
102
{ACAD_REACTORS
330
47
102
}
330
47
100
AcDbScale
 70
     0
300
1:1
140
1.0
141
1.0
290
     1
  0
SCALE
  5
49
102
{ACAD_REACTORS
330
47
102
}
330
47
100
AcDbScale
 70
     0
300
1:2
140
1.0
141
2.0
290
     0
  0
SCALE
  5
4A
102
{ACAD_REACTORS
330
47
102
}
330
47
100
AcDbScale
 70
     0
300
1:4
140
1.0
141
4.0
290
     0
  0
SCALE
  5
4B
102
{ACAD_REACTORS
330
47
102
}
330
47
100
AcDbScale
 70
     0
300
1:5
140
1.0
141
5.0
290
     0
  0
SCALE
  5
4C
102
{ACAD_REACTORS
330
47
102
}
330
47
100
AcDbScale
 70
     0
300
1:8
140
1.0
141
8.0
290
     0
  0
SCALE
  5
4D
102
{ACAD_REACTORS
330
47
102
}
330
47
100
AcDbScale
 70
     0
300
1:10
140
1.0
141
10.0
290
     0
  0
SCALE
  5
4E
102
{ACAD_REACTORS
330
47
102
}
330
47
100
AcDbScale
 70
     0
300
1:16
140
1.0
141
16.0
290
     0
  0
SCALE
  5
4F
102
{ACAD_REACTORS
330
47
102
}
330
47
100
AcDbScale
 70
     0
300
1:20
140
1.0
141
20.0
290
     0
  0
SCALE
  5
50
102
{ACAD_REACTORS
330
47
102
}
330
47
100
AcDbScale
 70
     0
300
1:30
140
1.0
141
30.0
290
     0
  0
SCALE
  5
51
102
{ACAD_REACTORS
330
47
102
}
330
47
100
AcDbScale
 70
     0
300
1:40
140
1.0
141
40.0
290
     0
  0
SCALE
  5
52
102
{ACAD_REACTORS
330
47
102
}
330
47
100
AcDbScale
 70
     0
300
1:50
140
1.0
141
50.0
290
     0
  0
SCALE
  5
53
102
{ACAD_REACTORS
330
47
102
}
330
47
100
AcDbScale
 70
     0
300
1:100
140
1.0
141
100.0
290
     0
  0
SCALE
  5
54
102
{ACAD_REACTORS
330
47
102
}
330
47
100
AcDbScale
 70
     0
300
2:1
140
2.0
141
1.0
290
     0
  0
SCALE
  5
55
102
{ACAD_REACTORS
330
47
102
}
330
47
100
AcDbScale
 70
     0
300
4:1
140
4.0
141
1.0
290
     0
  0
SCALE
  5
56
102
{ACAD_REACTORS
330
47
102
}
330
47
100
AcDbScale
 70
     0
300
8:1
140
8.0
141
1.0
290
     0
  0
SCALE
  5
57
102
{ACAD_REACTORS
330
47
102
}
330
47
100
AcDbScale
 70
     0
300
10:1
140
10.0
141
1.0
290
     0
  0
SCALE
  5
58
102
{ACAD_REACTORS
330
47
102
}
330
47
100
AcDbScale
 70
     0
300
100:1
140
100.0
141
1.0
290
     0
  0
SCALE
  5
59
102
{ACAD_REACTORS
330
47
102
}
330
47
100
AcDbScale
 70
     0
300
1/128" = 1'-0"
140
0.0078125
141
12.0
290
     0
  0
SCALE
  5
5A
102
{ACAD_REACTORS
330
47
102
}
330
47
100
AcDbScale
 70
     0
300
1/64" = 1'-0"
140
0.015625
141
12.0
290
     0
  0
SCALE
  5
5B
102
{ACAD_REACTORS
330
47
102
}
330
47
100
AcDbScale
 70
     0
300
1/32" = 1'-0"
140
0.03125
141
12.0
290
     0
  0
SCALE
  5
5C
102
{ACAD_REACTORS
330
47
102
}
330
47
100
AcDbScale
 70
     0
300
1/16" = 1'-0"
140
0.0625
141
12.0
290
     0
  0
SCALE
  5
5D
102
{ACAD_REACTORS
330
47
102
}
330
47
100
AcDbScale
 70
     0
300
3/32" = 1'-0"
140
0.09375
141
12.0
290
     0
  0
SCALE
  5
5E
102
{ACAD_REACTORS
330
47
102
}
330
47
100
AcDbScale
 70
     0
300
1/8" = 1'-0"
140
0.125
141
12.0
290
     0
  0
SCALE
  5
5F
102
{ACAD_REACTORS
330
47
102
}
330
47
100
AcDbScale
 70
     0
300
3/16" = 1'-0"
140
0.1875
141
12.0
290
     0
  0
SCALE
  5
60
102
{ACAD_REACTORS
330
47
102
}
330
47
100
AcDbScale
 70
     0
300
1/4" = 1'-0"
140
0.25
141
12.0
290
     0
  0
SCALE
  5
61
102
{ACAD_REACTORS
330
47
102
}
330
47
100
AcDbScale
 70
     0
300
3/8" = 1'-0"
140
0.375
141
12.0
290
     0
  0
SCALE
  5
62
102
{ACAD_REACTORS
330
47
102
}
330
47
100
AcDbScale
 70
     0
300
1/2" = 1'-0"
140
0.5
141
12.0
290
     0
  0
SCALE
  5
63
102
{ACAD_REACTORS
330
47
102
}
330
47
100
AcDbScale
 70
     0
300
3/4" = 1'-0"
140
0.75
141
12.0
290
     0
  0
SCALE
  5
64
102
{ACAD_REACTORS
330
47
102
}
330
47
100
AcDbScale
 70
     0
300
1" = 1'-0"
140
1.0
141
12.0
290
     0
  0
SCALE
  5
65
102
{ACAD_REACTORS
330
47
102
}
330
47
100
AcDbScale
 70
     0
300
1-1/2" = 1'-0"
140
1.5
141
12.0
290
     0
  0
SCALE
  5
66
102
{ACAD_REACTORS
330
47
102
}
330
47
100
AcDbScale
 70
     0
300
3" = 1'-0"
140
3.0
141
12.0
290
     0
  0
SCALE
  5
67
102
{ACAD_REACTORS
330
47
102
}
330
47
100
AcDbScale
 70
     0
300
6" = 1'-0"
140
6.0
141
12.0
290
     0
  0
SCALE
  5
68
102
{ACAD_REACTORS
330
47
102
}
330
47
100
AcDbScale
 70
     0
300
1'-0" = 1'-0"
140
12.0
141
12.0
290
     0
  0
ENDSEC
  0
EOF
