  0
SECTION
  2
HEADER
  9
$ACADVER
  1
AC1015
  9
$ACADMAINTVER
 70
     6
  9
$DWGCODEPAGE
  3
ANSI_1252
  9
$INSBASE
 10
0.0
 20
0.0
 30
0.0
  9
$EXTMIN
 10
0.0
 20
0.0
 30
0.0
  9
$EXTMAX
 10
297.0
 20
210.0
 30
0.0
  9
$LIMMIN
 10
0.0
 20
0.0
  9
$LIMMAX
 10
297.0
 20
210.0
  9
$ORTHOMODE
 70
     0
  9
$REGENMODE
 70
     1
  9
$FILLMODE
 70
     1
  9
$QTEXTMODE
 70
     0
  9
$MIRRTEXT
 70
     1
  9
$LTSCALE
 40
1.0
  9
$ATTMODE
 70
     1
  9
$TEXTSIZE
 40
2.0
  9
$TRACEWID
 40
1.0
  9
$TEXTSTYLE
  7
Standard
  9
$CLAYER
  8
0
  9
$CELTYPE
  6
ByLayer
  9
$CECOLOR
 62
   256
  9
$CELTSCALE
 40
1.0
  9
$DISPSILH
 70
     0
  9
$DIMSCALE
 40
1.0
  9
$DIMASZ
 40
3.0
  9
$DIMEXO
 40
0.0
  9
$DIMDLI
 40
3.75
  9
$DIMRND
 40
0.0
  9
$DIMDLE
 40
0.0
  9
$DIMEXE
 40
1.0
  9
$DIMTP
 40
0.0
  9
$DIMTM
 40
0.0
  9
$DIMTXT
 40
2.0
  9
$DIMCEN
 40
2.5
  9
$DIMTSZ
 40
0.0
  9
$DIMTOL
 70
     0
  9
$DIMLIM
 70
     0
  9
$DIMTIH
 70
     1
  9
$DIMTOH
 70
     1
  9
$DIMSE1
 70
     0
  9
$DIMSE2
 70
     0
  9
$DIMTAD
 70
     1
  9
$DIMZIN
 70
     0
  9
$DIMBLK
  1

  9
$DIMASO
 70
     1
  9
$DIMSHO
 70
     1
  9
$DIMPOST
  1

  9
$DIMAPOST
  1

  9
$DIMALT
 70
     0
  9
$DIMALTD
 70
     3
  9
$DIMALTF
 40
0.0393700787
  9
$DIMLFAC
 40
1.0
  9
$DIMTOFL
 70
     1
  9
$DIMTVP
 40
0.0
  9
$DIMTIX
 70
     0
  9
$DIMSOXD
 70
     0
  9
$DIMSAH
 70
     0
  9
$DIMBLK1
  1

  9
$DIMBLK2
  1

  9
$DIMSTYLE
  2
ISO-25
  9
$DIMCLRD
 70
     0
  9
$DIMCLRE
 70
     0
  9
$DIMCLRT
 70
     0
  9
$DIMTFAC
 40
1.0
  9
$DIMGAP
 40
1.524
  9
$DIMJUST
 70
     0
  9
$DIMSD1
 70
     0
  9
$DIMSD2
 70
     0
  9
$DIMTOLJ
 70
     0
  9
$DIMTZIN
 70
     0
  9
$DIMALTZ
 70
     0
  9
$DIMALTTZ
 70
     0
  9
$DIMUPT
 70
     0
  9
$DIMDEC
 70
     2
  9
$DIMTDEC
 70
     3
  9
$DIMALTU
 70
     2
  9
$DIMALTTD
 70
     3
  9
$DIMTXSTY
  7
Standard
  9
$DIMAUNIT
 70
     0
  9
$DIMADEC
 70
     2
  9
$DIMALTRND
 40
0.0
  9
$DIMAZIN
 70
     0
  9
$DIMDSEP
 70
    44
  9
$DIMATFIT
 70
     3
  9
$DIMFRAC
 70
     0
  9
$DIMLDRBLK
  1

  9
$DIMLUNIT
 70
     2
  9
$DIMLWD
 70
    -2
  9
$DIMLWE
 70
    -2
  9
$DIMTMOVE
 70
     0
  9
$LUNITS
 70
     2
  9
$LUPREC
 70
     2
  9
$SKETCHINC
 40
1.0
  9
$FILLETRAD
 40
10.0
  9
$AUNITS
 70
     0
  9
$AUPREC
 70
     2
  9
$MENU
  1
.
  9
$ELEVATION
 40
0.0
  9
$PELEVATION
 40
0.0
  9
$THICKNESS
 40
0.0
  9
$LIMCHECK
 70
     0
  9
$CHAMFERA
 40
0.0
  9
$CHAMFERB
 40
0.0
  9
$CHAMFERC
 40
0.0
  9
$CHAMFERD
 40
0.0
  9
$SKPOLY
 70
     0
  9
$TDCREATE
 40
2457655.63152787
  9
$TDUCREATE
 40
2457655.548194537
  9
$TDUPDATE
 40
2457655.631529005
  9
$TDUUPDATE
 40
2457655.548195671
  9
$TDINDWG
 40
0.0000000116
  9
$TDUSRTIMER
 40
0.0000000116
  9
$USRTIMER
 70
     1
  9
$ANGBASE
 50
0.0
  9
$ANGDIR
 70
     0
  9
$PDMODE
 70
     0
  9
$PDSIZE
 40
-1.0
  9
$PLINEWID
 40
0.0
  9
$SPLFRAME
 70
     0
  9
$SPLINETYPE
 70
     6
  9
$SPLINESEGS
 70
     8
  9
$HANDSEED
  5
1F6
  9
$SURFTAB1
 70
     6
  9
$SURFTAB2
 70
     6
  9
$SURFTYPE
 70
     6
  9
$SURFU
 70
     6
  9
$SURFV
 70
     6
  9
$UCSBASE
  2

  9
$UCSNAME
  2

  9
$UCSORG
 10
0.0
 20
0.0
 30
0.0
  9
$UCSXDIR
 10
1.0
 20
0.0
 30
0.0
  9
$UCSYDIR
 10
0.0
 20
1.0
 30
0.0
  9
$UCSORTHOREF
  2

  9
$UCSORTHOVIEW
 70
     0
  9
$UCSORGTOP
 10
0.0
 20
0.0
 30
0.0
  9
$UCSORGBOTTOM
 10
0.0
 20
0.0
 30
0.0
  9
$UCSORGLEFT
 10
0.0
 20
0.0
 30
0.0
  9
$UCSORGRIGHT
 10
0.0
 20
0.0
 30
0.0
  9
$UCSORGFRONT
 10
0.0
 20
0.0
 30
0.0
  9
$UCSORGBACK
 10
0.0
 20
0.0
 30
0.0
  9
$PUCSBASE
  2

  9
$PUCSNAME
  2

  9
$PUCSORG
 10
0.0
 20
0.0
 30
0.0
  9
$PUCSXDIR
 10
1.0
 20
0.0
 30
0.0
  9
$PUCSYDIR
 10
0.0
 20
1.0
 30
0.0
  9
$PUCSORTHOREF
  2

  9
$PUCSORTHOVIEW
 70
     0
  9
$PUCSORGTOP
 10
0.0
 20
0.0
 30
0.0
  9
$PUCSORGBOTTOM
 10
0.0
 20
0.0
 30
0.0
  9
$PUCSORGLEFT
 10
0.0
 20
0.0
 30
0.0
  9
$PUCSORGRIGHT
 10
0.0
 20
0.0
 30
0.0
  9
$PUCSORGFRONT
 10
0.0
 20
0.0
 30
0.0
  9
$PUCSORGBACK
 10
0.0
 20
0.0
 30
0.0
  9
$USERI1
 70
     0
  9
$USERI2
 70
     0
  9
$USERI3
 70
     0
  9
$USERI4
 70
     0
  9
$USERI5
 70
     0
  9
$USERR1
 40
0.0
  9
$USERR2
 40
0.0
  9
$USERR3
 40
0.0
  9
$USERR4
 40
0.0
  9
$USERR5
 40
0.0
  9
$WORLDVIEW
 70
     1
  9
$SHADEDGE
 70
     3
  9
$SHADEDIF
 70
    70
  9
$TILEMODE
 70
     1
  9
$MAXACTVP
 70
    64
  9
$PINSBASE
 10
0.0
 20
0.0
 30
0.0
  9
$PLIMCHECK
 70
     0
  9
$PEXTMIN
 10
1.0000000000E+20
 20
1.0000000000E+20
 30
1.0000000000E+20
  9
$PEXTMAX
 10
-1.0000000000E+20
 20
-1.0000000000E+20
 30
-1.0000000000E+20
  9
$PLIMMIN
 10
0.0
 20
0.0
  9
$PLIMMAX
 10
420.0
 20
297.0
  9
$UNITMODE
 70
     0
  9
$VISRETAIN
 70
     1
  9
$PLINEGEN
 70
     0
  9
$PSLTSCALE
 70
     1
  9
$TREEDEPTH
 70
  3020
  9
$CMLSTYLE
  2
Standard
  9
$CMLJUST
 70
     0
  9
$CMLSCALE
 40
20.0
  9
$PROXYGRAPHICS
 70
     1
  9
$MEASUREMENT
 70
     1
  9
$CELWEIGHT
370
    -1
  9
$ENDCAPS
280
     0
  9
$JOINSTYLE
280
     0
  9
$LWDISPLAY
290
     1
  9
$INSUNITS
 70
     4
  9
$HYPERLINKBASE
  1

  9
$STYLESHEET
  1

  9
$XEDIT
290
     1
  9
$CEPSNTYPE
380
     0
  9
$PSTYLEMODE
290
     1
  9
$FINGERPRINTGUID
  2
{E04556AC-DE26-4417-A63D-363AC9218877}
  9
$VERSIONGUID
  2
{FAEB1C32-E019-11D5-929B-00C0DF256EC4}
  9
$EXTNAMES
290
     1
  9
$PSVPSCALE
 40
0.0
  9
$OLESTARTUP
290
     0
  0
ENDSEC
  0
SECTION
  2
CLASSES
  0
CLASS
  1
ACDBDICTIONARYWDFLT
  2
AcDbDictionaryWithDefault
  3
ObjectDBX Classes
 90
        0
280
     0
281
     0
  0
CLASS
  1
VISUALSTYLE
  2
AcDbVisualStyle
  3
ObjectDBX Classes
 90
     4095
280
     0
281
     0
  0
CLASS
  1
MATERIAL
  2
AcDbMaterial
  3
ObjectDBX Classes
 90
     1153
280
     0
281
     0
  0
CLASS
  1
SCALE
  2
AcDbScale
  3
ObjectDBX Classes
 90
     1153
280
     0
281
     0
  0
CLASS
  1
TABLESTYLE
  2
AcDbTableStyle
  3
ObjectDBX Classes
 90
     4095
280
     0
281
     0
  0
CLASS
  1
MLEADERSTYLE
  2
AcDbMLeaderStyle
  3
ACDB_MLEADERSTYLE_CLASS
 90
     4095
280
     0
281
     0
  0
CLASS
  1
SUN
  2
AcDbSun
  3
SCENEOE
 90
     1153
280
     0
281
     0
  0
CLASS
  1
ACDBPLACEHOLDER
  2
AcDbPlaceHolder
  3
ObjectDBX Classes
 90
        0
280
     0
281
     0
  0
CLASS
  1
LAYOUT
  2
AcDbLayout
  3
ObjectDBX Classes
 90
        0
280
     0
281
     0
  0
ENDSEC
  0
SECTION
  2
TABLES
  0
TABLE
  2
VPORT
  5
8
330
0
100
AcDbSymbolTable
 70
     1
  0
VPORT
  5
29
330
8
100
AcDbSymbolTableRecord
100
AcDbViewportTableRecord
  2
*Active
 70
     0
 10
0.0
 20
0.0
 11
1.0
 21
1.0
 12
148.5
 22
105.0
 13
0.0
 23
0.0
 14
10.0
 24
10.0
 15
10.0
 25
10.0
 16
0.0
 26
0.0
 36
1.0
 17
0.0
 27
0.0
 37
0.0
 40
210.0
 41
1.4142857143
 42
50.0
 43
0.0
 44
0.0
 50
0.0
 51
0.0
 71
     0
 72
  2000
 73
     1
 74
     3
 75
     0
 76
     0
 77
     0
 78
     0
281
     0
 65
     1
110
0.0
120
0.0
130
0.0
111
1.0
121
0.0
131
0.0
112
0.0
122
1.0
132
0.0
 79
     0
146
0.0
  0
ENDTAB
  0
TABLE
  2
LTYPE
  5
5
330
0
100
AcDbSymbolTable
 70
     6
  0
LTYPE
  5
14
330
5
100
AcDbSymbolTableRecord
100
AcDbLinetypeTableRecord
  2
ByBlock
 70
     0
  3

 72
    65
 73
     0
 40
0.0
  0
LTYPE
  5
15
330
5
100
AcDbSymbolTableRecord
100
AcDbLinetypeTableRecord
  2
ByLayer
 70
     0
  3

 72
    65
 73
     0
 40
0.0
  0
LTYPE
  5
16
330
5
100
AcDbSymbolTableRecord
100
AcDbLinetypeTableRecord
  2
Continuous
 70
     0
  3
Solid line
 72
    65
 73
     0
 40
0.0
  0
LTYPE
  5
6E
330
5
100
AcDbSymbolTableRecord
100
AcDbLinetypeTableRecord
  2
HIDDEN
 70
     0
  3
Hidden __ __ __ __ __ __ __ __ __ __ __ __ __ __
 72
    65
 73
     2
 40
1.905
 49
1.27
 74
     0
 49
-0.635
 74
     0
  0
LTYPE
  5
6F
330
5
100
AcDbSymbolTableRecord
100
AcDbLinetypeTableRecord
  2
PHANTOM
 70
     0
  3
Phantom ______  __  __  ______  __  __  ______
 72
    65
 73
     6
 40
12.7
 49
6.35
 74
     0
 49
-1.27
 74
     0
 49
1.27
 74
     0
 49
-1.27
 74
     0
 49
1.27
 74
     0
 49
-1.27
 74
     0
  0
LTYPE
  5
70
330
5
100
AcDbSymbolTableRecord
100
AcDbLinetypeTableRecord
  2
CENTER
 70
     0
  3
Center ____ _ ____ _ ____ _ ____ _ ____ _ ____
 72
    65
 73
     4
 40
10.16
 49
6.35
 74
     0
 49
-1.27
 74
     0
 49
1.27
 74
     0
 49
-1.27
 74
     0
  0
LTYPE
  5
71
330
5
100
AcDbSymbolTableRecord
100
AcDbLinetypeTableRecord
  2
CENTERX2
 70
     0
  3
Center (2x) ________  __  ________  __  _____
 72
    65
 73
     4
 40
20.32
 49
12.7
 74
     0
 49
-2.54
 74
     0
 49
2.54
 74
     0
 49
-2.54
 74
     0
  0
LTYPE
  5
72
330
5
100
AcDbSymbolTableRecord
100
AcDbLinetypeTableRecord
  2
DOT2
 70
     0
  3
Dot (.5x) ........................................
 72
    65
 73
     2
 40
0.635
 49
0.0
 74
     0
 49
-0.635
 74
     0
  0
ENDTAB
  0
TABLE
  2
LAYER
  5
2
330
0
100
AcDbSymbolTable
 70
     5
  0
LAYER
  5
10
330
2
100
AcDbSymbolTableRecord
100
AcDbLayerTableRecord
  2
0
 70
     0
 62
     7
  6
Continuous
370
    -3
390
F
  0
LAYER
  5
73
330
2
100
AcDbSymbolTableRecord
100
AcDbLayerTableRecord
  2
FORMAT
 70
     0
 62
     7
  6
Continuous
370
    -3
390
F
  0
LAYER
  5
74
330
2
100
AcDbSymbolTableRecord
100
AcDbLayerTableRecord
  2
VERMASSUNG
 70
     0
 62
     7
  6
Continuous
370
    -3
390
F
  0
LAYER
  5
75
330
2
100
AcDbSymbolTableRecord
100
AcDbLayerTableRecord
  2
KOPF_DÜNN
 70
     0
 62
     7
  6
Continuous
370
    -3
390
F
  0
LAYER
  5
76
330
2
100
AcDbSymbolTableRecord
100
AcDbLayerTableRecord
  2
KOPF_DICK
 70
     0
 62
     7
  6
Continuous
370
    15
390
F
  0
ENDTAB
  0
TABLE
  2
STYLE
  5
3
330
0
100
AcDbSymbolTable
 70
     3
  0
STYLE
  5
11
330
3
100
AcDbSymbolTableRecord
100
AcDbTextStyleTableRecord
  2
Standard
 70
     0
 40
0.0
 41
1.0
 50
0.0
 71
     0
 42
2.0
  3
txt
  4

  0
STYLE
  5
77
330
3
100
AcDbSymbolTableRecord
100
AcDbTextStyleTableRecord
  2
SLDTEXTSTYLE0
 70
     0
 40
0.0
 41
0.7
 50
0.0
 71
     0
 42
2.0
  3
TXT
  4

  0
STYLE
  5
7B
330
3
100
AcDbSymbolTableRecord
100
AcDbTextStyleTableRecord
  2
SLDTEXTSTYLE1
 70
     0
 40
0.0
 41
0.6444444444
 50
0.0
 71
     0
 42
2.0
  3
TXT
  4

  0
ENDTAB
  0
TABLE
  2
VIEW
  5
6
330
0
100
AcDbSymbolTable
 70
     0
  0
ENDTAB
  0
TABLE
  2
UCS
  5
7
330
0
100
AcDbSymbolTable
 70
     0
  0
ENDTAB
  0
TABLE
  2
APPID
  5
9
330
0
100
AcDbSymbolTable
 70
     1
  0
APPID
  5
12
330
9
100
AcDbSymbolTableRecord
100
AcDbRegAppTableRecord
  2
ACAD
 70
     0
  0
ENDTAB
  0
TABLE
  2
DIMSTYLE
  5
A
330
0
100
AcDbSymbolTable
 70
     2
100
AcDbDimStyleTable
  0
DIMSTYLE
105
27
330
A
100
AcDbSymbolTableRecord
100
AcDbDimStyleTableRecord
  2
ISO-25
 70
     0
 41
2.5
 42
0.625
 43
3.75
 44
1.25
 73
     0
 74
     0
 77
     1
 78
     8
140
2.5
141
2.5
143
0.0393700787
147
0.625
171
     3
172
     1
178
     0
271
     2
272
     2
274
     3
278
    44
283
     0
284
     8
340
11
  0
DIMSTYLE
105
125
102
{ACAD_REACTORS
330
124
330
131
330
13B
330
145
330
14F
102
}
330
A
100
AcDbSymbolTableRecord
100
AcDbDimStyleTableRecord
  2
SLDDIMSTYLE0
 70
     0
 41
3.0
 44
0.0
 45
0.000000001
 73
     0
 74
     0
 77
     1
 78
    12
 79
     3
140
2.0
147
0.5
173
     1
178
     0
271
     2
272
     3
276
     2
284
    12
340
77
  0
ENDTAB
  0
TABLE
  2
BLOCK_RECORD
  5
1
330
0
100
AcDbSymbolTable
 70
     6
  0
BLOCK_RECORD
  5
1F
330
1
100
AcDbSymbolTableRecord
100
AcDbBlockTableRecord
  2
*Model_Space
340
22
  0
BLOCK_RECORD
  5
1B
330
1
100
AcDbSymbolTableRecord
100
AcDbBlockTableRecord
  2
*Paper_Space
340
1E
  0
BLOCK_RECORD
  5
23
330
1
100
AcDbSymbolTableRecord
100
AcDbBlockTableRecord
  2
*Paper_Space0
340
26
  0
BLOCK_RECORD
  5
126
330
1
100
AcDbSymbolTableRecord
100
AcDbBlockTableRecord
  2
_D
340
0
  0
BLOCK_RECORD
  5
132
330
1
100
AcDbSymbolTableRecord
100
AcDbBlockTableRecord
  2
_D_1
340
0
  0
BLOCK_RECORD
  5
13C
330
1
100
AcDbSymbolTableRecord
100
AcDbBlockTableRecord
  2
_D_2
340
0
  0
BLOCK_RECORD
  5
146
330
1
100
AcDbSymbolTableRecord
100
AcDbBlockTableRecord
  2
_D_3
340
0
  0
BLOCK_RECORD
  5
150
330
1
100
AcDbSymbolTableRecord
100
AcDbBlockTableRecord
  2
_D_4
340
0
  0
ENDTAB
  0
ENDSEC
  0
SECTION
  2
BLOCKS
  0
BLOCK
  5
20
330
1F
100
AcDbEntity
  8
0
100
AcDbBlockBegin
  2
*Model_Space
 70
     0
 10
0.0
 20
0.0
 30
0.0
  3
*Model_Space
  1

  0
ENDBLK
  5
21
330
1F
100
AcDbEntity
  8
0
100
AcDbBlockEnd
  0
BLOCK
  5
1C
330
1B
100
AcDbEntity
 67
     1
  8
0
100
AcDbBlockBegin
  2
*Paper_Space
 70
     0
 10
0.0
 20
0.0
 30
0.0
  3
*Paper_Space
  1

  0
ENDBLK
  5
1D
330
1B
100
AcDbEntity
 67
     1
  8
0
100
AcDbBlockEnd
  0
BLOCK
  5
24
330
23
100
AcDbEntity
  8
0
100
AcDbBlockBegin
  2
*Paper_Space0
 70
     0
 10
0.0
 20
0.0
 30
0.0
  3
*Paper_Space0
  1

  0
ENDBLK
  5
25
330
23
100
AcDbEntity
  8
0
100
AcDbBlockEnd
  0
BLOCK
  5
127
330
126
100
AcDbEntity
  8
0
100
AcDbBlockBegin
  2
_D
 70
     0
 10
0.0
 20
0.0
 30
0.0
  3
_D
  1

  0
SOLID
  5
129
330
126
100
AcDbEntity
  8
VERMASSUNG
100
AcDbTrace
 10
57.89545304
 20
141.7874537988
 30
0.0
 11
57.44545304
 21
138.7874537988
 31
0.0
 12
58.34545304
 22
138.7874537988
 32
0.0
 13
58.34545304
 23
138.7874537988
 33
0.0
  0
SOLID
  5
12A
330
126
100
AcDbEntity
  8
VERMASSUNG
100
AcDbTrace
 10
57.89545304
 20
78.7874537988
 30
0.0
 11
58.34545304
 21
81.7874537988
 31
0.0
 12
57.44545304
 22
81.7874537988
 32
0.0
 13
57.44545304
 23
81.7874537988
 33
0.0
  0
LINE
  5
12B
330
126
100
AcDbEntity
  8
VERMASSUNG
100
AcDbLine
 10
153.8771827142
 20
141.7874537988
 30
0.0
 11
56.89545304
 21
141.7874537988
 31
0.0
  0
LINE
  5
12C
330
126
100
AcDbEntity
  8
VERMASSUNG
100
AcDbLine
 10
153.8771876322
 20
78.7874537988
 30
0.0
 11
56.89545304
 21
78.7874537988
 31
0.0
  0
LINE
  5
12D
330
126
100
AcDbEntity
  8
VERMASSUNG
100
AcDbLine
 10
57.89545304
 20
141.7874537988
 30
0.0
 11
57.89545304
 21
78.7874537988
 31
0.0
  0
MTEXT
  5
12E
330
126
100
AcDbEntity
  8
VERMASSUNG
100
AcDbMText
 10
55.1173177838
 20
99.5829687318
 30
0.0
 40
2.0
 41
0.0
 71
     1
 72
     1
  1
MAS BT 40
  7
SLDTEXTSTYLE0
 11
-7.044195017643634E-15
 21
1.0
 31
0.0
 73
     1
 44
1.0
  0
MTEXT
  5
12F
330
126
100
AcDbEntity
  8
VERMASSUNG
100
AcDbMText
 10
55.3173177351
 20
114.5829683966
 30
0.0
 40
2.0
 41
0.0
 71
     1
 72
     1
  1
%%c
  7
SLDTEXTSTYLE0
 11
-7.044195017643634E-15
 21
1.0
 31
0.0
 73
     1
 44
1.0
  0
MTEXT
  5
130
330
126
100
AcDbEntity
  8
VERMASSUNG
100
AcDbMText
 10
55.317317444
 20
118.1925588451
 30
0.0
 40
2.0
 41
0.0
 71
     1
 72
     1
  1
63
  7
SLDTEXTSTYLE0
 11
-7.044195017643634E-15
 21
1.0
 31
0.0
 73
     1
 44
1.0
  0
ENDBLK
  5
128
330
126
100
AcDbEntity
  8
0
100
AcDbBlockEnd
  0
BLOCK
  5
133
330
132
100
AcDbEntity
  8
0
100
AcDbBlockBegin
  2
_D_1
 70
     0
 10
0.0
 20
0.0
 30
0.0
  3
_D_1
  1

  0
SOLID
  5
135
330
132
100
AcDbEntity
  8
VERMASSUNG
100
AcDbTrace
 10
64.4771868583
 20
160.1081836146
 30
0.0
 11
67.4771868583
 21
159.6581836146
 31
0.0
 12
67.4771868583
 22
160.5581836146
 32
0.0
 13
67.4771868583
 23
160.5581836146
 33
0.0
  0
SOLID
  5
136
330
132
100
AcDbEntity
  8
VERMASSUNG
100
AcDbTrace
 10
236.8771868583
 20
160.1081836146
 30
0.0
 11
233.8771868583
 21
160.5581836146
 31
0.0
 12
233.8771868583
 22
159.6581836146
 32
0.0
 13
233.8771868583
 23
159.6581836146
 33
0.0
  0
LINE
  5
137
330
132
100
AcDbEntity
  8
VERMASSUNG
100
AcDbLine
 10
64.4771868583
 20
122.1102093958
 30
0.0
 11
64.4771868583
 21
161.1081836146
 31
0.0
  0
LINE
  5
138
330
132
100
AcDbEntity
  8
VERMASSUNG
100
AcDbLine
 10
236.8771868583
 20
130.8874537988
 30
0.0
 11
236.8771868583
 21
161.1081836146
 31
0.0
  0
LINE
  5
139
330
132
100
AcDbEntity
  8
VERMASSUNG
100
AcDbLine
 10
64.4771868583
 20
160.1081836146
 30
0.0
 11
236.8771868583
 21
160.1081836146
 31
0.0
  0
MTEXT
  5
13A
330
132
100
AcDbEntity
  8
VERMASSUNG
100
AcDbMText
 10
147.678166261
 20
162.6863192106
 30
0.0
 40
2.0
 41
0.0
 71
     1
 72
     1
  1
172.4
  7
SLDTEXTSTYLE0
 73
     1
 44
1.0
  0
ENDBLK
  5
134
330
132
100
AcDbEntity
  8
0
100
AcDbBlockEnd
  0
BLOCK
  5
13D
330
13C
100
AcDbEntity
  8
0
100
AcDbBlockBegin
  2
_D_2
 70
     0
 10
0.0
 20
0.0
 30
0.0
  3
_D_2
  1

  0
SOLID
  5
13F
330
13C
100
AcDbEntity
  8
VERMASSUNG
100
AcDbTrace
 10
129.8771868583
 20
154.1081836146
 30
0.0
 11
132.8771868583
 21
153.6581836146
 31
0.0
 12
132.8771868583
 22
154.5581836146
 32
0.0
 13
132.8771868583
 23
154.5581836146
 33
0.0
  0
SOLID
  5
140
330
13C
100
AcDbEntity
  8
VERMASSUNG
100
AcDbTrace
 10
236.8771868583
 20
154.1081836146
 30
0.0
 11
233.8771868583
 21
154.5581836146
 31
0.0
 12
233.8771868583
 22
153.6581836146
 32
0.0
 13
233.8771868583
 23
153.6581836146
 33
0.0
  0
LINE
  5
141
330
13C
100
AcDbEntity
  8
VERMASSUNG
100
AcDbLine
 10
129.8771868583
 20
132.5124537988
 30
0.0
 11
129.8771868583
 21
155.1081836146
 31
0.0
  0
LINE
  5
142
330
13C
100
AcDbEntity
  8
VERMASSUNG
100
AcDbLine
 10
236.8771868583
 20
130.8874537988
 30
0.0
 11
236.8771868583
 21
155.1081836146
 31
0.0
  0
LINE
  5
143
330
13C
100
AcDbEntity
  8
VERMASSUNG
100
AcDbLine
 10
129.8771868583
 20
154.1081836146
 30
0.0
 11
236.8771868583
 21
154.1081836146
 31
0.0
  0
MTEXT
  5
144
330
13C
100
AcDbEntity
  8
VERMASSUNG
100
AcDbMText
 10
181.4778439129
 20
156.6863192106
 30
0.0
 40
2.0
 41
0.0
 71
     1
 72
     1
  1
107
  7
SLDTEXTSTYLE0
 73
     1
 44
1.0
  0
ENDBLK
  5
13E
330
13C
100
AcDbEntity
  8
0
100
AcDbBlockEnd
  0
BLOCK
  5
147
330
146
100
AcDbEntity
  8
0
100
AcDbBlockBegin
  2
_D_3
 70
     0
 10
0.0
 20
0.0
 30
0.0
  3
_D_3
  1

  0
SOLID
  5
149
330
146
100
AcDbEntity
  8
VERMASSUNG
100
AcDbTrace
 10
156.8771868583
 20
148.1081836146
 30
0.0
 11
159.8771868583
 21
147.6581836146
 31
0.0
 12
159.8771868583
 22
148.5581836146
 32
0.0
 13
159.8771868583
 23
148.5581836146
 33
0.0
  0
SOLID
  5
14A
330
146
100
AcDbEntity
  8
VERMASSUNG
100
AcDbTrace
 10
236.8771868583
 20
148.1081836146
 30
0.0
 11
233.8771868583
 21
148.5581836146
 31
0.0
 12
233.8771868583
 22
147.6581836146
 32
0.0
 13
233.8771868583
 23
147.6581836146
 33
0.0
  0
LINE
  5
14B
330
146
100
AcDbEntity
  8
VERMASSUNG
100
AcDbLine
 10
156.8771868583
 20
140.7874537988
 30
0.0
 11
156.8771868583
 21
149.1081836146
 31
0.0
  0
LINE
  5
14C
330
146
100
AcDbEntity
  8
VERMASSUNG
100
AcDbLine
 10
236.8771868583
 20
130.8874537988
 30
0.0
 11
236.8771868583
 21
149.1081836146
 31
0.0
  0
LINE
  5
14D
330
146
100
AcDbEntity
  8
VERMASSUNG
100
AcDbLine
 10
156.8771868583
 20
148.1081836146
 30
0.0
 11
236.8771868583
 21
148.1081836146
 31
0.0
  0
MTEXT
  5
14E
330
146
100
AcDbEntity
  8
VERMASSUNG
100
AcDbMText
 10
195.477496848
 20
150.6863192106
 30
0.0
 40
2.0
 41
0.0
 71
     1
 72
     1
  1
80
  7
SLDTEXTSTYLE0
 73
     1
 44
1.0
  0
ENDBLK
  5
148
330
146
100
AcDbEntity
  8
0
100
AcDbBlockEnd
  0
BLOCK
  5
151
330
150
100
AcDbEntity
  8
0
100
AcDbBlockBegin
  2
_D_4
 70
     0
 10
0.0
 20
0.0
 30
0.0
  3
_D_4
  1

  0
SOLID
  5
153
330
150
100
AcDbEntity
  8
VERMASSUNG
100
AcDbTrace
 10
244.7424158552
 20
131.2874537988
 30
0.0
 11
244.2924158552
 21
128.2874537988
 31
0.0
 12
245.1924158552
 22
128.2874537988
 32
0.0
 13
245.1924158552
 23
128.2874537988
 33
0.0
  0
SOLID
  5
154
330
150
100
AcDbEntity
  8
VERMASSUNG
100
AcDbTrace
 10
244.7424158552
 20
89.2874537988
 30
0.0
 11
245.1924158552
 21
92.2874537988
 31
0.0
 12
244.2924158552
 22
92.2874537988
 32
0.0
 13
244.2924158552
 23
92.2874537988
 33
0.0
  0
LINE
  5
155
330
150
100
AcDbEntity
  8
VERMASSUNG
100
AcDbLine
 10
236.4771868583
 20
131.2874537988
 30
0.0
 11
245.7424158552
 21
131.2874537988
 31
0.0
  0
LINE
  5
156
330
150
100
AcDbEntity
  8
VERMASSUNG
100
AcDbLine
 10
236.4771868583
 20
89.2874537988
 30
0.0
 11
245.7424158552
 21
89.2874537988
 31
0.0
  0
LINE
  5
157
330
150
100
AcDbEntity
  8
VERMASSUNG
100
AcDbLine
 10
244.7424158552
 20
131.2874537988
 30
0.0
 11
244.7424158552
 21
89.2874537988
 31
0.0
  0
MTEXT
  5
158
330
150
100
AcDbEntity
  8
VERMASSUNG
100
AcDbMText
 10
241.964280599
 20
103.7824543251
 30
0.0
 40
2.0
 41
0.0
 71
     1
 72
     1
  1
MBM
  7
SLDTEXTSTYLE0
 11
-7.044195017643634E-15
 21
1.0
 31
0.0
 73
     1
 44
1.0
  0
MTEXT
  5
159
330
150
100
AcDbEntity
  8
VERMASSUNG
100
AcDbMText
 10
242.1642805503
 20
110.1824541634
 30
0.0
 40
2.0
 41
0.0
 71
     1
 72
     1
  1
%%c
  7
SLDTEXTSTYLE0
 11
-7.044195017643634E-15
 21
1.0
 31
0.0
 73
     1
 44
1.0
  0
MTEXT
  5
15A
330
150
100
AcDbEntity
  8
VERMASSUNG
100
AcDbMText
 10
241.964280599
 20
113.7924546434
 30
0.0
 40
2.0
 41
0.0
 71
     1
 72
     1
  1
42
  7
SLDTEXTSTYLE0
 11
-7.044195017643634E-15
 21
1.0
 31
0.0
 73
     1
 44
1.0
  0
ENDBLK
  5
152
330
150
100
AcDbEntity
  8
0
100
AcDbBlockEnd
  0
ENDSEC
  0
SECTION
  2
ENTITIES
  0
MTEXT
  5
78
330
1F
100
AcDbEntity
  8
KOPF_DÜNN
100
AcDbMText
 10
13.8892156294
 20
23.8442973028
 30
0.0
 40
3.0
 41
0.0
 71
     1
 72
     1
  1
102.412.422
  7
SLDTEXTSTYLE0
 73
     1
 44
1.0
  0
MTEXT
  5
79
330
1F
100
AcDbEntity
  8
VERMASSUNG
100
AcDbMText
 10
13.9329988022
 20
28.8834360957
 30
0.0
 40
3.0
 41
0.0
 71
     1
 72
     1
  1
Aufnahme_Master shank MBM 42
  7
SLDTEXTSTYLE0
 73
     1
 44
1.0
  0
MTEXT
  5
7A
330
1F
100
AcDbEntity
  8
VERMASSUNG
100
AcDbMText
 10
98.8601118557
 20
13.8365368761
 30
0.0
 40
2.0
 41
0.0
 71
     1
 72
     1
  1
Datum: 22.11.2007
  7
SLDTEXTSTYLE0
 73
     1
 44
1.0
  0
MTEXT
  5
7C
330
1F
100
AcDbEntity
  8
VERMASSUNG
100
AcDbMText
 10
13.933048693
 20
18.0482802738
 30
0.0
 40
2.0
 41
0.0
 71
     1
 72
     1
  1
MAS BT 40 / MBM 42
  7
SLDTEXTSTYLE1
 73
     1
 44
1.0
  0
MTEXT
  5
7D
330
1F
100
AcDbEntity
  8
VERMASSUNG
100
AcDbMText
 10
13.9808475933
 20
13.9090974274
 30
0.0
 40
2.0
 41
0.0
 71
     1
 72
     1
  1
Gewicht: 1722g
  7
SLDTEXTSTYLE0
 73
     1
 44
1.0
  0
LINE
  5
7E
330
1F
100
AcDbEntity
  8
0
  6
Continuous
 62
     7
370
    15
100
AcDbLine
 10
153.8778047149
 20
78.7874537988
 30
0.0
 11
155.8771868583
 21
78.7874537988
 31
0.0
  0
LINE
  5
7F
330
1F
100
AcDbEntity
  8
0
  6
Continuous
 62
     7
370
    15
100
AcDbLine
 10
155.8771868583
 20
141.7874537988
 30
0.0
 11
153.8766866883
 21
141.7874537988
 31
0.0
  0
ARC
  5
80
330
1F
100
AcDbEntity
  8
0
  6
Continuous
 62
     7
370
    15
100
AcDbCircle
 10
155.8771868583
 20
79.7874537988
 30
0.0
 40
1.0
100
AcDbArc
 50
270.0
 51
0.0
  0
ARC
  5
81
330
1F
100
AcDbEntity
  8
0
  6
Continuous
 62
     7
370
    15
100
AcDbCircle
 10
155.8771868583
 20
140.7874537988
 30
0.0
 40
1.0
100
AcDbArc
 50
0.0
 51
90.0
  0
ARC
  5
82
330
1F
100
AcDbEntity
  8
0
  6
Continuous
 62
     7
370
    15
100
AcDbCircle
 10
160.8771868583
 20
85.2874537988
 30
0.0
 40
4.0
100
AcDbArc
 50
90.0
 51
180.0
  0
ARC
  5
83
330
1F
100
AcDbEntity
  8
0
  6
Continuous
 62
     7
370
    15
100
AcDbCircle
 10
160.8771868583
 20
135.2874537988
 30
0.0
 40
4.000000000000028
100
AcDbArc
 50
180.0
 51
270.0
  0
ARC
  5
84
330
1F
100
AcDbEntity
  8
0
  6
Continuous
 62
     7
370
    15
100
AcDbCircle
 10
130.8771868583
 20
87.0624537988
 30
0.0
 40
1.000000000000017
100
AcDbArc
 50
46.4289202303
 51
90.0
  0
ARC
  5
85
330
1F
100
AcDbEntity
  8
0
  6
Continuous
 62
     7
370
    15
100
AcDbCircle
 10
130.8771868583
 20
133.5124537988
 30
0.0
 40
1.000000000000004
100
AcDbArc
 50
270.0
 51
313.5373327693
  0
LINE
  5
86
330
1F
100
AcDbEntity
  8
0
  6
Continuous
 62
     7
370
    15
100
AcDbLine
 10
129.8771868583
 20
132.5124537988
 30
0.0
 11
65.3328799652
 21
123.0997423769
 31
0.0
  0
LINE
  5
87
330
1F
100
AcDbEntity
  8
0
  6
Continuous
 62
     7
370
    15
100
AcDbLine
 10
65.3328799652
 20
97.4751652207
 30
0.0
 11
129.8771868583
 21
88.0624537988
 31
0.0
  0
LINE
  5
88
330
1F
100
AcDbEntity
  8
0
  6
Continuous
 62
     7
370
    15
100
AcDbLine
 10
129.8771868583
 20
88.0624537988
 30
0.0
 11
130.8771868583
 21
88.0624537988
 31
0.0
  0
LINE
  5
89
330
1F
100
AcDbEntity
  8
0
  6
Continuous
 62
     7
370
    15
100
AcDbLine
 10
130.8771868583
 20
132.5124537988
 30
0.0
 11
129.8771868583
 21
132.5124537988
 31
0.0
  0
LINE
  5
8A
330
1F
100
AcDbEntity
  8
0
  6
Continuous
 62
     7
370
    15
100
AcDbLine
 10
160.8771868583
 20
89.2874537988
 30
0.0
 11
236.4771868583
 21
89.2874537988
 31
0.0
  0
LINE
  5
8B
330
1F
100
AcDbEntity
  8
0
  6
Continuous
 62
     7
370
    15
100
AcDbLine
 10
236.4771868583
 20
131.2874537988
 30
0.0
 11
160.8771868583
 21
131.2874537988
 31
0.0
  0
LINE
  5
8C
330
1F
100
AcDbEntity
  8
0
  6
Continuous
 62
     7
370
    15
100
AcDbLine
 10
236.4771868583
 20
89.2874537988
 30
0.0
 11
236.8771868583
 21
89.6874537988
 31
0.0
  0
LINE
  5
8D
330
1F
100
AcDbEntity
  8
0
  6
Continuous
 62
     7
370
    15
100
AcDbLine
 10
236.8771868583
 20
130.8874537988
 30
0.0
 11
236.4771868583
 21
131.2874537988
 31
0.0
  0
ARC
  5
8E
330
1F
100
AcDbEntity
  8
0
  6
Continuous
 62
     7
370
    15
100
AcDbCircle
 10
65.4771868583
 20
98.4646982017
 30
0.0
 40
1.00000000000001
100
AcDbArc
 50
180.0
 51
261.7028550302
  0
ARC
  5
8F
330
1F
100
AcDbEntity
  8
0
  6
Continuous
 62
     7
370
    15
100
AcDbCircle
 10
65.4771868583
 20
122.1102093958
 30
0.0
 40
1.00000000000001
100
AcDbArc
 50
98.2971449698
 51
180.0
  0
SPLINE
  5
90
330
1F
100
AcDbEntity
  8
0
  6
Continuous
 62
     7
370
    15
100
AcDbSpline
210
0.0
220
0.0
230
1.0
 70
     8
 71
     3
 72
    10
 73
     6
 74
     0
 42
0.000000001
 43
0.00000001
 40
0.0
 40
0.0
 40
0.0
 40
0.0
 40
0.5
 40
0.5
 40
1.0
 40
1.0
 40
1.0
 40
1.0
 10
150.8537952623617
 20
140.1919145201221
 30
0.0
 10
150.5376914312223
 20
139.5720519618449
 30
0.0
 10
150.2079123868775
 20
138.9261512265461
 30
0.0
 10
149.5356891144887
 20
137.6117325862456
 30
0.0
 10
149.1935559485581
 20
136.9438103592333
 30
0.0
 10
148.8463756200439
 20
136.2674726267519
 30
0.0
  0
SPLINE
  5
91
330
1F
100
AcDbEntity
  8
0
  6
Continuous
 62
     7
370
    15
100
AcDbSpline
210
0.0
220
0.0
230
1.0
 70
     8
 71
     3
 72
     9
 73
     5
 74
     0
 42
0.000000001
 43
0.00000001
 40
0.0
 40
0.0
 40
0.0
 40
0.0
 40
0.5067595796306674
 40
1.0
 40
1.0
 40
1.0
 40
1.0
 10
151.5028174013008
 20
141.1495889061169
 30
0.0
 10
151.3924170535188
 20
140.9875139677851
 30
0.0
 10
151.1745615807866
 20
140.6676878710589
 30
0.0
 10
150.9599684785725
 20
140.3493398914086
 30
0.0
 10
150.8541224866281
 20
140.1923178001022
 30
0.0
  0
LINE
  5
92
330
1F
100
AcDbEntity
  8
0
  6
Continuous
 62
     7
370
    15
100
AcDbLine
 10
151.5021868583
 20
79.4263557792
 30
0.0
 11
151.5021868583
 21
141.1485355533
 31
0.0
  0
SPLINE
  5
93
330
1F
100
AcDbEntity
  8
0
  6
Continuous
 62
     7
370
    15
100
AcDbSpline
210
0.0
220
0.0
230
1.0
 70
     8
 71
     3
 72
     9
 73
     5
 74
     0
 42
0.000000001
 43
0.00000001
 40
0.0
 40
0.0
 40
0.0
 40
0.0
 40
0.4932426507672939
 40
1.0
 40
1.0
 40
1.0
 40
1.0
 10
150.8541085716052
 20
80.38258769706322
 30
0.0
 10
150.9599546767309
 20
80.22556445723582
 30
0.0
 10
151.1745470380382
 20
79.90721558861482
 30
0.0
 10
151.3924013260042
 20
79.58738954189862
 30
0.0
 10
151.5028005874929
 20
79.42531534224914
 30
0.0
  0
SPLINE
  5
94
330
1F
100
AcDbEntity
  8
0
  6
Continuous
 62
     7
370
    15
100
AcDbSpline
210
0.0
220
0.0
230
1.0
 70
     8
 71
     3
 72
    10
 73
     6
 74
     0
 42
0.000000001
 43
0.00000001
 40
0.0
 40
0.0
 40
0.0
 40
0.0
 40
0.5
 40
0.5
 40
1.0
 40
1.0
 40
1.0
 40
1.0
 10
150.8537893426939
 20
80.38300468556297
 30
0.0
 10
150.5376102400198
 20
81.00301483757669
 30
0.0
 10
150.2071680128528
 20
81.65021290344437
 30
0.0
 10
149.5354564921701
 20
82.96362882803815
 30
0.0
 10
149.1934826171381
 20
83.63124009434095
 30
0.0
 10
148.8463756200439
 20
84.3074349707841
 30
0.0
  0
SPLINE
  5
95
330
1F
100
AcDbEntity
  8
0
  6
Continuous
 62
     7
370
    15
100
AcDbSpline
210
0.0
220
0.0
230
1.0
 70
     8
 71
     3
 72
    11
 73
     7
 74
     0
 42
0.000000001
 43
0.00000001
 40
0.0
 40
0.0
 40
0.0
 40
0.0
 40
0.2488814606694497
 40
0.5011921284373979
 40
0.7520447562609068
 40
1.0
 40
1.0
 40
1.0
 40
1.0
 10
153.8766866882992
 20
141.7873040533615
 30
0.0
 10
153.8469083588128
 20
141.7781720272171
 30
0.0
 10
153.7869413998579
 20
141.7597821495302
 30
0.0
 10
153.2950193380643
 20
141.615744901044
 30
0.0
 10
152.5669499154235
 20
141.406341822934
 30
0.0
 10
151.856206444259
 20
141.2341375535837
 30
0.0
 10
151.5028989271252
 20
141.1485355532665
 30
0.0
  0
SPLINE
  5
96
330
1F
100
AcDbEntity
  8
0
  6
Continuous
 62
     7
370
    15
100
AcDbSpline
210
0.0
220
0.0
230
1.0
 70
     8
 71
     3
 72
    24
 73
    20
 74
     0
 42
0.000000001
 43
0.00000001
 40
0.0
 40
0.0
 40
0.0
 40
0.0
 40
0.0452526285779199
 40
0.0903797919997872
 40
0.1354297334762094
 40
0.1804509444415869
 40
0.2254920091019758
 40
0.2706014474912611
 40
0.3158275595596116
 40
0.361218272779684
 40
0.4068209956259345
 40
0.4526824790694493
 40
0.4988486879483424
 40
0.5834875413230236
 40
0.6672865896625026
 40
0.7505381947447017
 40
0.833540503368218
 40
0.9165943471357945
 40
1.0
 40
1.0
 40
1.0
 40
1.0
 10
151.5028055517339
 20
79.42635577923251
 30
0.0
 10
151.570509293644
 20
79.41059673821266
 30
0.0
 10
151.7057290654833
 20
79.37912234889544
 30
0.0
 10
151.8983907823391
 20
79.33266154555169
 30
0.0
 10
152.0831276540012
 20
79.28703056591634
 30
0.0
 10
152.2592455953011
 20
79.24240526848168
 30
0.0
 10
152.4269293879189
 20
79.19891798188142
 30
0.0
 10
152.586128872205
 20
79.15671693408785
 30
0.0
 10
152.7368570107053
 20
79.11595034176383
 30
0.0
 10
152.8791099640523
 20
79.0767705892099
 30
0.0
 10
153.0128887194404
 20
79.0393332972168
 30
0.0
 10
153.1381926291655
 20
79.0037967139774
 30
0.0
 10
153.2871717520673
 20
78.96111458812113
 30
0.0
 10
153.4478278505713
 20
78.91463789410288
 30
0.0
 10
153.6036512577603
 20
78.86900892128692
 30
0.0
 10
153.7252408824748
 20
78.83299018693398
 30
0.0
 10
153.8117500814932
 20
78.80709953533011
 30
0.0
 10
153.8662656046804
 20
78.79063482716856
 30
0.0
 10
153.873534841347
 20
78.78851614460591
 30
0.0
 10
153.8771771413795
 20
78.78745456442621
 30
0.0
  0
LINE
  5
97
330
1F
100
AcDbEntity
  8
0
  6
Continuous
 62
     7
370
    15
100
AcDbLine
 10
156.8771868583
 20
79.7874537988
 30
0.0
 11
156.8771868583
 21
140.7874537988
 31
0.0
  0
LINE
  5
98
330
1F
100
AcDbEntity
  8
0
  6
Continuous
 62
     7
370
    15
100
AcDbLine
 10
131.8771868583
 20
81.1610482533
 30
0.0
 11
131.8771868583
 21
139.4138593443
 31
0.0
  0
SPLINE
  5
99
330
1F
100
AcDbEntity
  8
0
  6
Continuous
 62
     7
370
    15
100
AcDbSpline
210
0.0
220
0.0
230
1.0
 70
     8
 71
     3
 72
    12
 73
     8
 74
     0
 42
0.000000001
 43
0.00000001
 40
0.0
 40
0.0
 40
0.0
 40
0.0
 40
0.2499999999999997
 40
0.2499999999999997
 40
0.4999999999999993
 40
0.4999999999999993
 40
1.0
 40
1.0
 40
1.0
 40
1.0
 10
132.2642196812817
 20
140.3544436985889
 30
0.0
 10
132.2123589300937
 20
140.2976311262745
 30
0.0
 10
132.1636271330747
 20
140.2356389400227
 30
0.0
 10
132.0734541231573
 20
140.0995858668987
 30
0.0
 10
132.0316768748723
 20
140.0246797643
 30
0.0
 10
131.9255880050264
 20
139.7865531290026
 30
0.0
 10
131.8771868583162
 20
139.6031463974338
 30
0.0
 10
131.8771868583162
 20
139.413859344252
 30
0.0
  0
SPLINE
  5
9A
330
1F
100
AcDbEntity
  8
0
  6
Continuous
 62
     7
370
    15
100
AcDbSpline
210
0.0
220
0.0
230
1.0
 70
     8
 71
     3
 72
     8
 73
     4
 74
     0
 42
0.000000001
 43
0.00000001
 40
0.0
 40
0.0
 40
0.0
 40
0.0
 40
1.0
 40
1.0
 40
1.0
 40
1.0
 10
132.8771868583162
 20
140.5238439017698
 30
0.0
 10
132.6508425447164
 20
140.5238439017698
 30
0.0
 10
132.4333904243112
 20
140.4604754327489
 30
0.0
 10
132.2642196812818
 20
140.3544436985889
 30
0.0
  0
SPLINE
  5
9B
330
1F
100
AcDbEntity
  8
0
  6
Continuous
 62
     7
370
    15
100
AcDbSpline
210
0.0
220
0.0
230
1.0
 70
     8
 71
     3
 72
     8
 73
     4
 74
     0
 42
0.000000001
 43
0.00000001
 40
0.0
 40
0.0
 40
0.0
 40
0.0
 40
1.0
 40
1.0
 40
1.0
 40
1.0
 10
132.2642196812818
 20
80.22046389894703
 30
0.0
 10
132.4338131869337
 20
80.11416718838983
 30
0.0
 10
132.6501818792669
 20
80.05106369576615
 30
0.0
 10
132.8771868583162
 20
80.05106369576615
 30
0.0
  0
SPLINE
  5
9C
330
1F
100
AcDbEntity
  8
0
  6
Continuous
 62
     7
370
    15
100
AcDbSpline
210
0.0
220
0.0
230
1.0
 70
     8
 71
     3
 72
    12
 73
     8
 74
     0
 42
0.000000001
 43
0.00000001
 40
0.0
 40
0.0
 40
0.0
 40
0.0
 40
0.2500000000000004
 40
0.2500000000000004
 40
0.5000000000000009
 40
0.5000000000000009
 40
1.0
 40
1.0
 40
1.0
 40
1.0
 10
132.2642196812818
 20
80.22046389894702
 30
0.0
 10
132.2123589300937
 20
80.27727647126142
 30
0.0
 10
132.1636271330748
 20
80.33926865751323
 30
0.0
 10
132.0734541231573
 20
80.47532173063723
 30
0.0
 10
132.0316768748723
 20
80.55022783323595
 30
0.0
 10
131.9255880050264
 20
80.78835446853336
 30
0.0
 10
131.8771868583162
 20
80.97176120010214
 30
0.0
 10
131.8771868583162
 20
81.161048253284
 30
0.0
  0
SPLINE
  5
9D
330
1F
100
AcDbEntity
  8
0
  6
Continuous
 62
     7
370
    15
100
AcDbSpline
210
0.0
220
0.0
230
1.0
 70
     8
 71
     3
 72
     8
 73
     4
 74
     0
 42
0.000000001
 43
0.00000001
 40
0.0
 40
0.0
 40
0.0
 40
0.0
 40
0.0012389803509652
 40
0.0012389803509652
 40
0.0012389803509652
 40
0.0012389803509652
 10
142.00974840185
 20
139.7414765215544
 30
0.0
 10
141.8246284287172
 20
140.0025265029334
 30
0.0
 10
141.6387499809582
 20
140.2633081160525
 30
0.0
 10
141.4521868583162
 20
140.5238439017698
 30
0.0
  0
SPLINE
  5
9E
330
1F
100
AcDbEntity
  8
0
  6
Continuous
 62
     7
370
    15
100
AcDbSpline
210
0.0
220
0.0
230
1.0
 70
     8
 71
     3
 72
     8
 73
     4
 74
     0
 42
0.000000001
 43
0.00000001
 40
0.0
 40
0.0
 40
0.0
 40
0.0
 40
1.0
 40
1.0
 40
1.0
 40
1.0
 10
144.1079980965885
 20
135.954699463233
 30
0.0
 10
143.411704730547
 20
137.2186378313478
 30
0.0
 10
142.7119095653559
 20
138.480693276856
 30
0.0
 10
142.00974840185
 20
139.7414765215544
 30
0.0
  0
SPLINE
  5
9F
330
1F
100
AcDbEntity
  8
0
  6
Continuous
 62
     7
370
    15
100
AcDbSpline
210
0.0
220
0.0
230
1.0
 70
     8
 71
     3
 72
     8
 73
     4
 74
     0
 42
0.000000001
 43
0.00000001
 40
0.0
 40
0.0
 40
0.0
 40
0.0
 40
1.0
 40
1.0
 40
1.0
 40
1.0
 10
144.1079980965885
 20
84.62020813430291
 30
0.0
 10
143.4116799559305
 20
83.35622479435614
 30
0.0
 10
142.7118827638201
 20
82.09416619650419
 30
0.0
 10
142.00974840185
 20
80.83343107598151
 30
0.0
  0
SPLINE
  5
A0
330
1F
100
AcDbEntity
  8
0
  6
Continuous
 62
     7
370
    15
100
AcDbSpline
210
0.0
220
0.0
230
1.0
 70
     8
 71
     3
 72
     8
 73
     4
 74
     0
 42
0.000000001
 43
0.00000001
 40
0.0
 40
0.0
 40
0.0
 40
0.0
 40
0.0012389803509652
 40
0.0012389803509652
 40
0.0012389803509652
 40
0.0012389803509652
 10
141.4521868583162
 20
80.05106369576615
 30
0.0
 10
141.6387499809582
 20
80.3115994814835
 30
0.0
 10
141.8246284287171
 20
80.5723810946025
 30
0.0
 10
142.00974840185
 20
80.83343107598151
 30
0.0
  0
LINE
  5
A1
330
1F
100
AcDbEntity
  8
0
  6
Continuous
 62
     7
370
    15
100
AcDbLine
 10
141.4521868583
 20
80.0510636958
 30
0.0
 11
141.4521868583
 21
140.5238439018
 31
0.0
  0
LINE
  5
A2
330
1F
100
AcDbEntity
  8
0
  6
Continuous
 62
     7
370
    15
100
AcDbLine
 10
141.4521868583
 20
140.5238439018
 30
0.0
 11
132.8771868583
 21
140.5238439018
 31
0.0
  0
LINE
  5
A3
330
1F
100
AcDbEntity
  8
0
  6
Continuous
 62
     7
370
    15
100
AcDbLine
 10
132.8771868583
 20
80.0510636958
 30
0.0
 11
141.4521868583
 21
80.0510636958
 31
0.0
  0
SPLINE
  5
A4
330
1F
100
AcDbEntity
  8
0
  6
Continuous
 62
     7
370
    15
100
AcDbSpline
210
0.0
220
0.0
230
1.0
 70
     8
 71
     3
 72
    12
 73
     8
 74
     0
 42
0.000000001
 43
0.00000001
 40
0.0
 40
0.0
 40
0.0
 40
0.0
 40
0.2499999999999998
 40
0.2499999999999998
 40
0.4999999999999996
 40
0.4999999999999996
 40
1.0
 40
1.0
 40
1.0
 40
1.0
 10
148.846375620044
 20
136.2674726267519
 30
0.0
 10
148.8104714697074
 20
136.1975281926037
 30
0.0
 10
148.7679399175779
 20
136.1342768295459
 30
0.0
 10
148.6711456407379
 20
136.0192181746299
 30
0.0
 10
148.6160559624736
 20
135.966889640918
 30
0.0
 10
148.4379227289197
 20
135.8331047378329
 30
0.0
 10
148.3005456369171
 20
135.7725569706747
 30
0.0
 10
148.1535552970172
 20
135.7533570222908
 30
0.0
  0
SPLINE
  5
A5
330
1F
100
AcDbEntity
  8
0
  6
Continuous
 62
     7
370
    15
100
AcDbSpline
210
0.0
220
0.0
230
1.0
 70
     8
 71
     3
 72
    12
 73
     8
 74
     0
 42
0.000000001
 43
0.00000001
 40
0.0
 40
0.0
 40
0.0
 40
0.0
 40
0.2500000000000005
 40
0.2500000000000005
 40
0.500000000000001
 40
0.500000000000001
 40
1.0
 40
1.0
 40
1.0
 40
1.0
 10
148.8463756200439
 20
84.30743497078409
 30
0.0
 10
148.8104714697074
 20
84.37737940493226
 30
0.0
 10
148.7679399175779
 20
84.44063076799009
 30
0.0
 10
148.6711456407379
 20
84.55568942290603
 30
0.0
 10
148.6160559624736
 20
84.60801795661799
 30
0.0
 10
148.4379227289197
 20
84.74180285970307
 30
0.0
 10
148.3005456369171
 20
84.80235062686124
 30
0.0
 10
148.1535552970172
 20
84.82155057524513
 30
0.0
  0
SPLINE
  5
A6
330
1F
100
AcDbEntity
  8
0
  6
Continuous
 62
     7
370
    15
100
AcDbSpline
210
0.0
220
0.0
230
1.0
 70
     8
 71
     3
 72
    10
 73
     6
 74
     0
 42
0.000000001
 43
0.00000001
 40
0.0
 40
0.0
 40
0.0
 40
0.0
 40
0.5
 40
0.5
 40
1.0
 40
1.0
 40
1.0
 40
1.0
 10
144.8008184196161
 20
135.5351764683475
 30
0.0
 10
144.6588011071691
 20
135.5351764683475
 30
0.0
 10
144.5183540603068
 20
135.575666320557
 30
0.0
 10
144.2767641410455
 20
135.7236021504961
 30
0.0
 10
144.1760866987922
 20
135.8311024264756
 30
0.0
 10
144.1079980965886
 20
135.9546994632327
 30
0.0
  0
SPLINE
  5
A7
330
1F
100
AcDbEntity
  8
0
  6
Continuous
 62
     7
370
    15
100
AcDbSpline
210
0.0
220
0.0
230
1.0
 70
     8
 71
     3
 72
    10
 73
     6
 74
     0
 42
0.000000001
 43
0.00000001
 40
0.0
 40
0.0
 40
0.0
 40
0.0
 40
0.5
 40
0.5
 40
1.0
 40
1.0
 40
1.0
 40
1.0
 10
144.8008184196161
 20
85.03973112918844
 30
0.0
 10
144.6599610551054
 20
85.03973112918844
 30
0.0
 10
144.5171269236312
 20
84.99862722336975
 30
0.0
 10
144.2768652328579
 20
84.85122933006879
 30
0.0
 10
144.1761589637784
 20
84.74393634922913
 30
0.0
 10
144.1079980965885
 20
84.62020813430293
 30
0.0
  0
LINE
  5
A8
330
1F
100
AcDbEntity
  8
0
  6
Continuous
 62
     7
370
    15
100
AcDbLine
 10
144.8271868583
 20
85.0397311292
 30
0.0
 11
144.8008184196
 21
85.0397311292
 31
0.0
  0
LINE
  5
A9
330
1F
100
AcDbEntity
  8
0
  6
Continuous
 62
     7
370
    15
100
AcDbLine
 10
144.8271868583
 20
135.5351764683
 30
0.0
 11
144.8008184196
 21
135.5351764683
 31
0.0
  0
SPLINE
  5
AA
330
1F
100
AcDbEntity
  8
0
  6
Continuous
 62
     7
370
    15
100
AcDbSpline
210
0.0
220
0.0
230
1.0
 70
     8
 71
     3
 72
    10
 73
     6
 74
     0
 42
0.000000001
 43
0.00000001
 40
0.0
 40
0.0
 40
0.0
 40
0.0
 40
0.5
 40
0.5
 40
1.0
 40
1.0
 40
1.0
 40
1.0
 10
148.1535552970164
 20
135.7533570222938
 30
0.0
 10
147.6316405726205
 20
135.6851842717855
 30
0.0
 10
147.0927893925111
 20
135.6305610068276
 30
0.0
 10
145.981426750479
 20
135.5554651539363
 30
0.0
 10
145.404585973283
 20
135.5351764683475
 30
0.0
 10
144.8271868583162
 20
135.5351764683475
 30
0.0
  0
SPLINE
  5
AB
330
1F
100
AcDbEntity
  8
0
  6
Continuous
 62
     7
370
    15
100
AcDbSpline
210
0.0
220
0.0
230
1.0
 70
     8
 71
     3
 72
    10
 73
     6
 74
     0
 42
0.000000001
 43
0.00000001
 40
0.0
 40
0.0
 40
0.0
 40
0.0
 40
0.5
 40
0.5
 40
1.0
 40
1.0
 40
1.0
 40
1.0
 10
148.1535552970164
 20
84.8215505752422
 30
0.0
 10
147.6316405726205
 20
84.8897233257504
 30
0.0
 10
147.0927893925111
 20
84.94434659070835
 30
0.0
 10
145.981426750479
 20
85.01944244359969
 30
0.0
 10
145.404585973283
 20
85.03973112918844
 30
0.0
 10
144.8271868583162
 20
85.03973112918844
 30
0.0
  0
SPLINE
  5
AC
330
1F
100
AcDbEntity
  8
0
  6
Continuous
 62
     7
370
    15
100
AcDbSpline
210
0.0
220
0.0
230
1.0
 70
    24
 71
     3
 72
    16
 73
    12
 74
     0
 42
0.000000001
 43
0.00000001
 40
0.0
 40
0.0
 40
0.0
 40
0.0
 40
0.5000000000000001
 40
0.5000000000000001
 40
0.75
 40
0.75
 40
0.875
 40
0.875
 40
0.9375
 40
0.9375
 40
1.0
 40
1.0
 40
1.0
 40
1.0
 10
131.8771868583162
 20
132.787453798768
 30
0.0
 10
131.8771868583162
 20
132.787453798768
 30
0.0
 10
131.7963867192666
 20
132.787453798768
 30
0.0
 10
131.6788147438464
 20
132.787453798768
 30
0.0
 10
131.6398730037511
 20
132.787453798768
 30
0.0
 10
131.5972978269483
 20
132.787453798768
 30
0.0
 10
131.5857636040536
 20
132.787453798768
 30
0.0
 10
131.5739941106832
 20
132.787453798768
 30
0.0
 10
131.57098684816
 20
132.787453798768
 30
0.0
 10
131.5669573536325
 20
132.787453798768
 30
0.0
 10
131.5659355954525
 20
132.787453798768
 30
0.0
 10
131.5659357240258
 20
132.787453798768
 30
0.0
  0
SPLINE
  5
AD
330
1F
100
AcDbEntity
  8
0
  6
Continuous
 62
     7
370
    15
100
AcDbSpline
210
0.0
220
0.0
230
1.0
 70
    24
 71
     3
 72
     9
 73
     5
 74
     0
 42
0.000000001
 43
0.00000001
 40
0.0
 40
0.0
 40
0.0
 40
0.0
 40
0.8849597841455179
 40
1.0
 40
1.0
 40
1.0
 40
1.0
 10
131.565936738461
 20
87.78745379876798
 30
0.0
 10
131.5825096866349
 20
87.78745379876797
 30
0.0
 10
131.601237032748
 20
87.78745379876798
 30
0.0
 10
131.6620819390959
 20
87.78745379876797
 30
0.0
 10
131.6690815502557
 20
87.78745379876798
 30
0.0
  0
LINE
  5
AE
330
1F
100
AcDbEntity
  8
0
  6
Continuous
 62
     7
370
    15
100
AcDbLine
 10
129.8771868583
 20
88.0624537988
 30
0.0
 11
129.8771868583
 21
132.5124537988
 31
0.0
  0
LINE
  5
AF
330
1F
100
AcDbEntity
  8
0
  6
Continuous
 62
     7
370
    15
100
AcDbLine
 10
236.4771868583
 20
89.2874537988
 30
0.0
 11
236.4771868583
 21
131.2874537988
 31
0.0
  0
SPLINE
  5
B0
330
1F
100
AcDbEntity
  8
0
  6
Continuous
 62
     7
370
    15
100
AcDbSpline
210
0.0
220
0.0
230
1.0
 70
     8
 71
     3
 72
    54
 73
    50
 74
     0
 42
0.000000001
 43
0.00000001
 40
0.0
 40
0.0
 40
0.0
 40
0.0
 40
0.0312499999999986
 40
0.0312499999999986
 40
0.0624999999999971
 40
0.0624999999999971
 40
0.1249999999999947
 40
0.1249999999999947
 40
0.1874999999999922
 40
0.1874999999999922
 40
0.218749999999991
 40
0.218749999999991
 40
0.2499999999999897
 40
0.2499999999999897
 40
0.3124999999999871
 40
0.3124999999999871
 40
0.3749999999999845
 40
0.3749999999999845
 40
0.406249999999984
 40
0.406249999999984
 40
0.4374999999999836
 40
0.4374999999999836
 40
0.4999999999999827
 40
0.4999999999999827
 40
0.5312499999999822
 40
0.5312499999999822
 40
0.5624999999999818
 40
0.5624999999999818
 40
0.6249999999999809
 40
0.6249999999999809
 40
0.6562499999999813
 40
0.6562499999999813
 40
0.6874999999999818
 40
0.6874999999999818
 40
0.7499999999999843
 40
0.7499999999999843
 40
0.7812499999999863
 40
0.7812499999999863
 40
0.8124999999999883
 40
0.8124999999999883
 40
0.8749999999999922
 40
0.8749999999999922
 40
0.9062499999999941
 40
0.9062499999999941
 40
0.9374999999999961
 40
0.9374999999999961
 40
0.9687499999999981
 40
0.9687499999999981
 40
1.0
 40
1.0
 40
1.0
 40
1.0
 10
231.8271868583162
 20
110.287453798768
 30
0.0
 10
231.8271868583162
 20
110.0585836347454
 30
0.0
 10
231.8130087253947
 20
109.829528895948
 30
0.0
 10
231.7556854395875
 20
109.3710426744034
 30
0.0
 10
231.7123309581756
 20
109.1420302146987
 30
0.0
 10
231.5432560065038
 20
108.4739869587528
 30
0.0
 10
231.3777206048632
 20
108.0458814265152
 30
0.0
 10
230.949565699407
 20
107.2289016054681
 30
0.0
 10
230.6935715399257
 20
106.8518651058593
 30
0.0
 10
230.2535774934378
 20
106.3275566093092
 30
0.0
 10
230.0966629723476
 20
106.1589865345398
 30
0.0
 10
229.7688080393459
 20
105.8399281872882
 30
0.0
 10
229.5980202206033
 20
105.6893835821596
 30
0.0
 10
229.0661826185936
 20
105.262940953371
 30
0.0
 10
228.6843542444643
 20
105.01120440559
 30
0.0
 10
227.8761759622793
 20
104.5752909043869
 30
0.0
 10
227.4575303330142
 20
104.3949363273402
 30
0.0
 10
226.8088246616776
 20
104.1768037636598
 30
0.0
 10
226.5891080548387
 20
104.1128953639383
 30
0.0
 10
226.1426178683368
 20
104.0027720065267
 30
0.0
 10
225.9150837214887
 20
103.9565037099717
 30
0.0
 10
225.2335851672759
 20
103.8466229612428
 30
0.0
 10
224.7774935281107
 20
103.8106621558025
 30
0.0
 10
224.090769722178
 20
103.811263451931
 30
0.0
 10
223.8614283835652
 20
103.8206098769566
 30
0.0
 10
223.4018591387352
 20
103.858036916068
 30
0.0
 10
223.1711338290633
 20
103.8862892097584
 30
0.0
 10
222.4905059711411
 20
103.9978798192862
 30
0.0
 10
222.0479177057613
 20
104.1079704799304
 30
0.0
 10
221.4005903625587
 20
104.3268352661961
 30
0.0
 10
221.1875896267009
 20
104.4088005731749
 30
0.0
 10
220.7673182437678
 20
104.5915291030631
 30
0.0
 10
220.5596330901263
 20
104.6926322913185
 30
0.0
 10
219.9577716375423
 20
105.0189699113547
 30
0.0
 10
219.5804568143312
 20
105.268549566075
 30
0.0
 10
219.0514481838448
 20
105.6936207134986
 30
0.0
 10
218.8813159226855
 20
105.8438214500902
 30
0.0
 10
218.5542715935864
 20
106.1625816438957
 30
0.0
 10
218.3971534638589
 20
106.331610234767
 30
0.0
 10
217.9575769544647
 20
106.8562931497972
 30
0.0
 10
217.7026818449279
 20
107.2326726454043
 30
0.0
 10
217.3835260222485
 20
107.8420966965938
 30
0.0
 10
217.2874810381609
 20
108.0539399852451
 30
0.0
 10
217.1230291167764
 20
108.4822481156102
 30
0.0
 10
217.0538976927177
 20
108.6998182191077
 30
0.0
 10
216.9421392597201
 20
109.1419052157466
 30
0.0
 10
216.8995085387903
 20
109.3664211061015
 30
0.0
 10
216.8419771273957
 20
109.8227416614089
 30
0.0
 10
216.8271868583163
 20
110.0563757551454
 30
0.0
 10
216.8271868583162
 20
110.287453798768
 30
0.0
  0
SPLINE
  5
B1
330
1F
100
AcDbEntity
  8
0
  6
Continuous
 62
     7
370
    15
100
AcDbSpline
210
0.0
220
0.0
230
1.0
 70
     8
 71
     3
 72
    44
 73
    40
 74
     0
 42
0.000000001
 43
0.00000001
 40
0.0
 40
0.0
 40
0.0
 40
0.0
 40
0.062500000000001
 40
0.062500000000001
 40
0.0937500000000013
 40
0.0937500000000013
 40
0.1250000000000016
 40
0.1250000000000016
 40
0.1875000000000014
 40
0.1875000000000014
 40
0.2500000000000011
 40
0.2500000000000011
 40
0.3125000000000009
 40
0.3125000000000009
 40
0.3750000000000006
 40
0.3750000000000006
 40
0.4375000000000003
 40
0.4375000000000003
 40
0.5
 40
0.5
 40
0.5624999999999997
 40
0.5624999999999997
 40
0.6249999999999994
 40
0.6249999999999994
 40
0.6874999999999991
 40
0.6874999999999991
 40
0.7499999999999988
 40
0.7499999999999988
 40
0.8124999999999987
 40
0.8124999999999987
 40
0.8437499999999986
 40
0.8437499999999986
 40
0.8749999999999983
 40
0.8749999999999983
 40
0.937499999999999
 40
0.937499999999999
 40
0.9687499999999994
 40
0.9687499999999994
 40
1.0
 40
1.0
 40
1.0
 40
1.0
 10
216.8271868583162
 20
110.287453798768
 30
0.0
 10
216.8271868583162
 20
110.7501076905512
 30
0.0
 10
216.8846434542232
 20
111.2054734155888
 30
0.0
 10
217.0546057468374
 20
111.8779355476765
 30
0.0
 10
217.1255113071716
 20
112.1000097687766
 30
0.0
 10
217.2909103012359
 20
112.5289811706703
 30
0.0
 10
217.385752403561
 20
112.7374494563643
 30
0.0
 10
217.7049533330374
 20
113.3457853351178
 30
0.0
 10
217.9663688097812
 20
113.7306699351799
 30
0.0
 10
218.5540246106674
 20
114.4289271204363
 30
0.0
 10
218.8827178156479
 20
114.7471812267485
 30
0.0
 10
219.6017649849803
 20
115.3219458787158
 30
0.0
 10
219.9828710783605
 20
115.571241244138
 30
0.0
 10
220.781725080493
 20
116.0009005127929
 30
0.0
 10
221.1999719284719
 20
116.1815196896644
 30
0.0
 10
222.0747420329182
 20
116.4746662025127
 30
0.0
 10
222.5196138710475
 20
116.5832170184882
 30
0.0
 10
223.4217603684702
 20
116.7282067418024
 30
0.0
 10
223.8809389455678
 20
116.7647181530986
 30
0.0
 10
224.8062809178181
 20
116.7629461271808
 30
0.0
 10
225.2626833823673
 20
116.7249400707786
 30
0.0
 10
226.163396851116
 20
116.5769430323053
 30
0.0
 10
226.609372315668
 20
116.4664103646545
 30
0.0
 10
227.4815102575391
 20
116.1706095051987
 30
0.0
 10
227.8984689622563
 20
115.9887893949419
 30
0.0
 10
228.6947347076702
 20
115.5568570384999
 30
0.0
 10
229.0757135541061
 20
115.3055143272151
 30
0.0
 10
229.7891300688612
 20
114.7310572302248
 30
0.0
 10
230.1129904313929
 20
114.4153122642305
 30
0.0
 10
230.5478542768756
 20
113.8964630098403
 30
0.0
 10
230.6842569124851
 20
113.715918783798
 30
0.0
 10
230.9387589510526
 20
113.3384130173701
 30
0.0
 10
231.0575653563774
 20
113.140041200118
 30
0.0
 10
231.3777501789444
 20
112.5287411883151
 30
0.0
 10
231.5428098616583
 20
112.1025286700547
 30
0.0
 10
231.7123818648425
 20
111.4327535049325
 30
0.0
 10
231.7558103753884
 20
111.2029917084638
 30
0.0
 10
231.8129774994779
 20
110.7455021940227
 30
0.0
 10
231.8271868583163
 20
110.516570486875
 30
0.0
 10
231.8271868583162
 20
110.287453798768
 30
0.0
  0
LINE
  5
B2
330
1F
100
AcDbEntity
  8
0
  6
Continuous
 62
     7
370
    15
100
AcDbLine
 10
236.8771868583
 20
89.6874537988
 30
0.0
 11
236.8771868583
 21
130.8874537988
 31
0.0
  0
LINE
  5
B3
330
1F
100
AcDbEntity
  8
0
  6
Continuous
 62
     7
370
    15
100
AcDbLine
 10
64.4771868583
 20
98.4646982017
 30
0.0
 11
64.4771868583
 21
122.1102092928
 31
0.0
  0
SPLINE
  5
B4
330
1F
100
AcDbEntity
  8
0
  6
Continuous
 62
     7
370
    15
100
AcDbSpline
210
0.0
220
0.0
230
1.0
 70
    24
 71
     3
 72
    13
 73
     9
 74
     0
 42
0.000000001
 43
0.00000001
 40
0.0
 40
0.0
 40
0.0
 40
0.0
 40
0.1332942423098215
 40
0.3053794624259302
 40
0.4826135856442327
 40
0.6464918731749975
 40
0.8161467568339625
 40
1.0
 40
1.0
 40
1.0
 40
1.0
 10
227.789467093436
 20
110.3997728688269
 30
0.0
 10
227.7209373807526
 20
110.271653879366
 30
0.0
 10
227.5639345991108
 20
109.9781310125853
 30
0.0
 10
227.3013041392541
 20
109.4871330527088
 30
0.0
 10
227.0100394877705
 20
108.942602346938
 30
0.0
 10
226.7188696836989
 20
108.3982489621296
 30
0.0
 10
226.433063163266
 20
107.8639224467339
 30
0.0
 10
226.2505302445609
 20
107.5226699859819
 30
0.0
 10
226.1555981438766
 20
107.3451906951629
 30
0.0
  0
SPLINE
  5
B5
330
1F
100
AcDbEntity
  8
0
  6
Continuous
 62
     7
370
    15
100
AcDbSpline
210
0.0
220
0.0
230
1.0
 70
    24
 71
     3
 72
    11
 73
     7
 74
     0
 42
0.000000001
 43
0.00000001
 40
0.0
 40
0.0
 40
0.0
 40
0.0
 40
0.2164553779443438
 40
0.4403112895790514
 40
0.7519005688038607
 40
0.9999999999999999
 40
0.9999999999999999
 40
0.9999999999999999
 40
0.9999999999999999
 10
225.9610558078756
 20
113.3420359724319
 30
0.0
 10
226.0863037525028
 20
113.1404880990464
 30
0.0
 10
226.3410818251921
 20
112.7305015009535
 30
0.0
 10
226.813881881102
 20
111.9696758755201
 30
0.0
 10
227.3210447514652
 20
111.1535539161051
 30
0.0
 10
227.6455985335808
 20
110.6312848698595
 30
0.0
 10
227.789467093436
 20
110.3997728688269
 30
0.0
  0
SPLINE
  5
B6
330
1F
100
AcDbEntity
  8
0
  6
Continuous
 62
     7
370
    15
100
AcDbSpline
210
0.0
220
0.0
230
1.0
 70
    24
 71
     3
 72
    11
 73
     7
 74
     0
 42
0.000000001
 43
0.00000001
 40
0.0
 40
0.0
 40
0.0
 40
0.0
 40
0.1843643438496182
 40
0.5174526391740237
 40
0.8663352079125982
 40
0.9999999999999999
 40
0.9999999999999999
 40
0.9999999999999999
 40
0.9999999999999999
 10
220.8649066231964
 20
110.175134728709
 30
0.0
 10
220.9597177934912
 20
110.3523879354149
 30
0.0
 10
221.2258228833788
 20
110.8498818526053
 30
0.0
 10
221.7216003771017
 20
111.7767573494669
 30
0.0
 10
222.1832227129612
 20
112.6397784372119
 30
0.0
 10
222.4303278681826
 20
113.1017512302951
 30
0.0
 10
222.4987755727558
 20
113.229716902373
 30
0.0
  0
SPLINE
  5
B7
330
1F
100
AcDbEntity
  8
0
  6
Continuous
 62
     7
370
    15
100
AcDbSpline
210
0.0
220
0.0
230
1.0
 70
    24
 71
     3
 72
    11
 73
     7
 74
     0
 42
0.000000001
 43
0.00000001
 40
0.0
 40
0.0
 40
0.0
 40
0.0
 40
0.2164553779443415
 40
0.4403112895790505
 40
0.7519005688038657
 40
1.0
 40
1.0
 40
1.0
 40
1.0
 10
226.1555981438766
 20
107.3451906951629
 30
0.0
 10
225.9184285931324
 20
107.3374967300368
 30
0.0
 10
225.4359807476281
 20
107.321845745807
 30
0.0
 10
224.5406864001976
 20
107.2928016991951
 30
0.0
 10
223.5803226155763
 20
107.2616467493118
 30
0.0
 10
222.9657474628596
 20
107.2417094522282
 30
0.0
 10
222.6933179087568
 20
107.232871625104
 30
0.0
  0
CIRCLE
  5
B8
330
1F
100
AcDbEntity
  8
0
  6
Continuous
 62
     7
370
    15
100
AcDbCircle
 10
224.3271868583
 20
110.2874537988
 30
0.0
 40
3.500000000000021
  0
SPLINE
  5
B9
330
1F
100
AcDbEntity
  8
0
  6
Continuous
 62
     7
370
    15
100
AcDbSpline
210
0.0
220
0.0
230
1.0
 70
    24
 71
     3
 72
    11
 73
     7
 74
     0
 42
0.000000001
 43
0.00000001
 40
0.0
 40
0.0
 40
0.0
 40
0.0
 40
0.216455377944345
 40
0.4403112895790547
 40
0.7519005688038656
 40
0.9999999999999999
 40
0.9999999999999999
 40
0.9999999999999999
 40
0.9999999999999999
 10
222.6933179087568
 20
107.232871625104
 30
0.0
 10
222.5680699641297
 20
107.4344194984896
 30
0.0
 10
222.3132918914403
 20
107.8444060965825
 30
0.0
 10
221.8404918355305
 20
108.6052317220159
 30
0.0
 10
221.3333289651672
 20
109.4213536814309
 30
0.0
 10
221.0087751830516
 20
109.9436227276765
 30
0.0
 10
220.8649066231964
 20
110.175134728709
 30
0.0
  0
SPLINE
  5
BA
330
1F
100
AcDbEntity
  8
0
  6
Continuous
 62
     7
370
    15
100
AcDbSpline
210
0.0
220
0.0
230
1.0
 70
    24
 71
     3
 72
    11
 73
     7
 74
     0
 42
0.000000001
 43
0.00000001
 40
0.0
 40
0.0
 40
0.0
 40
0.0
 40
0.2164553779443417
 40
0.4403112895790506
 40
0.7519005688038657
 40
1.0
 40
1.0
 40
1.0
 40
1.0
 10
222.4987755727558
 20
113.229716902373
 30
0.0
 10
222.7359451235
 20
113.2374108674991
 30
0.0
 10
223.2183929690044
 20
113.2530618517289
 30
0.0
 10
224.1136873164348
 20
113.2821058983409
 30
0.0
 10
225.0740511010561
 20
113.3132608482241
 30
0.0
 10
225.6886262537728
 20
113.3331981453078
 30
0.0
 10
225.9610558078756
 20
113.3420359724319
 30
0.0
  0
CIRCLE
  5
BB
330
1F
100
AcDbEntity
  8
0
  6
Continuous
 62
     7
370
    15
100
AcDbCircle
 10
224.3271868583
 20
110.2874537988
 30
0.0
 40
5.500000000000011
  0
CIRCLE
  5
BC
330
1F
100
AcDbEntity
  8
0
  6
Continuous
 62
     7
370
    15
100
AcDbCircle
 10
224.3271868583
 20
110.2874537988
 30
0.0
 40
5.999999999999998
  0
ARC
  5
BD
330
1F
100
AcDbEntity
  8
0
  6
Continuous
 62
     7
370
    15
100
AcDbCircle
 10
224.3271868583
 20
110.2874537988
 30
0.0
 40
3.000000000000004
100
AcDbArc
 50
211.8580681258
 51
271.8580681258
  0
ARC
  5
BE
330
1F
100
AcDbEntity
  8
0
  6
Continuous
 62
     7
370
    15
100
AcDbCircle
 10
224.3271868583
 20
110.2874537988
 30
0.0
 40
3.000000000000004
100
AcDbArc
 50
31.8580681258
 51
91.8580681258
  0
ARC
  5
BF
330
1F
100
AcDbEntity
  8
0
  6
Continuous
 62
     7
370
    15
100
AcDbCircle
 10
224.3271868583
 20
110.2874537988
 30
0.0
 40
3.000000000000015
100
AcDbArc
 50
91.8580681258
 51
151.8580681258
  0
ARC
  5
C0
330
1F
100
AcDbEntity
  8
0
  6
Continuous
 62
     7
370
    15
100
AcDbCircle
 10
224.3271868583
 20
110.2874537988
 30
0.0
 40
3.000000000000008
100
AcDbArc
 50
271.8580681258
 51
331.8580681258
  0
ARC
  5
C1
330
1F
100
AcDbEntity
  8
0
  6
Continuous
 62
     7
370
    15
100
AcDbCircle
 10
224.3271868583
 20
110.2874537988
 30
0.0
 40
3.000000000000008
100
AcDbArc
 50
331.8580681258
 51
31.8580681258
  0
ARC
  5
C2
330
1F
100
AcDbEntity
  8
0
  6
Continuous
 62
     7
370
    15
100
AcDbCircle
 10
224.3271868583
 20
110.2874537988
 30
0.0
 40
3.000000000000015
100
AcDbArc
 50
151.8580681258
 51
211.8580681258
  0
SPLINE
  5
C3
330
1F
100
AcDbEntity
  8
0
  6
HIDDEN
 62
     7
370
     0
100
AcDbSpline
210
0.0
220
0.0
230
1.0
 70
     8
 71
     3
 72
    17
 73
    13
 74
     0
 42
0.000000001
 43
0.00000001
 40
0.0
 40
0.0
 40
0.0
 40
0.0
 40
0.0009813126920742
 40
0.001002033598443
 40
0.2502032402186956
 40
0.5024387435752413
 40
0.5867805814958951
 40
0.6701656695096343
 40
0.7528827247070328
 40
0.8352274922509455
 40
0.9174997331726163
 40
0.9999999999999999
 40
0.9999999999999999
 40
0.9999999999999999
 40
0.9999999999999999
 10
153.8771771413795
 20
78.78745456442621
 30
0.0
 10
153.8771810772847
 20
78.78745418778482
 30
0.0
 10
153.8771850962984
 20
78.78745380319045
 30
0.0
 10
153.8778058300117
 20
78.78745269421269
 30
0.0
 10
153.7736608001414
 20
78.8196693063111
 30
0.0
 10
153.4051762568162
 20
78.92803047657532
 30
0.0
 10
153.0385636801449
 20
79.03286115318997
 30
0.0
 10
152.7890321500133
 20
79.10255385820176
 30
0.0
 10
152.5112463560452
 20
79.17769556705244
 30
0.0
 10
152.2045865813932
 20
79.2573605606552
 30
0.0
 10
151.8713997482265
 20
79.3405097420886
 30
0.0
 10
151.626402306153
 20
79.39782222431731
 30
0.0
 10
151.5037340611938
 20
79.42651812232238
 30
0.0
  0
LINE
  5
C4
330
1F
100
AcDbEntity
  8
0
  6
HIDDEN
 62
     7
370
     0
100
AcDbLine
 10
236.3271868583
 20
99.0691599267
 30
0.0
 11
236.3271868583
 21
121.5057476708
 31
0.0
  0
LINE
  5
C5
330
1F
100
AcDbEntity
  8
0
  6
HIDDEN
 62
     7
370
     0
100
AcDbLine
 10
233.0271868583
 20
102.2557976806
 30
0.0
 11
233.0271868583
 21
118.3191099169
 31
0.0
  0
LINE
  5
C6
330
1F
100
AcDbEntity
  8
0
  6
HIDDEN
 62
     7
370
     0
100
AcDbLine
 10
232.0271868583
 20
98.2874537988
 30
0.0
 11
232.0271868583
 21
122.2874537988
 31
0.0
  0
LINE
  5
C7
330
1F
100
AcDbEntity
  8
0
  6
HIDDEN
 62
     7
370
     0
100
AcDbLine
 10
233.0271868583
 20
121.0874537988
 30
0.0
 11
233.0271868583
 21
118.3191099169
 31
0.0
  0
LINE
  5
C8
330
1F
100
AcDbEntity
  8
0
  6
HIDDEN
 62
     7
370
     0
100
AcDbLine
 10
233.0271868583
 20
118.3191099169
 30
0.0
 11
236.3271868583
 21
118.3191099169
 31
0.0
  0
SPLINE
  5
C9
330
1F
100
AcDbEntity
  8
0
  6
HIDDEN
 62
     7
370
     0
100
AcDbSpline
210
0.0
220
0.0
230
1.0
 70
     8
 71
     3
 72
    10
 73
     6
 74
     0
 42
0.000000001
 43
0.00000001
 40
0.0
 40
0.0
 40
0.0
 40
0.0
 40
0.5
 40
0.5
 40
1.0
 40
1.0
 40
1.0
 40
1.0
 10
236.6941405112804
 20
126.287453798768
 30
0.0
 10
236.6442875899555
 20
126.2874538028832
 30
0.0
 10
236.5882155186246
 20
126.2683550821226
 30
0.0
 10
236.4653761355023
 20
126.1927080112153
 30
0.0
 10
236.398927619539
 20
126.1365809384206
 30
0.0
 10
236.3271868583162
 20
126.0625901112687
 30
0.0
  0
LINE
  5
CA
330
1F
100
AcDbEntity
  8
0
  6
HIDDEN
 62
     7
370
     0
100
AcDbLine
 10
236.3271868583
 20
126.0625901113
 30
0.0
 11
236.3271868583
 21
125.9065095542
 31
0.0
  0
LINE
  5
CB
330
1F
100
AcDbEntity
  8
0
  6
HIDDEN
 62
     7
370
     0
100
AcDbLine
 10
233.0271868583
 20
125.9065095542
 30
0.0
 11
236.3271868583
 21
125.9065095542
 31
0.0
  0
LINE
  5
CC
330
1F
100
AcDbEntity
  8
0
  6
HIDDEN
 62
     7
370
     0
100
AcDbLine
 10
233.0271868583
 20
126.2874537988
 30
0.0
 11
233.0271868583
 21
121.0874537988
 31
0.0
  0
SPLINE
  5
CD
330
1F
100
AcDbEntity
  8
0
  6
HIDDEN
 62
     7
370
     0
100
AcDbSpline
210
0.0
220
0.0
230
1.0
 70
     8
 71
     3
 72
    12
 73
     8
 74
     0
 42
0.000000001
 43
0.00000001
 40
0.0
 40
0.0
 40
0.0
 40
0.0
 40
0.5000000000000003
 40
0.5000000000000003
 40
0.7500000000000001
 40
0.7500000000000001
 40
1.0
 40
1.0
 40
1.0
 40
1.0
 10
236.3271868583163
 20
121.5057476707921
 30
0.0
 10
236.4515446936367
 20
121.9452376126154
 30
0.0
 10
236.5597106490447
 20
122.3776041429767
 30
0.0
 10
236.6992003050081
 20
123.0141143909506
 30
0.0
 10
236.7415507113523
 20
123.223128484201
 30
0.0
 10
236.8162886308014
 20
123.624505576975
 30
0.0
 10
236.8490148653157
 20
123.8183830097113
 30
0.0
 10
236.8771868583162
 20
124.0053189724309
 30
0.0
  0
LINE
  5
CE
330
1F
100
AcDbEntity
  8
0
  6
HIDDEN
 62
     7
370
     0
100
AcDbLine
 10
233.0271868583
 20
102.2557976806
 30
0.0
 11
233.0271868583
 21
99.4874537988
 31
0.0
  0
LINE
  5
CF
330
1F
100
AcDbEntity
  8
0
  6
HIDDEN
 62
     7
370
     0
100
AcDbLine
 10
236.3271868583
 20
102.2557976806
 30
0.0
 11
233.0271868583
 21
102.2557976806
 31
0.0
  0
LINE
  5
D0
330
1F
100
AcDbEntity
  8
0
  6
HIDDEN
 62
     7
370
     0
100
AcDbLine
 10
233.0271868583
 20
94.6683980433
 30
0.0
 11
236.3271868583
 21
94.6683980433
 31
0.0
  0
LINE
  5
D1
330
1F
100
AcDbEntity
  8
0
  6
HIDDEN
 62
     7
370
     0
100
AcDbLine
 10
236.3271868583
 20
94.6683980433
 30
0.0
 11
236.3271868583
 21
94.5123174863
 31
0.0
  0
SPLINE
  5
D2
330
1F
100
AcDbEntity
  8
0
  6
HIDDEN
 62
     7
370
     0
100
AcDbSpline
210
0.0
220
0.0
230
1.0
 70
     8
 71
     3
 72
     9
 73
     5
 74
     0
 42
0.000000001
 43
0.00000001
 40
0.0
 40
0.0
 40
0.0
 40
0.0
 40
0.8031953073886464
 40
1.0
 40
1.0
 40
1.0
 40
1.0
 10
236.3271868583162
 20
94.51231748626729
 30
0.0
 10
236.4411329878652
 20
94.39808827152189
 30
0.0
 10
236.5829990178342
 20
94.25586979278499
 30
0.0
 10
236.6668814927801
 20
94.31031915414248
 30
0.0
 10
236.6833899574774
 20
94.32103504396733
 30
0.0
  0
LINE
  5
D3
330
1F
100
AcDbEntity
  8
0
  6
HIDDEN
 62
     7
370
     0
100
AcDbLine
 10
233.0271868583
 20
99.4874537988
 30
0.0
 11
233.0271868583
 21
94.2874537988
 31
0.0
  0
SPLINE
  5
D4
330
1F
100
AcDbEntity
  8
0
  6
HIDDEN
 62
     7
370
     0
100
AcDbSpline
210
0.0
220
0.0
230
1.0
 70
     8
 71
     3
 72
    12
 73
     8
 74
     0
 42
0.000000001
 43
0.00000001
 40
0.0
 40
0.0
 40
0.0
 40
0.0
 40
0.5000000000000006
 40
0.5000000000000006
 40
0.7500000000000002
 40
0.7500000000000002
 40
1.0
 40
1.0
 40
1.0
 40
1.0
 10
236.8771868583162
 20
96.56958862510506
 30
0.0
 10
236.8202789468146
 20
96.94720249227868
 30
0.0
 10
236.7459065605059
 20
97.3471510625845
 30
0.0
 10
236.607834226803
 20
97.97796179744783
 30
0.0
 10
236.5570122537666
 20
98.19462529707504
 30
0.0
 10
236.4479191916272
 20
98.62971857089002
 30
0.0
 10
236.3895556775894
 20
98.84874382925133
 30
0.0
 10
236.3271868583162
 20
99.06915992674384
 30
0.0
  0
LINE
  5
D5
330
1F
100
AcDbEntity
  8
0
  6
HIDDEN
 62
     7
370
     0
100
AcDbLine
 10
211.8771868583
 20
98.5874537988
 30
0.0
 11
211.8771868583
 21
121.9874536906
 31
0.0
  0
LINE
  5
D6
330
1F
100
AcDbEntity
  8
0
  6
HIDDEN
 62
     7
370
     0
100
AcDbLine
 10
214.3771868583
 20
98.2874537988
 30
0.0
 11
214.3771868583
 21
122.2874537988
 31
0.0
  0
LINE
  5
D7
330
1F
100
AcDbEntity
  8
0
  6
HIDDEN
 62
     7
370
     0
100
AcDbLine
 10
131.8771868583
 20
132.7874537988
 30
0.0
 11
132.2144451585
 21
132.7874537988
 31
0.0
  0
ELLIPSE
  5
D8
330
1F
100
AcDbEntity
  8
0
  6
HIDDEN
 62
     7
370
     0
100
AcDbEllipse
 10
132.2144451585
 20
134.3874537988
 30
0.0
 11
0.0
 21
1.599999999999994
 31
0.0
210
0.0
220
0.0
230
1.0
 40
0.4142135624
 41
3.141592653589793
 42
4.712388980384695
  0
ELLIPSE
  5
D9
330
1F
100
AcDbEntity
  8
0
  6
HIDDEN
 62
     7
370
     0
100
AcDbEllipse
 10
132.2144451585
 20
86.1874537988
 30
0.0
 11
0.0
 21
1.600000000000009
 31
0.0
210
0.0
220
0.0
230
1.0
 40
0.4142135624
 41
4.712388980384695
 42
6.283185307179586
  0
LINE
  5
DA
330
1F
100
AcDbEntity
  8
0
  6
HIDDEN
 62
     7
370
     0
100
AcDbLine
 10
132.2144451585
 20
87.7874537988
 30
0.0
 11
131.8771868583
 21
87.7874537988
 31
0.0
  0
LINE
  5
DB
330
1F
100
AcDbEntity
  8
0
  6
HIDDEN
 62
     7
370
     0
100
AcDbLine
 10
132.8771868583
 20
80.833431076
 30
0.0
 11
132.2642196813
 21
80.2204638989
 31
0.0
  0
LINE
  5
DC
330
1F
100
AcDbEntity
  8
0
  6
HIDDEN
 62
     7
370
     0
100
AcDbLine
 10
132.2642196813
 20
140.3544436986
 30
0.0
 11
132.8771868583
 21
139.7414765216
 31
0.0
  0
LINE
  5
DD
330
1F
100
AcDbEntity
  8
0
  6
HIDDEN
 62
     7
370
     0
100
AcDbLine
 10
71.4771868583
 20
101.7874537988
 30
0.0
 11
71.4771868583
 21
118.7874537988
 31
0.0
  0
LINE
  5
DE
330
1F
100
AcDbEntity
  8
0
  6
HIDDEN
 62
     7
370
     0
100
AcDbLine
 10
74.4731160727
 20
103.2874537988
 30
0.0
 11
74.4731160727
 21
117.2874537988
 31
0.0
  0
LINE
  5
DF
330
1F
100
AcDbEntity
  8
0
  6
HIDDEN
 62
     7
370
     0
100
AcDbLine
 10
236.3271868583
 20
93.466932605
 30
0.0
 11
236.3271868583
 21
94.5123174863
 31
0.0
  0
SPLINE
  5
E0
330
1F
100
AcDbEntity
  8
0
  6
HIDDEN
 62
     7
370
     0
100
AcDbSpline
210
0.0
220
0.0
230
1.0
 70
     8
 71
     3
 72
    10
 73
     6
 74
     0
 42
0.000000001
 43
0.00000001
 40
0.0
 40
0.0
 40
0.0
 40
0.0
 40
0.3981813537545952
 40
0.8020296762920373
 40
1.0
 40
1.0
 40
1.0
 40
1.0
 10
236.3271868583162
 20
126.0625901112687
 30
0.0
 10
236.3820025297166
 20
126.1139729343483
 30
0.0
 10
236.4924140162779
 20
126.2174698675244
 30
0.0
 10
236.6134173548329
 20
126.2867651722152
 30
0.0
 10
236.6713371570306
 20
126.2782163030346
 30
0.0
 10
236.6903900761478
 20
126.2754041229708
 30
0.0
  0
LINE
  5
E1
330
1F
100
AcDbEntity
  8
0
  6
HIDDEN
 62
     7
370
     0
100
AcDbLine
 10
236.3271868583
 20
126.0625901113
 30
0.0
 11
236.3271868583
 21
127.1079749925
 31
0.0
  0
LINE
  5
E2
330
1F
100
AcDbEntity
  8
0
  6
HIDDEN
 62
     7
370
     0
100
AcDbLine
 10
132.8771868583
 20
139.7414765216
 30
0.0
 11
142.0097484018
 21
139.7414765216
 31
0.0
  0
LINE
  5
E3
330
1F
100
AcDbEntity
  8
0
  6
HIDDEN
 62
     7
370
     0
100
AcDbLine
 10
132.8771868583
 20
139.7414765216
 30
0.0
 11
132.8771868583
 21
134.3874537988
 31
0.0
  0
LINE
  5
E4
330
1F
100
AcDbEntity
  8
0
  6
HIDDEN
 62
     7
370
     0
100
AcDbLine
 10
142.0097484018
 20
80.833431076
 30
0.0
 11
132.8771868583
 21
80.833431076
 31
0.0
  0
LINE
  5
E5
330
1F
100
AcDbEntity
  8
0
  6
HIDDEN
 62
     7
370
     0
100
AcDbLine
 10
132.8771868583
 20
80.833431076
 30
0.0
 11
132.8771868583
 21
86.1874537988
 31
0.0
  0
LINE
  5
E6
330
1F
100
AcDbEntity
  8
0
  6
HIDDEN
 62
     7
370
     0
100
AcDbLine
 10
144.8271868583
 20
87.7874537988
 30
0.0
 11
132.2144451585
 21
87.7874537988
 31
0.0
  0
LINE
  5
E7
330
1F
100
AcDbEntity
  8
0
  6
HIDDEN
 62
     7
370
     0
100
AcDbLine
 10
132.2144451585
 20
132.7874537988
 30
0.0
 11
144.8271868583
 21
132.7874537988
 31
0.0
  0
LINE
  5
E8
330
1F
100
AcDbEntity
  8
0
  6
HIDDEN
 62
     7
370
     0
100
AcDbLine
 10
150.8534286245
 20
80.3824059054
 30
0.0
 11
150.9473713537
 21
80.3574222341
 31
0.0
  0
SPLINE
  5
E9
330
1F
100
AcDbEntity
  8
0
  6
HIDDEN
 62
     7
370
     0
100
AcDbSpline
210
0.0
220
0.0
230
1.0
 70
     8
 71
     3
 72
    13
 73
     9
 74
     0
 42
0.000000001
 43
0.00000001
 40
0.0
 40
0.0
 40
0.0
 40
0.0
 40
0.0000729225244404
 40
0.1576810836853553
 40
0.3241445774245414
 40
0.4996852408390643
 40
0.7294243771452443
 40
1.0
 40
1.0
 40
1.0
 40
1.0
 10
152.8771542831401
 20
79.78746623788129
 30
0.0
 10
152.8771651418814
 20
79.78746194802838
 30
0.0
 10
152.9006451037378
 20
79.77818595739137
 30
0.0
 10
152.8290598887031
 20
79.80635145946016
 30
0.0
 10
152.6734435502802
 20
79.85994038932043
 30
0.0
 10
152.337190327965
 20
79.9684636781143
 30
0.0
 10
151.7798772619541
 20
80.13952974144438
 30
0.0
 10
151.1786194966849
 20
80.29729373048127
 30
0.0
 10
150.8534528064061
 20
80.38261419887861
 30
0.0
  0
LINE
  5
EA
330
1F
100
AcDbEntity
  8
0
  6
HIDDEN
 62
     7
370
     0
100
AcDbLine
 10
144.8271868583
 20
132.7874537988
 30
0.0
 11
151.2771868583
 21
132.7874537988
 31
0.0
  0
SPLINE
  5
EB
330
1F
100
AcDbEntity
  8
0
  6
HIDDEN
 62
     7
370
     0
100
AcDbSpline
210
0.0
220
0.0
230
1.0
 70
     8
 71
     3
 72
    22
 73
    18
 74
     0
 42
0.000000001
 43
0.00000001
 40
0.0
 40
0.0
 40
0.0
 40
0.0
 40
0.0479366406769606
 40
0.0947413351478224
 40
0.1404146906350036
 40
0.1849573613349689
 40
0.2283700532665102
 40
0.2706535297588881
 40
0.3118086176831324
 40
0.3518362145496248
 40
0.3907372966193454
 40
0.4285129282059843
 40
0.4651642723829811
 40
0.5006926033553157
 40
0.7601481598580601
 40
0.9994104155413182
 40
1.0
 40
1.0
 40
1.0
 40
1.0
 10
150.8534504889287
 20
140.192314574479
 30
0.0
 10
150.91411263659
 20
140.2078007654267
 30
0.0
 10
151.0340044934495
 20
140.2384074659802
 30
0.0
 10
151.2028193500713
 20
140.2825692096314
 30
0.0
 10
151.3611447728907
 20
140.3247442140182
 30
0.0
 10
151.5087035961257
 20
140.3648523531315
 30
0.0
 10
151.6460076865167
 20
140.402914381849
 30
0.0
 10
151.7733856515793
 20
140.4389249999128
 30
0.0
 10
151.8912302187886
 20
140.4728857029056
 30
0.0
 10
151.9999310123573
 20
140.5047959969046
 30
0.0
 10
152.0998889045386
 20
140.5346567913719
 30
0.0
 10
152.1915086298883
 20
140.5624654921937
 30
0.0
 10
152.2752005265043
 20
140.5882316720512
 30
0.0
 10
152.5121904324418
 20
140.6619412523531
 30
0.0
 10
152.7916041724057
 20
140.7543101348184
 30
0.0
 10
152.8773212163134
 20
140.7873919238795
 30
0.0
 10
152.8771864453631
 20
140.7874534464218
 30
0.0
 10
152.87718611408
 20
140.7874535976515
 30
0.0
  0
LINE
  5
EC
330
1F
100
AcDbEntity
  8
0
  6
HIDDEN
 62
     7
370
     0
100
AcDbLine
 10
151.6036810322
 20
140.3920276538
 30
0.0
 11
150.8534284709
 21
140.1925020007
 31
0.0
  0
LINE
  5
ED
330
1F
100
AcDbEntity
  8
0
  6
HIDDEN
 62
     7
370
     0
100
AcDbLine
 10
151.2771868583
 20
87.7874537988
 30
0.0
 11
144.8271868583
 21
87.7874537988
 31
0.0
  0
LINE
  5
EE
330
1F
100
AcDbEntity
  8
0
  6
HIDDEN
 62
     7
370
     0
100
AcDbLine
 10
107.4771868583
 20
103.2874537988
 30
0.0
 11
107.4771868583
 21
117.2874537988
 31
0.0
  0
LINE
  5
EF
330
1F
100
AcDbEntity
  8
0
  6
HIDDEN
 62
     7
370
     0
100
AcDbLine
 10
109.1295535606
 20
106.0374537988
 30
0.0
 11
109.1295535606
 21
114.5374537988
 31
0.0
  0
SPLINE
  5
F0
330
1F
100
AcDbEntity
  8
0
  6
HIDDEN
 62
     7
370
     0
100
AcDbSpline
210
0.0
220
0.0
230
1.0
 70
     8
 71
     3
 72
     9
 73
     5
 74
     0
 42
0.000000001
 43
0.00000001
 40
0.0
 40
0.0
 40
0.0
 40
0.0
 40
0.4932365030918491
 40
1.0
 40
1.0
 40
1.0
 40
1.0
 10
150.8542463970137
 20
140.1922853099403
 30
0.0
 10
150.9600943524156
 20
140.3493066980631
 30
0.0
 10
151.1746931396877
 20
140.6676557803766
 30
0.0
 10
151.392553021576
 20
140.9874818880646
 30
0.0
 10
151.5029564571578
 20
141.1495580847991
 30
0.0
  0
SPLINE
  5
F1
330
1F
100
AcDbEntity
  8
0
  6
HIDDEN
 62
     7
370
     0
100
AcDbSpline
210
0.0
220
0.0
230
1.0
 70
     8
 71
     3
 72
     9
 73
     5
 74
     0
 42
0.000000001
 43
0.00000001
 40
0.0
 40
0.0
 40
0.0
 40
0.0
 40
0.5067661696360637
 40
0.9999999999999999
 40
0.9999999999999999
 40
0.9999999999999999
 40
0.9999999999999999
 10
151.5029601424437
 20
79.42536364829084
 30
0.0
 10
151.3925553119466
 20
79.58744106290646
 30
0.0
 10
151.1746938264878
 20
79.90726788704514
 30
0.0
 10
150.9600941086058
 20
80.22561640330127
 30
0.0
 10
150.8542462677599
 20
80.38263666136498
 30
0.0
  0
LINE
  5
F2
330
1F
100
AcDbEntity
  8
0
  6
HIDDEN
 62
     7
370
     0
100
AcDbLine
 10
233.0271868583
 20
126.8124537988
 30
0.0
 11
233.0271868583
 21
126.2874537988
 31
0.0
  0
LINE
  5
F3
330
1F
100
AcDbEntity
  8
0
  6
HIDDEN
 62
     7
370
     0
100
AcDbLine
 10
233.0271868583
 20
94.2874537988
 30
0.0
 11
233.0271868583
 21
93.7624537988
 31
0.0
  0
CIRCLE
  5
F4
330
1F
100
AcDbEntity
  8
0
  6
HIDDEN
 62
     7
370
     0
100
AcDbCircle
 10
224.3271868583
 20
110.2874537988
 30
0.0
 40
5.181257848382091
  0
CIRCLE
  5
F5
330
1F
100
AcDbEntity
  8
0
  6
HIDDEN
 62
     7
370
     0
100
AcDbCircle
 10
224.3271868583
 20
110.2874537988
 30
0.0
 40
4.172547133356704
  0
CIRCLE
  5
F6
330
1F
100
AcDbEntity
  8
0
  6
HIDDEN
 62
     7
370
     0
100
AcDbCircle
 10
224.3271868583
 20
110.2874537988
 30
0.0
 40
3.872547133356732
  0
LINE
  5
F7
330
1F
100
AcDbEntity
  8
0
  6
HIDDEN
 62
     7
370
     0
100
AcDbLine
 10
233.0271868583
 20
122.864804068
 30
0.0
 11
232.0271868583
 21
122.2874537988
 31
0.0
  0
LINE
  5
F8
330
1F
100
AcDbEntity
  8
0
  6
HIDDEN
 62
     7
370
     0
100
AcDbLine
 10
232.0271868583
 20
98.2874537988
 30
0.0
 11
233.0271868583
 21
97.7101035296
 31
0.0
  0
LINE
  5
F9
330
1F
100
AcDbEntity
  8
0
  6
HIDDEN
 62
     7
370
     0
100
AcDbLine
 10
236.6941384777
 20
126.2874537988
 30
0.0
 11
233.0271868583
 21
126.2874537988
 31
0.0
  0
LINE
  5
FA
330
1F
100
AcDbEntity
  8
0
  6
HIDDEN
 62
     7
370
     0
100
AcDbLine
 10
233.0271868583
 20
94.2874537988
 30
0.0
 11
236.6833899575
 21
94.2874537988
 31
0.0
  0
LINE
  5
FB
330
1F
100
AcDbEntity
  8
0
  6
HIDDEN
 62
     7
370
     0
100
AcDbLine
 10
212.4771868583
 20
97.9874537988
 30
0.0
 11
213.1785801175
 21
97.9874537988
 31
0.0
  0
LINE
  5
FC
330
1F
100
AcDbEntity
  8
0
  6
HIDDEN
 62
     7
370
     0
100
AcDbLine
 10
213.1785801175
 20
122.5874537988
 30
0.0
 11
212.4771868583
 21
122.5874537988
 31
0.0
  0
ARC
  5
FD
330
1F
100
AcDbEntity
  8
0
  6
HIDDEN
 62
     7
370
     0
100
AcDbCircle
 10
212.4771868583
 20
98.5874537988
 30
0.0
 40
0.5999999999999943
100
AcDbArc
 50
180.0
 51
270.0
  0
ARC
  5
FE
330
1F
100
AcDbEntity
  8
0
  6
HIDDEN
 62
     7
370
     0
100
AcDbCircle
 10
212.4771868583
 20
121.9874537988
 30
0.0
 40
0.6000000000000085
100
AcDbArc
 50
90.0
 51
180.0
  0
ARC
  5
FF
330
1F
100
AcDbEntity
  8
0
  6
HIDDEN
 62
     7
370
     0
100
AcDbCircle
 10
213.1785801175
 20
98.5874537988
 30
0.0
 40
0.5999999999999801
100
AcDbArc
 50
270.0
 51
285.0
  0
ARC
  5
100
330
1F
100
AcDbEntity
  8
0
  6
HIDDEN
 62
     7
370
     0
100
AcDbCircle
 10
213.1785801175
 20
121.9874537988
 30
0.0
 40
0.5999999999999943
100
AcDbArc
 50
75.0
 51
90.0
  0
LINE
  5
101
330
1F
100
AcDbEntity
  8
0
  6
HIDDEN
 62
     7
370
     0
100
AcDbLine
 10
213.3338715446
 20
98.007898303
 30
0.0
 11
214.3771868583
 21
98.2874537988
 31
0.0
  0
LINE
  5
102
330
1F
100
AcDbEntity
  8
0
  6
HIDDEN
 62
     7
370
     0
100
AcDbLine
 10
214.3771868583
 20
122.2874537988
 30
0.0
 11
213.3338715446
 21
122.5670092945
 31
0.0
  0
LINE
  5
103
330
1F
100
AcDbEntity
  8
0
  6
HIDDEN
 62
     7
370
     0
100
AcDbLine
 10
214.3771868583
 20
98.2874537988
 30
0.0
 11
232.0271868583
 21
98.2874537988
 31
0.0
  0
LINE
  5
104
330
1F
100
AcDbEntity
  8
0
  6
HIDDEN
 62
     7
370
     0
100
AcDbLine
 10
232.0271868583
 20
122.2874537988
 30
0.0
 11
214.3771868583
 21
122.2874537988
 31
0.0
  0
ARC
  5
105
330
1F
100
AcDbEntity
  8
0
  6
HIDDEN
 62
     7
370
     0
100
AcDbCircle
 10
65.2771868583
 20
100.9874537988
 30
0.0
 40
0.7999999999999972
100
AcDbArc
 50
90.0
 51
180.0
  0
ARC
  5
106
330
1F
100
AcDbEntity
  8
0
  6
HIDDEN
 62
     7
370
     0
100
AcDbCircle
 10
65.2771868583
 20
119.5874537988
 30
0.0
 40
0.7999999999999972
100
AcDbArc
 50
180.0
 51
270.0
  0
ARC
  5
107
330
1F
100
AcDbEntity
  8
0
  6
HIDDEN
 62
     7
370
     0
100
AcDbCircle
 10
73.2462467506
 20
101.9624537988
 30
0.0
 40
0.4000000000000192
100
AcDbArc
 50
270.0
 51
330.0
  0
ARC
  5
108
330
1F
100
AcDbEntity
  8
0
  6
HIDDEN
 62
     7
370
     0
100
AcDbCircle
 10
73.2462467506
 20
118.6124537988
 30
0.0
 40
0.4000000000000121
100
AcDbArc
 50
30.0
 51
90.0
  0
LINE
  5
109
330
1F
100
AcDbEntity
  8
0
  6
HIDDEN
 62
     7
370
     0
100
AcDbLine
 10
72.3695592891
 20
101.5624537988
 30
0.0
 11
73.2462467506
 21
101.5624537988
 31
0.0
  0
LINE
  5
10A
330
1F
100
AcDbEntity
  8
0
  6
HIDDEN
 62
     7
370
     0
100
AcDbLine
 10
73.2462467506
 20
119.0124537988
 30
0.0
 11
72.3695592891
 21
119.0124537988
 31
0.0
  0
ARC
  5
10B
330
1F
100
AcDbEntity
  8
0
  6
HIDDEN
 62
     7
370
     0
100
AcDbCircle
 10
72.3695592891
 20
101.9624537988
 30
0.0
 40
0.4000000000000057
100
AcDbArc
 50
255.0
 51
270.0
  0
ARC
  5
10C
330
1F
100
AcDbEntity
  8
0
  6
HIDDEN
 62
     7
370
     0
100
AcDbCircle
 10
72.3695592891
 20
118.6124537988
 30
0.0
 40
0.4000000000000057
100
AcDbArc
 50
90.0
 51
105.0
  0
LINE
  5
10D
330
1F
100
AcDbEntity
  8
0
  6
HIDDEN
 62
     7
370
     0
100
AcDbLine
 10
72.266031671
 20
118.9988241293
 30
0.0
 11
71.4771868583
 21
118.7874537988
 31
0.0
  0
LINE
  5
10E
330
1F
100
AcDbEntity
  8
0
  6
HIDDEN
 62
     7
370
     0
100
AcDbLine
 10
71.4771868583
 20
101.7874537988
 30
0.0
 11
72.266031671
 21
101.5760834683
 31
0.0
  0
LINE
  5
10F
330
1F
100
AcDbEntity
  8
0
  6
HIDDEN
 62
     7
370
     0
100
AcDbLine
 10
73.5926569122
 20
101.7624537988
 30
0.0
 11
74.4731160727
 21
103.2874537988
 31
0.0
  0
LINE
  5
110
330
1F
100
AcDbEntity
  8
0
  6
HIDDEN
 62
     7
370
     0
100
AcDbLine
 10
74.4731160727
 20
117.2874537988
 30
0.0
 11
73.5926569122
 21
118.8124537988
 31
0.0
  0
LINE
  5
111
330
1F
100
AcDbEntity
  8
0
  6
HIDDEN
 62
     7
370
     0
100
AcDbLine
 10
65.2771868583
 20
101.7874537988
 30
0.0
 11
71.4771868583
 21
101.7874537988
 31
0.0
  0
LINE
  5
112
330
1F
100
AcDbEntity
  8
0
  6
HIDDEN
 62
     7
370
     0
100
AcDbLine
 10
71.4771868583
 20
118.7874537988
 30
0.0
 11
65.2771868583
 21
118.7874537988
 31
0.0
  0
LINE
  5
113
330
1F
100
AcDbEntity
  8
0
  6
HIDDEN
 62
     7
370
     0
100
AcDbLine
 10
236.3271868583
 20
93.466932605
 30
0.0
 11
236.8771868583
 21
92.2874537988
 31
0.0
  0
LINE
  5
114
330
1F
100
AcDbEntity
  8
0
  6
HIDDEN
 62
     7
370
     0
100
AcDbLine
 10
236.8771868583
 20
128.2874537988
 30
0.0
 11
236.3271868583
 21
127.1079749925
 31
0.0
  0
LINE
  5
115
330
1F
100
AcDbEntity
  8
0
  6
HIDDEN
 62
     7
370
     0
100
AcDbLine
 10
152.8771868583
 20
79.6870963378
 30
0.0
 11
152.8771868583
 21
86.1874537988
 31
0.0
  0
ARC
  5
116
330
1F
100
AcDbEntity
  8
0
  6
HIDDEN
 62
     7
370
     0
100
AcDbCircle
 10
151.2771868583
 20
134.3874537988
 30
0.0
 40
1.600000000000023
100
AcDbArc
 50
270.0
 51
0.0
  0
LINE
  5
117
330
1F
100
AcDbEntity
  8
0
  6
HIDDEN
 62
     7
370
     0
100
AcDbLine
 10
152.8771868583
 20
134.3874537988
 30
0.0
 11
152.8771868583
 21
140.8877478124
 31
0.0
  0
ARC
  5
118
330
1F
100
AcDbEntity
  8
0
  6
HIDDEN
 62
     7
370
     0
100
AcDbCircle
 10
151.2771868583
 20
86.1874537988
 30
0.0
 40
1.600000000000009
100
AcDbArc
 50
0.0
 51
90.0
  0
LINE
  5
119
330
1F
100
AcDbEntity
  8
0
  6
HIDDEN
 62
     7
370
     0
100
AcDbLine
 10
107.4771868583
 20
103.2874537988
 30
0.0
 11
109.1295535606
 21
106.0374537988
 31
0.0
  0
LINE
  5
11A
330
1F
100
AcDbEntity
  8
0
  6
HIDDEN
 62
     7
370
     0
100
AcDbLine
 10
109.1295535606
 20
114.5374537988
 30
0.0
 11
107.4771868583
 21
117.2874537988
 31
0.0
  0
LINE
  5
11B
330
1F
100
AcDbEntity
  8
0
  6
HIDDEN
 62
     7
370
     0
100
AcDbLine
 10
74.4731160727
 20
103.2874537988
 30
0.0
 11
107.4771868583
 21
103.2874537988
 31
0.0
  0
LINE
  5
11C
330
1F
100
AcDbEntity
  8
0
  6
HIDDEN
 62
     7
370
     0
100
AcDbLine
 10
107.4771868583
 20
117.2874537988
 30
0.0
 11
74.4731160727
 21
117.2874537988
 31
0.0
  0
LINE
  5
11D
330
1F
100
AcDbEntity
  8
0
  6
HIDDEN
 62
     7
370
     0
100
AcDbLine
 10
152.8771859483
 20
140.7874535868
 30
0.0
 11
153.8771853177
 21
141.7874533336
 31
0.0
  0
LINE
  5
11E
330
1F
100
AcDbEntity
  8
0
  6
HIDDEN
 62
     7
370
     0
100
AcDbLine
 10
153.8771932197
 20
78.7874526611
 30
0.0
 11
152.8771929708
 21
79.7874524656
 31
0.0
  0
LINE
  5
11F
330
1F
100
AcDbEntity
  8
0
  6
HIDDEN
 62
     7
370
     0
100
AcDbLine
 10
236.3271868583
 20
126.8124537988
 30
0.0
 11
233.0271868583
 21
126.8124537988
 31
0.0
  0
LINE
  5
120
330
1F
100
AcDbEntity
  8
0
  6
HIDDEN
 62
     7
370
     0
100
AcDbLine
 10
233.0271868583
 20
93.7624537988
 30
0.0
 11
236.3271868583
 21
93.7624537988
 31
0.0
  0
LINE
  5
121
330
1F
100
AcDbEntity
  8
0
  6
HIDDEN
 62
     7
370
     0
100
AcDbLine
 10
109.1295535606
 20
106.0374537988
 30
0.0
 11
211.8771868583
 21
106.0374537988
 31
0.0
  0
LINE
  5
122
330
1F
100
AcDbEntity
  8
0
  6
HIDDEN
 62
     7
370
     0
100
AcDbLine
 10
211.8771868583
 20
114.5374537988
 30
0.0
 11
109.1295535606
 21
114.5374537988
 31
0.0
  0
LINE
  5
123
330
1F
100
AcDbEntity
  8
0
  6
HIDDEN
 62
     7
370
     0
100
AcDbLine
 10
236.6833899575
 20
94.2874537988
 30
0.0
 11
236.6891645661
 21
94.2874537988
 31
0.0
  0
DIMENSION
  5
124
330
1F
100
AcDbEntity
  8
VERMASSUNG
100
AcDbDimension
  2
_D
 10
57.89545304
 20
78.7874537988
 30
0.0
 11
57.89545304
 21
110.2874537988
 31
0.0
 70
   160
  1
MAS BT 40 %%c<>
 71
     2
 42
-1.0
  3
SLDDIMSTYLE0
100
AcDbAlignedDimension
 13
153.8771827142
 23
141.7874537988
 33
0.0
 14
153.8771876322
 24
78.7874537988
 34
0.0
 50
90.0
100
AcDbRotatedDimension
  0
DIMENSION
  5
131
330
1F
100
AcDbEntity
  8
VERMASSUNG
100
AcDbDimension
  2
_D_1
 10
236.8771868583
 20
160.1081836146
 30
0.0
 11
150.6771868583
 21
160.1081836146
 31
0.0
 70
   160
  1
<>
 71
     2
 42
-1.0
  3
SLDDIMSTYLE0
100
AcDbAlignedDimension
 13
64.4771868583
 23
122.1102093958
 33
0.0
 14
236.8771868583
 24
130.8874537988
 34
0.0
100
AcDbRotatedDimension
  0
DIMENSION
  5
13B
330
1F
100
AcDbEntity
  8
VERMASSUNG
100
AcDbDimension
  2
_D_2
 10
236.8771868583
 20
154.1081836146
 30
0.0
 11
183.3771868583
 21
154.1081836146
 31
0.0
 70
   160
  1
<>
 71
     2
 42
-1.0
  3
SLDDIMSTYLE0
100
AcDbAlignedDimension
 13
129.8771868583
 23
132.5124537988
 33
0.0
 14
236.8771868583
 24
130.8874537988
 34
0.0
100
AcDbRotatedDimension
  0
DIMENSION
  5
145
330
1F
100
AcDbEntity
  8
VERMASSUNG
100
AcDbDimension
  2
_D_3
 10
236.8771868583
 20
148.1081836146
 30
0.0
 11
196.8771868583
 21
148.1081836146
 31
0.0
 70
   160
  1
<>
 71
     2
 42
-1.0
  3
SLDDIMSTYLE0
100
AcDbAlignedDimension
 13
156.8771868583
 23
140.7874537988
 33
0.0
 14
236.8771868583
 24
130.8874537988
 34
0.0
100
AcDbRotatedDimension
  0
DIMENSION
  5
14F
330
1F
100
AcDbEntity
  8
VERMASSUNG
100
AcDbDimension
  2
_D_4
 10
244.7424158552
 20
89.2874537988
 30
0.0
 11
244.7424158552
 21
110.2874537988
 31
0.0
 70
   160
  1
MBM %%c<>
 71
     2
 42
-1.0
  3
SLDDIMSTYLE0
100
AcDbAlignedDimension
 13
236.4771868583
 23
131.2874537988
 33
0.0
 14
236.4771868583
 24
89.2874537988
 34
0.0
 50
90.0
100
AcDbRotatedDimension
  0
LINE
  5
15B
330
1F
100
AcDbEntity
  8
VERMASSUNG
  6
CENTERX2
 62
     7
370
     0
100
AcDbLine
 10
62.4771868583
 20
110.2874537988
 30
0.0
 11
238.8771868583
 21
110.2874537988
 31
0.0
  0
LINE
  5
15C
330
1F
100
AcDbEntity
  8
0
  6
Continuous
 62
     7
370
    15
100
AcDbLine
 10
277.0018960676
 20
18.5816965463
 30
0.0
 11
277.1432944388
 21
18.6633506265
 31
0.0
  0
LINE
  5
15D
330
1F
100
AcDbEntity
  8
0
  6
Continuous
 62
     7
370
    15
100
AcDbLine
 10
284.4253105603
 20
31.2775393039
 30
0.0
 11
284.4253105603
 21
31.4408209263
 31
0.0
  0
LINE
  5
15E
330
1F
100
AcDbEntity
  8
0
  6
Continuous
 62
     7
370
    15
100
AcDbLine
 10
245.0224796826
 20
33.4912785977
 30
0.0
 11
271.7511160115
 21
18.0611652842
 31
0.0
  0
LINE
  5
15F
330
1F
100
AcDbEntity
  8
0
  6
Continuous
 62
     7
370
    15
100
AcDbLine
 10
282.2502627041
 20
36.2481913942
 30
0.0
 11
255.5216263753
 21
51.6783047076
 31
0.0
  0
SPLINE
  5
160
330
1F
100
AcDbEntity
  8
0
  6
Continuous
 62
     7
370
    15
100
AcDbSpline
210
0.0
220
0.0
230
1.0
 70
     8
 71
     3
 72
    15
 73
    11
 74
     0
 42
0.000000001
 43
0.00000001
 40
0.0
 40
0.0
 40
0.0
 40
0.0
 40
0.058892291776642
 40
0.1999206125335466
 40
0.3419369323666516
 40
0.4849187460057394
 40
0.6286701303565436
 40
0.7729341363972019
 40
0.9174773189873616
 40
1.0
 40
1.0
 40
1.0
 40
1.0
 10
242.510791949732
 20
29.30009201512881
 30
0.0
 10
242.6294426326402
 20
29.27518629086448
 30
0.0
 10
243.0322239897404
 20
29.19063927290496
 30
0.0
 10
243.7654020418726
 20
29.16921882024461
 30
0.0
 10
244.7015361601217
 20
29.23307290794278
 30
0.0
 10
245.6718835388095
 20
29.42125287842449
 30
0.0
 10
246.6652799069462
 20
29.72216637054886
 30
0.0
 10
247.6737174340772
 20
30.14191292207272
 30
0.0
 10
248.5441499851443
 20
30.58045803520356
 30
0.0
 10
249.0732714324305
 20
30.91882249640131
 30
0.0
 10
249.265570352746
 20
31.04179449251905
 30
0.0
  0
SPLINE
  5
161
330
1F
100
AcDbEntity
  8
0
  6
Continuous
 62
     7
370
    15
100
AcDbSpline
210
0.0
220
0.0
230
1.0
 70
     8
 71
     3
 72
    15
 73
    11
 74
     0
 42
0.000000001
 43
0.00000001
 40
0.0
 40
0.0
 40
0.0
 40
0.0
 40
0.0267558132655423
 40
0.1702614699350301
 40
0.3138587366363211
 40
0.4574509348960475
 40
0.6008749330775675
 40
0.7439035492454376
 40
0.88625433167212
 40
0.9999999999999999
 40
0.9999999999999999
 40
0.9999999999999999
 40
0.9999999999999999
 10
259.7688290593608
 20
49.22644678739608
 30
0.0
 10
259.7739263552016
 20
49.30185777506889
 30
0.0
 10
259.8063631596419
 20
49.78173799709753
 30
0.0
 10
259.7766004280327
 20
50.62315088446241
 30
0.0
 10
259.6736633717706
 20
51.73677216926148
 30
0.0
 10
259.4694761860065
 20
52.78220248152861
 30
0.0
 10
259.1762694801345
 20
53.75614089245969
 30
0.0
 10
258.7901250661691
 20
54.64449862376458
 30
0.0
 10
258.356838892043
 20
55.40081905996608
 30
0.0
 10
258.0141655269746
 20
55.81277562626791
 30
0.0
 10
257.8619665768798
 20
55.99574682644658
 30
0.0
  0
LINE
  5
162
330
1F
100
AcDbEntity
  8
0
  6
Continuous
 62
     7
370
    15
100
AcDbLine
 10
239.0831299726
 20
30.8579785822
 30
0.0
 11
240.6299260565
 21
29.9650322099
 31
0.0
  0
LINE
  5
163
330
1F
100
AcDbEntity
  8
0
  6
Continuous
 62
     7
370
    15
100
AcDbLine
 10
256.3786460955
 20
57.2455713749
 30
0.0
 11
254.8318500117
 21
58.1385177472
 31
0.0
  0
LINE
  5
164
330
1F
100
AcDbEntity
  8
0
  6
Continuous
 62
     7
370
    15
100
AcDbLine
 10
251.2786384362
 20
60.1897431282
 30
0.0
 11
248.2469181119
 21
61.9399180179
 31
0.0
  0
SPLINE
  5
165
330
1F
100
AcDbEntity
  8
0
  6
Continuous
 62
     7
370
    15
100
AcDbSpline
210
0.0
220
0.0
230
1.0
 70
     8
 71
     3
 72
    29
 73
    25
 74
     0
 42
0.000000001
 43
0.00000001
 40
0.0
 40
0.0
 40
0.0
 40
0.0
 40
0.0133927248722098
 40
0.0611037225093225
 40
0.1091460566212536
 40
0.1575186189244403
 40
0.2061585364705208
 40
0.2549792538961886
 40
0.3039003846837616
 40
0.3528616769470757
 40
0.4018172457087977
 40
0.4507492348521613
 40
0.4996514240923229
 40
0.5485238792731888
 40
0.5973702605631245
 40
0.6461961714246071
 40
0.6950082129747523
 40
0.7438134794369854
 40
0.7926193114099491
 40
0.8414313907424502
 40
0.8902565841843226
 40
0.9391024593844446
 40
0.9879764309640309
 40
1.0
 40
1.0
 40
1.0
 40
1.0
 10
246.3208357649451
 20
62.61533459013368
 30
0.0
 10
246.2413542913613
 20
62.63263365582811
 30
0.0
 10
245.8787235382594
 20
62.71155988778975
 30
0.0
 10
245.188058663308
 20
62.73511419756441
 30
0.0
 10
244.2554713605174
 20
62.68246257249183
 30
0.0
 10
243.2873089855931
 20
62.50393868981258
 30
0.0
 10
242.2956898405751
 20
62.21179555515833
 30
0.0
 10
241.2879194913546
 20
61.80515242824934
 30
0.0
 10
240.2730367098492
 20
61.28836648006714
 30
0.0
 10
239.2596330849661
 20
60.66589202116549
 30
0.0
 10
238.2561248745852
 20
59.94337323185275
 30
0.0
 10
237.2705751568853
 20
59.12710613230278
 30
0.0
 10
236.3107028472984
 20
58.22398079786991
 30
0.0
 10
235.3839637949471
 20
57.24145518166824
 30
0.0
 10
234.4975469130839
 20
56.1875285698794
 30
0.0
 10
233.658344284673
 20
55.07069701313169
 30
0.0
 10
232.8729020475661
 20
53.89990079963544
 30
0.0
 10
232.1474038510137
 20
52.68447134539675
 30
0.0
 10
231.4875234041599
 20
51.43405298061644
 30
0.0
 10
230.898781442228
 20
50.1586178892872
 30
0.0
 10
230.3849758319863
 20
48.86802022595182
 30
0.0
 10
229.9538480553401
 20
47.57324457586193
 30
0.0
 10
229.6858499735711
 20
46.60630352121743
 30
0.0
 10
229.5696636285788
 20
46.07633501255151
 30
0.0
 10
229.5467238755784
 20
45.97169839034272
 30
0.0
  0
LINE
  5
166
330
1F
100
AcDbEntity
  8
0
  6
Continuous
 62
     7
370
    15
100
AcDbLine
 10
239.2329174096
 20
60.6287949793
 30
0.0
 11
219.3474204344
 21
67.7947398553
 31
0.0
  0
LINE
  5
167
330
1F
100
AcDbEntity
  8
0
  6
Continuous
 62
     7
370
    15
100
AcDbLine
 10
212.975951023
 20
56.7578352443
 30
0.0
 11
232.0038251094
 21
40.6908556669
 31
0.0
  0
LINE
  5
168
330
1F
100
AcDbEntity
  8
0
  6
Continuous
 62
     7
370
    15
100
AcDbLine
 10
232.4981980728
 20
34.6593788529
 30
0.0
 11
235.5299183972
 21
32.9092039632
 31
0.0
  0
SPLINE
  5
169
330
1F
100
AcDbEntity
  8
0
  6
Continuous
 62
     7
370
    15
100
AcDbSpline
210
0.0
220
0.0
230
1.0
 70
     8
 71
     3
 72
    11
 73
     7
 74
     0
 42
0.000000001
 43
0.00000001
 40
0.0
 40
0.0
 40
0.0
 40
0.0
 40
0.107831237603663
 40
0.4129458071939345
 40
0.717095222650259
 40
1.0
 40
1.0
 40
1.0
 40
1.0
 10
229.5353610451422
 20
38.72653825488717
 30
0.0
 10
229.5690239922041
 20
38.61159864398284
 30
0.0
 10
229.6979381469144
 20
38.17143092024866
 30
0.0
 10
229.9890467830567
 20
37.46400957280083
 30
0.0
 10
230.4225673384868
 20
36.65161406385182
 30
0.0
 10
230.7791220384844
 20
36.19516435620509
 30
0.0
 10
230.9509477902666
 20
35.97519862817594
 30
0.0
  0
SPLINE
  5
16A
330
1F
100
AcDbEntity
  8
0
  6
Continuous
 62
     7
370
    15
100
AcDbSpline
210
0.0
220
0.0
230
1.0
 70
     8
 71
     3
 72
    23
 73
    19
 74
     0
 42
0.000000001
 43
0.00000001
 40
0.0
 40
0.0
 40
0.0
 40
0.0
 40
0.0396183275435927
 40
0.1013663537595831
 40
0.1644154325515416
 40
0.2288490926203852
 40
0.294234451441832
 40
0.3600368209227169
 40
0.4258522471615128
 40
0.4915511847253735
 40
0.557128308409471
 40
0.6226221197010906
 40
0.6880880463881681
 40
0.7535847336272444
 40
0.8191590845993681
 40
0.8848769715546052
 40
0.9508004245408512
 40
1.0
 40
1.0
 40
1.0
 40
1.0
 10
219.1336082645277
 20
67.84692505881053
 30
0.0
 10
219.0156610026361
 20
67.87892086119321
 30
0.0
 10
218.7138844104586
 20
67.96078443354051
 30
0.0
 10
218.1835781136592
 20
67.96019348638437
 30
0.0
 10
217.5600079477503
 20
67.86186321427412
 30
0.0
 10
216.9126578358419
 20
67.64312299605218
 30
0.0
 10
216.2557982581171
 20
67.31260883392615
 30
0.0
 10
215.6033778016926
 20
66.87530408790703
 30
0.0
 10
214.9699433211535
 20
66.34190517844027
 30
0.0
 10
214.3683364796255
 20
65.72441102899644
 30
0.0
 10
213.8098673331595
 20
65.03577365039511
 30
0.0
 10
213.3048134557657
 20
64.28966801559827
 30
0.0
 10
212.8625194943575
 20
63.50048810757026
 30
0.0
 10
212.4915778970153
 20
62.68333408202473
 30
0.0
 10
212.1988124934669
 20
61.85327257176541
 30
0.0
 10
211.9924377148079
 20
61.02661228485906
 30
0.0
 10
211.8805481640221
 20
60.28431193777477
 30
0.0
 10
211.8683130855585
 20
59.83506796437468
 30
0.0
 10
211.8630842388694
 20
59.64307672624157
 30
0.0
  0
SPLINE
  5
16B
330
1F
100
AcDbEntity
  8
0
  6
Continuous
 62
     7
370
    15
100
AcDbSpline
210
0.0
220
0.0
230
1.0
 70
     8
 71
     3
 72
    13
 73
     9
 74
     0
 42
0.000000001
 43
0.00000001
 40
0.0
 40
0.0
 40
0.0
 40
0.0
 40
0.1136900231440135
 40
0.3288504876826152
 40
0.5439833558149801
 40
0.756887700698564
 40
0.9653091642816419
 40
1.0
 40
1.0
 40
1.0
 40
1.0
 10
211.8630842388694
 20
59.64307672624157
 30
0.0
 10
211.8657899975626
 20
59.50930937864126
 30
0.0
 10
211.8736164544598
 20
59.12238485986755
 30
0.0
 10
211.9619316511861
 20
58.5218146487233
 30
0.0
 10
212.1587410919086
 20
57.87196785168116
 30
0.0
 10
212.4613403241249
 20
57.31719986040557
 30
0.0
 10
212.7272315031896
 20
56.95786577058657
 30
0.0
 10
212.9115906574951
 20
56.82229537285932
 30
0.0
 10
212.937897731031
 20
56.80295019612684
 30
0.0
  0
LINE
  5
16C
330
1F
100
AcDbEntity
  8
0
  6
Continuous
 62
     7
370
    15
100
AcDbLine
 10
274.8266806958
 20
39.2284744507
 30
0.0
 11
274.6498752764
 21
39.3305752245
 31
0.0
  0
LINE
  5
16D
330
1F
100
AcDbEntity
  8
0
  6
Continuous
 62
     7
370
    15
100
AcDbLine
 10
270.7601560478
 20
39.3305752245
 30
0.0
 11
270.5833506284
 21
39.2284744507
 31
0.0
  0
LINE
  5
16E
330
1F
100
AcDbEntity
  8
0
  6
Continuous
 62
     7
370
    15
100
AcDbLine
 10
275.7050156621
 20
37.5957908947
 30
0.0
 11
275.7050156621
 21
38.0040613007
 31
0.0
  0
LINE
  5
16F
330
1F
100
AcDbEntity
  8
0
  6
Continuous
 62
     7
370
    15
100
AcDbLine
 10
269.7050156621
 20
38.0040613007
 30
0.0
 11
269.7050156621
 21
37.5957908947
 31
0.0
  0
LWPOLYLINE
  5
170
330
1F
100
AcDbEntity
  8
0
  6
Continuous
 62
     7
370
    15
100
AcDbPolyline
 90
       54
 70
   128
 43
0.0
 10
269.8589108678
 20
22.8685357521
 10
269.9100309483
 20
23.8927679178
 10
270.0626735757
 20
24.9616440975
 10
270.3146959822
 20
26.0601596128
 10
270.6625603257
 20
27.1728937138
 10
271.1013833533
 20
28.2842260528
 10
271.6250049516
 20
29.3785559599
 10
272.2260746212
 20
30.4405214419
 10
272.8961546614
 20
31.4552148314
 10
273.6258386174
 20
32.4083920574
 10
274.4048833258
 20
33.2866726011
 10
275.2223527067
 20
34.0777273288
 10
276.0667712818
 20
34.7704515662
 10
276.9262852654
 20
35.3551209834
 10
277.7888289652
 20
35.8235281034
 10
278.6422941584
 20
36.1690975171
 10
279.4747000644
 20
36.3869781873
 10
280.2743615291
 20
36.4741115471
 10
281.0300530583
 20
36.4292744351
 10
281.7311663995
 20
36.253096266
 10
282.3678594582
 20
35.9480501952
 10
282.9311944595
 20
35.5184184008
 10
283.4132634149
 20
34.9702319715
 10
283.8072991328
 20
34.311186243
 10
284.1077702157
 20
33.5505327728
 10
284.310458708
 20
32.6989494682
 10
284.4125193077
 20
31.7683906921
 10
284.4125193077
 20
30.7719194499
 10
284.310458708
 20
29.7235240136
 10
284.1077702157
 20
28.637921557
 10
283.8072991328
 20
27.5303515588
 10
283.4132634149
 20
26.4163618742
 10
282.9311944595
 20
25.3115904762
 10
282.3678594582
 20
24.2315459337
 10
281.7311663995
 20
23.1913897046
 10
281.0300530583
 20
22.2057233022
 10
280.2743615291
 20
21.2883833223
 10
279.4747000644
 20
20.4522472073
 10
278.6422941584
 20
19.7090524755
 10
277.7888289652
 20
19.0692319518
 10
276.9262852654
 20
18.5417673137
 10
276.0667712818
 20
18.1340630088
 10
275.2223527067
 20
17.8518423116
 10
274.4048833258
 20
17.6990669821
 10
273.6258386174
 20
17.6778816511
 10
272.8961546614
 20
17.7885837141
 10
272.2260746212
 20
18.029619157
 10
271.6250049516
 20
18.3976043703
 10
271.1013833533
 20
18.8873736484
 10
270.6625603257
 20
19.4920517042
 10
270.3146959822
 20
20.2031501832
 10
270.0626735757
 20
21.0106868216
 10
269.9100309483
 20
21.903325575
 10
269.8589108678
 20
22.8685357521
  0
LWPOLYLINE
  5
171
330
1F
100
AcDbEntity
  8
0
  6
Continuous
 62
     7
370
    15
100
AcDbPolyline
 90
       28
 70
   128
 43
0.0
 10
269.5760681553
 20
22.8685357521
 10
269.6262707878
 20
23.8928604397
 10
269.7761997808
 20
24.9612956187
 10
270.0238276017
 20
26.0593925364
 10
270.3658055093
 20
27.1723013155
 10
270.7975088388
 20
28.2849717742
 10
271.3130995434
 20
29.3823569531
 10
271.9056051433
 20
30.4496166004
 10
272.5670130166
 20
31.47231786
 10
273.2883787566
 20
32.436630452
 10
274.059947129
 20
33.3295137028
 10
274.8712839953
 20
34.1388928981
 10
275.7114174161
 20
34.8538225728
 10
276.5689860283
 20
35.4646345295
 10
277.4323926873
 20
35.9630685843
 10
278.2899612995
 20
36.3423842717
 10
279.1300947203
 20
36.5974519978
 10
279.9414315866
 20
36.724822409
 10
280.712999959
 20
36.7227730391
 10
281.434365699
 20
36.5913316023
 10
282.0957735723
 20
36.3322756185
 10
282.6882791722
 20
35.9491083756
 10
283.2038698768
 20
35.4470115531
 10
283.6355732064
 20
34.8327751493
 10
283.9775511139
 20
34.1147056578
 10
284.2251789349
 20
33.3025137366
 10
284.3751079278
 20
32.4071828881
 10
284.4253105603
 20
31.4408209263
  0
LWPOLYLINE
  5
172
330
1F
100
AcDbEntity
  8
0
  6
Continuous
 62
     7
370
    15
100
AcDbPolyline
 90
       15
 70
   128
 43
0.0
 10
277.0018960676
 20
18.5816965463
 10
276.5689860283
 20
18.3462880941
 10
275.7114174161
 20
17.9669724067
 10
274.8712839953
 20
17.7119046806
 10
274.059947129
 20
17.5845342694
 10
273.2883787566
 20
17.5865836393
 10
272.5670130166
 20
17.7180250761
 10
271.9056051433
 20
17.9770810598
 10
271.3130995434
 20
18.3602483028
 10
270.7975088388
 20
18.8623451253
 10
270.3658055093
 20
19.4765815291
 10
270.0238276017
 20
20.1946510206
 10
269.7761997808
 20
21.0068429418
 10
269.6262707878
 20
21.9021737903
 10
269.5760681553
 20
22.8685357521
  0
SPLINE
  5
173
330
1F
100
AcDbEntity
  8
0
  6
Continuous
 62
     7
370
    15
100
AcDbSpline
210
0.0
220
0.0
230
1.0
 70
     8
 71
     3
 72
    54
 73
    50
 74
     0
 42
0.000000001
 43
0.00000001
 40
0.0
 40
0.0
 40
0.0
 40
0.0
 40
0.0312499999999986
 40
0.0312499999999986
 40
0.0624999999999971
 40
0.0624999999999971
 40
0.1249999999999947
 40
0.1249999999999947
 40
0.1874999999999922
 40
0.1874999999999922
 40
0.218749999999991
 40
0.218749999999991
 40
0.2499999999999897
 40
0.2499999999999897
 40
0.3124999999999871
 40
0.3124999999999871
 40
0.3749999999999845
 40
0.3749999999999845
 40
0.406249999999984
 40
0.406249999999984
 40
0.4374999999999836
 40
0.4374999999999836
 40
0.4999999999999827
 40
0.4999999999999827
 40
0.5312499999999822
 40
0.5312499999999822
 40
0.5624999999999818
 40
0.5624999999999818
 40
0.6249999999999809
 40
0.6249999999999809
 40
0.6562499999999813
 40
0.6562499999999813
 40
0.6874999999999818
 40
0.6874999999999818
 40
0.7499999999999843
 40
0.7499999999999843
 40
0.7812499999999863
 40
0.7812499999999863
 40
0.8124999999999883
 40
0.8124999999999883
 40
0.8749999999999922
 40
0.8749999999999922
 40
0.9062499999999941
 40
0.9062499999999941
 40
0.9374999999999961
 40
0.9374999999999961
 40
0.9687499999999981
 40
0.9687499999999981
 40
1.0
 40
1.0
 40
1.0
 40
1.0
 10
275.3566660915462
 20
36.67743129399322
 30
0.0
 10
275.2757482690503
 20
36.63071842937767
 30
0.0
 10
275.1897524625504
 20
36.5853345480243
 30
0.0
 10
275.0073862623259
 20
36.4973279318723
 30
0.0
 10
274.9110900068086
 20
36.45481207971122
 30
0.0
 10
274.615124026178
 20
36.33516523788076
 30
0.0
 10
274.4052402612104
 20
36.26433326966107
 30
0.0
 10
273.9650186569098
 20
36.14254245239654
 30
0.0
 10
273.741208521039
 20
36.09332356848796
 30
0.0
 10
273.4002760873901
 20
36.03688937606609
 30
0.0
 10
273.2851999049381
 20
36.02095453025041
 30
0.0
 10
273.0564815212847
 20
35.99557922312079
 30
0.0
 10
272.9428733533175
 20
35.98610331003316
 30
0.0
 10
272.6040701285802
 20
35.96727394664533
 30
0.0
 10
272.3800711022779
 20
35.9674842822243
 30
0.0
 10
271.9402182340518
 20
35.99522167819693
 30
0.0
 10
271.7284396801443
 20
36.022406327928
 30
0.0
 10
271.4219660830581
 20
36.08355251412412
 30
0.0
 10
271.3216895003316
 20
36.10734745332629
 30
0.0
 10
271.1248968946308
 20
36.16203459735313
 30
0.0
 10
271.0280931124129
 20
36.1930637922023
 30
0.0
 10
270.7482982766126
 20
36.29545743142997
 30
0.0
 10
270.5743314664726
 20
36.37640105605731
 30
0.0
 10
270.3317505267689
 20
36.51676509210372
 30
0.0
 10
270.2539705791569
 20
36.56672178305222
 30
0.0
 10
270.1047207710126
 20
36.67308978337897
 30
0.0
 10
270.0331357497087
 20
36.72965984428061
 30
0.0
 10
269.831950701165
 20
36.90584103547943
 30
0.0
 10
269.7143950456465
 20
37.0327918373803
 30
0.0
 10
269.5629106558993
 20
37.2363866670434
 30
0.0
 10
269.5165826357313
 20
37.30645430074462
 30
0.0
 10
269.4325985546261
 20
37.45091539032967
 30
0.0
 10
269.3949161393876
 20
37.52549719572463
 30
0.0
 10
269.2975037542012
 20
37.75100273499691
 30
0.0
 10
269.2523425522832
 20
37.90503285256758
 30
0.0
 10
269.2155951027366
 20
38.13993146569355
 30
0.0
 10
269.2085482446461
 20
38.21887683392188
 30
0.0
 10
269.2056193605248
 20
38.37780743181642
 30
0.0
 10
269.2098303444457
 20
38.45795493449318
 30
0.0
 10
269.2399200027195
 20
38.69397090754502
 30
0.0
 10
269.2828712193188
 20
38.84723647051383
 30
0.0
 10
269.3854965356901
 20
39.0683937225278
 30
0.0
 10
269.4264374188936
 20
39.14097200035719
 30
0.0
 10
269.5197246762078
 20
39.27884888233147
 30
0.0
 10
269.5722056746185
 20
39.34459122397123
 30
0.0
 10
269.6889944583037
 20
39.46940275018441
 30
0.0
 10
269.7533005766526
 20
39.52847305716651
 30
0.0
 10
269.8942938306147
 20
39.63950147410701
 30
0.0
 10
269.9716668068327
 20
39.69179821600898
 30
0.0
 10
270.0533652326471
 20
39.73896171332839
 30
0.0
  0
SPLINE
  5
174
330
1F
100
AcDbEntity
  8
0
  6
Continuous
 62
     7
370
    15
100
AcDbSpline
210
0.0
220
0.0
230
1.0
 70
     8
 71
     3
 72
    13
 73
     9
 74
     0
 42
0.000000001
 43
0.00000001
 40
0.0
 40
0.0
 40
0.0
 40
0.0
 40
0.188665543342965
 40
0.4037605998663321
 40
0.6401655287168662
 40
0.6715306130705304
 40
0.9818647684131454
 40
1.0
 40
1.0
 40
1.0
 40
1.0
 10
270.0533652326471
 20
39.73896171332839
 30
0.0
 10
270.2577925223657
 20
39.83340816122158
 30
0.0
 10
270.6952846243324
 20
40.03553173811279
 30
0.0
 10
271.5633849541523
 20
40.11982096009427
 30
0.0
 10
272.2437352169828
 20
40.0567192569026
 30
0.0
 10
273.0413843450761
 20
39.90815544558958
 30
0.0
 10
273.5661801771345
 20
39.78088325612651
 30
0.0
 10
273.9394143396372
 20
39.60549006425318
 30
0.0
 10
273.9600210940029
 20
39.59580637292621
 30
0.0
  0
SPLINE
  5
175
330
1F
100
AcDbEntity
  8
0
  6
Continuous
 62
     7
370
    15
100
AcDbSpline
210
0.0
220
0.0
230
1.0
 70
     8
 71
     3
 72
    13
 73
     9
 74
     0
 42
0.000000001
 43
0.00000001
 40
0.0
 40
0.0
 40
0.0
 40
0.0
 40
0.2068422866290558
 40
0.467080797112673
 40
0.5936444519244714
 40
0.7200537267044107
 40
0.9019999456390857
 40
1.0
 40
1.0
 40
1.0
 40
1.0
 10
275.1329887754134
 20
39.00853897963199
 30
0.0
 10
275.3668583742611
 20
38.85557942515761
 30
0.0
 10
275.8949708817684
 20
38.51017389036955
 30
0.0
 10
276.1867304971611
 20
38.0410675628439
 30
0.0
 10
276.2171557416721
 20
37.63317970241961
 30
0.0
 10
276.0921648160619
 20
37.28424933936322
 30
0.0
 10
275.7992555830983
 20
36.95531378832567
 30
0.0
 10
275.4714278739945
 20
36.74948517455183
 30
0.0
 10
275.3566660915462
 20
36.67743129399322
 30
0.0
  0
ARC
  5
176
330
1F
100
AcDbEntity
  8
0
  6
Continuous
 62
     7
370
    15
100
AcDbCircle
 10
272.5393363999
 20
20.503346926
 30
0.0
 40
1.018669791599339
100
AcDbArc
 50
187.5911665598
 51
255.9544965879
  0
LWPOLYLINE
  5
177
330
1F
100
AcDbEntity
  8
0
  6
Continuous
 62
     7
370
    15
100
AcDbPolyline
 90
       14
 70
   128
 43
0.0
 10
281.9921084579
 20
25.1148202123
 10
281.4013842199
 20
24.0715815374
 10
280.7350709567
 20
23.0816094893
 10
280.0049936826
 20
22.1624730319
 10
279.2241090273
 20
21.3304840147
 10
278.4062752953
 20
20.600407688
 10
277.5660065241
 20
19.9852006645
 10
276.718214904
 20
19.4957809798
 10
275.8779461328
 20
19.1408343303
 10
275.0601124008
 20
18.9266599291
 10
274.2792277455
 20
18.8570587141
 10
273.5491504714
 20
18.9332658931
 10
272.8828372082
 20
19.1539290227
 10
272.2921129702
 20
19.51513201
  0
ARC
  5
178
330
1F
100
AcDbEntity
  8
0
  6
Continuous
 62
     7
370
    15
100
AcDbCircle
 10
278.6001925742
 20
27.6410431021
 30
0.0
 40
4.229290182856061
100
AcDbArc
 50
323.3220855209
 51
349.2041011418
  0
LWPOLYLINE
  5
179
330
1F
100
AcDbEntity
  8
0
  6
Continuous
 62
     7
370
    15
100
AcDbPolyline
 90
        9
 70
   128
 43
0.0
 10
282.754627115
 20
33.7772980466
 10
283.079642728
 20
33.1455160811
 10
283.3153527982
 20
32.4223988619
 10
283.4582120454
 20
31.6188226884
 10
283.5060717447
 20
30.7468740312
 10
283.4582120454
 20
29.8196677415
 10
283.3153527982
 20
28.851149792
 10
283.079642728
 20
27.8558875185
 10
282.754627115
 20
26.8488505138
  0
ARC
  5
17A
330
1F
100
AcDbEntity
  8
0
  6
Continuous
 62
     7
370
    15
100
AcDbCircle
 10
281.7448850282
 20
33.6427281301
 30
0.0
 40
1.018669791599462
100
AcDbArc
 50
7.5911665598
 51
75.9544965879
  0
LWPOLYLINE
  5
17B
330
1F
100
AcDbEntity
  8
0
  6
Continuous
 62
     7
370
    15
100
AcDbPolyline
 90
       14
 70
   128
 43
0.0
 10
272.2921129702
 20
29.0312548437
 10
272.8828372082
 20
30.0744935186
 10
273.5491504714
 20
31.0644655667
 10
274.2792277455
 20
31.9836020242
 10
275.0601124008
 20
32.8155910413
 10
275.8779461328
 20
33.5456673681
 10
276.718214904
 20
34.1608743915
 10
277.5660065241
 20
34.6502940762
 10
278.4062752953
 20
35.0052407257
 10
279.2241090273
 20
35.2194151269
 10
280.0049936826
 20
35.289016342
 10
280.7350709567
 20
35.212809163
 10
281.4013842199
 20
34.9921460333
 10
281.9921084579
 20
34.630943046
  0
ARC
  5
17C
330
1F
100
AcDbEntity
  8
0
  6
Continuous
 62
     7
370
    15
100
AcDbCircle
 10
275.6840288539
 20
26.5050319539
 30
0.0
 40
4.229290182855289
100
AcDbArc
 50
143.3220855209
 51
169.2041011418
  0
LWPOLYLINE
  5
17D
330
1F
100
AcDbEntity
  8
0
  6
Continuous
 62
     7
370
    15
100
AcDbPolyline
 90
        9
 70
   128
 43
0.0
 10
271.5295943131
 20
20.3687770094
 10
271.2045787001
 20
21.000558975
 10
270.9688686299
 20
21.7236761942
 10
270.8260093827
 20
22.5272523677
 10
270.7781496834
 20
23.3992010248
 10
270.8260093827
 20
24.3264073146
 10
270.9688686299
 20
25.294925264
 10
271.2045787001
 20
26.2901875376
 10
271.5295943131
 20
27.2972245423
  0
SPLINE
  5
17E
330
1F
100
AcDbEntity
  8
0
  6
Continuous
 62
     7
370
    15
100
AcDbSpline
210
0.0
220
0.0
230
1.0
 70
     8
 71
     3
 72
    12
 73
     8
 74
     0
 42
0.000000001
 43
0.00000001
 40
0.0
 40
0.0
 40
0.0
 40
0.0
 40
0.5000000000000003
 40
0.5000000000000003
 40
0.7500000000000001
 40
0.7500000000000001
 40
1.0
 40
1.0
 40
1.0
 40
1.0
 10
280.9139221843418
 20
34.59188387210831
 30
0.0
 10
281.1132724777294
 20
34.64172243683249
 30
0.0
 10
281.304379570799
 20
34.67104334950835
 30
0.0
 10
281.578736967936
 20
34.68173029941835
 30
0.0
 10
281.6676077390425
 20
34.67956559704982
 30
0.0
 10
281.8359398159263
 20
34.66381931905879
 30
0.0
 10
281.9160563108036
 20
34.65027756696865
 30
0.0
 10
281.9921084578921
 20
34.63094304602797
 30
0.0
  0
LWPOLYLINE
  5
17F
330
1F
100
AcDbEntity
  8
0
  6
Continuous
 62
     7
370
    15
100
AcDbPolyline
 90
       12
 70
   128
 43
0.0
 10
272.9813905141
 20
30.0125308131
 10
273.6027681694
 20
30.9324272298
 10
274.2830000898
 20
31.7863917583
 10
275.0101173999
 20
32.5593986483
 10
275.7713262625
 20
33.2378466223
 10
276.5532329897
 20
33.8097981939
 10
277.3420797088
 20
34.2651897116
 10
278.123986436
 20
34.5960084312
 10
278.8851952985
 20
34.7964335026
 10
279.6123126086
 20
34.8629383893
 10
280.292544529
 20
34.7943529188
 10
280.9139221843
 20
34.5918838721
  0
SPLINE
  5
180
330
1F
100
AcDbEntity
  8
0
  6
Continuous
 62
     7
370
    15
100
AcDbSpline
210
0.0
220
0.0
230
1.0
 70
     8
 71
     3
 72
    12
 73
     8
 74
     0
 42
0.000000001
 43
0.00000001
 40
0.0
 40
0.0
 40
0.0
 40
0.0
 40
0.5000000000000006
 40
0.5000000000000006
 40
0.7500000000000002
 40
0.7500000000000002
 40
1.0
 40
1.0
 40
1.0
 40
1.0
 10
272.2921129701923
 20
29.03125484369365
 30
0.0
 10
272.4054996482035
 20
29.22445442143901
 30
0.0
 10
272.5206082119521
 20
29.40284803875777
 30
0.0
 10
272.6948175443579
 20
29.65003240050765
 30
0.0
 10
272.7534513783853
 20
29.72935088576868
 30
0.0
 10
272.8687098585573
 20
29.87796427297874
 30
0.0
 10
272.9255123630015
 20
29.94755145689325
 30
0.0
 10
272.98139051409
 20
30.01253081314254
 30
0.0
  0
LINE
  5
181
330
1F
100
AcDbEntity
  8
0
  6
Continuous
 62
     7
370
    15
100
AcDbLine
 10
271.9625535419
 20
20.5307348391
 30
0.0
 11
272.9413109076
 21
21.0957594395
 31
0.0
  0
LINE
  5
182
330
1F
100
AcDbEntity
  8
0
  6
Continuous
 62
     7
370
    15
100
AcDbLine
 10
271.5355912263
 20
20.3422993057
 30
0.0
 11
271.9625535419
 21
20.5307348391
 31
0.0
  0
ARC
  5
183
330
1F
100
AcDbEntity
  8
0
  6
Continuous
 62
     7
370
    15
100
AcDbCircle
 10
278.8758811389
 20
34.0688972044
 30
0.0
 40
2.561673638112499
100
AcDbArc
 50
341.3541789883
 51
13.7254279951
  0
ARC
  5
184
330
1F
100
AcDbEntity
  8
0
  6
Continuous
 62
     7
370
    15
100
AcDbCircle
 10
273.939380166
 20
31.0467112901
 30
0.0
 40
7.686244433719201
100
AcDbArc
 50
343.3431752853
 51
16.6568247147
  0
ARC
  5
185
330
1F
100
AcDbEntity
  8
0
  6
Continuous
 62
     7
370
    15
100
AcDbCircle
 10
277.7718461805
 20
28.0607101682
 30
0.0
 40
3.61698388664128
100
AcDbArc
 50
300.3475728327
 51
12.4994749704
  0
LINE
  5
186
330
1F
100
AcDbEntity
  8
0
  6
Continuous
 62
     7
370
    15
100
AcDbLine
 10
278.6205494129
 20
24.3743140426
 30
0.0
 11
279.5993067787
 21
24.939338643
 31
0.0
  0
LWPOLYLINE
  5
187
330
1F
100
AcDbEntity
  8
0
  6
Continuous
 62
     7
370
    15
100
AcDbPolyline
 90
        9
 70
   128
 43
0.0
 10
278.6205494129
 20
24.3743140426
 10
277.9624654858
 20
23.5810993662
 10
277.2602670049
 20
22.874388076
 10
276.5281536819
 20
22.2684711409
 10
275.7809301603
 20
21.7756012871
 10
275.0337066386
 20
21.4057452264
 10
274.3015933156
 20
21.1663821111
 10
273.5993948347
 20
21.0623522923
 10
272.9413109076
 20
21.0957594395
  0
LINE
  5
188
330
1F
100
AcDbEntity
  8
0
  6
Continuous
 62
     7
370
    15
100
AcDbLine
 10
271.3341653279
 20
25.2917676394
 30
0.0
 11
271.3720116832
 21
25.9821382753
 31
0.0
  0
ARC
  5
189
330
1F
100
AcDbEntity
  8
0
  6
Continuous
 62
     7
370
    15
100
AcDbCircle
 10
280.9186076503
 20
24.7538372445
 30
0.0
 40
9.629886342396443
100
AcDbArc
 50
151.3952870011
 51
171.069990976
  0
LWPOLYLINE
  5
18A
330
1F
100
AcDbEntity
  8
0
  6
Continuous
 62
     7
370
    15
100
AcDbPolyline
 90
       31
 70
   128
 43
0.0
 10
277.5901237145
 20
33.5940016002
 10
277.59996219
 20
33.5946046536
 10
278.1980472256
 20
33.5643101209
 10
278.7394770858
 20
33.4002839777
 10
279.2115611136
 20
33.1063708578
 10
279.6032340596
 20
32.6894598357
 10
279.9053154417
 20
32.1593229524
 10
280.1107247286
 20
31.5283861671
 10
280.2146473005
 20
30.8114381033
 10
280.2146473005
 20
30.0252834159
 10
280.1107247286
 20
29.1883489045
 10
279.9053154417
 20
28.3202516047
 10
279.6032340596
 20
27.4413389814
 10
279.2115611136
 20
26.5722120016
 10
278.7394770858
 20
25.7332422651
 10
278.1980472256
 20
24.9440945114
 10
277.59996219
 20
24.223265695
 10
276.9592405854
 20
23.5876514325
 10
276.2909003832
 20
23.0521499833
 10
275.6106069111
 20
22.6293130476
 10
274.9343056716
 20
22.3290515648
 10
274.2778485926
 20
22.1584034096
 10
273.6566224716
 20
22.1213684301
 10
273.0851883223
 20
22.2188146948
 10
272.5769400769
 20
22.4484581459
 10
272.1437906435
 20
22.8049161355
 10
271.7958926776
 20
23.2798335904
 10
271.5414006128
 20
23.862078848
 10
271.3862795273
 20
24.5380045731
 10
271.3341653279
 20
25.2917676394
 10
271.3341653279
 20
25.2917676394
  0
ARC
  5
18B
330
1F
100
AcDbEntity
  8
0
  6
Continuous
 62
     7
370
    15
100
AcDbCircle
 10
281.9195198034
 20
32.5187082419
 30
0.0
 40
2.304188309352369
100
AcDbArc
 50
115.8757889869
 51
120.0399956969
  0
LINE
  5
18C
330
1F
100
AcDbEntity
  8
0
  6
Continuous
 62
     7
370
    15
100
AcDbLine
 10
279.7872756019
 20
33.9483645395
 30
0.0
 11
280.7660329676
 21
34.5133891399
 31
0.0
  0
LWPOLYLINE
  5
18D
330
1F
100
AcDbEntity
  8
0
  6
Continuous
 62
     7
370
    15
100
AcDbPolyline
 90
        9
 70
   128
 43
0.0
 10
274.1080370966
 20
30.6698099364
 10
274.7661210237
 20
31.4630246129
 10
275.4683195045
 20
32.169735903
 10
276.2004328275
 20
32.7756528382
 10
276.9476563492
 20
33.2685226919
 10
277.6948798709
 20
33.6383787527
 10
278.4269931939
 20
33.877741868
 10
279.1291916748
 20
33.9817716867
 10
279.7872756019
 20
33.9483645395
  0
LINE
  5
18E
330
1F
100
AcDbEntity
  8
0
  6
Continuous
 62
     7
370
    15
100
AcDbLine
 10
273.1292797308
 20
30.1047853361
 30
0.0
 11
274.1080370966
 21
30.6698099364
 31
0.0
  0
ARC
  5
18F
330
1F
100
AcDbEntity
  8
0
  6
Continuous
 62
     7
370
    15
100
AcDbCircle
 10
274.4305305812
 20
27.8541419943
 30
0.0
 40
2.599740223073263
100
AcDbArc
 50
120.0351439476
 51
123.8773714499
  0
SPLINE
  5
190
330
1F
100
AcDbEntity
  8
0
  6
Continuous
 62
     7
370
    15
100
AcDbSpline
210
0.0
220
0.0
230
1.0
 70
     8
 71
     3
 72
    12
 73
     8
 74
     0
 42
0.000000001
 43
0.00000001
 40
0.0
 40
0.0
 40
0.0
 40
0.0
 40
0.5
 40
0.5
 40
0.75
 40
0.75
 40
1.0
 40
1.0
 40
1.0
 40
1.0
 10
271.5295943130671
 20
20.3687770094446
 30
0.0
 10
271.4742653429465
 20
20.54182933879574
 30
0.0
 10
271.4341302912618
 20
20.73085177907546
 30
0.0
 10
271.3944373218649
 20
21.03699373567715
 30
0.0
 10
271.3846576461622
 20
21.14345331054924
 30
0.0
 10
271.3722837874359
 20
21.35986429388113
 30
0.0
 10
271.3696118239445
 20
21.4700904170616
 30
0.0
 10
271.3703034188602
 20
21.58232674854867
 30
0.0
  0
ARC
  5
191
330
1F
100
AcDbEntity
  8
0
  6
Continuous
 62
     7
370
    15
100
AcDbCircle
 10
278.807613024
 20
23.9655563307
 30
0.0
 40
7.809824415697231
100
AcDbArc
 50
162.2323364785
 51
197.7676635215
  0
SPLINE
  5
192
330
1F
100
AcDbEntity
  8
0
  6
Continuous
 62
     7
370
    15
100
AcDbSpline
210
0.0
220
0.0
230
1.0
 70
     8
 71
     3
 72
    12
 73
     8
 74
     0
 42
0.000000001
 43
0.00000001
 40
0.0
 40
0.0
 40
0.0
 40
0.0
 40
0.2500000000000001
 40
0.2500000000000001
 40
0.5000000000000001
 40
0.5000000000000001
 40
1.0
 40
1.0
 40
1.0
 40
1.0
 10
271.3703034188602
 20
26.34878591291866
 30
0.0
 10
271.369617196707
 20
26.40883518139901
 30
0.0
 10
271.3722414411565
 20
26.47402971762445
 30
0.0
 10
271.3844627850785
 20
26.61481555079521
 30
0.0
 10
271.3941323360289
 20
26.69084348350988
 30
0.0
 10
271.4341291971447
 20
26.93245456516176
 30
0.0
 10
271.4745578422931
 20
27.10775777310879
 30
0.0
 10
271.5295943130671
 20
27.29722454226578
 30
0.0
  0
ARC
  5
193
330
1F
100
AcDbEntity
  8
0
  6
Continuous
 62
     7
370
    15
100
AcDbCircle
 10
274.9702880852
 20
20.7580113277
 30
0.0
 40
3.693153870467781
100
AcDbArc
 50
163.7051539947
 51
167.1028904291
  0
ARC
  5
194
330
1F
100
AcDbEntity
  8
0
  6
Continuous
 62
     7
370
    15
100
AcDbCircle
 10
278.7892063434
 20
23.997412689
 30
0.0
 40
7.686244433719146
100
AcDbArc
 50
163.3431752853
 51
196.6568247147
  0
ARC
  5
195
330
1F
100
AcDbEntity
  8
0
  6
Continuous
 62
     7
370
    15
100
AcDbCircle
 10
272.7000671108
 20
26.7595607728
 30
0.0
 40
1.391764154526721
100
AcDbArc
 50
197.1663456622
 51
203.6800706087
  0
LWPOLYLINE
  5
196
330
1F
100
AcDbEntity
  8
0
  6
Continuous
 62
     7
370
    15
100
AcDbPolyline
 90
       26
 70
   128
 43
0.0
 10
277.4624459291
 20
33.5365890641
 10
277.9211383963
 20
33.466122668
 10
278.4273767697
 20
33.2590847711
 10
278.8597451866
 20
32.9241003568
 10
279.2075973017
 20
32.4694178532
 10
279.4623678414
 20
31.9062330526
 10
279.6177835097
 20
31.2484134338
 10
279.6700174568
 20
30.5121566991
 10
279.6177835097
 20
29.7155919327
 10
279.4623678414
 20
28.8783332029
 10
279.2075973017
 20
28.0209965982
 10
278.8597451866
 20
27.1646925913
 10
278.4273767697
 20
26.3305062287
 10
277.9211383963
 20
25.538977947
 10
277.3534953354
 20
24.8095977997
 10
276.738424843
 20
24.1603255465
 10
276.0910719959
 20
23.6071484252
 10
275.4273767697
 20
23.1636874923
 10
274.7636815434
 20
22.8408622278
 10
274.1163286963
 20
22.6466216611
 10
273.5012582039
 20
22.5857486396
 10
272.933615143
 20
22.6597420592
 10
272.4273767697
 20
22.8667799561
 10
271.9950083528
 20
23.2017643704
 10
271.6471562377
 20
23.656446874
 10
271.5501673733
 20
23.8355068014
  0
ARC
  5
197
330
1F
100
AcDbEntity
  8
0
  6
Continuous
 62
     7
370
    15
100
AcDbCircle
 10
271.9757928951
 20
21.8518790448
 30
0.0
 40
2.304188309331884
100
AcDbArc
 50
295.8757889868
 51
300.039995697
  0
SPLINE
  5
198
330
1F
100
AcDbEntity
  8
0
  6
Continuous
 62
     7
370
    15
100
AcDbSpline
210
0.0
220
0.0
230
1.0
 70
     8
 71
     3
 72
    12
 73
     8
 74
     0
 42
0.000000001
 43
0.00000001
 40
0.0
 40
0.0
 40
0.0
 40
0.0
 40
0.5
 40
0.5
 40
0.75
 40
0.75
 40
1.0
 40
1.0
 40
1.0
 40
1.0
 10
272.98139051409
 20
19.77870341467626
 30
0.0
 10
272.8699744893511
 20
19.67810147718992
 30
0.0
 10
272.7553522768441
 20
19.60462678280499
 30
0.0
 10
272.5796289613442
 20
19.53699958957304
 30
0.0
 10
272.5207044497496
 20
19.52187668430241
 30
0.0
 10
272.40522006252
 20
19.50711464044393
 30
0.0
 10
272.3482445099905
 20
19.50729741087062
 30
0.0
 10
272.2921129701923
 20
19.51513201000538
 30
0.0
  0
SPLINE
  5
199
330
1F
100
AcDbEntity
  8
0
  6
Continuous
 62
     7
370
    15
100
AcDbSpline
210
0.0
220
0.0
230
1.0
 70
     8
 71
     3
 72
    12
 73
     8
 74
     0
 42
0.000000001
 43
0.00000001
 40
0.0
 40
0.0
 40
0.0
 40
0.0
 40
0.5000000000000009
 40
0.5000000000000009
 40
0.7500000000000004
 40
0.7500000000000004
 40
1.0
 40
1.0
 40
1.0
 40
1.0
 10
281.9921084578921
 20
25.11482021233967
 30
0.0
 10
281.8384818097549
 20
24.94485067488273
 30
0.0
 10
281.6707840273143
 20
24.79681616730298
 30
0.0
 10
281.398942811453
 20
24.60599349217978
 30
0.0
 10
281.3043724156583
 20
24.54742074244161
 30
0.0
 10
281.1119734914671
 20
24.44333958566866
 30
0.0
 10
281.0139017504729
 20
24.39757662490162
 30
0.0
 10
280.9139221843417
 20
24.35805647364205
 30
0.0
  0
LWPOLYLINE
  5
19A
330
1F
100
AcDbEntity
  8
0
  6
Continuous
 62
     7
370
    15
100
AcDbPolyline
 90
       12
 70
   128
 43
0.0
 10
280.9139221843
 20
24.3580564736
 10
280.292544529
 20
23.438160057
 10
279.6123126086
 20
22.5841955285
 10
278.8851952985
 20
21.8111886385
 10
278.123986436
 20
21.1327406645
 10
277.3420797088
 20
20.5607890928
 10
276.5532329897
 20
20.1053975752
 10
275.7713262625
 20
19.7745788556
 10
275.0101173999
 20
19.5741537842
 10
274.2830000898
 20
19.5076488975
 10
273.6027681694
 20
19.576234368
 10
272.9813905141
 20
19.7787034147
  0
SPLINE
  5
19B
330
1F
100
AcDbEntity
  8
0
  6
Continuous
 62
     7
370
    15
100
AcDbSpline
210
0.0
220
0.0
230
1.0
 70
     8
 71
     3
 72
    12
 73
     8
 74
     0
 42
0.000000001
 43
0.00000001
 40
0.0
 40
0.0
 40
0.0
 40
0.0
 40
0.4999999999999996
 40
0.4999999999999996
 40
0.7499999999999998
 40
0.7499999999999998
 40
1.0
 40
1.0
 40
1.0
 40
1.0
 10
282.7546271150173
 20
33.77729804658874
 30
0.0
 10
282.7697161150119
 20
33.62747575752602
 30
0.0
 10
282.7572619480047
 20
33.46881242698532
 30
0.0
 10
282.6993230339461
 20
33.21903215701028
 30
0.0
 10
282.6731661478815
 20
33.13331831766106
 30
0.0
 10
282.6083995625885
 20
32.96143956476627
 30
0.0
 10
282.5698022895299
 20
32.87503766473328
 30
0.0
 10
282.5250092795716
 20
32.78826053823592
 30
0.0
  0
ARC
  5
19C
330
1F
100
AcDbEntity
  8
0
  6
Continuous
 62
     7
370
    15
100
AcDbCircle
 10
278.9250246133
 20
33.6125759591
 30
0.0
 40
3.693153870426804
100
AcDbArc
 50
343.7051539947
 51
347.1028904291
  0
LINE
  5
19D
330
1F
100
AcDbEntity
  8
0
  6
Continuous
 62
     7
370
    15
100
AcDbLine
 10
281.3031002805
 20
33.2498861745
 30
0.0
 11
282.4698264694
 21
32.5763494823
 31
0.0
  0
LWPOLYLINE
  5
19E
330
1F
100
AcDbEntity
  8
0
  6
Continuous
 62
     7
370
    15
100
AcDbPolyline
 90
        9
 70
   128
 43
0.0
 10
279.7872756019
 20
23.7007773504
 10
279.1291916748
 20
22.9075626739
 10
278.4269931939
 20
22.2008513837
 10
277.6948798709
 20
21.5949344486
 10
276.9476563492
 20
21.1020645948
 10
276.2004328275
 20
20.7322085341
 10
275.4683195045
 20
20.4928454188
 10
274.7661210237
 20
20.3888156001
 10
274.1080370966
 20
20.4222227473
  0
LINE
  5
19F
330
1F
100
AcDbEntity
  8
0
  6
Continuous
 62
     7
370
    15
100
AcDbLine
 10
280.7660329676
 20
24.2658019507
 30
0.0
 11
279.7872756019
 21
23.7007773504
 31
0.0
  0
ARC
  5
1A0
330
1F
100
AcDbEntity
  8
0
  6
Continuous
 62
     7
370
    15
100
AcDbCircle
 10
279.4647821172
 20
26.5164452924
 30
0.0
 40
2.599740223040831
100
AcDbArc
 50
300.0351439475
 51
303.8773714499
  0
LINE
  5
1A1
330
1F
100
AcDbEntity
  8
0
  6
Continuous
 62
     7
370
    15
100
AcDbLine
 10
274.1080370966
 20
20.4222227473
 30
0.0
 11
273.1292797308
 21
19.8571981469
 31
0.0
  0
LINE
  5
1A2
330
1F
100
AcDbEntity
  8
0
  6
Continuous
 62
     7
370
    15
100
AcDbLine
 10
272.9413109076
 20
21.0957594395
 30
0.0
 11
274.1080370966
 21
20.4222227473
 31
0.0
  0
LINE
  5
1A3
330
1F
100
AcDbEntity
  8
0
  6
Continuous
 62
     7
370
    15
100
AcDbLine
 10
279.7872756019
 20
23.7007773504
 30
0.0
 11
278.6205494129
 21
24.3743140426
 31
0.0
  0
SPLINE
  5
1A4
330
1F
100
AcDbEntity
  8
0
  6
Continuous
 62
     7
370
    15
100
AcDbSpline
210
0.0
220
0.0
230
1.0
 70
     8
 71
     3
 72
    12
 73
     8
 74
     0
 42
0.000000001
 43
0.00000001
 40
0.0
 40
0.0
 40
0.0
 40
0.0
 40
0.25
 40
0.25
 40
0.5
 40
0.5
 40
1.0
 40
1.0
 40
1.0
 40
1.0
 10
282.5250092795716
 20
28.02180137386594
 30
0.0
 10
282.5694543080774
 20
27.93649068418273
 30
0.0
 10
282.6078596267952
 20
27.84761028530851
 30
0.0
 10
282.6724584091565
 20
27.6624771371935
 30
0.0
 10
282.6987551197172
 20
27.56568632365886
 30
0.0
 10
282.7575030302301
 20
27.26707109871306
 30
0.0
 10
282.7696363462646
 20
27.06142451645204
 30
0.0
 10
282.7546271150173
 20
26.84885051376757
 30
0.0
  0
ARC
  5
1A5
330
1F
100
AcDbEntity
  8
0
  6
Continuous
 62
     7
370
    15
100
AcDbCircle
 10
275.0876996744
 20
30.4050309561
 30
0.0
 40
7.809824415697231
100
AcDbArc
 50
342.2323364785
 51
17.7676635215
  0
ARC
  5
1A6
330
1F
100
AcDbEntity
  8
0
  6
Continuous
 62
     7
370
    15
100
AcDbCircle
 10
281.1952455877
 20
27.611026514
 30
0.0
 40
1.391764154515941
100
AcDbArc
 50
17.1663456622
 51
23.6800706087
  0
ARC
  5
1A7
330
1F
100
AcDbEntity
  8
0
  6
Continuous
 62
     7
370
    15
100
AcDbCircle
 10
275.106106355
 20
30.3731745978
 30
0.0
 40
7.686244433719145
100
AcDbArc
 50
343.3431752853
 51
16.6568247147
  0
LINE
  5
1A8
330
1F
100
AcDbEntity
  8
0
  6
Continuous
 62
     7
370
    15
100
AcDbLine
 10
281.3031002805
 20
28.8435364057
 30
0.0
 11
282.4698264694
 21
28.1699997134
 31
0.0
  0
ARC
  5
1A9
330
1F
100
AcDbEntity
  8
0
  6
Continuous
 62
     7
370
    15
100
AcDbCircle
 10
253.6813388884
 20
52.5737732767
 30
0.0
 40
5.392341337216
100
AcDbArc
 50
40.4659168775
 51
80.0184109133
  0
ARC
  5
1AA
330
1F
100
AcDbEntity
  8
0
  6
Continuous
 62
     7
370
    15
100
AcDbCircle
 10
243.3294535302
 20
34.6417269362
 30
0.0
 40
5.39759020779747
100
AcDbArc
 50
219.5452848379
 51
260.1027899646
  0
ARC
  5
1AB
330
1F
100
AcDbEntity
  8
0
  6
Continuous
 62
     7
370
    15
100
AcDbCircle
 10
242.7787531424
 20
36.5633782401
 30
0.0
 40
6.797736084088415
100
AcDbArc
 50
187.9592832021
 51
237.0672015328
  0
SPLINE
  5
1AC
330
1F
100
AcDbEntity
  8
0
  6
Continuous
 62
     7
370
    15
100
AcDbSpline
210
0.0
220
0.0
230
1.0
 70
     8
 71
     3
 72
    29
 73
    25
 74
     0
 42
0.000000001
 43
0.00000001
 40
0.0
 40
0.0
 40
0.0
 40
0.0
 40
0.022617010504675
 40
0.0451713142265269
 40
0.0676870228522217
 40
0.0901883721292881
 40
0.1126996441720091
 40
0.1352450890217754
 40
0.1578488467233686
 40
0.180534871159394
 40
0.2033268568200607
 40
0.2262481695790738
 40
0.2493217824052779
 40
0.3751991801918881
 40
0.4999614246459502
 40
0.499971796076067
 40
0.6247044141121627
 40
0.7509557879398104
 40
0.7931713871196749
 40
0.8349081045063343
 40
0.8763104515934019
 40
0.9175264576337645
 40
0.9587061619419153
 40
1.0
 40
1.0
 40
1.0
 40
1.0
 10
236.0466628910589
 20
40.77635355827028
 30
0.0
 10
236.0650281161828
 20
40.72751366846508
 30
0.0
 10
236.1017076479336
 20
40.62996929987031
 30
0.0
 10
236.1533974766012
 20
40.48250669045672
 30
0.0
 10
236.2025788364259
 20
40.33456940092741
 30
0.0
 10
236.2490685063264
 20
40.18607753569052
 30
0.0
 10
236.2929786027864
 20
40.03708556955544
 30
0.0
 10
236.3343437942422
 20
39.88761378097741
 30
0.0
 10
236.3732210809465
 20
39.73769367767159
 30
0.0
 10
236.4096629259679
 20
39.58735486769605
 30
0.0
 10
236.4437249070531
 20
39.43663241607952
 30
0.0
 10
236.475461960148
 20
39.28555071935521
 30
0.0
 10
236.5486202320151
 20
38.90982951240539
 30
0.0
 10
236.6342967720481
 20
38.32105909069902
 30
0.0
 10
236.6600291338762
 20
37.81957548668756
 30
0.0
 10
236.6604662901038
 20
37.34912266145423
 30
0.0
 10
236.6350352333922
 20
36.90268013156182
 30
0.0
 10
236.5430679173501
 20
36.4666534600731
 30
0.0
 10
236.4505140233018
 20
36.19846057745406
 30
0.0
 10
236.3869313994116
 20
36.05220946661817
 30
0.0
 10
236.3152858953756
 20
35.92128913477191
 30
0.0
 10
236.2350311210637
 20
35.80584280232176
 30
0.0
 10
236.1466294614714
 20
35.70432079787806
 30
0.0
 10
236.080272807561
 20
35.64932192091656
 30
0.0
 10
236.0470485656765
 20
35.62178442642482
 30
0.0
  0
LWPOLYLINE
  5
1AD
330
1F
100
AcDbEntity
  8
0
  6
Continuous
 62
     7
370
    15
100
AcDbPolyline
 90
       24
 70
   128
 43
0.0
 10
236.0464441499
 20
40.7764798349
 10
236.3164564599
 20
42.1501884721
 10
236.6881444469
 20
43.5463329525
 10
237.157956611
 20
44.9515730365
 10
237.7214038705
 20
46.3524815757
 10
238.373102455
 20
47.7356728099
 10
239.1068253477
 20
49.0879302686
 10
239.9155617848
 20
50.3963330553
 10
240.791584244
 20
51.6483793075
 10
241.7265222812
 20
52.8321056525
 10
242.7114425105
 20
53.9362015181
 10
243.7369339635
 20
54.9501172059
 10
244.7931980115
 20
55.8641646942
 10
245.8701419916
 20
56.6696102075
 10
246.9574756434
 20
57.3587576686
 10
248.0448094323
 20
57.9250222343
 10
249.1217538224
 20
58.3629932149
 10
250.1780185493
 20
58.6684857727
 10
251.2035109439
 20
58.8385809093
 10
252.1884323682
 20
58.8716533558
 10
253.1233718424
 20
58.7673871032
 10
253.9993959669
 20
58.5267784215
 10
254.8081342819
 20
58.1521263402
 10
254.8318500117
 20
58.1385177472
  0
SPLINE
  5
1AE
330
1F
100
AcDbEntity
  8
0
  6
Continuous
 62
     7
370
    15
100
AcDbSpline
210
0.0
220
0.0
230
1.0
 70
     8
 71
     3
 72
     8
 73
     4
 74
     0
 42
0.000000001
 43
0.00000001
 40
0.0
 40
0.0
 40
0.0
 40
0.0
 40
1.0
 40
1.0
 40
1.0
 40
1.0
 10
235.2685077528838
 20
44.05525696177462
 30
0.0
 10
234.575436517831
 20
43.93939534339991
 30
0.0
 10
233.8818157514348
 20
43.82463665024686
 30
0.0
 10
233.1878365906074
 20
43.7106251026087
 30
0.0
  0
SPLINE
  5
1AF
330
1F
100
AcDbEntity
  8
0
  6
Continuous
 62
     7
370
    15
100
AcDbSpline
210
0.0
220
0.0
230
1.0
 70
     8
 71
     3
 72
     8
 73
     4
 74
     0
 42
0.000000001
 43
0.00000001
 40
0.0
 40
0.0
 40
0.0
 40
0.0
 40
0.0012389803509652
 40
0.0012389803509652
 40
0.0012389803509652
 40
0.0012389803509652
 10
232.7141001764619
 20
43.98415922336271
 30
0.0
 10
232.8721735114429
 20
43.8928881429122
 30
0.0
 10
233.0300916904089
 20
43.80170661581195
 30
0.0
 10
233.1878365906074
 20
43.7106251026087
 30
0.0
  0
LWPOLYLINE
  5
1B0
330
1F
100
AcDbEntity
  8
0
  6
Continuous
 62
     7
370
    15
100
AcDbPolyline
 90
       26
 70
   128
 43
0.0
 10
232.7141001765
 20
43.9841592234
 10
233.0597655672
 20
45.3420459014
 10
233.4993159737
 20
46.7108909847
 10
234.0287621123
 20
48.0782710711
 10
234.6432988212
 20
49.4317760546
 10
235.3373486709
 20
50.7591217573
 10
236.1046125848
 20
52.0482614183
 10
236.9381270077
 20
53.2874950283
 10
237.8303271064
 20
54.4655755165
 10
238.7731154266
 20
55.5718108275
 10
239.757935384
 20
56.5961609603
 10
240.7758489223
 20
57.5293290895
 10
241.8176176337
 20
58.3628459421
 10
242.8737866049
 20
59.0891466628
 10
243.9347702284
 20
59.7016394714
 10
244.9909391996
 20
60.1947654887
 10
246.0327079111
 20
60.5640491879
 10
247.0506214494
 20
60.8061390139
 10
248.0354414067
 20
60.9188378012
 10
248.9782297269
 20
60.9011227148
 10
249.8704298256
 20
60.753154534
 10
250.7039442486
 20
60.4762761925
 10
251.4712081624
 20
60.0730005903
 10
252.1652580122
 20
59.5469877872
 10
252.779794721
 20
58.903011785
 10
252.8522754348
 20
58.812540087
  0
LINE
  5
1B1
330
1F
100
AcDbEntity
  8
0
  6
Continuous
 62
     7
370
    15
100
AcDbLine
 10
229.6823798521
 20
45.7343341131
 30
0.0
 11
232.7141001765
 21
43.9841592234
 31
0.0
  0
ARC
  5
1B2
330
1F
100
AcDbEntity
  8
0
  6
Continuous
 62
     7
370
    15
100
AcDbCircle
 10
245.527771561
 20
57.1908193218
 30
0.0
 40
5.472448847711212
100
AcDbArc
 50
60.2062499925
 51
80.4865566714
  0
LINE
  5
1B3
330
1F
100
AcDbEntity
  8
0
  6
Continuous
 62
     7
370
    15
100
AcDbLine
 10
235.6711031553
 20
43.9940945711
 30
0.0
 11
235.6617805044
 21
43.9994764229
 31
0.0
  0
SPLINE
  5
1B4
330
1F
100
AcDbEntity
  8
0
  6
Continuous
 62
     7
370
    15
100
AcDbSpline
210
0.0
220
0.0
230
1.0
 70
     8
 71
     3
 72
    10
 73
     6
 74
     0
 42
0.000000001
 43
0.00000001
 40
0.0
 40
0.0
 40
0.0
 40
0.0
 40
0.2496072526300667
 40
0.7164344372467585
 40
1.0
 40
1.0
 40
1.0
 40
1.0
 10
236.5978642587113
 20
43.18039322333366
 30
0.0
 10
236.5289028060224
 20
43.26532789553875
 30
0.0
 10
236.3309664118338
 20
43.50911137315338
 30
0.0
 10
236.0146956981579
 20
43.77825159816955
 30
0.0
 10
235.7653342397176
 20
43.93489911464764
 30
0.0
 10
235.6711031553429
 20
43.99409457105324
 30
0.0
  0
SPLINE
  5
1B5
330
1F
100
AcDbEntity
  8
0
  6
Continuous
 62
     7
370
    15
100
AcDbSpline
210
0.0
220
0.0
230
1.0
 70
     8
 71
     3
 72
    10
 73
     6
 74
     0
 42
0.000000001
 43
0.00000001
 40
0.0
 40
0.0
 40
0.0
 40
0.0
 40
0.5
 40
0.5
 40
1.0
 40
1.0
 40
1.0
 40
1.0
 10
235.6617805044358
 20
43.99947642286597
 30
0.0
 10
235.611979905623
 20
44.02822569661509
 30
0.0
 10
235.5469479888791
 20
44.04898904197575
 30
0.0
 10
235.4098896285336
 20
44.06794273136354
 30
0.0
 10
235.3363507884838
 20
44.06659837013573
 30
0.0
 10
235.2685077528839
 20
44.05525696177462
 30
0.0
  0
SPLINE
  5
1B6
330
1F
100
AcDbEntity
  8
0
  6
Continuous
 62
     7
370
    15
100
AcDbSpline
210
0.0
220
0.0
230
1.0
 70
     8
 71
     3
 72
     8
 73
     4
 74
     0
 42
0.000000001
 43
0.00000001
 40
0.0
 40
0.0
 40
0.0
 40
0.0
 40
1.0
 40
1.0
 40
1.0
 40
1.0
 10
229.5255552445634
 20
45.82485579227151
 30
0.0
 10
229.5479340410829
 20
45.81194384081967
 30
0.0
 10
229.6021214721001
 20
45.78066628966264
 30
0.0
 10
229.6823798521246
 20
45.73433411308264
 30
0.0
  0
LINE
  5
1B7
330
1F
100
AcDbEntity
  8
0
  6
Continuous
 62
     7
370
    15
100
AcDbLine
 10
229.5255552446
 20
45.8248557923
 30
0.0
 11
229.5486934425
 21
45.9713211503
 31
0.0
  0
SPLINE
  5
1B8
330
1F
100
AcDbEntity
  8
0
  6
Continuous
 62
     7
370
    15
100
AcDbSpline
210
0.0
220
0.0
230
1.0
 70
     8
 71
     3
 72
    11
 73
     7
 74
     0
 42
0.000000001
 43
0.00000001
 40
0.0
 40
0.0
 40
0.0
 40
0.0
 40
0.2912888849922404
 40
0.5549624174218817
 40
0.7913417921254566
 40
1.0
 40
1.0
 40
1.0
 40
1.0
 10
236.1550882403426
 20
36.34791316518531
 30
0.0
 10
236.2460250551832
 20
36.43947073179842
 30
0.0
 10
236.4192775107236
 20
36.6139058411306
 30
0.0
 10
236.570368228987
 20
37.03130388386924
 30
0.0
 10
236.6489576070436
 20
37.48543568437941
 30
0.0
 10
236.6565862083814
 20
37.82940281623265
 30
0.0
 10
236.6601629181831
 20
37.99067361247523
 30
0.0
  0
SPLINE
  5
1B9
330
1F
100
AcDbEntity
  8
0
  6
Continuous
 62
     7
370
    15
100
AcDbSpline
210
0.0
220
0.0
230
1.0
 70
     8
 71
     3
 72
     9
 73
     5
 74
     0
 42
0.000000001
 43
0.00000001
 40
0.0
 40
0.0
 40
0.0
 40
0.0
 40
0.5067661696360637
 40
0.9999999999999999
 40
0.9999999999999999
 40
0.9999999999999999
 40
0.9999999999999999
 10
236.0463667758702
 20
35.62128239864116
 30
0.0
 10
236.064635793186
 20
35.74373675249393
 30
0.0
 10
236.1006859843993
 20
35.98537552238402
 30
0.0
 10
236.1373667238344
 20
36.22752592051507
 30
0.0
 10
236.1554589054466
 20
36.3469626889094
 30
0.0
  0
SPLINE
  5
1BA
330
1F
100
AcDbEntity
  8
0
  6
Continuous
 62
     7
370
    15
100
AcDbSpline
210
0.0
220
0.0
230
1.0
 70
     8
 71
     3
 72
    10
 73
     6
 74
     0
 42
0.000000001
 43
0.00000001
 40
0.0
 40
0.0
 40
0.0
 40
0.0
 40
0.4807908150149394
 40
0.9757817590326827
 40
1.0
 40
1.0
 40
1.0
 40
1.0
 10
235.6711031553429
 20
37.42094103537296
 30
0.0
 10
235.8208941022431
 20
37.34077066001092
 30
0.0
 10
236.1249000630245
 20
37.17806208187253
 30
0.0
 10
236.4145155072232
 20
37.06656065115107
 30
0.0
 10
236.548853937902
 20
37.03832903367175
 30
0.0
 10
236.5551200837627
 20
37.03701218463521
 30
0.0
  0
LINE
  5
1BB
330
1F
100
AcDbEntity
  8
0
  6
Continuous
 62
     7
370
    15
100
AcDbLine
 10
229.9589884921
 20
45.5745994341
 30
0.0
 11
229.5255552446
 21
45.8248557923
 31
0.0
  0
LINE
  5
1BC
330
1F
100
AcDbEntity
  8
0
  6
Continuous
 62
     7
370
    15
100
AcDbLine
 10
233.1878365906
 20
43.7106251026
 30
0.0
 11
229.9589884921
 21
45.5745994341
 31
0.0
  0
SPLINE
  5
1BD
330
1F
100
AcDbEntity
  8
0
  6
Continuous
 62
     7
370
    15
100
AcDbSpline
210
0.0
220
0.0
230
1.0
 70
     8
 71
     3
 72
    11
 73
     7
 74
     0
 42
0.000000001
 43
0.00000001
 40
0.0
 40
0.0
 40
0.0
 40
0.0
 40
0.21800253697792
 40
0.5290085500354185
 40
0.8400525035994036
 40
1.0
 40
1.0
 40
1.0
 40
1.0
 10
232.0640534133998
 20
41.56077348828676
 30
0.0
 10
232.0593312287747
 20
41.76716781892789
 30
0.0
 10
232.0478722977172
 20
42.26800770410344
 30
0.0
 10
231.9827998853431
 20
43.08673424672524
 30
0.0
 10
231.9420719232353
 20
43.84090063503081
 30
0.0
 10
231.9629569548218
 20
44.268445502369
 30
0.0
 10
231.970049458337
 20
44.4136386500043
 30
0.0
  0
LINE
  5
1BE
330
1F
100
AcDbEntity
  8
0
  6
Continuous
 62
     7
370
    15
100
AcDbLine
 10
232.0640534134
 20
41.1404181329
 30
0.0
 11
232.0640534134
 21
41.5607734883
 31
0.0
  0
LINE
  5
1BF
330
1F
100
AcDbEntity
  8
0
  6
Continuous
 62
     7
370
    15
100
AcDbLine
 10
231.4541738146
 20
44.375786948
 30
0.0
 11
231.4593617093
 21
44.7084524122
 31
0.0
  0
ARC
  5
1C0
330
1F
100
AcDbEntity
  8
0
  6
Continuous
 62
     7
370
    15
100
AcDbCircle
 10
238.9149017543
 20
44.1835250062
 30
0.0
 40
7.463204810532695
100
AcDbArc
 50
178.5238222856
 51
203.3718076394
  0
LWPOLYLINE
  5
1C1
330
1F
100
AcDbEntity
  8
0
  6
Continuous
 62
     7
370
    15
100
AcDbPolyline
 90
        3
 70
   128
 43
0.0
 10
219.1650500859
 20
67.8517549412
 10
219.3163409796
 20
67.8056783644
 10
219.3474204344
 20
67.7947398553
  0
LINE
  5
1C2
330
1F
100
AcDbEntity
  8
0
  6
Continuous
 62
     7
370
    15
100
AcDbLine
 10
212.975951023
 20
56.7578352443
 30
0.0
 11
212.9382190725
 21
56.7904319362
 31
0.0
  0
LINE
  5
1C3
330
1F
100
AcDbEntity
  8
0
  6
Continuous
 62
     7
370
    15
100
AcDbLine
 10
235.6617805044
 20
37.4263228872
 30
0.0
 11
235.6711031553
 21
37.4209410354
 31
0.0
  0
ARC
  5
1C4
330
1F
100
AcDbEntity
  8
0
  6
Continuous
 62
     7
370
    15
100
AcDbCircle
 10
238.4677916565
 20
38.0508115531
 30
0.0
 40
5.894055296995399
100
AcDbArc
 50
192.5292124781
 51
260.6428941703
  0
SPLINE
  5
1C5
330
1F
100
AcDbEntity
  8
0
  6
Continuous
 62
     7
370
    15
100
AcDbSpline
210
0.0
220
0.0
230
1.0
 70
     8
 71
     3
 72
     8
 73
     4
 74
     0
 42
0.000000001
 43
0.00000001
 40
0.0
 40
0.0
 40
0.0
 40
0.0
 40
0.0012389803509652
 40
0.0012389803509652
 40
0.0012389803509652
 40
0.0012389803509652
 10
233.1878365906074
 20
37.13747156692842
 30
0.0
 10
233.0300916904089
 20
37.01539511639369
 30
0.0
 10
232.8721735114429
 20
36.89363781339287
 30
0.0
 10
232.7141001764619
 20
36.77217079184844
 30
0.0
  0
SPLINE
  5
1C6
330
1F
100
AcDbEntity
  8
0
  6
Continuous
 62
     7
370
    15
100
AcDbSpline
210
0.0
220
0.0
230
1.0
 70
     8
 71
     3
 72
     8
 73
     4
 74
     0
 42
0.000000001
 43
0.00000001
 40
0.0
 40
0.0
 40
0.0
 40
0.0
 40
1.0
 40
1.0
 40
1.0
 40
1.0
 10
233.1878365906074
 20
37.13747156692842
 30
0.0
 10
233.881817173549
 20
37.25148334820103
 30
0.0
 10
234.5754502343109
 20
37.36624410072139
 30
0.0
 10
235.2685077528838
 20
37.48210342609434
 30
0.0
  0
SPLINE
  5
1C7
330
1F
100
AcDbEntity
  8
0
  6
Continuous
 62
     7
370
    15
100
AcDbSpline
210
0.0
220
0.0
230
1.0
 70
     8
 71
     3
 72
    12
 73
     8
 74
     0
 42
0.000000001
 43
0.00000001
 40
0.0
 40
0.0
 40
0.0
 40
0.0
 40
0.2499999999999984
 40
0.2499999999999984
 40
0.4999999999999968
 40
0.4999999999999968
 40
1.0
 40
1.0
 40
1.0
 40
1.0
 10
235.2685077528838
 20
37.48210342609434
 30
0.0
 10
235.3022962688079
 20
37.48775189617859
 30
0.0
 10
235.3378680448768
 20
37.49101235969403
 30
0.0
 10
235.4084502912693
 20
37.49214994924215
 30
0.0
 10
235.4434732497182
 20
37.49013333278413
 30
0.0
 10
235.5476785449832
 20
37.47575759544454
 30
0.0
 10
235.6113889769228
 20
37.45541329681214
 30
0.0
 10
235.6617805044358
 20
37.42632288718568
 30
0.0
  0
LINE
  5
1C8
330
1F
100
AcDbEntity
  8
0
  6
Continuous
 62
     7
370
    15
100
AcDbLine
 10
229.9589884921
 20
39.0014458984
 30
0.0
 11
233.1878365906
 21
37.1374715669
 31
0.0
  0
LINE
  5
1C9
330
1F
100
AcDbEntity
  8
0
  6
Continuous
 62
     7
370
    15
100
AcDbLine
 10
229.9589884921
 20
39.0014458984
 30
0.0
 11
231.851921379
 21
40.0942127938
 31
0.0
  0
LINE
  5
1CA
330
1F
100
AcDbEntity
  8
0
  6
Continuous
 62
     7
370
    15
100
AcDbLine
 10
229.5255552446
 20
38.7511895402
 30
0.0
 11
229.9589884921
 21
39.0014458984
 31
0.0
  0
LINE
  5
1CB
330
1F
100
AcDbEntity
  8
0
  6
Continuous
 62
     7
370
    15
100
AcDbLine
 10
232.7141001765
 20
36.7721707918
 30
0.0
 11
229.6823798521
 21
38.5223456816
 31
0.0
  0
SPLINE
  5
1CC
330
1F
100
AcDbEntity
  8
0
  6
Continuous
 62
     7
370
    15
100
AcDbSpline
210
0.0
220
0.0
230
1.0
 70
     8
 71
     3
 72
     8
 73
     4
 74
     0
 42
0.000000001
 43
0.00000001
 40
0.0
 40
0.0
 40
0.0
 40
0.0
 40
1.0
 40
1.0
 40
1.0
 40
1.0
 10
229.6823798521246
 20
38.52234568156837
 30
0.0
 10
229.6023550526099
 20
38.56854301499033
 30
0.0
 10
229.5478782552279
 20
38.65173053735503
 30
0.0
 10
229.5255552445634
 20
38.75118954019616
 30
0.0
  0
ARC
  5
1CD
330
1F
100
AcDbEntity
  8
0
  6
Continuous
 62
     7
370
    15
100
AcDbCircle
 10
235.2190697528
 20
39.3511956664
 30
0.0
 40
5.423678429816135
100
AcDbArc
 50
219.523237723
 51
239.8897582962
  0
ELLIPSE
  5
1CE
330
1F
100
AcDbEntity
  8
0
  6
Continuous
 62
     7
370
    15
100
AcDbEllipse
 10
231.617606804
 20
40.8827123683
 30
0.0
 11
-6.005970382716441E-5
 21
0.8534489614827194
 31
0.0
210
0.0
220
0.0
230
1.0
 40
0.7174342186
 41
3.534193645557468
 42
5.104989972352381
  0
ELLIPSE
  5
1CF
330
1F
100
AcDbEntity
  8
0
  6
Continuous
 62
     7
370
    15
100
AcDbEllipse
 10
231.4983679885
 20
40.8138548882
 30
0.0
 11
0.2600075789209199
 21
0.9705436209909308
 31
0.0
210
0.0
220
0.0
230
1.0
 40
0.5176380889
 41
3.619174351347695
 42
5.189970678142622
  0
LWPOLYLINE
  5
1D0
330
1F
100
AcDbEntity
  8
0
  6
Continuous
 62
     7
370
    15
100
AcDbPolyline
 90
       28
 70
   128
 43
0.0
 10
273.5025208114
 20
36.6888781675
 10
272.8740841006
 20
36.6236583669
 10
272.2365328665
 20
36.6438614274
 10
271.6242376611
 20
36.7483981968
 10
271.0702074776
 20
36.9316330707
 10
270.6043102264
 20
37.1836878098
 10
270.251662549
 20
37.4909740777
 10
270.031275773
 20
37.8369259922
 10
269.9550310064
 20
38.2028931961
 10
270.0270386245
 20
38.5691463027
 10
270.2434166778
 20
38.9159405122
 10
270.5925001695
 20
39.2245800591
 10
271.0554699182
 20
39.4784261053
 10
271.607367105
 20
39.663793745
 10
272.2184388096
 20
39.7706897606
 10
272.8557419982
 20
39.7933513602
 10
273.4849194911
 20
39.7305568513
 10
274.0720521666
 20
39.585691502
 10
274.5854875504
 20
39.3665650407
 10
274.9975462079
 20
39.0849906318
 10
275.2860139503
 20
38.7561480245
 10
275.4353394069
 20
38.3977652089
 10
275.4374724037
 20
38.0291626953
 10
275.2922979503
 20
37.6702119407
 10
275.0076424391
 20
37.3402640731
 10
274.5988517223
 20
37.0571066675
 10
274.0879638133
 20
36.8360048129
 10
273.5025208114
 20
36.6888781675
  0
LWPOLYLINE
  5
1D1
330
1F
100
AcDbEntity
  8
0
  6
Continuous
 62
     7
370
    15
100
AcDbPolyline
 90
       13
 70
   128
 43
0.0
 10
273.5750212796
 20
36.3466231158
 10
272.9143334122
 20
36.2764188472
 10
272.2431494789
 20
36.2928457851
 10
271.5951254445
 20
36.3950802145
 10
271.0027559402
 20
36.577995674
 10
270.4957448463
 20
36.8324200188
 10
270.0995158163
 20
37.1455953499
 10
269.8339374281
 20
37.5018177483
 10
269.7123268912
 20
37.8832247356
 10
269.7407822656
 20
38.2706909729
 10
269.9178766801
 20
38.644787285
 10
270.2347298812
 20
38.9867549209
 10
270.5833506284
 20
39.2284744507
  0
LWPOLYLINE
  5
1D2
330
1F
100
AcDbEntity
  8
0
  6
Continuous
 62
     7
370
    15
100
AcDbPolyline
 90
       11
 70
   128
 43
0.0
 10
274.8266806958
 20
39.2284744507
 10
274.9142864779
 20
39.1757025825
 10
275.3105155079
 20
38.8625272515
 10
275.5760938961
 20
38.5063048531
 10
275.697704433
 20
38.1248978658
 10
275.6692490586
 20
37.7374316285
 10
275.4921546441
 20
37.3633353163
 10
275.175301443
 20
37.0213676805
 10
274.7345777978
 20
36.7286764061
 10
274.1920834324
 20
36.4999382559
 10
273.5750212796
 20
36.3466231158
  0
LWPOLYLINE
  5
1D3
330
1F
100
AcDbEntity
  8
0
  6
Continuous
 62
     7
370
    15
100
AcDbPolyline
 90
       23
 70
   128
 43
0.0
 10
273.212518939
 20
37.2413575625
 10
272.7201170335
 20
37.1979806229
 10
272.2264917047
 20
37.2364453659
 10
271.7716335411
 20
37.353635607
 10
271.3923924458
 20
37.5400572896
 10
271.1194922771
 20
37.7806076377
 10
270.9750417836
 20
38.0557986928
 10
270.9707434851
 20
38.3433361122
 10
271.1069456043
 20
38.6199253242
 10
271.3726138555
 20
38.8631587159
 10
271.746225377
 20
39.0533309643
 10
272.1975123852
 20
39.1750354449
 10
272.6899142907
 20
39.2184123845
 10
273.1835396195
 20
39.1799476414
 10
273.6383977831
 20
39.0627574004
 10
274.0176388784
 20
38.8763357177
 10
274.2905390471
 20
38.6357853696
 10
274.4349895406
 20
38.3605943145
 10
274.4392878391
 20
38.0730568951
 10
274.3030857199
 20
37.7964676831
 10
274.0374174687
 20
37.5532342915
 10
273.6638059472
 20
37.3630620431
 10
273.212518939
 20
37.2413575625
  0
SPLINE
  5
1D4
330
1F
100
AcDbEntity
  8
0
  6
Continuous
 62
     7
370
    15
100
AcDbSpline
210
0.0
220
0.0
230
1.0
 70
     8
 71
     3
 72
    11
 73
     7
 74
     0
 42
0.000000001
 43
0.00000001
 40
0.0
 40
0.0
 40
0.0
 40
0.0
 40
0.2164553779443438
 40
0.4403112895790514
 40
0.751900568803862
 40
0.9999999999999999
 40
0.9999999999999999
 40
0.9999999999999999
 40
0.9999999999999999
 10
274.3626334533431
 20
38.48351070568358
 30
0.0
 10
274.3356573548285
 20
38.37244910121665
 30
0.0
 10
274.2807828544231
 20
38.14652873485772
 30
0.0
 10
274.1789504377405
 20
37.81952760552861
 30
0.0
 10
274.0697169042517
 20
37.59479149266499
 30
0.0
 10
273.9998140022464
 20
37.53590822723095
 30
0.0
 10
273.9688273664549
 20
37.50980638813871
 30
0.0
  0
SPLINE
  5
1D5
330
1F
100
AcDbEntity
  8
0
  6
Continuous
 62
     7
370
    15
100
AcDbSpline
210
0.0
220
0.0
230
1.0
 70
     8
 71
     3
 72
    11
 73
     7
 74
     0
 42
0.000000001
 43
0.00000001
 40
0.0
 40
0.0
 40
0.0
 40
0.0
 40
0.2164553779443417
 40
0.4403112895790506
 40
0.7519005688038657
 40
1.0
 40
1.0
 40
1.0
 40
1.0
 10
273.0988217489847
 20
39.16724457304526
 30
0.0
 10
273.1853940752533
 20
39.0760462253712
 30
0.0
 10
273.3614986053564
 20
38.89053149040274
 30
0.0
 10
273.6883015786256
 20
38.63851242125973
 30
0.0
 10
274.0388563890464
 20
38.49420801815245
 30
0.0
 10
274.263190417047
 20
38.48679621707218
 30
0.0
 10
274.3626334533431
 20
38.48351070568358
 30
0.0
  0
SPLINE
  5
1D6
330
1F
100
AcDbEntity
  8
0
  6
Continuous
 62
     7
370
    15
100
AcDbSpline
210
0.0
220
0.0
230
1.0
 70
     8
 71
     3
 72
    11
 73
     7
 74
     0
 42
0.000000001
 43
0.00000001
 40
0.0
 40
0.0
 40
0.0
 40
0.0
 40
0.1843643438496182
 40
0.5174526391740237
 40
0.8663352079125982
 40
0.9999999999999999
 40
0.9999999999999999
 40
0.9999999999999999
 40
0.9999999999999999
 10
271.4412039577383
 20
38.87727412286207
 30
0.0
 10
271.5373932406865
 20
38.85599478615494
 30
0.0
 10
271.8073662586926
 20
38.79627039092179
 30
0.0
 10
272.3103500471514
 20
38.8046755417772
 30
0.0
 10
272.7786822208939
 20
38.98203559417116
 30
0.0
 10
273.0293791337119
 20
39.12707022799724
 30
0.0
 10
273.0988217489847
 20
39.16724457304526
 30
0.0
  0
SPLINE
  5
1D7
330
1F
100
AcDbEntity
  8
0
  6
Continuous
 62
     7
370
    15
100
AcDbSpline
210
0.0
220
0.0
230
1.0
 70
     8
 71
     3
 72
    11
 73
     7
 74
     0
 42
0.000000001
 43
0.00000001
 40
0.0
 40
0.0
 40
0.0
 40
0.0
 40
0.216455377944345
 40
0.4403112895790547
 40
0.7519005688038656
 40
0.9999999999999999
 40
0.9999999999999999
 40
0.9999999999999999
 40
0.9999999999999999
 10
271.0473978708501
 20
37.9035698053172
 30
0.0
 10
271.0743739693647
 20
37.92590757921794
 30
0.0
 10
271.1292484697701
 20
37.9713468476989
 30
0.0
 10
271.2310808864527
 20
38.14791672497052
 30
0.0
 10
271.3403144199415
 20
38.46335084674833
 30
0.0
 10
271.4102173219467
 20
38.75014409448968
 30
0.0
 10
271.4412039577383
 20
38.87727412286207
 30
0.0
  0
SPLINE
  5
1D8
330
1F
100
AcDbEntity
  8
0
  6
Continuous
 62
     7
370
    15
100
AcDbSpline
210
0.0
220
0.0
230
1.0
 70
     8
 71
     3
 72
     9
 73
     5
 74
     0
 42
0.000000001
 43
0.00000001
 40
0.0
 40
0.0
 40
0.0
 40
0.0
 40
0.348739769703404
 40
1.0
 40
1.0
 40
1.0
 40
1.0
 10
271.5247322641422
 20
37.48817451538721
 30
0.0
 10
271.4661093256666
 20
37.52414239357017
 30
0.0
 10
271.2980099473666
 20
37.62727911988491
 30
0.0
 10
271.146239758805
 20
37.79460022431354
 30
0.0
 10
271.0473978708501
 20
37.9035698053172
 30
0.0
  0
LINE
  5
1D9
330
1F
100
AcDbEntity
  8
0
  6
Continuous
 62
     7
370
    15
100
AcDbLine
 10
271.4412039577
 20
37.5437581131
 30
0.0
 11
271.4412039577
 21
38.8772741229
 31
0.0
  0
LINE
  5
1DA
330
1F
100
AcDbEntity
  8
0
  6
Continuous
 62
     7
370
    15
100
AcDbLine
 10
273.098821749
 20
37.2238546337
 30
0.0
 11
273.098821749
 21
39.167244573
 31
0.0
  0
LWPOLYLINE
  5
1DB
330
1F
100
AcDbEntity
  8
0
  6
Continuous
 62
     7
370
     0
100
AcDbPolyline
 90
        8
 70
   128
 43
0.0
 10
242.8474318265
 20
38.2986490656
 10
242.897634459
 20
37.3322871037
 10
243.0475634519
 20
36.4369562553
 10
243.2951912729
 20
35.6247643341
 10
243.6371691804
 20
34.9066948425
 10
244.0688725099
 20
34.2924584387
 10
244.5844632145
 20
33.7903616162
 10
245.0224796826
 20
33.4912785977
  0
LWPOLYLINE
  5
1DC
330
1F
100
AcDbEntity
  8
0
  6
Continuous
 62
     7
370
     0
100
AcDbPolyline
 90
       22
 70
   128
 43
0.0
 10
255.5216263753
 20
51.6783047076
 10
255.3671372435
 20
51.762388932
 10
254.7057293701
 20
52.0214449157
 10
253.9843636302
 20
52.1528863525
 10
253.2127952578
 20
52.1549357224
 10
252.4014583915
 20
52.0275653112
 10
251.5613249706
 20
51.7724975852
 10
250.7037563585
 20
51.3931818978
 10
249.8403496994
 20
50.8947478429
 10
248.9827810873
 20
50.2839358862
 10
248.1426476664
 20
49.5690062115
 10
247.3313108002
 20
48.7596270162
 10
246.5597424277
 20
47.8667437655
 10
245.8383766878
 20
46.9024311735
 10
245.1769688144
 20
45.8797299138
 10
244.5844632145
 20
44.8124702666
 10
244.0688725099
 20
43.7150850876
 10
243.6371691804
 20
42.602414629
 10
243.2951912729
 20
41.4895058498
 10
243.0475634519
 20
40.3914089322
 10
242.897634459
 20
39.3229737531
 10
242.8474318265
 20
38.2986490656
  0
LINE
  5
1DD
330
1F
100
AcDbEntity
  8
0
  6
Continuous
 62
     7
370
     0
100
AcDbLine
 10
271.9625535419
 20
20.5307348391
 30
0.0
 11
273.1292797308
 21
19.8571981469
 31
0.0
  0
LINE
  5
1DE
330
1F
100
AcDbEntity
  8
0
  6
Continuous
 62
     7
370
     0
100
AcDbLine
 10
279.5993067787
 20
24.939338643
 30
0.0
 11
280.7660329676
 21
24.2658019507
 31
0.0
  0
LWPOLYLINE
  5
1DF
330
1F
100
AcDbEntity
  8
0
  6
Continuous
 62
     7
370
     0
100
AcDbPolyline
 90
       34
 70
   128
 43
0.0
 10
238.0744610535
 20
37.1760879118
 10
238.1248018029
 20
38.4069642268
 10
238.2753540331
 20
39.6844703734
 10
238.5247120785
 20
40.996678621
 10
238.8705477503
 20
42.3313372345
 10
239.3096320738
 20
43.6759848663
 10
239.8378654372
 20
45.0180669036
 10
240.4503158677
 20
46.345052688
 10
241.1412650809
 20
47.6445525109
 10
241.9042618699
 20
48.9044332925
 10
242.7321823394
 20
50.1129318654
 10
243.6172964191
 20
51.2587648041
 10
244.5513400372
 20
52.3312337751
 10
245.5255922802
 20
53.3203254246
 10
246.5309568173
 20
54.2168048704
 10
247.5580468307
 20
55.0123019254
 10
248.5972726578
 20
55.6993892479
 10
249.638931327
 20
56.2716516889
 10
250.6732971519
 20
56.723746188
 10
251.6907125376
 20
57.0514516606
 10
252.6816781507
 20
57.2517084092
 10
253.6369416123
 20
57.3226466904
 10
254.5475838848
 20
57.2636041726
 10
255.4051025466
 20
57.0751321198
 10
256.2014911772
 20
56.7589902449
 10
256.9293141104
 20
56.3181302793
 10
257.5817758596
 20
55.7566684137
 10
258.1527845652
 20
55.0798468664
 10
258.6370088728
 20
54.2939849378
 10
259.0299277105
 20
53.4064200089
 10
259.327872501
 20
52.4254390343
 10
259.528061414
 20
51.3602011691
 10
259.6286253397
 20
50.2206522522
 10
259.6376112547
 20
49.3021972136
  0
LWPOLYLINE
  5
1E0
330
1F
100
AcDbEntity
  8
0
  6
Continuous
 62
     7
370
     0
100
AcDbPolyline
 90
       18
 70
   128
 43
0.0
 10
249.138464562
 20
31.1151711036
 10
248.5972726578
 20
30.8021662472
 10
247.5580468307
 20
30.2893889697
 10
246.5309568173
 20
29.8990331368
 10
245.5255922802
 20
29.6347433957
 10
244.5513400372
 20
29.4989873485
 10
243.6172964191
 20
29.4930325129
 10
242.7321823394
 20
29.6169344876
 10
241.9042618699
 20
29.8695364333
 10
241.1412650809
 20
30.2484798735
 10
240.4503158677
 20
30.7502267156
 10
239.8378654372
 20
31.3700922844
 10
239.3096320738
 20
32.1022890621
 10
238.8705477503
 20
32.9399807247
 10
238.5247120785
 20
33.8753459709
 10
238.2753540331
 20
34.8996515474
 10
238.1248018029
 20
36.0033337889
 10
238.0744610535
 20
37.1760879118
  0
LWPOLYLINE
  5
1E1
330
1F
100
AcDbEntity
  8
0
  6
Continuous
 62
     7
370
     0
100
AcDbPolyline
 90
       24
 70
   128
 43
0.0
 10
237.3673542723
 20
37.1760879118
 10
237.4177831618
 20
38.4276698258
 10
237.5686131385
 20
39.7261411766
 10
237.8184782627
 20
41.0597428066
 10
238.1651157173
 20
42.416397413
 10
238.6053862996
 20
43.7838189216
 10
239.1353028512
 20
45.1496237514
 10
239.7500663658
 20
46.5014429624
 10
240.4441094496
 20
47.8270342705
 10
241.2111467411
 20
49.1143929155
 10
242.0442318318
 20
50.3518603782
 10
242.9358201741
 20
51.5282299617
 10
243.877837406
 20
52.6328482807
 10
244.8617524733
 20
53.6557117408
 10
245.8786548891
 20
54.587557132
 10
246.9193354275
 20
55.4199455182
 10
247.9743695244
 20
56.1453386614
 10
249.0342026276
 20
56.7571672887
 10
250.0892367245
 20
57.2498905855
 10
251.1299172629
 20
57.6190463733
 10
252.1468196786
 20
57.8612915201
 10
253.130734746
 20
57.9744322163
 10
254.0727519778
 20
57.9574438423
 10
254.616002684
 20
57.8844934432
  0
ARC
  5
1E2
330
1F
100
AcDbEntity
  8
0
  6
Continuous
 62
     7
370
     0
100
AcDbCircle
 10
246.6429189146
 20
36.715390872
 30
0.0
 40
9.286998503043481
100
AcDbArc
 50
177.1565803543
 51
216.3935919554
  0
LWPOLYLINE
  5
1E3
330
1F
100
AcDbEntity
  8
0
  6
Continuous
 62
     7
370
     0
100
AcDbPolyline
 90
       29
 70
   128
 43
0.0
 10
240.0190047017
 20
38.2986490656
 10
240.0690784666
 20
39.4124681481
 10
240.2187324054
 20
40.5714811536
 10
240.4662708792
 20
41.7625560017
 10
240.8088891782
 20
42.9721973384
 10
241.2427053002
 20
44.186699444
 10
241.7628039351
 20
45.3923015244
 10
242.3632921576
 20
46.5753436262
 10
243.0373661963
 20
47.7224214097
 10
243.7773885228
 20
48.8205380254
 10
244.5749743886
 20
49.857251373
 10
245.421086827
 20
50.8208150763
 10
246.3061390461
 20
51.7003115733
 10
247.2201030506
 20
52.4857758174
 10
248.1526232631
 20
53.1683081848
 10
249.0931338569
 20
53.740175311
 10
250.0309784713
 20
54.1948977131
 10
250.955530952
 20
54.5273232045
 10
251.85631575
 20
54.7336852715
 10
252.7231266136
 20
54.8116457495
 10
253.5461422293
 20
54.7603213151
 10
254.3160375013
 20
54.5802934946
 10
255.0240892086
 20
54.2736020753
 10
255.6622748425
 20
53.8437219933
 10
256.2233635046
 20
53.2955239619
 10
256.7009978362
 20
52.6352192838
 10
257.0897660496
 20
51.8702894748
 10
257.3852632455
 20
51.0094014953
 10
257.4988533731
 20
50.5368758578
  0
LWPOLYLINE
  5
1E4
330
1F
100
AcDbEntity
  8
0
  6
Continuous
 62
     7
370
     0
100
AcDbPolyline
 90
       14
 70
   128
 43
0.0
 10
246.9997066804
 20
32.3498497478
 10
246.3061390461
 20
32.1559573603
 10
245.421086827
 20
32.013594316
 10
244.5749743886
 20
32.0002573918
 10
243.7773885228
 20
32.1160977002
 10
243.0373661963
 20
32.3598027242
 10
242.3632921576
 20
32.7286111887
 10
241.7628039351
 20
33.2183443463
 10
241.2427053002
 20
33.8234533246
 10
240.8088891782
 20
34.5370819972
 10
240.4662708792
 20
35.351144666
 10
240.2187324054
 20
36.2564176757
 10
240.0690784666
 20
37.2426439214
 10
240.0190047017
 20
38.2986490656
  0
LWPOLYLINE
  5
1E5
330
1F
100
AcDbEntity
  8
0
  6
Continuous
 62
     7
370
     0
100
AcDbPolyline
 90
       18
 70
   128
 43
0.0
 10
235.2685077529
 20
44.0552569618
 10
235.618948957
 20
45.3435338605
 10
236.0665390205
 20
46.639203386
 10
236.6062938344
 20
47.9278376978
 10
237.2322029955
 20
49.1950872956
 10
237.9372967345
 20
50.4268408071
 10
238.7137235278
 20
51.6093821242
 10
239.5528375272
 20
52.7295431379
 10
240.4452948355
 20
53.7748503708
 10
241.3811575545
 20
54.733663875
 10
242.3500044482
 20
55.5953068474
 10
243.3410469873
 20
56.3501845208
 10
244.3432494847
 20
56.989891006
 10
245.3454519822
 20
57.5073028944
 10
246.3364945213
 20
57.896658581
 10
247.305341415
 20
58.1536224219
 10
248.241204134
 20
58.2753330134
 10
248.8877548729
 20
58.2784450448
  0
LWPOLYLINE
  5
1E6
330
1F
100
AcDbEntity
  8
0
  6
Continuous
 62
     7
370
     0
100
AcDbPolyline
 90
       21
 70
   128
 43
0.0
 10
229.6823798521
 20
45.7343341131
 10
230.0280452428
 20
47.0922207911
 10
230.4675956494
 20
48.4610658744
 10
230.997041788
 20
49.8284459608
 10
231.6115784968
 20
51.1819509443
 10
232.3056283466
 20
52.509296647
 10
233.0728922605
 20
53.798436308
 10
233.9064066834
 20
55.037669918
 10
234.7986067821
 20
56.2157504062
 10
235.7413951023
 20
57.3219857172
 10
236.7262150597
 20
58.34633585
 10
237.744128598
 20
59.2795039793
 10
238.7858973094
 20
60.1130208319
 10
239.8420662806
 20
60.8393215525
 10
240.9030499041
 20
61.4518143611
 10
241.9592188753
 20
61.9449403784
 10
243.0009875867
 20
62.3142240776
 10
244.018901125
 20
62.5563139036
 10
245.0037210824
 20
62.6690126909
 10
245.9465094026
 20
62.6512976046
 10
246.4322525099
 20
62.5880047553
  0
LWPOLYLINE
  5
1E7
330
1F
100
AcDbEntity
  8
0
  6
Continuous
 62
     7
370
     0
100
AcDbPolyline
 90
       17
 70
   128
 43
0.0
 10
235.6617805044
 20
43.9994764229
 10
236.0099078111
 20
45.264458112
 10
236.4528456626
 20
46.5360883941
 10
236.9856985406
 20
47.8003127254
 10
237.6025771515
 20
49.0431584159
 10
238.2966635174
 20
50.2508890601
 10
239.0602863306
 20
51.4101563577
 10
239.88500574
 20
52.5081476438
 10
240.7617066319
 20
53.5327274993
 10
241.680699373
 20
54.4725718761
 10
242.6318269045
 20
55.3172932554
 10
243.6045770017
 20
56.0575554538
 10
244.588198459
 20
56.6851768106
 10
245.5718199163
 20
57.193220615
 10
246.5445700135
 20
57.5760717728
 10
247.4956975451
 20
57.8294988667
 10
248.0226895999
 20
57.9147327965
  0
LINE
  5
1E8
330
1F
100
AcDbEntity
  8
0
  6
Continuous
 62
     7
370
     0
100
AcDbLine
 10
235.6711031553
 20
37.4209410354
 30
0.0
 11
236.0768843966
 21
37.6551935598
 31
0.0
  0
LINE
  5
1E9
330
1F
100
AcDbEntity
  8
0
  6
Continuous
 62
     7
370
     0
100
AcDbLine
 10
236.6316895621
 20
37.3979604453
 30
0.0
 11
236.0768843966
 21
37.6551935598
 31
0.0
  0
ARC
  5
1EA
330
1F
100
AcDbEntity
  8
0
  6
Continuous
 62
     7
370
     0
100
AcDbCircle
 10
235.3893863226
 20
38.7115141661
 30
0.0
 40
1.260343931250258
100
AcDbArc
 50
303.0577786045
 51
346.243819488
  0
LINE
  5
1EB
330
1F
100
AcDbEntity
  8
0
  6
Continuous
 62
     7
370
     0
100
AcDbLine
 10
232.1832922289
 20
41.209275613
 30
0.0
 11
236.570881736
 21
38.6763741049
 31
0.0
  0
LINE
  5
1EC
330
1F
100
AcDbEntity
  8
0
  6
Continuous
 62
     7
370
     0
100
AcDbLine
 10
232.0640534134
 20
41.1404181329
 30
0.0
 11
232.1832922289
 21
41.209275613
 31
0.0
  0
LINE
  5
1ED
330
1F
100
AcDbEntity
  8
0
  6
Continuous
 62
     7
370
     0
100
AcDbLine
 10
231.8077272052
 20
44.17168492
 30
0.0
 11
231.8129150999
 21
44.5043503843
 31
0.0
  0
ARC
  5
1EE
330
1F
100
AcDbEntity
  8
0
  6
Continuous
 62
     7
370
     0
100
AcDbCircle
 10
240.2575829479
 20
44.0835448487
 30
0.0
 40
8.450315422724263
100
AcDbArc
 50
179.4023719336
 51
192.8818183876
  0
LWPOLYLINE
  5
1EF
330
1F
100
AcDbEntity
  8
0
  6
Continuous
 62
     7
370
     0
100
AcDbPolyline
 90
       16
 70
   128
 43
0.0
 10
211.962211307
 20
59.4705643676
 10
212.0128057438
 20
60.2793938641
 10
212.1634588583
 20
61.1285705396
 10
212.4108053088
 20
61.9991251904
 10
212.7493197842
 20
62.8716110641
 10
213.1714404307
 20
63.7265382681
 10
213.6677377704
 20
64.5448091413
 10
214.227125341
 20
65.3081448646
 10
214.8371073484
 20
65.9994937794
 10
215.4840578027
 20
66.6034122932
 10
216.1535248996
 20
67.1064098644
 10
216.8305538505
 20
67.4972503585
 10
217.5000209474
 20
67.7672030446
 10
218.1469714016
 20
67.9102376259
 10
218.756953409
 20
67.9231589462
 10
219.1650500859
 20
67.8517549412
  0
ARC
  5
1F0
330
1F
100
AcDbEntity
  8
0
  6
Continuous
 62
     7
370
     0
100
AcDbCircle
 10
215.441729382
 20
59.2198999471
 30
0.0
 40
3.48853532098164
100
AcDbArc
 50
175.879531301
 51
224.1400747385
  0
LWPOLYLINE
  5
1F1
330
1F
100
AcDbEntity
  8
0
  6
Continuous
 62
     7
370
     0
100
AcDbPolyline
 90
        3
 70
   128
 43
0.0
 10
236.1328765567
 20
36.3243073842
 10
236.0099078111
 20
36.5632804308
 10
235.6617805044
 20
37.4263228872
  0
LWPOLYLINE
  5
1F2
330
1F
100
AcDbEntity
  8
0
  6
Continuous
 62
     7
370
     0
100
AcDbPolyline
 90
        3
 70
   128
 43
0.0
 10
236.0470728968
 20
35.8482142521
 10
235.618948957
 20
36.5984373293
 10
235.2685077529
 20
37.4821034261
  0
LINE
  5
1F3
330
1F
100
AcDbEntity
  8
0
  6
Continuous
 62
     7
370
     0
100
AcDbLine
 10
236.0768843966
 20
37.6551935598
 30
0.0
 11
231.851921379
 21
40.0942127938
 31
0.0
  0
ARC
  5
1F4
330
1F
100
AcDbEntity
  8
0
  6
Continuous
 62
     7
370
     0
100
AcDbCircle
 10
236.5706860149
 20
40.4155895246
 30
0.0
 40
7.143747898774997
100
AcDbArc
 50
195.3682058743
 51
219.2094875773
  0
OLE2FRAME
  5
1F5
330
1F
100
AcDbEntity
  8
0
100
AcDbOle2Frame
 70
     2
  3
Paintbrush-Bild
 10
13.8511154363
 20
38.264191557
 30
0.0
 11
51.6290888628
 21
31.9806341108
 31
0.0
 71
     2
 72
     0
 73
     1
 90
    12928
310
80552BED0767C5B32B40DDAF6807D121434000000000000000006FFBDDFB85D0
310
4940DDAF6807D121434000000000000000006FFBDDFB85D04940416F4BD60AFB
310
3F4000000000000000002BED0767C5B32B40416F4BD60AFB3F40000000000000
310
0000000000000100000000010000010000000100000000000100000000320000
310
D0CF11E0A1B11AE1000000000000000000000000000000003E000300FEFF0900
310
0600000000000000000000000100000001000000000000000010000002000000
310
01000000FEFFFFFF0000000000000000FFFFFFFFFFFFFFFFFFFFFFFFFFFFFFFF
310
FFFFFFFFFFFFFFFFFFFFFFFFFFFFFFFFFFFFFFFFFFFFFFFFFFFFFFFFFFFFFFFF
310
FFFFFFFFFFFFFFFFFFFFFFFFFFFFFFFFFFFFFFFFFFFFFFFFFFFFFFFFFFFFFFFF
310
FFFFFFFFFFFFFFFFFFFFFFFFFFFFFFFFFFFFFFFFFFFFFFFFFFFFFFFFFFFFFFFF
310
FFFFFFFFFFFFFFFFFFFFFFFFFFFFFFFFFFFFFFFFFFFFFFFFFFFFFFFFFFFFFFFF
310
FFFFFFFFFFFFFFFFFFFFFFFFFFFFFFFFFFFFFFFFFFFFFFFFFFFFFFFFFFFFFFFF
310
FFFFFFFFFFFFFFFFFFFFFFFFFFFFFFFFFFFFFFFFFFFFFFFFFFFFFFFFFFFFFFFF
310
FFFFFFFFFFFFFFFFFFFFFFFFFFFFFFFFFFFFFFFFFFFFFFFFFFFFFFFFFFFFFFFF
310
FFFFFFFFFFFFFFFFFFFFFFFFFFFFFFFFFFFFFFFFFFFFFFFFFFFFFFFFFFFFFFFF
310
FFFFFFFFFFFFFFFFFFFFFFFFFFFFFFFFFFFFFFFFFFFFFFFFFFFFFFFFFFFFFFFF
310
FFFFFFFFFFFFFFFFFFFFFFFFFFFFFFFFFFFFFFFFFFFFFFFFFFFFFFFFFFFFFFFF
310
FFFFFFFFFFFFFFFFFFFFFFFFFFFFFFFFFFFFFFFFFFFFFFFFFFFFFFFFFFFFFFFF
310
FFFFFFFFFFFFFFFFFFFFFFFFFFFFFFFFFFFFFFFFFFFFFFFFFFFFFFFFFFFFFFFF
310
FFFFFFFFFFFFFFFFFFFFFFFFFFFFFFFFFFFFFFFFFFFFFFFFFFFFFFFFFFFFFFFF
310
FDFFFFFFFEFFFFFFFEFFFFFFFEFFFFFF05000000060000000700000008000000
310
090000000A0000000B0000000C0000000D0000000E0000000F00000010000000
310
11000000120000001300000014000000150000001600000017000000FEFFFFFF
310
FFFFFFFFFFFFFFFFFFFFFFFFFFFFFFFFFFFFFFFFFFFFFFFFFFFFFFFFFFFFFFFF
310
FFFFFFFFFFFFFFFFFFFFFFFFFFFFFFFFFFFFFFFFFFFFFFFFFFFFFFFFFFFFFFFF
310
FFFFFFFFFFFFFFFFFFFFFFFFFFFFFFFFFFFFFFFFFFFFFFFFFFFFFFFFFFFFFFFF
310
FFFFFFFFFFFFFFFFFFFFFFFFFFFFFFFFFFFFFFFFFFFFFFFFFFFFFFFFFFFFFFFF
310
FFFFFFFFFFFFFFFFFFFFFFFFFFFFFFFFFFFFFFFFFFFFFFFFFFFFFFFFFFFFFFFF
310
FFFFFFFFFFFFFFFFFFFFFFFFFFFFFFFFFFFFFFFFFFFFFFFFFFFFFFFFFFFFFFFF
310
FFFFFFFFFFFFFFFFFFFFFFFFFFFFFFFFFFFFFFFFFFFFFFFFFFFFFFFFFFFFFFFF
310
FFFFFFFFFFFFFFFFFFFFFFFFFFFFFFFFFFFFFFFFFFFFFFFFFFFFFFFFFFFFFFFF
310
FFFFFFFFFFFFFFFFFFFFFFFFFFFFFFFFFFFFFFFFFFFFFFFFFFFFFFFFFFFFFFFF
310
FFFFFFFFFFFFFFFFFFFFFFFFFFFFFFFFFFFFFFFFFFFFFFFFFFFFFFFFFFFFFFFF
310
FFFFFFFFFFFFFFFFFFFFFFFFFFFFFFFFFFFFFFFFFFFFFFFFFFFFFFFFFFFFFFFF
310
FFFFFFFFFFFFFFFFFFFFFFFFFFFFFFFFFFFFFFFFFFFFFFFFFFFFFFFFFFFFFFFF
310
FFFFFFFFFFFFFFFFFFFFFFFFFFFFFFFFFFFFFFFFFFFFFFFFFFFFFFFFFFFFFFFF
310
52006F006F007400200045006E00740072007900000000000000000000000000
310
0000000000000000000000000000000000000000000000000000000000000000
310
16000500FFFFFFFFFFFFFFFF020000000A00030000000000C000000000000046
310
000000000000000000000000807896B49B15D20103000000C000000000000000
310
01004F006C006500000000000000000000000000000000000000000000000000
310
0000000000000000000000000000000000000000000000000000000000000000
310
0A000200FFFFFFFFFFFFFFFFFFFFFFFF00000000000000000000000000000000
310
0000000000000000000000000000000000000000000000001400000000000000
310
010043006F006D0070004F0062006A0000000000000000000000000000000000
310
0000000000000000000000000000000000000000000000000000000000000000
310
120002010100000003000000FFFFFFFF00000000000000000000000000000000
310
0000000000000000000000000000000000000000010000004D00000000000000
310
01004F006C006500310030004E00610074006900760065000000000000000000
310
0000000000000000000000000000000000000000000000000000000000000000
310
1A000200FFFFFFFFFFFFFFFFFFFFFFFF00000000000000000000000000000000
310
0000000000000000000000000000000000000000040000002426000000000000
310
FEFFFFFF02000000FEFFFFFFFFFFFFFFFFFFFFFFFFFFFFFFFFFFFFFFFFFFFFFF
310
FFFFFFFFFFFFFFFFFFFFFFFFFFFFFFFFFFFFFFFFFFFFFFFFFFFFFFFFFFFFFFFF
310
FFFFFFFFFFFFFFFFFFFFFFFFFFFFFFFFFFFFFFFFFFFFFFFFFFFFFFFFFFFFFFFF
310
FFFFFFFFFFFFFFFFFFFFFFFFFFFFFFFFFFFFFFFFFFFFFFFFFFFFFFFFFFFFFFFF
310
FFFFFFFFFFFFFFFFFFFFFFFFFFFFFFFFFFFFFFFFFFFFFFFFFFFFFFFFFFFFFFFF
310
FFFFFFFFFFFFFFFFFFFFFFFFFFFFFFFFFFFFFFFFFFFFFFFFFFFFFFFFFFFFFFFF
310
FFFFFFFFFFFFFFFFFFFFFFFFFFFFFFFFFFFFFFFFFFFFFFFFFFFFFFFFFFFFFFFF
310
FFFFFFFFFFFFFFFFFFFFFFFFFFFFFFFFFFFFFFFFFFFFFFFFFFFFFFFFFFFFFFFF
310
FFFFFFFFFFFFFFFFFFFFFFFFFFFFFFFFFFFFFFFFFFFFFFFFFFFFFFFFFFFFFFFF
310
FFFFFFFFFFFFFFFFFFFFFFFFFFFFFFFFFFFFFFFFFFFFFFFFFFFFFFFFFFFFFFFF
310
FFFFFFFFFFFFFFFFFFFFFFFFFFFFFFFFFFFFFFFFFFFFFFFFFFFFFFFFFFFFFFFF
310
FFFFFFFFFFFFFFFFFFFFFFFFFFFFFFFFFFFFFFFFFFFFFFFFFFFFFFFFFFFFFFFF
310
FFFFFFFFFFFFFFFFFFFFFFFFFFFFFFFFFFFFFFFFFFFFFFFFFFFFFFFFFFFFFFFF
310
FFFFFFFFFFFFFFFFFFFFFFFFFFFFFFFFFFFFFFFFFFFFFFFFFFFFFFFFFFFFFFFF
310
FFFFFFFFFFFFFFFFFFFFFFFFFFFFFFFFFFFFFFFFFFFFFFFFFFFFFFFFFFFFFFFF
310
FFFFFFFFFFFFFFFFFFFFFFFFFFFFFFFFFFFFFFFFFFFFFFFFFFFFFFFFFFFFFFFF
310
0100000200000000000000000000000000000000000000000000000000000000
310
0000000000000000000000000000000000000000000000000000000000000000
310
0100FEFF030A0000FFFFFFFF0A00030000000000C00000000000004607000000
310
5042727573680007000000504272757368000700000050427275736800F439B2
310
7100000000000000000000000000000000000000000000000000000000000000
310
0000000000000000000000000000000000000000000000000000000000000000
310
0000000000000000000000000000000000000000000000000000000000000000
310
0000000000000000000000000000000000000000000000000000000000000000
310
0000000000000000000000000000000000000000000000000000000000000000
310
0000000000000000000000000000000000000000000000000000000000000000
310
0000000000000000000000000000000000000000000000000000000000000000
310
0000000000000000000000000000000000000000000000000000000000000000
310
0000000000000000000000000000000000000000000000000000000000000000
310
0000000000000000000000000000000000000000000000000000000000000000
310
0000000000000000000000000000000000000000000000000000000000000000
310
0000000000000000000000000000000000000000000000000000000000000000
310
20260000424D0E260000000000003E00000028000000B40200006E0000000100
310
01000000000000000000130B0000130B00000200000002000000000000FFFFFF
310
FFFFFFFFFFFFFFFFFFFFFFFFFFFFFFFFFFFFFFFFFFFFFFFFFFFFFFFFFFFFFFFF
310
FFFFFFFFFFFFFFFFFFFFFFFFFFFFFFFFFFFFFFFFFFFFFFFFFFFFFFFFFFFFFFFF
310
FFFFFFFFFFFFFFFFFFFFFFFFFFFFFFFFFFFFFFFFFFFFFFFFF000FFFFFFFFFFFF
310
FFFFFFFFFFFFFFFFFFFFFFFFFFFFFFFFFFFFFFFFFFFFFFFFFFFFFFFFFFFFFFFF
310
FFFFFFFFFFFFFFFFFFFFFFFFFFFFFFFFFFFFFFFFFFFFFFFFFFFFFFFFFFFFFFFF
310
FFFFFFFFFFFFFFFFFFFFFFFFFFFFFFFFF000FFFFFFFFFFFFFFFFFFFFFFFFFFFF
310
FFFFFFFFFFFFFFFFFFFFFFFFFFFFFFFFFFFFFFFFFFFFFFFFFFFFFFFFFFFFFFFF
310
FFFFFFFFFFFFFFFFFFFFFFFFFFFFFFFFFFFFFFFFFFFFFFFFFFFFFFFFFFFFFFFF
310
FFFFFFFFFFFFFFFFF000FFFFFFFFFFFFFFFFFFFFFFFFFFFFFFFFFFFFFFFFFFFF
310
FFFFFFFFFFFFFFFFFFFFFFFFFFFFFFFFFFFFFFFFFFFFFFFFFFFFFFFFFFFFFFFF
310
FFFFFFFFFFFFFFFFFFFFFFFFFFFFFFFFFFFFFFFFFFFFFFFFFFFFFFFFFFFFFFFF
310
F000FFFFFFFFFFFFFFFFFFFFFFFFFFFFFFFFFFFFFFFFFFFFFFFFFFFFFFFFFFFF
310
FFFFFFFFFFFFFFFFFFFFFFFFFFFFFFFFFFFFFFFFFFFFFFFFFFFFFFFFFFFFFFFF
310
FFFFFFFFFFFFFFFFFFFFFFFFFFFFFFFFFFFFFFFFFFFFFFFFF000FFFFFFFFFFFF
310
FFFFFFFFFFFFFFFFFFFFFFFFFFFFFFFFFFFFFFFFFFFFFFFFFFFFFFFFFFFFFFFF
310
FFFFFFFFFFFFFFFFFFFFFFFFFFFFFFFFFFFFFFFFFFFFFFFFFFFFFFFFFFFFFFFF
310
FFFFFFFFFFFFFFFFFFFFFFFFFFFFFFFFF000FFFFFFFFFFFFFFFFFFFFFFFFFFFF
310
FFFFFFFFFFFFFFFFFFFFFFFFFFFFFFFFFFFFFFFFFFFFFFFFFFFFFFFFFFFFFFFF
310
FFFFFFFFFFFFFFFFFFFFFFFFFFFFFFFFFFFFFFFFFFFFFFFFFFFFFFFFFFFFFFFF
310
FFFFFFFFFFFFFFFFF000FFFFFFFFFFFFFFFFFFFFFFFFFFFFFFFFFFFFFFFFFFFF
310
FFFFFFFFFFFFFFFFFFFFFFFFFFFFFFFFFFFFFFFFFFFFFFFFFFFFFFFFFFFFFFFF
310
FFFFFFFFFFFFFFFFFFFFFFFFFFFFFFFFFFFFFFFFFFFFFFFFFFFFFFFFFFFFFFFF
310
F000FFFFFFFFFFFFFFFFFFFFFFFFFFFFFFFFFFFFFFFFFFFFFFFFFFFFFFFFFFFF
310
FFFFFFFFFFFFFFFFFFFFFFFFFFFFFFFFFFFFFFFFFFFFFFFFFFFFFFFFFFFFFFFF
310
FFFFFFFFFFFFFFFFFFFFFFFFFFFFFFFFFFFFFFFFFFFFFFFFF000FFFFFFFFFFFF
310
FFFFFFFFFFFFFFFFFFFFFFFFFFFFFFFFFFFFFFFFFFFFFFFFFFFFFFFFFFFFFFFF
310
FFFFFFFFFFFFFFFFFFFFFFFFFFFFFFFFFFFFFFFFFFFFFFFFFFFFFFFFFFFFFFFF
310
FFFFFFFFFFFFFFFFFFFFFFFFFFFFFFFFF000FFFFFFFFFFFFFFFFFFFFFFFFFFFF
310
FFFFFFFFFFFFFFFFFFFFFFFFFFFFFFFFFFFFFFFFFFFFFFFFFFFFFFFFFFFFFFFF
310
FFFFFFFFFFFFFFFFFFFFFFFFFFFFFFFFFFFFFFFFFFFFFFFFFFFFFFFFFFFFFFFF
310
FFFFFFFFFFFFFFFFF000FFFFFFFFFFFFFFFFFFFFFFFFFFFFFFFFFFFFFFFFFFFF
310
FFFFFFFFFFFFFFFFFFFFFFFFFFFFFFFFFFFFFFFFFFFFFFFFFFFFFFFFFFFFFFFF
310
FFFFFFFFFFFFFFFFFFFFFFFFFFFFFFFFFFFFFFFFFFFFFFFFFFFFFFFFFFFFFFFF
310
F000FFFFFFFFFFFFFFFFFFFFFFFFFFFFFFFFFFFFFFFFFFFFFFFFFFFFFFFFFFFF
310
FFFFFFFFFFFFFFFFFFFFFFFFFFFFFFFFFFFFFFFFFFFFFFFFFFFFFFFFFFFFFFFF
310
FFFFFFFFFFFFFFFFFFFFFFFFFFFFFFFFFFFFFFFFFFFFFFFFF000FFFFFFFFFFFF
310
FFFFFFFFFFFFFFFFFFFFFFFFFFFFFFFFFFFFFFFFFFFFFFFFFFFFFFFFFFFFFFFF
310
FFFFFFFFFFFFFFFFFFFFFFFFFFFFFFFFFFFFFFFFFFFFFFFFFFFFFFFFFFFFFFFF
310
FFFFFFFFFFFFFFFFFFFFFFFFFFFFFFFFF000FFFFFFFFFFFFFFFFFFFFFFFFFFFF
310
FFFFFFFFFFFFFFFFFFFFFFFFFFFFFFFFFFFFFFFFFFFFFFFFFFFFFFFFFFFFFFFF
310
FFFFFFFFFFFFFFFFFFFFFFFFFFFFFFFFFFFFFFFFFFFFFFFFFFFFFFFFFFFFFFFF
310
FFFFFFFFFFFFFFFFF000FFFFFFFFFFFFFFFFFFFFFFFFFFFFFFFFFFFFFFFFFFFF
310
FFFFFFFFFFFFFFFFFFFFFFFFFFFFFFFFFFFFFFFFFFFFFFFFFFFFFFFFFFFFFFFF
310
FFFFFFFFFFFFFFFFFFFFFFFFFFFFFFFFFFFFFFFFFFFFFFFFFFFFFFFFFFFFFFFF
310
F000FFFFFFFFFFFFFFFFFFFFFFFFFFFFFFFFFFFFFFFFFFFFFFFFFFFFFFFFFFFF
310
FFFFFFFFFFFFFFFFFFFFFFFFFFFFFFFFFFFFFFFFFFFFFFFFFFFFFFFFFFFFFFFF
310
FFFFFFFFFFFFFFFFFFFFFFFFFFFFFFFFFFFFFFFFFFFFFFFFF000FFFFFFFFFFFF
310
FFFFFFFFFFFFFFFFFFFFFFFFFFFFFFFFFFFFFFFFFFFFFFFFFFFFFFFFFFFFFFFF
310
FFFFFFFFFFFFFFFFFFFFFFFFFFFFFFFFFFFFFFFFFFFFFFFFFFFFFFFFFFFFFFFF
310
FFFFFFFFFFFFFFFFFFFFFFFFFFFFFFFFF000FFFFFFFFFFFFFFFFFFFFFFFFFFFF
310
FFFFFFFFFFFFFFFFFFFFFFFFFFFFFFFFFFFFFFFFFFFFFFFFFFFFFFFFFFFFFFFF
310
FFFFFFFFFFFFFFFFFFFFFFFFFFFFFFFFFFFFFFFFFFFFFFFFFFFFFFFFFFFFFFFF
310
FFFFFFFFFFFFFFFFF000FFFFF80003FFFFFFFFFFFFFFFFFFFFFFFFFFFFFFFFFF
310
FFFFF00007FFFFFFFFFF00007FFFFFF800000000000000007FFFFFFFFFFFFFFF
310
FFFFFFFC001FFFFFFFFFFFFFFC001FFFFFFFFFFFFFFFFFFFFFFFFFFE0007FFFF
310
F000FFFF8000007FFFFFFFF8000FFFFFC0007FFFFF80007FFFFF0000007FFFFF
310
FFF8000007FFFFF800000000000000007FFFFFF0001FFFFFFFFFFFC00001FFFF
310
FFFFFFFFC00001FFFFFFFF000000000003FFFFE000007FFFF000FFFE0000000F
310
FFFFFFF0000FFFFF80007FFFFF80007FFFFC0000001FFFFFFFC0000001FFFFF8
310
00000000000000007FFFFFF0001FFFFFFFFFFE0000003FFFFFFFFFFE0000003F
310
FFFFFF000000000003FFFF0000000FFFF000FFF800000003FFFFFFF00007FFFF
310
80007FFFFF80007FFFF000000007FFFFFF000000003FFFF80000000000000000
310
7FFFFFF0001FFFFFFFFFF80000000FFFFFFFFFF80000000FFFFFFF0000000000
310
03FFFC00000003FFF000FFE000000000FFFFFFF00007FFFF80003FFFFF80007F
310
FFC000000001FFFFFC000000001FFFF800000000000000007FFFFFF0001FFFFF
310
FFFFE000000003FFFFFFFFE000000003FFFFFF000000000003FFF000000000FF
310
F000FF80000000007FFFFFF00007FFFF80003FFFFF80007FFF8000000000FFFF
310
F80000000007FFF800000000000000007FFFFFF0001FFFFFFFFFC000000001FF
310
FFFFFFC000000001FFFFFF000000000003FFC0000000007FF000FF0000000000
310
3FFFFFE00007FFFF00003FFFFF80007FFE00000000003FFFF00000000003FFF8
310
00000000000000007FFFFFF0001FFFFFFFFF8000000000FFFFFFFF8000000000
310
FFFFFF000000000003FF80000000003FF000FE00000000001FFFFFE00003FFFF
310
00003FFFFF80007FFC00000000001FFFE00000000001FFF8000001FFFE000000
310
7FFFFFF0001FFFFFFFFE00000000003FFFFFFE00000000003FFFFF0000000000
310
03FF00000000001FF000FC00000000000FFFFFE00003FFFF00001FFFFF80007F
310
F800000000001FFFC00000000000FFF8000001FFFE0000007FFFFFF0001FFFFF
310
FFFC00000000001FFFFFFC00000000001FFFFF000000000003FE00000000000F
310
F000F8000000000007FFFFE00003FFFF00001FFFFF80007FF800000000000FFF
310
800000000000FFF8000001FFFE0000007FFFFFF0001FFFFFFFF800000000000F
310
FFFFF800000000000FFFFF000000000003FC000000000007F000F80000000000
310
03FFFFC00003FFFE00001FFFFF80007FF0000000000007FF0000000000007FF8
310
000001FFFE0000007FFFFFF0001FFFFFFFF0000000000007FFFFF00000000000
310
07FFFF000000000003F8000000000003F000F0000000000003FFFFC00001FFFE
310
00001FFFFF80007FE0000000000007FE0000000000003FF8000001FFFE000000
310
7FFFFFF0001FFFFFFFF0000000000007FFFFF0000000000007FFFF0000000000
310
03F800001F800003F000E00001FFF00001FFFFC00001FFFE00000FFFFF80007F
310
E00001FFE00003FE00001FFF00003FF8000001FFFE0000007FFFFFF0001FFFFF
310
FFE000003E000003FFFFE000003E000003FFFF000000000003F00001FFF80001
310
F000E00007FFFC0001FFFFC00001FFFE00000FFFFF80007FC0000FFFFC0003FC
310
0000FFFFC0001FF8000001FFFE0000007FFFFFF0001FFFFFFFC00003FFE00001
310
FFFFC00003FFE00001FFFF0001FFFFFFFFF00007FFFE0001F000E0000FFFFF00
310
00FFFF800001FFFC00000FFFFF80007FC0001FFFFE0001FC0001FFFFE0001FF8
310
000001FFFE0000007FFFFFF0001FFFFFFF80000FFFF80000FFFF80000FFFF800
310
00FFFF0003FFFFFFFFE0000FFFFF8000F000C0003FFFFF8000FFFF800000FFFC
310
000007FFFF80007F80003FFFFF0001FC0003FFFFF0001FF8000001FFFE000000
310
7FFFFFF0001FFFFFFF80003FFFFE0000FFFF80003FFFFE0000FFFF0003FFFFFF
310
FFE0003FFFFF8000F000C0003FFFFF8000FFFF800000FFFC000007FFFF80007F
310
80007FFFFF8001F80007FFFFF8000FF8000001FFFE0000007FFFFFF0001FFFFF
310
FF00007FFFFF00007FFF00007FFFFF00007FFF0003FFFFFFFFE0003FFFFFC000
310
F000C0007FFFFFC000FFFF000000FFFC000007FFFF80007F8000FFFFFF8000F8
310
000FFFFFF8000FF8000001FFFE0000007FFFFFF0001FFFFFFF0000FFFFFF8000
310
7FFF0000FFFFFF80007FFF0003FFFFFFFFC0007FFFFFC00070008000FFFFFFC0
310
00FFFF000000FFF8000007FFFF80007F8000FFFFFF8000F8000FFFFFF8000FF8
310
000001FFFE0000007FFFFFF0001FFFFFFE0001FFFFFFC0003FFE0001FFFFFFC0
310
003FFF0003FFFFFFFFC0007FFFFFE00070008000FFFFFFC0007FFF0000007FF8
310
000003FFFF80007F0001FFFFFF8000F8000FFFFFF8000FF8000001FFFE000000
310
7FFFFFF0001FFFFFFE0001FFFFFFC0003FFE0001FFFFFFC0003FFF0003FFFFFF
310
FFC000FFFFFFE00070008000FFFFFFC0007FFF0000007FF8000003FFFF80007F
310
0001FFFFFF8000F8001FFFFFF8000FF8000001FFFE0000007FFFFFF0001FFFFF
310
FE0003FFFFFFE0003FFE0003FFFFFFE0003FFF0003FFFFFFFFC000FFFFFFE000
310
70008000FFFFFFC0007FFE0000007FF8000003FFFF80007F0001FFFFFF8000F0
310
001FFFFFF8000FF8000001FFFE0000007FFFFFF0001FFFFFFC0003FFFFFFE000
310
1FFC0003FFFFFFE0001FFF0003FFFFFFFFC000FFFFFFC00070008000FFFFFF80
310
007FFE0000007FF0000003FFFF80007F0001FFFFFF0000F0001FFFFFF8000FF8
310
000001FFFE0000007FFFFFF0001FFFFFFC0007FFFFFFF0001FFC0007FFFFFFF0
310
001FFF0003FFFFFFFFC000FFFFFFC00070008001FFFFFF0000FFFE0000003FF0
310
000001FFFF80007F0001FFFFFF0000F8001FFFFFF0000FF8000001FFFE000000
310
7FFFFFF0001FFFFFFC0007FFFFFFF0001FFC0007FFFFFFF0001FFF0003FFFFFF
310
FFC001FFFFFF80007000FFFFFFFFFE0000FFFE0008003FF0008001FFFF80007F
310
FFFFFFFFFC0000FFFFFFFFFFE0000FF8000001FFFE0000007FFFFFF0001FFFFF
310
F8000FFFFFFFF8000FF8000FFFFFFFF8000FFF0003FFFFFFFFFFFFFFFFFF0000
310
7000FFFFFFFFFC0000FFFC0008003FF0008001FFFF80007FFFFFFFFFF80001FF
310
FFFFFFFF80000FF8000001FFFE0000007FFFFFF0001FFFFFF8000FFFFFFFF800
310
0FF8000FFFFFFFF8000FFF0003FFFFFFFFFFFFFFFFFE0000F000FFFFFFFFE000
310
00FFFC000C003FE000C001FFFF80007FFFFFFFFFC00001FFFFFFFFFE00001FF8
310
000001FFFE0000007FFFFFF0001FFFFFF8000FFFFFFFF8000FF8000FFFFFFFF8
310
000FFF0003FFFFFFFFFFFFFFFFF00000F000FFFFFFFE000001FFFC000C001FE0
310
00C000FFFF80007FFFFFFFFE000001FFFFFFFFE000001FF80FFFFFFFFFFFFFC0
310
7FFFFFF0001FFFFFF8000FFFFFFFF8000FF8000FFFFFFFF8000FFF0003FFFFFF
310
FFFFFFFFFF800000F000FFFFFFC0000001FFFC001C001FE001C000FFFF80007F
310
FFFFFF80000003FFFFFFF80000001FF80FFFFFFFFFFFFFC07FFFFFF0001FFFFF
310
F8001FFFFFFFFC000FF8001FFFFFFFFC000FFF0003FFFFFFFFFFFFFFF0000001
310
F000FFFFF800000001FFF8001C001FE001C000FFFF80007FFFFFF800000003FF
310
FFFF800000003FF80FFFFFFFFFFFFFC07FFFFFF0001FFFFFF8001FFFFFFFFC00
310
0FF8001FFFFFFFFC000FFF0003FFFFFFFFFFFFFE00000001F000FFFFC0000000
310
03FFF8001E001FC001E000FFFF80007FFFFF8000000007FFFFFC000000003FF8
310
0FFFFFFFFFFFFFC07FFFFFF0001FFFFFF8001FFFFFFFFC000FF8001FFFFFFFFC
310
000FFF0003FFFFFFFFFFFFE000000003F000FFFE0000000007FFF8001E000FC0
310
01E0007FFF80007FFFFE0000000007FFFFE0000000007FF80FFFFFFFFFFFFFC0
310
7FFFFFF0001FFFFFF0001FFFFFFFFC0007F0001FFFFFFFFC0007FF0003FFFFFF
310
FFFFFF0000000003F000FFF80000000007FFF8001E000FC003E0007FFF80007F
310
FFF0000000000FFFFF8000000000FFF80FFFFFFFFFFFFFC07FFFFFF0001FFFFF
310
F0001FFFFFFFFC0007F0001FFFFFFFFC0007FF0003FFFFFFFFFFFC0000000007
310
F000FFE0000000000FFFF0003E000FC003E0007FFF80007FFFC0000000001FFF
310
FE0000000001FFF80FFFFFFFFFFFFFC07FFFFFF0001FFFFFF0001FFFFFFFFC00
310
07F0001FFFFFFFFC0007FF0003FFFFFFFFFFF0000000000FF000FFC000000000
310
1FFFF0003F000F8003F0003FFF80007FFF80000000003FFFF80000000003FFF8
310
0FFFFFFFFFFFFFC07FFFFFF0001FFFFFF0001FFFFFFFFC0007F0001FFFFFFFFC
310
0007FF0003FFFFFFFFFFE0000000001FF000FF00000000007FFFF0003F000780
310
03F0003FFF80007FFF00000000007FFFF00000000007FFF80FFFFFFFFFFFFFC0
310
7FFFFFF0001FFFFFF0001FFFFFFFFC0007F0001FFFFFFFFC0007FF0003FFFFFF
310
FFFF80000000007FF000FE0000000000FFFFE0003F00078007F0003FFF80007F
310
FE0000000001FFFFE0000000001FFFF80FFFFFFFFFFFFFC07FFFFFF0001FFFFF
310
F0001FFFFFFFFC0007F0001FFFFFFFFC0007FF0003FFFFFFFFFF0000000000FF
310
F000FC0000000003FFFFE0007F00078007F0003FFF80007FFC0000000007FFFF
310
C0000000007FFFF80FFFFFFFFFFFFFC07FFFFFF0001FFFFFF8001FFFFFFFFC00
310
0FF8001FFFFFFFFC000FFF0003FFFFFFFFFE0000000003FFF000FC000000000F
310
FFFFE0007F80070007F8001FFF80007FF8000000001FFFFF8000000001FFFFF8
310
0FFFFFFFFFFFFFC07FFFFFF0001FFFFFF8001FFFFFFFFC000FF8001FFFFFFFFC
310
000FFF0003FFFFFFFFFC000000000FFFF000F8000000007FFFFFE0007F800700
310
07F8001FFF80007FF000000000FFFFFF800000000FFFFFF80FFFFFFFFFFFFFC0
310
7FFFFFF0001FFFFFF8000FFFFFFFF8000FF8000FFFFFFFF8000FFF0003FFFFFF
310
FFFC000000007FFFF000F800000007FFFFFFC0007F8003000FF8001FFF80007F
310
F000000007FFFFFF000000007FFFFFF80FFFFFFFFFFFFFC07FFFFFF0001FFFFF
310
F8000FFFFFFFF8000FF8000FFFFFFFF8000FFF0003FFFFFFFFF80000000FFFFF
310
F000F0000000FFFFFFFFC000FF8003000FF8001FFF80007FE0000000FFFFFFFF
310
0000000FFFFFFFF8000001FFFE0000007FFFFFF0001FFFFFF8000FFFFFFFF800
310
0FF8000FFFFFFFF8000FFF0003FFFFFFFFF8000000FFFFFFF000F000000FFFFF
310
FFFFC000FFC002000FF8000FFF80007FE000001FFFFFFFFE000001FFFFFFFFF8
310
000001FFFE0000007FFFFFF0001FFFFFF8000FFFFFFFF8000FF8000FFFFFFFF8
310
000FFF0003FFFFFFFFF000001FFFFFFFF000E00000FFFFFFFFFFC000FFC00200
310
0FFC000FFF80007FE00001FFFFFFFFFE00001FFFFFFFFFF8000001FFFE000000
310
7FFFFFF0001FFFFFFC000FFFFFFFF8001FFC000FFFFFFFF8001FFF0003FFFFFF
310
FFF00001FFFFFFFFF000E00007FFFFFFFFFF8000FFC000001FFC000FFF80007F
310
C0000FFFFFFFFFFE0000FFFFFFFFFFF8000001FFFE0000007FFFFFF0001FFFFF
310
FC0007FFFFFFF0001FFC0007FFFFFFF0001FFF0003FFFFFFFFF00007FFFFFFFF
310
F000E0001FFFFFFFFFFF8000FFC000001FFC000FFF80007FC0003FFFFFFFFFFE
310
0001FFFFFFFFFFF8000001FFFE0000007FFFFFF0001FFFFFFC0007FFFFFFF000
310
1FFC0007FFFFFFF0001FFF0003FFFFFFFFF0001FFFFFFFFFF000E0003FFFFF00
310
03FF8001FFE000001FFC0007FF80007FC0007FFFFF0007FC0003FFFFF0003FF8
310
000001FFFE0000007FFFFFF0001FFFFFFC0003FFFFFFE0001FFC0003FFFFFFE0
310
001FFF0003FFFFFFFFF0003FFFFFFFFFF000E0003FFFFF0001FF8001FFE00000
310
1FFE0007FF80007FC0007FFFFE0003FC0007FFFFE0003FF8000001FFFE000000
310
7FFFFFF0001FFFFFFE0003FFFFFFE0003FFE0003FFFFFFE0003FFF0003FFFFFF
310
FFF0003FFFFF8001F000E0003FFFFF0001FF0001FFE000001FFE0007FF80007F
310
C0007FFFFE0003FC0007FFFFE0003FF8000001FFFE0000007FFFFFF0001FFFFF
310
FE0001FFFFFFC0003FFE0001FFFFFFC0003FFF0003FFFFFFFFF0003FFFFF0001
310
F000E0003FFFFF0003FF0001FFE000003FFE0007FF80007FC0007FFFFE0003FC
310
0007FFFFE0003FF8000001FFFE0000007FFFFFF0001FFFFFFF0001FFFFFFC000
310
7FFF0001FFFFFFC0007FFF0003FFFFFFFFF0003FFFFF0001F000E0003FFFFE00
310
03FF0003FFF000003FFE0003FF80007FC0007FFFFC0003FE0007FFFFE0003FF8
310
000001FFFE0000007FFFFFF0001FFFFFFF0000FFFFFF80007FFF0000FFFFFF80
310
007FFF0003FFFFFFFFF0003FFFFF0001F000E0003FFFFE0003FF0003FFF00000
310
3FFF0003FF80007FC0007FFFFC0007FE0007FFFFC0003FF8000001FFFE000000
310
7FFFFFF0001FFFFFFF80007FFFFF0000FFFF80007FFFFF0000FFFF0003FFFFFF
310
FFF0003FFFFF0003F000E0003FFFFC0003FE0003FFF000003FFF0003FF80007F
310
E0003FFFF80007FE0003FFFFC0007FF8000001FFFE0000007FFFFFF0001FFFFF
310
FF80003FFFFE0000FFFF80003FFFFE0000FFFF0003FFFFFFFFF0001FFFFE0003
310
F000F0001FFFF80003FE0003FFF000007FFF0001FF80007FE0003FFFF00007FE
310
0001FFFF80007FF8000001FFFE0000007FFFFFF0001FFFFFFFC0000FFFF80001
310
FFFFC0000FFFF80001FFFF0003FFFFFFFFF0001FFFFC0003F000F0000FFFF000
310
07FE0007FFF800007FFF0001FF80007FE0001FFFE00007FF0000FFFE00007FF8
310
000001FFFE0000007FFFFFF0001FFFFFFFC00003FFE00001FFFFC00003FFE000
310
01FFFF0003FFFFFFFFF8000FFFF80003F000F00003FFC00007FC0007FFF80000
310
7FFF8001FF80007FF00007FF80000FFF00007FF80000FFF8000001FFFE000000
310
7F80000000000001FFE000003E000003FFFFE000003E000003FFFF0003FFFFFF
310
FFF80003FFE00007F000F800000000000FFC0007FFF800007FFF8001FF80007F
310
F000000000000FFF000000000000FFF8000001FFFE0000007F80000000000001
310
FFF0000000000007FFFFF0000000000007FFFF0003FFFFFFFFFC00007E000007
310
F000F800000000000FFC0007FFF80000FFFF8000FF80007FF800000000001FFF
310
800000000001FFF8000001FFFE0000007F80000000000001FFF800000000000F
310
FFFFF800000000000FFFFF0003FFFFFFFFFC00000000000FF000FC0000000000
310
1FFC0007FFFC0000FFFF8000FF80007FF800000000003FFFC00000000001FFF8
310
000001FFFE0000007F80000000000001FFF800000000000FFFFFF80000000000
310
0FFFFF0003FFFFFFFFFE00000000001FF000FE00000000003FF8000FFFFC0000
310
FFFF8000FF80007FFC00000000003FFFC00000000003FFF8000001FFFE000000
310
7F80000000000001FFFC00000000001FFFFFFC00000000001FFFFF0003FFFFFF
310
FFFF00000000001FF000FF00000000003FF8000FFFFC0000FFFFC000FF80007F
310
FE00000000007FFFE00000000007FFF8000001FFFE0000007F80000000000001
310
FFFE00000000003FFFFFFE00000000003FFFFF0003FFFFFFFFFF80000000003F
310
F000FF80000000007FF8000FFFFC0001FFFFC0007F80007FFF0000000000FFFF
310
F0000000000FFFF800000000000000007F80000000000001FFFF8000000000FF
310
FFFFFF8000000000FFFFFF0003FFFFFFFFFFC0000000007FF000FFC000000000
310
FFF8000FFFFE0001FFFFC0007F80007FFF8000000001FFFFF8000000001FFFF8
310
00000000000000007F80000000000001FFFFC000000001FFFFFFFFC000000001
310
FFFFFF0003FFFFFFFFFFE000000000FFF000FFE000000003FFF0001FFFFE0001
310
FFFFC0007F80007FFFC000000007FFFFFE000000003FFFF80000000000000000
310
7F80000000000001FFFFE000000003FFFFFFFFE000000003FFFFFF0003FFFFFF
310
FFFFF000000003FFF000FFF80000000FFFF0001FFFFE0001FFFFE0007F80007F
310
FFF00000000FFFFFFF00000000FFFFF800000000000000007F80000000000001
310
FFFFF80000000FFFFFFFFFF80000000FFFFFFF0003FFFFFFFFFFFC0000000FFF
310
F000FFFE0000003FFFF0001FFFFE0003FFFFE0003F80007FFFFC0000003FFFFF
310
FFC0000003FFFFF800000000000000007F80000000000001FFFFFE0000003FFF
310
FFFFFFFE0000003FFFFFFF0003FFFFFFFFFFFF0000003FFFF000FFFF800000FF
310
FFF0001FFFFF0003FFFFE0003F80007FFFFF000001FFFFFFFFF800001FFFFFF8
310
00000000000000007F80000000000001FFFFFFC00001FFFFFFFFFFFFC00001FF
310
FFFFFF0003FFFFFFFFFFFFC00000FFFFF000FFFFF8000FFFFFFFFFFFFFFFFFFF
310
FFFFFFFFFFFFFFFFFFFFF0001FFFFFFFFFFF0000FFFFFFF80000000000000000
310
7FFFFFFFFFFFFFFFFFFFFFFC001FFFFFFFFFFFFFFC001FFFFFFFFFFFFFFFFFFF
310
FFFFFFFC001FFFFFF000FFFFFFFFFFFFFFFFFFFFFFFFFFFFFFFFFFFFFFFFFFFF
310
FFFFFFFFFFFFFFFFFFFFFFFFFFFFFFFFFFFFFFFFFFFFFFFFFFFFFFFFFFFFFFFF
310
FFFFFFFFFFFFFFFFFFFFFFFFFFFFFFFFFFFFFFFFFFFFFFFFFFFFFFFFFFFFFFFF
310
F000FFFFFFFFFFFFFFFFFFFFFFFFFFFFFFFFFFFFFFFFFFFFFFFFFFFFFFFFFFFF
310
FFFFFFFFFFFFFFFFFFFFFFFFFFFFFFFFFFFFFFFFFFFFFFFFFFFFFFFFFFFFFFFF
310
FFFFFFFFFFFFFFFFFFFFFFFFFFFFFFFFFFFFFFFFFFFFFFFFF000FFFFFFFFFFFF
310
FFFFFFFFFFFFFFFFFFFFFFFFFFFFFFFFFFFFFFFFFFFFFFFFFFFFFFFFFFFFFFFF
310
FFFFFFFFFFFFFFFFFFFFFFFFFFFFFFFFFFFFFFFFFFFFFFFFFFFFFFFFFFFFFFFF
310
FFFFFFFFFFFFFFFFFFFFFFFFFFFFFFFFF000FFFFFFFFFFFFFFFFFFFFFFFFFFFF
310
FFFFFFFFFFFFFFFFFFFFFFFFFFFFFFFFFFFFFFFFFFFFFFFFFFFFFFFFFFFFFFFF
310
FFFFFFFFFFFFFFFFFFFFFFFFFFFFFFFFFFFFFFFFFFFFFFFFFFFFFFFFFFFFFFFF
310
FFFFFFFFFFFFFFFFF000FFFFFFFFFFFFFFFFFFFFFFFFFFFFFFFFFFFFFFFFFFFF
310
FFFFFFFFFFFFFFFFFFFFFFFFFFFFFFFFFFFFFFFFFFFFFFFFFFFFFFFFFFFFFFFF
310
FFFFFFFFFFFFFFFFFFFFFFFFFFFFFFFFFFFFFFFFFFFFFFFFFFFFFFFFFFFFFFFF
310
F000FFFFFFFFFFFFFFFFFFFFFFFFFFFFFFFFFFFFFFFFFFFFFFFFFFFFFFFFFFFF
310
FFFFFFFFFFFFFFFFFFFFFFFFFFFFFFFFFFFFFFFFFFFFFFFFFFFFFFFFFFFFFFFF
310
FFFFFFFFFFFFFFFFFFFFFFFFFFFFFFFFFFFFFFFFFFFFFFFFF000FFFFFFFFFFFF
310
FFFFFFFFFFFFFFFFFFFFFFFFFFFFFFFFFFFFFFFFFFFFFFFFFFFFFFFFFFFFFFFF
310
FFFFFFFFFFFFFFFFFFFFFFFFFFFFFFFFFFFFFFFFFFFFFFFFFFFFFFFFFFFFFFFF
310
FFFFFFFFFFFFFFFFFFFFFFFFFFFFFFFFF000FFFFFFFFFFFFFFFFFFFFFFFFFFFF
310
FFFFFFFFFFFFFFFFFFFFFFFFFFFFFFFFFFFFFFFFFFFFFFFFFFFFFFFFFFFFFFFF
310
FFFFFFFFFFFFFFFFFFFFFFFFFFFFFFFFFFFFFFFFFFFFFFFFFFFFFFFFFFFFFFFF
310
FFFFFFFFFFFFFFFFF000FFFFFFFFFFFFFFFFFFFFFFFFFFFFFFFFFFFFFFFFFFFF
310
FFFFFFFFFFFFFFFFFFFFFFFFFFFFFFFFFFFFFFFFFFFFFFFFFFFFFFFFFFFFFFFF
310
FFFFFFFFFFFFFFFFFFFFFFFFFFFFFFFFFFFFFFFFFFFFFFFFFFFFFFFFFFFFFFFF
310
F000FFFFFFFFFFFFFFFFFFFFFFFFFFFFFFFFFFFFFFFFFFFFFFFFFFFFFFFFFFFF
310
FFFFFFFFFFFFFFFFFFFFFFFFFFFFFFFFFFFFFFFFFFFFFFFFFFFFFFFFFFFFFFFF
310
FFFFFFFFFFFFFFFFFFFFFFFFFFFFFFFFFFFFFFFFFFFFFFFFF000FFFFFFFFFFFF
310
FFFFFFFFFFFFFFFFFFFFFFFFFFFFFFFFFFFFFFFFFFFFFFFFFFFFFFFFFFFFFFFF
310
FFFFFFFFFFFFFFFFFFFFFFFFFFFFFFFFFFFFFFFFFFFFFFFFFFFFFFFFFFFFFFFF
310
FFFFFFFFFFFFFFFFFFFFFFFFFFFFFFFFF000FFFFFFFFFFFFFFFFFFFFFFFFFFFF
310
FFFFFFFFFFFFFFFFFFFFFFFFFFFFFFFFFFFFFFFFFFFFFFFFFFFFFFFFFFFFFFFF
310
FFFFFFFFFFFFFFFFFFFFFFFFFFFFFFFFFFFFFFFFFFFFFFFFFFFFFFFFFFFFFFFF
310
FFFFFFFFFFFFFFFFF000FFFFFFFFFFFFFFFFFFFFFFFFFFFFFFFFFFFFFFFFFFFF
310
FFFFFFFFFFFFFFFFFFFFFFFFFFFFFFFFFFFFFFFFFFFFFFFFFFFFFFFFFFFFFFFF
310
FFFFFFFFFFFFFFFFFFFFFFFFFFFFFFFFFFFFFFFFFFFFFFFFFFFFFFFFFFFFFFFF
310
F000FFFFFFFFFFFFFFFFFFFFFFFFFFFFFFFFFFFFFFFFFFFFFFFFFFFFFFFFFFFF
310
FFFFFFFFFFFFFFFFFFFFFFFFFFFFFFFFFFFFFFFFFFFFFFFFFFFFFFFFFFFFFFFF
310
FFFFFFFFFFFFFFFFFFFFFFFFFFFFFFFFFFFFFFFFFFFFFFFFF000FFFFFFFFFFFF
310
FFFFFFFFFFFFFFFFFFFFFFFFFFFFFFFFFFFFFFFFFFFFFFFFFFFFFFFFFFFFFFFF
310
FFFFFFFFFFFFFFFFFFFFFFFFFFFFFFFFFFFFFFFFFFFFFFFFFFFFFFFFFFFFFFFF
310
FFFFFFFFFFFFFFFFFFFFFFFFFFFFFFFFF000FFFFFFFFFFFFFFFFFFFFFFFFFFFF
310
FFFFFFFFFFFFFFFFFFFFFFFFFFFFFFFFFFFFFFFFFFFFFFFFFFFFFFFFFFFFFFFF
310
FFFFFFFFFFFFFFFFFFFFFFFFFFFFFFFFFFFFFFFFFFFFFFFFFFFFFFFFFFFFFFFF
310
FFFFFFFFFFFFFFFFF000FFFFFFFFFFFFFFFFFFFFFFFFFFFFFFFFFFFFFFFFFFFF
310
FFFFFFFFFFFFFFFFFFFFFFFFFFFFFFFFFFFFFFFFFFFFFFFFFFFFFFFFFFFFFFFF
310
FFFFFFFFFFFFFFFFFFFFFFFFFFFFFFFFFFFFFFFFFFFFFFFFFFFFFFFFFFFFFFFF
310
F000FFFFFFFFFFFFFFFFFFFFFFFFFFFFFFFFFFFFFFFFFFFFFFFFFFFFFFFFFFFF
310
FFFFFFFFFFFFFFFFFFFFFFFFFFFFFFFFFFFFFFFFFFFFFFFFFFFFFFFFFFFFFFFF
310
FFFFFFFFFFFFFFFFFFFFFFFFFFFFFFFFFFFFFFFFFFFFFFFFF000FFFFFFFFFFFF
310
FFFFFFFFFFFFFFFFFFFFFFFFFFFFFFFFFFFFFFFFFFFFFFFFFFFFFFFFFFFFFFFF
310
FFFFFFFFFFFFFFFFFFFFFFFFFFFFFFFFFFFFFFFFFFFFFFFFFFFFFFFFFFFFFFFF
310
FFFFFFFFFFFFFFFFFFFFFFFFFFFFFFFFF000FFFFFFFFFFFFFFFFFFFFFFFFFFFF
310
FFFFFFFFFFFFFFFFFFFFFFFFFFFFFFFFFFFFFFFFFFFFFFFFFFFFFFFFFFFFFFFF
310
FFFFFFFFFFFFFFFFFFFFFFFFFFFFFFFFFFFFFFFFFFFFFFFFFFFFFFFFFFFFFFFF
310
FFFFFFFFFFFFFFFFF000FFFFFFFFFFFFFFFFFFFFFFFFFFFFFFFFFFFFFFFFFFFF
310
FFFFFFFFFFFFFFFFFFFFFFFFFFFFFFFFFFFFFFFFFFFFFFFFFFFFFFFFFFFFFFFF
310
FFFFFFFFFFFFFFFFFFFFFFFFFFFFFFFFFFFFFFFFFFFFFFFFFFFFFFFFFFFFFFFF
310
F000FFFFFFFFFFFFFFFFFFFFFFFFFFFFFFFFFFFFFFFFFFFFFFFFFFFFFFFFFFFF
310
FFFFFFFFFFFFFFFFFFFFFFFFFFFFFFFFFFFFFFFFFFFFFFFFFFFFFFFFFFFFFFFF
310
FFFFFFFFFFFFFFFFFFFFFFFFFFFFFFFFFFFFFFFFFFFFFFFFF000FFFFFFFFFFFF
310
FFFFFFFFFFFFFFFFFFFFFFFFFFFFFFFFFFFFFFFFFFFFFFFFFFFFFFFFFFFFFFFF
310
FFFFFFFFFFFFFFFFFFFFFFFFFFFFFFFFFFFFFFFFFFFFFFFFFFFFFFFFFFFFFFFF
310
FFFFFFFFFFFFFFFFFFFFFFFFFFFFFFFFF0000000000000000000000000000000
310
0000000000000000000000000000000000000000000000000000000000000000
310
0000000000000000000000000000000000000000000000000000000000000000
310
0000000000000000000000000000000000000000000000000000000000000000
310
0000000000000000000000000000000000000000000000000000000000000000
310
0000000000000000000000000000000000000000000000000000000000000000
310
0000000000000000000000000000000000000000000000000000000000000000
310
0000000000000000000000000000000000000000000000000000000000000000
310
0000000000000000000000000000000000000000000000000000000000000000
310
0000000000000000000000000000000000000000000000000000000000000000
310
0000000000000000000000000000000000000000000000000000000000000000
310
0000000000000000000000000000000000000000000000000000000000000000
310
0000000000000000000000000000000000000000000000000000000000000000
310
0000000000000000000000000000000000000000000000000000000000000000
310
0000000000000000000000000000000000000000000000000000000000000000
310
0000000000000000000000000000000000000000000000000000000000000000
  1
OLE
  0
ENDSEC
  0
SECTION
  2
OBJECTS
  0
DICTIONARY
  5
C
330
0
100
AcDbDictionary
281
     1
  3
ACAD_GROUP
350
D
  3
ACAD_LAYOUT
350
1A
  3
ACAD_MLINESTYLE
350
17
  3
ACAD_PLOTSETTINGS
350
19
  3
ACAD_PLOTSTYLENAME
350
E
  3
ACAD_SCALELIST
350
47
  0
DICTIONARY
  5
D
102
{ACAD_REACTORS
330
C
102
}
330
C
100
AcDbDictionary
281
     1
  0
DICTIONARY
  5
1A
102
{ACAD_REACTORS
330
C
102
}
330
C
100
AcDbDictionary
281
     1
  3
Layout1
350
1E
  3
Layout2
350
26
  3
Model
350
22
  0
DICTIONARY
  5
17
102
{ACAD_REACTORS
330
C
102
}
330
C
100
AcDbDictionary
281
     1
  3
Standard
350
18
  0
DICTIONARY
  5
19
102
{ACAD_REACTORS
330
C
102
}
330
C
100
AcDbDictionary
281
     1
  0
ACDBDICTIONARYWDFLT
  5
E
102
{ACAD_REACTORS
330
C
102
}
330
C
100
AcDbDictionary
281
     1
  3
Normal
350
F
100
AcDbDictionaryWithDefault
340
F
  0
DICTIONARY
  5
47
102
{ACAD_REACTORS
330
C
102
}
330
C
100
AcDbDictionary
281
     1
  3
A0
350
48
  3
A1
350
49
  3
A2
350
4A
  3
A3
350
4B
  3
A4
350
4C
  3
A5
350
4D
  3
A6
350
4E
  3
A7
350
4F
  3
A8
350
50
  3
A9
350
51
  3
B0
350
52
  3
B1
350
53
  3
B2
350
54
  3
B3
350
55
  3
B4
350
56
  3
B5
350
57
  3
B6
350
58
  3
B7
350
59
  3
B8
350
5A
  3
B9
350
5B
  3
C0
350
5C
  3
C1
350
5D
  3
C2
350
5E
  3
C3
350
5F
  3
C4
350
60
  3
C5
350
61
  3
C6
350
62
  3
C7
350
63
  3
C8
350
64
  3
C9
350
65
  3
D0
350
66
  3
D1
350
67
  3
D2
350
68
  0
LAYOUT
  5
1E
102
{ACAD_REACTORS
330
1A
102
}
330
1A
100
AcDbPlotSettings
  1

  2
none_device
  4

  6

 40
0.0
 41
0.0
 42
0.0
 43
0.0
 44
0.0
 45
0.0
 46
0.0
 47
0.0
 48
0.0
 49
0.0
140
0.0
141
0.0
142
1.0
143
1.0
 70
   688
 72
     1
 73
     0
 74
     5
  7

 75
    16
147
1.0
148
0.0
149
0.0
100
AcDbLayout
  1
Layout1
 70
     1
 71
     1
 10
0.0
 20
0.0
 11
420.0
 21
297.0
 12
0.0
 22
0.0
 32
0.0
 14
1.0000000000E+20
 24
1.0000000000E+20
 34
1.0000000000E+20
 15
-1.0000000000E+20
 25
-1.0000000000E+20
 35
-1.0000000000E+20
146
0.0
 13
0.0
 23
0.0
 33
0.0
 16
1.0
 26
0.0
 36
0.0
 17
0.0
 27
1.0
 37
0.0
 76
     0
330
1B
  0
LAYOUT
  5
26
102
{ACAD_REACTORS
330
1A
102
}
330
1A
100
AcDbPlotSettings
  1

  2
none_device
  4

  6

 40
0.0
 41
0.0
 42
0.0
 43
0.0
 44
0.0
 45
0.0
 46
0.0
 47
0.0
 48
0.0
 49
0.0
140
0.0
141
0.0
142
1.0
143
1.0
 70
   688
 72
     1
 73
     0
 74
     5
  7

 75
    16
147
1.0
148
0.0
149
0.0
100
AcDbLayout
  1
Layout2
 70
     1
 71
     2
 10
0.0
 20
0.0
 11
0.0
 21
0.0
 12
0.0
 22
0.0
 32
0.0
 14
0.0
 24
0.0
 34
0.0
 15
0.0
 25
0.0
 35
0.0
146
0.0
 13
0.0
 23
0.0
 33
0.0
 16
1.0
 26
0.0
 36
0.0
 17
0.0
 27
1.0
 37
0.0
 76
     0
330
23
  0
LAYOUT
  5
22
102
{ACAD_REACTORS
330
1A
102
}
330
1A
100
AcDbPlotSettings
  1

  2
none_device
  4
Letter_(8.50_x_11.00_Inches)
  6

 40
6.35
 41
6.35
 42
6.35000508
 43
6.35000508
 44
215.9
 45
279.4
 46
0.0
 47
0.0
 48
0.0
 49
0.0
140
0.0
141
0.0
142
1.0
143
1.0
 70
  1712
 72
     1
 73
     0
 74
     0
  7

 75
     0
147
1.0
148
0.0
149
0.0
100
AcDbLayout
  1
Model
 70
     1
 71
     0
 10
0.0
 20
0.0
 11
297.0
 21
210.0
 12
0.0
 22
0.0
 32
0.0
 14
0.0
 24
0.0
 34
0.0
 15
297.0
 25
210.0
 35
0.0
146
0.0
 13
0.0
 23
0.0
 33
0.0
 16
1.0
 26
0.0
 36
0.0
 17
0.0
 27
1.0
 37
0.0
 76
     0
330
1F
331
29
  0
MLINESTYLE
  5
18
102
{ACAD_REACTORS
330
17
102
}
330
17
100
AcDbMlineStyle
  2
Standard
 70
     0
  3

 62
   256
 51
90.0
 52
90.0
 71
     2
 49
0.5
 62
   256
  6
BYLAYER
 49
-0.5
 62
   256
  6
BYLAYER
  0
ACDBPLACEHOLDER
  5
F
102
{ACAD_REACTORS
330
E
102
}
330
E
  0
SCALE
  5
48
102
{ACAD_REACTORS
330
47
102
}
330
47
100
AcDbScale
 70
     0
300
1:1
140
1.0
141
1.0
290
     1
  0
SCALE
  5
49
102
{ACAD_REACTORS
330
47
102
}
330
47
100
AcDbScale
 70
     0
300
1:2
140
1.0
141
2.0
290
     0
  0
SCALE
  5
4A
102
{ACAD_REACTORS
330
47
102
}
330
47
100
AcDbScale
 70
     0
300
1:4
140
1.0
141
4.0
290
     0
  0
SCALE
  5
4B
102
{ACAD_REACTORS
330
47
102
}
330
47
100
AcDbScale
 70
     0
300
1:5
140
1.0
141
5.0
290
     0
  0
SCALE
  5
4C
102
{ACAD_REACTORS
330
47
102
}
330
47
100
AcDbScale
 70
     0
300
1:8
140
1.0
141
8.0
290
     0
  0
SCALE
  5
4D
102
{ACAD_REACTORS
330
47
102
}
330
47
100
AcDbScale
 70
     0
300
1:10
140
1.0
141
10.0
290
     0
  0
SCALE
  5
4E
102
{ACAD_REACTORS
330
47
102
}
330
47
100
AcDbScale
 70
     0
300
1:16
140
1.0
141
16.0
290
     0
  0
SCALE
  5
4F
102
{ACAD_REACTORS
330
47
102
}
330
47
100
AcDbScale
 70
     0
300
1:20
140
1.0
141
20.0
290
     0
  0
SCALE
  5
50
102
{ACAD_REACTORS
330
47
102
}
330
47
100
AcDbScale
 70
     0
300
1:30
140
1.0
141
30.0
290
     0
  0
SCALE
  5
51
102
{ACAD_REACTORS
330
47
102
}
330
47
100
AcDbScale
 70
     0
300
1:40
140
1.0
141
40.0
290
     0
  0
SCALE
  5
52
102
{ACAD_REACTORS
330
47
102
}
330
47
100
AcDbScale
 70
     0
300
1:50
140
1.0
141
50.0
290
     0
  0
SCALE
  5
53
102
{ACAD_REACTORS
330
47
102
}
330
47
100
AcDbScale
 70
     0
300
1:100
140
1.0
141
100.0
290
     0
  0
SCALE
  5
54
102
{ACAD_REACTORS
330
47
102
}
330
47
100
AcDbScale
 70
     0
300
2:1
140
2.0
141
1.0
290
     0
  0
SCALE
  5
55
102
{ACAD_REACTORS
330
47
102
}
330
47
100
AcDbScale
 70
     0
300
4:1
140
4.0
141
1.0
290
     0
  0
SCALE
  5
56
102
{ACAD_REACTORS
330
47
102
}
330
47
100
AcDbScale
 70
     0
300
8:1
140
8.0
141
1.0
290
     0
  0
SCALE
  5
57
102
{ACAD_REACTORS
330
47
102
}
330
47
100
AcDbScale
 70
     0
300
10:1
140
10.0
141
1.0
290
     0
  0
SCALE
  5
58
102
{ACAD_REACTORS
330
47
102
}
330
47
100
AcDbScale
 70
     0
300
100:1
140
100.0
141
1.0
290
     0
  0
SCALE
  5
59
102
{ACAD_REACTORS
330
47
102
}
330
47
100
AcDbScale
 70
     0
300
1/128" = 1'-0"
140
0.0078125
141
12.0
290
     0
  0
SCALE
  5
5A
102
{ACAD_REACTORS
330
47
102
}
330
47
100
AcDbScale
 70
     0
300
1/64" = 1'-0"
140
0.015625
141
12.0
290
     0
  0
SCALE
  5
5B
102
{ACAD_REACTORS
330
47
102
}
330
47
100
AcDbScale
 70
     0
300
1/32" = 1'-0"
140
0.03125
141
12.0
290
     0
  0
SCALE
  5
5C
102
{ACAD_REACTORS
330
47
102
}
330
47
100
AcDbScale
 70
     0
300
1/16" = 1'-0"
140
0.0625
141
12.0
290
     0
  0
SCALE
  5
5D
102
{ACAD_REACTORS
330
47
102
}
330
47
100
AcDbScale
 70
     0
300
3/32" = 1'-0"
140
0.09375
141
12.0
290
     0
  0
SCALE
  5
5E
102
{ACAD_REACTORS
330
47
102
}
330
47
100
AcDbScale
 70
     0
300
1/8" = 1'-0"
140
0.125
141
12.0
290
     0
  0
SCALE
  5
5F
102
{ACAD_REACTORS
330
47
102
}
330
47
100
AcDbScale
 70
     0
300
3/16" = 1'-0"
140
0.1875
141
12.0
290
     0
  0
SCALE
  5
60
102
{ACAD_REACTORS
330
47
102
}
330
47
100
AcDbScale
 70
     0
300
1/4" = 1'-0"
140
0.25
141
12.0
290
     0
  0
SCALE
  5
61
102
{ACAD_REACTORS
330
47
102
}
330
47
100
AcDbScale
 70
     0
300
3/8" = 1'-0"
140
0.375
141
12.0
290
     0
  0
SCALE
  5
62
102
{ACAD_REACTORS
330
47
102
}
330
47
100
AcDbScale
 70
     0
300
1/2" = 1'-0"
140
0.5
141
12.0
290
     0
  0
SCALE
  5
63
102
{ACAD_REACTORS
330
47
102
}
330
47
100
AcDbScale
 70
     0
300
3/4" = 1'-0"
140
0.75
141
12.0
290
     0
  0
SCALE
  5
64
102
{ACAD_REACTORS
330
47
102
}
330
47
100
AcDbScale
 70
     0
300
1" = 1'-0"
140
1.0
141
12.0
290
     0
  0
SCALE
  5
65
102
{ACAD_REACTORS
330
47
102
}
330
47
100
AcDbScale
 70
     0
300
1-1/2" = 1'-0"
140
1.5
141
12.0
290
     0
  0
SCALE
  5
66
102
{ACAD_REACTORS
330
47
102
}
330
47
100
AcDbScale
 70
     0
300
3" = 1'-0"
140
3.0
141
12.0
290
     0
  0
SCALE
  5
67
102
{ACAD_REACTORS
330
47
102
}
330
47
100
AcDbScale
 70
     0
300
6" = 1'-0"
140
6.0
141
12.0
290
     0
  0
SCALE
  5
68
102
{ACAD_REACTORS
330
47
102
}
330
47
100
AcDbScale
 70
     0
300
1'-0" = 1'-0"
140
12.0
141
12.0
290
     0
  0
ENDSEC
  0
EOF
