  0
SECTION
  2
HEADER
  9
$ACADVER
  1
AC1015
  9
$ACADMAINTVER
 70
     6
  9
$DWGCODEPAGE
  3
ANSI_1252
  9
$INSBASE
 10
0.0
 20
0.0
 30
0.0
  9
$EXTMIN
 10
0.0
 20
0.0
 30
0.0
  9
$EXTMAX
 10
297.0
 20
210.0
 30
0.0
  9
$LIMMIN
 10
0.0
 20
0.0
  9
$LIMMAX
 10
297.0
 20
210.0
  9
$ORTHOMODE
 70
     0
  9
$REGENMODE
 70
     1
  9
$FILLMODE
 70
     1
  9
$QTEXTMODE
 70
     0
  9
$MIRRTEXT
 70
     1
  9
$LTSCALE
 40
1.0
  9
$ATTMODE
 70
     1
  9
$TEXTSIZE
 40
2.0
  9
$TRACEWID
 40
1.0
  9
$TEXTSTYLE
  7
Standard
  9
$CLAYER
  8
0
  9
$CELTYPE
  6
ByLayer
  9
$CECOLOR
 62
   256
  9
$CELTSCALE
 40
1.0
  9
$DISPSILH
 70
     0
  9
$DIMSCALE
 40
1.0
  9
$DIMASZ
 40
3.0
  9
$DIMEXO
 40
0.0
  9
$DIMDLI
 40
3.75
  9
$DIMRND
 40
0.0
  9
$DIMDLE
 40
0.0
  9
$DIMEXE
 40
1.0
  9
$DIMTP
 40
0.0
  9
$DIMTM
 40
0.0
  9
$DIMTXT
 40
2.0
  9
$DIMCEN
 40
2.5
  9
$DIMTSZ
 40
0.0
  9
$DIMTOL
 70
     0
  9
$DIMLIM
 70
     0
  9
$DIMTIH
 70
     1
  9
$DIMTOH
 70
     1
  9
$DIMSE1
 70
     0
  9
$DIMSE2
 70
     0
  9
$DIMTAD
 70
     1
  9
$DIMZIN
 70
     0
  9
$DIMBLK
  1

  9
$DIMASO
 70
     1
  9
$DIMSHO
 70
     1
  9
$DIMPOST
  1

  9
$DIMAPOST
  1

  9
$DIMALT
 70
     0
  9
$DIMALTD
 70
     3
  9
$DIMALTF
 40
0.0393700787
  9
$DIMLFAC
 40
1.0
  9
$DIMTOFL
 70
     1
  9
$DIMTVP
 40
0.0
  9
$DIMTIX
 70
     0
  9
$DIMSOXD
 70
     0
  9
$DIMSAH
 70
     0
  9
$DIMBLK1
  1

  9
$DIMBLK2
  1

  9
$DIMSTYLE
  2
ISO-25
  9
$DIMCLRD
 70
     0
  9
$DIMCLRE
 70
     0
  9
$DIMCLRT
 70
     0
  9
$DIMTFAC
 40
1.0
  9
$DIMGAP
 40
1.524
  9
$DIMJUST
 70
     0
  9
$DIMSD1
 70
     0
  9
$DIMSD2
 70
     0
  9
$DIMTOLJ
 70
     0
  9
$DIMTZIN
 70
     0
  9
$DIMALTZ
 70
     0
  9
$DIMALTTZ
 70
     0
  9
$DIMUPT
 70
     0
  9
$DIMDEC
 70
     2
  9
$DIMTDEC
 70
     3
  9
$DIMALTU
 70
     2
  9
$DIMALTTD
 70
     3
  9
$DIMTXSTY
  7
Standard
  9
$DIMAUNIT
 70
     0
  9
$DIMADEC
 70
     2
  9
$DIMALTRND
 40
0.0
  9
$DIMAZIN
 70
     0
  9
$DIMDSEP
 70
    44
  9
$DIMATFIT
 70
     3
  9
$DIMFRAC
 70
     0
  9
$DIMLDRBLK
  1

  9
$DIMLUNIT
 70
     2
  9
$DIMLWD
 70
    -2
  9
$DIMLWE
 70
    -2
  9
$DIMTMOVE
 70
     0
  9
$LUNITS
 70
     2
  9
$LUPREC
 70
     2
  9
$SKETCHINC
 40
1.0
  9
$FILLETRAD
 40
10.0
  9
$AUNITS
 70
     0
  9
$AUPREC
 70
     2
  9
$MENU
  1
.
  9
$ELEVATION
 40
0.0
  9
$PELEVATION
 40
0.0
  9
$THICKNESS
 40
0.0
  9
$LIMCHECK
 70
     0
  9
$CHAMFERA
 40
0.0
  9
$CHAMFERB
 40
0.0
  9
$CHAMFERC
 40
0.0
  9
$CHAMFERD
 40
0.0
  9
$SKPOLY
 70
     0
  9
$TDCREATE
 40
2458190.386685984
  9
$TDUCREATE
 40
2458190.345019317
  9
$TDUPDATE
 40
2458190.386687384
  9
$TDUUPDATE
 40
2458190.345020717
  9
$TDINDWG
 40
0.0000000116
  9
$TDUSRTIMER
 40
0.0000000116
  9
$USRTIMER
 70
     1
  9
$ANGBASE
 50
0.0
  9
$ANGDIR
 70
     0
  9
$PDMODE
 70
     0
  9
$PDSIZE
 40
-1.0
  9
$PLINEWID
 40
0.0
  9
$SPLFRAME
 70
     0
  9
$SPLINETYPE
 70
     6
  9
$SPLINESEGS
 70
     8
  9
$HANDSEED
  5
209
  9
$SURFTAB1
 70
     6
  9
$SURFTAB2
 70
     6
  9
$SURFTYPE
 70
     6
  9
$SURFU
 70
     6
  9
$SURFV
 70
     6
  9
$UCSBASE
  2

  9
$UCSNAME
  2

  9
$UCSORG
 10
0.0
 20
0.0
 30
0.0
  9
$UCSXDIR
 10
1.0
 20
0.0
 30
0.0
  9
$UCSYDIR
 10
0.0
 20
1.0
 30
0.0
  9
$UCSORTHOREF
  2

  9
$UCSORTHOVIEW
 70
     0
  9
$UCSORGTOP
 10
0.0
 20
0.0
 30
0.0
  9
$UCSORGBOTTOM
 10
0.0
 20
0.0
 30
0.0
  9
$UCSORGLEFT
 10
0.0
 20
0.0
 30
0.0
  9
$UCSORGRIGHT
 10
0.0
 20
0.0
 30
0.0
  9
$UCSORGFRONT
 10
0.0
 20
0.0
 30
0.0
  9
$UCSORGBACK
 10
0.0
 20
0.0
 30
0.0
  9
$PUCSBASE
  2

  9
$PUCSNAME
  2

  9
$PUCSORG
 10
0.0
 20
0.0
 30
0.0
  9
$PUCSXDIR
 10
1.0
 20
0.0
 30
0.0
  9
$PUCSYDIR
 10
0.0
 20
1.0
 30
0.0
  9
$PUCSORTHOREF
  2

  9
$PUCSORTHOVIEW
 70
     0
  9
$PUCSORGTOP
 10
0.0
 20
0.0
 30
0.0
  9
$PUCSORGBOTTOM
 10
0.0
 20
0.0
 30
0.0
  9
$PUCSORGLEFT
 10
0.0
 20
0.0
 30
0.0
  9
$PUCSORGRIGHT
 10
0.0
 20
0.0
 30
0.0
  9
$PUCSORGFRONT
 10
0.0
 20
0.0
 30
0.0
  9
$PUCSORGBACK
 10
0.0
 20
0.0
 30
0.0
  9
$USERI1
 70
     0
  9
$USERI2
 70
     0
  9
$USERI3
 70
     0
  9
$USERI4
 70
     0
  9
$USERI5
 70
     0
  9
$USERR1
 40
0.0
  9
$USERR2
 40
0.0
  9
$USERR3
 40
0.0
  9
$USERR4
 40
0.0
  9
$USERR5
 40
0.0
  9
$WORLDVIEW
 70
     1
  9
$SHADEDGE
 70
     3
  9
$SHADEDIF
 70
    70
  9
$TILEMODE
 70
     1
  9
$MAXACTVP
 70
    64
  9
$PINSBASE
 10
0.0
 20
0.0
 30
0.0
  9
$PLIMCHECK
 70
     0
  9
$PEXTMIN
 10
1.0000000000E+20
 20
1.0000000000E+20
 30
1.0000000000E+20
  9
$PEXTMAX
 10
-1.0000000000E+20
 20
-1.0000000000E+20
 30
-1.0000000000E+20
  9
$PLIMMIN
 10
0.0
 20
0.0
  9
$PLIMMAX
 10
420.0
 20
297.0
  9
$UNITMODE
 70
     0
  9
$VISRETAIN
 70
     1
  9
$PLINEGEN
 70
     0
  9
$PSLTSCALE
 70
     1
  9
$TREEDEPTH
 70
  3020
  9
$CMLSTYLE
  2
Standard
  9
$CMLJUST
 70
     0
  9
$CMLSCALE
 40
20.0
  9
$PROXYGRAPHICS
 70
     1
  9
$MEASUREMENT
 70
     1
  9
$CELWEIGHT
370
    -1
  9
$ENDCAPS
280
     0
  9
$JOINSTYLE
280
     0
  9
$LWDISPLAY
290
     1
  9
$INSUNITS
 70
     4
  9
$HYPERLINKBASE
  1

  9
$STYLESHEET
  1

  9
$XEDIT
290
     1
  9
$CEPSNTYPE
380
     0
  9
$PSTYLEMODE
290
     1
  9
$FINGERPRINTGUID
  2
{9975EFEA-DA1D-4D6B-AEA2-6E0594630C58}
  9
$VERSIONGUID
  2
{FAEB1C32-E019-11D5-929B-00C0DF256EC4}
  9
$EXTNAMES
290
     1
  9
$PSVPSCALE
 40
0.0
  9
$OLESTARTUP
290
     0
  0
ENDSEC
  0
SECTION
  2
CLASSES
  0
CLASS
  1
ACDBDICTIONARYWDFLT
  2
AcDbDictionaryWithDefault
  3
ObjectDBX Classes
 90
        0
280
     0
281
     0
  0
CLASS
  1
VISUALSTYLE
  2
AcDbVisualStyle
  3
ObjectDBX Classes
 90
     4095
280
     0
281
     0
  0
CLASS
  1
MATERIAL
  2
AcDbMaterial
  3
ObjectDBX Classes
 90
     1153
280
     0
281
     0
  0
CLASS
  1
SCALE
  2
AcDbScale
  3
ObjectDBX Classes
 90
     1153
280
     0
281
     0
  0
CLASS
  1
TABLESTYLE
  2
AcDbTableStyle
  3
ObjectDBX Classes
 90
     4095
280
     0
281
     0
  0
CLASS
  1
MLEADERSTYLE
  2
AcDbMLeaderStyle
  3
ACDB_MLEADERSTYLE_CLASS
 90
     4095
280
     0
281
     0
  0
CLASS
  1
SUN
  2
AcDbSun
  3
SCENEOE
 90
     1153
280
     0
281
     0
  0
CLASS
  1
ACDBPLACEHOLDER
  2
AcDbPlaceHolder
  3
ObjectDBX Classes
 90
        0
280
     0
281
     0
  0
CLASS
  1
LAYOUT
  2
AcDbLayout
  3
ObjectDBX Classes
 90
        0
280
     0
281
     0
  0
ENDSEC
  0
SECTION
  2
TABLES
  0
TABLE
  2
VPORT
  5
8
330
0
100
AcDbSymbolTable
 70
     1
  0
VPORT
  5
29
330
8
100
AcDbSymbolTableRecord
100
AcDbViewportTableRecord
  2
*Active
 70
     0
 10
0.0
 20
0.0
 11
1.0
 21
1.0
 12
148.5
 22
105.0
 13
0.0
 23
0.0
 14
10.0
 24
10.0
 15
10.0
 25
10.0
 16
0.0
 26
0.0
 36
1.0
 17
0.0
 27
0.0
 37
0.0
 40
210.0
 41
1.4142857143
 42
50.0
 43
0.0
 44
0.0
 50
0.0
 51
0.0
 71
     0
 72
  2000
 73
     1
 74
     3
 75
     0
 76
     0
 77
     0
 78
     0
281
     0
 65
     1
110
0.0
120
0.0
130
0.0
111
1.0
121
0.0
131
0.0
112
0.0
122
1.0
132
0.0
 79
     0
146
0.0
  0
ENDTAB
  0
TABLE
  2
LTYPE
  5
5
330
0
100
AcDbSymbolTable
 70
     6
  0
LTYPE
  5
14
330
5
100
AcDbSymbolTableRecord
100
AcDbLinetypeTableRecord
  2
ByBlock
 70
     0
  3

 72
    65
 73
     0
 40
0.0
  0
LTYPE
  5
15
330
5
100
AcDbSymbolTableRecord
100
AcDbLinetypeTableRecord
  2
ByLayer
 70
     0
  3

 72
    65
 73
     0
 40
0.0
  0
LTYPE
  5
16
330
5
100
AcDbSymbolTableRecord
100
AcDbLinetypeTableRecord
  2
Continuous
 70
     0
  3
Solid line
 72
    65
 73
     0
 40
0.0
  0
LTYPE
  5
6E
330
5
100
AcDbSymbolTableRecord
100
AcDbLinetypeTableRecord
  2
HIDDEN
 70
     0
  3
Hidden __ __ __ __ __ __ __ __ __ __ __ __ __ __
 72
    65
 73
     2
 40
1.905
 49
1.27
 74
     0
 49
-0.635
 74
     0
  0
LTYPE
  5
6F
330
5
100
AcDbSymbolTableRecord
100
AcDbLinetypeTableRecord
  2
PHANTOM
 70
     0
  3
Phantom ______  __  __  ______  __  __  ______
 72
    65
 73
     6
 40
12.7
 49
6.35
 74
     0
 49
-1.27
 74
     0
 49
1.27
 74
     0
 49
-1.27
 74
     0
 49
1.27
 74
     0
 49
-1.27
 74
     0
  0
LTYPE
  5
70
330
5
100
AcDbSymbolTableRecord
100
AcDbLinetypeTableRecord
  2
CENTER
 70
     0
  3
Center ____ _ ____ _ ____ _ ____ _ ____ _ ____
 72
    65
 73
     4
 40
10.16
 49
6.35
 74
     0
 49
-1.27
 74
     0
 49
1.27
 74
     0
 49
-1.27
 74
     0
  0
LTYPE
  5
71
330
5
100
AcDbSymbolTableRecord
100
AcDbLinetypeTableRecord
  2
CENTERX2
 70
     0
  3
Center (2x) ________  __  ________  __  _____
 72
    65
 73
     4
 40
20.32
 49
12.7
 74
     0
 49
-2.54
 74
     0
 49
2.54
 74
     0
 49
-2.54
 74
     0
  0
LTYPE
  5
72
330
5
100
AcDbSymbolTableRecord
100
AcDbLinetypeTableRecord
  2
DOT2
 70
     0
  3
Dot (.5x) ........................................
 72
    65
 73
     2
 40
0.635
 49
0.0
 74
     0
 49
-0.635
 74
     0
  0
ENDTAB
  0
TABLE
  2
LAYER
  5
2
330
0
100
AcDbSymbolTable
 70
     5
  0
LAYER
  5
10
330
2
100
AcDbSymbolTableRecord
100
AcDbLayerTableRecord
  2
0
 70
     0
 62
     7
  6
Continuous
370
    -3
390
F
  0
LAYER
  5
73
330
2
100
AcDbSymbolTableRecord
100
AcDbLayerTableRecord
  2
FORMAT
 70
     0
 62
     7
  6
Continuous
370
    -3
390
F
  0
LAYER
  5
74
330
2
100
AcDbSymbolTableRecord
100
AcDbLayerTableRecord
  2
VERMASSUNG
 70
     0
 62
     7
  6
Continuous
370
    -3
390
F
  0
LAYER
  5
75
330
2
100
AcDbSymbolTableRecord
100
AcDbLayerTableRecord
  2
KOPF_DÜNN
 70
     0
 62
     7
  6
Continuous
370
    -3
390
F
  0
LAYER
  5
76
330
2
100
AcDbSymbolTableRecord
100
AcDbLayerTableRecord
  2
KOPF_DICK
 70
     0
 62
     7
  6
Continuous
370
    25
390
F
  0
ENDTAB
  0
TABLE
  2
STYLE
  5
3
330
0
100
AcDbSymbolTable
 70
     3
  0
STYLE
  5
11
330
3
100
AcDbSymbolTableRecord
100
AcDbTextStyleTableRecord
  2
Standard
 70
     0
 40
0.0
 41
1.0
 50
0.0
 71
     0
 42
2.0
  3
txt
  4

  0
STYLE
  5
77
330
3
100
AcDbSymbolTableRecord
100
AcDbTextStyleTableRecord
  2
SLDTEXTSTYLE0
 70
     0
 40
0.0
 41
0.7
 50
0.0
 71
     0
 42
2.0
  3
TXT
  4

  0
STYLE
  5
7B
330
3
100
AcDbSymbolTableRecord
100
AcDbTextStyleTableRecord
  2
SLDTEXTSTYLE1
 70
     0
 40
0.0
 41
0.6444444444
 50
0.0
 71
     0
 42
2.0
  3
TXT
  4

  0
ENDTAB
  0
TABLE
  2
VIEW
  5
6
330
0
100
AcDbSymbolTable
 70
     0
  0
ENDTAB
  0
TABLE
  2
UCS
  5
7
330
0
100
AcDbSymbolTable
 70
     0
  0
ENDTAB
  0
TABLE
  2
APPID
  5
9
330
0
100
AcDbSymbolTable
 70
     1
  0
APPID
  5
12
330
9
100
AcDbSymbolTableRecord
100
AcDbRegAppTableRecord
  2
ACAD
 70
     0
  0
ENDTAB
  0
TABLE
  2
DIMSTYLE
  5
A
330
0
100
AcDbSymbolTable
 70
     2
100
AcDbDimStyleTable
  0
DIMSTYLE
105
27
330
A
100
AcDbSymbolTableRecord
100
AcDbDimStyleTableRecord
  2
ISO-25
 70
     0
 41
2.5
 42
0.625
 43
3.75
 44
1.25
 73
     0
 74
     0
 77
     1
 78
     8
140
2.5
141
2.5
143
0.0393700787
147
0.625
171
     3
172
     1
178
     0
271
     2
272
     2
274
     3
278
    44
283
     0
284
     8
340
11
  0
DIMSTYLE
105
123
102
{ACAD_REACTORS
330
122
330
12F
330
139
330
143
330
14D
330
159
330
164
102
}
330
A
100
AcDbSymbolTableRecord
100
AcDbDimStyleTableRecord
  2
SLDDIMSTYLE0
 70
     0
 41
3.0
 44
0.0
 45
0.000000001
 73
     0
 74
     0
 77
     1
 78
    12
 79
     3
140
2.0
147
0.5
173
     1
178
     0
271
     2
272
     3
276
     2
284
    12
340
77
  0
ENDTAB
  0
TABLE
  2
BLOCK_RECORD
  5
1
330
0
100
AcDbSymbolTable
 70
     8
  0
BLOCK_RECORD
  5
1F
330
1
100
AcDbSymbolTableRecord
100
AcDbBlockTableRecord
  2
*Model_Space
340
22
  0
BLOCK_RECORD
  5
1B
330
1
100
AcDbSymbolTableRecord
100
AcDbBlockTableRecord
  2
*Paper_Space
340
1E
  0
BLOCK_RECORD
  5
23
330
1
100
AcDbSymbolTableRecord
100
AcDbBlockTableRecord
  2
*Paper_Space0
340
26
  0
BLOCK_RECORD
  5
124
330
1
100
AcDbSymbolTableRecord
100
AcDbBlockTableRecord
  2
_D
340
0
  0
BLOCK_RECORD
  5
130
330
1
100
AcDbSymbolTableRecord
100
AcDbBlockTableRecord
  2
_D_1
340
0
  0
BLOCK_RECORD
  5
13A
330
1
100
AcDbSymbolTableRecord
100
AcDbBlockTableRecord
  2
_D_2
340
0
  0
BLOCK_RECORD
  5
144
330
1
100
AcDbSymbolTableRecord
100
AcDbBlockTableRecord
  2
_D_3
340
0
  0
BLOCK_RECORD
  5
14E
330
1
100
AcDbSymbolTableRecord
100
AcDbBlockTableRecord
  2
_D_4
340
0
  0
BLOCK_RECORD
  5
15A
330
1
100
AcDbSymbolTableRecord
100
AcDbBlockTableRecord
  2
_D_5
340
0
  0
BLOCK_RECORD
  5
165
330
1
100
AcDbSymbolTableRecord
100
AcDbBlockTableRecord
  2
_D_6
340
0
  0
ENDTAB
  0
ENDSEC
  0
SECTION
  2
BLOCKS
  0
BLOCK
  5
20
330
1F
100
AcDbEntity
  8
0
100
AcDbBlockBegin
  2
*Model_Space
 70
     0
 10
0.0
 20
0.0
 30
0.0
  3
*Model_Space
  1

  0
ENDBLK
  5
21
330
1F
100
AcDbEntity
  8
0
100
AcDbBlockEnd
  0
BLOCK
  5
1C
330
1B
100
AcDbEntity
 67
     1
  8
0
100
AcDbBlockBegin
  2
*Paper_Space
 70
     0
 10
0.0
 20
0.0
 30
0.0
  3
*Paper_Space
  1

  0
ENDBLK
  5
1D
330
1B
100
AcDbEntity
 67
     1
  8
0
100
AcDbBlockEnd
  0
BLOCK
  5
24
330
23
100
AcDbEntity
  8
0
100
AcDbBlockBegin
  2
*Paper_Space0
 70
     0
 10
0.0
 20
0.0
 30
0.0
  3
*Paper_Space0
  1

  0
ENDBLK
  5
25
330
23
100
AcDbEntity
  8
0
100
AcDbBlockEnd
  0
BLOCK
  5
125
330
124
100
AcDbEntity
  8
0
100
AcDbBlockBegin
  2
_D
 70
     0
 10
0.0
 20
0.0
 30
0.0
  3
_D
  1

  0
SOLID
  5
127
330
124
100
AcDbEntity
  8
VERMASSUNG
100
AcDbTrace
 10
60.6345995893
 20
143.9646406571
 30
0.0
 11
60.1845995893
 21
140.9646406571
 31
0.0
 12
61.0845995893
 22
140.9646406571
 32
0.0
 13
61.0845995893
 23
140.9646406571
 33
0.0
  0
SOLID
  5
128
330
124
100
AcDbEntity
  8
VERMASSUNG
100
AcDbTrace
 10
60.6345995893
 20
80.9646406571
 30
0.0
 11
61.0845995893
 21
83.9646406571
 31
0.0
 12
60.1845995893
 22
83.9646406571
 32
0.0
 13
60.1845995893
 23
83.9646406571
 33
0.0
  0
LINE
  5
129
330
124
100
AcDbEntity
  8
VERMASSUNG
100
AcDbLine
 10
172.0345954452
 20
143.9646406571
 30
0.0
 11
59.6345995893
 21
143.9646406571
 31
0.0
  0
LINE
  5
12A
330
124
100
AcDbEntity
  8
VERMASSUNG
100
AcDbLine
 10
172.0346003554
 20
80.9646406571
 30
0.0
 11
59.6345995893
 21
80.9646406571
 31
0.0
  0
LINE
  5
12B
330
124
100
AcDbEntity
  8
VERMASSUNG
100
AcDbLine
 10
60.6345995893
 20
143.9646406571
 30
0.0
 11
60.6345995893
 21
80.9646406571
 31
0.0
  0
MTEXT
  5
12C
330
124
100
AcDbEntity
  8
VERMASSUNG
100
AcDbMText
 10
57.8564643331
 20
101.7615429127
 30
0.0
 40
2.0
 41
0.0
 71
     1
 72
     1
  1
MAS BT 40
  7
SLDTEXTSTYLE0
 11
-7.044195017643634E-15
 21
1.0
 31
0.0
 73
     1
 44
1.0
  0
MTEXT
  5
12D
330
124
100
AcDbEntity
  8
VERMASSUNG
100
AcDbMText
 10
58.0564642844
 20
116.7615425774
 30
0.0
 40
2.0
 41
0.0
 71
     1
 72
     1
  1
%%c
  7
SLDTEXTSTYLE0
 11
-7.044195017643634E-15
 21
1.0
 31
0.0
 73
     1
 44
1.0
  0
MTEXT
  5
12E
330
124
100
AcDbEntity
  8
VERMASSUNG
100
AcDbMText
 10
58.0564639934
 20
120.3700241157
 30
0.0
 40
2.0
 41
0.0
 71
     1
 72
     1
  1
63
  7
SLDTEXTSTYLE0
 11
-7.044195017643634E-15
 21
1.0
 31
0.0
 73
     1
 44
1.0
  0
ENDBLK
  5
126
330
124
100
AcDbEntity
  8
0
100
AcDbBlockEnd
  0
BLOCK
  5
131
330
130
100
AcDbEntity
  8
0
100
AcDbBlockBegin
  2
_D_1
 70
     0
 10
0.0
 20
0.0
 30
0.0
  3
_D_1
  1

  0
SOLID
  5
133
330
130
100
AcDbEntity
  8
VERMASSUNG
100
AcDbTrace
 10
82.6345995893
 20
162.6236988661
 30
0.0
 11
85.6345995893
 21
162.1736988661
 31
0.0
 12
85.6345995893
 22
163.0736988661
 32
0.0
 13
85.6345995893
 23
163.0736988661
 33
0.0
  0
SOLID
  5
134
330
130
100
AcDbEntity
  8
VERMASSUNG
100
AcDbTrace
 10
205.0345995893
 20
162.6236988661
 30
0.0
 11
202.0345995893
 21
163.0736988661
 31
0.0
 12
202.0345995893
 22
162.1736988661
 32
0.0
 13
202.0345995893
 23
162.1736988661
 33
0.0
  0
LINE
  5
135
330
130
100
AcDbEntity
  8
VERMASSUNG
100
AcDbLine
 10
82.6345995893
 20
124.2873962541
 30
0.0
 11
82.6345995893
 21
163.6236988661
 31
0.0
  0
LINE
  5
136
330
130
100
AcDbEntity
  8
VERMASSUNG
100
AcDbLine
 10
205.0345995893
 20
133.0646406571
 30
0.0
 11
205.0345995893
 21
163.6236988661
 31
0.0
  0
LINE
  5
137
330
130
100
AcDbEntity
  8
VERMASSUNG
100
AcDbLine
 10
82.6345995893
 20
162.6236988661
 30
0.0
 11
205.0345995893
 21
162.6236988661
 31
0.0
  0
MTEXT
  5
138
330
130
100
AcDbEntity
  8
VERMASSUNG
100
AcDbMText
 10
140.8355695141
 20
165.201834462
 30
0.0
 40
2.0
 41
0.0
 71
     1
 72
     1
  1
122.4
  7
SLDTEXTSTYLE0
 73
     1
 44
1.0
  0
ENDBLK
  5
132
330
130
100
AcDbEntity
  8
0
100
AcDbBlockEnd
  0
BLOCK
  5
13B
330
13A
100
AcDbEntity
  8
0
100
AcDbBlockBegin
  2
_D_2
 70
     0
 10
0.0
 20
0.0
 30
0.0
  3
_D_2
  1

  0
SOLID
  5
13D
330
13A
100
AcDbEntity
  8
VERMASSUNG
100
AcDbTrace
 10
148.0345995893
 20
156.6236988661
 30
0.0
 11
151.0345995893
 21
156.1736988661
 31
0.0
 12
151.0345995893
 22
157.0736988661
 32
0.0
 13
151.0345995893
 23
157.0736988661
 33
0.0
  0
SOLID
  5
13E
330
13A
100
AcDbEntity
  8
VERMASSUNG
100
AcDbTrace
 10
205.0345995893
 20
156.6236988661
 30
0.0
 11
202.0345995893
 21
157.0736988661
 31
0.0
 12
202.0345995893
 22
156.1736988661
 32
0.0
 13
202.0345995893
 23
156.1736988661
 33
0.0
  0
LINE
  5
13F
330
13A
100
AcDbEntity
  8
VERMASSUNG
100
AcDbLine
 10
148.0345995893
 20
134.6896406571
 30
0.0
 11
148.0345995893
 21
157.6236988661
 31
0.0
  0
LINE
  5
140
330
13A
100
AcDbEntity
  8
VERMASSUNG
100
AcDbLine
 10
205.0345995893
 20
133.0646406571
 30
0.0
 11
205.0345995893
 21
157.6236988661
 31
0.0
  0
LINE
  5
141
330
13A
100
AcDbEntity
  8
VERMASSUNG
100
AcDbLine
 10
148.0345995893
 20
156.6236988661
 30
0.0
 11
205.0345995893
 21
156.6236988661
 31
0.0
  0
MTEXT
  5
142
330
13A
100
AcDbEntity
  8
VERMASSUNG
100
AcDbMText
 10
175.1357424465
 20
159.201834462
 30
0.0
 40
2.0
 41
0.0
 71
     1
 72
     1
  1
57
  7
SLDTEXTSTYLE0
 73
     1
 44
1.0
  0
ENDBLK
  5
13C
330
13A
100
AcDbEntity
  8
0
100
AcDbBlockEnd
  0
BLOCK
  5
145
330
144
100
AcDbEntity
  8
0
100
AcDbBlockBegin
  2
_D_3
 70
     0
 10
0.0
 20
0.0
 30
0.0
  3
_D_3
  1

  0
SOLID
  5
147
330
144
100
AcDbEntity
  8
VERMASSUNG
100
AcDbTrace
 10
175.0345995893
 20
150.6236988661
 30
0.0
 11
178.0345995893
 21
150.1736988661
 31
0.0
 12
178.0345995893
 22
151.0736988661
 32
0.0
 13
178.0345995893
 23
151.0736988661
 33
0.0
  0
SOLID
  5
148
330
144
100
AcDbEntity
  8
VERMASSUNG
100
AcDbTrace
 10
205.0345995893
 20
150.6236988661
 30
0.0
 11
202.0345995893
 21
151.0736988661
 31
0.0
 12
202.0345995893
 22
150.1736988661
 32
0.0
 13
202.0345995893
 23
150.1736988661
 33
0.0
  0
LINE
  5
149
330
144
100
AcDbEntity
  8
VERMASSUNG
100
AcDbLine
 10
175.0345995893
 20
142.9646406571
 30
0.0
 11
175.0345995893
 21
151.6236988661
 31
0.0
  0
LINE
  5
14A
330
144
100
AcDbEntity
  8
VERMASSUNG
100
AcDbLine
 10
205.0345995893
 20
133.0646406571
 30
0.0
 11
205.0345995893
 21
151.6236988661
 31
0.0
  0
LINE
  5
14B
330
144
100
AcDbEntity
  8
VERMASSUNG
100
AcDbLine
 10
175.0345995893
 20
150.6236988661
 30
0.0
 11
205.0345995893
 21
150.6236988661
 31
0.0
  0
MTEXT
  5
14C
330
144
100
AcDbEntity
  8
VERMASSUNG
100
AcDbMText
 10
188.6357424465
 20
153.201834462
 30
0.0
 40
2.0
 41
0.0
 71
     1
 72
     1
  1
30
  7
SLDTEXTSTYLE0
 73
     1
 44
1.0
  0
ENDBLK
  5
146
330
144
100
AcDbEntity
  8
0
100
AcDbBlockEnd
  0
BLOCK
  5
14F
330
14E
100
AcDbEntity
  8
0
100
AcDbBlockBegin
  2
_D_4
 70
     0
 10
0.0
 20
0.0
 30
0.0
  3
_D_4
  1

  0
SOLID
  5
151
330
14E
100
AcDbEntity
  8
VERMASSUNG
100
AcDbTrace
 10
216.757096593
 20
133.4646406571
 30
0.0
 11
216.307096593
 21
130.4646406571
 31
0.0
 12
217.207096593
 22
130.4646406571
 32
0.0
 13
217.207096593
 23
130.4646406571
 33
0.0
  0
SOLID
  5
152
330
14E
100
AcDbEntity
  8
VERMASSUNG
100
AcDbTrace
 10
216.757096593
 20
91.4646406571
 30
0.0
 11
217.207096593
 21
94.4646406571
 31
0.0
 12
216.307096593
 22
94.4646406571
 32
0.0
 13
216.307096593
 23
94.4646406571
 33
0.0
  0
LINE
  5
153
330
14E
100
AcDbEntity
  8
VERMASSUNG
100
AcDbLine
 10
204.6345995893
 20
133.4646406571
 30
0.0
 11
217.757096593
 21
133.4646406571
 31
0.0
  0
LINE
  5
154
330
14E
100
AcDbEntity
  8
VERMASSUNG
100
AcDbLine
 10
204.6345995893
 20
91.4646406571
 30
0.0
 11
217.757096593
 21
91.4646406571
 31
0.0
  0
LINE
  5
155
330
14E
100
AcDbEntity
  8
VERMASSUNG
100
AcDbLine
 10
216.757096593
 20
133.4646406571
 30
0.0
 11
216.757096593
 21
91.4646406571
 31
0.0
  0
MTEXT
  5
156
330
14E
100
AcDbEntity
  8
VERMASSUNG
100
AcDbMText
 10
213.9789613368
 20
105.9596411834
 30
0.0
 40
2.0
 41
0.0
 71
     1
 72
     1
  1
MBM
  7
SLDTEXTSTYLE0
 11
-7.044195017643634E-15
 21
1.0
 31
0.0
 73
     1
 44
1.0
  0
MTEXT
  5
157
330
14E
100
AcDbEntity
  8
VERMASSUNG
100
AcDbMText
 10
214.1789612881
 20
112.3596410217
 30
0.0
 40
2.0
 41
0.0
 71
     1
 72
     1
  1
%%c
  7
SLDTEXTSTYLE0
 11
-7.044195017643634E-15
 21
1.0
 31
0.0
 73
     1
 44
1.0
  0
MTEXT
  5
158
330
14E
100
AcDbEntity
  8
VERMASSUNG
100
AcDbMText
 10
213.9789613368
 20
115.9696415017
 30
0.0
 40
2.0
 41
0.0
 71
     1
 72
     1
  1
42
  7
SLDTEXTSTYLE0
 11
-7.044195017643634E-15
 21
1.0
 31
0.0
 73
     1
 44
1.0
  0
ENDBLK
  5
150
330
14E
100
AcDbEntity
  8
0
100
AcDbBlockEnd
  0
BLOCK
  5
15B
330
15A
100
AcDbEntity
  8
0
100
AcDbBlockBegin
  2
_D_5
 70
     0
 10
0.0
 20
0.0
 30
0.0
  3
_D_5
  1

  0
SOLID
  5
15D
330
15A
100
AcDbEntity
  8
VERMASSUNG
100
AcDbTrace
 10
74.154161764
 20
120.9646406571
 30
0.0
 11
73.704161764
 21
117.9646406571
 31
0.0
 12
74.604161764
 22
117.9646406571
 32
0.0
 13
74.604161764
 23
117.9646406571
 33
0.0
  0
SOLID
  5
15E
330
15A
100
AcDbEntity
  8
VERMASSUNG
100
AcDbTrace
 10
74.154161764
 20
103.9646406571
 30
0.0
 11
74.604161764
 21
106.9646406571
 31
0.0
 12
73.704161764
 22
106.9646406571
 32
0.0
 13
73.704161764
 23
106.9646406571
 33
0.0
  0
LINE
  5
15F
330
15A
100
AcDbEntity
  8
VERMASSUNG
100
AcDbLine
 10
83.4345995893
 20
120.9646406571
 30
0.0
 11
73.154161764
 21
120.9646406571
 31
0.0
  0
LINE
  5
160
330
15A
100
AcDbEntity
  8
VERMASSUNG
100
AcDbLine
 10
83.4345995893
 20
103.9646406571
 30
0.0
 11
73.154161764
 21
103.9646406571
 31
0.0
  0
LINE
  5
161
330
15A
100
AcDbEntity
  8
VERMASSUNG
100
AcDbLine
 10
74.154161764
 20
120.9646406571
 30
0.0
 11
74.154161764
 21
103.9646406571
 31
0.0
  0
MTEXT
  5
162
330
15A
100
AcDbEntity
  8
VERMASSUNG
100
AcDbMText
 10
71.5760261681
 20
110.364640732
 30
0.0
 40
2.0
 41
0.0
 71
     1
 72
     1
  1
M
  7
SLDTEXTSTYLE0
 11
-7.044195017643634E-15
 21
1.0
 31
0.0
 73
     1
 44
1.0
  0
MTEXT
  5
163
330
15A
100
AcDbEntity
  8
VERMASSUNG
100
AcDbMText
 10
71.5760261681
 20
112.164640701
 30
0.0
 40
2.0
 41
0.0
 71
     1
 72
     1
  1
16
  7
SLDTEXTSTYLE0
 11
-7.044195017643634E-15
 21
1.0
 31
0.0
 73
     1
 44
1.0
  0
ENDBLK
  5
15C
330
15A
100
AcDbEntity
  8
0
100
AcDbBlockEnd
  0
BLOCK
  5
166
330
165
100
AcDbEntity
  8
0
100
AcDbBlockBegin
  2
_D_6
 70
     0
 10
0.0
 20
0.0
 30
0.0
  3
_D_6
  1

  0
SOLID
  5
168
330
165
100
AcDbEntity
  8
VERMASSUNG
100
AcDbTrace
 10
67.9265458685
 20
134.6896406571
 30
0.0
 11
67.4765458685
 21
131.6896406571
 31
0.0
 12
68.3765458685
 22
131.6896406571
 32
0.0
 13
68.3765458685
 23
131.6896406571
 33
0.0
  0
SOLID
  5
169
330
165
100
AcDbEntity
  8
VERMASSUNG
100
AcDbTrace
 10
67.9265458685
 20
90.2396406571
 30
0.0
 11
68.3765458685
 21
93.2396406571
 31
0.0
 12
67.4765458685
 22
93.2396406571
 32
0.0
 13
67.4765458685
 23
93.2396406571
 33
0.0
  0
LINE
  5
16A
330
165
100
AcDbEntity
  8
VERMASSUNG
100
AcDbLine
 10
148.0345995893
 20
134.6896406571
 30
0.0
 11
66.9265458685
 21
134.6896406571
 31
0.0
  0
LINE
  5
16B
330
165
100
AcDbEntity
  8
VERMASSUNG
100
AcDbLine
 10
148.0345995893
 20
90.2396406571
 30
0.0
 11
66.9265458685
 21
90.2396406571
 31
0.0
  0
LINE
  5
16C
330
165
100
AcDbEntity
  8
VERMASSUNG
100
AcDbLine
 10
67.9265458685
 20
134.6896406571
 30
0.0
 11
67.9265458685
 21
90.2396406571
 31
0.0
  0
MTEXT
  5
16D
330
165
100
AcDbEntity
  8
VERMASSUNG
100
AcDbMText
 10
65.3484105636
 20
107.2596408377
 30
0.0
 40
2.0
 41
0.0
 71
     1
 72
     1
  1
%%c
  7
SLDTEXTSTYLE0
 11
-7.044195017643634E-15
 21
1.0
 31
0.0
 73
     1
 44
1.0
  0
MTEXT
  5
16E
330
165
100
AcDbEntity
  8
VERMASSUNG
100
AcDbMText
 10
65.1484106123
 20
110.869640852
 30
0.0
 40
2.0
 41
0.0
 71
     1
 72
     1
  1
44.45
  7
SLDTEXTSTYLE0
 11
-7.044195017643634E-15
 21
1.0
 31
0.0
 73
     1
 44
1.0
  0
ENDBLK
  5
167
330
165
100
AcDbEntity
  8
0
100
AcDbBlockEnd
  0
ENDSEC
  0
SECTION
  2
ENTITIES
  0
MTEXT
  5
78
330
1F
100
AcDbEntity
  8
KOPF_DÜNN
100
AcDbMText
 10
13.8892156294
 20
23.8442973028
 30
0.0
 40
3.0
 41
0.0
 71
     1
 72
     1
  1
102.412.421
  7
SLDTEXTSTYLE0
 73
     1
 44
1.0
  0
MTEXT
  5
79
330
1F
100
AcDbEntity
  8
VERMASSUNG
100
AcDbMText
 10
13.9329988022
 20
28.8834360957
 30
0.0
 40
3.0
 41
0.0
 71
     1
 72
     1
  1
Aufnahme_Master shank MBM 42
  7
SLDTEXTSTYLE0
 73
     1
 44
1.0
  0
MTEXT
  5
7A
330
1F
100
AcDbEntity
  8
VERMASSUNG
100
AcDbMText
 10
98.8601118557
 20
13.8365368761
 30
0.0
 40
2.0
 41
0.0
 71
     1
 72
     1
  1
Datum: 22.11.2007
  7
SLDTEXTSTYLE0
 73
     1
 44
1.0
  0
MTEXT
  5
7C
330
1F
100
AcDbEntity
  8
VERMASSUNG
100
AcDbMText
 10
13.933048693
 20
18.0482802738
 30
0.0
 40
2.0
 41
0.0
 71
     1
 72
     1
  1
MAS BT 40 / MBM 42
  7
SLDTEXTSTYLE1
 73
     1
 44
1.0
  0
MTEXT
  5
7D
330
1F
100
AcDbEntity
  8
VERMASSUNG
100
AcDbMText
 10
13.9808475933
 20
13.9090974274
 30
0.0
 40
2.0
 41
0.0
 71
     1
 72
     1
  1
Gewicht: 1200g
  7
SLDTEXTSTYLE0
 73
     1
 44
1.0
  0
LINE
  5
7E
330
1F
100
AcDbEntity
  8
0
  6
Continuous
 62
     7
370
    25
100
AcDbLine
 10
172.0346020307
 20
80.9646406571
 30
0.0
 11
174.0345995893
 21
80.9646406571
 31
0.0
  0
LINE
  5
7F
330
1F
100
AcDbEntity
  8
0
  6
Continuous
 62
     7
370
    25
100
AcDbLine
 10
174.0345995893
 20
143.9646406571
 30
0.0
 11
172.0340994193
 21
143.9646406571
 31
0.0
  0
ARC
  5
80
330
1F
100
AcDbEntity
  8
0
  6
Continuous
 62
     7
370
    25
100
AcDbCircle
 10
174.0345995893
 20
81.9646406571
 30
0.0
 40
1.0
100
AcDbArc
 50
270.0
 51
0.0
  0
ARC
  5
81
330
1F
100
AcDbEntity
  8
0
  6
Continuous
 62
     7
370
    25
100
AcDbCircle
 10
174.0345995893
 20
142.9646406571
 30
0.0
 40
1.0
100
AcDbArc
 50
0.0
 51
90.0
  0
ARC
  5
82
330
1F
100
AcDbEntity
  8
0
  6
Continuous
 62
     7
370
    25
100
AcDbCircle
 10
179.0345995893
 20
87.4646406571
 30
0.0
 40
4.000000000000028
100
AcDbArc
 50
90.0
 51
180.0
  0
ARC
  5
83
330
1F
100
AcDbEntity
  8
0
  6
Continuous
 62
     7
370
    25
100
AcDbCircle
 10
179.0345995893
 20
137.4646406571
 30
0.0
 40
4.000000000000028
100
AcDbArc
 50
180.0
 51
270.0
  0
ARC
  5
84
330
1F
100
AcDbEntity
  8
0
  6
Continuous
 62
     7
370
    25
100
AcDbCircle
 10
149.0345995893
 20
89.2396406571
 30
0.0
 40
1.000000000000014
100
AcDbArc
 50
46.4330517005
 51
90.0
  0
ARC
  5
85
330
1F
100
AcDbEntity
  8
0
  6
Continuous
 62
     7
370
    25
100
AcDbCircle
 10
149.0345995893
 20
135.6896406571
 30
0.0
 40
1.0
100
AcDbArc
 50
270.0
 51
313.5375489125
  0
LINE
  5
86
330
1F
100
AcDbEntity
  8
0
  6
Continuous
 62
     7
370
    25
100
AcDbLine
 10
148.0345995893
 20
134.6896406571
 30
0.0
 11
83.4902926963
 21
125.2769292352
 31
0.0
  0
LINE
  5
87
330
1F
100
AcDbEntity
  8
0
  6
Continuous
 62
     7
370
    25
100
AcDbLine
 10
83.4902926963
 20
99.652352079
 30
0.0
 11
148.0345995893
 21
90.2396406571
 31
0.0
  0
LINE
  5
88
330
1F
100
AcDbEntity
  8
0
  6
Continuous
 62
     7
370
    25
100
AcDbLine
 10
148.0345995893
 20
90.2396406571
 30
0.0
 11
149.0345995893
 21
90.2396406571
 31
0.0
  0
LINE
  5
89
330
1F
100
AcDbEntity
  8
0
  6
Continuous
 62
     7
370
    25
100
AcDbLine
 10
149.0345995893
 20
134.6896406571
 30
0.0
 11
148.0345995893
 21
134.6896406571
 31
0.0
  0
LINE
  5
8A
330
1F
100
AcDbEntity
  8
0
  6
Continuous
 62
     7
370
    25
100
AcDbLine
 10
179.0345995893
 20
91.4646406571
 30
0.0
 11
204.6345995893
 21
91.4646406571
 31
0.0
  0
LINE
  5
8B
330
1F
100
AcDbEntity
  8
0
  6
Continuous
 62
     7
370
    25
100
AcDbLine
 10
204.6345995893
 20
133.4646406571
 30
0.0
 11
179.0345995893
 21
133.4646406571
 31
0.0
  0
LINE
  5
8C
330
1F
100
AcDbEntity
  8
0
  6
Continuous
 62
     7
370
    25
100
AcDbLine
 10
204.6345995893
 20
91.4646406571
 30
0.0
 11
205.0345995893
 21
91.8646406571
 31
0.0
  0
LINE
  5
8D
330
1F
100
AcDbEntity
  8
0
  6
Continuous
 62
     7
370
    25
100
AcDbLine
 10
205.0345995893
 20
133.0646406571
 30
0.0
 11
204.6345995893
 21
133.4646406571
 31
0.0
  0
ARC
  5
8E
330
1F
100
AcDbEntity
  8
0
  6
Continuous
 62
     7
370
    25
100
AcDbCircle
 10
83.6345995893
 20
100.6418850601
 30
0.0
 40
1.000000000000008
100
AcDbArc
 50
180.0
 51
261.7028550302
  0
ARC
  5
8F
330
1F
100
AcDbEntity
  8
0
  6
Continuous
 62
     7
370
    25
100
AcDbCircle
 10
83.6345995893
 20
124.2873962541
 30
0.0
 40
1.000000000000008
100
AcDbArc
 50
98.2971449698
 51
180.0
  0
SPLINE
  5
90
330
1F
100
AcDbEntity
  8
0
  6
Continuous
 62
     7
370
    25
100
AcDbSpline
210
0.0
220
0.0
230
1.0
 70
     8
 71
     3
 72
    10
 73
     6
 74
     0
 42
0.000000001
 43
0.00000001
 40
0.0
 40
0.0
 40
0.0
 40
0.0
 40
0.5
 40
0.5
 40
1.0
 40
1.0
 40
1.0
 40
1.0
 10
169.0112079933679
 20
142.3691013784383
 30
0.0
 10
168.6951041622284
 20
141.7492388201612
 30
0.0
 10
168.3653251178836
 20
141.1033380848623
 30
0.0
 10
167.6931018454948
 20
139.7889194445618
 30
0.0
 10
167.3509686795642
 20
139.1209972175495
 30
0.0
 10
167.0037883510501
 20
138.4446594850681
 30
0.0
  0
SPLINE
  5
91
330
1F
100
AcDbEntity
  8
0
  6
Continuous
 62
     7
370
    25
100
AcDbSpline
210
0.0
220
0.0
230
1.0
 70
     8
 71
     3
 72
     9
 73
     5
 74
     0
 42
0.000000001
 43
0.00000001
 40
0.0
 40
0.0
 40
0.0
 40
0.0
 40
0.5067595796306674
 40
1.0
 40
1.0
 40
1.0
 40
1.0
 10
169.6602301323069
 20
143.3267757644332
 30
0.0
 10
169.5498297845249
 20
143.1647008261013
 30
0.0
 10
169.3319743117928
 20
142.8448747293752
 30
0.0
 10
169.1173812095786
 20
142.5265267497249
 30
0.0
 10
169.0115352176342
 20
142.3695046584185
 30
0.0
  0
LINE
  5
92
330
1F
100
AcDbEntity
  8
0
  6
Continuous
 62
     7
370
    25
100
AcDbLine
 10
169.6595995893
 20
81.6035426375
 30
0.0
 11
169.6595995893
 21
143.3257224116
 31
0.0
  0
SPLINE
  5
93
330
1F
100
AcDbEntity
  8
0
  6
Continuous
 62
     7
370
    25
100
AcDbSpline
210
0.0
220
0.0
230
1.0
 70
     8
 71
     3
 72
     9
 73
     5
 74
     0
 42
0.000000001
 43
0.00000001
 40
0.0
 40
0.0
 40
0.0
 40
0.0
 40
0.4932426507672939
 40
1.0
 40
1.0
 40
1.0
 40
1.0
 10
169.0115213026114
 20
82.55977455537943
 30
0.0
 10
169.117367407737
 20
82.40275131555204
 30
0.0
 10
169.3319597690444
 20
82.08440244693104
 30
0.0
 10
169.5498140570104
 20
81.76457640021484
 30
0.0
 10
169.660213318499
 20
81.60250220056537
 30
0.0
  0
SPLINE
  5
94
330
1F
100
AcDbEntity
  8
0
  6
Continuous
 62
     7
370
    25
100
AcDbSpline
210
0.0
220
0.0
230
1.0
 70
     8
 71
     3
 72
    10
 73
     6
 74
     0
 42
0.000000001
 43
0.00000001
 40
0.0
 40
0.0
 40
0.0
 40
0.0
 40
0.5
 40
0.5
 40
1.0
 40
1.0
 40
1.0
 40
1.0
 10
169.0112020737001
 20
82.56019154387918
 30
0.0
 10
168.695022971026
 20
83.1802016958929
 30
0.0
 10
168.3645807438589
 20
83.8273997617606
 30
0.0
 10
167.6928692231762
 20
85.14081568635437
 30
0.0
 10
167.3508953481443
 20
85.80842695265717
 30
0.0
 10
167.0037883510501
 20
86.48462182910033
 30
0.0
  0
SPLINE
  5
95
330
1F
100
AcDbEntity
  8
0
  6
Continuous
 62
     7
370
    25
100
AcDbSpline
210
0.0
220
0.0
230
1.0
 70
     8
 71
     3
 72
    11
 73
     7
 74
     0
 42
0.000000001
 43
0.00000001
 40
0.0
 40
0.0
 40
0.0
 40
0.0
 40
0.2488814606694497
 40
0.5011921284373979
 40
0.7520447562609068
 40
1.0
 40
1.0
 40
1.0
 40
1.0
 10
172.0340994193054
 20
143.9644909116777
 30
0.0
 10
172.0043210898189
 20
143.9553588855333
 30
0.0
 10
171.944354130864
 20
143.9369690078464
 30
0.0
 10
171.4524320690705
 20
143.7929317593602
 30
0.0
 10
170.7243626464297
 20
143.5835286812502
 30
0.0
 10
170.0136191752651
 20
143.4113244118999
 30
0.0
 10
169.6603116581313
 20
143.3257224115827
 30
0.0
  0
SPLINE
  5
96
330
1F
100
AcDbEntity
  8
0
  6
Continuous
 62
     7
370
    25
100
AcDbSpline
210
0.0
220
0.0
230
1.0
 70
     8
 71
     3
 72
    24
 73
    20
 74
     0
 42
0.000000001
 43
0.00000001
 40
0.0
 40
0.0
 40
0.0
 40
0.0
 40
0.045211711927922
 40
0.090298072143232
 40
0.1353072802358544
 40
0.180287783795067
 40
0.2252881230979208
 40
0.270356774307319
 40
0.3155419937014444
 40
0.3608916654177558
 40
0.4064531550647804
 40
0.4522731713421789
 40
0.4983976375274475
 40
0.5831115360947363
 40
0.6669838833917007
 40
0.7503083784781703
 40
0.8333845310681489
 40
0.916514535170443
 40
0.9999999999999999
 40
0.9999999999999999
 40
0.9999999999999999
 40
0.9999999999999999
 10
169.66021828274
 20
81.60354263754873
 30
0.0
 10
169.7279220246501
 20
81.58778359652888
 30
0.0
 10
169.8631417964895
 20
81.55630920721167
 30
0.0
 10
170.0558035133453
 20
81.50984840386789
 30
0.0
 10
170.2405403850073
 20
81.46421742423263
 30
0.0
 10
170.4166583263076
 20
81.41959212679767
 30
0.0
 10
170.5843421189238
 20
81.37610484019842
 30
0.0
 10
170.743541603216
 20
81.33390379240119
 30
0.0
 10
170.8942697416934
 20
81.29313720009091
 30
0.0
 10
171.0365226951262
 20
81.2539574474854
 30
0.0
 10
171.1703014501917
 20
81.21652015568608
 30
0.0
 10
171.295605361131
 20
81.1809835717172
 30
0.0
 10
171.4447124131439
 20
81.13826479634395
 30
0.0
 10
171.6055702270108
 20
81.09172914722427
 30
0.0
 10
171.761582758069
 20
81.04604322554867
 30
0.0
 10
171.8832374728358
 20
81.01000327463773
 30
0.0
 10
171.9696848184839
 20
80.98412949516054
 30
0.0
 10
172.0240220821486
 20
80.96771761750809
 30
0.0
 10
172.0310687281866
 20
80.96566777316005
 30
0.0
 10
172.0345995679324
 20
80.96464066439687
 30
0.0
  0
LINE
  5
97
330
1F
100
AcDbEntity
  8
0
  6
Continuous
 62
     7
370
    25
100
AcDbLine
 10
175.0345995893
 20
81.9646406571
 30
0.0
 11
175.0345995893
 21
142.9646406507
 31
0.0
  0
LINE
  5
98
330
1F
100
AcDbEntity
  8
0
  6
Continuous
 62
     7
370
    25
100
AcDbLine
 10
150.0345995893
 20
83.3382351116
 30
0.0
 11
150.0345995893
 21
141.5910462026
 31
0.0
  0
SPLINE
  5
99
330
1F
100
AcDbEntity
  8
0
  6
Continuous
 62
     7
370
    25
100
AcDbSpline
210
0.0
220
0.0
230
1.0
 70
     8
 71
     3
 72
    12
 73
     8
 74
     0
 42
0.000000001
 43
0.00000001
 40
0.0
 40
0.0
 40
0.0
 40
0.0
 40
0.2499999999999997
 40
0.2499999999999997
 40
0.4999999999999993
 40
0.4999999999999993
 40
1.0
 40
1.0
 40
1.0
 40
1.0
 10
150.4216324122879
 20
142.5316305569052
 30
0.0
 10
150.3697716610998
 20
142.4748179845907
 30
0.0
 10
150.3210398640809
 20
142.412825798339
 30
0.0
 10
150.2308668541635
 20
142.2767727252149
 30
0.0
 10
150.1890896058785
 20
142.2018666226162
 30
0.0
 10
150.0830007360326
 20
141.9637399873188
 30
0.0
 10
150.0345995893224
 20
141.78033325575
 30
0.0
 10
150.0345995893224
 20
141.5910462025682
 30
0.0
  0
SPLINE
  5
9A
330
1F
100
AcDbEntity
  8
0
  6
Continuous
 62
     7
370
    25
100
AcDbSpline
210
0.0
220
0.0
230
1.0
 70
     8
 71
     3
 72
     8
 73
     4
 74
     0
 42
0.000000001
 43
0.00000001
 40
0.0
 40
0.0
 40
0.0
 40
0.0
 40
1.0
 40
1.0
 40
1.0
 40
1.0
 10
151.0345995893224
 20
142.701030760086
 30
0.0
 10
150.8082552757225
 20
142.701030760086
 30
0.0
 10
150.5908031553174
 20
142.6376622910651
 30
0.0
 10
150.4216324122879
 20
142.5316305569052
 30
0.0
  0
SPLINE
  5
9B
330
1F
100
AcDbEntity
  8
0
  6
Continuous
 62
     7
370
    25
100
AcDbSpline
210
0.0
220
0.0
230
1.0
 70
     8
 71
     3
 72
     8
 73
     4
 74
     0
 42
0.000000001
 43
0.00000001
 40
0.0
 40
0.0
 40
0.0
 40
0.0
 40
1.0
 40
1.0
 40
1.0
 40
1.0
 10
150.4216324122879
 20
82.39765075726325
 30
0.0
 10
150.5912259179399
 20
82.29135404670605
 30
0.0
 10
150.8075946102731
 20
82.22825055408236
 30
0.0
 10
151.0345995893224
 20
82.22825055408236
 30
0.0
  0
SPLINE
  5
9C
330
1F
100
AcDbEntity
  8
0
  6
Continuous
 62
     7
370
    25
100
AcDbSpline
210
0.0
220
0.0
230
1.0
 70
     8
 71
     3
 72
    12
 73
     8
 74
     0
 42
0.000000001
 43
0.00000001
 40
0.0
 40
0.0
 40
0.0
 40
0.0
 40
0.2500000000000004
 40
0.2500000000000004
 40
0.5000000000000009
 40
0.5000000000000009
 40
1.0
 40
1.0
 40
1.0
 40
1.0
 10
150.4216324122879
 20
82.39765075726324
 30
0.0
 10
150.3697716610998
 20
82.45446332957764
 30
0.0
 10
150.3210398640809
 20
82.51645551582945
 30
0.0
 10
150.2308668541635
 20
82.65250858895345
 30
0.0
 10
150.1890896058785
 20
82.72741469155217
 30
0.0
 10
150.0830007360326
 20
82.96554132684957
 30
0.0
 10
150.0345995893224
 20
83.14894805841836
 30
0.0
 10
150.0345995893224
 20
83.33823511160021
 30
0.0
  0
SPLINE
  5
9D
330
1F
100
AcDbEntity
  8
0
  6
Continuous
 62
     7
370
    25
100
AcDbSpline
210
0.0
220
0.0
230
1.0
 70
     8
 71
     3
 72
     8
 73
     4
 74
     0
 42
0.000000001
 43
0.00000001
 40
0.0
 40
0.0
 40
0.0
 40
0.0
 40
0.0012389803509652
 40
0.0012389803509652
 40
0.0012389803509652
 40
0.0012389803509652
 10
160.1671611328561
 20
141.9186633798706
 30
0.0
 10
159.9820411597233
 20
142.1797133612497
 30
0.0
 10
159.7961627119644
 20
142.4404949743687
 30
0.0
 10
159.6095995893224
 20
142.701030760086
 30
0.0
  0
SPLINE
  5
9E
330
1F
100
AcDbEntity
  8
0
  6
Continuous
 62
     7
370
    25
100
AcDbSpline
210
0.0
220
0.0
230
1.0
 70
     8
 71
     3
 72
     8
 73
     4
 74
     0
 42
0.000000001
 43
0.00000001
 40
0.0
 40
0.0
 40
0.0
 40
0.0
 40
1.0
 40
1.0
 40
1.0
 40
1.0
 10
162.2654108275946
 20
138.1318863215492
 30
0.0
 10
161.5691174615531
 20
139.395824689664
 30
0.0
 10
160.869322296362
 20
140.6578801351722
 30
0.0
 10
160.1671611328561
 20
141.9186633798706
 30
0.0
  0
SPLINE
  5
9F
330
1F
100
AcDbEntity
  8
0
  6
Continuous
 62
     7
370
    25
100
AcDbSpline
210
0.0
220
0.0
230
1.0
 70
     8
 71
     3
 72
     8
 73
     4
 74
     0
 42
0.000000001
 43
0.00000001
 40
0.0
 40
0.0
 40
0.0
 40
0.0
 40
1.0
 40
1.0
 40
1.0
 40
1.0
 10
162.2654108275946
 20
86.79739499261915
 30
0.0
 10
161.5690926869367
 20
85.53341165267237
 30
0.0
 10
160.8692954948262
 20
84.27135305482041
 30
0.0
 10
160.1671611328561
 20
83.01061793429773
 30
0.0
  0
SPLINE
  5
A0
330
1F
100
AcDbEntity
  8
0
  6
Continuous
 62
     7
370
    25
100
AcDbSpline
210
0.0
220
0.0
230
1.0
 70
     8
 71
     3
 72
     8
 73
     4
 74
     0
 42
0.000000001
 43
0.00000001
 40
0.0
 40
0.0
 40
0.0
 40
0.0
 40
0.0012389803509652
 40
0.0012389803509652
 40
0.0012389803509652
 40
0.0012389803509652
 10
159.6095995893224
 20
82.22825055408236
 30
0.0
 10
159.7961627119644
 20
82.48878633979973
 30
0.0
 10
159.9820411597233
 20
82.74956795291872
 30
0.0
 10
160.1671611328561
 20
83.01061793429773
 30
0.0
  0
LINE
  5
A1
330
1F
100
AcDbEntity
  8
0
  6
Continuous
 62
     7
370
    25
100
AcDbLine
 10
159.6095995893
 20
82.2282505541
 30
0.0
 11
159.6095995893
 21
142.7010307601
 31
0.0
  0
LINE
  5
A2
330
1F
100
AcDbEntity
  8
0
  6
Continuous
 62
     7
370
    25
100
AcDbLine
 10
159.6095995893
 20
142.7010307601
 30
0.0
 11
151.0345995893
 21
142.7010307601
 31
0.0
  0
LINE
  5
A3
330
1F
100
AcDbEntity
  8
0
  6
Continuous
 62
     7
370
    25
100
AcDbLine
 10
151.0345995893
 20
82.2282505541
 30
0.0
 11
159.6095995893
 21
82.2282505541
 31
0.0
  0
SPLINE
  5
A4
330
1F
100
AcDbEntity
  8
0
  6
Continuous
 62
     7
370
    25
100
AcDbSpline
210
0.0
220
0.0
230
1.0
 70
     8
 71
     3
 72
    12
 73
     8
 74
     0
 42
0.000000001
 43
0.00000001
 40
0.0
 40
0.0
 40
0.0
 40
0.0
 40
0.2499999999999998
 40
0.2499999999999998
 40
0.4999999999999996
 40
0.4999999999999996
 40
1.0
 40
1.0
 40
1.0
 40
1.0
 10
167.0037883510501
 20
138.4446594850681
 30
0.0
 10
166.9678842007136
 20
138.3747150509199
 30
0.0
 10
166.925352648584
 20
138.3114636878621
 30
0.0
 10
166.8285583717441
 20
138.1964050329462
 30
0.0
 10
166.7734686934797
 20
138.1440764992342
 30
0.0
 10
166.5953354599258
 20
138.0102915961491
 30
0.0
 10
166.4579583679232
 20
137.9497438289909
 30
0.0
 10
166.3109680280233
 20
137.930543880607
 30
0.0
  0
SPLINE
  5
A5
330
1F
100
AcDbEntity
  8
0
  6
Continuous
 62
     7
370
    25
100
AcDbSpline
210
0.0
220
0.0
230
1.0
 70
     8
 71
     3
 72
    12
 73
     8
 74
     0
 42
0.000000001
 43
0.00000001
 40
0.0
 40
0.0
 40
0.0
 40
0.0
 40
0.2500000000000005
 40
0.2500000000000005
 40
0.500000000000001
 40
0.500000000000001
 40
1.0
 40
1.0
 40
1.0
 40
1.0
 10
167.0037883510501
 20
86.48462182910032
 30
0.0
 10
166.9678842007135
 20
86.55456626324847
 30
0.0
 10
166.925352648584
 20
86.6178176263063
 30
0.0
 10
166.8285583717441
 20
86.73287628122226
 30
0.0
 10
166.7734686934797
 20
86.7852048149342
 30
0.0
 10
166.5953354599258
 20
86.9189897180193
 30
0.0
 10
166.4579583679232
 20
86.97953748517746
 30
0.0
 10
166.3109680280233
 20
86.99873743356135
 30
0.0
  0
SPLINE
  5
A6
330
1F
100
AcDbEntity
  8
0
  6
Continuous
 62
     7
370
    25
100
AcDbSpline
210
0.0
220
0.0
230
1.0
 70
     8
 71
     3
 72
    10
 73
     6
 74
     0
 42
0.000000001
 43
0.00000001
 40
0.0
 40
0.0
 40
0.0
 40
0.0
 40
0.5
 40
0.5
 40
1.0
 40
1.0
 40
1.0
 40
1.0
 10
162.9582311506222
 20
137.7123633266637
 30
0.0
 10
162.8162138381752
 20
137.7123633266637
 30
0.0
 10
162.6757667913129
 20
137.7528531788732
 30
0.0
 10
162.4341768720516
 20
137.9007890088124
 30
0.0
 10
162.3334994297984
 20
138.0082892847919
 30
0.0
 10
162.2654108275948
 20
138.1318863215489
 30
0.0
  0
SPLINE
  5
A7
330
1F
100
AcDbEntity
  8
0
  6
Continuous
 62
     7
370
    25
100
AcDbSpline
210
0.0
220
0.0
230
1.0
 70
     8
 71
     3
 72
    10
 73
     6
 74
     0
 42
0.000000001
 43
0.00000001
 40
0.0
 40
0.0
 40
0.0
 40
0.0
 40
0.5
 40
0.5
 40
1.0
 40
1.0
 40
1.0
 40
1.0
 10
162.9582311506222
 20
87.21691798750467
 30
0.0
 10
162.8173737861115
 20
87.21691798750467
 30
0.0
 10
162.6745396546374
 20
87.17581408168597
 30
0.0
 10
162.434277963864
 20
87.02841618838501
 30
0.0
 10
162.3335716947845
 20
86.92112320754536
 30
0.0
 10
162.2654108275946
 20
86.79739499261915
 30
0.0
  0
LINE
  5
A8
330
1F
100
AcDbEntity
  8
0
  6
Continuous
 62
     7
370
    25
100
AcDbLine
 10
162.9845995893
 20
87.2169179875
 30
0.0
 11
162.9582311506
 21
87.2169179875
 31
0.0
  0
LINE
  5
A9
330
1F
100
AcDbEntity
  8
0
  6
Continuous
 62
     7
370
    25
100
AcDbLine
 10
162.9845995893
 20
137.7123633267
 30
0.0
 11
162.9582311506
 21
137.7123633267
 31
0.0
  0
SPLINE
  5
AA
330
1F
100
AcDbEntity
  8
0
  6
Continuous
 62
     7
370
    25
100
AcDbSpline
210
0.0
220
0.0
230
1.0
 70
     8
 71
     3
 72
    10
 73
     6
 74
     0
 42
0.000000001
 43
0.00000001
 40
0.0
 40
0.0
 40
0.0
 40
0.0
 40
0.5
 40
0.5
 40
1.0
 40
1.0
 40
1.0
 40
1.0
 10
166.3109680280226
 20
137.93054388061
 30
0.0
 10
165.7890533036266
 20
137.8623711301018
 30
0.0
 10
165.2502021235173
 20
137.8077478651438
 30
0.0
 10
164.1388394814851
 20
137.7326520122525
 30
0.0
 10
163.5619987042891
 20
137.7123633266637
 30
0.0
 10
162.9845995893224
 20
137.7123633266637
 30
0.0
  0
SPLINE
  5
AB
330
1F
100
AcDbEntity
  8
0
  6
Continuous
 62
     7
370
    25
100
AcDbSpline
210
0.0
220
0.0
230
1.0
 70
     8
 71
     3
 72
    10
 73
     6
 74
     0
 42
0.000000001
 43
0.00000001
 40
0.0
 40
0.0
 40
0.0
 40
0.0
 40
0.5
 40
0.5
 40
1.0
 40
1.0
 40
1.0
 40
1.0
 10
166.3109680280226
 20
86.99873743355842
 30
0.0
 10
165.7890533036266
 20
87.06691018406661
 30
0.0
 10
165.2502021235173
 20
87.12153344902457
 30
0.0
 10
164.1388394814851
 20
87.1966293019159
 30
0.0
 10
163.5619987042891
 20
87.21691798750467
 30
0.0
 10
162.9845995893224
 20
87.21691798750467
 30
0.0
  0
SPLINE
  5
AC
330
1F
100
AcDbEntity
  8
0
  6
Continuous
 62
     7
370
    25
100
AcDbSpline
210
0.0
220
0.0
230
1.0
 70
    24
 71
     3
 72
    16
 73
    12
 74
     0
 42
0.000000001
 43
0.00000001
 40
0.0
 40
0.0
 40
0.0
 40
0.0
 40
0.5
 40
0.5
 40
0.75
 40
0.75
 40
0.875
 40
0.875
 40
0.9375
 40
0.9375
 40
1.0
 40
1.0
 40
1.0
 40
1.0
 10
150.0345995893224
 20
134.9646406570842
 30
0.0
 10
150.0345995893224
 20
134.9646406570842
 30
0.0
 10
149.9537995587208
 20
134.9646406570842
 30
0.0
 10
149.8362276613109
 20
134.9646406570842
 30
0.0
 10
149.7972859326972
 20
134.9646406570842
 30
0.0
 10
149.7547107204525
 20
134.9646406570842
 30
0.0
 10
149.7431764770047
 20
134.9646406570842
 30
0.0
 10
149.7314069393711
 20
134.9646406570842
 30
0.0
 10
149.7283996598993
 20
134.9646406570842
 30
0.0
 10
149.7243701276382
 20
134.9646406570842
 30
0.0
 10
149.7233483493202
 20
134.9646406570842
 30
0.0
 10
149.7233484550282
 20
134.9646406570842
 30
0.0
  0
SPLINE
  5
AD
330
1F
100
AcDbEntity
  8
0
  6
Continuous
 62
     7
370
    25
100
AcDbSpline
210
0.0
220
0.0
230
1.0
 70
    24
 71
     3
 72
     9
 73
     5
 74
     0
 42
0.000000001
 43
0.00000001
 40
0.0
 40
0.0
 40
0.0
 40
0.0
 40
0.7104809969458944
 40
0.9999999999999999
 40
0.9999999999999999
 40
0.9999999999999999
 40
0.9999999999999999
 10
149.7233493179339
 20
89.96464065708419
 30
0.0
 10
149.7420900450798
 20
89.96464065708419
 30
0.0
 10
149.7684675656982
 20
89.9646406570842
 30
0.0
 10
149.8473059057705
 20
89.9646406570842
 30
0.0
 10
149.8701311033906
 20
89.9646406570842
 30
0.0
  0
LINE
  5
AE
330
1F
100
AcDbEntity
  8
0
  6
Continuous
 62
     7
370
    25
100
AcDbLine
 10
148.0345995893
 20
90.2396406571
 30
0.0
 11
148.0345995893
 21
134.6896406571
 31
0.0
  0
LINE
  5
AF
330
1F
100
AcDbEntity
  8
0
  6
Continuous
 62
     7
370
    25
100
AcDbLine
 10
204.6345995893
 20
91.4646406571
 30
0.0
 11
204.6345995893
 21
133.4646406571
 31
0.0
  0
SPLINE
  5
B0
330
1F
100
AcDbEntity
  8
0
  6
Continuous
 62
     7
370
    25
100
AcDbSpline
210
0.0
220
0.0
230
1.0
 70
     8
 71
     3
 72
    54
 73
    50
 74
     0
 42
0.000000001
 43
0.00000001
 40
0.0
 40
0.0
 40
0.0
 40
0.0
 40
0.03125
 40
0.03125
 40
0.0625
 40
0.0625
 40
0.1250000000000001
 40
0.1250000000000001
 40
0.1875000000000001
 40
0.1875000000000001
 40
0.2187500000000002
 40
0.2187500000000002
 40
0.2500000000000002
 40
0.2500000000000002
 40
0.3124999999999996
 40
0.3124999999999996
 40
0.3749999999999991
 40
0.3749999999999991
 40
0.4062499999999987
 40
0.4062499999999987
 40
0.4374999999999984
 40
0.4374999999999984
 40
0.4999999999999979
 40
0.4999999999999979
 40
0.5312499999999981
 40
0.5312499999999981
 40
0.5624999999999983
 40
0.5624999999999983
 40
0.6249999999999987
 40
0.6249999999999987
 40
0.6562499999999986
 40
0.6562499999999986
 40
0.6874999999999983
 40
0.6874999999999983
 40
0.7499999999999979
 40
0.7499999999999979
 40
0.7812499999999979
 40
0.7812499999999979
 40
0.8124999999999979
 40
0.8124999999999979
 40
0.8749999999999986
 40
0.8749999999999986
 40
0.906249999999999
 40
0.906249999999999
 40
0.9374999999999993
 40
0.9374999999999993
 40
0.9687499999999997
 40
0.9687499999999997
 40
1.0
 40
1.0
 40
1.0
 40
1.0
 10
199.9845995893224
 20
112.4646406570842
 30
0.0
 10
199.9845995893224
 20
112.2357704930616
 30
0.0
 10
199.9704214564009
 20
112.0067157542642
 30
0.0
 10
199.9130981705936
 20
111.5482295327196
 30
0.0
 10
199.8697436891817
 20
111.3192170730149
 30
0.0
 10
199.70066873751
 20
110.6511738170691
 30
0.0
 10
199.5351333358694
 20
110.2230682848314
 30
0.0
 10
199.1069784304132
 20
109.4060884637843
 30
0.0
 10
198.8509842709319
 20
109.0290519641755
 30
0.0
 10
198.4109902244439
 20
108.5047434676254
 30
0.0
 10
198.2540757033537
 20
108.336173392856
 30
0.0
 10
197.926220770352
 20
108.0171150456044
 30
0.0
 10
197.7554329516095
 20
107.8665704404759
 30
0.0
 10
197.2235953495997
 20
107.4401278116872
 30
0.0
 10
196.8417669754705
 20
107.1883912639063
 30
0.0
 10
196.0335886932855
 20
106.7524777627031
 30
0.0
 10
195.6149430640205
 20
106.5721231856564
 30
0.0
 10
194.9662373926837
 20
106.3539906219761
 30
0.0
 10
194.7465207858449
 20
106.2900822222545
 30
0.0
 10
194.300030599343
 20
106.1799588648429
 30
0.0
 10
194.0724964524948
 20
106.133690568288
 30
0.0
 10
193.3909978982821
 20
106.023809819559
 30
0.0
 10
192.9349062591168
 20
105.9878490141187
 30
0.0
 10
192.2481824531841
 20
105.9884503102473
 30
0.0
 10
192.0188411145713
 20
105.9977967352728
 30
0.0
 10
191.5592718697414
 20
106.0352237743842
 30
0.0
 10
191.3285465600694
 20
106.0634760680746
 30
0.0
 10
190.6479187021473
 20
106.1750666776025
 30
0.0
 10
190.2053304367674
 20
106.2851573382467
 30
0.0
 10
189.5580030935648
 20
106.5040221245123
 30
0.0
 10
189.3450023577071
 20
106.5859874314911
 30
0.0
 10
188.924730974774
 20
106.7687159613793
 30
0.0
 10
188.7170458211325
 20
106.8698191496347
 30
0.0
 10
188.1151843685484
 20
107.1961567696709
 30
0.0
 10
187.7378695453374
 20
107.4457364243912
 30
0.0
 10
187.208860914851
 20
107.8708075718148
 30
0.0
 10
187.0387286536917
 20
108.0210083084065
 30
0.0
 10
186.7116843245926
 20
108.3397685022119
 30
0.0
 10
186.5545661948651
 20
108.5087970930832
 30
0.0
 10
186.1149896854708
 20
109.0334800081134
 30
0.0
 10
185.8600945759341
 20
109.4098595037205
 30
0.0
 10
185.5409387532547
 20
110.01928355491
 30
0.0
 10
185.4448937691671
 20
110.2311268435613
 30
0.0
 10
185.2804418477826
 20
110.6594349739264
 30
0.0
 10
185.2113104237239
 20
110.8770050774239
 30
0.0
 10
185.0995519907263
 20
111.3190920740628
 30
0.0
 10
185.0569212697965
 20
111.5436079644177
 30
0.0
 10
184.9993898584019
 20
111.9999285197252
 30
0.0
 10
184.9845995893224
 20
112.2335626134616
 30
0.0
 10
184.9845995893224
 20
112.4646406570842
 30
0.0
  0
SPLINE
  5
B1
330
1F
100
AcDbEntity
  8
0
  6
Continuous
 62
     7
370
    25
100
AcDbSpline
210
0.0
220
0.0
230
1.0
 70
     8
 71
     3
 72
    44
 73
    40
 74
     0
 42
0.000000001
 43
0.00000001
 40
0.0
 40
0.0
 40
0.0
 40
0.0
 40
0.0625
 40
0.0625
 40
0.09375
 40
0.09375
 40
0.1249999999999999
 40
0.1249999999999999
 40
0.1874999999999999
 40
0.1874999999999999
 40
0.2499999999999998
 40
0.2499999999999998
 40
0.3124999999999998
 40
0.3124999999999998
 40
0.3749999999999998
 40
0.3749999999999998
 40
0.4374999999999998
 40
0.4374999999999998
 40
0.4999999999999998
 40
0.4999999999999998
 40
0.5624999999999998
 40
0.5624999999999998
 40
0.6249999999999998
 40
0.6249999999999998
 40
0.6874999999999998
 40
0.6874999999999998
 40
0.7499999999999998
 40
0.7499999999999998
 40
0.8124999999999997
 40
0.8124999999999997
 40
0.8437499999999997
 40
0.8437499999999997
 40
0.8749999999999997
 40
0.8749999999999997
 40
0.9375
 40
0.9375
 40
0.96875
 40
0.96875
 40
1.0
 40
1.0
 40
1.0
 40
1.0
 10
184.9845995893224
 20
112.4646406570842
 30
0.0
 10
184.9845995893224
 20
112.9272945488674
 30
0.0
 10
185.0420561852293
 20
113.3826602739051
 30
0.0
 10
185.2120184778435
 20
114.0551224059927
 30
0.0
 10
185.2829240381778
 20
114.2771966270928
 30
0.0
 10
185.4483230322421
 20
114.7061680289865
 30
0.0
 10
185.5431651345671
 20
114.9146363146805
 30
0.0
 10
185.8623660640435
 20
115.5229721934341
 30
0.0
 10
186.1237815407873
 20
115.9078567934961
 30
0.0
 10
186.7114373416736
 20
116.6061139787526
 30
0.0
 10
187.0401305466541
 20
116.9243680850647
 30
0.0
 10
187.7591777159865
 20
117.499132737032
 30
0.0
 10
188.1402838093667
 20
117.7484281024543
 30
0.0
 10
188.9391378114992
 20
118.1780873711091
 30
0.0
 10
189.3573846594781
 20
118.3587065479806
 30
0.0
 10
190.2321547639244
 20
118.6518530608289
 30
0.0
 10
190.6770266020536
 20
118.7604038768044
 30
0.0
 10
191.5791730994763
 20
118.9053936001186
 30
0.0
 10
192.038351676574
 20
118.9419050114148
 30
0.0
 10
192.9636936488242
 20
118.940132985497
 30
0.0
 10
193.4200961133735
 20
118.9021269290948
 30
0.0
 10
194.3208095821221
 20
118.7541298906215
 30
0.0
 10
194.7667850466741
 20
118.6435972229707
 30
0.0
 10
195.6389229885453
 20
118.3477963635149
 30
0.0
 10
196.0558816932625
 20
118.1659762532581
 30
0.0
 10
196.8521474386764
 20
117.7340438968161
 30
0.0
 10
197.2331262851122
 20
117.4827011855313
 30
0.0
 10
197.9465427998673
 20
116.908244088541
 30
0.0
 10
198.270403162399
 20
116.5924991225468
 30
0.0
 10
198.7052670078818
 20
116.0736498681566
 30
0.0
 10
198.8416696434912
 20
115.8931056421142
 30
0.0
 10
199.0961716820588
 20
115.5155998756863
 30
0.0
 10
199.2149780873837
 20
115.3172280584342
 30
0.0
 10
199.5351629099505
 20
114.7059280466313
 30
0.0
 10
199.7002225926644
 20
114.279715528371
 30
0.0
 10
199.8697945958487
 20
113.6099403632488
 30
0.0
 10
199.9132231063945
 20
113.38017856678
 30
0.0
 10
199.9703902304841
 20
112.922689052339
 30
0.0
 10
199.9845995893224
 20
112.6937573451912
 30
0.0
 10
199.9845995893224
 20
112.4646406570842
 30
0.0
  0
LINE
  5
B2
330
1F
100
AcDbEntity
  8
0
  6
Continuous
 62
     7
370
    25
100
AcDbLine
 10
205.0345995893
 20
91.8646406571
 30
0.0
 11
205.0345995893
 21
133.0646406571
 31
0.0
  0
LINE
  5
B3
330
1F
100
AcDbEntity
  8
0
  6
Continuous
 62
     7
370
    25
100
AcDbLine
 10
82.6345995893
 20
100.6418850601
 30
0.0
 11
82.6345995893
 21
124.2873962152
 31
0.0
  0
SPLINE
  5
B4
330
1F
100
AcDbEntity
  8
0
  6
Continuous
 62
     7
370
    25
100
AcDbSpline
210
0.0
220
0.0
230
1.0
 70
    24
 71
     3
 72
    11
 73
     7
 74
     0
 42
0.000000001
 43
0.00000001
 40
0.0
 40
0.0
 40
0.0
 40
0.0
 40
0.1336647920874053
 40
0.4825473608259752
 40
0.815635656150377
 40
0.9999999999999999
 40
0.9999999999999999
 40
0.9999999999999999
 40
0.9999999999999999
 10
195.9468798244422
 20
112.5769597271431
 30
0.0
 10
195.878432119869
 20
112.4489940550653
 30
0.0
 10
195.6313269646475
 20
111.9870212619821
 30
0.0
 10
195.169704628788
 20
111.124000174237
 30
0.0
 10
194.6739271350652
 20
110.1971246773755
 30
0.0
 10
194.4078220451775
 20
109.699630760185
 30
0.0
 10
194.3130108748828
 20
109.5223775534792
 30
0.0
  0
SPLINE
  5
B5
330
1F
100
AcDbEntity
  8
0
  6
Continuous
 62
     7
370
    25
100
AcDbSpline
210
0.0
220
0.0
230
1.0
 70
    24
 71
     3
 72
    11
 73
     7
 74
     0
 42
0.000000001
 43
0.00000001
 40
0.0
 40
0.0
 40
0.0
 40
0.0
 40
0.216455377944342
 40
0.440311289579051
 40
0.7519005688038641
 40
1.0
 40
1.0
 40
1.0
 40
1.0
 10
194.1184685388818
 20
115.5192228307481
 30
0.0
 10
194.243716483509
 20
115.3176749573626
 30
0.0
 10
194.4984945561984
 20
114.9076883592697
 30
0.0
 10
194.9712946121082
 20
114.1468627338363
 30
0.0
 10
195.4784574824714
 20
113.3307407744213
 30
0.0
 10
195.803011264587
 20
112.8084717281757
 30
0.0
 10
195.9468798244422
 20
112.5769597271431
 30
0.0
  0
SPLINE
  5
B6
330
1F
100
AcDbEntity
  8
0
  6
Continuous
 62
     7
370
    25
100
AcDbSpline
210
0.0
220
0.0
230
1.0
 70
    24
 71
     3
 72
    11
 73
     7
 74
     0
 42
0.000000001
 43
0.00000001
 40
0.0
 40
0.0
 40
0.0
 40
0.0
 40
0.1843643438496227
 40
0.5174526391740256
 40
0.8663352079125947
 40
1.0
 40
1.0
 40
1.0
 40
1.0
 10
189.0223193542026
 20
112.3523215870253
 30
0.0
 10
189.1171305244974
 20
112.5295747937311
 30
0.0
 10
189.383235614385
 20
113.0270687109216
 30
0.0
 10
189.8790131081078
 20
113.9539442077831
 30
0.0
 10
190.3406354439674
 20
114.8169652955281
 30
0.0
 10
190.5877405991888
 20
115.2789380886113
 30
0.0
 10
190.656188303762
 20
115.4069037606892
 30
0.0
  0
CIRCLE
  5
B7
330
1F
100
AcDbEntity
  8
0
  6
Continuous
 62
     7
370
    25
100
AcDbCircle
 10
192.4845995893
 20
112.4646406571
 30
0.0
 40
3.499999999999996
  0
SPLINE
  5
B8
330
1F
100
AcDbEntity
  8
0
  6
Continuous
 62
     7
370
    25
100
AcDbSpline
210
0.0
220
0.0
230
1.0
 70
    24
 71
     3
 72
    11
 73
     7
 74
     0
 42
0.000000001
 43
0.00000001
 40
0.0
 40
0.0
 40
0.0
 40
0.0
 40
0.2164553779443426
 40
0.4403112895790507
 40
0.751900568803863
 40
1.0
 40
1.0
 40
1.0
 40
1.0
 10
194.3130108748828
 20
109.5223775534792
 30
0.0
 10
194.0758413241385
 20
109.5146835883531
 30
0.0
 10
193.5933934786343
 20
109.4990326041233
 30
0.0
 10
192.6980991312038
 20
109.4699885575113
 30
0.0
 10
191.7377353465825
 20
109.4388336076281
 30
0.0
 10
191.1231601938657
 20
109.4188963105444
 30
0.0
 10
190.850730639763
 20
109.4100584834202
 30
0.0
  0
SPLINE
  5
B9
330
1F
100
AcDbEntity
  8
0
  6
Continuous
 62
     7
370
    25
100
AcDbSpline
210
0.0
220
0.0
230
1.0
 70
    24
 71
     3
 72
    11
 73
     7
 74
     0
 42
0.000000001
 43
0.00000001
 40
0.0
 40
0.0
 40
0.0
 40
0.0
 40
0.2164553779443422
 40
0.4403112895790515
 40
0.7519005688038649
 40
0.9999999999999999
 40
0.9999999999999999
 40
0.9999999999999999
 40
0.9999999999999999
 10
190.850730639763
 20
109.4100584834202
 30
0.0
 10
190.7254826951358
 20
109.6116063568058
 30
0.0
 10
190.4707046224465
 20
110.0215929548987
 30
0.0
 10
189.9979045665366
 20
110.7824185803321
 30
0.0
 10
189.4907416961734
 20
111.5985405397471
 30
0.0
 10
189.1661879140578
 20
112.1208095859927
 30
0.0
 10
189.0223193542026
 20
112.3523215870253
 30
0.0
  0
SPLINE
  5
BA
330
1F
100
AcDbEntity
  8
0
  6
Continuous
 62
     7
370
    25
100
AcDbSpline
210
0.0
220
0.0
230
1.0
 70
    24
 71
     3
 72
    11
 73
     7
 74
     0
 42
0.000000001
 43
0.00000001
 40
0.0
 40
0.0
 40
0.0
 40
0.0
 40
0.2164553779443426
 40
0.4403112895790507
 40
0.7519005688038629
 40
0.9999999999999999
 40
0.9999999999999999
 40
0.9999999999999999
 40
0.9999999999999999
 10
190.656188303762
 20
115.4069037606892
 30
0.0
 10
190.8933578545062
 20
115.4145977258153
 30
0.0
 10
191.3758057000105
 20
115.4302487100451
 30
0.0
 10
192.2711000474409
 20
115.4592927566571
 30
0.0
 10
193.2314638320623
 20
115.4904477065403
 30
0.0
 10
193.8460389847791
 20
115.510385003624
 30
0.0
 10
194.1184685388818
 20
115.5192228307481
 30
0.0
  0
CIRCLE
  5
BB
330
1F
100
AcDbEntity
  8
0
  6
Continuous
 62
     7
370
    25
100
AcDbCircle
 10
192.4845995893
 20
112.4646406571
 30
0.0
 40
5.499999999999992
  0
CIRCLE
  5
BC
330
1F
100
AcDbEntity
  8
0
  6
Continuous
 62
     7
370
    25
100
AcDbCircle
 10
192.4845995893
 20
112.4646406571
 30
0.0
 40
5.999999999999973
  0
ARC
  5
BD
330
1F
100
AcDbEntity
  8
0
  6
Continuous
 62
     7
370
    25
100
AcDbCircle
 10
192.4845995893
 20
112.4646406571
 30
0.0
 40
3.000000000000024
100
AcDbArc
 50
211.8580681258
 51
271.8580681258
  0
ARC
  5
BE
330
1F
100
AcDbEntity
  8
0
  6
Continuous
 62
     7
370
    25
100
AcDbCircle
 10
192.4845995893
 20
112.4646406571
 30
0.0
 40
2.99999999999999
100
AcDbArc
 50
31.8580681258
 51
91.8580681258
  0
ARC
  5
BF
330
1F
100
AcDbEntity
  8
0
  6
Continuous
 62
     7
370
    25
100
AcDbCircle
 10
192.4845995893
 20
112.4646406571
 30
0.0
 40
3.000000000000008
100
AcDbArc
 50
91.8580681258
 51
151.8580681258
  0
ARC
  5
C0
330
1F
100
AcDbEntity
  8
0
  6
Continuous
 62
     7
370
    25
100
AcDbCircle
 10
192.4845995893
 20
112.4646406571
 30
0.0
 40
3.000000000000024
100
AcDbArc
 50
151.8580681258
 51
211.8580681258
  0
ARC
  5
C1
330
1F
100
AcDbEntity
  8
0
  6
Continuous
 62
     7
370
    25
100
AcDbCircle
 10
192.4845995893
 20
112.4646406571
 30
0.0
 40
3.000000000000004
100
AcDbArc
 50
271.8580681258
 51
331.8580681258
  0
ARC
  5
C2
330
1F
100
AcDbEntity
  8
0
  6
Continuous
 62
     7
370
    25
100
AcDbCircle
 10
192.4845995893
 20
112.4646406571
 30
0.0
 40
2.99999999999999
100
AcDbArc
 50
331.8580681258
 51
31.8580681258
  0
SPLINE
  5
C3
330
1F
100
AcDbEntity
  8
0
  6
HIDDEN
 62
     7
370
    18
100
AcDbSpline
210
0.0
220
0.0
230
1.0
 70
     8
 71
     3
 72
    17
 73
    13
 74
     0
 42
0.000000001
 43
0.00000001
 40
0.0
 40
0.0
 40
0.0
 40
0.0
 40
0.0000772759537362
 40
0.000098015610966
 40
0.249524730571438
 40
0.5019884880784261
 40
0.5864066490158841
 40
0.669867194259755
 40
0.752659102167854
 40
0.8350783855301548
 40
0.9174250766390779
 40
1.0
 40
1.0
 40
1.0
 40
1.0
 10
172.0345995679324
 20
80.96464066439687
 30
0.0
 10
172.0345997904022
 20
80.96464066136507
 30
0.0
 10
172.0346000725795
 20
80.96464065751958
 30
0.0
 10
172.0352138133505
 20
80.96463951011734
 30
0.0
 10
171.9310758476619
 20
80.99685618532104
 30
0.0
 10
171.5625888017397
 20
81.10521733322926
 30
0.0
 10
171.1959764378809
 20
81.21004801174495
 30
0.0
 10
170.9464448739544
 20
81.27974071645488
 30
0.0
 10
170.668659088928
 20
81.35488242538541
 30
0.0
 10
170.3619993119004
 20
81.43454741896697
 30
0.0
 10
170.0288124793577
 20
81.51769660040594
 30
0.0
 10
169.7838150372008
 20
81.5750090826339
 30
0.0
 10
169.6611467922
 20
81.6037049806386
 30
0.0
  0
LINE
  5
C4
330
1F
100
AcDbEntity
  8
0
  6
HIDDEN
 62
     7
370
    18
100
AcDbLine
 10
204.4845995893
 20
101.2463467851
 30
0.0
 11
204.4845995893
 21
123.6829345291
 31
0.0
  0
LINE
  5
C5
330
1F
100
AcDbEntity
  8
0
  6
HIDDEN
 62
     7
370
    18
100
AcDbLine
 10
201.1845995893
 20
104.4329845389
 30
0.0
 11
201.1845995893
 21
120.4962967752
 31
0.0
  0
LINE
  5
C6
330
1F
100
AcDbEntity
  8
0
  6
HIDDEN
 62
     7
370
    18
100
AcDbLine
 10
200.1845995893
 20
100.4646406571
 30
0.0
 11
200.1845995893
 21
124.4646406571
 31
0.0
  0
LINE
  5
C7
330
1F
100
AcDbEntity
  8
0
  6
HIDDEN
 62
     7
370
    18
100
AcDbLine
 10
201.1845995893
 20
123.2646406571
 30
0.0
 11
201.1845995893
 21
120.4962967752
 31
0.0
  0
LINE
  5
C8
330
1F
100
AcDbEntity
  8
0
  6
HIDDEN
 62
     7
370
    18
100
AcDbLine
 10
201.1845995893
 20
120.4962967752
 30
0.0
 11
204.4845995893
 21
120.4962967752
 31
0.0
  0
SPLINE
  5
C9
330
1F
100
AcDbEntity
  8
0
  6
HIDDEN
 62
     7
370
    18
100
AcDbSpline
210
0.0
220
0.0
230
1.0
 70
     8
 71
     3
 72
    12
 73
     8
 74
     0
 42
0.000000001
 43
0.00000001
 40
0.0
 40
0.0
 40
0.0
 40
0.0
 40
0.5000000000000004
 40
0.5000000000000004
 40
0.7500000000000002
 40
0.7500000000000002
 40
1.0
 40
1.0
 40
1.0
 40
1.0
 10
205.0345995893224
 20
128.339234283685
 30
0.0
 10
204.9776916778208
 20
128.4388203320567
 30
0.0
 10
204.903319291512
 20
128.4779670145861
 30
0.0
 10
204.7652469578092
 20
128.4521633521871
 30
0.0
 10
204.7144249847728
 20
128.4290024791796
 30
0.0
 10
204.6053319226334
 20
128.3549079746992
 30
0.0
 10
204.5469684085955
 20
128.3041019146769
 30
0.0
 10
204.4845995893224
 20
128.2397769695849
 30
0.0
  0
LINE
  5
CA
330
1F
100
AcDbEntity
  8
0
  6
HIDDEN
 62
     7
370
    18
100
AcDbLine
 10
204.4845995893
 20
128.2397769696
 30
0.0
 11
204.4845995893
 21
128.0836964125
 31
0.0
  0
LINE
  5
CB
330
1F
100
AcDbEntity
  8
0
  6
HIDDEN
 62
     7
370
    18
100
AcDbLine
 10
201.1845995893
 20
128.0836964125
 30
0.0
 11
204.4845995893
 21
128.0836964125
 31
0.0
  0
LINE
  5
CC
330
1F
100
AcDbEntity
  8
0
  6
HIDDEN
 62
     7
370
    18
100
AcDbLine
 10
201.1845995893
 20
128.4646406571
 30
0.0
 11
201.1845995893
 21
123.2646406571
 31
0.0
  0
SPLINE
  5
CD
330
1F
100
AcDbEntity
  8
0
  6
HIDDEN
 62
     7
370
    18
100
AcDbSpline
210
0.0
220
0.0
230
1.0
 70
     8
 71
     3
 72
    12
 73
     8
 74
     0
 42
0.000000001
 43
0.00000001
 40
0.0
 40
0.0
 40
0.0
 40
0.0
 40
0.5
 40
0.5
 40
0.75
 40
0.75
 40
1.0
 40
1.0
 40
1.0
 40
1.0
 10
204.4845995893224
 20
123.6829345291084
 30
0.0
 10
204.6089574246429
 20
124.1224244709316
 30
0.0
 10
204.7171233800509
 20
124.5547910012929
 30
0.0
 10
204.8566130360143
 20
125.1913012492668
 30
0.0
 10
204.8989634423584
 20
125.4003153425172
 30
0.0
 10
204.9737013618075
 20
125.8016924352913
 30
0.0
 10
205.0064275963219
 20
125.9955698680275
 30
0.0
 10
205.0345995893224
 20
126.1825058307471
 30
0.0
  0
LINE
  5
CE
330
1F
100
AcDbEntity
  8
0
  6
HIDDEN
 62
     7
370
    18
100
AcDbLine
 10
201.1845995893
 20
104.4329845389
 30
0.0
 11
201.1845995893
 21
101.6646406571
 31
0.0
  0
LINE
  5
CF
330
1F
100
AcDbEntity
  8
0
  6
HIDDEN
 62
     7
370
    18
100
AcDbLine
 10
204.4845995893
 20
104.4329845389
 30
0.0
 11
201.1845995893
 21
104.4329845389
 31
0.0
  0
LINE
  5
D0
330
1F
100
AcDbEntity
  8
0
  6
HIDDEN
 62
     7
370
    18
100
AcDbLine
 10
201.1845995893
 20
96.8455849016
 30
0.0
 11
204.4845995893
 21
96.8455849016
 31
0.0
  0
LINE
  5
D1
330
1F
100
AcDbEntity
  8
0
  6
HIDDEN
 62
     7
370
    18
100
AcDbLine
 10
204.4845995893
 20
96.8455849016
 30
0.0
 11
204.4845995893
 21
96.6895043446
 31
0.0
  0
SPLINE
  5
D2
330
1F
100
AcDbEntity
  8
0
  6
HIDDEN
 62
     7
370
    18
100
AcDbSpline
210
0.0
220
0.0
230
1.0
 70
     8
 71
     3
 72
    12
 73
     8
 74
     0
 42
0.000000001
 43
0.00000001
 40
0.0
 40
0.0
 40
0.0
 40
0.0
 40
0.2499999999999998
 40
0.2499999999999998
 40
0.4999999999999997
 40
0.4999999999999997
 40
1.0
 40
1.0
 40
1.0
 40
1.0
 10
204.4845995893224
 20
96.68950434458351
 30
0.0
 10
204.5464838867394
 20
96.6256791178148
 30
0.0
 10
204.604508451429
 20
96.57507703730819
 30
0.0
 10
204.7131485158821
 20
96.50100415350504
 30
0.0
 10
204.7640124906989
 20
96.47748979888019
 30
0.0
 10
204.9036586859496
 20
96.45097181051413
 30
0.0
 10
204.9779925243193
 20
96.49098744869902
 30
0.0
 10
205.0345995893224
 20
96.59004703048342
 30
0.0
  0
LINE
  5
D3
330
1F
100
AcDbEntity
  8
0
  6
HIDDEN
 62
     7
370
    18
100
AcDbLine
 10
201.1845995893
 20
101.6646406571
 30
0.0
 11
201.1845995893
 21
96.4646406571
 31
0.0
  0
SPLINE
  5
D4
330
1F
100
AcDbEntity
  8
0
  6
HIDDEN
 62
     7
370
    18
100
AcDbSpline
210
0.0
220
0.0
230
1.0
 70
     8
 71
     3
 72
    12
 73
     8
 74
     0
 42
0.000000001
 43
0.00000001
 40
0.0
 40
0.0
 40
0.0
 40
0.0
 40
0.5
 40
0.5
 40
0.75
 40
0.75
 40
1.0
 40
1.0
 40
1.0
 40
1.0
 10
205.0345995893224
 20
98.74677548342129
 30
0.0
 10
204.9776916778207
 20
99.12438935059491
 30
0.0
 10
204.903319291512
 20
99.52433792090073
 30
0.0
 10
204.7652469578092
 20
100.1551486557641
 30
0.0
 10
204.7144249847728
 20
100.3718121553913
 30
0.0
 10
204.6053319226334
 20
100.8069054292063
 30
0.0
 10
204.5469684085955
 20
101.0259306875676
 30
0.0
 10
204.4845995893224
 20
101.2463467850601
 30
0.0
  0
LINE
  5
D5
330
1F
100
AcDbEntity
  8
0
  6
HIDDEN
 62
     7
370
    18
100
AcDbLine
 10
180.0345995893
 20
100.7646406571
 30
0.0
 11
180.0345995893
 21
124.1646406047
 31
0.0
  0
LINE
  5
D6
330
1F
100
AcDbEntity
  8
0
  6
HIDDEN
 62
     7
370
    18
100
AcDbLine
 10
182.5737317071
 20
100.4646406571
 30
0.0
 11
182.5737317071
 21
124.4646406571
 31
0.0
  0
LINE
  5
D7
330
1F
100
AcDbEntity
  8
0
  6
HIDDEN
 62
     7
370
    18
100
AcDbLine
 10
150.0345995893
 20
134.9646406571
 30
0.0
 11
150.3718578895
 21
134.9646406571
 31
0.0
  0
ELLIPSE
  5
D8
330
1F
100
AcDbEntity
  8
0
  6
HIDDEN
 62
     7
370
    18
100
AcDbEllipse
 10
150.3718578895
 20
136.5646406571
 30
0.0
 11
0.0
 21
1.599999999999994
 31
0.0
210
0.0
220
0.0
230
1.0
 40
0.4142135624
 41
3.141592653589793
 42
4.712388980384677
  0
ELLIPSE
  5
D9
330
1F
100
AcDbEntity
  8
0
  6
HIDDEN
 62
     7
370
    18
100
AcDbEllipse
 10
150.3718578895
 20
88.3646406571
 30
0.0
 11
0.0
 21
1.600000000000009
 31
0.0
210
0.0
220
0.0
230
1.0
 40
0.4142135624
 41
4.712388980384695
 42
6.283185307179586
  0
LINE
  5
DA
330
1F
100
AcDbEntity
  8
0
  6
HIDDEN
 62
     7
370
    18
100
AcDbLine
 10
150.3718578895
 20
89.9646406571
 30
0.0
 11
150.0345995893
 21
89.9646406571
 31
0.0
  0
LINE
  5
DB
330
1F
100
AcDbEntity
  8
0
  6
HIDDEN
 62
     7
370
    18
100
AcDbLine
 10
151.0345995893
 20
83.0106179343
 30
0.0
 11
150.4216324123
 21
82.3976507573
 31
0.0
  0
LINE
  5
DC
330
1F
100
AcDbEntity
  8
0
  6
HIDDEN
 62
     7
370
    18
100
AcDbLine
 10
150.4216324123
 20
142.5316305569
 30
0.0
 11
151.0345995893
 21
141.9186633799
 31
0.0
  0
LINE
  5
DD
330
1F
100
AcDbEntity
  8
0
  6
HIDDEN
 62
     7
370
    18
100
AcDbLine
 10
89.6345995893
 20
103.9646406571
 30
0.0
 11
89.6345995893
 21
120.9646406571
 31
0.0
  0
LINE
  5
DE
330
1F
100
AcDbEntity
  8
0
  6
HIDDEN
 62
     7
370
    18
100
AcDbLine
 10
92.6305288037
 20
105.4646406571
 30
0.0
 11
92.6305288037
 21
119.4646406571
 31
0.0
  0
LINE
  5
DF
330
1F
100
AcDbEntity
  8
0
  6
HIDDEN
 62
     7
370
    18
100
AcDbLine
 10
204.4845995893
 20
128.2397769696
 30
0.0
 11
204.4845995893
 21
129.2851618508
 31
0.0
  0
LINE
  5
E0
330
1F
100
AcDbEntity
  8
0
  6
HIDDEN
 62
     7
370
    18
100
AcDbLine
 10
204.4845995893
 20
95.6441194634
 30
0.0
 11
204.4845995893
 21
96.6895043446
 31
0.0
  0
LINE
  5
E1
330
1F
100
AcDbEntity
  8
0
  6
HIDDEN
 62
     7
370
    18
100
AcDbLine
 10
151.0345995893
 20
141.9186633799
 30
0.0
 11
160.1671611329
 21
141.9186633799
 31
0.0
  0
LINE
  5
E2
330
1F
100
AcDbEntity
  8
0
  6
HIDDEN
 62
     7
370
    18
100
AcDbLine
 10
151.0345995893
 20
141.9186633799
 30
0.0
 11
151.0345995893
 21
136.5646406571
 31
0.0
  0
LINE
  5
E3
330
1F
100
AcDbEntity
  8
0
  6
HIDDEN
 62
     7
370
    18
100
AcDbLine
 10
160.1671611329
 20
83.0106179343
 30
0.0
 11
151.0345995893
 21
83.0106179343
 31
0.0
  0
LINE
  5
E4
330
1F
100
AcDbEntity
  8
0
  6
HIDDEN
 62
     7
370
    18
100
AcDbLine
 10
151.0345995893
 20
83.0106179343
 30
0.0
 11
151.0345995893
 21
88.3646406571
 31
0.0
  0
LINE
  5
E5
330
1F
100
AcDbEntity
  8
0
  6
HIDDEN
 62
     7
370
    18
100
AcDbLine
 10
162.9845995893
 20
89.9646406571
 30
0.0
 11
150.3718578895
 21
89.9646406571
 31
0.0
  0
LINE
  5
E6
330
1F
100
AcDbEntity
  8
0
  6
HIDDEN
 62
     7
370
    18
100
AcDbLine
 10
150.3718578895
 20
134.9646406571
 30
0.0
 11
162.9845995893
 21
134.9646406571
 31
0.0
  0
LINE
  5
E7
330
1F
100
AcDbEntity
  8
0
  6
HIDDEN
 62
     7
370
    18
100
AcDbLine
 10
169.0108413555
 20
82.5595927637
 30
0.0
 11
169.1047840847
 21
82.5346090924
 31
0.0
  0
SPLINE
  5
E8
330
1F
100
AcDbEntity
  8
0
  6
HIDDEN
 62
     7
370
    18
100
AcDbSpline
210
0.0
220
0.0
230
1.0
 70
     8
 71
     3
 72
    14
 73
    10
 74
     0
 42
0.000000001
 43
0.00000001
 40
0.0
 40
0.0
 40
0.0
 40
0.0
 40
0.0000730159580711
 40
0.1174727734491037
 40
0.2398223847163229
 40
0.3672215133898287
 40
0.4997583757479402
 40
0.7294639292934855
 40
1.0
 40
1.0
 40
1.0
 40
1.0
 10
171.0345782822702
 20
81.96464895813604
 30
0.0
 10
171.0345853846219
 20
81.96464604773088
 30
0.0
 10
171.0460121053534
 20
81.95996360053556
 30
0.0
 10
171.0089657899095
 20
81.9748845149385
 30
0.0
 10
170.9226989022809
 20
82.00533730136544
 30
0.0
 10
170.7571663552694
 20
82.0613771629393
 30
0.0
 10
170.4602945408608
 20
82.15598915676043
 30
0.0
 10
169.9368741243315
 20
82.31691461190812
 30
0.0
 10
169.3358862615253
 20
82.47455008928863
 30
0.0
 10
169.0108655374123
 20
82.55980105719483
 30
0.0
  0
LINE
  5
E9
330
1F
100
AcDbEntity
  8
0
  6
HIDDEN
 62
     7
370
    18
100
AcDbLine
 10
162.9845995893
 20
134.9646406571
 30
0.0
 11
169.4345995893
 21
134.9646406571
 31
0.0
  0
SPLINE
  5
EA
330
1F
100
AcDbEntity
  8
0
  6
HIDDEN
 62
     7
370
    18
100
AcDbSpline
210
0.0
220
0.0
230
1.0
 70
     8
 71
     3
 72
    33
 73
    29
 74
     0
 42
0.000000001
 43
0.00000001
 40
0.0
 40
0.0
 40
0.0
 40
0.0
 40
0.0239762613835927
 40
0.0473863621492047
 40
0.0702306060086357
 40
0.0925093201684903
 40
0.1142228577551216
 40
0.1353716005596106
 40
0.1559559621544497
 40
0.1759763914435082
 40
0.195433376719001
 40
0.2143274503140843
 40
0.2326591939581492
 40
0.2504292449647668
 40
0.3802000038724754
 40
0.4998707672066891
 40
0.5332981986511922
 40
0.5681928386594142
 40
0.6045672022879731
 40
0.6424323312627216
 40
0.6817980067437365
 40
0.7226729265348261
 40
0.765064853313519
 40
0.8089807391585007
 40
0.8544268306166285
 40
0.9014087577285244
 40
0.9499316097768908
 40
1.0
 40
1.0
 40
1.0
 40
1.0
 10
169.0108632199348
 20
142.3695014327953
 30
0.0
 10
169.0715253675962
 20
142.3849876237426
 30
0.0
 10
169.1914172244558
 20
142.4155943242953
 30
0.0
 10
169.3602320810768
 20
142.4597560679519
 30
0.0
 10
169.5185575038994
 20
142.5019310723189
 30
0.0
 10
169.6661163271224
 20
142.5420392115035
 30
0.0
 10
169.8034204175566
 20
142.5801012399651
 30
0.0
 10
169.9307983824644
 20
142.6161118589469
 30
0.0
 10
170.0486429502282
 20
142.6500725586498
 30
0.0
 10
170.157343741812
 20
142.6819828644259
 30
0.0
 10
170.2573016410906
 20
142.7118436167823
 30
0.0
 10
170.3489213410938
 20
142.7396524679946
 30
0.0
 10
170.4326133281137
 20
142.7654181114519
 30
0.0
 10
170.66960223215
 20
142.839133636415
 30
0.0
 10
170.9490461690987
 20
142.9313233486479
 30
0.0
 10
171.0460398620554
 20
142.9693603536658
 30
0.0
 10
171.028077686683
 20
142.9618459710169
 30
0.0
 10
170.9977150978104
 20
142.9492990312899
 30
0.0
 10
170.9440343369999
 20
142.9285606875892
 30
0.0
 10
170.8645024166201
 20
142.8995309953725
 30
0.0
 10
170.7565854767971
 20
142.8622375574409
 30
0.0
 10
170.6177874610778
 20
142.8166711528933
 30
0.0
 10
170.4457017233442
 20
142.7628352005022
 30
0.0
 10
170.2379855035837
 20
142.7007212303506
 30
0.0
 10
169.9926740692129
 20
142.6303570865938
 30
0.0
 10
169.7071785557179
 20
142.5516312799834
 30
0.0
 10
169.3824702090246
 20
142.4649779832087
 30
0.0
 10
169.136005416524
 20
142.4017821244926
 30
0.0
 10
169.0108412019054
 20
142.3696888589876
 30
0.0
  0
LINE
  5
EB
330
1F
100
AcDbEntity
  8
0
  6
HIDDEN
 62
     7
370
    18
100
AcDbLine
 10
169.4345995893
 20
89.9646406571
 30
0.0
 11
162.9845995893
 21
89.9646406571
 31
0.0
  0
LINE
  5
EC
330
1F
100
AcDbEntity
  8
0
  6
HIDDEN
 62
     7
370
    18
100
AcDbLine
 10
125.6345995893
 20
105.4646406571
 30
0.0
 11
125.6345995893
 21
119.4646406571
 31
0.0
  0
LINE
  5
ED
330
1F
100
AcDbEntity
  8
0
  6
HIDDEN
 62
     7
370
    18
100
AcDbLine
 10
127.2869662916
 20
108.2146406571
 30
0.0
 11
127.2869662916
 21
116.7146406571
 31
0.0
  0
SPLINE
  5
EE
330
1F
100
AcDbEntity
  8
0
  6
HIDDEN
 62
     7
370
    18
100
AcDbSpline
210
0.0
220
0.0
230
1.0
 70
     8
 71
     3
 72
     9
 73
     5
 74
     0
 42
0.000000001
 43
0.00000001
 40
0.0
 40
0.0
 40
0.0
 40
0.0
 40
0.4932365030918491
 40
1.0
 40
1.0
 40
1.0
 40
1.0
 10
169.0116591280199
 20
142.3694721682565
 30
0.0
 10
169.1175070834217
 20
142.5264935563793
 30
0.0
 10
169.3321058706939
 20
142.8448426386929
 30
0.0
 10
169.5499657525822
 20
143.1646687463808
 30
0.0
 10
169.6603691881639
 20
143.3267449431153
 30
0.0
  0
SPLINE
  5
EF
330
1F
100
AcDbEntity
  8
0
  6
HIDDEN
 62
     7
370
    18
100
AcDbSpline
210
0.0
220
0.0
230
1.0
 70
     8
 71
     3
 72
     9
 73
     5
 74
     0
 42
0.000000001
 43
0.00000001
 40
0.0
 40
0.0
 40
0.0
 40
0.0
 40
0.5067661696360637
 40
0.9999999999999999
 40
0.9999999999999999
 40
0.9999999999999999
 40
0.9999999999999999
 10
169.6603728734498
 20
81.60255050660706
 30
0.0
 10
169.5499680429527
 20
81.76462792122268
 30
0.0
 10
169.332106557494
 20
82.08445474536136
 30
0.0
 10
169.117506839612
 20
82.4028032616175
 30
0.0
 10
169.011658998766
 20
82.5598235196812
 30
0.0
  0
LINE
  5
F0
330
1F
100
AcDbEntity
  8
0
  6
HIDDEN
 62
     7
370
    18
100
AcDbLine
 10
201.1845995893
 20
128.9896406571
 30
0.0
 11
201.1845995893
 21
128.4646406571
 31
0.0
  0
LINE
  5
F1
330
1F
100
AcDbEntity
  8
0
  6
HIDDEN
 62
     7
370
    18
100
AcDbLine
 10
201.1845995893
 20
96.4646406571
 30
0.0
 11
201.1845995893
 21
95.9396406571
 31
0.0
  0
CIRCLE
  5
F2
330
1F
100
AcDbEntity
  8
0
  6
HIDDEN
 62
     7
370
    18
100
AcDbCircle
 10
192.4845995893
 20
112.4646406571
 30
0.0
 40
5.181257848382049
  0
CIRCLE
  5
F3
330
1F
100
AcDbEntity
  8
0
  6
HIDDEN
 62
     7
370
    18
100
AcDbCircle
 10
192.4845995893
 20
112.4646406571
 30
0.0
 40
4.172547133356685
  0
CIRCLE
  5
F4
330
1F
100
AcDbEntity
  8
0
  6
HIDDEN
 62
     7
370
    18
100
AcDbCircle
 10
192.4845995893
 20
112.4646406571
 30
0.0
 40
3.872547133356713
  0
LINE
  5
F5
330
1F
100
AcDbEntity
  8
0
  6
HIDDEN
 62
     7
370
    18
100
AcDbLine
 10
201.1845995893
 20
125.0419909263
 30
0.0
 11
200.1845995893
 21
124.4646406571
 31
0.0
  0
LINE
  5
F6
330
1F
100
AcDbEntity
  8
0
  6
HIDDEN
 62
     7
370
    18
100
AcDbLine
 10
200.1845995893
 20
100.4646406571
 30
0.0
 11
201.1845995893
 21
99.8872903879
 31
0.0
  0
LINE
  5
F7
330
1F
100
AcDbEntity
  8
0
  6
HIDDEN
 62
     7
370
    18
100
AcDbLine
 10
204.8465772971
 20
128.4646406571
 30
0.0
 11
201.1845995893
 21
128.4646406571
 31
0.0
  0
LINE
  5
F8
330
1F
100
AcDbEntity
  8
0
  6
HIDDEN
 62
     7
370
    18
100
AcDbLine
 10
201.1845995893
 20
96.4646406571
 30
0.0
 11
204.8408026885
 21
96.4646406571
 31
0.0
  0
LINE
  5
F9
330
1F
100
AcDbEntity
  8
0
  6
HIDDEN
 62
     7
370
    18
100
AcDbLine
 10
180.6345995893
 20
100.1646406571
 30
0.0
 11
181.3751249663
 21
100.1646406571
 31
0.0
  0
LINE
  5
FA
330
1F
100
AcDbEntity
  8
0
  6
HIDDEN
 62
     7
370
    18
100
AcDbLine
 10
181.3751249663
 20
124.7646406571
 30
0.0
 11
180.6345995893
 21
124.7646406571
 31
0.0
  0
ARC
  5
FB
330
1F
100
AcDbEntity
  8
0
  6
HIDDEN
 62
     7
370
    18
100
AcDbCircle
 10
180.6345995893
 20
100.7646406571
 30
0.0
 40
0.6000000000000085
100
AcDbArc
 50
180.0
 51
270.0
  0
ARC
  5
FC
330
1F
100
AcDbEntity
  8
0
  6
HIDDEN
 62
     7
370
    18
100
AcDbCircle
 10
180.6345995893
 20
124.1646406571
 30
0.0
 40
0.5999999999999943
100
AcDbArc
 50
90.0
 51
180.0
  0
ARC
  5
FD
330
1F
100
AcDbEntity
  8
0
  6
HIDDEN
 62
     7
370
    18
100
AcDbCircle
 10
181.3751249663
 20
100.7646406571
 30
0.0
 40
0.5999999999999943
100
AcDbArc
 50
270.0
 51
285.0
  0
ARC
  5
FE
330
1F
100
AcDbEntity
  8
0
  6
HIDDEN
 62
     7
370
    18
100
AcDbCircle
 10
181.3751249663
 20
124.1646406571
 30
0.0
 40
0.5999999999999801
100
AcDbArc
 50
75.0
 51
90.0
  0
LINE
  5
FF
330
1F
100
AcDbEntity
  8
0
  6
HIDDEN
 62
     7
370
    18
100
AcDbLine
 10
181.5304163934
 20
100.1850851613
 30
0.0
 11
182.5737317071
 21
100.4646406571
 31
0.0
  0
LINE
  5
100
330
1F
100
AcDbEntity
  8
0
  6
HIDDEN
 62
     7
370
    18
100
AcDbLine
 10
182.5737317071
 20
124.4646406571
 30
0.0
 11
181.5304163934
 21
124.7441961529
 31
0.0
  0
LINE
  5
101
330
1F
100
AcDbEntity
  8
0
  6
HIDDEN
 62
     7
370
    18
100
AcDbLine
 10
182.5737317071
 20
100.4646406571
 30
0.0
 11
200.1845995893
 21
100.4646406571
 31
0.0
  0
LINE
  5
102
330
1F
100
AcDbEntity
  8
0
  6
HIDDEN
 62
     7
370
    18
100
AcDbLine
 10
200.1845995893
 20
124.4646406571
 30
0.0
 11
182.5737317071
 21
124.4646406571
 31
0.0
  0
ARC
  5
103
330
1F
100
AcDbEntity
  8
0
  6
HIDDEN
 62
     7
370
    18
100
AcDbCircle
 10
83.4345995893
 20
103.1646406571
 30
0.0
 40
0.7999999999999972
100
AcDbArc
 50
90.0
 51
180.0
  0
ARC
  5
104
330
1F
100
AcDbEntity
  8
0
  6
HIDDEN
 62
     7
370
    18
100
AcDbCircle
 10
83.4345995893
 20
121.7646406571
 30
0.0
 40
0.7999999999999972
100
AcDbArc
 50
180.0
 51
270.0
  0
ARC
  5
105
330
1F
100
AcDbEntity
  8
0
  6
HIDDEN
 62
     7
370
    18
100
AcDbCircle
 10
91.4036594816
 20
104.1396406571
 30
0.0
 40
0.4000000000000057
100
AcDbArc
 50
270.0
 51
330.0
  0
ARC
  5
106
330
1F
100
AcDbEntity
  8
0
  6
HIDDEN
 62
     7
370
    18
100
AcDbCircle
 10
91.4036594816
 20
120.7896406571
 30
0.0
 40
0.4000000000000057
100
AcDbArc
 50
30.0
 51
90.0
  0
LINE
  5
107
330
1F
100
AcDbEntity
  8
0
  6
HIDDEN
 62
     7
370
    18
100
AcDbLine
 10
90.5269720201
 20
103.7396406571
 30
0.0
 11
91.4036594816
 21
103.7396406571
 31
0.0
  0
LINE
  5
108
330
1F
100
AcDbEntity
  8
0
  6
HIDDEN
 62
     7
370
    18
100
AcDbLine
 10
91.4036594816
 20
121.1896406571
 30
0.0
 11
90.5269720201
 21
121.1896406571
 31
0.0
  0
ARC
  5
109
330
1F
100
AcDbEntity
  8
0
  6
HIDDEN
 62
     7
370
    18
100
AcDbCircle
 10
90.5269720201
 20
104.1396406571
 30
0.0
 40
0.4000000000000057
100
AcDbArc
 50
255.0
 51
270.0
  0
ARC
  5
10A
330
1F
100
AcDbEntity
  8
0
  6
HIDDEN
 62
     7
370
    18
100
AcDbCircle
 10
90.5269720201
 20
120.7896406571
 30
0.0
 40
0.4000000000000057
100
AcDbArc
 50
90.0
 51
105.0
  0
LINE
  5
10B
330
1F
100
AcDbEntity
  8
0
  6
HIDDEN
 62
     7
370
    18
100
AcDbLine
 10
90.423444402
 20
121.1760109876
 30
0.0
 11
89.6345995893
 21
120.9646406571
 31
0.0
  0
LINE
  5
10C
330
1F
100
AcDbEntity
  8
0
  6
HIDDEN
 62
     7
370
    18
100
AcDbLine
 10
89.6345995893
 20
103.9646406571
 30
0.0
 11
90.423444402
 21
103.7532703266
 31
0.0
  0
LINE
  5
10D
330
1F
100
AcDbEntity
  8
0
  6
HIDDEN
 62
     7
370
    18
100
AcDbLine
 10
91.7500696432
 20
103.9396406571
 30
0.0
 11
92.6305288037
 21
105.4646406571
 31
0.0
  0
LINE
  5
10E
330
1F
100
AcDbEntity
  8
0
  6
HIDDEN
 62
     7
370
    18
100
AcDbLine
 10
92.6305288037
 20
119.4646406571
 30
0.0
 11
91.7500696432
 21
120.9896406571
 31
0.0
  0
LINE
  5
10F
330
1F
100
AcDbEntity
  8
0
  6
HIDDEN
 62
     7
370
    18
100
AcDbLine
 10
83.4345995893
 20
103.9646406571
 30
0.0
 11
89.6345995893
 21
103.9646406571
 31
0.0
  0
LINE
  5
110
330
1F
100
AcDbEntity
  8
0
  6
HIDDEN
 62
     7
370
    18
100
AcDbLine
 10
89.6345995893
 20
120.9646406571
 30
0.0
 11
83.4345995893
 21
120.9646406571
 31
0.0
  0
LINE
  5
111
330
1F
100
AcDbEntity
  8
0
  6
HIDDEN
 62
     7
370
    18
100
AcDbLine
 10
205.0345995893
 20
130.4646406571
 30
0.0
 11
204.4845995893
 21
129.2851618508
 31
0.0
  0
LINE
  5
112
330
1F
100
AcDbEntity
  8
0
  6
HIDDEN
 62
     7
370
    18
100
AcDbLine
 10
204.4845995893
 20
95.6441194634
 30
0.0
 11
205.0345995893
 21
94.4646406571
 31
0.0
  0
LINE
  5
113
330
1F
100
AcDbEntity
  8
0
  6
HIDDEN
 62
     7
370
    18
100
AcDbLine
 10
171.0345995893
 20
81.9646489581
 30
0.0
 11
171.0345995893
 21
88.3646406571
 31
0.0
  0
ARC
  5
114
330
1F
100
AcDbEntity
  8
0
  6
HIDDEN
 62
     7
370
    18
100
AcDbCircle
 10
169.4345995893
 20
136.5646406571
 30
0.0
 40
1.599999999999994
100
AcDbArc
 50
270.0
 51
0.0
  0
LINE
  5
115
330
1F
100
AcDbEntity
  8
0
  6
HIDDEN
 62
     7
370
    18
100
AcDbLine
 10
171.0345995893
 20
136.5646406571
 30
0.0
 11
171.0345995893
 21
142.9645693609
 31
0.0
  0
ARC
  5
116
330
1F
100
AcDbEntity
  8
0
  6
HIDDEN
 62
     7
370
    18
100
AcDbCircle
 10
169.4345995893
 20
88.3646406571
 30
0.0
 40
1.600000000000009
100
AcDbArc
 50
0.0
 51
90.0
  0
LINE
  5
117
330
1F
100
AcDbEntity
  8
0
  6
HIDDEN
 62
     7
370
    18
100
AcDbLine
 10
125.6345995893
 20
105.4646406571
 30
0.0
 11
127.2869662916
 21
108.2146406571
 31
0.0
  0
LINE
  5
118
330
1F
100
AcDbEntity
  8
0
  6
HIDDEN
 62
     7
370
    18
100
AcDbLine
 10
127.2869662916
 20
116.7146406571
 30
0.0
 11
125.6345995893
 21
119.4646406571
 31
0.0
  0
LINE
  5
119
330
1F
100
AcDbEntity
  8
0
  6
HIDDEN
 62
     7
370
    18
100
AcDbLine
 10
92.6305288037
 20
105.4646406571
 30
0.0
 11
125.6345995893
 21
105.4646406571
 31
0.0
  0
LINE
  5
11A
330
1F
100
AcDbEntity
  8
0
  6
HIDDEN
 62
     7
370
    18
100
AcDbLine
 10
125.6345995893
 20
119.4646406571
 30
0.0
 11
92.6305288037
 21
119.4646406571
 31
0.0
  0
LINE
  5
11B
330
1F
100
AcDbEntity
  8
0
  6
HIDDEN
 62
     7
370
    18
100
AcDbLine
 10
171.0345986793
 20
142.9646404452
 30
0.0
 11
172.0345980487
 21
143.9646401919
 31
0.0
  0
LINE
  5
11C
330
1F
100
AcDbEntity
  8
0
  6
HIDDEN
 62
     7
370
    18
100
AcDbLine
 10
172.0346059507
 20
80.9646395194
 30
0.0
 11
171.0346057018
 21
81.9646393239
 31
0.0
  0
LINE
  5
11D
330
1F
100
AcDbEntity
  8
0
  6
HIDDEN
 62
     7
370
    18
100
AcDbLine
 10
204.4845995893
 20
128.9896406571
 30
0.0
 11
201.1845995893
 21
128.9896406571
 31
0.0
  0
LINE
  5
11E
330
1F
100
AcDbEntity
  8
0
  6
HIDDEN
 62
     7
370
    18
100
AcDbLine
 10
201.1845995893
 20
95.9396406571
 30
0.0
 11
204.4845995893
 21
95.9396406571
 31
0.0
  0
LINE
  5
11F
330
1F
100
AcDbEntity
  8
0
  6
HIDDEN
 62
     7
370
    18
100
AcDbLine
 10
127.2869662916
 20
108.2146406571
 30
0.0
 11
180.0345995893
 21
108.2146406571
 31
0.0
  0
LINE
  5
120
330
1F
100
AcDbEntity
  8
0
  6
HIDDEN
 62
     7
370
    18
100
AcDbLine
 10
180.0345995893
 20
116.7146406571
 30
0.0
 11
127.2869662916
 21
116.7146406571
 31
0.0
  0
LINE
  5
121
330
1F
100
AcDbEntity
  8
0
  6
HIDDEN
 62
     7
370
    18
100
AcDbLine
 10
204.8408026885
 20
96.4646406571
 30
0.0
 11
204.8465772971
 21
96.4646406571
 31
0.0
  0
DIMENSION
  5
122
330
1F
100
AcDbEntity
  8
VERMASSUNG
100
AcDbDimension
  2
_D
 10
60.6345995893
 20
80.9646406571
 30
0.0
 11
60.6345995893
 21
112.4646406571
 31
0.0
 70
   160
  1
MAS BT 40 %%c<>
 71
     2
 42
-1.0
  3
SLDDIMSTYLE0
100
AcDbAlignedDimension
 13
172.0345954452
 23
143.9646406571
 33
0.0
 14
172.0346003554
 24
80.9646406571
 34
0.0
 50
90.0
100
AcDbRotatedDimension
  0
DIMENSION
  5
12F
330
1F
100
AcDbEntity
  8
VERMASSUNG
100
AcDbDimension
  2
_D_1
 10
205.0345995893
 20
162.6236988661
 30
0.0
 11
143.8345995893
 21
162.6236988661
 31
0.0
 70
   160
  1
<>
 71
     2
 42
-1.0
  3
SLDDIMSTYLE0
100
AcDbAlignedDimension
 13
82.6345995893
 23
124.2873962541
 33
0.0
 14
205.0345995893
 24
133.0646406571
 34
0.0
100
AcDbRotatedDimension
  0
DIMENSION
  5
139
330
1F
100
AcDbEntity
  8
VERMASSUNG
100
AcDbDimension
  2
_D_2
 10
205.0345995893
 20
156.6236988661
 30
0.0
 11
176.5345995893
 21
156.6236988661
 31
0.0
 70
   160
  1
<>
 71
     2
 42
-1.0
  3
SLDDIMSTYLE0
100
AcDbAlignedDimension
 13
148.0345995893
 23
134.6896406571
 33
0.0
 14
205.0345995893
 24
133.0646406571
 34
0.0
100
AcDbRotatedDimension
  0
DIMENSION
  5
143
330
1F
100
AcDbEntity
  8
VERMASSUNG
100
AcDbDimension
  2
_D_3
 10
205.0345995893
 20
150.6236988661
 30
0.0
 11
190.0345995893
 21
150.6236988661
 31
0.0
 70
   160
  1
<>
 71
     2
 42
-1.0
  3
SLDDIMSTYLE0
100
AcDbAlignedDimension
 13
175.0345995893
 23
142.9646406571
 33
0.0
 14
205.0345995893
 24
133.0646406571
 34
0.0
100
AcDbRotatedDimension
  0
DIMENSION
  5
14D
330
1F
100
AcDbEntity
  8
VERMASSUNG
100
AcDbDimension
  2
_D_4
 10
216.757096593
 20
91.4646406571
 30
0.0
 11
216.757096593
 21
112.4646406571
 31
0.0
 70
   160
  1
MBM %%c<>
 71
     2
 42
-1.0
  3
SLDDIMSTYLE0
100
AcDbAlignedDimension
 13
204.6345995893
 23
133.4646406571
 33
0.0
 14
204.6345995893
 24
91.4646406571
 34
0.0
 50
90.0
100
AcDbRotatedDimension
  0
DIMENSION
  5
159
330
1F
100
AcDbEntity
  8
VERMASSUNG
100
AcDbDimension
  2
_D_5
 10
74.154161764
 20
103.9646406571
 30
0.0
 11
74.154161764
 21
112.4646406571
 31
0.0
 70
   160
  1
M<>
 71
     2
 42
-1.0
  3
SLDDIMSTYLE0
100
AcDbAlignedDimension
 13
83.4345995893
 23
120.9646406571
 33
0.0
 14
83.4345995893
 24
103.9646406571
 34
0.0
 50
90.0
100
AcDbRotatedDimension
  0
DIMENSION
  5
164
330
1F
100
AcDbEntity
  8
VERMASSUNG
100
AcDbDimension
  2
_D_6
 10
67.9265458685
 20
90.2396406571
 30
0.0
 11
67.9265458685
 21
112.4646406571
 31
0.0
 70
   160
  1
%%c<>
 71
     2
 42
-1.0
  3
SLDDIMSTYLE0
100
AcDbAlignedDimension
 13
148.0345995893
 23
134.6896406571
 33
0.0
 14
148.0345995893
 24
90.2396406571
 34
0.0
 50
90.0
100
AcDbRotatedDimension
  0
LINE
  5
16F
330
1F
100
AcDbEntity
  8
VERMASSUNG
  6
CENTERX2
 62
     7
370
    18
100
AcDbLine
 10
80.6345995893
 20
112.4646406571
 30
0.0
 11
207.0345995893
 21
112.4646406571
 31
0.0
  0
LINE
  5
170
330
1F
100
AcDbEntity
  8
0
  6
Continuous
 62
     7
370
    25
100
AcDbLine
 10
279.1929274201
 20
17.2869248971
 30
0.0
 11
279.3343257914
 21
17.3685789773
 31
0.0
  0
LINE
  5
171
330
1F
100
AcDbEntity
  8
0
  6
Continuous
 62
     7
370
    25
100
AcDbLine
 10
286.6163419128
 20
29.9827676547
 30
0.0
 11
286.6163419128
 21
30.1460492771
 31
0.0
  0
LINE
  5
172
330
1F
100
AcDbEntity
  8
0
  6
Continuous
 62
     7
370
    25
100
AcDbLine
 10
264.8911805649
 20
21.9914055507
 30
0.0
 11
273.942147364
 21
16.766393635
 31
0.0
  0
LINE
  5
173
330
1F
100
AcDbEntity
  8
0
  6
Continuous
 62
     7
370
    25
100
AcDbLine
 10
284.4412940567
 20
34.953419745
 30
0.0
 11
275.3903272575
 21
40.1784316607
 31
0.0
  0
SPLINE
  5
174
330
1F
100
AcDbEntity
  8
0
  6
Continuous
 62
     7
370
    25
100
AcDbSpline
210
0.0
220
0.0
230
1.0
 70
     8
 71
     3
 72
    16
 73
    12
 74
     0
 42
0.000000001
 43
0.00000001
 40
0.0
 40
0.0
 40
0.0
 40
0.0
 40
0.0921000406490677
 40
0.2129127824052122
 40
0.3344871618759847
 40
0.4568349046866369
 40
0.5798401305000467
 40
0.7033258651745449
 40
0.8271127921473928
 40
0.9510534660977228
 40
0.9999999999999999
 40
0.9999999999999999
 40
0.9999999999999999
 40
0.9999999999999999
 10
262.0166998764665
 20
17.87065217637013
 30
0.0
 10
262.2119058355577
 20
17.82551352019211
 30
0.0
 10
262.6631742997115
 20
17.72116398013582
 30
0.0
 10
263.4140686187449
 20
17.67095370130982
 30
0.0
 10
264.2566216819648
 20
17.70131195036205
 30
0.0
 10
265.1285486518065
 20
17.83138196482929
 30
0.0
 10
266.0224457882493
 20
18.05724752283133
 30
0.0
 10
266.9325878706246
 20
18.37689625815542
 30
0.0
 10
267.8518165673364
 20
18.79445368230137
 30
0.0
 10
268.5890621497448
 20
19.18356714089592
 30
0.0
 10
269.0156198930508
 20
19.46190187678063
 30
0.0
 10
269.1363837326854
 20
19.54070192656671
 30
0.0
  0
SPLINE
  5
175
330
1F
100
AcDbEntity
  8
0
  6
Continuous
 62
     7
370
    25
100
AcDbSpline
210
0.0
220
0.0
230
1.0
 70
     8
 71
     3
 72
    16
 73
    12
 74
     0
 42
0.000000001
 43
0.00000001
 40
0.0
 40
0.0
 40
0.0
 40
0.0
 40
0.0900741320006656
 40
0.2139488854351713
 40
0.3378698051853722
 40
0.4617405545002813
 40
0.5854357719848967
 40
0.7087827402732267
 40
0.8315779669734258
 40
0.9536328143681251
 40
1.0
 40
1.0
 40
1.0
 40
1.0
 10
279.6369900700161
 20
37.72688540163941
 30
0.0
 10
279.6464100437819
 20
37.99017775773284
 30
0.0
 10
279.6687848681989
 20
38.61556381340277
 30
0.0
 10
279.6150919478305
 20
39.55606371703945
 30
0.0
 10
279.4891949765174
 20
40.5470132478228
 30
0.0
 10
279.2842873269245
 20
41.48156823914223
 30
0.0
 10
279.0042515385999
 20
42.35399464972932
 30
0.0
 10
278.6513145926305
 20
43.15903994991181
 30
0.0
 10
278.2229971337954
 20
43.8835173162451
 30
0.0
 10
277.840837262573
 20
44.41164642596278
 30
0.0
 10
277.580147386512
 20
44.6670117235582
 30
0.0
 10
277.5083785350234
 20
44.73731469962831
 30
0.0
  0
LINE
  5
176
330
1F
100
AcDbEntity
  8
0
  6
Continuous
 62
     7
370
    25
100
AcDbLine
 10
258.9518308549
 20
19.3581055353
 30
0.0
 11
260.4986269387
 21
18.4651591629
 31
0.0
  0
LINE
  5
177
330
1F
100
AcDbEntity
  8
0
  6
Continuous
 62
     7
370
    25
100
AcDbLine
 10
276.2473469777
 20
45.7456983279
 30
0.0
 11
274.7005508939
 21
46.6386447002
 31
0.0
  0
LINE
  5
178
330
1F
100
AcDbEntity
  8
0
  6
Continuous
 62
     7
370
    25
100
AcDbLine
 10
271.1473393184
 20
48.6898700812
 30
0.0
 11
268.1156189941
 21
50.4400449709
 31
0.0
  0
SPLINE
  5
179
330
1F
100
AcDbEntity
  8
0
  6
Continuous
 62
     7
370
    25
100
AcDbSpline
210
0.0
220
0.0
230
1.0
 70
     8
 71
     3
 72
    31
 73
    27
 74
     0
 42
0.000000001
 43
0.00000001
 40
0.0
 40
0.0
 40
0.0
 40
0.0
 40
0.0402071794404958
 40
0.0826853871717823
 40
0.1254366011902023
 40
0.1684538225719296
 40
0.2116898534772222
 40
0.2550809094636634
 40
0.298565689985791
 40
0.3420954679365975
 40
0.3856332352755184
 40
0.4291570362714187
 40
0.4726584948907879
 40
0.5161349544904095
 40
0.5595873200540521
 40
0.6030186057420717
 40
0.6464330181547768
 40
0.6898354087993577
 40
0.7332309658423045
 40
0.7766250527860269
 40
0.8200224444905458
 40
0.8634275229650872
 40
0.9068458343367338
 40
0.9502828859323489
 40
0.9937440064294962
 40
1.0
 40
1.0
 40
1.0
 40
1.0
 10
266.581442919369
 20
51.04539242890986
 30
0.0
 10
266.3364880084374
 20
51.09577834364552
 30
0.0
 10
265.8327423607234
 20
51.19939612847644
 30
0.0
 10
265.0257135059726
 20
51.23600261257262
 30
0.0
 10
264.1764838305829
 20
51.18454370779707
 30
0.0
 10
263.2994539802223
 20
51.03431561608648
 30
0.0
 10
262.4016031584408
 20
50.7885852919459
 30
0.0
 10
261.4890074632233
 20
50.44814002534888
 30
0.0
 10
260.5682928619521
 20
50.01560790440838
 30
0.0
 10
259.6459641892299
 20
49.49417851443791
 30
0.0
 10
258.7283987394121
 20
48.8877757931046
 30
0.0
 10
257.821746147259
 20
48.20084063214761
 30
0.0
 10
256.9319242819132
 20
47.43825188084549
 30
0.0
 10
256.0646489850553
 20
46.60527860061015
 30
0.0
 10
255.2254682958222
 20
45.70757909292517
 30
0.0
 10
254.419749956701
 20
44.75117666944021
 30
0.0
 10
253.652659811377
 20
43.74243282169863
 30
0.0
 10
252.9291371827532
 20
42.68801600086857
 30
0.0
 10
252.2538590713184
 20
41.59486328930521
 30
0.0
 10
251.6312403309794
 20
40.47015137967064
 30
0.0
 10
251.0653098029921
 20
39.32123325034505
 30
0.0
 10
250.5600387573062
 20
38.15566746422841
 30
0.0
 10
250.1179700694576
 20
36.98083787275702
 30
0.0
 10
249.7452324612048
 20
35.80510778057631
 30
0.0
 10
249.5219811809125
 20
34.9679029013263
 30
0.0
 10
249.4259987022625
 20
34.52602514386763
 30
0.0
 10
249.4139210549457
 20
34.47042287367455
 30
0.0
  0
LINE
  5
17A
330
1F
100
AcDbEntity
  8
0
  6
Continuous
 62
     7
370
    25
100
AcDbLine
 10
259.1105781453
 20
49.1256931563
 30
0.0
 11
239.2161213166
 21
56.2948668083
 31
0.0
  0
LINE
  5
17B
330
1F
100
AcDbEntity
  8
0
  6
Continuous
 62
     7
370
    25
100
AcDbLine
 10
232.8446519052
 20
45.2579621973
 30
0.0
 11
251.8725259916
 21
29.19098262
 31
0.0
  0
LINE
  5
17C
330
1F
100
AcDbEntity
  8
0
  6
Continuous
 62
     7
370
    25
100
AcDbLine
 10
252.3668989551
 20
23.1595058059
 30
0.0
 11
255.3986192794
 21
21.4093309162
 31
0.0
  0
SPLINE
  5
17D
330
1F
100
AcDbEntity
  8
0
  6
Continuous
 62
     7
370
    25
100
AcDbSpline
210
0.0
220
0.0
230
1.0
 70
     8
 71
     3
 72
    12
 73
     8
 74
     0
 42
0.000000001
 43
0.00000001
 40
0.0
 40
0.0
 40
0.0
 40
0.0
 40
0.081972114925892
 40
0.3262947317378313
 40
0.5699393302465897
 40
0.8122686066130498
 40
1.0
 40
1.0
 40
1.0
 40
1.0
 10
249.4036918986889
 20
27.22626330378852
 30
0.0
 10
249.4326164281285
 20
27.1270420524666
 30
0.0
 10
249.5477521859736
 20
26.73208613834821
 30
0.0
 10
249.8024784208683
 20
26.08685615074341
 30
0.0
 10
250.1969160070482
 20
25.32582193397274
 30
0.0
 10
250.6216825829756
 20
24.68519775730387
 30
0.0
 10
250.9437936088152
 20
24.33738349541499
 30
0.0
 10
251.0844024948611
 20
24.18555455448513
 30
0.0
  0
SPLINE
  5
17E
330
1F
100
AcDbEntity
  8
0
  6
Continuous
 62
     7
370
    25
100
AcDbSpline
210
0.0
220
0.0
230
1.0
 70
     8
 71
     3
 72
    26
 73
    22
 74
     0
 42
0.000000001
 43
0.00000001
 40
0.0
 40
0.0
 40
0.0
 40
0.0
 40
0.0063577917309599
 40
0.0608172119427106
 40
0.1158226120077877
 40
0.1718995880981413
 40
0.2291120024531832
 40
0.2871585059074393
 40
0.3456311422881006
 40
0.4041979078436063
 40
0.46268901061345
 40
0.5210725802187433
 40
0.5793625745540052
 40
0.6375931996758091
 40
0.6958068672880786
 40
0.7540457071219872
 40
0.8123453737145434
 40
0.8707539214748251
 40
0.9293171952967048
 40
0.9849457275711777
 40
0.9999999999999999
 40
0.9999999999999999
 40
0.9999999999999999
 40
0.9999999999999999
 10
239.1948522124208
 20
56.29676058785194
 30
0.0
 10
239.1768067979091
 20
56.30494191328732
 30
0.0
 10
239.0041884037574
 20
56.38320264028673
 30
0.0
 10
238.6357824668302
 20
56.44177022679352
 30
0.0
 10
238.0993832010072
 20
56.46472337133749
 30
0.0
 10
237.5324289020416
 20
56.38225106530505
 30
0.0
 10
236.9469327381139
 20
56.20651840718859
 30
0.0
 10
236.350305030787
 20
55.93552895231078
 30
0.0
 10
235.7538401207379
 20
55.57459091430575
 30
0.0
 10
235.1684431556562
 20
55.13046200249935
 30
0.0
 10
234.6042128098935
 20
54.6117945459111
 30
0.0
 10
234.0700741685052
 20
54.0278932258849
 30
0.0
 10
233.5741183183787
 20
53.38857683088856
 30
0.0
 10
233.1238439522182
 20
52.70421074844651
 30
0.0
 10
232.7261695076416
 20
51.98566107727655
 30
0.0
 10
232.3873584634888
 20
51.24419593449896
 30
0.0
 10
232.1130097520429
 20
50.49133067581612
 30
0.0
 10
231.9076617967912
 20
49.7384306567367
 30
0.0
 10
231.7784789580022
 20
49.0104302306653
 30
0.0
 10
231.7348771760166
 20
48.48197904516852
 30
0.0
 10
231.7323280441744
 20
48.20268805662385
 30
0.0
 10
231.731785121106
 20
48.1432036792549
 30
0.0
  0
SPLINE
  5
17F
330
1F
100
AcDbEntity
  8
0
  6
Continuous
 62
     7
370
    25
100
AcDbSpline
210
0.0
220
0.0
230
1.0
 70
     8
 71
     3
 72
    13
 73
     9
 74
     0
 42
0.000000001
 43
0.00000001
 40
0.0
 40
0.0
 40
0.0
 40
0.0
 40
0.1048187832573764
 40
0.3030452489096746
 40
0.5013034338859078
 40
0.6979872438886775
 40
0.8913612996978455
 40
1.0
 40
1.0
 40
1.0
 40
1.0
 10
231.731785121106
 20
48.1432036792549
 30
0.0
 10
231.7340245707935
 20
48.02152214991126
 30
0.0
 10
231.7404991220797
 20
47.66972442624267
 30
0.0
 10
231.8131848631967
 20
47.1198056645318
 30
0.0
 10
231.9760791717738
 20
46.51861198551199
 30
0.0
 10
232.2239222876296
 20
45.98841671904122
 30
0.0
 10
232.4919439995364
 20
45.58664282766916
 30
0.0
 10
232.70327782172
 20
45.40015858862349
 30
0.0
 10
232.7792978947378
 20
45.33307729835744
 30
0.0
  0
LINE
  5
180
330
1F
100
AcDbEntity
  8
0
  6
Continuous
 62
     7
370
    25
100
AcDbLine
 10
277.0177120484
 20
37.9337028015
 30
0.0
 11
276.8409066289
 21
38.0358035753
 31
0.0
  0
LINE
  5
181
330
1F
100
AcDbEntity
  8
0
  6
Continuous
 62
     7
370
    25
100
AcDbLine
 10
272.9511874004
 20
38.0358035753
 30
0.0
 11
272.7743819809
 21
37.9337028015
 31
0.0
  0
LINE
  5
182
330
1F
100
AcDbEntity
  8
0
  6
Continuous
 62
     7
370
    25
100
AcDbLine
 10
277.8960470147
 20
36.3010192455
 30
0.0
 11
277.8960470147
 21
36.7092896515
 31
0.0
  0
LINE
  5
183
330
1F
100
AcDbEntity
  8
0
  6
Continuous
 62
     7
370
    25
100
AcDbLine
 10
271.8960470147
 20
36.7092896515
 30
0.0
 11
271.8960470147
 21
36.3010192455
 31
0.0
  0
LWPOLYLINE
  5
184
330
1F
100
AcDbEntity
  8
0
  6
Continuous
 62
     7
370
    25
100
AcDbPolyline
 90
       60
 70
   128
 43
0.0
 10
272.0499422204
 20
21.5737641029
 10
272.0912030026
 20
22.4915510269
 10
272.2145178482
 20
23.4465777435
 10
272.4184895506
 20
24.4280234183
 10
272.700807029
 20
25.4247678797
 10
273.0582715135
 20
26.4255176148
 10
273.4868327887
 20
27.418933729
 10
273.981635084
 20
28.3937604209
 10
274.5370720919
 20
29.3389525145
 10
275.1468504889
 20
30.2438006058
 10
275.8040612423
 20
31.0980524043
 10
276.5012578916
 20
31.8920288958
 10
277.2305409201
 20
32.6167340093
 10
277.9836472598
 20
33.2639565464
 10
278.7520439149
 20
33.8263632172
 10
279.5270246443
 20
34.2975817292
 10
280.2998086065
 20
34.6722729885
 10
281.0616398506
 20
34.9461915934
 10
281.8038865242
 20
35.1162339366
 10
282.5181386757
 20
35.1804733705
 10
283.1963035431
 20
35.1381820365
 10
283.8306972472
 20
34.9898391124
 10
284.4141318541
 20
34.7371253829
 10
284.9399968163
 20
34.3829041954
 10
285.4023338739
 20
33.9311890175
 10
285.7959045632
 20
33.3870979628
 10
286.116249571
 20
32.7567958001
 10
286.3597392604
 20
32.047424105
 10
286.5236147959
 20
31.2670203422
 10
286.6060194022
 20
30.4244267981
 10
286.6060194022
 20
29.5291903942
 10
286.5236147959
 20
28.5914545169
 10
286.3597392604
 20
27.6218440881
 10
286.116249571
 20
26.6313451816
 10
285.7959045632
 20
25.6311805457
 10
285.4023338739
 20
24.6326824454
 10
284.9399968163
 20
23.6471642632
 10
284.4141318541
 20
22.6857923138
 10
283.8306972472
 20
21.7594593256
 10
283.1963035431
 20
20.8786610214
 10
282.5181386757
 20
20.0533771981
 10
281.8038865242
 20
19.2929586511
 10
281.0616398506
 20
18.6060212264
 10
280.2998086065
 20
18.0003481995
 10
279.5270246443
 20
17.4828020878
 10
278.7520439149
 20
17.0592468955
 10
277.9836472598
 20
16.7344816722
 10
277.2305409201
 20
16.5121861378
 10
276.5012578916
 20
16.3948789893
 10
275.8040612423
 20
16.3838893637
 10
275.1468504889
 20
16.4793417778
 10
274.5370720919
 20
16.6801547177
 10
273.981635084
 20
16.9840528924
 10
273.4868327887
 20
17.3875930142
 10
273.0582715135
 20
17.8862028124
 10
272.700807029
 20
18.4742328386
 10
272.4184895506
 20
19.1450204777
 10
272.2145178482
 20
19.8909654377
 10
272.0912030026
 20
20.7036158641
 10
272.0499422204
 20
21.5737641029
  0
LWPOLYLINE
  5
185
330
1F
100
AcDbEntity
  8
0
  6
Continuous
 62
     7
370
    25
100
AcDbPolyline
 90
       31
 70
   128
 43
0.0
 10
271.7670995079
 20
21.5737641029
 10
271.8091614704
 20
22.5093721322
 10
271.934870779
 20
23.4829430569
 10
272.142803097
 20
24.4834459293
 10
272.4306024681
 20
25.4995446521
 10
272.7950080106
 20
26.5197264208
 10
273.2318908639
 20
27.5324321683
 10
273.7363009709
 20
28.5261875338
 10
274.3025231633
 20
29.489732872
 10
274.9241419176
 20
30.4121508292
 10
275.5941140448
 20
31.2829900412
 10
276.3048484931
 20
32.0923835519
 10
277.0482923572
 20
32.8311606094
 10
277.8160221209
 20
33.4909505745
 10
278.5993390994
 20
34.0642777631
 10
279.3893679983
 20
34.5446461491
 10
280.1771574744
 20
34.9266129669
 10
280.9537815582
 20
35.2058503796
 10
281.7104407885
 20
35.3791945159
 10
282.4385619138
 20
35.4446813174
 10
283.129895031
 20
35.4015687925
 10
283.7766070595
 20
35.2503454233
 10
284.3713704937
 20
34.9927246311
 10
284.9074464261
 20
34.6316253622
 10
285.3787609023
 20
34.1711390159
 10
285.7799737409
 20
33.6164830862
 10
286.1065390401
 20
32.9739420467
 10
286.3547566846
 20
32.2507961439
 10
286.5218142694
 20
31.4552389099
 10
286.6058189651
 20
30.5962843261
 10
286.6163419128
 20
30.1460492771
  0
LWPOLYLINE
  5
186
330
1F
100
AcDbEntity
  8
0
  6
Continuous
 62
     7
370
    25
100
AcDbPolyline
 90
       16
 70
   128
 43
0.0
 10
279.1929274201
 20
17.2869248971
 10
278.5993390994
 20
16.9715863672
 10
277.8160221209
 20
16.6405150231
 10
277.0482923572
 20
16.4139030705
 10
276.3048484931
 20
16.2943181133
 10
275.5941140448
 20
16.2831150969
 10
274.9241419176
 20
16.380420956
 10
274.3025231633
 20
16.5851331762
 10
273.7363009709
 20
16.8949322864
 10
273.2318908639
 20
17.3063081387
 10
272.7950080106
 20
17.8145996805
 10
272.4306024681
 20
18.4140477655
 10
272.142803097
 20
19.0978604073
 10
271.934870779
 20
19.8582897354
 10
271.8091614704
 20
20.6867197818
 10
271.7670995079
 20
21.5737641029
  0
SPLINE
  5
187
330
1F
100
AcDbEntity
  8
0
  6
Continuous
 62
     7
370
    25
100
AcDbSpline
210
0.0
220
0.0
230
1.0
 70
     8
 71
     3
 72
    54
 73
    50
 74
     0
 42
0.000000001
 43
0.00000001
 40
0.0
 40
0.0
 40
0.0
 40
0.0
 40
0.03125
 40
0.03125
 40
0.0625
 40
0.0625
 40
0.1250000000000001
 40
0.1250000000000001
 40
0.1875000000000001
 40
0.1875000000000001
 40
0.2187500000000002
 40
0.2187500000000002
 40
0.2500000000000002
 40
0.2500000000000002
 40
0.3124999999999996
 40
0.3124999999999996
 40
0.3749999999999991
 40
0.3749999999999991
 40
0.4062499999999987
 40
0.4062499999999987
 40
0.4374999999999984
 40
0.4374999999999984
 40
0.4999999999999979
 40
0.4999999999999979
 40
0.5312499999999981
 40
0.5312499999999981
 40
0.5624999999999983
 40
0.5624999999999983
 40
0.6249999999999987
 40
0.6249999999999987
 40
0.6562499999999986
 40
0.6562499999999986
 40
0.6874999999999983
 40
0.6874999999999983
 40
0.7499999999999979
 40
0.7499999999999979
 40
0.7812499999999979
 40
0.7812499999999979
 40
0.8124999999999979
 40
0.8124999999999979
 40
0.8749999999999986
 40
0.8749999999999986
 40
0.906249999999999
 40
0.906249999999999
 40
0.9374999999999993
 40
0.9374999999999993
 40
0.9687499999999997
 40
0.9687499999999997
 40
1.0
 40
1.0
 40
1.0
 40
1.0
 10
277.5476974441191
 20
35.38265964479043
 30
0.0
 10
277.4667796216232
 20
35.33594678017487
 30
0.0
 10
277.3807838151233
 20
35.29056289882151
 30
0.0
 10
277.1984176148988
 20
35.20255628266951
 30
0.0
 10
277.1021213593815
 20
35.16004043050843
 30
0.0
 10
276.806155378751
 20
35.04039358867797
 30
0.0
 10
276.5962716137833
 20
34.96956162045828
 30
0.0
 10
276.1560500094827
 20
34.84777080319375
 30
0.0
 10
275.9322398736119
 20
34.79855191928517
 30
0.0
 10
275.5913074399631
 20
34.7421177268633
 30
0.0
 10
275.476231257511
 20
34.72618288104761
 30
0.0
 10
275.2475128738576
 20
34.70080757391799
 30
0.0
 10
275.1339047058904
 20
34.69133166083036
 30
0.0
 10
274.7951014811532
 20
34.67250229744253
 30
0.0
 10
274.5711024548509
 20
34.6727126330215
 30
0.0
 10
274.1312495866247
 20
34.70045002899414
 30
0.0
 10
273.9194710327172
 20
34.72763467872521
 30
0.0
 10
273.612997435631
 20
34.78878086492134
 30
0.0
 10
273.5127208529045
 20
34.8125758041235
 30
0.0
 10
273.3159282472037
 20
34.86726294815034
 30
0.0
 10
273.2191244649858
 20
34.89829214299951
 30
0.0
 10
272.9393296291855
 20
35.00068578222718
 30
0.0
 10
272.7653628190455
 20
35.08162940685452
 30
0.0
 10
272.5227818793419
 20
35.22199344290094
 30
0.0
 10
272.4450019317298
 20
35.27195013384943
 30
0.0
 10
272.2957521235855
 20
35.37831813417618
 30
0.0
 10
272.2241671022816
 20
35.43488819507782
 30
0.0
 10
272.0229820537379
 20
35.61106938627665
 30
0.0
 10
271.9054263982194
 20
35.73802018817751
 30
0.0
 10
271.7539420084722
 20
35.94161501784061
 30
0.0
 10
271.7076139883042
 20
36.01168265154183
 30
0.0
 10
271.623629907199
 20
36.15614374112688
 30
0.0
 10
271.5859474919606
 20
36.23072554652183
 30
0.0
 10
271.4885351067741
 20
36.45623108579412
 30
0.0
 10
271.4433739048561
 20
36.61026120336478
 30
0.0
 10
271.4066264553095
 20
36.84515981649075
 30
0.0
 10
271.399579597219
 20
36.92410518471908
 30
0.0
 10
271.3966507130978
 20
37.08303578261363
 30
0.0
 10
271.4008616970187
 20
37.16318328529039
 30
0.0
 10
271.4309513552925
 20
37.39919925834223
 30
0.0
 10
271.4739025718918
 20
37.55246482131104
 30
0.0
 10
271.5765278882631
 20
37.77362207332501
 30
0.0
 10
271.6174687714665
 20
37.84620035115441
 30
0.0
 10
271.7107560287807
 20
37.98407723312868
 30
0.0
 10
271.7632370271914
 20
38.04981957476845
 30
0.0
 10
271.8800258108766
 20
38.17463110098163
 30
0.0
 10
271.9443319292255
 20
38.23370140796371
 30
0.0
 10
272.0853251831876
 20
38.34472982490422
 30
0.0
 10
272.1626981594056
 20
38.39702656680618
 30
0.0
 10
272.24439658522
 20
38.44419006412559
 30
0.0
  0
SPLINE
  5
188
330
1F
100
AcDbEntity
  8
0
  6
Continuous
 62
     7
370
    25
100
AcDbSpline
210
0.0
220
0.0
230
1.0
 70
     8
 71
     3
 72
    14
 73
    10
 74
     0
 42
0.000000001
 43
0.00000001
 40
0.0
 40
0.0
 40
0.0
 40
0.0
 40
0.1884630228943162
 40
0.4033271885693714
 40
0.6394783517804279
 40
0.6708097677130158
 40
0.8263193669277722
 40
0.9818842354296061
 40
1.0
 40
1.0
 40
1.0
 40
1.0
 10
272.24439658522
 20
38.44419006412559
 30
0.0
 10
272.4487979394928
 20
38.53862415561131
 30
0.0
 10
272.8862345373597
 20
38.74072128872053
 30
0.0
 10
273.7548118618351
 20
38.82523776495388
 30
0.0
 10
274.4337328038514
 20
38.76145509138113
 30
0.0
 10
275.0200659510361
 20
38.65362457153819
 30
0.0
 10
275.4812831140451
 20
38.53476952047698
 30
0.0
 10
275.9333323723782
 20
38.40384384191555
 30
0.0
 10
276.1304881103584
 20
38.31074536377584
 30
0.0
 10
276.1510524465758
 20
38.30103472372343
 30
0.0
  0
SPLINE
  5
189
330
1F
100
AcDbEntity
  8
0
  6
Continuous
 62
     7
370
    25
100
AcDbSpline
210
0.0
220
0.0
230
1.0
 70
     8
 71
     3
 72
    15
 73
    11
 74
     0
 42
0.000000001
 43
0.00000001
 40
0.0
 40
0.0
 40
0.0
 40
0.0
 40
0.0972682900201844
 40
0.2246277367799271
 40
0.3521784055816238
 40
0.4796769402615562
 40
0.603249121122299
 40
0.7266705708964067
 40
0.9043162868529894
 40
1.0
 40
1.0
 40
1.0
 40
1.0
 10
277.2649025711435
 20
37.76519576156119
 30
0.0
 10
277.3832484367092
 20
37.69284601721667
 30
0.0
 10
277.6565519350412
 20
37.52576423418805
 30
0.0
 10
277.9829128091666
 20
37.25070088333407
 30
0.0
 10
278.2432018886608
 20
36.9483785441138
 30
0.0
 10
278.3874744289805
 20
36.64374170780896
 30
0.0
 10
278.4076579344854
 20
36.33827977825185
 30
0.0
 10
278.2834110891017
 20
35.98952978957816
 30
0.0
 10
277.9902568296183
 20
35.66053484103792
 30
0.0
 10
277.6624514201817
 20
35.45471163298318
 30
0.0
 10
277.5476974441191
 20
35.38265964479043
 30
0.0
  0
ARC
  5
18A
330
1F
100
AcDbEntity
  8
0
  6
Continuous
 62
     7
370
    25
100
AcDbCircle
 10
274.7303677525
 20
19.2085752768
 30
0.0
 40
1.018669791599335
100
AcDbArc
 50
187.5911665598
 51
255.9544965879
  0
LWPOLYLINE
  5
18B
330
1F
100
AcDbEntity
  8
0
  6
Continuous
 62
     7
370
    25
100
AcDbPolyline
 90
       16
 70
   128
 43
0.0
 10
284.1831398105
 20
23.8200485631
 10
283.6757895216
 20
22.9132266345
 10
283.1105307599
 20
22.0446095219
 10
282.4949011558
 20
21.2257800884
 10
281.8371100265
 20
20.4676572865
 10
281.1459289059
 20
19.7803505564
 10
280.4305745779
 20
19.1730250174
 10
279.7005861721
 20
18.6537792535
 10
278.9656979611
 20
18.2295373195
 10
278.2357095553
 20
17.9059564102
 10
277.5203552274
 20
17.6873514225
 10
276.8291741068
 20
17.5766374172
 10
276.1713829774
 20
17.5752907469
 10
275.5557533733
 20
17.6833293691
 10
274.9904946116
 20
17.8993126071
 10
274.4831443228
 20
18.2203603608
  0
ARC
  5
18C
330
1F
100
AcDbEntity
  8
0
  6
Continuous
 62
     7
370
    25
100
AcDbCircle
 10
280.7912239268
 20
26.3462714529
 30
0.0
 40
4.229290182854495
100
AcDbArc
 50
323.3220855209
 51
349.2041011418
  0
LWPOLYLINE
  5
18D
330
1F
100
AcDbEntity
  8
0
  6
Continuous
 62
     7
370
    25
100
AcDbPolyline
 90
        9
 70
   128
 43
0.0
 10
284.9456584676
 20
32.4825263974
 10
285.2706740805
 20
31.8507444319
 10
285.5063841508
 20
31.1276272127
 10
285.649243398
 20
30.3240510392
 10
285.6971030973
 20
29.452102382
 10
285.649243398
 20
28.5248960922
 10
285.5063841508
 20
27.5563781428
 10
285.2706740805
 20
26.5611158693
 10
284.9456584676
 20
25.5540788646
  0
ARC
  5
18E
330
1F
100
AcDbEntity
  8
0
  6
Continuous
 62
     7
370
    25
100
AcDbCircle
 10
283.9359163808
 20
32.3479564809
 30
0.0
 40
1.018669791599228
100
AcDbArc
 50
7.5911665598
 51
75.9544965879
  0
LWPOLYLINE
  5
18F
330
1F
100
AcDbEntity
  8
0
  6
Continuous
 62
     7
370
    25
100
AcDbPolyline
 90
       16
 70
   128
 43
0.0
 10
274.4831443228
 20
27.7364831945
 10
274.9904946116
 20
28.6433051231
 10
275.5557533733
 20
29.5119222357
 10
276.1713829774
 20
30.3307516693
 10
276.8291741068
 20
31.0888744711
 10
277.5203552274
 20
31.7761812012
 10
278.2357095553
 20
32.3835067402
 10
278.9656979611
 20
32.9027525041
 10
279.7005861721
 20
33.3269944381
 10
280.4305745779
 20
33.6505753474
 10
281.1459289059
 20
33.8691803351
 10
281.8371100265
 20
33.9798943404
 10
282.4949011558
 20
33.9812410108
 10
283.1105307599
 20
33.8732023885
 10
283.6757895216
 20
33.6572191505
 10
284.1831398105
 20
33.3361713968
  0
ARC
  5
190
330
1F
100
AcDbEntity
  8
0
  6
Continuous
 62
     7
370
    25
100
AcDbCircle
 10
277.8750602064
 20
25.2102603047
 30
0.0
 40
4.229290182855448
100
AcDbArc
 50
143.3220855209
 51
169.2041011418
  0
LWPOLYLINE
  5
191
330
1F
100
AcDbEntity
  8
0
  6
Continuous
 62
     7
370
    25
100
AcDbPolyline
 90
        9
 70
   128
 43
0.0
 10
273.7206256656
 20
19.0740053602
 10
273.3956100527
 20
19.7057873258
 10
273.1598999824
 20
20.428904545
 10
273.0170407352
 20
21.2324807185
 10
272.9691810359
 20
22.1044293756
 10
273.0170407352
 20
23.0316356654
 10
273.1598999824
 20
24.0001536148
 10
273.3956100527
 20
24.9954158884
 10
273.7206256656
 20
26.0024528931
  0
ARC
  5
192
330
1F
100
AcDbEntity
  8
0
  6
Continuous
 62
     7
370
    25
100
AcDbCircle
 10
273.5697362382
 20
41.107559479
 30
0.0
 40
5.354248672022783
100
AcDbArc
 50
43.666993418
 51
76.5063720986
  0
ARC
  5
193
330
1F
100
AcDbEntity
  8
0
  6
Continuous
 62
     7
370
    25
100
AcDbCircle
 10
263.1777434424
 20
23.1062052257
 30
0.0
 40
5.35748323468885
100
AcDbArc
 50
223.0206611792
 51
256.7657231203
  0
ARC
  5
194
330
1F
100
AcDbEntity
  8
0
  6
Continuous
 62
     7
370
    25
100
AcDbCircle
 10
262.7135487707
 20
25.1056336693
 30
0.0
 40
6.869104842013032
100
AcDbArc
 50
188.2309578672
 51
236.7955268677
  0
SPLINE
  5
195
330
1F
100
AcDbEntity
  8
0
  6
Continuous
 62
     7
370
    25
100
AcDbSpline
210
0.0
220
0.0
230
1.0
 70
     8
 71
     3
 72
    29
 73
    25
 74
     0
 42
0.000000001
 43
0.00000001
 40
0.0
 40
0.0
 40
0.0
 40
0.0
 40
0.022617010504675
 40
0.0451713142265269
 40
0.0676870228522217
 40
0.0901883721292881
 40
0.1126996441720091
 40
0.1352450890217754
 40
0.1578488467233686
 40
0.180534871159394
 40
0.2033268568200607
 40
0.2262481695790738
 40
0.2493217824052779
 40
0.3751991801918881
 40
0.4999614246459502
 40
0.499971796076067
 40
0.6247044141121627
 40
0.7509557879398104
 40
0.7931713871196749
 40
0.8349081045063343
 40
0.8763104515934019
 40
0.9175264576337645
 40
0.9587061619419153
 40
1.0
 40
1.0
 40
1.0
 40
1.0
 10
255.9153637732955
 20
29.27648051128361
 30
0.0
 10
255.9337289984194
 20
29.22764062147841
 30
0.0
 10
255.9704085301702
 20
29.13009625288364
 30
0.0
 10
256.0220983588378
 20
28.98263364347005
 30
0.0
 10
256.0712797186624
 20
28.83469635394075
 30
0.0
 10
256.117769388563
 20
28.68620448870385
 30
0.0
 10
256.161679485023
 20
28.53721252256878
 30
0.0
 10
256.2030446764787
 20
28.38774073399074
 30
0.0
 10
256.2419219631831
 20
28.23782063068492
 30
0.0
 10
256.2783638082045
 20
28.08748182070939
 30
0.0
 10
256.3124257892897
 20
27.93675936909285
 30
0.0
 10
256.3441628423846
 20
27.78567767236855
 30
0.0
 10
256.4173211142516
 20
27.40995646541872
 30
0.0
 10
256.5029976542846
 20
26.82118604371235
 30
0.0
 10
256.5287300161128
 20
26.31970243970089
 30
0.0
 10
256.5291671723404
 20
25.84924961446756
 30
0.0
 10
256.5037361156287
 20
25.40280708457515
 30
0.0
 10
256.4117687995866
 20
24.96678041308644
 30
0.0
 10
256.3192149055384
 20
24.69858753046739
 30
0.0
 10
256.2556322816482
 20
24.5523364196315
 30
0.0
 10
256.1839867776121
 20
24.42141608778525
 30
0.0
 10
256.1037320033003
 20
24.3059697553351
 30
0.0
 10
256.015330343708
 20
24.20444775089139
 30
0.0
 10
255.9489736897976
 20
24.1494488739299
 30
0.0
 10
255.9157494479131
 20
24.12191137943815
 30
0.0
  0
LWPOLYLINE
  5
196
330
1F
100
AcDbEntity
  8
0
  6
Continuous
 62
     7
370
    25
100
AcDbPolyline
 90
       26
 70
   128
 43
0.0
 10
255.9151450321
 20
29.2766067879
 10
256.1545347347
 20
30.5161835744
 10
256.4771240895
 20
31.775112322
 10
256.8803980864
 20
33.0435780185
 10
257.3612126722
 20
34.3116912986
 10
257.9158192622
 20
35.5695655448
 10
258.5398939657
 20
36.8073939662
 10
259.2285712961
 20
38.0155260556
 10
259.9764821043
 20
39.184542828
 10
260.7777954378
 20
40.3053302538
 10
261.6262640011
 20
41.3691503151
 10
262.5152728612
 20
42.3677091295
 10
263.43789102
 20
43.2932216126
 10
264.3869254507
 20
44.1384721721
 10
265.3549771765
 20
44.896870964
 10
266.334498956
 20
45.5625052679
 10
267.3178541233
 20
46.1301855856
 10
268.2973761262
 20
46.5954860994
 10
269.2654282974
 20
46.9547791771
 10
270.2144633916
 20
47.2052636549
 10
271.1370824272
 20
47.3449866754
 10
272.0260923703
 20
47.3728589132
 10
272.8745622144
 20
47.2886630674
 10
273.6758770167
 20
47.0930555557
 10
274.42378947
 20
46.7875613971
 10
274.7005508939
 20
46.6386447002
  0
SPLINE
  5
197
330
1F
100
AcDbEntity
  8
0
  6
Continuous
 62
     7
370
    25
100
AcDbSpline
210
0.0
220
0.0
230
1.0
 70
     8
 71
     3
 72
    12
 73
     8
 74
     0
 42
0.000000001
 43
0.00000001
 40
0.0
 40
0.0
 40
0.0
 40
0.0
 40
0.5
 40
0.5
 40
0.75
 40
0.75
 40
1.0
 40
1.0
 40
1.0
 40
1.0
 10
283.1049535369147
 20
33.29711222290553
 30
0.0
 10
283.3043038303024
 20
33.34695078762969
 30
0.0
 10
283.4954109233719
 20
33.37627170030557
 30
0.0
 10
283.769768320509
 20
33.38695865021556
 30
0.0
 10
283.8586390916154
 20
33.38479394784704
 30
0.0
 10
284.0269711684993
 20
33.36904766985599
 30
0.0
 10
284.1070876633766
 20
33.35550591776585
 30
0.0
 10
284.183139810465
 20
33.33617139682517
 30
0.0
  0
LWPOLYLINE
  5
198
330
1F
100
AcDbEntity
  8
0
  6
Continuous
 62
     7
370
    25
100
AcDbPolyline
 90
       13
 70
   128
 43
0.0
 10
275.1724218667
 20
28.7177591639
 10
275.7396119475
 20
29.5632994426
 10
276.3570689103
 20
30.3545252301
 10
277.0156615562
 20
31.0797355652
 10
277.7056503558
 20
31.7282057496
 10
278.4168314806
 20
32.2903459488
 10
279.1386877018
 20
32.7578430101
 10
279.860543923
 20
33.1237834016
 10
280.5717250478
 20
33.3827554513
 10
281.2617138474
 20
33.5309293778
 10
281.9203064933
 20
33.5661139262
 10
282.537763456
 20
33.4877887734
 10
283.1049535369
 20
33.2971122229
  0
SPLINE
  5
199
330
1F
100
AcDbEntity
  8
0
  6
Continuous
 62
     7
370
    25
100
AcDbSpline
210
0.0
220
0.0
230
1.0
 70
     8
 71
     3
 72
    12
 73
     8
 74
     0
 42
0.000000001
 43
0.00000001
 40
0.0
 40
0.0
 40
0.0
 40
0.0
 40
0.5
 40
0.5
 40
0.75
 40
0.75
 40
1.0
 40
1.0
 40
1.0
 40
1.0
 10
274.4831443227652
 20
27.73648319449086
 30
0.0
 10
274.5965310007765
 20
27.92968277223622
 30
0.0
 10
274.7116395645251
 20
28.10807638955498
 30
0.0
 10
274.8858488969308
 20
28.35526075130486
 30
0.0
 10
274.9444827309582
 20
28.43457923656589
 30
0.0
 10
275.0597412111302
 20
28.58319262377595
 30
0.0
 10
275.1165437155744
 20
28.65277980769046
 30
0.0
 10
275.1724218666629
 20
28.71775916393975
 30
0.0
  0
LINE
  5
19A
330
1F
100
AcDbEntity
  8
0
  6
Continuous
 62
     7
370
    25
100
AcDbLine
 10
274.1535848944
 20
19.2359631899
 30
0.0
 11
275.1323422602
 21
19.8009877903
 31
0.0
  0
LWPOLYLINE
  5
19B
330
1F
100
AcDbEntity
  8
0
  6
Continuous
 62
     7
370
    25
100
AcDbPolyline
 90
        3
 70
   128
 43
0.0
 10
273.7266225789
 20
19.0475276565
 10
273.7571708657
 20
19.0570573493
 10
274.1535848944
 20
19.2359631899
  0
ARC
  5
19C
330
1F
100
AcDbEntity
  8
0
  6
Continuous
 62
     7
370
    25
100
AcDbCircle
 10
281.1514645417
 20
32.7704927816
 30
0.0
 40
2.48051018981355
100
AcDbArc
 50
340.8092650547
 51
14.2703419287
  0
ARC
  5
19D
330
1F
100
AcDbEntity
  8
0
  6
Continuous
 62
     7
370
    25
100
AcDbCircle
 10
276.1304115186
 20
29.7519396409
 30
0.0
 40
7.6862444337192
100
AcDbArc
 50
343.3431752853
 51
16.6568247147
  0
ARC
  5
19E
330
1F
100
AcDbEntity
  8
0
  6
Continuous
 62
     7
370
    25
100
AcDbCircle
 10
280.006309713
 20
26.7469846979
 30
0.0
 40
3.578792115761262
100
AcDbArc
 50
299.9008204488
 51
12.9462273543
  0
LINE
  5
19F
330
1F
100
AcDbEntity
  8
0
  6
Continuous
 62
     7
370
    25
100
AcDbLine
 10
280.8115807655
 20
23.0795423934
 30
0.0
 11
281.7903381312
 21
23.6445669938
 31
0.0
  0
LWPOLYLINE
  5
1A0
330
1F
100
AcDbEntity
  8
0
  6
Continuous
 62
     7
370
    25
100
AcDbPolyline
 90
       10
 70
   128
 43
0.0
 10
280.8115807655
 20
23.0795423934
 10
280.2290478887
 20
22.3704703003
 10
279.6104391529
 20
21.7284259048
 10
278.965642014
 20
21.1636712434
 10
278.3049625065
 20
20.6852330019
 10
277.6389605192
 20
20.3007582383
 10
276.9782810117
 20
20.0163921573
 10
276.3334838727
 20
19.8366798884
 10
275.714875137
 20
19.7644938406
 10
275.1323422602
 20
19.8009877903
  0
LINE
  5
1A1
330
1F
100
AcDbEntity
  8
0
  6
Continuous
 62
     7
370
    25
100
AcDbLine
 10
273.5251966805
 20
23.9969959902
 30
0.0
 11
273.5630430357
 21
24.687366626
 31
0.0
  0
ARC
  5
1A2
330
1F
100
AcDbEntity
  8
0
  6
Continuous
 62
     7
370
    25
100
AcDbCircle
 10
283.1703484735
 20
23.4382436532
 30
0.0
 40
9.693098487935542
100
AcDbArc
 50
151.5106271967
 51
171.0041085505
  0
LWPOLYLINE
  5
1A3
330
1F
100
AcDbEntity
  8
0
  6
Continuous
 62
     7
370
    25
100
AcDbPolyline
 90
       34
 70
   128
 43
0.0
 10
279.781155067
 20
32.299229951
 10
280.0177625432
 20
32.304329475
 10
280.5363232887
 20
32.2395408692
 10
281.0071148263
 20
32.0690287687
 10
281.4213672004
 20
31.7959694914
 10
281.771363673
 20
31.425449615
 10
282.0505844722
 20
30.9643712236
 10
282.2538282427
 20
30.4213233354
 10
282.3773089376
 20
29.8064219051
 10
282.4187263452
 20
29.1311213827
 10
282.3773089376
 20
28.4080013394
 10
282.2538282427
 20
27.6505321333
 10
282.0505844722
 20
26.8728239826
 10
281.771363673
 20
26.0893641186
 10
281.4213672004
 20
25.3147469163
 10
281.0071148263
 20
24.5634020285
 10
280.5363232887
 20
23.8493255888
 10
280.0177625432
 20
23.1858194903
 10
279.4610923953
 20
22.5852435961
 10
278.8766825566
 20
22.0587854988
 10
278.2754194767
 20
21.6162521167
 10
277.668503549
 20
21.2658870094
 10
277.0672404691
 20
21.0142168159
 10
276.4828306304
 20
20.8659296758
 10
275.9261604825
 20
20.8237878979
 10
275.4075997369
 20
20.8885765037
 10
274.9368081994
 20
21.0590886042
 10
274.5225558253
 20
21.3321478815
 10
274.1725593526
 20
21.7026677579
 10
273.8933385535
 20
22.1637461493
 10
273.690094783
 20
22.7067940375
 10
273.5666140881
 20
23.3216954678
 10
273.5251966805
 20
23.9969959902
 10
273.5251966805
 20
23.9969959902
  0
ARC
  5
1A4
330
1F
100
AcDbEntity
  8
0
  6
Continuous
 62
     7
370
    25
100
AcDbCircle
 10
284.110551156
 20
31.2239365927
 30
0.0
 40
2.30418830936022
100
AcDbArc
 50
115.8757889869
 51
120.0399956969
  0
LINE
  5
1A5
330
1F
100
AcDbEntity
  8
0
  6
Continuous
 62
     7
370
    25
100
AcDbLine
 10
281.9783069544
 20
32.6535928903
 30
0.0
 11
282.9570643202
 21
33.2186174907
 31
0.0
  0
LWPOLYLINE
  5
1A6
330
1F
100
AcDbEntity
  8
0
  6
Continuous
 62
     7
370
    25
100
AcDbPolyline
 90
       10
 70
   128
 43
0.0
 10
276.2990684491
 20
29.3750382872
 10
276.881601326
 20
30.0841103803
 10
277.5002100617
 20
30.7261547759
 10
278.1450072006
 20
31.2909094373
 10
278.8056867081
 20
31.7693476788
 10
279.4716886955
 20
32.1538224423
 10
280.1323682029
 20
32.4381885234
 10
280.7771653419
 20
32.6179007922
 10
281.3957740776
 20
32.6900868401
 10
281.9783069544
 20
32.6535928903
  0
LINE
  5
1A7
330
1F
100
AcDbEntity
  8
0
  6
Continuous
 62
     7
370
    25
100
AcDbLine
 10
275.3203110834
 20
28.8100136869
 30
0.0
 11
276.2990684491
 21
29.3750382872
 31
0.0
  0
ARC
  5
1A8
330
1F
100
AcDbEntity
  8
0
  6
Continuous
 62
     7
370
    25
100
AcDbCircle
 10
276.6215619338
 20
26.5593703451
 30
0.0
 40
2.599740223104498
100
AcDbArc
 50
120.0351439476
 51
123.8773714498
  0
SPLINE
  5
1A9
330
1F
100
AcDbEntity
  8
0
  6
Continuous
 62
     7
370
    25
100
AcDbSpline
210
0.0
220
0.0
230
1.0
 70
     8
 71
     3
 72
    12
 73
     8
 74
     0
 42
0.000000001
 43
0.00000001
 40
0.0
 40
0.0
 40
0.0
 40
0.0
 40
0.5000000000000004
 40
0.5000000000000004
 40
0.7500000000000002
 40
0.7500000000000002
 40
1.0
 40
1.0
 40
1.0
 40
1.0
 10
273.7206256656401
 20
19.0740053602418
 30
0.0
 10
273.6652966955194
 20
19.24705768959293
 30
0.0
 10
273.6251616438347
 20
19.43608012987266
 30
0.0
 10
273.5854686744378
 20
19.74222208647436
 30
0.0
 10
273.5756889987351
 20
19.84868166134645
 30
0.0
 10
273.5633151400089
 20
20.06509264467834
 30
0.0
 10
273.5606431765174
 20
20.17531876785881
 30
0.0
 10
273.5613347714331
 20
20.28755509934588
 30
0.0
  0
ARC
  5
1AA
330
1F
100
AcDbEntity
  8
0
  6
Continuous
 62
     7
370
    25
100
AcDbCircle
 10
280.9986443766
 20
22.6707846815
 30
0.0
 40
7.809824415698584
100
AcDbArc
 50
162.2323364785
 51
197.7676635215
  0
SPLINE
  5
1AB
330
1F
100
AcDbEntity
  8
0
  6
Continuous
 62
     7
370
    25
100
AcDbSpline
210
0.0
220
0.0
230
1.0
 70
     8
 71
     3
 72
    12
 73
     8
 74
     0
 42
0.000000001
 43
0.00000001
 40
0.0
 40
0.0
 40
0.0
 40
0.0
 40
0.2499999999999998
 40
0.2499999999999998
 40
0.4999999999999997
 40
0.4999999999999997
 40
1.0
 40
1.0
 40
1.0
 40
1.0
 10
273.5613347714331
 20
25.05401426371586
 30
0.0
 10
273.5606485492799
 20
25.11406353219622
 30
0.0
 10
273.5632727937294
 20
25.17925806842166
 30
0.0
 10
273.5754941376515
 20
25.32004390159243
 30
0.0
 10
273.5851636886018
 20
25.39607183430709
 30
0.0
 10
273.6251605497176
 20
25.63768291595898
 30
0.0
 10
273.665589194866
 20
25.81298612390602
 30
0.0
 10
273.7206256656401
 20
26.00245289306299
 30
0.0
  0
ARC
  5
1AC
330
1F
100
AcDbEntity
  8
0
  6
Continuous
 62
     7
370
    25
100
AcDbCircle
 10
277.1613194378
 20
19.4632396785
 30
0.0
 40
3.69315387044868
100
AcDbArc
 50
163.7051539947
 51
167.1028904291
  0
ARC
  5
1AD
330
1F
100
AcDbEntity
  8
0
  6
Continuous
 62
     7
370
    25
100
AcDbCircle
 10
280.980237696
 20
22.7026410397
 30
0.0
 40
7.686244433718001
100
AcDbArc
 50
163.3431752853
 51
196.6568247147
  0
ARC
  5
1AE
330
1F
100
AcDbEntity
  8
0
  6
Continuous
 62
     7
370
    25
100
AcDbCircle
 10
274.8910984633
 20
25.4647891236
 30
0.0
 40
1.391764154521597
100
AcDbArc
 50
197.1663456622
 51
203.6800706087
  0
LWPOLYLINE
  5
1AF
330
1F
100
AcDbEntity
  8
0
  6
Continuous
 62
     7
370
    25
100
AcDbPolyline
 90
       30
 70
   128
 43
0.0
 10
279.6534772817
 20
32.2418174149
 10
279.7397284658
 20
32.2356434001
 10
280.2304385469
 20
32.1367114253
 10
280.670308427
 20
31.9332867176
 10
281.0507765391
 20
31.6293287076
 10
281.3644375043
 20
31.230753592
 10
281.6051862686
 20
30.7453191822
 10
281.7683369311
 20
30.1824739067
 10
281.8507139499
 20
29.5531729087
 10
281.8507139499
 20
28.8696648163
 10
281.7683369311
 20
28.1452533369
 10
281.6051862686
 20
27.394038316
 10
281.3644375043
 20
26.6306412996
 10
281.0507765391
 20
25.8699209421
 10
280.670308427
 20
25.1266838001
 10
280.2304385469
 20
24.415396139
 10
279.7397284658
 20
23.7499023642
 10
279.2077292971
 20
23.143155555
 10
278.6447957996
 20
22.6069653478
 10
278.0618848335
 20
22.1517680751
 10
277.4703420976
 20
21.7864236341
 10
276.8816812984
 20
21.5180430387
 10
276.3073600489
 20
21.3518500119
 10
275.7585568588
 20
21.291079312
 10
275.245953558
 20
21.3369137715
 10
274.7795273867
 20
21.4884612748
 10
274.3683567997
 20
21.7427721222
 10
274.0204447649
 20
22.0948964421
 10
273.7425629941
 20
22.5379805354
 10
273.741198726
 20
22.540735152
  0
SPLINE
  5
1B0
330
1F
100
AcDbEntity
  8
0
  6
Continuous
 62
     7
370
    25
100
AcDbSpline
210
0.0
220
0.0
230
1.0
 70
     8
 71
     3
 72
     8
 73
     4
 74
     0
 42
0.000000001
 43
0.00000001
 40
0.0
 40
0.0
 40
0.0
 40
0.0
 40
1.0
 40
1.0
 40
1.0
 40
1.0
 10
255.1372086351204
 20
32.55538391478796
 30
0.0
 10
254.4441374000676
 20
32.43952229641324
 30
0.0
 10
253.7505166336714
 20
32.32476360326019
 30
0.0
 10
253.056537472844
 20
32.21075205562204
 30
0.0
  0
SPLINE
  5
1B1
330
1F
100
AcDbEntity
  8
0
  6
Continuous
 62
     7
370
    25
100
AcDbSpline
210
0.0
220
0.0
230
1.0
 70
     8
 71
     3
 72
     8
 73
     4
 74
     0
 42
0.000000001
 43
0.00000001
 40
0.0
 40
0.0
 40
0.0
 40
0.0
 40
0.0012389803509652
 40
0.0012389803509652
 40
0.0012389803509652
 40
0.0012389803509652
 10
252.5828010586985
 20
32.48428617637605
 30
0.0
 10
252.7408743936794
 20
32.39301509592553
 30
0.0
 10
252.8987925726455
 20
32.30183356882529
 30
0.0
 10
253.056537472844
 20
32.21075205562204
 30
0.0
  0
LWPOLYLINE
  5
1B2
330
1F
100
AcDbEntity
  8
0
  6
Continuous
 62
     7
370
    25
100
AcDbPolyline
 90
       27
 70
   128
 43
0.0
 10
252.5828010587
 20
32.4842861764
 10
252.9015726448
 20
33.7480318945
 10
253.3019459331
 20
35.0220182885
 10
253.7807708069
 20
36.296221698
 10
254.3342798964
 20
37.560616755
 10
254.9581182201
 20
38.8052552632
 10
255.6473774496
 20
40.02034447
 10
256.3966345282
 20
41.196324115
 10
257.1999943392
 20
42.3239416499
 10
258.0511360882
 20
43.394325037
 10
258.9433630352
 20
44.3990525541
 10
259.8696551837
 20
45.330219056
 10
260.8227245139
 20
46.1804981718
 10
261.7950723246
 20
46.9431999485
 10
262.7790482326
 20
47.612323487
 10
263.7669103652
 20
48.1826041574
 10
264.7508862732
 20
48.6495550202
 10
265.723234084
 20
49.0095021296
 10
266.6763034142
 20
49.25961344
 10
267.6025955626
 20
49.3979210883
 10
268.4948225096
 20
49.4233368769
 10
269.3459642587
 20
49.3356608357
 10
270.1493240696
 20
49.1355827954
 10
270.8985811483
 20
48.8246769598
 10
271.5878403778
 20
48.4053895202
 10
272.2116787014
 20
47.8810194091
 10
272.720976317
 20
47.31266704
  0
LINE
  5
1B3
330
1F
100
AcDbEntity
  8
0
  6
Continuous
 62
     7
370
    25
100
AcDbLine
 10
249.5510807344
 20
34.2344610661
 30
0.0
 11
252.5828010587
 21
32.4842861764
 31
0.0
  0
ARC
  5
1B4
330
1F
100
AcDbEntity
  8
0
  6
Continuous
 62
     7
370
    25
100
AcDbCircle
 10
265.4328899821
 20
45.7771720765
 30
0.0
 40
5.379537022950266
100
AcDbArc
 50
60.0865365812
 51
76.6977740653
  0
LINE
  5
1B5
330
1F
100
AcDbEntity
  8
0
  6
Continuous
 62
     7
370
    25
100
AcDbLine
 10
255.5398040376
 20
32.4942215241
 30
0.0
 11
255.5304813867
 21
32.4996033759
 31
0.0
  0
SPLINE
  5
1B6
330
1F
100
AcDbEntity
  8
0
  6
Continuous
 62
     7
370
    25
100
AcDbSpline
210
0.0
220
0.0
230
1.0
 70
     8
 71
     3
 72
    10
 73
     6
 74
     0
 42
0.000000001
 43
0.00000001
 40
0.0
 40
0.0
 40
0.0
 40
0.0
 40
0.2389967805915211
 40
0.7124248509531367
 40
1.0
 40
1.0
 40
1.0
 40
1.0
 10
256.4548145818073
 20
31.69440766205586
 30
0.0
 10
256.3896669644022
 20
31.7745299313948
 30
0.0
 10
256.1954686094919
 20
32.0133661853834
 30
0.0
 10
255.8833590189208
 20
32.27831173939815
 30
0.0
 10
255.6340248206293
 20
32.43500774436772
 30
0.0
 10
255.5398040375795
 20
32.49422152406657
 30
0.0
  0
ARC
  5
1B7
330
1F
100
AcDbEntity
  8
0
  6
Continuous
 62
     7
370
    25
100
AcDbCircle
 10
274.1668242476
 20
20.5571073956
 30
0.0
 40
2.304188309312609
100
AcDbArc
 50
295.8757889868
 51
300.039995697
  0
SPLINE
  5
1B8
330
1F
100
AcDbEntity
  8
0
  6
Continuous
 62
     7
370
    25
100
AcDbSpline
210
0.0
220
0.0
230
1.0
 70
     8
 71
     3
 72
    12
 73
     8
 74
     0
 42
0.000000001
 43
0.00000001
 40
0.0
 40
0.0
 40
0.0
 40
0.0
 40
0.4999999999999991
 40
0.4999999999999991
 40
0.7499999999999996
 40
0.7499999999999996
 40
1.0
 40
1.0
 40
1.0
 40
1.0
 10
275.1724218666629
 20
18.48393176547346
 30
0.0
 10
275.061005841924
 20
18.38332982798713
 30
0.0
 10
274.946383629417
 20
18.30985513360219
 30
0.0
 10
274.7706603139171
 20
18.24222794037024
 30
0.0
 10
274.7117358023226
 20
18.22710503509962
 30
0.0
 10
274.5962514150929
 20
18.21234299124114
 30
0.0
 10
274.5392758625634
 20
18.21252576166783
 30
0.0
 10
274.4831443227652
 20
18.22036036080259
 30
0.0
  0
SPLINE
  5
1B9
330
1F
100
AcDbEntity
  8
0
  6
Continuous
 62
     7
370
    25
100
AcDbSpline
210
0.0
220
0.0
230
1.0
 70
     8
 71
     3
 72
    10
 73
     6
 74
     0
 42
0.000000001
 43
0.00000001
 40
0.0
 40
0.0
 40
0.0
 40
0.0
 40
0.5
 40
0.5
 40
1.0
 40
1.0
 40
1.0
 40
1.0
 10
255.5304813866723
 20
32.4996033758793
 30
0.0
 10
255.4806807878596
 20
32.52835264962842
 30
0.0
 10
255.4156488711156
 20
32.54911599498909
 30
0.0
 10
255.2785905107702
 20
32.56806968437687
 30
0.0
 10
255.2050516707204
 20
32.56672532314906
 30
0.0
 10
255.1372086351204
 20
32.55538391478796
 30
0.0
  0
SPLINE
  5
1BA
330
1F
100
AcDbEntity
  8
0
  6
Continuous
 62
     7
370
    25
100
AcDbSpline
210
0.0
220
0.0
230
1.0
 70
     8
 71
     3
 72
     8
 73
     4
 74
     0
 42
0.000000001
 43
0.00000001
 40
0.0
 40
0.0
 40
0.0
 40
0.0
 40
1.0
 40
1.0
 40
1.0
 40
1.0
 10
249.3942561268
 20
34.32498274528484
 30
0.0
 10
249.4166349233194
 20
34.312070793833
 30
0.0
 10
249.4708223543367
 20
34.28079324267598
 30
0.0
 10
249.5510807343611
 20
34.23446106609597
 30
0.0
  0
LINE
  5
1BB
330
1F
100
AcDbEntity
  8
0
  6
Continuous
 62
     7
370
    25
100
AcDbLine
 10
249.3942561268
 20
34.3249827453
 30
0.0
 11
249.4171361497
 21
34.4698138489
 31
0.0
  0
SPLINE
  5
1BC
330
1F
100
AcDbEntity
  8
0
  6
Continuous
 62
     7
370
    25
100
AcDbSpline
210
0.0
220
0.0
230
1.0
 70
     8
 71
     3
 72
    11
 73
     7
 74
     0
 42
0.000000001
 43
0.00000001
 40
0.0
 40
0.0
 40
0.0
 40
0.0
 40
0.3095641458051774
 40
0.5897803711520182
 40
0.840990022416341
 40
1.0
 40
1.0
 40
1.0
 40
1.0
 10
256.0237891225792
 20
24.84804011819865
 30
0.0
 10
256.1147850855547
 20
24.93951433460976
 30
0.0
 10
256.2881502298853
 20
25.11379064547084
 30
0.0
 10
256.4384832135855
 20
25.5322564704626
 30
0.0
 10
256.5127639526871
 20
25.94540569864433
 30
0.0
 10
256.5203085846226
 20
26.24243695025154
 30
0.0
 10
256.5232330467169
 20
26.35757267106614
 30
0.0
  0
SPLINE
  5
1BD
330
1F
100
AcDbEntity
  8
0
  6
Continuous
 62
     7
370
    25
100
AcDbSpline
210
0.0
220
0.0
230
1.0
 70
     8
 71
     3
 72
     9
 73
     5
 74
     0
 42
0.000000001
 43
0.00000001
 40
0.0
 40
0.0
 40
0.0
 40
0.0
 40
0.5067661696360637
 40
0.9999999999999999
 40
0.9999999999999999
 40
0.9999999999999999
 40
0.9999999999999999
 10
255.9150676581067
 20
24.1214093516545
 30
0.0
 10
255.9333366754226
 20
24.24386370550727
 30
0.0
 10
255.9693868666358
 20
24.48550247539735
 30
0.0
 10
256.006067606071
 20
24.7276528735284
 30
0.0
 10
256.0241597876832
 20
24.84708964192273
 30
0.0
  0
SPLINE
  5
1BE
330
1F
100
AcDbEntity
  8
0
  6
Continuous
 62
     7
370
    25
100
AcDbSpline
210
0.0
220
0.0
230
1.0
 70
     8
 71
     3
 72
    10
 73
     6
 74
     0
 42
0.000000001
 43
0.00000001
 40
0.0
 40
0.0
 40
0.0
 40
0.0
 40
0.4807908150149394
 40
0.9757817590326827
 40
1.0
 40
1.0
 40
1.0
 40
1.0
 10
255.5398040375795
 20
25.92106798838628
 30
0.0
 10
255.6895949844797
 20
25.84089761302424
 30
0.0
 10
255.9936009452611
 20
25.67818903488586
 30
0.0
 10
256.2832163894598
 20
25.5666876041644
 30
0.0
 10
256.4175548201385
 20
25.53845598668508
 30
0.0
 10
256.4238209659993
 20
25.53713913764854
 30
0.0
  0
SPLINE
  5
1BF
330
1F
100
AcDbEntity
  8
0
  6
Continuous
 62
     7
370
    25
100
AcDbSpline
210
0.0
220
0.0
230
1.0
 70
     8
 71
     3
 72
    12
 73
     8
 74
     0
 42
0.000000001
 43
0.00000001
 40
0.0
 40
0.0
 40
0.0
 40
0.0
 40
0.4999999999999991
 40
0.4999999999999991
 40
0.7499999999999996
 40
0.7499999999999996
 40
1.0
 40
1.0
 40
1.0
 40
1.0
 10
284.183139810465
 20
23.82004856313688
 30
0.0
 10
284.0295131623278
 20
23.65007902567994
 30
0.0
 10
283.8618153798873
 20
23.5020445181002
 30
0.0
 10
283.5899741640259
 20
23.31122184297699
 30
0.0
 10
283.4954037682313
 20
23.25264909323882
 30
0.0
 10
283.30300484404
 20
23.14856793646587
 30
0.0
 10
283.2049331030458
 20
23.10280497569883
 30
0.0
 10
283.1049535369146
 20
23.06328482443926
 30
0.0
  0
LWPOLYLINE
  5
1C0
330
1F
100
AcDbEntity
  8
0
  6
Continuous
 62
     7
370
    25
100
AcDbPolyline
 90
       13
 70
   128
 43
0.0
 10
283.1049535369
 20
23.0632848244
 10
282.537763456
 20
22.2177445458
 10
281.9203064933
 20
21.4265187583
 10
281.2617138474
 20
20.7013084232
 10
280.5717250478
 20
20.0528382388
 10
279.860543923
 20
19.4906980396
 10
279.1386877018
 20
19.0232009783
 10
278.4168314806
 20
18.6572605868
 10
277.7056503558
 20
18.3982885371
 10
277.0156615562
 20
18.2501146106
 10
276.3570689103
 20
18.2149300622
 10
275.7396119475
 20
18.293255215
 10
275.1724218667
 20
18.4839317655
  0
SPLINE
  5
1C1
330
1F
100
AcDbEntity
  8
0
  6
Continuous
 62
     7
370
    25
100
AcDbSpline
210
0.0
220
0.0
230
1.0
 70
     8
 71
     3
 72
    12
 73
     8
 74
     0
 42
0.000000001
 43
0.00000001
 40
0.0
 40
0.0
 40
0.0
 40
0.0
 40
0.5000000000000004
 40
0.5000000000000004
 40
0.7500000000000002
 40
0.7500000000000002
 40
1.0
 40
1.0
 40
1.0
 40
1.0
 10
284.9456584675902
 20
32.48252639738596
 30
0.0
 10
284.9607474675848
 20
32.33270410832323
 30
0.0
 10
284.9482933005776
 20
32.17404077778254
 30
0.0
 10
284.8903543865189
 20
31.92426050780749
 30
0.0
 10
284.8641975004544
 20
31.83854666845827
 30
0.0
 10
284.7994309151615
 20
31.66666791556348
 30
0.0
 10
284.7608336421029
 20
31.58026601553049
 30
0.0
 10
284.7160406321445
 20
31.49348888903312
 30
0.0
  0
ARC
  5
1C2
330
1F
100
AcDbEntity
  8
0
  6
Continuous
 62
     7
370
    25
100
AcDbCircle
 10
281.1160559659
 20
32.3178043098
 30
0.0
 40
3.693153870372028
100
AcDbArc
 50
343.7051539947
 51
347.1028904291
  0
LINE
  5
1C3
330
1F
100
AcDbEntity
  8
0
  6
Continuous
 62
     7
370
    25
100
AcDbLine
 10
283.494131633
 20
31.9551145253
 30
0.0
 11
284.660857822
 21
31.281577833
 31
0.0
  0
LWPOLYLINE
  5
1C4
330
1F
100
AcDbEntity
  8
0
  6
Continuous
 62
     7
370
    25
100
AcDbPolyline
 90
       10
 70
   128
 43
0.0
 10
281.9783069544
 20
22.4060057012
 10
281.3957740776
 20
21.6969336081
 10
280.7771653419
 20
21.0548892125
 10
280.1323682029
 20
20.4901345511
 10
279.4716886955
 20
20.0116963096
 10
278.8056867081
 20
19.6272215461
 10
278.1450072006
 20
19.342855465
 10
277.5002100617
 20
19.1631431962
 10
276.881601326
 20
19.0909571483
 10
276.2990684491
 20
19.1274510981
  0
LINE
  5
1C5
330
1F
100
AcDbEntity
  8
0
  6
Continuous
 62
     7
370
    25
100
AcDbLine
 10
282.9570643202
 20
22.9710303015
 30
0.0
 11
281.9783069544
 21
22.4060057012
 31
0.0
  0
ARC
  5
1C6
330
1F
100
AcDbEntity
  8
0
  6
Continuous
 62
     7
370
    25
100
AcDbCircle
 10
281.6558134698
 20
25.2216736432
 30
0.0
 40
2.599740223024732
100
AcDbArc
 50
300.0351439475
 51
303.8773714499
  0
LINE
  5
1C7
330
1F
100
AcDbEntity
  8
0
  6
Continuous
 62
     7
370
    25
100
AcDbLine
 10
276.2990684491
 20
19.1274510981
 30
0.0
 11
275.3203110834
 21
18.5624264977
 31
0.0
  0
LINE
  5
1C8
330
1F
100
AcDbEntity
  8
0
  6
Continuous
 62
     7
370
    25
100
AcDbLine
 10
275.1323422602
 20
19.8009877903
 30
0.0
 11
276.2990684491
 21
19.1274510981
 31
0.0
  0
LINE
  5
1C9
330
1F
100
AcDbEntity
  8
0
  6
Continuous
 62
     7
370
    25
100
AcDbLine
 10
281.9783069544
 20
22.4060057012
 30
0.0
 11
280.8115807655
 21
23.0795423934
 31
0.0
  0
LINE
  5
1CA
330
1F
100
AcDbEntity
  8
0
  6
Continuous
 62
     7
370
    25
100
AcDbLine
 10
249.8276893743
 20
34.0747263871
 30
0.0
 11
249.3942561268
 21
34.3249827453
 31
0.0
  0
LINE
  5
1CB
330
1F
100
AcDbEntity
  8
0
  6
Continuous
 62
     7
370
    25
100
AcDbLine
 10
253.0565374728
 20
32.2107520556
 30
0.0
 11
249.8276893743
 21
34.0747263871
 31
0.0
  0
SPLINE
  5
1CC
330
1F
100
AcDbEntity
  8
0
  6
Continuous
 62
     7
370
    25
100
AcDbSpline
210
0.0
220
0.0
230
1.0
 70
     8
 71
     3
 72
    11
 73
     7
 74
     0
 42
0.000000001
 43
0.00000001
 40
0.0
 40
0.0
 40
0.0
 40
0.0
 40
0.2161958363342107
 40
0.5246243804696601
 40
0.8330905506788449
 40
1.0
 40
1.0
 40
1.0
 40
1.0
 10
251.9327542956364
 20
30.06090044130008
 30
0.0
 10
251.9280370262522
 20
30.2672918839447
 30
0.0
 10
251.9165900225996
 20
30.76812476106029
 30
0.0
 10
251.8513986672138
 20
31.5869211897782
 30
0.0
 10
251.8106424976291
 20
32.34890778650988
 30
0.0
 10
251.8320662658922
 20
32.78393974885244
 30
0.0
 10
251.8395883793879
 20
32.93668410991882
 30
0.0
  0
LINE
  5
1CD
330
1F
100
AcDbEntity
  8
0
  6
Continuous
 62
     7
370
    25
100
AcDbLine
 10
251.9327542956
 20
29.6405450859
 30
0.0
 11
251.9327542956
 21
30.0609004413
 31
0.0
  0
SPLINE
  5
1CE
330
1F
100
AcDbEntity
  8
0
  6
Continuous
 62
     7
370
    25
100
AcDbSpline
210
0.0
220
0.0
230
1.0
 70
     8
 71
     3
 72
    12
 73
     8
 74
     0
 42
0.000000001
 43
0.00000001
 40
0.0
 40
0.0
 40
0.0
 40
0.0
 40
0.2499999999999998
 40
0.2499999999999998
 40
0.4999999999999996
 40
0.4999999999999996
 40
1.0
 40
1.0
 40
1.0
 40
1.0
 10
284.7160406321445
 20
26.72702972466314
 30
0.0
 10
284.7604856606503
 20
26.64171903497994
 30
0.0
 10
284.7988909793681
 20
26.55283863610572
 30
0.0
 10
284.8634897617295
 20
26.3677054879907
 30
0.0
 10
284.8897864722902
 20
26.27091467445606
 30
0.0
 10
284.948534382803
 20
25.97229944951027
 30
0.0
 10
284.9606676988374
 20
25.76665286724925
 30
0.0
 10
284.9456584675902
 20
25.55407886456477
 30
0.0
  0
ARC
  5
1CF
330
1F
100
AcDbEntity
  8
0
  6
Continuous
 62
     7
370
    25
100
AcDbCircle
 10
277.278731027
 20
29.1102593068
 30
0.0
 40
7.809824415697231
100
AcDbArc
 50
342.2323364785
 51
17.7676635215
  0
ARC
  5
1D0
330
1F
100
AcDbEntity
  8
0
  6
Continuous
 62
     7
370
    25
100
AcDbCircle
 10
283.3862769403
 20
26.3162548648
 30
0.0
 40
1.391764154501093
100
AcDbArc
 50
17.1663456621
 51
23.6800706087
  0
ARC
  5
1D1
330
1F
100
AcDbEntity
  8
0
  6
Continuous
 62
     7
370
    25
100
AcDbCircle
 10
277.2971377076
 20
29.0784029486
 30
0.0
 40
7.686244433718109
100
AcDbArc
 50
343.3431752853
 51
16.6568247147
  0
LINE
  5
1D2
330
1F
100
AcDbEntity
  8
0
  6
Continuous
 62
     7
370
    25
100
AcDbLine
 10
283.494131633
 20
27.5487647565
 30
0.0
 11
284.660857822
 21
26.8752280642
 31
0.0
  0
LINE
  5
1D3
330
1F
100
AcDbEntity
  8
0
  6
Continuous
 62
     7
370
    25
100
AcDbLine
 10
251.3228746969
 20
32.875913901
 30
0.0
 11
251.3280625916
 21
33.2085793652
 31
0.0
  0
ARC
  5
1D4
330
1F
100
AcDbEntity
  8
0
  6
Continuous
 62
     7
370
    25
100
AcDbCircle
 10
258.8767042838
 20
32.7016611007
 30
0.0
 40
7.555839163669631
100
AcDbArc
 50
178.6785272924
 51
203.2171026327
  0
LINE
  5
1D5
330
1F
100
AcDbEntity
  8
0
  6
Continuous
 62
     7
370
    25
100
AcDbLine
 10
232.8446519052
 20
45.2579621973
 30
0.0
 11
232.7808749558
 21
45.313942831
 31
0.0
  0
LINE
  5
1D6
330
1F
100
AcDbEntity
  8
0
  6
Continuous
 62
     7
370
    25
100
AcDbLine
 10
255.5304813867
 20
25.9264498402
 30
0.0
 11
255.5398040376
 21
25.9210679884
 31
0.0
  0
ARC
  5
1D7
330
1F
100
AcDbEntity
  8
0
  6
Continuous
 62
     7
370
    25
100
AcDbCircle
 10
258.3496311114
 20
26.5648253845
 30
0.0
 40
5.909903261159705
100
AcDbArc
 50
192.6330051264
 51
260.539101522
  0
SPLINE
  5
1D8
330
1F
100
AcDbEntity
  8
0
  6
Continuous
 62
     7
370
    25
100
AcDbSpline
210
0.0
220
0.0
230
1.0
 70
     8
 71
     3
 72
     8
 73
     4
 74
     0
 42
0.000000001
 43
0.00000001
 40
0.0
 40
0.0
 40
0.0
 40
0.0
 40
0.0012389803509652
 40
0.0012389803509652
 40
0.0012389803509652
 40
0.0012389803509652
 10
253.056537472844
 20
25.63759851994175
 30
0.0
 10
252.8987925726455
 20
25.51552206940703
 30
0.0
 10
252.7408743936794
 20
25.39376476640621
 30
0.0
 10
252.5828010586985
 20
25.27229774486177
 30
0.0
  0
SPLINE
  5
1D9
330
1F
100
AcDbEntity
  8
0
  6
Continuous
 62
     7
370
    25
100
AcDbSpline
210
0.0
220
0.0
230
1.0
 70
     8
 71
     3
 72
     8
 73
     4
 74
     0
 42
0.000000001
 43
0.00000001
 40
0.0
 40
0.0
 40
0.0
 40
0.0
 40
1.0
 40
1.0
 40
1.0
 40
1.0
 10
253.056537472844
 20
25.63759851994175
 30
0.0
 10
253.7505180557856
 20
25.75161030121436
 30
0.0
 10
254.4441511165475
 20
25.86637105373472
 30
0.0
 10
255.1372086351204
 20
25.98223037910767
 30
0.0
  0
SPLINE
  5
1DA
330
1F
100
AcDbEntity
  8
0
  6
Continuous
 62
     7
370
    25
100
AcDbSpline
210
0.0
220
0.0
230
1.0
 70
     8
 71
     3
 72
    12
 73
     8
 74
     0
 42
0.000000001
 43
0.00000001
 40
0.0
 40
0.0
 40
0.0
 40
0.0
 40
0.2499999999999984
 40
0.2499999999999984
 40
0.4999999999999968
 40
0.4999999999999968
 40
1.0
 40
1.0
 40
1.0
 40
1.0
 10
255.1372086351204
 20
25.98223037910767
 30
0.0
 10
255.1709971510445
 20
25.98787884919192
 30
0.0
 10
255.2065689271134
 20
25.99113931270737
 30
0.0
 10
255.2771511735059
 20
25.99227690225549
 30
0.0
 10
255.3121741319548
 20
25.99026028579746
 30
0.0
 10
255.4163794272198
 20
25.97588454845787
 30
0.0
 10
255.4800898591594
 20
25.95554024982546
 30
0.0
 10
255.5304813866723
 20
25.92644984019902
 30
0.0
  0
LINE
  5
1DB
330
1F
100
AcDbEntity
  8
0
  6
Continuous
 62
     7
370
    25
100
AcDbLine
 10
249.8276893743
 20
27.5015728514
 30
0.0
 11
253.0565374728
 21
25.6375985199
 31
0.0
  0
LINE
  5
1DC
330
1F
100
AcDbEntity
  8
0
  6
Continuous
 62
     7
370
    25
100
AcDbLine
 10
249.8276893743
 20
27.5015728514
 30
0.0
 11
251.7206222613
 21
28.5943397468
 31
0.0
  0
LINE
  5
1DD
330
1F
100
AcDbEntity
  8
0
  6
Continuous
 62
     7
370
    25
100
AcDbLine
 10
249.3942561268
 20
27.2513164932
 30
0.0
 11
249.8276893743
 21
27.5015728514
 31
0.0
  0
LINE
  5
1DE
330
1F
100
AcDbEntity
  8
0
  6
Continuous
 62
     7
370
    25
100
AcDbLine
 10
252.5828010587
 20
25.2722977449
 30
0.0
 11
249.5510807344
 21
27.0224726346
 31
0.0
  0
SPLINE
  5
1DF
330
1F
100
AcDbEntity
  8
0
  6
Continuous
 62
     7
370
    25
100
AcDbSpline
210
0.0
220
0.0
230
1.0
 70
     8
 71
     3
 72
     8
 73
     4
 74
     0
 42
0.000000001
 43
0.00000001
 40
0.0
 40
0.0
 40
0.0
 40
0.0
 40
1.0
 40
1.0
 40
1.0
 40
1.0
 10
249.5510807343611
 20
27.0224726345817
 30
0.0
 10
249.4710559348464
 20
27.06866996800366
 30
0.0
 10
249.4165791374645
 20
27.15185749036836
 30
0.0
 10
249.3942561268
 20
27.25131649320949
 30
0.0
  0
ARC
  5
1E0
330
1F
100
AcDbEntity
  8
0
  6
Continuous
 62
     7
370
    25
100
AcDbCircle
 10
255.0779202344
 20
27.8329504061
 30
0.0
 40
5.402843770470654
100
AcDbArc
 50
223.3989697526
 51
239.8823827139
  0
ELLIPSE
  5
1E1
330
1F
100
AcDbEntity
  8
0
  6
Continuous
 62
     7
370
    25
100
AcDbEllipse
 10
251.4863076862
 20
29.3828393213
 30
0.0
 11
-6.005970388400783E-5
 21
0.853448961482723
 31
0.0
210
0.0
220
0.0
230
1.0
 40
0.7174342186
 41
3.534193645557401
 42
5.104989972352331
  0
ELLIPSE
  5
1E2
330
1F
100
AcDbEntity
  8
0
  6
Continuous
 62
     7
370
    25
100
AcDbEllipse
 10
251.3670688707
 20
29.3139818412
 30
0.0
 11
0.2600075789209768
 21
0.9705436209909308
 31
0.0
210
0.0
220
0.0
230
1.0
 40
0.5176380889
 41
3.619174351347833
 42
5.189970678142583
  0
LWPOLYLINE
  5
1E3
330
1F
100
AcDbEntity
  8
0
  6
Continuous
 62
     7
370
    25
100
AcDbPolyline
 90
       31
 70
   128
 43
0.0
 10
275.693552164
 20
35.3941065183
 10
275.1289382605
 20
35.3315868219
 10
274.554145892
 20
35.3382010379
 10
273.9942962432
 20
35.4136600936
 10
273.4738574301
 20
35.5546660659
 10
273.0155751264
 20
35.7550563174
 10
272.6394784676
 20
36.0060728324
 10
272.3620046826
 20
36.2967449847
 10
272.1952807072
 20
36.6143690065
 10
272.1465931791
 20
36.9450632039
 10
272.218069977
 20
37.2743746535
 10
272.4065872218
 20
37.587910865
 10
272.7039058053
 20
37.8719688012
 10
273.0970314787
 20
38.1141337674
 10
273.5687827637
 20
38.3038219924
 10
274.0985418653
 20
38.4327431906
 10
274.6631557688
 20
38.4952628871
 10
275.2379481374
 20
38.488648671
 10
275.7977977862
 20
38.4131896153
 10
276.3182365992
 20
38.272183643
 10
276.776518903
 20
38.0717933915
 10
277.1526155617
 20
37.8207768765
 10
277.4300893467
 20
37.5301047242
 10
277.5968133221
 20
37.2124807024
 10
277.6455008502
 20
36.8817865051
 10
277.5740240523
 20
36.5524750554
 10
277.3855068075
 20
36.2389388439
 10
277.088188224
 20
35.9548809077
 10
276.6950625506
 20
35.7127159415
 10
276.2233112657
 20
35.5230277165
 10
275.693552164
 20
35.3941065183
  0
LWPOLYLINE
  5
1E4
330
1F
100
AcDbEntity
  8
0
  6
Continuous
 62
     7
370
    25
100
AcDbPolyline
 90
       15
 70
   128
 43
0.0
 10
275.7660526321
 20
35.0518514666
 10
275.1702997665
 20
34.9846784398
 10
274.5633189609
 20
34.9881111986
 10
273.969960081
 20
35.0620092055
 10
273.414515309
 20
35.2033470675
 10
272.919724619
 20
35.4063383957
 10
272.5058448002
 20
35.6626727015
 10
272.1898201408
 20
35.9618556281
 10
271.9845887276
 20
36.2916385915
 10
271.8985527588
 20
36.6385202384
 10
271.935234557
 20
36.9882991934
 10
272.0931323651
 20
37.3266554649
 10
272.3657818283
 20
37.6397367075
 10
272.7420206455
 20
37.9147253383
 10
272.7743819809
 20
37.9337028015
  0
LWPOLYLINE
  5
1E5
330
1F
100
AcDbEntity
  8
0
  6
Continuous
 62
     7
370
    25
100
AcDbPolyline
 90
       12
 70
   128
 43
0.0
 10
277.0177120484
 20
37.9337028015
 10
277.0905687008
 20
37.890132276
 10
277.4574030484
 20
37.6109412208
 10
277.7193751789
 20
37.2948364444
 10
277.8657599227
 20
36.9547593135
 10
277.8905642711
 20
36.6046326257
 10
277.7927727312
 20
36.2587906089
 10
277.5763889001
 20
35.9313920759
 10
277.2502715573
 20
35.635840761
 10
276.8277719851
 20
35.3842365698
 10
276.3261873656
 20
35.1868802074
 10
275.7660526321
 20
35.0518514666
  0
LWPOLYLINE
  5
1E6
330
1F
100
AcDbEntity
  8
0
  6
Continuous
 62
     7
370
    25
100
AcDbPolyline
 90
       25
 70
   128
 43
0.0
 10
275.4035502915
 20
35.9465859133
 10
274.9527885293
 20
35.9037025366
 10
274.4981599267
 20
35.9296300672
 10
274.0706466716
 20
36.0226015868
 10
273.6993830858
 20
36.1762812399
 10
273.4096701691
 20
36.3801960122
 10
273.2212513782
 20
36.6204494489
 10
273.1469671421
 20
36.8806686753
 10
273.1918798089
 20
37.1431201811
 10
273.3529286545
 20
37.3899183301
 10
273.6191384662
 20
37.6042442361
 10
273.9723674853
 20
37.7714919429
 10
274.3885437378
 20
37.8802637957
 10
274.8393055
 20
37.9231471723
 10
275.2939341026
 20
37.8972196417
 10
275.7214473578
 20
37.8042481221
 10
276.0927109436
 20
37.650568469
 10
276.3824238602
 20
37.4466536967
 10
276.5708426512
 20
37.20640026
 10
276.6451268872
 20
36.9461810336
 10
276.6002142204
 20
36.6837295278
 10
276.4391653749
 20
36.4369313788
 10
276.1729555632
 20
36.2226054728
 10
275.8197265441
 20
36.055357766
 10
275.4035502915
 20
35.9465859133
  0
SPLINE
  5
1E7
330
1F
100
AcDbEntity
  8
0
  6
Continuous
 62
     7
370
    25
100
AcDbSpline
210
0.0
220
0.0
230
1.0
 70
     8
 71
     3
 72
    11
 73
     7
 74
     0
 42
0.000000001
 43
0.00000001
 40
0.0
 40
0.0
 40
0.0
 40
0.0
 40
0.2164553779443427
 40
0.4403112895790515
 40
0.7519005688038657
 40
1.0
 40
1.0
 40
1.0
 40
1.0
 10
276.553664805916
 20
37.18873905648079
 30
0.0
 10
276.5266887074014
 20
37.07767745201386
 30
0.0
 10
276.471814206996
 20
36.85175708565492
 30
0.0
 10
276.3699817903135
 20
36.52475595632583
 30
0.0
 10
276.2607482568246
 20
36.3000198434622
 30
0.0
 10
276.1908453548194
 20
36.24113657802816
 30
0.0
 10
276.1598587190278
 20
36.21503473893592
 30
0.0
  0
SPLINE
  5
1E8
330
1F
100
AcDbEntity
  8
0
  6
Continuous
 62
     7
370
    25
100
AcDbSpline
210
0.0
220
0.0
230
1.0
 70
     8
 71
     3
 72
    11
 73
     7
 74
     0
 42
0.000000001
 43
0.00000001
 40
0.0
 40
0.0
 40
0.0
 40
0.0
 40
0.2164553779443444
 40
0.4403112895790507
 40
0.7519005688038648
 40
1.0
 40
1.0
 40
1.0
 40
1.0
 10
275.2898531015578
 20
37.87247292384247
 30
0.0
 10
275.3764254278262
 20
37.78127457616841
 30
0.0
 10
275.5525299579293
 20
37.59575984119994
 30
0.0
 10
275.8793329311985
 20
37.34374077205694
 30
0.0
 10
276.2298877416194
 20
37.19943636894966
 30
0.0
 10
276.4542217696199
 20
37.19202456786938
 30
0.0
 10
276.553664805916
 20
37.18873905648079
 30
0.0
  0
SPLINE
  5
1E9
330
1F
100
AcDbEntity
  8
0
  6
Continuous
 62
     7
370
    25
100
AcDbSpline
210
0.0
220
0.0
230
1.0
 70
     8
 71
     3
 72
    11
 73
     7
 74
     0
 42
0.000000001
 43
0.00000001
 40
0.0
 40
0.0
 40
0.0
 40
0.0
 40
0.1843643438496219
 40
0.5174526391740253
 40
0.866335207912595
 40
1.0
 40
1.0
 40
1.0
 40
1.0
 10
273.6322353103112
 20
37.58250247365928
 30
0.0
 10
273.7284245932595
 20
37.56122313695216
 30
0.0
 10
273.9983976112656
 20
37.501498741719
 30
0.0
 10
274.5013813997244
 20
37.50990389257441
 30
0.0
 10
274.9697135734668
 20
37.68726394496836
 30
0.0
 10
275.2204104862848
 20
37.83229857879445
 30
0.0
 10
275.2898531015578
 20
37.87247292384247
 30
0.0
  0
SPLINE
  5
1EA
330
1F
100
AcDbEntity
  8
0
  6
Continuous
 62
     7
370
    25
100
AcDbSpline
210
0.0
220
0.0
230
1.0
 70
     8
 71
     3
 72
    11
 73
     7
 74
     0
 42
0.000000001
 43
0.00000001
 40
0.0
 40
0.0
 40
0.0
 40
0.0
 40
0.2164553779443431
 40
0.4403112895790518
 40
0.7519005688038667
 40
1.0
 40
1.0
 40
1.0
 40
1.0
 10
273.2384292234231
 20
36.60879815611441
 30
0.0
 10
273.2654053219376
 20
36.63113593001516
 30
0.0
 10
273.320279822343
 20
36.67657519849611
 30
0.0
 10
273.4221122390256
 20
36.85314507576773
 30
0.0
 10
273.5313457725146
 20
37.16857919754553
 30
0.0
 10
273.6012486745198
 20
37.45537244528689
 30
0.0
 10
273.6322353103112
 20
37.58250247365928
 30
0.0
  0
SPLINE
  5
1EB
330
1F
100
AcDbEntity
  8
0
  6
Continuous
 62
     7
370
    25
100
AcDbSpline
210
0.0
220
0.0
230
1.0
 70
     8
 71
     3
 72
     9
 73
     5
 74
     0
 42
0.000000001
 43
0.00000001
 40
0.0
 40
0.0
 40
0.0
 40
0.0
 40
0.3487397697034223
 40
1.0
 40
1.0
 40
1.0
 40
1.0
 10
273.7157636167152
 20
36.1934028661844
 30
0.0
 10
273.6571406782396
 20
36.22937074436737
 30
0.0
 10
273.4890412999396
 20
36.33250747068212
 30
0.0
 10
273.3372711113779
 20
36.49982857511075
 30
0.0
 10
273.2384292234231
 20
36.60879815611442
 30
0.0
  0
LINE
  5
1EC
330
1F
100
AcDbEntity
  8
0
  6
Continuous
 62
     7
370
    25
100
AcDbLine
 10
273.6322353103
 20
36.2489864639
 30
0.0
 11
273.6322353103
 21
37.5825024737
 31
0.0
  0
LINE
  5
1ED
330
1F
100
AcDbEntity
  8
0
  6
Continuous
 62
     7
370
    25
100
AcDbLine
 10
275.2898531016
 20
35.9290829845
 30
0.0
 11
275.2898531016
 21
37.8724729238
 31
0.0
  0
LWPOLYLINE
  5
1EE
330
1F
100
AcDbEntity
  8
0
  6
Continuous
 62
     7
370
    18
100
AcDbPolyline
 90
        9
 70
   128
 43
0.0
 10
262.7161327087
 20
26.7987760186
 10
262.7581946712
 20
25.9117316975
 10
262.8839039798
 20
25.0833016511
 10
263.0918362978
 20
24.3228723229
 10
263.379635669
 20
23.6390596812
 10
263.7440412114
 20
23.0396115962
 10
264.1809240647
 20
22.5313200544
 10
264.6853341717
 20
22.119944202
 10
264.8911805649
 20
21.9914055507
  0
LWPOLYLINE
  5
1EF
330
1F
100
AcDbEntity
  8
0
  6
Continuous
 62
     7
370
    18
100
AcDbPolyline
 90
       24
 70
   128
 43
0.0
 10
275.3903272575
 20
40.1784316607
 10
275.3204036945
 20
40.2177365467
 10
274.7256402604
 20
40.475357339
 10
274.0789282318
 20
40.6265807082
 10
273.3875951147
 20
40.6696932331
 10
272.6594739893
 20
40.6042064316
 10
271.902814759
 20
40.4308622953
 10
271.1261906752
 20
40.1516248825
 10
270.3384011991
 20
39.7696580648
 10
269.5483723002
 20
39.2892896787
 10
268.7650553218
 20
38.7159624901
 10
267.997325558
 20
38.0561725251
 10
267.2538816939
 20
37.3173954676
 10
266.5431472456
 20
36.5080019569
 10
265.8731751184
 20
35.6371627448
 10
265.2515563641
 20
34.7147447877
 10
264.6853341717
 20
33.7511994495
 10
264.1809240647
 20
32.757444084
 10
263.7440412114
 20
31.7447383365
 10
263.379635669
 20
30.7245565678
 10
263.0918362978
 20
29.7084578449
 10
262.8839039798
 20
28.7079549725
 10
262.7581946712
 20
27.7343840479
 10
262.7161327087
 20
26.7987760186
  0
LWPOLYLINE
  5
1F0
330
1F
100
AcDbEntity
  8
0
  6
Continuous
 62
     7
370
    18
100
AcDbPolyline
 90
       37
 70
   128
 43
0.0
 10
257.9431619357
 20
25.6762148648
 10
257.9853592141
 20
26.8011057611
 10
258.1116207983
 20
27.9659128016
 10
258.3209585202
 20
29.1615197917
 10
258.6117340283
 20
30.3785694858
 10
258.98167161
 20
31.6075368199
 10
259.4278760022
 20
32.8388034583
 10
259.9468550505
 20
34.0627330701
 10
260.5345470402
 20
35.2697467466
 10
261.1863524847
 20
36.4503979694
 10
261.8971701225
 20
37.5954465417
 10
262.661436842
 20
38.695930906
 10
263.4731712198
 20
39.7432382801
 10
264.3260203338
 20
40.7291720638
 10
265.2133094834
 20
41.6460159884
 10
266.1280944279
 20
42.4865945071
 10
267.0632157348
 20
43.2443289533
 10
268.0113548121
 20
43.9132890276
 10
268.9650911859
 20
44.4882392104
 10
269.9169605759
 20
44.964679737
 10
270.8595133136
 20
45.3388818143
 10
271.7853726459
 20
45.6079168036
 10
272.6872924682
 20
45.7696791414
 10
273.5582140349
 20
45.8229028181
 10
274.391321204
 20
45.7671712862
 10
275.1800937823
 20
45.6029207206
 10
275.918358555
 20
45.3314366046
 10
276.6003375991
 20
44.9548436695
 10
277.2206935041
 20
44.4760892657
 10
277.7745711439
 20
43.8989202954
 10
278.2576356749
 20
43.2278538884
 10
278.6661064622
 20
42.4681420493
 10
278.9967866681
 20
41.6257305531
 10
279.2470882717
 20
40.7072124121
 10
279.4150523235
 20
39.7197762761
 10
279.4993642771
 20
38.6711501717
 10
279.5063121369
 20
37.8023241667
  0
LWPOLYLINE
  5
1F1
330
1F
100
AcDbEntity
  8
0
  6
Continuous
 62
     7
370
    18
100
AcDbPolyline
 90
       20
 70
   128
 43
0.0
 10
269.0071654442
 20
19.6152980567
 10
268.9650911859
 20
19.5898391584
 10
268.0113548121
 20
19.0636287629
 10
267.0632157348
 20
18.6378907599
 10
266.1280944279
 20
18.3159571265
 10
265.2133094834
 20
18.1003474299
 10
264.3260203338
 20
17.9927491083
 10
263.4731712198
 20
17.9940042644
 10
262.661436842
 20
18.1041030749
 10
261.8971701225
 20
18.3221838674
 10
261.1863524847
 20
18.646539864
 10
260.5345470402
 20
19.0746325393
 10
259.9468550505
 20
19.6031114875
 10
259.4278760022
 20
20.2278406445
 10
258.98167161
 20
20.9439306574
 10
258.6117340283
 20
21.7457771512
 10
258.3209585202
 20
22.6271045897
 10
258.1116207983
 20
23.5810153908
 10
257.9853592141
 20
24.6000439091
 10
257.9431619357
 20
25.6762148648
  0
LWPOLYLINE
  5
1F2
330
1F
100
AcDbEntity
  8
0
  6
Continuous
 62
     7
370
    18
100
AcDbPolyline
 90
       27
 70
   128
 43
0.0
 10
257.2360551545
 20
25.6762148648
 10
257.2772821278
 20
26.8055665132
 10
257.4006578177
 20
27.9741564872
 10
257.6052687936
 20
29.1733329556
 10
257.8896001875
 20
30.3942176355
 10
258.2515469092
 20
31.6277715236
 10
258.6884292319
 20
32.8648618187
 10
259.1970126316
 20
34.0963295371
 10
259.7735317349
 20
35.3130573225
 10
260.413718196
 20
36.5060369482
 10
261.1128322982
 20
37.6664360105
 10
261.8656980455
 20
38.7856633205
 10
262.6667414832
 20
39.855432511
 10
263.5100319659
 20
40.867823385
 10
264.389326066
 20
41.8153405549
 10
265.2981137976
 20
42.6909689349
 10
266.2296668143
 20
43.4882256789
 10
267.1770882234
 20
44.2012081769
 10
268.1333636484
 20
44.8246377559
 10
269.0914131605
 20
45.3538987615
 10
270.0441436964
 20
45.7850727303
 10
270.9845015724
 20
46.1149674012
 10
271.905524708
 20
46.3411403493
 10
272.8003941699
 20
46.4619170693
 10
273.6624846579
 20
46.4764033727
 10
274.4854135556
 20
46.384492008
 10
274.8190817448
 20
46.3140088111
  0
ARC
  5
1F3
330
1F
100
AcDbEntity
  8
0
  6
Continuous
 62
     7
370
    18
100
AcDbCircle
 10
266.0410813227
 20
25.0982083412
 30
0.0
 40
8.823977411801893
100
AcDbArc
 50
176.2442035086
 51
219.7906790636
  0
LWPOLYLINE
  5
1F4
330
1F
100
AcDbEntity
  8
0
  6
Continuous
 62
     7
370
    18
100
AcDbPolyline
 90
       32
 70
   128
 43
0.0
 10
259.887705584
 20
26.7987760186
 10
259.9289684933
 20
27.8076910309
 10
260.0523719607
 20
28.8548272166
 10
260.2567638012
 20
29.9304077474
 10
260.5402356633
 20
31.0243902175
 10
260.9001408465
 20
32.1265604075
 10
261.3331190132
 20
33.2266276512
 10
261.8351275629
 20
34.3143209171
 10
262.4014793769
 20
35.3794847064
 10
263.0268865811
 20
36.4121738716
 10
263.7055099167
 20
37.4027464724
 10
264.4310132607
 20
38.3419537991
 10
265.1966227838
 20
39.2210267262
 10
265.995190196
 20
40.0317575864
 10
266.8192594887
 20
40.7665768043
 10
267.6611365489
 20
41.4186235707
 10
268.5129609974
 20
41.9818099007
 10
269.3667795787
 20
42.4508774752
 10
270.2146204188
 20
42.8214467367
 10
271.0485674562
 20
43.0900577799
 10
271.8608343522
 20
43.2542026558
 10
272.6438371895
 20
43.3123487879
 10
273.3902652817
 20
43.2639532815
 10
274.0931494308
 20
43.1094679923
 10
274.7459269969
 20
42.850335308
 10
275.3425031716
 20
42.4889746804
 10
275.877307884
 20
42.0287600366
 10
276.3453478067
 20
41.4739882765
 10
276.7422529768
 20
40.8298391546
 10
277.0643175979
 20
40.1023269178
 10
277.3085346393
 20
39.2982441518
 10
277.3675542554
 20
39.0370028108
  0
LWPOLYLINE
  5
1F5
330
1F
100
AcDbEntity
  8
0
  6
Continuous
 62
     7
370
    18
100
AcDbPolyline
 90
       16
 70
   128
 43
0.0
 10
266.8684075627
 20
20.8499767008
 10
266.8192594887
 20
20.8339770226
 10
265.995190196
 20
20.6173460873
 10
265.1966227838
 20
20.5060706388
 10
264.4310132607
 20
20.5011896261
 10
263.7055099167
 20
20.6027486217
 10
263.0268865811
 20
20.8097993968
 10
262.4014793769
 20
21.1204087741
 10
261.8351275629
 20
21.5316766774
 10
261.3331190132
 20
22.0397632092
 10
260.9001408465
 20
22.6399245024
 10
260.5402356633
 20
23.3265570128
 10
260.2567638012
 20
24.0932498375
 10
260.0523719607
 20
24.9328445723
 10
259.9289684933
 20
25.8375021474
 10
259.887705584
 20
26.7987760186
  0
LWPOLYLINE
  5
1F6
330
1F
100
AcDbEntity
  8
0
  6
Continuous
 62
     7
370
    18
100
AcDbPolyline
 90
       20
 70
   128
 43
0.0
 10
255.1372086351
 20
32.5553839148
 10
255.4438335568
 20
33.6998901933
 10
255.8276186252
 20
34.8515038918
 10
256.2851865001
 20
36.0000907154
 10
256.8125105469
 20
37.135543006
 10
257.4049502706
 20
38.2478686902
 10
258.0572921531
 20
39.3272792109
 10
258.7637955323
 20
40.3642756669
 10
259.5182431208
 20
41.3497324046
 10
260.3139957177
 20
42.2749773239
 10
261.1440506351
 20
43.1318681935
 10
262.0011033215
 20
43.9128643036
 10
262.8776116432
 20
44.6110928244
 10
263.7658622551
 20
45.2204092878
 10
264.6580384789
 20
45.7354516588
 10
265.5462890907
 20
46.1516875224
 10
266.4227974124
 20
46.4654539689
 10
267.2798500989
 20
46.6739898278
 10
268.1099050163
 20
46.7754599665
 10
268.7564557551
 20
46.7785719978
  0
LWPOLYLINE
  5
1F7
330
1F
100
AcDbEntity
  8
0
  6
Continuous
 62
     7
370
    18
100
AcDbPolyline
 90
       23
 70
   128
 43
0.0
 10
249.5510807344
 20
34.2344610661
 10
249.8698523204
 20
35.4982067842
 10
250.2702256088
 20
36.7721931783
 10
250.7490504826
 20
38.0463965877
 10
251.3025595721
 20
39.3107916447
 10
251.9263978957
 20
40.5554301529
 10
252.6156571252
 20
41.7705193597
 10
253.3649142038
 20
42.9464990047
 10
254.1682740148
 20
44.0741165396
 10
255.0194157639
 20
45.1444999267
 10
255.9116427109
 20
46.1492274439
 10
256.8379348593
 20
47.0803939458
 10
257.7910041895
 20
47.9306730615
 10
258.7633520003
 20
48.6933748382
 10
259.7473279083
 20
49.3624983768
 10
260.7351900409
 20
49.9327790471
 10
261.7191659489
 20
50.3997299099
 10
262.6915137596
 20
50.7596770193
 10
263.6445830898
 20
51.0097883297
 10
264.5708752383
 20
51.148095978
 10
265.4631021852
 20
51.1735117667
 10
266.3142439343
 20
51.0858357255
 10
266.6706544484
 20
51.0123757695
  0
LWPOLYLINE
  5
1F8
330
1F
100
AcDbEntity
  8
0
  6
Continuous
 62
     7
370
    18
100
AcDbPolyline
 90
       18
 70
   128
 43
0.0
 10
255.5304813867
 20
32.4996033759
 10
255.8484080346
 20
33.6668637073
 10
256.2474154693
 20
34.8407102928
 10
256.72374556
 20
36.0100870248
 10
257.2729118969
 20
37.1639798962
 10
257.8897420477
 20
38.2915207375
 10
258.5684262751
 20
39.3820895812
 10
259.3025722567
 20
40.4254146877
 10
260.0852652927
 20
41.4116692923
 10
260.9091334331
 20
42.3315641597
 10
261.7664169119
 20
43.1764350774
 10
262.6490412344
 20
43.9383244605
 10
263.5486932279
 20
44.6100563026
 10
264.4568993413
 20
45.1853037636
 10
265.3651054546
 20
45.6586487611
 10
266.2647574481
 20
46.0256330011
 10
267.1473817706
 20
46.2827999694
 10
267.8913904821
 20
46.4148597495
  0
LINE
  5
1F9
330
1F
100
AcDbEntity
  8
0
  6
Continuous
 62
     7
370
    18
100
AcDbLine
 10
274.1535848944
 20
19.2359631899
 30
0.0
 11
275.3203110834
 21
18.5624264977
 31
0.0
  0
LINE
  5
1FA
330
1F
100
AcDbEntity
  8
0
  6
Continuous
 62
     7
370
    18
100
AcDbLine
 10
255.5398040376
 20
25.9210679884
 30
0.0
 11
255.9455852789
 21
26.1553205128
 31
0.0
  0
LWPOLYLINE
  5
1FB
330
1F
100
AcDbEntity
  8
0
  6
Continuous
 62
     7
370
    18
100
AcDbPolyline
 90
        3
 70
   128
 43
0.0
 10
256.5048783651
 20
25.8965309154
 10
256.4398061898
 20
25.9199433398
 10
255.9455852789
 20
26.1553205128
  0
ARC
  5
1FC
330
1F
100
AcDbEntity
  8
0
  6
Continuous
 62
     7
370
    18
100
AcDbCircle
 10
255.2575961094
 20
27.2119221079
 30
0.0
 40
1.260847345345262
100
AcDbArc
 50
303.0695173616
 51
345.5982002283
  0
LINE
  5
1FD
330
1F
100
AcDbEntity
  8
0
  6
Continuous
 62
     7
370
    18
100
AcDbLine
 10
252.0519931112
 20
29.709402566
 30
0.0
 11
256.4369836168
 21
27.1780014295
 31
0.0
  0
LINE
  5
1FE
330
1F
100
AcDbEntity
  8
0
  6
Continuous
 62
     7
370
    18
100
AcDbLine
 10
251.9327542956
 20
29.6405450859
 30
0.0
 11
252.0519931112
 21
29.709402566
 31
0.0
  0
LINE
  5
1FF
330
1F
100
AcDbEntity
  8
0
  6
Continuous
 62
     7
370
    18
100
AcDbLine
 10
251.6764280875
 20
32.671811873
 30
0.0
 11
251.6816159822
 21
33.0044773373
 31
0.0
  0
ARC
  5
200
330
1F
100
AcDbEntity
  8
0
  6
Continuous
 62
     7
370
    18
100
AcDbCircle
 10
260.2635787454
 20
32.5962203888
 30
0.0
 40
8.587483362136723
100
AcDbArc
 50
179.4956463074
 51
192.1059638418
  0
LWPOLYLINE
  5
201
330
1F
100
AcDbEntity
  8
0
  6
Continuous
 62
     7
370
    18
100
AcDbPolyline
 90
       18
 70
   128
 43
0.0
 10
231.8309121892
 20
47.9706913206
 10
231.8731032523
 20
48.7073188672
 10
231.9988905018
 20
49.4789372009
 10
232.2059307594
 20
50.2711725321
 10
232.4903672567
 20
51.0692670156
 10
232.8469014799
 20
51.8583536611
 10
233.2688918712
 20
52.6237332776
 10
233.7484775479
 20
53.3511482907
 10
234.2767247362
 20
54.0270483353
 10
234.8437931906
 20
54.6388426724
 10
235.4391194987
 20
55.1751347309
 10
236.0516138578
 20
55.6259344045
 10
236.6698666568
 20
55.9828441483
 10
237.2823610158
 20
56.2392154091
 10
237.8776873239
 20
56.3902724753
 10
238.4447557783
 20
56.4332014395
 10
238.9730029667
 20
56.3672026165
 10
239.2161213166
 20
56.2948668083
  0
ARC
  5
202
330
1F
100
AcDbEntity
  8
0
  6
Continuous
 62
     7
370
    18
100
AcDbCircle
 10
235.3786953673
 20
47.7410463328
 30
0.0
 40
3.555207771549104
100
AcDbArc
 50
176.2964595969
 51
223.0541799523
  0
LINE
  5
203
330
1F
100
AcDbEntity
  8
0
  6
Continuous
 62
     7
370
    18
100
AcDbLine
 10
281.7903381312
 20
23.6445669938
 30
0.0
 11
282.9570643202
 21
22.9710303015
 31
0.0
  0
LWPOLYLINE
  5
204
330
1F
100
AcDbEntity
  8
0
  6
Continuous
 62
     7
370
    18
100
AcDbPolyline
 90
        3
 70
   128
 43
0.0
 10
256.0022753219
 20
24.8231492462
 10
255.8484080346
 20
25.1262598031
 10
255.5304813867
 20
25.9264498402
  0
ARC
  5
205
330
1F
100
AcDbEntity
  8
0
  6
Continuous
 62
     7
370
    18
100
AcDbCircle
 10
261.1749391766
 20
27.8569507341
 30
0.0
 40
6.322085613249899
100
AcDbArc
 50
197.2496121599
 51
213.7648324699
  0
LINE
  5
206
330
1F
100
AcDbEntity
  8
0
  6
Continuous
 62
     7
370
    18
100
AcDbLine
 10
255.9455852789
 20
26.1553205128
 30
0.0
 11
251.7206222613
 21
28.5943397468
 31
0.0
  0
ARC
  5
207
330
1F
100
AcDbEntity
  8
0
  6
Continuous
 62
     7
370
    18
100
AcDbCircle
 10
256.3551831868
 20
28.884483927
 30
0.0
 40
7.054282120605724
100
AcDbArc
 50
195.3048532876
 51
222.4767100779
  0
OLE2FRAME
  5
208
330
1F
100
AcDbEntity
  8
0
100
AcDbOle2Frame
 70
     2
  3
Paintbrush-Bild
 10
13.8511154363
 20
38.264191557
 30
0.0
 11
51.6290888628
 21
31.9806341108
 31
0.0
 71
     2
 72
     0
 73
     1
 90
    12928
310
80552BED0767C5B32B40DDAF6807D121434000000000000000006FFBDDFB85D0
310
4940DDAF6807D121434000000000000000006FFBDDFB85D04940416F4BD60AFB
310
3F4000000000000000002BED0767C5B32B40416F4BD60AFB3F40000000000000
310
0000000000000100000000010000010000000100000000000100000000320000
310
D0CF11E0A1B11AE1000000000000000000000000000000003E000300FEFF0900
310
0600000000000000000000000100000001000000000000000010000002000000
310
01000000FEFFFFFF0000000000000000FFFFFFFFFFFFFFFFFFFFFFFFFFFFFFFF
310
FFFFFFFFFFFFFFFFFFFFFFFFFFFFFFFFFFFFFFFFFFFFFFFFFFFFFFFFFFFFFFFF
310
FFFFFFFFFFFFFFFFFFFFFFFFFFFFFFFFFFFFFFFFFFFFFFFFFFFFFFFFFFFFFFFF
310
FFFFFFFFFFFFFFFFFFFFFFFFFFFFFFFFFFFFFFFFFFFFFFFFFFFFFFFFFFFFFFFF
310
FFFFFFFFFFFFFFFFFFFFFFFFFFFFFFFFFFFFFFFFFFFFFFFFFFFFFFFFFFFFFFFF
310
FFFFFFFFFFFFFFFFFFFFFFFFFFFFFFFFFFFFFFFFFFFFFFFFFFFFFFFFFFFFFFFF
310
FFFFFFFFFFFFFFFFFFFFFFFFFFFFFFFFFFFFFFFFFFFFFFFFFFFFFFFFFFFFFFFF
310
FFFFFFFFFFFFFFFFFFFFFFFFFFFFFFFFFFFFFFFFFFFFFFFFFFFFFFFFFFFFFFFF
310
FFFFFFFFFFFFFFFFFFFFFFFFFFFFFFFFFFFFFFFFFFFFFFFFFFFFFFFFFFFFFFFF
310
FFFFFFFFFFFFFFFFFFFFFFFFFFFFFFFFFFFFFFFFFFFFFFFFFFFFFFFFFFFFFFFF
310
FFFFFFFFFFFFFFFFFFFFFFFFFFFFFFFFFFFFFFFFFFFFFFFFFFFFFFFFFFFFFFFF
310
FFFFFFFFFFFFFFFFFFFFFFFFFFFFFFFFFFFFFFFFFFFFFFFFFFFFFFFFFFFFFFFF
310
FFFFFFFFFFFFFFFFFFFFFFFFFFFFFFFFFFFFFFFFFFFFFFFFFFFFFFFFFFFFFFFF
310
FFFFFFFFFFFFFFFFFFFFFFFFFFFFFFFFFFFFFFFFFFFFFFFFFFFFFFFFFFFFFFFF
310
FDFFFFFFFEFFFFFFFEFFFFFFFEFFFFFF05000000060000000700000008000000
310
090000000A0000000B0000000C0000000D0000000E0000000F00000010000000
310
11000000120000001300000014000000150000001600000017000000FEFFFFFF
310
FFFFFFFFFFFFFFFFFFFFFFFFFFFFFFFFFFFFFFFFFFFFFFFFFFFFFFFFFFFFFFFF
310
FFFFFFFFFFFFFFFFFFFFFFFFFFFFFFFFFFFFFFFFFFFFFFFFFFFFFFFFFFFFFFFF
310
FFFFFFFFFFFFFFFFFFFFFFFFFFFFFFFFFFFFFFFFFFFFFFFFFFFFFFFFFFFFFFFF
310
FFFFFFFFFFFFFFFFFFFFFFFFFFFFFFFFFFFFFFFFFFFFFFFFFFFFFFFFFFFFFFFF
310
FFFFFFFFFFFFFFFFFFFFFFFFFFFFFFFFFFFFFFFFFFFFFFFFFFFFFFFFFFFFFFFF
310
FFFFFFFFFFFFFFFFFFFFFFFFFFFFFFFFFFFFFFFFFFFFFFFFFFFFFFFFFFFFFFFF
310
FFFFFFFFFFFFFFFFFFFFFFFFFFFFFFFFFFFFFFFFFFFFFFFFFFFFFFFFFFFFFFFF
310
FFFFFFFFFFFFFFFFFFFFFFFFFFFFFFFFFFFFFFFFFFFFFFFFFFFFFFFFFFFFFFFF
310
FFFFFFFFFFFFFFFFFFFFFFFFFFFFFFFFFFFFFFFFFFFFFFFFFFFFFFFFFFFFFFFF
310
FFFFFFFFFFFFFFFFFFFFFFFFFFFFFFFFFFFFFFFFFFFFFFFFFFFFFFFFFFFFFFFF
310
FFFFFFFFFFFFFFFFFFFFFFFFFFFFFFFFFFFFFFFFFFFFFFFFFFFFFFFFFFFFFFFF
310
FFFFFFFFFFFFFFFFFFFFFFFFFFFFFFFFFFFFFFFFFFFFFFFFFFFFFFFFFFFFFFFF
310
FFFFFFFFFFFFFFFFFFFFFFFFFFFFFFFFFFFFFFFFFFFFFFFFFFFFFFFFFFFFFFFF
310
52006F006F007400200045006E00740072007900000000000000000000000000
310
0000000000000000000000000000000000000000000000000000000000000000
310
16000500FFFFFFFFFFFFFFFF020000000A00030000000000C000000000000046
310
000000000000000000000000C0AB6678DAB9D30103000000C000000000000000
310
01004F006C006500000000000000000000000000000000000000000000000000
310
0000000000000000000000000000000000000000000000000000000000000000
310
0A000200FFFFFFFFFFFFFFFFFFFFFFFF00000000000000000000000000000000
310
0000000000000000000000000000000000000000000000001400000000000000
310
010043006F006D0070004F0062006A0000000000000000000000000000000000
310
0000000000000000000000000000000000000000000000000000000000000000
310
120002010100000003000000FFFFFFFF00000000000000000000000000000000
310
0000000000000000000000000000000000000000010000004D00000000000000
310
01004F006C006500310030004E00610074006900760065000000000000000000
310
0000000000000000000000000000000000000000000000000000000000000000
310
1A000200FFFFFFFFFFFFFFFFFFFFFFFF00000000000000000000000000000000
310
0000000000000000000000000000000000000000040000002426000000000000
310
FEFFFFFF02000000FEFFFFFFFFFFFFFFFFFFFFFFFFFFFFFFFFFFFFFFFFFFFFFF
310
FFFFFFFFFFFFFFFFFFFFFFFFFFFFFFFFFFFFFFFFFFFFFFFFFFFFFFFFFFFFFFFF
310
FFFFFFFFFFFFFFFFFFFFFFFFFFFFFFFFFFFFFFFFFFFFFFFFFFFFFFFFFFFFFFFF
310
FFFFFFFFFFFFFFFFFFFFFFFFFFFFFFFFFFFFFFFFFFFFFFFFFFFFFFFFFFFFFFFF
310
FFFFFFFFFFFFFFFFFFFFFFFFFFFFFFFFFFFFFFFFFFFFFFFFFFFFFFFFFFFFFFFF
310
FFFFFFFFFFFFFFFFFFFFFFFFFFFFFFFFFFFFFFFFFFFFFFFFFFFFFFFFFFFFFFFF
310
FFFFFFFFFFFFFFFFFFFFFFFFFFFFFFFFFFFFFFFFFFFFFFFFFFFFFFFFFFFFFFFF
310
FFFFFFFFFFFFFFFFFFFFFFFFFFFFFFFFFFFFFFFFFFFFFFFFFFFFFFFFFFFFFFFF
310
FFFFFFFFFFFFFFFFFFFFFFFFFFFFFFFFFFFFFFFFFFFFFFFFFFFFFFFFFFFFFFFF
310
FFFFFFFFFFFFFFFFFFFFFFFFFFFFFFFFFFFFFFFFFFFFFFFFFFFFFFFFFFFFFFFF
310
FFFFFFFFFFFFFFFFFFFFFFFFFFFFFFFFFFFFFFFFFFFFFFFFFFFFFFFFFFFFFFFF
310
FFFFFFFFFFFFFFFFFFFFFFFFFFFFFFFFFFFFFFFFFFFFFFFFFFFFFFFFFFFFFFFF
310
FFFFFFFFFFFFFFFFFFFFFFFFFFFFFFFFFFFFFFFFFFFFFFFFFFFFFFFFFFFFFFFF
310
FFFFFFFFFFFFFFFFFFFFFFFFFFFFFFFFFFFFFFFFFFFFFFFFFFFFFFFFFFFFFFFF
310
FFFFFFFFFFFFFFFFFFFFFFFFFFFFFFFFFFFFFFFFFFFFFFFFFFFFFFFFFFFFFFFF
310
FFFFFFFFFFFFFFFFFFFFFFFFFFFFFFFFFFFFFFFFFFFFFFFFFFFFFFFFFFFFFFFF
310
0100000200000000000000000000000000000000000000000000000000000000
310
0000000000000000000000000000000000000000000000000000000000000000
310
0100FEFF030A0000FFFFFFFF0A00030000000000C00000000000004607000000
310
5042727573680007000000504272757368000700000050427275736800F439B2
310
7100000000000000000000000000000000000000000000000000000000000000
310
0000000000000000000000000000000000000000000000000000000000000000
310
0000000000000000000000000000000000000000000000000000000000000000
310
0000000000000000000000000000000000000000000000000000000000000000
310
0000000000000000000000000000000000000000000000000000000000000000
310
0000000000000000000000000000000000000000000000000000000000000000
310
0000000000000000000000000000000000000000000000000000000000000000
310
0000000000000000000000000000000000000000000000000000000000000000
310
0000000000000000000000000000000000000000000000000000000000000000
310
0000000000000000000000000000000000000000000000000000000000000000
310
0000000000000000000000000000000000000000000000000000000000000000
310
0000000000000000000000000000000000000000000000000000000000000000
310
20260000424D0E260000000000003E00000028000000B40200006E0000000100
310
01000000000000000000130B0000130B00000200000002000000000000FFFFFF
310
FFFFFFFFFFFFFFFFFFFFFFFFFFFFFFFFFFFFFFFFFFFFFFFFFFFFFFFFFFFFFFFF
310
FFFFFFFFFFFFFFFFFFFFFFFFFFFFFFFFFFFFFFFFFFFFFFFFFFFFFFFFFFFFFFFF
310
FFFFFFFFFFFFFFFFFFFFFFFFFFFFFFFFFFFFFFFFFFFFFFFFF000FFFFFFFFFFFF
310
FFFFFFFFFFFFFFFFFFFFFFFFFFFFFFFFFFFFFFFFFFFFFFFFFFFFFFFFFFFFFFFF
310
FFFFFFFFFFFFFFFFFFFFFFFFFFFFFFFFFFFFFFFFFFFFFFFFFFFFFFFFFFFFFFFF
310
FFFFFFFFFFFFFFFFFFFFFFFFFFFFFFFFF000FFFFFFFFFFFFFFFFFFFFFFFFFFFF
310
FFFFFFFFFFFFFFFFFFFFFFFFFFFFFFFFFFFFFFFFFFFFFFFFFFFFFFFFFFFFFFFF
310
FFFFFFFFFFFFFFFFFFFFFFFFFFFFFFFFFFFFFFFFFFFFFFFFFFFFFFFFFFFFFFFF
310
FFFFFFFFFFFFFFFFF000FFFFFFFFFFFFFFFFFFFFFFFFFFFFFFFFFFFFFFFFFFFF
310
FFFFFFFFFFFFFFFFFFFFFFFFFFFFFFFFFFFFFFFFFFFFFFFFFFFFFFFFFFFFFFFF
310
FFFFFFFFFFFFFFFFFFFFFFFFFFFFFFFFFFFFFFFFFFFFFFFFFFFFFFFFFFFFFFFF
310
F000FFFFFFFFFFFFFFFFFFFFFFFFFFFFFFFFFFFFFFFFFFFFFFFFFFFFFFFFFFFF
310
FFFFFFFFFFFFFFFFFFFFFFFFFFFFFFFFFFFFFFFFFFFFFFFFFFFFFFFFFFFFFFFF
310
FFFFFFFFFFFFFFFFFFFFFFFFFFFFFFFFFFFFFFFFFFFFFFFFF000FFFFFFFFFFFF
310
FFFFFFFFFFFFFFFFFFFFFFFFFFFFFFFFFFFFFFFFFFFFFFFFFFFFFFFFFFFFFFFF
310
FFFFFFFFFFFFFFFFFFFFFFFFFFFFFFFFFFFFFFFFFFFFFFFFFFFFFFFFFFFFFFFF
310
FFFFFFFFFFFFFFFFFFFFFFFFFFFFFFFFF000FFFFFFFFFFFFFFFFFFFFFFFFFFFF
310
FFFFFFFFFFFFFFFFFFFFFFFFFFFFFFFFFFFFFFFFFFFFFFFFFFFFFFFFFFFFFFFF
310
FFFFFFFFFFFFFFFFFFFFFFFFFFFFFFFFFFFFFFFFFFFFFFFFFFFFFFFFFFFFFFFF
310
FFFFFFFFFFFFFFFFF000FFFFFFFFFFFFFFFFFFFFFFFFFFFFFFFFFFFFFFFFFFFF
310
FFFFFFFFFFFFFFFFFFFFFFFFFFFFFFFFFFFFFFFFFFFFFFFFFFFFFFFFFFFFFFFF
310
FFFFFFFFFFFFFFFFFFFFFFFFFFFFFFFFFFFFFFFFFFFFFFFFFFFFFFFFFFFFFFFF
310
F000FFFFFFFFFFFFFFFFFFFFFFFFFFFFFFFFFFFFFFFFFFFFFFFFFFFFFFFFFFFF
310
FFFFFFFFFFFFFFFFFFFFFFFFFFFFFFFFFFFFFFFFFFFFFFFFFFFFFFFFFFFFFFFF
310
FFFFFFFFFFFFFFFFFFFFFFFFFFFFFFFFFFFFFFFFFFFFFFFFF000FFFFFFFFFFFF
310
FFFFFFFFFFFFFFFFFFFFFFFFFFFFFFFFFFFFFFFFFFFFFFFFFFFFFFFFFFFFFFFF
310
FFFFFFFFFFFFFFFFFFFFFFFFFFFFFFFFFFFFFFFFFFFFFFFFFFFFFFFFFFFFFFFF
310
FFFFFFFFFFFFFFFFFFFFFFFFFFFFFFFFF000FFFFFFFFFFFFFFFFFFFFFFFFFFFF
310
FFFFFFFFFFFFFFFFFFFFFFFFFFFFFFFFFFFFFFFFFFFFFFFFFFFFFFFFFFFFFFFF
310
FFFFFFFFFFFFFFFFFFFFFFFFFFFFFFFFFFFFFFFFFFFFFFFFFFFFFFFFFFFFFFFF
310
FFFFFFFFFFFFFFFFF000FFFFFFFFFFFFFFFFFFFFFFFFFFFFFFFFFFFFFFFFFFFF
310
FFFFFFFFFFFFFFFFFFFFFFFFFFFFFFFFFFFFFFFFFFFFFFFFFFFFFFFFFFFFFFFF
310
FFFFFFFFFFFFFFFFFFFFFFFFFFFFFFFFFFFFFFFFFFFFFFFFFFFFFFFFFFFFFFFF
310
F000FFFFFFFFFFFFFFFFFFFFFFFFFFFFFFFFFFFFFFFFFFFFFFFFFFFFFFFFFFFF
310
FFFFFFFFFFFFFFFFFFFFFFFFFFFFFFFFFFFFFFFFFFFFFFFFFFFFFFFFFFFFFFFF
310
FFFFFFFFFFFFFFFFFFFFFFFFFFFFFFFFFFFFFFFFFFFFFFFFF000FFFFFFFFFFFF
310
FFFFFFFFFFFFFFFFFFFFFFFFFFFFFFFFFFFFFFFFFFFFFFFFFFFFFFFFFFFFFFFF
310
FFFFFFFFFFFFFFFFFFFFFFFFFFFFFFFFFFFFFFFFFFFFFFFFFFFFFFFFFFFFFFFF
310
FFFFFFFFFFFFFFFFFFFFFFFFFFFFFFFFF000FFFFFFFFFFFFFFFFFFFFFFFFFFFF
310
FFFFFFFFFFFFFFFFFFFFFFFFFFFFFFFFFFFFFFFFFFFFFFFFFFFFFFFFFFFFFFFF
310
FFFFFFFFFFFFFFFFFFFFFFFFFFFFFFFFFFFFFFFFFFFFFFFFFFFFFFFFFFFFFFFF
310
FFFFFFFFFFFFFFFFF000FFFFFFFFFFFFFFFFFFFFFFFFFFFFFFFFFFFFFFFFFFFF
310
FFFFFFFFFFFFFFFFFFFFFFFFFFFFFFFFFFFFFFFFFFFFFFFFFFFFFFFFFFFFFFFF
310
FFFFFFFFFFFFFFFFFFFFFFFFFFFFFFFFFFFFFFFFFFFFFFFFFFFFFFFFFFFFFFFF
310
F000FFFFFFFFFFFFFFFFFFFFFFFFFFFFFFFFFFFFFFFFFFFFFFFFFFFFFFFFFFFF
310
FFFFFFFFFFFFFFFFFFFFFFFFFFFFFFFFFFFFFFFFFFFFFFFFFFFFFFFFFFFFFFFF
310
FFFFFFFFFFFFFFFFFFFFFFFFFFFFFFFFFFFFFFFFFFFFFFFFF000FFFFFFFFFFFF
310
FFFFFFFFFFFFFFFFFFFFFFFFFFFFFFFFFFFFFFFFFFFFFFFFFFFFFFFFFFFFFFFF
310
FFFFFFFFFFFFFFFFFFFFFFFFFFFFFFFFFFFFFFFFFFFFFFFFFFFFFFFFFFFFFFFF
310
FFFFFFFFFFFFFFFFFFFFFFFFFFFFFFFFF000FFFFFFFFFFFFFFFFFFFFFFFFFFFF
310
FFFFFFFFFFFFFFFFFFFFFFFFFFFFFFFFFFFFFFFFFFFFFFFFFFFFFFFFFFFFFFFF
310
FFFFFFFFFFFFFFFFFFFFFFFFFFFFFFFFFFFFFFFFFFFFFFFFFFFFFFFFFFFFFFFF
310
FFFFFFFFFFFFFFFFF000FFFFF80003FFFFFFFFFFFFFFFFFFFFFFFFFFFFFFFFFF
310
FFFFF00007FFFFFFFFFF00007FFFFFF800000000000000007FFFFFFFFFFFFFFF
310
FFFFFFFC001FFFFFFFFFFFFFFC001FFFFFFFFFFFFFFFFFFFFFFFFFFE0007FFFF
310
F000FFFF8000007FFFFFFFF8000FFFFFC0007FFFFF80007FFFFF0000007FFFFF
310
FFF8000007FFFFF800000000000000007FFFFFF0001FFFFFFFFFFFC00001FFFF
310
FFFFFFFFC00001FFFFFFFF000000000003FFFFE000007FFFF000FFFE0000000F
310
FFFFFFF0000FFFFF80007FFFFF80007FFFFC0000001FFFFFFFC0000001FFFFF8
310
00000000000000007FFFFFF0001FFFFFFFFFFE0000003FFFFFFFFFFE0000003F
310
FFFFFF000000000003FFFF0000000FFFF000FFF800000003FFFFFFF00007FFFF
310
80007FFFFF80007FFFF000000007FFFFFF000000003FFFF80000000000000000
310
7FFFFFF0001FFFFFFFFFF80000000FFFFFFFFFF80000000FFFFFFF0000000000
310
03FFFC00000003FFF000FFE000000000FFFFFFF00007FFFF80003FFFFF80007F
310
FFC000000001FFFFFC000000001FFFF800000000000000007FFFFFF0001FFFFF
310
FFFFE000000003FFFFFFFFE000000003FFFFFF000000000003FFF000000000FF
310
F000FF80000000007FFFFFF00007FFFF80003FFFFF80007FFF8000000000FFFF
310
F80000000007FFF800000000000000007FFFFFF0001FFFFFFFFFC000000001FF
310
FFFFFFC000000001FFFFFF000000000003FFC0000000007FF000FF0000000000
310
3FFFFFE00007FFFF00003FFFFF80007FFE00000000003FFFF00000000003FFF8
310
00000000000000007FFFFFF0001FFFFFFFFF8000000000FFFFFFFF8000000000
310
FFFFFF000000000003FF80000000003FF000FE00000000001FFFFFE00003FFFF
310
00003FFFFF80007FFC00000000001FFFE00000000001FFF8000001FFFE000000
310
7FFFFFF0001FFFFFFFFE00000000003FFFFFFE00000000003FFFFF0000000000
310
03FF00000000001FF000FC00000000000FFFFFE00003FFFF00001FFFFF80007F
310
F800000000001FFFC00000000000FFF8000001FFFE0000007FFFFFF0001FFFFF
310
FFFC00000000001FFFFFFC00000000001FFFFF000000000003FE00000000000F
310
F000F8000000000007FFFFE00003FFFF00001FFFFF80007FF800000000000FFF
310
800000000000FFF8000001FFFE0000007FFFFFF0001FFFFFFFF800000000000F
310
FFFFF800000000000FFFFF000000000003FC000000000007F000F80000000000
310
03FFFFC00003FFFE00001FFFFF80007FF0000000000007FF0000000000007FF8
310
000001FFFE0000007FFFFFF0001FFFFFFFF0000000000007FFFFF00000000000
310
07FFFF000000000003F8000000000003F000F0000000000003FFFFC00001FFFE
310
00001FFFFF80007FE0000000000007FE0000000000003FF8000001FFFE000000
310
7FFFFFF0001FFFFFFFF0000000000007FFFFF0000000000007FFFF0000000000
310
03F800001F800003F000E00001FFF00001FFFFC00001FFFE00000FFFFF80007F
310
E00001FFE00003FE00001FFF00003FF8000001FFFE0000007FFFFFF0001FFFFF
310
FFE000003E000003FFFFE000003E000003FFFF000000000003F00001FFF80001
310
F000E00007FFFC0001FFFFC00001FFFE00000FFFFF80007FC0000FFFFC0003FC
310
0000FFFFC0001FF8000001FFFE0000007FFFFFF0001FFFFFFFC00003FFE00001
310
FFFFC00003FFE00001FFFF0001FFFFFFFFF00007FFFE0001F000E0000FFFFF00
310
00FFFF800001FFFC00000FFFFF80007FC0001FFFFE0001FC0001FFFFE0001FF8
310
000001FFFE0000007FFFFFF0001FFFFFFF80000FFFF80000FFFF80000FFFF800
310
00FFFF0003FFFFFFFFE0000FFFFF8000F000C0003FFFFF8000FFFF800000FFFC
310
000007FFFF80007F80003FFFFF0001FC0003FFFFF0001FF8000001FFFE000000
310
7FFFFFF0001FFFFFFF80003FFFFE0000FFFF80003FFFFE0000FFFF0003FFFFFF
310
FFE0003FFFFF8000F000C0003FFFFF8000FFFF800000FFFC000007FFFF80007F
310
80007FFFFF8001F80007FFFFF8000FF8000001FFFE0000007FFFFFF0001FFFFF
310
FF00007FFFFF00007FFF00007FFFFF00007FFF0003FFFFFFFFE0003FFFFFC000
310
F000C0007FFFFFC000FFFF000000FFFC000007FFFF80007F8000FFFFFF8000F8
310
000FFFFFF8000FF8000001FFFE0000007FFFFFF0001FFFFFFF0000FFFFFF8000
310
7FFF0000FFFFFF80007FFF0003FFFFFFFFC0007FFFFFC00070008000FFFFFFC0
310
00FFFF000000FFF8000007FFFF80007F8000FFFFFF8000F8000FFFFFF8000FF8
310
000001FFFE0000007FFFFFF0001FFFFFFE0001FFFFFFC0003FFE0001FFFFFFC0
310
003FFF0003FFFFFFFFC0007FFFFFE00070008000FFFFFFC0007FFF0000007FF8
310
000003FFFF80007F0001FFFFFF8000F8000FFFFFF8000FF8000001FFFE000000
310
7FFFFFF0001FFFFFFE0001FFFFFFC0003FFE0001FFFFFFC0003FFF0003FFFFFF
310
FFC000FFFFFFE00070008000FFFFFFC0007FFF0000007FF8000003FFFF80007F
310
0001FFFFFF8000F8001FFFFFF8000FF8000001FFFE0000007FFFFFF0001FFFFF
310
FE0003FFFFFFE0003FFE0003FFFFFFE0003FFF0003FFFFFFFFC000FFFFFFE000
310
70008000FFFFFFC0007FFE0000007FF8000003FFFF80007F0001FFFFFF8000F0
310
001FFFFFF8000FF8000001FFFE0000007FFFFFF0001FFFFFFC0003FFFFFFE000
310
1FFC0003FFFFFFE0001FFF0003FFFFFFFFC000FFFFFFC00070008000FFFFFF80
310
007FFE0000007FF0000003FFFF80007F0001FFFFFF0000F0001FFFFFF8000FF8
310
000001FFFE0000007FFFFFF0001FFFFFFC0007FFFFFFF0001FFC0007FFFFFFF0
310
001FFF0003FFFFFFFFC000FFFFFFC00070008001FFFFFF0000FFFE0000003FF0
310
000001FFFF80007F0001FFFFFF0000F8001FFFFFF0000FF8000001FFFE000000
310
7FFFFFF0001FFFFFFC0007FFFFFFF0001FFC0007FFFFFFF0001FFF0003FFFFFF
310
FFC001FFFFFF80007000FFFFFFFFFE0000FFFE0008003FF0008001FFFF80007F
310
FFFFFFFFFC0000FFFFFFFFFFE0000FF8000001FFFE0000007FFFFFF0001FFFFF
310
F8000FFFFFFFF8000FF8000FFFFFFFF8000FFF0003FFFFFFFFFFFFFFFFFF0000
310
7000FFFFFFFFFC0000FFFC0008003FF0008001FFFF80007FFFFFFFFFF80001FF
310
FFFFFFFF80000FF8000001FFFE0000007FFFFFF0001FFFFFF8000FFFFFFFF800
310
0FF8000FFFFFFFF8000FFF0003FFFFFFFFFFFFFFFFFE0000F000FFFFFFFFE000
310
00FFFC000C003FE000C001FFFF80007FFFFFFFFFC00001FFFFFFFFFE00001FF8
310
000001FFFE0000007FFFFFF0001FFFFFF8000FFFFFFFF8000FF8000FFFFFFFF8
310
000FFF0003FFFFFFFFFFFFFFFFF00000F000FFFFFFFE000001FFFC000C001FE0
310
00C000FFFF80007FFFFFFFFE000001FFFFFFFFE000001FF80FFFFFFFFFFFFFC0
310
7FFFFFF0001FFFFFF8000FFFFFFFF8000FF8000FFFFFFFF8000FFF0003FFFFFF
310
FFFFFFFFFF800000F000FFFFFFC0000001FFFC001C001FE001C000FFFF80007F
310
FFFFFF80000003FFFFFFF80000001FF80FFFFFFFFFFFFFC07FFFFFF0001FFFFF
310
F8001FFFFFFFFC000FF8001FFFFFFFFC000FFF0003FFFFFFFFFFFFFFF0000001
310
F000FFFFF800000001FFF8001C001FE001C000FFFF80007FFFFFF800000003FF
310
FFFF800000003FF80FFFFFFFFFFFFFC07FFFFFF0001FFFFFF8001FFFFFFFFC00
310
0FF8001FFFFFFFFC000FFF0003FFFFFFFFFFFFFE00000001F000FFFFC0000000
310
03FFF8001E001FC001E000FFFF80007FFFFF8000000007FFFFFC000000003FF8
310
0FFFFFFFFFFFFFC07FFFFFF0001FFFFFF8001FFFFFFFFC000FF8001FFFFFFFFC
310
000FFF0003FFFFFFFFFFFFE000000003F000FFFE0000000007FFF8001E000FC0
310
01E0007FFF80007FFFFE0000000007FFFFE0000000007FF80FFFFFFFFFFFFFC0
310
7FFFFFF0001FFFFFF0001FFFFFFFFC0007F0001FFFFFFFFC0007FF0003FFFFFF
310
FFFFFF0000000003F000FFF80000000007FFF8001E000FC003E0007FFF80007F
310
FFF0000000000FFFFF8000000000FFF80FFFFFFFFFFFFFC07FFFFFF0001FFFFF
310
F0001FFFFFFFFC0007F0001FFFFFFFFC0007FF0003FFFFFFFFFFFC0000000007
310
F000FFE0000000000FFFF0003E000FC003E0007FFF80007FFFC0000000001FFF
310
FE0000000001FFF80FFFFFFFFFFFFFC07FFFFFF0001FFFFFF0001FFFFFFFFC00
310
07F0001FFFFFFFFC0007FF0003FFFFFFFFFFF0000000000FF000FFC000000000
310
1FFFF0003F000F8003F0003FFF80007FFF80000000003FFFF80000000003FFF8
310
0FFFFFFFFFFFFFC07FFFFFF0001FFFFFF0001FFFFFFFFC0007F0001FFFFFFFFC
310
0007FF0003FFFFFFFFFFE0000000001FF000FF00000000007FFFF0003F000780
310
03F0003FFF80007FFF00000000007FFFF00000000007FFF80FFFFFFFFFFFFFC0
310
7FFFFFF0001FFFFFF0001FFFFFFFFC0007F0001FFFFFFFFC0007FF0003FFFFFF
310
FFFF80000000007FF000FE0000000000FFFFE0003F00078007F0003FFF80007F
310
FE0000000001FFFFE0000000001FFFF80FFFFFFFFFFFFFC07FFFFFF0001FFFFF
310
F0001FFFFFFFFC0007F0001FFFFFFFFC0007FF0003FFFFFFFFFF0000000000FF
310
F000FC0000000003FFFFE0007F00078007F0003FFF80007FFC0000000007FFFF
310
C0000000007FFFF80FFFFFFFFFFFFFC07FFFFFF0001FFFFFF8001FFFFFFFFC00
310
0FF8001FFFFFFFFC000FFF0003FFFFFFFFFE0000000003FFF000FC000000000F
310
FFFFE0007F80070007F8001FFF80007FF8000000001FFFFF8000000001FFFFF8
310
0FFFFFFFFFFFFFC07FFFFFF0001FFFFFF8001FFFFFFFFC000FF8001FFFFFFFFC
310
000FFF0003FFFFFFFFFC000000000FFFF000F8000000007FFFFFE0007F800700
310
07F8001FFF80007FF000000000FFFFFF800000000FFFFFF80FFFFFFFFFFFFFC0
310
7FFFFFF0001FFFFFF8000FFFFFFFF8000FF8000FFFFFFFF8000FFF0003FFFFFF
310
FFFC000000007FFFF000F800000007FFFFFFC0007F8003000FF8001FFF80007F
310
F000000007FFFFFF000000007FFFFFF80FFFFFFFFFFFFFC07FFFFFF0001FFFFF
310
F8000FFFFFFFF8000FF8000FFFFFFFF8000FFF0003FFFFFFFFF80000000FFFFF
310
F000F0000000FFFFFFFFC000FF8003000FF8001FFF80007FE0000000FFFFFFFF
310
0000000FFFFFFFF8000001FFFE0000007FFFFFF0001FFFFFF8000FFFFFFFF800
310
0FF8000FFFFFFFF8000FFF0003FFFFFFFFF8000000FFFFFFF000F000000FFFFF
310
FFFFC000FFC002000FF8000FFF80007FE000001FFFFFFFFE000001FFFFFFFFF8
310
000001FFFE0000007FFFFFF0001FFFFFF8000FFFFFFFF8000FF8000FFFFFFFF8
310
000FFF0003FFFFFFFFF000001FFFFFFFF000E00000FFFFFFFFFFC000FFC00200
310
0FFC000FFF80007FE00001FFFFFFFFFE00001FFFFFFFFFF8000001FFFE000000
310
7FFFFFF0001FFFFFFC000FFFFFFFF8001FFC000FFFFFFFF8001FFF0003FFFFFF
310
FFF00001FFFFFFFFF000E00007FFFFFFFFFF8000FFC000001FFC000FFF80007F
310
C0000FFFFFFFFFFE0000FFFFFFFFFFF8000001FFFE0000007FFFFFF0001FFFFF
310
FC0007FFFFFFF0001FFC0007FFFFFFF0001FFF0003FFFFFFFFF00007FFFFFFFF
310
F000E0001FFFFFFFFFFF8000FFC000001FFC000FFF80007FC0003FFFFFFFFFFE
310
0001FFFFFFFFFFF8000001FFFE0000007FFFFFF0001FFFFFFC0007FFFFFFF000
310
1FFC0007FFFFFFF0001FFF0003FFFFFFFFF0001FFFFFFFFFF000E0003FFFFF00
310
03FF8001FFE000001FFC0007FF80007FC0007FFFFF0007FC0003FFFFF0003FF8
310
000001FFFE0000007FFFFFF0001FFFFFFC0003FFFFFFE0001FFC0003FFFFFFE0
310
001FFF0003FFFFFFFFF0003FFFFFFFFFF000E0003FFFFF0001FF8001FFE00000
310
1FFE0007FF80007FC0007FFFFE0003FC0007FFFFE0003FF8000001FFFE000000
310
7FFFFFF0001FFFFFFE0003FFFFFFE0003FFE0003FFFFFFE0003FFF0003FFFFFF
310
FFF0003FFFFF8001F000E0003FFFFF0001FF0001FFE000001FFE0007FF80007F
310
C0007FFFFE0003FC0007FFFFE0003FF8000001FFFE0000007FFFFFF0001FFFFF
310
FE0001FFFFFFC0003FFE0001FFFFFFC0003FFF0003FFFFFFFFF0003FFFFF0001
310
F000E0003FFFFF0003FF0001FFE000003FFE0007FF80007FC0007FFFFE0003FC
310
0007FFFFE0003FF8000001FFFE0000007FFFFFF0001FFFFFFF0001FFFFFFC000
310
7FFF0001FFFFFFC0007FFF0003FFFFFFFFF0003FFFFF0001F000E0003FFFFE00
310
03FF0003FFF000003FFE0003FF80007FC0007FFFFC0003FE0007FFFFE0003FF8
310
000001FFFE0000007FFFFFF0001FFFFFFF0000FFFFFF80007FFF0000FFFFFF80
310
007FFF0003FFFFFFFFF0003FFFFF0001F000E0003FFFFE0003FF0003FFF00000
310
3FFF0003FF80007FC0007FFFFC0007FE0007FFFFC0003FF8000001FFFE000000
310
7FFFFFF0001FFFFFFF80007FFFFF0000FFFF80007FFFFF0000FFFF0003FFFFFF
310
FFF0003FFFFF0003F000E0003FFFFC0003FE0003FFF000003FFF0003FF80007F
310
E0003FFFF80007FE0003FFFFC0007FF8000001FFFE0000007FFFFFF0001FFFFF
310
FF80003FFFFE0000FFFF80003FFFFE0000FFFF0003FFFFFFFFF0001FFFFE0003
310
F000F0001FFFF80003FE0003FFF000007FFF0001FF80007FE0003FFFF00007FE
310
0001FFFF80007FF8000001FFFE0000007FFFFFF0001FFFFFFFC0000FFFF80001
310
FFFFC0000FFFF80001FFFF0003FFFFFFFFF0001FFFFC0003F000F0000FFFF000
310
07FE0007FFF800007FFF0001FF80007FE0001FFFE00007FF0000FFFE00007FF8
310
000001FFFE0000007FFFFFF0001FFFFFFFC00003FFE00001FFFFC00003FFE000
310
01FFFF0003FFFFFFFFF8000FFFF80003F000F00003FFC00007FC0007FFF80000
310
7FFF8001FF80007FF00007FF80000FFF00007FF80000FFF8000001FFFE000000
310
7F80000000000001FFE000003E000003FFFFE000003E000003FFFF0003FFFFFF
310
FFF80003FFE00007F000F800000000000FFC0007FFF800007FFF8001FF80007F
310
F000000000000FFF000000000000FFF8000001FFFE0000007F80000000000001
310
FFF0000000000007FFFFF0000000000007FFFF0003FFFFFFFFFC00007E000007
310
F000F800000000000FFC0007FFF80000FFFF8000FF80007FF800000000001FFF
310
800000000001FFF8000001FFFE0000007F80000000000001FFF800000000000F
310
FFFFF800000000000FFFFF0003FFFFFFFFFC00000000000FF000FC0000000000
310
1FFC0007FFFC0000FFFF8000FF80007FF800000000003FFFC00000000001FFF8
310
000001FFFE0000007F80000000000001FFF800000000000FFFFFF80000000000
310
0FFFFF0003FFFFFFFFFE00000000001FF000FE00000000003FF8000FFFFC0000
310
FFFF8000FF80007FFC00000000003FFFC00000000003FFF8000001FFFE000000
310
7F80000000000001FFFC00000000001FFFFFFC00000000001FFFFF0003FFFFFF
310
FFFF00000000001FF000FF00000000003FF8000FFFFC0000FFFFC000FF80007F
310
FE00000000007FFFE00000000007FFF8000001FFFE0000007F80000000000001
310
FFFE00000000003FFFFFFE00000000003FFFFF0003FFFFFFFFFF80000000003F
310
F000FF80000000007FF8000FFFFC0001FFFFC0007F80007FFF0000000000FFFF
310
F0000000000FFFF800000000000000007F80000000000001FFFF8000000000FF
310
FFFFFF8000000000FFFFFF0003FFFFFFFFFFC0000000007FF000FFC000000000
310
FFF8000FFFFE0001FFFFC0007F80007FFF8000000001FFFFF8000000001FFFF8
310
00000000000000007F80000000000001FFFFC000000001FFFFFFFFC000000001
310
FFFFFF0003FFFFFFFFFFE000000000FFF000FFE000000003FFF0001FFFFE0001
310
FFFFC0007F80007FFFC000000007FFFFFE000000003FFFF80000000000000000
310
7F80000000000001FFFFE000000003FFFFFFFFE000000003FFFFFF0003FFFFFF
310
FFFFF000000003FFF000FFF80000000FFFF0001FFFFE0001FFFFE0007F80007F
310
FFF00000000FFFFFFF00000000FFFFF800000000000000007F80000000000001
310
FFFFF80000000FFFFFFFFFF80000000FFFFFFF0003FFFFFFFFFFFC0000000FFF
310
F000FFFE0000003FFFF0001FFFFE0003FFFFE0003F80007FFFFC0000003FFFFF
310
FFC0000003FFFFF800000000000000007F80000000000001FFFFFE0000003FFF
310
FFFFFFFE0000003FFFFFFF0003FFFFFFFFFFFF0000003FFFF000FFFF800000FF
310
FFF0001FFFFF0003FFFFE0003F80007FFFFF000001FFFFFFFFF800001FFFFFF8
310
00000000000000007F80000000000001FFFFFFC00001FFFFFFFFFFFFC00001FF
310
FFFFFF0003FFFFFFFFFFFFC00000FFFFF000FFFFF8000FFFFFFFFFFFFFFFFFFF
310
FFFFFFFFFFFFFFFFFFFFF0001FFFFFFFFFFF0000FFFFFFF80000000000000000
310
7FFFFFFFFFFFFFFFFFFFFFFC001FFFFFFFFFFFFFFC001FFFFFFFFFFFFFFFFFFF
310
FFFFFFFC001FFFFFF000FFFFFFFFFFFFFFFFFFFFFFFFFFFFFFFFFFFFFFFFFFFF
310
FFFFFFFFFFFFFFFFFFFFFFFFFFFFFFFFFFFFFFFFFFFFFFFFFFFFFFFFFFFFFFFF
310
FFFFFFFFFFFFFFFFFFFFFFFFFFFFFFFFFFFFFFFFFFFFFFFFFFFFFFFFFFFFFFFF
310
F000FFFFFFFFFFFFFFFFFFFFFFFFFFFFFFFFFFFFFFFFFFFFFFFFFFFFFFFFFFFF
310
FFFFFFFFFFFFFFFFFFFFFFFFFFFFFFFFFFFFFFFFFFFFFFFFFFFFFFFFFFFFFFFF
310
FFFFFFFFFFFFFFFFFFFFFFFFFFFFFFFFFFFFFFFFFFFFFFFFF000FFFFFFFFFFFF
310
FFFFFFFFFFFFFFFFFFFFFFFFFFFFFFFFFFFFFFFFFFFFFFFFFFFFFFFFFFFFFFFF
310
FFFFFFFFFFFFFFFFFFFFFFFFFFFFFFFFFFFFFFFFFFFFFFFFFFFFFFFFFFFFFFFF
310
FFFFFFFFFFFFFFFFFFFFFFFFFFFFFFFFF000FFFFFFFFFFFFFFFFFFFFFFFFFFFF
310
FFFFFFFFFFFFFFFFFFFFFFFFFFFFFFFFFFFFFFFFFFFFFFFFFFFFFFFFFFFFFFFF
310
FFFFFFFFFFFFFFFFFFFFFFFFFFFFFFFFFFFFFFFFFFFFFFFFFFFFFFFFFFFFFFFF
310
FFFFFFFFFFFFFFFFF000FFFFFFFFFFFFFFFFFFFFFFFFFFFFFFFFFFFFFFFFFFFF
310
FFFFFFFFFFFFFFFFFFFFFFFFFFFFFFFFFFFFFFFFFFFFFFFFFFFFFFFFFFFFFFFF
310
FFFFFFFFFFFFFFFFFFFFFFFFFFFFFFFFFFFFFFFFFFFFFFFFFFFFFFFFFFFFFFFF
310
F000FFFFFFFFFFFFFFFFFFFFFFFFFFFFFFFFFFFFFFFFFFFFFFFFFFFFFFFFFFFF
310
FFFFFFFFFFFFFFFFFFFFFFFFFFFFFFFFFFFFFFFFFFFFFFFFFFFFFFFFFFFFFFFF
310
FFFFFFFFFFFFFFFFFFFFFFFFFFFFFFFFFFFFFFFFFFFFFFFFF000FFFFFFFFFFFF
310
FFFFFFFFFFFFFFFFFFFFFFFFFFFFFFFFFFFFFFFFFFFFFFFFFFFFFFFFFFFFFFFF
310
FFFFFFFFFFFFFFFFFFFFFFFFFFFFFFFFFFFFFFFFFFFFFFFFFFFFFFFFFFFFFFFF
310
FFFFFFFFFFFFFFFFFFFFFFFFFFFFFFFFF000FFFFFFFFFFFFFFFFFFFFFFFFFFFF
310
FFFFFFFFFFFFFFFFFFFFFFFFFFFFFFFFFFFFFFFFFFFFFFFFFFFFFFFFFFFFFFFF
310
FFFFFFFFFFFFFFFFFFFFFFFFFFFFFFFFFFFFFFFFFFFFFFFFFFFFFFFFFFFFFFFF
310
FFFFFFFFFFFFFFFFF000FFFFFFFFFFFFFFFFFFFFFFFFFFFFFFFFFFFFFFFFFFFF
310
FFFFFFFFFFFFFFFFFFFFFFFFFFFFFFFFFFFFFFFFFFFFFFFFFFFFFFFFFFFFFFFF
310
FFFFFFFFFFFFFFFFFFFFFFFFFFFFFFFFFFFFFFFFFFFFFFFFFFFFFFFFFFFFFFFF
310
F000FFFFFFFFFFFFFFFFFFFFFFFFFFFFFFFFFFFFFFFFFFFFFFFFFFFFFFFFFFFF
310
FFFFFFFFFFFFFFFFFFFFFFFFFFFFFFFFFFFFFFFFFFFFFFFFFFFFFFFFFFFFFFFF
310
FFFFFFFFFFFFFFFFFFFFFFFFFFFFFFFFFFFFFFFFFFFFFFFFF000FFFFFFFFFFFF
310
FFFFFFFFFFFFFFFFFFFFFFFFFFFFFFFFFFFFFFFFFFFFFFFFFFFFFFFFFFFFFFFF
310
FFFFFFFFFFFFFFFFFFFFFFFFFFFFFFFFFFFFFFFFFFFFFFFFFFFFFFFFFFFFFFFF
310
FFFFFFFFFFFFFFFFFFFFFFFFFFFFFFFFF000FFFFFFFFFFFFFFFFFFFFFFFFFFFF
310
FFFFFFFFFFFFFFFFFFFFFFFFFFFFFFFFFFFFFFFFFFFFFFFFFFFFFFFFFFFFFFFF
310
FFFFFFFFFFFFFFFFFFFFFFFFFFFFFFFFFFFFFFFFFFFFFFFFFFFFFFFFFFFFFFFF
310
FFFFFFFFFFFFFFFFF000FFFFFFFFFFFFFFFFFFFFFFFFFFFFFFFFFFFFFFFFFFFF
310
FFFFFFFFFFFFFFFFFFFFFFFFFFFFFFFFFFFFFFFFFFFFFFFFFFFFFFFFFFFFFFFF
310
FFFFFFFFFFFFFFFFFFFFFFFFFFFFFFFFFFFFFFFFFFFFFFFFFFFFFFFFFFFFFFFF
310
F000FFFFFFFFFFFFFFFFFFFFFFFFFFFFFFFFFFFFFFFFFFFFFFFFFFFFFFFFFFFF
310
FFFFFFFFFFFFFFFFFFFFFFFFFFFFFFFFFFFFFFFFFFFFFFFFFFFFFFFFFFFFFFFF
310
FFFFFFFFFFFFFFFFFFFFFFFFFFFFFFFFFFFFFFFFFFFFFFFFF000FFFFFFFFFFFF
310
FFFFFFFFFFFFFFFFFFFFFFFFFFFFFFFFFFFFFFFFFFFFFFFFFFFFFFFFFFFFFFFF
310
FFFFFFFFFFFFFFFFFFFFFFFFFFFFFFFFFFFFFFFFFFFFFFFFFFFFFFFFFFFFFFFF
310
FFFFFFFFFFFFFFFFFFFFFFFFFFFFFFFFF000FFFFFFFFFFFFFFFFFFFFFFFFFFFF
310
FFFFFFFFFFFFFFFFFFFFFFFFFFFFFFFFFFFFFFFFFFFFFFFFFFFFFFFFFFFFFFFF
310
FFFFFFFFFFFFFFFFFFFFFFFFFFFFFFFFFFFFFFFFFFFFFFFFFFFFFFFFFFFFFFFF
310
FFFFFFFFFFFFFFFFF000FFFFFFFFFFFFFFFFFFFFFFFFFFFFFFFFFFFFFFFFFFFF
310
FFFFFFFFFFFFFFFFFFFFFFFFFFFFFFFFFFFFFFFFFFFFFFFFFFFFFFFFFFFFFFFF
310
FFFFFFFFFFFFFFFFFFFFFFFFFFFFFFFFFFFFFFFFFFFFFFFFFFFFFFFFFFFFFFFF
310
F000FFFFFFFFFFFFFFFFFFFFFFFFFFFFFFFFFFFFFFFFFFFFFFFFFFFFFFFFFFFF
310
FFFFFFFFFFFFFFFFFFFFFFFFFFFFFFFFFFFFFFFFFFFFFFFFFFFFFFFFFFFFFFFF
310
FFFFFFFFFFFFFFFFFFFFFFFFFFFFFFFFFFFFFFFFFFFFFFFFF000FFFFFFFFFFFF
310
FFFFFFFFFFFFFFFFFFFFFFFFFFFFFFFFFFFFFFFFFFFFFFFFFFFFFFFFFFFFFFFF
310
FFFFFFFFFFFFFFFFFFFFFFFFFFFFFFFFFFFFFFFFFFFFFFFFFFFFFFFFFFFFFFFF
310
FFFFFFFFFFFFFFFFFFFFFFFFFFFFFFFFF000FFFFFFFFFFFFFFFFFFFFFFFFFFFF
310
FFFFFFFFFFFFFFFFFFFFFFFFFFFFFFFFFFFFFFFFFFFFFFFFFFFFFFFFFFFFFFFF
310
FFFFFFFFFFFFFFFFFFFFFFFFFFFFFFFFFFFFFFFFFFFFFFFFFFFFFFFFFFFFFFFF
310
FFFFFFFFFFFFFFFFF000FFFFFFFFFFFFFFFFFFFFFFFFFFFFFFFFFFFFFFFFFFFF
310
FFFFFFFFFFFFFFFFFFFFFFFFFFFFFFFFFFFFFFFFFFFFFFFFFFFFFFFFFFFFFFFF
310
FFFFFFFFFFFFFFFFFFFFFFFFFFFFFFFFFFFFFFFFFFFFFFFFFFFFFFFFFFFFFFFF
310
F000FFFFFFFFFFFFFFFFFFFFFFFFFFFFFFFFFFFFFFFFFFFFFFFFFFFFFFFFFFFF
310
FFFFFFFFFFFFFFFFFFFFFFFFFFFFFFFFFFFFFFFFFFFFFFFFFFFFFFFFFFFFFFFF
310
FFFFFFFFFFFFFFFFFFFFFFFFFFFFFFFFFFFFFFFFFFFFFFFFF000FFFFFFFFFFFF
310
FFFFFFFFFFFFFFFFFFFFFFFFFFFFFFFFFFFFFFFFFFFFFFFFFFFFFFFFFFFFFFFF
310
FFFFFFFFFFFFFFFFFFFFFFFFFFFFFFFFFFFFFFFFFFFFFFFFFFFFFFFFFFFFFFFF
310
FFFFFFFFFFFFFFFFFFFFFFFFFFFFFFFFF0000000000000000000000000000000
310
0000000000000000000000000000000000000000000000000000000000000000
310
0000000000000000000000000000000000000000000000000000000000000000
310
0000000000000000000000000000000000000000000000000000000000000000
310
0000000000000000000000000000000000000000000000000000000000000000
310
0000000000000000000000000000000000000000000000000000000000000000
310
0000000000000000000000000000000000000000000000000000000000000000
310
0000000000000000000000000000000000000000000000000000000000000000
310
0000000000000000000000000000000000000000000000000000000000000000
310
0000000000000000000000000000000000000000000000000000000000000000
310
0000000000000000000000000000000000000000000000000000000000000000
310
0000000000000000000000000000000000000000000000000000000000000000
310
0000000000000000000000000000000000000000000000000000000000000000
310
0000000000000000000000000000000000000000000000000000000000000000
310
0000000000000000000000000000000000000000000000000000000000000000
310
0000000000000000000000000000000000000000000000000000000000000000
  1
OLE
  0
ENDSEC
  0
SECTION
  2
OBJECTS
  0
DICTIONARY
  5
C
330
0
100
AcDbDictionary
281
     1
  3
ACAD_GROUP
350
D
  3
ACAD_LAYOUT
350
1A
  3
ACAD_MLINESTYLE
350
17
  3
ACAD_PLOTSETTINGS
350
19
  3
ACAD_PLOTSTYLENAME
350
E
  3
ACAD_SCALELIST
350
47
  0
DICTIONARY
  5
D
102
{ACAD_REACTORS
330
C
102
}
330
C
100
AcDbDictionary
281
     1
  0
DICTIONARY
  5
1A
102
{ACAD_REACTORS
330
C
102
}
330
C
100
AcDbDictionary
281
     1
  3
Layout1
350
1E
  3
Layout2
350
26
  3
Model
350
22
  0
DICTIONARY
  5
17
102
{ACAD_REACTORS
330
C
102
}
330
C
100
AcDbDictionary
281
     1
  3
Standard
350
18
  0
DICTIONARY
  5
19
102
{ACAD_REACTORS
330
C
102
}
330
C
100
AcDbDictionary
281
     1
  0
ACDBDICTIONARYWDFLT
  5
E
102
{ACAD_REACTORS
330
C
102
}
330
C
100
AcDbDictionary
281
     1
  3
Normal
350
F
100
AcDbDictionaryWithDefault
340
F
  0
DICTIONARY
  5
47
102
{ACAD_REACTORS
330
C
102
}
330
C
100
AcDbDictionary
281
     1
  3
A0
350
48
  3
A1
350
49
  3
A2
350
4A
  3
A3
350
4B
  3
A4
350
4C
  3
A5
350
4D
  3
A6
350
4E
  3
A7
350
4F
  3
A8
350
50
  3
A9
350
51
  3
B0
350
52
  3
B1
350
53
  3
B2
350
54
  3
B3
350
55
  3
B4
350
56
  3
B5
350
57
  3
B6
350
58
  3
B7
350
59
  3
B8
350
5A
  3
B9
350
5B
  3
C0
350
5C
  3
C1
350
5D
  3
C2
350
5E
  3
C3
350
5F
  3
C4
350
60
  3
C5
350
61
  3
C6
350
62
  3
C7
350
63
  3
C8
350
64
  3
C9
350
65
  3
D0
350
66
  3
D1
350
67
  3
D2
350
68
  0
LAYOUT
  5
1E
102
{ACAD_REACTORS
330
1A
102
}
330
1A
100
AcDbPlotSettings
  1

  2
none_device
  4

  6

 40
0.0
 41
0.0
 42
0.0
 43
0.0
 44
0.0
 45
0.0
 46
0.0
 47
0.0
 48
0.0
 49
0.0
140
0.0
141
0.0
142
1.0
143
1.0
 70
   688
 72
     1
 73
     0
 74
     5
  7

 75
    16
147
1.0
148
0.0
149
0.0
100
AcDbLayout
  1
Layout1
 70
     1
 71
     1
 10
0.0
 20
0.0
 11
420.0
 21
297.0
 12
0.0
 22
0.0
 32
0.0
 14
1.0000000000E+20
 24
1.0000000000E+20
 34
1.0000000000E+20
 15
-1.0000000000E+20
 25
-1.0000000000E+20
 35
-1.0000000000E+20
146
0.0
 13
0.0
 23
0.0
 33
0.0
 16
1.0
 26
0.0
 36
0.0
 17
0.0
 27
1.0
 37
0.0
 76
     0
330
1B
  0
LAYOUT
  5
26
102
{ACAD_REACTORS
330
1A
102
}
330
1A
100
AcDbPlotSettings
  1

  2
none_device
  4

  6

 40
0.0
 41
0.0
 42
0.0
 43
0.0
 44
0.0
 45
0.0
 46
0.0
 47
0.0
 48
0.0
 49
0.0
140
0.0
141
0.0
142
1.0
143
1.0
 70
   688
 72
     1
 73
     0
 74
     5
  7

 75
    16
147
1.0
148
0.0
149
0.0
100
AcDbLayout
  1
Layout2
 70
     1
 71
     2
 10
0.0
 20
0.0
 11
0.0
 21
0.0
 12
0.0
 22
0.0
 32
0.0
 14
0.0
 24
0.0
 34
0.0
 15
0.0
 25
0.0
 35
0.0
146
0.0
 13
0.0
 23
0.0
 33
0.0
 16
1.0
 26
0.0
 36
0.0
 17
0.0
 27
1.0
 37
0.0
 76
     0
330
23
  0
LAYOUT
  5
22
102
{ACAD_REACTORS
330
1A
102
}
330
1A
100
AcDbPlotSettings
  1

  2
none_device
  4
Letter_(8.50_x_11.00_Inches)
  6

 40
6.35
 41
6.35
 42
6.35000508
 43
6.35000508
 44
215.9
 45
279.4
 46
0.0
 47
0.0
 48
0.0
 49
0.0
140
0.0
141
0.0
142
1.0
143
1.0
 70
  1712
 72
     1
 73
     0
 74
     0
  7

 75
     0
147
1.0
148
0.0
149
0.0
100
AcDbLayout
  1
Model
 70
     1
 71
     0
 10
0.0
 20
0.0
 11
297.0
 21
210.0
 12
0.0
 22
0.0
 32
0.0
 14
0.0
 24
0.0
 34
0.0
 15
297.0
 25
210.0
 35
0.0
146
0.0
 13
0.0
 23
0.0
 33
0.0
 16
1.0
 26
0.0
 36
0.0
 17
0.0
 27
1.0
 37
0.0
 76
     0
330
1F
331
29
  0
MLINESTYLE
  5
18
102
{ACAD_REACTORS
330
17
102
}
330
17
100
AcDbMlineStyle
  2
Standard
 70
     0
  3

 62
   256
 51
90.0
 52
90.0
 71
     2
 49
0.5
 62
   256
  6
BYLAYER
 49
-0.5
 62
   256
  6
BYLAYER
  0
ACDBPLACEHOLDER
  5
F
102
{ACAD_REACTORS
330
E
102
}
330
E
  0
SCALE
  5
48
102
{ACAD_REACTORS
330
47
102
}
330
47
100
AcDbScale
 70
     0
300
1:1
140
1.0
141
1.0
290
     1
  0
SCALE
  5
49
102
{ACAD_REACTORS
330
47
102
}
330
47
100
AcDbScale
 70
     0
300
1:2
140
1.0
141
2.0
290
     0
  0
SCALE
  5
4A
102
{ACAD_REACTORS
330
47
102
}
330
47
100
AcDbScale
 70
     0
300
1:4
140
1.0
141
4.0
290
     0
  0
SCALE
  5
4B
102
{ACAD_REACTORS
330
47
102
}
330
47
100
AcDbScale
 70
     0
300
1:5
140
1.0
141
5.0
290
     0
  0
SCALE
  5
4C
102
{ACAD_REACTORS
330
47
102
}
330
47
100
AcDbScale
 70
     0
300
1:8
140
1.0
141
8.0
290
     0
  0
SCALE
  5
4D
102
{ACAD_REACTORS
330
47
102
}
330
47
100
AcDbScale
 70
     0
300
1:10
140
1.0
141
10.0
290
     0
  0
SCALE
  5
4E
102
{ACAD_REACTORS
330
47
102
}
330
47
100
AcDbScale
 70
     0
300
1:16
140
1.0
141
16.0
290
     0
  0
SCALE
  5
4F
102
{ACAD_REACTORS
330
47
102
}
330
47
100
AcDbScale
 70
     0
300
1:20
140
1.0
141
20.0
290
     0
  0
SCALE
  5
50
102
{ACAD_REACTORS
330
47
102
}
330
47
100
AcDbScale
 70
     0
300
1:30
140
1.0
141
30.0
290
     0
  0
SCALE
  5
51
102
{ACAD_REACTORS
330
47
102
}
330
47
100
AcDbScale
 70
     0
300
1:40
140
1.0
141
40.0
290
     0
  0
SCALE
  5
52
102
{ACAD_REACTORS
330
47
102
}
330
47
100
AcDbScale
 70
     0
300
1:50
140
1.0
141
50.0
290
     0
  0
SCALE
  5
53
102
{ACAD_REACTORS
330
47
102
}
330
47
100
AcDbScale
 70
     0
300
1:100
140
1.0
141
100.0
290
     0
  0
SCALE
  5
54
102
{ACAD_REACTORS
330
47
102
}
330
47
100
AcDbScale
 70
     0
300
2:1
140
2.0
141
1.0
290
     0
  0
SCALE
  5
55
102
{ACAD_REACTORS
330
47
102
}
330
47
100
AcDbScale
 70
     0
300
4:1
140
4.0
141
1.0
290
     0
  0
SCALE
  5
56
102
{ACAD_REACTORS
330
47
102
}
330
47
100
AcDbScale
 70
     0
300
8:1
140
8.0
141
1.0
290
     0
  0
SCALE
  5
57
102
{ACAD_REACTORS
330
47
102
}
330
47
100
AcDbScale
 70
     0
300
10:1
140
10.0
141
1.0
290
     0
  0
SCALE
  5
58
102
{ACAD_REACTORS
330
47
102
}
330
47
100
AcDbScale
 70
     0
300
100:1
140
100.0
141
1.0
290
     0
  0
SCALE
  5
59
102
{ACAD_REACTORS
330
47
102
}
330
47
100
AcDbScale
 70
     0
300
1/128" = 1'-0"
140
0.0078125
141
12.0
290
     0
  0
SCALE
  5
5A
102
{ACAD_REACTORS
330
47
102
}
330
47
100
AcDbScale
 70
     0
300
1/64" = 1'-0"
140
0.015625
141
12.0
290
     0
  0
SCALE
  5
5B
102
{ACAD_REACTORS
330
47
102
}
330
47
100
AcDbScale
 70
     0
300
1/32" = 1'-0"
140
0.03125
141
12.0
290
     0
  0
SCALE
  5
5C
102
{ACAD_REACTORS
330
47
102
}
330
47
100
AcDbScale
 70
     0
300
1/16" = 1'-0"
140
0.0625
141
12.0
290
     0
  0
SCALE
  5
5D
102
{ACAD_REACTORS
330
47
102
}
330
47
100
AcDbScale
 70
     0
300
3/32" = 1'-0"
140
0.09375
141
12.0
290
     0
  0
SCALE
  5
5E
102
{ACAD_REACTORS
330
47
102
}
330
47
100
AcDbScale
 70
     0
300
1/8" = 1'-0"
140
0.125
141
12.0
290
     0
  0
SCALE
  5
5F
102
{ACAD_REACTORS
330
47
102
}
330
47
100
AcDbScale
 70
     0
300
3/16" = 1'-0"
140
0.1875
141
12.0
290
     0
  0
SCALE
  5
60
102
{ACAD_REACTORS
330
47
102
}
330
47
100
AcDbScale
 70
     0
300
1/4" = 1'-0"
140
0.25
141
12.0
290
     0
  0
SCALE
  5
61
102
{ACAD_REACTORS
330
47
102
}
330
47
100
AcDbScale
 70
     0
300
3/8" = 1'-0"
140
0.375
141
12.0
290
     0
  0
SCALE
  5
62
102
{ACAD_REACTORS
330
47
102
}
330
47
100
AcDbScale
 70
     0
300
1/2" = 1'-0"
140
0.5
141
12.0
290
     0
  0
SCALE
  5
63
102
{ACAD_REACTORS
330
47
102
}
330
47
100
AcDbScale
 70
     0
300
3/4" = 1'-0"
140
0.75
141
12.0
290
     0
  0
SCALE
  5
64
102
{ACAD_REACTORS
330
47
102
}
330
47
100
AcDbScale
 70
     0
300
1" = 1'-0"
140
1.0
141
12.0
290
     0
  0
SCALE
  5
65
102
{ACAD_REACTORS
330
47
102
}
330
47
100
AcDbScale
 70
     0
300
1-1/2" = 1'-0"
140
1.5
141
12.0
290
     0
  0
SCALE
  5
66
102
{ACAD_REACTORS
330
47
102
}
330
47
100
AcDbScale
 70
     0
300
3" = 1'-0"
140
3.0
141
12.0
290
     0
  0
SCALE
  5
67
102
{ACAD_REACTORS
330
47
102
}
330
47
100
AcDbScale
 70
     0
300
6" = 1'-0"
140
6.0
141
12.0
290
     0
  0
SCALE
  5
68
102
{ACAD_REACTORS
330
47
102
}
330
47
100
AcDbScale
 70
     0
300
1'-0" = 1'-0"
140
12.0
141
12.0
290
     0
  0
ENDSEC
  0
EOF
